999
DXF file: y3m_c_001.dxf
999
Pro/ENGINEER 2011490 by Parametric Technology Corporation
  0
SECTION
  2
HEADER
  9
$ACADVER
  1
AC1021
  9
$DWGCODEPAGE
  3
ANSI_1252
  9
$EXTMAX
 10
594.0
 20
841.0
 30
0.0
  9
$EXTMIN
 10
0.0
 20
0.0
 30
0.0
  9
$LIMMIN
 10
0.0
 20
0.0
  9
$LIMMAX
 10
594.0
 20
841.0
  9
$VIEWCTR
 10
297.0
 20
420.5
  9
$VIEWSIZE
 40
841.0
  9
$CLAYER
  8
0
  9
$LTSCALE
 40
54.8207407407
  9
$CELTYPE
  6
BYLAYER
  9
$DIMSCALE
 40
1.0
  9
$DIMASZ
 40
2.5
  9
$DIMEXO
 40
6.2296296296
  9
$DIMDLI
 40
37.8761481481
  9
$DIMEXE
 40
17.9413333333
  9
$DIMCEN
 40
8.9706666667
  9
$DIMLFAC
 40
1.0
  9
$DIMBLK
  1
_CLOSED
  9
$DIMTXT
 40
3.0
  9
$DIMTOL
 70
1
  9
$DIMLIM
 70
0
  9
$DIMTFAC
 40
1.0
  9
$DIMTP
 40
0.01
  9
$DIMTM
 40
0.01
  9
$PDMODE
 70
3
  9
$PDSIZE
 40
0.3125
  9
$HANDSEED
  5
4A4
  9
$TILEMODE
 70
1
  9
$MEASUREMENT
 70
1
  9
$INSUNITS
 70
4
  0
ENDSEC
  0
SECTION
  2
CLASSES
  0
CLASS
  1
ACDBDICTIONARYWDFLT
  2
AcDbDictionaryWithDefault
  3
AutoCAD 2000
 90
0
 91
1
280
0
281
0
  0
CLASS
  1
ACDBPLACEHOLDER
  2
AcDbPlaceHolder
  3
AutoCAD 2000
 90
0
 91
1
280
0
281
0
  0
CLASS
  1
LAYOUT
  2
AcDbLayout
  3
AutoCAD 2000
 90
0
 91
0
280
0
281
0
  0
CLASS
  1
TABLESTYLE
  2
AcDbTableStyle
  3
ObjectDBX Classes
 90
2047
 91
1
280
0
281
0
  0
CLASS
  1
ACAD_TABLE
  2
AcDbTable
  3
ObjectDBX Classes
 90
1025
 91
1
280
0
281
1
  0
ENDSEC
  0
SECTION
  2
TABLES
  0
TABLE
  2
VPORT
  5
8
100
AcDbSymbolTable
 70
2
  0
VPORT
  5
1F4
100
AcDbSymbolTableRecord
100
AcDbViewportTableRecord
  2
*ACTIVE
 70
0
 10
0.0
 20
0.0
 11
1.0
 21
1.0
 12
297.0
 22
420.5
 13
0.0
 23
0.0
 14
1.0
 24
1.0
 15
0.0
 25
0.0
 16
0.0
 26
0.0
 36
1.0
 17
0.0
 27
0.0
 37
0.0
 40
841.0
 41
0.7063020214
 42
50.0
 43
0.0
 44
0.0
 50
0.0
 51
0.0
 71
0
 72
100
 73
1
 74
1
 75
0
 76
0
 77
0
 78
0
  0
ENDTAB
  0
TABLE
  2
LTYPE
  5
5
100
AcDbSymbolTable
 70
6
  0
LTYPE
  5
14
100
AcDbSymbolTableRecord
100
AcDbLinetypeTableRecord
  2
BYBLOCK
 70
0
  3

 72
65
 73
0
 40
0.0
  0
LTYPE
  5
15
100
AcDbSymbolTableRecord
100
AcDbLinetypeTableRecord
  2
BYLAYER
 70
0
  3

 72
65
 73
0
 40
0.0
  0
LTYPE
  5
16
100
AcDbSymbolTableRecord
100
AcDbLinetypeTableRecord
  2
CONTINUOUS
 70
64
  3
Solid line
 72
65
 73
0
 40
0.0
  0
LTYPE
  5
1F5
100
AcDbSymbolTableRecord
100
AcDbLinetypeTableRecord
  2
CENTER
 70
64
  3
____ _ ____ _ ____ _ ____ _ ____ _ ____ _ ____
 72
65
 73
4
 40
0.6
 49
0.375
 74
0
 49
-0.075
 74
0
 49
0.075
 74
0
 49
-0.075
 74
0
  0
LTYPE
  5
1F6
100
AcDbSymbolTableRecord
100
AcDbLinetypeTableRecord
  2
HIDDEN
 70
64
  3
- - - - - - - - - - - - - - - - - - - -
 72
65
 73
2
 40
0.2
 49
0.1
 74
0
 49
-0.1
 74
0
  0
LTYPE
  5
1F7
100
AcDbSymbolTableRecord
100
AcDbLinetypeTableRecord
  2
PHANTOM
 70
64
  3
_____ _ _ _____ _ _ _____ _ _ _____
 72
65
 73
6
 40
0.8
 49
0.45
 74
0
 49
-0.05
 74
0
 49
0.1
 74
0
 49
-0.05
 74
0
 49
0.1
 74
0
 49
-0.05
 74
0
  0
LTYPE
  5
1F8
100
AcDbSymbolTableRecord
100
AcDbLinetypeTableRecord
  2
DOT
 70
64
  3
. . . . . . . . . . . . . . . . . . . .
 72
65
 73
2
 40
0.2
 49
0.1
 74
0
 49
-0.1
 74
0
  0
LTYPE
  5
1F9
100
AcDbSymbolTableRecord
100
AcDbLinetypeTableRecord
  2
DASHED
 70
64
  3
- - - - - - - - - - - - - - - - - - - -
 72
65
 73
2
 40
0.2
 49
0.1
 74
0
 49
-0.1
 74
0
  0
ENDTAB
  0
TABLE
  2
LAYER
  5
2
100
AcDbSymbolTable
 70
36
  0
LAYER
  5
10
100
AcDbSymbolTableRecord
100
AcDbLayerTableRecord
  2
0
 70
0
 62
7
  6
CONTINUOUS
370
-3
390
F
  0
LAYER
  5
1FA
100
AcDbSymbolTableRecord
100
AcDbLayerTableRecord
  2
DEFAULT_1
 70
0
 62
7
  6
CENTER
370
-3
390
F
  0
LAYER
  5
1FB
100
AcDbSymbolTableRecord
100
AcDbLayerTableRecord
  2
DEFAULT_2
 70
0
 62
8
  6
HIDDEN
370
-3
390
F
  0
LAYER
  5
1FC
100
AcDbSymbolTableRecord
100
AcDbLayerTableRecord
  2
DEFAULT_3
 70
0
 62
7
  6
PHANTOM
370
-3
390
F
  0
LAYER
  5
1FD
100
AcDbSymbolTableRecord
100
AcDbLayerTableRecord
  2
01_ALL_DTM_PLN
 70
0
 62
7
  6
CONTINUOUS
370
-3
390
F
  0
LAYER
  5
1FE
100
AcDbSymbolTableRecord
100
AcDbLayerTableRecord
  2
01__ASM_ALL_DTM_PLN
 70
0
 62
7
  6
CONTINUOUS
370
-3
390
F
  0
LAYER
  5
1FF
100
AcDbSymbolTableRecord
100
AcDbLayerTableRecord
  2
01__ASM_DEF_DTM_PLN
 70
0
 62
7
  6
CONTINUOUS
370
-3
390
F
  0
LAYER
  5
200
100
AcDbSymbolTableRecord
100
AcDbLayerTableRecord
  2
01___PRT_ALL_DTM_PLN
 70
0
 62
7
  6
CONTINUOUS
370
-3
390
F
  0
LAYER
  5
201
100
AcDbSymbolTableRecord
100
AcDbLayerTableRecord
  2
01___PRT_DEF_DTM_PLN
 70
0
 62
7
  6
CONTINUOUS
370
-3
390
F
  0
LAYER
  5
202
100
AcDbSymbolTableRecord
100
AcDbLayerTableRecord
  2
02_ALL_AXES
 70
0
 62
7
  6
CONTINUOUS
370
-3
390
F
  0
LAYER
  5
203
100
AcDbSymbolTableRecord
100
AcDbLayerTableRecord
  2
02__ASM_ALL_AXES
 70
0
 62
7
  6
CONTINUOUS
370
-3
390
F
  0
LAYER
  5
204
100
AcDbSymbolTableRecord
100
AcDbLayerTableRecord
  2
02___PRT_ALL_AXES
 70
0
 62
7
  6
CONTINUOUS
370
-3
390
F
  0
LAYER
  5
205
100
AcDbSymbolTableRecord
100
AcDbLayerTableRecord
  2
03_ALL_CURVES
 70
0
 62
7
  6
CONTINUOUS
370
-3
390
F
  0
LAYER
  5
206
100
AcDbSymbolTableRecord
100
AcDbLayerTableRecord
  2
03__ASM_ALL_CURVES
 70
0
 62
7
  6
CONTINUOUS
370
-3
390
F
  0
LAYER
  5
207
100
AcDbSymbolTableRecord
100
AcDbLayerTableRecord
  2
03___PRT_ALL_CURVES
 70
0
 62
7
  6
CONTINUOUS
370
-3
390
F
  0
LAYER
  5
208
100
AcDbSymbolTableRecord
100
AcDbLayerTableRecord
  2
04_ALL_DTM_PNT
 70
0
 62
7
  6
CONTINUOUS
370
-3
390
F
  0
LAYER
  5
209
100
AcDbSymbolTableRecord
100
AcDbLayerTableRecord
  2
04__ASM_ALL_DTM_PNT
 70
0
 62
7
  6
CONTINUOUS
370
-3
390
F
  0
LAYER
  5
20A
100
AcDbSymbolTableRecord
100
AcDbLayerTableRecord
  2
04___PRT_ALL_DTM_PNT
 70
0
 62
7
  6
CONTINUOUS
370
-3
390
F
  0
LAYER
  5
20B
100
AcDbSymbolTableRecord
100
AcDbLayerTableRecord
  2
05_ALL_DTM_CSYS
 70
0
 62
7
  6
CONTINUOUS
370
-3
390
F
  0
LAYER
  5
20C
100
AcDbSymbolTableRecord
100
AcDbLayerTableRecord
  2
05__ASM_ALL_DTM_CSYS
 70
0
 62
7
  6
CONTINUOUS
370
-3
390
F
  0
LAYER
  5
20D
100
AcDbSymbolTableRecord
100
AcDbLayerTableRecord
  2
05__ASM_DEF_DTM_CSYS
 70
0
 62
7
  6
CONTINUOUS
370
-3
390
F
  0
LAYER
  5
20E
100
AcDbSymbolTableRecord
100
AcDbLayerTableRecord
  2
05___PRT_ALL_DTM_CSYS
 70
0
 62
7
  6
CONTINUOUS
370
-3
390
F
  0
LAYER
  5
20F
100
AcDbSymbolTableRecord
100
AcDbLayerTableRecord
  2
05___PRT_DEF_DTM_CSYS
 70
0
 62
7
  6
CONTINUOUS
370
-3
390
F
  0
LAYER
  5
210
100
AcDbSymbolTableRecord
100
AcDbLayerTableRecord
  2
06_ALL_SURFS
 70
0
 62
7
  6
CONTINUOUS
370
-3
390
F
  0
LAYER
  5
211
100
AcDbSymbolTableRecord
100
AcDbLayerTableRecord
  2
06__ASM_ALL_SURFS
 70
0
 62
7
  6
CONTINUOUS
370
-3
390
F
  0
LAYER
  5
212
100
AcDbSymbolTableRecord
100
AcDbLayerTableRecord
  2
06___PRT_ALL_SURFS
 70
0
 62
7
  6
CONTINUOUS
370
-3
390
F
  0
LAYER
  5
213
100
AcDbSymbolTableRecord
100
AcDbLayerTableRecord
  2
07__ASM_ALL_SKELETONS
 70
0
 62
7
  6
CONTINUOUS
370
-3
390
F
  0
LAYER
  5
214
100
AcDbSymbolTableRecord
100
AcDbLayerTableRecord
  2
1_ALL_PLANES
 70
0
 62
7
  6
CONTINUOUS
370
-3
390
F
  0
LAYER
  5
215
100
AcDbSymbolTableRecord
100
AcDbLayerTableRecord
  2
2_ALL_CSYS
 70
0
 62
7
  6
CONTINUOUS
370
-3
390
F
  0
LAYER
  5
216
100
AcDbSymbolTableRecord
100
AcDbLayerTableRecord
  2
3_ALL_AXES
 70
0
 62
7
  6
CONTINUOUS
370
-3
390
F
  0
LAYER
  5
217
100
AcDbSymbolTableRecord
100
AcDbLayerTableRecord
  2
4_ALL_POINTS
 70
0
 62
7
  6
CONTINUOUS
370
-3
390
F
  0
LAYER
  5
218
100
AcDbSymbolTableRecord
100
AcDbLayerTableRecord
  2
5_ALL_CURVES
 70
0
 62
7
  6
CONTINUOUS
370
-3
390
F
  0
LAYER
  5
219
100
AcDbSymbolTableRecord
100
AcDbLayerTableRecord
  2
6_ALL_SURFS
 70
0
 62
7
  6
CONTINUOUS
370
-3
390
F
  0
LAYER
  5
21A
100
AcDbSymbolTableRecord
100
AcDbLayerTableRecord
  2
7_ALL_FEATURES
 70
0
 62
7
  6
CONTINUOUS
370
-3
390
F
  0
LAYER
  5
21B
100
AcDbSymbolTableRecord
100
AcDbLayerTableRecord
  2
8_ALL_NOTES_BALLOONS_SYMBOLS_GT
 70
0
 62
7
  6
CONTINUOUS
370
-3
390
F
  0
LAYER
  5
21C
100
AcDbSymbolTableRecord
100
AcDbLayerTableRecord
  2
XSEC_DATUMS
 70
0
 62
7
  6
CONTINUOUS
370
-3
390
F
  0
LAYER
  5
21D
100
AcDbSymbolTableRecord
100
AcDbLayerTableRecord
  2
___SHELL
 70
0
 62
7
  6
CONTINUOUS
370
-3
390
F
  0
ENDTAB
  0
TABLE
  2
STYLE
  5
3
100
AcDbSymbolTable
 70
1
  0
STYLE
  5
11
100
AcDbSymbolTableRecord
100
AcDbTextStyleTableRecord
  2
STANDARD
 70
0
 40
0.0
 41
0.85
 50
0.0
 71
0
 42
0.2
  3
txt
  4

  0
STYLE
  5
21E
100
AcDbSymbolTableRecord
100
AcDbTextStyleTableRecord
  2
TEXTSTYLE_1
 70
0
 40
0.0
 41
0.8
 50
0.0
 71
0
 42
0.2
  3
gdt
  4

  0
ENDTAB
  0
TABLE
  2
VIEW
  5
6
100
AcDbSymbolTable
 70
0
  0
ENDTAB
  0
TABLE
  2
UCS
  5
7
100
AcDbSymbolTable
 70
0
  0
ENDTAB
  0
TABLE
  2
APPID
  5
9
100
AcDbSymbolTable
 70
1
  0
APPID
  5
21F
100
AcDbSymbolTableRecord
100
AcDbRegAppTableRecord
  2
ACAD
 70
0
  0
ENDTAB
  0
TABLE
  2
BLOCK_RECORD
  5
1
100
AcDbSymbolTable
 70
0
  0
BLOCK_RECORD
  5
220
100
AcDbSymbolTableRecord
100
AcDbBlockTableRecord
  2
*Model_Space
  0
BLOCK_RECORD
  5
221
100
AcDbSymbolTableRecord
100
AcDbBlockTableRecord
  2
*Paper_Space
  0
BLOCK_RECORD
  5
222
100
AcDbSymbolTableRecord
100
AcDbBlockTableRecord
  2
_CLOSED
  0
BLOCK_RECORD
  5
223
100
AcDbSymbolTableRecord
100
AcDbBlockTableRecord
  2
*D0
  0
BLOCK_RECORD
  5
224
100
AcDbSymbolTableRecord
100
AcDbBlockTableRecord
  2
*D1
  0
BLOCK_RECORD
  5
225
100
AcDbSymbolTableRecord
100
AcDbBlockTableRecord
  2
*D2
  0
BLOCK_RECORD
  5
226
100
AcDbSymbolTableRecord
100
AcDbBlockTableRecord
  2
*D3
  0
BLOCK_RECORD
  5
227
100
AcDbSymbolTableRecord
100
AcDbBlockTableRecord
  2
LOGO2_BL0
  0
BLOCK_RECORD
  5
228
100
AcDbSymbolTableRecord
100
AcDbBlockTableRecord
  2
*T1
  0
ENDTAB
  0
TABLE
  2
DIMSTYLE
  5
A
100
AcDbSymbolTable
 70
1
100
AcDbDimStyleTable
 71
0
  0
DIMSTYLE
105
229
100
AcDbSymbolTableRecord
100
AcDbDimStyleTableRecord
  2
STANDARD
 70
0
  3

  4

 40
1.0
 41
2.5
 42
0.0625
 43
0.38
 44
0.18
 45
0.0
 46
0.0
 47
0.01
 48
0.01
140
3.0
141
0.09
142
0.0
143
25.4
144
1.0
145
0.0
146
1.0
147
0.09
 71
1.0
 72
0.0
 73
0
 74
0
 75
0
 76
0
 77
1
 78
8
170
0
171
2
172
0
173
0
174
0
175
0
176
0
177
0
178
0
270
2
271
2
272
2
273
2
274
2
275
0
280
0
281
0
282
0
283
1
284
8
285
0
286
0
287
3
288
0
340
11
341
222
342
222
343
222
344
222
  0
DIMSTYLE
105
22A
100
AcDbSymbolTableRecord
100
AcDbDimStyleTableRecord
  2
DIMSTYLE_1
 70
0
  3

  4

 40
1.0
 41
2.5
 42
0.0625
 43
0.38
 44
0.18
 45
0.0
 46
0.0
 47
0.2
 48
0.2
140
3.0
141
0.09
142
0.0
143
25.4
144
1.0
145
0.0
146
1.0
147
0.09
 71
0.0
 72
0.0
 73
0
 74
0
 75
0
 76
0
 77
1
 78
8
170
0
171
2
172
0
173
0
174
0
175
0
176
0
177
0
178
0
270
2
271
2
272
2
273
2
274
2
275
0
280
0
281
0
282
0
283
1
284
8
285
0
286
0
287
3
288
0
340
11
341
222
342
222
343
222
344
222
  0
DIMSTYLE
105
22B
100
AcDbSymbolTableRecord
100
AcDbDimStyleTableRecord
  2
DIMSTYLE_2
 70
0
  3

  4

 40
1.0
 41
2.5
 42
0.0625
 43
0.38
 44
0.18
 45
0.0
 46
0.0
 47
0.3
 48
0.3
140
3.0
141
0.09
142
0.0
143
25.4
144
1.0
145
0.0
146
1.0
147
0.09
 71
0.0
 72
0.0
 73
0
 74
0
 75
0
 76
0
 77
1
 78
8
170
0
171
2
172
0
173
0
174
0
175
0
176
0
177
0
178
0
270
2
271
0
272
0
273
2
274
2
275
0
280
0
281
0
282
0
283
1
284
8
285
0
286
0
287
3
288
0
340
11
341
222
342
222
343
222
344
222
  0
DIMSTYLE
105
22C
100
AcDbSymbolTableRecord
100
AcDbDimStyleTableRecord
  2
DIMSTYLE_3
 70
0
  3

  4

 40
1.0
 41
2.5
 42
0.0625
 43
0.38
 44
0.18
 45
0.0
 46
0.0
 47
0.5
 48
0.5
140
3.0
141
0.09
142
0.0
143
25.4
144
1.0
145
0.0
146
1.0
147
0.09
 71
0.0
 72
0.0
 73
0
 74
0
 75
0
 76
0
 77
1
 78
8
170
0
171
2
172
0
173
0
174
0
175
0
176
0
177
0
178
0
270
2
271
2
272
2
273
2
274
2
275
0
280
0
281
0
282
0
283
1
284
8
285
0
286
0
287
3
288
0
340
11
341
222
342
222
343
222
344
222
  0
ENDTAB
  0
ENDSEC
  0
SECTION
  2
BLOCKS
  0
BLOCK
  5
20
100
AcDbEntity
  8
0
100
AcDbBlockBegin
  2
*Model_Space
 70
0
 10
0.0
 20
0.0
 30
0.0
  3
*Model_Space
  1

  0
ENDBLK
  5
21
100
AcDbEntity
  8
0
100
AcDbBlockEnd
  0
BLOCK
  5
1C
100
AcDbEntity
  8
0
100
AcDbBlockBegin
  2
*Paper_Space
 70
0
 10
0.0
 20
0.0
 30
0.0
  3
*Paper_Space
  1

  0
ENDBLK
  5
1D
100
AcDbEntity
  8
0
100
AcDbBlockEnd
  0
BLOCK
  5
22D
100
AcDbEntity
  8
0
100
AcDbBlockBegin
 62
2
  6
CONTINUOUS
  2
LOGO2_BL0
 70
64
 10
504.7942295328
 20
40.5676625125
  3
LOGO2_BL0
  1

  0
LINE
  5
22E
100
AcDbEntity
  8
0
100
AcDbLine
 62
7
  6
CONTINUOUS
 10
496.537154761
 20
43.7631538513
 11
495.2328138316
 21
43.7631538513
  0
LINE
  5
22F
100
AcDbEntity
  8
0
100
AcDbLine
 62
7
  6
CONTINUOUS
 10
495.2328138316
 20
43.7631538513
 11
495.2328138316
 21
33.3040877915
  0
LINE
  5
230
100
AcDbEntity
  8
0
100
AcDbLine
 62
7
  6
CONTINUOUS
 10
495.2328138316
 20
33.3040877915
 11
499.7138687199
 21
33.3040877915
  0
LINE
  5
231
100
AcDbEntity
  8
0
100
AcDbLine
 62
7
  6
CONTINUOUS
 10
499.7138687199
 20
33.3040877915
 11
499.7138687199
 21
34.4969421165
  0
LINE
  5
232
100
AcDbEntity
  8
0
100
AcDbLine
 62
7
  6
CONTINUOUS
 10
499.7138687199
 20
34.4969421165
 11
496.537154761
 21
34.4969421165
  0
LINE
  5
233
100
AcDbEntity
  8
0
100
AcDbLine
 62
7
  6
CONTINUOUS
 10
496.537154761
 20
34.4969421165
 11
496.537154761
 21
43.7631538513
  0
LINE
  5
234
100
AcDbEntity
  8
0
100
AcDbLine
 62
7
  6
CONTINUOUS
 10
511.4734809773
 20
43.7631538513
 11
510.1696634592
 21
43.7631538513
  0
LINE
  5
235
100
AcDbEntity
  8
0
100
AcDbLine
 62
7
  6
CONTINUOUS
 10
510.1696634592
 20
43.7631538513
 11
510.1696634592
 21
33.3040877915
  0
LINE
  5
236
100
AcDbEntity
  8
0
100
AcDbLine
 62
7
  6
CONTINUOUS
 10
510.1696634592
 20
33.3040877915
 11
514.6508492003
 21
33.3040877915
  0
LINE
  5
237
100
AcDbEntity
  8
0
100
AcDbLine
 62
7
  6
CONTINUOUS
 10
514.6508492003
 20
33.3040877915
 11
514.6508492003
 21
34.4969421165
  0
LINE
  5
238
100
AcDbEntity
  8
0
100
AcDbLine
 62
7
  6
CONTINUOUS
 10
514.6508492003
 20
34.4969421165
 11
511.4734809773
 21
34.4969421165
  0
LINE
  5
239
100
AcDbEntity
  8
0
100
AcDbLine
 62
7
  6
CONTINUOUS
 10
511.4734809773
 20
34.4969421165
 11
511.4734809773
 21
43.7631538513
  0
LWPOLYLINE
  5
23A
100
AcDbEntity
  8
0
100
AcDbPolyline
 62
7
  6
CONTINUOUS
 90
2
 70
0
 43
0.2
 10
493.5872087425
 20
29.9605364846
 10
493.5872087425
 20
28.1034732352
  0
LWPOLYLINE
  5
23B
100
AcDbEntity
  8
0
100
AcDbPolyline
 62
7
  6
CONTINUOUS
 90
2
 70
0
 43
0.2
 10
493.5872087425
 20
28.1034732352
 10
494.3829247529
 20
28.1034732352
  0
LWPOLYLINE
  5
23C
100
AcDbEntity
  8
0
100
AcDbPolyline
 62
7
  6
CONTINUOUS
 90
2
 70
0
 43
0.2
 10
494.3829247529
 20
28.1034732352
 10
494.3829247529
 20
28.3154548068
  0
LWPOLYLINE
  5
23D
100
AcDbEntity
  8
0
100
AcDbPolyline
 62
7
  6
CONTINUOUS
 90
2
 70
0
 43
0.2
 10
494.3829247529
 20
28.3154548068
 10
493.8188182374
 20
28.3154548068
  0
LWPOLYLINE
  5
23E
100
AcDbEntity
  8
0
100
AcDbPolyline
 62
7
  6
CONTINUOUS
 90
2
 70
0
 43
0.2
 10
493.8188182374
 20
28.3154548068
 10
493.8188182374
 20
29.9605364846
  0
LWPOLYLINE
  5
23F
100
AcDbEntity
  8
0
100
AcDbPolyline
 62
7
  6
CONTINUOUS
 90
2
 70
0
 43
0.2
 10
493.8188182374
 20
29.9605364846
 10
493.5872087425
 20
29.9605364846
  0
SPLINE
  5
240
100
AcDbEntity
  8
0
100
AcDbSpline
 62
7
  6
CONTINUOUS
 70
2
 71
3
 72
35
 73
31
 74
0
 42
0.0000001
 43
0.0000001
 44
0.0000000001
 40
0.0
 40
0.0
 40
0.0
 40
0.0
 40
1.0
 40
1.0
 40
1.0
 40
2.0
 40
2.0
 40
2.0
 40
3.0
 40
3.0
 40
3.0
 40
4.0
 40
4.0
 40
4.0
 40
5.0
 40
5.0
 40
5.0
 40
6.0
 40
6.0
 40
6.0
 40
7.0
 40
7.0
 40
7.0
 40
8.0
 40
8.0
 40
8.0
 40
9.0
 40
9.0
 40
9.0
 40
10.0
 40
10.0
 40
10.0
 40
10.0
 10
495.7812180085
 20
29.2560248911
 30
0.0
 10
495.7812180085
 20
29.2560248911
 30
0.0
 10
495.7812180085
 20
28.5939096119
 30
0.0
 10
495.7812180085
 20
28.5939096119
 30
0.0
 10
495.7812180085
 20
28.2788160166
 30
0.0
 10
495.9290816973
 20
28.0642173886
 30
0.0
 10
496.2691681816
 20
28.0642173886
 30
0.0
 10
496.6087312546
 20
28.0642173886
 30
0.0
 10
496.756856649
 20
28.2788160166
 30
0.0
 10
496.756856649
 20
28.5939096119
 30
0.0
 10
496.756856649
 20
28.5939096119
 30
0.0
 10
496.756856649
 20
29.2560248911
 30
0.0
 10
496.756856649
 20
29.2560248911
 30
0.0
 10
496.756856649
 20
29.2560248911
 30
0.0
 10
496.5347994102
 20
29.2560248911
 30
0.0
 10
496.5347994102
 20
29.2560248911
 30
0.0
 10
496.5347994102
 20
29.2560248911
 30
0.0
 10
496.5347994102
 20
28.6190333537
 30
0.0
 10
496.5347994102
 20
28.6190333537
 30
0.0
 10
496.5347994102
 20
28.4332223465
 30
0.0
 10
496.4880849527
 20
28.270441436
 30
0.0
 10
496.2691681816
 20
28.270441436
 30
0.0
 10
496.0497279991
 20
28.270441436
 30
0.0
 10
496.0030135417
 20
28.4332223465
 30
0.0
 10
496.0030135417
 20
28.6190333537
 30
0.0
 10
496.0030135417
 20
28.6190333537
 30
0.0
 10
496.0030135417
 20
29.2560248911
 30
0.0
 10
496.0030135417
 20
29.2560248911
 30
0.0
 10
496.0030135417
 20
29.2560248911
 30
0.0
 10
495.7812180085
 20
29.2560248911
 30
0.0
 10
495.7812180085
 20
29.2560248911
 30
0.0
  0
SPLINE
  5
241
100
AcDbEntity
  8
0
100
AcDbSpline
 62
7
  6
CONTINUOUS
 70
2
 71
3
 72
35
 73
31
 74
0
 42
0.0000001
 43
0.0000001
 44
0.0000000001
 40
0.0
 40
0.0
 40
0.0
 40
0.0
 40
1.0
 40
1.0
 40
1.0
 40
2.0
 40
2.0
 40
2.0
 40
3.0
 40
3.0
 40
3.0
 40
4.0
 40
4.0
 40
4.0
 40
5.0
 40
5.0
 40
5.0
 40
6.0
 40
6.0
 40
6.0
 40
7.0
 40
7.0
 40
7.0
 40
8.0
 40
8.0
 40
8.0
 40
9.0
 40
9.0
 40
9.0
 40
10.0
 40
10.0
 40
10.0
 40
10.0
 10
499.1799892062
 20
29.2146753993
 30
0.0
 10
499.0915326986
 20
29.2659697055
 30
0.0
 10
498.9780833019
 20
29.2910934474
 30
0.0
 10
498.8744478669
 20
29.2910934474
 30
0.0
 10
498.5195750138
 20
29.2910934474
 30
0.0
 10
498.2441298235
 20
29.0272941583
 30
0.0
 10
498.2441298235
 20
28.6698042487
 30
0.0
 10
498.2441298235
 20
28.32487621
 30
0.0
 10
498.5225846287
 20
28.0647407999
 30
0.0
 10
498.8621477017
 20
28.0647407999
 30
0.0
 10
498.9780833019
 20
28.0647407999
 30
0.0
 10
499.0788399749
 20
28.086724074
 30
0.0
 10
499.1799892062
 20
28.1406354366
 30
0.0
 10
499.1799892062
 20
28.1406354366
 30
0.0
 10
499.1799892062
 20
28.4232775321
 30
0.0
 10
499.1799892062
 20
28.4232775321
 30
0.0
 10
499.0961125474
 20
28.3301103228
 30
0.0
 10
498.9926079652
 20
28.2709648473
 30
0.0
 10
498.8645030525
 20
28.2709648473
 30
0.0
 10
498.6307999124
 20
28.2709648473
 30
0.0
 10
498.4655327983
 20
28.443167161
 30
0.0
 10
498.4655327983
 20
28.6797490631
 30
0.0
 10
498.4655327983
 20
28.8917306347
 30
0.0
 10
498.6332861161
 20
29.0838225774
 30
0.0
 10
498.8501092421
 20
29.0838225774
 30
0.0
 10
498.9829248564
 20
29.0838225774
 30
0.0
 10
499.0915326986
 20
29.0299112147
 30
0.0
 10
499.1799892062
 20
28.9288928362
 30
0.0
 10
499.1799892062
 20
28.9288928362
 30
0.0
 10
499.1799892062
 20
29.2146753993
 30
0.0
 10
499.1799892062
 20
29.2146753993
 30
0.0
  0
SPLINE
  5
242
100
AcDbEntity
  8
0
100
AcDbSpline
 62
7
  6
CONTINUOUS
 70
2
 71
3
 72
32
 73
28
 74
0
 42
0.0000001
 43
0.0000001
 44
0.0000000001
 40
0.0
 40
0.0
 40
0.0
 40
0.0
 40
1.0
 40
1.0
 40
1.0
 40
2.0
 40
2.0
 40
2.0
 40
3.0
 40
3.0
 40
3.0
 40
4.0
 40
4.0
 40
4.0
 40
5.0
 40
5.0
 40
5.0
 40
6.0
 40
6.0
 40
6.0
 40
7.0
 40
7.0
 40
7.0
 40
8.0
 40
8.0
 40
8.0
 40
9.0
 40
9.0
 40
9.0
 40
9.0
 10
501.7118604585
 20
28.643110273
 30
0.0
 10
501.7118604585
 20
28.643110273
 30
0.0
 10
501.7118604585
 20
28.6771320067
 30
0.0
 10
501.7118604585
 20
28.6771320067
 30
0.0
 10
501.7118604585
 20
29.019442989
 30
0.0
 10
501.5390038807
 20
29.2910934474
 30
0.0
 10
501.1723542735
 20
29.2910934474
 30
0.0
 10
500.8007322591
 20
29.2910934474
 30
0.0
 10
500.6109956673
 20
29.0246771018
 30
0.0
 10
500.6109956673
 20
28.6698042487
 30
0.0
 10
500.6109956673
 20
28.3301103228
 30
0.0
 10
500.825070884
 20
28.0642173886
 30
0.0
 10
501.1771958279
 20
28.0642173886
 30
0.0
 10
501.4012158591
 20
28.0642173886
 30
0.0
 10
501.6033834691
 20
28.1798912832
 30
0.0
 10
501.7118604585
 20
28.3793109839
 30
0.0
 10
501.7118604585
 20
28.3793109839
 30
0.0
 10
501.5242175118
 20
28.4860868866
 30
0.0
 10
501.5242175118
 20
28.4860868866
 30
0.0
 10
501.4407334114
 20
28.3473828953
 30
0.0
 10
501.3495289945
 20
28.2615434441
 30
0.0
 10
501.1799437372
 20
28.2615434441
 30
0.0
 10
500.9679621656
 20
28.2615434441
 30
0.0
 10
500.8350156985
 20
28.4463076287
 30
0.0
 10
500.8326603477
 20
28.643110273
 30
0.0
 10
500.8326603477
 20
28.643110273
 30
0.0
 10
501.7118604585
 20
28.643110273
 30
0.0
 10
501.7118604585
 20
28.643110273
 30
0.0
  0
SPLINE
  5
243
100
AcDbEntity
  8
0
100
AcDbSpline
 62
7
  6
CONTINUOUS
 70
2
 71
3
 72
14
 73
10
 74
0
 42
0.0000001
 43
0.0000001
 44
0.0000000001
 40
0.0
 40
0.0
 40
0.0
 40
0.0
 40
1.0
 40
1.0
 40
1.0
 40
2.0
 40
2.0
 40
2.0
 40
3.0
 40
3.0
 40
3.0
 40
3.0
 10
500.8446988073
 20
28.8106018851
 30
0.0
 10
500.8723087527
 20
28.9754764408
 30
0.0
 10
501.0001519598
 20
29.0984780934
 30
0.0
 10
501.1723542735
 20
29.0984780934
 30
0.0
 10
501.3495289945
 20
29.0984780934
 30
0.0
 10
501.4629783911
 20
28.9828041988
 30
0.0
 10
501.4901957781
 20
28.8106018851
 30
0.0
 10
501.4901957781
 20
28.8106018851
 30
0.0
 10
500.8446988073
 20
28.8106018851
 30
0.0
 10
500.8446988073
 20
28.8106018851
 30
0.0
  0
SPLINE
  5
244
100
AcDbEntity
  8
0
100
AcDbSpline
 62
7
  6
CONTINUOUS
 70
2
 71
3
 72
20
 73
16
 74
0
 42
0.0000001
 43
0.0000001
 44
0.0000000001
 40
0.0
 40
0.0
 40
0.0
 40
0.0
 40
1.0
 40
1.0
 40
1.0
 40
2.0
 40
2.0
 40
2.0
 40
3.0
 40
3.0
 40
3.0
 40
4.0
 40
4.0
 40
4.0
 40
5.0
 40
5.0
 40
5.0
 40
5.0
 10
503.7358919087
 20
29.0199664002
 30
0.0
 10
503.7358919087
 20
29.0199664002
 30
0.0
 10
504.1470314753
 20
28.5174915639
 30
0.0
 10
504.1470314753
 20
28.5174915639
 30
0.0
 10
504.0309650222
 20
28.4018176693
 30
0.0
 10
503.8931770007
 20
28.2714882586
 30
0.0
 10
503.7212363926
 20
28.2714882586
 30
0.0
 10
503.543799966
 20
28.2714882586
 30
0.0
 10
503.3763083539
 20
28.435839403
 30
0.0
 10
503.3763083539
 20
28.6127524183
 30
0.0
 10
503.3763083539
 20
28.7907122562
 30
0.0
 10
503.5860654275
 20
28.9168543765
 30
0.0
 10
503.7136469289
 20
29.0047874729
 30
0.0
 10
503.7136469289
 20
29.0047874729
 30
0.0
 10
503.7358919087
 20
29.0199664002
 30
0.0
 10
503.7358919087
 20
29.0199664002
 30
0.0
  0
SPLINE
  5
245
100
AcDbEntity
  8
0
100
AcDbSpline
 62
7
  6
CONTINUOUS
 70
2
 71
3
 72
23
 73
19
 74
0
 42
0.0000001
 43
0.0000001
 44
0.0000000001
 40
0.0
 40
0.0
 40
0.0
 40
0.0
 40
1.0
 40
1.0
 40
1.0
 40
2.0
 40
2.0
 40
2.0
 40
3.0
 40
3.0
 40
3.0
 40
4.0
 40
4.0
 40
4.0
 40
5.0
 40
5.0
 40
5.0
 40
6.0
 40
6.0
 40
6.0
 40
6.0
 10
503.7852234226
 20
29.3109830763
 30
0.0
 10
503.7852234226
 20
29.3109830763
 30
0.0
 10
503.7235917434
 20
29.3894947695
 30
0.0
 10
503.7235917434
 20
29.3894947695
 30
0.0
 10
503.6696803808
 20
29.4580616482
 30
0.0
 10
503.612890256
 20
29.5271519382
 30
0.0
 10
503.612890256
 20
29.6208425587
 30
0.0
 10
503.612890256
 20
29.7396569211
 30
0.0
 10
503.7088053745
 20
29.8171217917
 30
0.0
 10
503.8197685676
 20
29.8171217917
 30
0.0
 10
503.9430319259
 20
29.8171217917
 30
0.0
 10
504.0363299879
 20
29.7459378565
 30
0.0
 10
504.0363299879
 20
29.6156084458
 30
0.0
 10
504.0363299879
 20
29.4805683336
 30
0.0
 10
503.9082250752
 20
29.4041502855
 30
0.0
 10
503.8146653075
 20
29.330349294
 30
0.0
 10
503.8146653075
 20
29.330349294
 30
0.0
 10
503.7852234226
 20
29.3109830763
 30
0.0
 10
503.7852234226
 20
29.3109830763
 30
0.0
  0
SPLINE
  5
246
100
AcDbEntity
  8
0
100
AcDbSpline
 62
7
  6
CONTINUOUS
 70
2
 71
3
 72
50
 73
46
 74
0
 42
0.0000001
 43
0.0000001
 44
0.0000000001
 40
0.0
 40
0.0
 40
0.0
 40
0.0
 40
1.0
 40
1.0
 40
1.0
 40
2.0
 40
2.0
 40
2.0
 40
3.0
 40
3.0
 40
3.0
 40
4.0
 40
4.0
 40
4.0
 40
5.0
 40
5.0
 40
5.0
 40
6.0
 40
6.0
 40
6.0
 40
7.0
 40
7.0
 40
7.0
 40
8.0
 40
8.0
 40
8.0
 40
9.0
 40
9.0
 40
9.0
 40
10.0
 40
10.0
 40
10.0
 40
11.0
 40
11.0
 40
11.0
 40
12.0
 40
12.0
 40
12.0
 40
13.0
 40
13.0
 40
13.0
 40
14.0
 40
14.0
 40
14.0
 40
15.0
 40
15.0
 40
15.0
 40
15.0
 10
504.4873796652
 20
28.1039966465
 30
0.0
 10
504.4873796652
 20
28.1039966465
 30
0.0
 10
504.77276967
 20
28.1039966465
 30
0.0
 10
504.77276967
 20
28.1039966465
 30
0.0
 10
504.77276967
 20
28.1039966465
 30
0.0
 10
504.4404035022
 20
28.5148745075
 30
0.0
 10
504.4404035022
 20
28.5148745075
 30
0.0
 10
504.4404035022
 20
28.5148745075
 30
0.0
 10
504.666909737
 20
28.7807674417
 30
0.0
 10
504.666909737
 20
28.7807674417
 30
0.0
 10
504.666909737
 20
28.7807674417
 30
0.0
 10
504.5186534897
 20
28.9336035378
 30
0.0
 10
504.5186534897
 20
28.9336035378
 30
0.0
 10
504.5186534897
 20
28.9336035378
 30
0.0
 10
504.3027463334
 20
28.6823661196
 30
0.0
 10
504.3027463334
 20
28.6823661196
 30
0.0
 10
504.3027463334
 20
28.6823661196
 30
0.0
 10
503.9156836861
 20
29.1502958109
 30
0.0
 10
503.9156836861
 20
29.1502958109
 30
0.0
 10
504.0711368386
 20
29.2643994717
 30
0.0
 10
504.2534148196
 20
29.4041502855
 30
0.0
 10
504.2534148196
 20
29.6135148007
 30
0.0
 10
504.2534148196
 20
29.8574244608
 30
0.0
 10
504.0513780624
 20
30.0008391537
 30
0.0
 10
503.8248718276
 20
30.0008391537
 30
0.0
 10
503.5807004618
 20
30.0008391537
 30
0.0
 10
503.3963288357
 20
29.8500967028
 30
0.0
 10
503.3963288357
 20
29.5936251718
 30
0.0
 10
503.3963288357
 20
29.4360783741
 30
0.0
 10
503.4949918634
 20
29.2984212054
 30
0.0
 10
503.6003283851
 20
29.1874580124
 30
0.0
 10
503.6003283851
 20
29.1874580124
 30
0.0
 10
503.4847853433
 20
29.1037122063
 30
0.0
 10
503.4847853433
 20
29.1037122063
 30
0.0
 10
503.3070872111
 20
28.9754764408
 30
0.0
 10
503.1597469336
 20
28.8477640865
 30
0.0
 10
503.1597469336
 20
28.6106587731
 30
0.0
 10
503.1597469336
 20
28.290331065
 30
0.0
 10
503.4183121098
 20
28.0642173886
 30
0.0
 10
503.7286950035
 20
28.0642173886
 30
0.0
 10
503.9476117746
 20
28.0642173886
 30
0.0
 10
504.1448069773
 20
28.1893126864
 30
0.0
 10
504.2850812025
 20
28.3552340647
 30
0.0
 10
504.2850812025
 20
28.3552340647
 30
0.0
 10
504.4873796652
 20
28.1039966465
 30
0.0
 10
504.4873796652
 20
28.1039966465
 30
0.0
  0
LWPOLYLINE
  5
247
100
AcDbEntity
  8
0
100
AcDbPolyline
 62
7
  6
CONTINUOUS
 90
2
 70
0
 43
0.2
 10
506.422823755
 20
29.9605364846
 10
506.1914759657
 20
29.9605364846
  0
LWPOLYLINE
  5
248
100
AcDbEntity
  8
0
100
AcDbPolyline
 62
7
  6
CONTINUOUS
 90
2
 70
0
 43
0.2
 10
506.1914759657
 20
29.9605364846
 10
506.1914759657
 20
28.1034732352
  0
LWPOLYLINE
  5
249
100
AcDbEntity
  8
0
100
AcDbPolyline
 62
7
  6
CONTINUOUS
 90
2
 70
0
 43
0.2
 10
506.1914759657
 20
28.1034732352
 10
506.9867994176
 20
28.1034732352
  0
LWPOLYLINE
  5
24A
100
AcDbEntity
  8
0
100
AcDbPolyline
 62
7
  6
CONTINUOUS
 90
2
 70
0
 43
0.2
 10
506.9867994176
 20
28.1034732352
 10
506.9867994176
 20
28.3154548068
  0
LWPOLYLINE
  5
24B
100
AcDbEntity
  8
0
100
AcDbPolyline
 62
7
  6
CONTINUOUS
 90
2
 70
0
 43
0.2
 10
506.9867994176
 20
28.3154548068
 10
506.422823755
 20
28.3154548068
  0
LWPOLYLINE
  5
24C
100
AcDbEntity
  8
0
100
AcDbPolyline
 62
7
  6
CONTINUOUS
 90
2
 70
0
 43
0.2
 10
506.422823755
 20
28.3154548068
 10
506.422823755
 20
29.9605364846
  0
LWPOLYLINE
  5
24D
100
AcDbEntity
  8
0
100
AcDbPolyline
 62
7
  6
CONTINUOUS
 90
2
 70
0
 43
0.2
 10
508.6659028291
 20
29.2560248911
 10
508.44476156
 20
29.2560248911
  0
LWPOLYLINE
  5
24E
100
AcDbEntity
  8
0
100
AcDbPolyline
 62
7
  6
CONTINUOUS
 90
2
 70
0
 43
0.2
 10
508.44476156
 20
29.2560248911
 10
508.44476156
 20
28.1039966465
  0
LWPOLYLINE
  5
24F
100
AcDbEntity
  8
0
100
AcDbPolyline
 62
7
  6
CONTINUOUS
 90
2
 70
0
 43
0.2
 10
508.44476156
 20
28.1039966465
 10
508.6659028291
 20
28.1039966465
  0
LWPOLYLINE
  5
250
100
AcDbEntity
  8
0
100
AcDbPolyline
 62
7
  6
CONTINUOUS
 90
2
 70
0
 43
0.2
 10
508.6659028291
 20
28.1039966465
 10
508.6659028291
 20
29.2560248911
  0
SPLINE
  5
251
100
AcDbEntity
  8
0
100
AcDbSpline
 62
7
  6
CONTINUOUS
 70
2
 71
3
 72
17
 73
13
 74
0
 42
0.0000001
 43
0.0000001
 44
0.0000000001
 40
0.0
 40
0.0
 40
0.0
 40
0.0
 40
1.0
 40
1.0
 40
1.0
 40
2.0
 40
2.0
 40
2.0
 40
3.0
 40
3.0
 40
3.0
 40
4.0
 40
4.0
 40
4.0
 40
4.0
 10
508.5554630474
 20
29.9385532105
 30
0.0
 10
508.4714555357
 20
29.9385532105
 30
0.0
 10
508.402888657
 20
29.8694629205
 30
0.0
 10
508.402888657
 20
29.7836234693
 30
0.0
 10
508.402888657
 20
29.6993542519
 30
0.0
 10
508.4714555357
 20
29.6334044296
 30
0.0
 10
508.5554630474
 20
29.6334044296
 30
0.0
 10
508.6392088535
 20
29.6334044296
 30
0.0
 10
508.7080374378
 20
29.6993542519
 30
0.0
 10
508.7080374378
 20
29.7836234693
 30
0.0
 10
508.7080374378
 20
29.8694629205
 30
0.0
 10
508.6392088535
 20
29.9385532105
 30
0.0
 10
508.5554630474
 20
29.9385532105
 30
0.0
  0
SPLINE
  5
252
100
AcDbEntity
  8
0
100
AcDbSpline
 62
7
  6
CONTINUOUS
 70
2
 71
3
 72
17
 73
13
 74
0
 42
0.0000001
 43
0.0000001
 44
0.0000000001
 40
0.0
 40
0.0
 40
0.0
 40
0.0
 40
1.0
 40
1.0
 40
1.0
 40
2.0
 40
2.0
 40
2.0
 40
3.0
 40
3.0
 40
3.0
 40
4.0
 40
4.0
 40
4.0
 40
4.0
 10
510.7961867708
 20
28.2615434441
 30
0.0
 10
510.5622219251
 20
28.2615434441
 30
0.0
 10
510.4318925144
 20
28.4635802012
 30
0.0
 10
510.4318925144
 20
28.6797490631
 30
0.0
 10
510.4318925144
 20
28.8943476912
 30
0.0
 10
510.5677177436
 20
29.0932439806
 30
0.0
 10
510.7961867708
 20
29.0932439806
 30
0.0
 10
511.035647435
 20
29.0932439806
 30
0.0
 10
511.1712109585
 20
28.9042925056
 30
0.0
 10
511.1712109585
 20
28.6797490631
 30
0.0
 10
511.1712109585
 20
28.4536353868
 30
0.0
 10
511.0380027858
 20
28.2615434441
 30
0.0
 10
510.7961867708
 20
28.2615434441
 30
0.0
  0
SPLINE
  5
253
100
AcDbEntity
  8
0
100
AcDbSpline
 62
7
  6
CONTINUOUS
 70
2
 71
3
 72
50
 73
46
 74
0
 42
0.0000001
 43
0.0000001
 44
0.0000000001
 40
0.0
 40
0.0
 40
0.0
 40
0.0
 40
1.0
 40
1.0
 40
1.0
 40
2.0
 40
2.0
 40
2.0
 40
3.0
 40
3.0
 40
3.0
 40
4.0
 40
4.0
 40
4.0
 40
5.0
 40
5.0
 40
5.0
 40
6.0
 40
6.0
 40
6.0
 40
7.0
 40
7.0
 40
7.0
 40
8.0
 40
8.0
 40
8.0
 40
9.0
 40
9.0
 40
9.0
 40
10.0
 40
10.0
 40
10.0
 40
11.0
 40
11.0
 40
11.0
 40
12.0
 40
12.0
 40
12.0
 40
13.0
 40
13.0
 40
13.0
 40
14.0
 40
14.0
 40
14.0
 40
15.0
 40
15.0
 40
15.0
 40
15.0
 10
511.380313768
 20
29.2565483024
 30
0.0
 10
511.380313768
 20
29.2565483024
 30
0.0
 10
511.1586490876
 20
29.2565483024
 30
0.0
 10
511.1586490876
 20
29.2565483024
 30
0.0
 10
511.1586490876
 20
29.2565483024
 30
0.0
 10
511.1586490876
 20
29.0592222468
 30
0.0
 10
511.1586490876
 20
29.0592222468
 30
0.0
 10
511.1586490876
 20
29.0592222468
 30
0.0
 10
511.153938386
 20
29.0592222468
 30
0.0
 10
511.153938386
 20
29.0592222468
 30
0.0
 10
511.0626031163
 20
29.2021135284
 30
0.0
 10
510.9246842419
 20
29.2905700361
 30
0.0
 10
510.7519585169
 20
29.2905700361
 30
0.0
 10
510.4195923491
 20
29.2905700361
 30
0.0
 10
510.2104895396
 20
29.0026938278
 30
0.0
 10
510.2104895396
 20
28.6870768212
 30
0.0
 10
510.2104895396
 20
28.3573277098
 30
0.0
 10
510.4075538895
 20
28.0642173886
 30
0.0
 10
510.7624267427
 20
28.0642173886
 30
0.0
 10
510.9246842419
 20
28.0642173886
 30
0.0
 10
511.0646967614
 20
28.1526738962
 30
0.0
 10
511.153938386
 20
28.2835267182
 30
0.0
 10
511.153938386
 20
28.2835267182
 30
0.0
 10
511.1586490876
 20
28.2835267182
 30
0.0
 10
511.1586490876
 20
28.2835267182
 30
0.0
 10
511.1586490876
 20
28.2835267182
 30
0.0
 10
511.1586490876
 20
28.0642173886
 30
0.0
 10
511.1586490876
 20
28.0642173886
 30
0.0
 10
511.1586490876
 20
27.8276354865
 30
0.0
 10
511.1021206685
 20
27.6407776567
 30
0.0
 10
510.8288999763
 20
27.6407776567
 30
0.0
 10
510.6266015135
 20
27.6407776567
 30
0.0
 10
510.4839719375
 20
27.7590686078
 30
0.0
 10
510.4839719375
 20
27.9652926552
 30
0.0
 10
510.4839719375
 20
27.9652926552
 30
0.0
 10
510.2623072571
 20
27.9652926552
 30
0.0
 10
510.2623072571
 20
27.9652926552
 30
0.0
 10
510.2672796644
 20
27.6407776567
 30
0.0
 10
510.498365748
 20
27.4439750125
 30
0.0
 10
510.8186934561
 20
27.4439750125
 30
0.0
 10
511.2667335186
 20
27.4439750125
 30
0.0
 10
511.380313768
 20
27.7292341644
 30
0.0
 10
511.380313768
 20
28.1259799206
 30
0.0
 10
511.380313768
 20
28.1259799206
 30
0.0
 10
511.380313768
 20
29.2565483024
 30
0.0
 10
511.380313768
 20
29.2565483024
 30
0.0
  0
SPLINE
  5
254
100
AcDbEntity
  8
0
100
AcDbSpline
 62
7
  6
CONTINUOUS
 70
2
 71
3
 72
44
 73
40
 74
0
 42
0.0000001
 43
0.0000001
 44
0.0000000001
 40
0.0
 40
0.0
 40
0.0
 40
0.0
 40
1.0
 40
1.0
 40
1.0
 40
2.0
 40
2.0
 40
2.0
 40
3.0
 40
3.0
 40
3.0
 40
4.0
 40
4.0
 40
4.0
 40
5.0
 40
5.0
 40
5.0
 40
6.0
 40
6.0
 40
6.0
 40
7.0
 40
7.0
 40
7.0
 40
8.0
 40
8.0
 40
8.0
 40
9.0
 40
9.0
 40
9.0
 40
10.0
 40
10.0
 40
10.0
 40
11.0
 40
11.0
 40
11.0
 40
12.0
 40
12.0
 40
12.0
 40
13.0
 40
13.0
 40
13.0
 40
13.0
 10
512.9492391034
 20
30.2416083461
 30
0.0
 10
512.9492391034
 20
30.2416083461
 30
0.0
 10
512.9492391034
 20
28.1034732352
 30
0.0
 10
512.9492391034
 20
28.1034732352
 30
0.0
 10
512.9492391034
 20
28.1034732352
 30
0.0
 10
513.1706420782
 20
28.1034732352
 30
0.0
 10
513.1706420782
 20
28.1034732352
 30
0.0
 10
513.1706420782
 20
28.1034732352
 30
0.0
 10
513.1706420782
 20
28.6331654585
 30
0.0
 10
513.1706420782
 20
28.6331654585
 30
0.0
 10
513.1706420782
 20
28.8430533849
 30
0.0
 10
513.1706420782
 20
29.0937673918
 30
0.0
 10
513.4559012301
 20
29.0937673918
 30
0.0
 10
513.6828000234
 20
29.0937673918
 30
0.0
 10
513.7097557047
 20
28.9608209247
 30
0.0
 10
513.7097557047
 20
28.7645416918
 30
0.0
 10
513.7097557047
 20
28.7645416918
 30
0.0
 10
513.7097557047
 20
28.1034732352
 30
0.0
 10
513.7097557047
 20
28.1034732352
 30
0.0
 10
513.7097557047
 20
28.1034732352
 30
0.0
 10
513.9316820907
 20
28.1034732352
 30
0.0
 10
513.9316820907
 20
28.1034732352
 30
0.0
 10
513.9316820907
 20
28.1034732352
 30
0.0
 10
513.9316820907
 20
28.7907122562
 30
0.0
 10
513.9316820907
 20
28.7907122562
 30
0.0
 10
513.9316820907
 20
29.0712607065
 30
0.0
 10
513.847674579
 20
29.2910934474
 30
0.0
 10
513.5226361693
 20
29.2910934474
 30
0.0
 10
513.3828853554
 20
29.2910934474
 30
0.0
 10
513.2447047754
 20
29.2246202138
 30
0.0
 10
513.1753527798
 20
29.1016185612
 30
0.0
 10
513.1753527798
 20
29.1016185612
 30
0.0
 10
513.1706420782
 20
29.1016185612
 30
0.0
 10
513.1706420782
 20
29.1016185612
 30
0.0
 10
513.1706420782
 20
29.1016185612
 30
0.0
 10
513.1706420782
 20
30.2416083461
 30
0.0
 10
513.1706420782
 20
30.2416083461
 30
0.0
 10
513.1706420782
 20
30.2416083461
 30
0.0
 10
512.9492391034
 20
30.2416083461
 30
0.0
 10
512.9492391034
 20
30.2416083461
 30
0.0
  0
LWPOLYLINE
  5
255
100
AcDbEntity
  8
0
100
AcDbPolyline
 62
7
  6
CONTINUOUS
 90
2
 70
0
 43
0.2
 10
515.7714727676
 20
29.0492774324
 10
515.9879033351
 20
29.0492774324
  0
LWPOLYLINE
  5
256
100
AcDbEntity
  8
0
100
AcDbPolyline
 62
7
  6
CONTINUOUS
 90
2
 70
0
 43
0.2
 10
515.9879033351
 20
29.0492774324
 10
515.9879033351
 20
29.2560248911
  0
LWPOLYLINE
  5
257
100
AcDbEntity
  8
0
100
AcDbPolyline
 62
7
  6
CONTINUOUS
 90
2
 70
0
 43
0.2
 10
515.9879033351
 20
29.2560248911
 10
515.7714727676
 20
29.2560248911
  0
LWPOLYLINE
  5
258
100
AcDbEntity
  8
0
100
AcDbPolyline
 62
7
  6
CONTINUOUS
 90
2
 70
0
 43
0.2
 10
515.7714727676
 20
29.2560248911
 10
515.7714727676
 20
29.6967371955
  0
LWPOLYLINE
  5
259
100
AcDbEntity
  8
0
100
AcDbPolyline
 62
7
  6
CONTINUOUS
 90
2
 70
0
 43
0.2
 10
515.7714727676
 20
29.6967371955
 10
515.5498080872
 20
29.6967371955
  0
LWPOLYLINE
  5
25A
100
AcDbEntity
  8
0
100
AcDbPolyline
 62
7
  6
CONTINUOUS
 90
2
 70
0
 43
0.2
 10
515.5498080872
 20
29.6967371955
 10
515.5498080872
 20
29.2560248911
  0
LWPOLYLINE
  5
25B
100
AcDbEntity
  8
0
100
AcDbPolyline
 62
7
  6
CONTINUOUS
 90
2
 70
0
 43
0.2
 10
515.5498080872
 20
29.2560248911
 10
515.4291617853
 20
29.2560248911
  0
LWPOLYLINE
  5
25C
100
AcDbEntity
  8
0
100
AcDbPolyline
 62
7
  6
CONTINUOUS
 90
2
 70
0
 43
0.2
 10
515.4291617853
 20
29.2560248911
 10
515.4291617853
 20
29.0492774324
  0
LWPOLYLINE
  5
25D
100
AcDbEntity
  8
0
100
AcDbPolyline
 62
7
  6
CONTINUOUS
 90
2
 70
0
 43
0.2
 10
515.4291617853
 20
29.0492774324
 10
515.5498080872
 20
29.0492774324
  0
LWPOLYLINE
  5
25E
100
AcDbEntity
  8
0
100
AcDbPolyline
 62
7
  6
CONTINUOUS
 90
2
 70
0
 43
0.2
 10
515.5498080872
 20
29.0492774324
 10
515.5498080872
 20
28.1034732352
  0
LWPOLYLINE
  5
25F
100
AcDbEntity
  8
0
100
AcDbPolyline
 62
7
  6
CONTINUOUS
 90
2
 70
0
 43
0.2
 10
515.5498080872
 20
28.1034732352
 10
515.7714727676
 20
28.1034732352
  0
LWPOLYLINE
  5
260
100
AcDbEntity
  8
0
100
AcDbPolyline
 62
7
  6
CONTINUOUS
 90
2
 70
0
 43
0.2
 10
515.7714727676
 20
28.1034732352
 10
515.7714727676
 20
29.0492774324
  0
SPLINE
  5
261
100
AcDbEntity
  8
0
100
AcDbSpline
 62
7
  6
CONTINUOUS
 70
2
 71
3
 72
20
 73
16
 74
0
 42
0.0000001
 43
0.0000001
 44
0.0000000001
 40
0.0
 40
0.0
 40
0.0
 40
0.0
 40
1.0
 40
1.0
 40
1.0
 40
2.0
 40
2.0
 40
2.0
 40
3.0
 40
3.0
 40
3.0
 40
4.0
 40
4.0
 40
4.0
 40
5.0
 40
5.0
 40
5.0
 40
5.0
 10
503.5534830749
 20
38.4643996786
 30
0.0
 10
503.5534830749
 20
38.4643996786
 30
0.0
 10
505.8698397293
 20
35.6348382564
 30
0.0
 10
505.8698397293
 20
35.6348382564
 30
0.0
 10
505.2181926759
 20
34.9826677917
 30
0.0
 10
504.4413194719
 20
34.2467515209
 30
0.0
 10
503.4701298273
 20
34.2467515209
 30
0.0
 10
502.4715919428
 20
34.2467515209
 30
0.0
 10
501.5282739493
 20
35.1763299682
 30
0.0
 10
501.5282739493
 20
36.1755221167
 30
0.0
 10
501.5282739493
 20
37.1747142653
 30
0.0
 10
502.7071270224
 20
37.8813195039
 30
0.0
 10
503.4286494827
 20
38.3811772838
 30
0.0
 10
503.4286494827
 20
38.3811772838
 30
0.0
 10
503.5534830749
 20
38.4643996786
 30
0.0
 10
503.5534830749
 20
38.4643996786
 30
0.0
  0
SPLINE
  5
262
100
AcDbEntity
  8
0
100
AcDbSpline
 62
7
  6
CONTINUOUS
 70
2
 71
3
 72
23
 73
19
 74
0
 42
0.0000001
 43
0.0000001
 44
0.0000000001
 40
0.0
 40
0.0
 40
0.0
 40
0.0
 40
1.0
 40
1.0
 40
1.0
 40
2.0
 40
2.0
 40
2.0
 40
3.0
 40
3.0
 40
3.0
 40
4.0
 40
4.0
 40
4.0
 40
5.0
 40
5.0
 40
5.0
 40
6.0
 40
6.0
 40
6.0
 40
6.0
 10
503.8308910574
 20
40.1021535983
 30
0.0
 10
503.8308910574
 20
40.1021535983
 30
0.0
 10
503.4843927849
 20
40.5454829591
 30
0.0
 10
503.4843927849
 20
40.5454829591
 30
0.0
 10
503.1785897399
 20
40.9335924291
 30
0.0
 10
502.8597014128
 20
41.3220944575
 30
0.0
 10
502.8597014128
 20
41.8490387716
 30
0.0
 10
502.8597014128
 20
42.5152104882
 30
0.0
 10
503.4010395373
 20
42.9589324075
 30
0.0
 10
504.0249457924
 20
42.9589324075
 30
0.0
 10
504.7187274545
 20
42.9589324075
 30
0.0
 10
505.2459334742
 20
42.5566908328
 30
0.0
 10
505.2459334742
 20
41.8216905318
 30
0.0
 10
505.2459334742
 20
41.0584260213
 30
0.0
 10
504.5246727195
 20
40.6283127955
 30
0.0
 10
503.9975975526
 20
40.2125933801
 30
0.0
 10
503.9975975526
 20
40.2125933801
 30
0.0
 10
503.8308910574
 20
40.1021535983
 30
0.0
 10
503.8308910574
 20
40.1021535983
 30
0.0
  0
SPLINE
  5
263
100
AcDbEntity
  8
0
100
AcDbSpline
 62
7
  6
CONTINUOUS
 70
2
 71
3
 72
50
 73
46
 74
0
 42
0.0000001
 43
0.0000001
 44
0.0000000001
 40
0.0
 40
0.0
 40
0.0
 40
0.0
 40
1.0
 40
1.0
 40
1.0
 40
2.0
 40
2.0
 40
2.0
 40
3.0
 40
3.0
 40
3.0
 40
4.0
 40
4.0
 40
4.0
 40
5.0
 40
5.0
 40
5.0
 40
6.0
 40
6.0
 40
6.0
 40
7.0
 40
7.0
 40
7.0
 40
8.0
 40
8.0
 40
8.0
 40
9.0
 40
9.0
 40
9.0
 40
10.0
 40
10.0
 40
10.0
 40
11.0
 40
11.0
 40
11.0
 40
12.0
 40
12.0
 40
12.0
 40
13.0
 40
13.0
 40
13.0
 40
14.0
 40
14.0
 40
14.0
 40
15.0
 40
15.0
 40
15.0
 40
15.0
 10
507.7844782204
 20
33.3035643802
 30
0.0
 10
507.7844782204
 20
33.3035643802
 30
0.0
 10
509.3937062249
 20
33.3035643802
 30
0.0
 10
509.3937062249
 20
33.3035643802
 30
0.0
 10
509.3937062249
 20
33.3035643802
 30
0.0
 10
507.5206789313
 20
35.6207061516
 30
0.0
 10
507.5206789313
 20
35.6207061516
 30
0.0
 10
507.5206789313
 20
35.6207061516
 30
0.0
 10
508.7970173567
 20
37.1181858462
 30
0.0
 10
508.7970173567
 20
37.1181858462
 30
0.0
 10
508.7970173567
 20
37.1181858462
 30
0.0
 10
507.964793409
 20
37.9791974147
 30
0.0
 10
507.964793409
 20
37.9791974147
 30
0.0
 10
507.964793409
 20
37.9791974147
 30
0.0
 10
506.7441982857
 20
36.5638932923
 30
0.0
 10
506.7441982857
 20
36.5638932923
 30
0.0
 10
506.7441982857
 20
36.5638932923
 30
0.0
 10
504.5662839169
 20
39.1992691267
 30
0.0
 10
504.5662839169
 20
39.1992691267
 30
0.0
 10
505.4398573563
 20
39.8373074867
 30
0.0
 10
506.4665285975
 20
40.6283127955
 30
0.0
 10
506.4665285975
 20
41.8071658686
 30
0.0
 10
506.4665285975
 20
43.1808587936
 30
0.0
 10
505.3286324577
 20
43.985341943
 30
0.0
 10
504.0533408548
 20
43.985341943
 30
0.0
 10
502.6799096354
 20
43.985341943
 30
0.0
 10
501.6389754367
 20
43.1391167434
 30
0.0
 10
501.6389754367
 20
41.6964643812
 30
0.0
 10
501.6389754367
 20
40.8088896898
 30
0.0
 10
502.1943148131
 20
40.0320164857
 30
0.0
 10
502.79048027
 20
39.4075868193
 30
0.0
 10
502.79048027
 20
39.4075868193
 30
0.0
 10
502.1385715109
 20
38.9359932489
 30
0.0
 10
502.1385715109
 20
38.9359932489
 30
0.0
 10
501.1400336265
 20
38.2147324943
 30
0.0
 10
500.3071554147
 20
37.4934717396
 30
0.0
 10
500.3071554147
 20
36.1619134232
 30
0.0
 10
500.3071554147
 20
34.3582381252
 30
0.0
 10
501.7642015873
 20
33.0816379941
 30
0.0
 10
503.5117410247
 20
33.0816379941
 30
0.0
 10
504.7465991056
 20
33.0816379941
 30
0.0
 10
505.8559693302
 20
33.7898134666
 30
0.0
 10
506.6468437862
 20
34.7183450913
 30
0.0
 10
506.6468437862
 20
34.7183450913
 30
0.0
 10
507.7844782204
 20
33.3035643802
 30
0.0
 10
507.7844782204
 20
33.3035643802
 30
0.0
  0
LINE
  5
264
100
AcDbEntity
  8
0
100
AcDbLine
 62
7
  6
CONTINUOUS
 10
493.5873395953
 20
31.2774392848
 11
516.001250323
 21
31.2774392848
  0
LINE
  5
265
100
AcDbEntity
  8
0
100
AcDbLine
 62
7
  6
CONTINUOUS
 10
516.001250323
 20
31.2774392848
 11
516.001250323
 21
53.6913500125
  0
LINE
  5
266
100
AcDbEntity
  8
0
100
AcDbLine
 62
7
  6
CONTINUOUS
 10
516.001250323
 20
53.6913500125
 11
493.5873395953
 21
53.6913500125
  0
LINE
  5
267
100
AcDbEntity
  8
0
100
AcDbLine
 62
7
  6
CONTINUOUS
 10
493.5873395953
 20
53.6913500125
 11
493.5873395953
 21
31.2774392848
  0
ENDBLK
  5
268
100
AcDbEntity
  8
0
  6
BYBLOCK
 62
0
100
AcDbBlockEnd
  0
BLOCK
  5
269
100
AcDbEntity
  8
0
100
AcDbBlockBegin
  2
_CLOSED
 70
64
 10
0.0
 20
0.0
  3
_CLOSED
  1

  0
LINE
  5
26A
100
AcDbEntity
  8
0
  6
BYBLOCK
 62
0
100
AcDbLine
 10
0.0
 20
0.0
 11
-1.0
 21
0.2
  0
LINE
  5
26B
100
AcDbEntity
  8
0
  6
BYBLOCK
 62
0
100
AcDbLine
 10
-1.0
 20
0.2
 11
-1.0
 21
-0.2
  0
LINE
  5
26C
100
AcDbEntity
  8
0
  6
BYBLOCK
 62
0
100
AcDbLine
 10
-1.0
 20
-0.2
 11
0.0
 21
0.0
  0
LINE
  5
26D
100
AcDbEntity
  8
0
  6
BYBLOCK
 62
0
100
AcDbLine
 10
-1.0
 20
0.0
 11
0.0
 21
0.0
  0
ENDBLK
  5
26E
100
AcDbEntity
  8
0
  6
BYBLOCK
 62
0
100
AcDbBlockEnd
  0
BLOCK
  5
26F
100
AcDbEntity
  8
0
100
AcDbBlockBegin
 62
2
  6
CONTINUOUS
  2
*D0
 70
65
 10
0.0
 20
0.0
  3
*D0
  1

  0
LINE
  5
270
100
AcDbEntity
  8
0
100
AcDbLine
 62
2
  6
CONTINUOUS
 10
198.7659665608
 20
638.6685659581
 11
220.4440860288
 21
638.6685659581
  0
LINE
  5
271
100
AcDbEntity
  8
0
100
AcDbLine
 62
2
  6
CONTINUOUS
 10
199.5294751461
 20
608.6685659581
 11
220.4440860288
 21
608.6685659581
  0
LINE
  5
272
100
AcDbEntity
  8
0
100
AcDbLine
 62
2
  6
CONTINUOUS
 10
219.6940860288
 20
638.6685659581
 11
219.6940860288
 21
623.6685659581
  0
LINE
  5
273
100
AcDbEntity
  8
0
100
AcDbLine
 62
2
  6
CONTINUOUS
 10
219.6940860288
 20
608.6685659581
 11
219.6940860288
 21
623.6685659581
  0
INSERT
  5
274
100
AcDbEntity
  8
0
100
AcDbBlockReference
 62
2
  6
CONTINUOUS
  2
_CLOSED
 10
219.6940860288
 20
638.6685659581
 41
2.5
 42
2.5
 43
2.5
 50
90.0
  0
INSERT
  5
275
100
AcDbEntity
  8
0
100
AcDbBlockReference
 62
2
  6
CONTINUOUS
  2
_CLOSED
 10
219.6940860288
 20
608.6685659581
 41
2.5
 42
2.5
 43
2.5
 50
270.0
  0
ENDBLK
  5
276
100
AcDbEntity
  8
0
  6
BYBLOCK
 62
0
100
AcDbBlockEnd
  0
BLOCK
  5
277
100
AcDbEntity
  8
0
100
AcDbBlockBegin
 62
2
  6
CONTINUOUS
  2
*D1
 70
65
 10
0.0
 20
0.0
  3
*D1
  1

  0
LINE
  5
278
100
AcDbEntity
  8
0
100
AcDbLine
 62
2
  6
CONTINUOUS
 10
93.6976454816
 20
643.6844870176
 11
93.6976454816
 21
657.825585208
  0
LINE
  5
279
100
AcDbEntity
  8
0
100
AcDbLine
 62
2
  6
CONTINUOUS
 10
191.5942746371
 20
643.5317853005
 11
191.5942746371
 21
657.825585208
  0
LINE
  5
27A
100
AcDbEntity
  8
0
100
AcDbLine
 62
2
  6
CONTINUOUS
 10
93.6976454816
 20
657.075585208
 11
142.6459600594
 21
657.075585208
  0
LINE
  5
27B
100
AcDbEntity
  8
0
100
AcDbLine
 62
2
  6
CONTINUOUS
 10
191.5942746371
 20
657.075585208
 11
142.6459600594
 21
657.075585208
  0
INSERT
  5
27C
100
AcDbEntity
  8
0
100
AcDbBlockReference
 62
2
  6
CONTINUOUS
  2
_CLOSED
 10
93.6976454816
 20
657.075585208
 41
2.5
 42
2.5
 43
2.5
 50
180.0
  0
INSERT
  5
27D
100
AcDbEntity
  8
0
100
AcDbBlockReference
 62
2
  6
CONTINUOUS
  2
_CLOSED
 10
191.5942746371
 20
657.075585208
 41
2.5
 42
2.5
 43
2.5
  0
ENDBLK
  5
27E
100
AcDbEntity
  8
0
  6
BYBLOCK
 62
0
100
AcDbBlockEnd
  0
BLOCK
  5
27F
100
AcDbEntity
  8
0
100
AcDbBlockBegin
 62
2
  6
CONTINUOUS
  2
*D2
 70
65
 10
0.0
 20
0.0
  3
*D2
  1

  0
LINE
  5
280
100
AcDbEntity
  8
0
100
AcDbLine
 62
2
  6
CONTINUOUS
 10
170.0730308111
 20
453.6685659581
 11
220.4440860288
 21
453.6685659581
  0
LINE
  5
281
100
AcDbEntity
  8
0
100
AcDbLine
 62
2
  6
CONTINUOUS
 10
168.4224186059
 20
73.6685659581
 11
220.4440860288
 21
73.6685659581
  0
LINE
  5
282
100
AcDbEntity
  8
0
100
AcDbLine
 62
2
  6
CONTINUOUS
 10
219.6940860288
 20
453.6685659581
 11
219.6940860288
 21
263.6685659581
  0
LINE
  5
283
100
AcDbEntity
  8
0
100
AcDbLine
 62
2
  6
CONTINUOUS
 10
219.6940860288
 20
73.6685659581
 11
219.6940860288
 21
263.6685659581
  0
INSERT
  5
284
100
AcDbEntity
  8
0
100
AcDbBlockReference
 62
2
  6
CONTINUOUS
  2
_CLOSED
 10
219.6940860288
 20
453.6685659581
 41
2.5
 42
2.5
 43
2.5
 50
90.0
  0
INSERT
  5
285
100
AcDbEntity
  8
0
100
AcDbBlockReference
 62
2
  6
CONTINUOUS
  2
_CLOSED
 10
219.6940860288
 20
73.6685659581
 41
2.5
 42
2.5
 43
2.5
 50
270.0
  0
ENDBLK
  5
286
100
AcDbEntity
  8
0
  6
BYBLOCK
 62
0
100
AcDbBlockEnd
  0
BLOCK
  5
287
100
AcDbEntity
  8
0
100
AcDbBlockBegin
 62
2
  6
CONTINUOUS
  2
*D3
 70
65
 10
0.0
 20
0.0
  3
*D3
  1

  0
LINE
  5
288
100
AcDbEntity
  8
0
100
AcDbLine
 62
2
  6
CONTINUOUS
 10
127.6459600594
 20
69.4486537162
 11
127.6459600594
 21
50.9919657718
  0
LINE
  5
289
100
AcDbEntity
  8
0
100
AcDbLine
 62
2
  6
CONTINUOUS
 10
157.6459600594
 20
70.2121623015
 11
157.6459600594
 21
50.9919657718
  0
LINE
  5
28A
100
AcDbEntity
  8
0
100
AcDbLine
 62
2
  6
CONTINUOUS
 10
127.6459600594
 20
51.7419657718
 11
142.6459600594
 21
51.7419657718
  0
LINE
  5
28B
100
AcDbEntity
  8
0
100
AcDbLine
 62
2
  6
CONTINUOUS
 10
157.6459600594
 20
51.7419657718
 11
142.6459600594
 21
51.7419657718
  0
INSERT
  5
28C
100
AcDbEntity
  8
0
100
AcDbBlockReference
 62
2
  6
CONTINUOUS
  2
_CLOSED
 10
127.6459600594
 20
51.7419657718
 41
2.5
 42
2.5
 43
2.5
 50
180.0
  0
INSERT
  5
28D
100
AcDbEntity
  8
0
100
AcDbBlockReference
 62
2
  6
CONTINUOUS
  2
_CLOSED
 10
157.6459600594
 20
51.7419657718
 41
2.5
 42
2.5
 43
2.5
  0
ENDBLK
  5
28E
100
AcDbEntity
  8
0
  6
BYBLOCK
 62
0
100
AcDbBlockEnd
  0
BLOCK
  5
28F
100
AcDbEntity
  8
0
100
AcDbBlockBegin
  2
*T1
 70
1
 10
0.0
 20
0.0
  3
*T1
  1

  0
LINE
  5
290
100
AcDbEntity
  8
0
100
AcDbLine
 62
2
  6
CONTINUOUS
 10
0.0
 20
0.0
 11
90.0
 21
0.0
  0
LINE
  5
291
100
AcDbEntity
  8
0
100
AcDbLine
 62
2
  6
CONTINUOUS
 10
0.0
 20
0.0
 11
0.0
 21
-40.0
  0
LINE
  5
292
100
AcDbEntity
  8
0
100
AcDbLine
 62
2
  6
CONTINUOUS
 10
30.0
 20
-6.0
 11
90.0
 21
-6.0
  0
LINE
  5
293
100
AcDbEntity
  8
0
100
AcDbLine
 62
2
  6
CONTINUOUS
 10
30.0
 20
-12.0
 11
90.0
 21
-12.0
  0
LINE
  5
294
100
AcDbEntity
  8
0
100
AcDbLine
 62
2
  6
CONTINUOUS
 10
30.0
 20
-22.0
 11
90.0
 21
-22.0
  0
LINE
  5
295
100
AcDbEntity
  8
0
100
AcDbLine
 62
2
  6
CONTINUOUS
 10
0.0
 20
-27.0
 11
90.0
 21
-27.0
  0
LINE
  5
296
100
AcDbEntity
  8
0
100
AcDbLine
 62
2
  6
CONTINUOUS
 10
0.0
 20
-40.0
 11
90.0
 21
-40.0
  0
LINE
  5
297
100
AcDbEntity
  8
0
100
AcDbLine
 62
2
  6
CONTINUOUS
 10
30.0
 20
0.0
 11
30.0
 21
-27.0
  0
LINE
  5
298
100
AcDbEntity
  8
0
100
AcDbLine
 62
2
  6
CONTINUOUS
 10
70.0
 20
0.0
 11
70.0
 21
-12.0
  0
LINE
  5
299
100
AcDbEntity
  8
0
100
AcDbLine
 62
2
  6
CONTINUOUS
 10
90.0
 20
0.0
 11
90.0
 21
-40.0
  0
ENDBLK
  5
29A
100
AcDbEntity
  8
0
100
AcDbBlockEnd
  0
ENDSEC
  0
SECTION
  2
ENTITIES
  0
DIMENSION
  5
29B
100
AcDbEntity
  8
0
100
AcDbDimension
 62
2
  6
CONTINUOUS
  2
*D0
 10
219.6940860288
 20
608.6685659581
 11
218.9440860288
 21
621.4185659581
 70
160
 71
2
 42
30.0
  3
DIMSTYLE_1
100
AcDbAlignedDimension
 13
198.7659665608
 23
638.6685659581
 14
199.5294751461
 24
608.6685659581
 50
270.0
100
AcDbRotatedDimension
  0
DIMENSION
  5
29C
100
AcDbEntity
  8
0
100
AcDbDimension
 62
2
  6
CONTINUOUS
  2
*D1
 10
191.5942746371
 20
657.075585208
 11
138.2888172022
 21
657.825585208
 70
160
 71
2
 42
97.8966291555
  1
%%c<>
  3
DIMSTYLE_2
100
AcDbAlignedDimension
 13
93.6976454816
 23
643.6844870176
 14
191.5942746371
 24
643.5317853005
100
AcDbRotatedDimension
  0
DIMENSION
  5
29D
100
AcDbEntity
  8
0
100
AcDbDimension
 62
2
  6
CONTINUOUS
  2
*D2
 10
219.6940860288
 20
73.6685659581
 11
218.9440860288
 21
260.2399945295
 70
160
 71
2
 42
380.0
  3
DIMSTYLE_3
100
AcDbAlignedDimension
 13
170.0730308111
 23
453.6685659581
 14
168.4224186059
 24
73.6685659581
 50
270.0
100
AcDbRotatedDimension
  0
DIMENSION
  5
29E
100
AcDbEntity
  8
0
100
AcDbDimension
 62
2
  6
CONTINUOUS
  2
*D3
 10
157.6459600594
 20
51.7419657718
 11
138.3959600594
 21
52.4919657718
 70
160
 71
2
 42
30.0
  1
%%c<>
  3
DIMSTYLE_1
100
AcDbAlignedDimension
 13
127.6459600594
 23
69.4486537162
 14
157.6459600594
 24
70.2121623015
100
AcDbRotatedDimension
  0
INSERT
  5
29F
100
AcDbEntity
  8
0
100
AcDbBlockReference
 62
2
  6
CONTINUOUS
  2
LOGO2_BL0
 10
504.7942295328
 20
40.5676625125
  0
LWPOLYLINE
  5
2A0
100
AcDbEntity
  8
0
100
AcDbPolyline
 62
2
  6
CONTINUOUS
 90
3
 70
0
 10
522.4557107205
 20
52.5676634748
 10
523.3128323206
 20
51.2819468542
 10
523.3128323206
 20
49.5676618291
  0
LINE
  5
2A1
100
AcDbEntity
  8
0
100
AcDbLine
 62
2
  6
CONTINUOUS
 10
523.3128323206
 20
51.2819468542
 11
524.1699539207
 21
52.5676634748
  0
LWPOLYLINE
  5
2A2
100
AcDbEntity
  8
0
100
AcDbPolyline
 62
2
  6
CONTINUOUS
 90
6
 70
0
 10
525.0271363571
 20
49.5676618291
 10
526.0985231481
 20
49.5676618291
 10
526.3128491753
 20
49.7819498336
 10
526.3128491753
 20
50.8533784496
 10
525.8842579572
 20
51.2819468542
 10
525.455666739
 20
51.2819468542
  0
LWPOLYLINE
  5
2A3
100
AcDbEntity
  8
0
100
AcDbPolyline
 62
2
  6
CONTINUOUS
 90
5
 70
0
 10
525.8842579572
 20
51.2819468542
 10
526.2413666088
 20
51.4962348588
 10
526.2413666088
 20
52.1390912679
 10
525.8842579572
 20
52.5676634748
 10
525.0271363571
 20
52.5676634748
  0
LWPOLYLINE
  5
2A4
100
AcDbEntity
  8
0
100
AcDbPolyline
 62
2
  6
CONTINUOUS
 90
5
 70
0
 10
527.1699707755
 20
49.5676618291
 10
527.1699707755
 20
52.5676634748
 10
528.0270923756
 20
50.8533784496
 10
528.8842748119
 20
52.5676634748
 10
528.8842748119
 20
49.5676618291
  0
LINE
  5
2A5
100
AcDbEntity
  8
0
100
AcDbLine
 62
2
  6
CONTINUOUS
 10
529.741396412
 20
49.5676618291
 11
531.4557004485
 21
49.5676618291
  0
LWPOLYLINE
  5
2A6
100
AcDbEntity
  8
0
100
AcDbPolyline
 62
2
  6
CONTINUOUS
 90
6
 70
0
 10
533.3842696759
 20
49.5676618291
 10
532.5270872396
 20
49.5676618291
 10
532.0985568576
 20
49.9962340359
 10
532.0985568576
 20
52.1390912679
 10
532.5270872396
 20
52.5676634748
 10
533.3842696759
 20
52.5676634748
  0
LINE
  5
2A7
100
AcDbEntity
  8
0
100
AcDbLine
 62
2
  6
CONTINUOUS
 10
534.5985607639
 20
49.5676618291
 11
536.3128039641
 21
49.5676618291
  0
LWPOLYLINE
  5
2A8
100
AcDbEntity
  8
0
100
AcDbPolyline
 62
2
  6
CONTINUOUS
 90
13
 70
0
 10
536.9556603733
 20
50.4248062428
 10
536.9556603733
 20
51.7105190611
 10
537.1699864005
 20
52.1390912679
 10
537.5985167824
 20
52.5676634748
 10
537.8128428096
 20
52.5676634748
 10
538.2413731916
 20
52.1390912679
 10
538.4556992187
 20
51.7105190611
 10
538.4556992187
 20
50.4248062428
 10
538.2413731916
 20
49.9962340359
 10
537.8128428096
 20
49.5676618291
 10
537.5985167824
 20
49.5676618291
 10
537.1699864005
 20
49.9962340359
 10
536.9556603733
 20
50.4248062428
  0
LWPOLYLINE
  5
2A9
100
AcDbEntity
  8
0
100
AcDbPolyline
 62
2
  6
CONTINUOUS
 90
13
 70
0
 10
539.3128208189
 20
50.4248062428
 10
539.3128208189
 20
51.7105190611
 10
539.5270860098
 20
52.1390912679
 10
539.955677228
 20
52.5676634748
 10
540.169942419
 20
52.5676634748
 10
540.5985336372
 20
52.1390912679
 10
540.8127988281
 20
51.7105190611
 10
540.8127988281
 20
50.4248062428
 10
540.5985336372
 20
49.9962340359
 10
540.169942419
 20
49.5676618291
 10
539.955677228
 20
49.5676618291
 10
539.5270860098
 20
49.9962340359
 10
539.3128208189
 20
50.4248062428
  0
LWPOLYLINE
  5
2AA
100
AcDbEntity
  8
0
100
AcDbPolyline
 62
2
  6
CONTINUOUS
 90
3
 70
0
 10
541.6699812645
 20
51.7105190611
 10
542.5271028646
 20
52.5676634748
 10
542.5271028646
 20
49.5676618291
  0
LWPOLYLINE
  5
2AB
100
AcDbEntity
  8
0
100
AcDbPolyline
 62
2
  6
CONTINUOUS
 90
7
 70
0
 10
563.1223557581
 20
48.8176614176
 10
563.1223557581
 20
52.3176608028
 10
564.3723577112
 20
52.3176608028
 10
564.8723706597
 20
51.8176630633
 10
564.8723706597
 20
50.8176637822
 10
564.3723577112
 20
50.3176622405
 10
563.1223557581
 20
50.3176622405
  0
LINE
  5
2AC
100
AcDbEntity
  8
0
100
AcDbLine
 62
2
  6
CONTINUOUS
 10
563.8723447627
 20
50.3176622405
 11
564.8723706597
 21
48.8176614176
  0
LWPOLYLINE
  5
2AD
100
AcDbEntity
  8
0
100
AcDbPolyline
 62
2
  6
CONTINUOUS
 90
9
 70
0
 10
567.372374566
 20
48.8176614176
 10
566.372348669
 20
48.8176614176
 10
565.8723357205
 20
49.3176629593
 10
565.8723357205
 20
50.8176637822
 10
566.372348669
 20
51.3176615216
 10
566.8723616175
 20
51.3176615216
 10
567.372374566
 20
50.8176637822
 10
567.372374566
 20
50.0676633708
 10
565.8723357205
 20
50.0676633708
  0
LWPOLYLINE
  5
2AE
100
AcDbEntity
  8
0
100
AcDbPolyline
 62
2
  6
CONTINUOUS
 90
3
 70
0
 10
568.3723396267
 20
51.3176615216
 10
569.1223286314
 20
48.8176614176
 10
569.8723784722
 20
51.3176615216
  0
LWPOLYLINE
  5
2AF
100
AcDbEntity
  8
0
100
AcDbPolyline
 62
2
  6
CONTINUOUS
 90
4
 70
0
 10
570.872343533
 20
48.8176614176
 10
570.872343533
 20
49.0676640896
 10
571.0390347946
 20
49.0676640896
 10
570.872343533
 20
48.8176614176
  0
LWPOLYLINE
  5
2B0
100
AcDbEntity
  8
0
100
AcDbPolyline
 62
2
  6
CONTINUOUS
 90
4
 70
0
 10
570.872343533
 20
50.3176622405
 10
570.872343533
 20
50.5676611102
 10
571.0390347946
 20
50.5676611102
 10
570.872343533
 20
50.3176622405
  0
LWPOLYLINE
  5
2B1
100
AcDbEntity
  8
0
100
AcDbPolyline
 62
2
  6
CONTINUOUS
 90
13
 70
0
 10
572.1223454861
 20
49.8176606988
 10
572.1223454861
 20
51.3176615216
 10
572.3723215422
 20
51.8176630633
 10
572.8723344907
 20
52.3176608028
 10
573.1223713831
 20
52.3176608028
 10
573.6223234954
 20
51.8176630633
 10
573.8723603877
 20
51.3176615216
 10
573.8723603877
 20
49.8176606988
 10
573.6223234954
 20
49.3176629593
 10
573.1223713831
 20
48.8176614176
 10
572.8723344907
 20
48.8176614176
 10
572.3723215422
 20
49.3176629593
 10
572.1223454861
 20
49.8176606988
  0
LWPOLYLINE
  5
2B2
100
AcDbEntity
  8
0
100
AcDbPolyline
 62
2
  6
CONTINUOUS
 90
13
 70
0
 10
574.8723254485
 20
49.8176606988
 10
574.8723254485
 20
51.3176615216
 10
575.1223623409
 20
51.8176630633
 10
575.6223752894
 20
52.3176608028
 10
575.8723513455
 20
52.3176608028
 10
576.372364294
 20
51.8176630633
 10
576.6223403501
 20
51.3176615216
 10
576.6223403501
 20
49.8176606988
 10
576.372364294
 20
49.3176629593
 10
575.8723513455
 20
48.8176614176
 10
575.6223752894
 20
48.8176614176
 10
575.1223623409
 20
49.3176629593
 10
574.8723254485
 20
49.8176606988
  0
LWPOLYLINE
  5
2B3
100
AcDbEntity
  8
0
100
AcDbPolyline
 62
2
  6
CONTINUOUS
 90
10
 70
0
 10
522.4557107205
 20
43.0676607982
 10
522.7056867766
 20
42.8176619285
 10
523.7057126736
 20
42.8176619285
 10
524.2056647859
 20
43.3176634702
 10
524.2056647859
 20
43.8176612097
 10
522.4557107205
 20
45.3176620325
 10
522.4557107205
 20
45.8176635742
 10
522.9556628328
 20
46.3176613137
 10
523.9556887297
 20
46.3176613137
 10
524.2056647859
 20
46.0676624439
  0
LWPOLYLINE
  5
2B4
100
AcDbEntity
  8
0
100
AcDbPolyline
 62
2
  6
CONTINUOUS
 90
6
 70
0
 10
526.455692636
 20
42.8176619285
 10
525.455666739
 20
42.8176619285
 10
525.2056906829
 20
43.0676607982
 10
525.2056906829
 20
45.0676631628
 10
525.455666739
 20
45.3176620325
 10
526.455692636
 20
45.3176620325
  0
LWPOLYLINE
  5
2B5
100
AcDbEntity
  8
0
100
AcDbPolyline
 62
2
  6
CONTINUOUS
 90
4
 70
0
 10
528.9556965422
 20
42.8176619285
 10
528.9556965422
 20
44.8176642931
 10
528.7056596499
 20
45.3176620325
 10
527.4556576968
 20
45.3176620325
  0
LWPOLYLINE
  5
2B6
100
AcDbEntity
  8
0
100
AcDbPolyline
 62
2
  6
CONTINUOUS
 90
6
 70
0
 10
528.9556965422
 20
42.8176619285
 10
527.9556706453
 20
42.8176619285
 10
527.4556576968
 20
43.0676607982
 10
527.4556576968
 20
43.8176612097
 10
527.9556706453
 20
44.0676638817
 10
528.9556965422
 20
44.0676638817
  0
LWPOLYLINE
  5
2B7
100
AcDbEntity
  8
0
100
AcDbPolyline
 62
2
  6
CONTINUOUS
 90
4
 70
0
 10
530.7057114439
 20
42.8176619285
 10
530.2056984954
 20
42.8176619285
 10
529.955661603
 20
43.0676607982
 10
529.955661603
 20
46.3176613137
  0
LWPOLYLINE
  5
2B8
100
AcDbEntity
  8
0
100
AcDbPolyline
 62
2
  6
CONTINUOUS
 90
9
 70
0
 10
533.2056545139
 20
42.8176619285
 10
532.2056894531
 20
42.8176619285
 10
531.7056765046
 20
43.3176634702
 10
531.7056765046
 20
44.8176642931
 10
532.2056894531
 20
45.3176620325
 10
532.7057024016
 20
45.3176620325
 10
533.2056545139
 20
44.8176642931
 10
533.2056545139
 20
44.0676638817
 10
531.7056765046
 20
44.0676638817
  0
LWPOLYLINE
  5
2B9
100
AcDbEntity
  8
0
100
AcDbPolyline
 62
2
  6
CONTINUOUS
 90
4
 70
0
 10
534.2056804109
 20
42.8176619285
 10
534.2056804109
 20
43.0676607982
 10
534.3723716725
 20
43.0676607982
 10
534.2056804109
 20
42.8176619285
  0
LWPOLYLINE
  5
2BA
100
AcDbEntity
  8
0
100
AcDbPolyline
 62
2
  6
CONTINUOUS
 90
4
 70
0
 10
534.2056804109
 20
44.3176627514
 10
534.2056804109
 20
44.5676616211
 10
534.3723716725
 20
44.5676616211
 10
534.2056804109
 20
44.3176627514
  0
LWPOLYLINE
  5
2BB
100
AcDbEntity
  8
0
100
AcDbPolyline
 62
2
  6
CONTINUOUS
 90
6
 70
0
 10
535.455682364
 20
42.8176619285
 10
536.7056843171
 20
42.8176619285
 10
536.9556603733
 20
43.0676607982
 10
536.9556603733
 20
44.3176627514
 10
536.455708261
 20
44.8176642931
 10
535.9556953125
 20
44.8176642931
  0
LWPOLYLINE
  5
2BC
100
AcDbEntity
  8
0
100
AcDbPolyline
 62
2
  6
CONTINUOUS
 90
5
 70
0
 10
536.455708261
 20
44.8176642931
 10
536.8723755787
 20
45.0676631628
 10
536.8723755787
 20
45.8176635742
 10
536.455708261
 20
46.3176613137
 10
535.455682364
 20
46.3176613137
  0
LWPOLYLINE
  5
2BD
100
AcDbEntity
  8
0
100
AcDbPolyline
 62
2
  6
CONTINUOUS
 90
4
 70
0
 10
537.9556862703
 20
42.8176619285
 10
537.9556862703
 20
43.0676607982
 10
538.1223775318
 20
43.0676607982
 10
537.9556862703
 20
42.8176619285
  0
LWPOLYLINE
  5
2BE
100
AcDbEntity
  8
0
100
AcDbPolyline
 62
2
  6
CONTINUOUS
 90
4
 70
0
 10
537.9556862703
 20
44.3176627514
 10
537.9556862703
 20
44.5676616211
 10
538.1223775318
 20
44.5676616211
 10
537.9556862703
 20
44.3176627514
  0
LWPOLYLINE
  5
2BF
100
AcDbEntity
  8
0
100
AcDbPolyline
 62
2
  6
CONTINUOUS
 90
7
 70
0
 10
540.955703125
 20
42.8176619285
 10
539.2056882234
 20
42.8176619285
 10
540.955703125
 20
45.3176620325
 10
540.955703125
 20
45.8176635742
 10
540.4556901765
 20
46.3176613137
 10
539.7057011719
 20
46.3176613137
 10
539.2056882234
 20
45.5676609022
  0
LWPOLYLINE
  5
2C0
100
AcDbEntity
  8
0
100
AcDbPolyline
 62
2
  6
CONTINUOUS
 90
13
 70
0
 10
541.9556681858
 20
43.8176612097
 10
541.9556681858
 20
45.3176620325
 10
542.2057050781
 20
45.8176635742
 10
542.7056571904
 20
46.3176613137
 10
542.9556940828
 20
46.3176613137
 10
543.4557070312
 20
45.8176635742
 10
543.7056830874
 20
45.3176620325
 10
543.7056830874
 20
43.8176612097
 10
543.4557070312
 20
43.3176634702
 10
542.9556940828
 20
42.8176619285
 10
542.7056571904
 20
42.8176619285
 10
542.2057050781
 20
43.3176634702
 10
541.9556681858
 20
43.8176612097
  0
LWPOLYLINE
  5
2C1
100
AcDbEntity
  8
0
100
AcDbPolyline
 62
2
  6
CONTINUOUS
 90
3
 70
0
 10
562.4557123843
 20
43.3176634702
 10
563.455677445
 20
46.8176628554
 10
564.455703342
 20
43.3176634702
  0
LINE
  5
2C2
100
AcDbEntity
  8
0
100
AcDbLine
 62
2
  6
CONTINUOUS
 10
562.7890340712
 20
44.3176627514
 11
564.1223208189
 21
44.3176627514
  0
LWPOLYLINE
  5
2C3
100
AcDbEntity
  8
0
100
AcDbPolyline
 62
2
  6
CONTINUOUS
 90
3
 70
0
 10
565.4556684028
 20
45.8176635742
 10
566.4556942998
 20
46.8176628554
 10
566.4556942998
 20
43.3176634702
  0
LINE
  5
2C4
100
AcDbEntity
  8
0
100
AcDbLine
 62
2
  6
CONTINUOUS
 10
523.1223540943
 20
35.3176616166
 11
523.1223540943
 21
38.8176610017
  0
LINE
  5
2C5
100
AcDbEntity
  8
0
100
AcDbLine
 62
2
  6
CONTINUOUS
 10
523.1223540943
 20
36.4843293457
 11
524.8723689959
 21
38.8176610017
  0
LINE
  5
2C6
100
AcDbEntity
  8
0
100
AcDbLine
 62
2
  6
CONTINUOUS
 10
523.872343099
 20
37.3176639811
 11
524.8723689959
 21
35.3176616166
  0
LWPOLYLINE
  5
2C7
100
AcDbEntity
  8
0
100
AcDbPolyline
 62
2
  6
CONTINUOUS
 90
9
 70
0
 10
525.8723340567
 20
35.8176631583
 10
525.8723340567
 20
38.3176632623
 10
526.3723470052
 20
38.8176610017
 10
527.1223360098
 20
38.8176610017
 10
527.6223489583
 20
38.3176632623
 10
527.6223489583
 20
35.8176631583
 10
527.1223360098
 20
35.3176616166
 10
526.3723470052
 20
35.3176616166
 10
525.8723340567
 20
35.8176631583
  0
LWPOLYLINE
  5
2C8
100
AcDbEntity
  8
0
100
AcDbPolyline
 62
2
  6
CONTINUOUS
 90
7
 70
0
 10
528.6223748553
 20
35.3176616166
 10
528.6223748553
 20
38.8176610017
 10
529.8723768084
 20
38.8176610017
 10
530.3723289207
 20
38.3176632623
 10
530.3723289207
 20
37.3176639811
 10
529.8723768084
 20
36.8176624394
 10
528.6223748553
 20
36.8176624394
  0
LINE
  5
2C9
100
AcDbEntity
  8
0
100
AcDbLine
 62
2
  6
CONTINUOUS
 10
529.37236386
 20
36.8176624394
 11
530.3723289207
 21
35.3176616166
  0
LWPOLYLINE
  5
2CA
100
AcDbEntity
  8
0
100
AcDbPolyline
 62
2
  6
CONTINUOUS
 90
3
 70
0
 10
531.3723548177
 20
35.3176616166
 10
532.3723198785
 20
38.8176610017
 10
533.3723457755
 20
35.3176616166
  0
LINE
  5
2CB
100
AcDbEntity
  8
0
100
AcDbLine
 62
2
  6
CONTINUOUS
 10
531.7056765046
 20
36.3176608977
 11
533.0390240885
 21
36.3176608977
  0
LWPOLYLINE
  5
2CC
100
AcDbEntity
  8
0
100
AcDbPolyline
 62
2
  6
CONTINUOUS
 90
3
 70
0
 10
537.1223516348
 20
37.8176617206
 10
538.1223775318
 20
38.8176610017
 10
538.1223775318
 20
35.3176616166
  0
LWPOLYLINE
  5
2CD
100
AcDbEntity
  8
0
100
AcDbPolyline
 62
2
  6
CONTINUOUS
 90
9
 70
0
 10
539.8723315972
 20
35.9009973823
 10
539.955677228
 20
35.7343289343
 10
539.955677228
 20
35.6509947103
 10
539.8723315972
 20
35.4843300646
 10
539.7057011719
 20
35.4843300646
 10
539.6223555411
 20
35.6509947103
 10
539.6223555411
 20
35.7343289343
 10
539.7057011719
 20
35.9009973823
 10
539.8723315972
 20
35.9009973823
  0
LWPOLYLINE
  5
2CE
100
AcDbEntity
  8
0
100
AcDbPolyline
 62
2
  6
CONTINUOUS
 90
13
 70
0
 10
541.1223335503
 20
36.3176608977
 10
541.1223335503
 20
37.8176617206
 10
541.3723704427
 20
38.3176632623
 10
541.872322555
 20
38.8176610017
 10
542.1223594473
 20
38.8176610017
 10
542.6223723958
 20
38.3176632623
 10
542.872348452
 20
37.8176617206
 10
542.872348452
 20
36.3176608977
 10
542.6223723958
 20
35.8176631583
 10
542.1223594473
 20
35.3176616166
 10
541.872322555
 20
35.3176616166
 10
541.3723704427
 20
35.8176631583
 10
541.1223335503
 20
36.3176608977
  0
LWPOLYLINE
  5
2CF
100
AcDbEntity
  8
0
100
AcDbPolyline
 62
2
  6
CONTINUOUS
 90
7
 70
0
 10
522.9318758681
 20
28.3176628463
 10
522.9318758681
 20
30.8176629503
 10
523.8247083333
 20
30.8176629503
 10
524.1818778212
 20
30.4605200783
 10
524.1818778212
 20
28.6748057183
 10
523.8247083333
 20
28.3176628463
 10
522.9318758681
 20
28.3176628463
  0
LWPOLYLINE
  5
2D0
100
AcDbEntity
  8
0
100
AcDbPolyline
 62
2
  6
CONTINUOUS
 90
3
 70
0
 10
525.1937667824
 20
28.3176628463
 10
525.9080449219
 20
30.8176629503
 10
526.6223230613
 20
28.3176628463
  0
LINE
  5
2D1
100
AcDbEntity
  8
0
100
AcDbLine
 62
2
  6
CONTINUOUS
 10
525.4318797743
 20
29.0319485903
 11
526.3842709057
 21
29.0319485903
  0
LINE
  5
2D2
100
AcDbEntity
  8
0
100
AcDbLine
 62
2
  6
CONTINUOUS
 10
528.0509401765
 20
28.3176628463
 11
528.0509401765
 21
30.8176629503
  0
LINE
  5
2D3
100
AcDbEntity
  8
0
100
AcDbLine
 62
2
  6
CONTINUOUS
 10
527.336662037
 20
30.8176629503
 11
528.765218316
 21
30.8176629503
  0
LWPOLYLINE
  5
2D4
100
AcDbEntity
  8
0
100
AcDbPolyline
 62
2
  6
CONTINUOUS
 90
3
 70
0
 10
529.4794964554
 20
28.3176628463
 10
529.4794964554
 20
30.8176629503
 10
530.5509440828
 20
30.8176629503
  0
LINE
  5
2D5
100
AcDbEntity
  8
0
100
AcDbLine
 62
2
  6
CONTINUOUS
 10
530.1937745949
 20
29.7462343343
 11
529.4794964554
 21
29.7462343343
  0
LINE
  5
2D6
100
AcDbEntity
  8
0
100
AcDbLine
 62
2
  6
CONTINUOUS
 10
529.4794964554
 20
28.3176628463
 11
530.5509440828
 21
28.3176628463
  0
LWPOLYLINE
  5
2D7
100
AcDbEntity
  8
0
100
AcDbPolyline
 62
2
  6
CONTINUOUS
 90
4
 70
0
 10
531.2652222222
 20
28.3176628463
 10
531.2652222222
 20
28.4962342823
 10
531.3842787182
 20
28.4962342823
 10
531.2652222222
 20
28.3176628463
  0
LWPOLYLINE
  5
2D8
100
AcDbEntity
  8
0
100
AcDbPolyline
 62
2
  6
CONTINUOUS
 90
4
 70
0
 10
531.2652222222
 20
29.3890914623
 10
531.2652222222
 20
29.5676628983
 10
531.3842787182
 20
29.5676628983
 10
531.2652222222
 20
29.3890914623
  0
LWPOLYLINE
  5
2D9
100
AcDbEntity
  8
0
100
AcDbPolyline
 62
2
  6
CONTINUOUS
 90
3
 70
0
 10
534.1223347801
 20
30.1033772063
 10
534.8366129196
 20
30.8176629503
 10
534.8366129196
 20
28.3176628463
  0
LWPOLYLINE
  5
2DA
100
AcDbEntity
  8
0
100
AcDbPolyline
 62
2
  6
CONTINUOUS
 90
4
 70
0
 10
535.550891059
 20
30.2819486423
 10
535.550891059
 20
30.8176629503
 10
536.8008930122
 20
30.8176629503
 10
536.0866148727
 20
28.3176628463
  0
LINE
  5
2DB
100
AcDbEntity
  8
0
100
AcDbLine
 62
2
  6
CONTINUOUS
 10
538.9437882668
 20
30.5795670686
 11
537.5152319878
 21
28.3771853909
  0
LWPOLYLINE
  5
2DC
100
AcDbEntity
  8
0
100
AcDbPolyline
 62
2
  6
CONTINUOUS
 90
13
 70
0
 10
539.4199534144
 20
29.0319485903
 10
539.4199534144
 20
30.1033772063
 10
539.5985685764
 20
30.4605200783
 10
539.955677228
 20
30.8176629503
 10
540.1342315538
 20
30.8176629503
 10
540.4914010417
 20
30.4605200783
 10
540.6699553675
 20
30.1033772063
 10
540.6699553675
 20
29.0319485903
 10
540.4914010417
 20
28.6748057183
 10
540.1342315538
 20
28.3176628463
 10
539.955677228
 20
28.3176628463
 10
539.5985685764
 20
28.6748057183
 10
539.4199534144
 20
29.0319485903
  0
LWPOLYLINE
  5
2DD
100
AcDbEntity
  8
0
100
AcDbPolyline
 62
2
  6
CONTINUOUS
 90
8
 70
0
 10
541.3842335069
 20
28.3176628463
 10
542.0985116464
 20
28.3176628463
 10
542.4556811343
 20
28.6748057183
 10
542.4556811343
 20
29.3890914623
 10
542.0985116464
 20
29.7462343343
 10
541.3842335069
 20
29.7462343343
 10
541.3842335069
 20
30.8176629503
 10
542.4556811343
 20
30.8176629503
  0
LINE
  5
2DE
100
AcDbEntity
  8
0
100
AcDbLine
 62
2
  6
CONTINUOUS
 10
544.5985155527
 20
30.5795670686
 11
543.1699592737
 21
28.3771853909
  0
LWPOLYLINE
  5
2DF
100
AcDbEntity
  8
0
100
AcDbPolyline
 62
2
  6
CONTINUOUS
 90
7
 70
0
 10
546.3247434896
 20
28.3176628463
 10
545.0747415365
 20
28.3176628463
 10
546.3247434896
 20
30.1033772063
 10
546.3247434896
 20
30.4605200783
 10
545.9675740017
 20
30.8176629503
 10
545.4318501881
 20
30.8176629503
 10
545.0747415365
 20
30.2819486423
  0
LWPOLYLINE
  5
2E0
100
AcDbEntity
  8
0
100
AcDbPolyline
 62
2
  6
CONTINUOUS
 90
13
 70
0
 10
547.0390216291
 20
29.0319485903
 10
547.0390216291
 20
30.1033772063
 10
547.2175759549
 20
30.4605200783
 10
547.5747454427
 20
30.8176629503
 10
547.7532997685
 20
30.8176629503
 10
548.1104692564
 20
30.4605200783
 10
548.2890235822
 20
30.1033772063
 10
548.2890235822
 20
29.0319485903
 10
548.1104692564
 20
28.6748057183
 10
547.7532997685
 20
28.3176628463
 10
547.5747454427
 20
28.3176628463
 10
547.2175759549
 20
28.6748057183
 10
547.0390216291
 20
29.0319485903
  0
LWPOLYLINE
  5
2E1
100
AcDbEntity
  8
0
100
AcDbPolyline
 62
2
  6
CONTINUOUS
 90
3
 70
0
 10
549.0033017216
 20
30.1033772063
 10
549.7175798611
 20
30.8176629503
 10
549.7175798611
 20
28.3176628463
  0
LWPOLYLINE
  5
2E2
100
AcDbEntity
  8
0
100
AcDbPolyline
 62
2
  6
CONTINUOUS
 90
4
 70
0
 10
550.4318580006
 20
30.2819486423
 10
550.4318580006
 20
30.8176629503
 10
551.6818599537
 20
30.8176629503
 10
550.9675818142
 20
28.3176628463
  0
LWPOLYLINE
  5
2E3
100
AcDbEntity
  8
0
100
AcDbPolyline
 62
2
  6
CONTINUOUS
 90
3
 70
0
 10
492.4556638455
 20
24.5051629729
 10
493.0985202546
 20
26.755162306
 10
493.7413766638
 20
24.5051629729
  0
LINE
  5
2E4
100
AcDbEntity
  8
0
100
AcDbLine
 62
2
  6
CONTINUOUS
 10
492.6699898727
 20
25.1480193821
 11
493.5271114728
 21
25.1480193821
  0
LWPOLYLINE
  5
2E5
100
AcDbEntity
  8
0
100
AcDbPolyline
 62
2
  6
CONTINUOUS
 90
5
 70
0
 10
494.3842330729
 20
24.5051629729
 10
494.3842330729
 20
26.1123058969
 10
495.1878187934
 20
26.1123058969
 10
495.3485481047
 20
25.9515917946
 10
495.3485481047
 20
24.5051629729
  0
LWPOLYLINE
  5
2E6
100
AcDbEntity
  8
0
100
AcDbPolyline
 62
2
  6
CONTINUOUS
 90
3
 70
0
 10
495.9914045139
 20
23.9694486649
 10
496.3128023003
 20
23.9694486649
 10
496.9556587095
 20
26.1123058969
  0
LINE
  5
2E7
100
AcDbEntity
  8
0
100
AcDbLine
 62
2
  6
CONTINUOUS
 10
495.9914045139
 20
26.1123058969
 11
496.4735316117
 21
24.5051629729
  0
LINE
  5
2E8
100
AcDbEntity
  8
0
100
AcDbLine
 62
2
  6
CONTINUOUS
 10
499.4735484664
 20
24.5051629729
 11
499.4735484664
 21
26.1123058969
  0
LWPOLYLINE
  5
2E9
100
AcDbEntity
  8
0
100
AcDbPolyline
 62
2
  6
CONTINUOUS
 90
4
 70
0
 10
499.4735484664
 20
26.5944482038
 10
499.4735484664
 20
26.755162306
 10
499.5270843461
 20
26.755162306
 10
499.4735484664
 20
26.5944482038
  0
LWPOLYLINE
  5
2EA
100
AcDbEntity
  8
0
100
AcDbPolyline
 62
2
  6
CONTINUOUS
 90
5
 70
0
 10
500.3306700666
 20
24.5051629729
 10
500.3306700666
 20
26.1123058969
 10
501.134255787
 20
26.1123058969
 10
501.2949850984
 20
25.9515917946
 10
501.2949850984
 20
24.5051629729
  0
LINE
  5
2EB
100
AcDbEntity
  8
0
100
AcDbLine
 62
2
  6
CONTINUOUS
 10
502.2057034144
 20
24.5051629729
 11
502.2057034144
 21
26.755162306
  0
LINE
  5
2EC
100
AcDbEntity
  8
0
100
AcDbLine
 62
2
  6
CONTINUOUS
 10
501.9378415075
 20
26.1123058969
 11
502.5806979167
 21
26.1123058969
  0
LWPOLYLINE
  5
2ED
100
AcDbEntity
  8
0
100
AcDbPolyline
 62
2
  6
CONTINUOUS
 90
9
 70
0
 10
504.1878085214
 20
24.5051629729
 10
503.5449521123
 20
24.5051629729
 10
503.2235543258
 20
24.8265911775
 10
503.2235543258
 20
25.7908776923
 10
503.5449521123
 20
26.1123058969
 10
503.866410735
 20
26.1123058969
 10
504.1878085214
 20
25.7908776923
 10
504.1878085214
 20
25.3087334843
 10
503.2235543258
 20
25.3087334843
  0
LWPOLYLINE
  5
2EE
100
AcDbEntity
  8
0
100
AcDbPolyline
 62
2
  6
CONTINUOUS
 90
9
 70
0
 10
504.8306649306
 20
23.9694486649
 10
505.634250651
 20
23.9694486649
 10
505.7949799624
 20
24.1837347683
 10
505.7949799624
 20
26.1123058969
 10
504.9913942419
 20
26.1123058969
 10
504.8306649306
 20
25.9515917946
 10
504.8306649306
 20
24.6658770752
 10
504.9913942419
 20
24.5051629729
 10
505.7949799624
 20
24.5051629729
  0
LWPOLYLINE
  5
2EF
100
AcDbEntity
  8
0
100
AcDbPolyline
 62
2
  6
CONTINUOUS
 90
5
 70
0
 10
506.4378363715
 20
24.5051629729
 10
506.4378363715
 20
26.1123058969
 10
507.0806927807
 20
26.1123058969
 10
507.1878253762
 20
25.9515917946
 10
507.1878253762
 20
25.6301616889
  0
LWPOLYLINE
  5
2F0
100
AcDbEntity
  8
0
100
AcDbPolyline
 62
2
  6
CONTINUOUS
 90
4
 70
0
 10
508.8485326968
 20
24.5051629729
 10
508.8485326968
 20
25.7908776923
 10
508.6878033854
 20
26.1123058969
 10
507.8842785012
 20
26.1123058969
  0
LWPOLYLINE
  5
2F1
100
AcDbEntity
  8
0
100
AcDbPolyline
 62
2
  6
CONTINUOUS
 90
6
 70
0
 10
508.8485326968
 20
24.5051629729
 10
508.2056762876
 20
24.5051629729
 10
507.8842785012
 20
24.6658770752
 10
507.8842785012
 20
25.1480193821
 10
508.2056762876
 20
25.3087334843
 10
508.8485326968
 20
25.3087334843
  0
LWPOLYLINE
  5
2F2
100
AcDbEntity
  8
0
100
AcDbPolyline
 62
2
  6
CONTINUOUS
 90
4
 70
0
 10
509.9735162037
 20
24.5051629729
 10
509.6521184172
 20
24.5051629729
 10
509.4913891059
 20
24.6658770752
 10
509.4913891059
 20
26.755162306
  0
LWPOLYLINE
  5
2F3
100
AcDbEntity
  8
0
100
AcDbPolyline
 62
2
  6
CONTINUOUS
 90
9
 70
0
 10
512.3842733652
 20
24.8265911775
 10
512.3842733652
 20
25.7908776923
 10
512.7056711516
 20
26.1123058969
 10
513.0271297743
 20
26.1123058969
 10
513.3485275608
 20
25.7908776923
 10
513.3485275608
 20
24.8265911775
 10
513.0271297743
 20
24.5051629729
 10
512.7056711516
 20
24.5051629729
 10
512.3842733652
 20
24.8265911775
  0
LWPOLYLINE
  5
2F4
100
AcDbEntity
  8
0
100
AcDbPolyline
 62
2
  6
CONTINUOUS
 90
5
 70
0
 10
513.9913839699
 20
24.5051629729
 10
513.9913839699
 20
26.1123058969
 10
514.6342403791
 20
26.1123058969
 10
514.7413729745
 20
25.9515917946
 10
514.7413729745
 20
25.6301616889
  0
LWPOLYLINE
  5
2F5
100
AcDbEntity
  8
0
100
AcDbPolyline
 62
2
  6
CONTINUOUS
 90
7
 70
0
 10
517.2056660156
 20
23.9694486649
 10
517.2056660156
 20
26.1123058969
 10
518.0092517361
 20
26.1123058969
 10
518.1699810475
 20
25.9515917946
 10
518.1699810475
 20
24.6658770752
 10
518.0092517361
 20
24.5051629729
 10
517.2056660156
 20
24.5051629729
  0
LWPOLYLINE
  5
2F6
100
AcDbEntity
  8
0
100
AcDbPolyline
 62
2
  6
CONTINUOUS
 90
4
 70
0
 10
519.7770916522
 20
24.5051629729
 10
519.7770916522
 20
25.7908776923
 10
519.6164231771
 20
26.1123058969
 10
518.8128374566
 20
26.1123058969
  0
LWPOLYLINE
  5
2F7
100
AcDbEntity
  8
0
100
AcDbPolyline
 62
2
  6
CONTINUOUS
 90
6
 70
0
 10
519.7770916522
 20
24.5051629729
 10
519.1342352431
 20
24.5051629729
 10
518.8128374566
 20
24.6658770752
 10
518.8128374566
 20
25.1480193821
 10
519.1342352431
 20
25.3087334843
 10
519.7770916522
 20
25.3087334843
  0
LWPOLYLINE
  5
2F8
100
AcDbEntity
  8
0
100
AcDbPolyline
 62
2
  6
CONTINUOUS
 90
5
 70
0
 10
520.4199480613
 20
24.5051629729
 10
520.4199480613
 20
26.1123058969
 10
521.0628044705
 20
26.1123058969
 10
521.1699979022
 20
25.9515917946
 10
521.1699979022
 20
25.6301616889
  0
LINE
  5
2F9
100
AcDbEntity
  8
0
100
AcDbLine
 62
2
  6
CONTINUOUS
 10
522.1342520978
 20
24.5051629729
 11
522.1342520978
 21
26.755162306
  0
LINE
  5
2FA
100
AcDbEntity
  8
0
100
AcDbLine
 62
2
  6
CONTINUOUS
 10
521.866390191
 20
26.1123058969
 11
522.5092466001
 21
26.1123058969
  0
LINE
  5
2FB
100
AcDbEntity
  8
0
100
AcDbLine
 62
2
  6
CONTINUOUS
 10
523.4735616319
 20
24.5051629729
 11
523.4735616319
 21
26.1123058969
  0
LWPOLYLINE
  5
2FC
100
AcDbEntity
  8
0
100
AcDbPolyline
 62
2
  6
CONTINUOUS
 90
4
 70
0
 10
523.4735616319
 20
26.5944482038
 10
523.4735616319
 20
26.755162306
 10
523.5270975116
 20
26.755162306
 10
523.4735616319
 20
26.5944482038
  0
LWPOLYLINE
  5
2FD
100
AcDbEntity
  8
0
100
AcDbPolyline
 62
2
  6
CONTINUOUS
 90
4
 70
0
 10
525.2949982639
 20
24.5051629729
 10
525.2949982639
 20
25.7908776923
 10
525.1342689525
 20
26.1123058969
 10
524.3306832321
 20
26.1123058969
  0
LWPOLYLINE
  5
2FE
100
AcDbEntity
  8
0
100
AcDbPolyline
 62
2
  6
CONTINUOUS
 90
6
 70
0
 10
525.2949982639
 20
24.5051629729
 10
524.6520810185
 20
24.5051629729
 10
524.3306832321
 20
24.6658770752
 10
524.3306832321
 20
25.1480193821
 10
524.6520810185
 20
25.3087334843
 10
525.2949982639
 20
25.3087334843
  0
LWPOLYLINE
  5
2FF
100
AcDbEntity
  8
0
100
AcDbPolyline
 62
2
  6
CONTINUOUS
 90
4
 70
0
 10
526.4199817708
 20
24.5051629729
 10
526.0985231481
 20
24.5051629729
 10
525.937854673
 20
24.6658770752
 10
525.937854673
 20
26.755162306
  0
LWPOLYLINE
  5
300
100
AcDbEntity
  8
0
100
AcDbPolyline
 62
2
  6
CONTINUOUS
 90
5
 70
0
 10
528.8306780961
 20
24.5051629729
 10
528.8306780961
 20
26.1123058969
 10
529.4735345052
 20
26.1123058969
 10
529.5806671007
 20
25.9515917946
 10
529.5806671007
 20
25.6301616889
  0
LWPOLYLINE
  5
301
100
AcDbEntity
  8
0
100
AcDbPolyline
 62
2
  6
CONTINUOUS
 90
9
 70
0
 10
531.2413744213
 20
24.5051629729
 10
530.5985180122
 20
24.5051629729
 10
530.2771202257
 20
24.8265911775
 10
530.2771202257
 20
25.7908776923
 10
530.5985180122
 20
26.1123058969
 10
530.9199766348
 20
26.1123058969
 10
531.2413744213
 20
25.7908776923
 10
531.2413744213
 20
25.3087334843
 10
530.2771202257
 20
25.3087334843
  0
LWPOLYLINE
  5
302
100
AcDbEntity
  8
0
100
AcDbPolyline
 62
2
  6
CONTINUOUS
 90
7
 70
0
 10
531.8842308304
 20
23.9694486649
 10
531.8842308304
 20
26.1123058969
 10
532.6878165509
 20
26.1123058969
 10
532.8485458623
 20
25.9515917946
 10
532.8485458623
 20
24.6658770752
 10
532.6878165509
 20
24.5051629729
 10
531.8842308304
 20
24.5051629729
  0
LWPOLYLINE
  5
303
100
AcDbEntity
  8
0
100
AcDbPolyline
 62
2
  6
CONTINUOUS
 90
5
 70
0
 10
533.4914022714
 20
24.5051629729
 10
533.4914022714
 20
26.1123058969
 10
534.1342586806
 20
26.1123058969
 10
534.241391276
 20
25.9515917946
 10
534.241391276
 20
25.6301616889
  0
LWPOLYLINE
  5
304
100
AcDbEntity
  8
0
100
AcDbPolyline
 62
2
  6
CONTINUOUS
 90
9
 70
0
 10
534.937844401
 20
24.8265911775
 10
534.937844401
 20
25.7908776923
 10
535.2592421875
 20
26.1123058969
 10
535.5807008102
 20
26.1123058969
 10
535.9020985966
 20
25.7908776923
 10
535.9020985966
 20
24.8265911775
 10
535.5807008102
 20
24.5051629729
 10
535.2592421875
 20
24.5051629729
 10
534.937844401
 20
24.8265911775
  0
LWPOLYLINE
  5
305
100
AcDbEntity
  8
0
100
AcDbPolyline
 62
2
  6
CONTINUOUS
 90
7
 70
0
 10
537.5092700376
 20
26.755162306
 10
537.5092700376
 20
24.5051629729
 10
536.8664136285
 20
24.5051629729
 10
536.5449550058
 20
24.6658770752
 10
536.5449550058
 20
25.9515917946
 10
536.8664136285
 20
26.1123058969
 10
537.5092700376
 20
26.1123058969
  0
LWPOLYLINE
  5
306
100
AcDbEntity
  8
0
100
AcDbPolyline
 62
2
  6
CONTINUOUS
 90
5
 70
0
 10
538.1521264468
 20
26.1123058969
 10
538.1521264468
 20
24.6658770752
 10
538.3128557581
 20
24.5051629729
 10
539.1163806424
 20
24.5051629729
 10
539.1163806424
 20
26.1123058969
  0
LWPOLYLINE
  5
307
100
AcDbEntity
  8
0
100
AcDbPolyline
 62
2
  6
CONTINUOUS
 90
6
 70
0
 10
540.562822772
 20
24.5051629729
 10
539.9199663628
 20
24.5051629729
 10
539.7592370515
 20
24.6658770752
 10
539.7592370515
 20
25.9515917946
 10
539.9199663628
 20
26.1123058969
 10
540.562822772
 20
26.1123058969
  0
LINE
  5
308
100
AcDbEntity
  8
0
100
AcDbLine
 62
2
  6
CONTINUOUS
 10
541.473541088
 20
24.5051629729
 11
541.473541088
 21
26.755162306
  0
LINE
  5
309
100
AcDbEntity
  8
0
100
AcDbLine
 62
2
  6
CONTINUOUS
 10
541.2056791811
 20
26.1123058969
 11
541.8485355903
 21
26.1123058969
  0
LINE
  5
30A
100
AcDbEntity
  8
0
100
AcDbLine
 62
2
  6
CONTINUOUS
 10
542.8128506221
 20
24.5051629729
 11
542.8128506221
 21
26.1123058969
  0
LWPOLYLINE
  5
30B
100
AcDbEntity
  8
0
100
AcDbPolyline
 62
2
  6
CONTINUOUS
 90
4
 70
0
 10
542.8128506221
 20
26.5944482038
 10
542.8128506221
 20
26.755162306
 10
542.8663865017
 20
26.755162306
 10
542.8128506221
 20
26.5944482038
  0
LWPOLYLINE
  5
30C
100
AcDbEntity
  8
0
100
AcDbPolyline
 62
2
  6
CONTINUOUS
 90
9
 70
0
 10
543.6699722222
 20
24.8265911775
 10
543.6699722222
 20
25.7908776923
 10
543.9913700087
 20
26.1123058969
 10
544.3128286314
 20
26.1123058969
 10
544.6342264178
 20
25.7908776923
 10
544.6342264178
 20
24.8265911775
 10
544.3128286314
 20
24.5051629729
 10
543.9913700087
 20
24.5051629729
 10
543.6699722222
 20
24.8265911775
  0
LWPOLYLINE
  5
30D
100
AcDbEntity
  8
0
100
AcDbPolyline
 62
2
  6
CONTINUOUS
 90
5
 70
0
 10
545.277082827
 20
24.5051629729
 10
545.277082827
 20
26.1123058969
 10
546.0806685475
 20
26.1123058969
 10
546.2413978588
 20
25.9515917946
 10
546.2413978588
 20
24.5051629729
  0
LWPOLYLINE
  5
30E
100
AcDbEntity
  8
0
100
AcDbPolyline
 62
2
  6
CONTINUOUS
 90
12
 70
0
 10
546.8842542679
 20
24.6658770752
 10
547.0449835793
 20
24.5051629729
 10
547.6878399884
 20
24.5051629729
 10
547.8485692998
 20
24.6658770752
 10
547.8485692998
 20
25.1480193821
 10
547.6878399884
 20
25.2551633843
 10
547.0449835793
 20
25.3623054855
 10
546.8842542679
 20
25.4694475866
 10
546.8842542679
 20
25.9515917946
 10
547.0449835793
 20
26.1123058969
 10
547.6878399884
 20
26.1123058969
 10
547.8485692998
 20
25.9515917946
  0
LWPOLYLINE
  5
30F
100
AcDbEntity
  8
0
100
AcDbPolyline
 62
2
  6
CONTINUOUS
 90
4
 70
0
 10
551.2235198206
 20
24.5051629729
 10
551.2235198206
 20
25.7908776923
 10
551.0628513455
 20
26.1123058969
 10
550.259265625
 20
26.1123058969
  0
LWPOLYLINE
  5
310
100
AcDbEntity
  8
0
100
AcDbPolyline
 62
2
  6
CONTINUOUS
 90
6
 70
0
 10
551.2235198206
 20
24.5051629729
 10
550.5806634115
 20
24.5051629729
 10
550.259265625
 20
24.6658770752
 10
550.259265625
 20
25.1480193821
 10
550.5806634115
 20
25.3087334843
 10
551.2235198206
 20
25.3087334843
  0
LWPOLYLINE
  5
311
100
AcDbEntity
  8
0
100
AcDbPolyline
 62
2
  6
CONTINUOUS
 90
5
 70
0
 10
551.8663762297
 20
24.5051629729
 10
551.8663762297
 20
26.1123058969
 10
552.5092326389
 20
26.1123058969
 10
552.6164260706
 20
25.9515917946
 10
552.6164260706
 20
25.6301616889
  0
LWPOLYLINE
  5
312
100
AcDbEntity
  8
0
100
AcDbPolyline
 62
2
  6
CONTINUOUS
 90
9
 70
0
 10
554.2771333912
 20
24.5051629729
 10
553.6342769821
 20
24.5051629729
 10
553.3128183594
 20
24.8265911775
 10
553.3128183594
 20
25.7908776923
 10
553.6342769821
 20
26.1123058969
 10
553.9556747685
 20
26.1123058969
 10
554.2771333912
 20
25.7908776923
 10
554.2771333912
 20
25.3087334843
 10
553.3128183594
 20
25.3087334843
  0
LWPOLYLINE
  5
313
100
AcDbEntity
  8
0
100
AcDbPolyline
 62
2
  6
CONTINUOUS
 90
7
 70
0
 10
556.6878297164
 20
23.9694486649
 10
556.6878297164
 20
26.1123058969
 10
557.4914154369
 20
26.1123058969
 10
557.652083912
 20
25.9515917946
 10
557.652083912
 20
24.6658770752
 10
557.4914154369
 20
24.5051629729
 10
556.6878297164
 20
24.5051629729
  0
LWPOLYLINE
  5
314
100
AcDbEntity
  8
0
100
AcDbPolyline
 62
2
  6
CONTINUOUS
 90
5
 70
0
 10
558.2949403212
 20
24.5051629729
 10
558.2949403212
 20
26.1123058969
 10
558.9377967303
 20
26.1123058969
 10
559.044990162
 20
25.9515917946
 10
559.044990162
 20
25.6301616889
  0
LWPOLYLINE
  5
315
100
AcDbEntity
  8
0
100
AcDbPolyline
 62
2
  6
CONTINUOUS
 90
9
 70
0
 10
559.7413824508
 20
24.8265911775
 10
559.7413824508
 20
25.7908776923
 10
560.0628410735
 20
26.1123058969
 10
560.38423886
 20
26.1123058969
 10
560.7056974826
 20
25.7908776923
 10
560.7056974826
 20
24.8265911775
 10
560.38423886
 20
24.5051629729
 10
560.0628410735
 20
24.5051629729
 10
559.7413824508
 20
24.8265911775
  0
LINE
  5
316
100
AcDbEntity
  8
0
100
AcDbLine
 62
2
  6
CONTINUOUS
 10
561.3485538918
 20
24.5051629729
 11
561.3485538918
 21
26.755162306
  0
LWPOLYLINE
  5
317
100
AcDbEntity
  8
0
100
AcDbPolyline
 62
2
  6
CONTINUOUS
 90
4
 70
0
 10
561.3485538918
 20
26.1123058969
 10
562.1521396123
 20
26.1123058969
 10
562.3128080874
 20
25.9515917946
 10
562.3128080874
 20
24.5051629729
  0
LINE
  5
318
100
AcDbEntity
  8
0
100
AcDbLine
 62
2
  6
CONTINUOUS
 10
563.2771231192
 20
24.5051629729
 11
563.2771231192
 21
26.1123058969
  0
LWPOLYLINE
  5
319
100
AcDbEntity
  8
0
100
AcDbPolyline
 62
2
  6
CONTINUOUS
 90
4
 70
0
 10
563.2771231192
 20
26.5944482038
 10
563.2771231192
 20
26.755162306
 10
563.3306589988
 20
26.755162306
 10
563.2771231192
 20
26.5944482038
  0
LINE
  5
31A
100
AcDbEntity
  8
0
100
AcDbLine
 62
2
  6
CONTINUOUS
 10
564.1342447193
 20
24.5051629729
 11
564.1342447193
 21
26.755162306
  0
LWPOLYLINE
  5
31B
100
AcDbEntity
  8
0
100
AcDbPolyline
 62
2
  6
CONTINUOUS
 90
6
 70
0
 10
564.1342447193
 20
26.1123058969
 10
564.9378304398
 20
26.1123058969
 10
565.0985597512
 20
25.9515917946
 10
565.0985597512
 20
24.6658770752
 10
564.9378304398
 20
24.5051629729
 10
564.1342447193
 20
24.5051629729
  0
LINE
  5
31C
100
AcDbEntity
  8
0
100
AcDbLine
 62
2
  6
CONTINUOUS
 10
566.0628139468
 20
24.5051629729
 11
566.0628139468
 21
26.1123058969
  0
LWPOLYLINE
  5
31D
100
AcDbEntity
  8
0
100
AcDbPolyline
 62
2
  6
CONTINUOUS
 90
4
 70
0
 10
566.0628139468
 20
26.5944482038
 10
566.0628139468
 20
26.755162306
 10
566.1164106626
 20
26.755162306
 10
566.0628139468
 20
26.5944482038
  0
LINE
  5
31E
100
AcDbEntity
  8
0
100
AcDbLine
 62
2
  6
CONTINUOUS
 10
567.1877974537
 20
24.5051629729
 11
567.1877974537
 21
26.755162306
  0
LINE
  5
31F
100
AcDbEntity
  8
0
100
AcDbLine
 62
2
  6
CONTINUOUS
 10
566.9199963831
 20
26.1123058969
 11
567.5628527922
 21
26.1123058969
  0
LWPOLYLINE
  5
320
100
AcDbEntity
  8
0
100
AcDbPolyline
 62
2
  6
CONTINUOUS
 90
9
 70
0
 10
569.169963397
 20
24.5051629729
 10
568.5271069878
 20
24.5051629729
 10
568.2057092014
 20
24.8265911775
 10
568.2057092014
 20
25.7908776923
 10
568.5271069878
 20
26.1123058969
 10
568.8485656105
 20
26.1123058969
 10
569.169963397
 20
25.7908776923
 10
569.169963397
 20
25.3087334843
 10
568.2057092014
 20
25.3087334843
  0
LWPOLYLINE
  5
321
100
AcDbEntity
  8
0
100
AcDbPolyline
 62
2
  6
CONTINUOUS
 90
7
 70
0
 10
570.777134838
 20
26.755162306
 10
570.777134838
 20
24.5051629729
 10
570.1342784288
 20
24.5051629729
 10
569.8128198061
 20
24.6658770752
 10
569.8128198061
 20
25.9515917946
 10
570.1342784288
 20
26.1123058969
 10
570.777134838
 20
26.1123058969
  0
LWPOLYLINE
  5
322
100
AcDbEntity
  8
0
100
AcDbPolyline
 62
2
  6
CONTINUOUS
 90
5
 70
0
 10
492.4556638455
 20
22.7373059466
 10
492.8842550637
 20
21.1301630226
 10
493.259249566
 20
22.4158777421
 10
493.6342440683
 20
21.1301630226
 10
494.0628352865
 20
22.7373059466
  0
LINE
  5
323
100
AcDbEntity
  8
0
100
AcDbLine
 62
2
  6
CONTINUOUS
 10
495.0270894821
 20
21.1301630226
 11
495.0270894821
 21
22.7373059466
  0
LWPOLYLINE
  5
324
100
AcDbEntity
  8
0
100
AcDbPolyline
 62
2
  6
CONTINUOUS
 90
4
 70
0
 10
495.0270894821
 20
23.2194482535
 10
495.0270894821
 20
23.3801623558
 10
495.0806861979
 20
23.3801623558
 10
495.0270894821
 20
23.2194482535
  0
LINE
  5
325
100
AcDbEntity
  8
0
100
AcDbLine
 62
2
  6
CONTINUOUS
 10
496.1521338252
 20
21.1301630226
 11
496.1521338252
 21
23.3801623558
  0
LINE
  5
326
100
AcDbEntity
  8
0
100
AcDbLine
 62
2
  6
CONTINUOUS
 10
495.8842719184
 20
22.7373059466
 11
496.5271283275
 21
22.7373059466
  0
LINE
  5
327
100
AcDbEntity
  8
0
100
AcDbLine
 62
2
  6
CONTINUOUS
 10
497.1699847367
 20
21.1301630226
 11
497.1699847367
 21
23.3801623558
  0
LWPOLYLINE
  5
328
100
AcDbEntity
  8
0
100
AcDbPolyline
 62
2
  6
CONTINUOUS
 90
4
 70
0
 10
497.1699847367
 20
22.7373059466
 10
497.9735096209
 20
22.7373059466
 10
498.1342389323
 20
22.5765918443
 10
498.1342389323
 20
21.1301630226
  0
LWPOLYLINE
  5
329
100
AcDbEntity
  8
0
100
AcDbPolyline
 62
2
  6
CONTINUOUS
 90
9
 70
0
 10
498.7770953414
 20
21.4515912272
 10
498.7770953414
 20
22.4158777421
 10
499.0985539641
 20
22.7373059466
 10
499.4199517506
 20
22.7373059466
 10
499.7414103733
 20
22.4158777421
 10
499.7414103733
 20
21.4515912272
 10
499.4199517506
 20
21.1301630226
 10
499.0985539641
 20
21.1301630226
 10
498.7770953414
 20
21.4515912272
  0
LWPOLYLINE
  5
32A
100
AcDbEntity
  8
0
100
AcDbPolyline
 62
2
  6
CONTINUOUS
 90
5
 70
0
 10
500.3842667824
 20
22.7373059466
 10
500.3842667824
 20
21.2908771249
 10
500.5449960938
 20
21.1301630226
 10
501.348520978
 20
21.1301630226
 10
501.348520978
 20
22.7373059466
  0
LINE
  5
32B
100
AcDbEntity
  8
0
100
AcDbLine
 62
2
  6
CONTINUOUS
 10
502.259239294
 20
21.1301630226
 11
502.259239294
 21
23.3801623558
  0
LINE
  5
32C
100
AcDbEntity
  8
0
100
AcDbLine
 62
2
  6
CONTINUOUS
 10
501.9913773872
 20
22.7373059466
 11
502.6342337963
 21
22.7373059466
  0
LWPOLYLINE
  5
32D
100
AcDbEntity
  8
0
100
AcDbPolyline
 62
2
  6
CONTINUOUS
 90
7
 70
0
 10
505.0449909578
 20
20.5944487146
 10
505.0449909578
 20
22.7373059466
 10
505.848515842
 20
22.7373059466
 10
506.0092451534
 20
22.5765918443
 10
506.0092451534
 20
21.2908771249
 10
505.848515842
 20
21.1301630226
 10
505.0449909578
 20
21.1301630226
  0
LWPOLYLINE
  5
32E
100
AcDbEntity
  8
0
100
AcDbPolyline
 62
2
  6
CONTINUOUS
 90
5
 70
0
 10
506.6521015625
 20
21.1301630226
 10
506.6521015625
 20
22.7373059466
 10
507.2949579716
 20
22.7373059466
 10
507.4020905671
 20
22.5765918443
 10
507.4020905671
 20
22.2551617386
  0
LINE
  5
32F
100
AcDbEntity
  8
0
100
AcDbLine
 62
2
  6
CONTINUOUS
 10
508.4199414786
 20
21.1301630226
 11
508.4199414786
 21
22.7373059466
  0
LWPOLYLINE
  5
330
100
AcDbEntity
  8
0
100
AcDbPolyline
 62
2
  6
CONTINUOUS
 90
4
 70
0
 10
508.4199414786
 20
23.2194482535
 10
508.4199414786
 20
23.3801623558
 10
508.4735381944
 20
23.3801623558
 10
508.4199414786
 20
23.2194482535
  0
LWPOLYLINE
  5
331
100
AcDbEntity
  8
0
100
AcDbPolyline
 62
2
  6
CONTINUOUS
 90
9
 70
0
 10
509.2771239149
 20
21.4515912272
 10
509.2771239149
 20
22.4158777421
 10
509.5985217014
 20
22.7373059466
 10
509.9199803241
 20
22.7373059466
 10
510.2413781105
 20
22.4158777421
 10
510.2413781105
 20
21.4515912272
 10
509.9199803241
 20
21.1301630226
 10
509.5985217014
 20
21.1301630226
 10
509.2771239149
 20
21.4515912272
  0
LWPOLYLINE
  5
332
100
AcDbEntity
  8
0
100
AcDbPolyline
 62
2
  6
CONTINUOUS
 90
5
 70
0
 10
510.8842345197
 20
21.1301630226
 10
510.8842345197
 20
22.7373059466
 10
511.5270909288
 20
22.7373059466
 10
511.6342235243
 20
22.5765918443
 10
511.6342235243
 20
22.2551617386
  0
LWPOLYLINE
  5
333
100
AcDbEntity
  8
0
100
AcDbPolyline
 62
2
  6
CONTINUOUS
 90
4
 70
0
 10
515.0628315972
 20
21.1301630226
 10
515.0628315972
 20
22.4158777421
 10
514.9021022859
 20
22.7373059466
 10
514.0985165654
 20
22.7373059466
  0
LWPOLYLINE
  5
334
100
AcDbEntity
  8
0
100
AcDbPolyline
 62
2
  6
CONTINUOUS
 90
6
 70
0
 10
515.0628315972
 20
21.1301630226
 10
514.4199751881
 20
21.1301630226
 10
514.0985165654
 20
21.2908771249
 10
514.0985165654
 20
21.7730194318
 10
514.4199751881
 20
21.9337335341
 10
515.0628315972
 20
21.9337335341
  0
LWPOLYLINE
  5
335
100
AcDbEntity
  8
0
100
AcDbPolyline
 62
2
  6
CONTINUOUS
 90
5
 70
0
 10
515.7056880064
 20
22.7373059466
 10
515.7056880064
 20
21.2908771249
 10
515.8664173177
 20
21.1301630226
 10
516.669942202
 20
21.1301630226
 10
516.669942202
 20
22.7373059466
  0
LINE
  5
336
100
AcDbEntity
  8
0
100
AcDbLine
 62
2
  6
CONTINUOUS
 10
517.5806605179
 20
21.1301630226
 11
517.5806605179
 21
23.3801623558
  0
LINE
  5
337
100
AcDbEntity
  8
0
100
AcDbLine
 62
2
  6
CONTINUOUS
 10
517.3127986111
 20
22.7373059466
 11
517.9556550203
 21
22.7373059466
  0
LINE
  5
338
100
AcDbEntity
  8
0
100
AcDbLine
 62
2
  6
CONTINUOUS
 10
518.5985114294
 20
21.1301630226
 11
518.5985114294
 21
23.3801623558
  0
LWPOLYLINE
  5
339
100
AcDbEntity
  8
0
100
AcDbPolyline
 62
2
  6
CONTINUOUS
 90
4
 70
0
 10
518.5985114294
 20
22.7373059466
 10
519.4020971499
 20
22.7373059466
 10
519.5628264612
 20
22.5765918443
 10
519.5628264612
 20
21.1301630226
  0
LWPOLYLINE
  5
33A
100
AcDbEntity
  8
0
100
AcDbPolyline
 62
2
  6
CONTINUOUS
 90
9
 70
0
 10
520.2056828704
 20
21.4515912272
 10
520.2056828704
 20
22.4158777421
 10
520.5270806568
 20
22.7373059466
 10
520.8485392795
 20
22.7373059466
 10
521.1699979022
 20
22.4158777421
 10
521.1699979022
 20
21.4515912272
 10
520.8485392795
 20
21.1301630226
 10
520.5270806568
 20
21.1301630226
 10
520.2056828704
 20
21.4515912272
  0
LWPOLYLINE
  5
33B
100
AcDbEntity
  8
0
100
AcDbPolyline
 62
2
  6
CONTINUOUS
 90
5
 70
0
 10
521.8128543113
 20
21.1301630226
 10
521.8128543113
 20
22.7373059466
 10
522.4557107205
 20
22.7373059466
 10
522.562843316
 20
22.5765918443
 10
522.562843316
 20
22.2551617386
  0
LINE
  5
33C
100
AcDbEntity
  8
0
100
AcDbLine
 62
2
  6
CONTINUOUS
 10
523.5806942274
 20
21.1301630226
 11
523.5806942274
 21
22.7373059466
  0
LWPOLYLINE
  5
33D
100
AcDbEntity
  8
0
100
AcDbPolyline
 62
2
  6
CONTINUOUS
 90
4
 70
0
 10
523.5806942274
 20
23.2194482535
 10
523.5806942274
 20
23.3801623558
 10
523.6342301071
 20
23.3801623558
 10
523.5806942274
 20
23.2194482535
  0
LWPOLYLINE
  5
33E
100
AcDbEntity
  8
0
100
AcDbPolyline
 62
2
  6
CONTINUOUS
 90
12
 70
0
 10
524.4378158275
 20
21.2908771249
 10
524.5985451389
 20
21.1301630226
 10
525.241401548
 20
21.1301630226
 10
525.4021308594
 20
21.2908771249
 10
525.4021308594
 20
21.7730194318
 10
525.241401548
 20
21.8801634341
 10
524.5985451389
 20
21.9873055352
 10
524.4378158275
 20
22.0944476364
 10
524.4378158275
 20
22.5765918443
 10
524.5985451389
 20
22.7373059466
 10
525.241401548
 20
22.7373059466
 10
525.4021308594
 20
22.5765918443
  0
LWPOLYLINE
  5
33F
100
AcDbEntity
  8
0
100
AcDbPolyline
 62
2
  6
CONTINUOUS
 90
4
 70
0
 10
527.0092414641
 20
21.1301630226
 10
527.0092414641
 20
22.4158777421
 10
526.8485121528
 20
22.7373059466
 10
526.0449872685
 20
22.7373059466
  0
LWPOLYLINE
  5
340
100
AcDbEntity
  8
0
100
AcDbPolyline
 62
2
  6
CONTINUOUS
 90
6
 70
0
 10
527.0092414641
 20
21.1301630226
 10
526.366385055
 20
21.1301630226
 10
526.0449872685
 20
21.2908771249
 10
526.0449872685
 20
21.7730194318
 10
526.366385055
 20
21.9337335341
 10
527.0092414641
 20
21.9337335341
  0
LINE
  5
341
100
AcDbEntity
  8
0
100
AcDbLine
 62
2
  6
CONTINUOUS
 10
527.9199597801
 20
21.1301630226
 11
527.9199597801
 21
23.3801623558
  0
LINE
  5
342
100
AcDbEntity
  8
0
100
AcDbLine
 62
2
  6
CONTINUOUS
 10
527.6520978733
 20
22.7373059466
 11
528.2949542824
 21
22.7373059466
  0
LINE
  5
343
100
AcDbEntity
  8
0
100
AcDbLine
 62
2
  6
CONTINUOUS
 10
529.2592693142
 20
21.1301630226
 11
529.2592693142
 21
22.7373059466
  0
LWPOLYLINE
  5
344
100
AcDbEntity
  8
0
100
AcDbPolyline
 62
2
  6
CONTINUOUS
 90
4
 70
0
 10
529.2592693142
 20
23.2194482535
 10
529.2592693142
 20
23.3801623558
 10
529.3128051939
 20
23.3801623558
 10
529.2592693142
 20
23.2194482535
  0
LWPOLYLINE
  5
345
100
AcDbEntity
  8
0
100
AcDbPolyline
 62
2
  6
CONTINUOUS
 90
9
 70
0
 10
530.1163909144
 20
21.4515912272
 10
530.1163909144
 20
22.4158777421
 10
530.437849537
 20
22.7373059466
 10
530.7592473235
 20
22.7373059466
 10
531.0807059462
 20
22.4158777421
 10
531.0807059462
 20
21.4515912272
 10
530.7592473235
 20
21.1301630226
 10
530.437849537
 20
21.1301630226
 10
530.1163909144
 20
21.4515912272
  0
LWPOLYLINE
  5
346
100
AcDbEntity
  8
0
100
AcDbPolyline
 62
2
  6
CONTINUOUS
 90
5
 70
0
 10
531.7235623553
 20
21.1301630226
 10
531.7235623553
 20
22.7373059466
 10
532.5270872396
 20
22.7373059466
 10
532.6878165509
 20
22.5765918443
 10
532.6878165509
 20
21.1301630226
  0
LWPOLYLINE
  5
347
100
AcDbEntity
  8
0
100
AcDbPolyline
 62
2
  6
CONTINUOUS
 90
9
 70
0
 10
535.0985128762
 20
21.4515912272
 10
535.0985128762
 20
22.4158777421
 10
535.4199714988
 20
22.7373059466
 10
535.7413692853
 20
22.7373059466
 10
536.062827908
 20
22.4158777421
 10
536.062827908
 20
21.4515912272
 10
535.7413692853
 20
21.1301630226
 10
535.4199714988
 20
21.1301630226
 10
535.0985128762
 20
21.4515912272
  0
LWPOLYLINE
  5
348
100
AcDbEntity
  8
0
100
AcDbPolyline
 62
2
  6
CONTINUOUS
 90
4
 70
0
 10
536.973546224
 20
21.1301630226
 10
536.973546224
 20
23.2194482535
 10
537.1342755353
 20
23.3801623558
 10
537.4556733218
 20
23.3801623558
  0
LINE
  5
349
100
AcDbEntity
  8
0
100
AcDbLine
 62
2
  6
CONTINUOUS
 10
537.4556733218
 20
22.7373059466
 11
536.7056843171
 21
22.7373059466
  0
LWPOLYLINE
  5
34A
100
AcDbEntity
  8
0
100
AcDbPolyline
 62
2
  6
CONTINUOUS
 90
3
 70
0
 10
539.7592370515
 20
23.3801623558
 10
539.7592370515
 20
21.1301630226
 10
540.562822772
 20
21.1301630226
  0
LWPOLYLINE
  5
34B
100
AcDbEntity
  8
0
100
AcDbPolyline
 62
2
  6
CONTINUOUS
 90
12
 70
0
 10
544.4199612269
 20
21.9337335341
 10
543.7771048177
 20
21.1301630226
 10
543.2949777199
 20
21.1301630226
 10
542.9735190972
 20
21.4515912272
 10
542.9735190972
 20
21.9337335341
 10
544.0985634404
 20
22.7373059466
 10
544.0985634404
 20
23.0587341512
 10
543.7771048177
 20
23.3801623558
 10
543.4557070312
 20
23.3801623558
 10
543.1342484086
 20
23.0587341512
 10
543.1342484086
 20
22.7373059466
 10
544.2592319155
 20
21.1301630226
  0
LWPOLYLINE
  5
34C
100
AcDbEntity
  8
0
100
AcDbPolyline
 62
2
  6
CONTINUOUS
 90
3
 70
0
 10
546.8306575521
 20
23.3801623558
 10
546.8306575521
 20
21.1301630226
 10
547.6342432726
 20
21.1301630226
  0
LWPOLYLINE
  5
34D
100
AcDbEntity
  8
0
100
AcDbPolyline
 62
2
  6
CONTINUOUS
 90
3
 70
0
 10
550.0449395978
 20
23.3801623558
 10
550.0449395978
 20
21.1301630226
 10
550.8485253183
 20
21.1301630226
  0
LWPOLYLINE
  5
34E
100
AcDbEntity
  8
0
100
AcDbPolyline
 62
2
  6
CONTINUOUS
 90
5
 70
0
 10
551.4913817274
 20
22.7373059466
 10
551.4913817274
 20
21.2908771249
 10
551.6521110388
 20
21.1301630226
 10
552.4556967593
 20
21.1301630226
 10
552.4556967593
 20
22.7373059466
  0
LWPOLYLINE
  5
34F
100
AcDbEntity
  8
0
100
AcDbPolyline
 62
2
  6
CONTINUOUS
 90
6
 70
0
 10
553.9021388889
 20
21.1301630226
 10
553.2592824797
 20
21.1301630226
 10
553.0985531684
 20
21.2908771249
 10
553.0985531684
 20
22.5765918443
 10
553.2592824797
 20
22.7373059466
 10
553.9021388889
 20
22.7373059466
  0
LWPOLYLINE
  5
350
100
AcDbEntity
  8
0
100
AcDbPolyline
 62
2
  6
CONTINUOUS
 90
9
 70
0
 10
555.5092494936
 20
21.1301630226
 10
554.8663930845
 20
21.1301630226
 10
554.544995298
 20
21.4515912272
 10
554.544995298
 20
22.4158777421
 10
554.8663930845
 20
22.7373059466
 10
555.1878517072
 20
22.7373059466
 10
555.5092494936
 20
22.4158777421
 10
555.5092494936
 20
21.9337335341
 10
554.544995298
 20
21.9337335341
  0
LWPOLYLINE
  5
351
100
AcDbEntity
  8
0
100
AcDbPolyline
 62
2
  6
CONTINUOUS
 90
12
 70
0
 10
559.3663879485
 20
21.9337335341
 10
558.7235315394
 20
21.1301630226
 10
558.2414044416
 20
21.1301630226
 10
557.9199458189
 20
21.4515912272
 10
557.9199458189
 20
21.9337335341
 10
559.044990162
 20
22.7373059466
 10
559.044990162
 20
23.0587341512
 10
558.7235315394
 20
23.3801623558
 10
558.4021337529
 20
23.3801623558
 10
558.0806751302
 20
23.0587341512
 10
558.0806751302
 20
22.7373059466
 10
559.2056586372
 20
21.1301630226
  0
LWPOLYLINE
  5
352
100
AcDbEntity
  8
0
100
AcDbPolyline
 62
2
  6
CONTINUOUS
 90
3
 70
0
 10
561.7770842737
 20
23.3801623558
 10
561.7770842737
 20
21.1301630226
 10
562.5806699942
 20
21.1301630226
  0
LINE
  5
353
100
AcDbEntity
  8
0
100
AcDbLine
 62
2
  6
CONTINUOUS
 10
563.544985026
 20
21.1301630226
 11
563.544985026
 21
22.7373059466
  0
LWPOLYLINE
  5
354
100
AcDbEntity
  8
0
100
AcDbPolyline
 62
2
  6
CONTINUOUS
 90
4
 70
0
 10
563.544985026
 20
23.2194482535
 10
563.544985026
 20
23.3801623558
 10
563.5985209057
 20
23.3801623558
 10
563.544985026
 20
23.2194482535
  0
LWPOLYLINE
  5
355
100
AcDbEntity
  8
0
100
AcDbPolyline
 62
2
  6
CONTINUOUS
 90
9
 70
0
 10
564.4021066262
 20
20.5944487146
 10
565.2056923466
 20
20.5944487146
 10
565.366421658
 20
20.8087348181
 10
565.366421658
 20
22.7373059466
 10
564.5628359375
 20
22.7373059466
 10
564.4021066262
 20
22.5765918443
 10
564.4021066262
 20
21.2908771249
 10
564.5628359375
 20
21.1301630226
 10
565.366421658
 20
21.1301630226
  0
LINE
  5
356
100
AcDbEntity
  8
0
100
AcDbLine
 62
2
  6
CONTINUOUS
 10
566.0092780671
 20
21.1301630226
 11
566.0092780671
 21
23.3801623558
  0
LWPOLYLINE
  5
357
100
AcDbEntity
  8
0
100
AcDbPolyline
 62
2
  6
CONTINUOUS
 90
4
 70
0
 10
566.0092780671
 20
22.7373059466
 10
566.8128029514
 20
22.7373059466
 10
566.9735322627
 20
22.5765918443
 10
566.9735322627
 20
21.1301630226
  0
LINE
  5
358
100
AcDbEntity
  8
0
100
AcDbLine
 62
2
  6
CONTINUOUS
 10
567.8842505787
 20
21.1301630226
 11
567.8842505787
 21
23.3801623558
  0
LINE
  5
359
100
AcDbEntity
  8
0
100
AcDbLine
 62
2
  6
CONTINUOUS
 10
567.6163886719
 20
22.7373059466
 11
568.259245081
 21
22.7373059466
  0
LWPOLYLINE
  5
35A
100
AcDbEntity
  8
0
100
AcDbPolyline
 62
2
  6
CONTINUOUS
 90
12
 70
0
 10
570.6699414062
 20
21.2908771249
 10
570.8306707176
 20
21.1301630226
 10
571.4735271267
 20
21.1301630226
 10
571.6342564381
 20
21.2908771249
 10
571.6342564381
 20
21.7730194318
 10
571.4735271267
 20
21.8801634341
 10
570.8306707176
 20
21.9873055352
 10
570.6699414062
 20
22.0944476364
 10
570.6699414062
 20
22.5765918443
 10
570.8306707176
 20
22.7373059466
 10
571.4735271267
 20
22.7373059466
 10
571.6342564381
 20
22.5765918443
  0
LWPOLYLINE
  5
35B
100
AcDbEntity
  8
0
100
AcDbPolyline
 62
2
  6
CONTINUOUS
 90
9
 70
0
 10
572.759239945
 20
21.5051632284
 10
572.8128366609
 20
21.3980192261
 10
572.8128366609
 20
21.3444491261
 10
572.759239945
 20
21.2373051238
 10
572.6521073495
 20
21.2373051238
 10
572.5985106337
 20
21.3444491261
 10
572.5985106337
 20
21.3980192261
 10
572.6521073495
 20
21.5051632284
 10
572.759239945
 20
21.5051632284
  0
LWPOLYLINE
  5
35C
100
AcDbEntity
  8
0
100
AcDbPolyline
 62
2
  6
CONTINUOUS
 90
5
 70
0
 10
573.5628256655
 20
21.1301630226
 10
573.5628256655
 20
22.7373059466
 10
574.2056820747
 20
22.7373059466
 10
574.3128146701
 20
22.5765918443
 10
574.3128146701
 20
22.2551617386
  0
LWPOLYLINE
  5
35D
100
AcDbEntity
  8
0
100
AcDbPolyline
 62
2
  6
CONTINUOUS
 90
9
 70
0
 10
575.4913948929
 20
21.5051632284
 10
575.5449916088
 20
21.3980192261
 10
575.5449916088
 20
21.3444491261
 10
575.4913948929
 20
21.2373051238
 10
575.3842622975
 20
21.2373051238
 10
575.3306655816
 20
21.3444491261
 10
575.3306655816
 20
21.3980192261
 10
575.3842622975
 20
21.5051632284
 10
575.4913948929
 20
21.5051632284
  0
LWPOLYLINE
  5
35E
100
AcDbEntity
  8
0
100
AcDbPolyline
 62
2
  6
CONTINUOUS
 90
4
 70
0
 10
576.7771077112
 20
21.1301630226
 10
576.4557099248
 20
21.1301630226
 10
576.2949806134
 20
21.2908771249
 10
576.2949806134
 20
23.3801623558
  0
LWPOLYLINE
  5
35F
100
AcDbEntity
  8
0
100
AcDbPolyline
 62
2
  6
CONTINUOUS
 90
9
 70
0
 10
577.9020912182
 20
21.5051632284
 10
577.955687934
 20
21.3980192261
 10
577.955687934
 20
21.3444491261
 10
577.9020912182
 20
21.2373051238
 10
577.7949586227
 20
21.2373051238
 10
577.7414227431
 20
21.3444491261
 10
577.7414227431
 20
21.3980192261
 10
577.7949586227
 20
21.5051632284
 10
577.9020912182
 20
21.5051632284
  0
LWPOLYLINE
  5
360
100
AcDbEntity
  8
0
100
AcDbPolyline
 62
2
  6
CONTINUOUS
 90
10
 70
0
 10
579.1878040365
 20
21.5051632284
 10
579.2414007523
 20
21.3980192261
 10
579.2414007523
 20
21.3444491261
 10
579.1342681568
 20
21.2373051238
 10
579.080671441
 20
21.2373051238
 10
579.0271355613
 20
21.2908771249
 10
579.0271355613
 20
21.3444491261
 10
579.080671441
 20
21.4515912272
 10
579.1342681568
 20
21.5051632284
 10
579.1878040365
 20
21.5051632284
  0
LWPOLYLINE
  5
361
100
AcDbEntity
  8
0
100
AcDbPolyline
 62
2
  6
CONTINUOUS
 90
3
 70
0
 10
579.2414007523
 20
21.3444491261
 10
579.1878040365
 20
21.1837331226
 10
579.080671441
 20
20.9694489204
  0
LINE
  5
362
100
AcDbEntity
  8
0
100
AcDbLine
 62
2
  6
CONTINUOUS
 10
492.7771224682
 20
17.7551630724
 11
492.7771224682
 21
19.3623059964
  0
LWPOLYLINE
  5
363
100
AcDbEntity
  8
0
100
AcDbPolyline
 62
2
  6
CONTINUOUS
 90
4
 70
0
 10
492.7771224682
 20
19.8444483032
 10
492.7771224682
 20
20.0051624055
 10
492.8306583478
 20
20.0051624055
 10
492.7771224682
 20
19.8444483032
  0
LWPOLYLINE
  5
364
100
AcDbEntity
  8
0
100
AcDbPolyline
 62
2
  6
CONTINUOUS
 90
5
 70
0
 10
493.6342440683
 20
17.7551630724
 10
493.6342440683
 20
19.3623059964
 10
494.4378297888
 20
19.3623059964
 10
494.5985591001
 20
19.2015918941
 10
494.5985591001
 20
17.7551630724
  0
LWPOLYLINE
  5
365
100
AcDbEntity
  8
0
100
AcDbPolyline
 62
2
  6
CONTINUOUS
 90
4
 70
0
 10
497.9735096209
 20
17.7551630724
 10
497.9735096209
 20
19.0408758907
 10
497.8128411458
 20
19.3623059964
 10
497.0092554253
 20
19.3623059964
  0
LWPOLYLINE
  5
366
100
AcDbEntity
  8
0
100
AcDbPolyline
 62
2
  6
CONTINUOUS
 90
6
 70
0
 10
497.9735096209
 20
17.7551630724
 10
497.3306532118
 20
17.7551630724
 10
497.0092554253
 20
17.9158771747
 10
497.0092554253
 20
18.3980194815
 10
497.3306532118
 20
18.5587335838
 10
497.9735096209
 20
18.5587335838
  0
LWPOLYLINE
  5
367
100
AcDbEntity
  8
0
100
AcDbPolyline
 62
2
  6
CONTINUOUS
 90
6
 70
0
 10
499.4199517506
 20
17.7551630724
 10
498.7770953414
 20
17.7551630724
 10
498.6164268663
 20
17.9158771747
 10
498.6164268663
 20
19.2015918941
 10
498.7770953414
 20
19.3623059964
 10
499.4199517506
 20
19.3623059964
  0
LWPOLYLINE
  5
368
100
AcDbEntity
  8
0
100
AcDbPolyline
 62
2
  6
CONTINUOUS
 90
6
 70
0
 10
500.8663938802
 20
17.7551630724
 10
500.2235374711
 20
17.7551630724
 10
500.0628081597
 20
17.9158771747
 10
500.0628081597
 20
19.2015918941
 10
500.2235374711
 20
19.3623059964
 10
500.8663938802
 20
19.3623059964
  0
LWPOLYLINE
  5
369
100
AcDbEntity
  8
0
100
AcDbPolyline
 62
2
  6
CONTINUOUS
 90
9
 70
0
 10
501.5092502894
 20
18.0765912769
 10
501.5092502894
 20
19.0408758907
 10
501.830708912
 20
19.3623059964
 10
502.1521066985
 20
19.3623059964
 10
502.4735653212
 20
19.0408758907
 10
502.4735653212
 20
18.0765912769
 10
502.1521066985
 20
17.7551630724
 10
501.830708912
 20
17.7551630724
 10
501.5092502894
 20
18.0765912769
  0
LWPOLYLINE
  5
36A
100
AcDbEntity
  8
0
100
AcDbPolyline
 62
2
  6
CONTINUOUS
 90
5
 70
0
 10
503.1164217303
 20
17.7551630724
 10
503.1164217303
 20
19.3623059964
 10
503.7592781395
 20
19.3623059964
 10
503.866410735
 20
19.2015918941
 10
503.866410735
 20
18.8801617884
  0
LWPOLYLINE
  5
36B
100
AcDbEntity
  8
0
100
AcDbPolyline
 62
2
  6
CONTINUOUS
 90
7
 70
0
 10
505.5271180556
 20
20.0051624055
 10
505.5271180556
 20
17.7551630724
 10
504.8842616464
 20
17.7551630724
 10
504.5628030237
 20
17.9158771747
 10
504.5628030237
 20
19.2015918941
 10
504.8842616464
 20
19.3623059964
 10
505.5271180556
 20
19.3623059964
  0
LWPOLYLINE
  5
36C
100
AcDbEntity
  8
0
100
AcDbPolyline
 62
2
  6
CONTINUOUS
 90
4
 70
0
 10
507.1342286603
 20
17.7551630724
 10
507.1342286603
 20
19.0408758907
 10
506.9735601852
 20
19.3623059964
 10
506.1699744647
 20
19.3623059964
  0
LWPOLYLINE
  5
36D
100
AcDbEntity
  8
0
100
AcDbPolyline
 62
2
  6
CONTINUOUS
 90
6
 70
0
 10
507.1342286603
 20
17.7551630724
 10
506.4913722512
 20
17.7551630724
 10
506.1699744647
 20
17.9158771747
 10
506.1699744647
 20
18.3980194815
 10
506.4913722512
 20
18.5587335838
 10
507.1342286603
 20
18.5587335838
  0
LWPOLYLINE
  5
36E
100
AcDbEntity
  8
0
100
AcDbPolyline
 62
2
  6
CONTINUOUS
 90
5
 70
0
 10
507.7770850694
 20
17.7551630724
 10
507.7770850694
 20
19.3623059964
 10
508.5806707899
 20
19.3623059964
 10
508.7414001013
 20
19.2015918941
 10
508.7414001013
 20
17.7551630724
  0
LWPOLYLINE
  5
36F
100
AcDbEntity
  8
0
100
AcDbPolyline
 62
2
  6
CONTINUOUS
 90
6
 70
0
 10
510.1878422309
 20
17.7551630724
 10
509.5449858218
 20
17.7551630724
 10
509.3842565104
 20
17.9158771747
 10
509.3842565104
 20
19.2015918941
 10
509.5449858218
 20
19.3623059964
 10
510.1878422309
 20
19.3623059964
  0
LWPOLYLINE
  5
370
100
AcDbEntity
  8
0
100
AcDbPolyline
 62
2
  6
CONTINUOUS
 90
9
 70
0
 10
511.7949528356
 20
17.7551630724
 10
511.1520964265
 20
17.7551630724
 10
510.83069864
 20
18.0765912769
 10
510.83069864
 20
19.0408758907
 10
511.1520964265
 20
19.3623059964
 10
511.4735550492
 20
19.3623059964
 10
511.7949528356
 20
19.0408758907
 10
511.7949528356
 20
18.5587335838
 10
510.83069864
 20
18.5587335838
  0
LWPOLYLINE
  5
371
100
AcDbEntity
  8
0
100
AcDbPolyline
 62
2
  6
CONTINUOUS
 90
5
 70
0
 10
514.2057099971
 20
19.3623059964
 10
514.6342403791
 20
17.7551630724
 10
515.0092348814
 20
19.0408758907
 10
515.3842293837
 20
17.7551630724
 10
515.8128206019
 20
19.3623059964
  0
LINE
  5
372
100
AcDbEntity
  8
0
100
AcDbLine
 62
2
  6
CONTINUOUS
 10
516.7771356337
 20
17.7551630724
 11
516.7771356337
 21
19.3623059964
  0
LWPOLYLINE
  5
373
100
AcDbEntity
  8
0
100
AcDbPolyline
 62
2
  6
CONTINUOUS
 90
4
 70
0
 10
516.7771356337
 20
19.8444483032
 10
516.7771356337
 20
20.0051624055
 10
516.8306715133
 20
20.0051624055
 10
516.7771356337
 20
19.8444483032
  0
LINE
  5
374
100
AcDbEntity
  8
0
100
AcDbLine
 62
2
  6
CONTINUOUS
 10
517.9021191406
 20
17.7551630724
 11
517.9021191406
 21
20.0051624055
  0
LINE
  5
375
100
AcDbEntity
  8
0
100
AcDbLine
 62
2
  6
CONTINUOUS
 10
517.6342572338
 20
19.3623059964
 11
518.2771136429
 21
19.3623059964
  0
LINE
  5
376
100
AcDbEntity
  8
0
100
AcDbLine
 62
2
  6
CONTINUOUS
 10
518.9199700521
 20
17.7551630724
 11
518.9199700521
 21
20.0051624055
  0
LWPOLYLINE
  5
377
100
AcDbEntity
  8
0
100
AcDbPolyline
 62
2
  6
CONTINUOUS
 90
4
 70
0
 10
518.9199700521
 20
19.3623059964
 10
519.7235557726
 20
19.3623059964
 10
519.8842242477
 20
19.2015918941
 10
519.8842242477
 20
17.7551630724
  0
LINE
  5
378
100
AcDbEntity
  8
0
100
AcDbLine
 62
2
  6
CONTINUOUS
 10
522.562843316
 20
17.7551630724
 11
522.562843316
 21
20.0051624055
  0
LINE
  5
379
100
AcDbEntity
  8
0
100
AcDbLine
 62
2
  6
CONTINUOUS
 10
522.2949814091
 20
19.3623059964
 11
522.9378378183
 21
19.3623059964
  0
LINE
  5
37A
100
AcDbEntity
  8
0
100
AcDbLine
 62
2
  6
CONTINUOUS
 10
523.5806942274
 20
17.7551630724
 11
523.5806942274
 21
20.0051624055
  0
LWPOLYLINE
  5
37B
100
AcDbEntity
  8
0
100
AcDbPolyline
 62
2
  6
CONTINUOUS
 90
4
 70
0
 10
523.5806942274
 20
19.3623059964
 10
524.3842799479
 20
19.3623059964
 10
524.544948423
 20
19.2015918941
 10
524.544948423
 20
17.7551630724
  0
LWPOLYLINE
  5
37C
100
AcDbEntity
  8
0
100
AcDbPolyline
 62
2
  6
CONTINUOUS
 90
9
 70
0
 10
526.152119864
 20
17.7551630724
 10
525.5092634549
 20
17.7551630724
 10
525.1878048322
 20
18.0765912769
 10
525.1878048322
 20
19.0408758907
 10
525.5092634549
 20
19.3623059964
 10
525.8306612413
 20
19.3623059964
 10
526.152119864
 20
19.0408758907
 10
526.152119864
 20
18.5587335838
 10
525.1878048322
 20
18.5587335838
  0
LWPOLYLINE
  5
37D
100
AcDbEntity
  8
0
100
AcDbPolyline
 62
2
  6
CONTINUOUS
 90
4
 70
0
 10
529.044943287
 20
17.7551630724
 10
528.7235455006
 20
17.7551630724
 10
528.5628161892
 20
17.9158771747
 10
528.5628161892
 20
20.0051624055
  0
LWPOLYLINE
  5
37E
100
AcDbEntity
  8
0
100
AcDbPolyline
 62
2
  6
CONTINUOUS
 90
4
 70
0
 10
530.652114728
 20
17.7551630724
 10
530.652114728
 20
19.0408758907
 10
530.4913854167
 20
19.3623059964
 10
529.6877996962
 20
19.3623059964
  0
LWPOLYLINE
  5
37F
100
AcDbEntity
  8
0
100
AcDbPolyline
 62
2
  6
CONTINUOUS
 90
6
 70
0
 10
530.652114728
 20
17.7551630724
 10
530.0092583189
 20
17.7551630724
 10
529.6877996962
 20
17.9158771747
 10
529.6877996962
 20
18.3980194815
 10
530.0092583189
 20
18.5587335838
 10
530.652114728
 20
18.5587335838
  0
LWPOLYLINE
  5
380
100
AcDbEntity
  8
0
100
AcDbPolyline
 62
2
  6
CONTINUOUS
 90
5
 70
0
 10
531.2949711372
 20
19.3623059964
 10
531.7235623553
 20
17.7551630724
 10
532.0985568576
 20
19.0408758907
 10
532.47355136
 20
17.7551630724
 10
532.9020817419
 20
19.3623059964
  0
LINE
  5
381
100
AcDbEntity
  8
0
100
AcDbLine
 62
2
  6
CONTINUOUS
 10
535.6342366898
 20
17.7551630724
 11
535.6342366898
 21
19.3623059964
  0
LWPOLYLINE
  5
382
100
AcDbEntity
  8
0
100
AcDbPolyline
 62
2
  6
CONTINUOUS
 90
4
 70
0
 10
535.6342366898
 20
19.8444483032
 10
535.6342366898
 20
20.0051624055
 10
535.6878334057
 20
20.0051624055
 10
535.6342366898
 20
19.8444483032
  0
LWPOLYLINE
  5
383
100
AcDbEntity
  8
0
100
AcDbPolyline
 62
2
  6
CONTINUOUS
 90
5
 70
0
 10
536.4914191262
 20
17.7551630724
 10
536.4914191262
 20
19.3623059964
 10
537.2949440104
 20
19.3623059964
 10
537.4556733218
 20
19.2015918941
 10
537.4556733218
 20
17.7551630724
  0
LWPOLYLINE
  5
384
100
AcDbEntity
  8
0
100
AcDbPolyline
 62
2
  6
CONTINUOUS
 90
4
 70
0
 10
540.1342315538
 20
17.7551630724
 10
540.1342315538
 20
19.8444483032
 10
540.2949608652
 20
20.0051624055
 10
540.6164194878
 20
20.0051624055
  0
LINE
  5
385
100
AcDbEntity
  8
0
100
AcDbLine
 62
2
  6
CONTINUOUS
 10
540.6164194878
 20
19.3623059964
 11
539.866369647
 21
19.3623059964
  0
LWPOLYLINE
  5
386
100
AcDbEntity
  8
0
100
AcDbPolyline
 62
2
  6
CONTINUOUS
 90
9
 70
0
 10
541.1520824653
 20
18.0765912769
 10
541.1520824653
 20
19.0408758907
 10
541.473541088
 20
19.3623059964
 10
541.7949388744
 20
19.3623059964
 10
542.1163974971
 20
19.0408758907
 10
542.1163974971
 20
18.0765912769
 10
541.7949388744
 20
17.7551630724
 10
541.473541088
 20
17.7551630724
 10
541.1520824653
 20
18.0765912769
  0
LWPOLYLINE
  5
387
100
AcDbEntity
  8
0
100
AcDbPolyline
 62
2
  6
CONTINUOUS
 90
5
 70
0
 10
542.7592539063
 20
17.7551630724
 10
542.7592539063
 20
19.3623059964
 10
543.4021103154
 20
19.3623059964
 10
543.5092429109
 20
19.2015918941
 10
543.5092429109
 20
18.8801617884
  0
LWPOLYLINE
  5
388
100
AcDbEntity
  8
0
100
AcDbPolyline
 62
2
  6
CONTINUOUS
 90
6
 70
0
 10
545.0092817564
 20
17.7551630724
 10
544.3664253472
 20
17.7551630724
 10
544.2056960359
 20
17.9158771747
 10
544.2056960359
 20
19.2015918941
 10
544.3664253472
 20
19.3623059964
 10
545.0092817564
 20
19.3623059964
  0
LWPOLYLINE
  5
389
100
AcDbEntity
  8
0
100
AcDbPolyline
 62
2
  6
CONTINUOUS
 90
9
 70
0
 10
546.6163923611
 20
17.7551630724
 10
545.973535952
 20
17.7551630724
 10
545.6521381655
 20
18.0765912769
 10
545.6521381655
 20
19.0408758907
 10
545.973535952
 20
19.3623059964
 10
546.2949945747
 20
19.3623059964
 10
546.6163923611
 20
19.0408758907
 10
546.6163923611
 20
18.5587335838
 10
545.6521381655
 20
18.5587335838
  0
LWPOLYLINE
  5
38A
100
AcDbEntity
  8
0
100
AcDbPolyline
 62
2
  6
CONTINUOUS
 90
9
 70
0
 10
547.7413758681
 20
18.1301632781
 10
547.7949725839
 20
18.0230192758
 10
547.7949725839
 20
17.9694491758
 10
547.7413758681
 20
17.8623051735
 10
547.6342432726
 20
17.8623051735
 10
547.5807073929
 20
17.9694491758
 10
547.5807073929
 20
18.0230192758
 10
547.6342432726
 20
18.1301632781
 10
547.7413758681
 20
18.1301632781
  0
LWPOLYLINE
  5
38B
100
AcDbEntity
  8
0
100
AcDbPolyline
 62
2
  6
CONTINUOUS
 90
3
 70
0
 10
492.4556638455
 20
14.3801621715
 10
493.0985202546
 20
16.6301624552
 10
493.7413766638
 20
14.3801621715
  0
LINE
  5
38C
100
AcDbEntity
  8
0
100
AcDbLine
 62
2
  6
CONTINUOUS
 10
492.6699898727
 20
15.0230195312
 11
493.5271114728
 21
15.0230195312
  0
LWPOLYLINE
  5
38D
100
AcDbEntity
  8
0
100
AcDbPolyline
 62
2
  6
CONTINUOUS
 90
4
 70
0
 10
494.8664210069
 20
14.3801621715
 10
494.5449623843
 20
14.3801621715
 10
494.3842330729
 20
14.5408772244
 10
494.3842330729
 20
16.6301624552
  0
LWPOLYLINE
  5
38E
100
AcDbEntity
  8
0
100
AcDbPolyline
 62
2
  6
CONTINUOUS
 90
4
 70
0
 10
495.9914045139
 20
14.3801621715
 10
495.6699458912
 20
14.3801621715
 10
495.5092774161
 20
14.5408772244
 10
495.5092774161
 20
16.6301624552
  0
LWPOLYLINE
  5
38F
100
AcDbEntity
  8
0
100
AcDbPolyline
 62
2
  6
CONTINUOUS
 90
5
 70
0
 10
498.4021008391
 20
14.3801621715
 10
498.4021008391
 20
15.9873060461
 10
499.0449572483
 20
15.9873060461
 10
499.1520898437
 20
15.8265909932
 10
499.1520898437
 20
15.5051627887
  0
LINE
  5
390
100
AcDbEntity
  8
0
100
AcDbLine
 62
2
  6
CONTINUOUS
 10
500.1699407552
 20
14.3801621715
 11
500.1699407552
 21
15.9873060461
  0
LWPOLYLINE
  5
391
100
AcDbEntity
  8
0
100
AcDbPolyline
 62
2
  6
CONTINUOUS
 90
4
 70
0
 10
500.1699407552
 20
16.469448353
 10
500.1699407552
 20
16.6301624552
 10
500.2235374711
 20
16.6301624552
 10
500.1699407552
 20
16.469448353
  0
LWPOLYLINE
  5
392
100
AcDbEntity
  8
0
100
AcDbPolyline
 62
2
  6
CONTINUOUS
 90
9
 70
0
 10
501.0271231916
 20
13.8444478635
 10
501.830708912
 20
13.8444478635
 10
501.9913773872
 20
14.058733967
 10
501.9913773872
 20
15.9873060461
 10
501.1878525029
 20
15.9873060461
 10
501.0271231916
 20
15.8265909932
 10
501.0271231916
 20
14.5408772244
 10
501.1878525029
 20
14.3801621715
 10
501.9913773872
 20
14.3801621715
  0
LINE
  5
393
100
AcDbEntity
  8
0
100
AcDbLine
 62
2
  6
CONTINUOUS
 10
502.6342337963
 20
14.3801621715
 11
502.6342337963
 21
16.6301624552
  0
LWPOLYLINE
  5
394
100
AcDbEntity
  8
0
100
AcDbPolyline
 62
2
  6
CONTINUOUS
 90
4
 70
0
 10
502.6342337963
 20
15.9873060461
 10
503.4378195168
 20
15.9873060461
 10
503.5985488281
 20
15.8265909932
 10
503.5985488281
 20
14.3801621715
  0
LINE
  5
395
100
AcDbEntity
  8
0
100
AcDbLine
 62
2
  6
CONTINUOUS
 10
504.5092671441
 20
14.3801621715
 11
504.5092671441
 21
16.6301624552
  0
LINE
  5
396
100
AcDbEntity
  8
0
100
AcDbLine
 62
2
  6
CONTINUOUS
 10
504.2414052373
 20
15.9873060461
 11
504.8842616464
 21
15.9873060461
  0
LWPOLYLINE
  5
397
100
AcDbEntity
  8
0
100
AcDbPolyline
 62
2
  6
CONTINUOUS
 90
12
 70
0
 10
505.5271180556
 20
14.5408772244
 10
505.6878473669
 20
14.3801621715
 10
506.330703776
 20
14.3801621715
 10
506.4913722512
 20
14.5408772244
 10
506.4913722512
 20
15.0230195312
 10
506.330703776
 20
15.130162583
 10
505.6878473669
 20
15.2373056347
 10
505.5271180556
 20
15.3444486864
 10
505.5271180556
 20
15.8265909932
 10
505.6878473669
 20
15.9873060461
 10
506.330703776
 20
15.9873060461
 10
506.4913722512
 20
15.8265909932
  0
LWPOLYLINE
  5
398
100
AcDbEntity
  8
0
100
AcDbPolyline
 62
2
  6
CONTINUOUS
 90
5
 70
0
 10
508.9021294126
 20
14.3801621715
 10
508.9021294126
 20
15.9873060461
 10
509.5449858218
 20
15.9873060461
 10
509.6521184172
 20
15.8265909932
 10
509.6521184172
 20
15.5051627887
  0
LWPOLYLINE
  5
399
100
AcDbEntity
  8
0
100
AcDbPolyline
 62
2
  6
CONTINUOUS
 90
9
 70
0
 10
511.3128257378
 20
14.3801621715
 10
510.6699693287
 20
14.3801621715
 10
510.348510706
 20
14.7015913267
 10
510.348510706
 20
15.665876891
 10
510.6699693287
 20
15.9873060461
 10
510.9913671152
 20
15.9873060461
 10
511.3128257378
 20
15.665876891
 10
511.3128257378
 20
15.1837336335
 10
510.348510706
 20
15.1837336335
  0
LWPOLYLINE
  5
39A
100
AcDbEntity
  8
0
100
AcDbPolyline
 62
2
  6
CONTINUOUS
 90
12
 70
0
 10
511.955682147
 20
14.5408772244
 10
512.1164114583
 20
14.3801621715
 10
512.7592678675
 20
14.3801621715
 10
512.9199971788
 20
14.5408772244
 10
512.9199971788
 20
15.0230195312
 10
512.7592678675
 20
15.130162583
 10
512.1164114583
 20
15.2373056347
 10
511.955682147
 20
15.3444486864
 10
511.955682147
 20
15.8265909932
 10
512.1164114583
 20
15.9873060461
 10
512.7592678675
 20
15.9873060461
 10
512.9199971788
 20
15.8265909932
  0
LWPOLYLINE
  5
39B
100
AcDbEntity
  8
0
100
AcDbPolyline
 62
2
  6
CONTINUOUS
 90
9
 70
0
 10
514.5271077836
 20
14.3801621715
 10
513.8842513744
 20
14.3801621715
 10
513.562853588
 20
14.7015913267
 10
513.562853588
 20
15.665876891
 10
513.8842513744
 20
15.9873060461
 10
514.2057099971
 20
15.9873060461
 10
514.5271077836
 20
15.665876891
 10
514.5271077836
 20
15.1837336335
 10
513.562853588
 20
15.1837336335
  0
LWPOLYLINE
  5
39C
100
AcDbEntity
  8
0
100
AcDbPolyline
 62
2
  6
CONTINUOUS
 90
5
 70
0
 10
515.1699641927
 20
14.3801621715
 10
515.1699641927
 20
15.9873060461
 10
515.8128206019
 20
15.9873060461
 10
515.9199531973
 20
15.8265909932
 10
515.9199531973
 20
15.5051627887
  0
LWPOLYLINE
  5
39D
100
AcDbEntity
  8
0
100
AcDbPolyline
 62
2
  6
CONTINUOUS
 90
3
 70
0
 10
516.6164063223
 20
15.9873060461
 10
517.0985334201
 20
14.3801621715
 10
517.5806605179
 20
15.9873060461
  0
LWPOLYLINE
  5
39E
100
AcDbEntity
  8
0
100
AcDbPolyline
 62
2
  6
CONTINUOUS
 90
9
 70
0
 10
519.1878319589
 20
14.3801621715
 10
518.5449755498
 20
14.3801621715
 10
518.2235169271
 20
14.7015913267
 10
518.2235169271
 20
15.665876891
 10
518.5449755498
 20
15.9873060461
 10
518.8663733362
 20
15.9873060461
 10
519.1878319589
 20
15.665876891
 10
519.1878319589
 20
15.1837336335
 10
518.2235169271
 20
15.1837336335
  0
LWPOLYLINE
  5
39F
100
AcDbEntity
  8
0
100
AcDbPolyline
 62
2
  6
CONTINUOUS
 90
7
 70
0
 10
520.7949425637
 20
16.6301624552
 10
520.7949425637
 20
14.3801621715
 10
520.1520861545
 20
14.3801621715
 10
519.8306883681
 20
14.5408772244
 10
519.8306883681
 20
15.8265909932
 10
520.1520861545
 20
15.9873060461
 10
520.7949425637
 20
15.9873060461
  0
LWPOLYLINE
  5
3A0
100
AcDbEntity
  8
0
100
AcDbPolyline
 62
2
  6
CONTINUOUS
 90
9
 70
0
 10
521.9199869068
 20
14.7551623773
 10
521.9735227865
 20
14.6480193255
 10
521.9735227865
 20
14.594448275
 10
521.9199869068
 20
14.4873052233
 10
521.8128543113
 20
14.4873052233
 10
521.7592575955
 20
14.594448275
 10
521.7592575955
 20
14.6480193255
 10
521.8128543113
 20
14.7551623773
 10
521.9199869068
 20
14.7551623773
  0
ACAD_TABLE
  5
3A1
100
AcDbEntity
  8
0
 62
2
  6
CONTINUOUS
100
AcDbBlockReference
  2
*T1
 10
490.968182488
 20
54.0676625125
 30
0.0
100
AcDbTable
342
       4A2
343
228
 11
1.0
 21
0.0
 31
0.0
 90
22
 91
5
 92
5
 93
0
 94
0
 95
0
 96
0
141
6.0
141
6.0
141
10.0
141
5.0
141
13.0
142
10.0
142
10.0
142
10.0
142
40.0
142
20.0
171
1
172
0
173
0
174
0
175
3
176
4
 91
1
178
0
145
0.0
170
5
171
1
172
0
173
1
174
0
175
1
176
1
 91
1
178
0
145
0.0
170
1
171
1
172
0
173
1
174
0
175
1
176
1
 91
1
178
0
145
0.0
170
1
171
1
172
0
173
0
174
0
175
1
176
1
 91
33
178
0
145
0.0
301
CELL_VALUE
 90
4
  1
{\Ftxt.shx;\W6.976190;\H3.000000; }
304
ACVALUE_END
170
4
140
3.0
171
1
172
0
173
0
174
0
175
1
176
1
 91
33
178
0
145
0.0
301
CELL_VALUE
 90
4
  1
{\Ftxt.shx;\W5.119048;\H3.500000; }
304
ACVALUE_END
170
1
140
3.5
171
1
172
0
173
1
174
0
175
1
176
1
 91
1
178
0
145
0.0
170
1
171
1
172
0
173
1
174
0
175
1
176
1
 91
1
178
0
145
0.0
170
1
171
1
172
0
173
1
174
0
175
1
176
1
 91
1
178
0
145
0.0
170
1
171
1
172
0
173
0
174
0
175
1
176
1
 91
33
178
0
145
0.0
301
CELL_VALUE
 90
4
  1
{\Ftxt.shx;\W3.714286;\H3.500000; }{\Ftxt.shx;\W2.642857;\H3.500000; }
304
ACVALUE_END
170
1
140
3.5
171
1
172
0
173
0
174
0
175
1
176
1
 91
33
178
0
145
0.0
301
CELL_VALUE
 90
4
  1
{\Ftxt.shx;\W1.428571;\H3.500000; }
304
ACVALUE_END
170
4
140
3.5
171
1
172
0
173
1
174
0
175
1
176
1
 91
1
178
0
145
0.0
170
1
171
1
172
0
173
1
174
0
175
1
176
1
 91
1
178
0
145
0.0
170
1
171
1
172
0
173
1
174
0
175
1
176
1
 91
1
178
0
145
0.0
170
1
171
1
172
0
173
0
174
0
175
2
176
1
 91
33
178
0
145
0.0
301
CELL_VALUE
 90
4
  1
{\Ftxt.shx;\W6.904762;\H3.500000; }
304
ACVALUE_END
170
4
140
3.5
171
1
172
0
173
1
174
0
175
1
176
1
 91
1
178
0
145
0.0
170
1
171
1
172
0
173
1
174
0
175
1
176
1
 91
1
178
0
145
0.0
170
1
171
1
172
0
173
1
174
0
175
1
176
1
 91
1
178
0
145
0.0
170
1
171
1
172
0
173
1
174
0
175
1
176
1
 91
1
178
0
145
0.0
170
1
171
1
172
0
173
0
174
0
175
2
176
1
 91
33
178
0
145
0.0
301
CELL_VALUE
 90
4
  1
{\Ftxt.shx;\W12.761905;\H2.500000; }
304
ACVALUE_END
170
4
140
2.5
171
1
172
0
173
1
174
0
175
1
176
1
 91
1
178
0
145
0.0
170
1
171
1
172
0
173
0
174
0
175
5
176
1
 91
33
178
0
145
0.0
301
CELL_VALUE
 90
4
  1
{\Ftxt.shx;\W35.880952;\H2.250000; }\P{\Ftxt.shx;\W22.452381;\H2.250000; }{\Ftxt.shx;\W6.642857;\H2.250000; }{\Ftxt.shx;\W10.595238;\H2.250000; }\P{\Ftxt.shx;\W25.714286;\H2.250000; }\P{\Ftxt.shx;\W13.452381;\H2.250000; }
304
ACVALUE_END
170
4
140
2.25
171
1
172
0
173
1
174
0
175
1
176
1
 91
1
178
0
145
0.0
170
1
171
1
172
0
173
1
174
0
175
1
176
1
 91
1
178
0
145
0.0
170
1
171
1
172
0
173
1
174
0
175
1
176
1
 91
1
178
0
145
0.0
170
1
171
1
172
0
173
1
174
0
175
1
176
1
 91
1
178
0
145
0.0
170
1
  0
LINE
  5
3A2
100
AcDbEntity
  8
0
100
AcDbLine
 62
7
  6
CONTINUOUS
 10
0.0
 20
0.0
 11
594.0
 21
0.0
  0
LINE
  5
3A3
100
AcDbEntity
  8
0
100
AcDbLine
 62
7
  6
CONTINUOUS
 10
0.0
 20
0.0
 11
0.0
 21
841.0
  0
LINE
  5
3A4
100
AcDbEntity
  8
0
100
AcDbLine
 62
7
  6
CONTINUOUS
 10
594.0
 20
0.0
 11
594.0
 21
841.0
  0
LINE
  5
3A5
100
AcDbEntity
  8
0
100
AcDbLine
 62
7
  6
CONTINUOUS
 10
0.0
 20
841.0
 11
594.0
 21
841.0
  0
LWPOLYLINE
  5
3A6
100
AcDbEntity
  8
0
100
AcDbPolyline
 62
2
  6
CONTINUOUS
 90
6
 70
0
 43
0.1500000051
 10
142.3959537399
 20
52.4919641972
 10
143.4674013672
 20
52.4919641972
 10
143.6816665582
 20
52.7062522018
 10
143.6816665582
 20
53.7776808178
 10
143.2531057581
 20
54.2062530246
 10
142.824544958
 20
54.2062530246
  0
LINE
  5
3A7
100
AcDbEntity
  8
7_ALL_FEATURES
100
AcDbLine
 62
7
  6
CONTINUOUS
 10
157.1459600562
 20
73.6685659581
 11
128.1459600613
 21
73.6685659581
  0
LINE
  5
3A8
100
AcDbEntity
  8
7_ALL_FEATURES
100
AcDbLine
 62
7
  6
CONTINUOUS
 10
157.6459600594
 20
74.1685659581
 11
127.6459600594
 21
74.1685659581
  0
LWPOLYLINE
  5
3A9
100
AcDbEntity
  8
0
100
AcDbPolyline
 62
2
  6
CONTINUOUS
 90
10
 70
0
 43
0.1500000051
 10
142.7173819444
 20
657.825588614
 10
143.5745339627
 20
658.6827102141
 10
143.7888295718
 20
659.5398926505
 10
143.7888295718
 20
660.3970142506
 10
143.3602383536
 20
660.8256054687
 10
142.7173819444
 20
660.8256054687
 10
142.2888211444
 20
660.3970142506
 10
142.2888211444
 20
659.5398926505
 10
142.7173819444
 20
659.1113014323
 10
143.645955693
 20
659.1113014323
  0
LINE
  5
3AA
100
AcDbEntity
  8
7_ALL_FEATURES
100
AcDbLine
 62
7
  6
CONTINUOUS
 10
128.145960098
 20
73.6685659194
 11
127.6459600994
 21
74.1685659181
  0
LINE
  5
3AB
100
AcDbEntity
  8
7_ALL_FEATURES
100
AcDbLine
 62
7
  6
CONTINUOUS
 10
148.3959600593
 20
606.8685659581
 11
148.8959600593
 21
607.3685659581
  0
LWPOLYLINE
  5
3AC
100
AcDbEntity
  8
0
100
AcDbPolyline
 62
2
  6
CONTINUOUS
 90
2
 70
0
 43
0.1500000051
 10
138.538815285
 20
657.0755996094
 10
141.0388191913
 20
661.5755944734
  0
LWPOLYLINE
  5
3AD
100
AcDbEntity
  8
0
100
AcDbPolyline
 62
2
  6
CONTINUOUS
 90
13
 70
0
 43
0.1500000051
 10
138.2888088108
 20
659.3255666233
 10
138.538815285
 20
660.0755556279
 10
139.0388282335
 20
660.5755685764
 10
139.7888172381
 20
660.8256054687
 10
140.5388062428
 20
660.5755685764
 10
141.0388191913
 20
660.0755556279
 10
141.2888256655
 20
659.3255666233
 10
141.0388191913
 20
658.5755776186
 10
140.5388062428
 20
658.0755646701
 10
139.7888172381
 20
657.825588614
 10
139.0388282335
 20
658.0755646701
 10
138.538815285
 20
658.5755776186
 10
138.2888088108
 20
659.3255666233
  0
LWPOLYLINE
  5
3AE
100
AcDbEntity
  8
0
100
AcDbPolyline
 62
2
  6
CONTINUOUS
 90
4
 70
0
 43
0.1500000051
 10
218.5155183377
 20
262.3828441479
 10
217.6583663194
 20
262.3828441479
 10
217.2298055194
 20
262.811435366
 10
217.2298055194
 20
263.4542917752
  0
LINE
  5
3AF
100
AcDbEntity
  8
7_ALL_FEATURES
100
AcDbLine
 62
7
  6
CONTINUOUS
 10
128.145960098
 20
453.6685659968
 11
127.6459600994
 21
453.1685659981
  0
LWPOLYLINE
  5
3B0
100
AcDbEntity
  8
0
100
AcDbPolyline
 62
2
  6
CONTINUOUS
 90
13
 70
0
 43
0.1500000051
 10
218.0869575376
 20
264.7400045935
 10
216.8012143012
 20
264.7400045935
 10
216.3726535012
 20
264.9542697844
 10
215.9440927011
 20
265.3828610026
 10
215.9440927011
 20
265.5971261936
 10
216.3726535012
 20
266.0257174117
 10
216.8012143012
 20
266.2399826027
 10
218.0869575376
 20
266.2399826027
 10
218.5155183377
 20
266.0257174117
 10
218.9440791377
 20
265.5971261936
 10
218.9440791377
 20
265.3828610026
 10
218.5155183377
 20
264.9542697844
 10
218.0869575376
 20
264.7400045935
  0
LINE
  5
3B1
100
AcDbEntity
  8
7_ALL_FEATURES
100
AcDbLine
 62
7
  6
CONTINUOUS
 10
91.7212608615
 20
631.4185659581
 11
91.658361622
 21
630.1685659581
  0
LINE
  5
3B2
100
AcDbEntity
  8
7_ALL_FEATURES
100
AcDbLine
 62
7
  6
CONTINUOUS
 10
91.8470593403
 20
628.9185659581
 11
91.9099585797
 21
630.1685659581
  0
LINE
  5
3B3
100
AcDbEntity
  8
7_ALL_FEATURES
100
AcDbLine
 62
7
  6
CONTINUOUS
 10
91.658361622
 20
630.1685659581
 11
91.7212608615
 21
628.9185659581
  0
LINE
  5
3B4
100
AcDbEntity
  8
7_ALL_FEATURES
100
AcDbLine
 62
7
  6
CONTINUOUS
 10
91.9099585797
 20
630.1685659581
 11
91.8470593403
 21
631.4185659581
  0
LINE
  5
3B5
100
AcDbEntity
  8
7_ALL_FEATURES
100
AcDbLine
 62
7
  6
CONTINUOUS
 10
93.8904646681
 20
610.6511128871
 11
93.7533005332
 21
626.3685659581
  0
LINE
  5
3B6
100
AcDbEntity
  8
7_ALL_FEATURES
100
AcDbLine
 62
7
  6
CONTINUOUS
 10
93.6976454816
 20
638.6685659581
 11
93.7386943184
 21
633.9698017645
  0
LINE
  5
3B7
100
AcDbEntity
  8
7_ALL_FEATURES
100
AcDbLine
 62
7
  6
CONTINUOUS
 10
127.6459600594
 20
453.1685659581
 11
127.6459600594
 21
74.1685659581
  0
LINE
  5
3B8
100
AcDbEntity
  8
7_ALL_FEATURES
100
AcDbLine
 62
7
  6
CONTINUOUS
 10
136.3959600594
 20
607.3685659581
 11
136.3959600594
 21
608.6685659581
  0
LINE
  5
3B9
100
AcDbEntity
  8
3_ALL_AXES
100
AcDbLine
 62
7
  6
CONTINUOUS
 10
136.3959600594
 20
607.3685659581
 11
136.3959600594
 21
608.6685659581
  0
LINE
  5
3BA
100
AcDbEntity
  8
02___PRT_ALL_AXES
100
AcDbLine
 62
7
  6
CONTINUOUS
 10
139.9459600594
 20
606.8685659581
 11
139.9459600594
 21
453.9685659581
  0
LWPOLYLINE
  5
3BB
100
AcDbEntity
  8
0
100
AcDbPolyline
 62
2
  6
CONTINUOUS
 90
13
 70
0
 43
0.1500000051
 10
144.5388185764
 20
53.3491086109
 10
144.5388185764
 20
54.6348214292
 10
144.7531141855
 20
55.0633936361
 10
145.1816749855
 20
55.4919658429
 10
145.3959705946
 20
55.4919658429
 10
145.8245313947
 20
55.0633936361
 10
146.0388270038
 20
54.6348214292
 10
146.0388270038
 20
53.3491086109
 10
145.8245313947
 20
52.9205364041
 10
145.3959705946
 20
52.4919641972
 10
145.1816749855
 20
52.4919641972
 10
144.7531141855
 20
52.9205364041
 10
144.5388185764
 20
53.3491086109
  0
LWPOLYLINE
  5
3BC
100
AcDbEntity
  8
0
100
AcDbPolyline
 62
2
  6
CONTINUOUS
 90
4
 70
0
 43
0.1500000051
 10
144.6459511719
 20
658.2541798322
 10
144.6459511719
 20
659.1113014323
 10
145.07454239
 20
659.5398926505
 10
145.7173987992
 20
659.5398926505
  0
LINE
  5
3BD
100
AcDbEntity
  8
7_ALL_FEATURES
100
AcDbLine
 62
7
  6
CONTINUOUS
 10
138.4418424123
 20
453.9685659581
 11
138.4459600594
 21
454.6685659581
  0
LINE
  5
3BE
100
AcDbEntity
  8
7_ALL_FEATURES
100
AcDbLine
 62
7
  6
CONTINUOUS
 10
141.0047835888
 20
453.9685659581
 11
141.0459600594
 21
454.6685659581
  0
LINE
  5
3BF
100
AcDbEntity
  8
7_ALL_FEATURES
100
AcDbLine
 62
7
  6
CONTINUOUS
 10
144.2459600594
 20
454.6685659581
 11
144.2871365299
 21
453.9685659581
  0
LINE
  5
3C0
100
AcDbEntity
  8
7_ALL_FEATURES
100
AcDbLine
 62
7
  6
CONTINUOUS
 10
146.8500777064
 20
453.9685659581
 11
146.8459600594
 21
454.6685659581
  0
LINE
  5
3C1
100
AcDbEntity
  8
02___PRT_ALL_AXES
100
AcDbLine
 62
7
  6
CONTINUOUS
 10
145.3459600594
 20
606.8685659581
 11
145.3459600594
 21
453.9685659581
  0
LINE
  5
3C2
100
AcDbEntity
  8
7_ALL_FEATURES
100
AcDbLine
 62
7
  6
CONTINUOUS
 10
148.8959600594
 20
607.3685659581
 11
148.8959600594
 21
608.6685659581
  0
LINE
  5
3C3
100
AcDbEntity
  8
3_ALL_AXES
100
AcDbLine
 62
7
  6
CONTINUOUS
 10
148.8959600594
 20
607.3685659581
 11
148.8959600594
 21
608.6685659581
  0
LINE
  5
3C4
100
AcDbEntity
  8
7_ALL_FEATURES
100
AcDbLine
 62
7
  6
CONTINUOUS
 10
157.6459600594
 20
453.1685659581
 11
157.6459600594
 21
74.1685659581
  0
LWPOLYLINE
  5
3C5
100
AcDbEntity
  8
0
100
AcDbPolyline
 62
2
  6
CONTINUOUS
 90
5
 70
0
 43
0.1500000051
 10
217.2298055194
 20
261.0971313296
 10
217.0155099103
 20
261.4542703993
 10
216.3726535012
 20
261.4542703993
 10
215.9440927011
 20
261.0971313296
 10
215.9440927011
 20
260.2400097295
  0
LINE
  5
3C6
100
AcDbEntity
  8
7_ALL_FEATURES
100
AcDbLine
 62
7
  6
CONTINUOUS
 10
191.5047296169
 20
628.4185659581
 11
191.5942746371
 21
638.6685659581
  0
LINE
  5
3C7
100
AcDbEntity
  8
7_ALL_FEATURES
100
AcDbLine
 62
7
  6
CONTINUOUS
 10
191.5521462306
 20
627.9185659581
 11
191.4014554506
 21
610.6511128871
  0
LWPOLYLINE
  5
3C8
100
AcDbEntity
  8
0
100
AcDbPolyline
 62
2
  6
CONTINUOUS
 90
6
 70
0
 43
0.1500000051
 10
218.9440791377
 20
260.2400097295
 10
218.9440791377
 20
261.3114269387
 10
218.7298139468
 20
261.5257225477
 10
217.6583663194
 20
261.5257225477
 10
217.2298055194
 20
261.0971313296
 10
217.2298055194
 20
260.6685705295
  0
LWPOLYLINE
  5
3C9
100
AcDbEntity
  8
0
100
AcDbPolyline
 62
2
  6
CONTINUOUS
 90
6
 70
0
 43
0.1500000051
 10
218.9440791377
 20
621.4185745081
 10
218.9440791377
 20
622.4900221354
 10
218.7298139468
 20
622.7042873264
 10
217.6583663194
 20
622.7042873264
 10
217.2298055194
 20
622.2756961082
 10
217.2298055194
 20
621.8471657263
  0
LWPOLYLINE
  5
3CA
100
AcDbEntity
  8
0
100
AcDbPolyline
 62
2
  6
CONTINUOUS
 90
13
 70
0
 43
0.1500000051
 10
138.3959718244
 20
53.9919650201
 10
138.6459478805
 20
54.7419654315
 10
139.145960829
 20
55.2419669732
 10
139.8959498336
 20
55.4919658429
 10
140.6459692564
 20
55.2419669732
 10
141.1459517867
 20
54.7419654315
 10
141.395958261
 20
53.9919650201
 10
141.1459517867
 20
53.2419646087
 10
140.6459692564
 20
52.7419668692
 10
139.8959498336
 20
52.4919641972
 10
139.145960829
 20
52.7419668692
 10
138.6459478805
 20
53.2419646087
 10
138.3959718244
 20
53.9919650201
  0
LINE
  5
3CB
100
AcDbEntity
  8
7_ALL_FEATURES
100
AcDbLine
 62
7
  6
CONTINUOUS
 10
127.6459600594
 20
453.1685659581
 11
157.6459600594
 21
453.1685659581
  0
LINE
  5
3CC
100
AcDbEntity
  8
7_ALL_FEATURES
100
AcDbLine
 62
7
  6
CONTINUOUS
 10
128.1459600613
 20
453.6685659581
 11
157.1459600562
 21
453.6685659581
  0
LINE
  5
3CD
100
AcDbEntity
  8
7_ALL_FEATURES
100
AcDbLine
 62
7
  6
CONTINUOUS
 10
147.2529533471
 20
453.9685659581
 11
138.0389667716
 21
453.9685659581
  0
LINE
  5
3CE
100
AcDbEntity
  8
7_ALL_FEATURES
100
AcDbLine
 62
7
  6
CONTINUOUS
 10
157.1459600051
 20
453.6685660124
 11
157.6459600032
 21
453.1685660142
  0
LWPOLYLINE
  5
3CF
100
AcDbEntity
  8
0
100
AcDbPolyline
 62
2
  6
CONTINUOUS
 90
13
 70
0
 43
0.1500000051
 10
217.2298055194
 20
262.811435366
 10
217.0155099103
 20
262.5257180266
 10
216.3726535012
 20
262.5257180266
 10
215.9440927011
 20
262.811435366
 10
215.9440927011
 20
263.4542917752
 10
216.3726535012
 20
263.7400091146
 10
217.0155099103
 20
263.7400091146
 10
217.2298055194
 20
263.4542917752
 10
217.6583663194
 20
263.8828525752
 10
218.5155183377
 20
263.8828525752
 10
218.9440791377
 20
263.4542917752
 10
218.9440791377
 20
262.811435366
 10
218.5155183377
 20
262.3828441479
  0
LINE
  5
3D0
100
AcDbEntity
  8
7_ALL_FEATURES
100
AcDbLine
 62
7
  6
CONTINUOUS
 10
138.4459564285
 20
454.6685659581
 11
139.5330835761
 21
454.6685659581
  0
LINE
  5
3D1
100
AcDbEntity
  8
7_ALL_FEATURES
100
AcDbLine
 62
7
  6
CONTINUOUS
 10
141.0459600594
 20
454.6685659581
 11
144.2459600594
 21
454.6685659581
  0
LINE
  5
3D2
100
AcDbEntity
  8
7_ALL_FEATURES
100
AcDbLine
 62
7
  6
CONTINUOUS
 10
145.7588365426
 20
454.6685659581
 11
146.8459636902
 21
454.6685659581
  0
LWPOLYLINE
  5
3D3
100
AcDbEntity
  8
0
100
AcDbPolyline
 62
2
  6
CONTINUOUS
 90
2
 70
0
 43
0.1500000051
 10
138.6459478805
 20
51.7419675881
 10
141.1459517867
 20
56.2419662543
  0
LINE
  5
3D4
100
AcDbEntity
  8
7_ALL_FEATURES
100
AcDbLine
 62
7
  6
CONTINUOUS
 10
136.8959600594
 20
606.8685659581
 11
136.3959600594
 21
607.3685659581
  0
LINE
  5
3D5
100
AcDbEntity
  8
7_ALL_FEATURES
100
AcDbLine
 62
7
  6
CONTINUOUS
 10
157.1459600051
 20
73.6685659038
 11
157.6459600032
 21
74.168565902
  0
LWPOLYLINE
  5
3D6
100
AcDbEntity
  8
0
100
AcDbPolyline
 62
2
  6
CONTINUOUS
 90
5
 70
0
 43
0.1500000051
 10
217.2298055194
 20
622.2756961082
 10
217.0155099103
 20
622.6328655961
 10
216.3726535012
 20
622.6328655961
 10
215.9440927011
 20
622.2756961082
 10
215.9440927011
 20
621.4185745081
  0
LINE
  5
3D7
100
AcDbEntity
  8
02___PRT_ALL_AXES
100
AcDbLine
 62
7
  6
CONTINUOUS
 10
191.8089819352
 20
626.3722990648
 11
191.7943051371
 21
626.3685659581
  0
LINE
  5
3D8
100
AcDbEntity
  8
7_ALL_FEATURES
100
AcDbLine
 62
7
  6
CONTINUOUS
 10
136.8959600594
 20
606.8685659581
 11
148.3959600593
 21
606.8685659581
  0
LINE
  5
3D9
100
AcDbEntity
  8
7_ALL_FEATURES
100
AcDbLine
 62
7
  6
CONTINUOUS
 10
136.3959600594
 20
607.3685659581
 11
148.8959600594
 21
607.3685659581
  0
LINE
  5
3DA
100
AcDbEntity
  8
02___PRT_ALL_AXES
100
AcDbLine
 62
7
  6
CONTINUOUS
 10
93.5825576534
 20
626.3722990648
 11
93.5972344514
 21
626.3685659581
  0
LWPOLYLINE
  5
3DB
100
AcDbEntity
  8
0
100
AcDbPolyline
 62
2
  6
CONTINUOUS
 90
13
 70
0
 43
0.1500000051
 10
145.07454239
 20
659.5398926505
 10
144.7888250506
 20
659.7541578414
 10
144.7888250506
 20
660.3970142506
 10
145.07454239
 20
660.8256054687
 10
145.7173987992
 20
660.8256054687
 10
146.0031161386
 20
660.3970142506
 10
146.0031161386
 20
659.7541578414
 10
145.7173987992
 20
659.5398926505
 10
146.1459595992
 20
659.1113014323
 10
146.1459595992
 20
658.2541798322
 10
145.7173987992
 20
657.825588614
 10
145.07454239
 20
657.825588614
 10
144.6459511719
 20
658.2541798322
  0
LWPOLYLINE
  5
3DC
100
AcDbEntity
  8
0
100
AcDbPolyline
 62
2
  6
CONTINUOUS
 90
5
 70
0
 43
0.1500000051
 10
143.2531057581
 20
54.2062530246
 10
143.6102448278
 20
54.4205372269
 10
143.6102448278
 20
55.0633936361
 10
143.2531057581
 20
55.4919658429
 10
142.3959537399
 20
55.4919658429
  0
LINE
  5
3DD
100
AcDbEntity
  8
02___PRT_ALL_AXES
100
AcDbLine
 62
7
  6
CONTINUOUS
 10
93.5825576534
 20
633.9648328514
 11
93.5972344514
 21
633.9685659581
  0
LINE
  5
3DE
100
AcDbEntity
  8
7_ALL_FEATURES
100
AcDbLine
 62
7
  6
CONTINUOUS
 10
189.4015316044
 20
608.6685659581
 11
95.8903885143
 21
608.6685659581
  0
LINE
  5
3DF
100
AcDbEntity
  8
7_ALL_FEATURES
100
AcDbLine
 62
9
  6
CONTINUOUS
 10
191.4014554506
 20
610.6511128871
 11
93.8904646681
 21
610.6511128871
  0
LWPOLYLINE
  5
3E0
100
AcDbEntity
  8
0
100
AcDbPolyline
 62
2
  6
CONTINUOUS
 90
13
 70
0
 43
0.1500000051
 10
218.0869575376
 20
623.5614089265
 10
216.8012143012
 20
623.5614089265
 10
216.3726535012
 20
623.7757349537
 10
215.9440927011
 20
624.2042653356
 10
215.9440927011
 20
624.4185913628
 10
216.3726535012
 20
624.8471217448
 10
216.8012143012
 20
625.061447772
 10
218.0869575376
 20
625.061447772
 10
218.5155183377
 20
624.8471217448
 10
218.9440791377
 20
624.4185913628
 10
218.9440791377
 20
624.2042653356
 10
218.5155183377
 20
623.7757349537
 10
218.0869575376
 20
623.5614089265
  0
LINE
  5
3E1
100
AcDbEntity
  8
02___PRT_ALL_AXES
100
AcDbLine
 62
7
  6
CONTINUOUS
 10
93.9757884367
 20
626.3685659581
 11
93.5972344514
 21
626.3685659581
  0
LINE
  5
3E2
100
AcDbEntity
  8
02___PRT_ALL_AXES
100
AcDbLine
 62
7
  6
CONTINUOUS
 10
191.5386195855
 20
626.3685659581
 11
191.7943051371
 21
626.3685659581
  0
LINE
  5
3E3
100
AcDbEntity
  8
7_ALL_FEATURES
100
AcDbLine
 62
7
  6
CONTINUOUS
 10
94.2418293097
 20
627.9185659581
 11
94.2801400434
 21
627.9185659581
  0
LINE
  5
3E4
100
AcDbEntity
  8
7_ALL_FEATURES
100
AcDbLine
 62
7
  6
CONTINUOUS
 10
191.5208262568
 20
627.9185659581
 11
191.5521462306
 21
627.9185659581
  0
LINE
  5
3E5
100
AcDbEntity
  8
02___PRT_ALL_AXES
100
AcDbLine
 62
7
  6
CONTINUOUS
 10
94.343207154
 20
628.1685659581
 11
94.2565076848
 21
628.1685659581
  0
LINE
  5
3E6
100
AcDbEntity
  8
7_ALL_FEATURES
100
AcDbLine
 62
7
  6
CONTINUOUS
 10
91.7212608615
 20
628.9185659581
 11
91.8470593403
 21
628.9185659581
  0
LINE
  5
3E7
100
AcDbEntity
  8
7_ALL_FEATURES
100
AcDbLine
 62
7
  6
CONTINUOUS
 10
91.658361622
 20
630.1685659581
 11
91.9099585797
 21
630.1685659581
  0
LINE
  5
3E8
100
AcDbEntity
  8
7_ALL_FEATURES
100
AcDbLine
 62
7
  6
CONTINUOUS
 10
91.8470593403
 20
631.4185659581
 11
91.7212608615
 21
631.4185659581
  0
LINE
  5
3E9
100
AcDbEntity
  8
02___PRT_ALL_AXES
100
AcDbLine
 62
7
  6
CONTINUOUS
 10
94.3078653895
 20
632.1685659581
 11
94.2565076848
 21
632.1685659581
  0
LINE
  5
3EA
100
AcDbEntity
  8
02___PRT_ALL_AXES
100
AcDbLine
 62
7
  6
CONTINUOUS
 10
93.9757884367
 20
633.9685659581
 11
93.5972344514
 21
633.9685659581
  0
LINE
  5
3EB
100
AcDbEntity
  8
02___PRT_ALL_AXES
100
AcDbLine
 62
7
  6
CONTINUOUS
 10
191.5532150042
 20
633.9685659581
 11
191.7943051371
 21
633.9685659581
  0
LINE
  5
3EC
100
AcDbEntity
  8
7_ALL_FEATURES
100
AcDbLine
 62
7
  6
CONTINUOUS
 10
93.6976454816
 20
638.6685659581
 11
191.5942746371
 21
638.6685659581
  0
LINE
  5
3ED
100
AcDbEntity
  8
02___PRT_ALL_AXES
100
AcDbLine
 62
7
  6
CONTINUOUS
 10
191.8089819352
 20
633.9648328514
 11
191.7943051371
 21
633.9685659581
  0
LINE
  5
3EE
100
AcDbEntity
  8
7_ALL_FEATURES
100
AcDbLine
 62
7
  6
CONTINUOUS
 10
380.0581236335
 20
73.6685659581
 11
351.0581236335
 21
73.6685659581
  0
LINE
  5
3EF
100
AcDbEntity
  8
7_ALL_FEATURES
100
AcDbLine
 62
7
  6
CONTINUOUS
 10
380.5581236335
 20
74.1685659581
 11
350.5581236335
 21
74.1685659581
  0
LINE
  5
3F0
100
AcDbEntity
  8
7_ALL_FEATURES
100
AcDbLine
 62
7
  6
CONTINUOUS
 10
351.0581236335
 20
73.6685659581
 11
350.5581236335
 21
74.1685659581
  0
LINE
  5
3F1
100
AcDbEntity
  8
7_ALL_FEATURES
100
AcDbLine
 62
7
  6
CONTINUOUS
 10
371.3081236335
 20
606.8685659581
 11
371.8081236335
 21
607.3685659581
  0
LINE
  5
3F2
100
AcDbEntity
  8
7_ALL_FEATURES
100
AcDbLine
 62
7
  6
CONTINUOUS
 10
369.28901294
 20
631.4185659581
 11
368.5700713436
 21
630.1685659581
  0
LINE
  5
3F3
100
AcDbEntity
  8
7_ALL_FEATURES
100
AcDbLine
 62
7
  6
CONTINUOUS
 10
370.5525846472
 20
628.9185659581
 11
371.2715262436
 21
630.1685659581
  0
LINE
  5
3F4
100
AcDbEntity
  8
7_ALL_FEATURES
100
AcDbLine
 62
7
  6
CONTINUOUS
 10
370.7268961327
 20
628.9185659581
 11
371.4458377291
 21
630.1685659581
  0
LINE
  5
3F5
100
AcDbEntity
  8
7_ALL_FEATURES
100
AcDbLine
 62
7
  6
CONTINUOUS
 10
351.0581236335
 20
453.6685659581
 11
350.5581236335
 21
453.1685659581
  0
LINE
  5
3F6
100
AcDbEntity
  8
7_ALL_FEATURES
100
AcDbLine
 62
7
  6
CONTINUOUS
 10
316.8026282423
 20
610.6511128871
 11
316.5581236335
 21
638.6685659581
  0
LINE
  5
3F7
100
AcDbEntity
  8
7_ALL_FEATURES
100
AcDbLine
 62
7
  6
CONTINUOUS
 10
350.5581236335
 20
453.1685659581
 11
350.5581236335
 21
74.1685659581
  0
LINE
  5
3F8
100
AcDbEntity
  8
3_ALL_AXES
100
AcDbLine
 62
7
  6
CONTINUOUS
 10
359.3081236335
 20
607.3685659581
 11
359.3081236335
 21
608.6685659581
  0
LINE
  5
3F9
100
AcDbEntity
  8
02___PRT_ALL_AXES
100
AcDbLine
 62
7
  6
CONTINUOUS
 10
362.8581236335
 20
606.8685659581
 11
362.8581236335
 21
453.9685659581
  0
LINE
  5
3FA
100
AcDbEntity
  8
7_ALL_FEATURES
100
AcDbLine
 62
7
  6
CONTINUOUS
 10
363.3081236335
 20
628.4185659581
 11
363.3081236335
 21
638.6685659581
  0
LINE
  5
3FB
100
AcDbEntity
  8
7_ALL_FEATURES
100
AcDbLine
 62
7
  6
CONTINUOUS
 10
367.8081236335
 20
638.6685659581
 11
367.8081236335
 21
633.3805394518
  0
LINE
  5
3FC
100
AcDbEntity
  8
7_ALL_FEATURES
100
AcDbLine
 62
7
  6
CONTINUOUS
 10
361.3540059864
 20
453.9685659581
 11
361.3581236335
 21
454.6685659581
  0
LINE
  5
3FD
100
AcDbEntity
  8
7_ALL_FEATURES
100
AcDbLine
 62
7
  6
CONTINUOUS
 10
363.9169471629
 20
453.9685659581
 11
363.9581236335
 21
454.6685659581
  0
LINE
  5
3FE
100
AcDbEntity
  8
7_ALL_FEATURES
100
AcDbLine
 62
7
  6
CONTINUOUS
 10
367.1581236335
 20
454.6685659581
 11
367.1993001041
 21
453.9685659581
  0
LINE
  5
3FF
100
AcDbEntity
  8
7_ALL_FEATURES
100
AcDbLine
 62
7
  6
CONTINUOUS
 10
369.7622412805
 20
453.9685659581
 11
369.7581236335
 21
454.6685659581
  0
LINE
  5
400
100
AcDbEntity
  8
02___PRT_ALL_AXES
100
AcDbLine
 62
7
  6
CONTINUOUS
 10
368.2581236335
 20
606.8685659581
 11
368.2581236335
 21
453.9685659581
  0
LINE
  5
401
100
AcDbEntity
  8
3_ALL_AXES
100
AcDbLine
 62
7
  6
CONTINUOUS
 10
371.8081236335
 20
607.3685659581
 11
371.8081236335
 21
608.6685659581
  0
LINE
  5
402
100
AcDbEntity
  8
7_ALL_FEATURES
100
AcDbLine
 62
7
  6
CONTINUOUS
 10
373.3081236335
 20
631.9185659581
 11
373.3081236335
 21
631.6941994854
  0
LINE
  5
403
100
AcDbEntity
  8
7_ALL_FEATURES
100
AcDbLine
 62
7
  6
CONTINUOUS
 10
373.3081236335
 20
628.6429324308
 11
373.3081236335
 21
628.4185659581
  0
LINE
  5
404
100
AcDbEntity
  8
7_ALL_FEATURES
100
AcDbLine
 62
7
  6
CONTINUOUS
 10
380.5581236335
 20
453.1685659581
 11
380.5581236335
 21
74.1685659581
  0
LINE
  5
405
100
AcDbEntity
  8
7_ALL_FEATURES
100
AcDbLine
 62
7
  6
CONTINUOUS
 10
414.3136190247
 20
610.6511128871
 11
414.5581236335
 21
638.6685659581
  0
LINE
  5
406
100
AcDbEntity
  8
7_ALL_FEATURES
100
AcDbLine
 62
7
  6
CONTINUOUS
 10
350.5581236335
 20
453.1685659581
 11
380.5581236335
 21
453.1685659581
  0
LINE
  5
407
100
AcDbEntity
  8
7_ALL_FEATURES
100
AcDbLine
 62
7
  6
CONTINUOUS
 10
351.0581236335
 20
453.6685659581
 11
380.0581236335
 21
453.6685659581
  0
LINE
  5
408
100
AcDbEntity
  8
7_ALL_FEATURES
100
AcDbLine
 62
7
  6
CONTINUOUS
 10
360.9511804506
 20
453.9685659581
 11
370.1650668163
 21
453.9685659581
  0
LINE
  5
409
100
AcDbEntity
  8
7_ALL_FEATURES
100
AcDbLine
 62
7
  6
CONTINUOUS
 10
380.0581236335
 20
453.6685659581
 11
380.5581236335
 21
453.1685659581
  0
LINE
  5
40A
100
AcDbEntity
  8
7_ALL_FEATURES
100
AcDbLine
 62
7
  6
CONTINUOUS
 10
361.3581200004
 20
454.6685659581
 11
362.4452471502
 21
454.6685659581
  0
LINE
  5
40B
100
AcDbEntity
  8
7_ALL_FEATURES
100
AcDbLine
 62
7
  6
CONTINUOUS
 10
363.9581236335
 20
454.6685659581
 11
367.1581236335
 21
454.6685659581
  0
LINE
  5
40C
100
AcDbEntity
  8
7_ALL_FEATURES
100
AcDbLine
 62
7
  6
CONTINUOUS
 10
368.6710001167
 20
454.6685659581
 11
369.7581272665
 21
454.6685659581
  0
LINE
  5
40D
100
AcDbEntity
  8
7_ALL_FEATURES
100
AcDbLine
 62
7
  6
CONTINUOUS
 10
368.5700713436
 20
630.1685659581
 11
369.28901294
 21
628.9185659581
  0
LINE
  5
40E
100
AcDbEntity
  8
7_ALL_FEATURES
100
AcDbLine
 62
7
  6
CONTINUOUS
 10
371.2715262436
 20
630.1685659581
 11
370.5525846472
 21
631.4185659581
  0
LINE
  5
40F
100
AcDbEntity
  8
7_ALL_FEATURES
100
AcDbLine
 62
7
  6
CONTINUOUS
 10
371.4458377291
 20
630.1685659581
 11
370.7268961327
 21
631.4185659581
  0
LINE
  5
410
100
AcDbEntity
  8
7_ALL_FEATURES
100
AcDbLine
 62
7
  6
CONTINUOUS
 10
359.8081236335
 20
606.8685659581
 11
359.3081236335
 21
607.3685659581
  0
LINE
  5
411
100
AcDbEntity
  8
7_ALL_FEATURES
100
AcDbLine
 62
7
  6
CONTINUOUS
 10
380.0581236335
 20
73.6685659581
 11
380.5581236335
 21
74.1685659581
  0
LINE
  5
412
100
AcDbEntity
  8
7_ALL_FEATURES
100
AcDbLine
 62
7
  6
CONTINUOUS
 10
359.8081236335
 20
606.8685659581
 11
371.3081236335
 21
606.8685659581
  0
LINE
  5
413
100
AcDbEntity
  8
7_ALL_FEATURES
100
AcDbLine
 62
7
  6
CONTINUOUS
 10
359.3081236335
 20
607.3685659581
 11
371.8081236335
 21
607.3685659581
  0
LINE
  5
414
100
AcDbEntity
  8
7_ALL_FEATURES
100
AcDbLine
 62
7
  6
CONTINUOUS
 10
318.8025520884
 20
608.6685659581
 11
412.3136951786
 21
608.6685659581
  0
LINE
  5
415
100
AcDbEntity
  8
7_ALL_FEATURES
100
AcDbLine
 62
9
  6
CONTINUOUS
 10
414.3136190247
 20
610.6511128871
 11
316.8026282423
 21
610.6511128871
  0
LINE
  5
416
100
AcDbEntity
  8
7_ALL_FEATURES
100
AcDbLine
 62
7
  6
CONTINUOUS
 10
363.8081236335
 20
627.9185659581
 11
366.7753508085
 21
627.9185659581
  0
LINE
  5
417
100
AcDbEntity
  8
7_ALL_FEATURES
100
AcDbLine
 62
7
  6
CONTINUOUS
 10
369.28901294
 20
628.9185659581
 11
370.7268961327
 21
628.9185659581
  0
LINE
  5
418
100
AcDbEntity
  8
7_ALL_FEATURES
100
AcDbLine
 62
7
  6
CONTINUOUS
 10
371.4458377291
 20
630.1685659581
 11
371.2715262436
 21
630.1685659581
  0
LINE
  5
419
100
AcDbEntity
  8
7_ALL_FEATURES
100
AcDbLine
 62
7
  6
CONTINUOUS
 10
370.7268961327
 20
631.4185659581
 11
369.28901294
 21
631.4185659581
  0
LINE
  5
41A
100
AcDbEntity
  8
7_ALL_FEATURES
100
AcDbLine
 62
9
  6
CONTINUOUS
 10
367.8081236335
 20
635.6685659581
 11
363.3081236335
 21
635.6685659581
  0
LINE
  5
41B
100
AcDbEntity
  8
7_ALL_FEATURES
100
AcDbLine
 62
3
  6
CONTINUOUS
 10
367.8081236335
 20
638.6685659581
 11
363.3081236335
 21
638.6685659581
  0
LINE
  5
41C
100
AcDbEntity
  8
7_ALL_FEATURES
100
AcDbLine
 62
7
  6
CONTINUOUS
 10
316.5584782671
 20
638.6685659581
 11
363.3081236335
 21
638.6685659581
  0
LINE
  5
41D
100
AcDbEntity
  8
7_ALL_FEATURES
100
AcDbLine
 62
7
  6
CONTINUOUS
 10
367.8081236335
 20
638.6685659581
 11
414.5577689998
 21
638.6685659581
  0
LINE
  5
41E
100
AcDbEntity
  8
02___PRT_ALL_AXES
100
AcDbLine
 62
7
  6
CONTINUOUS
 10
91.6128990664
 20
761.6135597674
 11
91.9554211354
 21
765.5286049309
  0
LINE
  5
41F
100
AcDbEntity
  8
02___PRT_ALL_AXES
100
AcDbLine
 62
7
  6
CONTINUOUS
 10
93.266042629
 20
759.6269190446
 11
93.9284262738
 21
767.1979987501
  0
LINE
  5
420
100
AcDbEntity
  8
02___PRT_ALL_AXES
100
AcDbLine
 62
7
  6
CONTINUOUS
 10
93.6445966142
 20
759.5937998624
 11
93.793816867
 21
761.2993951566
  0
LINE
  5
421
100
AcDbEntity
  8
02___PRT_ALL_AXES
100
AcDbLine
 62
7
  6
CONTINUOUS
 10
94.1372475293
 20
765.2248255885
 11
94.3069802591
 21
767.1648795679
  0
LINE
  5
422
100
AcDbEntity
  8
7_ALL_FEATURES
100
AcDbLine
 62
7
  6
CONTINUOUS
 10
190.9695376061
 20
751.3712514463
 11
190.938603005
 21
751.3712514463
  0
LINE
  5
423
100
AcDbEntity
  8
7_ALL_FEATURES
100
AcDbLine
 62
9
  6
CONTINUOUS
 10
191.0514893758
 20
751.8712514463
 11
191.0117800753
 21
751.8712514463
  0
LINE
  5
424
100
AcDbEntity
  8
7_ALL_FEATURES
100
AcDbLine
 62
7
  6
CONTINUOUS
 10
93.7871905018
 20
756.8712514463
 11
93.6976454816
 21
756.8712514463
  0
LINE
  5
425
100
AcDbEntity
  8
7_ALL_FEATURES
100
AcDbLine
 62
7
  6
CONTINUOUS
 10
191.4963203904
 20
756.8712514463
 11
191.5900626373
 21
756.8712514463
  0
LINE
  5
426
100
AcDbEntity
  8
02___PRT_ALL_AXES
100
AcDbLine
 62
7
  6
CONTINUOUS
 10
191.4631133147
 20
751.0357885682
 11
191.0845593294
 21
751.0689077504
  0
LINE
  5
427
100
AcDbEntity
  8
02___PRT_ALL_AXES
100
AcDbLine
 62
7
  6
CONTINUOUS
 10
93.6445966142
 20
759.5937998624
 11
93.266042629
 21
759.6269190446
  0
LINE
  5
428
100
AcDbEntity
  8
7_ALL_FEATURES
100
AcDbLine
 62
7
  6
CONTINUOUS
 10
191.2414396663
 20
752.862058207
 11
191.1364211538
 21
752.8712461363
  0
LINE
  5
429
100
AcDbEntity
  8
02___PRT_ALL_AXES
100
AcDbLine
 62
7
  6
CONTINUOUS
 10
191.1364211538
 20
752.8712461363
 11
191.2414396663
 21
752.862058207
  0
LINE
  5
42A
100
AcDbEntity
  8
7_ALL_FEATURES
100
AcDbLine
 62
7
  6
CONTINUOUS
 10
191.5047296169
 20
761.3712514463
 11
191.5942746371
 21
761.3712514463
  0
LINE
  5
42B
100
AcDbEntity
  8
7_ALL_FEATURES
100
AcDbLine
 62
7
  6
CONTINUOUS
 10
191.5900626373
 20
756.8468369993
 11
191.4959189916
 21
756.8550735011
  0
LINE
  5
42C
100
AcDbEntity
  8
02___PRT_ALL_AXES
100
AcDbLine
 62
7
  6
CONTINUOUS
 10
191.4959189916
 20
756.8550735011
 11
191.5900626373
 21
756.8468369993
  0
LINE
  5
42D
100
AcDbEntity
  8
02___PRT_ALL_AXES
100
AcDbLine
 62
7
  6
CONTINUOUS
 10
192.1254969596
 20
758.6068682737
 11
191.7469429743
 21
758.6399874559
  0
LINE
  5
42E
100
AcDbEntity
  8
02___PRT_ALL_AXES
100
AcDbLine
 62
7
  6
CONTINUOUS
 10
94.3069802591
 20
767.1648795679
 11
93.9284262738
 21
767.1979987501
  0
LINE
  5
42F
100
AcDbEntity
  8
7_ALL_FEATURES
100
AcDbLine
 62
9
  6
CONTINUOUS
 10
94.2404307429
 20
766.3712514463
 11
94.2801400434
 21
766.3712514463
  0
LINE
  5
430
100
AcDbEntity
  8
7_ALL_FEATURES
100
AcDbLine
 62
7
  6
CONTINUOUS
 10
94.3223825126
 20
766.8712514463
 11
94.3533171137
 21
766.8712514463
  0
LINE
  5
431
100
AcDbEntity
  8
02___PRT_ALL_AXES
100
AcDbLine
 62
7
  6
CONTINUOUS
 10
191.7469429743
 20
758.6399874559
 11
191.0845593294
 21
751.0689077504
  0
LINE
  5
432
100
AcDbEntity
  8
02___PRT_ALL_AXES
100
AcDbLine
 62
7
  6
CONTINUOUS
 10
192.1254969596
 20
758.6068682737
 11
191.4631133147
 21
751.0357885682
  0
LINE
  5
433
100
AcDbEntity
  8
02___PRT_ALL_AXES
100
AcDbLine
 62
7
  6
CONTINUOUS
 10
193.7786405221
 20
756.6202275509
 11
193.4361184531
 21
752.7051823874
  0
ARC
  5
434
100
AcDbEntity
  8
02___PRT_ALL_AXES
100
AcDbCircle
 62
7
  6
CONTINUOUS
 10
55.5507641103
 20
630.2223043605
 40
38.756253405
100
AcDbArc
 50
359.9205551524
 51
2.3586831231
  0
ARC
  5
435
100
AcDbEntity
  8
02___PRT_ALL_AXES
100
AcDbCircle
 62
7
  6
CONTINUOUS
 10
63.0584367998
 20
630.5075257584
 40
31.2432123452
100
AcDbArc
 50
2.4026953342
 51
2.5893799923
  0
ARC
  5
436
100
AcDbEntity
  8
02___PRT_ALL_AXES
100
AcDbCircle
 62
7
  6
CONTINUOUS
 10
67.1221956298
 20
630.7009756124
 40
27.1748648458
100
AcDbArc
 50
2.5690115778
 51
3.3927424999
  0
ARC
  5
437
100
AcDbEntity
  8
02___PRT_ALL_AXES
100
AcDbCircle
 62
7
  6
CONTINUOUS
 10
70.6323219246
 20
629.4303175443
 40
23.6587092207
100
AcDbArc
 50
356.3316784654
 51
356.6018060356
  0
ARC
  5
438
100
AcDbEntity
  8
02___PRT_ALL_AXES
100
AcDbCircle
 62
7
  6
CONTINUOUS
 10
70.6386684353
 20
630.9072041482
 40
23.6523507651
100
AcDbArc
 50
3.3981627103
 51
3.6700111333
  0
ARC
  5
439
100
AcDbEntity
  8
02___PRT_ALL_AXES
100
AcDbCircle
 62
7
  6
CONTINUOUS
 10
70.3363661451
 20
630.9118933648
 40
23.5759551915
100
AcDbArc
 50
3.3977709493
 51
3.6903327024
  0
ARC
  5
43A
100
AcDbEntity
  8
02___PRT_ALL_AXES
100
AcDbCircle
 62
7
  6
CONTINUOUS
 10
70.3617824278
 20
629.423673012
 40
23.5504908015
100
AcDbArc
 50
356.3028847794
 51
356.6023663313
  0
ARC
  5
43B
100
AcDbEntity
  8
02___PRT_ALL_AXES
100
AcDbCircle
 62
7
  6
CONTINUOUS
 10
95.4441815874
 20
630.3078095774
 40
4.1035996114
100
AcDbArc
 50
116.978571243
 51
154.0609874879
  0
ARC
  5
43C
100
AcDbEntity
  8
02___PRT_ALL_AXES
100
AcDbCircle
 62
7
  6
CONTINUOUS
 10
95.4441815087
 20
630.0293222481
 40
4.1035994981
100
AcDbArc
 50
205.9390118546
 51
243.0214291619
  0
ARC
  5
43D
100
AcDbEntity
  8
7_ALL_FEATURES
100
AcDbCircle
 62
7
  6
CONTINUOUS
 10
95.8903885143
 20
610.6685659581
 40
2.0
100
AcDbArc
 50
180.5
 51
270.0
  0
ARC
  5
43E
100
AcDbEntity
  8
7_ALL_FEATURES
100
AcDbCircle
 62
7
  6
CONTINUOUS
 10
138.0389401647
 20
452.9685659581
 40
1.0
100
AcDbArc
 50
90.0000007754
 51
135.5641069827
  0
ARC
  5
43F
100
AcDbEntity
  8
7_ALL_FEATURES
100
AcDbCircle
 62
7
  6
CONTINUOUS
 10
147.252979954
 20
452.9685659581
 40
1.0
100
AcDbArc
 50
44.4358930173
 51
89.9999992246
  0
ARC
  5
440
100
AcDbEntity
  8
02___PRT_ALL_AXES
100
AcDbCircle
 62
7
  6
CONTINUOUS
 10
167.8614134122
 20
629.4434461132
 40
23.8699878751
100
AcDbArc
 50
356.3038262967
 51
356.6003511676
  0
ARC
  5
441
100
AcDbEntity
  8
02___PRT_ALL_AXES
100
AcDbCircle
 62
7
  6
CONTINUOUS
 10
171.3082083254
 20
631.1189130283
 40
20.4158428212
100
AcDbArc
 50
3.6966047282
 51
4.5914991923
  0
ARC
  5
442
100
AcDbEntity
  8
02___PRT_ALL_AXES
100
AcDbCircle
 62
7
  6
CONTINUOUS
 10
175.7066300109
 20
631.4646563085
 40
16.0038613322
100
AcDbArc
 50
4.6182230007
 51
5.2730313161
  0
ARC
  5
443
100
AcDbEntity
  8
02___PRT_ALL_AXES
100
AcDbCircle
 62
7
  6
CONTINUOUS
 10
189.9473580011
 20
630.3078095774
 40
4.1035996114
100
AcDbArc
 50
25.9390125121
 51
63.021428757
  0
ARC
  5
444
100
AcDbEntity
  8
02___PRT_ALL_AXES
100
AcDbCircle
 62
7
  6
CONTINUOUS
 10
189.9473580798
 20
630.0293222481
 40
4.1035994981
100
AcDbArc
 50
296.9785708381
 51
334.0609881454
  0
ARC
  5
445
100
AcDbEntity
  8
7_ALL_FEATURES
100
AcDbCircle
 62
7
  6
CONTINUOUS
 10
189.4015316044
 20
610.6685659581
 40
2.0
100
AcDbArc
 50
270.0
 51
359.5
  0
ARC
  5
446
100
AcDbEntity
  8
02___PRT_ALL_AXES
100
AcDbCircle
 62
7
  6
CONTINUOUS
 10
369.8403753552
 20
630.167920529
 40
3.8097033603
100
AcDbArc
 50
179.9902931121
 51
216.274598596
  0
ARC
  5
447
100
AcDbEntity
  8
02___PRT_ALL_AXES
100
AcDbCircle
 62
7
  6
CONTINUOUS
 10
369.8734945375
 20
630.167920529
 40
3.8097033603
100
AcDbArc
 50
179.9902931121
 51
216.274598596
  0
ARC
  5
448
100
AcDbEntity
  8
02___PRT_ALL_AXES
100
AcDbCircle
 62
7
  6
CONTINUOUS
 10
369.8498132578
 20
630.1934971872
 40
3.7750638171
100
AcDbArc
 50
90.0073181518
 51
122.8300376394
  0
ARC
  5
449
100
AcDbEntity
  8
7_ALL_FEATURES
100
AcDbCircle
 62
7
  6
CONTINUOUS
 10
318.8025520884
 20
610.6685659581
 40
2.0
100
AcDbArc
 50
180.5
 51
270.0
  0
ARC
  5
44A
100
AcDbEntity
  8
7_ALL_FEATURES
100
AcDbCircle
 62
7
  6
CONTINUOUS
 10
412.3136951786
 20
610.6685659581
 40
2.0
100
AcDbArc
 50
270.0
 51
359.5
  0
ARC
  5
44B
100
AcDbEntity
  8
7_ALL_FEATURES
100
AcDbCircle
 62
7
  6
CONTINUOUS
 10
370.1651435281
 20
452.9685659581
 40
1.0
100
AcDbArc
 50
44.4363063958
 51
89.9999992246
  0
ARC
  5
44C
100
AcDbEntity
  8
7_ALL_FEATURES
100
AcDbCircle
 62
7
  6
CONTINUOUS
 10
360.9511037389
 20
452.9685659581
 40
1.0
100
AcDbArc
 50
90.0000007754
 51
135.5636936042
  0
ARC
  5
44D
100
AcDbEntity
  8
7_ALL_FEATURES
100
AcDbCircle
 62
7
  6
CONTINUOUS
 10
363.8081236335
 20
628.4185659581
 40
0.5
100
AcDbArc
 50
180.0
 51
270.0
  0
ARC
  5
44E
100
AcDbEntity
  8
7_ALL_FEATURES
100
AcDbCircle
 62
7
  6
CONTINUOUS
 10
372.8081236335
 20
628.4185659581
 40
0.5
100
AcDbArc
 50
281.4821609077
 51
360.0
  0
ARC
  5
44F
100
AcDbEntity
  8
7_ALL_FEATURES
100
AcDbCircle
 62
7
  6
CONTINUOUS
 10
372.8081236335
 20
631.9185659581
 40
0.5
100
AcDbArc
 50
0.0
 51
78.5406565864
  0
ARC
  5
450
100
AcDbEntity
  8
02___PRT_ALL_AXES
100
AcDbCircle
 62
7
  6
CONTINUOUS
 10
95.4304099804
 20
763.1090899146
 40
4.1
100
AcDbArc
 50
201.3930257743
 51
238.1366968699
  0
ARC
  5
451
100
AcDbEntity
  8
02___PRT_ALL_AXES
100
AcDbCircle
 62
7
  6
CONTINUOUS
 10
95.455239396
 20
763.3928914336
 40
4.1
100
AcDbArc
 50
111.8633031301
 51
148.6069742257
  0
ARC
  5
452
100
AcDbEntity
  8
7_ALL_FEATURES
100
AcDbCircle
 62
7
  6
CONTINUOUS
 10
142.6459600594
 20
759.1212514463
 40
49.0
100
AcDbArc
 50
182.6318540801
 51
352.6540599813
  0
ARC
  5
453
100
AcDbEntity
  8
7_ALL_FEATURES
100
AcDbCircle
 62
7
  6
CONTINUOUS
 10
142.6459600594
 20
759.1212514463
 40
49.0
100
AcDbArc
 50
2.6318540801
 51
170.5497223521
  0
ARC
  5
454
100
AcDbEntity
  8
7_ALL_FEATURES
100
AcDbCircle
 62
7
  6
CONTINUOUS
 10
142.6459600594
 20
759.1212514463
 40
48.9454570763
100
AcDbArc
 50
351.4817710799
 51
352.6607968273
  0
ARC
  5
455
100
AcDbEntity
  8
7_ALL_FEATURES
100
AcDbCircle
 62
7
  6
CONTINUOUS
 10
142.6459600594
 20
759.1212514463
 40
48.9061861712
100
AcDbArc
 50
351.4748801681
 51
2.0506408613
  0
ARC
  5
456
100
AcDbEntity
  8
7_ALL_FEATURES
100
AcDbCircle
 62
7
  6
CONTINUOUS
 10
142.6459600594
 20
759.1212514463
 40
48.9061861712
100
AcDbArc
 50
177.4470098731
 51
182.0506408613
  0
ARC
  5
457
100
AcDbEntity
  8
7_ALL_FEATURES
100
AcDbCircle
 62
7
  6
CONTINUOUS
 10
142.6459600594
 20
759.1212514463
 40
48.9061861712
100
AcDbArc
 50
171.4748801681
 51
172.8287864867
  0
CIRCLE
  5
458
100
AcDbEntity
  8
7_ALL_FEATURES
100
AcDbCircle
 62
9
  6
CONTINUOUS
 10
142.6459600594
 20
759.1212514463
 40
48.7554953912
  0
CIRCLE
  5
459
100
AcDbEntity
  8
7_ALL_FEATURES
100
AcDbCircle
 62
9
  6
CONTINUOUS
 10
142.6459600594
 20
759.1212514463
 40
46.7555715451
  0
CIRCLE
  5
45A
100
AcDbEntity
  8
7_ALL_FEATURES
100
AcDbCircle
 62
7
  6
CONTINUOUS
 10
142.6459600594
 20
759.1212514463
 40
15.0
  0
CIRCLE
  5
45B
100
AcDbEntity
  8
7_ALL_FEATURES
100
AcDbCircle
 62
7
  6
CONTINUOUS
 10
142.6459600594
 20
759.1212514463
 40
14.5
  0
CIRCLE
  5
45C
100
AcDbEntity
  8
7_ALL_FEATURES
100
AcDbCircle
 62
7
  6
CONTINUOUS
 10
142.6459600594
 20
759.1212514463
 40
12.5
  0
CIRCLE
  5
45D
100
AcDbEntity
  8
7_ALL_FEATURES
100
AcDbCircle
 62
7
  6
CONTINUOUS
 10
142.6459600594
 20
759.1212514463
 40
12.2
  0
CIRCLE
  5
45E
100
AcDbEntity
  8
02___PRT_ALL_AXES
100
AcDbCircle
 62
7
  6
CONTINUOUS
 10
142.6459600594
 20
759.1212514463
 40
9.8
  0
CIRCLE
  5
45F
100
AcDbEntity
  8
02___PRT_ALL_AXES
100
AcDbCircle
 62
7
  6
CONTINUOUS
 10
142.6459600594
 20
759.1212514463
 40
9.25
  0
CIRCLE
  5
460
100
AcDbEntity
  8
3_ALL_AXES
100
AcDbCircle
 62
7
  6
CONTINUOUS
 10
142.6459600594
 20
759.1212514463
 40
9.0
  0
CIRCLE
  5
461
100
AcDbEntity
  8
7_ALL_FEATURES
100
AcDbCircle
 62
7
  6
CONTINUOUS
 10
142.6459600594
 20
759.1212514463
 40
2.5
  0
CIRCLE
  5
462
100
AcDbEntity
  8
02___PRT_ALL_AXES
100
AcDbCircle
 62
7
  6
CONTINUOUS
 10
131.6459600594
 20
759.1212514463
 40
0.9
  0
ARC
  5
463
100
AcDbEntity
  8
7_ALL_FEATURES
100
AcDbCircle
 62
7
  6
CONTINUOUS
 10
119.84038431
 20
762.5381876528
 40
25.8853240406
100
AcDbArc
 50
171.0557761668
 51
171.4844022068
  0
ARC
  5
464
100
AcDbEntity
  8
7_ALL_FEATURES
100
AcDbCircle
 62
7
  6
CONTINUOUS
 10
165.4515358169
 20
755.7043152385
 40
25.8853240323
100
AcDbArc
 50
351.0557761667
 51
351.4844022069
  0
ARC
  5
465
100
AcDbEntity
  8
02___PRT_ALL_AXES
100
AcDbCircle
 62
7
  6
CONTINUOUS
 10
189.9611296081
 20
755.1246974036
 40
4.1
100
AcDbArc
 50
21.3930257743
 51
58.1366968699
  0
ARC
  5
466
100
AcDbEntity
  8
02___PRT_ALL_AXES
100
AcDbCircle
 62
7
  6
CONTINUOUS
 10
189.9363001925
 20
754.8408958846
 40
4.1
100
AcDbArc
 50
291.8633031301
 51
328.6069742257
  0
CIRCLE
  5
467
100
AcDbEntity
  8
02___PRT_ALL_AXES
100
AcDbCircle
 62
7
  6
CONTINUOUS
 10
153.6459600594
 20
759.1212514463
 40
0.9
  0
SPLINE
  5
468
100
AcDbEntity
  8
02___PRT_ALL_AXES
100
AcDbSpline
 62
7
  6
CONTINUOUS
 70
0
 71
3
 72
15
 73
11
 74
0
 42
0.0000001
 43
0.0000001
 44
0.0000000001
 40
0.0
 40
0.0
 40
0.0
 40
0.0
 40
0.34500697
 40
0.5045292531
 40
0.6489216793
 40
0.7738882507
 40
0.8757634263
 40
0.9516861255
 40
0.9793289637
 40
1.0
 40
1.0
 40
1.0
 40
1.0
 10
193.7786405221
 20
630.1685659581
 30
0.0
 10
193.7786405221
 20
629.9449307059
 30
0.0
 10
193.7739601724
 20
629.6178542666
 30
0.0
 10
193.7572464224
 20
629.1975311653
 30
0.0
 10
193.7406965442
 20
628.9200065563
 30
0.0
 10
193.7204919744
 20
628.6801648861
 30
0.0
 10
193.6971942424
 20
628.4853049042
 30
0.0
 10
193.6747411178
 20
628.3538265994
 30
0.0
 10
193.6541733451
 20
628.2759464399
 30
0.0
 10
193.6434353409
 20
628.246392676
 30
0.0
 10
193.6375725764
 20
628.2343443126
 30
0.0
  0
SPLINE
  5
469
100
AcDbEntity
  8
02___PRT_ALL_AXES
100
AcDbSpline
 62
7
  6
CONTINUOUS
 70
0
 71
3
 72
15
 73
11
 74
0
 42
0.0000001
 43
0.0000001
 44
0.0000000001
 40
0.0
 40
0.0
 40
0.0
 40
0.0
 40
0.34500697
 40
0.5045292531
 40
0.6489216793
 40
0.7738882507
 40
0.8757634263
 40
0.9516861255
 40
0.9793289637
 40
1.0
 40
1.0
 40
1.0
 40
1.0
 10
193.7786405221
 20
630.1685659581
 30
0.0
 10
193.7786405221
 20
630.3922012103
 30
0.0
 10
193.7739601724
 20
630.7192776496
 30
0.0
 10
193.7572464224
 20
631.1396007509
 30
0.0
 10
193.7406965442
 20
631.4171253599
 30
0.0
 10
193.7204919744
 20
631.6569670301
 30
0.0
 10
193.6971942424
 20
631.851827012
 30
0.0
 10
193.6747411178
 20
631.9833053168
 30
0.0
 10
193.6541733451
 20
632.0611854763
 30
0.0
 10
193.6434353409
 20
632.0907392402
 30
0.0
 10
193.6375725764
 20
632.1027876036
 30
0.0
  0
SPLINE
  5
46A
100
AcDbEntity
  8
02___PRT_ALL_AXES
100
AcDbSpline
 62
7
  6
CONTINUOUS
 70
0
 71
3
 72
9
 73
5
 74
0
 42
0.0000001
 43
0.0000001
 44
0.0000000001
 40
0.0
 40
0.0
 40
0.0
 40
0.0
 40
0.5264295887
 40
1.0
 40
1.0
 40
1.0
 40
1.0
 10
191.7469429743
 20
630.1685659581
 30
0.0
 10
191.7469429743
 20
630.5665185184
 30
0.0
 10
191.7367867616
 20
631.3224896638
 30
0.0
 10
191.7047149907
 20
632.0779419978
 30
0.0
 10
191.6815747734
 20
632.4351871942
 30
0.0
  0
SPLINE
  5
46B
100
AcDbEntity
  8
02___PRT_ALL_AXES
100
AcDbSpline
 62
7
  6
CONTINUOUS
 70
0
 71
3
 72
9
 73
5
 74
0
 42
0.0000001
 43
0.0000001
 44
0.0000000001
 40
0.0
 40
0.0
 40
0.0
 40
0.0
 40
0.5616607256
 40
1.0
 40
1.0
 40
1.0
 40
1.0
 10
191.6427640583
 20
632.9354415283
 30
0.0
 10
191.6305069535
 20
633.06783022
 30
0.0
 10
191.6054889811
 20
633.303243687
 30
0.0
 10
191.5704968444
 20
633.5375511218
 30
0.0
 10
191.5505860492
 20
633.6393854337
 30
0.0
  0
SPLINE
  5
46C
100
AcDbEntity
  8
02___PRT_ALL_AXES
100
AcDbSpline
 62
7
  6
CONTINUOUS
 70
0
 71
3
 72
9
 73
5
 74
0
 42
0.0000001
 43
0.0000001
 44
0.0000000001
 40
0.0
 40
0.0
 40
0.0
 40
0.0
 40
0.5230483505
 40
1.0
 40
1.0
 40
1.0
 40
1.0
 10
191.7469429743
 20
630.1685659581
 30
0.0
 10
191.7469429743
 20
629.79517719
 30
0.0
 10
191.7379333495
 20
629.0812834844
 30
0.0
 10
191.7095911973
 20
628.367831901
 30
0.0
 10
191.6893946773
 20
628.0279497375
 30
0.0
  0
LINE
  5
46D
100
AcDbEntity
  8
02___PRT_ALL_AXES
100
AcDbLine
 62
7
  6
CONTINUOUS
 10
191.6817499369
 20
627.9046514515
 11
191.6816057503
 21
627.9024230314
  0
SPLINE
  5
46E
100
AcDbEntity
  8
02___PRT_ALL_AXES
100
AcDbSpline
 62
7
  6
CONTINUOUS
 70
0
 71
3
 72
10
 73
6
 74
0
 42
0.0000001
 43
0.0000001
 44
0.0000000001
 40
0.0
 40
0.0
 40
0.0
 40
0.0
 40
0.5860824618
 40
0.8166388486
 40
1.0
 40
1.0
 40
1.0
 40
1.0
 10
191.6816057503
 20
627.9024230314
 30
0.0
 10
191.6657110454
 20
627.6569557359
 30
0.0
 10
191.6387764449
 20
627.315071101
 30
0.0
 10
191.5863519618
 20
626.8986089115
 30
0.0
 10
191.5572680722
 20
626.7272086213
 30
0.0
 10
191.5412468882
 20
626.6519372796
 30
0.0
  0
SPLINE
  5
46F
100
AcDbEntity
  8
02___PRT_ALL_AXES
100
AcDbSpline
 62
7
  6
CONTINUOUS
 70
0
 71
3
 72
11
 73
7
 74
0
 42
0.0000001
 43
0.0000001
 44
0.0000000001
 40
0.0
 40
0.0
 40
0.0
 40
0.0
 40
0.2967784554
 40
0.574035958
 40
0.8136314324
 40
1.0
 40
1.0
 40
1.0
 40
1.0
 10
191.5900626373
 20
630.1685659581
 30
0.0
 10
191.5900626373
 20
629.9983983998
 30
0.0
 10
191.5864499699
 20
629.6692476163
 30
0.0
 10
191.5705232521
 20
629.2029338725
 30
0.0
 10
191.5452550169
 20
628.8004862428
 30
0.0
 10
191.5205691106
 20
628.5573189951
 30
0.0
 10
191.5051421184
 20
628.451577957
 30
0.0
  0
SPLINE
  5
470
100
AcDbEntity
  8
02___PRT_ALL_AXES
100
AcDbSpline
 62
7
  6
CONTINUOUS
 70
0
 71
3
 72
19
 73
15
 74
0
 42
0.0000001
 43
0.0000001
 44
0.0000000001
 40
0.0
 40
0.0
 40
0.0
 40
0.0
 40
0.1880609664
 40
0.3693360379
 40
0.5373274981
 40
0.6860017829
 40
0.8100739411
 40
0.8614986703
 40
0.9052497502
 40
0.9410004315
 40
0.9685528675
 40
0.9879438536
 40
0.9947759169
 40
1.0
 40
1.0
 40
1.0
 40
1.0
 10
192.1254969596
 20
630.1685659581
 30
0.0
 10
192.1254969596
 20
629.92832369
 30
0.0
 10
192.1216334379
 20
629.4564976515
 30
0.0
 10
192.1043608636
 20
628.7702622673
 30
0.0
 10
192.0763828694
 20
628.1347244089
 30
0.0
 10
192.0387805856
 20
627.5729027949
 30
0.0
 10
191.9989003332
 20
627.1605961251
 30
0.0
 10
191.9616802479
 20
626.8829510169
 30
0.0
 10
191.9341678928
 20
626.7179644576
 30
0.0
 10
191.9057181918
 20
626.5840555203
 30
0.0
 10
191.8765983657
 20
626.4825654598
 30
0.0
 10
191.850149352
 20
626.4185120071
 30
0.0
 10
191.8269207078
 20
626.3855638362
 30
0.0
 10
191.8149302654
 20
626.375326774
 30
0.0
 10
191.8089819271
 20
626.3723011595
 30
0.0
  0
SPLINE
  5
471
100
AcDbEntity
  8
02___PRT_ALL_AXES
100
AcDbSpline
 62
7
  6
CONTINUOUS
 70
0
 71
3
 72
19
 73
15
 74
0
 42
0.0000001
 43
0.0000001
 44
0.0000000001
 40
0.0
 40
0.0
 40
0.0
 40
0.0
 40
0.1880609664
 40
0.3693360379
 40
0.5373274981
 40
0.6860017829
 40
0.8100739411
 40
0.8614986703
 40
0.9052497502
 40
0.9410004315
 40
0.9685528675
 40
0.9879438536
 40
0.9947759169
 40
1.0
 40
1.0
 40
1.0
 40
1.0
 10
192.1254969596
 20
630.1685659581
 30
0.0
 10
192.1254969596
 20
630.4088082262
 30
0.0
 10
192.1216334379
 20
630.8806342647
 30
0.0
 10
192.1043608636
 20
631.5668696489
 30
0.0
 10
192.0763828694
 20
632.2024075073
 30
0.0
 10
192.0387805856
 20
632.7642291213
 30
0.0
 10
191.9989003332
 20
633.1765357911
 30
0.0
 10
191.9616802479
 20
633.4541808993
 30
0.0
 10
191.9341678928
 20
633.6191674586
 30
0.0
 10
191.9057181918
 20
633.7530763959
 30
0.0
 10
191.8765983657
 20
633.8545664564
 30
0.0
 10
191.850149352
 20
633.9186199091
 30
0.0
 10
191.8269207078
 20
633.95156808
 30
0.0
 10
191.8149302654
 20
633.9618051422
 30
0.0
 10
191.8089819271
 20
633.9648307567
 30
0.0
  0
SPLINE
  5
472
100
AcDbEntity
  8
02___PRT_ALL_AXES
100
AcDbSpline
 62
7
  6
CONTINUOUS
 70
0
 71
3
 72
10
 73
6
 74
0
 42
0.0000001
 43
0.0000001
 44
0.0000000001
 40
0.0
 40
0.0
 40
0.0
 40
0.0
 40
0.546070443
 40
0.7898638829
 40
1.0
 40
1.0
 40
1.0
 40
1.0
 10
191.5900626373
 20
630.1685659581
 30
0.0
 10
191.5900626373
 20
630.4378166871
 30
0.0
 10
191.5836100144
 20
630.8273536991
 30
0.0
 10
191.5597534984
 20
631.3198722722
 30
0.0
 10
191.5430700051
 20
631.543117449
 30
0.0
 10
191.5332146998
 20
631.6462594062
 30
0.0
  0
SPLINE
  5
473
100
AcDbEntity
  8
02___PRT_ALL_AXES
100
AcDbSpline
 62
7
  6
CONTINUOUS
 70
0
 71
3
 72
15
 73
11
 74
0
 42
0.0000001
 43
0.0000001
 44
0.0000000001
 40
0.0
 40
0.0
 40
0.0
 40
0.0
 40
0.34500697
 40
0.5045292531
 40
0.6489216793
 40
0.7738882507
 40
0.8757634263
 40
0.9516861255
 40
0.9793289637
 40
1.0
 40
1.0
 40
1.0
 40
1.0
 10
91.6128990664
 20
630.1685659581
 30
0.0
 10
91.6128990664
 20
629.9449307059
 30
0.0
 10
91.6175794161
 20
629.6178542666
 30
0.0
 10
91.6342931662
 20
629.1975311653
 30
0.0
 10
91.6508430443
 20
628.9200065563
 30
0.0
 10
91.6710476142
 20
628.6801648861
 30
0.0
 10
91.6943453461
 20
628.4853049042
 30
0.0
 10
91.7167984707
 20
628.3538265994
 30
0.0
 10
91.7373662434
 20
628.2759464399
 30
0.0
 10
91.7481042476
 20
628.246392676
 30
0.0
 10
91.7539670121
 20
628.2343443126
 30
0.0
  0
SPLINE
  5
474
100
AcDbEntity
  8
02___PRT_ALL_AXES
100
AcDbSpline
 62
7
  6
CONTINUOUS
 70
0
 71
3
 72
15
 73
11
 74
0
 42
0.0000001
 43
0.0000001
 44
0.0000000001
 40
0.0
 40
0.0
 40
0.0
 40
0.0
 40
0.34500697
 40
0.5045292531
 40
0.6489216793
 40
0.7738882507
 40
0.8757634263
 40
0.9516861255
 40
0.9793289637
 40
1.0
 40
1.0
 40
1.0
 40
1.0
 10
91.6128990664
 20
630.1685659581
 30
0.0
 10
91.6128990664
 20
630.3922012103
 30
0.0
 10
91.6175794161
 20
630.7192776496
 30
0.0
 10
91.6342931662
 20
631.1396007509
 30
0.0
 10
91.6508430443
 20
631.4171253599
 30
0.0
 10
91.6710476142
 20
631.6569670301
 30
0.0
 10
91.6943453461
 20
631.851827012
 30
0.0
 10
91.7167984707
 20
631.9833053168
 30
0.0
 10
91.7373662434
 20
632.0611854763
 30
0.0
 10
91.7481042476
 20
632.0907392402
 30
0.0
 10
91.7539670121
 20
632.1027876036
 30
0.0
  0
LINE
  5
475
100
AcDbEntity
  8
02___PRT_ALL_AXES
100
AcDbLine
 62
7
  6
CONTINUOUS
 10
94.24237607
 20
632.4233442923
 11
94.2425143332
 21
632.4211907883
  0
LINE
  5
476
100
AcDbEntity
  8
02___PRT_ALL_AXES
100
AcDbLine
 62
7
  6
CONTINUOUS
 10
94.2423824777
 20
627.9138873562
 11
94.2425578863
 21
627.9166201425
  0
SPLINE
  5
477
100
AcDbEntity
  8
02___PRT_ALL_AXES
100
AcDbSpline
 62
7
  6
CONTINUOUS
 70
0
 71
3
 72
9
 73
5
 74
0
 42
0.0000001
 43
0.0000001
 44
0.0000000001
 40
0.0
 40
0.0
 40
0.0
 40
0.0
 40
0.4769516495
 40
1.0
 40
1.0
 40
1.0
 40
1.0
 10
94.2494319621
 20
628.0279497375
 30
0.0
 10
94.2696284821
 20
628.367831901
 30
0.0
 10
94.2979706344
 20
629.0812834844
 30
0.0
 10
94.3069802591
 20
629.79517719
 30
0.0
 10
94.3069802591
 20
630.1685659581
 30
0.0
  0
SPLINE
  5
478
100
AcDbEntity
  8
02___PRT_ALL_AXES
100
AcDbSpline
 62
7
  6
CONTINUOUS
 70
0
 71
3
 72
17
 73
13
 74
0
 42
0.0000001
 43
0.0000001
 44
0.0000000001
 40
0.0
 40
0.0
 40
0.0
 40
0.0
 40
0.0293035769
 40
0.0529563128
 40
0.0837470631
 40
0.1219372758
 40
0.1675726431
 40
0.2206120743
 40
0.2809410508
 40
0.4227809851
 40
0.5914082271
 40
1.0
 40
1.0
 40
1.0
 40
1.0
 10
93.5972344514
 20
633.9685609735
 30
0.0
 10
93.6127085911
 20
633.9685609735
 30
0.0
 10
93.6365975077
 20
633.9453805747
 30
0.0
 10
93.6570766659
 20
633.907735079
 30
0.0
 10
93.6759705833
 20
633.8619970836
 30
0.0
 10
93.6941259069
 20
633.80439908
 30
0.0
 10
93.7122544393
 20
633.7343496556
 30
0.0
 10
93.7299810691
 20
633.6522807104
 30
0.0
 10
93.7544416509
 20
633.5197293203
 30
0.0
 10
93.7828236716
 20
633.3259373641
 30
0.0
 10
93.826005936
 20
632.9486570032
 30
0.0
 10
93.8495453741
 20
632.6446492029
 30
0.0
 10
93.8634364132
 20
632.4293345616
 30
0.0
  0
SPLINE
  5
479
100
AcDbEntity
  8
02___PRT_ALL_AXES
100
AcDbSpline
 62
7
  6
CONTINUOUS
 70
0
 71
3
 72
9
 73
5
 74
0
 42
0.0000001
 43
0.0000001
 44
0.0000000001
 40
0.0
 40
0.0
 40
0.0
 40
0.0
 40
0.4769516495
 40
1.0
 40
1.0
 40
1.0
 40
1.0
 10
93.8708779768
 20
632.3091821787
 30
0.0
 10
93.8910744968
 20
631.9693000152
 30
0.0
 10
93.9194166491
 20
631.2558484318
 30
0.0
 10
93.9284262738
 20
630.5419547262
 30
0.0
 10
93.9284262738
 20
630.1685659581
 30
0.0
  0
SPLINE
  5
47A
100
AcDbEntity
  8
02___PRT_ALL_AXES
100
AcDbSpline
 62
7
  6
CONTINUOUS
 70
0
 71
3
 72
23
 73
19
 74
0
 42
0.0000001
 43
0.0000001
 44
0.0000000001
 40
0.0
 40
0.0
 40
0.0
 40
0.0
 40
0.0090950486
 40
0.0158874005
 40
0.0209580912
 40
0.0256142673
 40
0.0314555998
 40
0.0393825757
 40
0.0497545698
 40
0.0627068645
 40
0.0964726181
 40
0.1406339293
 40
0.1947986229
 40
0.2583927529
 40
0.4108988198
 40
0.5911269248
 40
0.7906142791
 40
1.0
 40
1.0
 40
1.0
 40
1.0
 10
91.7539670121
 20
632.1027876036
 30
0.0
 10
91.7566657435
 20
632.1083336728
 30
0.0
 10
91.7619065541
 20
632.1178095208
 30
0.0
 10
91.7710341238
 20
632.1288228388
 30
0.0
 10
91.7813884606
 20
632.1345144496
 30
0.0
 10
91.7924772246
 20
632.1324179664
 30
0.0
 10
91.8019806939
 20
632.1238001029
 30
0.0
 10
91.8110670291
 20
632.1101325203
 30
0.0
 10
91.8200622317
 20
632.0908697738
 30
0.0
 10
91.8331475727
 20
632.0544072711
 30
0.0
 10
91.8482708283
 20
631.994543438
 30
0.0
 10
91.8647914656
 20
631.9064897773
 30
0.0
 10
91.880499652
 20
631.7977815401
 30
0.0
 10
91.9013683282
 20
631.6156781932
 30
0.0
 10
91.9227577498
 20
631.3476882061
 30
0.0
 10
91.9413048802
 20
630.9872102839
 30
0.0
 10
91.9528297286
 20
630.5878460901
 30
0.0
 10
91.9554211354
 20
630.3105612381
 30
0.0
 10
91.9554211354
 20
630.1685659581
 30
0.0
  0
SPLINE
  5
47B
100
AcDbEntity
  8
02___PRT_ALL_AXES
100
AcDbSpline
 62
7
  6
CONTINUOUS
 70
0
 71
3
 72
17
 73
13
 74
0
 42
0.0000001
 43
0.0000001
 44
0.0000000001
 40
0.0
 40
0.0
 40
0.0
 40
0.0
 40
0.0293173784
 40
0.0529717689
 40
0.083761637
 40
0.1219491148
 40
0.1675803913
 40
0.2206147615
 40
0.2809383027
 40
0.4227678131
 40
0.5913888858
 40
1.0
 40
1.0
 40
1.0
 40
1.0
 10
93.5972344514
 20
626.3685709427
 30
0.0
 10
93.6126893897
 20
626.3685709427
 30
0.0
 10
93.636555206
 20
626.3916985272
 30
0.0
 10
93.6570200005
 20
626.4292805815
 30
0.0
 10
93.6758965979
 20
626.4749319095
 30
0.0
 10
93.6940363698
 20
626.5324227141
 30
0.0
 10
93.7121495627
 20
626.6023416282
 30
0.0
 10
93.7298620729
 20
626.684258855
 30
0.0
 10
93.7543043917
 20
626.8165678747
 30
0.0
 10
93.7826683331
 20
627.0100121346
 30
0.0
 10
93.8258312625
 20
627.3866421982
 30
0.0
 10
93.8493679506
 20
627.6901340045
 30
0.0
 10
93.8632615054
 20
627.9050887517
 30
0.0
  0
SPLINE
  5
47C
100
AcDbEntity
  8
02___PRT_ALL_AXES
100
AcDbSpline
 62
7
  6
CONTINUOUS
 70
0
 71
3
 72
9
 73
5
 74
0
 42
0.0000001
 43
0.0000001
 44
0.0000000001
 40
0.0
 40
0.0
 40
0.0
 40
0.0
 40
0.4769516495
 40
1.0
 40
1.0
 40
1.0
 40
1.0
 10
93.8708779768
 20
628.0279497375
 30
0.0
 10
93.8910744968
 20
628.367831901
 30
0.0
 10
93.9194166491
 20
629.0812834844
 30
0.0
 10
93.9284262738
 20
629.79517719
 30
0.0
 10
93.9284262738
 20
630.1685659581
 30
0.0
  0
SPLINE
  5
47D
100
AcDbEntity
  8
02___PRT_ALL_AXES
100
AcDbSpline
 62
7
  6
CONTINUOUS
 70
0
 71
3
 72
23
 73
19
 74
0
 42
0.0000001
 43
0.0000001
 44
0.0000000001
 40
0.0
 40
0.0
 40
0.0
 40
0.0
 40
0.0090950486
 40
0.0158874005
 40
0.0209580912
 40
0.0256142673
 40
0.0314555998
 40
0.0393825757
 40
0.0497545698
 40
0.0627068645
 40
0.0964726181
 40
0.1406339293
 40
0.1947986229
 40
0.2583927529
 40
0.4108988198
 40
0.5911269248
 40
0.7906142791
 40
1.0
 40
1.0
 40
1.0
 40
1.0
 10
91.7539670121
 20
628.2343443126
 30
0.0
 10
91.7566657435
 20
628.2287982434
 30
0.0
 10
91.7619065541
 20
628.2193223954
 30
0.0
 10
91.7710341238
 20
628.2083090774
 30
0.0
 10
91.7813884606
 20
628.2026174666
 30
0.0
 10
91.7924772246
 20
628.2047139498
 30
0.0
 10
91.8019806939
 20
628.2133318133
 30
0.0
 10
91.8110670291
 20
628.2269993959
 30
0.0
 10
91.8200622317
 20
628.2462621424
 30
0.0
 10
91.8331475727
 20
628.2827246451
 30
0.0
 10
91.8482708283
 20
628.3425884782
 30
0.0
 10
91.8647914656
 20
628.4306421389
 30
0.0
 10
91.880499652
 20
628.5393503761
 30
0.0
 10
91.9013683282
 20
628.721453723
 30
0.0
 10
91.9227577498
 20
628.9894437101
 30
0.0
 10
91.9413048802
 20
629.3499216323
 30
0.0
 10
91.9528297286
 20
629.7492858261
 30
0.0
 10
91.9554211354
 20
630.026570678
 30
0.0
 10
91.9554211354
 20
630.1685659581
 30
0.0
  0
SPLINE
  5
47E
100
AcDbEntity
  8
7_ALL_FEATURES
100
AcDbSpline
 62
7
  6
CONTINUOUS
 70
0
 71
3
 72
12
 73
8
 74
0
 42
0.0000001
 43
0.0000001
 44
0.0000000001
 40
0.0
 40
0.0
 40
0.0
 40
0.0
 40
0.0339561471
 40
0.0953998114
 40
0.3102857592
 40
0.6268327205
 40
1.0
 40
1.0
 40
1.0
 40
1.0
 10
94.2404307429
 20
632.4185659581
 30
0.0
 10
94.2462698507
 20
632.4185659581
 30
0.0
 10
94.2600887104
 20
632.4054807107
 30
0.0
 10
94.2798002177
 20
632.3572147689
 30
0.0
 10
94.3010377016
 20
632.2556384368
 30
0.0
 10
94.3171338727
 20
632.1015523072
 30
0.0
 10
94.321815376
 20
631.9827333939
 30
0.0
 10
94.3223825126
 20
631.9185659581
 30
0.0
  0
SPLINE
  5
47F
100
AcDbEntity
  8
7_ALL_FEATURES
100
AcDbSpline
 62
7
  6
CONTINUOUS
 70
0
 71
3
 72
9
 73
5
 74
0
 42
0.0000001
 43
0.0000001
 44
0.0000000001
 40
0.0
 40
0.0
 40
0.0
 40
0.0
 40
0.2637175707
 40
1.0
 40
1.0
 40
1.0
 40
1.0
 10
191.5208262568
 20
627.9185659581
 30
0.0
 10
191.5174299238
 20
627.9185659581
 30
0.0
 10
191.5176659392
 20
627.9381360348
 30
0.0
 10
191.5147810529
 20
627.9469378998
 30
0.0
 10
191.5139536024
 20
627.9563840708
 30
0.0
  0
SPLINE
  5
480
100
AcDbEntity
  8
7_ALL_FEATURES
100
AcDbSpline
 62
7
  6
CONTINUOUS
 70
0
 71
3
 72
9
 73
5
 74
0
 42
0.0000001
 43
0.0000001
 44
0.0000000001
 40
0.0
 40
0.0
 40
0.0
 40
0.0
 40
0.3984517565
 40
1.0
 40
1.0
 40
1.0
 40
1.0
 10
191.5139536024
 20
627.9563840708
 30
0.0
 10
191.5085949744
 20
628.0175581475
 30
0.0
 10
191.5049780109
 20
628.1717940527
 30
0.0
 10
191.503919731
 20
628.3258604781
 30
0.0
 10
191.5047296169
 20
628.4185659581
 30
0.0
  0
LINE
  5
481
100
AcDbEntity
  8
7_ALL_FEATURES
100
AcDbLine
 62
7
  6
CONTINUOUS
 10
94.3223825126
 20
631.9185659581
 11
94.3378474019
 21
630.168838776
  0
LINE
  5
482
100
AcDbEntity
  8
7_ALL_FEATURES
100
AcDbLine
 62
7
  6
CONTINUOUS
 10
94.3378474019
 20
630.168838776
 11
94.3533171137
 21
628.4185659581
  0
SPLINE
  5
483
100
AcDbEntity
  8
7_ALL_FEATURES
100
AcDbSpline
 62
7
  6
CONTINUOUS
 70
0
 71
3
 72
12
 73
8
 74
0
 42
0.0000001
 43
0.0000001
 44
0.0000000001
 40
0.0
 40
0.0
 40
0.0
 40
0.0
 40
0.3736818817
 40
0.690504483
 40
0.9051137813
 40
0.9662447289
 40
1.0
 40
1.0
 40
1.0
 40
1.0
 10
94.3533171137
 20
628.4185659581
 30
0.0
 10
94.3538837306
 20
628.3544583483
 30
0.0
 10
94.3512990443
 20
628.2357191811
 30
0.0
 10
94.337955733
 20
628.0816224602
 30
0.0
 10
94.3184460081
 20
627.9800262009
 30
0.0
 10
94.2996194428
 20
627.9316441473
 30
0.0
 10
94.2859312106
 20
627.9185659581
 30
0.0
 10
94.2801400434
 20
627.9185659581
 30
0.0
  0
SPLINE
  5
484
100
AcDbEntity
  8
02___PRT_ALL_AXES
100
AcDbSpline
 62
7
  6
CONTINUOUS
 70
0
 71
3
 72
11
 73
7
 74
0
 42
0.0000001
 43
0.0000001
 44
0.0000000001
 40
0.0
 40
0.0
 40
0.0
 40
0.0
 40
0.2502502498
 40
0.5003780644
 40
0.7503076021
 40
1.0
 40
1.0
 40
1.0
 40
1.0
 10
366.0306720496
 20
630.1685659581
 30
0.0
 10
366.0306720496
 20
630.4876447943
 30
0.0
 10
366.1115354979
 20
631.1285299005
 30
0.0
 10
366.468022452
 20
632.0268711769
 30
0.0
 10
367.036430917
 20
632.8076955932
 30
0.0
 10
367.5345771956
 20
633.2175205274
 30
0.0
 10
367.8039439615
 20
633.3872245179
 30
0.0
  0
SPLINE
  5
485
100
AcDbEntity
  8
02___PRT_ALL_AXES
100
AcDbSpline
 62
7
  6
CONTINUOUS
 70
0
 71
3
 72
11
 73
7
 74
0
 42
0.0000001
 43
0.0000001
 44
0.0000000001
 40
0.0
 40
0.0
 40
0.0
 40
0.0
 40
0.250277848
 40
0.5003371999
 40
0.7502185999
 40
1.0
 40
1.0
 40
1.0
 40
1.0
 10
366.7690280695
 20
627.9138873562
 30
0.0
 10
366.9436799668
 20
627.6760533134
 30
0.0
 10
367.3500565673
 20
627.2397467109
 30
0.0
 10
368.0933379774
 20
626.7459744811
 30
0.0
 10
368.93031347
 20
626.4381911899
 30
0.0
 10
369.5217237965
 20
626.3685709427
 30
0.0
 10
369.8162119023
 20
626.3685709427
 30
0.0
  0
SPLINE
  5
486
100
AcDbEntity
  8
02___PRT_ALL_AXES
100
AcDbSpline
 62
7
  6
CONTINUOUS
 70
0
 71
3
 72
11
 73
7
 74
0
 42
0.0000001
 43
0.0000001
 44
0.0000000001
 40
0.0
 40
0.0
 40
0.0
 40
0.0
 40
0.2497865565
 40
0.4996703438
 40
0.749727886
 40
1.0
 40
1.0
 40
1.0
 40
1.0
 10
369.8493310846
 20
633.9685609735
 30
0.0
 10
370.1395952938
 20
633.9685609735
 30
0.0
 10
370.7224547771
 20
633.9009422895
 30
0.0
 10
371.5487353766
 20
633.6018471484
 30
0.0
 10
372.2852286695
 20
633.1214881805
 30
0.0
 10
372.690686204
 20
632.6963404285
 30
0.0
 10
372.8659644072
 20
632.4642655714
 30
0.0
  0
SPLINE
  5
487
100
AcDbEntity
  8
02___PRT_ALL_AXES
100
AcDbSpline
 62
7
  6
CONTINUOUS
 70
0
 71
3
 72
11
 73
7
 74
0
 42
0.0000001
 43
0.0000001
 44
0.0000000001
 40
0.0
 40
0.0
 40
0.0
 40
0.0
 40
0.2498455148
 40
0.4998209897
 40
0.7498810293
 40
1.0
 40
1.0
 40
1.0
 40
1.0
 10
372.8659644072
 20
632.4642655714
 30
0.0
 10
372.9894927822
 20
632.3007094105
 30
0.0
 10
373.2104727934
 20
631.9528098385
 30
0.0
 10
373.4532742599
 20
631.3847607447
 30
0.0
 10
373.6016285061
 20
630.7848451824
 30
0.0
 10
373.6348709373
 20
630.373753402
 30
0.0
 10
373.6348709373
 20
630.1685659581
 30
0.0
  0
SPLINE
  5
488
100
AcDbEntity
  8
02___PRT_ALL_AXES
100
AcDbSpline
 62
7
  6
CONTINUOUS
 70
0
 71
3
 72
11
 73
7
 74
0
 42
0.0000001
 43
0.0000001
 44
0.0000000001
 40
0.0
 40
0.0
 40
0.0
 40
0.0
 40
0.2497865565
 40
0.4996703438
 40
0.749727886
 40
1.0
 40
1.0
 40
1.0
 40
1.0
 10
369.8493310846
 20
626.3685709427
 30
0.0
 10
370.1395952938
 20
626.3685709427
 30
0.0
 10
370.7224547771
 20
626.4361896267
 30
0.0
 10
371.5487353766
 20
626.7352847678
 30
0.0
 10
372.2852286695
 20
627.2156437357
 30
0.0
 10
372.690686204
 20
627.6407914877
 30
0.0
 10
372.8659644072
 20
627.8728663448
 30
0.0
  0
SPLINE
  5
489
100
AcDbEntity
  8
02___PRT_ALL_AXES
100
AcDbSpline
 62
7
  6
CONTINUOUS
 70
0
 71
3
 72
11
 73
7
 74
0
 42
0.0000001
 43
0.0000001
 44
0.0000000001
 40
0.0
 40
0.0
 40
0.0
 40
0.0
 40
0.2498455148
 40
0.4998209897
 40
0.7498810293
 40
1.0
 40
1.0
 40
1.0
 40
1.0
 10
372.8659644072
 20
627.8728663448
 30
0.0
 10
372.9894927822
 20
628.0364225057
 30
0.0
 10
373.2104727934
 20
628.3843220777
 30
0.0
 10
373.4532742599
 20
628.9523711715
 30
0.0
 10
373.6016285061
 20
629.5522867338
 30
0.0
 10
373.6348709373
 20
629.9633785142
 30
0.0
 10
373.6348709373
 20
630.1685659581
 30
0.0
  0
SPLINE
  5
48A
100
AcDbEntity
  8
02___PRT_ALL_AXES
100
AcDbSpline
 62
7
  6
CONTINUOUS
 70
0
 71
3
 72
11
 73
7
 74
0
 42
0.0000001
 43
0.0000001
 44
0.0000000001
 40
0.0
 40
0.0
 40
0.0
 40
0.0
 40
0.2502464182
 40
0.5003721693
 40
0.7503033537
 40
1.0
 40
1.0
 40
1.0
 40
1.0
 10
366.0637912318
 20
630.1685659581
 30
0.0
 10
366.0637912318
 20
630.4843132323
 30
0.0
 10
366.1429585224
 20
631.1184494127
 30
0.0
 10
366.4921175359
 20
632.0086234905
 30
0.0
 10
367.0493629455
 20
632.784844929
 30
0.0
 10
367.5384025303
 20
633.1948583479
 30
0.0
 10
367.8031669105
 20
633.3656172279
 30
0.0
  0
SPLINE
  5
48B
100
AcDbEntity
  8
02___PRT_ALL_AXES
100
AcDbSpline
 62
7
  6
CONTINUOUS
 70
0
 71
3
 72
11
 73
7
 74
0
 42
0.0000001
 43
0.0000001
 44
0.0000000001
 40
0.0
 40
0.0
 40
0.0
 40
0.0
 40
0.250277848
 40
0.5003371999
 40
0.7502185999
 40
1.0
 40
1.0
 40
1.0
 40
1.0
 10
366.8021472517
 20
627.9138873562
 30
0.0
 10
366.976799149
 20
627.6760533134
 30
0.0
 10
367.3831757495
 20
627.2397467109
 30
0.0
 10
368.1264571597
 20
626.7459744811
 30
0.0
 10
368.9634326522
 20
626.4381911899
 30
0.0
 10
369.5548429787
 20
626.3685709427
 30
0.0
 10
369.8493310846
 20
626.3685709427
 30
0.0
  0
SPLINE
  5
48C
100
AcDbEntity
  8
02___PRT_ALL_AXES
100
AcDbSpline
 62
7
  6
CONTINUOUS
 70
0
 71
3
 72
23
 73
19
 74
0
 42
0.0000001
 43
0.0000001
 44
0.0000000001
 40
0.0
 40
0.0
 40
0.0
 40
0.0
 40
0.0626186985
 40
0.1252152112
 40
0.1877822921
 40
0.2503053274
 40
0.312782144
 40
0.3752159486
 40
0.4376168741
 40
0.5
 40
0.5623831259
 40
0.6247840514
 40
0.687217856
 40
0.7496946726
 40
0.8122177079
 40
0.8747847888
 40
0.9373813015
 40
1.0
 40
1.0
 40
1.0
 40
1.0
 10
368.0504319546
 20
630.1685659581
 30
0.0
 10
368.0504319546
 20
630.0401644562
 30
0.0
 10
368.0756568867
 20
629.7826994783
 30
0.0
 10
368.1877519809
 20
629.4118672913
 30
0.0
 10
368.3697690254
 20
629.0699407966
 30
0.0
 10
368.6147564168
 20
628.7702532345
 30
0.0
 10
368.9132928107
 20
628.5242730595
 30
0.0
 10
369.2539197912
 20
628.341480684
 30
0.0
 10
369.6235442414
 20
628.2289088256
 30
0.0
 10
370.0079545364
 20
628.1908963318
 30
0.0
 10
370.3923648314
 20
628.2289088256
 30
0.0
 10
370.7619892816
 20
628.341480684
 30
0.0
 10
371.102616262
 20
628.5242730595
 30
0.0
 10
371.4011526559
 20
628.7702532345
 30
0.0
 10
371.6461400473
 20
629.0699407966
 30
0.0
 10
371.8281570918
 20
629.4118672913
 30
0.0
 10
371.940252186
 20
629.7826994783
 30
0.0
 10
371.9654771181
 20
630.0401644562
 30
0.0
 10
371.9654771181
 20
630.1685659581
 30
0.0
  0
SPLINE
  5
48D
100
AcDbEntity
  8
02___PRT_ALL_AXES
100
AcDbSpline
 62
7
  6
CONTINUOUS
 70
0
 71
3
 72
23
 73
19
 74
0
 42
0.0000001
 43
0.0000001
 44
0.0000000001
 40
0.0
 40
0.0
 40
0.0
 40
0.0
 40
0.0626186985
 40
0.1252152112
 40
0.1877822921
 40
0.2503053274
 40
0.312782144
 40
0.3752159486
 40
0.4376168741
 40
0.5
 40
0.5623831259
 40
0.6247840514
 40
0.687217856
 40
0.7496946726
 40
0.8122177079
 40
0.8747847888
 40
0.9373813015
 40
1.0
 40
1.0
 40
1.0
 40
1.0
 10
368.0504319546
 20
630.1685659581
 30
0.0
 10
368.0504319546
 20
630.29696746
 30
0.0
 10
368.0756568867
 20
630.5544324379
 30
0.0
 10
368.1877519809
 20
630.9252646249
 30
0.0
 10
368.3697690254
 20
631.2671911196
 30
0.0
 10
368.6147564168
 20
631.5668786817
 30
0.0
 10
368.9132928107
 20
631.8128588567
 30
0.0
 10
369.2539197912
 20
631.9956512322
 30
0.0
 10
369.6235442414
 20
632.1082230906
 30
0.0
 10
370.0079545364
 20
632.1462355844
 30
0.0
 10
370.3923648314
 20
632.1082230906
 30
0.0
 10
370.7619892816
 20
631.9956512322
 30
0.0
 10
371.102616262
 20
631.8128588567
 30
0.0
 10
371.4011526559
 20
631.5668786817
 30
0.0
 10
371.6461400473
 20
631.2671911196
 30
0.0
 10
371.8281570918
 20
630.9252646249
 30
0.0
 10
371.940252186
 20
630.5544324379
 30
0.0
 10
371.9654771181
 20
630.29696746
 30
0.0
 10
371.9654771181
 20
630.1685659581
 30
0.0
  0
SPLINE
  5
48E
100
AcDbEntity
  8
7_ALL_FEATURES
100
AcDbSpline
 62
7
  6
CONTINUOUS
 70
0
 71
3
 72
10
 73
6
 74
0
 42
0.0000001
 43
0.0000001
 44
0.0000000001
 40
0.0
 40
0.0
 40
0.0
 40
0.0
 40
0.0633232869
 40
0.252523055
 40
1.0
 40
1.0
 40
1.0
 40
1.0
 10
94.3533171137
 20
766.8712514463
 30
0.0
 10
94.3541146681
 20
766.8712514463
 30
0.0
 10
94.3523597343
 20
766.8661424895
 30
0.0
 10
94.3533828687
 20
766.8566173855
 30
0.0
 10
94.3502795568
 20
766.843066168
 30
0.0
 10
94.3489914703
 20
766.833740259
 30
0.0
  0
SPLINE
  5
48F
100
AcDbEntity
  8
7_ALL_FEATURES
100
AcDbSpline
 62
7
  6
CONTINUOUS
 70
0
 71
3
 72
9
 73
5
 74
0
 42
0.0000001
 43
0.0000001
 44
0.0000000001
 40
0.0
 40
0.0
 40
0.0
 40
0.0
 40
0.1636731167
 40
1.0
 40
1.0
 40
1.0
 40
1.0
 10
94.3489914703
 20
766.833740259
 30
0.0
 10
94.3455011229
 20
766.8084697025
 30
0.0
 10
94.3228872359
 20
766.6542542354
 30
0.0
 10
94.299463784
 20
766.5001629717
 30
0.0
 10
94.2801400434
 20
766.3712514463
 30
0.0
  0
SPLINE
  5
490
100
AcDbEntity
  8
7_ALL_FEATURES
100
AcDbSpline
 62
7
  6
CONTINUOUS
 70
0
 71
3
 72
10
 73
6
 74
0
 42
0.0000001
 43
0.0000001
 44
0.0000000001
 40
0.0
 40
0.0
 40
0.0
 40
0.0
 40
0.0633232869
 40
0.252523055
 40
1.0
 40
1.0
 40
1.0
 40
1.0
 10
190.938603005
 20
751.3712514463
 30
0.0
 10
190.9378054506
 20
751.3712514463
 30
0.0
 10
190.9395603844
 20
751.3763604031
 30
0.0
 10
190.93853725
 20
751.3858855071
 30
0.0
 10
190.9416405619
 20
751.3994367246
 30
0.0
 10
190.9429286484
 20
751.4087626335
 30
0.0
  0
SPLINE
  5
491
100
AcDbEntity
  8
7_ALL_FEATURES
100
AcDbSpline
 62
7
  6
CONTINUOUS
 70
0
 71
3
 72
9
 73
5
 74
0
 42
0.0000001
 43
0.0000001
 44
0.0000000001
 40
0.0
 40
0.0
 40
0.0
 40
0.0
 40
0.1636731167
 40
1.0
 40
1.0
 40
1.0
 40
1.0
 10
190.9429286484
 20
751.4087626335
 30
0.0
 10
190.9464189958
 20
751.4340331901
 30
0.0
 10
190.9690328828
 20
751.5882486572
 30
0.0
 10
190.9924563347
 20
751.7423399209
 30
0.0
 10
191.0117800753
 20
751.8712514463
 30
0.0
  0
SPLINE
  5
492
100
AcDbEntity
  8
7_ALL_FEATURES
100
AcDbSpline
 62
7
  6
CONTINUOUS
 70
0
 71
3
 72
16
 73
12
 74
0
 42
0.0000001
 43
0.0000001
 44
0.0000000001
 40
0.0
 40
0.0
 40
0.0
 40
0.0
 40
0.3825687618
 40
0.555508342
 40
0.7069929598
 40
0.8313086198
 40
0.9238289068
 40
0.9568656688
 40
0.980685152
 40
0.9951108101
 40
1.0
 40
1.0
 40
1.0
 40
1.0
 10
93.7710938619
 20
757.3712514463
 30
0.0
 10
93.7733768144
 20
757.3074920205
 30
0.0
 10
93.7767356327
 20
757.2148987988
 30
0.0
 10
93.7809625629
 20
757.0971022565
 30
0.0
 10
93.7836583699
 20
757.0222404252
 30
0.0
 10
93.7855643875
 20
756.961053272
 30
0.0
 10
93.7871283034
 20
756.9189588021
 30
0.0
 10
93.7872372035
 20
756.8946641798
 30
0.0
 10
93.7881255262
 20
756.8817530514
 30
0.0
 10
93.7867858972
 20
756.8763893318
 30
0.0
 10
93.788005863
 20
756.8712514463
 30
0.0
 10
93.7871905018
 20
756.8712514463
 30
0.0
  0
SPLINE
  5
493
100
AcDbEntity
  8
7_ALL_FEATURES
100
AcDbSpline
 62
7
  6
CONTINUOUS
 70
0
 71
3
 72
16
 73
12
 74
0
 42
0.0000001
 43
0.0000001
 44
0.0000000001
 40
0.0
 40
0.0
 40
0.0
 40
0.0
 40
0.3825687618
 40
0.555508342
 40
0.7069929598
 40
0.8313086198
 40
0.9238289068
 40
0.9568656688
 40
0.980685152
 40
0.9951108101
 40
1.0
 40
1.0
 40
1.0
 40
1.0
 10
191.5208262568
 20
760.8712514463
 30
0.0
 10
191.5185433043
 20
760.935010872
 30
0.0
 10
191.515184486
 20
761.0276040937
 30
0.0
 10
191.5109575558
 20
761.145400636
 30
0.0
 10
191.5082617488
 20
761.2202624674
 30
0.0
 10
191.5063557312
 20
761.2814496205
 30
0.0
 10
191.5047918154
 20
761.3235440904
 30
0.0
 10
191.5046829152
 20
761.3478387128
 30
0.0
 10
191.5037945925
 20
761.3607498412
 30
0.0
 10
191.5051342215
 20
761.3661135607
 30
0.0
 10
191.5039142557
 20
761.3712514463
 30
0.0
 10
191.5047296169
 20
761.3712514463
 30
0.0
  0
SPLINE
  5
494
100
AcDbEntity
  8
7_ALL_FEATURES
100
AcDbSpline
 62
7
  6
CONTINUOUS
 70
0
 71
3
 72
9
 73
5
 74
0
 42
0.0000001
 43
0.0000001
 44
0.0000000001
 40
0.0
 40
0.0
 40
0.0
 40
0.0
 40
0.254825479
 40
1.0
 40
1.0
 40
1.0
 40
1.0
 10
191.5440421074
 20
756.8712514463
 30
0.0
 10
191.5430973367
 20
756.8712514463
 30
0.0
 10
191.5440886184
 20
756.8653617868
 30
0.0
 10
191.5428659078
 20
756.8629838237
 30
0.0
 10
191.5426256289
 20
756.8602315421
 30
0.0
  0
SPLINE
  5
495
100
AcDbEntity
  8
7_ALL_FEATURES
100
AcDbSpline
 62
7
  6
CONTINUOUS
 70
0
 71
3
 72
14
 73
10
 74
0
 42
0.0000001
 43
0.0000001
 44
0.0000000001
 40
0.0
 40
0.0
 40
0.0
 40
0.0
 40
0.4054096166
 40
0.5775835248
 40
0.7243320376
 40
0.8424624904
 40
0.928922569
 40
0.9817992266
 40
1.0
 40
1.0
 40
1.0
 40
1.0
 10
94.2698217187
 20
766.5626540084
 30
0.0
 10
94.2764027854
 20
766.6044485482
 30
0.0
 10
94.2858896871
 20
766.6640364981
 30
0.0
 10
94.298317997
 20
766.7384608187
 30
0.0
 10
94.3056873871
 20
766.7837868063
 30
0.0
 10
94.3126023489
 20
766.8189599076
 30
0.0
 10
94.3158994999
 20
766.847628503
 30
0.0
 10
94.3216935351
 20
766.8597636331
 30
0.0
 10
94.320483037
 20
766.8712514463
 30
0.0
 10
94.3223825126
 20
766.8712514463
 30
0.0
  0
SPLINE
  5
496
100
AcDbEntity
  8
7_ALL_FEATURES
100
AcDbSpline
 62
7
  6
CONTINUOUS
 70
0
 71
3
 72
14
 73
10
 74
0
 42
0.0000001
 43
0.0000001
 44
0.0000000001
 40
0.0
 40
0.0
 40
0.0
 40
0.0
 40
0.4054096166
 40
0.5775835248
 40
0.7243320376
 40
0.8424624904
 40
0.928922569
 40
0.9817992266
 40
1.0
 40
1.0
 40
1.0
 40
1.0
 10
191.0220984
 20
751.6798488841
 30
0.0
 10
191.0155173333
 20
751.6380543443
 30
0.0
 10
191.0060304316
 20
751.5784663945
 30
0.0
 10
190.9936021217
 20
751.5040420739
 30
0.0
 10
190.9862327316
 20
751.4587160862
 30
0.0
 10
190.9793177698
 20
751.4235429849
 30
0.0
 10
190.9760206188
 20
751.3948743895
 30
0.0
 10
190.9702265836
 20
751.3827392595
 30
0.0
 10
190.9714370817
 20
751.3712514463
 30
0.0
 10
190.9695376061
 20
751.3712514463
 30
0.0
  0
ELLIPSE
  5
497
100
AcDbEntity
  8
7_ALL_FEATURES
100
AcDbEllipse
 62
7
  6
CONTINUOUS
 10
142.6459600594
 20
481.8685659581
 30
0.0
 11
-0.0
 21
59.5
 31
0.0
 40
0.0588235294
 41
-2.0588505465
 42
-2.0455764004
  0
ELLIPSE
  5
498
100
AcDbEntity
  8
7_ALL_FEATURES
100
AcDbEllipse
 62
7
  6
CONTINUOUS
 10
142.6459600594
 20
481.8685659581
 30
0.0
 11
-0.0
 21
59.5
 31
0.0
 40
0.0588235294
 41
-4.2376089068
 42
-4.2243347607
  0
ELLIPSE
  5
499
100
AcDbEntity
  8
7_ALL_FEATURES
100
AcDbEllipse
 62
7
  6
CONTINUOUS
 10
142.6459600594
 20
474.9311922207
 30
0.0
 11
-0.0
 21
69.3737373737
 31
0.0
 40
0.0585286728
 41
-1.877764243
 42
-1.8671964524
  0
ELLIPSE
  5
49A
100
AcDbEntity
  8
7_ALL_FEATURES
100
AcDbEllipse
 62
7
  6
CONTINUOUS
 10
142.6459600594
 20
474.9311922207
 30
0.0
 11
0.0
 21
69.3737373737
 31
0.0
 40
0.0585286728
 41
-4.4159888547
 42
-4.4054210642
  0
ELLIPSE
  5
49B
100
AcDbEntity
  8
7_ALL_FEATURES
100
AcDbEllipse
 62
7
  6
CONTINUOUS
 10
365.5581236335
 20
481.8685659581
 30
0.0
 11
-0.0
 21
59.5
 31
0.0
 40
0.0588235294
 41
-4.2376089068
 42
-4.2243347607
  0
ELLIPSE
  5
49C
100
AcDbEntity
  8
7_ALL_FEATURES
100
AcDbEllipse
 62
7
  6
CONTINUOUS
 10
365.5581236335
 20
481.8685659581
 30
0.0
 11
0.0
 21
59.5
 31
0.0
 40
0.0588235294
 41
-2.0588505465
 42
-2.0455764004
  0
ELLIPSE
  5
49D
100
AcDbEntity
  8
7_ALL_FEATURES
100
AcDbEllipse
 62
7
  6
CONTINUOUS
 10
365.5581236335
 20
474.9311922207
 30
0.0
 11
-0.0
 21
69.3737373737
 31
0.0
 40
0.0585286728
 41
-4.4159888547
 42
-4.4054210643
  0
ELLIPSE
  5
49E
100
AcDbEntity
  8
7_ALL_FEATURES
100
AcDbEllipse
 62
7
  6
CONTINUOUS
 10
365.5581236335
 20
474.9311922207
 30
0.0
 11
0.0
 21
69.3737373737
 31
0.0
 40
0.0585286728
 41
-1.8777642428
 42
-1.8671964524
  0
ENDSEC
  0
SECTION
  2
OBJECTS
  0
DICTIONARY
  5
C
100
AcDbDictionary
280
0
281
1
  3
ACAD_GROUP
350
D
  3
ACAD_MLINESTYLE
350
17
  3
ACAD_LAYOUT
350
1A
  3
ACAD_PLOTSETTINGS
350
19
  3
ACAD_PLOTSTYLENAME
350
E
  3
ACAD_TABLESTYLE
350
       49F
  0
DICTIONARY
  5
D
102
{ACAD_REACTORS
330
C
102
}
100
AcDbDictionary
280
0
281
1
  0
ACDBDICTIONARYWDFLT
  5
E
102
{ACAD_REACTORS
330
C
102
}
100
AcDbDictionary
281
1
  3
Normal
350
F
100
AcDbDictionaryWithDefault
340
F
  0
DICTIONARY
  5
17
102
{ACAD_REACTORS
330
C
102
}
100
AcDbDictionary
280
0
281
1
  3
Standard
350
18
  0
DICTIONARY
  5
49F
330
C
100
AcDbDictionary
281
1
  3
Standard
350
       4A2
  3
Standard1
350
       4A3
  0
DICTIONARY
  5
19
102
{ACAD_REACTORS
330
C
102
}
100
AcDbDictionary
281
1
  0
DICTIONARY
  5
1A
102
{ACAD_REACTORS
330
C
102
}
100
AcDbDictionary
281
1
  3
Model
350
4A0
  3
Layout1
350
4A1
  0
ACDBPLACEHOLDER
  5
F
102
{ACAD_REACTORS
330
E
102
}
  0
MLINESTYLE
  5
18
102
{ACAD_REACTORS
330
17
102
}
100
AcDbMlineStyle
  2
STANDARD
 70
0
  3

 62
256
 51
90.0
 52
90.0
 71
2
 49
0.5
 62
256
  6
BYLAYER
 49
-0.5
 62
256
  6
BYLAYER
  0
LAYOUT
  5
4A0
102
{ACAD_REACTORS
330
1A
102
}
100
AcDbPlotSettings
  1

  2
none_device
  4

  6

 40
0.0
 41
0.0
 42
0.0
 43
0.0
 44
594.0
 45
841.0
 46
0.0
 47
0.0
 48
0.0
 49
0.0
140
0.0
141
0.0
142
1.0
143
1.0
 70
1024
 72
1
 73
0
 74
0
  7

 75
0
147
1.0
148
0.0
149
0.0
100
AcDbLayout
  1
Model
 70
0
 71
0
 10
0.0
 20
0.0
 11
594.0
 21
841.0
 12
0.0
 22
0.0
 32
0.0
 14
0.0
 24
0.0
 34
0.0
 15
0.0
 25
0.0
 35
0.0
146
0.0
 13
0.0
 23
0.0
 33
0.0
 16
1.0
 26
0.0
 36
0.0
 17
0.0
 27
1.0
 37
0.0
 76
0
330
220
345
0
346
0
  0
LAYOUT
  5
4A1
102
{ACAD_REACTORS
330
1A
102
}
100
AcDbPlotSettings
  1

  2
none_device
  4

  6

 40
0.0
 41
0.0
 42
0.0
 43
0.0
 44
594.0
 45
841.0
 46
0.0
 47
0.0
 48
0.0
 49
0.0
140
0.0
141
0.0
142
1.0
143
1.0
 70
0
 72
1
 73
0
 74
0
  7

 75
0
147
1.0
148
0.0
149
0.0
100
AcDbLayout
  1
Layout1
 70
0
 71
1
 10
0.0
 20
0.0
 11
594.0
 21
841.0
 12
0.0
 22
0.0
 32
0.0
 14
0.0
 24
0.0
 34
0.0
 15
0.0
 25
0.0
 35
0.0
146
0.0
 13
0.0
 23
0.0
 33
0.0
 16
1.0
 26
0.0
 36
0.0
 17
0.0
 27
1.0
 37
0.0
 76
0
330
221
345
0
346
0
  0
TABLESTYLE
  5
4A2
102
{ACAD_REACTORS
330
49F
330
3A1
102
}
330
49F
100
AcDbTableStyle
  3
Standard
 70
0
 71
0
 40
0.06
 41
0.06
280
1
281
1
  7
Standard
140
0.18
170
1
 62
0
 63
7
283
0
  7
Standard
140
0.18
170
1
 62
0
 63
7
283
0
  7
Standard
140
0.18
170
1
 62
0
 63
7
283
0
  0
TABLESTYLE
  5
4A3
102
{ACAD_REACTORS
330
49F
102
}
330
49F
100
AcDbTableStyle
  3
Standard1
 70
1
 71
0
 40
0.06
 41
0.06
280
1
281
1
  7
Standard
140
0.18
170
1
 62
0
 63
7
283
0
  7
Standard
140
0.18
170
1
 62
0
 63
7
283
0
  7
Standard
140
0.18
170
1
 62
0
 63
7
283
0
  0
ENDSEC
  0
EOF
