  0
SECTION
  2
HEADER
  9
$ACADVER
  1
AC1024
  9
$ACADMAINTVER
 70
     6
  9
$DWGCODEPAGE
  3
ANSI_1252
  9
$INSBASE
 10
0.0
 20
0.0
 30
0.0
  9
$EXTMIN
 10
0.0
 20
0.0
 30
0.0
  9
$EXTMAX
 10
420.0
 20
297.0
 30
0.0
  9
$LIMMIN
 10
0.0
 20
0.0
  9
$LIMMAX
 10
420.0
 20
297.0
  9
$ORTHOMODE
 70
     0
  9
$REGENMODE
 70
     1
  9
$FILLMODE
 70
     1
  9
$QTEXTMODE
 70
     0
  9
$MIRRTEXT
 70
     1
  9
$LTSCALE
 40
23.1
  9
$ATTMODE
 70
     1
  9
$TEXTSIZE
 40
0.2
  9
$TRACEWID
 40
0.05
  9
$TEXTSTYLE
  7
STANDARD
  9
$CLAYER
  8
0
  9
$CELTYPE
  6
BYLAYER
  9
$CECOLOR
 62
   256
  9
$CELTSCALE
 40
1.0
  9
$DISPSILH
 70
     0
  9
$DIMSCALE
 40
1.0
  9
$DIMASZ
 40
2.5
  9
$DIMEXO
 40
0.75
  9
$DIMDLI
 40
15.96
  9
$DIMRND
 40
0.0
  9
$DIMDLE
 40
0.0
  9
$DIMEXE
 40
0.75
  9
$DIMTP
 40
0.01
  9
$DIMTM
 40
0.01
  9
$DIMTXT
 40
3.0
  9
$DIMCEN
 40
3.78
  9
$DIMTSZ
 40
0.0
  9
$DIMTOL
 70
     1
  9
$DIMLIM
 70
     0
  9
$DIMTIH
 70
     1
  9
$DIMTOH
 70
     1
  9
$DIMSE1
 70
     0
  9
$DIMSE2
 70
     0
  9
$DIMTAD
 70
     0
  9
$DIMZIN
 70
     0
  9
$DIMBLK
  1
CLOSED
  9
$DIMASO
 70
     1
  9
$DIMSHO
 70
     1
  9
$DIMPOST
  1

  9
$DIMAPOST
  1

  9
$DIMALT
 70
     0
  9
$DIMALTD
 70
     2
  9
$DIMALTF
 40
25.4
  9
$DIMLFAC
 40
1.0
  9
$DIMTOFL
 70
     0
  9
$DIMTVP
 40
0.0
  9
$DIMTIX
 70
     0
  9
$DIMSOXD
 70
     0
  9
$DIMSAH
 70
     0
  9
$DIMBLK1
  1

  9
$DIMBLK2
  1

  9
$DIMSTYLE
  2
STANDARD
  9
$DIMCLRD
 70
     0
  9
$DIMCLRE
 70
     0
  9
$DIMCLRT
 70
     0
  9
$DIMTFAC
 40
1.0
  9
$DIMGAP
 40
0.625
  9
$DIMJUST
 70
     0
  9
$DIMSD1
 70
     0
  9
$DIMSD2
 70
     0
  9
$DIMTOLJ
 70
     1
  9
$DIMTZIN
 70
     0
  9
$DIMALTZ
 70
     0
  9
$DIMALTTZ
 70
     0
  9
$DIMUPT
 70
     0
  9
$DIMDEC
 70
     4
  9
$DIMTDEC
 70
     4
  9
$DIMALTU
 70
     2
  9
$DIMALTTD
 70
     2
  9
$DIMTXSTY
  7
STANDARD
  9
$DIMAUNIT
 70
     0
  9
$DIMADEC
 70
     0
  9
$DIMALTRND
 40
0.0
  9
$DIMAZIN
 70
     0
  9
$DIMDSEP
 70
    44
  9
$DIMATFIT
 70
     3
  9
$DIMFRAC
 70
     0
  9
$DIMLDRBLK
  1

  9
$DIMLUNIT
 70
     2
  9
$DIMLWD
 70
    -2
  9
$DIMLWE
 70
    -2
  9
$DIMTMOVE
 70
     0
  9
$DIMFXL
 40
1.0
  9
$DIMFXLON
 70
     0
  9
$DIMJOGANG
 40
0.785398
  9
$DIMTFILL
 70
     0
  9
$DIMTFILLCLR
 70
     0
  9
$DIMARCSYM
 70
     0
  9
$DIMLTYPE
  6

  9
$DIMLTEX1
  6

  9
$DIMLTEX2
  6

  9
$DIMTXTDIRECTION
 70
     0
  9
$LUNITS
 70
     2
  9
$LUPREC
 70
     4
  9
$SKETCHINC
 40
0.1
  9
$FILLETRAD
 40
0.5
  9
$AUNITS
 70
     0
  9
$AUPREC
 70
     0
  9
$MENU
  1
.
  9
$ELEVATION
 40
0.0
  9
$PELEVATION
 40
0.0
  9
$THICKNESS
 40
0.0
  9
$LIMCHECK
 70
     0
  9
$CHAMFERA
 40
0.0
  9
$CHAMFERB
 40
0.0
  9
$CHAMFERC
 40
0.0
  9
$CHAMFERD
 40
0.0
  9
$SKPOLY
 70
     0
  9
$TDCREATE
 40
2447893.041666667
  9
$TDUCREATE
 40
0.0
  9
$TDUPDATE
 40
2459536.401126585
  9
$TDUUPDATE
 40
2459536.359459919
  9
$TDINDWG
 40
0.0
  9
$TDUSRTIMER
 40
0.0
  9
$USRTIMER
 70
     1
  9
$ANGBASE
 50
0.0
  9
$ANGDIR
 70
     0
  9
$PDMODE
 70
     3
  9
$PDSIZE
 40
0.3125
  9
$PLINEWID
 40
0.0
  9
$SPLFRAME
 70
     0
  9
$SPLINETYPE
 70
     6
  9
$SPLINESEGS
 70
     8
  9
$HANDSEED
  5
405
  9
$SURFTAB1
 70
     6
  9
$SURFTAB2
 70
     6
  9
$SURFTYPE
 70
     6
  9
$SURFU
 70
     6
  9
$SURFV
 70
     6
  9
$UCSBASE
  2

  9
$UCSNAME
  2

  9
$UCSORG
 10
0.0
 20
0.0
 30
0.0
  9
$UCSXDIR
 10
1.0
 20
0.0
 30
0.0
  9
$UCSYDIR
 10
0.0
 20
1.0
 30
0.0
  9
$UCSORTHOREF
  2

  9
$UCSORTHOVIEW
 70
     0
  9
$UCSORGTOP
 10
0.0
 20
0.0
 30
0.0
  9
$UCSORGBOTTOM
 10
0.0
 20
0.0
 30
0.0
  9
$UCSORGLEFT
 10
0.0
 20
0.0
 30
0.0
  9
$UCSORGRIGHT
 10
0.0
 20
0.0
 30
0.0
  9
$UCSORGFRONT
 10
0.0
 20
0.0
 30
0.0
  9
$UCSORGBACK
 10
0.0
 20
0.0
 30
0.0
  9
$PUCSBASE
  2

  9
$PUCSNAME
  2

  9
$PUCSORG
 10
0.0
 20
0.0
 30
0.0
  9
$PUCSXDIR
 10
1.0
 20
0.0
 30
0.0
  9
$PUCSYDIR
 10
0.0
 20
1.0
 30
0.0
  9
$PUCSORTHOREF
  2

  9
$PUCSORTHOVIEW
 70
     0
  9
$PUCSORGTOP
 10
0.0
 20
0.0
 30
0.0
  9
$PUCSORGBOTTOM
 10
0.0
 20
0.0
 30
0.0
  9
$PUCSORGLEFT
 10
0.0
 20
0.0
 30
0.0
  9
$PUCSORGRIGHT
 10
0.0
 20
0.0
 30
0.0
  9
$PUCSORGFRONT
 10
0.0
 20
0.0
 30
0.0
  9
$PUCSORGBACK
 10
0.0
 20
0.0
 30
0.0
  9
$USERI1
 70
     0
  9
$USERI2
 70
     0
  9
$USERI3
 70
     0
  9
$USERI4
 70
     0
  9
$USERI5
 70
     0
  9
$USERR1
 40
0.0
  9
$USERR2
 40
0.0
  9
$USERR3
 40
0.0
  9
$USERR4
 40
0.0
  9
$USERR5
 40
0.0
  9
$WORLDVIEW
 70
     1
  9
$SHADEDGE
 70
     3
  9
$SHADEDIF
 70
    70
  9
$TILEMODE
 70
     1
  9
$MAXACTVP
 70
    64
  9
$PINSBASE
 10
0.0
 20
0.0
 30
0.0
  9
$PLIMCHECK
 70
     0
  9
$PEXTMIN
 10
1.000000E+20
 20
1.000000E+20
 30
1.000000E+20
  9
$PEXTMAX
 10
-1.000000E+20
 20
-1.000000E+20
 30
-1.000000E+20
  9
$PLIMMIN
 10
0.0
 20
0.0
  9
$PLIMMAX
 10
12.0
 20
9.0
  9
$UNITMODE
 70
     0
  9
$VISRETAIN
 70
     1
  9
$PLINEGEN
 70
     0
  9
$PSLTSCALE
 70
     0
  9
$TREEDEPTH
 70
  3020
  9
$CMLSTYLE
  2

  9
$CMLJUST
 70
     0
  9
$CMLSCALE
 40
1.0
  9
$PROXYGRAPHICS
 70
     1
  9
$MEASUREMENT
 70
     1
  9
$CELWEIGHT
370
    -1
  9
$ENDCAPS
280
     0
  9
$JOINSTYLE
280
     0
  9
$LWDISPLAY
290
     0
  9
$INSUNITS
 70
     4
  9
$HYPERLINKBASE
  1

  9
$STYLESHEET
  1

  9
$XEDIT
290
     1
  9
$CEPSNTYPE
380
     0
  9
$PSTYLEMODE
290
     1
  9
$FINGERPRINTGUID
  2
{28C7177F-EB22-4E57-BE94-E0439E8DFE6E}
  9
$VERSIONGUID
  2
{FAEB1C32-E019-11D5-929B-00C0DF256EC4}
  9
$EXTNAMES
290
     1
  9
$PSVPSCALE
 40
0.0
  9
$OLESTARTUP
290
     0
  9
$SORTENTS
280
   127
  9
$INDEXCTL
280
     0
  9
$HIDETEXT
280
     1
  9
$XCLIPFRAME
280
     2
  9
$HALOGAP
280
     0
  9
$OBSCOLOR
 70
   257
  9
$OBSLTYPE
280
     0
  9
$INTERSECTIONDISPLAY
280
     0
  9
$INTERSECTIONCOLOR
 70
   257
  9
$DIMASSOC
280
     2
  9
$PROJECTNAME
  1

  9
$CAMERADISPLAY
290
     0
  9
$LENSLENGTH
 40
50.0
  9
$CAMERAHEIGHT
 40
0.0
  9
$STEPSPERSEC
 40
2.0
  9
$STEPSIZE
 40
6.0
  9
$3DDWFPREC
 40
2.0
  9
$PSOLWIDTH
 40
0.25
  9
$PSOLHEIGHT
 40
4.0
  9
$LOFTANG1
 40
1.570796
  9
$LOFTANG2
 40
1.570796
  9
$LOFTMAG1
 40
0.0
  9
$LOFTMAG2
 40
0.0
  9
$LOFTPARAM
 70
     7
  9
$LOFTNORMALS
280
     1
  9
$LATITUDE
 40
37.795
  9
$LONGITUDE
 40
-122.394
  9
$NORTHDIRECTION
 40
0.0
  9
$TIMEZONE
 70
 -8000
  9
$LIGHTGLYPHDISPLAY
280
     1
  9
$TILEMODELIGHTSYNCH
280
     1
  9
$SOLIDHIST
280
     1
  9
$SHOWHIST
280
     1
  9
$DWFFRAME
280
     2
  9
$DGNFRAME
280
     2
  9
$REALWORLDSCALE
290
     1
  9
$INTERFERECOLOR
 62
   256
  9
$CSHADOW
280
     0
  9
$SHADOWPLANELOCATION
 40
0.0
  0
ENDSEC
  0
SECTION
  2
CLASSES
  0
CLASS
  1
ACDBDICTIONARYWDFLT
  2
AcDbDictionaryWithDefault
  3
ObjectDBX Classes
 90
        0
 91
        6
280
     0
281
     0
  0
CLASS
  1
ACDBPLACEHOLDER
  2
AcDbPlaceHolder
  3
ObjectDBX Classes
 90
        0
 91
        1
280
     0
281
     0
  0
CLASS
  1
LAYOUT
  2
AcDbLayout
  3
ObjectDBX Classes
 90
        0
 91
        1
280
     0
281
     0
  0
CLASS
  1
TABLESTYLE
  2
AcDbTableStyle
  3
ObjectDBX Classes
 90
     4095
 91
        5
280
     0
281
     0
  0
CLASS
  1
ACAD_TABLE
  2
AcDbTable
  3
ObjectDBX Classes
 90
     1025
 91
        5
280
     0
281
     1
  0
CLASS
  1
SCALE
  2
AcDbScale
  3
ObjectDBX Classes
 90
     1153
 91
        5
280
     0
281
     0
  0
CLASS
  1
TABLEGEOMETRY
  2
AcDbTableGeometry
  3
ObjectDBX Classes
 90
     1152
 91
        4
280
     0
281
     0
  0
CLASS
  1
VISUALSTYLE
  2
AcDbVisualStyle
  3
ObjectDBX Classes
 90
     4095
 91
        5
280
     0
281
     0
  0
CLASS
  1
MATERIAL
  2
AcDbMaterial
  3
ObjectDBX Classes
 90
     1153
 91
        5
280
     0
281
     0
  0
CLASS
  1
SUN
  2
AcDbSun
  3
SCENEOE
 90
     1153
 91
        5
280
     0
281
     0
  0
CLASS
  1
CSACDOCUMENTOPTIONS
  2
CDocDataContainer
  3
"DERU003_CSAPP"
 90
     4095
 91
        4
280
     0
281
     0
  0
CLASS
  1
TABLECONTENT
  2
AcDbTableContent
  3
ObjectDBX Classes
 90
     1152
 91
        4
280
     0
281
     0
  0
CLASS
  1
DICTIONARYVAR
  2
AcDbDictionaryVar
  3
ObjectDBX Classes
 90
        0
 91
        4
280
     0
281
     0
  0
CLASS
  1
CELLSTYLEMAP
  2
AcDbCellStyleMap
  3
ObjectDBX Classes
 90
     1152
 91
        4
280
     0
281
     0
  0
ENDSEC
  0
SECTION
  2
TABLES
  0
TABLE
  2
VPORT
  5
8
330
0
100
AcDbSymbolTable
 70
     1
  0
VPORT
  5
1F4
330
8
100
AcDbSymbolTableRecord
100
AcDbViewportTableRecord
  2
*ACTIVE
 70
     0
 10
0.0
 20
0.0
 11
1.0
 21
1.0
 12
210.0
 22
148.5
 13
0.0
 23
0.0
 14
1.0
 24
1.0
 15
0.0
 25
0.0
 16
0.0
 26
0.0
 36
1.0
 17
0.0
 27
0.0
 37
0.0
 40
297.0
 41
2.107285
 42
50.0
 43
0.0
 44
0.0
 50
0.0
 51
0.0
 71
    16
 72
   100
 73
     1
 74
     1
 75
     0
 76
     0
 77
     0
 78
     0
281
     0
 65
     1
110
0.0
120
0.0
130
0.0
111
1.0
121
0.0
131
0.0
112
0.0
122
1.0
132
0.0
 79
     0
146
0.0
 60
     3
 61
     5
292
     1
282
     1
141
0.0
142
0.0
 63
   256
361
3C0
  0
ENDTAB
  0
TABLE
  2
LTYPE
  5
5
330
0
100
AcDbSymbolTable
 70
     6
  0
LTYPE
  5
14
330
5
100
AcDbSymbolTableRecord
100
AcDbLinetypeTableRecord
  2
BYBLOCK
 70
     0
  3

 72
    65
 73
     0
 40
0.0
  0
LTYPE
  5
15
330
5
100
AcDbSymbolTableRecord
100
AcDbLinetypeTableRecord
  2
BYLAYER
 70
     0
  3

 72
    65
 73
     0
 40
0.0
  0
LTYPE
  5
16
330
5
100
AcDbSymbolTableRecord
100
AcDbLinetypeTableRecord
  2
CONTINUOUS
 70
     0
  3
Solid line
 72
    65
 73
     0
 40
0.0
  0
LTYPE
  5
1F5
330
5
100
AcDbSymbolTableRecord
100
AcDbLinetypeTableRecord
  2
CENTER
 70
     0
  3
____ _ ____ _ ____ _ ____ _ ____ _ ____ _ ____
 72
    65
 73
     4
 40
0.6
 49
0.375
 74
     0
 49
-0.075
 74
     0
 49
0.075
 74
     0
 49
-0.075
 74
     0
  0
LTYPE
  5
1F6
330
5
100
AcDbSymbolTableRecord
100
AcDbLinetypeTableRecord
  2
HIDDEN
 70
     0
  3
- - - - - - - - - - - - - - - - - - - -
 72
    65
 73
     2
 40
0.2
 49
0.1
 74
     0
 49
-0.1
 74
     0
  0
LTYPE
  5
1F7
330
5
100
AcDbSymbolTableRecord
100
AcDbLinetypeTableRecord
  2
PHANTOM
 70
     0
  3
_____ _ _ _____ _ _ _____ _ _ _____
 72
    65
 73
     6
 40
0.8
 49
0.45
 74
     0
 49
-0.05
 74
     0
 49
0.1
 74
     0
 49
-0.05
 74
     0
 49
0.1
 74
     0
 49
-0.05
 74
     0
  0
LTYPE
  5
1F8
330
5
100
AcDbSymbolTableRecord
100
AcDbLinetypeTableRecord
  2
DOT
 70
     0
  3
. . . . . . . . . . . . . . . . . . . .
 72
    65
 73
     2
 40
0.2
 49
0.1
 74
     0
 49
-0.1
 74
     0
  0
LTYPE
  5
1F9
330
5
100
AcDbSymbolTableRecord
100
AcDbLinetypeTableRecord
  2
DASHED
 70
     0
  3
- - - - - - - - - - - - - - - - - - - -
 72
    65
 73
     2
 40
0.2
 49
0.1
 74
     0
 49
-0.1
 74
     0
  0
ENDTAB
  0
TABLE
  2
LAYER
  5
2
330
0
100
AcDbSymbolTable
 70
    38
  0
LAYER
  5
10
330
2
100
AcDbSymbolTableRecord
100
AcDbLayerTableRecord
  2
0
 70
     0
 62
     7
  6
CONTINUOUS
370
    -3
390
F
347
3BA
  0
LAYER
  5
1FA
330
2
100
AcDbSymbolTableRecord
100
AcDbLayerTableRecord
  2
DEFAULT_1
 70
     0
 62
     7
  6
CENTER
370
    -3
390
F
347
3BA
  0
LAYER
  5
1FB
330
2
100
AcDbSymbolTableRecord
100
AcDbLayerTableRecord
  2
DEFAULT_2
 70
     0
 62
     8
  6
HIDDEN
370
    -3
390
F
347
3BA
  0
LAYER
  5
1FC
330
2
100
AcDbSymbolTableRecord
100
AcDbLayerTableRecord
  2
DEFAULT_3
 70
     0
 62
     7
  6
PHANTOM
370
    -3
390
F
347
3BA
  0
LAYER
  5
1FD
330
2
100
AcDbSymbolTableRecord
100
AcDbLayerTableRecord
  2
01_ALL_DTM_PLN
 70
     0
 62
     7
  6
CONTINUOUS
370
    -3
390
F
347
3BA
  0
LAYER
  5
1FE
330
2
100
AcDbSymbolTableRecord
100
AcDbLayerTableRecord
  2
01__ASM_ALL_DTM_PLN
 70
     0
 62
     7
  6
CONTINUOUS
370
    -3
390
F
347
3BA
  0
LAYER
  5
1FF
330
2
100
AcDbSymbolTableRecord
100
AcDbLayerTableRecord
  2
01__ASM_DEF_DTM_PLN
 70
     0
 62
     7
  6
CONTINUOUS
370
    -3
390
F
347
3BA
  0
LAYER
  5
200
330
2
100
AcDbSymbolTableRecord
100
AcDbLayerTableRecord
  2
01___PRT_ALL_DTM_PLN
 70
     0
 62
     7
  6
CONTINUOUS
370
    -3
390
F
347
3BA
  0
LAYER
  5
201
330
2
100
AcDbSymbolTableRecord
100
AcDbLayerTableRecord
  2
01___PRT_DEF_DTM_PLN
 70
     0
 62
     7
  6
CONTINUOUS
370
    -3
390
F
347
3BA
  0
LAYER
  5
202
330
2
100
AcDbSymbolTableRecord
100
AcDbLayerTableRecord
  2
02_ALL_AXES
 70
     0
 62
     7
  6
CONTINUOUS
370
    -3
390
F
347
3BA
  0
LAYER
  5
203
330
2
100
AcDbSymbolTableRecord
100
AcDbLayerTableRecord
  2
02__ASM_ALL_AXES
 70
     0
 62
     7
  6
CONTINUOUS
370
    -3
390
F
347
3BA
  0
LAYER
  5
204
330
2
100
AcDbSymbolTableRecord
100
AcDbLayerTableRecord
  2
02___PRT_ALL_AXES
 70
     0
 62
     7
  6
CONTINUOUS
370
    -3
390
F
347
3BA
  0
LAYER
  5
205
330
2
100
AcDbSymbolTableRecord
100
AcDbLayerTableRecord
  2
03_ALL_CURVES
 70
     0
 62
     7
  6
CONTINUOUS
370
    -3
390
F
347
3BA
  0
LAYER
  5
206
330
2
100
AcDbSymbolTableRecord
100
AcDbLayerTableRecord
  2
03__ASM_ALL_CURVES
 70
     0
 62
     7
  6
CONTINUOUS
370
    -3
390
F
347
3BA
  0
LAYER
  5
207
330
2
100
AcDbSymbolTableRecord
100
AcDbLayerTableRecord
  2
03___PRT_ALL_CURVES
 70
     0
 62
     7
  6
CONTINUOUS
370
    -3
390
F
347
3BA
  0
LAYER
  5
208
330
2
100
AcDbSymbolTableRecord
100
AcDbLayerTableRecord
  2
04_ALL_DTM_PNT
 70
     0
 62
     7
  6
CONTINUOUS
370
    -3
390
F
347
3BA
  0
LAYER
  5
209
330
2
100
AcDbSymbolTableRecord
100
AcDbLayerTableRecord
  2
04__ASM_ALL_DTM_PNT
 70
     0
 62
     7
  6
CONTINUOUS
370
    -3
390
F
347
3BA
  0
LAYER
  5
20A
330
2
100
AcDbSymbolTableRecord
100
AcDbLayerTableRecord
  2
04___PRT_ALL_DTM_PNT
 70
     0
 62
     7
  6
CONTINUOUS
370
    -3
390
F
347
3BA
  0
LAYER
  5
20B
330
2
100
AcDbSymbolTableRecord
100
AcDbLayerTableRecord
  2
05_ALL_DTM_CSYS
 70
     0
 62
     7
  6
CONTINUOUS
370
    -3
390
F
347
3BA
  0
LAYER
  5
20C
330
2
100
AcDbSymbolTableRecord
100
AcDbLayerTableRecord
  2
05__ASM_ALL_DTM_CSYS
 70
     0
 62
     7
  6
CONTINUOUS
370
    -3
390
F
347
3BA
  0
LAYER
  5
20D
330
2
100
AcDbSymbolTableRecord
100
AcDbLayerTableRecord
  2
05__ASM_DEF_DTM_CSYS
 70
     0
 62
     7
  6
CONTINUOUS
370
    -3
390
F
347
3BA
  0
LAYER
  5
20E
330
2
100
AcDbSymbolTableRecord
100
AcDbLayerTableRecord
  2
05___PRT_ALL_DTM_CSYS
 70
     0
 62
     7
  6
CONTINUOUS
370
    -3
390
F
347
3BA
  0
LAYER
  5
20F
330
2
100
AcDbSymbolTableRecord
100
AcDbLayerTableRecord
  2
05___PRT_DEF_DTM_CSYS
 70
     0
 62
     7
  6
CONTINUOUS
370
    -3
390
F
347
3BA
  0
LAYER
  5
210
330
2
100
AcDbSymbolTableRecord
100
AcDbLayerTableRecord
  2
06_ALL_SURFS
 70
     0
 62
     7
  6
CONTINUOUS
370
    -3
390
F
347
3BA
  0
LAYER
  5
211
330
2
100
AcDbSymbolTableRecord
100
AcDbLayerTableRecord
  2
06__ASM_ALL_SURFS
 70
     0
 62
     7
  6
CONTINUOUS
370
    -3
390
F
347
3BA
  0
LAYER
  5
212
330
2
100
AcDbSymbolTableRecord
100
AcDbLayerTableRecord
  2
06___PRT_ALL_SURFS
 70
     0
 62
     7
  6
CONTINUOUS
370
    -3
390
F
347
3BA
  0
LAYER
  5
213
330
2
100
AcDbSymbolTableRecord
100
AcDbLayerTableRecord
  2
07__ASM_ALL_SKELETONS
 70
     0
 62
     7
  6
CONTINUOUS
370
    -3
390
F
347
3BA
  0
LAYER
  5
214
330
2
100
AcDbSymbolTableRecord
100
AcDbLayerTableRecord
  2
1_ALL_PLANES
 70
     0
 62
     7
  6
CONTINUOUS
370
    -3
390
F
347
3BA
  0
LAYER
  5
215
330
2
100
AcDbSymbolTableRecord
100
AcDbLayerTableRecord
  2
2_ALL_CSYS
 70
     0
 62
     7
  6
CONTINUOUS
370
    -3
390
F
347
3BA
  0
LAYER
  5
216
330
2
100
AcDbSymbolTableRecord
100
AcDbLayerTableRecord
  2
3_ALL_AXES
 70
     0
 62
     7
  6
CONTINUOUS
370
    -3
390
F
347
3BA
  0
LAYER
  5
217
330
2
100
AcDbSymbolTableRecord
100
AcDbLayerTableRecord
  2
4_ALL_POINTS
 70
     0
 62
     7
  6
CONTINUOUS
370
    -3
390
F
347
3BA
  0
LAYER
  5
218
330
2
100
AcDbSymbolTableRecord
100
AcDbLayerTableRecord
  2
5_ALL_CURVES
 70
     0
 62
     7
  6
CONTINUOUS
370
    -3
390
F
347
3BA
  0
LAYER
  5
219
330
2
100
AcDbSymbolTableRecord
100
AcDbLayerTableRecord
  2
5__COSTRUZIONE
 70
     0
 62
     7
  6
CONTINUOUS
370
    -3
390
F
347
3BA
  0
LAYER
  5
21A
330
2
100
AcDbSymbolTableRecord
100
AcDbLayerTableRecord
  2
6_ALL_SURFS
 70
     0
 62
     7
  6
CONTINUOUS
370
    -3
390
F
347
3BA
  0
LAYER
  5
21B
330
2
100
AcDbSymbolTableRecord
100
AcDbLayerTableRecord
  2
7_ALL_FEATURES
 70
     0
 62
     7
  6
CONTINUOUS
370
    -3
390
F
347
3BA
  0
LAYER
  5
21C
330
2
100
AcDbSymbolTableRecord
100
AcDbLayerTableRecord
  2
9_SOLID
 70
     0
 62
     7
  6
CONTINUOUS
370
    -3
390
F
347
3BA
  0
LAYER
  5
21D
330
2
100
AcDbSymbolTableRecord
100
AcDbLayerTableRecord
  2
XSEC_DATUMS
 70
     0
 62
     7
  6
CONTINUOUS
370
    -3
390
F
347
3BA
  0
LAYER
  5
21E
330
2
100
AcDbSymbolTableRecord
100
AcDbLayerTableRecord
  2
XXX_SOLIDO
 70
     0
 62
     7
  6
CONTINUOUS
370
    -3
390
F
347
3BA
  0
ENDTAB
  0
TABLE
  2
STYLE
  5
3
330
0
100
AcDbSymbolTable
 70
     5
  0
STYLE
  5
11
330
3
100
AcDbSymbolTableRecord
100
AcDbTextStyleTableRecord
  2
STANDARD
 70
     0
 40
0.0
 41
1.0
 50
0.0
 71
     0
 42
0.2
  3
arial.ttf
  4

  0
STYLE
  5
21F
330
3
100
AcDbSymbolTableRecord
100
AcDbTextStyleTableRecord
  2
TEXTSTYLE_1
 70
     0
 40
0.0
 41
0.8
 50
0.0
 71
     0
 42
0.2
  3
gdt
  4

  0
STYLE
  5
220
330
3
100
AcDbSymbolTableRecord
100
AcDbTextStyleTableRecord
  2
TEXTSTYLE_2
 70
     0
 40
0.0
 41
0.9
 50
0.0
 71
     0
 42
0.2
  3
txt
  4

  0
STYLE
  5
221
330
3
100
AcDbSymbolTableRecord
100
AcDbTextStyleTableRecord
  2
TEXTSTYLE_3
 70
     0
 40
0.0
 41
0.9
 50
0.0
 71
     0
 42
0.2
  3
txt
  4

  0
STYLE
  5
222
330
3
100
AcDbSymbolTableRecord
100
AcDbTextStyleTableRecord
  2
TEXTSTYLE_4
 70
     0
 40
0.0
 41
0.85
 50
0.0
 71
     0
 42
0.2
  3
gdt
  4

  0
ENDTAB
  0
TABLE
  2
VIEW
  5
6
330
0
100
AcDbSymbolTable
 70
     0
  0
ENDTAB
  0
TABLE
  2
UCS
  5
7
330
0
100
AcDbSymbolTable
 70
     0
  0
ENDTAB
  0
TABLE
  2
APPID
  5
9
330
0
100
AcDbSymbolTable
 70
     6
  0
APPID
  5
223
330
9
100
AcDbSymbolTableRecord
100
AcDbRegAppTableRecord
  2
ACAD
 70
     0
  0
APPID
  5
3BB
330
9
100
AcDbSymbolTableRecord
100
AcDbRegAppTableRecord
  2
MCS_DIM1
 70
     0
  0
APPID
  5
3BC
330
9
100
AcDbSymbolTableRecord
100
AcDbRegAppTableRecord
  2
McsXdata5
 70
     0
  0
APPID
  5
3BF
330
9
100
AcDbSymbolTableRecord
100
AcDbRegAppTableRecord
  2
MCS_DOCUMENT_ID
 70
     0
  0
APPID
  5
3C5
330
9
100
AcDbSymbolTableRecord
100
AcDbRegAppTableRecord
  2
MCS_PARAMS_DATA
 70
     0
  0
APPID
  5
3C7
330
9
100
AcDbSymbolTableRecord
100
AcDbRegAppTableRecord
  2
MC_VERSION_DATA
 70
     0
  0
ENDTAB
  0
TABLE
  2
DIMSTYLE
  5
A
330
0
100
AcDbSymbolTable
 70
     3
100
AcDbDimStyleTable
  0
DIMSTYLE
105
22D
330
A
100
AcDbSymbolTableRecord
100
AcDbDimStyleTableRecord
  2
STANDARD
 70
     0
 41
2.5
 42
0.75
 44
0.75
 47
0.01
 48
0.01
 71
     1
 73
     0
 74
     0
 77
     1
 78
     8
 79
     2
140
3.0
147
0.625
171
     1
178
     0
179
     2
271
     2
272
     2
278
    44
284
     8
340
11
341
226
342
226
343
226
344
226
  0
DIMSTYLE
105
22E
330
A
100
AcDbSymbolTableRecord
100
AcDbDimStyleTableRecord
  2
DIMSTYLE_1
 70
     0
 41
2.5
 42
0.75
 44
0.75
 47
0.3
 48
0.3
 73
     0
 74
     0
 77
     1
 78
     8
 79
     2
140
3.0
147
0.75
171
     1
178
     0
179
     2
271
     2
272
     2
278
    44
284
     8
340
11
341
226
342
226
343
226
344
226
  0
DIMSTYLE
105
22F
330
A
100
AcDbSymbolTableRecord
100
AcDbDimStyleTableRecord
  2
DIMSTYLE_2
 70
     0
  3
<>
 41
2.5
 42
0.75
 44
0.75
 47
0.3
 48
0.3
 73
     0
 74
     0
 77
     1
 78
     8
 79
     2
140
3.0
147
0.625
171
     1
172
     1
178
     0
179
     2
271
     2
272
     2
278
    44
284
     8
288
     1
289
     2
340
11
341
226
342
226
343
226
344
226
  0
ENDTAB
  0
TABLE
  2
BLOCK_RECORD
  5
1
330
0
100
AcDbSymbolTable
 70
     7
  0
BLOCK_RECORD
  5
224
330
1
100
AcDbSymbolTableRecord
100
AcDbBlockTableRecord
  2
*Model_Space
340
375
 70
     0
280
     1
281
     0
  0
BLOCK_RECORD
  5
225
330
1
100
AcDbSymbolTableRecord
100
AcDbBlockTableRecord
  2
*Paper_Space
340
376
 70
     0
280
     1
281
     0
  0
BLOCK_RECORD
  5
226
330
1
100
AcDbSymbolTableRecord
100
AcDbBlockTableRecord
  2
_CLOSED
340
0
102
{BLKREFS
331
278
331
279
331
280
331
281
331
289
331
28A
331
292
331
293
102
}
 70
     0
280
     1
281
     0
  0
BLOCK_RECORD
  5
227
330
1
100
AcDbSymbolTableRecord
100
AcDbBlockTableRecord
  2
*D1
340
0
 70
     0
280
     1
281
     0
  0
BLOCK_RECORD
  5
228
330
1
100
AcDbSymbolTableRecord
100
AcDbBlockTableRecord
  2
*D2
340
0
 70
     0
280
     1
281
     0
  0
BLOCK_RECORD
  5
229
330
1
100
AcDbSymbolTableRecord
100
AcDbBlockTableRecord
  2
*D3
340
0
 70
     0
280
     1
281
     0
  0
BLOCK_RECORD
  5
22A
330
1
100
AcDbSymbolTableRecord
100
AcDbBlockTableRecord
  2
*D4
340
0
 70
     0
280
     1
281
     0
  0
BLOCK_RECORD
  5
22B
330
1
100
AcDbSymbolTableRecord
100
AcDbBlockTableRecord
  2
LOGO2_BL0
340
0
102
{BLKREFS
331
372
102
}
 70
     0
280
     1
281
     0
  0
BLOCK_RECORD
  5
22C
330
1
100
AcDbSymbolTableRecord
100
AcDbBlockTableRecord
  2
*T6
340
0
102
{BLKREFS
331
373
102
}
 70
     0
280
     1
281
     0
  0
ENDTAB
  0
ENDSEC
  0
SECTION
  2
BLOCKS
  0
BLOCK
  5
20
330
224
100
AcDbEntity
  8
0
100
AcDbBlockBegin
  2
*Model_Space
 70
     0
 10
0.0
 20
0.0
 30
0.0
  3
*Model_Space
  1
*Model_Space
  0
ENDBLK
  5
21
330
224
100
AcDbEntity
  8
0
100
AcDbBlockEnd
  0
BLOCK
  5
1C
330
225
100
AcDbEntity
 67
     1
  8
0
100
AcDbBlockBegin
  2
*Paper_Space
 70
     0
 10
0.0
 20
0.0
 30
0.0
  3
*Paper_Space
  1
*Paper_Space
  0
ENDBLK
  5
1D
330
225
100
AcDbEntity
 67
     1
  8
0
100
AcDbBlockEnd
  0
BLOCK
  5
26C
330
226
100
AcDbEntity
  8
0
100
AcDbBlockBegin
  2
_CLOSED
 70
     0
 10
0.0
 20
0.0
 30
0.0
  3
_CLOSED
  1
_CLOSED
  0
LINE
  5
26D
330
226
100
AcDbEntity
  8
0
  6
ByBlock
 62
     0
100
AcDbLine
 10
0.0
 20
0.0
 30
0.0
 11
-1.0
 21
0.2
 31
0.0
  0
LINE
  5
26E
330
226
100
AcDbEntity
  8
0
  6
ByBlock
 62
     0
100
AcDbLine
 10
-1.0
 20
0.2
 30
0.0
 11
-1.0
 21
-0.2
 31
0.0
  0
LINE
  5
26F
330
226
100
AcDbEntity
  8
0
  6
ByBlock
 62
     0
100
AcDbLine
 10
-1.0
 20
-0.2
 30
0.0
 11
0.0
 21
0.0
 31
0.0
  0
LINE
  5
270
330
226
100
AcDbEntity
  8
0
  6
ByBlock
 62
     0
100
AcDbLine
 10
-1.0
 20
0.0
 30
0.0
 11
0.0
 21
0.0
 31
0.0
  0
ENDBLK
  5
271
330
226
100
AcDbEntity
  8
0
  6
ByBlock
 62
     0
100
AcDbBlockEnd
  0
BLOCK
  5
272
330
227
100
AcDbEntity
  8
0
100
AcDbBlockBegin
  2
*D1
 70
     1
 10
0.0
 20
0.0
 30
0.0
  3
*D1
  1
*D1
  0
MTEXT
  5
273
330
227
100
AcDbEntity
  8
0
  6
Continuous
 62
     2
100
AcDbMText
 10
266.291471
 20
175.421999
 30
0.0
 40
3.0
 41
10.483271
 46
0.0
 71
     2
 72
     1
  1
52,86
 73
     1
 44
0.9
  0
LINE
  5
274
330
227
100
AcDbEntity
  8
0
  6
Continuous
 62
     2
100
AcDbLine
 10
239.860156
 20
165.286084
 30
0.0
 11
239.860156
 21
172.421999
 31
0.0
  0
LINE
  5
275
330
227
100
AcDbEntity
  8
0
  6
Continuous
 62
     2
100
AcDbLine
 10
292.722787
 20
165.406875
 30
0.0
 11
292.722787
 21
172.421999
 31
0.0
  0
LINE
  5
276
330
227
100
AcDbEntity
  8
0
  6
Continuous
 62
     2
100
AcDbLine
 10
239.860156
 20
171.671999
 30
0.0
 11
266.291471
 21
171.671999
 31
0.0
  0
LINE
  5
277
330
227
100
AcDbEntity
  8
0
  6
Continuous
 62
     2
100
AcDbLine
 10
292.722787
 20
171.671999
 30
0.0
 11
266.291471
 21
171.671999
 31
0.0
  0
INSERT
  5
278
330
227
100
AcDbEntity
  8
0
  6
Continuous
 62
     2
100
AcDbBlockReference
  2
_CLOSED
 10
239.860156
 20
171.671999
 30
0.0
 41
2.5
 42
2.5
 43
2.5
 50
180.0
  0
INSERT
  5
279
330
227
100
AcDbEntity
  8
0
  6
Continuous
 62
     2
100
AcDbBlockReference
  2
_CLOSED
 10
292.722787
 20
171.671999
 30
0.0
 41
2.5
 42
2.5
 43
2.5
  0
ENDBLK
  5
27A
330
227
100
AcDbEntity
  8
0
  6
ByBlock
 62
     0
100
AcDbBlockEnd
  0
BLOCK
  5
27B
330
228
100
AcDbEntity
  8
0
100
AcDbBlockBegin
  2
*D2
 70
     1
 10
0.0
 20
0.0
 30
0.0
  3
*D2
  1
*D2
  0
MTEXT
  5
27C
330
228
100
AcDbEntity
  8
0
  6
Continuous
 62
     2
100
AcDbMText
 10
142.810855
 20
260.532147
 30
0.0
 40
3.0
 41
14.483271
 46
0.0
 71
     1
 72
     1
  1
{\Fgdt;n}\Farial.ttf;52,85
  7
TEXTSTYLE_4
 11
0.2343107564
 21
0.9721617507
 31
0.0
 73
     1
 44
0.9
  0
LINE
  5
27D
330
228
100
AcDbEntity
  8
0
  6
Continuous
 62
     2
100
AcDbLine
 10
145.752222
 20
256.731575
 30
0.0
 11
139.560103
 21
231.040303
 31
0.0
  0
LINE
  5
27E
330
228
100
AcDbEntity
  8
0
  6
Continuous
 62
     2
100
AcDbLine
 10
139.560103
 20
231.040303
 30
0.0
 11
149.850048
 21
273.733565
 31
0.0
  0
LINE
  5
27F
330
228
100
AcDbEntity
  8
0
  6
Continuous
 62
     2
100
AcDbLine
 10
133.367984
 20
205.349031
 30
0.0
 11
139.560103
 21
231.040303
 31
0.0
  0
INSERT
  5
280
330
228
100
AcDbEntity
  8
0
  6
Continuous
 62
     2
100
AcDbBlockReference
  2
_CLOSED
 10
145.752222
 20
256.731575
 30
0.0
 41
2.5
 42
2.5
 43
2.5
 50
76.449002
  0
INSERT
  5
281
330
228
100
AcDbEntity
  8
0
  6
Continuous
 62
     2
100
AcDbBlockReference
  2
_CLOSED
 10
133.367984
 20
205.349031
 30
0.0
 41
2.5
 42
2.5
 43
2.5
 50
256.449002
  0
ENDBLK
  5
282
330
228
100
AcDbEntity
  8
0
  6
ByBlock
 62
     0
100
AcDbBlockEnd
  0
BLOCK
  5
283
330
229
100
AcDbEntity
  8
0
100
AcDbBlockBegin
  2
*D3
 70
     1
 10
0.0
 20
0.0
 30
0.0
  3
*D3
  1
*D3
  0
MTEXT
  5
284
330
229
100
AcDbEntity
  8
0
  6
Continuous
 62
     2
100
AcDbMText
 10
114.560103
 20
175.421999
 30
0.0
 40
3.0
 41
12.814126
 46
0.0
 71
     2
 72
     1
  1
102,86
 73
     1
 44
0.9
  0
LINE
  5
285
330
229
100
AcDbEntity
  8
0
  6
Continuous
 62
     2
100
AcDbLine
 10
63.128788
 20
165.267405
 30
0.0
 11
63.128788
 21
172.421999
 31
0.0
  0
LINE
  5
286
330
229
100
AcDbEntity
  8
0
  6
Continuous
 62
     2
100
AcDbLine
 10
165.991418
 20
165.192689
 30
0.0
 11
165.991418
 21
172.421999
 31
0.0
  0
LINE
  5
287
330
229
100
AcDbEntity
  8
0
  6
Continuous
 62
     2
100
AcDbLine
 10
63.128788
 20
171.671999
 30
0.0
 11
114.560103
 21
171.671999
 31
0.0
  0
LINE
  5
288
330
229
100
AcDbEntity
  8
0
  6
Continuous
 62
     2
100
AcDbLine
 10
165.991418
 20
171.671999
 30
0.0
 11
114.560103
 21
171.671999
 31
0.0
  0
INSERT
  5
289
330
229
100
AcDbEntity
  8
0
  6
Continuous
 62
     2
100
AcDbBlockReference
  2
_CLOSED
 10
63.128788
 20
171.671999
 30
0.0
 41
2.5
 42
2.5
 43
2.5
 50
180.0
  0
INSERT
  5
28A
330
229
100
AcDbEntity
  8
0
  6
Continuous
 62
     2
100
AcDbBlockReference
  2
_CLOSED
 10
165.991418
 20
171.671999
 30
0.0
 41
2.5
 42
2.5
 43
2.5
  0
ENDBLK
  5
28B
330
229
100
AcDbEntity
  8
0
  6
ByBlock
 62
     0
100
AcDbBlockEnd
  0
BLOCK
  5
28C
330
22A
100
AcDbEntity
  8
0
100
AcDbBlockBegin
  2
*D4
 70
     1
 10
0.0
 20
0.0
 30
0.0
  3
*D4
  1
*D4
  0
MTEXT
  5
28D
330
22A
100
AcDbEntity
  8
0
  6
Continuous
 62
     2
100
AcDbMText
 10
309.014455
 20
112.11166
 30
0.0
 40
3.0
 41
8.152416
 46
0.0
 71
     2
 72
     1
  1
82,5
 11
0.0
 21
1.0
 31
0.0
 73
     1
 44
0.9
  0
LINE
  5
28E
330
22A
100
AcDbEntity
  8
0
  6
Continuous
 62
     2
100
AcDbLine
 10
305.745353
 20
153.36166
 30
0.0
 11
313.514455
 21
153.36166
 31
0.0
  0
LINE
  5
28F
330
22A
100
AcDbEntity
  8
0
  6
Continuous
 62
     2
100
AcDbLine
 10
305.002439
 20
70.86166
 30
0.0
 11
313.514455
 21
70.86166
 31
0.0
  0
LINE
  5
290
330
22A
100
AcDbEntity
  8
0
  6
Continuous
 62
     2
100
AcDbLine
 10
312.764455
 20
153.36166
 30
0.0
 11
312.764455
 21
112.11166
 31
0.0
  0
LINE
  5
291
330
22A
100
AcDbEntity
  8
0
  6
Continuous
 62
     2
100
AcDbLine
 10
312.764455
 20
70.86166
 30
0.0
 11
312.764455
 21
112.11166
 31
0.0
  0
INSERT
  5
292
330
22A
100
AcDbEntity
  8
0
  6
Continuous
 62
     2
100
AcDbBlockReference
  2
_CLOSED
 10
312.764455
 20
153.36166
 30
0.0
 41
2.5
 42
2.5
 43
2.5
 50
90.0
  0
INSERT
  5
293
330
22A
100
AcDbEntity
  8
0
  6
Continuous
 62
     2
100
AcDbBlockReference
  2
_CLOSED
 10
312.764455
 20
70.86166
 30
0.0
 41
2.5
 42
2.5
 43
2.5
 50
270.0
  0
ENDBLK
  5
294
330
22A
100
AcDbEntity
  8
0
  6
ByBlock
 62
     0
100
AcDbBlockEnd
  0
BLOCK
  5
230
330
22B
100
AcDbEntity
  8
0
100
AcDbBlockBegin
  2
LOGO2_BL0
 70
     0
 10
333.831816
 20
36.583206
 30
0.0
  3
LOGO2_BL0
  1
LOGO2_BL0
  0
LINE
  5
231
330
22B
100
AcDbEntity
  8
0
  6
Continuous
 62
     7
100
AcDbLine
 10
325.574742
 20
39.778698
 30
0.0
 11
324.270401
 21
39.778698
 31
0.0
  0
LINE
  5
232
330
22B
100
AcDbEntity
  8
0
  6
Continuous
 62
     7
100
AcDbLine
 10
324.270401
 20
39.778698
 30
0.0
 11
324.270401
 21
29.319632
 31
0.0
  0
LINE
  5
233
330
22B
100
AcDbEntity
  8
0
  6
Continuous
 62
     7
100
AcDbLine
 10
324.270401
 20
29.319632
 30
0.0
 11
328.751456
 21
29.319632
 31
0.0
  0
LINE
  5
234
330
22B
100
AcDbEntity
  8
0
  6
Continuous
 62
     7
100
AcDbLine
 10
328.751456
 20
29.319632
 30
0.0
 11
328.751456
 21
30.512486
 31
0.0
  0
LINE
  5
235
330
22B
100
AcDbEntity
  8
0
  6
Continuous
 62
     7
100
AcDbLine
 10
328.751456
 20
30.512486
 30
0.0
 11
325.574742
 21
30.512486
 31
0.0
  0
LINE
  5
236
330
22B
100
AcDbEntity
  8
0
  6
Continuous
 62
     7
100
AcDbLine
 10
325.574742
 20
30.512486
 30
0.0
 11
325.574742
 21
39.778698
 31
0.0
  0
LINE
  5
237
330
22B
100
AcDbEntity
  8
0
  6
Continuous
 62
     7
100
AcDbLine
 10
340.511068
 20
39.778698
 30
0.0
 11
339.20725
 21
39.778698
 31
0.0
  0
LINE
  5
238
330
22B
100
AcDbEntity
  8
0
  6
Continuous
 62
     7
100
AcDbLine
 10
339.20725
 20
39.778698
 30
0.0
 11
339.20725
 21
29.319632
 31
0.0
  0
LINE
  5
239
330
22B
100
AcDbEntity
  8
0
  6
Continuous
 62
     7
100
AcDbLine
 10
339.20725
 20
29.319632
 30
0.0
 11
343.688436
 21
29.319632
 31
0.0
  0
LINE
  5
23A
330
22B
100
AcDbEntity
  8
0
  6
Continuous
 62
     7
100
AcDbLine
 10
343.688436
 20
29.319632
 30
0.0
 11
343.688436
 21
30.512486
 31
0.0
  0
LINE
  5
23B
330
22B
100
AcDbEntity
  8
0
  6
Continuous
 62
     7
100
AcDbLine
 10
343.688436
 20
30.512486
 30
0.0
 11
340.511068
 21
30.512486
 31
0.0
  0
LINE
  5
23C
330
22B
100
AcDbEntity
  8
0
  6
Continuous
 62
     7
100
AcDbLine
 10
340.511068
 20
30.512486
 30
0.0
 11
340.511068
 21
39.778698
 31
0.0
  0
LWPOLYLINE
  5
23D
330
22B
100
AcDbEntity
  8
0
  6
Continuous
 62
     7
100
AcDbPolyline
 90
        2
 70
     0
 43
0.2
 10
322.624796
 20
25.97608
 10
322.624796
 20
24.119017
  0
LWPOLYLINE
  5
23E
330
22B
100
AcDbEntity
  8
0
  6
Continuous
 62
     7
100
AcDbPolyline
 90
        2
 70
     0
 43
0.2
 10
322.624796
 20
24.119017
 10
323.420512
 20
24.119017
  0
LWPOLYLINE
  5
23F
330
22B
100
AcDbEntity
  8
0
  6
Continuous
 62
     7
100
AcDbPolyline
 90
        2
 70
     0
 43
0.2
 10
323.420512
 20
24.119017
 10
323.420512
 20
24.330999
  0
LWPOLYLINE
  5
240
330
22B
100
AcDbEntity
  8
0
  6
Continuous
 62
     7
100
AcDbPolyline
 90
        2
 70
     0
 43
0.2
 10
323.420512
 20
24.330999
 10
322.856405
 20
24.330999
  0
LWPOLYLINE
  5
241
330
22B
100
AcDbEntity
  8
0
  6
Continuous
 62
     7
100
AcDbPolyline
 90
        2
 70
     0
 43
0.2
 10
322.856405
 20
24.330999
 10
322.856405
 20
25.97608
  0
LWPOLYLINE
  5
242
330
22B
100
AcDbEntity
  8
0
  6
Continuous
 62
     7
100
AcDbPolyline
 90
        2
 70
     0
 43
0.2
 10
322.856405
 20
25.97608
 10
322.624796
 20
25.97608
  0
SPLINE
  5
243
330
22B
100
AcDbEntity
  8
0
  6
Continuous
 62
     7
100
AcDbSpline
 70
     3
 71
     3
 72
    35
 73
    31
 74
     0
 42
0.000000001
 43
0.0000001
 40
0.0
 40
0.0
 40
0.0
 40
0.0
 40
1.0
 40
1.0
 40
1.0
 40
2.0
 40
2.0
 40
2.0
 40
3.0
 40
3.0
 40
3.0
 40
4.0
 40
4.0
 40
4.0
 40
5.0
 40
5.0
 40
5.0
 40
6.0
 40
6.0
 40
6.0
 40
7.0
 40
7.0
 40
7.0
 40
8.0
 40
8.0
 40
8.0
 40
9.0
 40
9.0
 40
9.0
 40
10.0
 40
10.0
 40
10.0
 40
10.0
 10
324.8188048989
 20
25.271568796
 30
0.0
 10
324.8188048989
 20
25.271568796
 30
0.0
 10
324.8188048989
 20
24.6094535168
 30
0.0
 10
324.8188048989
 20
24.6094535168
 30
0.0
 10
324.8188048989
 20
24.2943599215
 30
0.0
 10
324.9666685878
 20
24.0797612935
 30
0.0
 10
325.3067550721
 20
24.0797612935
 30
0.0
 10
325.6463181451
 20
24.0797612935
 30
0.0
 10
325.7944435395
 20
24.2943599215
 30
0.0
 10
325.7944435395
 20
24.6094535168
 30
0.0
 10
325.7944435395
 20
24.6094535168
 30
0.0
 10
325.7944435395
 20
25.271568796
 30
0.0
 10
325.7944435395
 20
25.271568796
 30
0.0
 10
325.7944435395
 20
25.271568796
 30
0.0
 10
325.5723863007
 20
25.271568796
 30
0.0
 10
325.5723863007
 20
25.271568796
 30
0.0
 10
325.5723863007
 20
25.271568796
 30
0.0
 10
325.5723863007
 20
24.6345772586
 30
0.0
 10
325.5723863007
 20
24.6345772586
 30
0.0
 10
325.5723863007
 20
24.4487662514
 30
0.0
 10
325.5256718432
 20
24.2859853409
 30
0.0
 10
325.3067550721
 20
24.2859853409
 30
0.0
 10
325.0873148896
 20
24.2859853409
 30
0.0
 10
325.0406004322
 20
24.4487662514
 30
0.0
 10
325.0406004322
 20
24.6345772586
 30
0.0
 10
325.0406004322
 20
24.6345772586
 30
0.0
 10
325.0406004322
 20
25.271568796
 30
0.0
 10
325.0406004322
 20
25.271568796
 30
0.0
 10
325.0406004322
 20
25.271568796
 30
0.0
 10
324.8188048989
 20
25.271568796
 30
0.0
 10
324.8188048989
 20
25.271568796
 30
0.0
  0
SPLINE
  5
244
330
22B
100
AcDbEntity
  8
0
  6
Continuous
 62
     7
100
AcDbSpline
 70
     3
 71
     3
 72
    35
 73
    31
 74
     0
 42
0.000000001
 43
0.0000001
 40
0.0
 40
0.0
 40
0.0
 40
0.0
 40
1.0
 40
1.0
 40
1.0
 40
2.0
 40
2.0
 40
2.0
 40
3.0
 40
3.0
 40
3.0
 40
4.0
 40
4.0
 40
4.0
 40
5.0
 40
5.0
 40
5.0
 40
6.0
 40
6.0
 40
6.0
 40
7.0
 40
7.0
 40
7.0
 40
8.0
 40
8.0
 40
8.0
 40
9.0
 40
9.0
 40
9.0
 40
10.0
 40
10.0
 40
10.0
 40
10.0
 10
328.2175760967
 20
25.2302193042
 30
0.0
 10
328.1291195891
 20
25.2815136104
 30
0.0
 10
328.0156701924
 20
25.3066373523
 30
0.0
 10
327.9120347574
 20
25.3066373523
 30
0.0
 10
327.5571619043
 20
25.3066373523
 30
0.0
 10
327.281716714
 20
25.0428380632
 30
0.0
 10
327.281716714
 20
24.6853481536
 30
0.0
 10
327.281716714
 20
24.3404201149
 30
0.0
 10
327.5601715192
 20
24.0802847048
 30
0.0
 10
327.8997345922
 20
24.0802847048
 30
0.0
 10
328.0156701924
 20
24.0802847048
 30
0.0
 10
328.1164268653
 20
24.1022679789
 30
0.0
 10
328.2175760967
 20
24.1561793415
 30
0.0
 10
328.2175760967
 20
24.1561793415
 30
0.0
 10
328.2175760967
 20
24.438821437
 30
0.0
 10
328.2175760967
 20
24.438821437
 30
0.0
 10
328.1336994378
 20
24.3456542277
 30
0.0
 10
328.0301948557
 20
24.2865087522
 30
0.0
 10
327.902089943
 20
24.2865087522
 30
0.0
 10
327.6683868029
 20
24.2865087522
 30
0.0
 10
327.5031196888
 20
24.4587110659
 30
0.0
 10
327.5031196888
 20
24.695292968
 30
0.0
 10
327.5031196888
 20
24.9072745396
 30
0.0
 10
327.6708730065
 20
25.0993664823
 30
0.0
 10
327.8876961325
 20
25.0993664823
 30
0.0
 10
328.0205117468
 20
25.0993664823
 30
0.0
 10
328.1291195891
 20
25.0454551196
 30
0.0
 10
328.2175760967
 20
24.9444367411
 30
0.0
 10
328.2175760967
 20
24.9444367411
 30
0.0
 10
328.2175760967
 20
25.2302193042
 30
0.0
 10
328.2175760967
 20
25.2302193042
 30
0.0
  0
SPLINE
  5
245
330
22B
100
AcDbEntity
  8
0
  6
Continuous
 62
     7
100
AcDbSpline
 70
     3
 71
     3
 72
    32
 73
    28
 74
     0
 42
0.000000001
 43
0.0000001
 40
0.0
 40
0.0
 40
0.0
 40
0.0
 40
1.0
 40
1.0
 40
1.0
 40
2.0
 40
2.0
 40
2.0
 40
3.0
 40
3.0
 40
3.0
 40
4.0
 40
4.0
 40
4.0
 40
5.0
 40
5.0
 40
5.0
 40
6.0
 40
6.0
 40
6.0
 40
7.0
 40
7.0
 40
7.0
 40
8.0
 40
8.0
 40
8.0
 40
9.0
 40
9.0
 40
9.0
 40
9.0
 10
330.749447349
 20
24.6586541779
 30
0.0
 10
330.749447349
 20
24.6586541779
 30
0.0
 10
330.749447349
 20
24.6926759116
 30
0.0
 10
330.749447349
 20
24.6926759116
 30
0.0
 10
330.749447349
 20
25.0349868939
 30
0.0
 10
330.5765907712
 20
25.3066373523
 30
0.0
 10
330.209941164
 20
25.3066373523
 30
0.0
 10
329.8383191496
 20
25.3066373523
 30
0.0
 10
329.6485825578
 20
25.0402210067
 30
0.0
 10
329.6485825578
 20
24.6853481536
 30
0.0
 10
329.6485825578
 20
24.3456542277
 30
0.0
 10
329.8626577745
 20
24.0797612935
 30
0.0
 10
330.2147827184
 20
24.0797612935
 30
0.0
 10
330.4388027496
 20
24.0797612935
 30
0.0
 10
330.6409703596
 20
24.1954351881
 30
0.0
 10
330.749447349
 20
24.3948548888
 30
0.0
 10
330.749447349
 20
24.3948548888
 30
0.0
 10
330.5618044023
 20
24.5016307915
 30
0.0
 10
330.5618044023
 20
24.5016307915
 30
0.0
 10
330.4783203019
 20
24.3629268002
 30
0.0
 10
330.3871158849
 20
24.277087349
 30
0.0
 10
330.2175306277
 20
24.277087349
 30
0.0
 10
330.0055490561
 20
24.277087349
 30
0.0
 10
329.872602589
 20
24.4618515336
 30
0.0
 10
329.8702472382
 20
24.6586541779
 30
0.0
 10
329.8702472382
 20
24.6586541779
 30
0.0
 10
330.749447349
 20
24.6586541779
 30
0.0
 10
330.749447349
 20
24.6586541779
 30
0.0
  0
SPLINE
  5
246
330
22B
100
AcDbEntity
  8
0
  6
Continuous
 62
     7
100
AcDbSpline
 70
     3
 71
     3
 72
    14
 73
    10
 74
     0
 42
0.000000001
 43
0.0000001
 40
0.0
 40
0.0
 40
0.0
 40
0.0
 40
1.0
 40
1.0
 40
1.0
 40
2.0
 40
2.0
 40
2.0
 40
3.0
 40
3.0
 40
3.0
 40
3.0
 10
329.8822856978
 20
24.82614579
 30
0.0
 10
329.9098956432
 20
24.9910203457
 30
0.0
 10
330.0377388503
 20
25.1140219983
 30
0.0
 10
330.209941164
 20
25.1140219983
 30
0.0
 10
330.3871158849
 20
25.1140219983
 30
0.0
 10
330.5005652816
 20
24.9983481037
 30
0.0
 10
330.5277826686
 20
24.82614579
 30
0.0
 10
330.5277826686
 20
24.82614579
 30
0.0
 10
329.8822856978
 20
24.82614579
 30
0.0
 10
329.8822856978
 20
24.82614579
 30
0.0
  0
SPLINE
  5
247
330
22B
100
AcDbEntity
  8
0
  6
Continuous
 62
     7
100
AcDbSpline
 70
     3
 71
     3
 72
    20
 73
    16
 74
     0
 42
0.000000001
 43
0.0000001
 40
0.0
 40
0.0
 40
0.0
 40
0.0
 40
1.0
 40
1.0
 40
1.0
 40
2.0
 40
2.0
 40
2.0
 40
3.0
 40
3.0
 40
3.0
 40
4.0
 40
4.0
 40
4.0
 40
5.0
 40
5.0
 40
5.0
 40
5.0
 10
332.7734787992
 20
25.0355103051
 30
0.0
 10
332.7734787992
 20
25.0355103051
 30
0.0
 10
333.1846183658
 20
24.5330354688
 30
0.0
 10
333.1846183658
 20
24.5330354688
 30
0.0
 10
333.0685519127
 20
24.4173615742
 30
0.0
 10
332.9307638912
 20
24.2870321635
 30
0.0
 10
332.7588232831
 20
24.2870321635
 30
0.0
 10
332.5813868565
 20
24.2870321635
 30
0.0
 10
332.4138952444
 20
24.4513833079
 30
0.0
 10
332.4138952444
 20
24.6282963232
 30
0.0
 10
332.4138952444
 20
24.8062561611
 30
0.0
 10
332.623652318
 20
24.9323982814
 30
0.0
 10
332.7512338194
 20
25.0203313778
 30
0.0
 10
332.7512338194
 20
25.0203313778
 30
0.0
 10
332.7734787992
 20
25.0355103051
 30
0.0
 10
332.7734787992
 20
25.0355103051
 30
0.0
  0
SPLINE
  5
248
330
22B
100
AcDbEntity
  8
0
  6
Continuous
 62
     7
100
AcDbSpline
 70
     3
 71
     3
 72
    23
 73
    19
 74
     0
 42
0.000000001
 43
0.0000001
 40
0.0
 40
0.0
 40
0.0
 40
0.0
 40
1.0
 40
1.0
 40
1.0
 40
2.0
 40
2.0
 40
2.0
 40
3.0
 40
3.0
 40
3.0
 40
4.0
 40
4.0
 40
4.0
 40
5.0
 40
5.0
 40
5.0
 40
6.0
 40
6.0
 40
6.0
 40
6.0
 10
332.8228103131
 20
25.3265269812
 30
0.0
 10
332.8228103131
 20
25.3265269812
 30
0.0
 10
332.7611786339
 20
25.4050386744
 30
0.0
 10
332.7611786339
 20
25.4050386744
 30
0.0
 10
332.7072672713
 20
25.4736055531
 30
0.0
 10
332.6504771465
 20
25.5426958431
 30
0.0
 10
332.6504771465
 20
25.6363864636
 30
0.0
 10
332.6504771465
 20
25.755200826
 30
0.0
 10
332.746392265
 20
25.8326656966
 30
0.0
 10
332.8573554581
 20
25.8326656966
 30
0.0
 10
332.9806188163
 20
25.8326656966
 30
0.0
 10
333.0739168784
 20
25.7614817614
 30
0.0
 10
333.0739168784
 20
25.6311523507
 30
0.0
 10
333.0739168784
 20
25.4961122385
 30
0.0
 10
332.9458119657
 20
25.4196941904
 30
0.0
 10
332.852252198
 20
25.3458931989
 30
0.0
 10
332.852252198
 20
25.3458931989
 30
0.0
 10
332.8228103131
 20
25.3265269812
 30
0.0
 10
332.8228103131
 20
25.3265269812
 30
0.0
  0
SPLINE
  5
249
330
22B
100
AcDbEntity
  8
0
  6
Continuous
 62
     7
100
AcDbSpline
 70
     3
 71
     3
 72
    50
 73
    46
 74
     0
 42
0.000000001
 43
0.0000001
 40
0.0
 40
0.0
 40
0.0
 40
0.0
 40
1.0
 40
1.0
 40
1.0
 40
2.0
 40
2.0
 40
2.0
 40
3.0
 40
3.0
 40
3.0
 40
4.0
 40
4.0
 40
4.0
 40
5.0
 40
5.0
 40
5.0
 40
6.0
 40
6.0
 40
6.0
 40
7.0
 40
7.0
 40
7.0
 40
8.0
 40
8.0
 40
8.0
 40
9.0
 40
9.0
 40
9.0
 40
10.0
 40
10.0
 40
10.0
 40
11.0
 40
11.0
 40
11.0
 40
12.0
 40
12.0
 40
12.0
 40
13.0
 40
13.0
 40
13.0
 40
14.0
 40
14.0
 40
14.0
 40
15.0
 40
15.0
 40
15.0
 40
15.0
 10
333.5249665557
 20
24.1195405514
 30
0.0
 10
333.5249665557
 20
24.1195405514
 30
0.0
 10
333.8103565604
 20
24.1195405514
 30
0.0
 10
333.8103565604
 20
24.1195405514
 30
0.0
 10
333.8103565604
 20
24.1195405514
 30
0.0
 10
333.4779903926
 20
24.5304184124
 30
0.0
 10
333.4779903926
 20
24.5304184124
 30
0.0
 10
333.4779903926
 20
24.5304184124
 30
0.0
 10
333.7044966275
 20
24.7963113466
 30
0.0
 10
333.7044966275
 20
24.7963113466
 30
0.0
 10
333.7044966275
 20
24.7963113466
 30
0.0
 10
333.5562403802
 20
24.9491474426
 30
0.0
 10
333.5562403802
 20
24.9491474426
 30
0.0
 10
333.5562403802
 20
24.9491474426
 30
0.0
 10
333.3403332239
 20
24.6979100245
 30
0.0
 10
333.3403332239
 20
24.6979100245
 30
0.0
 10
333.3403332239
 20
24.6979100245
 30
0.0
 10
332.9532705766
 20
25.1658397158
 30
0.0
 10
332.9532705766
 20
25.1658397158
 30
0.0
 10
333.1087237291
 20
25.2799433766
 30
0.0
 10
333.2910017101
 20
25.4196941904
 30
0.0
 10
333.2910017101
 20
25.6290587056
 30
0.0
 10
333.2910017101
 20
25.8729683657
 30
0.0
 10
333.0889649529
 20
26.0163830586
 30
0.0
 10
332.8624587181
 20
26.0163830586
 30
0.0
 10
332.6182873523
 20
26.0163830586
 30
0.0
 10
332.4339157262
 20
25.8656406077
 30
0.0
 10
332.4339157262
 20
25.6091690767
 30
0.0
 10
332.4339157262
 20
25.451622279
 30
0.0
 10
332.5325787539
 20
25.3139651103
 30
0.0
 10
332.6379152756
 20
25.2030019173
 30
0.0
 10
332.6379152756
 20
25.2030019173
 30
0.0
 10
332.5223722338
 20
25.1192561112
 30
0.0
 10
332.5223722338
 20
25.1192561112
 30
0.0
 10
332.3446741016
 20
24.9910203457
 30
0.0
 10
332.197333824
 20
24.8633079914
 30
0.0
 10
332.197333824
 20
24.626202678
 30
0.0
 10
332.197333824
 20
24.3058749699
 30
0.0
 10
332.4558990003
 20
24.0797612935
 30
0.0
 10
332.766281894
 20
24.0797612935
 30
0.0
 10
332.9851986651
 20
24.0797612935
 30
0.0
 10
333.1823938678
 20
24.2048565913
 30
0.0
 10
333.322668093
 20
24.3707779695
 30
0.0
 10
333.322668093
 20
24.3707779695
 30
0.0
 10
333.5249665557
 20
24.1195405514
 30
0.0
 10
333.5249665557
 20
24.1195405514
 30
0.0
  0
LWPOLYLINE
  5
24A
330
22B
100
AcDbEntity
  8
0
  6
Continuous
 62
     7
100
AcDbPolyline
 90
        2
 70
     0
 43
0.2
 10
335.460411
 20
25.97608
 10
335.229063
 20
25.97608
  0
LWPOLYLINE
  5
24B
330
22B
100
AcDbEntity
  8
0
  6
Continuous
 62
     7
100
AcDbPolyline
 90
        2
 70
     0
 43
0.2
 10
335.229063
 20
25.97608
 10
335.229063
 20
24.119017
  0
LWPOLYLINE
  5
24C
330
22B
100
AcDbEntity
  8
0
  6
Continuous
 62
     7
100
AcDbPolyline
 90
        2
 70
     0
 43
0.2
 10
335.229063
 20
24.119017
 10
336.024386
 20
24.119017
  0
LWPOLYLINE
  5
24D
330
22B
100
AcDbEntity
  8
0
  6
Continuous
 62
     7
100
AcDbPolyline
 90
        2
 70
     0
 43
0.2
 10
336.024386
 20
24.119017
 10
336.024386
 20
24.330999
  0
LWPOLYLINE
  5
24E
330
22B
100
AcDbEntity
  8
0
  6
Continuous
 62
     7
100
AcDbPolyline
 90
        2
 70
     0
 43
0.2
 10
336.024386
 20
24.330999
 10
335.460411
 20
24.330999
  0
LWPOLYLINE
  5
24F
330
22B
100
AcDbEntity
  8
0
  6
Continuous
 62
     7
100
AcDbPolyline
 90
        2
 70
     0
 43
0.2
 10
335.460411
 20
24.330999
 10
335.460411
 20
25.97608
  0
LWPOLYLINE
  5
250
330
22B
100
AcDbEntity
  8
0
  6
Continuous
 62
     7
100
AcDbPolyline
 90
        2
 70
     0
 43
0.2
 10
337.70349
 20
25.271569
 10
337.482348
 20
25.271569
  0
LWPOLYLINE
  5
251
330
22B
100
AcDbEntity
  8
0
  6
Continuous
 62
     7
100
AcDbPolyline
 90
        2
 70
     0
 43
0.2
 10
337.482348
 20
25.271569
 10
337.482348
 20
24.119541
  0
LWPOLYLINE
  5
252
330
22B
100
AcDbEntity
  8
0
  6
Continuous
 62
     7
100
AcDbPolyline
 90
        2
 70
     0
 43
0.2
 10
337.482348
 20
24.119541
 10
337.70349
 20
24.119541
  0
LWPOLYLINE
  5
253
330
22B
100
AcDbEntity
  8
0
  6
Continuous
 62
     7
100
AcDbPolyline
 90
        2
 70
     0
 43
0.2
 10
337.70349
 20
24.119541
 10
337.70349
 20
25.271569
  0
LWPOLYLINE
  5
254
330
22B
100
AcDbEntity
  8
0
  6
Continuous
 62
     7
100
AcDbPolyline
 90
        2
 70
     1
 43
0.2
 10
337.440466
 20
25.801523
 42
1.0
 10
337.745633
 20
25.801523
 42
1.0
  0
SPLINE
  5
255
330
22B
100
AcDbEntity
  8
0
  6
Continuous
 62
     7
100
AcDbSpline
 70
     3
 71
     3
 72
    17
 73
    13
 74
     0
 42
0.000000001
 43
0.0000001
 40
0.0
 40
0.0
 40
0.0
 40
0.0
 40
1.0
 40
1.0
 40
1.0
 40
2.0
 40
2.0
 40
2.0
 40
3.0
 40
3.0
 40
3.0
 40
4.0
 40
4.0
 40
4.0
 40
4.0
 10
339.8337736612
 20
24.277087349
 30
0.0
 10
339.5998088156
 20
24.277087349
 30
0.0
 10
339.4694794049
 20
24.4791241061
 30
0.0
 10
339.4694794049
 20
24.695292968
 30
0.0
 10
339.4694794049
 20
24.9098915961
 30
0.0
 10
339.6053046341
 20
25.1087878854
 30
0.0
 10
339.8337736612
 20
25.1087878854
 30
0.0
 10
340.0732343254
 20
25.1087878854
 30
0.0
 10
340.208797849
 20
24.9198364105
 30
0.0
 10
340.208797849
 20
24.695292968
 30
0.0
 10
340.208797849
 20
24.4691792917
 30
0.0
 10
340.0755896762
 20
24.277087349
 30
0.0
 10
339.8337736612
 20
24.277087349
 30
0.0
  0
SPLINE
  5
256
330
22B
100
AcDbEntity
  8
0
  6
Continuous
 62
     7
100
AcDbSpline
 70
     3
 71
     3
 72
    50
 73
    46
 74
     0
 42
0.000000001
 43
0.0000001
 40
0.0
 40
0.0
 40
0.0
 40
0.0
 40
1.0
 40
1.0
 40
1.0
 40
2.0
 40
2.0
 40
2.0
 40
3.0
 40
3.0
 40
3.0
 40
4.0
 40
4.0
 40
4.0
 40
5.0
 40
5.0
 40
5.0
 40
6.0
 40
6.0
 40
6.0
 40
7.0
 40
7.0
 40
7.0
 40
8.0
 40
8.0
 40
8.0
 40
9.0
 40
9.0
 40
9.0
 40
10.0
 40
10.0
 40
10.0
 40
11.0
 40
11.0
 40
11.0
 40
12.0
 40
12.0
 40
12.0
 40
13.0
 40
13.0
 40
13.0
 40
14.0
 40
14.0
 40
14.0
 40
15.0
 40
15.0
 40
15.0
 40
15.0
 10
340.4179006585
 20
25.2720922073
 30
0.0
 10
340.4179006585
 20
25.2720922073
 30
0.0
 10
340.1962359781
 20
25.2720922073
 30
0.0
 10
340.1962359781
 20
25.2720922073
 30
0.0
 10
340.1962359781
 20
25.2720922073
 30
0.0
 10
340.1962359781
 20
25.0747661517
 30
0.0
 10
340.1962359781
 20
25.0747661517
 30
0.0
 10
340.1962359781
 20
25.0747661517
 30
0.0
 10
340.1915252765
 20
25.0747661517
 30
0.0
 10
340.1915252765
 20
25.0747661517
 30
0.0
 10
340.1001900068
 20
25.2176574333
 30
0.0
 10
339.9622711324
 20
25.306113941
 30
0.0
 10
339.7895454074
 20
25.306113941
 30
0.0
 10
339.4571792396
 20
25.306113941
 30
0.0
 10
339.2480764301
 20
25.0182377326
 30
0.0
 10
339.2480764301
 20
24.7026207261
 30
0.0
 10
339.2480764301
 20
24.3728716147
 30
0.0
 10
339.44514078
 20
24.0797612935
 30
0.0
 10
339.8000136332
 20
24.0797612935
 30
0.0
 10
339.9622711324
 20
24.0797612935
 30
0.0
 10
340.1022836519
 20
24.1682178011
 30
0.0
 10
340.1915252765
 20
24.2990706231
 30
0.0
 10
340.1915252765
 20
24.2990706231
 30
0.0
 10
340.1962359781
 20
24.2990706231
 30
0.0
 10
340.1962359781
 20
24.2990706231
 30
0.0
 10
340.1962359781
 20
24.2990706231
 30
0.0
 10
340.1962359781
 20
24.0797612935
 30
0.0
 10
340.1962359781
 20
24.0797612935
 30
0.0
 10
340.1962359781
 20
23.8431793914
 30
0.0
 10
340.139707559
 20
23.6563215616
 30
0.0
 10
339.8664868667
 20
23.6563215616
 30
0.0
 10
339.664188404
 20
23.6563215616
 30
0.0
 10
339.521558828
 20
23.7746125127
 30
0.0
 10
339.521558828
 20
23.9808365601
 30
0.0
 10
339.521558828
 20
23.9808365601
 30
0.0
 10
339.2998941476
 20
23.9808365601
 30
0.0
 10
339.2998941476
 20
23.9808365601
 30
0.0
 10
339.3048665549
 20
23.6563215616
 30
0.0
 10
339.5359526385
 20
23.4595189174
 30
0.0
 10
339.8562803466
 20
23.4595189174
 30
0.0
 10
340.304320409
 20
23.4595189174
 30
0.0
 10
340.4179006585
 20
23.7447780693
 30
0.0
 10
340.4179006585
 20
24.1415238255
 30
0.0
 10
340.4179006585
 20
24.1415238255
 30
0.0
 10
340.4179006585
 20
25.2720922073
 30
0.0
 10
340.4179006585
 20
25.2720922073
 30
0.0
  0
SPLINE
  5
257
330
22B
100
AcDbEntity
  8
0
  6
Continuous
 62
     7
100
AcDbSpline
 70
     3
 71
     3
 72
    44
 73
    40
 74
     0
 42
0.000000001
 43
0.0000001
 40
0.0
 40
0.0
 40
0.0
 40
0.0
 40
1.0
 40
1.0
 40
1.0
 40
2.0
 40
2.0
 40
2.0
 40
3.0
 40
3.0
 40
3.0
 40
4.0
 40
4.0
 40
4.0
 40
5.0
 40
5.0
 40
5.0
 40
6.0
 40
6.0
 40
6.0
 40
7.0
 40
7.0
 40
7.0
 40
8.0
 40
8.0
 40
8.0
 40
9.0
 40
9.0
 40
9.0
 40
10.0
 40
10.0
 40
10.0
 40
11.0
 40
11.0
 40
11.0
 40
12.0
 40
12.0
 40
12.0
 40
13.0
 40
13.0
 40
13.0
 40
13.0
 10
341.9868259939
 20
26.257152251
 30
0.0
 10
341.9868259939
 20
26.257152251
 30
0.0
 10
341.9868259939
 20
24.1190171401
 30
0.0
 10
341.9868259939
 20
24.1190171401
 30
0.0
 10
341.9868259939
 20
24.1190171401
 30
0.0
 10
342.2082289687
 20
24.1190171401
 30
0.0
 10
342.2082289687
 20
24.1190171401
 30
0.0
 10
342.2082289687
 20
24.1190171401
 30
0.0
 10
342.2082289687
 20
24.6487093634
 30
0.0
 10
342.2082289687
 20
24.6487093634
 30
0.0
 10
342.2082289687
 20
24.8585972898
 30
0.0
 10
342.2082289687
 20
25.1093112967
 30
0.0
 10
342.4934881206
 20
25.1093112967
 30
0.0
 10
342.7203869139
 20
25.1093112967
 30
0.0
 10
342.7473425952
 20
24.9763648296
 30
0.0
 10
342.7473425952
 20
24.7800855967
 30
0.0
 10
342.7473425952
 20
24.7800855967
 30
0.0
 10
342.7473425952
 20
24.1190171401
 30
0.0
 10
342.7473425952
 20
24.1190171401
 30
0.0
 10
342.7473425952
 20
24.1190171401
 30
0.0
 10
342.9692689812
 20
24.1190171401
 30
0.0
 10
342.9692689812
 20
24.1190171401
 30
0.0
 10
342.9692689812
 20
24.1190171401
 30
0.0
 10
342.9692689812
 20
24.8062561611
 30
0.0
 10
342.9692689812
 20
24.8062561611
 30
0.0
 10
342.9692689812
 20
25.0868046114
 30
0.0
 10
342.8852614695
 20
25.3066373523
 30
0.0
 10
342.5602230598
 20
25.3066373523
 30
0.0
 10
342.4204722459
 20
25.3066373523
 30
0.0
 10
342.2822916659
 20
25.2401641187
 30
0.0
 10
342.2129396703
 20
25.1171624661
 30
0.0
 10
342.2129396703
 20
25.1171624661
 30
0.0
 10
342.2082289687
 20
25.1171624661
 30
0.0
 10
342.2082289687
 20
25.1171624661
 30
0.0
 10
342.2082289687
 20
25.1171624661
 30
0.0
 10
342.2082289687
 20
26.257152251
 30
0.0
 10
342.2082289687
 20
26.257152251
 30
0.0
 10
342.2082289687
 20
26.257152251
 30
0.0
 10
341.9868259939
 20
26.257152251
 30
0.0
 10
341.9868259939
 20
26.257152251
 30
0.0
  0
LWPOLYLINE
  5
258
330
22B
100
AcDbEntity
  8
0
  6
Continuous
 62
     7
100
AcDbPolyline
 90
        2
 70
     0
 43
0.2
 10
344.80906
 20
25.064821
 10
345.02549
 20
25.064821
  0
LWPOLYLINE
  5
259
330
22B
100
AcDbEntity
  8
0
  6
Continuous
 62
     7
100
AcDbPolyline
 90
        2
 70
     0
 43
0.2
 10
345.02549
 20
25.064821
 10
345.02549
 20
25.271569
  0
LWPOLYLINE
  5
25A
330
22B
100
AcDbEntity
  8
0
  6
Continuous
 62
     7
100
AcDbPolyline
 90
        2
 70
     0
 43
0.2
 10
345.02549
 20
25.271569
 10
344.80906
 20
25.271569
  0
LWPOLYLINE
  5
25B
330
22B
100
AcDbEntity
  8
0
  6
Continuous
 62
     7
100
AcDbPolyline
 90
        2
 70
     0
 43
0.2
 10
344.80906
 20
25.271569
 10
344.80906
 20
25.712281
  0
LWPOLYLINE
  5
25C
330
22B
100
AcDbEntity
  8
0
  6
Continuous
 62
     7
100
AcDbPolyline
 90
        2
 70
     0
 43
0.2
 10
344.80906
 20
25.712281
 10
344.587395
 20
25.712281
  0
LWPOLYLINE
  5
25D
330
22B
100
AcDbEntity
  8
0
  6
Continuous
 62
     7
100
AcDbPolyline
 90
        2
 70
     0
 43
0.2
 10
344.587395
 20
25.712281
 10
344.587395
 20
25.271569
  0
LWPOLYLINE
  5
25E
330
22B
100
AcDbEntity
  8
0
  6
Continuous
 62
     7
100
AcDbPolyline
 90
        2
 70
     0
 43
0.2
 10
344.587395
 20
25.271569
 10
344.466749
 20
25.271569
  0
LWPOLYLINE
  5
25F
330
22B
100
AcDbEntity
  8
0
  6
Continuous
 62
     7
100
AcDbPolyline
 90
        2
 70
     0
 43
0.2
 10
344.466749
 20
25.271569
 10
344.466749
 20
25.064821
  0
LWPOLYLINE
  5
260
330
22B
100
AcDbEntity
  8
0
  6
Continuous
 62
     7
100
AcDbPolyline
 90
        2
 70
     0
 43
0.2
 10
344.466749
 20
25.064821
 10
344.587395
 20
25.064821
  0
LWPOLYLINE
  5
261
330
22B
100
AcDbEntity
  8
0
  6
Continuous
 62
     7
100
AcDbPolyline
 90
        2
 70
     0
 43
0.2
 10
344.587395
 20
25.064821
 10
344.587395
 20
24.119017
  0
LWPOLYLINE
  5
262
330
22B
100
AcDbEntity
  8
0
  6
Continuous
 62
     7
100
AcDbPolyline
 90
        2
 70
     0
 43
0.2
 10
344.587395
 20
24.119017
 10
344.80906
 20
24.119017
  0
LWPOLYLINE
  5
263
330
22B
100
AcDbEntity
  8
0
  6
Continuous
 62
     7
100
AcDbPolyline
 90
        2
 70
     0
 43
0.2
 10
344.80906
 20
24.119017
 10
344.80906
 20
25.064821
  0
SPLINE
  5
264
330
22B
100
AcDbEntity
  8
0
  6
Continuous
 62
     7
100
AcDbSpline
 70
     3
 71
     3
 72
    20
 73
    16
 74
     0
 42
0.000000001
 43
0.0000001
 40
0.0
 40
0.0
 40
0.0
 40
0.0
 40
1.0
 40
1.0
 40
1.0
 40
2.0
 40
2.0
 40
2.0
 40
3.0
 40
3.0
 40
3.0
 40
4.0
 40
4.0
 40
4.0
 40
5.0
 40
5.0
 40
5.0
 40
5.0
 10
332.5910699653
 20
34.4799435835
 30
0.0
 10
332.5910699653
 20
34.4799435835
 30
0.0
 10
334.9074266198
 20
31.6503821612
 30
0.0
 10
334.9074266198
 20
31.6503821612
 30
0.0
 10
334.2557795664
 20
30.9982116966
 30
0.0
 10
333.4789063624
 20
30.2622954258
 30
0.0
 10
332.5077167178
 20
30.2622954258
 30
0.0
 10
331.5091788333
 20
30.2622954258
 30
0.0
 10
330.5658608398
 20
31.1918738731
 30
0.0
 10
330.5658608398
 20
32.1910660216
 30
0.0
 10
330.5658608398
 20
33.1902581702
 30
0.0
 10
331.7447139129
 20
33.8968634088
 30
0.0
 10
332.4662363732
 20
34.3967211887
 30
0.0
 10
332.4662363732
 20
34.3967211887
 30
0.0
 10
332.5910699653
 20
34.4799435835
 30
0.0
 10
332.5910699653
 20
34.4799435835
 30
0.0
  0
SPLINE
  5
265
330
22B
100
AcDbEntity
  8
0
  6
Continuous
 62
     7
100
AcDbSpline
 70
     3
 71
     3
 72
    23
 73
    19
 74
     0
 42
0.000000001
 43
0.0000001
 40
0.0
 40
0.0
 40
0.0
 40
0.0
 40
1.0
 40
1.0
 40
1.0
 40
2.0
 40
2.0
 40
2.0
 40
3.0
 40
3.0
 40
3.0
 40
4.0
 40
4.0
 40
4.0
 40
5.0
 40
5.0
 40
5.0
 40
6.0
 40
6.0
 40
6.0
 40
6.0
 10
332.8684779479
 20
36.1176975032
 30
0.0
 10
332.8684779479
 20
36.1176975032
 30
0.0
 10
332.5219796753
 20
36.561026864
 30
0.0
 10
332.5219796753
 20
36.561026864
 30
0.0
 10
332.2161766304
 20
36.949136334
 30
0.0
 10
331.8972883033
 20
37.3376383624
 30
0.0
 10
331.8972883033
 20
37.8645826765
 30
0.0
 10
331.8972883033
 20
38.5307543931
 30
0.0
 10
332.4386264278
 20
38.9744763124
 30
0.0
 10
333.0625326829
 20
38.9744763124
 30
0.0
 10
333.756314345
 20
38.9744763124
 30
0.0
 10
334.2835203647
 20
38.5722347377
 30
0.0
 10
334.2835203647
 20
37.8372344367
 30
0.0
 10
334.2835203647
 20
37.0739699262
 30
0.0
 10
333.56225961
 20
36.6438567003
 30
0.0
 10
333.0351844431
 20
36.228137285
 30
0.0
 10
333.0351844431
 20
36.228137285
 30
0.0
 10
332.8684779479
 20
36.1176975032
 30
0.0
 10
332.8684779479
 20
36.1176975032
 30
0.0
  0
SPLINE
  5
266
330
22B
100
AcDbEntity
  8
0
  6
Continuous
 62
     7
100
AcDbSpline
 70
     3
 71
     3
 72
    50
 73
    46
 74
     0
 42
0.000000001
 43
0.0000001
 40
0.0
 40
0.0
 40
0.0
 40
0.0
 40
1.0
 40
1.0
 40
1.0
 40
2.0
 40
2.0
 40
2.0
 40
3.0
 40
3.0
 40
3.0
 40
4.0
 40
4.0
 40
4.0
 40
5.0
 40
5.0
 40
5.0
 40
6.0
 40
6.0
 40
6.0
 40
7.0
 40
7.0
 40
7.0
 40
8.0
 40
8.0
 40
8.0
 40
9.0
 40
9.0
 40
9.0
 40
10.0
 40
10.0
 40
10.0
 40
11.0
 40
11.0
 40
11.0
 40
12.0
 40
12.0
 40
12.0
 40
13.0
 40
13.0
 40
13.0
 40
14.0
 40
14.0
 40
14.0
 40
15.0
 40
15.0
 40
15.0
 40
15.0
 10
336.8220651108
 20
29.3191082851
 30
0.0
 10
336.8220651108
 20
29.3191082851
 30
0.0
 10
338.4312931154
 20
29.3191082851
 30
0.0
 10
338.4312931154
 20
29.3191082851
 30
0.0
 10
338.4312931154
 20
29.3191082851
 30
0.0
 10
336.5582658218
 20
31.6362500565
 30
0.0
 10
336.5582658218
 20
31.6362500565
 30
0.0
 10
336.5582658218
 20
31.6362500565
 30
0.0
 10
337.8346042472
 20
33.1337297511
 30
0.0
 10
337.8346042472
 20
33.1337297511
 30
0.0
 10
337.8346042472
 20
33.1337297511
 30
0.0
 10
337.0023802995
 20
33.9947413196
 30
0.0
 10
337.0023802995
 20
33.9947413196
 30
0.0
 10
337.0023802995
 20
33.9947413196
 30
0.0
 10
335.7817851762
 20
32.5794371972
 30
0.0
 10
335.7817851762
 20
32.5794371972
 30
0.0
 10
335.7817851762
 20
32.5794371972
 30
0.0
 10
333.6038708074
 20
35.2148130316
 30
0.0
 10
333.6038708074
 20
35.2148130316
 30
0.0
 10
334.4774442468
 20
35.8528513916
 30
0.0
 10
335.504115488
 20
36.6438567003
 30
0.0
 10
335.504115488
 20
37.8227097735
 30
0.0
 10
335.504115488
 20
39.1964026985
 30
0.0
 10
334.3662193482
 20
40.0008858479
 30
0.0
 10
333.0909277453
 20
40.0008858479
 30
0.0
 10
331.7174965259
 20
40.0008858479
 30
0.0
 10
330.6765623271
 20
39.1546606483
 30
0.0
 10
330.6765623271
 20
37.7120082861
 30
0.0
 10
330.6765623271
 20
36.8244335947
 30
0.0
 10
331.2319017036
 20
36.0475603906
 30
0.0
 10
331.8280671605
 20
35.4231307242
 30
0.0
 10
331.8280671605
 20
35.4231307242
 30
0.0
 10
331.1761584014
 20
34.9515371538
 30
0.0
 10
331.1761584014
 20
34.9515371538
 30
0.0
 10
330.177620517
 20
34.2302763992
 30
0.0
 10
329.3447423052
 20
33.5090156445
 30
0.0
 10
329.3447423052
 20
32.1774573281
 30
0.0
 10
329.3447423052
 20
30.3737820301
 30
0.0
 10
330.8017884778
 20
29.097181899
 30
0.0
 10
332.5493279151
 20
29.097181899
 30
0.0
 10
333.784185996
 20
29.097181899
 30
0.0
 10
334.8935562207
 20
29.8053573715
 30
0.0
 10
335.6844306767
 20
30.7338889962
 30
0.0
 10
335.6844306767
 20
30.7338889962
 30
0.0
 10
336.8220651108
 20
29.3191082851
 30
0.0
 10
336.8220651108
 20
29.3191082851
 30
0.0
  0
LINE
  5
267
330
22B
100
AcDbEntity
  8
0
  6
Continuous
 62
     7
100
AcDbLine
 10
322.624926
 20
27.292983
 30
0.0
 11
345.038837
 21
27.292983
 31
0.0
  0
LINE
  5
268
330
22B
100
AcDbEntity
  8
0
  6
Continuous
 62
     7
100
AcDbLine
 10
345.038837
 20
27.292983
 30
0.0
 11
345.038837
 21
49.706894
 31
0.0
  0
LINE
  5
269
330
22B
100
AcDbEntity
  8
0
  6
Continuous
 62
     7
100
AcDbLine
 10
345.038837
 20
49.706894
 30
0.0
 11
322.624926
 21
49.706894
 31
0.0
  0
LINE
  5
26A
330
22B
100
AcDbEntity
  8
0
  6
Continuous
 62
     7
100
AcDbLine
 10
322.624926
 20
49.706894
 30
0.0
 11
322.624926
 21
27.292983
 31
0.0
  0
ENDBLK
  5
26B
330
22B
100
AcDbEntity
  8
0
  6
ByBlock
 62
     0
100
AcDbBlockEnd
  0
BLOCK
  5
295
330
22C
100
AcDbEntity
  8
0
100
AcDbBlockBegin
  2
*T6
 70
     1
 10
0.0
 20
0.0
 30
0.0
  3
*T6
  1
*T6
  0
LINE
  5
296
330
22C
100
AcDbEntity
  8
0
  6
Continuous
 62
     2
100
AcDbLine
 10
0.0
 20
0.0
 30
0.0
 11
90.0
 21
0.0
 31
0.0
  0
LINE
  5
297
330
22C
100
AcDbEntity
  8
0
  6
Continuous
 62
     2
100
AcDbLine
 10
0.0
 20
0.0
 30
0.0
 11
0.0
 21
-40.0
 31
0.0
  0
LINE
  5
298
330
22C
100
AcDbEntity
  8
0
  6
Continuous
 62
     2
100
AcDbLine
 10
30.0
 20
-6.0
 30
0.0
 11
90.0
 21
-6.0
 31
0.0
  0
LINE
  5
299
330
22C
100
AcDbEntity
  8
0
  6
Continuous
 62
     2
100
AcDbLine
 10
30.0
 20
-12.0
 30
0.0
 11
90.0
 21
-12.0
 31
0.0
  0
LINE
  5
29A
330
22C
100
AcDbEntity
  8
0
  6
Continuous
 62
     2
100
AcDbLine
 10
30.0
 20
-22.0
 30
0.0
 11
90.0
 21
-22.0
 31
0.0
  0
LINE
  5
29B
330
22C
100
AcDbEntity
  8
0
  6
Continuous
 62
     2
100
AcDbLine
 10
0.0
 20
-27.0
 30
0.0
 11
90.0
 21
-27.0
 31
0.0
  0
LINE
  5
29C
330
22C
100
AcDbEntity
  8
0
  6
Continuous
 62
     2
100
AcDbLine
 10
0.0
 20
-40.0
 30
0.0
 11
90.0
 21
-40.0
 31
0.0
  0
LINE
  5
29D
330
22C
100
AcDbEntity
  8
0
  6
Continuous
 62
     2
100
AcDbLine
 10
30.0
 20
0.0
 30
0.0
 11
30.0
 21
-27.0
 31
0.0
  0
LINE
  5
29E
330
22C
100
AcDbEntity
  8
0
  6
Continuous
 62
     2
100
AcDbLine
 10
70.0
 20
0.0
 30
0.0
 11
70.0
 21
-12.0
 31
0.0
  0
LINE
  5
29F
330
22C
100
AcDbEntity
  8
0
  6
Continuous
 62
     2
100
AcDbLine
 10
90.0
 20
0.0
 30
0.0
 11
90.0
 21
-40.0
 31
0.0
  0
MTEXT
  5
2A0
330
22C
100
AcDbEntity
  8
9_SOLID
  6
Continuous
 62
     2
100
AcDbMText
 10
31.4875
 20
-1.5
 30
0.0
 40
3.0
 41
48.914498
 46
0.0
 71
     1
 72
     1
  1
A101_C_401
 73
     1
 44
0.9
  0
MTEXT
  5
2A1
330
22C
100
AcDbEntity
  8
9_SOLID
  6
Continuous
 62
     2
100
AcDbMText
 10
71.4875
 20
-1.25
 30
0.0
 40
3.5
 41
30.966543
 46
0.0
 71
     1
 72
     1
  1
Rev:00
 73
     1
 44
0.9
  0
MTEXT
  5
2A2
330
22C
100
AcDbEntity
  8
9_SOLID
  6
Continuous
 62
     2
100
AcDbMText
 10
31.4875
 20
-7.75
 30
0.0
 40
3.5
 41
40.724907
 46
0.0
 71
     1
 72
     1
  1
Scale:1:1
 73
     1
 44
0.9
  0
MTEXT
  5
2A3
330
22C
100
AcDbEntity
  8
9_SOLID
  6
Continuous
 62
     2
100
AcDbMText
 10
71.4875
 20
-7.25
 30
0.0
 40
3.5
 41
11.944238
 46
0.0
 71
     1
 72
     1
  1
A3
 73
     1
 44
0.9
  0
MTEXT
  5
2A4
330
22C
100
AcDbEntity
  8
9_SOLID
  6
Continuous
 62
     2
100
AcDbMText
 10
31.4875
 20
-15.25
 30
0.0
 40
3.5
 41
76.479554
 46
0.0
 71
     1
 72
     1
  1
INTONO C IN 2.3
 73
     1
 44
0.9
  0
MTEXT
  5
2A5
330
22C
100
AcDbEntity
  8
9_SOLID
  6
Continuous
 62
     2
100
AcDbMText
 10
31.4875
 20
-23.25
 30
0.0
 40
2.5
 41
47.695167
 46
0.0
 71
     1
 72
     1
  1
DATE:12.04.21
 73
     1
 44
0.9
  0
MTEXT
  5
2A6
330
22C
100
AcDbEntity
  8
9_SOLID
  6
Continuous
 62
     2
100
AcDbMText
 10
1.4875
 20
-27.3125
 30
0.0
 40
2.25
 41
148.98513
 46
0.0
 71
     1
 72
     1
  1
Any integral or partial reproductions are prohibited \Pwithout prior authorisation of L & L Luce & Light s.r.l., \Pin accordance with the law in force. \PAll rights reserved.
 73
     1
 44
0.9
  0
ENDBLK
  5
2A7
330
22C
100
AcDbEntity
  8
0
  6
ByBlock
 62
     0
100
AcDbBlockEnd
  0
ENDSEC
  0
SECTION
  2
ENTITIES
  0
LINE
  5
2A8
330
224
100
AcDbEntity
  8
0
  6
Continuous
 62
     7
100
AcDbLine
 10
0.0
 20
0.0
 30
0.0
 11
420.0
 21
0.0
 31
0.0
  0
LINE
  5
2A9
330
224
100
AcDbEntity
  8
0
  6
Continuous
 62
     7
100
AcDbLine
 10
420.0
 20
0.0
 30
0.0
 11
420.0
 21
297.0
 31
0.0
  0
LINE
  5
2AA
330
224
100
AcDbEntity
  8
0
  6
Continuous
 62
     7
100
AcDbLine
 10
0.0
 20
297.0
 30
0.0
 11
420.0
 21
297.0
 31
0.0
  0
LINE
  5
2AB
330
224
100
AcDbEntity
  8
0
  6
Continuous
 62
     7
100
AcDbLine
 10
0.0
 20
0.0
 30
0.0
 11
0.0
 21
297.0
 31
0.0
  0
LWPOLYLINE
  5
2AC
330
224
100
AcDbEntity
  8
0
  6
Continuous
 62
     7
100
AcDbPolyline
 90
        2
 70
     0
 43
0.5
 10
410.0
 20
10.031844
 10
410.0
 20
287.0
  0
LWPOLYLINE
  5
2AD
330
224
100
AcDbEntity
  8
0
  6
Continuous
 62
     7
100
AcDbPolyline
 90
        2
 70
     0
 43
0.5
 10
10.053631
 20
10.031844
 10
10.053631
 20
287.0
  0
LWPOLYLINE
  5
2AE
330
224
100
AcDbEntity
  8
0
  6
Continuous
 62
     7
100
AcDbPolyline
 90
        2
 70
     0
 43
0.5
 10
10.053631
 20
10.031844
 10
410.0
 20
10.031844
  0
LWPOLYLINE
  5
2AF
330
224
100
AcDbEntity
  8
0
  6
Continuous
 62
     7
100
AcDbPolyline
 90
        2
 70
     0
 43
0.1
 10
210.0
 20
10.0
 10
210.0
 20
0.0
  0
LWPOLYLINE
  5
2B0
330
224
100
AcDbEntity
  8
0
  6
Continuous
 62
     7
100
AcDbPolyline
 90
        2
 70
     0
 43
0.1
 10
210.0
 20
287.0
 10
210.0
 20
297.0
  0
LWPOLYLINE
  5
2B1
330
224
100
AcDbEntity
  8
0
  6
Continuous
 62
     7
100
AcDbPolyline
 90
        2
 70
     0
 43
0.1
 10
410.0
 20
148.5
 10
420.0
 20
148.5
  0
LWPOLYLINE
  5
2B2
330
224
100
AcDbEntity
  8
0
  6
Continuous
 62
     7
100
AcDbPolyline
 90
        2
 70
     0
 43
0.1
 10
10.0
 20
148.5
 10
0.0
 20
148.5
  0
LWPOLYLINE
  5
2B3
330
224
100
AcDbEntity
  8
0
  6
Continuous
 62
     7
100
AcDbPolyline
 90
        2
 70
     0
 43
0.5
 10
10.053631
 20
287.0
 10
410.0
 20
287.0
  0
LWPOLYLINE
  5
2B4
330
224
100
AcDbEntity
  8
0
  6
Continuous
 62
     7
100
AcDbPolyline
 90
        2
 70
     0
 43
0.1
 10
0.0
 20
290.0
 10
420.0
 20
290.0
  0
LWPOLYLINE
  5
2B5
330
224
100
AcDbEntity
  8
0
  6
Continuous
 62
     7
100
AcDbPolyline
 90
        2
 70
     0
 43
0.1
 10
7.053631
 20
0.0
 10
7.053631
 20
297.0
  0
LWPOLYLINE
  5
2B6
330
224
100
AcDbEntity
  8
0
  6
Continuous
 62
     7
100
AcDbPolyline
 90
        2
 70
     0
 43
0.1
 10
413.0
 20
0.0
 10
413.0
 20
297.0
  0
LWPOLYLINE
  5
2B7
330
224
100
AcDbEntity
  8
0
  6
Continuous
 62
     7
100
AcDbPolyline
 90
        2
 70
     0
 43
0.1
 10
0.0
 20
7.031844
 10
420.0
 20
7.031844
  0
LWPOLYLINE
  5
2B8
330
224
100
AcDbEntity
  8
0
  6
Continuous
 62
     7
100
AcDbPolyline
 90
        2
 70
     0
 43
0.1
 10
10.0
 20
202.968156
 10
0.0
 20
202.968156
  0
LINE
  5
2B9
330
224
100
AcDbEntity
  8
0
  6
Continuous
 62
     7
100
AcDbLine
 10
0.0
 20
99.968156
 30
0.0
 11
7.0
 21
99.968156
 31
0.0
  0
LINE
  5
2BA
330
224
100
AcDbEntity
  8
0
  6
Continuous
 62
     7
100
AcDbLine
 10
0.0
 20
199.968156
 30
0.0
 11
7.0
 21
199.968156
 31
0.0
  0
LWPOLYLINE
  5
2BB
330
224
100
AcDbEntity
  8
0
  6
Continuous
 62
     7
100
AcDbPolyline
 90
        2
 70
     0
 43
0.1
 10
410.0
 20
210.0
 10
420.0
 20
210.0
  0
LINE
  5
2BC
330
224
100
AcDbEntity
  8
0
  6
Continuous
 62
     7
100
AcDbLine
 10
413.0
 20
107.0
 30
0.0
 11
420.0
 21
107.0
 31
0.0
  0
LWPOLYLINE
  5
2BD
330
224
100
AcDbEntity
  8
0
  6
Continuous
 62
     7
100
AcDbPolyline
 90
        2
 70
     0
 43
0.1
 10
123.0
 20
10.0
 10
123.0
 20
0.0
  0
LINE
  5
2BE
330
224
100
AcDbEntity
  8
0
  6
Continuous
 62
     7
100
AcDbLine
 10
210.0
 20
0.0
 30
0.0
 11
210.0
 21
10.0
 31
0.0
  0
LINE
  5
2BF
330
224
100
AcDbEntity
  8
0
  6
Continuous
 62
     7
100
AcDbLine
 10
313.0
 20
7.0
 30
0.0
 11
313.0
 21
0.0
 31
0.0
  0
LINE
  5
2C0
330
224
100
AcDbEntity
  8
0
  6
Continuous
 62
     7
100
AcDbLine
 10
113.0
 20
7.0
 30
0.0
 11
113.0
 21
0.0
 31
0.0
  0
LWPOLYLINE
  5
2C1
330
224
100
AcDbEntity
  8
0
  6
Continuous
 62
     7
100
AcDbPolyline
 90
        2
 70
     0
 43
0.1
 10
123.0
 20
287.0
 10
123.0
 20
297.0
  0
LINE
  5
2C2
330
224
100
AcDbEntity
  8
0
  6
Continuous
 62
     7
100
AcDbLine
 10
210.0
 20
287.0
 30
0.0
 11
210.0
 21
297.0
 31
0.0
  0
LINE
  5
2C3
330
224
100
AcDbEntity
  8
0
  6
Continuous
 62
     7
100
AcDbLine
 10
313.0
 20
297.0
 30
0.0
 11
313.0
 21
290.0
 31
0.0
  0
LINE
  5
2C4
330
224
100
AcDbEntity
  8
0
  6
Continuous
 62
     7
100
AcDbLine
 10
113.0
 20
297.0
 30
0.0
 11
113.0
 21
290.0
 31
0.0
  0
MTEXT
  5
2C5
330
224
100
AcDbEntity
  8
0
  6
Continuous
 62
     2
100
AcDbMText
 10
1.646722
 20
53.595027
 30
0.0
 40
4.0
 41
3.428571
 46
0.0
 71
     1
 72
     1
  1
1
  7
TEXTSTYLE_2
 73
     1
 44
0.9
  0
MTEXT
  5
2C6
330
224
100
AcDbEntity
  8
0
  6
Continuous
 62
     2
100
AcDbMText
 10
1.646722
 20
153.595027
 30
0.0
 40
4.0
 41
4.714286
 46
0.0
 71
     1
 72
     1
  1
2
  7
TEXTSTYLE_2
 73
     1
 44
0.9
  0
MTEXT
  5
2C7
330
224
100
AcDbEntity
  8
0
  6
Continuous
 62
     2
100
AcDbMText
 10
1.646722
 20
253.595027
 30
0.0
 40
4.0
 41
4.285714
 46
0.0
 71
     1
 72
     1
  1
3
  7
TEXTSTYLE_2
 73
     1
 44
0.9
  0
MTEXT
  5
2C8
330
224
100
AcDbEntity
  8
0
  6
Continuous
 62
     2
100
AcDbMText
 10
414.646722
 20
60.626871
 30
0.0
 40
4.0
 41
3.428571
 46
0.0
 71
     1
 72
     1
  1
1
  7
TEXTSTYLE_2
 73
     1
 44
0.9
  0
MTEXT
  5
2C9
330
224
100
AcDbEntity
  8
0
  6
Continuous
 62
     2
100
AcDbMText
 10
414.646722
 20
160.626871
 30
0.0
 40
4.0
 41
4.714286
 46
0.0
 71
     1
 72
     1
  1
2
  7
TEXTSTYLE_2
 73
     1
 44
0.9
  0
MTEXT
  5
2CA
330
224
100
AcDbEntity
  8
0
  6
Continuous
 62
     2
100
AcDbMText
 10
414.646722
 20
260.626871
 30
0.0
 40
4.0
 41
4.285714
 46
0.0
 71
     1
 72
     1
  1
3
  7
TEXTSTYLE_2
 73
     1
 44
0.9
  0
MTEXT
  5
2CB
330
224
100
AcDbEntity
  8
0
  6
Continuous
 62
     2
100
AcDbMText
 10
362.154891
 20
5.35876
 30
0.0
 40
4.0
 41
3.6
 46
0.0
 71
     1
 72
     1
  1
A
  7
TEXTSTYLE_3
 73
     1
 44
0.9
  0
MTEXT
  5
2CC
330
224
100
AcDbEntity
  8
0
  6
Continuous
 62
     2
100
AcDbMText
 10
262.154891
 20
5.35876
 30
0.0
 40
4.0
 41
3.6
 46
0.0
 71
     1
 72
     1
  1
B
  7
TEXTSTYLE_3
 73
     1
 44
0.9
  0
MTEXT
  5
2CD
330
224
100
AcDbEntity
  8
0
  6
Continuous
 62
     2
100
AcDbMText
 10
162.154891
 20
5.35876
 30
0.0
 40
4.0
 41
3.6
 46
0.0
 71
     1
 72
     1
  1
C
  7
TEXTSTYLE_3
 73
     1
 44
0.9
  0
MTEXT
  5
2CE
330
224
100
AcDbEntity
  8
0
  6
Continuous
 62
     2
100
AcDbMText
 10
55.797869
 20
5.535344
 30
0.0
 40
4.0
 41
3.6
 46
0.0
 71
     1
 72
     1
  1
D
  7
TEXTSTYLE_3
 73
     1
 44
0.9
  0
MTEXT
  5
2CF
330
224
100
AcDbEntity
  8
0
  6
Continuous
 62
     2
100
AcDbMText
 10
362.154891
 20
295.35876
 30
0.0
 40
4.0
 41
3.6
 46
0.0
 71
     1
 72
     1
  1
A
  7
TEXTSTYLE_3
 73
     1
 44
0.9
  0
MTEXT
  5
2D0
330
224
100
AcDbEntity
  8
0
  6
Continuous
 62
     2
100
AcDbMText
 10
262.154891
 20
295.35876
 30
0.0
 40
4.0
 41
3.6
 46
0.0
 71
     1
 72
     1
  1
B
  7
TEXTSTYLE_3
 73
     1
 44
0.9
  0
MTEXT
  5
2D1
330
224
100
AcDbEntity
  8
0
  6
Continuous
 62
     2
100
AcDbMText
 10
162.154891
 20
295.35876
 30
0.0
 40
4.0
 41
3.6
 46
0.0
 71
     1
 72
     1
  1
C
  7
TEXTSTYLE_3
 73
     1
 44
0.9
  0
MTEXT
  5
2D2
330
224
100
AcDbEntity
  8
0
  6
Continuous
 62
     2
100
AcDbMText
 10
53.987883
 20
295.57949
 30
0.0
 40
4.0
 41
3.6
 46
0.0
 71
     1
 72
     1
  1
D
  7
TEXTSTYLE_3
 73
     1
 44
0.9
  0
LINE
  5
2D3
330
224
100
AcDbEntity
  8
7_ALL_FEATURES
  6
Continuous
 62
     7
100
AcDbLine
 10
161.776462
 20
152.86166
 30
0.0
 11
161.776462
 21
153.36166
 31
0.0
  0
LINE
  5
2D4
330
224
100
AcDbEntity
  8
7_ALL_FEATURES
  6
Continuous
 62
     7
100
AcDbLine
 10
67.343744
 20
152.86166
 30
0.0
 11
67.343744
 21
153.36166
 31
0.0
  0
LINE
  5
2D5
330
224
100
AcDbEntity
  8
7_ALL_FEATURES
  6
Continuous
 62
     9
100
AcDbLine
 10
127.060103
 20
153.36166
 30
0.0
 11
127.060103
 21
152.86166
 31
0.0
  0
LINE
  5
2D6
330
224
100
AcDbEntity
  8
7_ALL_FEATURES
  6
Continuous
 62
     9
100
AcDbLine
 10
67.662392
 20
152.86166
 30
0.0
 11
67.662392
 21
153.36166
 31
0.0
  0
LINE
  5
2D7
330
224
100
AcDbEntity
  8
7_ALL_FEATURES
  6
Continuous
 62
     9
100
AcDbLine
 10
102.060103
 20
153.36166
 30
0.0
 11
102.060103
 21
152.86166
 31
0.0
  0
LINE
  5
2D8
330
224
100
AcDbEntity
  8
7_ALL_FEATURES
  6
Continuous
 62
     9
100
AcDbLine
 10
161.457814
 20
152.86166
 30
0.0
 11
161.457814
 21
153.36166
 31
0.0
  0
LINE
  5
2D9
330
224
100
AcDbEntity
  8
7_ALL_FEATURES
  6
Continuous
 62
     7
100
AcDbLine
 10
126.469445
 20
152.86166
 30
0.0
 11
126.944445
 21
152.86166
 31
0.0
  0
LINE
  5
2DA
330
224
100
AcDbEntity
  8
7_ALL_FEATURES
  6
Continuous
 62
     7
100
AcDbLine
 10
126.944445
 20
152.86166
 30
0.0
 11
164.791418
 21
152.86166
 31
0.0
  0
LINE
  5
2DB
330
224
100
AcDbEntity
  8
7_ALL_FEATURES
  6
Continuous
 62
     7
100
AcDbLine
 10
164.791418
 20
152.86166
 30
0.0
 11
164.802539
 21
152.86166
 31
0.0
  0
LINE
  5
2DC
330
224
100
AcDbEntity
  8
7_ALL_FEATURES
  6
Continuous
 62
     7
100
AcDbLine
 10
164.802539
 20
152.86166
 30
0.0
 11
165.741418
 21
152.86166
 31
0.0
  0
LINE
  5
2DD
330
224
100
AcDbEntity
  8
7_ALL_FEATURES
  6
Continuous
 62
     7
100
AcDbLine
 10
102.650761
 20
152.86166
 30
0.0
 11
126.469445
 21
152.86166
 31
0.0
  0
LINE
  5
2DE
330
224
100
AcDbEntity
  8
7_ALL_FEATURES
  6
Continuous
 62
     7
100
AcDbLine
 10
127.428615
 20
70.86166
 30
0.0
 11
101.691592
 21
70.86166
 31
0.0
  0
LINE
  5
2DF
330
224
100
AcDbEntity
  8
7_ALL_FEATURES
  6
Continuous
 62
     7
100
AcDbLine
 10
165.741418
 20
152.86166
 30
0.0
 11
165.987055
 21
152.611698
 31
0.0
  0
LINE
  5
2E0
330
224
100
AcDbEntity
  8
7_ALL_FEATURES
  6
Continuous
 62
     7
100
AcDbLine
 10
63.378788
 20
152.86166
 30
0.0
 11
64.317669
 21
152.86166
 31
0.0
  0
LINE
  5
2E1
330
224
100
AcDbEntity
  8
7_ALL_FEATURES
  6
Continuous
 62
     7
100
AcDbLine
 10
64.317669
 20
152.86166
 30
0.0
 11
64.328788
 21
152.86166
 31
0.0
  0
LINE
  5
2E2
330
224
100
AcDbEntity
  8
7_ALL_FEATURES
  6
Continuous
 62
     7
100
AcDbLine
 10
64.328788
 20
152.86166
 30
0.0
 11
102.175761
 21
152.86166
 31
0.0
  0
LINE
  5
2E3
330
224
100
AcDbEntity
  8
7_ALL_FEATURES
  6
Continuous
 62
     7
100
AcDbLine
 10
102.175761
 20
152.86166
 30
0.0
 11
102.650761
 21
152.86166
 31
0.0
  0
LINE
  5
2E4
330
224
100
AcDbEntity
  8
7_ALL_FEATURES
  6
Continuous
 62
     7
100
AcDbLine
 10
63.378788
 20
152.86166
 30
0.0
 11
63.133151
 21
152.611698
 31
0.0
  0
ARC
  5
2E5
330
224
100
AcDbEntity
  8
7_ALL_FEATURES
  6
Continuous
 62
     7
100
AcDbCircle
 10
65.297126
 20
71.61166
 30
0.0
 40
0.75
100
AcDbArc
 50
181.0
 51
270.0
  0
LINE
  5
2E6
330
224
100
AcDbEntity
  8
7_ALL_FEATURES
  6
Continuous
 62
     7
100
AcDbLine
 10
65.370086
 20
70.86166
 30
0.0
 11
65.297126
 21
70.86166
 31
0.0
  0
LINE
  5
2E7
330
224
100
AcDbEntity
  8
7_ALL_FEATURES
  6
Continuous
 62
     7
100
AcDbLine
 10
101.691592
 20
70.86166
 30
0.0
 11
66.991626
 21
70.86166
 31
0.0
  0
LINE
  5
2E8
330
224
100
AcDbEntity
  8
7_ALL_FEATURES
  6
Continuous
 62
     7
100
AcDbLine
 10
66.991626
 20
70.86166
 30
0.0
 11
66.967591
 21
70.86166
 31
0.0
  0
LINE
  5
2E9
330
224
100
AcDbEntity
  8
7_ALL_FEATURES
  6
Continuous
 62
     7
100
AcDbLine
 10
66.967591
 20
70.86166
 30
0.0
 11
65.611409
 21
70.86166
 31
0.0
  0
LINE
  5
2EA
330
224
100
AcDbEntity
  8
7_ALL_FEATURES
  6
Continuous
 62
     7
100
AcDbLine
 10
65.611409
 20
70.86166
 30
0.0
 11
65.297126
 21
70.86166
 31
0.0
  0
LINE
  5
2EB
330
224
100
AcDbEntity
  8
7_ALL_FEATURES
  6
Continuous
 62
     7
100
AcDbLine
 10
101.691592
 20
70.86166
 30
0.0
 11
65.370086
 21
70.86166
 31
0.0
  0
LINE
  5
2EC
330
224
100
AcDbEntity
  8
7_ALL_FEATURES
  6
Continuous
 62
     7
100
AcDbLine
 10
163.82308
 20
70.86166
 30
0.0
 11
162.152615
 21
70.86166
 31
0.0
  0
LINE
  5
2ED
330
224
100
AcDbEntity
  8
7_ALL_FEATURES
  6
Continuous
 62
     7
100
AcDbLine
 10
162.152615
 20
70.86166
 30
0.0
 11
162.128609
 21
70.86166
 31
0.0
  0
LINE
  5
2EE
330
224
100
AcDbEntity
  8
7_ALL_FEATURES
  6
Continuous
 62
     7
100
AcDbLine
 10
162.128609
 20
70.86166
 30
0.0
 11
127.428615
 21
70.86166
 31
0.0
  0
ARC
  5
2EF
330
224
100
AcDbEntity
  8
7_ALL_FEATURES
  6
Continuous
 62
     7
100
AcDbCircle
 10
163.82308
 20
71.61166
 30
0.0
 40
0.75
100
AcDbArc
 50
270.0
 51
359.0
  0
LINE
  5
2F0
330
224
100
AcDbEntity
  8
7_ALL_FEATURES
  6
Continuous
 62
     7
100
AcDbLine
 10
163.75012
 20
70.86166
 30
0.0
 11
163.683268
 21
70.86166
 31
0.0
  0
LINE
  5
2F1
330
224
100
AcDbEntity
  8
7_ALL_FEATURES
  6
Continuous
 62
     7
100
AcDbLine
 10
163.683268
 20
70.86166
 30
0.0
 11
162.152615
 21
70.86166
 31
0.0
  0
LINE
  5
2F2
330
224
100
AcDbEntity
  8
7_ALL_FEATURES
  6
Continuous
 62
     7
100
AcDbLine
 10
162.152615
 20
70.86166
 30
0.0
 11
162.128829
 21
70.86166
 31
0.0
  0
LINE
  5
2F3
330
224
100
AcDbEntity
  8
7_ALL_FEATURES
  6
Continuous
 62
     7
100
AcDbLine
 10
162.128829
 20
70.86166
 30
0.0
 11
127.428615
 21
70.86166
 31
0.0
  0
LINE
  5
2F4
330
224
100
AcDbEntity
  8
7_ALL_FEATURES
  6
Continuous
 62
     7
100
AcDbLine
 10
165.987055
 20
152.611698
 30
0.0
 11
164.572966
 21
71.598571
 31
0.0
  0
LINE
  5
2F5
330
224
100
AcDbEntity
  8
7_ALL_FEATURES
  6
Continuous
 62
     7
100
AcDbLine
 10
63.133151
 20
152.611698
 30
0.0
 11
64.54724
 21
71.598571
 31
0.0
  0
LINE
  5
2F6
330
224
100
AcDbEntity
  8
7_ALL_FEATURES
  6
Continuous
 62
     7
100
AcDbLine
 10
102.773579
 20
152.611698
 30
0.0
 11
126.346627
 21
152.611698
 31
0.0
  0
LINE
  5
2F7
330
224
100
AcDbEntity
  8
7_ALL_FEATURES
  6
Continuous
 62
     9
100
AcDbLine
 10
164.572966
 20
71.598571
 30
0.0
 11
127.053672
 21
71.598571
 31
0.0
  0
LINE
  5
2F8
330
224
100
AcDbEntity
  8
7_ALL_FEATURES
  6
Continuous
 62
     7
100
AcDbLine
 10
63.133151
 20
152.611698
 30
0.0
 11
102.773579
 21
152.611698
 31
0.0
  0
SPLINE
  5
2F9
330
224
100
AcDbEntity
  8
7_ALL_FEATURES
  6
Continuous
 62
     9
100
AcDbSpline
 70
     0
 71
     3
 72
    13
 73
     9
 74
     0
 42
0.000000001
 43
0.0000001
 40
0.0
 40
0.0
 40
0.0
 40
0.0
 40
0.0824090289
 40
0.1734618554
 40
0.2782145429
 40
0.3984970448
 40
0.6812561086
 40
1.0
 40
1.0
 40
1.0
 40
1.0
 10
127.4286145437
 20
70.8616603729
 30
0.0
 10
127.4040877275
 20
70.8616603729
 30
0.0
 10
127.3521119944
 20
70.8725091154
 30
0.0
 10
127.2808466557
 20
70.9171023878
 30
0.0
 10
127.2167918037
 20
70.9871644848
 30
0.0
 10
127.1384285347
 20
71.1172205964
 30
0.0
 10
127.072715702
 20
71.3245114735
 30
0.0
 10
127.0544995682
 20
71.5037091916
 30
0.0
 10
127.0536716581
 20
71.598571068
 30
0.0
  0
SPLINE
  5
2FA
330
224
100
AcDbEntity
  8
7_ALL_FEATURES
  6
Continuous
 62
     9
100
AcDbSpline
 70
     0
 71
     3
 72
    13
 73
     9
 74
     0
 42
0.000000001
 43
0.0000001
 40
0.0
 40
0.0
 40
0.0
 40
0.0
 40
0.0824090289
 40
0.1734618554
 40
0.2782145429
 40
0.3984970447
 40
0.6812561086
 40
1.0
 40
1.0
 40
1.0
 40
1.0
 10
101.6915915964
 20
70.8616603729
 30
0.0
 10
101.7161184126
 20
70.8616603729
 30
0.0
 10
101.7680941457
 20
70.8725091154
 30
0.0
 10
101.8393594843
 20
70.9171023878
 30
0.0
 10
101.9034143363
 20
70.9871644848
 30
0.0
 10
101.9817776054
 20
71.1172205964
 30
0.0
 10
102.047490438
 20
71.3245114736
 30
0.0
 10
102.065706572
 20
71.5037091916
 30
0.0
 10
102.0665344821
 20
71.598571068
 30
0.0
  0
LINE
  5
2FB
330
224
100
AcDbEntity
  8
7_ALL_FEATURES
  6
Continuous
 62
     9
100
AcDbLine
 10
126.469445
 20
152.86166
 30
0.0
 11
126.346627
 21
152.611698
 31
0.0
  0
LINE
  5
2FC
330
224
100
AcDbEntity
  8
7_ALL_FEATURES
  6
Continuous
 62
     9
100
AcDbLine
 10
102.650761
 20
152.86166
 30
0.0
 11
102.773579
 21
152.611698
 31
0.0
  0
LINE
  5
2FD
330
224
100
AcDbEntity
  8
7_ALL_FEATURES
  6
Continuous
 62
     9
100
AcDbLine
 10
126.346627
 20
152.611698
 30
0.0
 11
127.053672
 21
71.598571
 31
0.0
  0
LINE
  5
2FE
330
224
100
AcDbEntity
  8
7_ALL_FEATURES
  6
Continuous
 62
     9
100
AcDbLine
 10
127.053672
 20
71.598571
 30
0.0
 11
102.066534
 21
71.598571
 31
0.0
  0
LINE
  5
2FF
330
224
100
AcDbEntity
  8
7_ALL_FEATURES
  6
Continuous
 62
     7
100
AcDbLine
 10
126.346627
 20
152.611698
 30
0.0
 11
165.987055
 21
152.611698
 31
0.0
  0
LINE
  5
300
330
224
100
AcDbEntity
  8
7_ALL_FEATURES
  6
Continuous
 62
     9
100
AcDbLine
 10
102.066534
 20
71.598571
 30
0.0
 11
64.54724
 21
71.598571
 31
0.0
  0
LINE
  5
301
330
224
100
AcDbEntity
  8
7_ALL_FEATURES
  6
Continuous
 62
     9
100
AcDbLine
 10
102.773579
 20
152.611698
 30
0.0
 11
102.066534
 21
71.598571
 31
0.0
  0
LINE
  5
302
330
224
100
AcDbEntity
  8
7_ALL_FEATURES
  6
Continuous
 62
     3
100
AcDbLine
 10
67.34379
 20
153.36166
 30
0.0
 11
67.662392
 21
153.36166
 31
0.0
  0
LINE
  5
303
330
224
100
AcDbEntity
  8
7_ALL_FEATURES
  6
Continuous
 62
     3
100
AcDbLine
 10
161.457814
 20
153.36166
 30
0.0
 11
161.776416
 21
153.36166
 31
0.0
  0
LINE
  5
304
330
224
100
AcDbEntity
  8
7_ALL_FEATURES
  6
Continuous
 62
     3
100
AcDbLine
 10
161.457814
 20
153.36166
 30
0.0
 11
127.060103
 21
153.36166
 31
0.0
  0
LINE
  5
305
330
224
100
AcDbEntity
  8
7_ALL_FEATURES
  6
Continuous
 62
     3
100
AcDbLine
 10
127.060103
 20
153.36166
 30
0.0
 11
102.060103
 21
153.36166
 31
0.0
  0
LINE
  5
306
330
224
100
AcDbEntity
  8
7_ALL_FEATURES
  6
Continuous
 62
     3
100
AcDbLine
 10
102.060103
 20
153.36166
 30
0.0
 11
67.662392
 21
153.36166
 31
0.0
  0
LINE
  5
307
330
224
100
AcDbEntity
  8
7_ALL_FEATURES
  6
Continuous
 62
     7
100
AcDbLine
 10
241.791471
 20
153.36166
 30
0.0
 11
241.791471
 21
152.86166
 31
0.0
  0
LINE
  5
308
330
224
100
AcDbEntity
  8
7_ALL_FEATURES
  6
Continuous
 62
     7
100
AcDbLine
 10
290.791471
 20
153.36166
 30
0.0
 11
290.791471
 21
152.86166
 31
0.0
  0
LINE
  5
309
330
224
100
AcDbEntity
  8
7_ALL_FEATURES
  6
Continuous
 62
     7
100
AcDbLine
 10
271.291471
 20
152.86166
 30
0.0
 11
271.291471
 21
153.36166
 31
0.0
  0
LINE
  5
30A
330
224
100
AcDbEntity
  8
7_ALL_FEATURES
  6
Continuous
 62
     7
100
AcDbLine
 10
261.291471
 20
152.86166
 30
0.0
 11
261.291471
 21
153.36166
 31
0.0
  0
LINE
  5
30B
330
224
100
AcDbEntity
  8
7_ALL_FEATURES
  6
Continuous
 62
     9
100
AcDbLine
 10
261.791471
 20
153.36166
 30
0.0
 11
261.791471
 21
152.86166
 31
0.0
  0
LINE
  5
30C
330
224
100
AcDbEntity
  8
7_ALL_FEATURES
  6
Continuous
 62
     9
100
AcDbLine
 10
264.791701
 20
153.36166
 30
0.0
 11
264.791701
 21
152.900207
 31
0.0
  0
LINE
  5
30D
330
224
100
AcDbEntity
  8
7_ALL_FEATURES
  6
Continuous
 62
     9
100
AcDbLine
 10
271.541471
 20
152.86166
 30
0.0
 11
271.541471
 21
153.36166
 31
0.0
  0
LINE
  5
30E
330
224
100
AcDbEntity
  8
7_ALL_FEATURES
  6
Continuous
 62
     9
100
AcDbLine
 10
274.434165
 20
152.86166
 30
0.0
 11
274.434165
 21
153.36166
 31
0.0
  0
LINE
  5
30F
330
224
100
AcDbEntity
  8
7_ALL_FEATURES
  6
Continuous
 62
     9
100
AcDbLine
 10
261.041471
 20
152.86166
 30
0.0
 11
261.041471
 21
153.36166
 31
0.0
  0
LINE
  5
310
330
224
100
AcDbEntity
  8
7_ALL_FEATURES
  6
Continuous
 62
     9
100
AcDbLine
 10
258.148777
 20
152.86166
 30
0.0
 11
258.148777
 21
153.36166
 31
0.0
  0
LINE
  5
311
330
224
100
AcDbEntity
  8
7_ALL_FEATURES
  6
Continuous
 62
     9
100
AcDbLine
 10
270.791471
 20
153.36166
 30
0.0
 11
270.791471
 21
152.86166
 31
0.0
  0
LINE
  5
312
330
224
100
AcDbEntity
  8
7_ALL_FEATURES
  6
Continuous
 62
     9
100
AcDbLine
 10
267.791701
 20
153.36166
 30
0.0
 11
267.791701
 21
152.898933
 31
0.0
  0
LINE
  5
313
330
224
100
AcDbEntity
  8
7_ALL_FEATURES
  6
Continuous
 62
     9
100
AcDbLine
 10
277.279657
 20
152.86166
 30
0.0
 11
277.279657
 21
153.36166
 31
0.0
  0
LINE
  5
314
330
224
100
AcDbEntity
  8
7_ALL_FEATURES
  6
Continuous
 62
     9
100
AcDbLine
 10
255.303285
 20
152.86166
 30
0.0
 11
255.303285
 21
153.36166
 31
0.0
  0
LINE
  5
315
330
224
100
AcDbEntity
  8
7_ALL_FEATURES
  6
Continuous
 62
     7
100
AcDbLine
 10
240.110389
 20
152.86166
 30
0.0
 11
241.143683
 21
152.86166
 31
0.0
  0
LINE
  5
316
330
224
100
AcDbEntity
  8
7_ALL_FEATURES
  6
Continuous
 62
     7
100
AcDbLine
 10
241.143683
 20
152.86166
 30
0.0
 11
244.440511
 21
152.86166
 31
0.0
  0
LINE
  5
317
330
224
100
AcDbEntity
  8
7_ALL_FEATURES
  6
Continuous
 62
     7
100
AcDbLine
 10
244.440511
 20
152.86166
 30
0.0
 11
264.833427
 21
152.86166
 31
0.0
  0
LINE
  5
318
330
224
100
AcDbEntity
  8
7_ALL_FEATURES
  6
Continuous
 62
     7
100
AcDbLine
 10
264.833427
 20
152.86166
 30
0.0
 11
264.887488
 21
152.86166
 31
0.0
  0
LINE
  5
319
330
224
100
AcDbEntity
  8
7_ALL_FEATURES
  6
Continuous
 62
     7
100
AcDbLine
 10
264.887488
 20
152.86166
 30
0.0
 11
267.695462
 21
152.86166
 31
0.0
  0
LINE
  5
31A
330
224
100
AcDbEntity
  8
7_ALL_FEATURES
  6
Continuous
 62
     7
100
AcDbLine
 10
267.695462
 20
152.86166
 30
0.0
 11
267.759666
 21
152.86166
 31
0.0
  0
LINE
  5
31B
330
224
100
AcDbEntity
  8
7_ALL_FEATURES
  6
Continuous
 62
     7
100
AcDbLine
 10
267.759666
 20
152.86166
 30
0.0
 11
288.142431
 21
152.86166
 31
0.0
  0
LINE
  5
31C
330
224
100
AcDbEntity
  8
7_ALL_FEATURES
  6
Continuous
 62
     7
100
AcDbLine
 10
288.142431
 20
152.86166
 30
0.0
 11
291.439262
 21
152.86166
 31
0.0
  0
LINE
  5
31D
330
224
100
AcDbEntity
  8
7_ALL_FEATURES
  6
Continuous
 62
     7
100
AcDbLine
 10
291.439262
 20
152.86166
 30
0.0
 11
292.472553
 21
152.86166
 31
0.0
  0
LINE
  5
31E
330
224
100
AcDbEntity
  8
7_ALL_FEATURES
  6
Continuous
 62
     7
100
AcDbLine
 10
240.110156
 20
152.86166
 30
0.0
 11
239.864519
 21
152.611698
 31
0.0
  0
LINE
  5
31F
330
224
100
AcDbEntity
  8
7_ALL_FEATURES
  6
Continuous
 62
     7
100
AcDbLine
 10
292.472787
 20
152.86166
 30
0.0
 11
292.718423
 21
152.611698
 31
0.0
  0
LINE
  5
320
330
224
100
AcDbEntity
  8
7_ALL_FEATURES
  6
Continuous
 62
     7
100
AcDbLine
 10
290.554232
 20
70.86166
 30
0.0
 11
290.186491
 21
70.86166
 31
0.0
  0
LINE
  5
321
330
224
100
AcDbEntity
  8
7_ALL_FEATURES
  6
Continuous
 62
     7
100
AcDbLine
 10
290.186491
 20
70.86166
 30
0.0
 11
288.739178
 21
70.86166
 31
0.0
  0
LINE
  5
322
330
224
100
AcDbEntity
  8
7_ALL_FEATURES
  6
Continuous
 62
     7
100
AcDbLine
 10
288.739178
 20
70.86166
 30
0.0
 11
266.29151
 21
70.86166
 31
0.0
  0
LINE
  5
323
330
224
100
AcDbEntity
  8
7_ALL_FEATURES
  6
Continuous
 62
     7
100
AcDbLine
 10
266.29151
 20
70.86166
 30
0.0
 11
244.959137
 21
70.86166
 31
0.0
  0
LINE
  5
324
330
224
100
AcDbEntity
  8
7_ALL_FEATURES
  6
Continuous
 62
     7
100
AcDbLine
 10
244.959137
 20
70.86166
 30
0.0
 11
243.843793
 21
70.86166
 31
0.0
  0
LINE
  5
325
330
224
100
AcDbEntity
  8
7_ALL_FEATURES
  6
Continuous
 62
     7
100
AcDbLine
 10
243.843793
 20
70.86166
 30
0.0
 11
242.396464
 21
70.86166
 31
0.0
  0
LINE
  5
326
330
224
100
AcDbEntity
  8
7_ALL_FEATURES
  6
Continuous
 62
     7
100
AcDbLine
 10
242.396464
 20
70.86166
 30
0.0
 11
242.02871
 21
70.86166
 31
0.0
  0
ARC
  5
327
330
224
100
AcDbEntity
  8
7_ALL_FEATURES
  6
Continuous
 62
     7
100
AcDbCircle
 10
290.554448
 20
71.61166
 30
0.0
 40
0.75
100
AcDbArc
 50
270.0
 51
359.0
  0
ARC
  5
328
330
224
100
AcDbEntity
  8
7_ALL_FEATURES
  6
Continuous
 62
     7
100
AcDbCircle
 10
242.028494
 20
71.61166
 30
0.0
 40
0.75
100
AcDbArc
 50
181.0
 51
270.0
  0
LINE
  5
329
330
224
100
AcDbEntity
  8
7_ALL_FEATURES
  6
Continuous
 62
     7
100
AcDbLine
 10
242.142462
 20
70.86166
 30
0.0
 11
242.135562
 21
70.86166
 31
0.0
  0
LINE
  5
32A
330
224
100
AcDbEntity
  8
7_ALL_FEATURES
  6
Continuous
 62
     7
100
AcDbLine
 10
290.513399
 20
70.86166
 30
0.0
 11
290.499802
 21
70.86166
 31
0.0
  0
LINE
  5
32B
330
224
100
AcDbEntity
  8
7_ALL_FEATURES
  6
Continuous
 62
     7
100
AcDbLine
 10
290.499802
 20
70.86166
 30
0.0
 11
290.377544
 21
70.86166
 31
0.0
  0
LINE
  5
32C
330
224
100
AcDbEntity
  8
7_ALL_FEATURES
  6
Continuous
 62
     7
100
AcDbLine
 10
290.377544
 20
70.86166
 30
0.0
 11
288.738577
 21
70.86166
 31
0.0
  0
LINE
  5
32D
330
224
100
AcDbEntity
  8
7_ALL_FEATURES
  6
Continuous
 62
     7
100
AcDbLine
 10
288.738577
 20
70.86166
 30
0.0
 11
266.291471
 21
70.86166
 31
0.0
  0
LINE
  5
32E
330
224
100
AcDbEntity
  8
7_ALL_FEATURES
  6
Continuous
 62
     7
100
AcDbLine
 10
266.291471
 20
70.86166
 30
0.0
 11
243.844365
 21
70.86166
 31
0.0
  0
LINE
  5
32F
330
224
100
AcDbEntity
  8
7_ALL_FEATURES
  6
Continuous
 62
     7
100
AcDbLine
 10
243.844365
 20
70.86166
 30
0.0
 11
242.205399
 21
70.86166
 31
0.0
  0
LINE
  5
330
330
224
100
AcDbEntity
  8
7_ALL_FEATURES
  6
Continuous
 62
     7
100
AcDbLine
 10
242.205399
 20
70.86166
 30
0.0
 11
242.142462
 21
70.86166
 31
0.0
  0
LINE
  5
331
330
224
100
AcDbEntity
  8
7_ALL_FEATURES
  6
Continuous
 62
     7
100
AcDbLine
 10
292.718423
 20
152.611698
 30
0.0
 11
291.304334
 21
71.598571
 31
0.0
  0
LINE
  5
332
330
224
100
AcDbEntity
  8
7_ALL_FEATURES
  6
Continuous
 62
     7
100
AcDbLine
 10
239.864519
 20
152.611698
 30
0.0
 11
241.278608
 21
71.598571
 31
0.0
  0
LINE
  5
333
330
224
100
AcDbEntity
  8
7_ALL_FEATURES
  6
Continuous
 62
     9
100
AcDbLine
 10
291.304334
 20
71.598571
 30
0.0
 11
241.278608
 21
71.598571
 31
0.0
  0
LINE
  5
334
330
224
100
AcDbEntity
  8
7_ALL_FEATURES
  6
Continuous
 62
     7
100
AcDbLine
 10
239.864519
 20
152.611698
 30
0.0
 11
292.718423
 21
152.611698
 31
0.0
  0
LINE
  5
335
330
224
100
AcDbEntity
  8
7_ALL_FEATURES
  6
Continuous
 62
     3
100
AcDbLine
 10
265.290998
 20
153.36166
 30
0.0
 11
267.291552
 21
153.36166
 31
0.0
  0
LINE
  5
336
330
224
100
AcDbEntity
  8
7_ALL_FEATURES
  6
Continuous
 62
     3
100
AcDbLine
 10
264.791529
 20
153.36166
 30
0.0
 11
261.791471
 21
153.36166
 31
0.0
  0
LINE
  5
337
330
224
100
AcDbEntity
  8
7_ALL_FEATURES
  6
Continuous
 62
     3
100
AcDbLine
 10
261.041471
 20
153.36166
 30
0.0
 11
261.291471
 21
153.36166
 31
0.0
  0
LINE
  5
338
330
224
100
AcDbEntity
  8
7_ALL_FEATURES
  6
Continuous
 62
     3
100
AcDbLine
 10
261.041471
 20
153.36166
 30
0.0
 11
258.148777
 21
153.36166
 31
0.0
  0
LINE
  5
339
330
224
100
AcDbEntity
  8
7_ALL_FEATURES
  6
Continuous
 62
     3
100
AcDbLine
 10
255.303285
 20
153.36166
 30
0.0
 11
258.148777
 21
153.36166
 31
0.0
  0
LINE
  5
33A
330
224
100
AcDbEntity
  8
7_ALL_FEATURES
  6
Continuous
 62
     3
100
AcDbLine
 10
255.303285
 20
153.36166
 30
0.0
 11
241.791738
 21
153.36166
 31
0.0
  0
SPLINE
  5
33B
330
224
100
AcDbEntity
  8
7_ALL_FEATURES
  6
Continuous
 62
     3
100
AcDbSpline
 70
     0
 71
     3
 72
    11
 73
     7
 74
     0
 42
0.000000001
 43
0.0000001
 40
0.0
 40
0.0
 40
0.0
 40
0.0
 40
0.1497407731
 40
0.3650561614
 40
0.6520750858
 40
1.0
 40
1.0
 40
1.0
 40
1.0
 10
267.2913977268
 20
153.2420957536
 30
0.0
 10
267.2913838461
 20
153.2111862276
 30
0.0
 10
267.320198793
 20
153.1374667636
 30
0.0
 10
267.4084891213
 20
153.0344996284
 30
0.0
 10
267.5576792533
 20
152.9373750768
 30
0.0
 10
267.6879240885
 20
152.902256319
 30
0.0
 10
267.7596659247
 20
152.8989333843
 30
0.0
  0
LINE
  5
33C
330
224
100
AcDbEntity
  8
7_ALL_FEATURES
  6
Continuous
 62
     3
100
AcDbLine
 10
274.434165
 20
153.36166
 30
0.0
 11
277.279657
 21
153.36166
 31
0.0
  0
LINE
  5
33D
330
224
100
AcDbEntity
  8
7_ALL_FEATURES
  6
Continuous
 62
     3
100
AcDbLine
 10
274.434165
 20
153.36166
 30
0.0
 11
271.541471
 21
153.36166
 31
0.0
  0
LINE
  5
33E
330
224
100
AcDbEntity
  8
7_ALL_FEATURES
  6
Continuous
 62
     3
100
AcDbLine
 10
271.291471
 20
153.36166
 30
0.0
 11
271.541471
 21
153.36166
 31
0.0
  0
SPLINE
  5
33F
330
224
100
AcDbEntity
  8
7_ALL_FEATURES
  6
Continuous
 62
     3
100
AcDbSpline
 70
     0
 71
     3
 72
     8
 73
     4
 74
     0
 42
0.000000001
 43
0.0000001
 40
0.0
 40
0.0
 40
0.0
 40
0.0
 40
1.0
 40
1.0
 40
1.0
 40
1.0
 10
267.9371223534
 20
152.8622750478
 30
0.0
 10
267.8809788711
 20
152.8845425146
 30
0.0
 10
267.8200163951
 20
152.8966422994
 30
0.0
 10
267.7596588288
 20
152.8988547353
 30
0.0
  0
LINE
  5
340
330
224
100
AcDbEntity
  8
7_ALL_FEATURES
  6
Continuous
 62
     3
100
AcDbLine
 10
270.791471
 20
153.36166
 30
0.0
 11
267.791586
 21
153.36166
 31
0.0
  0
LINE
  5
341
330
224
100
AcDbEntity
  8
7_ALL_FEATURES
  6
Continuous
 62
     3
100
AcDbLine
 10
290.791204
 20
153.36166
 30
0.0
 11
277.279657
 21
153.36166
 31
0.0
  0
SPLINE
  5
342
330
224
100
AcDbEntity
  8
7_ALL_FEATURES
  6
Continuous
 62
     3
100
AcDbSpline
 70
     0
 71
     3
 72
     8
 73
     4
 74
     0
 42
0.000000001
 43
0.0000001
 40
0.0
 40
0.0
 40
0.0
 40
0.0
 40
1.0
 40
1.0
 40
1.0
 40
1.0
 10
264.8335265113
 20
152.8979502839
 30
0.0
 10
264.770973126
 20
152.8967701003
 30
0.0
 10
264.7075574942
 20
152.8849998198
 30
0.0
 10
264.6492433312
 20
152.8623331648
 30
0.0
  0
SPLINE
  5
343
330
224
100
AcDbEntity
  8
7_ALL_FEATURES
  6
Continuous
 62
     3
100
AcDbSpline
 70
     0
 71
     3
 72
    11
 73
     7
 74
     0
 42
0.000000001
 43
0.0000001
 40
0.0
 40
0.0
 40
0.0
 40
0.0
 40
0.3481723079
 40
0.6346872627
 40
0.8498846668
 40
1.0
 40
1.0
 40
1.0
 40
1.0
 10
264.8334268779
 20
152.9002072386
 30
0.0
 10
264.9040283018
 20
152.9035310405
 30
0.0
 10
265.0314248146
 20
152.9412257421
 30
0.0
 10
265.1771560142
 20
153.0375296449
 30
0.0
 10
265.2633361241
 20
153.1393423189
 30
0.0
 10
265.2913904668
 20
153.2119353423
 30
0.0
 10
265.2913659134
 20
153.2424090218
 30
0.0
  0
LINE
  5
344
330
224
100
AcDbEntity
  8
7_ALL_FEATURES
  6
Continuous
 62
     3
100
AcDbLine
 10
270.791471
 20
153.36166
 30
0.0
 11
271.291471
 21
153.36166
 31
0.0
  0
LINE
  5
345
330
224
100
AcDbEntity
  8
7_ALL_FEATURES
  6
Continuous
 62
     3
100
AcDbLine
 10
261.291471
 20
153.36166
 30
0.0
 11
261.791471
 21
153.36166
 31
0.0
  0
SPLINE
  5
346
330
224
100
AcDbEntity
  8
7_ALL_FEATURES
  6
Continuous
 62
     3
100
AcDbSpline
 70
     0
 71
     3
 72
    13
 73
     9
 74
     0
 42
0.000000001
 43
0.0000001
 40
0.0
 40
0.0
 40
0.0
 40
0.0
 40
0.0674874674
 40
0.1339137329
 40
0.2119781876
 40
0.3120128075
 40
0.6004816003
 40
1.0
 40
1.0
 40
1.0
 40
1.0
 10
265.2913659134
 20
153.2424090218
 30
0.0
 10
265.2913558712
 20
153.2548726115
 30
0.0
 10
265.286967001
 20
153.2801353898
 30
0.0
 10
265.2624787589
 20
153.3123653123
 30
0.0
 10
265.2222978323
 20
153.3347892182
 30
0.0
 10
265.1384816664
 20
153.3565706106
 30
0.0
 10
264.9921284897
 20
153.3619857599
 30
0.0
 10
264.8653690964
 20
153.3616603729
 30
0.0
 10
264.7915859891
 20
153.3616603729
 30
0.0
  0
SPLINE
  5
347
330
224
100
AcDbEntity
  8
7_ALL_FEATURES
  6
Continuous
 62
     3
100
AcDbSpline
 70
     0
 71
     3
 72
    13
 73
     9
 74
     0
 42
0.000000001
 43
0.0000001
 40
0.0
 40
0.0
 40
0.0
 40
0.0
 40
0.3992955718
 40
0.6877759931
 40
0.7878357947
 40
0.8658906769
 40
0.9324422742
 40
1.0
 40
1.0
 40
1.0
 40
1.0
 10
267.7915862415
 20
153.3616603729
 30
0.0
 10
267.7177683078
 20
153.3616603729
 30
0.0
 10
267.5909172822
 20
153.3619824309
 30
0.0
 10
267.4444476273
 20
153.356559297
 30
0.0
 10
267.3605452525
 20
153.3347049465
 30
0.0
 10
267.3203315252
 20
153.3122011877
 30
0.0
 10
267.2957884874
 20
153.2799154715
 30
0.0
 10
267.2914033355
 20
153.2545851764
 30
0.0
 10
267.2913977268
 20
153.2420957536
 30
0.0
  0
ARC
  5
348
330
224
100
AcDbEntity
  8
3_ALL_AXES
  6
Continuous
 62
     7
100
AcDbCircle
 10
89.560103
 20
231.040303
 30
0.0
 40
22.0
100
AcDbArc
 50
180.0
 51
360.0
  0
ARC
  5
349
330
224
100
AcDbEntity
  8
3_ALL_AXES
  6
Continuous
 62
     7
100
AcDbCircle
 10
89.560103
 20
231.040303
 30
0.0
 40
22.0
100
AcDbArc
 50
0.0
 51
180.0
  0
ARC
  5
34A
330
224
100
AcDbEntity
  8
3_ALL_AXES
  6
Continuous
 62
     7
100
AcDbCircle
 10
139.560103
 20
231.040303
 30
0.0
 40
22.0
100
AcDbArc
 50
180.0
 51
360.0
  0
ARC
  5
34B
330
224
100
AcDbEntity
  8
3_ALL_AXES
  6
Continuous
 62
     7
100
AcDbCircle
 10
139.560103
 20
231.040303
 30
0.0
 40
22.0
100
AcDbArc
 50
0.0
 51
180.0
  0
ARC
  5
34C
330
224
100
AcDbEntity
  8
7_ALL_FEATURES
  6
Continuous
 62
     7
100
AcDbCircle
 10
89.560103
 20
231.040303
 30
0.0
 40
26.4269522225
100
AcDbArc
 50
118.460332
 51
300.0
  0
ARC
  5
34D
330
224
100
AcDbEntity
  8
7_ALL_FEATURES
  6
Continuous
 62
     7
100
AcDbCircle
 10
114.560103
 20
187.739033
 30
0.0
 40
23.5730477775
100
AcDbArc
 50
60.0
 51
120.0
  0
ARC
  5
34E
330
224
100
AcDbEntity
  8
7_ALL_FEATURES
  6
Continuous
 62
     7
100
AcDbCircle
 10
139.560103
 20
231.040303
 30
0.0
 40
26.4269522225
100
AcDbArc
 50
298.460332
 51
120.0
  0
ARC
  5
34F
330
224
100
AcDbEntity
  8
7_ALL_FEATURES
  6
Continuous
 62
     7
100
AcDbCircle
 10
114.560103
 20
274.341573
 30
0.0
 40
23.5730477775
100
AcDbArc
 50
240.0
 51
300.0
  0
ARC
  5
350
330
224
100
AcDbEntity
  8
7_ALL_FEATURES
  6
Continuous
 62
     7
100
AcDbCircle
 10
89.560103
 20
231.040303
 30
0.0
 40
26.4269522225
100
AcDbArc
 50
60.0
 51
118.460332
  0
ARC
  5
351
330
224
100
AcDbEntity
  8
7_ALL_FEATURES
  6
Continuous
 62
     7
100
AcDbCircle
 10
139.560103
 20
231.040303
 30
0.0
 40
26.4269522225
100
AcDbArc
 50
240.0
 51
298.460332
  0
ARC
  5
352
330
224
100
AcDbEntity
  8
7_ALL_FEATURES
  6
Continuous
 62
     9
100
AcDbCircle
 10
139.560103
 20
231.040303
 30
0.0
 40
24.2629770527
100
AcDbArc
 50
240.0
 51
61.548938
  0
ARC
  5
353
330
224
100
AcDbEntity
  8
7_ALL_FEATURES
  6
Continuous
 62
     9
100
AcDbCircle
 10
114.560103
 20
187.739033
 30
0.0
 40
25.7370229473
100
AcDbArc
 50
60.0
 51
120.0
  0
ARC
  5
354
330
224
100
AcDbEntity
  8
7_ALL_FEATURES
  6
Continuous
 62
     9
100
AcDbCircle
 10
89.560103
 20
231.040303
 30
0.0
 40
24.2629770527
100
AcDbArc
 50
60.0
 51
241.548938
  0
ARC
  5
355
330
224
100
AcDbEntity
  8
7_ALL_FEATURES
  6
Continuous
 62
     9
100
AcDbCircle
 10
114.560103
 20
274.341573
 30
0.0
 40
25.7370229473
100
AcDbArc
 50
240.0
 51
300.0
  0
ARC
  5
356
330
224
100
AcDbEntity
  8
7_ALL_FEATURES
  6
Continuous
 62
     7
100
AcDbCircle
 10
139.560103
 20
231.040303
 30
0.0
 40
22.5
100
AcDbArc
 50
180.0
 51
360.0
  0
ARC
  5
357
330
224
100
AcDbEntity
  8
7_ALL_FEATURES
  6
Continuous
 62
     7
100
AcDbCircle
 10
139.560103
 20
231.040303
 30
0.0
 40
22.5
100
AcDbArc
 50
0.0
 51
180.0
  0
ARC
  5
358
330
224
100
AcDbEntity
  8
7_ALL_FEATURES
  6
Continuous
 62
     7
100
AcDbCircle
 10
89.560103
 20
231.040303
 30
0.0
 40
22.5
100
AcDbArc
 50
180.0
 51
360.0
  0
ARC
  5
359
330
224
100
AcDbEntity
  8
7_ALL_FEATURES
  6
Continuous
 62
     7
100
AcDbCircle
 10
89.560103
 20
231.040303
 30
0.0
 40
22.5
100
AcDbArc
 50
0.0
 51
180.0
  0
ARC
  5
35A
330
224
100
AcDbEntity
  8
7_ALL_FEATURES
  6
Continuous
 62
     7
100
AcDbCircle
 10
139.560103
 20
231.040303
 30
0.0
 40
22.5925118441
100
AcDbArc
 50
180.0
 51
360.0
  0
LINE
  5
35B
330
224
100
AcDbEntity
  8
7_ALL_FEATURES
  6
Continuous
 62
     9
100
AcDbLine
 10
102.773579
 20
253.926715
 30
0.0
 11
102.066534
 21
252.702078
 31
0.0
  0
ARC
  5
35C
330
224
100
AcDbEntity
  8
7_ALL_FEATURES
  6
Continuous
 62
     9
100
AcDbCircle
 10
89.560103
 20
231.040303
 30
0.0
 40
25.012862824
100
AcDbArc
 50
60.0
 51
241.538511
  0
ARC
  5
35D
330
224
100
AcDbEntity
  8
7_ALL_FEATURES
  6
Continuous
 62
     7
100
AcDbCircle
 10
139.560103
 20
231.040303
 30
0.0
 40
22.5925118441
100
AcDbArc
 50
0.0
 51
180.0
  0
LINE
  5
35E
330
224
100
AcDbEntity
  8
7_ALL_FEATURES
  6
Continuous
 62
     9
100
AcDbLine
 10
102.773579
 20
208.153891
 30
0.0
 11
102.066534
 21
209.378528
 31
0.0
  0
ARC
  5
35F
330
224
100
AcDbEntity
  8
7_ALL_FEATURES
  6
Continuous
 62
     9
100
AcDbCircle
 10
114.560103
 20
187.739033
 30
0.0
 40
24.987137176
100
AcDbArc
 50
60.0
 51
120.0
  0
ARC
  5
360
330
224
100
AcDbEntity
  8
7_ALL_FEATURES
  6
Continuous
 62
     7
100
AcDbCircle
 10
89.560103
 20
231.040303
 30
0.0
 40
22.5925118441
100
AcDbArc
 50
180.0
 51
360.0
  0
LINE
  5
361
330
224
100
AcDbEntity
  8
7_ALL_FEATURES
  6
Continuous
 62
     9
100
AcDbLine
 10
126.346627
 20
208.153891
 30
0.0
 11
127.053672
 21
209.378528
 31
0.0
  0
ARC
  5
362
330
224
100
AcDbEntity
  8
7_ALL_FEATURES
  6
Continuous
 62
     9
100
AcDbCircle
 10
139.560103
 20
231.040303
 30
0.0
 40
25.012862824
100
AcDbArc
 50
240.0
 51
61.538511
  0
ARC
  5
363
330
224
100
AcDbEntity
  8
7_ALL_FEATURES
  6
Continuous
 62
     7
100
AcDbCircle
 10
89.560103
 20
231.040303
 30
0.0
 40
22.5925118441
100
AcDbArc
 50
0.0
 51
180.0
  0
LINE
  5
364
330
224
100
AcDbEntity
  8
7_ALL_FEATURES
  6
Continuous
 62
     9
100
AcDbLine
 10
126.346627
 20
253.926715
 30
0.0
 11
127.053672
 21
252.702078
 31
0.0
  0
ARC
  5
365
330
224
100
AcDbEntity
  8
7_ALL_FEATURES
  6
Continuous
 62
     9
100
AcDbCircle
 10
114.560103
 20
274.341573
 30
0.0
 40
24.987137176
100
AcDbArc
 50
240.0
 51
300.0
  0
LINE
  5
366
330
224
100
AcDbEntity
  8
7_ALL_FEATURES
  6
Continuous
 62
     9
100
AcDbLine
 10
101.691592
 20
210.027948
 30
0.0
 11
102.066534
 21
209.378528
 31
0.0
  0
LINE
  5
367
330
224
100
AcDbEntity
  8
7_ALL_FEATURES
  6
Continuous
 62
     9
100
AcDbLine
 10
101.691592
 20
252.052657
 30
0.0
 11
102.066534
 21
252.702078
 31
0.0
  0
LINE
  5
368
330
224
100
AcDbEntity
  8
7_ALL_FEATURES
  6
Continuous
 62
     9
100
AcDbLine
 10
127.428615
 20
252.052657
 30
0.0
 11
127.053672
 21
252.702078
 31
0.0
  0
LINE
  5
369
330
224
100
AcDbEntity
  8
7_ALL_FEATURES
  6
Continuous
 62
     9
100
AcDbLine
 10
127.428615
 20
210.027948
 30
0.0
 11
127.053672
 21
209.378528
 31
0.0
  0
ARC
  5
36A
330
224
100
AcDbEntity
  8
7_ALL_FEATURES
  6
Continuous
 62
     9
100
AcDbCircle
 10
139.560103
 20
231.040303
 30
0.0
 40
24.2629770527
100
AcDbArc
 50
61.548938
 51
120.0
  0
ARC
  5
36B
330
224
100
AcDbEntity
  8
7_ALL_FEATURES
  6
Continuous
 62
     9
100
AcDbCircle
 10
89.560103
 20
231.040303
 30
0.0
 40
24.2629770527
100
AcDbArc
 50
241.548938
 51
300.0
  0
ARC
  5
36C
330
224
100
AcDbEntity
  8
7_ALL_FEATURES
  6
Continuous
 62
     9
100
AcDbCircle
 10
89.560103
 20
231.040303
 30
0.0
 40
25.012862824
100
AcDbArc
 50
241.538511
 51
300.0
  0
ARC
  5
36D
330
224
100
AcDbEntity
  8
7_ALL_FEATURES
  6
Continuous
 62
     9
100
AcDbCircle
 10
139.560103
 20
231.040303
 30
0.0
 40
25.012862824
100
AcDbArc
 50
61.538511
 51
120.0
  0
DIMENSION
  5
36E
330
224
100
AcDbEntity
  8
0
  6
Continuous
 62
     2
100
AcDbDimension
280
     0
  2
*D1
 10
292.722787
 20
171.671999
 30
0.0
 11
266.279539
 21
171.671999
 31
0.0
 70
   160
 71
     2
 42
52.862631
 73
     0
 74
     0
 75
     0
  3
DIMSTYLE_1
100
AcDbAlignedDimension
 13
239.860156
 23
164.536084
 33
0.0
 14
292.722787
 24
164.656875
 34
0.0
100
AcDbRotatedDimension
  0
DIMENSION
  5
36F
330
224
100
AcDbEntity
  8
0
  6
Continuous
 62
     2
100
AcDbDimension
280
     0
  2
*D2
 10
145.752222
 20
256.731575
 30
0.0
 11
145.96589
 21
267.220723
 31
0.0
 70
   163
  1
%%c<>
 71
     1
 42
52.853904
 73
     0
 74
     0
 75
     0
  3
DIMSTYLE_2
100
AcDbDiametricDimension
 15
133.367984
 25
205.349031
 35
0.0
 40
0.0
  0
DIMENSION
  5
370
330
224
100
AcDbEntity
  8
0
  6
Continuous
 62
     2
100
AcDbDimension
280
     0
  2
*D3
 10
165.991418
 20
171.671999
 30
0.0
 11
114.685096
 21
171.671999
 31
0.0
 70
   160
 71
     2
 42
102.862631
 73
     0
 74
     0
 75
     0
  3
DIMSTYLE_1
100
AcDbAlignedDimension
 13
63.128788
 23
164.517405
 33
0.0
 14
165.991418
 24
164.442689
 34
0.0
100
AcDbRotatedDimension
  0
DIMENSION
  5
371
330
224
100
AcDbEntity
  8
0
  6
Continuous
 62
     2
100
AcDbDimension
280
     0
  2
*D4
 10
312.764455
 20
70.86166
 30
0.0
 11
312.764455
 21
112.107757
 31
0.0
 70
   160
 71
     2
 42
82.5
 73
     0
 74
     0
 75
     0
  3
DIMSTYLE_1
100
AcDbAlignedDimension
 13
304.995353
 23
153.36166
 33
0.0
 14
304.252439
 24
70.86166
 34
0.0
 50
270.0
100
AcDbRotatedDimension
  0
INSERT
  5
372
330
224
100
AcDbEntity
  8
0
  6
Continuous
 62
     2
100
AcDbBlockReference
  2
LOGO2_BL0
 10
333.831816
 20
36.583206
 30
0.0
  0
ACAD_TABLE
  5
373
102
{ACAD_XDICTIONARY
360
3CA
102
}
330
224
100
AcDbEntity
  8
0
  6
Continuous
 62
     2
160
              3316
310
F40C000017000000880000001D000000000000000000F03F000000000000000000000000000000009DBFA1A1170074400000000000000000000000000000F03F000000000000000071C60482A60A494000000000000000000000000000000000000000000000F03F0000000000000000000000000000000000000000000000
310
000000000000000000000000000000F03F54000000200000000200000000000000000000000000000000000000000000000000000000000000008056400000000000000000000000000000000000000000000000000000000000000000000000000000F03F5400000020000000020000000000000000000000000000000000
310
00000000000000000000000000000000000000000000000044C0000000000000000000000000000000000000000000000000000000000000F03F5400000020000000020000000000000000003E4000000000000018C00000000000000000000000000080564000000000000018C00000000000000000000000000000000000
310
00000000000000000000000000F03F5400000020000000020000000000000000003E4000000000000028C00000000000000000000000000080564000000000000028C0000000000000000000000000000000000000000000000000000000000000F03F5400000020000000020000000000000000003E4000000000000036C0
310
0000000000000000000000000080564000000000000036C0000000000000000000000000000000000000000000000000000000000000F03F54000000200000000200000000000000000000000000000000003BC0000000000000000000000000008056400000000000003BC000000000000000000000000000000000000000
310
0000000000000000000000F03F540000002000000002000000000000000000000000000000000044C00000000000000000000000000080564000000000000044C0000000000000000000000000000000000000000000000000000000000000F03F5400000020000000020000000000000000003E4000000000000000000000
310
0000000000000000000000003E400000000000003BC0000000000000000000000000000000000000000000000000000000000000F03F540000002000000002000000000000000080514000000000000000000000000000000000000000000080514000000000000028C0000000000000000000000000000000000000000000
310
000000000000000000F03F540000002000000002000000000000000080564000000000000000000000000000000000000000000080564000000000000044C0000000000000000000000000000000000000000000000000000000000000F03F0C0000001000000023000000D000000026000000CDCCCCCCCC7C3F404E621058
310
393412C0000000000000000000000000000000000000000000000000000000000000F03F000000000000F03F0000000000000000000000000000000041003100300031005F0043005F003400300031000000000014000000010000000000000000000840000000000000F03F0000000000000000000000000000F03F000000
310
0000000000000000000000000000000000000000000000000000000000000000000000000061007200690061006C002E00740074006600000000000000C800000026000000C2F5285C8FC6514075931804560E13C0000000000000000000000000000000000000000000000000000000000000F03F000000000000F03F0000
310
00000000000000000000000000005200650076003A0030003000000000000C000000010000000000000000000C40000000000000F03F0000000000000000000000000000F03F0000000000000000000000000000000000000000000000000000000000000000000000000000000061007200690061006C002E007400740066
310
00000000000000CC00000026000000FA7E6ABC74433F405839B4C8769E26C0000000000000000000000000000000000000000000000000000000000000F03F000000000000F03F000000000000000000000000000000005300630061006C0065003A0031003A003100000012000000010000000000000000000C4000000000
310
0000F03F0000000000000000000000000000F03F0000000000000000000000000000000000000000000000000000000000000000000000000000000061007200690061006C002E00740074006600000000000000C0000000260000003333333333DF5140BA490C022B8725C000000000000000000000000000000000000000
310
0000000000000000000000F03F000000000000F03F00000000000000000000000000000000410033000000000004000000010000000000000000000C40000000000000F03F0000000000000000000000000000F03F000000000000000000000000000000000000000000000000000000000000000000000000000000006100
310
7200690061006C002E00740074006600000000000000D800000026000000B91E85EB51083F40AC1C5A643BCF32C0000000000000000000000000000000000000000000000000000000000000F03F000000000000F03F0000000000000000000000000000000049004E0054004F004E004F0020004300200049004E00200032
310
002E00330000001E000000010000000000000000000C40000000000000F03F0000000000000000000000000000F03F0000000000000000000000000000000000000000000000000000000000000000000000000000000061007200690061006C002E00740074006600000000000000D40000002600000048E17A14AE373F40
310
C3F5285C8FC239C0000000000000000000000000000000000000000000000000000000000000F03F000000000000F03F0000000000000000000000000000000044004100540045003A00310032002E00300034002E003200310000001A000000010000000000000000000440000000000000F03F0000000000000000000000
310
000000F03F0000000000000000000000000000000000000000000000000000000000000000000000000000000061007200690061006C002E007400740066000000000000002401000026000000CDCCCCCCCCCCF73F0000000000903DC0000000000000000000000000000000000000000000000000000000000000F03F0000
310
00000000F03F0000000000000000000000000000000041006E007900200069006E00740065006700720061006C0020006F00720020007000610072007400690061006C00200072006500700072006F00640075006300740069006F006E00730020006100720065002000700072006F00680069006200690074006500640000
310
00000068000000010000000000000000000240000000000000F03F0000000000000000000000000000F03F0000000000000000000000000000000000000000000000000000000000000000000000000000000061007200690061006C002E007400740066000000000000002C01000026000000FED478E926B1F73F37894160
310
E57C40C0000000000000000000000000000000000000000000000000000000000000F03F000000000000F03F0000000000000000000000000000000077006900740068006F007500740020007000720069006F007200200061007500740068006F007200690073006100740069006F006E0020006F00660020004C00200026
310
0020004C0020004C007500630065002000260020004C006900670068007400200073002E0072002E006C002E002C00000072000000010000000000000000000240000000000000F03F0000000000000000000000000000F03F0000000000000000000000000000000000000000000000000000000000000000000000000000
310
000061007200690061006C002E007400740066000000000000000401000026000000C1CAA145B673F43F4F1E166A4D3142C0000000000000000000000000000000000000000000000000000000000000F03F000000000000F03F0000000000000000000000000000000069006E0020006100630063006F007200640061006E
310
006300650020007700690074006800200074006800650020006C0061007700200069006E00200066006F007200630065002E000000000048000000010000000000000000000240000000000000F03F0000000000000000000000000000F03F0000000000000000000000000000000000000000000000000000000000000000
310
000000000000000061007200690061006C002E00740074006600000000000000E400000026000000CDCCCCCCCCCCF73F302AA913D0E043C0000000000000000000000000000000000000000000000000000000000000F03F000000000000F03F0000000000000000000000000000000041006C006C00200072006900670068
310
00740073002000720065007300650072007600650064002E000000000028000000010000000000000000000240000000000000F03F0000000000000000000000000000F03F0000000000000000000000000000000000000000000000000000000000000000000000000000000061007200690061006C002E00740074006600
310
000000000000080000001F000000
100
AcDbBlockReference
  2
*T6
 10
320.005769
 20
50.083206
 30
0.0
100
AcDbTable
342
39C
343
22C
 11
1.0
 21
0.0
 31
0.0
 90
       22
 91
        5
 92
        5
 93
        0
 94
        0
 95
        0
 96
        0
141
6.0
141
6.0
141
10.0
141
5.0
141
13.0
142
10.0
142
10.0
142
10.0
142
40.0
142
20.0
171
     1
172
     0
173
     0
174
     0
175
     3
176
     4
 91
       32
178
     0
145
0.0
140
3.5
 92
        0
301
CELL_VALUE
 93
        2
 90
        4
  1
 
 94
        0
300

302
 
304
ACVALUE_END
171
     1
172
     0
173
     1
174
     0
175
     1
176
     1
 91
        0
178
     0
145
0.0
 92
        0
301
CELL_VALUE
 93
        3
 90
        0
 91
        0
 94
        0
300

302

304
ACVALUE_END
171
     1
172
     0
173
     1
174
     0
175
     1
176
     1
 91
        0
178
     0
145
0.0
 92
        0
301
CELL_VALUE
 93
        3
 90
        0
 91
        0
 94
        0
300

302

304
ACVALUE_END
171
     1
172
     0
173
     0
174
     0
175
     1
176
     1
 91
       33
178
     0
145
0.0
170
     4
140
3.0
 92
        0
301
CELL_VALUE
 93
        2
 90
        4
  1
A101_C_401
 94
        0
300

302
A101_C_401
304
ACVALUE_END
171
     1
172
     0
173
     0
174
     0
175
     1
176
     1
 91
       33
178
     0
145
0.0
170
     4
140
3.5
 92
        0
301
CELL_VALUE
 93
        2
 90
        4
  1
Rev:00
 94
        0
300

302
Rev:00
304
ACVALUE_END
171
     1
172
     0
173
     1
174
     0
175
     1
176
     1
 91
        0
178
     0
145
0.0
 92
        0
301
CELL_VALUE
 93
        3
 90
        0
 91
        0
 94
        0
300

302

304
ACVALUE_END
171
     1
172
     0
173
     1
174
     0
175
     1
176
     1
 91
        0
178
     0
145
0.0
 92
        0
301
CELL_VALUE
 93
        3
 90
        0
 91
        0
 94
        0
300

302

304
ACVALUE_END
171
     1
172
     0
173
     1
174
     0
175
     1
176
     1
 91
        0
178
     0
145
0.0
 92
        0
301
CELL_VALUE
 93
        3
 90
        0
 91
        0
 94
        0
300

302

304
ACVALUE_END
171
     1
172
     0
173
     0
174
     0
175
     1
176
     1
 91
       33
178
     0
145
0.0
170
     1
140
3.5
 92
        0
301
CELL_VALUE
 93
        2
 90
        4
  1
Scale:1:1
 94
        0
300

302
Scale:1:1
304
ACVALUE_END
171
     1
172
     0
173
     0
174
     0
175
     1
176
     1
 91
       33
178
     0
145
0.0
170
     4
140
3.5
 92
        0
301
CELL_VALUE
 93
        2
 90
        4
  1
A3
 94
        0
300

302
A3
304
ACVALUE_END
171
     1
172
     0
173
     1
174
     0
175
     1
176
     1
 91
        0
178
     0
145
0.0
 92
        0
301
CELL_VALUE
 93
        3
 90
        0
 91
        0
 94
        0
300

302

304
ACVALUE_END
171
     1
172
     0
173
     1
174
     0
175
     1
176
     1
 91
        0
178
     0
145
0.0
 92
        0
301
CELL_VALUE
 93
        3
 90
        0
 91
        0
 94
        0
300

302

304
ACVALUE_END
171
     1
172
     0
173
     1
174
     0
175
     1
176
     1
 91
        0
178
     0
145
0.0
 92
        0
301
CELL_VALUE
 93
        3
 90
        0
 91
        0
 94
        0
300

302

304
ACVALUE_END
171
     1
172
     0
173
     0
174
     0
175
     2
176
     1
 91
       33
178
     0
145
0.0
170
     4
140
3.5
 92
        0
301
CELL_VALUE
 93
        2
 90
        4
  1
INTONO C IN 2.3
 94
        0
300

302
INTONO C IN 2.3
304
ACVALUE_END
171
     1
172
     0
173
     1
174
     0
175
     1
176
     1
 91
        0
178
     0
145
0.0
 92
        0
301
CELL_VALUE
 93
        3
 90
        0
 91
        0
 94
        0
300

302

304
ACVALUE_END
171
     1
172
     0
173
     1
174
     0
175
     1
176
     1
 91
        0
178
     0
145
0.0
 92
        0
301
CELL_VALUE
 93
        3
 90
        0
 91
        0
 94
        0
300

302

304
ACVALUE_END
171
     1
172
     0
173
     1
174
     0
175
     1
176
     1
 91
        0
178
     0
145
0.0
 92
        0
301
CELL_VALUE
 93
        3
 90
        0
 91
        0
 94
        0
300

302

304
ACVALUE_END
171
     1
172
     0
173
     1
174
     0
175
     1
176
     1
 91
        0
178
     0
145
0.0
 92
        0
301
CELL_VALUE
 93
        3
 90
        0
 91
        0
 94
        0
300

302

304
ACVALUE_END
171
     1
172
     0
173
     0
174
     0
175
     2
176
     1
 91
       33
178
     0
145
0.0
170
     4
140
2.5
 92
        0
301
CELL_VALUE
 93
        2
 90
        4
  1
DATE:12.04.21
 94
        0
300

302
DATE:12.04.21
304
ACVALUE_END
171
     1
172
     0
173
     1
174
     0
175
     1
176
     1
 91
        0
178
     0
145
0.0
 92
        0
301
CELL_VALUE
 93
        3
 90
        0
 91
        0
 94
        0
300

302

304
ACVALUE_END
171
     1
172
     0
173
     0
174
     0
175
     5
176
     1
 91
       33
178
     0
145
0.0
170
     4
140
2.25
 92
        0
301
CELL_VALUE
 93
        2
 90
        4
  1
Any integral or partial reproductions are prohibited \Pwithout prior authorisation of L & L Luce & Light s.r.l., \Pin accordance with the law in force. \PAll rights reserved.
 94
        0
300

302
Any integral or partial reproductions are prohibited \Pwithout prior authorisation of L & L Luce & Light s.r.l., \Pin accordance with the law in force. \PAll rights reserved.
304
ACVALUE_END
171
     1
172
     0
173
     1
174
     0
175
     1
176
     1
 91
        0
178
     0
145
0.0
 92
        0
301
CELL_VALUE
 93
        3
 90
        0
 91
        0
 94
        0
300

302

304
ACVALUE_END
171
     1
172
     0
173
     1
174
     0
175
     1
176
     1
 91
        0
178
     0
145
0.0
 92
        0
301
CELL_VALUE
 93
        3
 90
        0
 91
        0
 94
        0
300

302

304
ACVALUE_END
171
     1
172
     0
173
     1
174
     0
175
     1
176
     1
 91
        0
178
     0
145
0.0
 92
        0
301
CELL_VALUE
 93
        3
 90
        0
 91
        0
 94
        0
300

302

304
ACVALUE_END
171
     1
172
     0
173
     1
174
     0
175
     1
176
     1
 91
        0
178
     0
145
0.0
 92
        0
301
CELL_VALUE
 93
        3
 90
        0
 91
        0
 94
        0
300

302

304
ACVALUE_END
  0
ENDSEC
  0
SECTION
  2
OBJECTS
  0
DICTIONARY
  5
C
330
0
100
AcDbDictionary
281
     1
  3
ACAD_DETAILVIEWSTYLE
350
403
  3
ACAD_GROUP
350
D
  3
ACAD_IMAGE_DICT
350
3C3
  3
ACAD_LAYOUT
350
1A
  3
ACAD_MATERIAL
350
3B7
  3
ACAD_MLEADERSTYLE
350
402
  3
ACAD_MLINESTYLE
350
17
  3
ACAD_PLOTSETTINGS
350
19
  3
ACAD_PLOTSTYLENAME
350
E
  3
ACAD_SCALELIST
350
379
  3
ACAD_SECTIONVIEWSTYLE
350
404
  3
ACAD_TABLESTYLE
350
39B
  3
ACAD_VISUALSTYLE
350
39E
  3
ACDB_RECOMPOSE_DATA
350
400
  3
AcDbVariableDictionary
350
3CC
  3
HOST_DOC_SETTINGS
350
3C1
  3
MCS_STREAM_DICT
350
3BD
  0
SUN
  5
3C0
330
1F4
100
AcDbSun
 90
        1
290
     0
 63
     7
421
 16777215
 40
1.0
291
     1
 91
  2455826
 92
 54000000
292
     0
 70
     2
 71
   256
280
     1
  0
DICTIONARY
  5
3CA
330
373
100
AcDbDictionary
280
     1
281
     1
  3
ACAD_XREC_ROUNDTRIP
360
3CB
  0
DICTIONARY
  5
403
102
{ACAD_REACTORS
330
C
102
}
330
C
100
AcDbDictionary
281
     1
  0
DICTIONARY
  5
D
102
{ACAD_REACTORS
330
C
102
}
330
C
100
AcDbDictionary
281
     1
  0
DICTIONARY
  5
3C3
102
{ACAD_REACTORS
330
C
102
}
330
C
100
AcDbDictionary
281
     1
  0
DICTIONARY
  5
1A
102
{ACAD_REACTORS
330
C
102
}
330
C
100
AcDbDictionary
281
     1
  3
Layout1
350
376
  3
Model
350
375
  0
DICTIONARY
  5
3B7
102
{ACAD_REACTORS
330
C
102
}
330
C
100
AcDbDictionary
281
     1
  3
ByBlock
350
3B9
  3
ByLayer
350
3B8
  3
Global
350
3BA
  0
DICTIONARY
  5
402
102
{ACAD_REACTORS
330
C
102
}
330
C
100
AcDbDictionary
281
     1
  0
DICTIONARY
  5
17
102
{ACAD_REACTORS
330
C
102
}
330
C
100
AcDbDictionary
281
     1
  3
Standard
350
18
  0
DICTIONARY
  5
19
102
{ACAD_REACTORS
330
C
102
}
330
C
100
AcDbDictionary
281
     1
  0
ACDBDICTIONARYWDFLT
  5
E
102
{ACAD_REACTORS
330
C
102
}
330
C
100
AcDbDictionary
281
     1
  3
Normal
350
F
100
AcDbDictionaryWithDefault
340
F
  0
DICTIONARY
  5
379
102
{ACAD_REACTORS
330
C
102
}
330
C
100
AcDbDictionary
281
     1
  3
A0
350
37A
  3
A1
350
37B
  3
A2
350
37C
  3
A3
350
37D
  3
A4
350
37E
  3
A5
350
37F
  3
A6
350
380
  3
A7
350
381
  3
A8
350
382
  3
A9
350
383
  3
B0
350
384
  3
B1
350
385
  3
B2
350
386
  3
B3
350
387
  3
B4
350
388
  3
B5
350
389
  3
B6
350
38A
  3
B7
350
38B
  3
B8
350
38C
  3
B9
350
38D
  3
C0
350
38E
  3
C1
350
38F
  3
C2
350
390
  3
C3
350
391
  3
C4
350
392
  3
C5
350
393
  3
C6
350
394
  3
C7
350
395
  3
C8
350
396
  3
C9
350
397
  3
D0
350
398
  3
D1
350
399
  3
D2
350
39A
  0
DICTIONARY
  5
404
102
{ACAD_REACTORS
330
C
102
}
330
C
100
AcDbDictionary
281
     1
  0
DICTIONARY
  5
39B
102
{ACAD_REACTORS
330
C
102
}
330
C
100
AcDbDictionary
281
     1
  3
Standard
350
39C
  0
DICTIONARY
  5
39E
102
{ACAD_REACTORS
330
C
102
}
330
C
100
AcDbDictionary
281
     1
  3
2dWireframe
350
3A3
  3
Basic
350
3A6
  3
Brighten
350
3AA
  3
ColorChange
350
3AE
  3
Conceptual
350
3A8
  3
Dim
350
3A9
  3
EdgeColorOff
350
3B1
  3
Facepattern
350
3AD
  3
Flat
350
39F
  3
FlatWithEdges
350
3A0
  3
Gouraud
350
3A1
  3
GouraudWithEdges
350
3A2
  3
Hidden
350
3A5
  3
JitterOff
350
3AF
  3
Linepattern
350
3AC
  3
OverhangOff
350
3B0
  3
Realistic
350
3A7
  3
Shaded
350
3B6
  3
Shaded with edges
350
3B5
  3
Shades of Gray
350
3B2
  3
Sketchy
350
3B3
  3
Thicken
350
3AB
  3
Wireframe
350
3A4
  3
X-Ray
350
3B4
  0
XRECORD
  5
400
102
{ACAD_REACTORS
330
C
102
}
330
C
100
AcDbXrecord
280
     1
 90
        1
330
373
330
39C
  0
DICTIONARY
  5
3CC
102
{ACAD_REACTORS
330
C
102
}
330
C
100
AcDbDictionary
281
     1
  3
CANNOSCALE
350
3CD
  3
CTABLESTYLE
350
401
  0
DICTIONARY
  5
3C1
102
{ACAD_REACTORS
330
C
102
}
330
C
100
AcDbDictionary
281
     1
  3
NCDocParameters
350
3C2
  0
DICTIONARY
  5
3BD
102
{ACAD_REACTORS
330
C
102
}
330
C
100
AcDbDictionary
281
     1
  3
MC_VERSION_DATA
350
3C6
  3
MCS_DOCUMENT_ID
350
3BE
  3
MCS_PARAMS_DATA
350
3C4
  0
XRECORD
  5
3CB
102
{ACAD_REACTORS
330
3CA
102
}
330
3CA
100
AcDbXrecord
280
     1
102
ACAD_ROUNDTRIP_2008_TABLE_ENTITY
360
3C8
 70
     2
 90
        1
 10
0.0
 20
0.0
 30
0.0
 90
        0
 90
        4
361
3C9
  0
LAYOUT
  5
376
102
{ACAD_REACTORS
330
1A
102
}
330
1A
100
AcDbPlotSettings
  1

  2
none_device
  4
ISO_A3_(420.00_x_297.00_MM)
  6

 40
0.0
 41
0.0
 42
0.0
 43
0.0
 44
420.0
 45
297.0
 46
0.0
 47
0.0
 48
0.0
 49
0.0
140
0.0
141
0.0
142
1.0
143
1.0
 70
     0
 72
     1
 73
     0
 74
     0
  7

 75
     0
 76
     0
 77
     2
 78
   300
147
1.0
148
0.0
149
0.0
100
AcDbLayout
  1
Layout1
 70
     0
 71
     1
 10
0.0
 20
0.0
 11
420.0
 21
297.0
 12
0.0
 22
0.0
 32
0.0
 14
0.0
 24
0.0
 34
0.0
 15
0.0
 25
0.0
 35
0.0
146
0.0
 13
0.0
 23
0.0
 33
0.0
 16
1.0
 26
0.0
 36
0.0
 17
0.0
 27
1.0
 37
0.0
 76
     0
330
225
  0
LAYOUT
  5
375
102
{ACAD_REACTORS
330
1A
102
}
330
1A
100
AcDbPlotSettings
  1

  2
none_device
  4
ISO_A3_(420.00_x_297.00_MM)
  6

 40
0.0
 41
0.0
 42
0.0
 43
0.0
 44
420.0
 45
297.0
 46
0.0
 47
0.0
 48
0.0
 49
0.0
140
0.0
141
0.0
142
1.0
143
1.0
 70
  1024
 72
     1
 73
     0
 74
     0
  7

 75
     0
 76
     0
 77
     2
 78
   300
147
1.0
148
0.0
149
0.0
100
AcDbLayout
  1
Model
 70
     0
 71
     0
 10
0.0
 20
0.0
 11
420.0
 21
297.0
 12
0.0
 22
0.0
 32
0.0
 14
0.0
 24
0.0
 34
0.0
 15
0.0
 25
0.0
 35
0.0
146
0.0
 13
0.0
 23
0.0
 33
0.0
 16
1.0
 26
0.0
 36
0.0
 17
0.0
 27
1.0
 37
0.0
 76
     0
330
224
331
1F4
  0
MATERIAL
  5
3B9
102
{ACAD_REACTORS
330
3B7
102
}
330
3B7
100
AcDbMaterial
  1
ByBlock
 72
     1
 94
      127
  0
MATERIAL
  5
3B8
102
{ACAD_REACTORS
330
3B7
102
}
330
3B7
100
AcDbMaterial
  1
ByLayer
 72
     1
 94
      127
  0
MATERIAL
  5
3BA
102
{ACAD_REACTORS
330
3B7
102
}
330
3B7
100
AcDbMaterial
  1
Global
 72
     1
 94
      127
  0
MLINESTYLE
  5
18
102
{ACAD_REACTORS
330
17
102
}
330
17
100
AcDbMlineStyle
  2
STANDARD
 70
     0
  3

 62
   256
 51
90.0
 52
90.0
 71
     2
 49
0.5
 62
   256
  6
BYLAYER
 49
-0.5
 62
   256
  6
BYLAYER
  0
ACDBPLACEHOLDER
  5
F
102
{ACAD_REACTORS
330
E
102
}
330
E
  0
SCALE
  5
37A
102
{ACAD_REACTORS
330
379
102
}
330
379
100
AcDbScale
 70
     0
300
1:1
140
1.0
141
1.0
290
     1
  0
SCALE
  5
37B
102
{ACAD_REACTORS
330
379
102
}
330
379
100
AcDbScale
 70
     0
300
1:2
140
1.0
141
2.0
290
     0
  0
SCALE
  5
37C
102
{ACAD_REACTORS
330
379
102
}
330
379
100
AcDbScale
 70
     0
300
1:4
140
1.0
141
4.0
290
     0
  0
SCALE
  5
37D
102
{ACAD_REACTORS
330
379
102
}
330
379
100
AcDbScale
 70
     0
300
1:5
140
1.0
141
5.0
290
     0
  0
SCALE
  5
37E
102
{ACAD_REACTORS
330
379
102
}
330
379
100
AcDbScale
 70
     0
300
1:8
140
1.0
141
8.0
290
     0
  0
SCALE
  5
37F
102
{ACAD_REACTORS
330
379
102
}
330
379
100
AcDbScale
 70
     0
300
1:10
140
1.0
141
10.0
290
     0
  0
SCALE
  5
380
102
{ACAD_REACTORS
330
379
102
}
330
379
100
AcDbScale
 70
     0
300
1:16
140
1.0
141
16.0
290
     0
  0
SCALE
  5
381
102
{ACAD_REACTORS
330
379
102
}
330
379
100
AcDbScale
 70
     0
300
1:20
140
1.0
141
20.0
290
     0
  0
SCALE
  5
382
102
{ACAD_REACTORS
330
379
102
}
330
379
100
AcDbScale
 70
     0
300
1:30
140
1.0
141
30.0
290
     0
  0
SCALE
  5
383
102
{ACAD_REACTORS
330
379
102
}
330
379
100
AcDbScale
 70
     0
300
1:40
140
1.0
141
40.0
290
     0
  0
SCALE
  5
384
102
{ACAD_REACTORS
330
379
102
}
330
379
100
AcDbScale
 70
     0
300
1:50
140
1.0
141
50.0
290
     0
  0
SCALE
  5
385
102
{ACAD_REACTORS
330
379
102
}
330
379
100
AcDbScale
 70
     0
300
1:100
140
1.0
141
100.0
290
     0
  0
SCALE
  5
386
102
{ACAD_REACTORS
330
379
102
}
330
379
100
AcDbScale
 70
     0
300
2:1
140
2.0
141
1.0
290
     0
  0
SCALE
  5
387
102
{ACAD_REACTORS
330
379
102
}
330
379
100
AcDbScale
 70
     0
300
4:1
140
4.0
141
1.0
290
     0
  0
SCALE
  5
388
102
{ACAD_REACTORS
330
379
102
}
330
379
100
AcDbScale
 70
     0
300
8:1
140
8.0
141
1.0
290
     0
  0
SCALE
  5
389
102
{ACAD_REACTORS
330
379
102
}
330
379
100
AcDbScale
 70
     0
300
10:1
140
10.0
141
1.0
290
     0
  0
SCALE
  5
38A
102
{ACAD_REACTORS
330
379
102
}
330
379
100
AcDbScale
 70
     0
300
100:1
140
100.0
141
1.0
290
     0
  0
SCALE
  5
38B
102
{ACAD_REACTORS
330
379
102
}
330
379
100
AcDbScale
 70
     0
300
1/128" = 1'-0"
140
0.007812
141
12.0
290
     0
  0
SCALE
  5
38C
102
{ACAD_REACTORS
330
379
102
}
330
379
100
AcDbScale
 70
     0
300
1/64" = 1'-0"
140
0.015625
141
12.0
290
     0
  0
SCALE
  5
38D
102
{ACAD_REACTORS
330
379
102
}
330
379
100
AcDbScale
 70
     0
300
1/32" = 1'-0"
140
0.03125
141
12.0
290
     0
  0
SCALE
  5
38E
102
{ACAD_REACTORS
330
379
102
}
330
379
100
AcDbScale
 70
     0
300
1/16" = 1'-0"
140
0.0625
141
12.0
290
     0
  0
SCALE
  5
38F
102
{ACAD_REACTORS
330
379
102
}
330
379
100
AcDbScale
 70
     0
300
3/32" = 1'-0"
140
0.09375
141
12.0
290
     0
  0
SCALE
  5
390
102
{ACAD_REACTORS
330
379
102
}
330
379
100
AcDbScale
 70
     0
300
1/8" = 1'-0"
140
0.125
141
12.0
290
     0
  0
SCALE
  5
391
102
{ACAD_REACTORS
330
379
102
}
330
379
100
AcDbScale
 70
     0
300
3/16" = 1'-0"
140
0.1875
141
12.0
290
     0
  0
SCALE
  5
392
102
{ACAD_REACTORS
330
379
102
}
330
379
100
AcDbScale
 70
     0
300
1/4" = 1'-0"
140
0.25
141
12.0
290
     0
  0
SCALE
  5
393
102
{ACAD_REACTORS
330
379
102
}
330
379
100
AcDbScale
 70
     0
300
3/8" = 1'-0"
140
0.375
141
12.0
290
     0
  0
SCALE
  5
394
102
{ACAD_REACTORS
330
379
102
}
330
379
100
AcDbScale
 70
     0
300
1/2" = 1'-0"
140
0.5
141
12.0
290
     0
  0
SCALE
  5
395
102
{ACAD_REACTORS
330
379
102
}
330
379
100
AcDbScale
 70
     0
300
3/4" = 1'-0"
140
0.75
141
12.0
290
     0
  0
SCALE
  5
396
102
{ACAD_REACTORS
330
379
102
}
330
379
100
AcDbScale
 70
     0
300
1" = 1'-0"
140
1.0
141
12.0
290
     0
  0
SCALE
  5
397
102
{ACAD_REACTORS
330
379
102
}
330
379
100
AcDbScale
 70
     0
300
1-1/2" = 1'-0"
140
1.5
141
12.0
290
     0
  0
SCALE
  5
398
102
{ACAD_REACTORS
330
379
102
}
330
379
100
AcDbScale
 70
     0
300
3" = 1'-0"
140
3.0
141
12.0
290
     0
  0
SCALE
  5
399
102
{ACAD_REACTORS
330
379
102
}
330
379
100
AcDbScale
 70
     0
300
6" = 1'-0"
140
6.0
141
12.0
290
     0
  0
SCALE
  5
39A
102
{ACAD_REACTORS
330
379
102
}
330
379
100
AcDbScale
 70
     0
300
1'-0" = 1'-0"
140
12.0
141
12.0
290
     0
  0
TABLESTYLE
  5
39C
102
{ACAD_REACTORS
330
39B
102
}
102
{ACAD_XDICTIONARY
360
3CE
102
}
330
39B
100
AcDbTableStyle
  3
Standard
 70
     0
 71
     0
 40
0.06
 41
0.06
280
     0
281
     0
  7
STANDARD
140
4.5
170
     2
 62
     0
 63
   257
283
     0
 90
        4
 91
        0
  1

274
    -2
284
     1
 64
     0
275
    -2
285
     1
 65
     0
276
    -2
286
     1
 66
     0
277
    -2
287
     1
 67
     0
278
    -2
288
     1
 68
     0
279
    -2
289
     1
 69
     0
  7
STANDARD
140
6.0
170
     5
 62
     0
 63
   257
283
     0
 90
        4
 91
        0
  1

274
    -2
284
     1
 64
     0
275
    -2
285
     1
 65
     0
276
    -2
286
     1
 66
     0
277
    -2
287
     1
 67
     0
278
    -2
288
     1
 68
     0
279
    -2
289
     1
 69
     0
  7
STANDARD
140
4.5
170
     5
 62
     0
 63
   257
283
     0
 90
        4
 91
        0
  1

274
    -2
284
     1
 64
     0
275
    -2
285
     1
 65
     0
276
    -2
286
     1
 66
     0
277
    -2
287
     1
 67
     0
278
    -2
288
     1
 68
     0
279
    -2
289
     1
 69
     0
  0
VISUALSTYLE
  5
3A3
102
{ACAD_REACTORS
330
39E
102
}
102
{ACAD_XDICTIONARY
360
3D8
102
}
330
39E
100
AcDbVisualStyle
  2
2dWireframe
 70
     4
177
     2
291
     0
 71
     0
176
     1
 72
     2
176
     1
 73
     0
176
     1
 90
        0
176
     1
 40
0.6
176
     1
 41
30.0
176
     1
 62
     5
 63
     7
421
 16777215
176
     1
 74
     1
176
     1
 91
        4
176
     1
 64
     7
176
     1
 65
   257
176
     1
 75
     1
176
     1
175
     1
176
     1
 42
1.0
176
     1
 92
        0
176
     1
 66
   257
176
     1
 43
1.0
176
     1
 76
     1
176
     1
 77
     6
176
     1
 78
     2
176
     1
 67
     7
176
     1
 79
     5
176
     1
170
     0
176
     1
171
     0
176
     1
290
     0
176
     1
 93
        1
176
     1
 44
0.0
176
     1
173
     0
176
     1
  0
VISUALSTYLE
  5
3A6
102
{ACAD_REACTORS
330
39E
102
}
102
{ACAD_XDICTIONARY
360
3DE
102
}
330
39E
100
AcDbVisualStyle
  2
Basic
 70
     7
177
     2
291
     1
 71
     1
176
     1
 72
     0
176
     1
 73
     1
176
     1
 90
        0
176
     1
 40
0.6
176
     1
 41
30.0
176
     1
 62
     5
 63
     7
421
 16777215
176
     1
 74
     0
176
     1
 91
        4
176
     1
 64
     7
176
     1
 65
   257
176
     1
 75
     1
176
     1
175
     1
176
     1
 42
1.0
176
     1
 92
        8
176
     1
 66
     7
176
     1
 43
1.0
176
     1
 76
     1
176
     1
 77
     6
176
     1
 78
     2
176
     1
 67
     7
176
     1
 79
     5
176
     1
170
     0
176
     1
171
     0
176
     1
290
     0
176
     1
 93
        1
176
     1
 44
0.0
176
     1
173
     0
176
     1
  0
VISUALSTYLE
  5
3AA
102
{ACAD_REACTORS
330
39E
102
}
102
{ACAD_XDICTIONARY
360
3E6
102
}
330
39E
100
AcDbVisualStyle
  2
Brighten
 70
    12
177
     2
291
     1
 71
     2
176
     1
 72
     2
176
     1
 73
     0
176
     1
 90
        0
176
     1
 40
0.6
176
     1
 41
30.0
176
     1
 62
     5
 63
     7
421
 16777215
176
     1
 74
     1
176
     1
 91
        4
176
     1
 64
     7
176
     1
 65
   257
176
     1
 75
     1
176
     1
175
     1
176
     1
 42
1.0
176
     1
 92
        8
176
     1
 66
     7
176
     1
 43
1.0
176
     1
 76
     1
176
     1
 77
     6
176
     1
 78
     2
176
     1
 67
     7
176
     1
 79
     5
176
     1
170
     0
176
     1
171
     0
176
     1
290
     0
176
     1
 93
        1
176
     1
 44
50.0
176
     1
173
     0
176
     1
  0
VISUALSTYLE
  5
3AE
102
{ACAD_REACTORS
330
39E
102
}
102
{ACAD_XDICTIONARY
360
3EE
102
}
330
39E
100
AcDbVisualStyle
  2
ColorChange
 70
    16
177
     2
291
     1
 71
     2
176
     1
 72
     2
176
     1
 73
     3
176
     1
 90
        0
176
     1
 40
0.6
176
     1
 41
30.0
176
     1
 62
     5
 63
     8
421
  8421504
176
     1
 74
     1
176
     1
 91
        4
176
     1
 64
     7
176
     1
 65
   257
176
     1
 75
     1
176
     1
175
     1
176
     1
 42
1.0
176
     1
 92
        8
176
     1
 66
     8
424
  8421504
176
     1
 43
1.0
176
     1
 76
     1
176
     1
 77
     6
176
     1
 78
     2
176
     1
 67
     7
176
     1
 79
     5
176
     1
170
     0
176
     1
171
     0
176
     1
290
     0
176
     1
 93
        1
176
     1
 44
0.0
176
     1
173
     0
176
     1
  0
VISUALSTYLE
  5
3A8
102
{ACAD_REACTORS
330
39E
102
}
102
{ACAD_XDICTIONARY
360
3E2
102
}
330
39E
100
AcDbVisualStyle
  2
Conceptual
 70
     9
177
     2
291
     0
 71
     3
176
     1
 72
     2
176
     1
 73
     0
176
     1
 90
        0
176
     1
 40
0.6
176
     1
 41
30.0
176
     1
 62
     5
 63
     7
421
 16777215
176
     1
 74
     2
176
     1
 91
        2
176
     1
 64
     7
176
     1
 65
   257
176
     1
 75
     1
176
     1
175
     1
176
     1
 42
179.0
176
     1
 92
        8
176
     1
 66
     7
176
     1
 43
1.0
176
     1
 76
     1
176
     1
 77
     6
176
     1
 78
     2
176
     1
 67
     7
176
     1
 79
     3
176
     1
170
     0
176
     1
171
     0
176
     1
290
     0
176
     1
 93
        1
176
     1
 44
0.0
176
     1
173
     0
176
     1
  0
VISUALSTYLE
  5
3A9
102
{ACAD_REACTORS
330
39E
102
}
102
{ACAD_XDICTIONARY
360
3E4
102
}
330
39E
100
AcDbVisualStyle
  2
Dim
 70
    11
177
     2
291
     1
 71
     2
176
     1
 72
     2
176
     1
 73
     0
176
     1
 90
        0
176
     1
 40
0.6
176
     1
 41
30.0
176
     1
 62
     5
 63
     7
421
 16777215
176
     1
 74
     1
176
     1
 91
        4
176
     1
 64
     7
176
     1
 65
   257
176
     1
 75
     1
176
     1
175
     1
176
     1
 42
1.0
176
     1
 92
        8
176
     1
 66
     7
176
     1
 43
1.0
176
     1
 76
     1
176
     1
 77
     6
176
     1
 78
     2
176
     1
 67
     7
176
     1
 79
     5
176
     1
170
     0
176
     1
171
     0
176
     1
290
     0
176
     1
 93
        1
176
     1
 44
-50.0
176
     1
173
     0
176
     1
  0
VISUALSTYLE
  5
3B1
102
{ACAD_REACTORS
330
39E
102
}
102
{ACAD_XDICTIONARY
360
3F4
102
}
330
39E
100
AcDbVisualStyle
  2
EdgeColorOff
 70
    22
177
     2
291
     1
 71
     2
176
     0
 72
     2
176
     0
 73
     0
176
     0
 90
        0
176
     0
 40
0.6
176
     0
 41
30.0
176
     0
 62
     5
 63
     7
421
 16777215
176
     0
 74
     1
176
     0
 91
        4
176
     0
 64
     7
176
     0
 65
   257
176
     0
 75
     1
176
     0
175
     1
176
     0
 42
1.0
176
     0
 92
        8
176
     2
 66
     7
176
     0
 43
1.0
176
     0
 76
     1
176
     0
 77
     6
176
     0
 78
     2
176
     0
 67
     7
176
     0
 79
     5
176
     0
170
     0
176
     0
171
     0
176
     0
290
     0
176
     0
 93
        1
176
     0
 44
0.0
176
     0
173
     0
176
     0
  0
VISUALSTYLE
  5
3AD
102
{ACAD_REACTORS
330
39E
102
}
102
{ACAD_XDICTIONARY
360
3EC
102
}
330
39E
100
AcDbVisualStyle
  2
Facepattern
 70
    15
177
     2
291
     1
 71
     2
176
     1
 72
     2
176
     1
 73
     0
176
     1
 90
        0
176
     1
 40
0.6
176
     1
 41
30.0
176
     1
 62
     5
 63
     7
421
 16777215
176
     1
 74
     1
176
     1
 91
        4
176
     1
 64
     7
176
     1
 65
   257
176
     1
 75
     1
176
     1
175
     1
176
     1
 42
1.0
176
     1
 92
        8
176
     1
 66
     7
176
     1
 43
1.0
176
     1
 76
     1
176
     1
 77
     6
176
     1
 78
     2
176
     1
 67
     7
176
     1
 79
     5
176
     1
170
     0
176
     1
171
     0
176
     1
290
     0
176
     1
 93
        1
176
     1
 44
0.0
176
     1
173
     0
176
     1
  0
VISUALSTYLE
  5
39F
102
{ACAD_REACTORS
330
39E
102
}
102
{ACAD_XDICTIONARY
360
3D0
102
}
330
39E
100
AcDbVisualStyle
  2
Flat
 70
     0
177
     2
291
     1
 71
     2
176
     1
 72
     1
176
     1
 73
     1
176
     1
 90
        2
176
     1
 40
0.6
176
     1
 41
30.0
176
     1
 62
     5
 63
     7
421
 16777215
176
     1
 74
     0
176
     1
 91
        0
176
     1
 64
     7
176
     1
 65
   257
176
     1
 75
     1
176
     1
175
     1
176
     1
 42
1.0
176
     1
 92
        8
176
     1
 66
     7
176
     1
 43
1.0
176
     1
 76
     1
176
     1
 77
     6
176
     1
 78
     2
176
     1
 67
     7
176
     1
 79
     5
176
     1
170
     0
176
     1
171
     0
176
     1
290
     0
176
     1
 93
       13
176
     1
 44
0.0
176
     1
173
     0
176
     1
  0
VISUALSTYLE
  5
3A0
102
{ACAD_REACTORS
330
39E
102
}
102
{ACAD_XDICTIONARY
360
3D2
102
}
330
39E
100
AcDbVisualStyle
  2
FlatWithEdges
 70
     1
177
     2
291
     1
 71
     2
176
     1
 72
     1
176
     1
 73
     1
176
     1
 90
        2
176
     1
 40
0.6
176
     1
 41
30.0
176
     1
 62
     5
 63
     7
421
 16777215
176
     1
 74
     1
176
     1
 91
        0
176
     1
 64
     7
176
     1
 65
   257
176
     1
 75
     1
176
     1
175
     1
176
     1
 42
1.0
176
     1
 92
        0
176
     1
 66
   257
176
     1
 43
1.0
176
     1
 76
     1
176
     1
 77
     6
176
     1
 78
     2
176
     1
 67
     7
176
     1
 79
     5
176
     1
170
     0
176
     1
171
     0
176
     1
290
     0
176
     1
 93
       13
176
     1
 44
0.0
176
     1
173
     0
176
     1
  0
VISUALSTYLE
  5
3A1
102
{ACAD_REACTORS
330
39E
102
}
102
{ACAD_XDICTIONARY
360
3D4
102
}
330
39E
100
AcDbVisualStyle
  2
Gouraud
 70
     2
177
     2
291
     1
 71
     2
176
     1
 72
     2
176
     1
 73
     1
176
     1
 90
        2
176
     1
 40
0.6
176
     1
 41
30.0
176
     1
 62
     5
 63
     7
421
 16777215
176
     1
 74
     0
176
     1
 91
        0
176
     1
 64
     7
176
     1
 65
   257
176
     1
 75
     1
176
     1
175
     1
176
     1
 42
1.0
176
     1
 92
        0
176
     1
 66
     7
176
     1
 43
1.0
176
     1
 76
     1
176
     1
 77
     6
176
     1
 78
     2
176
     1
 67
     7
176
     1
 79
     5
176
     1
170
     0
176
     1
171
     0
176
     1
290
     0
176
     1
 93
       13
176
     1
 44
0.0
176
     1
173
     0
176
     1
  0
VISUALSTYLE
  5
3A2
102
{ACAD_REACTORS
330
39E
102
}
102
{ACAD_XDICTIONARY
360
3D6
102
}
330
39E
100
AcDbVisualStyle
  2
GouraudWithEdges
 70
     3
177
     2
291
     1
 71
     2
176
     1
 72
     2
176
     1
 73
     1
176
     1
 90
        2
176
     1
 40
0.6
176
     1
 41
30.0
176
     1
 62
     5
 63
     7
421
 16777215
176
     1
 74
     1
176
     1
 91
        0
176
     1
 64
     7
176
     1
 65
   257
176
     1
 75
     1
176
     1
175
     1
176
     1
 42
1.0
176
     1
 92
        0
176
     1
 66
   257
176
     1
 43
1.0
176
     1
 76
     1
176
     1
 77
     6
176
     1
 78
     2
176
     1
 67
     7
176
     1
 79
     5
176
     1
170
     0
176
     1
171
     0
176
     1
290
     0
176
     1
 93
       13
176
     1
 44
0.0
176
     1
173
     0
176
     1
  0
VISUALSTYLE
  5
3A5
102
{ACAD_REACTORS
330
39E
102
}
102
{ACAD_XDICTIONARY
360
3DC
102
}
330
39E
100
AcDbVisualStyle
  2
Hidden
 70
     6
177
     2
291
     0
 71
     1
176
     1
 72
     2
176
     1
 73
     2
176
     1
 90
        0
176
     1
 40
0.6
176
     1
 41
30.0
176
     1
 62
     5
 63
     7
421
 16777215
176
     1
 74
     2
176
     1
 91
        2
176
     1
 64
     7
176
     1
 65
   257
176
     1
 75
     2
176
     1
175
     1
176
     1
 42
40.0
176
     1
 92
        0
176
     1
 66
   257
176
     1
 43
1.0
176
     1
 76
     1
176
     1
 77
     6
176
     1
 78
     2
176
     1
 67
     7
176
     1
 79
     3
176
     1
170
     0
176
     1
171
     0
176
     1
290
     0
176
     1
 93
        1
176
     1
 44
0.0
176
     1
173
     0
176
     1
  0
VISUALSTYLE
  5
3AF
102
{ACAD_REACTORS
330
39E
102
}
102
{ACAD_XDICTIONARY
360
3F0
102
}
330
39E
100
AcDbVisualStyle
  2
JitterOff
 70
    20
177
     2
291
     1
 71
     2
176
     0
 72
     2
176
     0
 73
     0
176
     0
 90
        0
176
     0
 40
0.6
176
     0
 41
30.0
176
     0
 62
     5
 63
     7
421
 16777215
176
     0
 74
     1
176
     0
 91
        4
176
     0
 64
     7
176
     0
 65
   257
176
     0
 75
     1
176
     0
175
     1
176
     0
 42
1.0
176
     0
 92
       10
176
     2
 66
     7
176
     0
 43
1.0
176
     0
 76
     1
176
     0
 77
     6
176
     0
 78
     2
176
     0
 67
     7
176
     0
 79
     5
176
     0
170
     0
176
     0
171
     0
176
     0
290
     0
176
     0
 93
        1
176
     0
 44
0.0
176
     0
173
     0
176
     0
  0
VISUALSTYLE
  5
3AC
102
{ACAD_REACTORS
330
39E
102
}
102
{ACAD_XDICTIONARY
360
3EA
102
}
330
39E
100
AcDbVisualStyle
  2
Linepattern
 70
    14
177
     2
291
     1
 71
     2
176
     1
 72
     2
176
     1
 73
     0
176
     1
 90
        0
176
     1
 40
0.6
176
     1
 41
30.0
176
     1
 62
     5
 63
     7
421
 16777215
176
     1
 74
     1
176
     1
 91
        4
176
     1
 64
     7
176
     1
 65
   257
176
     1
 75
     7
176
     1
175
     7
176
     1
 42
1.0
176
     1
 92
        8
176
     1
 66
     7
176
     1
 43
1.0
176
     1
 76
     1
176
     1
 77
     6
176
     1
 78
     2
176
     1
 67
     7
176
     1
 79
     5
176
     1
170
     0
176
     1
171
     0
176
     1
290
     0
176
     1
 93
        1
176
     1
 44
0.0
176
     1
173
     0
176
     1
  0
VISUALSTYLE
  5
3B0
102
{ACAD_REACTORS
330
39E
102
}
102
{ACAD_XDICTIONARY
360
3F2
102
}
330
39E
100
AcDbVisualStyle
  2
OverhangOff
 70
    21
177
     2
291
     1
 71
     2
176
     0
 72
     2
176
     0
 73
     0
176
     0
 90
        0
176
     0
 40
0.6
176
     0
 41
30.0
176
     0
 62
     5
 63
     7
421
 16777215
176
     0
 74
     1
176
     0
 91
        4
176
     0
 64
     7
176
     0
 65
   257
176
     0
 75
     1
176
     0
175
     1
176
     0
 42
1.0
176
     0
 92
        9
176
     2
 66
     7
176
     0
 43
1.0
176
     0
 76
     1
176
     0
 77
     6
176
     0
 78
     2
176
     0
 67
     7
176
     0
 79
     5
176
     0
170
     0
176
     0
171
     0
176
     0
290
     0
176
     0
 93
        1
176
     0
 44
0.0
176
     0
173
     0
176
     0
  0
VISUALSTYLE
  5
3A7
102
{ACAD_REACTORS
330
39E
102
}
102
{ACAD_XDICTIONARY
360
3E0
102
}
330
39E
100
AcDbVisualStyle
  2
Realistic
 70
     8
177
     2
291
     0
 71
     2
176
     1
 72
     3
176
     1
 73
     0
176
     1
 90
        2
176
     1
 40
0.6
176
     1
 41
30.0
176
     1
 62
     5
 63
     7
421
 16777215
176
     1
 74
     0
176
     1
 91
        0
176
     1
 64
     7
176
     1
 65
   257
176
     1
 75
     1
176
     1
175
     1
176
     1
 42
1.0
176
     1
 92
        8
176
     1
 66
   257
176
     1
 43
1.0
176
     1
 76
     1
176
     1
 77
     6
176
     1
 78
     2
176
     1
 67
     7
176
     1
 79
     3
176
     1
170
     0
176
     1
171
     0
176
     1
290
     0
176
     1
 93
       13
176
     1
 44
0.0
176
     1
173
     0
176
     1
  0
VISUALSTYLE
  5
3B6
102
{ACAD_REACTORS
330
39E
102
}
102
{ACAD_XDICTIONARY
360
3FE
102
}
330
39E
100
AcDbVisualStyle
  2
Shaded
 70
    27
177
     2
291
     0
 71
     2
176
     1
 72
     2
176
     1
 73
     1
176
     1
 90
        2
176
     1
 40
0.6
176
     1
 41
30.0
176
     1
 62
     5
 63
     7
421
 16777215
176
     1
 74
     0
176
     1
 91
        4
176
     1
 64
     7
176
     1
 65
   257
176
     1
 75
     1
176
     1
175
     1
176
     1
 42
1.0
176
     1
 92
        8
176
     1
 66
   257
176
     1
 43
1.0
176
     1
 76
     1
176
     1
 77
     6
176
     1
 78
     2
176
     1
 67
     8
425
  7895160
176
     1
 79
     3
176
     1
170
     0
176
     1
171
     0
176
     1
290
     0
176
     1
 93
        5
176
     1
 44
0.0
176
     1
173
     0
176
     1
  0
VISUALSTYLE
  5
3B5
102
{ACAD_REACTORS
330
39E
102
}
102
{ACAD_XDICTIONARY
360
3FC
102
}
330
39E
100
AcDbVisualStyle
  2
Shaded with edges
 70
    26
177
     2
291
     0
 71
     2
176
     1
 72
     2
176
     1
 73
     1
176
     1
 90
        2
176
     1
 40
0.6
176
     1
 41
30.0
176
     1
 62
     5
 63
     7
421
 16777215
176
     1
 74
     1
176
     1
 91
       10
176
     1
 64
     7
176
     1
 65
   257
176
     1
 75
     2
176
     1
175
     1
176
     1
 42
1.0
176
     1
 92
        8
176
     1
 66
   257
176
     1
 43
1.0
176
     1
 76
     1
176
     1
 77
     6
176
     1
 78
     2
176
     1
 67
     7
176
     1
 79
     3
176
     1
170
     0
176
     1
171
     0
176
     1
290
     0
176
     1
 93
        5
176
     1
 44
0.0
176
     1
173
     0
176
     1
  0
VISUALSTYLE
  5
3B2
102
{ACAD_REACTORS
330
39E
102
}
102
{ACAD_XDICTIONARY
360
3F6
102
}
330
39E
100
AcDbVisualStyle
  2
Shades of Gray
 70
    23
177
     2
291
     0
 71
     2
176
     1
 72
     2
176
     1
 73
     3
176
     1
 90
        0
176
     1
 40
0.6
176
     1
 41
30.0
176
     1
 62
     5
 63
     7
421
 16777215
176
     1
 74
     2
176
     1
 91
        2
176
     1
 64
     7
176
     1
 65
     7
176
     1
 75
     1
176
     1
175
     1
176
     1
 42
40.0
176
     1
 92
        8
176
     1
 66
     7
176
     1
 43
1.0
176
     1
 76
     1
176
     1
 77
     6
176
     1
 78
     2
176
     1
 67
     7
176
     1
 79
     3
176
     1
170
     0
176
     1
171
     0
176
     1
290
     0
176
     1
 93
        1
176
     1
 44
0.0
176
     1
173
     0
176
     1
  0
VISUALSTYLE
  5
3B3
102
{ACAD_REACTORS
330
39E
102
}
102
{ACAD_XDICTIONARY
360
3F8
102
}
330
39E
100
AcDbVisualStyle
  2
Sketchy
 70
    24
177
     2
291
     0
 71
     1
176
     1
 72
     2
176
     1
 73
     2
176
     1
 90
        0
176
     1
 40
0.6
176
     1
 41
30.0
176
     1
 62
     5
 63
     7
421
 16777215
176
     1
 74
     2
176
     1
 91
        2
176
     1
 64
     7
176
     1
 65
     7
176
     1
 75
     1
176
     1
175
     1
176
     1
 42
40.0
176
     1
 92
       11
176
     1
 66
     7
176
     1
 43
1.0
176
     1
 76
     1
176
     1
 77
     6
176
     1
 78
     2
176
     1
 67
     7
176
     1
 79
     6
176
     1
170
     0
176
     1
171
     0
176
     1
290
     0
176
     1
 93
        1
176
     1
 44
0.0
176
     1
173
     0
176
     1
  0
VISUALSTYLE
  5
3AB
102
{ACAD_REACTORS
330
39E
102
}
102
{ACAD_XDICTIONARY
360
3E8
102
}
330
39E
100
AcDbVisualStyle
  2
Thicken
 70
    13
177
     2
291
     1
 71
     2
176
     1
 72
     2
176
     1
 73
     0
176
     1
 90
        0
176
     1
 40
0.6
176
     1
 41
30.0
176
     1
 62
     5
 63
     7
421
 16777215
176
     1
 74
     1
176
     1
 91
        4
176
     1
 64
     7
176
     1
 65
   257
176
     1
 75
     1
176
     1
175
     1
176
     1
 42
1.0
176
     1
 92
       12
176
     1
 66
     7
176
     1
 43
1.0
176
     1
 76
     1
176
     1
 77
     6
176
     1
 78
     2
176
     1
 67
     7
176
     1
 79
     5
176
     1
170
     0
176
     1
171
     0
176
     1
290
     0
176
     1
 93
        1
176
     1
 44
0.0
176
     1
173
     0
176
     1
  0
VISUALSTYLE
  5
3A4
102
{ACAD_REACTORS
330
39E
102
}
102
{ACAD_XDICTIONARY
360
3DA
102
}
330
39E
100
AcDbVisualStyle
  2
Wireframe
 70
     5
177
     2
291
     0
 71
     0
176
     1
 72
     2
176
     1
 73
     0
176
     1
 90
        0
176
     1
 40
0.6
176
     1
 41
30.0
176
     1
 62
     5
 63
     7
421
 16777215
176
     1
 74
     1
176
     1
 91
        4
176
     1
 64
     7
176
     1
 65
   257
176
     1
 75
     1
176
     1
175
     1
176
     1
 42
1.0
176
     1
 92
        0
176
     1
 66
   257
176
     1
 43
1.0
176
     1
 76
     1
176
     1
 77
     6
176
     1
 78
     2
176
     1
 67
     7
176
     1
 79
     3
176
     1
170
     0
176
     1
171
     0
176
     1
290
     0
176
     1
 93
        1
176
     1
 44
0.0
176
     1
173
     0
176
     1
  0
VISUALSTYLE
  5
3B4
102
{ACAD_REACTORS
330
39E
102
}
102
{ACAD_XDICTIONARY
360
3FA
102
}
330
39E
100
AcDbVisualStyle
  2
X-Ray
 70
    25
177
     2
291
     0
 71
     2
176
     1
 72
     2
176
     1
 73
     1
176
     1
 90
        1
176
     1
 40
0.5
176
     1
 41
30.0
176
     1
 62
     5
 63
     7
421
 16777215
176
     1
 74
     1
176
     1
 91
        0
176
     1
 64
     7
176
     1
 65
   257
176
     1
 75
     1
176
     1
175
     1
176
     1
 42
1.0
176
     1
 92
        8
176
     1
 66
     7
176
     1
 43
1.0
176
     1
 76
     1
176
     1
 77
     6
176
     1
 78
     2
176
     1
 67
     7
176
     1
 79
     3
176
     1
170
     0
176
     1
171
     0
176
     1
290
     0
176
     1
 93
       13
176
     1
 44
0.0
176
     1
173
     0
176
     1
  0
DICTIONARYVAR
  5
3CD
102
{ACAD_REACTORS
330
3CC
102
}
330
3CC
100
DictionaryVariables
280
     0
  1
1:1
  0
DICTIONARYVAR
  5
401
102
{ACAD_REACTORS
330
3CC
102
}
330
3CC
100
DictionaryVariables
280
     0
  1
Standard
  0
CSACDOCUMENTOPTIONS
  5
3C2
102
{ACAD_REACTORS
330
3C1
102
}
330
3C1
  0
XRECORD
  5
3C6
102
{ACAD_REACTORS
330
3BD
102
}
330
3BD
100
AcDbXrecord
280
     1
300
MC_VERSION_DATA
 90
       95
310
0600000002000000570000001C000000E404000000000000000000007801936764E5D8CF7A8393818115C460606066E0646662626666706006F214793899F8DE3171E725E6E53B3BBA2878E6951050AF75FEFFFFFF520032DE0F3057000000
  0
XRECORD
  5
3BE
102
{ACAD_REACTORS
330
3BD
102
}
330
3BD
100
AcDbXrecord
280
     1
300
MCS_DOCUMENT_ID
 90
       60
310
0600000002000000150000001C000000E404000000000000000000007801E39D5BDF7A2DBAD8DA7BA7CEAC336B3244EEFF070200709E0C2715000000
  0
XRECORD
  5
3C4
102
{ACAD_REACTORS
330
3BD
102
}
330
3BD
100
AcDbXrecord
280
     1
300
MCS_PARAMS_DATA
 90
     3313
310
0600000002000000F64B00001C000000E404000000000000000000007801C55C5B905C45199EE99EBDCCE67E5DA218172C303B91307B4B8C459531245054850D55591F78B236BB49B9BAC9E6B22A082A9655BE5865596569A965F9209288CF16503EC8834088C10B092404211702988430422E9084CDAEFFD7A7FBF4DFA7CF
310
D9D99D9D39930798FF3F7DCEF7DFFAFBBBFBCC6CDBFC46297252EECB48F9CDF5ED5234493921A5206D76815820B252E4F3225F128D7D5F59BF69E3162948D9A2D485B3131313747328BF06593E960915079422437734AA3BDAA5CCD053F5ED4FD2557D257BAB94DF007A03479F859BB2B22193C9108EC1CDCADC0464C27506
310
28605703E48886E0B986E10F03BF91E33707F8E3140E7A9091C8268236920C1C662240B94888A1C8E07600AE99C32D5131CA8B3925D172EFE62D7D6D9DABBA8ADDD6F17CE16D13F0457AE8AC9268DE32DABF73B07FCFA013F9BF8491D7C17E2550D8E8FFCA8DFE4E98B3929B331718B291824FFF72EB941D9E8E2211D5A93C
310
784A44C557923911258BD0C8640531AEEC61A924855B11378280384364A422680C0A928DB9C10CD89D581114199665B722B26E4590C82B0222AB08FAA8A60626C028E0044F81BA246F5360E167F2D27C56A10E05C058C13C59DEC6207679103AFC5DEADF992F2B284F67B31C8EE359B64A9665A62453228F64269D98455E3B
310
A4B35817F7EC92C86FB8EFFE8DBD5BEEDBDCAB0CD3B5FC8E99065A7E55D536E39DE7826237F1C8BBBCB3CFADFC93302087C80397EE69C2FF69CA32234F0763E41851010DA578E8294D435524988818E84710A7B2643B4F7C034F6CE5C9368F203BE8094C6268541D70D35EE4B585DAE170F4942EB8D2D422560A9917F34B62
310
CE86919D9F1F6DDBB36DD770FFC0B6BC682E898607BEB5737424F8D83B323AF07529CFC0B69BB96D9FD3CFF9B410ED79B1A42416161FEA29AEEDEEEC5ADF532C76DEF3C5AEEEB5CAECF97A60330D2C1C3579EAD0DA7621F20269BD6768746FDBF0D0DE51F3B0EE356B3ABBD6F474F7740D76770EACED08FCFC92BEAF13F701
310
B5AF7FEBF0B6B691ED6D7D23C3DBF6F4EF840FDA9AD583C58E81E240FFEAADDD5BD70EAC0E669D2A25F27FB610851F9335859F059541B9E5971EC7A5A7E83F2CE53DB9A4040555A2661A4DDBF2C560B2E54E7D5483931EF871F7C88E5DFDA3435B878687461F6EDB313248FE3596847C70DBDEBC682809D13B22E56A5856E4
310
E9998738519B6E2A89DCE6EDDBDB542AF4E4380F8F61A4965F57116093E5A052A06AF588670205D9A715FB49B140D81A90855F902680EBB8B3A3187EEA96F2B224E392BAF898328CB1AD47DA34C1601A1B421AD816D190715CC3F276A5DE067C546F03AED6DB808FEB6DC0B57A1BB00853B49EB3E0937A47E07ABD0D188301
310
71CB797197D3603B1D06BFCB6DB024827C0C834324E60945463B3712E196397079076E990B47228783C8E09631B8F129C211385B3E540C97413DC70673C524DEAD70BD23917B079179B782793791AE77D944EFDCDC5529988B13E1069D6092C472A7F777A6F648E4C184C88239C8822913E16AE29D48176E29E0727C316496
310
EF2A967C95165E504B0C2B218EEE82DD5C63513CD614C5091F6D6FA7551865CC5C5030A1E0A3E84BEC86CFD04EC5DD01AA74CBDB05AB8C403295A124BB2908C4B032B4682A032283FB103E391B4E03172C7199C4E0F88E871E8855ADA1482D3238FA1846E0B807A77785BFF935FE1D74369F5647D0D171CA5F4F09337C2559
310
105132935A503D6DBC7A94B54D2B6DF1E0339960F436A97441791E5EC104D40283580888C4FDED577B1FD8B4B9AF6FE30605D8AAD7F1F34A62F6DD5BBEC62E92057A31FEA25A9DB3F5FBD3C1729D9CD723B0BF0DE8402BB05A67160DDE4416E59079C0D9EAA575B7321F67115FC018C76AB5B3A33D06B68CBD9BFBDC93C073
310
800CC384FD360C544F539B6F02B1820953BE9D01DE01C0D85A6C50369A5AC4065C7760793B965800321749E4B50891C0C2AB0CAE9808178444974C70F875952A9381563C01BE9D08EAFA481283ABD8C7EF7870DAABE068E68833DFAC8EA0A3E3F87C0B07AA507B2311F0889285BDC333294C4E2DB27C67BA70ABD2857B688A
310
70552AA7873DB8489E55063D5D2DCBE9BB9E49F1E554A5083C922EDCA3E9C27D2F5DB8EF7B705EE9D87E1E920E88313AAE6AECF4FBD668D3D30DB4E51ADA9BEDB0D7AFCEB4DDED85F7C4ECF6551B3BCE2AFF6E835E49458EC94883D6E73C45753FAE614C3C0A0362777435D915EC025C33F7578776011DE6F3D066954C59D6
310
D76F86AC9CD58A53F4122CF0552BAE070AEA3B5AF15752304F1F47569D50AB71F41A31FA5A51C904CD43C6B0F51D2ACEFC112ACC4CC1B0FF086CE7AD5A4D096A005126387AAD451EE384D9C035A925859E39C1AA865EE9A9B8DA21CEE289167F7CF1D4C4BC7A125EC5AED5D8BB0B5A9D9144D134CFA71BF85A8D44BE568348
310
F6AA55A2F3CAEA4F6982FD21118CC249D3CBF852A586F244BA70FBD285DB9F085793EDE56E143F0AD06C6B4CB2242BDD3DD1419166C2865E81F9CE1648F3CBD84597B22E28992A3DDCE24C77F3F311A01C8A722828EC3CF15F7D987933F818F8E59BC138E5CD4CE8AC24C94E68BA32F5C3CBAB808B6B06B9936E642F9F804C
310
903AF2F3709D37832318A078E4B37AEBDCFAA66859945B9EBB25776BAE2DD3995995E9CA1433DDFA4DAC7ECE6FE93696E96BB06712968ED2661884A9EE40230F60D0D73DE8C858453B9E8E4212D5A9B0784A762662599FEDD18C9299F4094C728A91F536658E91CDA6DFC8E89F363B15B4CB31404FD2581CF722BBF229B517
310
430944E56AB2E2A8E3461950730F2B7ECA7BC570E389706E8BA9D241C744225C40C29385944F707279EA277D998065D9EAD604B1263E66D38513E9C2490F4EE7CC6E8AA89C3D9DA588701CA708AB6414C194931EE3FC0D4515D71A4FBFE712F8CB4A26532A6E8DCF01CA61A3745BE3F3C09F6E6B442F0CD7BAD36A8D2F002E
310
AE359E3BE646F6B8926D6BBC0CD9926FBEF08C5220B9BAE91D0E14769FF44B52301E3C00E8FA74C117BD24F396E22C7F1005F2DA2902EB76053DE720B0D3EE397F2F036AE8B24A3DE750225C4DF8F8A544B81AF69C7F2482D6C4C77F067093EF36FE359541FF8E0E8A50399BA22F63681CEF0EBDEBB2C3834A9E09EF1E0654
310
1D79F708F0A7CBBB956F495E015C1CEFEE3EEC46B65FC996771F856C09285F58A7148C77872F6104D6DC9A8897D30896D457015D1FDE3DEA25B91CEFF2EBD6EB0A68F718A0D3A6DDD7CA805699768F27C2D584925E4F84AB9476A39B03E744D09CD6610FF59F44E89A78FA46BA70DDDE0ADC144A4DBCEBF1E0221D416DC23D
310
1D715254A766A8A7AC60C1FF26021ED7783E889CD89C52F24C1ACF0940D5B1F19C047E7A8DE714E0E21ACFD5436EE339AB64DB78E44B91C6730003ECCB897CE1D28548E3798246B0C6731AD0536D3CB3E90740046E0B5FD5161351555C247A084506FA9607AAEBD39C44F1E2B63A5BDCA18E17B755B2E2664A322602C34C3A
310
0393625B51C09BC60D77315EF1E1C8DB80730A9C37D5B8CD0EBF3EA3A6FB4EA2A7C18B1B2746D53A5F7BB70C687C78291FE10E3A386EE3054657F9CB297E9CF703B0E71DFC4DA3397B4068C3CF33A1A81F02C2C920DB8E7ABF712005813923946BAE06DE453454B45CC32AF6311810C751E3F85A979E7874424F9299B34AB2
310
210DC430A45A3473162283FB2F3218C7FE178FBB1CF59692CDAD957C0DECAC3739580882F7E26636C4FC0874E66F42CE013F2EB274A4C323CBB88082C5B980AE4CFD4DC879C0C5B1FFF5E7DDC89E57324556799F2F34BC006EC70CD18A8318C0D9FF0AB6807CDBB19F46B0A4BE07E8B4D9FF8207EA504E3D7E65FA3E4C7226
310
B329B0E8D703AAFEBAA304E869379E693123CD68457958A4FF2F11AE86ECFF4119D078F6E7138AD87FF2370F86D6E1E38789702D76FED2134932CCA824CB8C811832A3160D33426421BD980847AF6F0C11D33DEECB1CFE9B7175D1F926045DE5BD8DBFBDBE94081764D0049324E6DDB40A8607F372225C4D16463974B5B836
310
F393232E193EA2E499B49986C93A780A6DA631A981D7A6CD34012EAECDFCFC5937B23F52B26D33BF83CCDBCC56A5C0ECD07DE7A7A7226D661D8D6033A419D0536D33E07F56B8C4CA7C0D48229F9610695A461A0883CE7B494E8DD95B004DF38E8247AB09FE45AC1A52EDAC32A0861DD8DA85D8A76276989D08579353913989
310
700119397510D9BB4CAB9DF096393711B4263ECE4B176E7EBA700B3C389DB3F0B5335AA6A7234288EA142D784A9083AFB414616018456CF24C3293C4CD2F49D3E5A5F0410CEE7E0F2E6A6FEA11580893E29AEE529C2FC11C4DF48D4AA628982DB44A422820F8563073C8F989CF2240392BED74F7768B819FDEDE6E09E0E29A
310
EE72FA030B3CB273954C91D5916E87CC9BEEFB4FAB1E6B73B10CFB6CBEB73B4423589D2D05F4CC9AAE2E4C768646F0614DBB4BD40606DDEA2539B5A67B13A0D36EBACBCA809A9055A7E9E24B8E0D79912B896C91FE0C1655C17843E129FA335B3277F4E8510807513CB9CC44868E210AF7FE19028691B0917E39482B125CF8
310
D4FF01F0B312DAF64B0000
  0
TABLECONTENT
  5
3C8
330
3CB
100
AcDbLinkedData
  1

300

100
AcDbLinkedTableData
 90
        5
300
COLUMN
  1
LINKEDTABLEDATACOLUMN_BEGIN
300

 91
        0
301
CUSTOMDATA
  1
DATAMAP_BEGIN
 90
        0
309
DATAMAP_END
309
LINKEDTABLEDATACOLUMN_END
  1
FORMATTEDTABLEDATACOLUMN_BEGIN
300
COLUMNTABLEFORMAT
  1
TABLEFORMAT_BEGIN
 90
        3
170
     0
309
TABLEFORMAT_END
309
FORMATTEDTABLEDATACOLUMN_END
  1
TABLECOLUMN_BEGIN
 90
        0
 40
10.0
309
TABLECOLUMN_END
300
COLUMN
  1
LINKEDTABLEDATACOLUMN_BEGIN
300

 91
        0
301
CUSTOMDATA
  1
DATAMAP_BEGIN
 90
        0
309
DATAMAP_END
309
LINKEDTABLEDATACOLUMN_END
  1
FORMATTEDTABLEDATACOLUMN_BEGIN
300
COLUMNTABLEFORMAT
  1
TABLEFORMAT_BEGIN
 90
        3
170
     0
309
TABLEFORMAT_END
309
FORMATTEDTABLEDATACOLUMN_END
  1
TABLECOLUMN_BEGIN
 90
        0
 40
10.0
309
TABLECOLUMN_END
300
COLUMN
  1
LINKEDTABLEDATACOLUMN_BEGIN
300

 91
        0
301
CUSTOMDATA
  1
DATAMAP_BEGIN
 90
        0
309
DATAMAP_END
309
LINKEDTABLEDATACOLUMN_END
  1
FORMATTEDTABLEDATACOLUMN_BEGIN
300
COLUMNTABLEFORMAT
  1
TABLEFORMAT_BEGIN
 90
        3
170
     0
309
TABLEFORMAT_END
309
FORMATTEDTABLEDATACOLUMN_END
  1
TABLECOLUMN_BEGIN
 90
        0
 40
10.0
309
TABLECOLUMN_END
300
COLUMN
  1
LINKEDTABLEDATACOLUMN_BEGIN
300

 91
        0
301
CUSTOMDATA
  1
DATAMAP_BEGIN
 90
        0
309
DATAMAP_END
309
LINKEDTABLEDATACOLUMN_END
  1
FORMATTEDTABLEDATACOLUMN_BEGIN
300
COLUMNTABLEFORMAT
  1
TABLEFORMAT_BEGIN
 90
        3
170
     0
309
TABLEFORMAT_END
309
FORMATTEDTABLEDATACOLUMN_END
  1
TABLECOLUMN_BEGIN
 90
        0
 40
40.0
309
TABLECOLUMN_END
300
COLUMN
  1
LINKEDTABLEDATACOLUMN_BEGIN
300

 91
        0
301
CUSTOMDATA
  1
DATAMAP_BEGIN
 90
        0
309
DATAMAP_END
309
LINKEDTABLEDATACOLUMN_END
  1
FORMATTEDTABLEDATACOLUMN_BEGIN
300
COLUMNTABLEFORMAT
  1
TABLEFORMAT_BEGIN
 90
        3
170
     0
309
TABLEFORMAT_END
309
FORMATTEDTABLEDATACOLUMN_END
  1
TABLECOLUMN_BEGIN
 90
        0
 40
20.0
309
TABLECOLUMN_END
 91
        5
301
ROW
  1
LINKEDTABLEDATAROW_BEGIN
 90
        5
300
CELL
  1
LINKEDTABLEDATACELL_BEGIN
 90
        0
300

 91
        0
301
CUSTOMDATA
  1
DATAMAP_BEGIN
 90
        1
300
ACAD_ROUNDTRIP_2008_CELL_CHECKSUM
301
DATAMAP_VALUE
 93
        2
 90
        2
140
32.0
 94
        0
300

302

304
ACVALUE_END
309
DATAMAP_END
 92
        0
 95
        1
302
CONTENT
  1
CELLCONTENT_BEGIN
 90
        1
300
VALUE
 93
        2
 90
        4
  1
 
 94
        0
300

302
 
304
ACVALUE_END
 91
        0
309
CELLCONTENT_END
  1
FORMATTEDCELLCONTENT_BEGIN
170
     1
300
CONTENTFORMAT
  1
CONTENTFORMAT_BEGIN
 90
      132
 91
        0
 92
      512
 93
        0
300

 40
0.0
140
1.0
 94
        1
 62
     0
340
0
144
3.5
309
CONTENTFORMAT_END
309
FORMATTEDCELLCONTENT_END
309
LINKEDTABLEDATACELL_END
  1
FORMATTEDTABLEDATACELL_BEGIN
300
CELLTABLEFORMAT
  1
TABLEFORMAT_BEGIN
 90
        1
170
     1
 91
        0
 92
        0
 62
   257
 93
        1
300
CONTENTFORMAT
  1
CONTENTFORMAT_BEGIN
 90
        0
 91
        0
 92
      512
 93
        0
300

 40
0.0
140
1.0
 94
        1
 62
     0
340
0
144
0.18
309
CONTENTFORMAT_END
171
     0
 94
        0
309
TABLEFORMAT_END
309
FORMATTEDTABLEDATACELL_END
  1
TABLECELL_BEGIN
 90
        0
 91
        0
309
TABLECELL_END
300
CELL
  1
LINKEDTABLEDATACELL_BEGIN
 90
        0
300

 91
        0
301
CUSTOMDATA
  1
DATAMAP_BEGIN
 90
        0
309
DATAMAP_END
 92
        0
 95
        0
309
LINKEDTABLEDATACELL_END
  1
FORMATTEDTABLEDATACELL_BEGIN
300
CELLTABLEFORMAT
  1
TABLEFORMAT_BEGIN
 90
        1
170
     1
 91
        0
 92
        0
 62
   257
 93
        1
300
CONTENTFORMAT
  1
CONTENTFORMAT_BEGIN
 90
        0
 91
        0
 92
      512
 93
        0
300

 40
0.0
140
1.0
 94
        1
 62
     0
340
0
144
0.18
309
CONTENTFORMAT_END
171
     0
 94
        0
309
TABLEFORMAT_END
309
FORMATTEDTABLEDATACELL_END
  1
TABLECELL_BEGIN
 90
        0
 91
        0
309
TABLECELL_END
300
CELL
  1
LINKEDTABLEDATACELL_BEGIN
 90
        0
300

 91
        0
301
CUSTOMDATA
  1
DATAMAP_BEGIN
 90
        0
309
DATAMAP_END
 92
        0
 95
        0
309
LINKEDTABLEDATACELL_END
  1
FORMATTEDTABLEDATACELL_BEGIN
300
CELLTABLEFORMAT
  1
TABLEFORMAT_BEGIN
 90
        1
170
     1
 91
        0
 92
        0
 62
   257
 93
        1
300
CONTENTFORMAT
  1
CONTENTFORMAT_BEGIN
 90
        0
 91
        0
 92
      512
 93
        0
300

 40
0.0
140
1.0
 94
        1
 62
     0
340
0
144
0.18
309
CONTENTFORMAT_END
171
     0
 94
        0
309
TABLEFORMAT_END
309
FORMATTEDTABLEDATACELL_END
  1
TABLECELL_BEGIN
 90
        0
 91
        0
309
TABLECELL_END
300
CELL
  1
LINKEDTABLEDATACELL_BEGIN
 90
        0
300

 91
        0
301
CUSTOMDATA
  1
DATAMAP_BEGIN
 90
        1
300
ACAD_ROUNDTRIP_2008_CELL_CHECKSUM
301
DATAMAP_VALUE
 93
        2
 90
        2
140
3383.0
 94
        0
300

302

304
ACVALUE_END
309
DATAMAP_END
 92
        0
 95
        1
302
CONTENT
  1
CELLCONTENT_BEGIN
 90
        1
300
VALUE
 93
        2
 90
        4
  1
A101_C_401
 94
        0
300

302
A101_C_401
304
ACVALUE_END
 91
        0
309
CELLCONTENT_END
  1
FORMATTEDCELLCONTENT_BEGIN
170
     1
300
CONTENTFORMAT
  1
CONTENTFORMAT_BEGIN
 90
      132
 91
        0
 92
      512
 93
        0
300

 40
0.0
140
1.0
 94
        1
 62
     0
340
0
144
3.0
309
CONTENTFORMAT_END
309
FORMATTEDCELLCONTENT_END
309
LINKEDTABLEDATACELL_END
  1
FORMATTEDTABLEDATACELL_BEGIN
300
CELLTABLEFORMAT
  1
TABLEFORMAT_BEGIN
 90
        1
170
     1
 91
       16
 92
        0
 62
   257
 93
        1
300
CONTENTFORMAT
  1
CONTENTFORMAT_BEGIN
 90
       16
 91
        0
 92
      512
 93
        0
300

 40
0.0
140
1.0
 94
        4
 62
     0
340
0
144
0.18
309
CONTENTFORMAT_END
171
     0
 94
        4
 95
        1
302
GRIDFORMAT
  1
GRIDFORMAT_BEGIN
 90
       26
 91
        1
 62
     0
 92
       -2
340
0
 93
        0
 40
0.045
309
GRIDFORMAT_END
 95
        4
302
GRIDFORMAT
  1
GRIDFORMAT_BEGIN
 90
       26
 91
        1
 62
     0
 92
       -2
340
0
 93
        0
 40
0.045
309
GRIDFORMAT_END
 95
        8
302
GRIDFORMAT
  1
GRIDFORMAT_BEGIN
 90
       26
 91
        1
 62
     0
 92
       -2
340
0
 93
        0
 40
0.045
309
GRIDFORMAT_END
 95
       32
302
GRIDFORMAT
  1
GRIDFORMAT_BEGIN
 90
       26
 91
        1
 62
     0
 92
       -2
340
0
 93
        0
 40
0.045
309
GRIDFORMAT_END
309
TABLEFORMAT_END
309
FORMATTEDTABLEDATACELL_END
  1
TABLECELL_BEGIN
 90
        0
 91
        0
309
TABLECELL_END
300
CELL
  1
LINKEDTABLEDATACELL_BEGIN
 90
        0
300

 91
        0
301
CUSTOMDATA
  1
DATAMAP_BEGIN
 90
        1
300
ACAD_ROUNDTRIP_2008_CELL_CHECKSUM
301
DATAMAP_VALUE
 93
        2
 90
        2
140
1398.0
 94
        0
300

302

304
ACVALUE_END
309
DATAMAP_END
 92
        0
 95
        1
302
CONTENT
  1
CELLCONTENT_BEGIN
 90
        1
300
VALUE
 93
        2
 90
        4
  1
Rev:00
 94
        0
300

302
Rev:00
304
ACVALUE_END
 91
        0
309
CELLCONTENT_END
  1
FORMATTEDCELLCONTENT_BEGIN
170
     1
300
CONTENTFORMAT
  1
CONTENTFORMAT_BEGIN
 90
      132
 91
        0
 92
      512
 93
        0
300

 40
0.0
140
1.0
 94
        1
 62
     0
340
0
144
3.5
309
CONTENTFORMAT_END
309
FORMATTEDCELLCONTENT_END
309
LINKEDTABLEDATACELL_END
  1
FORMATTEDTABLEDATACELL_BEGIN
300
CELLTABLEFORMAT
  1
TABLEFORMAT_BEGIN
 90
        1
170
     1
 91
       16
 92
        0
 62
   257
 93
        1
300
CONTENTFORMAT
  1
CONTENTFORMAT_BEGIN
 90
       16
 91
        0
 92
      512
 93
        0
300

 40
0.0
140
1.0
 94
        4
 62
     0
340
0
144
0.18
309
CONTENTFORMAT_END
171
     0
 94
        4
 95
        1
302
GRIDFORMAT
  1
GRIDFORMAT_BEGIN
 90
       26
 91
        1
 62
     0
 92
       -2
340
0
 93
        0
 40
0.045
309
GRIDFORMAT_END
 95
        4
302
GRIDFORMAT
  1
GRIDFORMAT_BEGIN
 90
       26
 91
        1
 62
     0
 92
       -2
340
0
 93
        0
 40
0.045
309
GRIDFORMAT_END
 95
        8
302
GRIDFORMAT
  1
GRIDFORMAT_BEGIN
 90
       26
 91
        1
 62
     0
 92
       -2
340
0
 93
        0
 40
0.045
309
GRIDFORMAT_END
 95
       32
302
GRIDFORMAT
  1
GRIDFORMAT_BEGIN
 90
       26
 91
        1
 62
     0
 92
       -2
340
0
 93
        0
 40
0.045
309
GRIDFORMAT_END
309
TABLEFORMAT_END
309
FORMATTEDTABLEDATACELL_END
  1
TABLECELL_BEGIN
 90
        0
 91
        0
309
TABLECELL_END
 91
        0
301
CUSTOMDATA
  1
DATAMAP_BEGIN
 90
        0
309
DATAMAP_END
309
LINKEDTABLEDATAROW_END
  1
FORMATTEDTABLEDATAROW_BEGIN
300
ROWTABLEFORMAT
  1
TABLEFORMAT_BEGIN
 90
        2
170
     0
309
TABLEFORMAT_END
309
FORMATTEDTABLEDATAROW_END
  1
TABLEROW_BEGIN
 90
        1
 40
6.0
309
TABLEROW_END
301
ROW
  1
LINKEDTABLEDATAROW_BEGIN
 90
        5
300
CELL
  1
LINKEDTABLEDATACELL_BEGIN
 90
        0
300

 91
        0
301
CUSTOMDATA
  1
DATAMAP_BEGIN
 90
        0
309
DATAMAP_END
 92
        0
 95
        0
309
LINKEDTABLEDATACELL_END
  1
FORMATTEDTABLEDATACELL_BEGIN
300
CELLTABLEFORMAT
  1
TABLEFORMAT_BEGIN
 90
        1
170
     1
 91
        0
 92
        0
 62
   257
 93
        1
300
CONTENTFORMAT
  1
CONTENTFORMAT_BEGIN
 90
        0
 91
        0
 92
      512
 93
        0
300

 40
0.0
140
1.0
 94
        1
 62
     0
340
0
144
0.18
309
CONTENTFORMAT_END
171
     0
 94
        0
309
TABLEFORMAT_END
309
FORMATTEDTABLEDATACELL_END
  1
TABLECELL_BEGIN
 90
        0
 91
        0
309
TABLECELL_END
300
CELL
  1
LINKEDTABLEDATACELL_BEGIN
 90
        0
300

 91
        0
301
CUSTOMDATA
  1
DATAMAP_BEGIN
 90
        0
309
DATAMAP_END
 92
        0
 95
        0
309
LINKEDTABLEDATACELL_END
  1
FORMATTEDTABLEDATACELL_BEGIN
300
CELLTABLEFORMAT
  1
TABLEFORMAT_BEGIN
 90
        1
170
     1
 91
        0
 92
        0
 62
   257
 93
        1
300
CONTENTFORMAT
  1
CONTENTFORMAT_BEGIN
 90
        0
 91
        0
 92
      512
 93
        0
300

 40
0.0
140
1.0
 94
        1
 62
     0
340
0
144
0.18
309
CONTENTFORMAT_END
171
     0
 94
        0
309
TABLEFORMAT_END
309
FORMATTEDTABLEDATACELL_END
  1
TABLECELL_BEGIN
 90
        0
 91
        0
309
TABLECELL_END
300
CELL
  1
LINKEDTABLEDATACELL_BEGIN
 90
        0
300

 91
        0
301
CUSTOMDATA
  1
DATAMAP_BEGIN
 90
        0
309
DATAMAP_END
 92
        0
 95
        0
309
LINKEDTABLEDATACELL_END
  1
FORMATTEDTABLEDATACELL_BEGIN
300
CELLTABLEFORMAT
  1
TABLEFORMAT_BEGIN
 90
        1
170
     1
 91
        0
 92
        0
 62
   257
 93
        1
300
CONTENTFORMAT
  1
CONTENTFORMAT_BEGIN
 90
        0
 91
        0
 92
      512
 93
        0
300

 40
0.0
140
1.0
 94
        1
 62
     0
340
0
144
0.18
309
CONTENTFORMAT_END
171
     0
 94
        0
309
TABLEFORMAT_END
309
FORMATTEDTABLEDATACELL_END
  1
TABLECELL_BEGIN
 90
        0
 91
        0
309
TABLECELL_END
300
CELL
  1
LINKEDTABLEDATACELL_BEGIN
 90
        0
300

 91
        0
301
CUSTOMDATA
  1
DATAMAP_BEGIN
 90
        1
300
ACAD_ROUNDTRIP_2008_CELL_CHECKSUM
301
DATAMAP_VALUE
 93
        2
 90
        2
140
3105.0
 94
        0
300

302

304
ACVALUE_END
309
DATAMAP_END
 92
        0
 95
        1
302
CONTENT
  1
CELLCONTENT_BEGIN
 90
        1
300
VALUE
 93
        2
 90
        4
  1
Scale:1:1
 94
        0
300

302
Scale:1:1
304
ACVALUE_END
 91
        0
309
CELLCONTENT_END
  1
FORMATTEDCELLCONTENT_BEGIN
170
     1
300
CONTENTFORMAT
  1
CONTENTFORMAT_BEGIN
 90
      132
 91
        0
 92
      512
 93
        0
300

 40
0.0
140
1.0
 94
        1
 62
     0
340
0
144
3.5
309
CONTENTFORMAT_END
309
FORMATTEDCELLCONTENT_END
309
LINKEDTABLEDATACELL_END
  1
FORMATTEDTABLEDATACELL_BEGIN
300
CELLTABLEFORMAT
  1
TABLEFORMAT_BEGIN
 90
        1
170
     1
 91
       16
 92
        0
 62
   257
 93
        1
300
CONTENTFORMAT
  1
CONTENTFORMAT_BEGIN
 90
       16
 91
        0
 92
      512
 93
        0
300

 40
0.0
140
1.0
 94
        1
 62
     0
340
0
144
0.18
309
CONTENTFORMAT_END
171
     0
 94
        4
 95
        1
302
GRIDFORMAT
  1
GRIDFORMAT_BEGIN
 90
       26
 91
        1
 62
     0
 92
       -2
340
0
 93
        0
 40
0.045
309
GRIDFORMAT_END
 95
        4
302
GRIDFORMAT
  1
GRIDFORMAT_BEGIN
 90
       26
 91
        1
 62
     0
 92
       -2
340
0
 93
        0
 40
0.045
309
GRIDFORMAT_END
 95
        8
302
GRIDFORMAT
  1
GRIDFORMAT_BEGIN
 90
       26
 91
        1
 62
     0
 92
       -2
340
0
 93
        0
 40
0.045
309
GRIDFORMAT_END
 95
       32
302
GRIDFORMAT
  1
GRIDFORMAT_BEGIN
 90
       26
 91
        1
 62
     0
 92
       -2
340
0
 93
        0
 40
0.045
309
GRIDFORMAT_END
309
TABLEFORMAT_END
309
FORMATTEDTABLEDATACELL_END
  1
TABLECELL_BEGIN
 90
        0
 91
        0
309
TABLECELL_END
300
CELL
  1
LINKEDTABLEDATACELL_BEGIN
 90
        0
300

 91
        0
301
CUSTOMDATA
  1
DATAMAP_BEGIN
 90
        1
300
ACAD_ROUNDTRIP_2008_CELL_CHECKSUM
301
DATAMAP_VALUE
 93
        2
 90
        2
140
167.0
 94
        0
300

302

304
ACVALUE_END
309
DATAMAP_END
 92
        0
 95
        1
302
CONTENT
  1
CELLCONTENT_BEGIN
 90
        1
300
VALUE
 93
        2
 90
        4
  1
A3
 94
        0
300

302
A3
304
ACVALUE_END
 91
        0
309
CELLCONTENT_END
  1
FORMATTEDCELLCONTENT_BEGIN
170
     1
300
CONTENTFORMAT
  1
CONTENTFORMAT_BEGIN
 90
      132
 91
        0
 92
      512
 93
        0
300

 40
0.0
140
1.0
 94
        1
 62
     0
340
0
144
3.5
309
CONTENTFORMAT_END
309
FORMATTEDCELLCONTENT_END
309
LINKEDTABLEDATACELL_END
  1
FORMATTEDTABLEDATACELL_BEGIN
300
CELLTABLEFORMAT
  1
TABLEFORMAT_BEGIN
 90
        1
170
     1
 91
       16
 92
        0
 62
   257
 93
        1
300
CONTENTFORMAT
  1
CONTENTFORMAT_BEGIN
 90
       16
 91
        0
 92
      512
 93
        0
300

 40
0.0
140
1.0
 94
        4
 62
     0
340
0
144
0.18
309
CONTENTFORMAT_END
171
     0
 94
        4
 95
        1
302
GRIDFORMAT
  1
GRIDFORMAT_BEGIN
 90
       26
 91
        1
 62
     0
 92
       -2
340
0
 93
        0
 40
0.045
309
GRIDFORMAT_END
 95
        4
302
GRIDFORMAT
  1
GRIDFORMAT_BEGIN
 90
       26
 91
        1
 62
     0
 92
       -2
340
0
 93
        0
 40
0.045
309
GRIDFORMAT_END
 95
        8
302
GRIDFORMAT
  1
GRIDFORMAT_BEGIN
 90
       26
 91
        1
 62
     0
 92
       -2
340
0
 93
        0
 40
0.045
309
GRIDFORMAT_END
 95
       32
302
GRIDFORMAT
  1
GRIDFORMAT_BEGIN
 90
       26
 91
        1
 62
     0
 92
       -2
340
0
 93
        0
 40
0.045
309
GRIDFORMAT_END
309
TABLEFORMAT_END
309
FORMATTEDTABLEDATACELL_END
  1
TABLECELL_BEGIN
 90
        0
 91
        0
309
TABLECELL_END
 91
        0
301
CUSTOMDATA
  1
DATAMAP_BEGIN
 90
        0
309
DATAMAP_END
309
LINKEDTABLEDATAROW_END
  1
FORMATTEDTABLEDATAROW_BEGIN
300
ROWTABLEFORMAT
  1
TABLEFORMAT_BEGIN
 90
        2
170
     0
309
TABLEFORMAT_END
309
FORMATTEDTABLEDATAROW_END
  1
TABLEROW_BEGIN
 90
        2
 40
6.0
309
TABLEROW_END
301
ROW
  1
LINKEDTABLEDATAROW_BEGIN
 90
        5
300
CELL
  1
LINKEDTABLEDATACELL_BEGIN
 90
        0
300

 91
        0
301
CUSTOMDATA
  1
DATAMAP_BEGIN
 90
        0
309
DATAMAP_END
 92
        0
 95
        0
309
LINKEDTABLEDATACELL_END
  1
FORMATTEDTABLEDATACELL_BEGIN
300
CELLTABLEFORMAT
  1
TABLEFORMAT_BEGIN
 90
        1
170
     1
 91
        0
 92
        0
 62
   257
 93
        1
300
CONTENTFORMAT
  1
CONTENTFORMAT_BEGIN
 90
        0
 91
        0
 92
      512
 93
        0
300

 40
0.0
140
1.0
 94
        1
 62
     0
340
0
144
0.18
309
CONTENTFORMAT_END
171
     0
 94
        0
309
TABLEFORMAT_END
309
FORMATTEDTABLEDATACELL_END
  1
TABLECELL_BEGIN
 90
        0
 91
        0
309
TABLECELL_END
300
CELL
  1
LINKEDTABLEDATACELL_BEGIN
 90
        0
300

 91
        0
301
CUSTOMDATA
  1
DATAMAP_BEGIN
 90
        0
309
DATAMAP_END
 92
        0
 95
        0
309
LINKEDTABLEDATACELL_END
  1
FORMATTEDTABLEDATACELL_BEGIN
300
CELLTABLEFORMAT
  1
TABLEFORMAT_BEGIN
 90
        1
170
     1
 91
        0
 92
        0
 62
   257
 93
        1
300
CONTENTFORMAT
  1
CONTENTFORMAT_BEGIN
 90
        0
 91
        0
 92
      512
 93
        0
300

 40
0.0
140
1.0
 94
        1
 62
     0
340
0
144
0.18
309
CONTENTFORMAT_END
171
     0
 94
        0
309
TABLEFORMAT_END
309
FORMATTEDTABLEDATACELL_END
  1
TABLECELL_BEGIN
 90
        0
 91
        0
309
TABLECELL_END
300
CELL
  1
LINKEDTABLEDATACELL_BEGIN
 90
        0
300

 91
        0
301
CUSTOMDATA
  1
DATAMAP_BEGIN
 90
        0
309
DATAMAP_END
 92
        0
 95
        0
309
LINKEDTABLEDATACELL_END
  1
FORMATTEDTABLEDATACELL_BEGIN
300
CELLTABLEFORMAT
  1
TABLEFORMAT_BEGIN
 90
        1
170
     1
 91
        0
 92
        0
 62
   257
 93
        1
300
CONTENTFORMAT
  1
CONTENTFORMAT_BEGIN
 90
        0
 91
        0
 92
      512
 93
        0
300

 40
0.0
140
1.0
 94
        1
 62
     0
340
0
144
0.18
309
CONTENTFORMAT_END
171
     0
 94
        0
309
TABLEFORMAT_END
309
FORMATTEDTABLEDATACELL_END
  1
TABLECELL_BEGIN
 90
        0
 91
        0
309
TABLECELL_END
300
CELL
  1
LINKEDTABLEDATACELL_BEGIN
 90
        0
300

 91
        0
301
CUSTOMDATA
  1
DATAMAP_BEGIN
 90
        1
300
ACAD_ROUNDTRIP_2008_CELL_CHECKSUM
301
DATAMAP_VALUE
 93
        2
 90
        2
140
6740.0
 94
        0
300

302

304
ACVALUE_END
309
DATAMAP_END
 92
        0
 95
        1
302
CONTENT
  1
CELLCONTENT_BEGIN
 90
        1
300
VALUE
 93
        2
 90
        4
  1
INTONO C IN 2.3
 94
        0
300

302
INTONO C IN 2.3
304
ACVALUE_END
 91
        0
309
CELLCONTENT_END
  1
FORMATTEDCELLCONTENT_BEGIN
170
     1
300
CONTENTFORMAT
  1
CONTENTFORMAT_BEGIN
 90
      132
 91
        0
 92
      512
 93
        0
300

 40
0.0
140
1.0
 94
        1
 62
     0
340
0
144
3.5
309
CONTENTFORMAT_END
309
FORMATTEDCELLCONTENT_END
309
LINKEDTABLEDATACELL_END
  1
FORMATTEDTABLEDATACELL_BEGIN
300
CELLTABLEFORMAT
  1
TABLEFORMAT_BEGIN
 90
        1
170
     1
 91
       16
 92
        0
 62
   257
 93
        1
300
CONTENTFORMAT
  1
CONTENTFORMAT_BEGIN
 90
       16
 91
        0
 92
      512
 93
        0
300

 40
0.0
140
1.0
 94
        4
 62
     0
340
0
144
0.18
309
CONTENTFORMAT_END
171
     0
 94
        4
 95
        1
302
GRIDFORMAT
  1
GRIDFORMAT_BEGIN
 90
       26
 91
        1
 62
     0
 92
       -2
340
0
 93
        0
 40
0.045
309
GRIDFORMAT_END
 95
        4
302
GRIDFORMAT
  1
GRIDFORMAT_BEGIN
 90
       26
 91
        1
 62
     0
 92
       -2
340
0
 93
        0
 40
0.045
309
GRIDFORMAT_END
 95
        8
302
GRIDFORMAT
  1
GRIDFORMAT_BEGIN
 90
       26
 91
        1
 62
     0
 92
       -2
340
0
 93
        0
 40
0.045
309
GRIDFORMAT_END
 95
       32
302
GRIDFORMAT
  1
GRIDFORMAT_BEGIN
 90
       26
 91
        1
 62
     0
 92
       -2
340
0
 93
        0
 40
0.045
309
GRIDFORMAT_END
309
TABLEFORMAT_END
309
FORMATTEDTABLEDATACELL_END
  1
TABLECELL_BEGIN
 90
        0
 91
        0
309
TABLECELL_END
300
CELL
  1
LINKEDTABLEDATACELL_BEGIN
 90
        0
300

 91
        0
301
CUSTOMDATA
  1
DATAMAP_BEGIN
 90
        0
309
DATAMAP_END
 92
        0
 95
        0
309
LINKEDTABLEDATACELL_END
  1
FORMATTEDTABLEDATACELL_BEGIN
300
CELLTABLEFORMAT
  1
TABLEFORMAT_BEGIN
 90
        1
170
     1
 91
        0
 92
        0
 62
   257
 93
        1
300
CONTENTFORMAT
  1
CONTENTFORMAT_BEGIN
 90
        0
 91
        0
 92
      512
 93
        0
300

 40
0.0
140
1.0
 94
        1
 62
     0
340
0
144
0.18
309
CONTENTFORMAT_END
171
     0
 94
        0
309
TABLEFORMAT_END
309
FORMATTEDTABLEDATACELL_END
  1
TABLECELL_BEGIN
 90
        0
 91
        0
309
TABLECELL_END
 91
        0
301
CUSTOMDATA
  1
DATAMAP_BEGIN
 90
        0
309
DATAMAP_END
309
LINKEDTABLEDATAROW_END
  1
FORMATTEDTABLEDATAROW_BEGIN
300
ROWTABLEFORMAT
  1
TABLEFORMAT_BEGIN
 90
        2
170
     0
309
TABLEFORMAT_END
309
FORMATTEDTABLEDATAROW_END
  1
TABLEROW_BEGIN
 90
        3
 40
10.0
309
TABLEROW_END
301
ROW
  1
LINKEDTABLEDATAROW_BEGIN
 90
        5
300
CELL
  1
LINKEDTABLEDATACELL_BEGIN
 90
        0
300

 91
        0
301
CUSTOMDATA
  1
DATAMAP_BEGIN
 90
        0
309
DATAMAP_END
 92
        0
 95
        0
309
LINKEDTABLEDATACELL_END
  1
FORMATTEDTABLEDATACELL_BEGIN
300
CELLTABLEFORMAT
  1
TABLEFORMAT_BEGIN
 90
        1
170
     1
 91
        0
 92
        0
 62
   257
 93
        1
300
CONTENTFORMAT
  1
CONTENTFORMAT_BEGIN
 90
        0
 91
        0
 92
      512
 93
        0
300

 40
0.0
140
1.0
 94
        1
 62
     0
340
0
144
0.18
309
CONTENTFORMAT_END
171
     0
 94
        0
309
TABLEFORMAT_END
309
FORMATTEDTABLEDATACELL_END
  1
TABLECELL_BEGIN
 90
        0
 91
        0
309
TABLECELL_END
300
CELL
  1
LINKEDTABLEDATACELL_BEGIN
 90
        0
300

 91
        0
301
CUSTOMDATA
  1
DATAMAP_BEGIN
 90
        0
309
DATAMAP_END
 92
        0
 95
        0
309
LINKEDTABLEDATACELL_END
  1
FORMATTEDTABLEDATACELL_BEGIN
300
CELLTABLEFORMAT
  1
TABLEFORMAT_BEGIN
 90
        1
170
     1
 91
        0
 92
        0
 62
   257
 93
        1
300
CONTENTFORMAT
  1
CONTENTFORMAT_BEGIN
 90
        0
 91
        0
 92
      512
 93
        0
300

 40
0.0
140
1.0
 94
        1
 62
     0
340
0
144
0.18
309
CONTENTFORMAT_END
171
     0
 94
        0
309
TABLEFORMAT_END
309
FORMATTEDTABLEDATACELL_END
  1
TABLECELL_BEGIN
 90
        0
 91
        0
309
TABLECELL_END
300
CELL
  1
LINKEDTABLEDATACELL_BEGIN
 90
        0
300

 91
        0
301
CUSTOMDATA
  1
DATAMAP_BEGIN
 90
        0
309
DATAMAP_END
 92
        0
 95
        0
309
LINKEDTABLEDATACELL_END
  1
FORMATTEDTABLEDATACELL_BEGIN
300
CELLTABLEFORMAT
  1
TABLEFORMAT_BEGIN
 90
        1
170
     1
 91
        0
 92
        0
 62
   257
 93
        1
300
CONTENTFORMAT
  1
CONTENTFORMAT_BEGIN
 90
        0
 91
        0
 92
      512
 93
        0
300

 40
0.0
140
1.0
 94
        1
 62
     0
340
0
144
0.18
309
CONTENTFORMAT_END
171
     0
 94
        0
309
TABLEFORMAT_END
309
FORMATTEDTABLEDATACELL_END
  1
TABLECELL_BEGIN
 90
        0
 91
        0
309
TABLECELL_END
300
CELL
  1
LINKEDTABLEDATACELL_BEGIN
 90
        0
300

 91
        0
301
CUSTOMDATA
  1
DATAMAP_BEGIN
 90
        1
300
ACAD_ROUNDTRIP_2008_CELL_CHECKSUM
301
DATAMAP_VALUE
 93
        2
 90
        2
140
4723.0
 94
        0
300

302

304
ACVALUE_END
309
DATAMAP_END
 92
        0
 95
        1
302
CONTENT
  1
CELLCONTENT_BEGIN
 90
        1
300
VALUE
 93
        2
 90
        4
  1
DATE:12.04.21
 94
        0
300

302
DATE:12.04.21
304
ACVALUE_END
 91
        0
309
CELLCONTENT_END
  1
FORMATTEDCELLCONTENT_BEGIN
170
     1
300
CONTENTFORMAT
  1
CONTENTFORMAT_BEGIN
 90
      132
 91
        0
 92
      512
 93
        0
300

 40
0.0
140
1.0
 94
        1
 62
     0
340
0
144
2.5
309
CONTENTFORMAT_END
309
FORMATTEDCELLCONTENT_END
309
LINKEDTABLEDATACELL_END
  1
FORMATTEDTABLEDATACELL_BEGIN
300
CELLTABLEFORMAT
  1
TABLEFORMAT_BEGIN
 90
        1
170
     1
 91
       16
 92
        0
 62
   257
 93
        1
300
CONTENTFORMAT
  1
CONTENTFORMAT_BEGIN
 90
       16
 91
        0
 92
      512
 93
        0
300

 40
0.0
140
1.0
 94
        4
 62
     0
340
0
144
0.18
309
CONTENTFORMAT_END
171
     0
 94
        4
 95
        1
302
GRIDFORMAT
  1
GRIDFORMAT_BEGIN
 90
       26
 91
        1
 62
     0
 92
       -2
340
0
 93
        0
 40
0.045
309
GRIDFORMAT_END
 95
        4
302
GRIDFORMAT
  1
GRIDFORMAT_BEGIN
 90
       26
 91
        1
 62
     0
 92
       -2
340
0
 93
        0
 40
0.045
309
GRIDFORMAT_END
 95
        8
302
GRIDFORMAT
  1
GRIDFORMAT_BEGIN
 90
       26
 91
        1
 62
     0
 92
       -2
340
0
 93
        0
 40
0.045
309
GRIDFORMAT_END
 95
       32
302
GRIDFORMAT
  1
GRIDFORMAT_BEGIN
 90
       26
 91
        1
 62
     0
 92
       -2
340
0
 93
        0
 40
0.045
309
GRIDFORMAT_END
309
TABLEFORMAT_END
309
FORMATTEDTABLEDATACELL_END
  1
TABLECELL_BEGIN
 90
        0
 91
        0
309
TABLECELL_END
300
CELL
  1
LINKEDTABLEDATACELL_BEGIN
 90
        0
300

 91
        0
301
CUSTOMDATA
  1
DATAMAP_BEGIN
 90
        0
309
DATAMAP_END
 92
        0
 95
        0
309
LINKEDTABLEDATACELL_END
  1
FORMATTEDTABLEDATACELL_BEGIN
300
CELLTABLEFORMAT
  1
TABLEFORMAT_BEGIN
 90
        1
170
     1
 91
        0
 92
        0
 62
   257
 93
        1
300
CONTENTFORMAT
  1
CONTENTFORMAT_BEGIN
 90
        0
 91
        0
 92
      512
 93
        0
300

 40
0.0
140
1.0
 94
        1
 62
     0
340
0
144
0.18
309
CONTENTFORMAT_END
171
     0
 94
        0
309
TABLEFORMAT_END
309
FORMATTEDTABLEDATACELL_END
  1
TABLECELL_BEGIN
 90
        0
 91
        0
309
TABLECELL_END
 91
        0
301
CUSTOMDATA
  1
DATAMAP_BEGIN
 90
        0
309
DATAMAP_END
309
LINKEDTABLEDATAROW_END
  1
FORMATTEDTABLEDATAROW_BEGIN
300
ROWTABLEFORMAT
  1
TABLEFORMAT_BEGIN
 90
        2
170
     0
309
TABLEFORMAT_END
309
FORMATTEDTABLEDATAROW_END
  1
TABLEROW_BEGIN
 90
        3
 40
5.0
309
TABLEROW_END
301
ROW
  1
LINKEDTABLEDATAROW_BEGIN
 90
        5
300
CELL
  1
LINKEDTABLEDATACELL_BEGIN
 90
        0
300

 91
        0
301
CUSTOMDATA
  1
DATAMAP_BEGIN
 90
        1
300
ACAD_ROUNDTRIP_2008_CELL_CHECKSUM
301
DATAMAP_VALUE
 93
        2
 90
        2
140
1361482.0
 94
        0
300

302

304
ACVALUE_END
309
DATAMAP_END
 92
        0
 95
        1
302
CONTENT
  1
CELLCONTENT_BEGIN
 90
        1
300
VALUE
 93
        2
 90
        4
  1
Any integral or partial reproductions are prohibited \Pwithout prior authorisation of L & L Luce & Light s.r.l., \Pin accordance with the law in force. \PAll rights reserved.
 94
        0
300

302
Any integral or partial reproductions are prohibited \Pwithout prior authorisation of L & L Luce & Light s.r.l., \Pin accordance with the law in force. \PAll rights reserved.
304
ACVALUE_END
 91
        0
309
CELLCONTENT_END
  1
FORMATTEDCELLCONTENT_BEGIN
170
     1
300
CONTENTFORMAT
  1
CONTENTFORMAT_BEGIN
 90
      132
 91
        0
 92
      512
 93
        0
300

 40
0.0
140
1.0
 94
        1
 62
     0
340
0
144
2.25
309
CONTENTFORMAT_END
309
FORMATTEDCELLCONTENT_END
309
LINKEDTABLEDATACELL_END
  1
FORMATTEDTABLEDATACELL_BEGIN
300
CELLTABLEFORMAT
  1
TABLEFORMAT_BEGIN
 90
        1
170
     1
 91
       16
 92
        0
 62
   257
 93
        1
300
CONTENTFORMAT
  1
CONTENTFORMAT_BEGIN
 90
       16
 91
        0
 92
      512
 93
        0
300

 40
0.0
140
1.0
 94
        4
 62
     0
340
0
144
0.18
309
CONTENTFORMAT_END
171
     0
 94
        4
 95
        1
302
GRIDFORMAT
  1
GRIDFORMAT_BEGIN
 90
       26
 91
        1
 62
     0
 92
       -2
340
0
 93
        0
 40
0.045
309
GRIDFORMAT_END
 95
        4
302
GRIDFORMAT
  1
GRIDFORMAT_BEGIN
 90
       26
 91
        1
 62
     0
 92
       -2
340
0
 93
        0
 40
0.045
309
GRIDFORMAT_END
 95
        8
302
GRIDFORMAT
  1
GRIDFORMAT_BEGIN
 90
       26
 91
        1
 62
     0
 92
       -2
340
0
 93
        0
 40
0.045
309
GRIDFORMAT_END
 95
       32
302
GRIDFORMAT
  1
GRIDFORMAT_BEGIN
 90
       26
 91
        1
 62
     0
 92
       -2
340
0
 93
        0
 40
0.045
309
GRIDFORMAT_END
309
TABLEFORMAT_END
309
FORMATTEDTABLEDATACELL_END
  1
TABLECELL_BEGIN
 90
        0
 91
        0
309
TABLECELL_END
300
CELL
  1
LINKEDTABLEDATACELL_BEGIN
 90
        0
300

 91
        0
301
CUSTOMDATA
  1
DATAMAP_BEGIN
 90
        0
309
DATAMAP_END
 92
        0
 95
        0
309
LINKEDTABLEDATACELL_END
  1
FORMATTEDTABLEDATACELL_BEGIN
300
CELLTABLEFORMAT
  1
TABLEFORMAT_BEGIN
 90
        1
170
     1
 91
        0
 92
        0
 62
   257
 93
        1
300
CONTENTFORMAT
  1
CONTENTFORMAT_BEGIN
 90
        0
 91
        0
 92
      512
 93
        0
300

 40
0.0
140
1.0
 94
        1
 62
     0
340
0
144
0.18
309
CONTENTFORMAT_END
171
     0
 94
        0
309
TABLEFORMAT_END
309
FORMATTEDTABLEDATACELL_END
  1
TABLECELL_BEGIN
 90
        0
 91
        0
309
TABLECELL_END
300
CELL
  1
LINKEDTABLEDATACELL_BEGIN
 90
        0
300

 91
        0
301
CUSTOMDATA
  1
DATAMAP_BEGIN
 90
        0
309
DATAMAP_END
 92
        0
 95
        0
309
LINKEDTABLEDATACELL_END
  1
FORMATTEDTABLEDATACELL_BEGIN
300
CELLTABLEFORMAT
  1
TABLEFORMAT_BEGIN
 90
        1
170
     1
 91
        0
 92
        0
 62
   257
 93
        1
300
CONTENTFORMAT
  1
CONTENTFORMAT_BEGIN
 90
        0
 91
        0
 92
      512
 93
        0
300

 40
0.0
140
1.0
 94
        1
 62
     0
340
0
144
0.18
309
CONTENTFORMAT_END
171
     0
 94
        0
309
TABLEFORMAT_END
309
FORMATTEDTABLEDATACELL_END
  1
TABLECELL_BEGIN
 90
        0
 91
        0
309
TABLECELL_END
300
CELL
  1
LINKEDTABLEDATACELL_BEGIN
 90
        0
300

 91
        0
301
CUSTOMDATA
  1
DATAMAP_BEGIN
 90
        0
309
DATAMAP_END
 92
        0
 95
        0
309
LINKEDTABLEDATACELL_END
  1
FORMATTEDTABLEDATACELL_BEGIN
300
CELLTABLEFORMAT
  1
TABLEFORMAT_BEGIN
 90
        1
170
     1
 91
        0
 92
        0
 62
   257
 93
        1
300
CONTENTFORMAT
  1
CONTENTFORMAT_BEGIN
 90
        0
 91
        0
 92
      512
 93
        0
300

 40
0.0
140
1.0
 94
        1
 62
     0
340
0
144
0.18
309
CONTENTFORMAT_END
171
     0
 94
        0
309
TABLEFORMAT_END
309
FORMATTEDTABLEDATACELL_END
  1
TABLECELL_BEGIN
 90
        0
 91
        0
309
TABLECELL_END
300
CELL
  1
LINKEDTABLEDATACELL_BEGIN
 90
        0
300

 91
        0
301
CUSTOMDATA
  1
DATAMAP_BEGIN
 90
        0
309
DATAMAP_END
 92
        0
 95
        0
309
LINKEDTABLEDATACELL_END
  1
FORMATTEDTABLEDATACELL_BEGIN
300
CELLTABLEFORMAT
  1
TABLEFORMAT_BEGIN
 90
        1
170
     1
 91
        0
 92
        0
 62
   257
 93
        1
300
CONTENTFORMAT
  1
CONTENTFORMAT_BEGIN
 90
        0
 91
        0
 92
      512
 93
        0
300

 40
0.0
140
1.0
 94
        1
 62
     0
340
0
144
0.18
309
CONTENTFORMAT_END
171
     0
 94
        0
309
TABLEFORMAT_END
309
FORMATTEDTABLEDATACELL_END
  1
TABLECELL_BEGIN
 90
        0
 91
        0
309
TABLECELL_END
 91
        0
301
CUSTOMDATA
  1
DATAMAP_BEGIN
 90
        0
309
DATAMAP_END
309
LINKEDTABLEDATAROW_END
  1
FORMATTEDTABLEDATAROW_BEGIN
300
ROWTABLEFORMAT
  1
TABLEFORMAT_BEGIN
 90
        2
170
     0
309
TABLEFORMAT_END
309
FORMATTEDTABLEDATAROW_END
  1
TABLEROW_BEGIN
 90
        3
 40
13.0
309
TABLEROW_END
100
AcDbFormattedTableData
300
TABLEFORMAT
  1
TABLEFORMAT_BEGIN
 90
        4
170
     1
 91
    15360
 92
        0
 62
   257
 93
        1
300
CONTENTFORMAT
  1
CONTENTFORMAT_BEGIN
 90
        0
 91
        0
 92
      512
 93
        0
300

 40
0.0
140
1.0
 94
        1
 62
     0
340
0
144
0.18
309
CONTENTFORMAT_END
171
     1
301
MARGIN
  1
CELLMARGIN_BEGIN
 40
0.06
 40
0.06
 40
0.06
 40
0.06
 40
0.06
 40
0.06
309
CELLMARGIN_END
 94
        0
309
TABLEFORMAT_END
 90
        4
 91
        0
 92
        0
 93
        3
 94
        2
 91
        2
 92
        3
 93
        2
 94
        4
 91
        3
 92
        3
 93
        3
 94
        4
 91
        4
 92
        0
 93
        4
 94
        4
100
AcDbTableContent
340
39C
  0
TABLEGEOMETRY
  5
3C9
330
3CB
100
AcDbTableGeometry
 90
        5
 91
        5
 92
       25
 93
        0
 40
0.0
 41
0.0
330
0
 94
        0
 93
        0
 40
0.0
 41
0.0
330
0
 94
        0
 93
        0
 40
0.0
 41
0.0
330
0
 94
        0
 93
        0
 40
0.0
 41
0.0
330
0
 94
        0
 93
        0
 40
0.0
 41
0.0
330
0
 94
        0
 93
        0
 40
0.0
 41
0.0
330
0
 94
        0
 93
        0
 40
0.0
 41
0.0
330
0
 94
        0
 93
        0
 40
0.0
 41
0.0
330
0
 94
        0
 93
        0
 40
0.0
 41
0.0
330
0
 94
        0
 93
        0
 40
0.0
 41
0.0
330
0
 94
        0
 93
        0
 40
0.0
 41
0.0
330
0
 94
        0
 93
        0
 40
0.0
 41
0.0
330
0
 94
        0
 93
        0
 40
0.0
 41
0.0
330
0
 94
        0
 93
        0
 40
0.0
 41
0.0
330
0
 94
        0
 93
        0
 40
0.0
 41
0.0
330
0
 94
        0
 93
        0
 40
0.0
 41
0.0
330
0
 94
        0
 93
        0
 40
0.0
 41
0.0
330
0
 94
        0
 93
        0
 40
0.0
 41
0.0
330
0
 94
        0
 93
        0
 40
0.0
 41
0.0
330
0
 94
        0
 93
        0
 40
0.0
 41
0.0
330
0
 94
        0
 93
        0
 40
0.0
 41
0.0
330
0
 94
        0
 93
        0
 40
0.0
 41
0.0
330
0
 94
        0
 93
        0
 40
0.0
 41
0.0
330
0
 94
        0
 93
        0
 40
0.0
 41
0.0
330
0
 94
        0
 93
        0
 40
0.0
 41
0.0
330
0
 94
        0
  0
DICTIONARY
  5
3CE
330
39C
100
AcDbDictionary
280
     1
281
     1
  3
ACAD_ROUNDTRIP_2008_TABLESTYLE_CELLSTYLEMAP
360
3CF
  0
DICTIONARY
  5
3D8
330
3A3
100
AcDbDictionary
280
     1
281
     1
  3
ACAD_XREC_ROUNDTRIP
360
3D9
  0
DICTIONARY
  5
3DE
330
3A6
100
AcDbDictionary
280
     1
281
     1
  3
ACAD_XREC_ROUNDTRIP
360
3DF
  0
DICTIONARY
  5
3E6
330
3AA
100
AcDbDictionary
280
     1
281
     1
  3
ACAD_XREC_ROUNDTRIP
360
3E7
  0
DICTIONARY
  5
3EE
330
3AE
100
AcDbDictionary
280
     1
281
     1
  3
ACAD_XREC_ROUNDTRIP
360
3EF
  0
DICTIONARY
  5
3E2
330
3A8
100
AcDbDictionary
280
     1
281
     1
  3
ACAD_XREC_ROUNDTRIP
360
3E3
  0
DICTIONARY
  5
3E4
330
3A9
100
AcDbDictionary
280
     1
281
     1
  3
ACAD_XREC_ROUNDTRIP
360
3E5
  0
DICTIONARY
  5
3F4
330
3B1
100
AcDbDictionary
280
     1
281
     1
  3
ACAD_XREC_ROUNDTRIP
360
3F5
  0
DICTIONARY
  5
3EC
330
3AD
100
AcDbDictionary
280
     1
281
     1
  3
ACAD_XREC_ROUNDTRIP
360
3ED
  0
DICTIONARY
  5
3D0
330
39F
100
AcDbDictionary
280
     1
281
     1
  3
ACAD_XREC_ROUNDTRIP
360
3D1
  0
DICTIONARY
  5
3D2
330
3A0
100
AcDbDictionary
280
     1
281
     1
  3
ACAD_XREC_ROUNDTRIP
360
3D3
  0
DICTIONARY
  5
3D4
330
3A1
100
AcDbDictionary
280
     1
281
     1
  3
ACAD_XREC_ROUNDTRIP
360
3D5
  0
DICTIONARY
  5
3D6
330
3A2
100
AcDbDictionary
280
     1
281
     1
  3
ACAD_XREC_ROUNDTRIP
360
3D7
  0
DICTIONARY
  5
3DC
330
3A5
100
AcDbDictionary
280
     1
281
     1
  3
ACAD_XREC_ROUNDTRIP
360
3DD
  0
DICTIONARY
  5
3F0
330
3AF
100
AcDbDictionary
280
     1
281
     1
  3
ACAD_XREC_ROUNDTRIP
360
3F1
  0
DICTIONARY
  5
3EA
330
3AC
100
AcDbDictionary
280
     1
281
     1
  3
ACAD_XREC_ROUNDTRIP
360
3EB
  0
DICTIONARY
  5
3F2
330
3B0
100
AcDbDictionary
280
     1
281
     1
  3
ACAD_XREC_ROUNDTRIP
360
3F3
  0
DICTIONARY
  5
3E0
330
3A7
100
AcDbDictionary
280
     1
281
     1
  3
ACAD_XREC_ROUNDTRIP
360
3E1
  0
DICTIONARY
  5
3FE
330
3B6
100
AcDbDictionary
280
     1
281
     1
  3
ACAD_XREC_ROUNDTRIP
360
3FF
  0
DICTIONARY
  5
3FC
330
3B5
100
AcDbDictionary
280
     1
281
     1
  3
ACAD_XREC_ROUNDTRIP
360
3FD
  0
DICTIONARY
  5
3F6
330
3B2
100
AcDbDictionary
280
     1
281
     1
  3
ACAD_XREC_ROUNDTRIP
360
3F7
  0
DICTIONARY
  5
3F8
330
3B3
100
AcDbDictionary
280
     1
281
     1
  3
ACAD_XREC_ROUNDTRIP
360
3F9
  0
DICTIONARY
  5
3E8
330
3AB
100
AcDbDictionary
280
     1
281
     1
  3
ACAD_XREC_ROUNDTRIP
360
3E9
  0
DICTIONARY
  5
3DA
330
3A4
100
AcDbDictionary
280
     1
281
     1
  3
ACAD_XREC_ROUNDTRIP
360
3DB
  0
DICTIONARY
  5
3FA
330
3B4
100
AcDbDictionary
280
     1
281
     1
  3
ACAD_XREC_ROUNDTRIP
360
3FB
  0
CELLSTYLEMAP
  5
3CF
102
{ACAD_REACTORS
330
3CE
102
}
330
3CE
100
AcDbCellStyleMap
 90
        3
300
CELLSTYLE
  1
TABLEFORMAT_BEGIN
 90
        5
170
     1
 91
        0
 92
        0
 62
   257
 93
        1
300
CONTENTFORMAT
  1
CONTENTFORMAT_BEGIN
 90
        0
 91
        0
 92
        4
 93
        0
300

 40
0.0
140
1.0
 94
        5
 62
     0
340
11
144
6.0
309
CONTENTFORMAT_END
171
     1
301
MARGIN
  1
CELLMARGIN_BEGIN
 40
1.5
 40
1.5
 40
1.5
 40
1.5
 40
1.5
 40
1.5
309
CELLMARGIN_END
 94
        6
 95
        1
302
GRIDFORMAT
  1
GRIDFORMAT_BEGIN
 90
        0
 91
        1
 62
     0
 92
       -2
340
14
 93
        0
 40
0.045
309
GRIDFORMAT_END
 95
        2
302
GRIDFORMAT
  1
GRIDFORMAT_BEGIN
 90
        0
 91
        1
 62
     0
 92
       -2
340
14
 93
        0
 40
0.045
309
GRIDFORMAT_END
 95
        4
302
GRIDFORMAT
  1
GRIDFORMAT_BEGIN
 90
        0
 91
        1
 62
     0
 92
       -2
340
14
 93
        0
 40
0.045
309
GRIDFORMAT_END
 95
        8
302
GRIDFORMAT
  1
GRIDFORMAT_BEGIN
 90
        0
 91
        1
 62
     0
 92
       -2
340
14
 93
        0
 40
0.045
309
GRIDFORMAT_END
 95
       16
302
GRIDFORMAT
  1
GRIDFORMAT_BEGIN
 90
        0
 91
        1
 62
     0
 92
       -2
340
14
 93
        0
 40
0.045
309
GRIDFORMAT_END
 95
       32
302
GRIDFORMAT
  1
GRIDFORMAT_BEGIN
 90
        0
 91
        1
 62
     0
 92
       -2
340
14
 93
        0
 40
0.045
309
GRIDFORMAT_END
309
TABLEFORMAT_END
  1
CELLSTYLE_BEGIN
 90
        1
 91
        1
300
_TITLE
309
CELLSTYLE_END
300
CELLSTYLE
  1
TABLEFORMAT_BEGIN
 90
        5
170
     1
 91
        0
 92
        0
 62
   257
 93
        1
300
CONTENTFORMAT
  1
CONTENTFORMAT_BEGIN
 90
        0
 91
        0
 92
        4
 93
        0
300

 40
0.0
140
1.0
 94
        5
 62
     0
340
11
144
4.5
309
CONTENTFORMAT_END
171
     1
301
MARGIN
  1
CELLMARGIN_BEGIN
 40
1.5
 40
1.5
 40
1.5
 40
1.5
 40
1.5
 40
1.5
309
CELLMARGIN_END
 94
        6
 95
        1
302
GRIDFORMAT
  1
GRIDFORMAT_BEGIN
 90
        0
 91
        1
 62
     0
 92
       -2
340
14
 93
        0
 40
0.045
309
GRIDFORMAT_END
 95
        2
302
GRIDFORMAT
  1
GRIDFORMAT_BEGIN
 90
        0
 91
        1
 62
     0
 92
       -2
340
14
 93
        0
 40
0.045
309
GRIDFORMAT_END
 95
        4
302
GRIDFORMAT
  1
GRIDFORMAT_BEGIN
 90
        0
 91
        1
 62
     0
 92
       -2
340
14
 93
        0
 40
0.045
309
GRIDFORMAT_END
 95
        8
302
GRIDFORMAT
  1
GRIDFORMAT_BEGIN
 90
        0
 91
        1
 62
     0
 92
       -2
340
14
 93
        0
 40
0.045
309
GRIDFORMAT_END
 95
       16
302
GRIDFORMAT
  1
GRIDFORMAT_BEGIN
 90
        0
 91
        1
 62
     0
 92
       -2
340
14
 93
        0
 40
0.045
309
GRIDFORMAT_END
 95
       32
302
GRIDFORMAT
  1
GRIDFORMAT_BEGIN
 90
        0
 91
        1
 62
     0
 92
       -2
340
14
 93
        0
 40
0.045
309
GRIDFORMAT_END
309
TABLEFORMAT_END
  1
CELLSTYLE_BEGIN
 90
        2
 91
        1
300
_HEADER
309
CELLSTYLE_END
300
CELLSTYLE
  1
TABLEFORMAT_BEGIN
 90
        5
170
     1
 91
        0
 92
        0
 62
   257
 93
        1
300
CONTENTFORMAT
  1
CONTENTFORMAT_BEGIN
 90
        0
 91
        0
 92
        4
 93
        0
300

 40
0.0
140
1.0
 94
        2
 62
     0
340
11
144
4.5
309
CONTENTFORMAT_END
171
     1
301
MARGIN
  1
CELLMARGIN_BEGIN
 40
1.5
 40
1.5
 40
1.5
 40
1.5
 40
1.5
 40
1.5
309
CELLMARGIN_END
 94
        6
 95
        1
302
GRIDFORMAT
  1
GRIDFORMAT_BEGIN
 90
        0
 91
        1
 62
     0
 92
       -2
340
14
 93
        0
 40
0.045
309
GRIDFORMAT_END
 95
        2
302
GRIDFORMAT
  1
GRIDFORMAT_BEGIN
 90
        0
 91
        1
 62
     0
 92
       -2
340
14
 93
        0
 40
0.045
309
GRIDFORMAT_END
 95
        4
302
GRIDFORMAT
  1
GRIDFORMAT_BEGIN
 90
        0
 91
        1
 62
     0
 92
       -2
340
14
 93
        0
 40
0.045
309
GRIDFORMAT_END
 95
        8
302
GRIDFORMAT
  1
GRIDFORMAT_BEGIN
 90
        0
 91
        1
 62
     0
 92
       -2
340
14
 93
        0
 40
0.045
309
GRIDFORMAT_END
 95
       16
302
GRIDFORMAT
  1
GRIDFORMAT_BEGIN
 90
        0
 91
        1
 62
     0
 92
       -2
340
14
 93
        0
 40
0.045
309
GRIDFORMAT_END
 95
       32
302
GRIDFORMAT
  1
GRIDFORMAT_BEGIN
 90
        0
 91
        1
 62
     0
 92
       -2
340
14
 93
        0
 40
0.045
309
GRIDFORMAT_END
309
TABLEFORMAT_END
  1
CELLSTYLE_BEGIN
 90
        3
 91
        2
300
_DATA
309
CELLSTYLE_END
  0
XRECORD
  5
3D9
102
{ACAD_REACTORS
330
3D8
102
}
330
3D8
100
AcDbXrecord
280
     1
102
RTVSPost2010Prop28
280
     1
102
RTVSPost2010PropOp28
 70
     1
102
RTVSPost2010Prop29
280
     1
102
RTVSPost2010PropOp29
 70
     1
102
RTVSPost2010Prop30
280
     0
102
RTVSPost2010PropOp30
 70
     1
102
RTVSPost2010Prop31
280
     0
102
RTVSPost2010PropOp31
 70
     1
102
RTVSPost2010Prop32
280
     0
102
RTVSPost2010PropOp32
 70
     1
102
RTVSPost2010Prop33
280
     0
102
RTVSPost2010PropOp33
 70
     1
102
RTVSPost2010Prop34
280
     0
102
RTVSPost2010PropOp34
 70
     1
102
RTVSPost2010Prop35
280
     0
102
RTVSPost2010PropOp35
 70
     1
102
RTVSPost2010Prop36
280
     0
102
RTVSPost2010PropOp36
 70
     1
102
RTVSPost2010Prop37
 90
       50
102
RTVSPost2010PropOp37
 70
     1
102
RTVSPost2010Prop38
140
0.0
102
RTVSPost2010PropOp38
 70
     1
102
RTVSPost2010Prop39
140
1.0
102
RTVSPost2010PropOp39
 70
     1
102
RTVSPost2010Prop40
 90
        0
102
RTVSPost2010PropOp40
 70
     1
102
RTVSPost2010Prop41ColorIndex
 90
       18
102
RTVSPost2010Prop41ColorRGB
 90
        0
102
RTVSPost2010PropOp41
 70
     1
102
RTVSPost2010Prop42
 90
       50
102
RTVSPost2010PropOp42
 70
     1
102
RTVSPost2010Prop43
 90
        3
102
RTVSPost2010PropOp43
 70
     1
102
RTVSPost2010Prop44ColorIndex
 90
        5
102
RTVSPost2010Prop44ColorRGB
 90
      255
102
RTVSPost2010PropOp44
 70
     1
102
RTVSPost2010Prop45
280
     0
102
RTVSPost2010PropOp45
 70
     1
102
RTVSPost2010Prop46
 90
       50
102
RTVSPost2010PropOp46
 70
     1
102
RTVSPost2010Prop47
 90
       50
102
RTVSPost2010PropOp47
 70
     1
102
RTVSPost2010Prop48
 90
       50
102
RTVSPost2010PropOp48
 70
     1
102
RTVSPost2010Prop49
280
     0
102
RTVSPost2010PropOp49
 70
     1
102
RTVSPost2010Prop50
 90
       50
102
RTVSPost2010PropOp50
 70
     1
102
RTVSPost2010Prop51ColorIndex
 90
      256
102
RTVSPost2010Prop51ColorRGB
 90
-16777216
102
RTVSPost2010PropOp51
 70
     0
102
RTVSPost2010Prop52
140
1.0
102
RTVSPost2010PropOp52
 70
     0
102
RTVSPost2010Prop53
 90
        2
102
RTVSPost2010PropOp53
 70
     1
102
RTVSPost2010Prop54
  1
strokes_ogs.tif
102
RTVSPost2010PropOp54
 70
     1
102
RTVSPost2010Prop55
280
     0
102
RTVSPost2010PropOp55
 70
     1
102
RTVSPost2010Prop56
140
1.0
102
RTVSPost2010PropOp56
 70
     1
102
RTVSPost2010Prop57
140
1.0
102
RTVSPost2010PropOp57
 70
     1
  0
XRECORD
  5
3DF
102
{ACAD_REACTORS
330
3DE
102
}
330
3DE
100
AcDbXrecord
280
     1
102
RTVSPost2010Prop28
280
     0
102
RTVSPost2010PropOp28
 70
     1
102
RTVSPost2010Prop29
280
     1
102
RTVSPost2010PropOp29
 70
     1
102
RTVSPost2010Prop30
280
     1
102
RTVSPost2010PropOp30
 70
     1
102
RTVSPost2010Prop31
280
     0
102
RTVSPost2010PropOp31
 70
     1
102
RTVSPost2010Prop32
280
     0
102
RTVSPost2010PropOp32
 70
     1
102
RTVSPost2010Prop33
280
     0
102
RTVSPost2010PropOp33
 70
     1
102
RTVSPost2010Prop34
280
     0
102
RTVSPost2010PropOp34
 70
     1
102
RTVSPost2010Prop35
280
     0
102
RTVSPost2010PropOp35
 70
     1
102
RTVSPost2010Prop36
280
     0
102
RTVSPost2010PropOp36
 70
     1
102
RTVSPost2010Prop37
 90
       50
102
RTVSPost2010PropOp37
 70
     1
102
RTVSPost2010Prop38
140
0.0
102
RTVSPost2010PropOp38
 70
     1
102
RTVSPost2010Prop39
140
1.0
102
RTVSPost2010PropOp39
 70
     1
102
RTVSPost2010Prop40
 90
        0
102
RTVSPost2010PropOp40
 70
     1
102
RTVSPost2010Prop41ColorIndex
 90
       18
102
RTVSPost2010Prop41ColorRGB
 90
        0
102
RTVSPost2010PropOp41
 70
     1
102
RTVSPost2010Prop42
 90
       50
102
RTVSPost2010PropOp42
 70
     1
102
RTVSPost2010Prop43
 90
        3
102
RTVSPost2010PropOp43
 70
     1
102
RTVSPost2010Prop44ColorIndex
 90
        5
102
RTVSPost2010Prop44ColorRGB
 90
      255
102
RTVSPost2010PropOp44
 70
     1
102
RTVSPost2010Prop45
280
     0
102
RTVSPost2010PropOp45
 70
     1
102
RTVSPost2010Prop46
 90
       50
102
RTVSPost2010PropOp46
 70
     1
102
RTVSPost2010Prop47
 90
       50
102
RTVSPost2010PropOp47
 70
     1
102
RTVSPost2010Prop48
 90
       50
102
RTVSPost2010PropOp48
 70
     1
102
RTVSPost2010Prop49
280
     0
102
RTVSPost2010PropOp49
 70
     1
102
RTVSPost2010Prop50
 90
       50
102
RTVSPost2010PropOp50
 70
     1
102
RTVSPost2010Prop51ColorIndex
 90
      256
102
RTVSPost2010Prop51ColorRGB
 90
-16777216
102
RTVSPost2010PropOp51
 70
     0
102
RTVSPost2010Prop52
140
1.0
102
RTVSPost2010PropOp52
 70
     0
102
RTVSPost2010Prop53
 90
        2
102
RTVSPost2010PropOp53
 70
     1
102
RTVSPost2010Prop54
  1
strokes_ogs.tif
102
RTVSPost2010PropOp54
 70
     1
102
RTVSPost2010Prop55
280
     0
102
RTVSPost2010PropOp55
 70
     1
102
RTVSPost2010Prop56
140
1.0
102
RTVSPost2010PropOp56
 70
     1
102
RTVSPost2010Prop57
140
1.0
102
RTVSPost2010PropOp57
 70
     1
  0
XRECORD
  5
3E7
102
{ACAD_REACTORS
330
3E6
102
}
330
3E6
100
AcDbXrecord
280
     1
102
RTVSPost2010Prop28
280
     0
102
RTVSPost2010PropOp28
 70
     1
102
RTVSPost2010Prop29
280
     1
102
RTVSPost2010PropOp29
 70
     1
102
RTVSPost2010Prop30
280
     1
102
RTVSPost2010PropOp30
 70
     1
102
RTVSPost2010Prop31
280
     0
102
RTVSPost2010PropOp31
 70
     1
102
RTVSPost2010Prop32
280
     0
102
RTVSPost2010PropOp32
 70
     1
102
RTVSPost2010Prop33
280
     0
102
RTVSPost2010PropOp33
 70
     1
102
RTVSPost2010Prop34
280
     0
102
RTVSPost2010PropOp34
 70
     1
102
RTVSPost2010Prop35
280
     0
102
RTVSPost2010PropOp35
 70
     1
102
RTVSPost2010Prop36
280
     0
102
RTVSPost2010PropOp36
 70
     1
102
RTVSPost2010Prop37
 90
       50
102
RTVSPost2010PropOp37
 70
     1
102
RTVSPost2010Prop38
140
0.0
102
RTVSPost2010PropOp38
 70
     1
102
RTVSPost2010Prop39
140
1.0
102
RTVSPost2010PropOp39
 70
     1
102
RTVSPost2010Prop40
 90
        0
102
RTVSPost2010PropOp40
 70
     1
102
RTVSPost2010Prop41ColorIndex
 90
       18
102
RTVSPost2010Prop41ColorRGB
 90
        0
102
RTVSPost2010PropOp41
 70
     1
102
RTVSPost2010Prop42
 90
       50
102
RTVSPost2010PropOp42
 70
     1
102
RTVSPost2010Prop43
 90
        3
102
RTVSPost2010PropOp43
 70
     1
102
RTVSPost2010Prop44ColorIndex
 90
        5
102
RTVSPost2010Prop44ColorRGB
 90
      255
102
RTVSPost2010PropOp44
 70
     1
102
RTVSPost2010Prop45
280
     0
102
RTVSPost2010PropOp45
 70
     1
102
RTVSPost2010Prop46
 90
       50
102
RTVSPost2010PropOp46
 70
     1
102
RTVSPost2010Prop47
 90
       50
102
RTVSPost2010PropOp47
 70
     1
102
RTVSPost2010Prop48
 90
       50
102
RTVSPost2010PropOp48
 70
     1
102
RTVSPost2010Prop49
280
     0
102
RTVSPost2010PropOp49
 70
     1
102
RTVSPost2010Prop50
 90
       50
102
RTVSPost2010PropOp50
 70
     1
102
RTVSPost2010Prop51ColorIndex
 90
      256
102
RTVSPost2010Prop51ColorRGB
 90
-16777216
102
RTVSPost2010PropOp51
 70
     0
102
RTVSPost2010Prop52
140
1.0
102
RTVSPost2010PropOp52
 70
     0
102
RTVSPost2010Prop53
 90
        2
102
RTVSPost2010PropOp53
 70
     1
102
RTVSPost2010Prop54
  1
strokes_ogs.tif
102
RTVSPost2010PropOp54
 70
     1
102
RTVSPost2010Prop55
280
     0
102
RTVSPost2010PropOp55
 70
     1
102
RTVSPost2010Prop56
140
1.0
102
RTVSPost2010PropOp56
 70
     1
102
RTVSPost2010Prop57
140
1.0
102
RTVSPost2010PropOp57
 70
     1
  0
XRECORD
  5
3EF
102
{ACAD_REACTORS
330
3EE
102
}
330
3EE
100
AcDbXrecord
280
     1
102
RTVSPost2010Prop28
280
     0
102
RTVSPost2010PropOp28
 70
     1
102
RTVSPost2010Prop29
280
     1
102
RTVSPost2010PropOp29
 70
     1
102
RTVSPost2010Prop30
280
     1
102
RTVSPost2010PropOp30
 70
     1
102
RTVSPost2010Prop31
280
     0
102
RTVSPost2010PropOp31
 70
     1
102
RTVSPost2010Prop32
280
     0
102
RTVSPost2010PropOp32
 70
     1
102
RTVSPost2010Prop33
280
     0
102
RTVSPost2010PropOp33
 70
     1
102
RTVSPost2010Prop34
280
     0
102
RTVSPost2010PropOp34
 70
     1
102
RTVSPost2010Prop35
280
     0
102
RTVSPost2010PropOp35
 70
     1
102
RTVSPost2010Prop36
280
     0
102
RTVSPost2010PropOp36
 70
     1
102
RTVSPost2010Prop37
 90
       50
102
RTVSPost2010PropOp37
 70
     1
102
RTVSPost2010Prop38
140
0.0
102
RTVSPost2010PropOp38
 70
     1
102
RTVSPost2010Prop39
140
1.0
102
RTVSPost2010PropOp39
 70
     1
102
RTVSPost2010Prop40
 90
        0
102
RTVSPost2010PropOp40
 70
     1
102
RTVSPost2010Prop41ColorIndex
 90
       18
102
RTVSPost2010Prop41ColorRGB
 90
        0
102
RTVSPost2010PropOp41
 70
     1
102
RTVSPost2010Prop42
 90
       50
102
RTVSPost2010PropOp42
 70
     1
102
RTVSPost2010Prop43
 90
        3
102
RTVSPost2010PropOp43
 70
     1
102
RTVSPost2010Prop44ColorIndex
 90
        5
102
RTVSPost2010Prop44ColorRGB
 90
      255
102
RTVSPost2010PropOp44
 70
     1
102
RTVSPost2010Prop45
280
     0
102
RTVSPost2010PropOp45
 70
     1
102
RTVSPost2010Prop46
 90
       50
102
RTVSPost2010PropOp46
 70
     1
102
RTVSPost2010Prop47
 90
       50
102
RTVSPost2010PropOp47
 70
     1
102
RTVSPost2010Prop48
 90
       50
102
RTVSPost2010PropOp48
 70
     1
102
RTVSPost2010Prop49
280
     0
102
RTVSPost2010PropOp49
 70
     1
102
RTVSPost2010Prop50
 90
       50
102
RTVSPost2010PropOp50
 70
     1
102
RTVSPost2010Prop51ColorIndex
 90
      256
102
RTVSPost2010Prop51ColorRGB
 90
-16777216
102
RTVSPost2010PropOp51
 70
     0
102
RTVSPost2010Prop52
140
1.0
102
RTVSPost2010PropOp52
 70
     0
102
RTVSPost2010Prop53
 90
        2
102
RTVSPost2010PropOp53
 70
     1
102
RTVSPost2010Prop54
  1
strokes_ogs.tif
102
RTVSPost2010PropOp54
 70
     1
102
RTVSPost2010Prop55
280
     0
102
RTVSPost2010PropOp55
 70
     1
102
RTVSPost2010Prop56
140
1.0
102
RTVSPost2010PropOp56
 70
     1
102
RTVSPost2010Prop57
140
1.0
102
RTVSPost2010PropOp57
 70
     1
  0
XRECORD
  5
3E3
102
{ACAD_REACTORS
330
3E2
102
}
330
3E2
100
AcDbXrecord
280
     1
102
RTVSPost2010Prop28
280
     0
102
RTVSPost2010PropOp28
 70
     1
102
RTVSPost2010Prop29
280
     1
102
RTVSPost2010PropOp29
 70
     1
102
RTVSPost2010Prop30
280
     1
102
RTVSPost2010PropOp30
 70
     1
102
RTVSPost2010Prop31
280
     0
102
RTVSPost2010PropOp31
 70
     1
102
RTVSPost2010Prop32
280
     0
102
RTVSPost2010PropOp32
 70
     1
102
RTVSPost2010Prop33
280
     0
102
RTVSPost2010PropOp33
 70
     1
102
RTVSPost2010Prop34
280
     0
102
RTVSPost2010PropOp34
 70
     1
102
RTVSPost2010Prop35
280
     0
102
RTVSPost2010PropOp35
 70
     1
102
RTVSPost2010Prop36
280
     0
102
RTVSPost2010PropOp36
 70
     1
102
RTVSPost2010Prop37
 90
       50
102
RTVSPost2010PropOp37
 70
     1
102
RTVSPost2010Prop38
140
0.0
102
RTVSPost2010PropOp38
 70
     1
102
RTVSPost2010Prop39
140
1.0
102
RTVSPost2010PropOp39
 70
     1
102
RTVSPost2010Prop40
 90
        0
102
RTVSPost2010PropOp40
 70
     1
102
RTVSPost2010Prop41ColorIndex
 90
       18
102
RTVSPost2010Prop41ColorRGB
 90
        0
102
RTVSPost2010PropOp41
 70
     1
102
RTVSPost2010Prop42
 90
       50
102
RTVSPost2010PropOp42
 70
     1
102
RTVSPost2010Prop43
 90
        3
102
RTVSPost2010PropOp43
 70
     1
102
RTVSPost2010Prop44ColorIndex
 90
        5
102
RTVSPost2010Prop44ColorRGB
 90
      255
102
RTVSPost2010PropOp44
 70
     1
102
RTVSPost2010Prop45
280
     0
102
RTVSPost2010PropOp45
 70
     1
102
RTVSPost2010Prop46
 90
       50
102
RTVSPost2010PropOp46
 70
     1
102
RTVSPost2010Prop47
 90
       50
102
RTVSPost2010PropOp47
 70
     1
102
RTVSPost2010Prop48
 90
       50
102
RTVSPost2010PropOp48
 70
     1
102
RTVSPost2010Prop49
280
     0
102
RTVSPost2010PropOp49
 70
     1
102
RTVSPost2010Prop50
 90
       50
102
RTVSPost2010PropOp50
 70
     1
102
RTVSPost2010Prop51ColorIndex
 90
      256
102
RTVSPost2010Prop51ColorRGB
 90
-16777216
102
RTVSPost2010PropOp51
 70
     0
102
RTVSPost2010Prop52
140
1.0
102
RTVSPost2010PropOp52
 70
     0
102
RTVSPost2010Prop53
 90
        2
102
RTVSPost2010PropOp53
 70
     1
102
RTVSPost2010Prop54
  1
strokes_ogs.tif
102
RTVSPost2010PropOp54
 70
     1
102
RTVSPost2010Prop55
280
     0
102
RTVSPost2010PropOp55
 70
     1
102
RTVSPost2010Prop56
140
1.0
102
RTVSPost2010PropOp56
 70
     1
102
RTVSPost2010Prop57
140
1.0
102
RTVSPost2010PropOp57
 70
     1
  0
XRECORD
  5
3E5
102
{ACAD_REACTORS
330
3E4
102
}
330
3E4
100
AcDbXrecord
280
     1
102
RTVSPost2010Prop28
280
     0
102
RTVSPost2010PropOp28
 70
     1
102
RTVSPost2010Prop29
280
     1
102
RTVSPost2010PropOp29
 70
     1
102
RTVSPost2010Prop30
280
     1
102
RTVSPost2010PropOp30
 70
     1
102
RTVSPost2010Prop31
280
     0
102
RTVSPost2010PropOp31
 70
     1
102
RTVSPost2010Prop32
280
     0
102
RTVSPost2010PropOp32
 70
     1
102
RTVSPost2010Prop33
280
     0
102
RTVSPost2010PropOp33
 70
     1
102
RTVSPost2010Prop34
280
     0
102
RTVSPost2010PropOp34
 70
     1
102
RTVSPost2010Prop35
280
     0
102
RTVSPost2010PropOp35
 70
     1
102
RTVSPost2010Prop36
280
     0
102
RTVSPost2010PropOp36
 70
     1
102
RTVSPost2010Prop37
 90
       50
102
RTVSPost2010PropOp37
 70
     1
102
RTVSPost2010Prop38
140
0.0
102
RTVSPost2010PropOp38
 70
     1
102
RTVSPost2010Prop39
140
1.0
102
RTVSPost2010PropOp39
 70
     1
102
RTVSPost2010Prop40
 90
        0
102
RTVSPost2010PropOp40
 70
     1
102
RTVSPost2010Prop41ColorIndex
 90
       18
102
RTVSPost2010Prop41ColorRGB
 90
        0
102
RTVSPost2010PropOp41
 70
     1
102
RTVSPost2010Prop42
 90
       50
102
RTVSPost2010PropOp42
 70
     1
102
RTVSPost2010Prop43
 90
        3
102
RTVSPost2010PropOp43
 70
     1
102
RTVSPost2010Prop44ColorIndex
 90
        5
102
RTVSPost2010Prop44ColorRGB
 90
      255
102
RTVSPost2010PropOp44
 70
     1
102
RTVSPost2010Prop45
280
     0
102
RTVSPost2010PropOp45
 70
     1
102
RTVSPost2010Prop46
 90
       50
102
RTVSPost2010PropOp46
 70
     1
102
RTVSPost2010Prop47
 90
       50
102
RTVSPost2010PropOp47
 70
     1
102
RTVSPost2010Prop48
 90
       50
102
RTVSPost2010PropOp48
 70
     1
102
RTVSPost2010Prop49
280
     0
102
RTVSPost2010PropOp49
 70
     1
102
RTVSPost2010Prop50
 90
       50
102
RTVSPost2010PropOp50
 70
     1
102
RTVSPost2010Prop51ColorIndex
 90
      256
102
RTVSPost2010Prop51ColorRGB
 90
-16777216
102
RTVSPost2010PropOp51
 70
     0
102
RTVSPost2010Prop52
140
1.0
102
RTVSPost2010PropOp52
 70
     0
102
RTVSPost2010Prop53
 90
        2
102
RTVSPost2010PropOp53
 70
     1
102
RTVSPost2010Prop54
  1
strokes_ogs.tif
102
RTVSPost2010PropOp54
 70
     1
102
RTVSPost2010Prop55
280
     0
102
RTVSPost2010PropOp55
 70
     1
102
RTVSPost2010Prop56
140
1.0
102
RTVSPost2010PropOp56
 70
     1
102
RTVSPost2010Prop57
140
1.0
102
RTVSPost2010PropOp57
 70
     1
  0
XRECORD
  5
3F5
102
{ACAD_REACTORS
330
3F4
102
}
330
3F4
100
AcDbXrecord
280
     1
102
RTVSPost2010Prop28
280
     0
102
RTVSPost2010PropOp28
 70
     0
102
RTVSPost2010Prop29
280
     1
102
RTVSPost2010PropOp29
 70
     0
102
RTVSPost2010Prop30
280
     1
102
RTVSPost2010PropOp30
 70
     0
102
RTVSPost2010Prop31
280
     0
102
RTVSPost2010PropOp31
 70
     0
102
RTVSPost2010Prop32
280
     0
102
RTVSPost2010PropOp32
 70
     0
102
RTVSPost2010Prop33
280
     0
102
RTVSPost2010PropOp33
 70
     0
102
RTVSPost2010Prop34
280
     0
102
RTVSPost2010PropOp34
 70
     0
102
RTVSPost2010Prop35
280
     0
102
RTVSPost2010PropOp35
 70
     0
102
RTVSPost2010Prop36
280
     0
102
RTVSPost2010PropOp36
 70
     0
102
RTVSPost2010Prop37
 90
       50
102
RTVSPost2010PropOp37
 70
     0
102
RTVSPost2010Prop38
140
0.0
102
RTVSPost2010PropOp38
 70
     0
102
RTVSPost2010Prop39
140
1.0
102
RTVSPost2010PropOp39
 70
     0
102
RTVSPost2010Prop40
 90
        0
102
RTVSPost2010PropOp40
 70
     0
102
RTVSPost2010Prop41ColorIndex
 90
       18
102
RTVSPost2010Prop41ColorRGB
 90
        0
102
RTVSPost2010PropOp41
 70
     0
102
RTVSPost2010Prop42
 90
       50
102
RTVSPost2010PropOp42
 70
     0
102
RTVSPost2010Prop43
 90
        3
102
RTVSPost2010PropOp43
 70
     0
102
RTVSPost2010Prop44ColorIndex
 90
        5
102
RTVSPost2010Prop44ColorRGB
 90
      255
102
RTVSPost2010PropOp44
 70
     0
102
RTVSPost2010Prop45
280
     0
102
RTVSPost2010PropOp45
 70
     0
102
RTVSPost2010Prop46
 90
       50
102
RTVSPost2010PropOp46
 70
     0
102
RTVSPost2010Prop47
 90
       50
102
RTVSPost2010PropOp47
 70
     0
102
RTVSPost2010Prop48
 90
       50
102
RTVSPost2010PropOp48
 70
     0
102
RTVSPost2010Prop49
280
     0
102
RTVSPost2010PropOp49
 70
     0
102
RTVSPost2010Prop50
 90
       50
102
RTVSPost2010PropOp50
 70
     0
102
RTVSPost2010Prop51ColorIndex
 90
      256
102
RTVSPost2010Prop51ColorRGB
 90
-16777216
102
RTVSPost2010PropOp51
 70
     0
102
RTVSPost2010Prop52
140
1.0
102
RTVSPost2010PropOp52
 70
     0
102
RTVSPost2010Prop53
 90
        2
102
RTVSPost2010PropOp53
 70
     0
102
RTVSPost2010Prop54
  1
strokes_ogs.tif
102
RTVSPost2010PropOp54
 70
     0
102
RTVSPost2010Prop55
280
     0
102
RTVSPost2010PropOp55
 70
     0
102
RTVSPost2010Prop56
140
1.0
102
RTVSPost2010PropOp56
 70
     0
102
RTVSPost2010Prop57
140
1.0
102
RTVSPost2010PropOp57
 70
     0
  0
XRECORD
  5
3ED
102
{ACAD_REACTORS
330
3EC
102
}
330
3EC
100
AcDbXrecord
280
     1
102
RTVSPost2010Prop28
280
     0
102
RTVSPost2010PropOp28
 70
     1
102
RTVSPost2010Prop29
280
     1
102
RTVSPost2010PropOp29
 70
     1
102
RTVSPost2010Prop30
280
     1
102
RTVSPost2010PropOp30
 70
     1
102
RTVSPost2010Prop31
280
     0
102
RTVSPost2010PropOp31
 70
     1
102
RTVSPost2010Prop32
280
     0
102
RTVSPost2010PropOp32
 70
     1
102
RTVSPost2010Prop33
280
     0
102
RTVSPost2010PropOp33
 70
     1
102
RTVSPost2010Prop34
280
     0
102
RTVSPost2010PropOp34
 70
     1
102
RTVSPost2010Prop35
280
     0
102
RTVSPost2010PropOp35
 70
     1
102
RTVSPost2010Prop36
280
     0
102
RTVSPost2010PropOp36
 70
     1
102
RTVSPost2010Prop37
 90
       50
102
RTVSPost2010PropOp37
 70
     1
102
RTVSPost2010Prop38
140
0.0
102
RTVSPost2010PropOp38
 70
     1
102
RTVSPost2010Prop39
140
1.0
102
RTVSPost2010PropOp39
 70
     1
102
RTVSPost2010Prop40
 90
        0
102
RTVSPost2010PropOp40
 70
     1
102
RTVSPost2010Prop41ColorIndex
 90
       18
102
RTVSPost2010Prop41ColorRGB
 90
        0
102
RTVSPost2010PropOp41
 70
     1
102
RTVSPost2010Prop42
 90
       50
102
RTVSPost2010PropOp42
 70
     1
102
RTVSPost2010Prop43
 90
        3
102
RTVSPost2010PropOp43
 70
     1
102
RTVSPost2010Prop44ColorIndex
 90
        5
102
RTVSPost2010Prop44ColorRGB
 90
      255
102
RTVSPost2010PropOp44
 70
     1
102
RTVSPost2010Prop45
280
     0
102
RTVSPost2010PropOp45
 70
     1
102
RTVSPost2010Prop46
 90
       50
102
RTVSPost2010PropOp46
 70
     1
102
RTVSPost2010Prop47
 90
       50
102
RTVSPost2010PropOp47
 70
     1
102
RTVSPost2010Prop48
 90
       50
102
RTVSPost2010PropOp48
 70
     1
102
RTVSPost2010Prop49
280
     0
102
RTVSPost2010PropOp49
 70
     1
102
RTVSPost2010Prop50
 90
       50
102
RTVSPost2010PropOp50
 70
     1
102
RTVSPost2010Prop51ColorIndex
 90
      256
102
RTVSPost2010Prop51ColorRGB
 90
-16777216
102
RTVSPost2010PropOp51
 70
     0
102
RTVSPost2010Prop52
140
1.0
102
RTVSPost2010PropOp52
 70
     0
102
RTVSPost2010Prop53
 90
        2
102
RTVSPost2010PropOp53
 70
     1
102
RTVSPost2010Prop54
  1
strokes_ogs.tif
102
RTVSPost2010PropOp54
 70
     1
102
RTVSPost2010Prop55
280
     0
102
RTVSPost2010PropOp55
 70
     1
102
RTVSPost2010Prop56
140
1.0
102
RTVSPost2010PropOp56
 70
     1
102
RTVSPost2010Prop57
140
1.0
102
RTVSPost2010PropOp57
 70
     1
  0
XRECORD
  5
3D1
102
{ACAD_REACTORS
330
3D0
102
}
330
3D0
100
AcDbXrecord
280
     1
102
RTVSPost2010Prop28
280
     0
102
RTVSPost2010PropOp28
 70
     1
102
RTVSPost2010Prop29
280
     1
102
RTVSPost2010PropOp29
 70
     1
102
RTVSPost2010Prop30
280
     1
102
RTVSPost2010PropOp30
 70
     1
102
RTVSPost2010Prop31
280
     0
102
RTVSPost2010PropOp31
 70
     1
102
RTVSPost2010Prop32
280
     0
102
RTVSPost2010PropOp32
 70
     1
102
RTVSPost2010Prop33
280
     0
102
RTVSPost2010PropOp33
 70
     1
102
RTVSPost2010Prop34
280
     0
102
RTVSPost2010PropOp34
 70
     1
102
RTVSPost2010Prop35
280
     0
102
RTVSPost2010PropOp35
 70
     1
102
RTVSPost2010Prop36
280
     0
102
RTVSPost2010PropOp36
 70
     1
102
RTVSPost2010Prop37
 90
       50
102
RTVSPost2010PropOp37
 70
     1
102
RTVSPost2010Prop38
140
0.0
102
RTVSPost2010PropOp38
 70
     1
102
RTVSPost2010Prop39
140
1.0
102
RTVSPost2010PropOp39
 70
     1
102
RTVSPost2010Prop40
 90
        0
102
RTVSPost2010PropOp40
 70
     1
102
RTVSPost2010Prop41ColorIndex
 90
       18
102
RTVSPost2010Prop41ColorRGB
 90
        0
102
RTVSPost2010PropOp41
 70
     1
102
RTVSPost2010Prop42
 90
       50
102
RTVSPost2010PropOp42
 70
     1
102
RTVSPost2010Prop43
 90
        3
102
RTVSPost2010PropOp43
 70
     1
102
RTVSPost2010Prop44ColorIndex
 90
        5
102
RTVSPost2010Prop44ColorRGB
 90
      255
102
RTVSPost2010PropOp44
 70
     1
102
RTVSPost2010Prop45
280
     0
102
RTVSPost2010PropOp45
 70
     1
102
RTVSPost2010Prop46
 90
       50
102
RTVSPost2010PropOp46
 70
     1
102
RTVSPost2010Prop47
 90
       50
102
RTVSPost2010PropOp47
 70
     1
102
RTVSPost2010Prop48
 90
       50
102
RTVSPost2010PropOp48
 70
     1
102
RTVSPost2010Prop49
280
     0
102
RTVSPost2010PropOp49
 70
     1
102
RTVSPost2010Prop50
 90
       50
102
RTVSPost2010PropOp50
 70
     1
102
RTVSPost2010Prop51ColorIndex
 90
      256
102
RTVSPost2010Prop51ColorRGB
 90
-16777216
102
RTVSPost2010PropOp51
 70
     0
102
RTVSPost2010Prop52
140
1.0
102
RTVSPost2010PropOp52
 70
     0
102
RTVSPost2010Prop53
 90
        2
102
RTVSPost2010PropOp53
 70
     1
102
RTVSPost2010Prop54
  1
strokes_ogs.tif
102
RTVSPost2010PropOp54
 70
     1
102
RTVSPost2010Prop55
280
     0
102
RTVSPost2010PropOp55
 70
     1
102
RTVSPost2010Prop56
140
1.0
102
RTVSPost2010PropOp56
 70
     1
102
RTVSPost2010Prop57
140
1.0
102
RTVSPost2010PropOp57
 70
     1
  0
XRECORD
  5
3D3
102
{ACAD_REACTORS
330
3D2
102
}
330
3D2
100
AcDbXrecord
280
     1
102
RTVSPost2010Prop28
280
     0
102
RTVSPost2010PropOp28
 70
     1
102
RTVSPost2010Prop29
280
     1
102
RTVSPost2010PropOp29
 70
     1
102
RTVSPost2010Prop30
280
     1
102
RTVSPost2010PropOp30
 70
     1
102
RTVSPost2010Prop31
280
     0
102
RTVSPost2010PropOp31
 70
     1
102
RTVSPost2010Prop32
280
     0
102
RTVSPost2010PropOp32
 70
     1
102
RTVSPost2010Prop33
280
     0
102
RTVSPost2010PropOp33
 70
     1
102
RTVSPost2010Prop34
280
     0
102
RTVSPost2010PropOp34
 70
     1
102
RTVSPost2010Prop35
280
     0
102
RTVSPost2010PropOp35
 70
     1
102
RTVSPost2010Prop36
280
     0
102
RTVSPost2010PropOp36
 70
     1
102
RTVSPost2010Prop37
 90
       50
102
RTVSPost2010PropOp37
 70
     1
102
RTVSPost2010Prop38
140
0.0
102
RTVSPost2010PropOp38
 70
     1
102
RTVSPost2010Prop39
140
1.0
102
RTVSPost2010PropOp39
 70
     1
102
RTVSPost2010Prop40
 90
        0
102
RTVSPost2010PropOp40
 70
     1
102
RTVSPost2010Prop41ColorIndex
 90
       18
102
RTVSPost2010Prop41ColorRGB
 90
        0
102
RTVSPost2010PropOp41
 70
     1
102
RTVSPost2010Prop42
 90
       50
102
RTVSPost2010PropOp42
 70
     1
102
RTVSPost2010Prop43
 90
        3
102
RTVSPost2010PropOp43
 70
     1
102
RTVSPost2010Prop44ColorIndex
 90
        5
102
RTVSPost2010Prop44ColorRGB
 90
      255
102
RTVSPost2010PropOp44
 70
     1
102
RTVSPost2010Prop45
280
     0
102
RTVSPost2010PropOp45
 70
     1
102
RTVSPost2010Prop46
 90
       50
102
RTVSPost2010PropOp46
 70
     1
102
RTVSPost2010Prop47
 90
       50
102
RTVSPost2010PropOp47
 70
     1
102
RTVSPost2010Prop48
 90
       50
102
RTVSPost2010PropOp48
 70
     1
102
RTVSPost2010Prop49
280
     0
102
RTVSPost2010PropOp49
 70
     1
102
RTVSPost2010Prop50
 90
       50
102
RTVSPost2010PropOp50
 70
     1
102
RTVSPost2010Prop51ColorIndex
 90
      256
102
RTVSPost2010Prop51ColorRGB
 90
-16777216
102
RTVSPost2010PropOp51
 70
     0
102
RTVSPost2010Prop52
140
1.0
102
RTVSPost2010PropOp52
 70
     0
102
RTVSPost2010Prop53
 90
        2
102
RTVSPost2010PropOp53
 70
     1
102
RTVSPost2010Prop54
  1
strokes_ogs.tif
102
RTVSPost2010PropOp54
 70
     1
102
RTVSPost2010Prop55
280
     0
102
RTVSPost2010PropOp55
 70
     1
102
RTVSPost2010Prop56
140
1.0
102
RTVSPost2010PropOp56
 70
     1
102
RTVSPost2010Prop57
140
1.0
102
RTVSPost2010PropOp57
 70
     1
  0
XRECORD
  5
3D5
102
{ACAD_REACTORS
330
3D4
102
}
330
3D4
100
AcDbXrecord
280
     1
102
RTVSPost2010Prop28
280
     0
102
RTVSPost2010PropOp28
 70
     1
102
RTVSPost2010Prop29
280
     1
102
RTVSPost2010PropOp29
 70
     1
102
RTVSPost2010Prop30
280
     1
102
RTVSPost2010PropOp30
 70
     1
102
RTVSPost2010Prop31
280
     0
102
RTVSPost2010PropOp31
 70
     1
102
RTVSPost2010Prop32
280
     0
102
RTVSPost2010PropOp32
 70
     1
102
RTVSPost2010Prop33
280
     0
102
RTVSPost2010PropOp33
 70
     1
102
RTVSPost2010Prop34
280
     0
102
RTVSPost2010PropOp34
 70
     1
102
RTVSPost2010Prop35
280
     0
102
RTVSPost2010PropOp35
 70
     1
102
RTVSPost2010Prop36
280
     0
102
RTVSPost2010PropOp36
 70
     1
102
RTVSPost2010Prop37
 90
       50
102
RTVSPost2010PropOp37
 70
     1
102
RTVSPost2010Prop38
140
0.0
102
RTVSPost2010PropOp38
 70
     1
102
RTVSPost2010Prop39
140
1.0
102
RTVSPost2010PropOp39
 70
     1
102
RTVSPost2010Prop40
 90
        0
102
RTVSPost2010PropOp40
 70
     1
102
RTVSPost2010Prop41ColorIndex
 90
       18
102
RTVSPost2010Prop41ColorRGB
 90
        0
102
RTVSPost2010PropOp41
 70
     1
102
RTVSPost2010Prop42
 90
       50
102
RTVSPost2010PropOp42
 70
     1
102
RTVSPost2010Prop43
 90
        3
102
RTVSPost2010PropOp43
 70
     1
102
RTVSPost2010Prop44ColorIndex
 90
        5
102
RTVSPost2010Prop44ColorRGB
 90
      255
102
RTVSPost2010PropOp44
 70
     1
102
RTVSPost2010Prop45
280
     0
102
RTVSPost2010PropOp45
 70
     1
102
RTVSPost2010Prop46
 90
       50
102
RTVSPost2010PropOp46
 70
     1
102
RTVSPost2010Prop47
 90
       50
102
RTVSPost2010PropOp47
 70
     1
102
RTVSPost2010Prop48
 90
       50
102
RTVSPost2010PropOp48
 70
     1
102
RTVSPost2010Prop49
280
     0
102
RTVSPost2010PropOp49
 70
     1
102
RTVSPost2010Prop50
 90
       50
102
RTVSPost2010PropOp50
 70
     1
102
RTVSPost2010Prop51ColorIndex
 90
      256
102
RTVSPost2010Prop51ColorRGB
 90
-16777216
102
RTVSPost2010PropOp51
 70
     0
102
RTVSPost2010Prop52
140
1.0
102
RTVSPost2010PropOp52
 70
     0
102
RTVSPost2010Prop53
 90
        2
102
RTVSPost2010PropOp53
 70
     1
102
RTVSPost2010Prop54
  1
strokes_ogs.tif
102
RTVSPost2010PropOp54
 70
     1
102
RTVSPost2010Prop55
280
     0
102
RTVSPost2010PropOp55
 70
     1
102
RTVSPost2010Prop56
140
1.0
102
RTVSPost2010PropOp56
 70
     1
102
RTVSPost2010Prop57
140
1.0
102
RTVSPost2010PropOp57
 70
     1
  0
XRECORD
  5
3D7
102
{ACAD_REACTORS
330
3D6
102
}
330
3D6
100
AcDbXrecord
280
     1
102
RTVSPost2010Prop28
280
     0
102
RTVSPost2010PropOp28
 70
     1
102
RTVSPost2010Prop29
280
     1
102
RTVSPost2010PropOp29
 70
     1
102
RTVSPost2010Prop30
280
     1
102
RTVSPost2010PropOp30
 70
     1
102
RTVSPost2010Prop31
280
     0
102
RTVSPost2010PropOp31
 70
     1
102
RTVSPost2010Prop32
280
     0
102
RTVSPost2010PropOp32
 70
     1
102
RTVSPost2010Prop33
280
     0
102
RTVSPost2010PropOp33
 70
     1
102
RTVSPost2010Prop34
280
     0
102
RTVSPost2010PropOp34
 70
     1
102
RTVSPost2010Prop35
280
     0
102
RTVSPost2010PropOp35
 70
     1
102
RTVSPost2010Prop36
280
     0
102
RTVSPost2010PropOp36
 70
     1
102
RTVSPost2010Prop37
 90
       50
102
RTVSPost2010PropOp37
 70
     1
102
RTVSPost2010Prop38
140
0.0
102
RTVSPost2010PropOp38
 70
     1
102
RTVSPost2010Prop39
140
1.0
102
RTVSPost2010PropOp39
 70
     1
102
RTVSPost2010Prop40
 90
        0
102
RTVSPost2010PropOp40
 70
     1
102
RTVSPost2010Prop41ColorIndex
 90
       18
102
RTVSPost2010Prop41ColorRGB
 90
        0
102
RTVSPost2010PropOp41
 70
     1
102
RTVSPost2010Prop42
 90
       50
102
RTVSPost2010PropOp42
 70
     1
102
RTVSPost2010Prop43
 90
        3
102
RTVSPost2010PropOp43
 70
     1
102
RTVSPost2010Prop44ColorIndex
 90
        5
102
RTVSPost2010Prop44ColorRGB
 90
      255
102
RTVSPost2010PropOp44
 70
     1
102
RTVSPost2010Prop45
280
     0
102
RTVSPost2010PropOp45
 70
     1
102
RTVSPost2010Prop46
 90
       50
102
RTVSPost2010PropOp46
 70
     1
102
RTVSPost2010Prop47
 90
       50
102
RTVSPost2010PropOp47
 70
     1
102
RTVSPost2010Prop48
 90
       50
102
RTVSPost2010PropOp48
 70
     1
102
RTVSPost2010Prop49
280
     0
102
RTVSPost2010PropOp49
 70
     1
102
RTVSPost2010Prop50
 90
       50
102
RTVSPost2010PropOp50
 70
     1
102
RTVSPost2010Prop51ColorIndex
 90
      256
102
RTVSPost2010Prop51ColorRGB
 90
-16777216
102
RTVSPost2010PropOp51
 70
     0
102
RTVSPost2010Prop52
140
1.0
102
RTVSPost2010PropOp52
 70
     0
102
RTVSPost2010Prop53
 90
        2
102
RTVSPost2010PropOp53
 70
     1
102
RTVSPost2010Prop54
  1
strokes_ogs.tif
102
RTVSPost2010PropOp54
 70
     1
102
RTVSPost2010Prop55
280
     0
102
RTVSPost2010PropOp55
 70
     1
102
RTVSPost2010Prop56
140
1.0
102
RTVSPost2010PropOp56
 70
     1
102
RTVSPost2010Prop57
140
1.0
102
RTVSPost2010PropOp57
 70
     1
  0
XRECORD
  5
3DD
102
{ACAD_REACTORS
330
3DC
102
}
330
3DC
100
AcDbXrecord
280
     1
102
RTVSPost2010Prop28
280
     0
102
RTVSPost2010PropOp28
 70
     1
102
RTVSPost2010Prop29
280
     1
102
RTVSPost2010PropOp29
 70
     1
102
RTVSPost2010Prop30
280
     1
102
RTVSPost2010PropOp30
 70
     1
102
RTVSPost2010Prop31
280
     0
102
RTVSPost2010PropOp31
 70
     1
102
RTVSPost2010Prop32
280
     0
102
RTVSPost2010PropOp32
 70
     1
102
RTVSPost2010Prop33
280
     0
102
RTVSPost2010PropOp33
 70
     1
102
RTVSPost2010Prop34
280
     0
102
RTVSPost2010PropOp34
 70
     1
102
RTVSPost2010Prop35
280
     0
102
RTVSPost2010PropOp35
 70
     1
102
RTVSPost2010Prop36
280
     0
102
RTVSPost2010PropOp36
 70
     1
102
RTVSPost2010Prop37
 90
       50
102
RTVSPost2010PropOp37
 70
     1
102
RTVSPost2010Prop38
140
0.0
102
RTVSPost2010PropOp38
 70
     1
102
RTVSPost2010Prop39
140
1.0
102
RTVSPost2010PropOp39
 70
     1
102
RTVSPost2010Prop40
 90
        0
102
RTVSPost2010PropOp40
 70
     1
102
RTVSPost2010Prop41ColorIndex
 90
       18
102
RTVSPost2010Prop41ColorRGB
 90
        0
102
RTVSPost2010PropOp41
 70
     1
102
RTVSPost2010Prop42
 90
       50
102
RTVSPost2010PropOp42
 70
     1
102
RTVSPost2010Prop43
 90
        3
102
RTVSPost2010PropOp43
 70
     1
102
RTVSPost2010Prop44ColorIndex
 90
        5
102
RTVSPost2010Prop44ColorRGB
 90
      255
102
RTVSPost2010PropOp44
 70
     1
102
RTVSPost2010Prop45
280
     0
102
RTVSPost2010PropOp45
 70
     1
102
RTVSPost2010Prop46
 90
       50
102
RTVSPost2010PropOp46
 70
     1
102
RTVSPost2010Prop47
 90
       50
102
RTVSPost2010PropOp47
 70
     1
102
RTVSPost2010Prop48
 90
       50
102
RTVSPost2010PropOp48
 70
     1
102
RTVSPost2010Prop49
280
     0
102
RTVSPost2010PropOp49
 70
     1
102
RTVSPost2010Prop50
 90
       50
102
RTVSPost2010PropOp50
 70
     1
102
RTVSPost2010Prop51ColorIndex
 90
      256
102
RTVSPost2010Prop51ColorRGB
 90
-16777216
102
RTVSPost2010PropOp51
 70
     0
102
RTVSPost2010Prop52
140
1.0
102
RTVSPost2010PropOp52
 70
     0
102
RTVSPost2010Prop53
 90
        2
102
RTVSPost2010PropOp53
 70
     1
102
RTVSPost2010Prop54
  1
strokes_ogs.tif
102
RTVSPost2010PropOp54
 70
     1
102
RTVSPost2010Prop55
280
     0
102
RTVSPost2010PropOp55
 70
     1
102
RTVSPost2010Prop56
140
1.0
102
RTVSPost2010PropOp56
 70
     1
102
RTVSPost2010Prop57
140
1.0
102
RTVSPost2010PropOp57
 70
     1
  0
XRECORD
  5
3F1
102
{ACAD_REACTORS
330
3F0
102
}
330
3F0
100
AcDbXrecord
280
     1
102
RTVSPost2010Prop28
280
     0
102
RTVSPost2010PropOp28
 70
     0
102
RTVSPost2010Prop29
280
     1
102
RTVSPost2010PropOp29
 70
     0
102
RTVSPost2010Prop30
280
     1
102
RTVSPost2010PropOp30
 70
     0
102
RTVSPost2010Prop31
280
     0
102
RTVSPost2010PropOp31
 70
     0
102
RTVSPost2010Prop32
280
     0
102
RTVSPost2010PropOp32
 70
     0
102
RTVSPost2010Prop33
280
     0
102
RTVSPost2010PropOp33
 70
     0
102
RTVSPost2010Prop34
280
     0
102
RTVSPost2010PropOp34
 70
     0
102
RTVSPost2010Prop35
280
     0
102
RTVSPost2010PropOp35
 70
     0
102
RTVSPost2010Prop36
280
     0
102
RTVSPost2010PropOp36
 70
     0
102
RTVSPost2010Prop37
 90
       50
102
RTVSPost2010PropOp37
 70
     0
102
RTVSPost2010Prop38
140
0.0
102
RTVSPost2010PropOp38
 70
     0
102
RTVSPost2010Prop39
140
1.0
102
RTVSPost2010PropOp39
 70
     0
102
RTVSPost2010Prop40
 90
        0
102
RTVSPost2010PropOp40
 70
     0
102
RTVSPost2010Prop41ColorIndex
 90
       18
102
RTVSPost2010Prop41ColorRGB
 90
        0
102
RTVSPost2010PropOp41
 70
     0
102
RTVSPost2010Prop42
 90
       50
102
RTVSPost2010PropOp42
 70
     0
102
RTVSPost2010Prop43
 90
        3
102
RTVSPost2010PropOp43
 70
     0
102
RTVSPost2010Prop44ColorIndex
 90
        5
102
RTVSPost2010Prop44ColorRGB
 90
      255
102
RTVSPost2010PropOp44
 70
     0
102
RTVSPost2010Prop45
280
     0
102
RTVSPost2010PropOp45
 70
     0
102
RTVSPost2010Prop46
 90
       50
102
RTVSPost2010PropOp46
 70
     0
102
RTVSPost2010Prop47
 90
       50
102
RTVSPost2010PropOp47
 70
     0
102
RTVSPost2010Prop48
 90
       50
102
RTVSPost2010PropOp48
 70
     0
102
RTVSPost2010Prop49
280
     0
102
RTVSPost2010PropOp49
 70
     0
102
RTVSPost2010Prop50
 90
       50
102
RTVSPost2010PropOp50
 70
     0
102
RTVSPost2010Prop51ColorIndex
 90
      256
102
RTVSPost2010Prop51ColorRGB
 90
-16777216
102
RTVSPost2010PropOp51
 70
     0
102
RTVSPost2010Prop52
140
1.0
102
RTVSPost2010PropOp52
 70
     0
102
RTVSPost2010Prop53
 90
        2
102
RTVSPost2010PropOp53
 70
     0
102
RTVSPost2010Prop54
  1
strokes_ogs.tif
102
RTVSPost2010PropOp54
 70
     0
102
RTVSPost2010Prop55
280
     0
102
RTVSPost2010PropOp55
 70
     0
102
RTVSPost2010Prop56
140
1.0
102
RTVSPost2010PropOp56
 70
     0
102
RTVSPost2010Prop57
140
1.0
102
RTVSPost2010PropOp57
 70
     0
  0
XRECORD
  5
3EB
102
{ACAD_REACTORS
330
3EA
102
}
330
3EA
100
AcDbXrecord
280
     1
102
RTVSPost2010Prop28
280
     0
102
RTVSPost2010PropOp28
 70
     1
102
RTVSPost2010Prop29
280
     1
102
RTVSPost2010PropOp29
 70
     1
102
RTVSPost2010Prop30
280
     1
102
RTVSPost2010PropOp30
 70
     1
102
RTVSPost2010Prop31
280
     0
102
RTVSPost2010PropOp31
 70
     1
102
RTVSPost2010Prop32
280
     0
102
RTVSPost2010PropOp32
 70
     1
102
RTVSPost2010Prop33
280
     0
102
RTVSPost2010PropOp33
 70
     1
102
RTVSPost2010Prop34
280
     0
102
RTVSPost2010PropOp34
 70
     1
102
RTVSPost2010Prop35
280
     0
102
RTVSPost2010PropOp35
 70
     1
102
RTVSPost2010Prop36
280
     0
102
RTVSPost2010PropOp36
 70
     1
102
RTVSPost2010Prop37
 90
       50
102
RTVSPost2010PropOp37
 70
     1
102
RTVSPost2010Prop38
140
0.0
102
RTVSPost2010PropOp38
 70
     1
102
RTVSPost2010Prop39
140
1.0
102
RTVSPost2010PropOp39
 70
     1
102
RTVSPost2010Prop40
 90
        0
102
RTVSPost2010PropOp40
 70
     1
102
RTVSPost2010Prop41ColorIndex
 90
       18
102
RTVSPost2010Prop41ColorRGB
 90
        0
102
RTVSPost2010PropOp41
 70
     1
102
RTVSPost2010Prop42
 90
       50
102
RTVSPost2010PropOp42
 70
     1
102
RTVSPost2010Prop43
 90
        3
102
RTVSPost2010PropOp43
 70
     1
102
RTVSPost2010Prop44ColorIndex
 90
        5
102
RTVSPost2010Prop44ColorRGB
 90
      255
102
RTVSPost2010PropOp44
 70
     1
102
RTVSPost2010Prop45
280
     0
102
RTVSPost2010PropOp45
 70
     1
102
RTVSPost2010Prop46
 90
       50
102
RTVSPost2010PropOp46
 70
     1
102
RTVSPost2010Prop47
 90
       50
102
RTVSPost2010PropOp47
 70
     1
102
RTVSPost2010Prop48
 90
       50
102
RTVSPost2010PropOp48
 70
     1
102
RTVSPost2010Prop49
280
     0
102
RTVSPost2010PropOp49
 70
     1
102
RTVSPost2010Prop50
 90
       50
102
RTVSPost2010PropOp50
 70
     1
102
RTVSPost2010Prop51ColorIndex
 90
      256
102
RTVSPost2010Prop51ColorRGB
 90
-16777216
102
RTVSPost2010PropOp51
 70
     0
102
RTVSPost2010Prop52
140
1.0
102
RTVSPost2010PropOp52
 70
     0
102
RTVSPost2010Prop53
 90
        2
102
RTVSPost2010PropOp53
 70
     1
102
RTVSPost2010Prop54
  1
strokes_ogs.tif
102
RTVSPost2010PropOp54
 70
     1
102
RTVSPost2010Prop55
280
     0
102
RTVSPost2010PropOp55
 70
     1
102
RTVSPost2010Prop56
140
1.0
102
RTVSPost2010PropOp56
 70
     1
102
RTVSPost2010Prop57
140
1.0
102
RTVSPost2010PropOp57
 70
     1
  0
XRECORD
  5
3F3
102
{ACAD_REACTORS
330
3F2
102
}
330
3F2
100
AcDbXrecord
280
     1
102
RTVSPost2010Prop28
280
     0
102
RTVSPost2010PropOp28
 70
     0
102
RTVSPost2010Prop29
280
     1
102
RTVSPost2010PropOp29
 70
     0
102
RTVSPost2010Prop30
280
     1
102
RTVSPost2010PropOp30
 70
     0
102
RTVSPost2010Prop31
280
     0
102
RTVSPost2010PropOp31
 70
     0
102
RTVSPost2010Prop32
280
     0
102
RTVSPost2010PropOp32
 70
     0
102
RTVSPost2010Prop33
280
     0
102
RTVSPost2010PropOp33
 70
     0
102
RTVSPost2010Prop34
280
     0
102
RTVSPost2010PropOp34
 70
     0
102
RTVSPost2010Prop35
280
     0
102
RTVSPost2010PropOp35
 70
     0
102
RTVSPost2010Prop36
280
     0
102
RTVSPost2010PropOp36
 70
     0
102
RTVSPost2010Prop37
 90
       50
102
RTVSPost2010PropOp37
 70
     0
102
RTVSPost2010Prop38
140
0.0
102
RTVSPost2010PropOp38
 70
     0
102
RTVSPost2010Prop39
140
1.0
102
RTVSPost2010PropOp39
 70
     0
102
RTVSPost2010Prop40
 90
        0
102
RTVSPost2010PropOp40
 70
     0
102
RTVSPost2010Prop41ColorIndex
 90
       18
102
RTVSPost2010Prop41ColorRGB
 90
        0
102
RTVSPost2010PropOp41
 70
     0
102
RTVSPost2010Prop42
 90
       50
102
RTVSPost2010PropOp42
 70
     0
102
RTVSPost2010Prop43
 90
        3
102
RTVSPost2010PropOp43
 70
     0
102
RTVSPost2010Prop44ColorIndex
 90
        5
102
RTVSPost2010Prop44ColorRGB
 90
      255
102
RTVSPost2010PropOp44
 70
     0
102
RTVSPost2010Prop45
280
     0
102
RTVSPost2010PropOp45
 70
     0
102
RTVSPost2010Prop46
 90
       50
102
RTVSPost2010PropOp46
 70
     0
102
RTVSPost2010Prop47
 90
       50
102
RTVSPost2010PropOp47
 70
     0
102
RTVSPost2010Prop48
 90
       50
102
RTVSPost2010PropOp48
 70
     0
102
RTVSPost2010Prop49
280
     0
102
RTVSPost2010PropOp49
 70
     0
102
RTVSPost2010Prop50
 90
       50
102
RTVSPost2010PropOp50
 70
     0
102
RTVSPost2010Prop51ColorIndex
 90
      256
102
RTVSPost2010Prop51ColorRGB
 90
-16777216
102
RTVSPost2010PropOp51
 70
     0
102
RTVSPost2010Prop52
140
1.0
102
RTVSPost2010PropOp52
 70
     0
102
RTVSPost2010Prop53
 90
        2
102
RTVSPost2010PropOp53
 70
     0
102
RTVSPost2010Prop54
  1
strokes_ogs.tif
102
RTVSPost2010PropOp54
 70
     0
102
RTVSPost2010Prop55
280
     0
102
RTVSPost2010PropOp55
 70
     0
102
RTVSPost2010Prop56
140
1.0
102
RTVSPost2010PropOp56
 70
     0
102
RTVSPost2010Prop57
140
1.0
102
RTVSPost2010PropOp57
 70
     0
  0
XRECORD
  5
3E1
102
{ACAD_REACTORS
330
3E0
102
}
330
3E0
100
AcDbXrecord
280
     1
102
RTVSPost2010Prop28
280
     0
102
RTVSPost2010PropOp28
 70
     1
102
RTVSPost2010Prop29
280
     1
102
RTVSPost2010PropOp29
 70
     1
102
RTVSPost2010Prop30
280
     1
102
RTVSPost2010PropOp30
 70
     1
102
RTVSPost2010Prop31
280
     0
102
RTVSPost2010PropOp31
 70
     1
102
RTVSPost2010Prop32
280
     0
102
RTVSPost2010PropOp32
 70
     1
102
RTVSPost2010Prop33
280
     0
102
RTVSPost2010PropOp33
 70
     1
102
RTVSPost2010Prop34
280
     0
102
RTVSPost2010PropOp34
 70
     1
102
RTVSPost2010Prop35
280
     0
102
RTVSPost2010PropOp35
 70
     1
102
RTVSPost2010Prop36
280
     0
102
RTVSPost2010PropOp36
 70
     1
102
RTVSPost2010Prop37
 90
       50
102
RTVSPost2010PropOp37
 70
     1
102
RTVSPost2010Prop38
140
0.0
102
RTVSPost2010PropOp38
 70
     1
102
RTVSPost2010Prop39
140
1.0
102
RTVSPost2010PropOp39
 70
     1
102
RTVSPost2010Prop40
 90
        0
102
RTVSPost2010PropOp40
 70
     1
102
RTVSPost2010Prop41ColorIndex
 90
       18
102
RTVSPost2010Prop41ColorRGB
 90
        0
102
RTVSPost2010PropOp41
 70
     1
102
RTVSPost2010Prop42
 90
       50
102
RTVSPost2010PropOp42
 70
     1
102
RTVSPost2010Prop43
 90
        3
102
RTVSPost2010PropOp43
 70
     1
102
RTVSPost2010Prop44ColorIndex
 90
        5
102
RTVSPost2010Prop44ColorRGB
 90
      255
102
RTVSPost2010PropOp44
 70
     1
102
RTVSPost2010Prop45
280
     0
102
RTVSPost2010PropOp45
 70
     1
102
RTVSPost2010Prop46
 90
       50
102
RTVSPost2010PropOp46
 70
     1
102
RTVSPost2010Prop47
 90
       50
102
RTVSPost2010PropOp47
 70
     1
102
RTVSPost2010Prop48
 90
       50
102
RTVSPost2010PropOp48
 70
     1
102
RTVSPost2010Prop49
280
     0
102
RTVSPost2010PropOp49
 70
     1
102
RTVSPost2010Prop50
 90
       50
102
RTVSPost2010PropOp50
 70
     1
102
RTVSPost2010Prop51ColorIndex
 90
      256
102
RTVSPost2010Prop51ColorRGB
 90
-16777216
102
RTVSPost2010PropOp51
 70
     0
102
RTVSPost2010Prop52
140
1.0
102
RTVSPost2010PropOp52
 70
     0
102
RTVSPost2010Prop53
 90
        2
102
RTVSPost2010PropOp53
 70
     1
102
RTVSPost2010Prop54
  1
strokes_ogs.tif
102
RTVSPost2010PropOp54
 70
     1
102
RTVSPost2010Prop55
280
     0
102
RTVSPost2010PropOp55
 70
     1
102
RTVSPost2010Prop56
140
1.0
102
RTVSPost2010PropOp56
 70
     1
102
RTVSPost2010Prop57
140
1.0
102
RTVSPost2010PropOp57
 70
     1
  0
XRECORD
  5
3FF
102
{ACAD_REACTORS
330
3FE
102
}
330
3FE
100
AcDbXrecord
280
     1
102
RTVSPost2010Prop28
280
     0
102
RTVSPost2010PropOp28
 70
     1
102
RTVSPost2010Prop29
280
     1
102
RTVSPost2010PropOp29
 70
     1
102
RTVSPost2010Prop30
280
     1
102
RTVSPost2010PropOp30
 70
     1
102
RTVSPost2010Prop31
280
     0
102
RTVSPost2010PropOp31
 70
     1
102
RTVSPost2010Prop32
280
     0
102
RTVSPost2010PropOp32
 70
     1
102
RTVSPost2010Prop33
280
     0
102
RTVSPost2010PropOp33
 70
     1
102
RTVSPost2010Prop34
280
     0
102
RTVSPost2010PropOp34
 70
     1
102
RTVSPost2010Prop35
280
     0
102
RTVSPost2010PropOp35
 70
     1
102
RTVSPost2010Prop36
280
     0
102
RTVSPost2010PropOp36
 70
     1
102
RTVSPost2010Prop37
 90
       50
102
RTVSPost2010PropOp37
 70
     1
102
RTVSPost2010Prop38
140
0.0
102
RTVSPost2010PropOp38
 70
     1
102
RTVSPost2010Prop39
140
1.0
102
RTVSPost2010PropOp39
 70
     1
102
RTVSPost2010Prop40
 90
        0
102
RTVSPost2010PropOp40
 70
     1
102
RTVSPost2010Prop41ColorIndex
 90
       18
102
RTVSPost2010Prop41ColorRGB
 90
        0
102
RTVSPost2010PropOp41
 70
     1
102
RTVSPost2010Prop42
 90
       50
102
RTVSPost2010PropOp42
 70
     1
102
RTVSPost2010Prop43
 90
        3
102
RTVSPost2010PropOp43
 70
     1
102
RTVSPost2010Prop44ColorIndex
 90
        5
102
RTVSPost2010Prop44ColorRGB
 90
      255
102
RTVSPost2010PropOp44
 70
     1
102
RTVSPost2010Prop45
280
     0
102
RTVSPost2010PropOp45
 70
     1
102
RTVSPost2010Prop46
 90
       50
102
RTVSPost2010PropOp46
 70
     1
102
RTVSPost2010Prop47
 90
       50
102
RTVSPost2010PropOp47
 70
     1
102
RTVSPost2010Prop48
 90
       50
102
RTVSPost2010PropOp48
 70
     1
102
RTVSPost2010Prop49
280
     0
102
RTVSPost2010PropOp49
 70
     1
102
RTVSPost2010Prop50
 90
       50
102
RTVSPost2010PropOp50
 70
     1
102
RTVSPost2010Prop51ColorIndex
 90
      256
102
RTVSPost2010Prop51ColorRGB
 90
-16777216
102
RTVSPost2010PropOp51
 70
     0
102
RTVSPost2010Prop52
140
1.0
102
RTVSPost2010PropOp52
 70
     0
102
RTVSPost2010Prop53
 90
        2
102
RTVSPost2010PropOp53
 70
     1
102
RTVSPost2010Prop54
  1
strokes_ogs.tif
102
RTVSPost2010PropOp54
 70
     1
102
RTVSPost2010Prop55
280
     0
102
RTVSPost2010PropOp55
 70
     1
102
RTVSPost2010Prop56
140
1.0
102
RTVSPost2010PropOp56
 70
     1
102
RTVSPost2010Prop57
140
1.0
102
RTVSPost2010PropOp57
 70
     1
  0
XRECORD
  5
3FD
102
{ACAD_REACTORS
330
3FC
102
}
330
3FC
100
AcDbXrecord
280
     1
102
RTVSPost2010Prop28
280
     0
102
RTVSPost2010PropOp28
 70
     1
102
RTVSPost2010Prop29
280
     1
102
RTVSPost2010PropOp29
 70
     1
102
RTVSPost2010Prop30
280
     1
102
RTVSPost2010PropOp30
 70
     1
102
RTVSPost2010Prop31
280
     0
102
RTVSPost2010PropOp31
 70
     1
102
RTVSPost2010Prop32
280
     0
102
RTVSPost2010PropOp32
 70
     1
102
RTVSPost2010Prop33
280
     0
102
RTVSPost2010PropOp33
 70
     1
102
RTVSPost2010Prop34
280
     0
102
RTVSPost2010PropOp34
 70
     1
102
RTVSPost2010Prop35
280
     0
102
RTVSPost2010PropOp35
 70
     1
102
RTVSPost2010Prop36
280
     0
102
RTVSPost2010PropOp36
 70
     1
102
RTVSPost2010Prop37
 90
       50
102
RTVSPost2010PropOp37
 70
     1
102
RTVSPost2010Prop38
140
0.0
102
RTVSPost2010PropOp38
 70
     1
102
RTVSPost2010Prop39
140
1.0
102
RTVSPost2010PropOp39
 70
     1
102
RTVSPost2010Prop40
 90
        0
102
RTVSPost2010PropOp40
 70
     1
102
RTVSPost2010Prop41ColorIndex
 90
       18
102
RTVSPost2010Prop41ColorRGB
 90
        0
102
RTVSPost2010PropOp41
 70
     1
102
RTVSPost2010Prop42
 90
       50
102
RTVSPost2010PropOp42
 70
     1
102
RTVSPost2010Prop43
 90
        3
102
RTVSPost2010PropOp43
 70
     1
102
RTVSPost2010Prop44ColorIndex
 90
        5
102
RTVSPost2010Prop44ColorRGB
 90
      255
102
RTVSPost2010PropOp44
 70
     1
102
RTVSPost2010Prop45
280
     0
102
RTVSPost2010PropOp45
 70
     1
102
RTVSPost2010Prop46
 90
       50
102
RTVSPost2010PropOp46
 70
     1
102
RTVSPost2010Prop47
 90
       50
102
RTVSPost2010PropOp47
 70
     1
102
RTVSPost2010Prop48
 90
       50
102
RTVSPost2010PropOp48
 70
     1
102
RTVSPost2010Prop49
280
     0
102
RTVSPost2010PropOp49
 70
     1
102
RTVSPost2010Prop50
 90
       50
102
RTVSPost2010PropOp50
 70
     1
102
RTVSPost2010Prop51ColorIndex
 90
      256
102
RTVSPost2010Prop51ColorRGB
 90
-16777216
102
RTVSPost2010PropOp51
 70
     0
102
RTVSPost2010Prop52
140
1.0
102
RTVSPost2010PropOp52
 70
     0
102
RTVSPost2010Prop53
 90
        2
102
RTVSPost2010PropOp53
 70
     1
102
RTVSPost2010Prop54
  1
strokes_ogs.tif
102
RTVSPost2010PropOp54
 70
     1
102
RTVSPost2010Prop55
280
     0
102
RTVSPost2010PropOp55
 70
     1
102
RTVSPost2010Prop56
140
1.0
102
RTVSPost2010PropOp56
 70
     1
102
RTVSPost2010Prop57
140
1.0
102
RTVSPost2010PropOp57
 70
     1
  0
XRECORD
  5
3F7
102
{ACAD_REACTORS
330
3F6
102
}
330
3F6
100
AcDbXrecord
280
     1
102
RTVSPost2010Prop28
280
     0
102
RTVSPost2010PropOp28
 70
     1
102
RTVSPost2010Prop29
280
     1
102
RTVSPost2010PropOp29
 70
     1
102
RTVSPost2010Prop30
280
     1
102
RTVSPost2010PropOp30
 70
     1
102
RTVSPost2010Prop31
280
     0
102
RTVSPost2010PropOp31
 70
     1
102
RTVSPost2010Prop32
280
     0
102
RTVSPost2010PropOp32
 70
     1
102
RTVSPost2010Prop33
280
     0
102
RTVSPost2010PropOp33
 70
     1
102
RTVSPost2010Prop34
280
     0
102
RTVSPost2010PropOp34
 70
     1
102
RTVSPost2010Prop35
280
     0
102
RTVSPost2010PropOp35
 70
     1
102
RTVSPost2010Prop36
280
     0
102
RTVSPost2010PropOp36
 70
     1
102
RTVSPost2010Prop37
 90
       50
102
RTVSPost2010PropOp37
 70
     1
102
RTVSPost2010Prop38
140
0.0
102
RTVSPost2010PropOp38
 70
     1
102
RTVSPost2010Prop39
140
1.0
102
RTVSPost2010PropOp39
 70
     1
102
RTVSPost2010Prop40
 90
        0
102
RTVSPost2010PropOp40
 70
     1
102
RTVSPost2010Prop41ColorIndex
 90
       18
102
RTVSPost2010Prop41ColorRGB
 90
        0
102
RTVSPost2010PropOp41
 70
     1
102
RTVSPost2010Prop42
 90
       50
102
RTVSPost2010PropOp42
 70
     1
102
RTVSPost2010Prop43
 90
        3
102
RTVSPost2010PropOp43
 70
     1
102
RTVSPost2010Prop44ColorIndex
 90
        5
102
RTVSPost2010Prop44ColorRGB
 90
      255
102
RTVSPost2010PropOp44
 70
     1
102
RTVSPost2010Prop45
280
     0
102
RTVSPost2010PropOp45
 70
     1
102
RTVSPost2010Prop46
 90
       50
102
RTVSPost2010PropOp46
 70
     1
102
RTVSPost2010Prop47
 90
       50
102
RTVSPost2010PropOp47
 70
     1
102
RTVSPost2010Prop48
 90
       50
102
RTVSPost2010PropOp48
 70
     1
102
RTVSPost2010Prop49
280
     0
102
RTVSPost2010PropOp49
 70
     1
102
RTVSPost2010Prop50
 90
       50
102
RTVSPost2010PropOp50
 70
     1
102
RTVSPost2010Prop51ColorIndex
 90
      256
102
RTVSPost2010Prop51ColorRGB
 90
-16777216
102
RTVSPost2010PropOp51
 70
     0
102
RTVSPost2010Prop52
140
1.0
102
RTVSPost2010PropOp52
 70
     0
102
RTVSPost2010Prop53
 90
        2
102
RTVSPost2010PropOp53
 70
     1
102
RTVSPost2010Prop54
  1
strokes_ogs.tif
102
RTVSPost2010PropOp54
 70
     1
102
RTVSPost2010Prop55
280
     0
102
RTVSPost2010PropOp55
 70
     1
102
RTVSPost2010Prop56
140
1.0
102
RTVSPost2010PropOp56
 70
     1
102
RTVSPost2010Prop57
140
1.0
102
RTVSPost2010PropOp57
 70
     1
  0
XRECORD
  5
3F9
102
{ACAD_REACTORS
330
3F8
102
}
330
3F8
100
AcDbXrecord
280
     1
102
RTVSPost2010Prop28
280
     0
102
RTVSPost2010PropOp28
 70
     1
102
RTVSPost2010Prop29
280
     1
102
RTVSPost2010PropOp29
 70
     1
102
RTVSPost2010Prop30
280
     1
102
RTVSPost2010PropOp30
 70
     1
102
RTVSPost2010Prop31
280
     0
102
RTVSPost2010PropOp31
 70
     1
102
RTVSPost2010Prop32
280
     0
102
RTVSPost2010PropOp32
 70
     1
102
RTVSPost2010Prop33
280
     0
102
RTVSPost2010PropOp33
 70
     1
102
RTVSPost2010Prop34
280
     0
102
RTVSPost2010PropOp34
 70
     1
102
RTVSPost2010Prop35
280
     0
102
RTVSPost2010PropOp35
 70
     1
102
RTVSPost2010Prop36
280
     0
102
RTVSPost2010PropOp36
 70
     1
102
RTVSPost2010Prop37
 90
       50
102
RTVSPost2010PropOp37
 70
     1
102
RTVSPost2010Prop38
140
0.0
102
RTVSPost2010PropOp38
 70
     1
102
RTVSPost2010Prop39
140
1.0
102
RTVSPost2010PropOp39
 70
     1
102
RTVSPost2010Prop40
 90
        0
102
RTVSPost2010PropOp40
 70
     1
102
RTVSPost2010Prop41ColorIndex
 90
       18
102
RTVSPost2010Prop41ColorRGB
 90
        0
102
RTVSPost2010PropOp41
 70
     1
102
RTVSPost2010Prop42
 90
       50
102
RTVSPost2010PropOp42
 70
     1
102
RTVSPost2010Prop43
 90
        3
102
RTVSPost2010PropOp43
 70
     1
102
RTVSPost2010Prop44ColorIndex
 90
        5
102
RTVSPost2010Prop44ColorRGB
 90
      255
102
RTVSPost2010PropOp44
 70
     1
102
RTVSPost2010Prop45
280
     0
102
RTVSPost2010PropOp45
 70
     1
102
RTVSPost2010Prop46
 90
       50
102
RTVSPost2010PropOp46
 70
     1
102
RTVSPost2010Prop47
 90
       50
102
RTVSPost2010PropOp47
 70
     1
102
RTVSPost2010Prop48
 90
       50
102
RTVSPost2010PropOp48
 70
     1
102
RTVSPost2010Prop49
280
     0
102
RTVSPost2010PropOp49
 70
     1
102
RTVSPost2010Prop50
 90
       50
102
RTVSPost2010PropOp50
 70
     1
102
RTVSPost2010Prop51ColorIndex
 90
      256
102
RTVSPost2010Prop51ColorRGB
 90
-16777216
102
RTVSPost2010PropOp51
 70
     0
102
RTVSPost2010Prop52
140
1.0
102
RTVSPost2010PropOp52
 70
     0
102
RTVSPost2010Prop53
 90
        2
102
RTVSPost2010PropOp53
 70
     1
102
RTVSPost2010Prop54
  1
strokes_ogs.tif
102
RTVSPost2010PropOp54
 70
     1
102
RTVSPost2010Prop55
280
     0
102
RTVSPost2010PropOp55
 70
     1
102
RTVSPost2010Prop56
140
1.0
102
RTVSPost2010PropOp56
 70
     1
102
RTVSPost2010Prop57
140
1.0
102
RTVSPost2010PropOp57
 70
     1
  0
XRECORD
  5
3E9
102
{ACAD_REACTORS
330
3E8
102
}
330
3E8
100
AcDbXrecord
280
     1
102
RTVSPost2010Prop28
280
     0
102
RTVSPost2010PropOp28
 70
     1
102
RTVSPost2010Prop29
280
     1
102
RTVSPost2010PropOp29
 70
     1
102
RTVSPost2010Prop30
280
     1
102
RTVSPost2010PropOp30
 70
     1
102
RTVSPost2010Prop31
280
     0
102
RTVSPost2010PropOp31
 70
     1
102
RTVSPost2010Prop32
280
     0
102
RTVSPost2010PropOp32
 70
     1
102
RTVSPost2010Prop33
280
     0
102
RTVSPost2010PropOp33
 70
     1
102
RTVSPost2010Prop34
280
     0
102
RTVSPost2010PropOp34
 70
     1
102
RTVSPost2010Prop35
280
     0
102
RTVSPost2010PropOp35
 70
     1
102
RTVSPost2010Prop36
280
     0
102
RTVSPost2010PropOp36
 70
     1
102
RTVSPost2010Prop37
 90
       50
102
RTVSPost2010PropOp37
 70
     1
102
RTVSPost2010Prop38
140
0.0
102
RTVSPost2010PropOp38
 70
     1
102
RTVSPost2010Prop39
140
1.0
102
RTVSPost2010PropOp39
 70
     1
102
RTVSPost2010Prop40
 90
        0
102
RTVSPost2010PropOp40
 70
     1
102
RTVSPost2010Prop41ColorIndex
 90
       18
102
RTVSPost2010Prop41ColorRGB
 90
        0
102
RTVSPost2010PropOp41
 70
     1
102
RTVSPost2010Prop42
 90
       50
102
RTVSPost2010PropOp42
 70
     1
102
RTVSPost2010Prop43
 90
        3
102
RTVSPost2010PropOp43
 70
     1
102
RTVSPost2010Prop44ColorIndex
 90
        5
102
RTVSPost2010Prop44ColorRGB
 90
      255
102
RTVSPost2010PropOp44
 70
     1
102
RTVSPost2010Prop45
280
     0
102
RTVSPost2010PropOp45
 70
     1
102
RTVSPost2010Prop46
 90
       50
102
RTVSPost2010PropOp46
 70
     1
102
RTVSPost2010Prop47
 90
       50
102
RTVSPost2010PropOp47
 70
     1
102
RTVSPost2010Prop48
 90
       50
102
RTVSPost2010PropOp48
 70
     1
102
RTVSPost2010Prop49
280
     0
102
RTVSPost2010PropOp49
 70
     1
102
RTVSPost2010Prop50
 90
       50
102
RTVSPost2010PropOp50
 70
     1
102
RTVSPost2010Prop51ColorIndex
 90
      256
102
RTVSPost2010Prop51ColorRGB
 90
-16777216
102
RTVSPost2010PropOp51
 70
     0
102
RTVSPost2010Prop52
140
1.0
102
RTVSPost2010PropOp52
 70
     0
102
RTVSPost2010Prop53
 90
        2
102
RTVSPost2010PropOp53
 70
     1
102
RTVSPost2010Prop54
  1
strokes_ogs.tif
102
RTVSPost2010PropOp54
 70
     1
102
RTVSPost2010Prop55
280
     0
102
RTVSPost2010PropOp55
 70
     1
102
RTVSPost2010Prop56
140
1.0
102
RTVSPost2010PropOp56
 70
     1
102
RTVSPost2010Prop57
140
1.0
102
RTVSPost2010PropOp57
 70
     1
  0
XRECORD
  5
3DB
102
{ACAD_REACTORS
330
3DA
102
}
330
3DA
100
AcDbXrecord
280
     1
102
RTVSPost2010Prop28
280
     0
102
RTVSPost2010PropOp28
 70
     1
102
RTVSPost2010Prop29
280
     1
102
RTVSPost2010PropOp29
 70
     1
102
RTVSPost2010Prop30
280
     1
102
RTVSPost2010PropOp30
 70
     1
102
RTVSPost2010Prop31
280
     0
102
RTVSPost2010PropOp31
 70
     1
102
RTVSPost2010Prop32
280
     0
102
RTVSPost2010PropOp32
 70
     1
102
RTVSPost2010Prop33
280
     0
102
RTVSPost2010PropOp33
 70
     1
102
RTVSPost2010Prop34
280
     0
102
RTVSPost2010PropOp34
 70
     1
102
RTVSPost2010Prop35
280
     0
102
RTVSPost2010PropOp35
 70
     1
102
RTVSPost2010Prop36
280
     0
102
RTVSPost2010PropOp36
 70
     1
102
RTVSPost2010Prop37
 90
       50
102
RTVSPost2010PropOp37
 70
     1
102
RTVSPost2010Prop38
140
0.0
102
RTVSPost2010PropOp38
 70
     1
102
RTVSPost2010Prop39
140
1.0
102
RTVSPost2010PropOp39
 70
     1
102
RTVSPost2010Prop40
 90
        0
102
RTVSPost2010PropOp40
 70
     1
102
RTVSPost2010Prop41ColorIndex
 90
       18
102
RTVSPost2010Prop41ColorRGB
 90
        0
102
RTVSPost2010PropOp41
 70
     1
102
RTVSPost2010Prop42
 90
       50
102
RTVSPost2010PropOp42
 70
     1
102
RTVSPost2010Prop43
 90
        3
102
RTVSPost2010PropOp43
 70
     1
102
RTVSPost2010Prop44ColorIndex
 90
        5
102
RTVSPost2010Prop44ColorRGB
 90
      255
102
RTVSPost2010PropOp44
 70
     1
102
RTVSPost2010Prop45
280
     0
102
RTVSPost2010PropOp45
 70
     1
102
RTVSPost2010Prop46
 90
       50
102
RTVSPost2010PropOp46
 70
     1
102
RTVSPost2010Prop47
 90
       50
102
RTVSPost2010PropOp47
 70
     1
102
RTVSPost2010Prop48
 90
       50
102
RTVSPost2010PropOp48
 70
     1
102
RTVSPost2010Prop49
280
     0
102
RTVSPost2010PropOp49
 70
     1
102
RTVSPost2010Prop50
 90
       50
102
RTVSPost2010PropOp50
 70
     1
102
RTVSPost2010Prop51ColorIndex
 90
      256
102
RTVSPost2010Prop51ColorRGB
 90
-16777216
102
RTVSPost2010PropOp51
 70
     0
102
RTVSPost2010Prop52
140
1.0
102
RTVSPost2010PropOp52
 70
     0
102
RTVSPost2010Prop53
 90
        2
102
RTVSPost2010PropOp53
 70
     1
102
RTVSPost2010Prop54
  1
strokes_ogs.tif
102
RTVSPost2010PropOp54
 70
     1
102
RTVSPost2010Prop55
280
     0
102
RTVSPost2010PropOp55
 70
     1
102
RTVSPost2010Prop56
140
1.0
102
RTVSPost2010PropOp56
 70
     1
102
RTVSPost2010Prop57
140
1.0
102
RTVSPost2010PropOp57
 70
     1
  0
XRECORD
  5
3FB
102
{ACAD_REACTORS
330
3FA
102
}
330
3FA
100
AcDbXrecord
280
     1
102
RTVSPost2010Prop28
280
     0
102
RTVSPost2010PropOp28
 70
     1
102
RTVSPost2010Prop29
280
     1
102
RTVSPost2010PropOp29
 70
     1
102
RTVSPost2010Prop30
280
     1
102
RTVSPost2010PropOp30
 70
     1
102
RTVSPost2010Prop31
280
     0
102
RTVSPost2010PropOp31
 70
     1
102
RTVSPost2010Prop32
280
     0
102
RTVSPost2010PropOp32
 70
     1
102
RTVSPost2010Prop33
280
     0
102
RTVSPost2010PropOp33
 70
     1
102
RTVSPost2010Prop34
280
     0
102
RTVSPost2010PropOp34
 70
     1
102
RTVSPost2010Prop35
280
     0
102
RTVSPost2010PropOp35
 70
     1
102
RTVSPost2010Prop36
280
     0
102
RTVSPost2010PropOp36
 70
     1
102
RTVSPost2010Prop37
 90
       50
102
RTVSPost2010PropOp37
 70
     1
102
RTVSPost2010Prop38
140
0.0
102
RTVSPost2010PropOp38
 70
     1
102
RTVSPost2010Prop39
140
1.0
102
RTVSPost2010PropOp39
 70
     1
102
RTVSPost2010Prop40
 90
        0
102
RTVSPost2010PropOp40
 70
     1
102
RTVSPost2010Prop41ColorIndex
 90
       18
102
RTVSPost2010Prop41ColorRGB
 90
        0
102
RTVSPost2010PropOp41
 70
     1
102
RTVSPost2010Prop42
 90
       50
102
RTVSPost2010PropOp42
 70
     1
102
RTVSPost2010Prop43
 90
        3
102
RTVSPost2010PropOp43
 70
     1
102
RTVSPost2010Prop44ColorIndex
 90
        5
102
RTVSPost2010Prop44ColorRGB
 90
      255
102
RTVSPost2010PropOp44
 70
     1
102
RTVSPost2010Prop45
280
     0
102
RTVSPost2010PropOp45
 70
     1
102
RTVSPost2010Prop46
 90
       50
102
RTVSPost2010PropOp46
 70
     1
102
RTVSPost2010Prop47
 90
       50
102
RTVSPost2010PropOp47
 70
     1
102
RTVSPost2010Prop48
 90
       50
102
RTVSPost2010PropOp48
 70
     1
102
RTVSPost2010Prop49
280
     0
102
RTVSPost2010PropOp49
 70
     1
102
RTVSPost2010Prop50
 90
       50
102
RTVSPost2010PropOp50
 70
     1
102
RTVSPost2010Prop51ColorIndex
 90
      256
102
RTVSPost2010Prop51ColorRGB
 90
-16777216
102
RTVSPost2010PropOp51
 70
     0
102
RTVSPost2010Prop52
140
1.0
102
RTVSPost2010PropOp52
 70
     0
102
RTVSPost2010Prop53
 90
        2
102
RTVSPost2010PropOp53
 70
     1
102
RTVSPost2010Prop54
  1
strokes_ogs.tif
102
RTVSPost2010PropOp54
 70
     1
102
RTVSPost2010Prop55
280
     0
102
RTVSPost2010PropOp55
 70
     1
102
RTVSPost2010Prop56
140
1.0
102
RTVSPost2010PropOp56
 70
     1
102
RTVSPost2010Prop57
140
1.0
102
RTVSPost2010PropOp57
 70
     1
  0
ENDSEC
  0
EOF
