  0
SECTION
  2
HEADER
  9
$ACADVER
  1
AC1027
  9
$ACADMAINTVER
 70
   105
  9
$DWGCODEPAGE
  3
ANSI_1252
  9
$REQUIREDVERSIONS
160
                 0
  9
$LASTSAVEDBY
  1
andrea.zolin
  9
$INSBASE
 10
0.0
 20
0.0
 30
0.0
  9
$EXTMIN
 10
0.0
 20
0.0
 30
0.0
  9
$EXTMAX
 10
841.0
 20
594.0
 30
0.0
  9
$LIMMIN
 10
0.0
 20
0.0
  9
$LIMMAX
 10
841.0
 20
594.0
  9
$ORTHOMODE
 70
     0
  9
$REGENMODE
 70
     1
  9
$FILLMODE
 70
     1
  9
$QTEXTMODE
 70
     0
  9
$MIRRTEXT
 70
     1
  9
$LTSCALE
 40
46.255
  9
$ATTMODE
 70
     1
  9
$TEXTSIZE
 40
0.2
  9
$TRACEWID
 40
0.05
  9
$TEXTSTYLE
  7
STANDARD
  9
$CLAYER
  8
0
  9
$CELTYPE
  6
BYLAYER
  9
$CECOLOR
 62
   256
  9
$CELTSCALE
 40
1.0
  9
$DISPSILH
 70
     0
  9
$DIMSCALE
 40
1.0
  9
$DIMASZ
 40
2.5
  9
$DIMEXO
 40
0.75
  9
$DIMDLI
 40
31.958
  9
$DIMRND
 40
0.0
  9
$DIMDLE
 40
0.0
  9
$DIMEXE
 40
0.75
  9
$DIMTP
 40
0.01
  9
$DIMTM
 40
0.01
  9
$DIMTXT
 40
3.0
  9
$DIMCEN
 40
7.569
  9
$DIMTSZ
 40
0.0
  9
$DIMTOL
 70
     1
  9
$DIMLIM
 70
     0
  9
$DIMTIH
 70
     1
  9
$DIMTOH
 70
     1
  9
$DIMSE1
 70
     0
  9
$DIMSE2
 70
     0
  9
$DIMTAD
 70
     0
  9
$DIMZIN
 70
     0
  9
$DIMBLK
  1
CLOSED
  9
$DIMASO
 70
     1
  9
$DIMSHO
 70
     1
  9
$DIMPOST
  1

  9
$DIMAPOST
  1

  9
$DIMALT
 70
     0
  9
$DIMALTD
 70
     2
  9
$DIMALTF
 40
25.4
  9
$DIMLFAC
 40
1.0
  9
$DIMTOFL
 70
     0
  9
$DIMTVP
 40
0.0
  9
$DIMTIX
 70
     0
  9
$DIMSOXD
 70
     0
  9
$DIMSAH
 70
     0
  9
$DIMBLK1
  1

  9
$DIMBLK2
  1

  9
$DIMSTYLE
  2
STANDARD
  9
$DIMCLRD
 70
     0
  9
$DIMCLRE
 70
     0
  9
$DIMCLRT
 70
     0
  9
$DIMTFAC
 40
1.0
  9
$DIMGAP
 40
0.625
  9
$DIMJUST
 70
     0
  9
$DIMSD1
 70
     0
  9
$DIMSD2
 70
     0
  9
$DIMTOLJ
 70
     1
  9
$DIMTZIN
 70
     0
  9
$DIMALTZ
 70
     0
  9
$DIMALTTZ
 70
     0
  9
$DIMUPT
 70
     0
  9
$DIMDEC
 70
     4
  9
$DIMTDEC
 70
     4
  9
$DIMALTU
 70
     2
  9
$DIMALTTD
 70
     2
  9
$DIMTXSTY
  7
STANDARD
  9
$DIMAUNIT
 70
     0
  9
$DIMADEC
 70
     0
  9
$DIMALTRND
 40
0.0
  9
$DIMAZIN
 70
     0
  9
$DIMDSEP
 70
    44
  9
$DIMATFIT
 70
     3
  9
$DIMFRAC
 70
     0
  9
$DIMLDRBLK
  1

  9
$DIMLUNIT
 70
     2
  9
$DIMLWD
 70
    -2
  9
$DIMLWE
 70
    -2
  9
$DIMTMOVE
 70
     0
  9
$DIMFXL
 40
1.0
  9
$DIMFXLON
 70
     0
  9
$DIMJOGANG
 40
0.7853981633974483
  9
$DIMTFILL
 70
     0
  9
$DIMTFILLCLR
 70
     0
  9
$DIMARCSYM
 70
     0
  9
$DIMLTYPE
  6

  9
$DIMLTEX1
  6

  9
$DIMLTEX2
  6

  9
$DIMTXTDIRECTION
 70
     0
  9
$LUNITS
 70
     2
  9
$LUPREC
 70
     4
  9
$SKETCHINC
 40
0.1
  9
$FILLETRAD
 40
0.5
  9
$AUNITS
 70
     0
  9
$AUPREC
 70
     0
  9
$MENU
  1
.
  9
$ELEVATION
 40
0.0
  9
$PELEVATION
 40
0.0
  9
$THICKNESS
 40
0.0
  9
$LIMCHECK
 70
     0
  9
$CHAMFERA
 40
0.0
  9
$CHAMFERB
 40
0.0
  9
$CHAMFERC
 40
0.0
  9
$CHAMFERD
 40
0.0
  9
$SKPOLY
 70
     0
  9
$TDCREATE
 40
2447893.083333333
  9
$TDUCREATE
 40
0.0
  9
$TDUPDATE
 40
2458677.649752963
  9
$TDUUPDATE
 40
2458677.56641963
  9
$TDINDWG
 40
0.0005348611
  9
$TDUSRTIMER
 40
0.0005355671
  9
$USRTIMER
 70
     1
  9
$ANGBASE
 50
0.0
  9
$ANGDIR
 70
     0
  9
$PDMODE
 70
     3
  9
$PDSIZE
 40
0.3125
  9
$PLINEWID
 40
0.0
  9
$SPLFRAME
 70
     0
  9
$SPLINETYPE
 70
     6
  9
$SPLINESEGS
 70
     8
  9
$HANDSEED
  5
3C3
  9
$SURFTAB1
 70
     6
  9
$SURFTAB2
 70
     6
  9
$SURFTYPE
 70
     6
  9
$SURFU
 70
     6
  9
$SURFV
 70
     6
  9
$UCSBASE
  2

  9
$UCSNAME
  2

  9
$UCSORG
 10
0.0
 20
0.0
 30
0.0
  9
$UCSXDIR
 10
1.0
 20
0.0
 30
0.0
  9
$UCSYDIR
 10
0.0
 20
1.0
 30
0.0
  9
$UCSORTHOREF
  2

  9
$UCSORTHOVIEW
 70
     0
  9
$UCSORGTOP
 10
0.0
 20
0.0
 30
0.0
  9
$UCSORGBOTTOM
 10
0.0
 20
0.0
 30
0.0
  9
$UCSORGLEFT
 10
0.0
 20
0.0
 30
0.0
  9
$UCSORGRIGHT
 10
0.0
 20
0.0
 30
0.0
  9
$UCSORGFRONT
 10
0.0
 20
0.0
 30
0.0
  9
$UCSORGBACK
 10
0.0
 20
0.0
 30
0.0
  9
$PUCSBASE
  2

  9
$PUCSNAME
  2

  9
$PUCSORG
 10
0.0
 20
0.0
 30
0.0
  9
$PUCSXDIR
 10
1.0
 20
0.0
 30
0.0
  9
$PUCSYDIR
 10
0.0
 20
1.0
 30
0.0
  9
$PUCSORTHOREF
  2

  9
$PUCSORTHOVIEW
 70
     0
  9
$PUCSORGTOP
 10
0.0
 20
0.0
 30
0.0
  9
$PUCSORGBOTTOM
 10
0.0
 20
0.0
 30
0.0
  9
$PUCSORGLEFT
 10
0.0
 20
0.0
 30
0.0
  9
$PUCSORGRIGHT
 10
0.0
 20
0.0
 30
0.0
  9
$PUCSORGFRONT
 10
0.0
 20
0.0
 30
0.0
  9
$PUCSORGBACK
 10
0.0
 20
0.0
 30
0.0
  9
$USERI1
 70
     0
  9
$USERI2
 70
     0
  9
$USERI3
 70
     0
  9
$USERI4
 70
     0
  9
$USERI5
 70
     0
  9
$USERR1
 40
0.0
  9
$USERR2
 40
0.0
  9
$USERR3
 40
0.0
  9
$USERR4
 40
0.0
  9
$USERR5
 40
0.0
  9
$WORLDVIEW
 70
     1
  9
$SHADEDGE
 70
     3
  9
$SHADEDIF
 70
    70
  9
$TILEMODE
 70
     0
  9
$MAXACTVP
 70
    64
  9
$PINSBASE
 10
0.0
 20
0.0
 30
0.0
  9
$PLIMCHECK
 70
     0
  9
$PEXTMIN
 10
0.0
 20
0.0
 30
0.0
  9
$PEXTMAX
 10
841.0
 20
594.0
 30
0.0
  9
$PLIMMIN
 10
0.0
 20
0.0
  9
$PLIMMAX
 10
841.0
 20
594.0
  9
$UNITMODE
 70
     0
  9
$VISRETAIN
 70
     1
  9
$PLINEGEN
 70
     0
  9
$PSLTSCALE
 70
     1
  9
$TREEDEPTH
 70
  3020
  9
$CMLSTYLE
  2
Standard
  9
$CMLJUST
 70
     0
  9
$CMLSCALE
 40
1.0
  9
$PROXYGRAPHICS
 70
     1
  9
$MEASUREMENT
 70
     1
  9
$CELWEIGHT
370
    -1
  9
$ENDCAPS
280
     0
  9
$JOINSTYLE
280
     0
  9
$LWDISPLAY
290
     0
  9
$INSUNITS
 70
     4
  9
$HYPERLINKBASE
  1

  9
$STYLESHEET
  1

  9
$XEDIT
290
     1
  9
$CEPSNTYPE
380
     0
  9
$PSTYLEMODE
290
     1
  9
$FINGERPRINTGUID
  2
{52697818-D9CD-4DFD-919D-F2D8C38697B6}
  9
$VERSIONGUID
  2
{FAEB1C32-E019-11D5-929B-00C0DF256EC4}
  9
$EXTNAMES
290
     1
  9
$PSVPSCALE
 40
0.0
  9
$OLESTARTUP
290
     0
  9
$SORTENTS
280
   127
  9
$INDEXCTL
280
     0
  9
$HIDETEXT
280
     1
  9
$XCLIPFRAME
280
     2
  9
$HALOGAP
280
     0
  9
$OBSCOLOR
 70
   257
  9
$OBSLTYPE
280
     0
  9
$INTERSECTIONDISPLAY
280
     0
  9
$INTERSECTIONCOLOR
 70
   257
  9
$DIMASSOC
280
     2
  9
$PROJECTNAME
  1

  9
$CAMERADISPLAY
290
     0
  9
$LENSLENGTH
 40
50.0
  9
$CAMERAHEIGHT
 40
0.0
  9
$STEPSPERSEC
 40
2.0
  9
$STEPSIZE
 40
6.0
  9
$3DDWFPREC
 40
2.0
  9
$PSOLWIDTH
 40
0.25
  9
$PSOLHEIGHT
 40
4.0
  9
$LOFTANG1
 40
1.570796326794897
  9
$LOFTANG2
 40
1.570796326794897
  9
$LOFTMAG1
 40
0.0
  9
$LOFTMAG2
 40
0.0
  9
$LOFTPARAM
 70
     7
  9
$LOFTNORMALS
280
     1
  9
$LATITUDE
 40
37.795
  9
$LONGITUDE
 40
-122.394
  9
$NORTHDIRECTION
 40
0.0
  9
$TIMEZONE
 70
 -8000
  9
$LIGHTGLYPHDISPLAY
280
     1
  9
$TILEMODELIGHTSYNCH
280
     1
  9
$SOLIDHIST
280
     0
  9
$SHOWHIST
280
     1
  9
$DWFFRAME
280
     2
  9
$DGNFRAME
280
     2
  9
$REALWORLDSCALE
290
     1
  9
$INTERFERECOLOR
 62
   256
  9
$CSHADOW
280
     0
  9
$SHADOWPLANELOCATION
 40
0.0
  0
ENDSEC
  0
SECTION
  2
CLASSES
  0
CLASS
  1
ACDBDICTIONARYWDFLT
  2
AcDbDictionaryWithDefault
  3
ObjectDBX Classes
 90
        0
 91
        4
280
     0
281
     0
  0
CLASS
  1
ACDBPLACEHOLDER
  2
AcDbPlaceHolder
  3
ObjectDBX Classes
 90
        0
 91
        1
280
     0
281
     0
  0
CLASS
  1
LAYOUT
  2
AcDbLayout
  3
ObjectDBX Classes
 90
        0
 91
        1
280
     0
281
     0
  0
CLASS
  1
TABLESTYLE
  2
AcDbTableStyle
  3
ObjectDBX Classes
 90
     4095
 91
        4
280
     0
281
     0
  0
CLASS
  1
ACAD_TABLE
  2
AcDbTable
  3
ObjectDBX Classes
 90
     1025
 91
        4
280
     0
281
     1
  0
CLASS
  1
SCALE
  2
AcDbScale
  3
ObjectDBX Classes
 90
     1153
 91
        4
280
     0
281
     0
  0
CLASS
  1
VISUALSTYLE
  2
AcDbVisualStyle
  3
ObjectDBX Classes
 90
     4095
 91
        4
280
     0
281
     0
  0
CLASS
  1
TABLEGEOMETRY
  2
AcDbTableGeometry
  3
ObjectDBX Classes
 90
     1152
 91
        4
280
     0
281
     0
  0
CLASS
  1
MATERIAL
  2
AcDbMaterial
  3
ObjectDBX Classes
 90
     1153
 91
        4
280
     0
281
     0
  0
CLASS
  1
MLEADERSTYLE
  2
AcDbMLeaderStyle
  3
ACDB_MLEADERSTYLE_CLASS
 90
     4095
 91
        4
280
     0
281
     0
  0
CLASS
  1
SUN
  2
AcDbSun
  3
SCENEOE
 90
     1153
 91
        4
280
     0
281
     0
  0
CLASS
  1
DICTIONARYVAR
  2
AcDbDictionaryVar
  3
ObjectDBX Classes
 90
        0
 91
        4
280
     0
281
     0
  0
CLASS
  1
CELLSTYLEMAP
  2
AcDbCellStyleMap
  3
ObjectDBX Classes
 90
     1152
 91
        4
280
     0
281
     0
  0
ENDSEC
  0
SECTION
  2
TABLES
  0
TABLE
  2
VPORT
  5
8
330
0
100
AcDbSymbolTable
 70
     1
  0
VPORT
  5
1F4
330
8
100
AcDbSymbolTableRecord
100
AcDbViewportTableRecord
  2
*ACTIVE
 70
     0
 10
0.0
 20
0.0
 11
1.0
 21
1.0
 12
420.5
 22
297.0
 13
0.0
 23
0.0
 14
1.0
 24
1.0
 15
0.0
 25
0.0
 16
0.0
 26
0.0
 36
1.0
 17
0.0
 27
0.0
 37
0.0
 40
594.0
 41
1.4158249158
 42
50.0
 43
0.0
 44
0.0
 50
0.0
 51
0.0
 71
     0
 72
   100
 73
     1
 74
     1
 75
     0
 76
     0
 77
     0
 78
     0
281
     0
 65
     1
110
0.0
120
0.0
130
0.0
111
1.0
121
0.0
131
0.0
112
0.0
122
1.0
132
0.0
 79
     0
146
0.0
348
396
 60
     3
 61
     5
292
     1
282
     1
141
0.0
142
0.0
 63
   256
  0
ENDTAB
  0
TABLE
  2
LTYPE
  5
5
330
0
100
AcDbSymbolTable
 70
     6
  0
LTYPE
  5
14
330
5
100
AcDbSymbolTableRecord
100
AcDbLinetypeTableRecord
  2
BYBLOCK
 70
     0
  3

 72
    65
 73
     0
 40
0.0
  0
LTYPE
  5
15
330
5
100
AcDbSymbolTableRecord
100
AcDbLinetypeTableRecord
  2
BYLAYER
 70
     0
  3

 72
    65
 73
     0
 40
0.0
  0
LTYPE
  5
16
330
5
100
AcDbSymbolTableRecord
100
AcDbLinetypeTableRecord
  2
CONTINUOUS
 70
     0
  3
Solid line
 72
    65
 73
     0
 40
0.0
  0
LTYPE
  5
1F5
330
5
100
AcDbSymbolTableRecord
100
AcDbLinetypeTableRecord
  2
CENTER
 70
     0
  3
____ _ ____ _ ____ _ ____ _ ____ _ ____ _ ____
 72
    65
 73
     4
 40
0.6
 49
0.375
 74
     0
 49
-0.075
 74
     0
 49
0.075
 74
     0
 49
-0.075
 74
     0
  0
LTYPE
  5
1F6
330
5
100
AcDbSymbolTableRecord
100
AcDbLinetypeTableRecord
  2
HIDDEN
 70
     0
  3
- - - - - - - - - - - - - - - - - - - -
 72
    65
 73
     2
 40
0.2
 49
0.1
 74
     0
 49
-0.1
 74
     0
  0
LTYPE
  5
1F7
330
5
100
AcDbSymbolTableRecord
100
AcDbLinetypeTableRecord
  2
PHANTOM
 70
     0
  3
_____ _ _ _____ _ _ _____ _ _ _____
 72
    65
 73
     6
 40
0.8
 49
0.45
 74
     0
 49
-0.05
 74
     0
 49
0.1
 74
     0
 49
-0.05
 74
     0
 49
0.1
 74
     0
 49
-0.05
 74
     0
  0
LTYPE
  5
1F8
330
5
100
AcDbSymbolTableRecord
100
AcDbLinetypeTableRecord
  2
DOT
 70
     0
  3
. . . . . . . . . . . . . . . . . . . .
 72
    65
 73
     2
 40
0.2
 49
0.1
 74
     0
 49
-0.1
 74
     0
  0
LTYPE
  5
1F9
330
5
100
AcDbSymbolTableRecord
100
AcDbLinetypeTableRecord
  2
DASHED
 70
     0
  3
- - - - - - - - - - - - - - - - - - - -
 72
    65
 73
     2
 40
0.2
 49
0.1
 74
     0
 49
-0.1
 74
     0
  0
ENDTAB
  0
TABLE
  2
LAYER
  5
2
330
0
100
AcDbSymbolTable
 70
    22
  0
LAYER
  5
10
330
2
100
AcDbSymbolTableRecord
100
AcDbLayerTableRecord
  2
0
 70
     0
 62
     7
  6
CONTINUOUS
370
    -3
390
F
347
3AE
348
0
  0
LAYER
  5
1FA
330
2
100
AcDbSymbolTableRecord
100
AcDbLayerTableRecord
  2
DEFAULT_1
 70
     0
 62
     7
  6
CENTER
370
    -3
390
F
347
3AE
348
0
  0
LAYER
  5
1FB
330
2
100
AcDbSymbolTableRecord
100
AcDbLayerTableRecord
  2
DEFAULT_2
 70
     0
 62
     8
  6
HIDDEN
370
    -3
390
F
347
3AE
348
0
  0
LAYER
  5
1FC
330
2
100
AcDbSymbolTableRecord
100
AcDbLayerTableRecord
  2
DEFAULT_3
 70
     0
 62
     7
  6
PHANTOM
370
    -3
390
F
347
3AE
348
0
  0
LAYER
  5
1FD
330
2
100
AcDbSymbolTableRecord
100
AcDbLayerTableRecord
  2
01___PRT_ALL_DTM_PLN
 70
     0
 62
     7
  6
CONTINUOUS
370
    -3
390
F
347
3AE
348
0
  0
LAYER
  5
1FE
330
2
100
AcDbSymbolTableRecord
100
AcDbLayerTableRecord
  2
01___PRT_DEF_DTM_PLN
 70
     0
 62
     7
  6
CONTINUOUS
370
    -3
390
F
347
3AE
348
0
  0
LAYER
  5
1FF
330
2
100
AcDbSymbolTableRecord
100
AcDbLayerTableRecord
  2
02___PRT_ALL_AXES
 70
     0
 62
     7
  6
CONTINUOUS
370
    -3
390
F
347
3AE
348
0
  0
LAYER
  5
200
330
2
100
AcDbSymbolTableRecord
100
AcDbLayerTableRecord
  2
03___PRT_ALL_CURVES
 70
     0
 62
     7
  6
CONTINUOUS
370
    -3
390
F
347
3AE
348
0
  0
LAYER
  5
201
330
2
100
AcDbSymbolTableRecord
100
AcDbLayerTableRecord
  2
04___PRT_ALL_DTM_PNT
 70
     0
 62
     7
  6
CONTINUOUS
370
    -3
390
F
347
3AE
348
0
  0
LAYER
  5
202
330
2
100
AcDbSymbolTableRecord
100
AcDbLayerTableRecord
  2
05___PRT_ALL_DTM_CSYS
 70
     0
 62
     7
  6
CONTINUOUS
370
    -3
390
F
347
3AE
348
0
  0
LAYER
  5
203
330
2
100
AcDbSymbolTableRecord
100
AcDbLayerTableRecord
  2
05___PRT_DEF_DTM_CSYS
 70
     0
 62
     7
  6
CONTINUOUS
370
    -3
390
F
347
3AE
348
0
  0
LAYER
  5
204
330
2
100
AcDbSymbolTableRecord
100
AcDbLayerTableRecord
  2
06___PRT_ALL_SURFS
 70
     0
 62
     7
  6
CONTINUOUS
370
    -3
390
F
347
3AE
348
0
  0
LAYER
  5
205
330
2
100
AcDbSymbolTableRecord
100
AcDbLayerTableRecord
  2
1_ALL_PLANES
 70
     0
 62
     7
  6
CONTINUOUS
370
    -3
390
F
347
3AE
348
0
  0
LAYER
  5
206
330
2
100
AcDbSymbolTableRecord
100
AcDbLayerTableRecord
  2
2_ALL_CSYS
 70
     0
 62
     7
  6
CONTINUOUS
370
    -3
390
F
347
3AE
348
0
  0
LAYER
  5
207
330
2
100
AcDbSymbolTableRecord
100
AcDbLayerTableRecord
  2
3_ALL_AXES
 70
     0
 62
     7
  6
CONTINUOUS
370
    -3
390
F
347
3AE
348
0
  0
LAYER
  5
208
330
2
100
AcDbSymbolTableRecord
100
AcDbLayerTableRecord
  2
4_ALL_POINTS
 70
     0
 62
     7
  6
CONTINUOUS
370
    -3
390
F
347
3AE
348
0
  0
LAYER
  5
209
330
2
100
AcDbSymbolTableRecord
100
AcDbLayerTableRecord
  2
5_ALL_CURVES
 70
     0
 62
     7
  6
CONTINUOUS
370
    -3
390
F
347
3AE
348
0
  0
LAYER
  5
20A
330
2
100
AcDbSymbolTableRecord
100
AcDbLayerTableRecord
  2
6_ALL_SURFS
 70
     0
 62
     7
  6
CONTINUOUS
370
    -3
390
F
347
3AE
348
0
  0
LAYER
  5
20B
330
2
100
AcDbSymbolTableRecord
100
AcDbLayerTableRecord
  2
7_ALL_FEATURES
 70
     0
 62
     7
  6
CONTINUOUS
370
    -3
390
F
347
3AE
348
0
  0
LAYER
  5
20C
330
2
100
AcDbSymbolTableRecord
100
AcDbLayerTableRecord
  2
9_SOLID
 70
     0
 62
     7
  6
CONTINUOUS
370
    -3
390
F
347
3AE
348
0
  0
LAYER
  5
20D
330
2
100
AcDbSymbolTableRecord
100
AcDbLayerTableRecord
  2
CLOSED_SHELL
 70
     0
 62
     7
  6
CONTINUOUS
370
    -3
390
F
347
3AE
348
0
  0
LAYER
  5
20E
330
2
100
AcDbSymbolTableRecord
100
AcDbLayerTableRecord
  2
XSEC_DATUMS
 70
     0
 62
     7
  6
CONTINUOUS
370
    -3
390
F
347
3AE
348
0
  0
ENDTAB
  0
TABLE
  2
STYLE
  5
3
330
0
100
AcDbSymbolTable
 70
     7
  0
STYLE
  5
11
330
3
100
AcDbSymbolTableRecord
100
AcDbTextStyleTableRecord
  2
STANDARD
 70
     0
 40
0.0
 41
1.0
 50
0.0
 71
     0
 42
0.2
  3
arial.ttf
  4

  0
STYLE
  5
20F
330
3
100
AcDbSymbolTableRecord
100
AcDbTextStyleTableRecord
  2
TEXTSTYLE_1
 70
     0
 40
0.0
 41
0.8
 50
0.0
 71
     0
 42
0.2
  3
gdt
  4

  0
STYLE
  5
210
330
3
100
AcDbSymbolTableRecord
100
AcDbTextStyleTableRecord
  2
TEXTSTYLE_2
 70
     0
 40
0.0
 41
0.9
 50
0.0
 71
     0
 42
0.2
  3
txt
  4

  0
STYLE
  5
211
330
3
100
AcDbSymbolTableRecord
100
AcDbTextStyleTableRecord
  2
TEXTSTYLE_3
 70
     0
 40
0.0
 41
0.9
 50
0.0
 71
     0
 42
0.2
  3
txt
  4

  0
STYLE
  5
212
330
3
100
AcDbSymbolTableRecord
100
AcDbTextStyleTableRecord
  2
TEXTSTYLE_4
 70
     0
 40
0.0
 41
2.0
 50
0.0
 71
     0
 42
0.2
  3
txt
  4

  0
STYLE
  5
213
330
3
100
AcDbSymbolTableRecord
100
AcDbTextStyleTableRecord
  2
TEXTSTYLE_5
 70
     0
 40
0.0
 41
0.9
 50
0.0
 71
     0
 42
0.2
  3
gdt
  4

  0
STYLE
  5
214
330
3
100
AcDbSymbolTableRecord
100
AcDbTextStyleTableRecord
  2
TEXTSTYLE_6
 70
     0
 40
0.0
 41
0.85
 50
0.0
 71
     0
 42
0.2
  3
txt
  4

  0
ENDTAB
  0
TABLE
  2
VIEW
  5
6
330
0
100
AcDbSymbolTable
 70
     0
  0
ENDTAB
  0
TABLE
  2
UCS
  5
7
330
0
100
AcDbSymbolTable
 70
     0
  0
ENDTAB
  0
TABLE
  2
APPID
  5
9
330
0
100
AcDbSymbolTable
 70
     1
  0
APPID
  5
215
330
9
100
AcDbSymbolTableRecord
100
AcDbRegAppTableRecord
  2
ACAD
 70
     0
  0
ENDTAB
  0
TABLE
  2
DIMSTYLE
  5
A
330
0
100
AcDbSymbolTable
 70
     3
100
AcDbDimStyleTable
  0
DIMSTYLE
105
21F
330
A
100
AcDbSymbolTableRecord
100
AcDbDimStyleTableRecord
  2
STANDARD
 70
     0
 41
2.5
 42
0.75
 44
0.75
 47
0.01
 48
0.01
 71
     1
 73
     0
 74
     0
 77
     1
 78
     8
 79
     2
140
3.0
147
0.625
171
     1
178
     0
179
     2
271
     2
272
     2
278
    44
284
     8
340
11
341
218
342
218
343
218
344
218
  0
DIMSTYLE
105
220
330
A
100
AcDbSymbolTableRecord
100
AcDbDimStyleTableRecord
  2
DIMSTYLE_1
 70
     0
 41
2.5
 42
0.75
 44
0.75
 47
0.5
 48
0.5
 73
     0
 74
     0
 77
     1
 78
     8
 79
     2
140
3.0
147
0.75
171
     1
178
     0
179
     2
271
     2
272
     2
278
    44
284
     8
340
11
341
218
342
218
343
218
344
218
  0
DIMSTYLE
105
221
330
A
100
AcDbSymbolTableRecord
100
AcDbDimStyleTableRecord
  2
DIMSTYLE_2
 70
     0
 41
2.5
 42
0.75
 44
0.75
 47
0.3
 48
0.3
 73
     0
 74
     0
 77
     1
 78
     8
 79
     2
140
3.0
147
0.75
171
     1
178
     0
179
     2
271
     2
272
     2
278
    44
284
     8
340
11
341
218
342
218
343
218
344
218
  0
ENDTAB
  0
TABLE
  2
BLOCK_RECORD
  5
1
330
0
100
AcDbSymbolTable
 70
     7
  0
BLOCK_RECORD
  5
216
330
1
100
AcDbSymbolTableRecord
100
AcDbBlockTableRecord
  2
*Model_Space
340
36B
 70
     0
280
     1
281
     0
  0
BLOCK_RECORD
  5
217
330
1
100
AcDbSymbolTableRecord
100
AcDbBlockTableRecord
  2
*Paper_Space
340
36C
 70
     0
280
     1
281
     0
  0
BLOCK_RECORD
  5
218
330
1
100
AcDbSymbolTableRecord
100
AcDbBlockTableRecord
  2
_CLOSED
340
0
102
{BLKREFS
331
274
331
275
331
27D
331
27E
331
286
331
287
102
}
 70
     0
280
     1
281
     0
  0
BLOCK_RECORD
  5
219
330
1
100
AcDbSymbolTableRecord
100
AcDbBlockTableRecord
  2
*D1
340
0
 70
     0
280
     1
281
     0
  0
BLOCK_RECORD
  5
21A
330
1
100
AcDbSymbolTableRecord
100
AcDbBlockTableRecord
  2
*D2
340
0
 70
     0
280
     1
281
     0
  0
BLOCK_RECORD
  5
21B
330
1
100
AcDbSymbolTableRecord
100
AcDbBlockTableRecord
  2
*D3
340
0
 70
     0
280
     1
281
     0
  0
BLOCK_RECORD
  5
21C
330
1
100
AcDbSymbolTableRecord
100
AcDbBlockTableRecord
  2
LOGO2_BL1
340
0
102
{BLKREFS
331
2D1
102
}
 70
     0
280
     1
281
     0
  0
BLOCK_RECORD
  5
21D
330
1
100
AcDbSymbolTableRecord
100
AcDbBlockTableRecord
  2
PROIEZIONE_EU_BL0
340
0
102
{BLKREFS
331
2D0
102
}
 70
     0
280
     1
281
     0
  0
BLOCK_RECORD
  5
21E
330
1
100
AcDbSymbolTableRecord
100
AcDbBlockTableRecord
  2
*T6
340
0
102
{BLKREFS
331
2D2
102
}
 70
     0
280
     1
281
     0
  0
ENDTAB
  0
ENDSEC
  0
SECTION
  2
BLOCKS
  0
BLOCK
  5
20
330
216
100
AcDbEntity
  8
0
100
AcDbBlockBegin
  2
*Model_Space
 70
     0
 10
0.0
 20
0.0
 30
0.0
  3
*Model_Space
  1

  0
ENDBLK
  5
21
330
216
100
AcDbEntity
  8
0
100
AcDbBlockEnd
  0
BLOCK
  5
1C
330
217
100
AcDbEntity
 67
     1
  8
0
100
AcDbBlockBegin
  2
*Paper_Space
 70
     0
 10
0.0
 20
0.0
 30
0.0
  3
*Paper_Space
  1

  0
ENDBLK
  5
1D
330
217
100
AcDbEntity
 67
     1
  8
0
100
AcDbBlockEnd
  0
BLOCK
  5
268
330
218
100
AcDbEntity
  8
0
100
AcDbBlockBegin
  2
_CLOSED
 70
     0
 10
0.0
 20
0.0
 30
0.0
  3
_CLOSED
  1

  0
LINE
  5
269
330
218
100
AcDbEntity
  8
0
  6
ByBlock
 62
     0
100
AcDbLine
 10
0.0
 20
0.0
 30
0.0
 11
-1.0
 21
0.2
 31
0.0
  0
LINE
  5
26A
330
218
100
AcDbEntity
  8
0
  6
ByBlock
 62
     0
100
AcDbLine
 10
-1.0
 20
0.2
 30
0.0
 11
-1.0
 21
-0.2
 31
0.0
  0
LINE
  5
26B
330
218
100
AcDbEntity
  8
0
  6
ByBlock
 62
     0
100
AcDbLine
 10
-1.0
 20
-0.2
 30
0.0
 11
0.0
 21
0.0
 31
0.0
  0
LINE
  5
26C
330
218
100
AcDbEntity
  8
0
  6
ByBlock
 62
     0
100
AcDbLine
 10
-1.0
 20
0.0
 30
0.0
 11
0.0
 21
0.0
 31
0.0
  0
ENDBLK
  5
26D
330
218
100
AcDbEntity
  8
0
  6
ByBlock
 62
     0
100
AcDbBlockEnd
  0
BLOCK
  5
26E
330
219
100
AcDbEntity
  8
0
100
AcDbBlockBegin
  2
*D1
 70
     1
 10
0.0
 20
0.0
 30
0.0
  3
*D1
  1

  0
MTEXT
  5
26F
330
219
100
AcDbEntity
  8
0
  6
Continuous
 62
     2
100
AcDbMText
 10
153.0021968918
 20
395.8694606994
 30
0.0
 40
3.0
 41
10.4832713755
 46
0.0
 71
     2
 72
     1
  1
239,8
 11
0.0
 21
1.0
 31
0.0
 73
     1
 44
0.9
  0
LINE
  5
270
330
219
100
AcDbEntity
  8
0
  6
Continuous
 62
     2
100
AcDbLine
 10
201.6690319313
 20
515.7694606994
 30
0.0
 11
156.0021968918
 21
515.7694606994
 31
0.0
  0
LINE
  5
271
330
219
100
AcDbEntity
  8
0
  6
Continuous
 62
     2
100
AcDbLine
 10
205.6690319313
 20
275.9694606994
 30
0.0
 11
156.0021968918
 21
275.9694606994
 31
0.0
  0
LINE
  5
272
330
219
100
AcDbEntity
  8
0
  6
Continuous
 62
     2
100
AcDbLine
 10
156.7521968918
 20
515.7694606994
 30
0.0
 11
156.7521968918
 21
395.8694606994
 31
0.0
  0
LINE
  5
273
330
219
100
AcDbEntity
  8
0
  6
Continuous
 62
     2
100
AcDbLine
 10
156.7521968918
 20
275.9694606994
 30
0.0
 11
156.7521968918
 21
395.8694606994
 31
0.0
  0
INSERT
  5
274
330
219
100
AcDbEntity
  8
0
  6
Continuous
 62
     2
100
AcDbBlockReference
  2
_CLOSED
 10
156.7521968918
 20
515.7694606994
 30
0.0
 41
2.5
 42
2.5
 43
2.5
 50
90.0
  0
INSERT
  5
275
330
219
100
AcDbEntity
  8
0
  6
Continuous
 62
     2
100
AcDbBlockReference
  2
_CLOSED
 10
156.7521968918
 20
275.9694606994
 30
0.0
 41
2.5
 42
2.5
 43
2.5
 50
270.0
  0
ENDBLK
  5
276
330
219
100
AcDbEntity
  8
0
  6
ByBlock
 62
     0
100
AcDbBlockEnd
  0
BLOCK
  5
277
330
21A
100
AcDbEntity
  8
0
100
AcDbBlockBegin
  2
*D2
 70
     1
 10
0.0
 20
0.0
 30
0.0
  3
*D2
  1

  0
MTEXT
  5
278
330
21A
100
AcDbEntity
  8
0
  6
Continuous
 62
     2
100
AcDbMText
 10
492.4773988306
 20
556.0524889494
 30
0.0
 40
3.0
 41
6.9925650558
 46
0.0
 71
     2
 72
     1
  1
121
 73
     1
 44
0.9
  0
LINE
  5
279
330
21A
100
AcDbEntity
  8
0
  6
Continuous
 62
     2
100
AcDbLine
 10
431.9773988306
 20
494.5194606994
 30
0.0
 11
431.9773988306
 21
553.0524889494
 31
0.0
  0
LINE
  5
27A
330
21A
100
AcDbEntity
  8
0
  6
Continuous
 62
     2
100
AcDbLine
 10
552.9773988306
 20
515.5194606994
 30
0.0
 11
552.9773988306
 21
553.0524889494
 31
0.0
  0
LINE
  5
27B
330
21A
100
AcDbEntity
  8
0
  6
Continuous
 62
     2
100
AcDbLine
 10
431.9773988306
 20
552.3024889494
 30
0.0
 11
492.4773988306
 21
552.3024889494
 31
0.0
  0
LINE
  5
27C
330
21A
100
AcDbEntity
  8
0
  6
Continuous
 62
     2
100
AcDbLine
 10
552.9773988306
 20
552.3024889494
 30
0.0
 11
492.4773988306
 21
552.3024889494
 31
0.0
  0
INSERT
  5
27D
330
21A
100
AcDbEntity
  8
0
  6
Continuous
 62
     2
100
AcDbBlockReference
  2
_CLOSED
 10
431.9773988306
 20
552.3024889494
 30
0.0
 41
2.5
 42
2.5
 43
2.5
 50
180.0
  0
INSERT
  5
27E
330
21A
100
AcDbEntity
  8
0
  6
Continuous
 62
     2
100
AcDbBlockReference
  2
_CLOSED
 10
552.9773988306
 20
552.3024889494
 30
0.0
 41
2.5
 42
2.5
 43
2.5
  0
ENDBLK
  5
27F
330
21A
100
AcDbEntity
  8
0
  6
ByBlock
 62
     0
100
AcDbBlockEnd
  0
BLOCK
  5
280
330
21B
100
AcDbEntity
  8
0
100
AcDbBlockBegin
  2
*D3
 70
     1
 10
0.0
 20
0.0
 30
0.0
  3
*D3
  1

  0
MTEXT
  5
281
330
21B
100
AcDbEntity
  8
0
  6
Continuous
 62
     2
100
AcDbMText
 10
241.4190319313
 20
40.7227293805
 30
0.0
 40
3.0
 41
4.6617100372
 46
0.0
 71
     2
 72
     1
  1
80
 73
     1
 44
0.9
  0
LINE
  5
282
330
21B
100
AcDbEntity
  8
0
  6
Continuous
 62
     2
100
AcDbLine
 10
281.4190319313
 20
194.1356825445
 30
0.0
 11
281.4190319313
 21
36.2227293805
 31
0.0
  0
LINE
  5
283
330
21B
100
AcDbEntity
  8
0
  6
Continuous
 62
     2
100
AcDbLine
 10
201.4190319313
 20
194.1356825445
 30
0.0
 11
201.4190319313
 21
36.2227293805
 31
0.0
  0
LINE
  5
284
330
21B
100
AcDbEntity
  8
0
  6
Continuous
 62
     2
100
AcDbLine
 10
281.4190319313
 20
36.9727293805
 30
0.0
 11
241.4190319313
 21
36.9727293805
 31
0.0
  0
LINE
  5
285
330
21B
100
AcDbEntity
  8
0
  6
Continuous
 62
     2
100
AcDbLine
 10
201.4190319313
 20
36.9727293805
 30
0.0
 11
241.4190319313
 21
36.9727293805
 31
0.0
  0
INSERT
  5
286
330
21B
100
AcDbEntity
  8
0
  6
Continuous
 62
     2
100
AcDbBlockReference
  2
_CLOSED
 10
281.4190319313
 20
36.9727293805
 30
0.0
 41
2.5
 42
2.5
 43
2.5
  0
INSERT
  5
287
330
21B
100
AcDbEntity
  8
0
  6
Continuous
 62
     2
100
AcDbBlockReference
  2
_CLOSED
 10
201.4190319313
 20
36.9727293805
 30
0.0
 41
2.5
 42
2.5
 43
2.5
 50
180.0
  0
ENDBLK
  5
288
330
21B
100
AcDbEntity
  8
0
  6
ByBlock
 62
     0
100
AcDbBlockEnd
  0
BLOCK
  5
222
330
21C
100
AcDbEntity
  8
0
100
AcDbBlockBegin
  2
LOGO2_BL1
 70
     0
 10
714.8537804701
 20
38.9603316107
 30
0.0
  3
LOGO2_BL1
  1

  0
LINE
  5
223
330
21C
100
AcDbEntity
  8
0
  6
Continuous
 62
     7
100
AcDbLine
 10
706.5967056983
 20
42.1558229496
 30
0.0
 11
705.2923647689
 21
42.1558229496
 31
0.0
  0
LINE
  5
224
330
21C
100
AcDbEntity
  8
0
  6
Continuous
 62
     7
100
AcDbLine
 10
705.2923647689
 20
42.1558229496
 30
0.0
 11
705.2923647689
 21
31.6967568897
 31
0.0
  0
LINE
  5
225
330
21C
100
AcDbEntity
  8
0
  6
Continuous
 62
     7
100
AcDbLine
 10
705.2923647689
 20
31.6967568897
 30
0.0
 11
709.7734196572
 21
31.6967568897
 31
0.0
  0
LINE
  5
226
330
21C
100
AcDbEntity
  8
0
  6
Continuous
 62
     7
100
AcDbLine
 10
709.7734196572
 20
31.6967568897
 30
0.0
 11
709.7734196572
 21
32.8896112148
 31
0.0
  0
LINE
  5
227
330
21C
100
AcDbEntity
  8
0
  6
Continuous
 62
     7
100
AcDbLine
 10
709.7734196572
 20
32.8896112148
 30
0.0
 11
706.5967056983
 21
32.8896112148
 31
0.0
  0
LINE
  5
228
330
21C
100
AcDbEntity
  8
0
  6
Continuous
 62
     7
100
AcDbLine
 10
706.5967056983
 20
32.8896112148
 30
0.0
 11
706.5967056983
 21
42.1558229496
 31
0.0
  0
LINE
  5
229
330
21C
100
AcDbEntity
  8
0
  6
Continuous
 62
     7
100
AcDbLine
 10
721.5330319146
 20
42.1558229496
 30
0.0
 11
720.2292143965
 21
42.1558229496
 31
0.0
  0
LINE
  5
22A
330
21C
100
AcDbEntity
  8
0
  6
Continuous
 62
     7
100
AcDbLine
 10
720.2292143965
 20
42.1558229496
 30
0.0
 11
720.2292143965
 21
31.6967568897
 31
0.0
  0
LINE
  5
22B
330
21C
100
AcDbEntity
  8
0
  6
Continuous
 62
     7
100
AcDbLine
 10
720.2292143965
 20
31.6967568897
 30
0.0
 11
724.7104001376
 21
31.6967568897
 31
0.0
  0
LINE
  5
22C
330
21C
100
AcDbEntity
  8
0
  6
Continuous
 62
     7
100
AcDbLine
 10
724.7104001376
 20
31.6967568897
 30
0.0
 11
724.7104001376
 21
32.8896112148
 31
0.0
  0
LINE
  5
22D
330
21C
100
AcDbEntity
  8
0
  6
Continuous
 62
     7
100
AcDbLine
 10
724.7104001376
 20
32.8896112148
 30
0.0
 11
721.5330319146
 21
32.8896112148
 31
0.0
  0
LINE
  5
22E
330
21C
100
AcDbEntity
  8
0
  6
Continuous
 62
     7
100
AcDbLine
 10
721.5330319146
 20
32.8896112148
 30
0.0
 11
721.5330319146
 21
42.1558229496
 31
0.0
  0
LWPOLYLINE
  5
22F
330
21C
100
AcDbEntity
  8
0
  6
Continuous
 62
     7
100
AcDbPolyline
 90
        2
 70
     0
 43
0.2
 10
703.6467596799
 20
28.3532055828
 10
703.6467596799
 20
26.4961423335
  0
LWPOLYLINE
  5
230
330
21C
100
AcDbEntity
  8
0
  6
Continuous
 62
     7
100
AcDbPolyline
 90
        2
 70
     0
 43
0.2
 10
703.6467596799
 20
26.4961423335
 10
704.4424756903
 20
26.4961423335
  0
LWPOLYLINE
  5
231
330
21C
100
AcDbEntity
  8
0
  6
Continuous
 62
     7
100
AcDbPolyline
 90
        2
 70
     0
 43
0.2
 10
704.4424756903
 20
26.4961423335
 10
704.4424756903
 20
26.708123905
  0
LWPOLYLINE
  5
232
330
21C
100
AcDbEntity
  8
0
  6
Continuous
 62
     7
100
AcDbPolyline
 90
        2
 70
     0
 43
0.2
 10
704.4424756903
 20
26.708123905
 10
703.8783691747
 20
26.708123905
  0
LWPOLYLINE
  5
233
330
21C
100
AcDbEntity
  8
0
  6
Continuous
 62
     7
100
AcDbPolyline
 90
        2
 70
     0
 43
0.2
 10
703.8783691747
 20
26.708123905
 10
703.8783691747
 20
28.3532055828
  0
LWPOLYLINE
  5
234
330
21C
100
AcDbEntity
  8
0
  6
Continuous
 62
     7
100
AcDbPolyline
 90
        2
 70
     0
 43
0.2
 10
703.8783691747
 20
28.3532055828
 10
703.6467596799
 20
28.3532055828
  0
SPLINE
  5
235
330
21C
100
AcDbEntity
  8
0
  6
Continuous
 62
     7
100
AcDbSpline
 70
     3
 71
     3
 72
    35
 73
    31
 74
     0
 42
0.000000001
 43
0.0000001
 40
0.0
 40
0.0
 40
0.0
 40
0.0
 40
1.0
 40
1.0
 40
1.0
 40
2.0
 40
2.0
 40
2.0
 40
3.0
 40
3.0
 40
3.0
 40
4.0
 40
4.0
 40
4.0
 40
5.0
 40
5.0
 40
5.0
 40
6.0
 40
6.0
 40
6.0
 40
7.0
 40
7.0
 40
7.0
 40
8.0
 40
8.0
 40
8.0
 40
9.0
 40
9.0
 40
9.0
 40
10.0
 40
10.0
 40
10.0
 40
10.0
 10
705.8407689458
 20
27.6486939894
 30
0.0
 10
705.8407689458
 20
27.6486939894
 30
0.0
 10
705.8407689458
 20
26.9865787102
 30
0.0
 10
705.8407689458
 20
26.9865787102
 30
0.0
 10
705.8407689458
 20
26.6714851149
 30
0.0
 10
705.9886326346
 20
26.4568864869
 30
0.0
 10
706.3287191189
 20
26.4568864869
 30
0.0
 10
706.6682821919
 20
26.4568864869
 30
0.0
 10
706.8164075864
 20
26.6714851149
 30
0.0
 10
706.8164075864
 20
26.9865787102
 30
0.0
 10
706.8164075864
 20
26.9865787102
 30
0.0
 10
706.8164075864
 20
27.6486939894
 30
0.0
 10
706.8164075864
 20
27.6486939894
 30
0.0
 10
706.8164075864
 20
27.6486939894
 30
0.0
 10
706.5943503475
 20
27.6486939894
 30
0.0
 10
706.5943503475
 20
27.6486939894
 30
0.0
 10
706.5943503475
 20
27.6486939894
 30
0.0
 10
706.5943503475
 20
27.011702452
 30
0.0
 10
706.5943503475
 20
27.011702452
 30
0.0
 10
706.5943503475
 20
26.8258914448
 30
0.0
 10
706.5476358901
 20
26.6631105343
 30
0.0
 10
706.3287191189
 20
26.6631105343
 30
0.0
 10
706.1092789365
 20
26.6631105343
 30
0.0
 10
706.062564479
 20
26.8258914448
 30
0.0
 10
706.062564479
 20
27.011702452
 30
0.0
 10
706.062564479
 20
27.011702452
 30
0.0
 10
706.062564479
 20
27.6486939894
 30
0.0
 10
706.062564479
 20
27.6486939894
 30
0.0
 10
706.062564479
 20
27.6486939894
 30
0.0
 10
705.8407689458
 20
27.6486939894
 30
0.0
 10
705.8407689458
 20
27.6486939894
 30
0.0
  0
SPLINE
  5
236
330
21C
100
AcDbEntity
  8
0
  6
Continuous
 62
     7
100
AcDbSpline
 70
     3
 71
     3
 72
    35
 73
    31
 74
     0
 42
0.000000001
 43
0.0000001
 40
0.0
 40
0.0
 40
0.0
 40
0.0
 40
1.0
 40
1.0
 40
1.0
 40
2.0
 40
2.0
 40
2.0
 40
3.0
 40
3.0
 40
3.0
 40
4.0
 40
4.0
 40
4.0
 40
5.0
 40
5.0
 40
5.0
 40
6.0
 40
6.0
 40
6.0
 40
7.0
 40
7.0
 40
7.0
 40
8.0
 40
8.0
 40
8.0
 40
9.0
 40
9.0
 40
9.0
 40
10.0
 40
10.0
 40
10.0
 40
10.0
 10
709.2395401436
 20
27.6073444976
 30
0.0
 10
709.1510836359
 20
27.6586388038
 30
0.0
 10
709.0376342393
 20
27.6837625456
 30
0.0
 10
708.9339988043
 20
27.6837625456
 30
0.0
 10
708.5791259511
 20
27.6837625456
 30
0.0
 10
708.3036807609
 20
27.4199632566
 30
0.0
 10
708.3036807609
 20
27.0624733469
 30
0.0
 10
708.3036807609
 20
26.7175453082
 30
0.0
 10
708.582135566
 20
26.4574098982
 30
0.0
 10
708.921698639
 20
26.4574098982
 30
0.0
 10
709.0376342393
 20
26.4574098982
 30
0.0
 10
709.1383909122
 20
26.4793931722
 30
0.0
 10
709.2395401436
 20
26.5333045349
 30
0.0
 10
709.2395401436
 20
26.5333045349
 30
0.0
 10
709.2395401436
 20
26.8159466303
 30
0.0
 10
709.2395401436
 20
26.8159466303
 30
0.0
 10
709.1556634847
 20
26.7227794211
 30
0.0
 10
709.0521589025
 20
26.6636339456
 30
0.0
 10
708.9240539898
 20
26.6636339456
 30
0.0
 10
708.6903508498
 20
26.6636339456
 30
0.0
 10
708.5250837356
 20
26.8358362593
 30
0.0
 10
708.5250837356
 20
27.0724181614
 30
0.0
 10
708.5250837356
 20
27.284399733
 30
0.0
 10
708.6928370534
 20
27.4764916756
 30
0.0
 10
708.9096601794
 20
27.4764916756
 30
0.0
 10
709.0424757937
 20
27.4764916756
 30
0.0
 10
709.1510836359
 20
27.422580313
 30
0.0
 10
709.2395401436
 20
27.3215619344
 30
0.0
 10
709.2395401436
 20
27.3215619344
 30
0.0
 10
709.2395401436
 20
27.6073444976
 30
0.0
 10
709.2395401436
 20
27.6073444976
 30
0.0
  0
SPLINE
  5
237
330
21C
100
AcDbEntity
  8
0
  6
Continuous
 62
     7
100
AcDbSpline
 70
     3
 71
     3
 72
    32
 73
    28
 74
     0
 42
0.000000001
 43
0.0000001
 40
0.0
 40
0.0
 40
0.0
 40
0.0
 40
1.0
 40
1.0
 40
1.0
 40
2.0
 40
2.0
 40
2.0
 40
3.0
 40
3.0
 40
3.0
 40
4.0
 40
4.0
 40
4.0
 40
5.0
 40
5.0
 40
5.0
 40
6.0
 40
6.0
 40
6.0
 40
7.0
 40
7.0
 40
7.0
 40
8.0
 40
8.0
 40
8.0
 40
9.0
 40
9.0
 40
9.0
 40
9.0
 10
711.7714113958
 20
27.0357793713
 30
0.0
 10
711.7714113958
 20
27.0357793713
 30
0.0
 10
711.7714113958
 20
27.069801105
 30
0.0
 10
711.7714113958
 20
27.069801105
 30
0.0
 10
711.7714113958
 20
27.4121120872
 30
0.0
 10
711.598554818
 20
27.6837625456
 30
0.0
 10
711.2319052109
 20
27.6837625456
 30
0.0
 10
710.8602831965
 20
27.6837625456
 30
0.0
 10
710.6705466046
 20
27.4173462001
 30
0.0
 10
710.6705466046
 20
27.0624733469
 30
0.0
 10
710.6705466046
 20
26.7227794211
 30
0.0
 10
710.8846218214
 20
26.4568864869
 30
0.0
 10
711.2367467653
 20
26.4568864869
 30
0.0
 10
711.4607667965
 20
26.4568864869
 30
0.0
 10
711.6629344064
 20
26.5725603815
 30
0.0
 10
711.7714113958
 20
26.7719800822
 30
0.0
 10
711.7714113958
 20
26.7719800822
 30
0.0
 10
711.5837684491
 20
26.8787559849
 30
0.0
 10
711.5837684491
 20
26.8787559849
 30
0.0
 10
711.5002843487
 20
26.7400519936
 30
0.0
 10
711.4090799318
 20
26.6542125424
 30
0.0
 10
711.2394946745
 20
26.6542125424
 30
0.0
 10
711.0275131029
 20
26.6542125424
 30
0.0
 10
710.8945666358
 20
26.838976727
 30
0.0
 10
710.892211285
 20
27.0357793713
 30
0.0
 10
710.892211285
 20
27.0357793713
 30
0.0
 10
711.7714113958
 20
27.0357793713
 30
0.0
 10
711.7714113958
 20
27.0357793713
 30
0.0
  0
SPLINE
  5
238
330
21C
100
AcDbEntity
  8
0
  6
Continuous
 62
     7
100
AcDbSpline
 70
     3
 71
     3
 72
    14
 73
    10
 74
     0
 42
0.000000001
 43
0.0000001
 40
0.0
 40
0.0
 40
0.0
 40
0.0
 40
1.0
 40
1.0
 40
1.0
 40
2.0
 40
2.0
 40
2.0
 40
3.0
 40
3.0
 40
3.0
 40
3.0
 10
710.9042497447
 20
27.2032709834
 30
0.0
 10
710.9318596901
 20
27.3681455391
 30
0.0
 10
711.0597028971
 20
27.4911471917
 30
0.0
 10
711.2319052109
 20
27.4911471917
 30
0.0
 10
711.4090799318
 20
27.4911471917
 30
0.0
 10
711.5225293284
 20
27.3754732971
 30
0.0
 10
711.5497467154
 20
27.2032709834
 30
0.0
 10
711.5497467154
 20
27.2032709834
 30
0.0
 10
710.9042497447
 20
27.2032709834
 30
0.0
 10
710.9042497447
 20
27.2032709834
 30
0.0
  0
SPLINE
  5
239
330
21C
100
AcDbEntity
  8
0
  6
Continuous
 62
     7
100
AcDbSpline
 70
     3
 71
     3
 72
    20
 73
    16
 74
     0
 42
0.000000001
 43
0.0000001
 40
0.0
 40
0.0
 40
0.0
 40
0.0
 40
1.0
 40
1.0
 40
1.0
 40
2.0
 40
2.0
 40
2.0
 40
3.0
 40
3.0
 40
3.0
 40
4.0
 40
4.0
 40
4.0
 40
5.0
 40
5.0
 40
5.0
 40
5.0
 10
713.795442846
 20
27.4126354985
 30
0.0
 10
713.795442846
 20
27.4126354985
 30
0.0
 10
714.2065824126
 20
26.9101606622
 30
0.0
 10
714.2065824126
 20
26.9101606622
 30
0.0
 10
714.0905159596
 20
26.7944867675
 30
0.0
 10
713.952727938
 20
26.6641573569
 30
0.0
 10
713.78078733
 20
26.6641573569
 30
0.0
 10
713.6033509034
 20
26.6641573569
 30
0.0
 10
713.4358592913
 20
26.8285085013
 30
0.0
 10
713.4358592913
 20
27.0054215166
 30
0.0
 10
713.4358592913
 20
27.1833813544
 30
0.0
 10
713.6456163649
 20
27.3095234748
 30
0.0
 10
713.7731978663
 20
27.3974565712
 30
0.0
 10
713.7731978663
 20
27.3974565712
 30
0.0
 10
713.795442846
 20
27.4126354985
 30
0.0
 10
713.795442846
 20
27.4126354985
 30
0.0
  0
SPLINE
  5
23A
330
21C
100
AcDbEntity
  8
0
  6
Continuous
 62
     7
100
AcDbSpline
 70
     3
 71
     3
 72
    23
 73
    19
 74
     0
 42
0.000000001
 43
0.0000001
 40
0.0
 40
0.0
 40
0.0
 40
0.0
 40
1.0
 40
1.0
 40
1.0
 40
2.0
 40
2.0
 40
2.0
 40
3.0
 40
3.0
 40
3.0
 40
4.0
 40
4.0
 40
4.0
 40
5.0
 40
5.0
 40
5.0
 40
6.0
 40
6.0
 40
6.0
 40
6.0
 10
713.8447743599
 20
27.7036521746
 30
0.0
 10
713.8447743599
 20
27.7036521746
 30
0.0
 10
713.7831426808
 20
27.7821638678
 30
0.0
 10
713.7831426808
 20
27.7821638678
 30
0.0
 10
713.7292313181
 20
27.8507307465
 30
0.0
 10
713.6724411934
 20
27.9198210365
 30
0.0
 10
713.6724411934
 20
28.013511657
 30
0.0
 10
713.6724411934
 20
28.1323260193
 30
0.0
 10
713.7683563119
 20
28.2097908899
 30
0.0
 10
713.8793195049
 20
28.2097908899
 30
0.0
 10
714.0025828632
 20
28.2097908899
 30
0.0
 10
714.0958809253
 20
28.1386069548
 30
0.0
 10
714.0958809253
 20
28.0082775441
 30
0.0
 10
714.0958809253
 20
27.8732374318
 30
0.0
 10
713.9677760126
 20
27.7968193838
 30
0.0
 10
713.8742162448
 20
27.7230183922
 30
0.0
 10
713.8742162448
 20
27.7230183922
 30
0.0
 10
713.8447743599
 20
27.7036521746
 30
0.0
 10
713.8447743599
 20
27.7036521746
 30
0.0
  0
SPLINE
  5
23B
330
21C
100
AcDbEntity
  8
0
  6
Continuous
 62
     7
100
AcDbSpline
 70
     3
 71
     3
 72
    50
 73
    46
 74
     0
 42
0.000000001
 43
0.0000001
 40
0.0
 40
0.0
 40
0.0
 40
0.0
 40
1.0
 40
1.0
 40
1.0
 40
2.0
 40
2.0
 40
2.0
 40
3.0
 40
3.0
 40
3.0
 40
4.0
 40
4.0
 40
4.0
 40
5.0
 40
5.0
 40
5.0
 40
6.0
 40
6.0
 40
6.0
 40
7.0
 40
7.0
 40
7.0
 40
8.0
 40
8.0
 40
8.0
 40
9.0
 40
9.0
 40
9.0
 40
10.0
 40
10.0
 40
10.0
 40
11.0
 40
11.0
 40
11.0
 40
12.0
 40
12.0
 40
12.0
 40
13.0
 40
13.0
 40
13.0
 40
14.0
 40
14.0
 40
14.0
 40
15.0
 40
15.0
 40
15.0
 40
15.0
 10
714.5469306026
 20
26.4966657447
 30
0.0
 10
714.5469306026
 20
26.4966657447
 30
0.0
 10
714.8323206073
 20
26.4966657447
 30
0.0
 10
714.8323206073
 20
26.4966657447
 30
0.0
 10
714.8323206073
 20
26.4966657447
 30
0.0
 10
714.4999544395
 20
26.9075436057
 30
0.0
 10
714.4999544395
 20
26.9075436057
 30
0.0
 10
714.4999544395
 20
26.9075436057
 30
0.0
 10
714.7264606743
 20
27.17343654
 30
0.0
 10
714.7264606743
 20
27.17343654
 30
0.0
 10
714.7264606743
 20
27.17343654
 30
0.0
 10
714.578204427
 20
27.326272636
 30
0.0
 10
714.578204427
 20
27.326272636
 30
0.0
 10
714.578204427
 20
27.326272636
 30
0.0
 10
714.3622972708
 20
27.0750352178
 30
0.0
 10
714.3622972708
 20
27.0750352178
 30
0.0
 10
714.3622972708
 20
27.0750352178
 30
0.0
 10
713.9752346234
 20
27.5429649092
 30
0.0
 10
713.9752346234
 20
27.5429649092
 30
0.0
 10
714.1306877759
 20
27.65706857
 30
0.0
 10
714.3129657569
 20
27.7968193838
 30
0.0
 10
714.3129657569
 20
28.006183899
 30
0.0
 10
714.3129657569
 20
28.2500935591
 30
0.0
 10
714.1109289998
 20
28.393508252
 30
0.0
 10
713.884422765
 20
28.393508252
 30
0.0
 10
713.6402513992
 20
28.393508252
 30
0.0
 10
713.455879773
 20
28.2427658011
 30
0.0
 10
713.455879773
 20
27.98629427
 30
0.0
 10
713.455879773
 20
27.8287474724
 30
0.0
 10
713.5545428008
 20
27.6910903037
 30
0.0
 10
713.6598793225
 20
27.5801271106
 30
0.0
 10
713.6598793225
 20
27.5801271106
 30
0.0
 10
713.5443362807
 20
27.4963813046
 30
0.0
 10
713.5443362807
 20
27.4963813046
 30
0.0
 10
713.3666381484
 20
27.3681455391
 30
0.0
 10
713.2192978709
 20
27.2404331848
 30
0.0
 10
713.2192978709
 20
27.0033278714
 30
0.0
 10
713.2192978709
 20
26.6830001632
 30
0.0
 10
713.4778630471
 20
26.4568864869
 30
0.0
 10
713.7882459408
 20
26.4568864869
 30
0.0
 10
714.007162712
 20
26.4568864869
 30
0.0
 10
714.2043579147
 20
26.5819817847
 30
0.0
 10
714.3446321398
 20
26.7479031629
 30
0.0
 10
714.3446321398
 20
26.7479031629
 30
0.0
 10
714.5469306026
 20
26.4966657447
 30
0.0
 10
714.5469306026
 20
26.4966657447
 30
0.0
  0
LWPOLYLINE
  5
23C
330
21C
100
AcDbEntity
  8
0
  6
Continuous
 62
     7
100
AcDbPolyline
 90
        2
 70
     0
 43
0.2
 10
716.4823746923
 20
28.3532055828
 10
716.2510269031
 20
28.3532055828
  0
LWPOLYLINE
  5
23D
330
21C
100
AcDbEntity
  8
0
  6
Continuous
 62
     7
100
AcDbPolyline
 90
        2
 70
     0
 43
0.2
 10
716.2510269031
 20
28.3532055828
 10
716.2510269031
 20
26.4961423335
  0
LWPOLYLINE
  5
23E
330
21C
100
AcDbEntity
  8
0
  6
Continuous
 62
     7
100
AcDbPolyline
 90
        2
 70
     0
 43
0.2
 10
716.2510269031
 20
26.4961423335
 10
717.046350355
 20
26.4961423335
  0
LWPOLYLINE
  5
23F
330
21C
100
AcDbEntity
  8
0
  6
Continuous
 62
     7
100
AcDbPolyline
 90
        2
 70
     0
 43
0.2
 10
717.046350355
 20
26.4961423335
 10
717.046350355
 20
26.708123905
  0
LWPOLYLINE
  5
240
330
21C
100
AcDbEntity
  8
0
  6
Continuous
 62
     7
100
AcDbPolyline
 90
        2
 70
     0
 43
0.2
 10
717.046350355
 20
26.708123905
 10
716.4823746923
 20
26.708123905
  0
LWPOLYLINE
  5
241
330
21C
100
AcDbEntity
  8
0
  6
Continuous
 62
     7
100
AcDbPolyline
 90
        2
 70
     0
 43
0.2
 10
716.4823746923
 20
26.708123905
 10
716.4823746923
 20
28.3532055828
  0
LWPOLYLINE
  5
242
330
21C
100
AcDbEntity
  8
0
  6
Continuous
 62
     7
100
AcDbPolyline
 90
        2
 70
     0
 43
0.2
 10
718.7254537665
 20
27.6486939894
 10
718.5043124973
 20
27.6486939894
  0
LWPOLYLINE
  5
243
330
21C
100
AcDbEntity
  8
0
  6
Continuous
 62
     7
100
AcDbPolyline
 90
        2
 70
     0
 43
0.2
 10
718.5043124973
 20
27.6486939894
 10
718.5043124973
 20
26.4966657447
  0
LWPOLYLINE
  5
244
330
21C
100
AcDbEntity
  8
0
  6
Continuous
 62
     7
100
AcDbPolyline
 90
        2
 70
     0
 43
0.2
 10
718.5043124973
 20
26.4966657447
 10
718.7254537665
 20
26.4966657447
  0
LWPOLYLINE
  5
245
330
21C
100
AcDbEntity
  8
0
  6
Continuous
 62
     7
100
AcDbPolyline
 90
        2
 70
     0
 43
0.2
 10
718.7254537665
 20
26.4966657447
 10
718.7254537665
 20
27.6486939894
  0
LWPOLYLINE
  5
246
330
21C
100
AcDbEntity
  8
0
  6
Continuous
 62
     7
100
AcDbPolyline
 90
        2
 70
     1
 43
0.2
 10
718.4624304893
 20
28.1786479183
 42
1.0
 10
718.7675974802
 20
28.1786479183
 42
1.0
  0
SPLINE
  5
247
330
21C
100
AcDbEntity
  8
0
  6
Continuous
 62
     7
100
AcDbSpline
 70
     3
 71
     3
 72
    17
 73
    13
 74
     0
 42
0.000000001
 43
0.0000001
 40
0.0
 40
0.0
 40
0.0
 40
0.0
 40
1.0
 40
1.0
 40
1.0
 40
2.0
 40
2.0
 40
2.0
 40
3.0
 40
3.0
 40
3.0
 40
4.0
 40
4.0
 40
4.0
 40
4.0
 10
720.8557377081
 20
26.6542125424
 30
0.0
 10
720.6217728624
 20
26.6542125424
 30
0.0
 10
720.4914434517
 20
26.8562492995
 30
0.0
 10
720.4914434517
 20
27.0724181614
 30
0.0
 10
720.4914434517
 20
27.2870167894
 30
0.0
 10
720.6272686809
 20
27.4859130788
 30
0.0
 10
720.8557377081
 20
27.4859130788
 30
0.0
 10
721.0951983723
 20
27.4859130788
 30
0.0
 10
721.2307618959
 20
27.2969616039
 30
0.0
 10
721.2307618959
 20
27.0724181614
 30
0.0
 10
721.2307618959
 20
26.846304485
 30
0.0
 10
721.0975537231
 20
26.6542125424
 30
0.0
 10
720.8557377081
 20
26.6542125424
 30
0.0
  0
SPLINE
  5
248
330
21C
100
AcDbEntity
  8
0
  6
Continuous
 62
     7
100
AcDbSpline
 70
     3
 71
     3
 72
    50
 73
    46
 74
     0
 42
0.000000001
 43
0.0000001
 40
0.0
 40
0.0
 40
0.0
 40
0.0
 40
1.0
 40
1.0
 40
1.0
 40
2.0
 40
2.0
 40
2.0
 40
3.0
 40
3.0
 40
3.0
 40
4.0
 40
4.0
 40
4.0
 40
5.0
 40
5.0
 40
5.0
 40
6.0
 40
6.0
 40
6.0
 40
7.0
 40
7.0
 40
7.0
 40
8.0
 40
8.0
 40
8.0
 40
9.0
 40
9.0
 40
9.0
 40
10.0
 40
10.0
 40
10.0
 40
11.0
 40
11.0
 40
11.0
 40
12.0
 40
12.0
 40
12.0
 40
13.0
 40
13.0
 40
13.0
 40
14.0
 40
14.0
 40
14.0
 40
15.0
 40
15.0
 40
15.0
 40
15.0
 10
721.4398647054
 20
27.6492174006
 30
0.0
 10
721.4398647054
 20
27.6492174006
 30
0.0
 10
721.218200025
 20
27.6492174006
 30
0.0
 10
721.218200025
 20
27.6492174006
 30
0.0
 10
721.218200025
 20
27.6492174006
 30
0.0
 10
721.218200025
 20
27.4518913451
 30
0.0
 10
721.218200025
 20
27.4518913451
 30
0.0
 10
721.218200025
 20
27.4518913451
 30
0.0
 10
721.2134893234
 20
27.4518913451
 30
0.0
 10
721.2134893234
 20
27.4518913451
 30
0.0
 10
721.1221540536
 20
27.5947826267
 30
0.0
 10
720.9842351793
 20
27.6832391343
 30
0.0
 10
720.8115094543
 20
27.6832391343
 30
0.0
 10
720.4791432865
 20
27.6832391343
 30
0.0
 10
720.270040477
 20
27.395362926
 30
0.0
 10
720.270040477
 20
27.0797459194
 30
0.0
 10
720.270040477
 20
26.7499968081
 30
0.0
 10
720.4671048269
 20
26.4568864869
 30
0.0
 10
720.82197768
 20
26.4568864869
 30
0.0
 10
720.9842351793
 20
26.4568864869
 30
0.0
 10
721.1242476988
 20
26.5453429945
 30
0.0
 10
721.2134893234
 20
26.6761958165
 30
0.0
 10
721.2134893234
 20
26.6761958165
 30
0.0
 10
721.218200025
 20
26.6761958165
 30
0.0
 10
721.218200025
 20
26.6761958165
 30
0.0
 10
721.218200025
 20
26.6761958165
 30
0.0
 10
721.218200025
 20
26.4568864869
 30
0.0
 10
721.218200025
 20
26.4568864869
 30
0.0
 10
721.218200025
 20
26.2203045848
 30
0.0
 10
721.1616716059
 20
26.033446755
 30
0.0
 10
720.8884509136
 20
26.033446755
 30
0.0
 10
720.6861524508
 20
26.033446755
 30
0.0
 10
720.5435228749
 20
26.151737706
 30
0.0
 10
720.5435228749
 20
26.3579617535
 30
0.0
 10
720.5435228749
 20
26.3579617535
 30
0.0
 10
720.3218581945
 20
26.3579617535
 30
0.0
 10
720.3218581945
 20
26.3579617535
 30
0.0
 10
720.3268306017
 20
26.033446755
 30
0.0
 10
720.5579166853
 20
25.8366441107
 30
0.0
 10
720.8782443935
 20
25.8366441107
 30
0.0
 10
721.3262844559
 20
25.8366441107
 30
0.0
 10
721.4398647054
 20
26.1219032626
 30
0.0
 10
721.4398647054
 20
26.5186490188
 30
0.0
 10
721.4398647054
 20
26.5186490188
 30
0.0
 10
721.4398647054
 20
27.6492174006
 30
0.0
 10
721.4398647054
 20
27.6492174006
 30
0.0
  0
SPLINE
  5
249
330
21C
100
AcDbEntity
  8
0
  6
Continuous
 62
     7
100
AcDbSpline
 70
     3
 71
     3
 72
    44
 73
    40
 74
     0
 42
0.000000001
 43
0.0000001
 40
0.0
 40
0.0
 40
0.0
 40
0.0
 40
1.0
 40
1.0
 40
1.0
 40
2.0
 40
2.0
 40
2.0
 40
3.0
 40
3.0
 40
3.0
 40
4.0
 40
4.0
 40
4.0
 40
5.0
 40
5.0
 40
5.0
 40
6.0
 40
6.0
 40
6.0
 40
7.0
 40
7.0
 40
7.0
 40
8.0
 40
8.0
 40
8.0
 40
9.0
 40
9.0
 40
9.0
 40
10.0
 40
10.0
 40
10.0
 40
11.0
 40
11.0
 40
11.0
 40
12.0
 40
12.0
 40
12.0
 40
13.0
 40
13.0
 40
13.0
 40
13.0
 10
723.0087900408
 20
28.6342774444
 30
0.0
 10
723.0087900408
 20
28.6342774444
 30
0.0
 10
723.0087900408
 20
26.4961423335
 30
0.0
 10
723.0087900408
 20
26.4961423335
 30
0.0
 10
723.0087900408
 20
26.4961423335
 30
0.0
 10
723.2301930155
 20
26.4961423335
 30
0.0
 10
723.2301930155
 20
26.4961423335
 30
0.0
 10
723.2301930155
 20
26.4961423335
 30
0.0
 10
723.2301930155
 20
27.0258345568
 30
0.0
 10
723.2301930155
 20
27.0258345568
 30
0.0
 10
723.2301930155
 20
27.2357224832
 30
0.0
 10
723.2301930155
 20
27.4864364901
 30
0.0
 10
723.5154521674
 20
27.4864364901
 30
0.0
 10
723.7423509607
 20
27.4864364901
 30
0.0
 10
723.769306642
 20
27.353490023
 30
0.0
 10
723.769306642
 20
27.15721079
 30
0.0
 10
723.769306642
 20
27.15721079
 30
0.0
 10
723.769306642
 20
26.4961423335
 30
0.0
 10
723.769306642
 20
26.4961423335
 30
0.0
 10
723.769306642
 20
26.4961423335
 30
0.0
 10
723.9912330281
 20
26.4961423335
 30
0.0
 10
723.9912330281
 20
26.4961423335
 30
0.0
 10
723.9912330281
 20
26.4961423335
 30
0.0
 10
723.9912330281
 20
27.1833813544
 30
0.0
 10
723.9912330281
 20
27.1833813544
 30
0.0
 10
723.9912330281
 20
27.4639298047
 30
0.0
 10
723.9072255164
 20
27.6837625456
 30
0.0
 10
723.5821871066
 20
27.6837625456
 30
0.0
 10
723.4424362928
 20
27.6837625456
 30
0.0
 10
723.3042557128
 20
27.6172893121
 30
0.0
 10
723.2349037171
 20
27.4942876594
 30
0.0
 10
723.2349037171
 20
27.4942876594
 30
0.0
 10
723.2301930155
 20
27.4942876594
 30
0.0
 10
723.2301930155
 20
27.4942876594
 30
0.0
 10
723.2301930155
 20
27.4942876594
 30
0.0
 10
723.2301930155
 20
28.6342774444
 30
0.0
 10
723.2301930155
 20
28.6342774444
 30
0.0
 10
723.2301930155
 20
28.6342774444
 30
0.0
 10
723.0087900408
 20
28.6342774444
 30
0.0
 10
723.0087900408
 20
28.6342774444
 30
0.0
  0
LWPOLYLINE
  5
24A
330
21C
100
AcDbEntity
  8
0
  6
Continuous
 62
     7
100
AcDbPolyline
 90
        2
 70
     0
 43
0.2
 10
725.831023705
 20
27.4419465306
 10
726.0474542725
 20
27.4419465306
  0
LWPOLYLINE
  5
24B
330
21C
100
AcDbEntity
  8
0
  6
Continuous
 62
     7
100
AcDbPolyline
 90
        2
 70
     0
 43
0.2
 10
726.0474542725
 20
27.4419465306
 10
726.0474542725
 20
27.6486939894
  0
LWPOLYLINE
  5
24C
330
21C
100
AcDbEntity
  8
0
  6
Continuous
 62
     7
100
AcDbPolyline
 90
        2
 70
     0
 43
0.2
 10
726.0474542725
 20
27.6486939894
 10
725.831023705
 20
27.6486939894
  0
LWPOLYLINE
  5
24D
330
21C
100
AcDbEntity
  8
0
  6
Continuous
 62
     7
100
AcDbPolyline
 90
        2
 70
     0
 43
0.2
 10
725.831023705
 20
27.6486939894
 10
725.831023705
 20
28.0894062937
  0
LWPOLYLINE
  5
24E
330
21C
100
AcDbEntity
  8
0
  6
Continuous
 62
     7
100
AcDbPolyline
 90
        2
 70
     0
 43
0.2
 10
725.831023705
 20
28.0894062937
 10
725.6093590245
 20
28.0894062937
  0
LWPOLYLINE
  5
24F
330
21C
100
AcDbEntity
  8
0
  6
Continuous
 62
     7
100
AcDbPolyline
 90
        2
 70
     0
 43
0.2
 10
725.6093590245
 20
28.0894062937
 10
725.6093590245
 20
27.6486939894
  0
LWPOLYLINE
  5
250
330
21C
100
AcDbEntity
  8
0
  6
Continuous
 62
     7
100
AcDbPolyline
 90
        2
 70
     0
 43
0.2
 10
725.6093590245
 20
27.6486939894
 10
725.4887127227
 20
27.6486939894
  0
LWPOLYLINE
  5
251
330
21C
100
AcDbEntity
  8
0
  6
Continuous
 62
     7
100
AcDbPolyline
 90
        2
 70
     0
 43
0.2
 10
725.4887127227
 20
27.6486939894
 10
725.4887127227
 20
27.4419465306
  0
LWPOLYLINE
  5
252
330
21C
100
AcDbEntity
  8
0
  6
Continuous
 62
     7
100
AcDbPolyline
 90
        2
 70
     0
 43
0.2
 10
725.4887127227
 20
27.4419465306
 10
725.6093590245
 20
27.4419465306
  0
LWPOLYLINE
  5
253
330
21C
100
AcDbEntity
  8
0
  6
Continuous
 62
     7
100
AcDbPolyline
 90
        2
 70
     0
 43
0.2
 10
725.6093590245
 20
27.4419465306
 10
725.6093590245
 20
26.4961423335
  0
LWPOLYLINE
  5
254
330
21C
100
AcDbEntity
  8
0
  6
Continuous
 62
     7
100
AcDbPolyline
 90
        2
 70
     0
 43
0.2
 10
725.6093590245
 20
26.4961423335
 10
725.831023705
 20
26.4961423335
  0
LWPOLYLINE
  5
255
330
21C
100
AcDbEntity
  8
0
  6
Continuous
 62
     7
100
AcDbPolyline
 90
        2
 70
     0
 43
0.2
 10
725.831023705
 20
26.4961423335
 10
725.831023705
 20
27.4419465306
  0
SPLINE
  5
256
330
21C
100
AcDbEntity
  8
0
  6
Continuous
 62
     7
100
AcDbSpline
 70
     3
 71
     3
 72
    20
 73
    16
 74
     0
 42
0.000000001
 43
0.0000001
 40
0.0
 40
0.0
 40
0.0
 40
0.0
 40
1.0
 40
1.0
 40
1.0
 40
2.0
 40
2.0
 40
2.0
 40
3.0
 40
3.0
 40
3.0
 40
4.0
 40
4.0
 40
4.0
 40
5.0
 40
5.0
 40
5.0
 40
5.0
 10
713.6130340122
 20
36.8570687768
 30
0.0
 10
713.6130340122
 20
36.8570687768
 30
0.0
 10
715.9293906667
 20
34.0275073546
 30
0.0
 10
715.9293906667
 20
34.0275073546
 30
0.0
 10
715.2777436133
 20
33.3753368899
 30
0.0
 10
714.5008704093
 20
32.6394206192
 30
0.0
 10
713.5296807646
 20
32.6394206192
 30
0.0
 10
712.5311428802
 20
32.6394206192
 30
0.0
 10
711.5878248866
 20
33.5689990664
 30
0.0
 10
711.5878248866
 20
34.568191215
 30
0.0
 10
711.5878248866
 20
35.5673833635
 30
0.0
 10
712.7666779597
 20
36.2739886022
 30
0.0
 10
713.48820042
 20
36.7738463821
 30
0.0
 10
713.48820042
 20
36.7738463821
 30
0.0
 10
713.6130340122
 20
36.8570687768
 30
0.0
 10
713.6130340122
 20
36.8570687768
 30
0.0
  0
SPLINE
  5
257
330
21C
100
AcDbEntity
  8
0
  6
Continuous
 62
     7
100
AcDbSpline
 70
     3
 71
     3
 72
    23
 73
    19
 74
     0
 42
0.000000001
 43
0.0000001
 40
0.0
 40
0.0
 40
0.0
 40
0.0
 40
1.0
 40
1.0
 40
1.0
 40
2.0
 40
2.0
 40
2.0
 40
3.0
 40
3.0
 40
3.0
 40
4.0
 40
4.0
 40
4.0
 40
5.0
 40
5.0
 40
5.0
 40
6.0
 40
6.0
 40
6.0
 40
6.0
 10
713.8904419948
 20
38.4948226966
 30
0.0
 10
713.8904419948
 20
38.4948226966
 30
0.0
 10
713.5439437222
 20
38.9381520574
 30
0.0
 10
713.5439437222
 20
38.9381520574
 30
0.0
 10
713.2381406773
 20
39.3262615274
 30
0.0
 10
712.9192523501
 20
39.7147635558
 30
0.0
 10
712.9192523501
 20
40.2417078699
 30
0.0
 10
712.9192523501
 20
40.9078795865
 30
0.0
 10
713.4605904746
 20
41.3516015058
 30
0.0
 10
714.0844967297
 20
41.3516015058
 30
0.0
 10
714.7782783918
 20
41.3516015058
 30
0.0
 10
715.3054844115
 20
40.9493599311
 30
0.0
 10
715.3054844115
 20
40.2143596301
 30
0.0
 10
715.3054844115
 20
39.4510951195
 30
0.0
 10
714.5842236568
 20
39.0209818937
 30
0.0
 10
714.05714849
 20
38.6052624783
 30
0.0
 10
714.05714849
 20
38.6052624783
 30
0.0
 10
713.8904419948
 20
38.4948226966
 30
0.0
 10
713.8904419948
 20
38.4948226966
 30
0.0
  0
SPLINE
  5
258
330
21C
100
AcDbEntity
  8
0
  6
Continuous
 62
     7
100
AcDbSpline
 70
     3
 71
     3
 72
    50
 73
    46
 74
     0
 42
0.000000001
 43
0.0000001
 40
0.0
 40
0.0
 40
0.0
 40
0.0
 40
1.0
 40
1.0
 40
1.0
 40
2.0
 40
2.0
 40
2.0
 40
3.0
 40
3.0
 40
3.0
 40
4.0
 40
4.0
 40
4.0
 40
5.0
 40
5.0
 40
5.0
 40
6.0
 40
6.0
 40
6.0
 40
7.0
 40
7.0
 40
7.0
 40
8.0
 40
8.0
 40
8.0
 40
9.0
 40
9.0
 40
9.0
 40
10.0
 40
10.0
 40
10.0
 40
11.0
 40
11.0
 40
11.0
 40
12.0
 40
12.0
 40
12.0
 40
13.0
 40
13.0
 40
13.0
 40
14.0
 40
14.0
 40
14.0
 40
15.0
 40
15.0
 40
15.0
 40
15.0
 10
717.8440291577
 20
31.6962334784
 30
0.0
 10
717.8440291577
 20
31.6962334784
 30
0.0
 10
719.4532571623
 20
31.6962334784
 30
0.0
 10
719.4532571623
 20
31.6962334784
 30
0.0
 10
719.4532571623
 20
31.6962334784
 30
0.0
 10
717.5802298686
 20
34.0133752499
 30
0.0
 10
717.5802298686
 20
34.0133752499
 30
0.0
 10
717.5802298686
 20
34.0133752499
 30
0.0
 10
718.8565682941
 20
35.5108549444
 30
0.0
 10
718.8565682941
 20
35.5108549444
 30
0.0
 10
718.8565682941
 20
35.5108549444
 30
0.0
 10
718.0243443464
 20
36.371866513
 30
0.0
 10
718.0243443464
 20
36.371866513
 30
0.0
 10
718.0243443464
 20
36.371866513
 30
0.0
 10
716.8037492231
 20
34.9565623906
 30
0.0
 10
716.8037492231
 20
34.9565623906
 30
0.0
 10
716.8037492231
 20
34.9565623906
 30
0.0
 10
714.6258348542
 20
37.591938225
 30
0.0
 10
714.6258348542
 20
37.591938225
 30
0.0
 10
715.4994082937
 20
38.2299765849
 30
0.0
 10
716.5260795348
 20
39.0209818937
 30
0.0
 10
716.5260795348
 20
40.1998349668
 30
0.0
 10
716.5260795348
 20
41.5735278918
 30
0.0
 10
715.388183395
 20
42.3780110413
 30
0.0
 10
714.1128917921
 20
42.3780110413
 30
0.0
 10
712.7394605727
 20
42.3780110413
 30
0.0
 10
711.698526374
 20
41.5317858416
 30
0.0
 10
711.698526374
 20
40.0891334794
 30
0.0
 10
711.698526374
 20
39.201558788
 30
0.0
 10
712.2538657504
 20
38.424685584
 30
0.0
 10
712.8500312073
 20
37.8002559176
 30
0.0
 10
712.8500312073
 20
37.8002559176
 30
0.0
 10
712.1981224483
 20
37.3286623472
 30
0.0
 10
712.1981224483
 20
37.3286623472
 30
0.0
 10
711.1995845638
 20
36.6074015925
 30
0.0
 10
710.366706352
 20
35.8861408378
 30
0.0
 10
710.366706352
 20
34.5545825215
 30
0.0
 10
710.366706352
 20
32.7509072235
 30
0.0
 10
711.8237525246
 20
31.4743070924
 30
0.0
 10
713.571291962
 20
31.4743070924
 30
0.0
 10
714.8061500429
 20
31.4743070924
 30
0.0
 10
715.9155202675
 20
32.1824825649
 30
0.0
 10
716.7063947235
 20
33.1110141896
 30
0.0
 10
716.7063947235
 20
33.1110141896
 30
0.0
 10
717.8440291577
 20
31.6962334784
 30
0.0
 10
717.8440291577
 20
31.6962334784
 30
0.0
  0
LINE
  5
259
330
21C
100
AcDbEntity
  8
0
  6
Continuous
 62
     7
100
AcDbLine
 10
703.6468905327
 20
29.6701083831
 30
0.0
 11
726.0608012603
 21
29.6701083831
 31
0.0
  0
LINE
  5
25A
330
21C
100
AcDbEntity
  8
0
  6
Continuous
 62
     7
100
AcDbLine
 10
726.0608012603
 20
29.6701083831
 30
0.0
 11
726.0608012603
 21
52.0840191107
 31
0.0
  0
LINE
  5
25B
330
21C
100
AcDbEntity
  8
0
  6
Continuous
 62
     7
100
AcDbLine
 10
726.0608012603
 20
52.0840191107
 30
0.0
 11
703.6468905327
 21
52.0840191107
 31
0.0
  0
LINE
  5
25C
330
21C
100
AcDbEntity
  8
0
  6
Continuous
 62
     7
100
AcDbLine
 10
703.6468905327
 20
52.0840191107
 30
0.0
 11
703.6468905327
 21
29.6701083831
 31
0.0
  0
ENDBLK
  5
25D
330
21C
100
AcDbEntity
  8
0
  6
ByBlock
 62
     0
100
AcDbBlockEnd
  0
BLOCK
  5
25E
330
21D
100
AcDbEntity
  8
0
100
AcDbBlockBegin
  2
PROIEZIONE_EU_BL0
 70
     0
 10
716.0277334253
 20
62.9606374789
 30
0.0
  3
PROIEZIONE_EU_BL0
  1

  0
LWPOLYLINE
  5
25F
330
21D
100
AcDbEntity
  8
DEFAULT_1
  6
CENTER
 62
     7
100
AcDbPolyline
 90
        2
 70
     0
 43
0.25
 10
722.154354087
 20
67.9603316107
 10
722.1543950693
 20
57.960943347
  0
LWPOLYLINE
  5
260
330
21D
100
AcDbEntity
  8
DEFAULT_1
  6
CENTER
 62
     7
100
AcDbPolyline
 90
        2
 70
     0
 43
0.25
 10
728.154383912
 20
62.960908614
 10
703.9010829386
 20
62.9606379536
  0
LWPOLYLINE
  5
261
330
21D
100
AcDbEntity
  8
0
  6
Continuous
 62
     7
100
AcDbPolyline
 90
        2
 70
     1
 43
0.25
 10
718.6072439112
 20
62.9420897247
 42
1.0
 10
725.7135730098
 20
62.9420897247
 42
1.0
  0
LWPOLYLINE
  5
262
330
21D
100
AcDbEntity
  8
0
  6
Continuous
 62
     7
100
AcDbPolyline
 90
        2
 70
     1
 43
0.25
 10
720.1569877396
 20
62.9599877693
 42
1.0
 10
724.1687394896
 20
62.9599877693
 42
1.0
  0
LWPOLYLINE
  5
263
330
21D
100
AcDbEntity
  8
0
  6
Continuous
 62
     7
100
AcDbPolyline
 90
        2
 70
     0
 43
0.25
 10
716.154381706
 20
66.5358409741
 10
716.1543813515
 20
59.4356380658
  0
LWPOLYLINE
  5
264
330
21D
100
AcDbEntity
  8
0
  6
Continuous
 62
     7
100
AcDbPolyline
 90
        2
 70
     0
 43
0.25
 10
716.1544097878
 20
59.4356096294
 10
706.1598525167
 20
60.9557030423
  0
LWPOLYLINE
  5
265
330
21D
100
AcDbEntity
  8
0
  6
Continuous
 62
     7
100
AcDbPolyline
 90
        2
 70
     0
 43
0.25
 10
706.1575425311
 20
60.9550255007
 10
706.154875627
 20
64.9606641121
  0
LWPOLYLINE
  5
266
330
21D
100
AcDbEntity
  8
0
  6
Continuous
 62
     7
100
AcDbPolyline
 90
        2
 70
     0
 43
0.25
 10
706.1548673509
 20
64.9606558361
 10
716.1546105882
 20
66.5358130561
  0
ENDBLK
  5
267
330
21D
100
AcDbEntity
  8
0
  6
ByBlock
 62
     0
100
AcDbBlockEnd
  0
BLOCK
  5
289
330
21E
100
AcDbEntity
  8
0
100
AcDbBlockBegin
  2
*T6
 70
     1
 10
0.0
 20
0.0
 30
0.0
  3
*T6
  1

  0
LINE
  5
28A
330
21E
100
AcDbEntity
  8
0
  6
Continuous
 62
     2
100
AcDbLine
 10
0.0
 20
0.0
 30
0.0
 11
130.0
 21
0.0
 31
0.0
  0
LINE
  5
28B
330
21E
100
AcDbEntity
  8
0
  6
Continuous
 62
     2
100
AcDbLine
 10
0.0
 20
0.0
 30
0.0
 11
0.0
 21
-63.5
 31
0.0
  0
LINE
  5
28C
330
21E
100
AcDbEntity
  8
0
  6
Continuous
 62
     2
100
AcDbLine
 10
30.0
 20
-14.0
 30
0.0
 11
130.0
 21
-14.0
 31
0.0
  0
LINE
  5
28D
330
21E
100
AcDbEntity
  8
0
  6
Continuous
 62
     2
100
AcDbLine
 10
0.0
 20
-21.0
 30
0.0
 11
130.0
 21
-21.0
 31
0.0
  0
LINE
  5
28E
330
21E
100
AcDbEntity
  8
0
  6
Continuous
 62
     2
100
AcDbLine
 10
30.0
 20
-27.0
 30
0.0
 11
130.0
 21
-27.0
 31
0.0
  0
LINE
  5
28F
330
21E
100
AcDbEntity
  8
0
  6
Continuous
 62
     2
100
AcDbLine
 10
30.0
 20
-33.0
 30
0.0
 11
130.0
 21
-33.0
 31
0.0
  0
LINE
  5
290
330
21E
100
AcDbEntity
  8
0
  6
Continuous
 62
     2
100
AcDbLine
 10
30.0
 20
-43.0
 30
0.0
 11
130.0
 21
-43.0
 31
0.0
  0
LINE
  5
291
330
21E
100
AcDbEntity
  8
0
  6
Continuous
 62
     2
100
AcDbLine
 10
0.0
 20
-48.0
 30
0.0
 11
130.0
 21
-48.0
 31
0.0
  0
LINE
  5
292
330
21E
100
AcDbEntity
  8
0
  6
Continuous
 62
     2
100
AcDbLine
 10
0.0
 20
-53.5
 30
0.0
 11
130.0
 21
-53.5
 31
0.0
  0
LINE
  5
293
330
21E
100
AcDbEntity
  8
0
  6
Continuous
 62
     2
100
AcDbLine
 10
0.0
 20
-59.5
 30
0.0
 11
130.0
 21
-59.5
 31
0.0
  0
LINE
  5
294
330
21E
100
AcDbEntity
  8
0
  6
Continuous
 62
     2
100
AcDbLine
 10
0.0
 20
-63.5
 30
0.0
 11
130.0
 21
-63.5
 31
0.0
  0
LINE
  5
295
330
21E
100
AcDbEntity
  8
0
  6
Continuous
 62
     2
100
AcDbLine
 10
30.0
 20
0.0
 30
0.0
 11
30.0
 21
-48.0
 31
0.0
  0
LINE
  5
296
330
21E
100
AcDbEntity
  8
0
  6
Continuous
 62
     2
100
AcDbLine
 10
30.0
 20
-53.5
 30
0.0
 11
30.0
 21
-59.5
 31
0.0
  0
LINE
  5
297
330
21E
100
AcDbEntity
  8
0
  6
Continuous
 62
     2
100
AcDbLine
 10
50.0
 20
-27.0
 30
0.0
 11
50.0
 21
-33.0
 31
0.0
  0
LINE
  5
298
330
21E
100
AcDbEntity
  8
0
  6
Continuous
 62
     2
100
AcDbLine
 10
80.0
 20
-43.0
 30
0.0
 11
80.0
 21
-48.0
 31
0.0
  0
LINE
  5
299
330
21E
100
AcDbEntity
  8
0
  6
Continuous
 62
     2
100
AcDbLine
 10
80.0
 20
-53.5
 30
0.0
 11
80.0
 21
-59.5
 31
0.0
  0
LINE
  5
29A
330
21E
100
AcDbEntity
  8
0
  6
Continuous
 62
     2
100
AcDbLine
 10
90.0
 20
-14.0
 30
0.0
 11
90.0
 21
-21.0
 31
0.0
  0
LINE
  5
29B
330
21E
100
AcDbEntity
  8
0
  6
Continuous
 62
     2
100
AcDbLine
 10
100.0
 20
-27.0
 30
0.0
 11
100.0
 21
-33.0
 31
0.0
  0
LINE
  5
29C
330
21E
100
AcDbEntity
  8
0
  6
Continuous
 62
     2
100
AcDbLine
 10
110.0
 20
-21.0
 30
0.0
 11
110.0
 21
-27.0
 31
0.0
  0
LINE
  5
29D
330
21E
100
AcDbEntity
  8
0
  6
Continuous
 62
     2
100
AcDbLine
 10
120.0
 20
-27.0
 30
0.0
 11
120.0
 21
-33.0
 31
0.0
  0
LINE
  5
29E
330
21E
100
AcDbEntity
  8
0
  6
Continuous
 62
     2
100
AcDbLine
 10
130.0
 20
0.0
 30
0.0
 11
130.0
 21
-63.5
 31
0.0
  0
MTEXT
  5
29F
330
21E
100
AcDbEntity
  8
9_SOLID
  6
Continuous
 62
     2
100
AcDbMText
 10
31.4875
 20
-2.0
 30
0.0
 40
2.5
 41
195.0
 46
0.0
 71
     1
 72
     1
  1
Sm./rac. non quotati 0.3X45\Fgdt;{\Fgdt;~}\Ftxt;  Eliminare spigoli taglienti\PToll. gen.: foro H11, albero h11, lunghezza Js12\PUNI EN 22768 Grado Medio
  7
TEXTSTYLE_3
 73
     1
 44
0.9
  0
MTEXT
  5
2A0
330
21E
100
AcDbEntity
  8
9_SOLID
  6
Continuous
 62
     2
100
AcDbMText
 10
31.4875
 20
-16.125
 30
0.0
 40
2.75
 41
70.3214285714
 46
0.0
 71
     1
 72
     1
  1
COD. FORNITORE: -
  7
TEXTSTYLE_6
 73
     1
 44
0.9
  0
MTEXT
  5
2A1
330
21E
100
AcDbEntity
  8
9_SOLID
  6
Continuous
 62
     2
100
AcDbMText
 10
91.4875
 20
-16.125
 30
0.0
 40
2.75
 41
61.0238095238
 46
0.0
 71
     1
 72
     1
  1
% CONTROLLO: -
  7
TEXTSTYLE_6
 73
     1
 44
0.9
  0
MTEXT
  5
2A2
330
21E
100
AcDbEntity
  8
9_SOLID
  6
Continuous
 62
     2
100
AcDbMText
 10
31.4875
 20
-22.5
 30
0.0
 40
3.0
 41
57.2857142857
 46
0.0
 71
     1
 72
     1
  1
Dis:376_A_001
  7
TEXTSTYLE_6
 73
     1
 44
0.9
  0
MTEXT
  5
2A3
330
21E
100
AcDbEntity
  8
9_SOLID
  6
Continuous
 62
     2
100
AcDbMText
 10
111.4875
 20
-22.5
 30
0.0
 40
3.0
 41
26.0
 46
0.0
 71
     1
 72
     1
  1
Rev:00
  7
TEXTSTYLE_6
 73
     1
 44
0.9
  0
MTEXT
  5
2A4
330
21E
100
AcDbEntity
  8
9_SOLID
  6
Continuous
 62
     2
100
AcDbMText
 10
31.4875
 20
-28.75
 30
0.0
 40
2.8
 41
13.8666666667
 46
0.0
 71
     1
 72
     1
  1
376
  7
TEXTSTYLE_6
 73
     1
 44
0.9
  0
MTEXT
  5
2A5
330
21E
100
AcDbEntity
  8
9_SOLID
  6
Continuous
 62
     2
100
AcDbMText
 10
101.4875
 20
-28.75
 30
0.0
 40
3.0
 41
32.4285714286
 46
0.0
 71
     1
 72
     1
  1
Scala:1:1
  7
TEXTSTYLE_6
 73
     1
 44
0.9
  0
MTEXT
  5
2A6
330
21E
100
AcDbEntity
  8
9_SOLID
  6
Continuous
 62
     2
100
AcDbMText
 10
121.4875
 20
-28.25
 30
0.0
 40
3.5
 41
11.3333333333
 46
0.0
 71
     1
 72
     1
  1
A1
  7
TEXTSTYLE_6
 73
     1
 44
0.9
  0
MTEXT
  5
2A7
330
21E
100
AcDbEntity
  8
9_SOLID
  6
Continuous
 62
     2
100
AcDbMText
 10
31.4875
 20
-36.25
 30
0.0
 40
3.5
 41
158.5
 46
0.0
 71
     1
 72
     1
  1
INTONO 3.2 230V OTTICA S M L 
  7
TEXTSTYLE_6
 73
     1
 44
0.9
  0
MTEXT
  5
2A8
330
21E
100
AcDbEntity
  8
9_SOLID
  6
Continuous
 62
     2
100
AcDbMText
 10
31.4875
 20
-44.25
 30
0.0
 40
2.5
 41
22.0238095238
 46
0.0
 71
     1
 72
     1
  1
Dis. -
  7
TEXTSTYLE_6
 73
     1
 44
0.9
  0
MTEXT
  5
2A9
330
21E
100
AcDbEntity
  8
9_SOLID
  6
Continuous
 62
     2
100
AcDbMText
 10
81.4875
 20
-44.25
 30
0.0
 40
2.5
 41
42.0238095238
 46
0.0
 71
     1
 72
     1
  1
Approvato: -
  7
TEXTSTYLE_6
 73
     1
 44
0.9
  0
MTEXT
  5
2AA
330
21E
100
AcDbEntity
  8
9_SOLID
  6
Continuous
 62
     2
100
AcDbMText
 10
1.4875
 20
-49.25
 30
0.0
 40
3.0
 41
51.4285714286
 46
0.0
 71
     1
 72
     1
  1
Direttorio: -
  7
TEXTSTYLE_6
 73
     1
 44
0.9
  0
MTEXT
  5
2AB
330
21E
100
AcDbEntity
  8
9_SOLID
  6
Continuous
 62
     2
100
AcDbMText
 10
1.4875
 20
-55.25
 30
0.0
 40
3.0
 41
5.4285714286
 46
0.0
 71
     1
 72
     1
  1
-
  7
TEXTSTYLE_6
 73
     1
 44
0.9
  0
MTEXT
  5
2AC
330
21E
100
AcDbEntity
  8
0
  6
Continuous
 62
     2
100
AcDbMText
 10
31.4875
 20
-55.25
 30
0.0
 40
3.0
 41
20.8571428571
 46
0.0
 71
     1
 72
     1
  1
Mat: 
  7
TEXTSTYLE_6
 73
     1
 44
0.9
  0
MTEXT
  5
2AD
330
21E
100
AcDbEntity
  8
9_SOLID
  6
Continuous
 62
     2
100
AcDbMText
 10
81.4875
 20
-55.25
 30
0.0
 40
3.0
 41
29.0
 46
0.0
 71
     1
 72
     1
  1
Tratt.-
  7
TEXTSTYLE_6
 73
     1
 44
0.9
  0
MTEXT
  5
2AE
330
21E
100
AcDbEntity
  8
9_SOLID
  6
Continuous
 62
     2
100
AcDbMText
 10
1.4875
 20
-60.6
 30
0.0
 40
1.8
 41
224.4
 46
0.0
 71
     1
 72
     1
  1
A norma di legge si diffida da qualsiasi riproduzione senza nostra autorizzazione esplicita
  7
TEXTSTYLE_6
 73
     1
 44
0.9
  0
ENDBLK
  5
2AF
330
21E
100
AcDbEntity
  8
0
  6
ByBlock
 62
     0
100
AcDbBlockEnd
  0
ENDSEC
  0
SECTION
  2
ENTITIES
  0
MTEXT
  5
2B0
330
217
100
AcDbEntity
 67
     1
  8
0
  6
Continuous
 62
     2
100
AcDbMText
 10
783.154890719
 20
5.35876025
 30
0.0
 40
4.0
 41
3.6
 46
0.0
 71
     1
 72
     1
  1
A
  7
TEXTSTYLE_2
 73
     1
 44
0.9
  0
MTEXT
  5
2B1
330
217
100
AcDbEntity
 67
     1
  8
0
  6
Continuous
 62
     2
100
AcDbMText
 10
683.154890719
 20
5.35876025
 30
0.0
 40
4.0
 41
3.6
 46
0.0
 71
     1
 72
     1
  1
B
  7
TEXTSTYLE_2
 73
     1
 44
0.9
  0
MTEXT
  5
2B2
330
217
100
AcDbEntity
 67
     1
  8
0
  6
Continuous
 62
     2
100
AcDbMText
 10
583.154890719
 20
5.35876025
 30
0.0
 40
4.0
 41
3.6
 46
0.0
 71
     1
 72
     1
  1
C
  7
TEXTSTYLE_2
 73
     1
 44
0.9
  0
MTEXT
  5
2B3
330
217
100
AcDbEntity
 67
     1
  8
0
  6
Continuous
 62
     2
100
AcDbMText
 10
483.154890719
 20
5.35876025
 30
0.0
 40
4.0
 41
3.6
 46
0.0
 71
     1
 72
     1
  1
D
  7
TEXTSTYLE_2
 73
     1
 44
0.9
  0
MTEXT
  5
2B4
330
217
100
AcDbEntity
 67
     1
  8
0
  6
Continuous
 62
     2
100
AcDbMText
 10
383.154890719
 20
5.35876025
 30
0.0
 40
4.0
 41
3.6
 46
0.0
 71
     1
 72
     1
  1
E
  7
TEXTSTYLE_2
 73
     1
 44
0.9
  0
MTEXT
  5
2B5
330
217
100
AcDbEntity
 67
     1
  8
0
  6
Continuous
 62
     2
100
AcDbMText
 10
835.6467220993
 20
60.6268709614
 30
0.0
 40
4.0
 41
3.4285714286
 46
0.0
 71
     1
 72
     1
  1
1
  7
TEXTSTYLE_3
 73
     1
 44
0.9
  0
MTEXT
  5
2B6
330
217
100
AcDbEntity
 67
     1
  8
0
  6
Continuous
 62
     2
100
AcDbMText
 10
835.6467220993
 20
160.6268709614
 30
0.0
 40
4.0
 41
4.7142857143
 46
0.0
 71
     1
 72
     1
  1
2
  7
TEXTSTYLE_3
 73
     1
 44
0.9
  0
MTEXT
  5
2B7
330
217
100
AcDbEntity
 67
     1
  8
0
  6
Continuous
 62
     2
100
AcDbMText
 10
835.6467220993
 20
260.6268709614
 30
0.0
 40
4.0
 41
4.2857142857
 46
0.0
 71
     1
 72
     1
  1
3
  7
TEXTSTYLE_3
 73
     1
 44
0.9
  0
MTEXT
  5
2B8
330
217
100
AcDbEntity
 67
     1
  8
0
  6
Continuous
 62
     2
100
AcDbMText
 10
835.6467220993
 20
360.6268709614
 30
0.0
 40
4.0
 41
4.7142857143
 46
0.0
 71
     1
 72
     1
  1
4
  7
TEXTSTYLE_3
 73
     1
 44
0.9
  0
MTEXT
  5
2B9
330
217
100
AcDbEntity
 67
     1
  8
0
  6
Continuous
 62
     2
100
AcDbMText
 10
835.6467220993
 20
460.6268709614
 30
0.0
 40
4.0
 41
4.2857142857
 46
0.0
 71
     1
 72
     1
  1
5
  7
TEXTSTYLE_3
 73
     1
 44
0.9
  0
MTEXT
  5
2BA
330
217
100
AcDbEntity
 67
     1
  8
0
  6
Continuous
 62
     2
100
AcDbMText
 10
783.154890719
 20
592.35876025
 30
0.0
 40
4.0
 41
3.6
 46
0.0
 71
     1
 72
     1
  1
A
  7
TEXTSTYLE_2
 73
     1
 44
0.9
  0
MTEXT
  5
2BB
330
217
100
AcDbEntity
 67
     1
  8
0
  6
Continuous
 62
     2
100
AcDbMText
 10
683.154890719
 20
592.35876025
 30
0.0
 40
4.0
 41
3.6
 46
0.0
 71
     1
 72
     1
  1
B
  7
TEXTSTYLE_2
 73
     1
 44
0.9
  0
MTEXT
  5
2BC
330
217
100
AcDbEntity
 67
     1
  8
0
  6
Continuous
 62
     2
100
AcDbMText
 10
583.154890719
 20
592.35876025
 30
0.0
 40
4.0
 41
3.6
 46
0.0
 71
     1
 72
     1
  1
C
  7
TEXTSTYLE_2
 73
     1
 44
0.9
  0
MTEXT
  5
2BD
330
217
100
AcDbEntity
 67
     1
  8
0
  6
Continuous
 62
     2
100
AcDbMText
 10
483.154890719
 20
592.35876025
 30
0.0
 40
4.0
 41
3.6
 46
0.0
 71
     1
 72
     1
  1
D
  7
TEXTSTYLE_2
 73
     1
 44
0.9
  0
MTEXT
  5
2BE
330
217
100
AcDbEntity
 67
     1
  8
0
  6
Continuous
 62
     2
100
AcDbMText
 10
383.154890719
 20
592.35876025
 30
0.0
 40
4.0
 41
3.6
 46
0.0
 71
     1
 72
     1
  1
E
  7
TEXTSTYLE_2
 73
     1
 44
0.9
  0
MTEXT
  5
2BF
330
217
100
AcDbEntity
 67
     1
  8
0
  6
Continuous
 62
     2
100
AcDbMText
 10
283.154890719
 20
592.35876025
 30
0.0
 40
4.0
 41
3.6
 46
0.0
 71
     1
 72
     1
  1
F
  7
TEXTSTYLE_2
 73
     1
 44
0.9
  0
MTEXT
  5
2C0
330
217
100
AcDbEntity
 67
     1
  8
0
  6
Continuous
 62
     2
100
AcDbMText
 10
183.154890719
 20
592.35876025
 30
0.0
 40
4.0
 41
3.6
 46
0.0
 71
     1
 72
     1
  1
G
  7
TEXTSTYLE_2
 73
     1
 44
0.9
  0
MTEXT
  5
2C1
330
217
100
AcDbEntity
 67
     1
  8
0
  6
Continuous
 62
     2
100
AcDbMText
 10
59.5777362717
 20
592.35876025
 30
0.0
 40
4.0
 41
3.6
 46
0.0
 71
     1
 72
     1
  1
H
  7
TEXTSTYLE_2
 73
     1
 44
0.9
  0
MTEXT
  5
2C2
330
217
100
AcDbEntity
 67
     1
  8
0
  6
Continuous
 62
     2
100
AcDbMText
 10
1.6467220993
 20
60.6268709614
 30
0.0
 40
4.0
 41
3.4285714286
 46
0.0
 71
     1
 72
     1
  1
1
  7
TEXTSTYLE_3
 73
     1
 44
0.9
  0
MTEXT
  5
2C3
330
217
100
AcDbEntity
 67
     1
  8
0
  6
Continuous
 62
     2
100
AcDbMText
 10
1.6467220993
 20
160.6268709614
 30
0.0
 40
4.0
 41
4.7142857143
 46
0.0
 71
     1
 72
     1
  1
2
  7
TEXTSTYLE_3
 73
     1
 44
0.9
  0
MTEXT
  5
2C4
330
217
100
AcDbEntity
 67
     1
  8
0
  6
Continuous
 62
     2
100
AcDbMText
 10
1.6467220993
 20
260.6268709614
 30
0.0
 40
4.0
 41
4.2857142857
 46
0.0
 71
     1
 72
     1
  1
3
  7
TEXTSTYLE_3
 73
     1
 44
0.9
  0
MTEXT
  5
2C5
330
217
100
AcDbEntity
 67
     1
  8
0
  6
Continuous
 62
     2
100
AcDbMText
 10
1.6467220993
 20
360.6268709614
 30
0.0
 40
4.0
 41
4.7142857143
 46
0.0
 71
     1
 72
     1
  1
4
  7
TEXTSTYLE_3
 73
     1
 44
0.9
  0
MTEXT
  5
2C6
330
217
100
AcDbEntity
 67
     1
  8
0
  6
Continuous
 62
     2
100
AcDbMText
 10
1.6467220993
 20
460.6268709614
 30
0.0
 40
4.0
 41
4.2857142857
 46
0.0
 71
     1
 72
     1
  1
5
  7
TEXTSTYLE_3
 73
     1
 44
0.9
  0
MTEXT
  5
2C7
330
217
100
AcDbEntity
 67
     1
  8
0
  6
Continuous
 62
     2
100
AcDbMText
 10
1.6467220993
 20
560.6268709614
 30
0.0
 40
4.0
 41
4.7142857143
 46
0.0
 71
     1
 72
     1
  1
6
  7
TEXTSTYLE_3
 73
     1
 44
0.9
  0
MTEXT
  5
2C8
330
217
100
AcDbEntity
 67
     1
  8
0
  6
Continuous
 62
     2
100
AcDbMText
 10
283.154890719
 20
5.35876025
 30
0.0
 40
4.0
 41
3.6
 46
0.0
 71
     1
 72
     1
  1
F
  7
TEXTSTYLE_2
 73
     1
 44
0.9
  0
MTEXT
  5
2C9
330
217
100
AcDbEntity
 67
     1
  8
0
  6
Continuous
 62
     2
100
AcDbMText
 10
183.154890719
 20
5.35876025
 30
0.0
 40
4.0
 41
3.6
 46
0.0
 71
     1
 72
     1
  1
G
  7
TEXTSTYLE_2
 73
     1
 44
0.9
  0
MTEXT
  5
2CA
330
217
100
AcDbEntity
 67
     1
  8
0
  6
Continuous
 62
     2
100
AcDbMText
 10
59.5777362717
 20
5.35876025
 30
0.0
 40
4.0
 41
3.6
 46
0.0
 71
     1
 72
     1
  1
H
  7
TEXTSTYLE_2
 73
     1
 44
0.9
  0
MTEXT
  5
2CB
330
217
100
AcDbEntity
 67
     1
  8
0
  6
Continuous
 62
     2
100
AcDbMText
 10
835.6467220993
 20
560.6268709614
 30
0.0
 40
4.0
 41
4.7142857143
 46
0.0
 71
     1
 72
     1
  1
6
  7
TEXTSTYLE_3
 73
     1
 44
0.9
  0
VIEWPORT
  5
2CC
330
217
100
AcDbEntity
 67
     1
  8
0
100
AcDbViewport
 10
420.5
 20
297.0
 30
0.0
 40
841.0
 41
594.0
 68
     1
 69
     1
 12
420.5
 22
297.0
 13
0.0
 23
0.0
 14
10.0
 24
10.0
 15
10.0
 25
10.0
 16
0.0
 26
0.0
 36
1.0
 17
0.0
 27
0.0
 37
0.0
 42
50.0
 43
0.0
 44
0.0
 45
594.0
 50
0.0
 51
0.0
 72
   100
 90
    32864
  1

281
     0
 71
     1
 74
     0
110
0.0
120
0.0
130
0.0
111
1.0
121
0.0
131
0.0
112
0.0
122
1.0
132
0.0
 79
     0
146
0.0
170
     0
 61
     5
348
396
292
     1
282
     1
141
0.0
142
0.0
 63
   256
361
3B2
  0
DIMENSION
  5
2CD
330
217
100
AcDbEntity
 67
     1
  8
0
  6
Continuous
 62
     2
100
AcDbDimension
280
     0
  2
*D1
 10
156.7521968918
 20
275.9694606994
 30
0.0
 11
156.7521968918
 21
395.8240618662
 31
0.0
 70
   160
 71
     2
 42
239.8
 73
     0
 74
     0
 75
     0
  3
DIMSTYLE_1
100
AcDbAlignedDimension
 13
202.4190319313
 23
515.7694606994
 33
0.0
 14
206.4190319313
 24
275.9694606994
 34
0.0
 50
270.0
100
AcDbRotatedDimension
  0
DIMENSION
  5
2CE
330
217
100
AcDbEntity
 67
     1
  8
0
  6
Continuous
 62
     2
100
AcDbDimension
280
     0
  2
*D2
 10
552.9773988306
 20
552.3024889494
 30
0.0
 11
492.3163388062
 21
552.3024889494
 31
0.0
 70
   160
 71
     2
 42
121.0
 73
     0
 74
     0
 75
     0
  3
DIMSTYLE_1
100
AcDbAlignedDimension
 13
431.9773988306
 23
493.7694606994
 33
0.0
 14
552.9773988306
 24
514.7694606994
 34
0.0
100
AcDbRotatedDimension
  0
DIMENSION
  5
2CF
330
217
100
AcDbEntity
 67
     1
  8
0
  6
Continuous
 62
     2
100
AcDbDimension
280
     0
  2
*D3
 10
201.4190319313
 20
36.9727293805
 30
0.0
 11
241.4054080963
 21
36.9727293805
 31
0.0
 70
   160
 71
     2
 42
80.0
 73
     0
 74
     0
 75
     0
  3
DIMSTYLE_2
100
AcDbAlignedDimension
 13
281.4190319313
 23
194.8856825445
 33
0.0
 14
201.4190319313
 24
194.8856825445
 34
0.0
 50
180.0
100
AcDbRotatedDimension
  0
INSERT
  5
2D0
330
217
100
AcDbEntity
 67
     1
  8
0
  6
Continuous
 62
     2
100
AcDbBlockReference
  2
PROIEZIONE_EU_BL0
 10
716.0277334253
 20
62.9606374789
 30
0.0
  0
INSERT
  5
2D1
330
217
100
AcDbEntity
 67
     1
  8
0
  6
Continuous
 62
     2
100
AcDbBlockReference
  2
LOGO2_BL1
 10
714.8537804701
 20
38.9603316107
 30
0.0
  0
ACAD_TABLE
  5
2D2
330
217
100
AcDbEntity
 67
     1
  8
0
  6
Continuous
 62
     2
160
              6304
310
A018000030000000880000001D000000000000000000F03F000000000000000000000000000000005B554DCC38E885400000000000000000000000000000F03F00000000000000006051B712765D524000000000000000000000000000000000000000000000F03F0000000000000000000000000000000000000000000000
310
000000000000000000000000000000F03F54000000200000000200000000000000000000000000000000000000000000000000000000000000004060400000000000000000000000000000000000000000000000000000000000000000000000000000F03F5400000020000000020000000000000000000000000000000000
310
0000000000000000000000000000000000000000000000C04FC0000000000000000000000000000000000000000000000000000000000000F03F5400000020000000020000000000000000003E400000000000002CC0000000000000000000000000004060400000000000002CC00000000000000000000000000000000000
310
00000000000000000000000000F03F540000002000000002000000000000000000000000000000000035C00000000000000000000000000040604000000000000035C0000000000000000000000000000000000000000000000000000000000000F03F5400000020000000020000000000000000003E400000000000003BC0
310
000000000000000000000000004060400000000000003BC0000000000000000000000000000000000000000000000000000000000000F03F5400000020000000020000000000000000003E4000000000008040C00000000000000000000000000040604000000000008040C000000000000000000000000000000000000000
310
0000000000000000000000F03F5400000020000000020000000000000000003E4000000000008045C00000000000000000000000000040604000000000008045C0000000000000000000000000000000000000000000000000000000000000F03F540000002000000002000000000000000000000000000000000048C00000
310
000000000000000000000040604000000000000048C0000000000000000000000000000000000000000000000000000000000000F03F54000000200000000200000000000000000000000000000000C04AC0000000000000000000000000004060400000000000C04AC0000000000000000000000000000000000000000000
310
000000000000000000F03F54000000200000000200000000000000000000000000000000C04DC0000000000000000000000000004060400000000000C04DC0000000000000000000000000000000000000000000000000000000000000F03F54000000200000000200000000000000000000000000000000C04FC000000000
310
0000000000000000004060400000000000C04FC0000000000000000000000000000000000000000000000000000000000000F03F5400000020000000020000000000000000003E40000000000000000000000000000000000000000000003E4000000000000048C00000000000000000000000000000000000000000000000
310
00000000000000F03F5400000020000000020000000000000000003E400000000000C04AC000000000000000000000000000003E400000000000C04DC0000000000000000000000000000000000000000000000000000000000000F03F54000000200000000200000000000000000049400000000000003BC0000000000000
310
0000000000000000494000000000008040C0000000000000000000000000000000000000000000000000000000000000F03F540000002000000002000000000000000000544000000000008045C00000000000000000000000000000544000000000000048C000000000000000000000000000000000000000000000000000
310
0000000000F03F54000000200000000200000000000000000054400000000000C04AC0000000000000000000000000000054400000000000C04DC0000000000000000000000000000000000000000000000000000000000000F03F54000000200000000200000000000000008056400000000000002CC00000000000000000
310
000000000080564000000000000035C0000000000000000000000000000000000000000000000000000000000000F03F54000000200000000200000000000000000059400000000000003BC00000000000000000000000000000594000000000008040C0000000000000000000000000000000000000000000000000000000
310
000000F03F5400000020000000020000000000000000805B4000000000000035C000000000000000000000000000805B400000000000003BC0000000000000000000000000000000000000000000000000000000000000F03F5400000020000000020000000000000000005E400000000000003BC000000000000000000000
310
000000005E4000000000008040C0000000000000000000000000000000000000000000000000000000000000F03F54000000200000000200000000000000004060400000000000000000000000000000000000000000004060400000000000C04FC00000000000000000000000000000000000000000000000000000000000
310
00F03F0C0000001000000013000000E400000026000000CDCCCCCCCC7C3F4000000000000012C0000000000000000000000000000000000000000000000000000000000000F03F000000000000F03F0000000000000000000000000000000053006D002E002F007200610063002E0020006E006F006E002000710075006F00
310
7400610074006900200030002E00330058003400350000001B000000010000000000000000000440CDCCCCCCCCCCEC3F0000000000000000000000000000F03F00000000000000000000000000000000000000000000000000000000000000000000000000000000740078007400000000000000B000000026000000333333
310
333377554000000000000012C0000000000000000000000000000000000000000000000000000000000000F03F000000000000F03F000000000000000000000000000000007E00000001000000010000000000000000000440CDCCCCCCCCCCEC3F0000000000000000000000000000F03F0000000000000000000000000000
310
0000000000000000000000000000000000000000000000000000670064007400000000000000E8000000260000003333333333AD554000000000000012C0000000000000000000000000000000000000000000000000000000000000F03F000000000000F03F000000000000000000000000000000002000200045006C0069
310
006D0069006E00610072006500200073007000690067006F006C00690020007400610067006C00690065006E007400690000001D000000010000000000000000000440CDCCCCCCCCCCEC3F0000000000000000000000000000F03F000000000000000000000000000000000000000000000000000000000000000000000000
310
000000007400780074000000000000001001000026000000CDCCCCCCCC7C3F4000000000008020C0000000000000000000000000000000000000000000000000000000000000F03F000000000000F03F0000000000000000000000000000000054006F006C006C002E002000670065006E002E003A00200066006F0072006F
310
0020004800310031002C00200061006C006200650072006F0020006800310031002C0020006C0075006E006700680065007A007A00610020004A007300310032000000000030000000010000000000000000000440CDCCCCCCCCCCEC3F0000000000000000000000000000F03F000000000000000000000000000000000000
310
00000000000000000000000000000000000000000000740078007400000000000000E000000026000000CDCCCCCCCC7C3F4000000000000028C0000000000000000000000000000000000000000000000000000000000000F03F000000000000F03F0000000000000000000000000000000055004E004900200045004E0020
310
0032003200370036003800200047007200610064006F0020004D006500640069006F000000000018000000010000000000000000000440CDCCCCCCCCCCEC3F0000000000000000000000000000F03F000000000000000000000000000000000000000000000000000000000000000000000000000000007400780074000000
310
00000000D000000026000000CDCCCCCCCC7C3F400000000000E032C0000000000000000000000000000000000000000000000000000000000000F03F000000000000F03F0000000000000000000000000000000043004F0044002E00200046004F0052004E00490054004F00520045003A0020002D00000011000000010000
310
000000000000000640333333333333EB3F0000000000000000000000000000F03F00000000000000000000000000000000000000000000000000000000000000000000000000000000740078007400000000000000CC000000260000003333333333DF56400000000000E032C0000000000000000000000000000000000000
310
000000000000000000000000F03F000000000000F03F000000000000000000000000000000002500200043004F004E00540052004F004C004C004F003A0020002D00000000000E000000010000000000000000000640333333333333EB3F0000000000000000000000000000F03F0000000000000000000000000000000000
310
0000000000000000000000000000000000000000000000740078007400000000000000C800000026000000CDCCCCCCCC7C3F4000000000008039C0000000000000000000000000000000000000000000000000000000000000F03F000000000000F03F000000000000000000000000000000004400690073003A0033003700
310
36005F0041005F0030003000310000000D000000010000000000000000000840333333333333EB3F0000000000000000000000000000F03F00000000000000000000000000000000000000000000000000000000000000000000000000000000740078007400000000000000BC000000260000003333333333DF5B40000000
310
00008039C0000000000000000000000000000000000000000000000000000000000000F03F000000000000F03F000000000000000000000000000000005200650076003A00300030000000000006000000010000000000000000000840333333333333EB3F0000000000000000000000000000F03F00000000000000000000
310
000000000000000000000000000000000000000000000000000000000000740078007400000000000000B400000026000000CDCCCCCCCC7C3F40CDCCCCCCCC8C3FC0000000000000000000000000000000000000000000000000000000000000F03F000000000000F03F000000000000000000000000000000003300370036
310
00000003000000010000006666666666660640333333333333EB3F0000000000000000000000000000F03F00000000000000000000000000000000000000000000000000000000000000000000000000000000740078007400000000000000C00000002600000033333333335F59400000000000C03FC00000000000000000
310
00000000000000000000000000000000000000000000F03F000000000000F03F000000000000000000000000000000005300630061006C0061003A0031003A003100000009000000010000000000000000000840333333333333EB3F0000000000000000000000000000F03F00000000000000000000000000000000000000
310
000000000000000000000000000000000000000000740078007400000000000000B40000002600000033333333335F5E400000000000C03FC0000000000000000000000000000000000000000000000000000000000000F03F000000000000F03F000000000000000000000000000000004100310000000000020000000100
310
00000000000000000C40333333333333EB3F0000000000000000000000000000F03F00000000000000000000000000000000000000000000000000000000000000000000000000000000740078007400000000000000E800000026000000CDCCCCCCCC7C3F400000000000E043C00000000000000000000000000000000000
310
00000000000000000000000000F03F000000000000F03F0000000000000000000000000000000049004E0054004F004E004F00200033002E0032002000320033003000560020004F00540054004900430041002000530020004D0020004C00200000001D000000010000000000000000000C40333333333333EB3F00000000
310
00000000000000000000F03F00000000000000000000000000000000000000000000000000000000000000000000000000000000740078007400000000000000BC00000026000000CDCCCCCCCC7C3F4000000000006047C0000000000000000000000000000000000000000000000000000000000000F03F000000000000F0
310
3F000000000000000000000000000000004400690073002E0020002D000000000006000000010000000000000000000440333333333333EB3F0000000000000000000000000000F03F00000000000000000000000000000000000000000000000000000000000000000000000000000000740078007400000000000000C800
310
00002600000033333333335F544000000000006047C0000000000000000000000000000000000000000000000000000000000000F03F000000000000F03F0000000000000000000000000000000041007000700072006F007600610074006F003A0020002D00000000000C0000000100000000000000000004403333333333
310
33EB3F0000000000000000000000000000F03F00000000000000000000000000000000000000000000000000000000000000000000000000000000740078007400000000000000C800000026000000CDCCCCCCCCCCF73F0000000000204AC0000000000000000000000000000000000000000000000000000000000000F03F
310
000000000000F03F000000000000000000000000000000004400690072006500740074006F00720069006F003A0020002D0000000D000000010000000000000000000840333333333333EB3F0000000000000000000000000000F03F0000000000000000000000000000000000000000000000000000000000000000000000
310
0000000000740078007400000000000000B000000026000000CDCCCCCCCCCCF73F0000000000204DC0000000000000000000000000000000000000000000000000000000000000F03F000000000000F03F000000000000000000000000000000002D00000001000000010000000000000000000840333333333333EB3F0000
310
000000000000000000000000F03F000000000000000000000000000000000000000000000000000000000000000000000000000000007400780074000000000000000C0000001000000000000000B800000026000000CDCCCCCCCC7C3F400000000000204DC000000000000000000000000000000000000000000000000000
310
0000000000F03F000000000000F03F000000000000000000000000000000004D00610074003A002000000005000000010000000000000000000840333333333333EB3F0000000000000000000000000000F03F0000000000000000000000000000000000000000000000000000000000000000000000000000000074007800
310
74000000000000000C0000001000000013000000BC0000002600000033333333335F54400000000000204DC0000000000000000000000000000000000000000000000000000000000000F03F000000000000F03F00000000000000000000000000000000540072006100740074002E002D0000000700000001000000000000
310
0000000840333333333333EB3F0000000000000000000000000000F03F000000000000000000000000000000000000000000000000000000000000000000000000000000007400780074000000000000006401000026000000CDCCCCCCCCCCF73F3333333333334FC000000000000000000000000000000000000000000000
310
0000000000000000F03F000000000000F03F00000000000000000000000000000000410020006E006F0072006D00610020006400690020006C0065006700670065002000730069002000640069006600660069006400610020006400610020007100750061006C0073006900610073006900200072006900700072006F0064
310
0075007A0069006F006E0065002000730065006E007A00610020006E006F00730074007200610020006100750074006F00720069007A007A0061007A0069006F006E00650020006500730070006C006900630069007400610000005B00000001000000CDCCCCCCCCCCFC3F333333333333EB3F000000000000000000000000
310
0000F03F00000000000000000000000000000000000000000000000000000000000000000000000000000000740078007400000000000000080000001F000000880000001D000000000000000000F03F0000000000000000000000000000000000000000000000000000000000000000000000000000F03F00000000000000
310
00000000000000000000000000000000000000000000000000000000000000F03F0000000000000000000000000000000000000000000000000000000000000000000000000000F03F080000001F000000
100
AcDbBlockReference
  2
*T6
 10
701.0277334253
 20
73.4603316107
 30
0.0
100
AcDbTable
342
36D
343
21E
 11
1.0
 21
0.0
 31
0.0
 90
       54
 91
       10
 92
       13
 93
        0
 94
        0
 95
        0
 96
        0
141
7.0
141
7.0
141
7.0
141
6.0
141
6.0
141
10.0
141
5.0
141
5.5
141
6.0
141
4.0
142
10.0
142
10.0
142
10.0
142
10.0
142
10.0
142
10.0
142
10.0
142
10.0
142
10.0
142
10.0
142
10.0
142
10.0
142
10.0
171
     1
172
     0
173
     0
174
     0
175
     3
176
     3
 91
       49
178
     0
145
0.0
170
     2
  7
TEXTSTYLE_4
140
0.5
 92
        0
301
CELL_VALUE
 93
        4
 90
        4
  1
  \P \P \P \P \P \P 
 94
        0
300

302
  \P \P \P \P \P \P 
304
ACVALUE_END
171
     1
172
     0
173
     1
174
     0
175
     1
176
     1
 91
        0
178
     0
145
0.0
 92
        0
301
CELL_VALUE
 93
        3
 90
        0
 91
        0
 94
        0
300

302

304
ACVALUE_END
171
     1
172
     0
173
     1
174
     0
175
     1
176
     1
 91
        0
178
     0
145
0.0
 92
        0
301
CELL_VALUE
 93
        3
 90
        0
 91
        0
 94
        0
300

302

304
ACVALUE_END
171
     1
172
     0
173
     0
174
     0
175
    10
176
     2
 91
       49
178
     0
145
0.0
170
     4
  7
TEXTSTYLE_3
140
2.5
 92
        0
301
CELL_VALUE
 93
        4
 90
        4
  1
Sm./rac. non quotati 0.3X45\Fgdt;{\Fgdt;~}\Ftxt;  Eliminare spigoli taglienti\PToll. gen.: foro H11, albero h11, lunghezza Js12\PUNI EN 22768 Grado Medio
 94
        0
300

302
Sm./rac. non quotati 0.3X45\Fgdt;{\Fgdt;~}\Ftxt;  Eliminare spigoli taglienti\PToll. gen.: foro H11, albero h11, lunghezza Js12\PUNI EN 22768 Grado Medio
304
ACVALUE_END
171
     1
172
     0
173
     1
174
     0
175
     1
176
     1
 91
        0
178
     0
145
0.0
 92
        0
301
CELL_VALUE
 93
        3
 90
        0
 91
        0
 94
        0
300

302

304
ACVALUE_END
171
     1
172
     0
173
     1
174
     0
175
     1
176
     1
 91
        0
178
     0
145
0.0
 92
        0
301
CELL_VALUE
 93
        3
 90
        0
 91
        0
 94
        0
300

302

304
ACVALUE_END
171
     1
172
     0
173
     1
174
     0
175
     1
176
     1
 91
        0
178
     0
145
0.0
 92
        0
301
CELL_VALUE
 93
        3
 90
        0
 91
        0
 94
        0
300

302

304
ACVALUE_END
171
     1
172
     0
173
     1
174
     0
175
     1
176
     1
 91
        0
178
     0
145
0.0
 92
        0
301
CELL_VALUE
 93
        3
 90
        0
 91
        0
 94
        0
300

302

304
ACVALUE_END
171
     1
172
     0
173
     1
174
     0
175
     1
176
     1
 91
        0
178
     0
145
0.0
 92
        0
301
CELL_VALUE
 93
        3
 90
        0
 91
        0
 94
        0
300

302

304
ACVALUE_END
171
     1
172
     0
173
     1
174
     0
175
     1
176
     1
 91
        0
178
     0
145
0.0
 92
        0
301
CELL_VALUE
 93
        3
 90
        0
 91
        0
 94
        0
300

302

304
ACVALUE_END
171
     1
172
     0
173
     1
174
     0
175
     1
176
     1
 91
        0
178
     0
145
0.0
 92
        0
301
CELL_VALUE
 93
        3
 90
        0
 91
        0
 94
        0
300

302

304
ACVALUE_END
171
     1
172
     0
173
     1
174
     0
175
     1
176
     1
 91
        0
178
     0
145
0.0
 92
        0
301
CELL_VALUE
 93
        3
 90
        0
 91
        0
 94
        0
300

302

304
ACVALUE_END
171
     1
172
     0
173
     1
174
     0
175
     1
176
     1
 91
        0
178
     0
145
0.0
 92
        0
301
CELL_VALUE
 93
        3
 90
        0
 91
        0
 94
        0
300

302

304
ACVALUE_END
171
     1
172
     0
173
     1
174
     0
175
     1
176
     1
 91
        0
178
     0
145
0.0
 92
        0
301
CELL_VALUE
 93
        3
 90
        0
 91
        0
 94
        0
300

302

304
ACVALUE_END
171
     1
172
     0
173
     1
174
     0
175
     1
176
     1
 91
        0
178
     0
145
0.0
 92
        0
301
CELL_VALUE
 93
        3
 90
        0
 91
        0
 94
        0
300

302

304
ACVALUE_END
171
     1
172
     0
173
     1
174
     0
175
     1
176
     1
 91
        0
178
     0
145
0.0
 92
        0
301
CELL_VALUE
 93
        3
 90
        0
 91
        0
 94
        0
300

302

304
ACVALUE_END
171
     1
172
     0
173
     1
174
     0
175
     1
176
     1
 91
        0
178
     0
145
0.0
 92
        0
301
CELL_VALUE
 93
        3
 90
        0
 91
        0
 94
        0
300

302

304
ACVALUE_END
171
     1
172
     0
173
     1
174
     0
175
     1
176
     1
 91
        0
178
     0
145
0.0
 92
        0
301
CELL_VALUE
 93
        3
 90
        0
 91
        0
 94
        0
300

302

304
ACVALUE_END
171
     1
172
     0
173
     1
174
     0
175
     1
176
     1
 91
        0
178
     0
145
0.0
 92
        0
301
CELL_VALUE
 93
        3
 90
        0
 91
        0
 94
        0
300

302

304
ACVALUE_END
171
     1
172
     0
173
     1
174
     0
175
     1
176
     1
 91
        0
178
     0
145
0.0
 92
        0
301
CELL_VALUE
 93
        3
 90
        0
 91
        0
 94
        0
300

302

304
ACVALUE_END
171
     1
172
     0
173
     1
174
     0
175
     1
176
     1
 91
        0
178
     0
145
0.0
 92
        0
301
CELL_VALUE
 93
        3
 90
        0
 91
        0
 94
        0
300

302

304
ACVALUE_END
171
     1
172
     0
173
     1
174
     0
175
     1
176
     1
 91
        0
178
     0
145
0.0
 92
        0
301
CELL_VALUE
 93
        3
 90
        0
 91
        0
 94
        0
300

302

304
ACVALUE_END
171
     1
172
     0
173
     1
174
     0
175
     1
176
     1
 91
        0
178
     0
145
0.0
 92
        0
301
CELL_VALUE
 93
        3
 90
        0
 91
        0
 94
        0
300

302

304
ACVALUE_END
171
     1
172
     0
173
     1
174
     0
175
     1
176
     1
 91
        0
178
     0
145
0.0
 92
        0
301
CELL_VALUE
 93
        3
 90
        0
 91
        0
 94
        0
300

302

304
ACVALUE_END
171
     1
172
     0
173
     1
174
     0
175
     1
176
     1
 91
        0
178
     0
145
0.0
 92
        0
301
CELL_VALUE
 93
        3
 90
        0
 91
        0
 94
        0
300

302

304
ACVALUE_END
171
     1
172
     0
173
     1
174
     0
175
     1
176
     1
 91
        0
178
     0
145
0.0
 92
        0
301
CELL_VALUE
 93
        3
 90
        0
 91
        0
 94
        0
300

302

304
ACVALUE_END
171
     1
172
     0
173
     1
174
     0
175
     1
176
     1
 91
        0
178
     0
145
0.0
 92
        0
301
CELL_VALUE
 93
        3
 90
        0
 91
        0
 94
        0
300

302

304
ACVALUE_END
171
     1
172
     0
173
     1
174
     0
175
     1
176
     1
 91
        0
178
     0
145
0.0
 92
        0
301
CELL_VALUE
 93
        3
 90
        0
 91
        0
 94
        0
300

302

304
ACVALUE_END
171
     1
172
     0
173
     1
174
     0
175
     1
176
     1
 91
        0
178
     0
145
0.0
 92
        0
301
CELL_VALUE
 93
        3
 90
        0
 91
        0
 94
        0
300

302

304
ACVALUE_END
171
     1
172
     0
173
     0
174
     0
175
     6
176
     1
 91
       49
178
     0
145
0.0
170
     4
  7
TEXTSTYLE_6
140
2.75
 92
        0
301
CELL_VALUE
 93
        4
 90
        4
  1
COD. FORNITORE: -
 94
        0
300

302
COD. FORNITORE: -
304
ACVALUE_END
171
     1
172
     0
173
     1
174
     0
175
     1
176
     1
 91
        0
178
     0
145
0.0
 92
        0
301
CELL_VALUE
 93
        3
 90
        0
 91
        0
 94
        0
300

302

304
ACVALUE_END
171
     1
172
     0
173
     1
174
     0
175
     1
176
     1
 91
        0
178
     0
145
0.0
 92
        0
301
CELL_VALUE
 93
        3
 90
        0
 91
        0
 94
        0
300

302

304
ACVALUE_END
171
     1
172
     0
173
     1
174
     0
175
     1
176
     1
 91
        0
178
     0
145
0.0
 92
        0
301
CELL_VALUE
 93
        3
 90
        0
 91
        0
 94
        0
300

302

304
ACVALUE_END
171
     1
172
     0
173
     1
174
     0
175
     1
176
     1
 91
        0
178
     0
145
0.0
 92
        0
301
CELL_VALUE
 93
        3
 90
        0
 91
        0
 94
        0
300

302

304
ACVALUE_END
171
     1
172
     0
173
     1
174
     0
175
     1
176
     1
 91
        0
178
     0
145
0.0
 92
        0
301
CELL_VALUE
 93
        3
 90
        0
 91
        0
 94
        0
300

302

304
ACVALUE_END
171
     1
172
     0
173
     0
174
     0
175
     4
176
     1
 91
       49
178
     0
145
0.0
170
     4
  7
TEXTSTYLE_6
140
2.75
 92
        0
301
CELL_VALUE
 93
        4
 90
        4
  1
% CONTROLLO: -
 94
        0
300

302
% CONTROLLO: -
304
ACVALUE_END
171
     1
172
     0
173
     1
174
     0
175
     1
176
     1
 91
        0
178
     0
145
0.0
 92
        0
301
CELL_VALUE
 93
        3
 90
        0
 91
        0
 94
        0
300

302

304
ACVALUE_END
171
     1
172
     0
173
     1
174
     0
175
     1
176
     1
 91
        0
178
     0
145
0.0
 92
        0
301
CELL_VALUE
 93
        3
 90
        0
 91
        0
 94
        0
300

302

304
ACVALUE_END
171
     1
172
     0
173
     1
174
     0
175
     1
176
     1
 91
        0
178
     0
145
0.0
 92
        0
301
CELL_VALUE
 93
        3
 90
        0
 91
        0
 94
        0
300

302

304
ACVALUE_END
171
     1
172
     0
173
     0
174
     0
175
     3
176
     4
 91
       33
178
     0
145
0.0
170
     5
140
3.5
 92
        0
301
CELL_VALUE
 93
        4
 90
        4
  1
 
 94
        0
300

302
 
304
ACVALUE_END
171
     1
172
     0
173
     1
174
     0
175
     1
176
     1
 91
        0
178
     0
145
0.0
 92
        0
301
CELL_VALUE
 93
        3
 90
        0
 91
        0
 94
        0
300

302

304
ACVALUE_END
171
     1
172
     0
173
     1
174
     0
175
     1
176
     1
 91
        0
178
     0
145
0.0
 92
        0
301
CELL_VALUE
 93
        3
 90
        0
 91
        0
 94
        0
300

302

304
ACVALUE_END
171
     1
172
     0
173
     0
174
     0
175
     8
176
     1
 91
       49
178
     0
145
0.0
170
     4
  7
TEXTSTYLE_6
140
3.0
 92
        0
301
CELL_VALUE
 93
        4
 90
        4
  1
Dis:376_A_001
 94
        0
300

302
Dis:376_A_001
304
ACVALUE_END
171
     1
172
     0
173
     1
174
     0
175
     1
176
     1
 91
        0
178
     0
145
0.0
 92
        0
301
CELL_VALUE
 93
        3
 90
        0
 91
        0
 94
        0
300

302

304
ACVALUE_END
171
     1
172
     0
173
     1
174
     0
175
     1
176
     1
 91
        0
178
     0
145
0.0
 92
        0
301
CELL_VALUE
 93
        3
 90
        0
 91
        0
 94
        0
300

302

304
ACVALUE_END
171
     1
172
     0
173
     1
174
     0
175
     1
176
     1
 91
        0
178
     0
145
0.0
 92
        0
301
CELL_VALUE
 93
        3
 90
        0
 91
        0
 94
        0
300

302

304
ACVALUE_END
171
     1
172
     0
173
     1
174
     0
175
     1
176
     1
 91
        0
178
     0
145
0.0
 92
        0
301
CELL_VALUE
 93
        3
 90
        0
 91
        0
 94
        0
300

302

304
ACVALUE_END
171
     1
172
     0
173
     1
174
     0
175
     1
176
     1
 91
        0
178
     0
145
0.0
 92
        0
301
CELL_VALUE
 93
        3
 90
        0
 91
        0
 94
        0
300

302

304
ACVALUE_END
171
     1
172
     0
173
     1
174
     0
175
     1
176
     1
 91
        0
178
     0
145
0.0
 92
        0
301
CELL_VALUE
 93
        3
 90
        0
 91
        0
 94
        0
300

302

304
ACVALUE_END
171
     1
172
     0
173
     1
174
     0
175
     1
176
     1
 91
        0
178
     0
145
0.0
 92
        0
301
CELL_VALUE
 93
        3
 90
        0
 91
        0
 94
        0
300

302

304
ACVALUE_END
171
     1
172
     0
173
     0
174
     0
175
     2
176
     1
 91
       49
178
     0
145
0.0
170
     4
  7
TEXTSTYLE_6
140
3.0
 92
        0
301
CELL_VALUE
 93
        4
 90
        4
  1
Rev:00
 94
        0
300

302
Rev:00
304
ACVALUE_END
171
     1
172
     0
173
     1
174
     0
175
     1
176
     1
 91
        0
178
     0
145
0.0
 92
        0
301
CELL_VALUE
 93
        3
 90
        0
 91
        0
 94
        0
300

302

304
ACVALUE_END
171
     1
172
     0
173
     1
174
     0
175
     1
176
     1
 91
        0
178
     0
145
0.0
 92
        0
301
CELL_VALUE
 93
        3
 90
        0
 91
        0
 94
        0
300

302

304
ACVALUE_END
171
     1
172
     0
173
     1
174
     0
175
     1
176
     1
 91
        0
178
     0
145
0.0
 92
        0
301
CELL_VALUE
 93
        3
 90
        0
 91
        0
 94
        0
300

302

304
ACVALUE_END
171
     1
172
     0
173
     1
174
     0
175
     1
176
     1
 91
        0
178
     0
145
0.0
 92
        0
301
CELL_VALUE
 93
        3
 90
        0
 91
        0
 94
        0
300

302

304
ACVALUE_END
171
     1
172
     0
173
     0
174
     0
175
     2
176
     1
 91
       48
178
     0
145
0.0
  7
TEXTSTYLE_6
140
2.8
 92
        0
301
CELL_VALUE
 93
        4
 90
        4
  1
376
 94
        0
300

302
376
304
ACVALUE_END
171
     1
172
     0
173
     1
174
     0
175
     1
176
     1
 91
        0
178
     0
145
0.0
 92
        0
301
CELL_VALUE
 93
        3
 90
        0
 91
        0
 94
        0
300

302

304
ACVALUE_END
171
     1
172
     0
173
     0
174
     0
175
     5
176
     1
 91
       32
178
     0
145
0.0
140
3.5
 92
        0
301
CELL_VALUE
 93
        4
 90
        4
  1
 
 94
        0
300

302
 
304
ACVALUE_END
171
     1
172
     0
173
     1
174
     0
175
     1
176
     1
 91
        0
178
     0
145
0.0
 92
        0
301
CELL_VALUE
 93
        3
 90
        0
 91
        0
 94
        0
300

302

304
ACVALUE_END
171
     1
172
     0
173
     1
174
     0
175
     1
176
     1
 91
        0
178
     0
145
0.0
 92
        0
301
CELL_VALUE
 93
        3
 90
        0
 91
        0
 94
        0
300

302

304
ACVALUE_END
171
     1
172
     0
173
     1
174
     0
175
     1
176
     1
 91
        0
178
     0
145
0.0
 92
        0
301
CELL_VALUE
 93
        3
 90
        0
 91
        0
 94
        0
300

302

304
ACVALUE_END
171
     1
172
     0
173
     1
174
     0
175
     1
176
     1
 91
        0
178
     0
145
0.0
 92
        0
301
CELL_VALUE
 93
        3
 90
        0
 91
        0
 94
        0
300

302

304
ACVALUE_END
171
     1
172
     0
173
     0
174
     0
175
     2
176
     1
 91
       48
178
     0
145
0.0
  7
TEXTSTYLE_6
140
3.0
 92
        0
301
CELL_VALUE
 93
        4
 90
        4
  1
Scala:1:1
 94
        0
300

302
Scala:1:1
304
ACVALUE_END
171
     1
172
     0
173
     1
174
     0
175
     1
176
     1
 91
        0
178
     0
145
0.0
 92
        0
301
CELL_VALUE
 93
        3
 90
        0
 91
        0
 94
        0
300

302

304
ACVALUE_END
171
     1
172
     0
173
     0
174
     0
175
     1
176
     1
 91
       49
178
     0
145
0.0
170
     4
  7
TEXTSTYLE_6
140
3.5
 92
        0
301
CELL_VALUE
 93
        4
 90
        4
  1
A1
 94
        0
300

302
A1
304
ACVALUE_END
171
     1
172
     0
173
     1
174
     0
175
     1
176
     1
 91
        0
178
     0
145
0.0
 92
        0
301
CELL_VALUE
 93
        3
 90
        0
 91
        0
 94
        0
300

302

304
ACVALUE_END
171
     1
172
     0
173
     1
174
     0
175
     1
176
     1
 91
        0
178
     0
145
0.0
 92
        0
301
CELL_VALUE
 93
        3
 90
        0
 91
        0
 94
        0
300

302

304
ACVALUE_END
171
     1
172
     0
173
     1
174
     0
175
     1
176
     1
 91
        0
178
     0
145
0.0
 92
        0
301
CELL_VALUE
 93
        3
 90
        0
 91
        0
 94
        0
300

302

304
ACVALUE_END
171
     1
172
     0
173
     0
174
     0
175
    10
176
     1
 91
       49
178
     0
145
0.0
170
     4
  7
TEXTSTYLE_6
140
3.5
 92
        0
301
CELL_VALUE
 93
        4
 90
        4
  1
INTONO 3.2 230V OTTICA S M L 
 94
        0
300

302
INTONO 3.2 230V OTTICA S M L 
304
ACVALUE_END
171
     1
172
     0
173
     1
174
     0
175
     1
176
     1
 91
        0
178
     0
145
0.0
 92
        0
301
CELL_VALUE
 93
        3
 90
        0
 91
        0
 94
        0
300

302

304
ACVALUE_END
171
     1
172
     0
173
     1
174
     0
175
     1
176
     1
 91
        0
178
     0
145
0.0
 92
        0
301
CELL_VALUE
 93
        3
 90
        0
 91
        0
 94
        0
300

302

304
ACVALUE_END
171
     1
172
     0
173
     1
174
     0
175
     1
176
     1
 91
        0
178
     0
145
0.0
 92
        0
301
CELL_VALUE
 93
        3
 90
        0
 91
        0
 94
        0
300

302

304
ACVALUE_END
171
     1
172
     0
173
     1
174
     0
175
     1
176
     1
 91
        0
178
     0
145
0.0
 92
        0
301
CELL_VALUE
 93
        3
 90
        0
 91
        0
 94
        0
300

302

304
ACVALUE_END
171
     1
172
     0
173
     1
174
     0
175
     1
176
     1
 91
        0
178
     0
145
0.0
 92
        0
301
CELL_VALUE
 93
        3
 90
        0
 91
        0
 94
        0
300

302

304
ACVALUE_END
171
     1
172
     0
173
     1
174
     0
175
     1
176
     1
 91
        0
178
     0
145
0.0
 92
        0
301
CELL_VALUE
 93
        3
 90
        0
 91
        0
 94
        0
300

302

304
ACVALUE_END
171
     1
172
     0
173
     1
174
     0
175
     1
176
     1
 91
        0
178
     0
145
0.0
 92
        0
301
CELL_VALUE
 93
        3
 90
        0
 91
        0
 94
        0
300

302

304
ACVALUE_END
171
     1
172
     0
173
     1
174
     0
175
     1
176
     1
 91
        0
178
     0
145
0.0
 92
        0
301
CELL_VALUE
 93
        3
 90
        0
 91
        0
 94
        0
300

302

304
ACVALUE_END
171
     1
172
     0
173
     1
174
     0
175
     1
176
     1
 91
        0
178
     0
145
0.0
 92
        0
301
CELL_VALUE
 93
        3
 90
        0
 91
        0
 94
        0
300

302

304
ACVALUE_END
171
     1
172
     0
173
     1
174
     0
175
     1
176
     1
 91
        0
178
     0
145
0.0
 92
        0
301
CELL_VALUE
 93
        3
 90
        0
 91
        0
 94
        0
300

302

304
ACVALUE_END
171
     1
172
     0
173
     1
174
     0
175
     1
176
     1
 91
        0
178
     0
145
0.0
 92
        0
301
CELL_VALUE
 93
        3
 90
        0
 91
        0
 94
        0
300

302

304
ACVALUE_END
171
     1
172
     0
173
     1
174
     0
175
     1
176
     1
 91
        0
178
     0
145
0.0
 92
        0
301
CELL_VALUE
 93
        3
 90
        0
 91
        0
 94
        0
300

302

304
ACVALUE_END
171
     1
172
     0
173
     0
174
     0
175
     5
176
     1
 91
       49
178
     0
145
0.0
170
     4
  7
TEXTSTYLE_6
140
2.5
 92
        0
301
CELL_VALUE
 93
        4
 90
        4
  1
Dis. -
 94
        0
300

302
Dis. -
304
ACVALUE_END
171
     1
172
     0
173
     1
174
     0
175
     1
176
     1
 91
        0
178
     0
145
0.0
 92
        0
301
CELL_VALUE
 93
        3
 90
        0
 91
        0
 94
        0
300

302

304
ACVALUE_END
171
     1
172
     0
173
     1
174
     0
175
     1
176
     1
 91
        0
178
     0
145
0.0
 92
        0
301
CELL_VALUE
 93
        3
 90
        0
 91
        0
 94
        0
300

302

304
ACVALUE_END
171
     1
172
     0
173
     1
174
     0
175
     1
176
     1
 91
        0
178
     0
145
0.0
 92
        0
301
CELL_VALUE
 93
        3
 90
        0
 91
        0
 94
        0
300

302

304
ACVALUE_END
171
     1
172
     0
173
     1
174
     0
175
     1
176
     1
 91
        0
178
     0
145
0.0
 92
        0
301
CELL_VALUE
 93
        3
 90
        0
 91
        0
 94
        0
300

302

304
ACVALUE_END
171
     1
172
     0
173
     0
174
     0
175
     5
176
     1
 91
       49
178
     0
145
0.0
170
     4
  7
TEXTSTYLE_6
140
2.5
 92
        0
301
CELL_VALUE
 93
        4
 90
        4
  1
Approvato: -
 94
        0
300

302
Approvato: -
304
ACVALUE_END
171
     1
172
     0
173
     1
174
     0
175
     1
176
     1
 91
        0
178
     0
145
0.0
 92
        0
301
CELL_VALUE
 93
        3
 90
        0
 91
        0
 94
        0
300

302

304
ACVALUE_END
171
     1
172
     0
173
     1
174
     0
175
     1
176
     1
 91
        0
178
     0
145
0.0
 92
        0
301
CELL_VALUE
 93
        3
 90
        0
 91
        0
 94
        0
300

302

304
ACVALUE_END
171
     1
172
     0
173
     1
174
     0
175
     1
176
     1
 91
        0
178
     0
145
0.0
 92
        0
301
CELL_VALUE
 93
        3
 90
        0
 91
        0
 94
        0
300

302

304
ACVALUE_END
171
     1
172
     0
173
     1
174
     0
175
     1
176
     1
 91
        0
178
     0
145
0.0
 92
        0
301
CELL_VALUE
 93
        3
 90
        0
 91
        0
 94
        0
300

302

304
ACVALUE_END
171
     1
172
     0
173
     0
174
     0
175
    13
176
     1
 91
       49
178
     0
145
0.0
170
     4
  7
TEXTSTYLE_6
140
3.0
 92
        0
301
CELL_VALUE
 93
        4
 90
        4
  1
Direttorio: -
 94
        0
300

302
Direttorio: -
304
ACVALUE_END
171
     1
172
     0
173
     1
174
     0
175
     1
176
     1
 91
        0
178
     0
145
0.0
 92
        0
301
CELL_VALUE
 93
        3
 90
        0
 91
        0
 94
        0
300

302

304
ACVALUE_END
171
     1
172
     0
173
     1
174
     0
175
     1
176
     1
 91
        0
178
     0
145
0.0
 92
        0
301
CELL_VALUE
 93
        3
 90
        0
 91
        0
 94
        0
300

302

304
ACVALUE_END
171
     1
172
     0
173
     1
174
     0
175
     1
176
     1
 91
        0
178
     0
145
0.0
 92
        0
301
CELL_VALUE
 93
        3
 90
        0
 91
        0
 94
        0
300

302

304
ACVALUE_END
171
     1
172
     0
173
     1
174
     0
175
     1
176
     1
 91
        0
178
     0
145
0.0
 92
        0
301
CELL_VALUE
 93
        3
 90
        0
 91
        0
 94
        0
300

302

304
ACVALUE_END
171
     1
172
     0
173
     1
174
     0
175
     1
176
     1
 91
        0
178
     0
145
0.0
 92
        0
301
CELL_VALUE
 93
        3
 90
        0
 91
        0
 94
        0
300

302

304
ACVALUE_END
171
     1
172
     0
173
     1
174
     0
175
     1
176
     1
 91
        0
178
     0
145
0.0
 92
        0
301
CELL_VALUE
 93
        3
 90
        0
 91
        0
 94
        0
300

302

304
ACVALUE_END
171
     1
172
     0
173
     1
174
     0
175
     1
176
     1
 91
        0
178
     0
145
0.0
 92
        0
301
CELL_VALUE
 93
        3
 90
        0
 91
        0
 94
        0
300

302

304
ACVALUE_END
171
     1
172
     0
173
     1
174
     0
175
     1
176
     1
 91
        0
178
     0
145
0.0
 92
        0
301
CELL_VALUE
 93
        3
 90
        0
 91
        0
 94
        0
300

302

304
ACVALUE_END
171
     1
172
     0
173
     1
174
     0
175
     1
176
     1
 91
        0
178
     0
145
0.0
 92
        0
301
CELL_VALUE
 93
        3
 90
        0
 91
        0
 94
        0
300

302

304
ACVALUE_END
171
     1
172
     0
173
     1
174
     0
175
     1
176
     1
 91
        0
178
     0
145
0.0
 92
        0
301
CELL_VALUE
 93
        3
 90
        0
 91
        0
 94
        0
300

302

304
ACVALUE_END
171
     1
172
     0
173
     1
174
     0
175
     1
176
     1
 91
        0
178
     0
145
0.0
 92
        0
301
CELL_VALUE
 93
        3
 90
        0
 91
        0
 94
        0
300

302

304
ACVALUE_END
171
     1
172
     0
173
     1
174
     0
175
     1
176
     1
 91
        0
178
     0
145
0.0
 92
        0
301
CELL_VALUE
 93
        3
 90
        0
 91
        0
 94
        0
300

302

304
ACVALUE_END
171
     1
172
     0
173
     0
174
     0
175
     3
176
     1
 91
       48
178
     0
145
0.0
  7
TEXTSTYLE_6
140
3.0
 92
        0
301
CELL_VALUE
 93
        4
 90
        4
  1
-
 94
        0
300

302
-
304
ACVALUE_END
171
     1
172
     0
173
     1
174
     0
175
     1
176
     1
 91
        0
178
     0
145
0.0
 92
        0
301
CELL_VALUE
 93
        3
 90
        0
 91
        0
 94
        0
300

302

304
ACVALUE_END
171
     1
172
     0
173
     1
174
     0
175
     1
176
     1
 91
        0
178
     0
145
0.0
 92
        0
301
CELL_VALUE
 93
        3
 90
        0
 91
        0
 94
        0
300

302

304
ACVALUE_END
171
     1
172
     0
173
     0
174
     0
175
     5
176
     1
 91
       48
178
     0
145
0.0
  7
TEXTSTYLE_6
140
3.0
 92
        0
301
CELL_VALUE
 93
        4
 90
        4
  1
Mat: 
 94
        0
300

302
Mat: 
304
ACVALUE_END
171
     1
172
     0
173
     1
174
     0
175
     1
176
     1
 91
        0
178
     0
145
0.0
 92
        0
301
CELL_VALUE
 93
        3
 90
        0
 91
        0
 94
        0
300

302

304
ACVALUE_END
171
     1
172
     0
173
     1
174
     0
175
     1
176
     1
 91
        0
178
     0
145
0.0
 92
        0
301
CELL_VALUE
 93
        3
 90
        0
 91
        0
 94
        0
300

302

304
ACVALUE_END
171
     1
172
     0
173
     1
174
     0
175
     1
176
     1
 91
        0
178
     0
145
0.0
 92
        0
301
CELL_VALUE
 93
        3
 90
        0
 91
        0
 94
        0
300

302

304
ACVALUE_END
171
     1
172
     0
173
     1
174
     0
175
     1
176
     1
 91
        0
178
     0
145
0.0
 92
        0
301
CELL_VALUE
 93
        3
 90
        0
 91
        0
 94
        0
300

302

304
ACVALUE_END
171
     1
172
     0
173
     0
174
     0
175
     5
176
     1
 91
       48
178
     0
145
0.0
  7
TEXTSTYLE_6
140
3.0
 92
        0
301
CELL_VALUE
 93
        4
 90
        4
  1
Tratt.-
 94
        0
300

302
Tratt.-
304
ACVALUE_END
171
     1
172
     0
173
     1
174
     0
175
     1
176
     1
 91
        0
178
     0
145
0.0
 92
        0
301
CELL_VALUE
 93
        3
 90
        0
 91
        0
 94
        0
300

302

304
ACVALUE_END
171
     1
172
     0
173
     1
174
     0
175
     1
176
     1
 91
        0
178
     0
145
0.0
 92
        0
301
CELL_VALUE
 93
        3
 90
        0
 91
        0
 94
        0
300

302

304
ACVALUE_END
171
     1
172
     0
173
     1
174
     0
175
     1
176
     1
 91
        0
178
     0
145
0.0
 92
        0
301
CELL_VALUE
 93
        3
 90
        0
 91
        0
 94
        0
300

302

304
ACVALUE_END
171
     1
172
     0
173
     1
174
     0
175
     1
176
     1
 91
        0
178
     0
145
0.0
 92
        0
301
CELL_VALUE
 93
        3
 90
        0
 91
        0
 94
        0
300

302

304
ACVALUE_END
171
     1
172
     0
173
     0
174
     0
175
    13
176
     1
 91
       49
178
     0
145
0.0
170
     4
  7
TEXTSTYLE_6
140
1.8
 92
        0
301
CELL_VALUE
 93
        4
 90
        4
  1
A norma di legge si diffida da qualsiasi riproduzione senza nostra autorizzazione esplicita
 94
        0
300

302
A norma di legge si diffida da qualsiasi riproduzione senza nostra autorizzazione esplicita
304
ACVALUE_END
171
     1
172
     0
173
     1
174
     0
175
     1
176
     1
 91
        0
178
     0
145
0.0
 92
        0
301
CELL_VALUE
 93
        3
 90
        0
 91
        0
 94
        0
300

302

304
ACVALUE_END
171
     1
172
     0
173
     1
174
     0
175
     1
176
     1
 91
        0
178
     0
145
0.0
 92
        0
301
CELL_VALUE
 93
        3
 90
        0
 91
        0
 94
        0
300

302

304
ACVALUE_END
171
     1
172
     0
173
     1
174
     0
175
     1
176
     1
 91
        0
178
     0
145
0.0
 92
        0
301
CELL_VALUE
 93
        3
 90
        0
 91
        0
 94
        0
300

302

304
ACVALUE_END
171
     1
172
     0
173
     1
174
     0
175
     1
176
     1
 91
        0
178
     0
145
0.0
 92
        0
301
CELL_VALUE
 93
        3
 90
        0
 91
        0
 94
        0
300

302

304
ACVALUE_END
171
     1
172
     0
173
     1
174
     0
175
     1
176
     1
 91
        0
178
     0
145
0.0
 92
        0
301
CELL_VALUE
 93
        3
 90
        0
 91
        0
 94
        0
300

302

304
ACVALUE_END
171
     1
172
     0
173
     1
174
     0
175
     1
176
     1
 91
        0
178
     0
145
0.0
 92
        0
301
CELL_VALUE
 93
        3
 90
        0
 91
        0
 94
        0
300

302

304
ACVALUE_END
171
     1
172
     0
173
     1
174
     0
175
     1
176
     1
 91
        0
178
     0
145
0.0
 92
        0
301
CELL_VALUE
 93
        3
 90
        0
 91
        0
 94
        0
300

302

304
ACVALUE_END
171
     1
172
     0
173
     1
174
     0
175
     1
176
     1
 91
        0
178
     0
145
0.0
 92
        0
301
CELL_VALUE
 93
        3
 90
        0
 91
        0
 94
        0
300

302

304
ACVALUE_END
171
     1
172
     0
173
     1
174
     0
175
     1
176
     1
 91
        0
178
     0
145
0.0
 92
        0
301
CELL_VALUE
 93
        3
 90
        0
 91
        0
 94
        0
300

302

304
ACVALUE_END
171
     1
172
     0
173
     1
174
     0
175
     1
176
     1
 91
        0
178
     0
145
0.0
 92
        0
301
CELL_VALUE
 93
        3
 90
        0
 91
        0
 94
        0
300

302

304
ACVALUE_END
171
     1
172
     0
173
     1
174
     0
175
     1
176
     1
 91
        0
178
     0
145
0.0
 92
        0
301
CELL_VALUE
 93
        3
 90
        0
 91
        0
 94
        0
300

302

304
ACVALUE_END
171
     1
172
     0
173
     1
174
     0
175
     1
176
     1
 91
        0
178
     0
145
0.0
 92
        0
301
CELL_VALUE
 93
        3
 90
        0
 91
        0
 94
        0
300

302

304
ACVALUE_END
  0
LINE
  5
2D3
330
217
100
AcDbEntity
 67
     1
  8
0
  6
Continuous
 62
     7
100
AcDbLine
 10
0.0
 20
0.0
 30
0.0
 11
0.0
 21
594.0
 31
0.0
  0
LINE
  5
2D4
330
217
100
AcDbEntity
 67
     1
  8
0
  6
Continuous
 62
     7
100
AcDbLine
 10
7.0
 20
0.0
 30
0.0
 11
7.0
 21
594.0
 31
0.0
  0
LINE
  5
2D5
330
217
100
AcDbEntity
 67
     1
  8
0
  6
Continuous
 62
     7
100
AcDbLine
 10
10.0
 20
10.0
 30
0.0
 11
10.0
 21
584.0
 31
0.0
  0
LINE
  5
2D6
330
217
100
AcDbEntity
 67
     1
  8
0
  6
Continuous
 62
     7
100
AcDbLine
 10
0.0
 20
0.0
 30
0.0
 11
841.0
 21
0.0
 31
0.0
  0
LINE
  5
2D7
330
217
100
AcDbEntity
 67
     1
  8
0
  6
Continuous
 62
     7
100
AcDbLine
 10
0.0
 20
7.0
 30
0.0
 11
841.0
 21
7.0
 31
0.0
  0
LINE
  5
2D8
330
217
100
AcDbEntity
 67
     1
  8
0
  6
Continuous
 62
     7
100
AcDbLine
 10
134.0
 20
594.0
 30
0.0
 11
134.0
 21
587.0
 31
0.0
  0
LINE
  5
2D9
330
217
100
AcDbEntity
 67
     1
  8
0
  6
Continuous
 62
     7
100
AcDbLine
 10
134.0
 20
7.0
 30
0.0
 11
134.0
 21
0.0
 31
0.0
  0
LINE
  5
2DA
330
217
100
AcDbEntity
 67
     1
  8
0
  6
Continuous
 62
     7
100
AcDbLine
 10
10.1045326603
 20
9.9564447249
 30
0.0
 11
831.0019373863
 21
10.0005548773
 31
0.0
  0
LINE
  5
2DB
330
217
100
AcDbEntity
 67
     1
  8
0
  6
Continuous
 62
     7
100
AcDbLine
 10
234.0
 20
594.0
 30
0.0
 11
234.0
 21
587.0
 31
0.0
  0
LINE
  5
2DC
330
217
100
AcDbEntity
 67
     1
  8
0
  6
Continuous
 62
     7
100
AcDbLine
 10
234.0
 20
7.0
 30
0.0
 11
234.0
 21
0.0
 31
0.0
  0
LINE
  5
2DD
330
217
100
AcDbEntity
 67
     1
  8
0
  6
Continuous
 62
     7
100
AcDbLine
 10
0.0
 20
107.0
 30
0.0
 11
7.0
 21
107.0
 31
0.0
  0
LINE
  5
2DE
330
217
100
AcDbEntity
 67
     1
  8
0
  6
Continuous
 62
     7
100
AcDbLine
 10
834.0
 20
107.0
 30
0.0
 11
841.0
 21
107.0
 31
0.0
  0
LINE
  5
2DF
330
217
100
AcDbEntity
 67
     1
  8
0
  6
Continuous
 62
     7
100
AcDbLine
 10
334.0
 20
594.0
 30
0.0
 11
334.0
 21
587.0
 31
0.0
  0
LINE
  5
2E0
330
217
100
AcDbEntity
 67
     1
  8
0
  6
Continuous
 62
     7
100
AcDbLine
 10
334.0
 20
7.0
 30
0.0
 11
334.0
 21
0.0
 31
0.0
  0
LINE
  5
2E1
330
217
100
AcDbEntity
 67
     1
  8
0
  6
Continuous
 62
     7
100
AcDbLine
 10
0.0
 20
207.0
 30
0.0
 11
7.0
 21
207.0
 31
0.0
  0
LINE
  5
2E2
330
217
100
AcDbEntity
 67
     1
  8
0
  6
Continuous
 62
     7
100
AcDbLine
 10
834.0
 20
207.0
 30
0.0
 11
841.0
 21
207.0
 31
0.0
  0
LINE
  5
2E3
330
217
100
AcDbEntity
 67
     1
  8
0
  6
Continuous
 62
     7
100
AcDbLine
 10
420.5
 20
594.0
 30
0.0
 11
420.5
 21
584.0
 31
0.0
  0
LINE
  5
2E4
330
217
100
AcDbEntity
 67
     1
  8
0
  6
Continuous
 62
     7
100
AcDbLine
 10
420.5
 20
0.0
 30
0.0
 11
420.5
 21
10.0
 31
0.0
  0
LINE
  5
2E5
330
217
100
AcDbEntity
 67
     1
  8
0
  6
Continuous
 62
     7
100
AcDbLine
 10
841.0
 20
297.0
 30
0.0
 11
831.0
 21
297.0
 31
0.0
  0
LINE
  5
2E6
330
217
100
AcDbEntity
 67
     1
  8
0
  6
Continuous
 62
     7
100
AcDbLine
 10
0.0
 20
297.0
 30
0.0
 11
10.0
 21
297.0
 31
0.0
  0
LINE
  5
2E7
330
217
100
AcDbEntity
 67
     1
  8
0
  6
Continuous
 62
     7
100
AcDbLine
 10
434.0
 20
594.0
 30
0.0
 11
434.0
 21
587.0
 31
0.0
  0
LINE
  5
2E8
330
217
100
AcDbEntity
 67
     1
  8
0
  6
Continuous
 62
     7
100
AcDbLine
 10
434.0
 20
7.0
 30
0.0
 11
434.0
 21
0.0
 31
0.0
  0
LINE
  5
2E9
330
217
100
AcDbEntity
 67
     1
  8
0
  6
Continuous
 62
     7
100
AcDbLine
 10
0.0
 20
307.0
 30
0.0
 11
7.0
 21
307.0
 31
0.0
  0
LINE
  5
2EA
330
217
100
AcDbEntity
 67
     1
  8
0
  6
Continuous
 62
     7
100
AcDbLine
 10
834.0
 20
307.0
 30
0.0
 11
841.0
 21
307.0
 31
0.0
  0
LINE
  5
2EB
330
217
100
AcDbEntity
 67
     1
  8
0
  6
Continuous
 62
     7
100
AcDbLine
 10
534.0
 20
594.0
 30
0.0
 11
534.0
 21
587.0
 31
0.0
  0
LINE
  5
2EC
330
217
100
AcDbEntity
 67
     1
  8
0
  6
Continuous
 62
     7
100
AcDbLine
 10
534.0
 20
7.0
 30
0.0
 11
534.0
 21
0.0
 31
0.0
  0
LINE
  5
2ED
330
217
100
AcDbEntity
 67
     1
  8
0
  6
Continuous
 62
     7
100
AcDbLine
 10
841.0
 20
420.5
 30
0.0
 11
831.0324714513
 21
420.5
 31
0.0
  0
LINE
  5
2EE
330
217
100
AcDbEntity
 67
     1
  8
0
  6
Continuous
 62
     7
100
AcDbLine
 10
10.0
 20
420.5
 30
0.0
 11
0.0
 21
420.5
 31
0.0
  0
LINE
  5
2EF
330
217
100
AcDbEntity
 67
     1
  8
0
  6
Continuous
 62
     7
100
AcDbLine
 10
631.0
 20
0.0
 30
0.0
 11
631.0
 21
10.0
 31
0.0
  0
LINE
  5
2F0
330
217
100
AcDbEntity
 67
     1
  8
0
  6
Continuous
 62
     7
100
AcDbLine
 10
631.0
 20
584.0
 30
0.0
 11
631.0
 21
594.0
 31
0.0
  0
LINE
  5
2F1
330
217
100
AcDbEntity
 67
     1
  8
0
  6
Continuous
 62
     7
100
AcDbLine
 10
0.0
 20
507.0
 30
0.0
 11
7.0
 21
507.0
 31
0.0
  0
LINE
  5
2F2
330
217
100
AcDbEntity
 67
     1
  8
0
  6
Continuous
 62
     7
100
AcDbLine
 10
834.0
 20
507.0
 30
0.0
 11
841.0
 21
507.0
 31
0.0
  0
LINE
  5
2F3
330
217
100
AcDbEntity
 67
     1
  8
0
  6
Continuous
 62
     7
100
AcDbLine
 10
10.0
 20
584.0
 30
0.0
 11
831.0
 21
584.0
 31
0.0
  0
LINE
  5
2F4
330
217
100
AcDbEntity
 67
     1
  8
0
  6
Continuous
 62
     7
100
AcDbLine
 10
0.0
 20
587.0
 30
0.0
 11
841.0
 21
587.0
 31
0.0
  0
LINE
  5
2F5
330
217
100
AcDbEntity
 67
     1
  8
0
  6
Continuous
 62
     7
100
AcDbLine
 10
0.0
 20
594.0
 30
0.0
 11
841.0
 21
594.0
 31
0.0
  0
LINE
  5
2F6
330
217
100
AcDbEntity
 67
     1
  8
0
  6
Continuous
 62
     7
100
AcDbLine
 10
734.0
 20
594.0
 30
0.0
 11
734.0
 21
587.0
 31
0.0
  0
LINE
  5
2F7
330
217
100
AcDbEntity
 67
     1
  8
0
  6
Continuous
 62
     7
100
AcDbLine
 10
734.0
 20
7.0
 30
0.0
 11
734.0
 21
0.0
 31
0.0
  0
LINE
  5
2F8
330
217
100
AcDbEntity
 67
     1
  8
0
  6
Continuous
 62
     7
100
AcDbLine
 10
831.0
 20
10.0
 30
0.0
 11
831.0
 21
584.0
 31
0.0
  0
LINE
  5
2F9
330
217
100
AcDbEntity
 67
     1
  8
0
  6
Continuous
 62
     7
100
AcDbLine
 10
834.0
 20
0.0
 30
0.0
 11
834.0
 21
594.0
 31
0.0
  0
LINE
  5
2FA
330
217
100
AcDbEntity
 67
     1
  8
0
  6
Continuous
 62
     7
100
AcDbLine
 10
841.0
 20
0.0
 30
0.0
 11
841.0
 21
594.0
 31
0.0
  0
LINE
  5
2FB
330
217
100
AcDbEntity
 67
     1
  8
7_ALL_FEATURES
  6
Continuous
 62
     7
100
AcDbLine
 10
280.418892613
 20
275.7694606994
 30
0.0
 11
202.4191712364
 21
275.7694606994
 31
0.0
  0
LINE
  5
2FC
330
217
100
AcDbEntity
 67
     1
  8
7_ALL_FEATURES
  6
Continuous
 62
     9
100
AcDbLine
 10
281.4190319313
 20
276.7694606994
 30
0.0
 11
201.4190319313
 21
276.7694606994
 31
0.0
  0
LINE
  5
2FD
330
217
100
AcDbEntity
 67
     1
  8
7_ALL_FEATURES
  6
Continuous
 62
     7
100
AcDbLine
 10
201.4190319313
 20
276.7694606994
 30
0.0
 11
201.4190319313
 21
514.7694606994
 31
0.0
  0
LINE
  5
2FE
330
217
100
AcDbEntity
 67
     1
  8
3_ALL_AXES
  6
CENTER
 62
     2
100
AcDbLine
 10
241.4190319313
 20
534.802581026
 30
0.0
 11
241.4190319313
 21
264.5034693828
 31
0.0
  0
LINE
  5
2FF
330
217
100
AcDbEntity
 67
     1
  8
7_ALL_FEATURES
  6
Continuous
 62
     7
100
AcDbLine
 10
281.4190319313
 20
276.7694606994
 30
0.0
 11
281.4190319313
 21
514.7694606994
 31
0.0
  0
LINE
  5
300
330
217
100
AcDbEntity
 67
     1
  8
7_ALL_FEATURES
  6
Continuous
 62
     9
100
AcDbLine
 10
201.4190319313
 20
514.7694606994
 30
0.0
 11
281.4190319313
 21
514.7694606994
 31
0.0
  0
LINE
  5
301
330
217
100
AcDbEntity
 67
     1
  8
7_ALL_FEATURES
  6
Continuous
 62
     7
100
AcDbLine
 10
202.4191712347
 20
515.7694606994
 30
0.0
 11
280.4188926115
 21
515.7694606994
 31
0.0
  0
LINE
  5
302
330
217
100
AcDbEntity
 67
     1
  8
7_ALL_FEATURES
  6
Continuous
 62
     9
100
AcDbLine
 10
207.6440411837
 20
175.3856825445
 30
0.0
 11
206.7780157799
 21
174.8856825446
 31
0.0
  0
LINE
  5
303
330
217
100
AcDbEntity
 67
     1
  8
7_ALL_FEATURES
  6
Continuous
 62
     9
100
AcDbLine
 10
239.9467887449
 20
178.7356825445
 30
0.0
 11
240.206596366
 21
178.8856825445
 31
0.0
  0
LINE
  5
304
330
217
100
AcDbEntity
 67
     1
  8
7_ALL_FEATURES
  6
Continuous
 62
     9
100
AcDbLine
 10
242.025249714
 20
179.9356825445
 30
0.0
 11
242.2850573351
 21
180.0856825445
 31
0.0
  0
LINE
  5
305
330
217
100
AcDbEntity
 67
     1
  8
3_ALL_AXES
  6
Continuous
 62
     7
100
AcDbLine
 10
204.4190319313
 20
194.8856825445
 30
0.0
 11
204.4190319313
 21
195.8856825445
 31
0.0
  0
LINE
  5
306
330
217
100
AcDbEntity
 67
     1
  8
3_ALL_AXES
  6
Continuous
 62
     9
100
AcDbLine
 10
207.4190319313
 20
194.8856825445
 30
0.0
 11
207.4190319313
 21
195.8856825445
 31
0.0
  0
LINE
  5
307
330
217
100
AcDbEntity
 67
     1
  8
7_ALL_FEATURES
  6
Continuous
 62
     9
100
AcDbLine
 10
240.5530065275
 20
177.6856825445
 30
0.0
 11
240.8128141487
 21
177.8356825445
 31
0.0
  0
LINE
  5
308
330
217
100
AcDbEntity
 67
     1
  8
7_ALL_FEATURES
  6
Continuous
 62
     9
100
AcDbLine
 10
242.6314674966
 20
178.8856825445
 30
0.0
 11
242.8912751177
 21
179.0356825445
 31
0.0
  0
LINE
  5
309
330
217
100
AcDbEntity
 67
     1
  8
3_ALL_AXES
  6
Continuous
 62
     9
100
AcDbLine
 10
215.4190319313
 20
194.8856825445
 30
0.0
 11
215.4190319313
 21
195.8856825445
 31
0.0
  0
LINE
  5
30A
330
217
100
AcDbEntity
 67
     1
  8
3_ALL_AXES
  6
Continuous
 62
     7
100
AcDbLine
 10
218.4190319313
 20
195.8856825445
 30
0.0
 11
218.4190319313
 21
194.8856825445
 31
0.0
  0
LINE
  5
30B
330
217
100
AcDbEntity
 67
     1
  8
7_ALL_FEATURES
  6
Continuous
 62
     7
100
AcDbLine
 10
239.9467887449
 20
179.0356825445
 30
0.0
 11
240.5530065275
 21
180.0856825445
 31
0.0
  0
LINE
  5
30C
330
217
100
AcDbEntity
 67
     1
  8
7_ALL_FEATURES
  6
Continuous
 62
     7
100
AcDbLine
 10
240.0333912853
 20
178.9856825445
 30
0.0
 11
240.6396090679
 21
180.0356825445
 31
0.0
  0
LINE
  5
30D
330
217
100
AcDbEntity
 67
     1
  8
7_ALL_FEATURES
  6
Continuous
 62
     7
100
AcDbLine
 10
240.206596366
 20
178.8856825445
 30
0.0
 11
240.8128141487
 21
179.9356825445
 31
0.0
  0
LINE
  5
30E
330
217
100
AcDbEntity
 67
     1
  8
7_ALL_FEATURES
  6
Continuous
 62
     7
100
AcDbLine
 10
242.6314674966
 20
178.8856825445
 30
0.0
 11
242.025249714
 21
177.8356825445
 31
0.0
  0
LINE
  5
30F
330
217
100
AcDbEntity
 67
     1
  8
7_ALL_FEATURES
  6
Continuous
 62
     7
100
AcDbLine
 10
242.8046725774
 20
178.7856825445
 30
0.0
 11
242.1984547947
 21
177.7356825445
 31
0.0
  0
LINE
  5
310
330
217
100
AcDbEntity
 67
     1
  8
7_ALL_FEATURES
  6
Continuous
 62
     7
100
AcDbLine
 10
242.8912751177
 20
178.7356825445
 30
0.0
 11
242.2850573351
 21
177.6856825445
 31
0.0
  0
LINE
  5
311
330
217
100
AcDbEntity
 67
     1
  8
3_ALL_AXES
  6
CENTER
 62
     2
100
AcDbLine
 10
241.4190319313
 20
114.8856825445
 30
0.0
 11
184.0914743297
 21
114.8856825445
 31
0.0
  0
LINE
  5
312
330
217
100
AcDbEntity
 67
     1
  8
3_ALL_AXES
  6
CENTER
 62
     2
100
AcDbLine
 10
241.4190319313
 20
114.8856825445
 30
0.0
 11
298.7465895329
 21
114.8856825445
 31
0.0
  0
LINE
  5
313
330
217
100
AcDbEntity
 67
     1
  8
7_ALL_FEATURES
  6
Continuous
 62
     9
100
AcDbLine
 10
207.6440411837
 20
134.3856825445
 30
0.0
 11
206.77801578
 21
134.8856825447
 31
0.0
  0
LINE
  5
314
330
217
100
AcDbEntity
 67
     1
  8
7_ALL_FEATURES
  6
Continuous
 62
     9
100
AcDbLine
 10
240.8128141487
 20
177.5356825445
 30
0.0
 11
240.8128141487
 21
177.8356825445
 31
0.0
  0
LINE
  5
315
330
217
100
AcDbEntity
 67
     1
  8
7_ALL_FEATURES
  6
Continuous
 62
     9
100
AcDbLine
 10
240.8128141487
 20
179.9356825445
 30
0.0
 11
240.8128141487
 21
180.2356825445
 31
0.0
  0
LINE
  5
316
330
217
100
AcDbEntity
 67
     1
  8
3_ALL_AXES
  6
CENTER
 62
     2
100
AcDbLine
 10
241.4190319313
 20
114.8856825445
 30
0.0
 11
241.4190319313
 21
57.5581249429
 31
0.0
  0
LINE
  5
317
330
217
100
AcDbEntity
 67
     1
  8
3_ALL_AXES
  6
CENTER
 62
     2
100
AcDbLine
 10
241.4190319313
 20
114.8856825445
 30
0.0
 11
241.4190319313
 21
216.0088800683
 31
0.0
  0
LINE
  5
318
330
217
100
AcDbEntity
 67
     1
  8
7_ALL_FEATURES
  6
Continuous
 62
     9
100
AcDbLine
 10
242.025249714
 20
177.5356825445
 30
0.0
 11
242.025249714
 21
177.8356825445
 31
0.0
  0
LINE
  5
319
330
217
100
AcDbEntity
 67
     1
  8
7_ALL_FEATURES
  6
Continuous
 62
     9
100
AcDbLine
 10
242.025249714
 20
179.9356825445
 30
0.0
 11
242.025249714
 21
180.2356825445
 31
0.0
  0
LINE
  5
31A
330
217
100
AcDbEntity
 67
     1
  8
7_ALL_FEATURES
  6
Continuous
 62
     9
100
AcDbLine
 10
275.1940226789
 20
134.3856825445
 30
0.0
 11
276.0600480827
 21
134.8856825445
 31
0.0
  0
LINE
  5
31B
330
217
100
AcDbEntity
 67
     1
  8
3_ALL_AXES
  6
Continuous
 62
     7
100
AcDbLine
 10
264.4190319313
 20
194.8856825445
 30
0.0
 11
264.4190319313
 21
195.8856825445
 31
0.0
  0
LINE
  5
31C
330
217
100
AcDbEntity
 67
     1
  8
7_ALL_FEATURES
  6
Continuous
 62
     7
100
AcDbLine
 10
240.5530065275
 20
177.6856825445
 30
0.0
 11
239.9467887449
 21
178.7356825445
 31
0.0
  0
LINE
  5
31D
330
217
100
AcDbEntity
 67
     1
  8
7_ALL_FEATURES
  6
Continuous
 62
     7
100
AcDbLine
 10
240.6396090679
 20
177.7356825445
 30
0.0
 11
240.0333912853
 21
178.7856825445
 31
0.0
  0
LINE
  5
31E
330
217
100
AcDbEntity
 67
     1
  8
7_ALL_FEATURES
  6
Continuous
 62
     7
100
AcDbLine
 10
240.8128141487
 20
177.8356825445
 30
0.0
 11
240.206596366
 21
178.8856825445
 31
0.0
  0
LINE
  5
31F
330
217
100
AcDbEntity
 67
     1
  8
7_ALL_FEATURES
  6
Continuous
 62
     7
100
AcDbLine
 10
242.025249714
 20
179.9356825445
 30
0.0
 11
242.6314674966
 21
178.8856825445
 31
0.0
  0
LINE
  5
320
330
217
100
AcDbEntity
 67
     1
  8
7_ALL_FEATURES
  6
Continuous
 62
     7
100
AcDbLine
 10
242.1984547947
 20
180.0356825445
 30
0.0
 11
242.8046725774
 21
178.9856825445
 31
0.0
  0
LINE
  5
321
330
217
100
AcDbEntity
 67
     1
  8
7_ALL_FEATURES
  6
Continuous
 62
     7
100
AcDbLine
 10
242.2850573351
 20
180.0856825445
 30
0.0
 11
242.8912751177
 21
179.0356825445
 31
0.0
  0
LINE
  5
322
330
217
100
AcDbEntity
 67
     1
  8
3_ALL_AXES
  6
Continuous
 62
     9
100
AcDbLine
 10
267.4190319313
 20
194.8856825445
 30
0.0
 11
267.4190319313
 21
195.8856825445
 31
0.0
  0
LINE
  5
323
330
217
100
AcDbEntity
 67
     1
  8
3_ALL_AXES
  6
Continuous
 62
     9
100
AcDbLine
 10
275.4190319313
 20
194.8856825445
 30
0.0
 11
275.4190319313
 21
195.8856825445
 31
0.0
  0
LINE
  5
324
330
217
100
AcDbEntity
 67
     1
  8
3_ALL_AXES
  6
Continuous
 62
     7
100
AcDbLine
 10
278.4190319313
 20
194.8856825445
 30
0.0
 11
278.4190319313
 21
195.8856825445
 31
0.0
  0
LINE
  5
325
330
217
100
AcDbEntity
 67
     1
  8
7_ALL_FEATURES
  6
Continuous
 62
     9
100
AcDbLine
 10
239.9467887449
 20
179.0356825445
 30
0.0
 11
240.206596366
 21
178.8856825445
 31
0.0
  0
LINE
  5
326
330
217
100
AcDbEntity
 67
     1
  8
7_ALL_FEATURES
  6
Continuous
 62
     9
100
AcDbLine
 10
242.025249714
 20
177.8356825445
 30
0.0
 11
242.2850573351
 21
177.6856825445
 31
0.0
  0
LINE
  5
327
330
217
100
AcDbEntity
 67
     1
  8
7_ALL_FEATURES
  6
Continuous
 62
     9
100
AcDbLine
 10
240.5530065275
 20
180.0856825445
 30
0.0
 11
240.8128141487
 21
179.9356825445
 31
0.0
  0
LINE
  5
328
330
217
100
AcDbEntity
 67
     1
  8
7_ALL_FEATURES
  6
Continuous
 62
     9
100
AcDbLine
 10
242.6314674966
 20
178.8856825445
 30
0.0
 11
242.8912751177
 21
178.7356825445
 31
0.0
  0
LINE
  5
329
330
217
100
AcDbEntity
 67
     1
  8
7_ALL_FEATURES
  6
Continuous
 62
     7
100
AcDbLine
 10
242.025249714
 20
177.5356825445
 30
0.0
 11
240.8128141487
 21
177.5356825445
 31
0.0
  0
LINE
  5
32A
330
217
100
AcDbEntity
 67
     1
  8
7_ALL_FEATURES
  6
Continuous
 62
     7
100
AcDbLine
 10
242.025249714
 20
177.6356825445
 30
0.0
 11
240.8128141487
 21
177.6356825445
 31
0.0
  0
LINE
  5
32B
330
217
100
AcDbEntity
 67
     1
  8
7_ALL_FEATURES
  6
Continuous
 62
     7
100
AcDbLine
 10
242.025249714
 20
177.8356825445
 30
0.0
 11
240.8128141487
 21
177.8356825445
 31
0.0
  0
LINE
  5
32C
330
217
100
AcDbEntity
 67
     1
  8
7_ALL_FEATURES
  6
Continuous
 62
     7
100
AcDbLine
 10
240.8128141487
 20
179.9356825445
 30
0.0
 11
242.025249714
 21
179.9356825445
 31
0.0
  0
LINE
  5
32D
330
217
100
AcDbEntity
 67
     1
  8
7_ALL_FEATURES
  6
Continuous
 62
     7
100
AcDbLine
 10
240.8128141487
 20
180.1356825445
 30
0.0
 11
242.025249714
 21
180.1356825445
 31
0.0
  0
LINE
  5
32E
330
217
100
AcDbEntity
 67
     1
  8
7_ALL_FEATURES
  6
Continuous
 62
     7
100
AcDbLine
 10
240.8128141487
 20
180.2356825445
 30
0.0
 11
242.025249714
 21
180.2356825445
 31
0.0
  0
LINE
  5
32F
330
217
100
AcDbEntity
 67
     1
  8
7_ALL_FEATURES
  6
Continuous
 62
     9
100
AcDbLine
 10
275.1940226789
 20
175.3856825445
 30
0.0
 11
276.0600480824
 21
174.8856825441
 31
0.0
  0
LINE
  5
330
330
217
100
AcDbEntity
 67
     1
  8
7_ALL_FEATURES
  6
Continuous
 62
     7
100
AcDbLine
 10
201.4190319313
 20
194.8856825445
 30
0.0
 11
281.4190319313
 21
194.8856825445
 31
0.0
  0
LINE
  5
331
330
217
100
AcDbEntity
 67
     1
  8
3_ALL_AXES
  6
Continuous
 62
     7
100
AcDbLine
 10
204.4190319313
 20
195.8856825445
 30
0.0
 11
278.4190319313
 21
195.8856825445
 31
0.0
  0
LINE
  5
332
330
217
100
AcDbEntity
 67
     1
  8
7_ALL_FEATURES
  6
Continuous
 62
     7
100
AcDbLine
 10
551.9766796834
 20
275.7694606994
 30
0.0
 11
432.9773988306
 21
275.7694606994
 31
0.0
  0
LINE
  5
333
330
217
100
AcDbEntity
 67
     1
  8
7_ALL_FEATURES
  6
Continuous
 62
     9
100
AcDbLine
 10
552.9773988306
 20
276.7694606994
 30
0.0
 11
432.9773988306
 21
276.7694606994
 31
0.0
  0
LINE
  5
334
330
217
100
AcDbEntity
 67
     1
  8
3_ALL_AXES
  6
Continuous
 62
     9
100
AcDbLine
 10
432.9773988306
 20
286.2694606994
 30
0.0
 11
431.9773988306
 21
286.2694606994
 31
0.0
  0
LINE
  5
335
330
217
100
AcDbEntity
 67
     1
  8
3_ALL_AXES
  6
Continuous
 62
     9
100
AcDbLine
 10
432.9773988306
 20
289.7694606994
 30
0.0
 11
431.9773988306
 21
289.7694606994
 31
0.0
  0
LINE
  5
336
330
217
100
AcDbEntity
 67
     1
  8
3_ALL_AXES
  6
Continuous
 62
     7
100
AcDbLine
 10
432.9773988306
 20
292.7694606994
 30
0.0
 11
431.9773988306
 21
292.7694606994
 31
0.0
  0
LINE
  5
337
330
217
100
AcDbEntity
 67
     1
  8
3_ALL_AXES
  6
Continuous
 62
     9
100
AcDbLine
 10
432.9773988306
 20
295.7694606994
 30
0.0
 11
431.9773988306
 21
295.7694606994
 31
0.0
  0
LINE
  5
338
330
217
100
AcDbEntity
 67
     1
  8
3_ALL_AXES
  6
Continuous
 62
     7
100
AcDbLine
 10
431.9773988306
 20
286.2694606994
 30
0.0
 11
431.9773988306
 21
505.2694606994
 31
0.0
  0
LINE
  5
339
330
217
100
AcDbEntity
 67
     1
  8
7_ALL_FEATURES
  6
Continuous
 62
     7
100
AcDbLine
 10
432.9773988306
 20
275.7694606994
 30
0.0
 11
432.9773988306
 21
515.7694606994
 31
0.0
  0
LINE
  5
33A
330
217
100
AcDbEntity
 67
     1
  8
7_ALL_FEATURES
  6
Continuous
 62
     9
100
AcDbLine
 10
452.9773988306
 20
276.7694606994
 30
0.0
 11
452.9773988306
 21
514.7694606994
 31
0.0
  0
LINE
  5
33B
330
217
100
AcDbEntity
 67
     1
  8
7_ALL_FEATURES
  6
Continuous
 62
     9
100
AcDbLine
 10
492.9773988306
 20
276.7694606994
 30
0.0
 11
492.9773988306
 21
514.7694606994
 31
0.0
  0
LINE
  5
33C
330
217
100
AcDbEntity
 67
     1
  8
3_ALL_AXES
  6
CENTER
 62
     2
100
AcDbLine
 10
512.9773988306
 20
537.8858408546
 30
0.0
 11
512.9773988306
 21
259.3647030018
 31
0.0
  0
LINE
  5
33D
330
217
100
AcDbEntity
 67
     1
  8
7_ALL_FEATURES
  6
Continuous
 62
     7
100
AcDbLine
 10
552.9773988306
 20
276.7694606994
 30
0.0
 11
552.9773988306
 21
514.7694606994
 31
0.0
  0
LINE
  5
33E
330
217
100
AcDbEntity
 67
     1
  8
3_ALL_AXES
  6
Continuous
 62
     9
100
AcDbLine
 10
432.9773988306
 20
493.7694606994
 30
0.0
 11
431.9773988306
 21
493.7694606994
 31
0.0
  0
LINE
  5
33F
330
217
100
AcDbEntity
 67
     1
  8
3_ALL_AXES
  6
Continuous
 62
     7
100
AcDbLine
 10
432.9773988306
 20
496.7694606994
 30
0.0
 11
431.9773988306
 21
496.7694606994
 31
0.0
  0
LINE
  5
340
330
217
100
AcDbEntity
 67
     1
  8
3_ALL_AXES
  6
Continuous
 62
     9
100
AcDbLine
 10
432.9773988306
 20
499.7694606994
 30
0.0
 11
431.9773988306
 21
499.7694606994
 31
0.0
  0
LINE
  5
341
330
217
100
AcDbEntity
 67
     1
  8
3_ALL_AXES
  6
Continuous
 62
     9
100
AcDbLine
 10
432.9773988306
 20
505.2694606994
 30
0.0
 11
431.9773988306
 21
505.2694606994
 31
0.0
  0
LINE
  5
342
330
217
100
AcDbEntity
 67
     1
  8
7_ALL_FEATURES
  6
Continuous
 62
     9
100
AcDbLine
 10
432.9773988306
 20
514.7694606994
 30
0.0
 11
552.9773988306
 21
514.7694606994
 31
0.0
  0
LINE
  5
343
330
217
100
AcDbEntity
 67
     1
  8
7_ALL_FEATURES
  6
Continuous
 62
     7
100
AcDbLine
 10
432.9773988306
 20
515.7694606994
 30
0.0
 11
551.9766796827
 21
515.7694606994
 31
0.0
  0
ARC
  5
344
330
217
100
AcDbEntity
 67
     1
  8
7_ALL_FEATURES
  6
Continuous
 62
     7
100
AcDbCircle
 10
202.4190319313
 20
276.7694606994
 30
0.0
 40
1.0
100
AcDbArc
 50
180.0
 51
270.0
  0
ARC
  5
345
330
217
100
AcDbEntity
 67
     1
  8
7_ALL_FEATURES
  6
Continuous
 62
     7
100
AcDbCircle
 10
280.4190319313
 20
276.7694606994
 30
0.0
 40
1.0
100
AcDbArc
 50
270.0
 51
360.0
  0
ARC
  5
346
330
217
100
AcDbEntity
 67
     1
  8
7_ALL_FEATURES
  6
Continuous
 62
     7
100
AcDbCircle
 10
202.4190319313
 20
514.7694606994
 30
0.0
 40
1.0
100
AcDbArc
 50
90.0
 51
180.0
  0
ARC
  5
347
330
217
100
AcDbEntity
 67
     1
  8
7_ALL_FEATURES
  6
Continuous
 62
     7
100
AcDbCircle
 10
280.4190319313
 20
514.7694606994
 30
0.0
 40
1.0
100
AcDbArc
 50
0.0
 51
90.0
  0
ARC
  5
348
330
217
100
AcDbEntity
 67
     1
  8
7_ALL_FEATURES
  6
Continuous
 62
     9
100
AcDbCircle
 10
172.1369996286
 20
154.8856825445
 30
0.0
 40
41.0
100
AcDbArc
 50
330.0
 51
30.0
  0
ARC
  5
349
330
217
100
AcDbEntity
 67
     1
  8
7_ALL_FEATURES
  6
Continuous
 62
     7
100
AcDbCircle
 10
172.1369996286
 20
154.8856825445
 30
0.0
 40
40.0
100
AcDbArc
 50
330.0
 51
30.0
  0
ARC
  5
34A
330
217
100
AcDbEntity
 67
     1
  8
7_ALL_FEATURES
  6
Continuous
 62
     7
100
AcDbCircle
 10
240.8128141487
 20
179.9356825445
 30
0.0
 40
0.3
100
AcDbArc
 50
90.0
 51
150.0
  0
ARC
  5
34B
330
217
100
AcDbEntity
 67
     1
  8
7_ALL_FEATURES
  6
Continuous
 62
     7
100
AcDbCircle
 10
240.206596366
 20
178.8856825445
 30
0.0
 40
0.3
100
AcDbArc
 50
150.0
 51
210.0
  0
ARC
  5
34C
330
217
100
AcDbEntity
 67
     1
  8
7_ALL_FEATURES
  6
Continuous
 62
     7
100
AcDbCircle
 10
240.8128141487
 20
177.8356825445
 30
0.0
 40
0.3
100
AcDbArc
 50
210.0
 51
270.0
  0
ARC
  5
34D
330
217
100
AcDbEntity
 67
     1
  8
7_ALL_FEATURES
  6
Continuous
 62
     7
100
AcDbCircle
 10
240.206596366
 20
178.8856825445
 30
0.0
 40
0.2
100
AcDbArc
 50
150.0
 51
210.0
  0
ARC
  5
34E
330
217
100
AcDbEntity
 67
     1
  8
7_ALL_FEATURES
  6
Continuous
 62
     7
100
AcDbCircle
 10
240.8128141487
 20
177.8356825445
 30
0.0
 40
0.2
100
AcDbArc
 50
210.0
 51
270.0
  0
ARC
  5
34F
330
217
100
AcDbEntity
 67
     1
  8
7_ALL_FEATURES
  6
Continuous
 62
     7
100
AcDbCircle
 10
240.8128141487
 20
179.9356825445
 30
0.0
 40
0.2
100
AcDbArc
 50
90.0
 51
150.0
  0
ARC
  5
350
330
217
100
AcDbEntity
 67
     1
  8
7_ALL_FEATURES
  6
Continuous
 62
     7
100
AcDbCircle
 10
241.4190319313
 20
114.8856825445
 30
0.0
 40
40.0
100
AcDbArc
 50
150.0
 51
30.0
  0
ARC
  5
351
330
217
100
AcDbEntity
 67
     1
  8
7_ALL_FEATURES
  6
Continuous
 62
     9
100
AcDbCircle
 10
241.4190319313
 20
114.8856825445
 30
0.0
 40
39.0
100
AcDbArc
 50
150.0
 51
30.0
  0
CIRCLE
  5
352
330
217
100
AcDbEntity
 67
     1
  8
3_ALL_AXES
  6
Continuous
 62
     7
100
AcDbCircle
 10
241.4190319313
 20
114.8856825445
 30
0.0
 40
36.0
  0
CIRCLE
  5
353
330
217
100
AcDbEntity
 67
     1
  8
3_ALL_AXES
  6
Continuous
 62
     7
100
AcDbCircle
 10
241.4190319313
 20
114.8856825445
 30
0.0
 40
35.0
  0
ARC
  5
354
330
217
100
AcDbEntity
 67
     1
  8
7_ALL_FEATURES
  6
Continuous
 62
     9
100
AcDbCircle
 10
310.7010642341
 20
154.8856825445
 30
0.0
 40
41.0
100
AcDbArc
 50
150.0
 51
210.0
  0
ARC
  5
355
330
217
100
AcDbEntity
 67
     1
  8
7_ALL_FEATURES
  6
Continuous
 62
     7
100
AcDbCircle
 10
241.4190319313
 20
194.8856825445
 30
0.0
 40
40.0
100
AcDbArc
 50
330.0
 51
360.0
  0
ARC
  5
356
330
217
100
AcDbEntity
 67
     1
  8
7_ALL_FEATURES
  6
Continuous
 62
     7
100
AcDbCircle
 10
310.7010642341
 20
154.8856825445
 30
0.0
 40
40.0
100
AcDbArc
 50
150.0
 51
210.0
  0
ARC
  5
357
330
217
100
AcDbEntity
 67
     1
  8
7_ALL_FEATURES
  6
Continuous
 62
     7
100
AcDbCircle
 10
241.4190319313
 20
194.8856825445
 30
0.0
 40
40.0
100
AcDbArc
 50
180.0
 51
210.0
  0
ARC
  5
358
330
217
100
AcDbEntity
 67
     1
  8
7_ALL_FEATURES
  6
Continuous
 62
     9
100
AcDbCircle
 10
241.4190319313
 20
194.8856825445
 30
0.0
 40
39.0
100
AcDbArc
 50
330.0
 51
360.0
  0
ARC
  5
359
330
217
100
AcDbEntity
 67
     1
  8
7_ALL_FEATURES
  6
Continuous
 62
     9
100
AcDbCircle
 10
241.4190319313
 20
194.8856825445
 30
0.0
 40
39.0
100
AcDbArc
 50
180.0
 51
210.0
  0
CIRCLE
  5
35A
330
217
100
AcDbEntity
 67
     1
  8
7_ALL_FEATURES
  6
Continuous
 62
     7
100
AcDbCircle
 10
241.4190319313
 20
178.8856825445
 30
0.0
 40
4.25
  0
CIRCLE
  5
35B
330
217
100
AcDbEntity
 67
     1
  8
3_ALL_AXES
  6
Continuous
 62
     7
100
AcDbCircle
 10
241.4190319313
 20
178.8856825445
 30
0.0
 40
3.5
  0
ARC
  5
35C
330
217
100
AcDbEntity
 67
     1
  8
7_ALL_FEATURES
  6
Continuous
 62
     7
100
AcDbCircle
 10
242.025249714
 20
179.9356825445
 30
0.0
 40
0.3
100
AcDbArc
 50
30.0
 51
90.0
  0
ARC
  5
35D
330
217
100
AcDbEntity
 67
     1
  8
7_ALL_FEATURES
  6
Continuous
 62
     7
100
AcDbCircle
 10
242.025249714
 20
177.8356825445
 30
0.0
 40
0.3
100
AcDbArc
 50
270.0
 51
330.0
  0
ARC
  5
35E
330
217
100
AcDbEntity
 67
     1
  8
7_ALL_FEATURES
  6
Continuous
 62
     7
100
AcDbCircle
 10
242.6314674966
 20
178.8856825445
 30
0.0
 40
0.3
100
AcDbArc
 50
330.0
 51
30.0
  0
ARC
  5
35F
330
217
100
AcDbEntity
 67
     1
  8
7_ALL_FEATURES
  6
Continuous
 62
     7
100
AcDbCircle
 10
242.025249714
 20
177.8356825445
 30
0.0
 40
0.2
100
AcDbArc
 50
270.0
 51
330.0
  0
ARC
  5
360
330
217
100
AcDbEntity
 67
     1
  8
7_ALL_FEATURES
  6
Continuous
 62
     7
100
AcDbCircle
 10
242.025249714
 20
179.9356825445
 30
0.0
 40
0.2
100
AcDbArc
 50
30.0
 51
90.0
  0
ARC
  5
361
330
217
100
AcDbEntity
 67
     1
  8
7_ALL_FEATURES
  6
Continuous
 62
     7
100
AcDbCircle
 10
242.6314674966
 20
178.8856825445
 30
0.0
 40
0.2
100
AcDbArc
 50
330.0
 51
30.0
  0
ARC
  5
362
330
217
100
AcDbEntity
 67
     1
  8
3_ALL_AXES
  6
Continuous
 62
     7
100
AcDbCircle
 10
436.4773988306
 20
286.2694606994
 30
0.0
 40
4.5
100
AcDbArc
 50
180.0
 51
218.5158822796
  0
ARC
  5
363
330
217
100
AcDbEntity
 67
     1
  8
3_ALL_AXES
  6
Continuous
 62
     7
100
AcDbCircle
 10
436.4773988306
 20
505.2694606994
 30
0.0
 40
4.5
100
AcDbArc
 50
141.4841177204
 51
180.0
  0
ARC
  5
364
330
217
100
AcDbEntity
 67
     1
  8
7_ALL_FEATURES
  6
Continuous
 62
     7
100
AcDbCircle
 10
551.9773988306
 20
276.7694606994
 30
0.0
 40
1.0
100
AcDbArc
 50
270.0
 51
360.0
  0
ARC
  5
365
330
217
100
AcDbEntity
 67
     1
  8
7_ALL_FEATURES
  6
Continuous
 62
     7
100
AcDbCircle
 10
551.9773988306
 20
514.7694606994
 30
0.0
 40
1.0
100
AcDbArc
 50
0.0
 51
90.0
  0
SPLINE
  5
366
330
217
100
AcDbEntity
 67
     1
  8
7_ALL_FEATURES
  6
Continuous
 62
     9
100
AcDbSpline
 70
     0
 71
     3
 72
    11
 73
     7
 74
     0
 42
0.000000001
 43
0.0000001
 40
0.0
 40
0.0
 40
0.0
 40
0.0
 40
0.1711361921
 40
0.396139734
 40
0.6804010462
 40
1.0
 40
1.0
 40
1.0
 40
1.0
 10
452.4773988306
 20
515.7694606994
 30
0.0
 10
452.5460412033
 20
515.7694606994
 30
0.0
 10
452.7029241108
 20
515.6947107792
 30
0.0
 10
452.8541194067
 20
515.460164423
 30
0.0
 10
452.9549344706
 20
515.1408879974
 30
0.0
 10
452.9773988306
 20
514.8976511787
 30
0.0
 10
452.9773988306
 20
514.7694606994
 30
0.0
  0
SPLINE
  5
367
330
217
100
AcDbEntity
 67
     1
  8
7_ALL_FEATURES
  6
Continuous
 62
     9
100
AcDbSpline
 70
     0
 71
     3
 72
    11
 73
     7
 74
     0
 42
0.000000001
 43
0.0000001
 40
0.0
 40
0.0
 40
0.0
 40
0.0
 40
0.1711361921
 40
0.3961397339
 40
0.6804010462
 40
1.0
 40
1.0
 40
1.0
 40
1.0
 10
493.4773988306
 20
515.7694606994
 30
0.0
 10
493.4087564579
 20
515.7694606994
 30
0.0
 10
493.2518735504
 20
515.6947107792
 30
0.0
 10
493.1006782545
 20
515.460164423
 30
0.0
 10
492.9998631907
 20
515.1408879974
 30
0.0
 10
492.9773988304
 20
514.8976511787
 30
0.0
 10
492.9773988304
 20
514.7694606994
 30
0.0
  0
SPLINE
  5
368
330
217
100
AcDbEntity
 67
     1
  8
7_ALL_FEATURES
  6
Continuous
 62
     9
100
AcDbSpline
 70
     0
 71
     3
 72
    11
 73
     7
 74
     0
 42
0.000000001
 43
0.0000001
 40
0.0
 40
0.0
 40
0.0
 40
0.0
 40
0.1711361921
 40
0.3961397339
 40
0.6804010462
 40
1.0
 40
1.0
 40
1.0
 40
1.0
 10
452.4773988306
 20
275.7694606994
 30
0.0
 10
452.5460412033
 20
275.7694606994
 30
0.0
 10
452.7029241107
 20
275.8442106196
 30
0.0
 10
452.8541194068
 20
276.0787569757
 30
0.0
 10
452.9549344702
 20
276.3980334015
 30
0.0
 10
452.9773988314
 20
276.6412702201
 30
0.0
 10
452.9773988314
 20
276.7694606994
 30
0.0
  0
SPLINE
  5
369
330
217
100
AcDbEntity
 67
     1
  8
7_ALL_FEATURES
  6
Continuous
 62
     9
100
AcDbSpline
 70
     0
 71
     3
 72
    11
 73
     7
 74
     0
 42
0.000000001
 43
0.0000001
 40
0.0
 40
0.0
 40
0.0
 40
0.0
 40
0.1711361921
 40
0.396139734
 40
0.6804010462
 40
1.0
 40
1.0
 40
1.0
 40
1.0
 10
493.4773988306
 20
275.7694606994
 30
0.0
 10
493.4087564579
 20
275.7694606994
 30
0.0
 10
493.2518735504
 20
275.8442106196
 30
0.0
 10
493.1006782545
 20
276.0787569757
 30
0.0
 10
492.9998631906
 20
276.3980334014
 30
0.0
 10
492.9773988306
 20
276.6412702201
 30
0.0
 10
492.9773988306
 20
276.7694606994
 30
0.0
  0
ENDSEC
  0
SECTION
  2
OBJECTS
  0
DICTIONARY
  5
C
330
0
100
AcDbDictionary
281
     1
  3
ACAD_DETAILVIEWSTYLE
350
3BC
  3
ACAD_GROUP
350
D
  3
ACAD_LAYOUT
350
1A
  3
ACAD_MATERIAL
350
3AB
  3
ACAD_MLEADERSTYLE
350
3AF
  3
ACAD_MLINESTYLE
350
17
  3
ACAD_PLOTSETTINGS
350
19
  3
ACAD_PLOTSTYLENAME
350
E
  3
ACAD_SCALELIST
350
36F
  3
ACAD_SECTIONVIEWSTYLE
350
3BD
  3
ACAD_TABLESTYLE
350
36A
  3
ACAD_VISUALSTYLE
350
391
  3
ACDB_RECOMPOSE_DATA
350
3C2
  3
AcDbVariableDictionary
350
3B3
  3
APPDATA
350
3B1
  0
SUN
  5
3B2
330
2CC
100
AcDbSun
 90
        1
290
     0
 63
     7
421
 16777215
 40
1.0
291
     1
 91
  2455826
 92
 54000000
292
     0
 70
     2
 71
   256
280
     1
  0
DICTIONARY
  5
3BC
102
{ACAD_REACTORS
330
C
102
}
330
C
100
AcDbDictionary
281
     1
  0
DICTIONARY
  5
D
102
{ACAD_REACTORS
330
C
102
}
330
C
100
AcDbDictionary
281
     1
  0
DICTIONARY
  5
1A
102
{ACAD_REACTORS
330
C
102
}
330
C
100
AcDbDictionary
281
     1
  3
168569_1
350
36C
  3
Model
350
36B
  0
DICTIONARY
  5
3AB
102
{ACAD_REACTORS
330
C
102
}
330
C
100
AcDbDictionary
281
     1
  3
ByBlock
350
3AD
  3
ByLayer
350
3AC
  3
Global
350
3AE
  0
DICTIONARY
  5
3AF
102
{ACAD_REACTORS
330
C
102
}
330
C
100
AcDbDictionary
281
     1
  3
Standard
350
3B0
  0
DICTIONARY
  5
17
102
{ACAD_REACTORS
330
C
102
}
330
C
100
AcDbDictionary
281
     1
  3
Standard
350
18
  0
DICTIONARY
  5
19
102
{ACAD_REACTORS
330
C
102
}
330
C
100
AcDbDictionary
281
     1
  0
ACDBDICTIONARYWDFLT
  5
E
102
{ACAD_REACTORS
330
C
102
}
330
C
100
AcDbDictionary
281
     1
  3
Normal
350
F
100
AcDbDictionaryWithDefault
340
F
  0
DICTIONARY
  5
36F
102
{ACAD_REACTORS
330
C
102
}
330
C
100
AcDbDictionary
281
     1
  3
A0
350
370
  3
A1
350
371
  3
A2
350
372
  3
A3
350
373
  3
A4
350
374
  3
A5
350
375
  3
A6
350
376
  3
A7
350
377
  3
A8
350
378
  3
A9
350
379
  3
B0
350
37A
  3
B1
350
37B
  3
B2
350
37C
  3
B3
350
37D
  3
B4
350
37E
  3
B5
350
37F
  3
B6
350
380
  3
B7
350
381
  3
B8
350
382
  3
B9
350
383
  3
C0
350
384
  3
C1
350
385
  3
C2
350
386
  3
C3
350
387
  3
C4
350
388
  3
C5
350
389
  3
C6
350
38A
  3
C7
350
38B
  3
C8
350
38C
  3
C9
350
38D
  3
D0
350
38E
  3
D1
350
38F
  3
D2
350
390
  0
DICTIONARY
  5
3BD
102
{ACAD_REACTORS
330
C
102
}
330
C
100
AcDbDictionary
281
     1
  0
DICTIONARY
  5
36A
330
C
100
AcDbDictionary
281
     1
  3
Standard
350
36D
  3
Standard1
350
36E
  0
DICTIONARY
  5
391
102
{ACAD_REACTORS
330
C
102
}
330
C
100
AcDbDictionary
281
     1
  3
2dWireframe
350
396
  3
Basic
350
399
  3
Brighten
350
39D
  3
ColorChange
350
3A1
  3
Conceptual
350
39B
  3
Dim
350
39C
  3
EdgeColorOff
350
3A4
  3
Facepattern
350
3A0
  3
Flat
350
392
  3
FlatWithEdges
350
393
  3
Gouraud
350
394
  3
GouraudWithEdges
350
395
  3
Hidden
350
398
  3
JitterOff
350
3A2
  3
Linepattern
350
39F
  3
OverhangOff
350
3A3
  3
Realistic
350
39A
  3
Shaded
350
3A9
  3
Shaded with edges
350
3A8
  3
Shades of Gray
350
3A5
  3
Sketchy
350
3A6
  3
Thicken
350
39E
  3
Wireframe
350
397
  3
X-Ray
350
3A7
  0
XRECORD
  5
3C2
102
{ACAD_REACTORS
330
C
102
}
330
C
100
AcDbXrecord
280
     1
 90
        1
330
36D
330
36E
  0
DICTIONARY
  5
3B3
102
{ACAD_REACTORS
330
C
102
}
330
C
100
AcDbDictionary
281
     1
  3
CANNOSCALE
350
3B4
  3
CMLEADERSTYLE
350
3BB
  3
CTABLESTYLE
350
3BA
  0
DICTIONARY
  5
3B1
102
{ACAD_REACTORS
330
C
102
}
330
C
100
AcDbDictionary
281
     1
  0
LAYOUT
  5
36C
102
{ACAD_REACTORS
330
1A
102
}
330
1A
100
AcDbPlotSettings
  1

  2
none_device
  4
ISO_A1_(594.00_x_841.00_MM)
  6

 40
0.0
 41
0.0
 42
0.0
 43
0.0
 44
841.0
 45
594.0
 46
0.0
 47
0.0
 48
0.0
 49
0.0
140
0.0
141
0.0
142
1.0
143
1.0
 70
     0
 72
     1
 73
     0
 74
     0
  7

 75
     0
 76
     0
 77
     2
 78
   300
147
1.0
148
0.0
149
0.0
100
AcDbLayout
  1
168569_1
 70
     0
 71
     1
 10
0.0
 20
0.0
 11
841.0
 21
594.0
 12
0.0
 22
0.0
 32
0.0
 14
0.0
 24
0.0
 34
0.0
 15
841.0
 25
594.0
 35
0.0
146
0.0
 13
0.0
 23
0.0
 33
0.0
 16
1.0
 26
0.0
 36
0.0
 17
0.0
 27
1.0
 37
0.0
 76
     0
330
217
331
2CC
  0
LAYOUT
  5
36B
102
{ACAD_REACTORS
330
1A
102
}
330
1A
100
AcDbPlotSettings
  1

  2
none_device
  4

  6

 40
0.0
 41
0.0
 42
0.0
 43
0.0
 44
841.0
 45
594.0
 46
0.0
 47
0.0
 48
0.0
 49
0.0
140
0.0
141
0.0
142
1.0
143
1.0
 70
  1024
 72
     1
 73
     0
 74
     0
  7

 75
     0
 76
     0
 77
     2
 78
   300
147
1.0
148
0.0
149
0.0
100
AcDbLayout
  1
Model
 70
     0
 71
     0
 10
0.0
 20
0.0
 11
841.0
 21
594.0
 12
0.0
 22
0.0
 32
0.0
 14
0.0
 24
0.0
 34
0.0
 15
0.0
 25
0.0
 35
0.0
146
0.0
 13
0.0
 23
0.0
 33
0.0
 16
1.0
 26
0.0
 36
0.0
 17
0.0
 27
1.0
 37
0.0
 76
     0
330
216
331
1F4
  0
MATERIAL
  5
3AD
102
{ACAD_REACTORS
330
3AB
102
}
330
3AB
100
AcDbMaterial
  1
ByBlock
 72
     1
 94
      127
  0
MATERIAL
  5
3AC
102
{ACAD_REACTORS
330
3AB
102
}
330
3AB
100
AcDbMaterial
  1
ByLayer
 72
     1
 94
      127
  0
MATERIAL
  5
3AE
102
{ACAD_REACTORS
330
3AB
102
}
330
3AB
100
AcDbMaterial
  1
Global
 72
     1
 94
      127
  0
MLEADERSTYLE
  5
3B0
102
{ACAD_REACTORS
330
3AF
102
}
330
3AF
100
AcDbMLeaderStyle
179
     2
170
     2
171
     1
172
     0
 90
        2
 40
0.0
 41
0.0
173
     1
 91
-1056964608
340
14
 92
       -2
290
     1
 42
2.0
291
     1
 43
8.0
  3
Standard
341
0
 44
4.0
300

342
11
174
     1
178
     1
175
     1
176
     0
 93
-1056964608
 45
4.0
292
     0
297
     0
 46
4.0
343
0
 94
-1056964608
 47
1.0
 49
1.0
140
1.0
293
     1
141
0.0
294
     1
177
     0
142
1.0
295
     0
296
     0
143
3.75
271
     0
272
     9
273
     9
298
     0
  0
MLINESTYLE
  5
18
102
{ACAD_REACTORS
330
17
102
}
330
17
100
AcDbMlineStyle
  2
STANDARD
 70
     0
  3

 62
   256
 51
90.0
 52
90.0
 71
     2
 49
0.5
 62
   256
  6
BYLAYER
 49
-0.5
 62
   256
  6
BYLAYER
  0
ACDBPLACEHOLDER
  5
F
102
{ACAD_REACTORS
330
E
102
}
330
E
  0
SCALE
  5
370
102
{ACAD_REACTORS
330
36F
102
}
330
36F
100
AcDbScale
 70
     0
300
1:1
140
1.0
141
1.0
290
     1
  0
SCALE
  5
371
102
{ACAD_REACTORS
330
36F
102
}
330
36F
100
AcDbScale
 70
     0
300
1:2
140
1.0
141
2.0
290
     0
  0
SCALE
  5
372
102
{ACAD_REACTORS
330
36F
102
}
330
36F
100
AcDbScale
 70
     0
300
1:4
140
1.0
141
4.0
290
     0
  0
SCALE
  5
373
102
{ACAD_REACTORS
330
36F
102
}
330
36F
100
AcDbScale
 70
     0
300
1:5
140
1.0
141
5.0
290
     0
  0
SCALE
  5
374
102
{ACAD_REACTORS
330
36F
102
}
330
36F
100
AcDbScale
 70
     0
300
1:8
140
1.0
141
8.0
290
     0
  0
SCALE
  5
375
102
{ACAD_REACTORS
330
36F
102
}
330
36F
100
AcDbScale
 70
     0
300
1:10
140
1.0
141
10.0
290
     0
  0
SCALE
  5
376
102
{ACAD_REACTORS
330
36F
102
}
330
36F
100
AcDbScale
 70
     0
300
1:16
140
1.0
141
16.0
290
     0
  0
SCALE
  5
377
102
{ACAD_REACTORS
330
36F
102
}
330
36F
100
AcDbScale
 70
     0
300
1:20
140
1.0
141
20.0
290
     0
  0
SCALE
  5
378
102
{ACAD_REACTORS
330
36F
102
}
330
36F
100
AcDbScale
 70
     0
300
1:30
140
1.0
141
30.0
290
     0
  0
SCALE
  5
379
102
{ACAD_REACTORS
330
36F
102
}
330
36F
100
AcDbScale
 70
     0
300
1:40
140
1.0
141
40.0
290
     0
  0
SCALE
  5
37A
102
{ACAD_REACTORS
330
36F
102
}
330
36F
100
AcDbScale
 70
     0
300
1:50
140
1.0
141
50.0
290
     0
  0
SCALE
  5
37B
102
{ACAD_REACTORS
330
36F
102
}
330
36F
100
AcDbScale
 70
     0
300
1:100
140
1.0
141
100.0
290
     0
  0
SCALE
  5
37C
102
{ACAD_REACTORS
330
36F
102
}
330
36F
100
AcDbScale
 70
     0
300
2:1
140
2.0
141
1.0
290
     0
  0
SCALE
  5
37D
102
{ACAD_REACTORS
330
36F
102
}
330
36F
100
AcDbScale
 70
     0
300
4:1
140
4.0
141
1.0
290
     0
  0
SCALE
  5
37E
102
{ACAD_REACTORS
330
36F
102
}
330
36F
100
AcDbScale
 70
     0
300
8:1
140
8.0
141
1.0
290
     0
  0
SCALE
  5
37F
102
{ACAD_REACTORS
330
36F
102
}
330
36F
100
AcDbScale
 70
     0
300
10:1
140
10.0
141
1.0
290
     0
  0
SCALE
  5
380
102
{ACAD_REACTORS
330
36F
102
}
330
36F
100
AcDbScale
 70
     0
300
100:1
140
100.0
141
1.0
290
     0
  0
SCALE
  5
381
102
{ACAD_REACTORS
330
36F
102
}
330
36F
100
AcDbScale
 70
     0
300
1/128" = 1'-0"
140
0.0078125
141
12.0
290
     0
  0
SCALE
  5
382
102
{ACAD_REACTORS
330
36F
102
}
330
36F
100
AcDbScale
 70
     0
300
1/64" = 1'-0"
140
0.015625
141
12.0
290
     0
  0
SCALE
  5
383
102
{ACAD_REACTORS
330
36F
102
}
330
36F
100
AcDbScale
 70
     0
300
1/32" = 1'-0"
140
0.03125
141
12.0
290
     0
  0
SCALE
  5
384
102
{ACAD_REACTORS
330
36F
102
}
330
36F
100
AcDbScale
 70
     0
300
1/16" = 1'-0"
140
0.0625
141
12.0
290
     0
  0
SCALE
  5
385
102
{ACAD_REACTORS
330
36F
102
}
330
36F
100
AcDbScale
 70
     0
300
3/32" = 1'-0"
140
0.09375
141
12.0
290
     0
  0
SCALE
  5
386
102
{ACAD_REACTORS
330
36F
102
}
330
36F
100
AcDbScale
 70
     0
300
1/8" = 1'-0"
140
0.125
141
12.0
290
     0
  0
SCALE
  5
387
102
{ACAD_REACTORS
330
36F
102
}
330
36F
100
AcDbScale
 70
     0
300
3/16" = 1'-0"
140
0.1875
141
12.0
290
     0
  0
SCALE
  5
388
102
{ACAD_REACTORS
330
36F
102
}
330
36F
100
AcDbScale
 70
     0
300
1/4" = 1'-0"
140
0.25
141
12.0
290
     0
  0
SCALE
  5
389
102
{ACAD_REACTORS
330
36F
102
}
330
36F
100
AcDbScale
 70
     0
300
3/8" = 1'-0"
140
0.375
141
12.0
290
     0
  0
SCALE
  5
38A
102
{ACAD_REACTORS
330
36F
102
}
330
36F
100
AcDbScale
 70
     0
300
1/2" = 1'-0"
140
0.5
141
12.0
290
     0
  0
SCALE
  5
38B
102
{ACAD_REACTORS
330
36F
102
}
330
36F
100
AcDbScale
 70
     0
300
3/4" = 1'-0"
140
0.75
141
12.0
290
     0
  0
SCALE
  5
38C
102
{ACAD_REACTORS
330
36F
102
}
330
36F
100
AcDbScale
 70
     0
300
1" = 1'-0"
140
1.0
141
12.0
290
     0
  0
SCALE
  5
38D
102
{ACAD_REACTORS
330
36F
102
}
330
36F
100
AcDbScale
 70
     0
300
1-1/2" = 1'-0"
140
1.5
141
12.0
290
     0
  0
SCALE
  5
38E
102
{ACAD_REACTORS
330
36F
102
}
330
36F
100
AcDbScale
 70
     0
300
3" = 1'-0"
140
3.0
141
12.0
290
     0
  0
SCALE
  5
38F
102
{ACAD_REACTORS
330
36F
102
}
330
36F
100
AcDbScale
 70
     0
300
6" = 1'-0"
140
6.0
141
12.0
290
     0
  0
SCALE
  5
390
102
{ACAD_REACTORS
330
36F
102
}
330
36F
100
AcDbScale
 70
     0
300
1'-0" = 1'-0"
140
12.0
141
12.0
290
     0
  0
TABLESTYLE
  5
36D
102
{ACAD_REACTORS
330
36A
330
2D2
102
}
102
{ACAD_XDICTIONARY
360
3BE
102
}
330
36A
100
AcDbTableStyle
  3
Standard
 70
     0
 71
     0
 40
0.06
 41
0.06
280
     1
281
     1
  7
STANDARD
140
0.18
170
     1
 62
     0
 63
   257
283
     0
 90
        4
 91
        0
  1

274
    -2
284
     1
 64
     0
275
    -2
285
     1
 65
     0
276
    -2
286
     1
 66
     0
277
    -2
287
     1
 67
     0
278
    -2
288
     1
 68
     0
279
    -2
289
     1
 69
     0
  7
STANDARD
140
0.18
170
     1
 62
     0
 63
   257
283
     0
 90
        4
 91
        0
  1

274
    -2
284
     1
 64
     0
275
    -2
285
     1
 65
     0
276
    -2
286
     1
 66
     0
277
    -2
287
     1
 67
     0
278
    -2
288
     1
 68
     0
279
    -2
289
     1
 69
     0
  7
STANDARD
140
0.18
170
     1
 62
     0
 63
   257
283
     0
 90
        4
 91
        0
  1

274
    -2
284
     1
 64
     0
275
    -2
285
     1
 65
     0
276
    -2
286
     1
 66
     0
277
    -2
287
     1
 67
     0
278
    -2
288
     1
 68
     0
279
    -2
289
     1
 69
     0
  0
TABLESTYLE
  5
36E
102
{ACAD_REACTORS
330
36A
102
}
102
{ACAD_XDICTIONARY
360
3C0
102
}
330
36A
100
AcDbTableStyle
  3
Standard1
 70
     1
 71
     0
 40
0.06
 41
0.06
280
     1
281
     1
  7
STANDARD
140
0.18
170
     1
 62
     0
 63
   257
283
     0
 90
        4
 91
        0
  1

274
    -2
284
     1
 64
     0
275
    -2
285
     1
 65
     0
276
    -2
286
     1
 66
     0
277
    -2
287
     1
 67
     0
278
    -2
288
     1
 68
     0
279
    -2
289
     1
 69
     0
  7
STANDARD
140
0.18
170
     1
 62
     0
 63
   257
283
     0
 90
        4
 91
        0
  1

274
    -2
284
     1
 64
     0
275
    -2
285
     1
 65
     0
276
    -2
286
     1
 66
     0
277
    -2
287
     1
 67
     0
278
    -2
288
     1
 68
     0
279
    -2
289
     1
 69
     0
  7
STANDARD
140
0.18
170
     1
 62
     0
 63
   257
283
     0
 90
        4
 91
        0
  1

274
    -2
284
     1
 64
     0
275
    -2
285
     1
 65
     0
276
    -2
286
     1
 66
     0
277
    -2
287
     1
 67
     0
278
    -2
288
     1
 68
     0
279
    -2
289
     1
 69
     0
  0
VISUALSTYLE
  5
396
102
{ACAD_REACTORS
330
391
102
}
330
391
100
AcDbVisualStyle
  2
2dWireframe
 70
     4
177
     3
291
     0
 70
    58
 90
        0
176
     1
 90
        2
176
     1
 90
        0
176
     1
 90
        0
176
     1
 40
0.6
176
     1
 40
30.0
176
     1
 62
     7
420
 16777215
176
     1
 90
        1
176
     1
 90
        4
176
     1
 62
     7
176
     1
 62
   257
176
     1
 90
        1
176
     1
 90
        1
176
     1
 40
1.0
176
     1
 90
        0
176
     1
 62
   257
176
     1
 40
1.0
176
     1
 90
        1
176
     1
 90
        6
176
     1
 90
        2
176
     1
 62
     7
176
     1
 90
        5
176
     1
 90
        0
176
     1
 90
        0
176
     1
290
     0
176
     1
 90
        1
176
     1
 40
0.0
176
     1
 90
        0
176
     1
290
     1
176
     1
290
     1
176
     1
290
     0
176
     1
290
     0
176
     1
290
     0
176
     1
290
     0
176
     1
290
     0
176
     1
290
     0
176
     1
290
     0
176
     1
 90
       50
176
     1
 40
0.0
176
     1
 40
1.0
176
     1
 90
        0
176
     1
 62
    18
420
        0
176
     1
 90
       50
176
     1
 90
        3
176
     1
 62
     5
420
      255
176
     1
290
     0
176
     1
 90
       50
176
     1
 90
       50
176
     1
 90
       50
176
     1
290
     0
176
     1
 90
       50
176
     1
 62
   256
176
     0
 40
1.0
176
     0
 90
        2
176
     1
  1
strokes_ogs.tif
176
     1
290
     0
176
     1
 40
1.0
176
     1
 40
1.0
176
     1
  0
VISUALSTYLE
  5
399
102
{ACAD_REACTORS
330
391
102
}
330
391
100
AcDbVisualStyle
  2
Basic
 70
     7
177
     3
291
     1
 70
    58
 90
        1
176
     1
 90
        0
176
     1
 90
        1
176
     1
 90
        0
176
     1
 40
0.6
176
     1
 40
30.0
176
     1
 62
     7
420
 16777215
176
     1
 90
        0
176
     1
 90
        4
176
     1
 62
     7
176
     1
 62
   257
176
     1
 90
        1
176
     1
 90
        1
176
     1
 40
1.0
176
     1
 90
        8
176
     1
 62
     7
176
     1
 40
1.0
176
     1
 90
        1
176
     1
 90
        6
176
     1
 90
        2
176
     1
 62
     7
176
     1
 90
        5
176
     1
 90
        0
176
     1
 90
        0
176
     1
290
     0
176
     1
 90
        1
176
     1
 40
0.0
176
     1
 90
        0
176
     1
290
     0
176
     1
290
     1
176
     1
290
     1
176
     1
290
     0
176
     1
290
     0
176
     1
290
     0
176
     1
290
     0
176
     1
290
     0
176
     1
290
     0
176
     1
 90
       50
176
     1
 40
0.0
176
     1
 40
1.0
176
     1
 90
        0
176
     1
 62
    18
420
        0
176
     1
 90
       50
176
     1
 90
        3
176
     1
 62
     5
420
      255
176
     1
290
     0
176
     1
 90
       50
176
     1
 90
       50
176
     1
 90
       50
176
     1
290
     0
176
     1
 90
       50
176
     1
 62
   256
176
     0
 40
1.0
176
     0
 90
        2
176
     1
  1
strokes_ogs.tif
176
     1
290
     0
176
     1
 40
1.0
176
     1
 40
1.0
176
     1
  0
VISUALSTYLE
  5
39D
102
{ACAD_REACTORS
330
391
102
}
330
391
100
AcDbVisualStyle
  2
Brighten
 70
    12
177
     3
291
     1
 70
    58
 90
        2
176
     1
 90
        2
176
     1
 90
        0
176
     1
 90
        0
176
     1
 40
0.6
176
     1
 40
30.0
176
     1
 62
     7
420
 16777215
176
     1
 90
        1
176
     1
 90
        4
176
     1
 62
     7
176
     1
 62
   257
176
     1
 90
        1
176
     1
 90
        1
176
     1
 40
1.0
176
     1
 90
        8
176
     1
 62
     7
176
     1
 40
1.0
176
     1
 90
        1
176
     1
 90
        6
176
     1
 90
        2
176
     1
 62
     7
176
     1
 90
        5
176
     1
 90
        0
176
     1
 90
        0
176
     1
290
     0
176
     1
 90
        1
176
     1
 40
50.0
176
     1
 90
        0
176
     1
290
     0
176
     1
290
     1
176
     1
290
     1
176
     1
290
     0
176
     1
290
     0
176
     1
290
     0
176
     1
290
     0
176
     1
290
     0
176
     1
290
     0
176
     1
 90
       50
176
     1
 40
0.0
176
     1
 40
1.0
176
     1
 90
        0
176
     1
 62
    18
420
        0
176
     1
 90
       50
176
     1
 90
        3
176
     1
 62
     5
420
      255
176
     1
290
     0
176
     1
 90
       50
176
     1
 90
       50
176
     1
 90
       50
176
     1
290
     0
176
     1
 90
       50
176
     1
 62
   256
176
     0
 40
1.0
176
     0
 90
        2
176
     1
  1
strokes_ogs.tif
176
     1
290
     0
176
     1
 40
1.0
176
     1
 40
1.0
176
     1
  0
VISUALSTYLE
  5
3A1
102
{ACAD_REACTORS
330
391
102
}
330
391
100
AcDbVisualStyle
  2
ColorChange
 70
    16
177
     3
291
     1
 70
    58
 90
        2
176
     1
 90
        2
176
     1
 90
        3
176
     1
 90
        0
176
     1
 40
0.6
176
     1
 40
30.0
176
     1
 62
     8
420
  8421504
176
     1
 90
        1
176
     1
 90
        4
176
     1
 62
     7
176
     1
 62
   257
176
     1
 90
        1
176
     1
 90
        1
176
     1
 40
1.0
176
     1
 90
        8
176
     1
 62
     8
420
  8421504
176
     1
 40
1.0
176
     1
 90
        1
176
     1
 90
        6
176
     1
 90
        2
176
     1
 62
     7
176
     1
 90
        5
176
     1
 90
        0
176
     1
 90
        0
176
     1
290
     0
176
     1
 90
        1
176
     1
 40
0.0
176
     1
 90
        0
176
     1
290
     0
176
     1
290
     1
176
     1
290
     1
176
     1
290
     0
176
     1
290
     0
176
     1
290
     0
176
     1
290
     0
176
     1
290
     0
176
     1
290
     0
176
     1
 90
       50
176
     1
 40
0.0
176
     1
 40
1.0
176
     1
 90
        0
176
     1
 62
    18
420
        0
176
     1
 90
       50
176
     1
 90
        3
176
     1
 62
     5
420
      255
176
     1
290
     0
176
     1
 90
       50
176
     1
 90
       50
176
     1
 90
       50
176
     1
290
     0
176
     1
 90
       50
176
     1
 62
   256
176
     0
 40
1.0
176
     0
 90
        2
176
     1
  1
strokes_ogs.tif
176
     1
290
     0
176
     1
 40
1.0
176
     1
 40
1.0
176
     1
  0
VISUALSTYLE
  5
39B
102
{ACAD_REACTORS
330
391
102
}
330
391
100
AcDbVisualStyle
  2
Conceptual
 70
     9
177
     3
291
     0
 70
    58
 90
        3
176
     1
 90
        2
176
     1
 90
        0
176
     1
 90
        0
176
     1
 40
0.6
176
     1
 40
30.0
176
     1
 62
     7
420
 16777215
176
     1
 90
        2
176
     1
 90
        2
176
     1
 62
     7
176
     1
 62
   257
176
     1
 90
        1
176
     1
 90
        1
176
     1
 40
179.0
176
     1
 90
        8
176
     1
 62
     7
176
     1
 40
1.0
176
     1
 90
        1
176
     1
 90
        6
176
     1
 90
        2
176
     1
 62
     7
176
     1
 90
        3
176
     1
 90
        0
176
     1
 90
        0
176
     1
290
     0
176
     1
 90
        1
176
     1
 40
0.0
176
     1
 90
        0
176
     1
290
     0
176
     1
290
     1
176
     1
290
     1
176
     1
290
     0
176
     1
290
     0
176
     1
290
     0
176
     1
290
     0
176
     1
290
     0
176
     1
290
     0
176
     1
 90
       50
176
     1
 40
0.0
176
     1
 40
1.0
176
     1
 90
        0
176
     1
 62
    18
420
        0
176
     1
 90
       50
176
     1
 90
        3
176
     1
 62
     5
420
      255
176
     1
290
     0
176
     1
 90
       50
176
     1
 90
       50
176
     1
 90
       50
176
     1
290
     0
176
     1
 90
       50
176
     1
 62
   256
176
     0
 40
1.0
176
     0
 90
        2
176
     1
  1
strokes_ogs.tif
176
     1
290
     0
176
     1
 40
1.0
176
     1
 40
1.0
176
     1
  0
VISUALSTYLE
  5
39C
102
{ACAD_REACTORS
330
391
102
}
330
391
100
AcDbVisualStyle
  2
Dim
 70
    11
177
     3
291
     1
 70
    58
 90
        2
176
     1
 90
        2
176
     1
 90
        0
176
     1
 90
        0
176
     1
 40
0.6
176
     1
 40
30.0
176
     1
 62
     7
420
 16777215
176
     1
 90
        1
176
     1
 90
        4
176
     1
 62
     7
176
     1
 62
   257
176
     1
 90
        1
176
     1
 90
        1
176
     1
 40
1.0
176
     1
 90
        8
176
     1
 62
     7
176
     1
 40
1.0
176
     1
 90
        1
176
     1
 90
        6
176
     1
 90
        2
176
     1
 62
     7
176
     1
 90
        5
176
     1
 90
        0
176
     1
 90
        0
176
     1
290
     0
176
     1
 90
        1
176
     1
 40
-50.0
176
     1
 90
        0
176
     1
290
     0
176
     1
290
     1
176
     1
290
     1
176
     1
290
     0
176
     1
290
     0
176
     1
290
     0
176
     1
290
     0
176
     1
290
     0
176
     1
290
     0
176
     1
 90
       50
176
     1
 40
0.0
176
     1
 40
1.0
176
     1
 90
        0
176
     1
 62
    18
420
        0
176
     1
 90
       50
176
     1
 90
        3
176
     1
 62
     5
420
      255
176
     1
290
     0
176
     1
 90
       50
176
     1
 90
       50
176
     1
 90
       50
176
     1
290
     0
176
     1
 90
       50
176
     1
 62
   256
176
     0
 40
1.0
176
     0
 90
        2
176
     1
  1
strokes_ogs.tif
176
     1
290
     0
176
     1
 40
1.0
176
     1
 40
1.0
176
     1
  0
VISUALSTYLE
  5
3A4
102
{ACAD_REACTORS
330
391
102
}
330
391
100
AcDbVisualStyle
  2
EdgeColorOff
 70
    22
177
     3
291
     1
 70
    58
 90
        2
176
     0
 90
        2
176
     0
 90
        0
176
     0
 90
        0
176
     0
 40
0.6
176
     0
 40
30.0
176
     0
 62
     7
420
 16777215
176
     0
 90
        1
176
     0
 90
        4
176
     0
 62
     7
176
     0
 62
   257
176
     0
 90
        1
176
     0
 90
        1
176
     0
 40
1.0
176
     0
 90
        8
176
     2
 62
     7
176
     0
 40
1.0
176
     0
 90
        1
176
     0
 90
        6
176
     0
 90
        2
176
     0
 62
     7
176
     0
 90
        5
176
     0
 90
        0
176
     0
 90
        0
176
     0
290
     0
176
     0
 90
        1
176
     0
 40
0.0
176
     0
 90
        0
176
     0
290
     0
176
     0
290
     1
176
     0
290
     1
176
     0
290
     0
176
     0
290
     0
176
     0
290
     0
176
     0
290
     0
176
     0
290
     0
176
     0
290
     0
176
     0
 90
       50
176
     0
 40
0.0
176
     0
 40
1.0
176
     0
 90
        0
176
     0
 62
    18
420
        0
176
     0
 90
       50
176
     0
 90
        3
176
     0
 62
     5
420
      255
176
     0
290
     0
176
     0
 90
       50
176
     0
 90
       50
176
     0
 90
       50
176
     0
290
     0
176
     0
 90
       50
176
     0
 62
   256
176
     0
 40
1.0
176
     0
 90
        2
176
     0
  1
strokes_ogs.tif
176
     0
290
     0
176
     0
 40
1.0
176
     0
 40
1.0
176
     0
  0
VISUALSTYLE
  5
3A0
102
{ACAD_REACTORS
330
391
102
}
330
391
100
AcDbVisualStyle
  2
Facepattern
 70
    15
177
     3
291
     1
 70
    58
 90
        2
176
     1
 90
        2
176
     1
 90
        0
176
     1
 90
        0
176
     1
 40
0.6
176
     1
 40
30.0
176
     1
 62
     7
420
 16777215
176
     1
 90
        1
176
     1
 90
        4
176
     1
 62
     7
176
     1
 62
   257
176
     1
 90
        1
176
     1
 90
        1
176
     1
 40
1.0
176
     1
 90
        8
176
     1
 62
     7
176
     1
 40
1.0
176
     1
 90
        1
176
     1
 90
        6
176
     1
 90
        2
176
     1
 62
     7
176
     1
 90
        5
176
     1
 90
        0
176
     1
 90
        0
176
     1
290
     0
176
     1
 90
        1
176
     1
 40
0.0
176
     1
 90
        0
176
     1
290
     0
176
     1
290
     1
176
     1
290
     1
176
     1
290
     0
176
     1
290
     0
176
     1
290
     0
176
     1
290
     0
176
     1
290
     0
176
     1
290
     0
176
     1
 90
       50
176
     1
 40
0.0
176
     1
 40
1.0
176
     1
 90
        0
176
     1
 62
    18
420
        0
176
     1
 90
       50
176
     1
 90
        3
176
     1
 62
     5
420
      255
176
     1
290
     0
176
     1
 90
       50
176
     1
 90
       50
176
     1
 90
       50
176
     1
290
     0
176
     1
 90
       50
176
     1
 62
   256
176
     0
 40
1.0
176
     0
 90
        2
176
     1
  1
strokes_ogs.tif
176
     1
290
     0
176
     1
 40
1.0
176
     1
 40
1.0
176
     1
  0
VISUALSTYLE
  5
392
102
{ACAD_REACTORS
330
391
102
}
330
391
100
AcDbVisualStyle
  2
Flat
 70
     0
177
     3
291
     1
 70
    58
 90
        2
176
     1
 90
        1
176
     1
 90
        1
176
     1
 90
        2
176
     1
 40
0.6
176
     1
 40
30.0
176
     1
 62
     7
420
 16777215
176
     1
 90
        0
176
     1
 90
        0
176
     1
 62
     7
176
     1
 62
   257
176
     1
 90
        1
176
     1
 90
        1
176
     1
 40
1.0
176
     1
 90
        8
176
     1
 62
     7
176
     1
 40
1.0
176
     1
 90
        1
176
     1
 90
        6
176
     1
 90
        2
176
     1
 62
     7
176
     1
 90
        5
176
     1
 90
        0
176
     1
 90
        0
176
     1
290
     0
176
     1
 90
       13
176
     1
 40
0.0
176
     1
 90
        0
176
     1
290
     0
176
     1
290
     1
176
     1
290
     1
176
     1
290
     0
176
     1
290
     0
176
     1
290
     0
176
     1
290
     0
176
     1
290
     0
176
     1
290
     0
176
     1
 90
       50
176
     1
 40
0.0
176
     1
 40
1.0
176
     1
 90
        0
176
     1
 62
    18
420
        0
176
     1
 90
       50
176
     1
 90
        3
176
     1
 62
     5
420
      255
176
     1
290
     0
176
     1
 90
       50
176
     1
 90
       50
176
     1
 90
       50
176
     1
290
     0
176
     1
 90
       50
176
     1
 62
   256
176
     0
 40
1.0
176
     0
 90
        2
176
     1
  1
strokes_ogs.tif
176
     1
290
     0
176
     1
 40
1.0
176
     1
 40
1.0
176
     1
  0
VISUALSTYLE
  5
393
102
{ACAD_REACTORS
330
391
102
}
330
391
100
AcDbVisualStyle
  2
FlatWithEdges
 70
     1
177
     3
291
     1
 70
    58
 90
        2
176
     1
 90
        1
176
     1
 90
        1
176
     1
 90
        2
176
     1
 40
0.6
176
     1
 40
30.0
176
     1
 62
     7
420
 16777215
176
     1
 90
        1
176
     1
 90
        0
176
     1
 62
     7
176
     1
 62
   257
176
     1
 90
        1
176
     1
 90
        1
176
     1
 40
1.0
176
     1
 90
        0
176
     1
 62
   257
176
     1
 40
1.0
176
     1
 90
        1
176
     1
 90
        6
176
     1
 90
        2
176
     1
 62
     7
176
     1
 90
        5
176
     1
 90
        0
176
     1
 90
        0
176
     1
290
     0
176
     1
 90
       13
176
     1
 40
0.0
176
     1
 90
        0
176
     1
290
     0
176
     1
290
     1
176
     1
290
     1
176
     1
290
     0
176
     1
290
     0
176
     1
290
     0
176
     1
290
     0
176
     1
290
     0
176
     1
290
     0
176
     1
 90
       50
176
     1
 40
0.0
176
     1
 40
1.0
176
     1
 90
        0
176
     1
 62
    18
420
        0
176
     1
 90
       50
176
     1
 90
        3
176
     1
 62
     5
420
      255
176
     1
290
     0
176
     1
 90
       50
176
     1
 90
       50
176
     1
 90
       50
176
     1
290
     0
176
     1
 90
       50
176
     1
 62
   256
176
     0
 40
1.0
176
     0
 90
        2
176
     1
  1
strokes_ogs.tif
176
     1
290
     0
176
     1
 40
1.0
176
     1
 40
1.0
176
     1
  0
VISUALSTYLE
  5
394
102
{ACAD_REACTORS
330
391
102
}
330
391
100
AcDbVisualStyle
  2
Gouraud
 70
     2
177
     3
291
     1
 70
    58
 90
        2
176
     1
 90
        2
176
     1
 90
        1
176
     1
 90
        2
176
     1
 40
0.6
176
     1
 40
30.0
176
     1
 62
     7
420
 16777215
176
     1
 90
        0
176
     1
 90
        0
176
     1
 62
     7
176
     1
 62
   257
176
     1
 90
        1
176
     1
 90
        1
176
     1
 40
1.0
176
     1
 90
        0
176
     1
 62
     7
176
     1
 40
1.0
176
     1
 90
        1
176
     1
 90
        6
176
     1
 90
        2
176
     1
 62
     7
176
     1
 90
        5
176
     1
 90
        0
176
     1
 90
        0
176
     1
290
     0
176
     1
 90
       13
176
     1
 40
0.0
176
     1
 90
        0
176
     1
290
     0
176
     1
290
     1
176
     1
290
     1
176
     1
290
     0
176
     1
290
     0
176
     1
290
     0
176
     1
290
     0
176
     1
290
     0
176
     1
290
     0
176
     1
 90
       50
176
     1
 40
0.0
176
     1
 40
1.0
176
     1
 90
        0
176
     1
 62
    18
420
        0
176
     1
 90
       50
176
     1
 90
        3
176
     1
 62
     5
420
      255
176
     1
290
     0
176
     1
 90
       50
176
     1
 90
       50
176
     1
 90
       50
176
     1
290
     0
176
     1
 90
       50
176
     1
 62
   256
176
     0
 40
1.0
176
     0
 90
        2
176
     1
  1
strokes_ogs.tif
176
     1
290
     0
176
     1
 40
1.0
176
     1
 40
1.0
176
     1
  0
VISUALSTYLE
  5
395
102
{ACAD_REACTORS
330
391
102
}
330
391
100
AcDbVisualStyle
  2
GouraudWithEdges
 70
     3
177
     3
291
     1
 70
    58
 90
        2
176
     1
 90
        2
176
     1
 90
        1
176
     1
 90
        2
176
     1
 40
0.6
176
     1
 40
30.0
176
     1
 62
     7
420
 16777215
176
     1
 90
        1
176
     1
 90
        0
176
     1
 62
     7
176
     1
 62
   257
176
     1
 90
        1
176
     1
 90
        1
176
     1
 40
1.0
176
     1
 90
        0
176
     1
 62
   257
176
     1
 40
1.0
176
     1
 90
        1
176
     1
 90
        6
176
     1
 90
        2
176
     1
 62
     7
176
     1
 90
        5
176
     1
 90
        0
176
     1
 90
        0
176
     1
290
     0
176
     1
 90
       13
176
     1
 40
0.0
176
     1
 90
        0
176
     1
290
     0
176
     1
290
     1
176
     1
290
     1
176
     1
290
     0
176
     1
290
     0
176
     1
290
     0
176
     1
290
     0
176
     1
290
     0
176
     1
290
     0
176
     1
 90
       50
176
     1
 40
0.0
176
     1
 40
1.0
176
     1
 90
        0
176
     1
 62
    18
420
        0
176
     1
 90
       50
176
     1
 90
        3
176
     1
 62
     5
420
      255
176
     1
290
     0
176
     1
 90
       50
176
     1
 90
       50
176
     1
 90
       50
176
     1
290
     0
176
     1
 90
       50
176
     1
 62
   256
176
     0
 40
1.0
176
     0
 90
        2
176
     1
  1
strokes_ogs.tif
176
     1
290
     0
176
     1
 40
1.0
176
     1
 40
1.0
176
     1
  0
VISUALSTYLE
  5
398
102
{ACAD_REACTORS
330
391
102
}
330
391
100
AcDbVisualStyle
  2
Hidden
 70
     6
177
     3
291
     0
 70
    58
 90
        1
176
     1
 90
        2
176
     1
 90
        2
176
     1
 90
        0
176
     1
 40
0.6
176
     1
 40
30.0
176
     1
 62
     7
420
 16777215
176
     1
 90
        2
176
     1
 90
        2
176
     1
 62
     7
176
     1
 62
   257
176
     1
 90
        2
176
     1
 90
        1
176
     1
 40
40.0
176
     1
 90
        0
176
     1
 62
   257
176
     1
 40
1.0
176
     1
 90
        1
176
     1
 90
        6
176
     1
 90
        2
176
     1
 62
     7
176
     1
 90
        3
176
     1
 90
        0
176
     1
 90
        0
176
     1
290
     0
176
     1
 90
        1
176
     1
 40
0.0
176
     1
 90
        0
176
     1
290
     0
176
     1
290
     1
176
     1
290
     1
176
     1
290
     0
176
     1
290
     0
176
     1
290
     0
176
     1
290
     0
176
     1
290
     0
176
     1
290
     0
176
     1
 90
       50
176
     1
 40
0.0
176
     1
 40
1.0
176
     1
 90
        0
176
     1
 62
    18
420
        0
176
     1
 90
       50
176
     1
 90
        3
176
     1
 62
     5
420
      255
176
     1
290
     0
176
     1
 90
       50
176
     1
 90
       50
176
     1
 90
       50
176
     1
290
     0
176
     1
 90
       50
176
     1
 62
   256
176
     0
 40
1.0
176
     0
 90
        2
176
     1
  1
strokes_ogs.tif
176
     1
290
     0
176
     1
 40
1.0
176
     1
 40
1.0
176
     1
  0
VISUALSTYLE
  5
3A2
102
{ACAD_REACTORS
330
391
102
}
330
391
100
AcDbVisualStyle
  2
JitterOff
 70
    20
177
     3
291
     1
 70
    58
 90
        2
176
     0
 90
        2
176
     0
 90
        0
176
     0
 90
        0
176
     0
 40
0.6
176
     0
 40
30.0
176
     0
 62
     7
420
 16777215
176
     0
 90
        1
176
     0
 90
        4
176
     0
 62
     7
176
     0
 62
   257
176
     0
 90
        1
176
     0
 90
        1
176
     0
 40
1.0
176
     0
 90
       10
176
     2
 62
     7
176
     0
 40
1.0
176
     0
 90
        1
176
     0
 90
        6
176
     0
 90
        2
176
     0
 62
     7
176
     0
 90
        5
176
     0
 90
        0
176
     0
 90
        0
176
     0
290
     0
176
     0
 90
        1
176
     0
 40
0.0
176
     0
 90
        0
176
     0
290
     0
176
     0
290
     1
176
     0
290
     1
176
     0
290
     0
176
     0
290
     0
176
     0
290
     0
176
     0
290
     0
176
     0
290
     0
176
     0
290
     0
176
     0
 90
       50
176
     0
 40
0.0
176
     0
 40
1.0
176
     0
 90
        0
176
     0
 62
    18
420
        0
176
     0
 90
       50
176
     0
 90
        3
176
     0
 62
     5
420
      255
176
     0
290
     0
176
     0
 90
       50
176
     0
 90
       50
176
     0
 90
       50
176
     0
290
     0
176
     0
 90
       50
176
     0
 62
   256
176
     0
 40
1.0
176
     0
 90
        2
176
     0
  1
strokes_ogs.tif
176
     0
290
     0
176
     0
 40
1.0
176
     0
 40
1.0
176
     0
  0
VISUALSTYLE
  5
39F
102
{ACAD_REACTORS
330
391
102
}
330
391
100
AcDbVisualStyle
  2
Linepattern
 70
    14
177
     3
291
     1
 70
    58
 90
        2
176
     1
 90
        2
176
     1
 90
        0
176
     1
 90
        0
176
     1
 40
0.6
176
     1
 40
30.0
176
     1
 62
     7
420
 16777215
176
     1
 90
        1
176
     1
 90
        4
176
     1
 62
     7
176
     1
 62
   257
176
     1
 90
        7
176
     1
 90
        7
176
     1
 40
1.0
176
     1
 90
        8
176
     1
 62
     7
176
     1
 40
1.0
176
     1
 90
        1
176
     1
 90
        6
176
     1
 90
        2
176
     1
 62
     7
176
     1
 90
        5
176
     1
 90
        0
176
     1
 90
        0
176
     1
290
     0
176
     1
 90
        1
176
     1
 40
0.0
176
     1
 90
        0
176
     1
290
     0
176
     1
290
     1
176
     1
290
     1
176
     1
290
     0
176
     1
290
     0
176
     1
290
     0
176
     1
290
     0
176
     1
290
     0
176
     1
290
     0
176
     1
 90
       50
176
     1
 40
0.0
176
     1
 40
1.0
176
     1
 90
        0
176
     1
 62
    18
420
        0
176
     1
 90
       50
176
     1
 90
        3
176
     1
 62
     5
420
      255
176
     1
290
     0
176
     1
 90
       50
176
     1
 90
       50
176
     1
 90
       50
176
     1
290
     0
176
     1
 90
       50
176
     1
 62
   256
176
     0
 40
1.0
176
     0
 90
        2
176
     1
  1
strokes_ogs.tif
176
     1
290
     0
176
     1
 40
1.0
176
     1
 40
1.0
176
     1
  0
VISUALSTYLE
  5
3A3
102
{ACAD_REACTORS
330
391
102
}
330
391
100
AcDbVisualStyle
  2
OverhangOff
 70
    21
177
     3
291
     1
 70
    58
 90
        2
176
     0
 90
        2
176
     0
 90
        0
176
     0
 90
        0
176
     0
 40
0.6
176
     0
 40
30.0
176
     0
 62
     7
420
 16777215
176
     0
 90
        1
176
     0
 90
        4
176
     0
 62
     7
176
     0
 62
   257
176
     0
 90
        1
176
     0
 90
        1
176
     0
 40
1.0
176
     0
 90
        9
176
     2
 62
     7
176
     0
 40
1.0
176
     0
 90
        1
176
     0
 90
        6
176
     0
 90
        2
176
     0
 62
     7
176
     0
 90
        5
176
     0
 90
        0
176
     0
 90
        0
176
     0
290
     0
176
     0
 90
        1
176
     0
 40
0.0
176
     0
 90
        0
176
     0
290
     0
176
     0
290
     1
176
     0
290
     1
176
     0
290
     0
176
     0
290
     0
176
     0
290
     0
176
     0
290
     0
176
     0
290
     0
176
     0
290
     0
176
     0
 90
       50
176
     0
 40
0.0
176
     0
 40
1.0
176
     0
 90
        0
176
     0
 62
    18
420
        0
176
     0
 90
       50
176
     0
 90
        3
176
     0
 62
     5
420
      255
176
     0
290
     0
176
     0
 90
       50
176
     0
 90
       50
176
     0
 90
       50
176
     0
290
     0
176
     0
 90
       50
176
     0
 62
   256
176
     0
 40
1.0
176
     0
 90
        2
176
     0
  1
strokes_ogs.tif
176
     0
290
     0
176
     0
 40
1.0
176
     0
 40
1.0
176
     0
  0
VISUALSTYLE
  5
39A
102
{ACAD_REACTORS
330
391
102
}
330
391
100
AcDbVisualStyle
  2
Realistic
 70
     8
177
     3
291
     0
 70
    58
 90
        2
176
     1
 90
        3
176
     1
 90
        0
176
     1
 90
        2
176
     1
 40
0.6
176
     1
 40
30.0
176
     1
 62
     7
420
 16777215
176
     1
 90
        0
176
     1
 90
        0
176
     1
 62
     7
176
     1
 62
   257
176
     1
 90
        1
176
     1
 90
        1
176
     1
 40
1.0
176
     1
 90
        8
176
     1
 62
   257
176
     1
 40
1.0
176
     1
 90
        1
176
     1
 90
        6
176
     1
 90
        2
176
     1
 62
     7
176
     1
 90
        3
176
     1
 90
        0
176
     1
 90
        0
176
     1
290
     0
176
     1
 90
       13
176
     1
 40
0.0
176
     1
 90
        0
176
     1
290
     0
176
     1
290
     1
176
     1
290
     1
176
     1
290
     0
176
     1
290
     0
176
     1
290
     0
176
     1
290
     0
176
     1
290
     0
176
     1
290
     0
176
     1
 90
       50
176
     1
 40
0.0
176
     1
 40
1.0
176
     1
 90
        0
176
     1
 62
    18
420
        0
176
     1
 90
       50
176
     1
 90
        3
176
     1
 62
     5
420
      255
176
     1
290
     0
176
     1
 90
       50
176
     1
 90
       50
176
     1
 90
       50
176
     1
290
     0
176
     1
 90
       50
176
     1
 62
   256
176
     0
 40
1.0
176
     0
 90
        2
176
     1
  1
strokes_ogs.tif
176
     1
290
     0
176
     1
 40
1.0
176
     1
 40
1.0
176
     1
  0
VISUALSTYLE
  5
3A9
102
{ACAD_REACTORS
330
391
102
}
330
391
100
AcDbVisualStyle
  2
Shaded
 70
    27
177
     3
291
     0
 70
    58
 90
        2
176
     1
 90
        2
176
     1
 90
        1
176
     1
 90
        2
176
     1
 40
0.6
176
     1
 40
30.0
176
     1
 62
     7
420
 16777215
176
     1
 90
        0
176
     1
 90
        4
176
     1
 62
     7
176
     1
 62
   257
176
     1
 90
        1
176
     1
 90
        1
176
     1
 40
1.0
176
     1
 90
        8
176
     1
 62
   257
176
     1
 40
1.0
176
     1
 90
        1
176
     1
 90
        6
176
     1
 90
        2
176
     1
 62
     8
420
  7895160
176
     1
 90
        3
176
     1
 90
        0
176
     1
 90
        0
176
     1
290
     0
176
     1
 90
        5
176
     1
 40
0.0
176
     1
 90
        0
176
     1
290
     0
176
     1
290
     1
176
     1
290
     1
176
     1
290
     0
176
     1
290
     0
176
     1
290
     0
176
     1
290
     0
176
     1
290
     0
176
     1
290
     0
176
     1
 90
       50
176
     1
 40
0.0
176
     1
 40
1.0
176
     1
 90
        0
176
     1
 62
    18
420
        0
176
     1
 90
       50
176
     1
 90
        3
176
     1
 62
     5
420
      255
176
     1
290
     0
176
     1
 90
       50
176
     1
 90
       50
176
     1
 90
       50
176
     1
290
     0
176
     1
 90
       50
176
     1
 62
   256
176
     0
 40
1.0
176
     0
 90
        2
176
     1
  1
strokes_ogs.tif
176
     1
290
     0
176
     1
 40
1.0
176
     1
 40
1.0
176
     1
  0
VISUALSTYLE
  5
3A8
102
{ACAD_REACTORS
330
391
102
}
330
391
100
AcDbVisualStyle
  2
Shaded with edges
 70
    26
177
     3
291
     0
 70
    58
 90
        2
176
     1
 90
        2
176
     1
 90
        1
176
     1
 90
        2
176
     1
 40
0.6
176
     1
 40
30.0
176
     1
 62
     7
420
 16777215
176
     1
 90
        1
176
     1
 90
       10
176
     1
 62
     7
176
     1
 62
   257
176
     1
 90
        2
176
     1
 90
        1
176
     1
 40
1.0
176
     1
 90
        8
176
     1
 62
   257
176
     1
 40
1.0
176
     1
 90
        1
176
     1
 90
        6
176
     1
 90
        2
176
     1
 62
     7
176
     1
 90
        3
176
     1
 90
        0
176
     1
 90
        0
176
     1
290
     0
176
     1
 90
        5
176
     1
 40
0.0
176
     1
 90
        0
176
     1
290
     0
176
     1
290
     1
176
     1
290
     1
176
     1
290
     0
176
     1
290
     0
176
     1
290
     0
176
     1
290
     0
176
     1
290
     0
176
     1
290
     0
176
     1
 90
       50
176
     1
 40
0.0
176
     1
 40
1.0
176
     1
 90
        0
176
     1
 62
    18
420
        0
176
     1
 90
       50
176
     1
 90
        3
176
     1
 62
     5
420
      255
176
     1
290
     0
176
     1
 90
       50
176
     1
 90
       50
176
     1
 90
       50
176
     1
290
     0
176
     1
 90
       50
176
     1
 62
   256
176
     0
 40
1.0
176
     0
 90
        2
176
     1
  1
strokes_ogs.tif
176
     1
290
     0
176
     1
 40
1.0
176
     1
 40
1.0
176
     1
  0
VISUALSTYLE
  5
3A5
102
{ACAD_REACTORS
330
391
102
}
330
391
100
AcDbVisualStyle
  2
Shades of Gray
 70
    23
177
     3
291
     0
 70
    58
 90
        2
176
     1
 90
        2
176
     1
 90
        3
176
     1
 90
        0
176
     1
 40
0.6
176
     1
 40
30.0
176
     1
 62
     7
420
 16777215
176
     1
 90
        2
176
     1
 90
        2
176
     1
 62
     7
176
     1
 62
     7
176
     1
 90
        1
176
     1
 90
        1
176
     1
 40
40.0
176
     1
 90
        8
176
     1
 62
     7
176
     1
 40
1.0
176
     1
 90
        1
176
     1
 90
        6
176
     1
 90
        2
176
     1
 62
     7
176
     1
 90
        3
176
     1
 90
        0
176
     1
 90
        0
176
     1
290
     0
176
     1
 90
        1
176
     1
 40
0.0
176
     1
 90
        0
176
     1
290
     0
176
     1
290
     1
176
     1
290
     1
176
     1
290
     0
176
     1
290
     0
176
     1
290
     0
176
     1
290
     0
176
     1
290
     0
176
     1
290
     0
176
     1
 90
       50
176
     1
 40
0.0
176
     1
 40
1.0
176
     1
 90
        0
176
     1
 62
    18
420
        0
176
     1
 90
       50
176
     1
 90
        3
176
     1
 62
     5
420
      255
176
     1
290
     0
176
     1
 90
       50
176
     1
 90
       50
176
     1
 90
       50
176
     1
290
     0
176
     1
 90
       50
176
     1
 62
   256
176
     0
 40
1.0
176
     0
 90
        2
176
     1
  1
strokes_ogs.tif
176
     1
290
     0
176
     1
 40
1.0
176
     1
 40
1.0
176
     1
  0
VISUALSTYLE
  5
3A6
102
{ACAD_REACTORS
330
391
102
}
330
391
100
AcDbVisualStyle
  2
Sketchy
 70
    24
177
     3
291
     0
 70
    58
 90
        1
176
     1
 90
        2
176
     1
 90
        2
176
     1
 90
        0
176
     1
 40
0.6
176
     1
 40
30.0
176
     1
 62
     7
420
 16777215
176
     1
 90
        2
176
     1
 90
        2
176
     1
 62
     7
176
     1
 62
     7
176
     1
 90
        1
176
     1
 90
        1
176
     1
 40
40.0
176
     1
 90
       11
176
     1
 62
     7
176
     1
 40
1.0
176
     1
 90
        1
176
     1
 90
        6
176
     1
 90
        2
176
     1
 62
     7
176
     1
 90
        6
176
     1
 90
        0
176
     1
 90
        0
176
     1
290
     0
176
     1
 90
        1
176
     1
 40
0.0
176
     1
 90
        0
176
     1
290
     0
176
     1
290
     1
176
     1
290
     1
176
     1
290
     0
176
     1
290
     0
176
     1
290
     0
176
     1
290
     0
176
     1
290
     0
176
     1
290
     0
176
     1
 90
       50
176
     1
 40
0.0
176
     1
 40
1.0
176
     1
 90
        0
176
     1
 62
    18
420
        0
176
     1
 90
       50
176
     1
 90
        3
176
     1
 62
     5
420
      255
176
     1
290
     0
176
     1
 90
       50
176
     1
 90
       50
176
     1
 90
       50
176
     1
290
     0
176
     1
 90
       50
176
     1
 62
   256
176
     0
 40
1.0
176
     0
 90
        2
176
     1
  1
strokes_ogs.tif
176
     1
290
     0
176
     1
 40
1.0
176
     1
 40
1.0
176
     1
  0
VISUALSTYLE
  5
39E
102
{ACAD_REACTORS
330
391
102
}
330
391
100
AcDbVisualStyle
  2
Thicken
 70
    13
177
     3
291
     1
 70
    58
 90
        2
176
     1
 90
        2
176
     1
 90
        0
176
     1
 90
        0
176
     1
 40
0.6
176
     1
 40
30.0
176
     1
 62
     7
420
 16777215
176
     1
 90
        1
176
     1
 90
        4
176
     1
 62
     7
176
     1
 62
   257
176
     1
 90
        1
176
     1
 90
        1
176
     1
 40
1.0
176
     1
 90
       12
176
     1
 62
     7
176
     1
 40
1.0
176
     1
 90
        1
176
     1
 90
        6
176
     1
 90
        2
176
     1
 62
     7
176
     1
 90
        5
176
     1
 90
        0
176
     1
 90
        0
176
     1
290
     0
176
     1
 90
        1
176
     1
 40
0.0
176
     1
 90
        0
176
     1
290
     0
176
     1
290
     1
176
     1
290
     1
176
     1
290
     0
176
     1
290
     0
176
     1
290
     0
176
     1
290
     0
176
     1
290
     0
176
     1
290
     0
176
     1
 90
       50
176
     1
 40
0.0
176
     1
 40
1.0
176
     1
 90
        0
176
     1
 62
    18
420
        0
176
     1
 90
       50
176
     1
 90
        3
176
     1
 62
     5
420
      255
176
     1
290
     0
176
     1
 90
       50
176
     1
 90
       50
176
     1
 90
       50
176
     1
290
     0
176
     1
 90
       50
176
     1
 62
   256
176
     0
 40
1.0
176
     0
 90
        2
176
     1
  1
strokes_ogs.tif
176
     1
290
     0
176
     1
 40
1.0
176
     1
 40
1.0
176
     1
  0
VISUALSTYLE
  5
397
102
{ACAD_REACTORS
330
391
102
}
330
391
100
AcDbVisualStyle
  2
Wireframe
 70
     5
177
     3
291
     0
 70
    58
 90
        0
176
     1
 90
        2
176
     1
 90
        0
176
     1
 90
        0
176
     1
 40
0.6
176
     1
 40
30.0
176
     1
 62
     7
420
 16777215
176
     1
 90
        1
176
     1
 90
        4
176
     1
 62
     7
176
     1
 62
   257
176
     1
 90
        1
176
     1
 90
        1
176
     1
 40
1.0
176
     1
 90
        0
176
     1
 62
   257
176
     1
 40
1.0
176
     1
 90
        1
176
     1
 90
        6
176
     1
 90
        2
176
     1
 62
     7
176
     1
 90
        3
176
     1
 90
        0
176
     1
 90
        0
176
     1
290
     0
176
     1
 90
        1
176
     1
 40
0.0
176
     1
 90
        0
176
     1
290
     0
176
     1
290
     1
176
     1
290
     1
176
     1
290
     0
176
     1
290
     0
176
     1
290
     0
176
     1
290
     0
176
     1
290
     0
176
     1
290
     0
176
     1
 90
       50
176
     1
 40
0.0
176
     1
 40
1.0
176
     1
 90
        0
176
     1
 62
    18
420
        0
176
     1
 90
       50
176
     1
 90
        3
176
     1
 62
     5
420
      255
176
     1
290
     0
176
     1
 90
       50
176
     1
 90
       50
176
     1
 90
       50
176
     1
290
     0
176
     1
 90
       50
176
     1
 62
   256
176
     0
 40
1.0
176
     0
 90
        2
176
     1
  1
strokes_ogs.tif
176
     1
290
     0
176
     1
 40
1.0
176
     1
 40
1.0
176
     1
  0
VISUALSTYLE
  5
3A7
102
{ACAD_REACTORS
330
391
102
}
330
391
100
AcDbVisualStyle
  2
X-Ray
 70
    25
177
     3
291
     0
 70
    58
 90
        2
176
     1
 90
        2
176
     1
 90
        1
176
     1
 90
        1
176
     1
 40
0.5
176
     1
 40
30.0
176
     1
 62
     7
420
 16777215
176
     1
 90
        1
176
     1
 90
        0
176
     1
 62
     7
176
     1
 62
   257
176
     1
 90
        1
176
     1
 90
        1
176
     1
 40
1.0
176
     1
 90
        8
176
     1
 62
     7
176
     1
 40
1.0
176
     1
 90
        1
176
     1
 90
        6
176
     1
 90
        2
176
     1
 62
     7
176
     1
 90
        3
176
     1
 90
        0
176
     1
 90
        0
176
     1
290
     0
176
     1
 90
       13
176
     1
 40
0.0
176
     1
 90
        0
176
     1
290
     0
176
     1
290
     1
176
     1
290
     1
176
     1
290
     0
176
     1
290
     0
176
     1
290
     0
176
     1
290
     0
176
     1
290
     0
176
     1
290
     0
176
     1
 90
       50
176
     1
 40
0.0
176
     1
 40
1.0
176
     1
 90
        0
176
     1
 62
    18
420
        0
176
     1
 90
       50
176
     1
 90
        3
176
     1
 62
     5
420
      255
176
     1
290
     0
176
     1
 90
       50
176
     1
 90
       50
176
     1
 90
       50
176
     1
290
     0
176
     1
 90
       50
176
     1
 62
   256
176
     0
 40
1.0
176
     0
 90
        2
176
     1
  1
strokes_ogs.tif
176
     1
290
     0
176
     1
 40
1.0
176
     1
 40
1.0
176
     1
  0
DICTIONARYVAR
  5
3B4
102
{ACAD_REACTORS
330
3B3
102
}
330
3B3
100
DictionaryVariables
280
     0
  1
1:1
  0
DICTIONARYVAR
  5
3BB
102
{ACAD_REACTORS
330
3B3
102
}
330
3B3
100
DictionaryVariables
280
     0
  1
Standard
  0
DICTIONARYVAR
  5
3BA
102
{ACAD_REACTORS
330
3B3
102
}
330
3B3
100
DictionaryVariables
280
     0
  1
Standard
  0
DICTIONARY
  5
3BE
330
36D
100
AcDbDictionary
280
     1
281
     1
  3
ACAD_ROUNDTRIP_2008_TABLESTYLE_CELLSTYLEMAP
360
3BF
  0
DICTIONARY
  5
3C0
330
36E
100
AcDbDictionary
280
     1
281
     1
  3
ACAD_ROUNDTRIP_2008_TABLESTYLE_CELLSTYLEMAP
360
3C1
  0
CELLSTYLEMAP
  5
3BF
102
{ACAD_REACTORS
330
3BE
102
}
330
3BE
100
AcDbCellStyleMap
 90
        3
300
CELLSTYLE
  1
TABLEFORMAT_BEGIN
 90
        5
170
     1
 91
        0
 92
    32768
 62
   257
 93
        1
300
CONTENTFORMAT
  1
CONTENTFORMAT_BEGIN
 90
        0
 91
        0
 92
        4
 93
        0
300

 40
0.0
140
1.0
 94
        1
 62
     0
340
11
144
0.18
309
CONTENTFORMAT_END
171
     1
301
MARGIN
  1
CELLMARGIN_BEGIN
 40
0.06
 40
0.06
 40
0.06
 40
0.06
 40
0.18
 40
0.18
309
CELLMARGIN_END
 94
        6
 95
        1
302
GRIDFORMAT
  1
GRIDFORMAT_BEGIN
 90
        0
 91
        1
 62
     0
 92
       -2
340
0
 93
        0
 40
0.045
309
GRIDFORMAT_END
 95
        2
302
GRIDFORMAT
  1
GRIDFORMAT_BEGIN
 90
        0
 91
        1
 62
     0
 92
       -2
340
0
 93
        0
 40
0.045
309
GRIDFORMAT_END
 95
        4
302
GRIDFORMAT
  1
GRIDFORMAT_BEGIN
 90
        0
 91
        1
 62
     0
 92
       -2
340
0
 93
        0
 40
0.045
309
GRIDFORMAT_END
 95
        8
302
GRIDFORMAT
  1
GRIDFORMAT_BEGIN
 90
        0
 91
        1
 62
     0
 92
       -2
340
0
 93
        0
 40
0.045
309
GRIDFORMAT_END
 95
       16
302
GRIDFORMAT
  1
GRIDFORMAT_BEGIN
 90
        0
 91
        1
 62
     0
 92
       -2
340
0
 93
        0
 40
0.045
309
GRIDFORMAT_END
 95
       32
302
GRIDFORMAT
  1
GRIDFORMAT_BEGIN
 90
        0
 91
        1
 62
     0
 92
       -2
340
0
 93
        0
 40
0.045
309
GRIDFORMAT_END
309
TABLEFORMAT_END
  1
CELLSTYLE_BEGIN
 90
        1
 91
        1
300
_TITLE
309
CELLSTYLE_END
300
CELLSTYLE
  1
TABLEFORMAT_BEGIN
 90
        5
170
     1
 91
        0
 92
        0
 62
   257
 93
        1
300
CONTENTFORMAT
  1
CONTENTFORMAT_BEGIN
 90
        0
 91
        0
 92
        4
 93
        0
300

 40
0.0
140
1.0
 94
        1
 62
     0
340
11
144
0.18
309
CONTENTFORMAT_END
171
     1
301
MARGIN
  1
CELLMARGIN_BEGIN
 40
0.06
 40
0.06
 40
0.06
 40
0.06
 40
0.18
 40
0.18
309
CELLMARGIN_END
 94
        6
 95
        1
302
GRIDFORMAT
  1
GRIDFORMAT_BEGIN
 90
        0
 91
        1
 62
     0
 92
       -2
340
0
 93
        0
 40
0.045
309
GRIDFORMAT_END
 95
        2
302
GRIDFORMAT
  1
GRIDFORMAT_BEGIN
 90
        0
 91
        1
 62
     0
 92
       -2
340
0
 93
        0
 40
0.045
309
GRIDFORMAT_END
 95
        4
302
GRIDFORMAT
  1
GRIDFORMAT_BEGIN
 90
        0
 91
        1
 62
     0
 92
       -2
340
0
 93
        0
 40
0.045
309
GRIDFORMAT_END
 95
        8
302
GRIDFORMAT
  1
GRIDFORMAT_BEGIN
 90
        0
 91
        1
 62
     0
 92
       -2
340
0
 93
        0
 40
0.045
309
GRIDFORMAT_END
 95
       16
302
GRIDFORMAT
  1
GRIDFORMAT_BEGIN
 90
        0
 91
        1
 62
     0
 92
       -2
340
0
 93
        0
 40
0.045
309
GRIDFORMAT_END
 95
       32
302
GRIDFORMAT
  1
GRIDFORMAT_BEGIN
 90
        0
 91
        1
 62
     0
 92
       -2
340
0
 93
        0
 40
0.045
309
GRIDFORMAT_END
309
TABLEFORMAT_END
  1
CELLSTYLE_BEGIN
 90
        2
 91
        1
300
_HEADER
309
CELLSTYLE_END
300
CELLSTYLE
  1
TABLEFORMAT_BEGIN
 90
        5
170
     1
 91
        0
 92
        0
 62
   257
 93
        1
300
CONTENTFORMAT
  1
CONTENTFORMAT_BEGIN
 90
        0
 91
        0
 92
        4
 93
        0
300

 40
0.0
140
1.0
 94
        1
 62
     0
340
11
144
0.18
309
CONTENTFORMAT_END
171
     1
301
MARGIN
  1
CELLMARGIN_BEGIN
 40
0.06
 40
0.06
 40
0.06
 40
0.06
 40
0.18
 40
0.18
309
CELLMARGIN_END
 94
        6
 95
        1
302
GRIDFORMAT
  1
GRIDFORMAT_BEGIN
 90
        0
 91
        1
 62
     0
 92
       -2
340
0
 93
        0
 40
0.045
309
GRIDFORMAT_END
 95
        2
302
GRIDFORMAT
  1
GRIDFORMAT_BEGIN
 90
        0
 91
        1
 62
     0
 92
       -2
340
0
 93
        0
 40
0.045
309
GRIDFORMAT_END
 95
        4
302
GRIDFORMAT
  1
GRIDFORMAT_BEGIN
 90
        0
 91
        1
 62
     0
 92
       -2
340
0
 93
        0
 40
0.045
309
GRIDFORMAT_END
 95
        8
302
GRIDFORMAT
  1
GRIDFORMAT_BEGIN
 90
        0
 91
        1
 62
     0
 92
       -2
340
0
 93
        0
 40
0.045
309
GRIDFORMAT_END
 95
       16
302
GRIDFORMAT
  1
GRIDFORMAT_BEGIN
 90
        0
 91
        1
 62
     0
 92
       -2
340
0
 93
        0
 40
0.045
309
GRIDFORMAT_END
 95
       32
302
GRIDFORMAT
  1
GRIDFORMAT_BEGIN
 90
        0
 91
        1
 62
     0
 92
       -2
340
0
 93
        0
 40
0.045
309
GRIDFORMAT_END
309
TABLEFORMAT_END
  1
CELLSTYLE_BEGIN
 90
        3
 91
        2
300
_DATA
309
CELLSTYLE_END
  0
CELLSTYLEMAP
  5
3C1
102
{ACAD_REACTORS
330
3C0
102
}
330
3C0
100
AcDbCellStyleMap
 90
        3
300
CELLSTYLE
  1
TABLEFORMAT_BEGIN
 90
        5
170
     1
 91
        0
 92
    32768
 62
   257
 93
        1
300
CONTENTFORMAT
  1
CONTENTFORMAT_BEGIN
 90
        0
 91
        0
 92
        4
 93
        0
300

 40
0.0
140
1.0
 94
        1
 62
     0
340
11
144
0.18
309
CONTENTFORMAT_END
171
     1
301
MARGIN
  1
CELLMARGIN_BEGIN
 40
0.06
 40
0.06
 40
0.06
 40
0.06
 40
0.18
 40
0.18
309
CELLMARGIN_END
 94
        6
 95
        1
302
GRIDFORMAT
  1
GRIDFORMAT_BEGIN
 90
        0
 91
        1
 62
     0
 92
       -2
340
0
 93
        0
 40
0.045
309
GRIDFORMAT_END
 95
        2
302
GRIDFORMAT
  1
GRIDFORMAT_BEGIN
 90
        0
 91
        1
 62
     0
 92
       -2
340
0
 93
        0
 40
0.045
309
GRIDFORMAT_END
 95
        4
302
GRIDFORMAT
  1
GRIDFORMAT_BEGIN
 90
        0
 91
        1
 62
     0
 92
       -2
340
0
 93
        0
 40
0.045
309
GRIDFORMAT_END
 95
        8
302
GRIDFORMAT
  1
GRIDFORMAT_BEGIN
 90
        0
 91
        1
 62
     0
 92
       -2
340
0
 93
        0
 40
0.045
309
GRIDFORMAT_END
 95
       16
302
GRIDFORMAT
  1
GRIDFORMAT_BEGIN
 90
        0
 91
        1
 62
     0
 92
       -2
340
0
 93
        0
 40
0.045
309
GRIDFORMAT_END
 95
       32
302
GRIDFORMAT
  1
GRIDFORMAT_BEGIN
 90
        0
 91
        1
 62
     0
 92
       -2
340
0
 93
        0
 40
0.045
309
GRIDFORMAT_END
309
TABLEFORMAT_END
  1
CELLSTYLE_BEGIN
 90
        1
 91
        1
300
_TITLE
309
CELLSTYLE_END
300
CELLSTYLE
  1
TABLEFORMAT_BEGIN
 90
        5
170
     1
 91
        0
 92
        0
 62
   257
 93
        1
300
CONTENTFORMAT
  1
CONTENTFORMAT_BEGIN
 90
        0
 91
        0
 92
        4
 93
        0
300

 40
0.0
140
1.0
 94
        1
 62
     0
340
11
144
0.18
309
CONTENTFORMAT_END
171
     1
301
MARGIN
  1
CELLMARGIN_BEGIN
 40
0.06
 40
0.06
 40
0.06
 40
0.06
 40
0.18
 40
0.18
309
CELLMARGIN_END
 94
        6
 95
        1
302
GRIDFORMAT
  1
GRIDFORMAT_BEGIN
 90
        0
 91
        1
 62
     0
 92
       -2
340
0
 93
        0
 40
0.045
309
GRIDFORMAT_END
 95
        2
302
GRIDFORMAT
  1
GRIDFORMAT_BEGIN
 90
        0
 91
        1
 62
     0
 92
       -2
340
0
 93
        0
 40
0.045
309
GRIDFORMAT_END
 95
        4
302
GRIDFORMAT
  1
GRIDFORMAT_BEGIN
 90
        0
 91
        1
 62
     0
 92
       -2
340
0
 93
        0
 40
0.045
309
GRIDFORMAT_END
 95
        8
302
GRIDFORMAT
  1
GRIDFORMAT_BEGIN
 90
        0
 91
        1
 62
     0
 92
       -2
340
0
 93
        0
 40
0.045
309
GRIDFORMAT_END
 95
       16
302
GRIDFORMAT
  1
GRIDFORMAT_BEGIN
 90
        0
 91
        1
 62
     0
 92
       -2
340
0
 93
        0
 40
0.045
309
GRIDFORMAT_END
 95
       32
302
GRIDFORMAT
  1
GRIDFORMAT_BEGIN
 90
        0
 91
        1
 62
     0
 92
       -2
340
0
 93
        0
 40
0.045
309
GRIDFORMAT_END
309
TABLEFORMAT_END
  1
CELLSTYLE_BEGIN
 90
        2
 91
        1
300
_HEADER
309
CELLSTYLE_END
300
CELLSTYLE
  1
TABLEFORMAT_BEGIN
 90
        5
170
     1
 91
        0
 92
        0
 62
   257
 93
        1
300
CONTENTFORMAT
  1
CONTENTFORMAT_BEGIN
 90
        0
 91
        0
 92
        4
 93
        0
300

 40
0.0
140
1.0
 94
        1
 62
     0
340
11
144
0.18
309
CONTENTFORMAT_END
171
     1
301
MARGIN
  1
CELLMARGIN_BEGIN
 40
0.06
 40
0.06
 40
0.06
 40
0.06
 40
0.18
 40
0.18
309
CELLMARGIN_END
 94
        6
 95
        1
302
GRIDFORMAT
  1
GRIDFORMAT_BEGIN
 90
        0
 91
        1
 62
     0
 92
       -2
340
0
 93
        0
 40
0.045
309
GRIDFORMAT_END
 95
        2
302
GRIDFORMAT
  1
GRIDFORMAT_BEGIN
 90
        0
 91
        1
 62
     0
 92
       -2
340
0
 93
        0
 40
0.045
309
GRIDFORMAT_END
 95
        4
302
GRIDFORMAT
  1
GRIDFORMAT_BEGIN
 90
        0
 91
        1
 62
     0
 92
       -2
340
0
 93
        0
 40
0.045
309
GRIDFORMAT_END
 95
        8
302
GRIDFORMAT
  1
GRIDFORMAT_BEGIN
 90
        0
 91
        1
 62
     0
 92
       -2
340
0
 93
        0
 40
0.045
309
GRIDFORMAT_END
 95
       16
302
GRIDFORMAT
  1
GRIDFORMAT_BEGIN
 90
        0
 91
        1
 62
     0
 92
       -2
340
0
 93
        0
 40
0.045
309
GRIDFORMAT_END
 95
       32
302
GRIDFORMAT
  1
GRIDFORMAT_BEGIN
 90
        0
 91
        1
 62
     0
 92
       -2
340
0
 93
        0
 40
0.045
309
GRIDFORMAT_END
309
TABLEFORMAT_END
  1
CELLSTYLE_BEGIN
 90
        3
 91
        2
300
_DATA
309
CELLSTYLE_END
  0
ENDSEC
  0
EOF
