  0
SECTION
  2
HEADER
  9
$ACADVER
  1
AC1027
  9
$ACADMAINTVER
 70
     8
  9
$DWGCODEPAGE
  3
ANSI_1252
  9
$REQUIREDVERSIONS
160
                 0
  9
$INSBASE
 10
0.0
 20
0.0
 30
0.0
  9
$EXTMIN
 10
0.0
 20
0.0
 30
0.0
  9
$EXTMAX
 10
297.0
 20
210.0
 30
0.0
  9
$LIMMIN
 10
0.0
 20
0.0
  9
$LIMMAX
 10
297.0
 20
210.0
  9
$ORTHOMODE
 70
     0
  9
$REGENMODE
 70
     1
  9
$FILLMODE
 70
     1
  9
$QTEXTMODE
 70
     0
  9
$MIRRTEXT
 70
     1
  9
$LTSCALE
 40
16.335
  9
$ATTMODE
 70
     1
  9
$TEXTSIZE
 40
0.2
  9
$TRACEWID
 40
0.05
  9
$TEXTSTYLE
  7
STANDARD
  9
$CLAYER
  8
0
  9
$CELTYPE
  6
BYLAYER
  9
$CECOLOR
 62
   256
  9
$CELTSCALE
 40
1.0
  9
$DISPSILH
 70
     0
  9
$DIMSCALE
 40
1.0
  9
$DIMASZ
 40
2.5
  9
$DIMEXO
 40
0.75
  9
$DIMDLI
 40
11.286
  9
$DIMRND
 40
0.0
  9
$DIMDLE
 40
0.0
  9
$DIMEXE
 40
0.75
  9
$DIMTP
 40
0.01
  9
$DIMTM
 40
0.01
  9
$DIMTXT
 40
3.0
  9
$DIMCEN
 40
2.673
  9
$DIMTSZ
 40
0.0
  9
$DIMTOL
 70
     1
  9
$DIMLIM
 70
     0
  9
$DIMTIH
 70
     1
  9
$DIMTOH
 70
     1
  9
$DIMSE1
 70
     0
  9
$DIMSE2
 70
     0
  9
$DIMTAD
 70
     0
  9
$DIMZIN
 70
     0
  9
$DIMBLK
  1
CLOSED
  9
$DIMASO
 70
     1
  9
$DIMSHO
 70
     1
  9
$DIMPOST
  1

  9
$DIMAPOST
  1

  9
$DIMALT
 70
     0
  9
$DIMALTD
 70
     2
  9
$DIMALTF
 40
25.4
  9
$DIMLFAC
 40
1.0
  9
$DIMTOFL
 70
     0
  9
$DIMTVP
 40
0.0
  9
$DIMTIX
 70
     0
  9
$DIMSOXD
 70
     0
  9
$DIMSAH
 70
     0
  9
$DIMBLK1
  1

  9
$DIMBLK2
  1

  9
$DIMSTYLE
  2
STANDARD
  9
$DIMCLRD
 70
     0
  9
$DIMCLRE
 70
     0
  9
$DIMCLRT
 70
     0
  9
$DIMTFAC
 40
1.0
  9
$DIMGAP
 40
0.625
  9
$DIMJUST
 70
     0
  9
$DIMSD1
 70
     0
  9
$DIMSD2
 70
     0
  9
$DIMTOLJ
 70
     1
  9
$DIMTZIN
 70
     0
  9
$DIMALTZ
 70
     0
  9
$DIMALTTZ
 70
     0
  9
$DIMUPT
 70
     0
  9
$DIMDEC
 70
     4
  9
$DIMTDEC
 70
     4
  9
$DIMALTU
 70
     2
  9
$DIMALTTD
 70
     2
  9
$DIMTXSTY
  7
STANDARD
  9
$DIMAUNIT
 70
     0
  9
$DIMADEC
 70
     0
  9
$DIMALTRND
 40
0.0
  9
$DIMAZIN
 70
     0
  9
$DIMDSEP
 70
    44
  9
$DIMATFIT
 70
     3
  9
$DIMFRAC
 70
     0
  9
$DIMLDRBLK
  1

  9
$DIMLUNIT
 70
     2
  9
$DIMLWD
 70
    -2
  9
$DIMLWE
 70
    -2
  9
$DIMTMOVE
 70
     0
  9
$DIMFXL
 40
1.0
  9
$DIMFXLON
 70
     0
  9
$DIMJOGANG
 40
0.785398
  9
$DIMTFILL
 70
     0
  9
$DIMTFILLCLR
 70
     0
  9
$DIMARCSYM
 70
     0
  9
$DIMLTYPE
  6

  9
$DIMLTEX1
  6

  9
$DIMLTEX2
  6

  9
$DIMTXTDIRECTION
 70
     0
  9
$LUNITS
 70
     2
  9
$LUPREC
 70
     4
  9
$SKETCHINC
 40
0.1
  9
$FILLETRAD
 40
0.5
  9
$AUNITS
 70
     0
  9
$AUPREC
 70
     0
  9
$MENU
  1
.
  9
$ELEVATION
 40
0.0
  9
$PELEVATION
 40
0.0
  9
$THICKNESS
 40
0.0
  9
$LIMCHECK
 70
     0
  9
$CHAMFERA
 40
0.0
  9
$CHAMFERB
 40
0.0
  9
$CHAMFERC
 40
0.0
  9
$CHAMFERD
 40
0.0
  9
$SKPOLY
 70
     0
  9
$TDCREATE
 40
2447893.083333333
  9
$TDUCREATE
 40
0.0
  9
$TDUPDATE
 40
2460231.384437616
  9
$TDUUPDATE
 40
2460231.301104282
  9
$TDINDWG
 40
0.0
  9
$TDUSRTIMER
 40
0.0
  9
$USRTIMER
 70
     1
  9
$ANGBASE
 50
0.0
  9
$ANGDIR
 70
     0
  9
$PDMODE
 70
     3
  9
$PDSIZE
 40
0.3125
  9
$PLINEWID
 40
0.0
  9
$SPLFRAME
 70
     0
  9
$SPLINETYPE
 70
     6
  9
$SPLINESEGS
 70
     8
  9
$HANDSEED
  5
4C9
  9
$SURFTAB1
 70
     6
  9
$SURFTAB2
 70
     6
  9
$SURFTYPE
 70
     6
  9
$SURFU
 70
     6
  9
$SURFV
 70
     6
  9
$UCSBASE
  2

  9
$UCSNAME
  2

  9
$UCSORG
 10
0.0
 20
0.0
 30
0.0
  9
$UCSXDIR
 10
1.0
 20
0.0
 30
0.0
  9
$UCSYDIR
 10
0.0
 20
1.0
 30
0.0
  9
$UCSORTHOREF
  2

  9
$UCSORTHOVIEW
 70
     0
  9
$UCSORGTOP
 10
0.0
 20
0.0
 30
0.0
  9
$UCSORGBOTTOM
 10
0.0
 20
0.0
 30
0.0
  9
$UCSORGLEFT
 10
0.0
 20
0.0
 30
0.0
  9
$UCSORGRIGHT
 10
0.0
 20
0.0
 30
0.0
  9
$UCSORGFRONT
 10
0.0
 20
0.0
 30
0.0
  9
$UCSORGBACK
 10
0.0
 20
0.0
 30
0.0
  9
$PUCSBASE
  2

  9
$PUCSNAME
  2

  9
$PUCSORG
 10
0.0
 20
0.0
 30
0.0
  9
$PUCSXDIR
 10
1.0
 20
0.0
 30
0.0
  9
$PUCSYDIR
 10
0.0
 20
1.0
 30
0.0
  9
$PUCSORTHOREF
  2

  9
$PUCSORTHOVIEW
 70
     0
  9
$PUCSORGTOP
 10
0.0
 20
0.0
 30
0.0
  9
$PUCSORGBOTTOM
 10
0.0
 20
0.0
 30
0.0
  9
$PUCSORGLEFT
 10
0.0
 20
0.0
 30
0.0
  9
$PUCSORGRIGHT
 10
0.0
 20
0.0
 30
0.0
  9
$PUCSORGFRONT
 10
0.0
 20
0.0
 30
0.0
  9
$PUCSORGBACK
 10
0.0
 20
0.0
 30
0.0
  9
$USERI1
 70
     0
  9
$USERI2
 70
     0
  9
$USERI3
 70
     0
  9
$USERI4
 70
     0
  9
$USERI5
 70
     0
  9
$USERR1
 40
0.0
  9
$USERR2
 40
0.0
  9
$USERR3
 40
0.0
  9
$USERR4
 40
0.0
  9
$USERR5
 40
0.0
  9
$WORLDVIEW
 70
     1
  9
$SHADEDGE
 70
     3
  9
$SHADEDIF
 70
    70
  9
$TILEMODE
 70
     1
  9
$MAXACTVP
 70
    64
  9
$PINSBASE
 10
0.0
 20
0.0
 30
0.0
  9
$PLIMCHECK
 70
     0
  9
$PEXTMIN
 10
1.000000E+20
 20
1.000000E+20
 30
1.000000E+20
  9
$PEXTMAX
 10
-1.000000E+20
 20
-1.000000E+20
 30
-1.000000E+20
  9
$PLIMMIN
 10
0.0
 20
0.0
  9
$PLIMMAX
 10
12.0
 20
9.0
  9
$UNITMODE
 70
     0
  9
$VISRETAIN
 70
     1
  9
$PLINEGEN
 70
     0
  9
$PSLTSCALE
 70
     0
  9
$TREEDEPTH
 70
  3020
  9
$CMLSTYLE
  2

  9
$CMLJUST
 70
     0
  9
$CMLSCALE
 40
1.0
  9
$PROXYGRAPHICS
 70
     1
  9
$MEASUREMENT
 70
     1
  9
$CELWEIGHT
370
    -1
  9
$ENDCAPS
280
     0
  9
$JOINSTYLE
280
     0
  9
$LWDISPLAY
290
     0
  9
$INSUNITS
 70
     4
  9
$HYPERLINKBASE
  1

  9
$STYLESHEET
  1

  9
$XEDIT
290
     1
  9
$CEPSNTYPE
380
     0
  9
$PSTYLEMODE
290
     1
  9
$FINGERPRINTGUID
  2
{0934D901-1F53-4FA7-9EBB-C25BE2F6A17B}
  9
$VERSIONGUID
  2
{FAEB1C32-E019-11D5-929B-00C0DF256EC4}
  9
$EXTNAMES
290
     1
  9
$PSVPSCALE
 40
0.0
  9
$OLESTARTUP
290
     0
  9
$SORTENTS
280
   127
  9
$INDEXCTL
280
     0
  9
$HIDETEXT
280
     1
  9
$XCLIPFRAME
280
     2
  9
$HALOGAP
280
     0
  9
$OBSCOLOR
 70
   257
  9
$OBSLTYPE
280
     0
  9
$INTERSECTIONDISPLAY
280
     0
  9
$INTERSECTIONCOLOR
 70
   257
  9
$DIMASSOC
280
     2
  9
$PROJECTNAME
  1

  9
$CAMERADISPLAY
290
     0
  9
$LENSLENGTH
 40
50.0
  9
$CAMERAHEIGHT
 40
0.0
  9
$STEPSPERSEC
 40
2.0
  9
$STEPSIZE
 40
6.0
  9
$3DDWFPREC
 40
2.0
  9
$PSOLWIDTH
 40
0.25
  9
$PSOLHEIGHT
 40
4.0
  9
$LOFTANG1
 40
1.570796
  9
$LOFTANG2
 40
1.570796
  9
$LOFTMAG1
 40
0.0
  9
$LOFTMAG2
 40
0.0
  9
$LOFTPARAM
 70
     7
  9
$LOFTNORMALS
280
     1
  9
$LATITUDE
 40
37.795
  9
$LONGITUDE
 40
-122.394
  9
$NORTHDIRECTION
 40
0.0
  9
$TIMEZONE
 70
 -8000
  9
$LIGHTGLYPHDISPLAY
280
     1
  9
$TILEMODELIGHTSYNCH
280
     1
  9
$SOLIDHIST
280
     1
  9
$SHOWHIST
280
     1
  9
$DWFFRAME
280
     2
  9
$DGNFRAME
280
     2
  9
$REALWORLDSCALE
290
     1
  9
$INTERFERECOLOR
 62
   256
  9
$CSHADOW
280
     0
  9
$SHADOWPLANELOCATION
 40
0.0
  0
ENDSEC
  0
SECTION
  2
CLASSES
  0
CLASS
  1
ACDBDICTIONARYWDFLT
  2
AcDbDictionaryWithDefault
  3
ObjectDBX Classes
 90
        0
 91
        6
280
     0
281
     0
  0
CLASS
  1
ACDBPLACEHOLDER
  2
AcDbPlaceHolder
  3
ObjectDBX Classes
 90
        0
 91
        1
280
     0
281
     0
  0
CLASS
  1
LAYOUT
  2
AcDbLayout
  3
ObjectDBX Classes
 90
        0
 91
        1
280
     0
281
     0
  0
CLASS
  1
TABLESTYLE
  2
AcDbTableStyle
  3
ObjectDBX Classes
 90
     4095
 91
        5
280
     0
281
     0
  0
CLASS
  1
ACAD_TABLE
  2
AcDbTable
  3
ObjectDBX Classes
 90
     1025
 91
        5
280
     0
281
     1
  0
CLASS
  1
SCALE
  2
AcDbScale
  3
ObjectDBX Classes
 90
     1153
 91
        5
280
     0
281
     0
  0
CLASS
  1
TABLEGEOMETRY
  2
AcDbTableGeometry
  3
ObjectDBX Classes
 90
     1152
 91
        4
280
     0
281
     0
  0
CLASS
  1
VISUALSTYLE
  2
AcDbVisualStyle
  3
ObjectDBX Classes
 90
     4095
 91
        5
280
     0
281
     0
  0
CLASS
  1
MATERIAL
  2
AcDbMaterial
  3
ObjectDBX Classes
 90
     1153
 91
        5
280
     0
281
     0
  0
CLASS
  1
SUN
  2
AcDbSun
  3
SCENEOE
 90
     1153
 91
        5
280
     0
281
     0
  0
CLASS
  1
TABLECONTENT
  2
AcDbTableContent
  3
ObjectDBX Classes
 90
     1152
 91
        4
280
     0
281
     0
  0
CLASS
  1
DICTIONARYVAR
  2
AcDbDictionaryVar
  3
ObjectDBX Classes
 90
        0
 91
        4
280
     0
281
     0
  0
CLASS
  1
CELLSTYLEMAP
  2
AcDbCellStyleMap
  3
ObjectDBX Classes
 90
     1152
 91
        4
280
     0
281
     0
  0
ENDSEC
  0
SECTION
  2
TABLES
  0
TABLE
  2
VPORT
  5
8
330
0
100
AcDbSymbolTable
 70
     1
  0
VPORT
  5
1F4
330
8
100
AcDbSymbolTableRecord
100
AcDbViewportTableRecord
  2
*ACTIVE
 70
     0
 10
0.0
 20
0.0
 11
1.0
 21
1.0
 12
148.5
 22
105.0
 13
0.0
 23
0.0
 14
1.0
 24
1.0
 15
0.0
 25
0.0
 16
0.0
 26
0.0
 36
1.0
 17
0.0
 27
0.0
 37
0.0
 40
210.0
 41
2.035649
 42
50.0
 43
0.0
 44
0.0
 50
0.0
 51
0.0
 71
    16
 72
   100
 73
     1
 74
     1
 75
     0
 76
     0
 77
     0
 78
     0
281
     0
 65
     1
110
0.0
120
0.0
130
0.0
111
1.0
121
0.0
131
0.0
112
0.0
122
1.0
132
0.0
 79
     0
146
0.0
 60
     3
 61
     5
292
     1
282
     1
141
0.0
142
0.0
 63
   256
361
4B6
  0
ENDTAB
  0
TABLE
  2
LTYPE
  5
5
330
0
100
AcDbSymbolTable
 70
     6
  0
LTYPE
  5
14
330
5
100
AcDbSymbolTableRecord
100
AcDbLinetypeTableRecord
  2
BYBLOCK
 70
     0
  3

 72
    65
 73
     0
 40
0.0
  0
LTYPE
  5
15
330
5
100
AcDbSymbolTableRecord
100
AcDbLinetypeTableRecord
  2
BYLAYER
 70
     0
  3

 72
    65
 73
     0
 40
0.0
  0
LTYPE
  5
16
330
5
100
AcDbSymbolTableRecord
100
AcDbLinetypeTableRecord
  2
CONTINUOUS
 70
     0
  3
Solid line
 72
    65
 73
     0
 40
0.0
  0
LTYPE
  5
1F5
330
5
100
AcDbSymbolTableRecord
100
AcDbLinetypeTableRecord
  2
CENTER
 70
     0
  3
____ _ ____ _ ____ _ ____ _ ____ _ ____ _ ____
 72
    65
 73
     4
 40
0.6
 49
0.375
 74
     0
 49
-0.075
 74
     0
 49
0.075
 74
     0
 49
-0.075
 74
     0
  0
LTYPE
  5
1F6
330
5
100
AcDbSymbolTableRecord
100
AcDbLinetypeTableRecord
  2
HIDDEN
 70
     0
  3
- - - - - - - - - - - - - - - - - - - -
 72
    65
 73
     2
 40
0.2
 49
0.1
 74
     0
 49
-0.1
 74
     0
  0
LTYPE
  5
1F7
330
5
100
AcDbSymbolTableRecord
100
AcDbLinetypeTableRecord
  2
PHANTOM
 70
     0
  3
_____ _ _ _____ _ _ _____ _ _ _____
 72
    65
 73
     6
 40
0.8
 49
0.45
 74
     0
 49
-0.05
 74
     0
 49
0.1
 74
     0
 49
-0.05
 74
     0
 49
0.1
 74
     0
 49
-0.05
 74
     0
  0
LTYPE
  5
1F8
330
5
100
AcDbSymbolTableRecord
100
AcDbLinetypeTableRecord
  2
DOT
 70
     0
  3
. . . . . . . . . . . . . . . . . . . .
 72
    65
 73
     2
 40
0.2
 49
0.1
 74
     0
 49
-0.1
 74
     0
  0
LTYPE
  5
1F9
330
5
100
AcDbSymbolTableRecord
100
AcDbLinetypeTableRecord
  2
DASHED
 70
     0
  3
- - - - - - - - - - - - - - - - - - - -
 72
    65
 73
     2
 40
0.2
 49
0.1
 74
     0
 49
-0.1
 74
     0
  0
ENDTAB
  0
TABLE
  2
LAYER
  5
2
330
0
100
AcDbSymbolTable
 70
    16
  0
LAYER
  5
10
330
2
100
AcDbSymbolTableRecord
100
AcDbLayerTableRecord
  2
0
 70
     0
 62
     7
  6
CONTINUOUS
370
    -3
390
F
347
4B0
348
0
  0
LAYER
  5
1FA
330
2
100
AcDbSymbolTableRecord
100
AcDbLayerTableRecord
  2
DEFAULT_1
 70
     0
 62
     7
  6
CENTER
370
    -3
390
F
347
4B0
348
0
  0
LAYER
  5
1FB
330
2
100
AcDbSymbolTableRecord
100
AcDbLayerTableRecord
  2
DEFAULT_2
 70
     0
 62
     8
  6
HIDDEN
370
    -3
390
F
347
4B0
348
0
  0
LAYER
  5
1FC
330
2
100
AcDbSymbolTableRecord
100
AcDbLayerTableRecord
  2
DEFAULT_3
 70
     0
 62
     7
  6
PHANTOM
370
    -3
390
F
347
4B0
348
0
  0
LAYER
  5
1FD
330
2
100
AcDbSymbolTableRecord
100
AcDbLayerTableRecord
  2
1_ALL_PLANES
 70
     0
 62
     7
  6
CONTINUOUS
370
    -3
390
F
347
4B0
348
0
  0
LAYER
  5
1FE
330
2
100
AcDbSymbolTableRecord
100
AcDbLayerTableRecord
  2
2_ALL_CSYS
 70
     0
 62
     7
  6
CONTINUOUS
370
    -3
390
F
347
4B0
348
0
  0
LAYER
  5
1FF
330
2
100
AcDbSymbolTableRecord
100
AcDbLayerTableRecord
  2
3_ALL_AXES
 70
     0
 62
     7
  6
CONTINUOUS
370
    -3
390
F
347
4B0
348
0
  0
LAYER
  5
200
330
2
100
AcDbSymbolTableRecord
100
AcDbLayerTableRecord
  2
4_ALL_POINTS
 70
     0
 62
     7
  6
CONTINUOUS
370
    -3
390
F
347
4B0
348
0
  0
LAYER
  5
201
330
2
100
AcDbSymbolTableRecord
100
AcDbLayerTableRecord
  2
5_ALL_CURVES
 70
     0
 62
     7
  6
CONTINUOUS
370
    -3
390
F
347
4B0
348
0
  0
LAYER
  5
202
330
2
100
AcDbSymbolTableRecord
100
AcDbLayerTableRecord
  2
6_ALL_SURFS
 70
     0
 62
     7
  6
CONTINUOUS
370
    -3
390
F
347
4B0
348
0
  0
LAYER
  5
203
330
2
100
AcDbSymbolTableRecord
100
AcDbLayerTableRecord
  2
7_ALL_FEATURES
 70
     0
 62
     7
  6
CONTINUOUS
370
    -3
390
F
347
4B0
348
0
  0
LAYER
  5
204
330
2
100
AcDbSymbolTableRecord
100
AcDbLayerTableRecord
  2
9_SOLID
 70
     0
 62
     7
  6
CONTINUOUS
370
    -3
390
F
347
4B0
348
0
  0
LAYER
  5
205
330
2
100
AcDbSymbolTableRecord
100
AcDbLayerTableRecord
  2
DEFAULT
 70
     0
 62
     7
  6
CONTINUOUS
370
    -3
390
F
347
4B0
348
0
  0
LAYER
  5
206
330
2
100
AcDbSymbolTableRecord
100
AcDbLayerTableRecord
  2
DEFAULT_15
 70
     0
 62
     7
  6
CONTINUOUS
370
    -3
390
F
347
4B0
348
0
  0
LAYER
  5
207
330
2
100
AcDbSymbolTableRecord
100
AcDbLayerTableRecord
  2
DEFAULT_16
 70
     0
 62
     7
  6
CONTINUOUS
370
    -3
390
F
347
4B0
348
0
  0
LAYER
  5
208
330
2
100
AcDbSymbolTableRecord
100
AcDbLayerTableRecord
  2
WHITE
 70
     0
 62
     7
  6
CONTINUOUS
370
    -3
390
F
347
4B0
348
0
  0
ENDTAB
  0
TABLE
  2
STYLE
  5
3
330
0
100
AcDbSymbolTable
 70
     2
  0
STYLE
  5
11
330
3
100
AcDbSymbolTableRecord
100
AcDbTextStyleTableRecord
  2
STANDARD
 70
     0
 40
0.0
 41
1.0
 50
0.0
 71
     0
 42
0.2
  3
arial.ttf
  4

  0
STYLE
  5
209
330
3
100
AcDbSymbolTableRecord
100
AcDbTextStyleTableRecord
  2
TEXTSTYLE_1
 70
     0
 40
0.0
 41
0.8
 50
0.0
 71
     0
 42
0.2
  3
gdt
  4

  0
ENDTAB
  0
TABLE
  2
VIEW
  5
6
330
0
100
AcDbSymbolTable
 70
     0
  0
ENDTAB
  0
TABLE
  2
UCS
  5
7
330
0
100
AcDbSymbolTable
 70
     0
  0
ENDTAB
  0
TABLE
  2
APPID
  5
9
330
0
100
AcDbSymbolTable
 70
     6
  0
APPID
  5
20A
330
9
100
AcDbSymbolTableRecord
100
AcDbRegAppTableRecord
  2
ACAD
 70
     0
  0
APPID
  5
4B1
330
9
100
AcDbSymbolTableRecord
100
AcDbRegAppTableRecord
  2
MCS_DIM1
 70
     0
  0
APPID
  5
4B2
330
9
100
AcDbSymbolTableRecord
100
AcDbRegAppTableRecord
  2
McsXdata5
 70
     0
  0
APPID
  5
4B5
330
9
100
AcDbSymbolTableRecord
100
AcDbRegAppTableRecord
  2
MCS_DOCUMENT_ID
 70
     0
  0
APPID
  5
4B9
330
9
100
AcDbSymbolTableRecord
100
AcDbRegAppTableRecord
  2
MCS_PARAMS_DATA
 70
     0
  0
APPID
  5
4BB
330
9
100
AcDbSymbolTableRecord
100
AcDbRegAppTableRecord
  2
MC_VERSION_DATA
 70
     0
  0
ENDTAB
  0
TABLE
  2
DIMSTYLE
  5
A
330
0
100
AcDbSymbolTable
 70
     2
100
AcDbDimStyleTable
  0
DIMSTYLE
105
214
330
A
100
AcDbSymbolTableRecord
100
AcDbDimStyleTableRecord
  2
STANDARD
 70
     0
 41
2.5
 42
0.75
 44
0.75
 47
0.01
 48
0.01
 71
     1
 73
     0
 74
     0
 77
     1
 78
     8
 79
     2
140
3.0
147
0.625
171
     1
178
     0
179
     2
271
     2
272
     2
278
    44
284
     8
340
11
341
20D
342
20D
343
20D
344
20D
  0
DIMSTYLE
105
215
330
A
100
AcDbSymbolTableRecord
100
AcDbDimStyleTableRecord
  2
DIMSTYLE_1
 70
     0
 41
2.5
 42
0.75
 44
0.75
 47
0.3
 48
0.3
 73
     0
 74
     0
 77
     1
 78
     8
 79
     2
140
3.0
147
0.75
171
     1
178
     0
179
     2
271
     2
272
     2
278
    44
284
     8
340
11
341
20D
342
20D
343
20D
344
20D
  0
ENDTAB
  0
TABLE
  2
BLOCK_RECORD
  5
1
330
0
100
AcDbSymbolTable
 70
     7
  0
BLOCK_RECORD
  5
20B
330
1
100
AcDbSymbolTableRecord
100
AcDbBlockTableRecord
  2
*Model_Space
340
46B
 70
     0
280
     1
281
     0
  0
BLOCK_RECORD
  5
20C
330
1
100
AcDbSymbolTableRecord
100
AcDbBlockTableRecord
  2
*Paper_Space
340
46C
 70
     0
280
     1
281
     0
  0
BLOCK_RECORD
  5
20D
330
1
100
AcDbSymbolTableRecord
100
AcDbBlockTableRecord
  2
_CLOSED
340
0
102
{BLKREFS
331
25E
331
25F
331
267
331
268
331
270
331
271
331
279
331
27A
102
}
 70
     0
280
     1
281
     0
  0
BLOCK_RECORD
  5
20E
330
1
100
AcDbSymbolTableRecord
100
AcDbBlockTableRecord
  2
*D1
340
0
 70
     0
280
     1
281
     0
  0
BLOCK_RECORD
  5
20F
330
1
100
AcDbSymbolTableRecord
100
AcDbBlockTableRecord
  2
*D2
340
0
 70
     0
280
     1
281
     0
  0
BLOCK_RECORD
  5
210
330
1
100
AcDbSymbolTableRecord
100
AcDbBlockTableRecord
  2
*D3
340
0
 70
     0
280
     1
281
     0
  0
BLOCK_RECORD
  5
211
330
1
100
AcDbSymbolTableRecord
100
AcDbBlockTableRecord
  2
*D4
340
0
 70
     0
280
     1
281
     0
  0
BLOCK_RECORD
  5
212
330
1
100
AcDbSymbolTableRecord
100
AcDbBlockTableRecord
  2
LOGO2_BL0
340
0
102
{BLKREFS
331
468
102
}
 70
     0
280
     1
281
     0
  0
BLOCK_RECORD
  5
213
330
1
100
AcDbSymbolTableRecord
100
AcDbBlockTableRecord
  2
*T6
340
0
102
{BLKREFS
331
469
102
}
 70
     0
280
     1
281
     0
  0
ENDTAB
  0
ENDSEC
  0
SECTION
  2
BLOCKS
  0
BLOCK
  5
20
330
20B
100
AcDbEntity
  8
0
100
AcDbBlockBegin
  2
*Model_Space
 70
     0
 10
0.0
 20
0.0
 30
0.0
  3
*Model_Space
  1
*Model_Space
  0
ENDBLK
  5
21
330
20B
100
AcDbEntity
  8
0
100
AcDbBlockEnd
  0
BLOCK
  5
1C
330
20C
100
AcDbEntity
 67
     1
  8
0
100
AcDbBlockBegin
  2
*Paper_Space
 70
     0
 10
0.0
 20
0.0
 30
0.0
  3
*Paper_Space
  1
*Paper_Space
  0
ENDBLK
  5
1D
330
20C
100
AcDbEntity
 67
     1
  8
0
100
AcDbBlockEnd
  0
BLOCK
  5
252
330
20D
100
AcDbEntity
  8
0
100
AcDbBlockBegin
  2
_CLOSED
 70
     0
 10
0.0
 20
0.0
 30
0.0
  3
_CLOSED
  1
_CLOSED
  0
LINE
  5
253
330
20D
100
AcDbEntity
  8
0
  6
ByBlock
 62
     0
100
AcDbLine
 10
0.0
 20
0.0
 30
0.0
 11
-1.0
 21
0.2
 31
0.0
  0
LINE
  5
254
330
20D
100
AcDbEntity
  8
0
  6
ByBlock
 62
     0
100
AcDbLine
 10
-1.0
 20
0.2
 30
0.0
 11
-1.0
 21
-0.2
 31
0.0
  0
LINE
  5
255
330
20D
100
AcDbEntity
  8
0
  6
ByBlock
 62
     0
100
AcDbLine
 10
-1.0
 20
-0.2
 30
0.0
 11
0.0
 21
0.0
 31
0.0
  0
LINE
  5
256
330
20D
100
AcDbEntity
  8
0
  6
ByBlock
 62
     0
100
AcDbLine
 10
-1.0
 20
0.0
 30
0.0
 11
0.0
 21
0.0
 31
0.0
  0
ENDBLK
  5
257
330
20D
100
AcDbEntity
  8
0
  6
ByBlock
 62
     0
100
AcDbBlockEnd
  0
BLOCK
  5
258
330
20E
100
AcDbEntity
  8
0
100
AcDbBlockBegin
  2
*D1
 70
     1
 10
0.0
 20
0.0
 30
0.0
  3
*D1
  1
*D1
  0
MTEXT
  5
259
330
20E
100
AcDbEntity
  8
0
  6
Continuous
 62
     2
100
AcDbMText
 10
145.756149
 20
153.579761
 30
0.0
 40
3.0
 41
4.66171
 46
0.0
 71
     2
 72
     1
  1
36
 11
0.0
 21
1.0
 31
0.0
 73
     1
 44
0.9
  0
LINE
  5
25A
330
20E
100
AcDbEntity
  8
0
  6
Continuous
 62
     2
100
AcDbLine
 10
141.203914
 20
171.579761
 30
0.0
 11
150.256149
 21
171.579761
 31
0.0
  0
LINE
  5
25B
330
20E
100
AcDbEntity
  8
0
  6
Continuous
 62
     2
100
AcDbLine
 10
141.203914
 20
135.579761
 30
0.0
 11
150.256149
 21
135.579761
 31
0.0
  0
LINE
  5
25C
330
20E
100
AcDbEntity
  8
0
  6
Continuous
 62
     2
100
AcDbLine
 10
149.506149
 20
171.579761
 30
0.0
 11
149.506149
 21
153.579761
 31
0.0
  0
LINE
  5
25D
330
20E
100
AcDbEntity
  8
0
  6
Continuous
 62
     2
100
AcDbLine
 10
149.506149
 20
135.579761
 30
0.0
 11
149.506149
 21
153.579761
 31
0.0
  0
INSERT
  5
25E
330
20E
100
AcDbEntity
  8
0
  6
Continuous
 62
     2
100
AcDbBlockReference
  2
_CLOSED
 10
149.506149
 20
171.579761
 30
0.0
 41
2.5
 42
2.5
 43
2.5
 50
90.0
  0
INSERT
  5
25F
330
20E
100
AcDbEntity
  8
0
  6
Continuous
 62
     2
100
AcDbBlockReference
  2
_CLOSED
 10
149.506149
 20
135.579761
 30
0.0
 41
2.5
 42
2.5
 43
2.5
 50
270.0
  0
ENDBLK
  5
260
330
20E
100
AcDbEntity
  8
0
  6
ByBlock
 62
     0
100
AcDbBlockEnd
  0
BLOCK
  5
261
330
20F
100
AcDbEntity
  8
0
100
AcDbBlockBegin
  2
*D2
 70
     1
 10
0.0
 20
0.0
 30
0.0
  3
*D2
  1
*D2
  0
MTEXT
  5
262
330
20F
100
AcDbEntity
  8
0
  6
Continuous
 62
     2
100
AcDbMText
 10
154.948482
 20
150.07976
 30
0.0
 40
3.0
 41
4.66171
 46
0.0
 71
     2
 72
     1
  1
43
 11
0.0
 21
1.0
 31
0.0
 73
     1
 44
0.9
  0
LINE
  5
263
330
20F
100
AcDbEntity
  8
0
  6
Continuous
 62
     2
100
AcDbLine
 10
141.429878
 20
171.579761
 30
0.0
 11
159.448482
 21
171.579761
 31
0.0
  0
LINE
  5
264
330
20F
100
AcDbEntity
  8
0
  6
Continuous
 62
     2
100
AcDbLine
 10
141.210304
 20
128.579759
 30
0.0
 11
159.448482
 21
128.579759
 31
0.0
  0
LINE
  5
265
330
20F
100
AcDbEntity
  8
0
  6
Continuous
 62
     2
100
AcDbLine
 10
158.698482
 20
171.579761
 30
0.0
 11
158.698482
 21
150.07976
 31
0.0
  0
LINE
  5
266
330
20F
100
AcDbEntity
  8
0
  6
Continuous
 62
     2
100
AcDbLine
 10
158.698482
 20
128.579759
 30
0.0
 11
158.698482
 21
150.07976
 31
0.0
  0
INSERT
  5
267
330
20F
100
AcDbEntity
  8
0
  6
Continuous
 62
     2
100
AcDbBlockReference
  2
_CLOSED
 10
158.698482
 20
171.579761
 30
0.0
 41
2.5
 42
2.5
 43
2.5
 50
90.0
  0
INSERT
  5
268
330
20F
100
AcDbEntity
  8
0
  6
Continuous
 62
     2
100
AcDbBlockReference
  2
_CLOSED
 10
158.698482
 20
128.579759
 30
0.0
 41
2.5
 42
2.5
 43
2.5
 50
270.0
  0
ENDBLK
  5
269
330
20F
100
AcDbEntity
  8
0
  6
ByBlock
 62
     0
100
AcDbBlockEnd
  0
BLOCK
  5
26A
330
210
100
AcDbEntity
  8
0
100
AcDbBlockBegin
  2
*D3
 70
     1
 10
0.0
 20
0.0
 30
0.0
  3
*D3
  1
*D3
  0
MTEXT
  5
26B
330
210
100
AcDbEntity
  8
0
  6
Continuous
 62
     2
100
AcDbMText
 10
89.862418
 20
116.351499
 30
0.0
 40
3.0
 41
4.66171
 46
0.0
 71
     2
 72
     1
  1
70
 73
     1
 44
0.9
  0
LINE
  5
26C
330
210
100
AcDbEntity
  8
0
  6
Continuous
 62
     2
100
AcDbLine
 10
124.862418
 20
105.001301
 30
0.0
 11
124.862418
 21
113.351499
 31
0.0
  0
LINE
  5
26D
330
210
100
AcDbEntity
  8
0
  6
Continuous
 62
     2
100
AcDbLine
 10
54.862418
 20
104.549374
 30
0.0
 11
54.862418
 21
113.351499
 31
0.0
  0
LINE
  5
26E
330
210
100
AcDbEntity
  8
0
  6
Continuous
 62
     2
100
AcDbLine
 10
124.862418
 20
112.601499
 30
0.0
 11
89.862418
 21
112.601499
 31
0.0
  0
LINE
  5
26F
330
210
100
AcDbEntity
  8
0
  6
Continuous
 62
     2
100
AcDbLine
 10
54.862418
 20
112.601499
 30
0.0
 11
89.862418
 21
112.601499
 31
0.0
  0
INSERT
  5
270
330
210
100
AcDbEntity
  8
0
  6
Continuous
 62
     2
100
AcDbBlockReference
  2
_CLOSED
 10
124.862418
 20
112.601499
 30
0.0
 41
2.5
 42
2.5
 43
2.5
  0
INSERT
  5
271
330
210
100
AcDbEntity
  8
0
  6
Continuous
 62
     2
100
AcDbBlockReference
  2
_CLOSED
 10
54.862418
 20
112.601499
 30
0.0
 41
2.5
 42
2.5
 43
2.5
 50
180.0
  0
ENDBLK
  5
272
330
210
100
AcDbEntity
  8
0
  6
ByBlock
 62
     0
100
AcDbBlockEnd
  0
BLOCK
  5
273
330
211
100
AcDbEntity
  8
0
100
AcDbBlockBegin
  2
*D4
 70
     1
 10
0.0
 20
0.0
 30
0.0
  3
*D4
  1
*D4
  0
MTEXT
  5
274
330
211
100
AcDbEntity
  8
0
  6
Continuous
 62
     2
100
AcDbMText
 10
145.756149
 20
60.308898
 30
0.0
 40
3.0
 41
4.66171
 46
0.0
 71
     2
 72
     1
  1
70
 11
0.0
 21
1.0
 31
0.0
 73
     1
 44
0.9
  0
LINE
  5
275
330
211
100
AcDbEntity
  8
0
  6
Continuous
 62
     2
100
AcDbLine
 10
141.333733
 20
95.308898
 30
0.0
 11
150.256149
 21
95.308898
 31
0.0
  0
LINE
  5
276
330
211
100
AcDbEntity
  8
0
  6
Continuous
 62
     2
100
AcDbLine
 10
140.429878
 20
25.308898
 30
0.0
 11
150.256149
 21
25.308898
 31
0.0
  0
LINE
  5
277
330
211
100
AcDbEntity
  8
0
  6
Continuous
 62
     2
100
AcDbLine
 10
149.506149
 20
95.308898
 30
0.0
 11
149.506149
 21
60.308898
 31
0.0
  0
LINE
  5
278
330
211
100
AcDbEntity
  8
0
  6
Continuous
 62
     2
100
AcDbLine
 10
149.506149
 20
25.308898
 30
0.0
 11
149.506149
 21
60.308898
 31
0.0
  0
INSERT
  5
279
330
211
100
AcDbEntity
  8
0
  6
Continuous
 62
     2
100
AcDbBlockReference
  2
_CLOSED
 10
149.506149
 20
95.308898
 30
0.0
 41
2.5
 42
2.5
 43
2.5
 50
90.0
  0
INSERT
  5
27A
330
211
100
AcDbEntity
  8
0
  6
Continuous
 62
     2
100
AcDbBlockReference
  2
_CLOSED
 10
149.506149
 20
25.308898
 30
0.0
 41
2.5
 42
2.5
 43
2.5
 50
270.0
  0
ENDBLK
  5
27B
330
211
100
AcDbEntity
  8
0
  6
ByBlock
 62
     0
100
AcDbBlockEnd
  0
BLOCK
  5
216
330
212
100
AcDbEntity
  8
0
100
AcDbBlockBegin
  2
LOGO2_BL0
 70
     0
 10
207.63177
 20
39.871717
 30
0.0
  3
LOGO2_BL0
  1
LOGO2_BL0
  0
LINE
  5
217
330
212
100
AcDbEntity
  8
0
  6
Continuous
 62
     7
100
AcDbLine
 10
199.374695
 20
43.067209
 30
0.0
 11
198.070354
 21
43.067209
 31
0.0
  0
LINE
  5
218
330
212
100
AcDbEntity
  8
0
  6
Continuous
 62
     7
100
AcDbLine
 10
198.070354
 20
43.067209
 30
0.0
 11
198.070354
 21
32.608142
 31
0.0
  0
LINE
  5
219
330
212
100
AcDbEntity
  8
0
  6
Continuous
 62
     7
100
AcDbLine
 10
198.070354
 20
32.608142
 30
0.0
 11
202.551409
 21
32.608142
 31
0.0
  0
LINE
  5
21A
330
212
100
AcDbEntity
  8
0
  6
Continuous
 62
     7
100
AcDbLine
 10
202.551409
 20
32.608142
 30
0.0
 11
202.551409
 21
33.800997
 31
0.0
  0
LINE
  5
21B
330
212
100
AcDbEntity
  8
0
  6
Continuous
 62
     7
100
AcDbLine
 10
202.551409
 20
33.800997
 30
0.0
 11
199.374695
 21
33.800997
 31
0.0
  0
LINE
  5
21C
330
212
100
AcDbEntity
  8
0
  6
Continuous
 62
     7
100
AcDbLine
 10
199.374695
 20
33.800997
 30
0.0
 11
199.374695
 21
43.067209
 31
0.0
  0
LINE
  5
21D
330
212
100
AcDbEntity
  8
0
  6
Continuous
 62
     7
100
AcDbLine
 10
214.311022
 20
43.067209
 30
0.0
 11
213.007204
 21
43.067209
 31
0.0
  0
LINE
  5
21E
330
212
100
AcDbEntity
  8
0
  6
Continuous
 62
     7
100
AcDbLine
 10
213.007204
 20
43.067209
 30
0.0
 11
213.007204
 21
32.608142
 31
0.0
  0
LINE
  5
21F
330
212
100
AcDbEntity
  8
0
  6
Continuous
 62
     7
100
AcDbLine
 10
213.007204
 20
32.608142
 30
0.0
 11
217.48839
 21
32.608142
 31
0.0
  0
LINE
  5
220
330
212
100
AcDbEntity
  8
0
  6
Continuous
 62
     7
100
AcDbLine
 10
217.48839
 20
32.608142
 30
0.0
 11
217.48839
 21
33.800997
 31
0.0
  0
LINE
  5
221
330
212
100
AcDbEntity
  8
0
  6
Continuous
 62
     7
100
AcDbLine
 10
217.48839
 20
33.800997
 30
0.0
 11
214.311022
 21
33.800997
 31
0.0
  0
LINE
  5
222
330
212
100
AcDbEntity
  8
0
  6
Continuous
 62
     7
100
AcDbLine
 10
214.311022
 20
33.800997
 30
0.0
 11
214.311022
 21
43.067209
 31
0.0
  0
LWPOLYLINE
  5
223
330
212
100
AcDbEntity
  8
0
  6
Continuous
 62
     7
100
AcDbPolyline
 90
        2
 70
     0
 43
0.2
 10
196.424749
 20
29.264591
 10
196.424749
 20
27.407528
  0
LWPOLYLINE
  5
224
330
212
100
AcDbEntity
  8
0
  6
Continuous
 62
     7
100
AcDbPolyline
 90
        2
 70
     0
 43
0.2
 10
196.424749
 20
27.407528
 10
197.220465
 20
27.407528
  0
LWPOLYLINE
  5
225
330
212
100
AcDbEntity
  8
0
  6
Continuous
 62
     7
100
AcDbPolyline
 90
        2
 70
     0
 43
0.2
 10
197.220465
 20
27.407528
 10
197.220465
 20
27.619509
  0
LWPOLYLINE
  5
226
330
212
100
AcDbEntity
  8
0
  6
Continuous
 62
     7
100
AcDbPolyline
 90
        2
 70
     0
 43
0.2
 10
197.220465
 20
27.619509
 10
196.656359
 20
27.619509
  0
LWPOLYLINE
  5
227
330
212
100
AcDbEntity
  8
0
  6
Continuous
 62
     7
100
AcDbPolyline
 90
        2
 70
     0
 43
0.2
 10
196.656359
 20
27.619509
 10
196.656359
 20
29.264591
  0
LWPOLYLINE
  5
228
330
212
100
AcDbEntity
  8
0
  6
Continuous
 62
     7
100
AcDbPolyline
 90
        2
 70
     0
 43
0.2
 10
196.656359
 20
29.264591
 10
196.424749
 20
29.264591
  0
SPLINE
  5
229
330
212
100
AcDbEntity
  8
0
  6
Continuous
 62
     7
100
AcDbSpline
 70
     3
 71
     3
 72
    35
 73
    31
 74
     0
 42
0.000000001
 43
0.0000001
 40
0.0
 40
0.0
 40
0.0
 40
0.0
 40
1.0
 40
1.0
 40
1.0
 40
2.0
 40
2.0
 40
2.0
 40
3.0
 40
3.0
 40
3.0
 40
4.0
 40
4.0
 40
4.0
 40
5.0
 40
5.0
 40
5.0
 40
6.0
 40
6.0
 40
6.0
 40
7.0
 40
7.0
 40
7.0
 40
8.0
 40
8.0
 40
8.0
 40
9.0
 40
9.0
 40
9.0
 40
10.0
 40
10.0
 40
10.0
 40
10.0
 10
198.6187585818
 20
28.5600795788
 30
0.0
 10
198.6187585818
 20
28.5600795788
 30
0.0
 10
198.6187585818
 20
27.8979642997
 30
0.0
 10
198.6187585818
 20
27.8979642997
 30
0.0
 10
198.6187585818
 20
27.5828707044
 30
0.0
 10
198.7666222706
 20
27.3682720763
 30
0.0
 10
199.1067087549
 20
27.3682720763
 30
0.0
 10
199.4462718279
 20
27.3682720763
 30
0.0
 10
199.5943972224
 20
27.5828707044
 30
0.0
 10
199.5943972224
 20
27.8979642997
 30
0.0
 10
199.5943972224
 20
27.8979642997
 30
0.0
 10
199.5943972224
 20
28.5600795788
 30
0.0
 10
199.5943972224
 20
28.5600795788
 30
0.0
 10
199.5943972224
 20
28.5600795788
 30
0.0
 10
199.3723399835
 20
28.5600795788
 30
0.0
 10
199.3723399835
 20
28.5600795788
 30
0.0
 10
199.3723399835
 20
28.5600795788
 30
0.0
 10
199.3723399835
 20
27.9230880415
 30
0.0
 10
199.3723399835
 20
27.9230880415
 30
0.0
 10
199.3723399835
 20
27.7372770343
 30
0.0
 10
199.3256255261
 20
27.5744961238
 30
0.0
 10
199.1067087549
 20
27.5744961238
 30
0.0
 10
198.8872685725
 20
27.5744961238
 30
0.0
 10
198.840554115
 20
27.7372770343
 30
0.0
 10
198.840554115
 20
27.9230880415
 30
0.0
 10
198.840554115
 20
27.9230880415
 30
0.0
 10
198.840554115
 20
28.5600795788
 30
0.0
 10
198.840554115
 20
28.5600795788
 30
0.0
 10
198.840554115
 20
28.5600795788
 30
0.0
 10
198.6187585818
 20
28.5600795788
 30
0.0
 10
198.6187585818
 20
28.5600795788
 30
0.0
  0
SPLINE
  5
22A
330
212
100
AcDbEntity
  8
0
  6
Continuous
 62
     7
100
AcDbSpline
 70
     3
 71
     3
 72
    35
 73
    31
 74
     0
 42
0.000000001
 43
0.0000001
 40
0.0
 40
0.0
 40
0.0
 40
0.0
 40
1.0
 40
1.0
 40
1.0
 40
2.0
 40
2.0
 40
2.0
 40
3.0
 40
3.0
 40
3.0
 40
4.0
 40
4.0
 40
4.0
 40
5.0
 40
5.0
 40
5.0
 40
6.0
 40
6.0
 40
6.0
 40
7.0
 40
7.0
 40
7.0
 40
8.0
 40
8.0
 40
8.0
 40
9.0
 40
9.0
 40
9.0
 40
10.0
 40
10.0
 40
10.0
 40
10.0
 10
202.0175297796
 20
28.5187300871
 30
0.0
 10
201.9290732719
 20
28.5700243933
 30
0.0
 10
201.8156238753
 20
28.5951481351
 30
0.0
 10
201.7119884403
 20
28.5951481351
 30
0.0
 10
201.3571155871
 20
28.5951481351
 30
0.0
 10
201.0816703969
 20
28.331348846
 30
0.0
 10
201.0816703969
 20
27.9738589364
 30
0.0
 10
201.0816703969
 20
27.6289308977
 30
0.0
 10
201.360125202
 20
27.3687954876
 30
0.0
 10
201.699688275
 20
27.3687954876
 30
0.0
 10
201.8156238753
 20
27.3687954876
 30
0.0
 10
201.9163805482
 20
27.3907787617
 30
0.0
 10
202.0175297796
 20
27.4446901244
 30
0.0
 10
202.0175297796
 20
27.4446901244
 30
0.0
 10
202.0175297796
 20
27.7273322198
 30
0.0
 10
202.0175297796
 20
27.7273322198
 30
0.0
 10
201.9336531207
 20
27.6341650106
 30
0.0
 10
201.8301485385
 20
27.575019535
 30
0.0
 10
201.7020436258
 20
27.575019535
 30
0.0
 10
201.4683404858
 20
27.575019535
 30
0.0
 10
201.3030733716
 20
27.7472218488
 30
0.0
 10
201.3030733716
 20
27.9838037509
 30
0.0
 10
201.3030733716
 20
28.1957853225
 30
0.0
 10
201.4708266894
 20
28.3878772651
 30
0.0
 10
201.6876498154
 20
28.3878772651
 30
0.0
 10
201.8204654297
 20
28.3878772651
 30
0.0
 10
201.9290732719
 20
28.3339659025
 30
0.0
 10
202.0175297796
 20
28.2329475239
 30
0.0
 10
202.0175297796
 20
28.2329475239
 30
0.0
 10
202.0175297796
 20
28.5187300871
 30
0.0
 10
202.0175297796
 20
28.5187300871
 30
0.0
  0
SPLINE
  5
22B
330
212
100
AcDbEntity
  8
0
  6
Continuous
 62
     7
100
AcDbSpline
 70
     3
 71
     3
 72
    32
 73
    28
 74
     0
 42
0.000000001
 43
0.0000001
 40
0.0
 40
0.0
 40
0.0
 40
0.0
 40
1.0
 40
1.0
 40
1.0
 40
2.0
 40
2.0
 40
2.0
 40
3.0
 40
3.0
 40
3.0
 40
4.0
 40
4.0
 40
4.0
 40
5.0
 40
5.0
 40
5.0
 40
6.0
 40
6.0
 40
6.0
 40
7.0
 40
7.0
 40
7.0
 40
8.0
 40
8.0
 40
8.0
 40
9.0
 40
9.0
 40
9.0
 40
9.0
 10
204.5494010318
 20
27.9471649607
 30
0.0
 10
204.5494010318
 20
27.9471649607
 30
0.0
 10
204.5494010318
 20
27.9811866944
 30
0.0
 10
204.5494010318
 20
27.9811866944
 30
0.0
 10
204.5494010318
 20
28.3234976767
 30
0.0
 10
204.376544454
 20
28.5951481351
 30
0.0
 10
204.0098948469
 20
28.5951481351
 30
0.0
 10
203.6382728325
 20
28.5951481351
 30
0.0
 10
203.4485362406
 20
28.3287317896
 30
0.0
 10
203.4485362406
 20
27.9738589364
 30
0.0
 10
203.4485362406
 20
27.6341650106
 30
0.0
 10
203.6626114574
 20
27.3682720763
 30
0.0
 10
204.0147364013
 20
27.3682720763
 30
0.0
 10
204.2387564325
 20
27.3682720763
 30
0.0
 10
204.4409240424
 20
27.483945971
 30
0.0
 10
204.5494010318
 20
27.6833656716
 30
0.0
 10
204.5494010318
 20
27.6833656716
 30
0.0
 10
204.3617580851
 20
27.7901415744
 30
0.0
 10
204.3617580851
 20
27.7901415744
 30
0.0
 10
204.2782739847
 20
27.6514375831
 30
0.0
 10
204.1870695678
 20
27.5655981319
 30
0.0
 10
204.0174843105
 20
27.5655981319
 30
0.0
 10
203.8055027389
 20
27.5655981319
 30
0.0
 10
203.6725562718
 20
27.7503623165
 30
0.0
 10
203.670200921
 20
27.9471649607
 30
0.0
 10
203.670200921
 20
27.9471649607
 30
0.0
 10
204.5494010318
 20
27.9471649607
 30
0.0
 10
204.5494010318
 20
27.9471649607
 30
0.0
  0
SPLINE
  5
22C
330
212
100
AcDbEntity
  8
0
  6
Continuous
 62
     7
100
AcDbSpline
 70
     3
 71
     3
 72
    14
 73
    10
 74
     0
 42
0.000000001
 43
0.0000001
 40
0.0
 40
0.0
 40
0.0
 40
0.0
 40
1.0
 40
1.0
 40
1.0
 40
2.0
 40
2.0
 40
2.0
 40
3.0
 40
3.0
 40
3.0
 40
3.0
 10
203.6822393806
 20
28.1146565728
 30
0.0
 10
203.7098493261
 20
28.2795311285
 30
0.0
 10
203.8376925331
 20
28.4025327812
 30
0.0
 10
204.0098948469
 20
28.4025327812
 30
0.0
 10
204.1870695678
 20
28.4025327812
 30
0.0
 10
204.3005189644
 20
28.2868588865
 30
0.0
 10
204.3277363514
 20
28.1146565728
 30
0.0
 10
204.3277363514
 20
28.1146565728
 30
0.0
 10
203.6822393806
 20
28.1146565728
 30
0.0
 10
203.6822393806
 20
28.1146565728
 30
0.0
  0
SPLINE
  5
22D
330
212
100
AcDbEntity
  8
0
  6
Continuous
 62
     7
100
AcDbSpline
 70
     3
 71
     3
 72
    20
 73
    16
 74
     0
 42
0.000000001
 43
0.0000001
 40
0.0
 40
0.0
 40
0.0
 40
0.0
 40
1.0
 40
1.0
 40
1.0
 40
2.0
 40
2.0
 40
2.0
 40
3.0
 40
3.0
 40
3.0
 40
4.0
 40
4.0
 40
4.0
 40
5.0
 40
5.0
 40
5.0
 40
5.0
 10
206.573432482
 20
28.324021088
 30
0.0
 10
206.573432482
 20
28.324021088
 30
0.0
 10
206.9845720486
 20
27.8215462516
 30
0.0
 10
206.9845720486
 20
27.8215462516
 30
0.0
 10
206.8685055956
 20
27.705872357
 30
0.0
 10
206.730717574
 20
27.5755429463
 30
0.0
 10
206.558776966
 20
27.5755429463
 30
0.0
 10
206.3813405394
 20
27.5755429463
 30
0.0
 10
206.2138489273
 20
27.7398940907
 30
0.0
 10
206.2138489273
 20
27.916807106
 30
0.0
 10
206.2138489273
 20
28.0947669439
 30
0.0
 10
206.4236060009
 20
28.2209090643
 30
0.0
 10
206.5511875023
 20
28.3088421606
 30
0.0
 10
206.5511875023
 20
28.3088421606
 30
0.0
 10
206.573432482
 20
28.324021088
 30
0.0
 10
206.573432482
 20
28.324021088
 30
0.0
  0
SPLINE
  5
22E
330
212
100
AcDbEntity
  8
0
  6
Continuous
 62
     7
100
AcDbSpline
 70
     3
 71
     3
 72
    23
 73
    19
 74
     0
 42
0.000000001
 43
0.0000001
 40
0.0
 40
0.0
 40
0.0
 40
0.0
 40
1.0
 40
1.0
 40
1.0
 40
2.0
 40
2.0
 40
2.0
 40
3.0
 40
3.0
 40
3.0
 40
4.0
 40
4.0
 40
4.0
 40
5.0
 40
5.0
 40
5.0
 40
6.0
 40
6.0
 40
6.0
 40
6.0
 10
206.6227639959
 20
28.615037764
 30
0.0
 10
206.6227639959
 20
28.615037764
 30
0.0
 10
206.5611323168
 20
28.6935494572
 30
0.0
 10
206.5611323168
 20
28.6935494572
 30
0.0
 10
206.5072209541
 20
28.7621163359
 30
0.0
 10
206.4504308294
 20
28.8312066259
 30
0.0
 10
206.4504308294
 20
28.9248972465
 30
0.0
 10
206.4504308294
 20
29.0437116088
 30
0.0
 10
206.5463459479
 20
29.1211764794
 30
0.0
 10
206.6573091409
 20
29.1211764794
 30
0.0
 10
206.7805724992
 20
29.1211764794
 30
0.0
 10
206.8738705613
 20
29.0499925443
 30
0.0
 10
206.8738705613
 20
28.9196631336
 30
0.0
 10
206.8738705613
 20
28.7846230213
 30
0.0
 10
206.7457656486
 20
28.7082049733
 30
0.0
 10
206.6522058808
 20
28.6344039817
 30
0.0
 10
206.6522058808
 20
28.6344039817
 30
0.0
 10
206.6227639959
 20
28.615037764
 30
0.0
 10
206.6227639959
 20
28.615037764
 30
0.0
  0
SPLINE
  5
22F
330
212
100
AcDbEntity
  8
0
  6
Continuous
 62
     7
100
AcDbSpline
 70
     3
 71
     3
 72
    50
 73
    46
 74
     0
 42
0.000000001
 43
0.0000001
 40
0.0
 40
0.0
 40
0.0
 40
0.0
 40
1.0
 40
1.0
 40
1.0
 40
2.0
 40
2.0
 40
2.0
 40
3.0
 40
3.0
 40
3.0
 40
4.0
 40
4.0
 40
4.0
 40
5.0
 40
5.0
 40
5.0
 40
6.0
 40
6.0
 40
6.0
 40
7.0
 40
7.0
 40
7.0
 40
8.0
 40
8.0
 40
8.0
 40
9.0
 40
9.0
 40
9.0
 40
10.0
 40
10.0
 40
10.0
 40
11.0
 40
11.0
 40
11.0
 40
12.0
 40
12.0
 40
12.0
 40
13.0
 40
13.0
 40
13.0
 40
14.0
 40
14.0
 40
14.0
 40
15.0
 40
15.0
 40
15.0
 40
15.0
 10
207.3249202386
 20
27.4080513342
 30
0.0
 10
207.3249202386
 20
27.4080513342
 30
0.0
 10
207.6103102433
 20
27.4080513342
 30
0.0
 10
207.6103102433
 20
27.4080513342
 30
0.0
 10
207.6103102433
 20
27.4080513342
 30
0.0
 10
207.2779440755
 20
27.8189291952
 30
0.0
 10
207.2779440755
 20
27.8189291952
 30
0.0
 10
207.2779440755
 20
27.8189291952
 30
0.0
 10
207.5044503103
 20
28.0848221294
 30
0.0
 10
207.5044503103
 20
28.0848221294
 30
0.0
 10
207.5044503103
 20
28.0848221294
 30
0.0
 10
207.356194063
 20
28.2376582255
 30
0.0
 10
207.356194063
 20
28.2376582255
 30
0.0
 10
207.356194063
 20
28.2376582255
 30
0.0
 10
207.1402869068
 20
27.9864208073
 30
0.0
 10
207.1402869068
 20
27.9864208073
 30
0.0
 10
207.1402869068
 20
27.9864208073
 30
0.0
 10
206.7532242594
 20
28.4543504987
 30
0.0
 10
206.7532242594
 20
28.4543504987
 30
0.0
 10
206.9086774119
 20
28.5684541594
 30
0.0
 10
207.0909553929
 20
28.7082049733
 30
0.0
 10
207.0909553929
 20
28.9175694884
 30
0.0
 10
207.0909553929
 20
29.1614791486
 30
0.0
 10
206.8889186358
 20
29.3048938415
 30
0.0
 10
206.662412401
 20
29.3048938415
 30
0.0
 10
206.4182410352
 20
29.3048938415
 30
0.0
 10
206.233869409
 20
29.1541513906
 30
0.0
 10
206.233869409
 20
28.8976798595
 30
0.0
 10
206.233869409
 20
28.7401330618
 30
0.0
 10
206.3325324368
 20
28.6024758931
 30
0.0
 10
206.4378689585
 20
28.4915127001
 30
0.0
 10
206.4378689585
 20
28.4915127001
 30
0.0
 10
206.3223259167
 20
28.407766894
 30
0.0
 10
206.3223259167
 20
28.407766894
 30
0.0
 10
206.1446277844
 20
28.2795311285
 30
0.0
 10
205.9972875069
 20
28.1518187743
 30
0.0
 10
205.9972875069
 20
27.9147134609
 30
0.0
 10
205.9972875069
 20
27.5943857527
 30
0.0
 10
206.2558526831
 20
27.3682720763
 30
0.0
 10
206.5662355768
 20
27.3682720763
 30
0.0
 10
206.785152348
 20
27.3682720763
 30
0.0
 10
206.9823475507
 20
27.4933673741
 30
0.0
 10
207.1226217758
 20
27.6592887524
 30
0.0
 10
207.1226217758
 20
27.6592887524
 30
0.0
 10
207.3249202386
 20
27.4080513342
 30
0.0
 10
207.3249202386
 20
27.4080513342
 30
0.0
  0
LWPOLYLINE
  5
230
330
212
100
AcDbEntity
  8
0
  6
Continuous
 62
     7
100
AcDbPolyline
 90
        2
 70
     0
 43
0.2
 10
209.260364
 20
29.264591
 10
209.029017
 20
29.264591
  0
LWPOLYLINE
  5
231
330
212
100
AcDbEntity
  8
0
  6
Continuous
 62
     7
100
AcDbPolyline
 90
        2
 70
     0
 43
0.2
 10
209.029017
 20
29.264591
 10
209.029017
 20
27.407528
  0
LWPOLYLINE
  5
232
330
212
100
AcDbEntity
  8
0
  6
Continuous
 62
     7
100
AcDbPolyline
 90
        2
 70
     0
 43
0.2
 10
209.029017
 20
27.407528
 10
209.82434
 20
27.407528
  0
LWPOLYLINE
  5
233
330
212
100
AcDbEntity
  8
0
  6
Continuous
 62
     7
100
AcDbPolyline
 90
        2
 70
     0
 43
0.2
 10
209.82434
 20
27.407528
 10
209.82434
 20
27.619509
  0
LWPOLYLINE
  5
234
330
212
100
AcDbEntity
  8
0
  6
Continuous
 62
     7
100
AcDbPolyline
 90
        2
 70
     0
 43
0.2
 10
209.82434
 20
27.619509
 10
209.260364
 20
27.619509
  0
LWPOLYLINE
  5
235
330
212
100
AcDbEntity
  8
0
  6
Continuous
 62
     7
100
AcDbPolyline
 90
        2
 70
     0
 43
0.2
 10
209.260364
 20
27.619509
 10
209.260364
 20
29.264591
  0
LWPOLYLINE
  5
236
330
212
100
AcDbEntity
  8
0
  6
Continuous
 62
     7
100
AcDbPolyline
 90
        2
 70
     0
 43
0.2
 10
211.503443
 20
28.56008
 10
211.282302
 20
28.56008
  0
LWPOLYLINE
  5
237
330
212
100
AcDbEntity
  8
0
  6
Continuous
 62
     7
100
AcDbPolyline
 90
        2
 70
     0
 43
0.2
 10
211.282302
 20
28.56008
 10
211.282302
 20
27.408051
  0
LWPOLYLINE
  5
238
330
212
100
AcDbEntity
  8
0
  6
Continuous
 62
     7
100
AcDbPolyline
 90
        2
 70
     0
 43
0.2
 10
211.282302
 20
27.408051
 10
211.503443
 20
27.408051
  0
LWPOLYLINE
  5
239
330
212
100
AcDbEntity
  8
0
  6
Continuous
 62
     7
100
AcDbPolyline
 90
        2
 70
     0
 43
0.2
 10
211.503443
 20
27.408051
 10
211.503443
 20
28.56008
  0
SPLINE
  5
23A
330
212
100
AcDbEntity
  8
0
  6
Continuous
 62
     7
100
AcDbSpline
 70
     3
 71
     3
 72
    17
 73
    13
 74
     0
 42
0.000000001
 43
0.0000001
 40
0.0
 40
0.0
 40
0.0
 40
0.0
 40
1.0
 40
1.0
 40
1.0
 40
2.0
 40
2.0
 40
2.0
 40
3.0
 40
3.0
 40
3.0
 40
4.0
 40
4.0
 40
4.0
 40
4.0
 10
211.3930036207
 20
29.2426078982
 30
0.0
 10
211.308996109
 20
29.2426078982
 30
0.0
 10
211.2404292303
 20
29.1735176082
 30
0.0
 10
211.2404292303
 20
29.087678157
 30
0.0
 10
211.2404292303
 20
29.0034089396
 30
0.0
 10
211.308996109
 20
28.9374591174
 30
0.0
 10
211.3930036207
 20
28.9374591174
 30
0.0
 10
211.4767494268
 20
28.9374591174
 30
0.0
 10
211.5455780111
 20
29.0034089396
 30
0.0
 10
211.5455780111
 20
29.087678157
 30
0.0
 10
211.5455780111
 20
29.1735176082
 30
0.0
 10
211.4767494268
 20
29.2426078982
 30
0.0
 10
211.3930036207
 20
29.2426078982
 30
0.0
  0
SPLINE
  5
23B
330
212
100
AcDbEntity
  8
0
  6
Continuous
 62
     7
100
AcDbSpline
 70
     3
 71
     3
 72
    17
 73
    13
 74
     0
 42
0.000000001
 43
0.0000001
 40
0.0
 40
0.0
 40
0.0
 40
0.0
 40
1.0
 40
1.0
 40
1.0
 40
2.0
 40
2.0
 40
2.0
 40
3.0
 40
3.0
 40
3.0
 40
4.0
 40
4.0
 40
4.0
 40
4.0
 10
213.6337273441
 20
27.5655981319
 30
0.0
 10
213.3997624984
 20
27.5655981319
 30
0.0
 10
213.2694330877
 20
27.767634889
 30
0.0
 10
213.2694330877
 20
27.9838037509
 30
0.0
 10
213.2694330877
 20
28.1984023789
 30
0.0
 10
213.4052583169
 20
28.3972986683
 30
0.0
 10
213.6337273441
 20
28.3972986683
 30
0.0
 10
213.8731880083
 20
28.3972986683
 30
0.0
 10
214.0087515319
 20
28.2083471934
 30
0.0
 10
214.0087515319
 20
27.9838037509
 30
0.0
 10
214.0087515319
 20
27.7576900745
 30
0.0
 10
213.8755433591
 20
27.5655981319
 30
0.0
 10
213.6337273441
 20
27.5655981319
 30
0.0
  0
SPLINE
  5
23C
330
212
100
AcDbEntity
  8
0
  6
Continuous
 62
     7
100
AcDbSpline
 70
     3
 71
     3
 72
    50
 73
    46
 74
     0
 42
0.000000001
 43
0.0000001
 40
0.0
 40
0.0
 40
0.0
 40
0.0
 40
1.0
 40
1.0
 40
1.0
 40
2.0
 40
2.0
 40
2.0
 40
3.0
 40
3.0
 40
3.0
 40
4.0
 40
4.0
 40
4.0
 40
5.0
 40
5.0
 40
5.0
 40
6.0
 40
6.0
 40
6.0
 40
7.0
 40
7.0
 40
7.0
 40
8.0
 40
8.0
 40
8.0
 40
9.0
 40
9.0
 40
9.0
 40
10.0
 40
10.0
 40
10.0
 40
11.0
 40
11.0
 40
11.0
 40
12.0
 40
12.0
 40
12.0
 40
13.0
 40
13.0
 40
13.0
 40
14.0
 40
14.0
 40
14.0
 40
15.0
 40
15.0
 40
15.0
 40
15.0
 10
214.2178543414
 20
28.5606029901
 30
0.0
 10
214.2178543414
 20
28.5606029901
 30
0.0
 10
213.996189661
 20
28.5606029901
 30
0.0
 10
213.996189661
 20
28.5606029901
 30
0.0
 10
213.996189661
 20
28.5606029901
 30
0.0
 10
213.996189661
 20
28.3632769346
 30
0.0
 10
213.996189661
 20
28.3632769346
 30
0.0
 10
213.996189661
 20
28.3632769346
 30
0.0
 10
213.9914789594
 20
28.3632769346
 30
0.0
 10
213.9914789594
 20
28.3632769346
 30
0.0
 10
213.9001436896
 20
28.5061682162
 30
0.0
 10
213.7622248153
 20
28.5946247238
 30
0.0
 10
213.5894990903
 20
28.5946247238
 30
0.0
 10
213.2571329225
 20
28.5946247238
 30
0.0
 10
213.048030113
 20
28.3067485155
 30
0.0
 10
213.048030113
 20
27.9911315089
 30
0.0
 10
213.048030113
 20
27.6613823975
 30
0.0
 10
213.2450944629
 20
27.3682720763
 30
0.0
 10
213.599967316
 20
27.3682720763
 30
0.0
 10
213.7622248153
 20
27.3682720763
 30
0.0
 10
213.9022373348
 20
27.456728584
 30
0.0
 10
213.9914789594
 20
27.587581406
 30
0.0
 10
213.9914789594
 20
27.587581406
 30
0.0
 10
213.996189661
 20
27.587581406
 30
0.0
 10
213.996189661
 20
27.587581406
 30
0.0
 10
213.996189661
 20
27.587581406
 30
0.0
 10
213.996189661
 20
27.3682720763
 30
0.0
 10
213.996189661
 20
27.3682720763
 30
0.0
 10
213.996189661
 20
27.1316901742
 30
0.0
 10
213.9396612419
 20
26.9448323445
 30
0.0
 10
213.6664405496
 20
26.9448323445
 30
0.0
 10
213.4641420868
 20
26.9448323445
 30
0.0
 10
213.3215125109
 20
27.0631232955
 30
0.0
 10
213.3215125109
 20
27.2693473429
 30
0.0
 10
213.3215125109
 20
27.2693473429
 30
0.0
 10
213.0998478305
 20
27.2693473429
 30
0.0
 10
213.0998478305
 20
27.2693473429
 30
0.0
 10
213.1048202377
 20
26.9448323445
 30
0.0
 10
213.3359063213
 20
26.7480297002
 30
0.0
 10
213.6562340295
 20
26.7480297002
 30
0.0
 10
214.1042740919
 20
26.7480297002
 30
0.0
 10
214.2178543414
 20
27.0332888521
 30
0.0
 10
214.2178543414
 20
27.4300346083
 30
0.0
 10
214.2178543414
 20
27.4300346083
 30
0.0
 10
214.2178543414
 20
28.5606029901
 30
0.0
 10
214.2178543414
 20
28.5606029901
 30
0.0
  0
SPLINE
  5
23D
330
212
100
AcDbEntity
  8
0
  6
Continuous
 62
     7
100
AcDbSpline
 70
     3
 71
     3
 72
    44
 73
    40
 74
     0
 42
0.000000001
 43
0.0000001
 40
0.0
 40
0.0
 40
0.0
 40
0.0
 40
1.0
 40
1.0
 40
1.0
 40
2.0
 40
2.0
 40
2.0
 40
3.0
 40
3.0
 40
3.0
 40
4.0
 40
4.0
 40
4.0
 40
5.0
 40
5.0
 40
5.0
 40
6.0
 40
6.0
 40
6.0
 40
7.0
 40
7.0
 40
7.0
 40
8.0
 40
8.0
 40
8.0
 40
9.0
 40
9.0
 40
9.0
 40
10.0
 40
10.0
 40
10.0
 40
11.0
 40
11.0
 40
11.0
 40
12.0
 40
12.0
 40
12.0
 40
13.0
 40
13.0
 40
13.0
 40
13.0
 10
215.7867796768
 20
29.5456630339
 30
0.0
 10
215.7867796768
 20
29.5456630339
 30
0.0
 10
215.7867796768
 20
27.4075279229
 30
0.0
 10
215.7867796768
 20
27.4075279229
 30
0.0
 10
215.7867796768
 20
27.4075279229
 30
0.0
 10
216.0081826515
 20
27.4075279229
 30
0.0
 10
216.0081826515
 20
27.4075279229
 30
0.0
 10
216.0081826515
 20
27.4075279229
 30
0.0
 10
216.0081826515
 20
27.9372201463
 30
0.0
 10
216.0081826515
 20
27.9372201463
 30
0.0
 10
216.0081826515
 20
28.1471080727
 30
0.0
 10
216.0081826515
 20
28.3978220796
 30
0.0
 10
216.2934418034
 20
28.3978220796
 30
0.0
 10
216.5203405967
 20
28.3978220796
 30
0.0
 10
216.547296278
 20
28.2648756125
 30
0.0
 10
216.547296278
 20
28.0685963795
 30
0.0
 10
216.547296278
 20
28.0685963795
 30
0.0
 10
216.547296278
 20
27.4075279229
 30
0.0
 10
216.547296278
 20
27.4075279229
 30
0.0
 10
216.547296278
 20
27.4075279229
 30
0.0
 10
216.7692226641
 20
27.4075279229
 30
0.0
 10
216.7692226641
 20
27.4075279229
 30
0.0
 10
216.7692226641
 20
27.4075279229
 30
0.0
 10
216.7692226641
 20
28.0947669439
 30
0.0
 10
216.7692226641
 20
28.0947669439
 30
0.0
 10
216.7692226641
 20
28.3753153942
 30
0.0
 10
216.6852151524
 20
28.5951481351
 30
0.0
 10
216.3601767426
 20
28.5951481351
 30
0.0
 10
216.2204259288
 20
28.5951481351
 30
0.0
 10
216.0822453488
 20
28.5286749015
 30
0.0
 10
216.0128933531
 20
28.4056732489
 30
0.0
 10
216.0128933531
 20
28.4056732489
 30
0.0
 10
216.0081826515
 20
28.4056732489
 30
0.0
 10
216.0081826515
 20
28.4056732489
 30
0.0
 10
216.0081826515
 20
28.4056732489
 30
0.0
 10
216.0081826515
 20
29.5456630339
 30
0.0
 10
216.0081826515
 20
29.5456630339
 30
0.0
 10
216.0081826515
 20
29.5456630339
 30
0.0
 10
215.7867796768
 20
29.5456630339
 30
0.0
 10
215.7867796768
 20
29.5456630339
 30
0.0
  0
LWPOLYLINE
  5
23E
330
212
100
AcDbEntity
  8
0
  6
Continuous
 62
     7
100
AcDbPolyline
 90
        2
 70
     0
 43
0.2
 10
218.609013
 20
28.353332
 10
218.825444
 20
28.353332
  0
LWPOLYLINE
  5
23F
330
212
100
AcDbEntity
  8
0
  6
Continuous
 62
     7
100
AcDbPolyline
 90
        2
 70
     0
 43
0.2
 10
218.825444
 20
28.353332
 10
218.825444
 20
28.56008
  0
LWPOLYLINE
  5
240
330
212
100
AcDbEntity
  8
0
  6
Continuous
 62
     7
100
AcDbPolyline
 90
        2
 70
     0
 43
0.2
 10
218.825444
 20
28.56008
 10
218.609013
 20
28.56008
  0
LWPOLYLINE
  5
241
330
212
100
AcDbEntity
  8
0
  6
Continuous
 62
     7
100
AcDbPolyline
 90
        2
 70
     0
 43
0.2
 10
218.609013
 20
28.56008
 10
218.609013
 20
29.000792
  0
LWPOLYLINE
  5
242
330
212
100
AcDbEntity
  8
0
  6
Continuous
 62
     7
100
AcDbPolyline
 90
        2
 70
     0
 43
0.2
 10
218.609013
 20
29.000792
 10
218.387349
 20
29.000792
  0
LWPOLYLINE
  5
243
330
212
100
AcDbEntity
  8
0
  6
Continuous
 62
     7
100
AcDbPolyline
 90
        2
 70
     0
 43
0.2
 10
218.387349
 20
29.000792
 10
218.387349
 20
28.56008
  0
LWPOLYLINE
  5
244
330
212
100
AcDbEntity
  8
0
  6
Continuous
 62
     7
100
AcDbPolyline
 90
        2
 70
     0
 43
0.2
 10
218.387349
 20
28.56008
 10
218.266702
 20
28.56008
  0
LWPOLYLINE
  5
245
330
212
100
AcDbEntity
  8
0
  6
Continuous
 62
     7
100
AcDbPolyline
 90
        2
 70
     0
 43
0.2
 10
218.266702
 20
28.56008
 10
218.266702
 20
28.353332
  0
LWPOLYLINE
  5
246
330
212
100
AcDbEntity
  8
0
  6
Continuous
 62
     7
100
AcDbPolyline
 90
        2
 70
     0
 43
0.2
 10
218.266702
 20
28.353332
 10
218.387349
 20
28.353332
  0
LWPOLYLINE
  5
247
330
212
100
AcDbEntity
  8
0
  6
Continuous
 62
     7
100
AcDbPolyline
 90
        2
 70
     0
 43
0.2
 10
218.387349
 20
28.353332
 10
218.387349
 20
27.407528
  0
LWPOLYLINE
  5
248
330
212
100
AcDbEntity
  8
0
  6
Continuous
 62
     7
100
AcDbPolyline
 90
        2
 70
     0
 43
0.2
 10
218.387349
 20
27.407528
 10
218.609013
 20
27.407528
  0
LWPOLYLINE
  5
249
330
212
100
AcDbEntity
  8
0
  6
Continuous
 62
     7
100
AcDbPolyline
 90
        2
 70
     0
 43
0.2
 10
218.609013
 20
27.407528
 10
218.609013
 20
28.353332
  0
SPLINE
  5
24A
330
212
100
AcDbEntity
  8
0
  6
Continuous
 62
     7
100
AcDbSpline
 70
     3
 71
     3
 72
    20
 73
    16
 74
     0
 42
0.000000001
 43
0.0000001
 40
0.0
 40
0.0
 40
0.0
 40
0.0
 40
1.0
 40
1.0
 40
1.0
 40
2.0
 40
2.0
 40
2.0
 40
3.0
 40
3.0
 40
3.0
 40
4.0
 40
4.0
 40
4.0
 40
5.0
 40
5.0
 40
5.0
 40
5.0
 10
206.3910236482
 20
37.7684543663
 30
0.0
 10
206.3910236482
 20
37.7684543663
 30
0.0
 10
208.7073803027
 20
34.9388929441
 30
0.0
 10
208.7073803027
 20
34.9388929441
 30
0.0
 10
208.0557332493
 20
34.2867224794
 30
0.0
 10
207.2788600452
 20
33.5508062087
 30
0.0
 10
206.3076704006
 20
33.5508062087
 30
0.0
 10
205.3091325162
 20
33.5508062087
 30
0.0
 10
204.3658145226
 20
34.4803846559
 30
0.0
 10
204.3658145226
 20
35.4795768045
 30
0.0
 10
204.3658145226
 20
36.478768953
 30
0.0
 10
205.5446675957
 20
37.1853741916
 30
0.0
 10
206.266190056
 20
37.6852319715
 30
0.0
 10
206.266190056
 20
37.6852319715
 30
0.0
 10
206.3910236482
 20
37.7684543663
 30
0.0
 10
206.3910236482
 20
37.7684543663
 30
0.0
  0
SPLINE
  5
24B
330
212
100
AcDbEntity
  8
0
  6
Continuous
 62
     7
100
AcDbSpline
 70
     3
 71
     3
 72
    23
 73
    19
 74
     0
 42
0.000000001
 43
0.0000001
 40
0.0
 40
0.0
 40
0.0
 40
0.0
 40
1.0
 40
1.0
 40
1.0
 40
2.0
 40
2.0
 40
2.0
 40
3.0
 40
3.0
 40
3.0
 40
4.0
 40
4.0
 40
4.0
 40
5.0
 40
5.0
 40
5.0
 40
6.0
 40
6.0
 40
6.0
 40
6.0
 10
206.6684316308
 20
39.4062082861
 30
0.0
 10
206.6684316308
 20
39.4062082861
 30
0.0
 10
206.3219333582
 20
39.8495376469
 30
0.0
 10
206.3219333582
 20
39.8495376469
 30
0.0
 10
206.0161303133
 20
40.2376471168
 30
0.0
 10
205.6972419861
 20
40.6261491453
 30
0.0
 10
205.6972419861
 20
41.1530934593
 30
0.0
 10
205.6972419861
 20
41.819265176
 30
0.0
 10
206.2385801106
 20
42.2629870953
 30
0.0
 10
206.8624863657
 20
42.2629870953
 30
0.0
 10
207.5562680278
 20
42.2629870953
 30
0.0
 10
208.0834740475
 20
41.8607455205
 30
0.0
 10
208.0834740475
 20
41.1257452195
 30
0.0
 10
208.0834740475
 20
40.362480709
 30
0.0
 10
207.3622132928
 20
39.9323674832
 30
0.0
 10
206.835138126
 20
39.5166480678
 30
0.0
 10
206.835138126
 20
39.5166480678
 30
0.0
 10
206.6684316308
 20
39.4062082861
 30
0.0
 10
206.6684316308
 20
39.4062082861
 30
0.0
  0
SPLINE
  5
24C
330
212
100
AcDbEntity
  8
0
  6
Continuous
 62
     7
100
AcDbSpline
 70
     3
 71
     3
 72
    50
 73
    46
 74
     0
 42
0.000000001
 43
0.0000001
 40
0.0
 40
0.0
 40
0.0
 40
0.0
 40
1.0
 40
1.0
 40
1.0
 40
2.0
 40
2.0
 40
2.0
 40
3.0
 40
3.0
 40
3.0
 40
4.0
 40
4.0
 40
4.0
 40
5.0
 40
5.0
 40
5.0
 40
6.0
 40
6.0
 40
6.0
 40
7.0
 40
7.0
 40
7.0
 40
8.0
 40
8.0
 40
8.0
 40
9.0
 40
9.0
 40
9.0
 40
10.0
 40
10.0
 40
10.0
 40
11.0
 40
11.0
 40
11.0
 40
12.0
 40
12.0
 40
12.0
 40
13.0
 40
13.0
 40
13.0
 40
14.0
 40
14.0
 40
14.0
 40
15.0
 40
15.0
 40
15.0
 40
15.0
 10
210.6220187937
 20
32.6076190679
 30
0.0
 10
210.6220187937
 20
32.6076190679
 30
0.0
 10
212.2312467983
 20
32.6076190679
 30
0.0
 10
212.2312467983
 20
32.6076190679
 30
0.0
 10
212.2312467983
 20
32.6076190679
 30
0.0
 10
210.3582195046
 20
34.9247608393
 30
0.0
 10
210.3582195046
 20
34.9247608393
 30
0.0
 10
210.3582195046
 20
34.9247608393
 30
0.0
 10
211.6345579301
 20
36.4222405339
 30
0.0
 10
211.6345579301
 20
36.4222405339
 30
0.0
 10
211.6345579301
 20
36.4222405339
 30
0.0
 10
210.8023339824
 20
37.2832521025
 30
0.0
 10
210.8023339824
 20
37.2832521025
 30
0.0
 10
210.8023339824
 20
37.2832521025
 30
0.0
 10
209.5817388591
 20
35.8679479801
 30
0.0
 10
209.5817388591
 20
35.8679479801
 30
0.0
 10
209.5817388591
 20
35.8679479801
 30
0.0
 10
207.4038244902
 20
38.5033238145
 30
0.0
 10
207.4038244902
 20
38.5033238145
 30
0.0
 10
208.2773979297
 20
39.1413621744
 30
0.0
 10
209.3040691708
 20
39.9323674832
 30
0.0
 10
209.3040691708
 20
41.1112205563
 30
0.0
 10
209.3040691708
 20
42.4849134813
 30
0.0
 10
208.166173031
 20
43.2893966308
 30
0.0
 10
206.8908814281
 20
43.2893966308
 30
0.0
 10
205.5174502087
 20
43.2893966308
 30
0.0
 10
204.47651601
 20
42.4431714311
 30
0.0
 10
204.47651601
 20
41.0005190689
 30
0.0
 10
204.47651601
 20
40.1129443775
 30
0.0
 10
205.0318553864
 20
39.3360711735
 30
0.0
 10
205.6280208433
 20
38.7116415071
 30
0.0
 10
205.6280208433
 20
38.7116415071
 30
0.0
 10
204.9761120843
 20
38.2400479367
 30
0.0
 10
204.9761120843
 20
38.2400479367
 30
0.0
 10
203.9775741998
 20
37.518787182
 30
0.0
 10
203.144695988
 20
36.7975264273
 30
0.0
 10
203.144695988
 20
35.465968111
 30
0.0
 10
203.144695988
 20
33.662292813
 30
0.0
 10
204.6017421606
 20
32.3856926819
 30
0.0
 10
206.349281598
 20
32.3856926819
 30
0.0
 10
207.5841396789
 20
32.3856926819
 30
0.0
 10
208.6935099035
 20
33.0938681543
 30
0.0
 10
209.4843843595
 20
34.022399779
 30
0.0
 10
209.4843843595
 20
34.022399779
 30
0.0
 10
210.6220187937
 20
32.6076190679
 30
0.0
 10
210.6220187937
 20
32.6076190679
 30
0.0
  0
LINE
  5
24D
330
212
100
AcDbEntity
  8
0
  6
Continuous
 62
     7
100
AcDbLine
 10
196.42488
 20
30.581494
 30
0.0
 11
218.838791
 21
30.581494
 31
0.0
  0
LINE
  5
24E
330
212
100
AcDbEntity
  8
0
  6
Continuous
 62
     7
100
AcDbLine
 10
218.838791
 20
30.581494
 30
0.0
 11
218.838791
 21
52.995405
 31
0.0
  0
LINE
  5
24F
330
212
100
AcDbEntity
  8
0
  6
Continuous
 62
     7
100
AcDbLine
 10
218.838791
 20
52.995405
 30
0.0
 11
196.42488
 21
52.995405
 31
0.0
  0
LINE
  5
250
330
212
100
AcDbEntity
  8
0
  6
Continuous
 62
     7
100
AcDbLine
 10
196.42488
 20
52.995405
 30
0.0
 11
196.42488
 21
30.581494
 31
0.0
  0
ENDBLK
  5
251
330
212
100
AcDbEntity
  8
0
  6
ByBlock
 62
     0
100
AcDbBlockEnd
  0
BLOCK
  5
27C
330
213
100
AcDbEntity
  8
0
100
AcDbBlockBegin
  2
*T6
 70
     1
 10
0.0
 20
0.0
 30
0.0
  3
*T6
  1
*T6
  0
LINE
  5
27D
330
213
100
AcDbEntity
  8
0
  6
Continuous
 62
     2
100
AcDbLine
 10
0.0
 20
0.0
 30
0.0
 11
90.0
 21
0.0
 31
0.0
  0
LINE
  5
27E
330
213
100
AcDbEntity
  8
0
  6
Continuous
 62
     2
100
AcDbLine
 10
0.0
 20
0.0
 30
0.0
 11
0.0
 21
-40.0
 31
0.0
  0
LINE
  5
27F
330
213
100
AcDbEntity
  8
0
  6
Continuous
 62
     2
100
AcDbLine
 10
30.0
 20
-6.0
 30
0.0
 11
90.0
 21
-6.0
 31
0.0
  0
LINE
  5
280
330
213
100
AcDbEntity
  8
0
  6
Continuous
 62
     2
100
AcDbLine
 10
30.0
 20
-12.0
 30
0.0
 11
90.0
 21
-12.0
 31
0.0
  0
LINE
  5
281
330
213
100
AcDbEntity
  8
0
  6
Continuous
 62
     2
100
AcDbLine
 10
30.0
 20
-22.0
 30
0.0
 11
90.0
 21
-22.0
 31
0.0
  0
LINE
  5
282
330
213
100
AcDbEntity
  8
0
  6
Continuous
 62
     2
100
AcDbLine
 10
0.0
 20
-27.0
 30
0.0
 11
90.0
 21
-27.0
 31
0.0
  0
LINE
  5
283
330
213
100
AcDbEntity
  8
0
  6
Continuous
 62
     2
100
AcDbLine
 10
0.0
 20
-40.0
 30
0.0
 11
90.0
 21
-40.0
 31
0.0
  0
LINE
  5
284
330
213
100
AcDbEntity
  8
0
  6
Continuous
 62
     2
100
AcDbLine
 10
30.0
 20
0.0
 30
0.0
 11
30.0
 21
-27.0
 31
0.0
  0
LINE
  5
285
330
213
100
AcDbEntity
  8
0
  6
Continuous
 62
     2
100
AcDbLine
 10
70.0
 20
0.0
 30
0.0
 11
70.0
 21
-12.0
 31
0.0
  0
LINE
  5
286
330
213
100
AcDbEntity
  8
0
  6
Continuous
 62
     2
100
AcDbLine
 10
90.0
 20
0.0
 30
0.0
 11
90.0
 21
-40.0
 31
0.0
  0
MTEXT
  5
287
330
213
100
AcDbEntity
  8
9_SOLID
  6
Continuous
 62
     2
100
AcDbMText
 10
31.4875
 20
-1.5
 30
0.0
 40
3.0
 41
48.914498
 46
0.0
 71
     1
 72
     1
  1
A194_C_401
 73
     1
 44
0.9
  0
MTEXT
  5
288
330
213
100
AcDbEntity
  8
9_SOLID
  6
Continuous
 62
     2
100
AcDbMText
 10
71.4875
 20
-1.25
 30
0.0
 40
3.5
 41
30.966543
 46
0.0
 71
     1
 72
     1
  1
Rev:00
 73
     1
 44
0.9
  0
MTEXT
  5
289
330
213
100
AcDbEntity
  8
9_SOLID
  6
Continuous
 62
     2
100
AcDbMText
 10
31.4875
 20
-7.75
 30
0.0
 40
3.5
 41
40.724907
 46
0.0
 71
     1
 72
     1
  1
Scale:1:1
 73
     1
 44
0.9
  0
MTEXT
  5
28A
330
213
100
AcDbEntity
  8
9_SOLID
  6
Continuous
 62
     2
100
AcDbMText
 10
71.4875
 20
-7.25
 30
0.0
 40
3.5
 41
11.944238
 46
0.0
 71
     1
 72
     1
  1
A4
 73
     1
 44
0.9
  0
MTEXT
  5
28B
330
213
100
AcDbEntity
  8
9_SOLID
  6
Continuous
 62
     2
100
AcDbMText
 10
31.4875
 20
-15.25
 30
0.0
 40
3.5
 41
77.052045
 46
0.0
 71
     1
 72
     1
  1
GOCCIA 3.5 - 3.9
 73
     1
 44
0.9
  0
MTEXT
  5
28C
330
213
100
AcDbEntity
  8
9_SOLID
  6
Continuous
 62
     2
100
AcDbMText
 10
31.4875
 20
-23.25
 30
0.0
 40
2.5
 41
47.695167
 46
0.0
 71
     1
 72
     1
  1
DATE:12.10.23
 73
     1
 44
0.9
  0
MTEXT
  5
28D
330
213
100
AcDbEntity
  8
9_SOLID
  6
Continuous
 62
     2
100
AcDbMText
 10
1.4875
 20
-27.3125
 30
0.0
 40
2.25
 41
148.98513
 46
0.0
 71
     1
 72
     1
  1
Any integral or partial reproductions are prohibited \Pwithout prior authorisation of L & L Luce & Light s.r.l., \Pin accordance with the law in force. \PAll rights reserved.
 73
     1
 44
0.9
  0
ENDBLK
  5
28E
330
213
100
AcDbEntity
  8
0
  6
ByBlock
 62
     0
100
AcDbBlockEnd
  0
ENDSEC
  0
SECTION
  2
ENTITIES
  0
LWPOLYLINE
  5
28F
330
20B
100
AcDbEntity
  8
0
  6
Continuous
 62
     7
100
AcDbPolyline
 90
        2
 70
     0
 43
0.1
 10
10.0
 20
200.0
 10
287.0
 20
200.0
  0
LWPOLYLINE
  5
290
330
20B
100
AcDbEntity
  8
0
  6
Continuous
 62
     7
100
AcDbPolyline
 90
        2
 70
     0
 43
0.1
 10
10.0
 20
10.0
 10
10.0
 20
200.0
  0
LWPOLYLINE
  5
291
330
20B
100
AcDbEntity
  8
0
  6
Continuous
 62
     7
100
AcDbPolyline
 90
        2
 70
     0
 43
0.1
 10
287.0
 20
10.0
 10
287.0
 20
200.0
  0
LWPOLYLINE
  5
292
330
20B
100
AcDbEntity
  8
0
  6
Continuous
 62
     7
100
AcDbPolyline
 90
        2
 70
     0
 43
0.1
 10
10.0
 20
10.0
 10
287.0
 20
10.0
  0
LINE
  5
293
330
20B
100
AcDbEntity
  8
7_ALL_FEATURES
  6
Continuous
 62
     7
100
AcDbLine
 10
71.162374
 20
130.805738
 30
0.0
 11
71.198277
 21
131.5956
 31
0.0
  0
ARC
  5
294
330
20B
100
AcDbEntity
  8
7_ALL_FEATURES
  6
Continuous
 62
     7
100
AcDbCircle
 10
67.210038
 20
134.294819
 30
0.0
 40
0.0976201153
100
AcDbArc
 50
94.794126
 51
180.0
  0
LINE
  5
295
330
20B
100
AcDbEntity
  8
7_ALL_FEATURES
  6
Continuous
 62
     7
100
AcDbLine
 10
70.462418
 20
134.294819
 30
0.0
 11
70.462418
 21
134.392097
 31
0.0
  0
LINE
  5
296
330
20B
100
AcDbEntity
  8
7_ALL_FEATURES
  6
Continuous
 62
     7
100
AcDbLine
 10
68.286218
 20
134.392097
 30
0.0
 11
68.286218
 21
134.294819
 31
0.0
  0
LINE
  5
297
330
20B
100
AcDbEntity
  8
7_ALL_FEATURES
  6
Continuous
 62
     7
100
AcDbLine
 10
68.286218
 20
134.44003
 30
0.0
 11
68.286218
 21
134.392097
 31
0.0
  0
LINE
  5
298
330
20B
100
AcDbEntity
  8
7_ALL_FEATURES
  6
Continuous
 62
     7
100
AcDbLine
 10
70.462418
 20
134.392097
 30
0.0
 11
70.462418
 21
134.438739
 31
0.0
  0
LINE
  5
299
330
20B
100
AcDbEntity
  8
7_ALL_FEATURES
  6
Continuous
 62
     7
100
AcDbLine
 10
68.09124
 20
134.460673
 30
0.0
 11
67.20188
 21
134.392097
 31
0.0
  0
ARC
  5
29A
330
20B
100
AcDbEntity
  8
7_ALL_FEATURES
  6
Continuous
 62
     7
100
AcDbCircle
 10
67.210038
 20
132.916176
 30
0.0
 40
0.0976201153
100
AcDbArc
 50
94.794127
 51
180.0
  0
LINE
  5
29B
330
20B
100
AcDbEntity
  8
7_ALL_FEATURES
  6
Continuous
 62
     7
100
AcDbLine
 10
70.462418
 20
132.916176
 30
0.0
 11
70.462418
 21
133.013454
 31
0.0
  0
LINE
  5
29C
330
20B
100
AcDbEntity
  8
7_ALL_FEATURES
  6
Continuous
 62
     7
100
AcDbLine
 10
68.286218
 20
133.013454
 30
0.0
 11
68.286218
 21
132.916176
 31
0.0
  0
LINE
  5
29D
330
20B
100
AcDbEntity
  8
7_ALL_FEATURES
  6
Continuous
 62
     7
100
AcDbLine
 10
68.286218
 20
133.061387
 30
0.0
 11
68.286218
 21
133.013454
 31
0.0
  0
LINE
  5
29E
330
20B
100
AcDbEntity
  8
7_ALL_FEATURES
  6
Continuous
 62
     7
100
AcDbLine
 10
70.462418
 20
133.013454
 30
0.0
 11
70.462418
 21
133.060096
 31
0.0
  0
LINE
  5
29F
330
20B
100
AcDbEntity
  8
7_ALL_FEATURES
  6
Continuous
 62
     7
100
AcDbLine
 10
68.09124
 20
133.08203
 30
0.0
 11
67.20188
 21
133.013454
 31
0.0
  0
LINE
  5
2A0
330
20B
100
AcDbEntity
  8
7_ALL_FEATURES
  6
Continuous
 62
     7
100
AcDbLine
 10
70.462418
 20
130.805738
 30
0.0
 11
70.462418
 21
131.5956
 31
0.0
  0
LINE
  5
2A1
330
20B
100
AcDbEntity
  8
7_ALL_FEATURES
  6
Continuous
 62
     7
100
AcDbLine
 10
68.286218
 20
131.5956
 30
0.0
 11
68.286218
 21
130.805738
 31
0.0
  0
LINE
  5
2A2
330
20B
100
AcDbEntity
  8
7_ALL_FEATURES
  6
Continuous
 62
     7
100
AcDbLine
 10
67.52656
 20
131.5956
 30
0.0
 11
67.562463
 21
130.805738
 31
0.0
  0
LINE
  5
2A3
330
20B
100
AcDbEntity
  8
7_ALL_FEATURES
  6
Continuous
 62
     7
100
AcDbLine
 10
69.959628
 20
128.579761
 30
0.0
 11
68.765208
 21
128.579761
 31
0.0
  0
LINE
  5
2A4
330
20B
100
AcDbEntity
  8
7_ALL_FEATURES
  6
Continuous
 62
     7
100
AcDbLine
 10
71.162374
 20
130.805738
 30
0.0
 11
69.959628
 21
128.579761
 31
0.0
  0
LINE
  5
2A5
330
20B
100
AcDbEntity
  8
7_ALL_FEATURES
  6
Continuous
 62
     7
100
AcDbLine
 10
70.462418
 20
130.353562
 30
0.0
 11
70.462418
 21
130.805738
 31
0.0
  0
LINE
  5
2A6
330
20B
100
AcDbEntity
  8
7_ALL_FEATURES
  6
Continuous
 62
     7
100
AcDbLine
 10
68.286218
 20
130.805738
 30
0.0
 11
68.286218
 21
130.322587
 31
0.0
  0
LINE
  5
2A7
330
20B
100
AcDbEntity
  8
7_ALL_FEATURES
  6
Continuous
 62
     7
100
AcDbLine
 10
67.562463
 20
130.805738
 30
0.0
 11
68.765208
 21
128.579761
 31
0.0
  0
LINE
  5
2A8
330
20B
100
AcDbEntity
  8
7_ALL_FEATURES
  6
Continuous
 62
     7
100
AcDbLine
 10
70.550601
 20
131.613552
 30
0.0
 11
71.198277
 21
131.5956
 31
0.0
  0
LINE
  5
2A9
330
20B
100
AcDbEntity
  8
7_ALL_FEATURES
  6
Continuous
 62
     7
100
AcDbLine
 10
68.174235
 20
131.613552
 30
0.0
 11
67.52656
 21
131.5956
 31
0.0
  0
LINE
  5
2AA
330
20B
100
AcDbEntity
  8
7_ALL_FEATURES
  6
Continuous
 62
     7
100
AcDbLine
 10
68.286218
 20
131.603831
 30
0.0
 11
68.286218
 21
131.5956
 31
0.0
  0
LINE
  5
2AB
330
20B
100
AcDbEntity
  8
7_ALL_FEATURES
  6
Continuous
 62
     7
100
AcDbLine
 10
70.462418
 20
131.5956
 30
0.0
 11
70.462418
 21
131.603367
 31
0.0
  0
ARC
  5
2AC
330
20B
100
AcDbEntity
  8
7_ALL_FEATURES
  6
Continuous
 62
     7
100
AcDbCircle
 10
68.076615
 20
132.32577
 30
0.0
 40
0.0976200982
100
AcDbArc
 50
359.565949
 51
71.959814
  0
LINE
  5
2AD
330
20B
100
AcDbEntity
  8
7_ALL_FEATURES
  6
Continuous
 62
     7
100
AcDbLine
 10
68.174234
 20
132.32503
 30
0.0
 11
68.174234
 21
131.613552
 31
0.0
  0
LINE
  5
2AE
330
20B
100
AcDbEntity
  8
7_ALL_FEATURES
  6
Continuous
 62
     7
100
AcDbLine
 10
70.550603
 20
132.32503
 30
0.0
 11
70.550603
 21
131.613552
 31
0.0
  0
ARC
  5
2AF
330
20B
100
AcDbEntity
  8
7_ALL_FEATURES
  6
Continuous
 62
     7
100
AcDbCircle
 10
70.648221
 20
132.32577
 30
0.0
 40
0.0976200982
100
AcDbArc
 50
108.040186
 51
180.434051
  0
LINE
  5
2B0
330
20B
100
AcDbEntity
  8
7_ALL_FEATURES
  6
Continuous
 62
     7
100
AcDbLine
 10
71.54503
 20
132.697168
 30
0.0
 11
70.61799
 21
132.418591
 31
0.0
  0
LINE
  5
2B1
330
20B
100
AcDbEntity
  8
7_ALL_FEATURES
  6
Continuous
 62
     7
100
AcDbLine
 10
70.462418
 20
132.508761
 30
0.0
 11
70.462418
 21
132.697168
 31
0.0
  0
LINE
  5
2B2
330
20B
100
AcDbEntity
  8
7_ALL_FEATURES
  6
Continuous
 62
     7
100
AcDbLine
 10
68.286218
 20
132.697168
 30
0.0
 11
68.286218
 21
132.503731
 31
0.0
  0
LINE
  5
2B3
330
20B
100
AcDbEntity
  8
7_ALL_FEATURES
  6
Continuous
 62
     7
100
AcDbLine
 10
67.179807
 20
132.697168
 30
0.0
 11
68.106847
 21
132.418591
 31
0.0
  0
LINE
  5
2B4
330
20B
100
AcDbEntity
  8
7_ALL_FEATURES
  6
Continuous
 62
     7
100
AcDbLine
 10
67.112418
 20
132.916176
 30
0.0
 11
67.112418
 21
132.789989
 31
0.0
  0
LINE
  5
2B5
330
20B
100
AcDbEntity
  8
7_ALL_FEATURES
  6
Continuous
 62
     7
100
AcDbLine
 10
70.462418
 20
132.789989
 30
0.0
 11
70.462418
 21
132.916176
 31
0.0
  0
LINE
  5
2B6
330
20B
100
AcDbEntity
  8
7_ALL_FEATURES
  6
Continuous
 62
     7
100
AcDbLine
 10
68.286218
 20
132.916176
 30
0.0
 11
68.286218
 21
132.789989
 31
0.0
  0
ARC
  5
2B7
330
20B
100
AcDbEntity
  8
7_ALL_FEATURES
  6
Continuous
 62
     7
100
AcDbCircle
 10
67.210038
 20
132.789989
 30
0.0
 40
0.0976200982
100
AcDbArc
 50
180.0
 51
251.959814
  0
LINE
  5
2B8
330
20B
100
AcDbEntity
  8
7_ALL_FEATURES
  6
Continuous
 62
     7
100
AcDbLine
 10
68.286218
 20
132.789989
 30
0.0
 11
68.286218
 21
132.697168
 31
0.0
  0
LINE
  5
2B9
330
20B
100
AcDbEntity
  8
7_ALL_FEATURES
  6
Continuous
 62
     7
100
AcDbLine
 10
70.462418
 20
132.697168
 30
0.0
 11
70.462418
 21
132.789989
 31
0.0
  0
ARC
  5
2BA
330
20B
100
AcDbEntity
  8
7_ALL_FEATURES
  6
Continuous
 62
     7
100
AcDbCircle
 10
71.514798
 20
132.789989
 30
0.0
 40
0.0976200982
100
AcDbArc
 50
288.040186
 51
360.0
  0
LINE
  5
2BB
330
20B
100
AcDbEntity
  8
7_ALL_FEATURES
  6
Continuous
 62
     7
100
AcDbLine
 10
71.612418
 20
132.916176
 30
0.0
 11
71.612418
 21
132.789989
 31
0.0
  0
ARC
  5
2BC
330
20B
100
AcDbEntity
  8
7_ALL_FEATURES
  6
Continuous
 62
     7
100
AcDbCircle
 10
71.514798
 20
132.916176
 30
0.0
 40
0.0976201153
100
AcDbArc
 50
0.0
 51
85.205874
  0
LINE
  5
2BD
330
20B
100
AcDbEntity
  8
7_ALL_FEATURES
  6
Continuous
 62
     7
100
AcDbLine
 10
70.633596
 20
133.08203
 30
0.0
 11
71.522957
 21
133.013454
 31
0.0
  0
ARC
  5
2BE
330
20B
100
AcDbEntity
  8
7_ALL_FEATURES
  6
Continuous
 62
     7
100
AcDbCircle
 10
70.641755
 20
133.179308
 30
0.0
 40
0.0976200982
100
AcDbArc
 50
200.971018
 51
265.205885
  0
ARC
  5
2BF
330
20B
100
AcDbEntity
  8
7_ALL_FEATURES
  6
Continuous
 62
     7
100
AcDbCircle
 10
68.083081
 20
133.179308
 30
0.0
 40
0.0976200982
100
AcDbArc
 50
274.794115
 51
339.028982
  0
ARC
  5
2C0
330
20B
100
AcDbEntity
  8
7_ALL_FEATURES
  6
Continuous
 62
     7
100
AcDbCircle
 10
68.076615
 20
133.704413
 30
0.0
 40
0.0976200982
100
AcDbArc
 50
359.565949
 51
71.959814
  0
LINE
  5
2C1
330
20B
100
AcDbEntity
  8
7_ALL_FEATURES
  6
Continuous
 62
     7
100
AcDbLine
 10
68.174234
 20
133.703673
 30
0.0
 11
68.174234
 21
133.144371
 31
0.0
  0
LINE
  5
2C2
330
20B
100
AcDbEntity
  8
7_ALL_FEATURES
  6
Continuous
 62
     7
100
AcDbLine
 10
70.550603
 20
133.703673
 30
0.0
 11
70.550603
 21
133.144371
 31
0.0
  0
ARC
  5
2C3
330
20B
100
AcDbEntity
  8
7_ALL_FEATURES
  6
Continuous
 62
     7
100
AcDbCircle
 10
70.648221
 20
133.704413
 30
0.0
 40
0.0976200982
100
AcDbArc
 50
108.040186
 51
180.434051
  0
LINE
  5
2C4
330
20B
100
AcDbEntity
  8
7_ALL_FEATURES
  6
Continuous
 62
     7
100
AcDbLine
 10
71.54503
 20
134.075811
 30
0.0
 11
70.61799
 21
133.797234
 31
0.0
  0
LINE
  5
2C5
330
20B
100
AcDbEntity
  8
7_ALL_FEATURES
  6
Continuous
 62
     7
100
AcDbLine
 10
70.462418
 20
133.887404
 30
0.0
 11
70.462418
 21
134.075811
 31
0.0
  0
LINE
  5
2C6
330
20B
100
AcDbEntity
  8
7_ALL_FEATURES
  6
Continuous
 62
     7
100
AcDbLine
 10
68.286218
 20
134.075811
 30
0.0
 11
68.286218
 21
133.882374
 31
0.0
  0
LINE
  5
2C7
330
20B
100
AcDbEntity
  8
7_ALL_FEATURES
  6
Continuous
 62
     7
100
AcDbLine
 10
67.179807
 20
134.075811
 30
0.0
 11
68.106847
 21
133.797234
 31
0.0
  0
LINE
  5
2C8
330
20B
100
AcDbEntity
  8
7_ALL_FEATURES
  6
Continuous
 62
     7
100
AcDbLine
 10
67.112418
 20
134.294819
 30
0.0
 11
67.112418
 21
134.168632
 31
0.0
  0
LINE
  5
2C9
330
20B
100
AcDbEntity
  8
7_ALL_FEATURES
  6
Continuous
 62
     7
100
AcDbLine
 10
70.462418
 20
134.168632
 30
0.0
 11
70.462418
 21
134.294819
 31
0.0
  0
LINE
  5
2CA
330
20B
100
AcDbEntity
  8
7_ALL_FEATURES
  6
Continuous
 62
     7
100
AcDbLine
 10
68.286218
 20
134.294819
 30
0.0
 11
68.286218
 21
134.168632
 31
0.0
  0
LINE
  5
2CB
330
20B
100
AcDbEntity
  8
7_ALL_FEATURES
  6
Continuous
 62
     7
100
AcDbLine
 10
71.612418
 20
135.579761
 30
0.0
 11
71.612418
 21
135.547275
 31
0.0
  0
ARC
  5
2CC
330
20B
100
AcDbEntity
  8
7_ALL_FEATURES
  6
Continuous
 62
     7
100
AcDbCircle
 10
67.210038
 20
134.168632
 30
0.0
 40
0.0976200982
100
AcDbArc
 50
180.0
 51
251.959814
  0
LINE
  5
2CD
330
20B
100
AcDbEntity
  8
7_ALL_FEATURES
  6
Continuous
 62
     7
100
AcDbLine
 10
68.286218
 20
134.168632
 30
0.0
 11
68.286218
 21
134.075811
 31
0.0
  0
ARC
  5
2CE
330
20B
100
AcDbEntity
  8
7_ALL_FEATURES
  6
Continuous
 62
     7
100
AcDbCircle
 10
71.514798
 20
135.547275
 30
0.0
 40
0.0976200982
100
AcDbArc
 50
288.040186
 51
360.0
  0
LINE
  5
2CF
330
20B
100
AcDbEntity
  8
7_ALL_FEATURES
  6
Continuous
 62
     7
100
AcDbLine
 10
70.462418
 20
135.454454
 30
0.0
 11
70.462418
 21
135.547275
 31
0.0
  0
LINE
  5
2D0
330
20B
100
AcDbEntity
  8
7_ALL_FEATURES
  6
Continuous
 62
     7
100
AcDbLine
 10
68.286218
 20
135.547275
 30
0.0
 11
68.286218
 21
135.454454
 31
0.0
  0
ARC
  5
2D1
330
20B
100
AcDbEntity
  8
7_ALL_FEATURES
  6
Continuous
 62
     7
100
AcDbCircle
 10
67.210038
 20
135.547275
 30
0.0
 40
0.0976200982
100
AcDbArc
 50
180.0
 51
251.959814
  0
LINE
  5
2D2
330
20B
100
AcDbEntity
  8
7_ALL_FEATURES
  6
Continuous
 62
     7
100
AcDbLine
 10
68.286218
 20
135.579761
 30
0.0
 11
68.286218
 21
135.547275
 31
0.0
  0
LINE
  5
2D3
330
20B
100
AcDbEntity
  8
7_ALL_FEATURES
  6
Continuous
 62
     7
100
AcDbLine
 10
70.462418
 20
135.547275
 30
0.0
 11
70.462418
 21
135.579761
 31
0.0
  0
LINE
  5
2D4
330
20B
100
AcDbEntity
  8
7_ALL_FEATURES
  6
Continuous
 62
     7
100
AcDbLine
 10
67.112418
 20
135.579761
 30
0.0
 11
67.112418
 21
135.547275
 31
0.0
  0
LINE
  5
2D5
330
20B
100
AcDbEntity
  8
7_ALL_FEATURES
  6
Continuous
 62
     7
100
AcDbLine
 10
67.179807
 20
135.454454
 30
0.0
 11
68.106847
 21
135.175877
 31
0.0
  0
LINE
  5
2D6
330
20B
100
AcDbEntity
  8
7_ALL_FEATURES
  6
Continuous
 62
     7
100
AcDbLine
 10
68.286218
 20
135.454454
 30
0.0
 11
68.286218
 21
135.261017
 31
0.0
  0
LINE
  5
2D7
330
20B
100
AcDbEntity
  8
7_ALL_FEATURES
  6
Continuous
 62
     7
100
AcDbLine
 10
70.462418
 20
135.266047
 30
0.0
 11
70.462418
 21
135.454454
 31
0.0
  0
LINE
  5
2D8
330
20B
100
AcDbEntity
  8
7_ALL_FEATURES
  6
Continuous
 62
     7
100
AcDbLine
 10
71.54503
 20
135.454454
 30
0.0
 11
70.61799
 21
135.175877
 31
0.0
  0
LINE
  5
2D9
330
20B
100
AcDbEntity
  8
7_ALL_FEATURES
  6
Continuous
 62
     7
100
AcDbLine
 10
70.462418
 20
134.075811
 30
0.0
 11
70.462418
 21
134.168632
 31
0.0
  0
ARC
  5
2DA
330
20B
100
AcDbEntity
  8
7_ALL_FEATURES
  6
Continuous
 62
     7
100
AcDbCircle
 10
71.514798
 20
134.168632
 30
0.0
 40
0.0976200982
100
AcDbArc
 50
288.040186
 51
360.0
  0
LINE
  5
2DB
330
20B
100
AcDbEntity
  8
7_ALL_FEATURES
  6
Continuous
 62
     7
100
AcDbLine
 10
71.612418
 20
134.294819
 30
0.0
 11
71.612418
 21
134.168632
 31
0.0
  0
ARC
  5
2DC
330
20B
100
AcDbEntity
  8
7_ALL_FEATURES
  6
Continuous
 62
     7
100
AcDbCircle
 10
71.514798
 20
134.294819
 30
0.0
 40
0.0976201153
100
AcDbArc
 50
0.0
 51
85.205874
  0
LINE
  5
2DD
330
20B
100
AcDbEntity
  8
7_ALL_FEATURES
  6
Continuous
 62
     7
100
AcDbLine
 10
70.633596
 20
134.460673
 30
0.0
 11
71.522957
 21
134.392097
 31
0.0
  0
ARC
  5
2DE
330
20B
100
AcDbEntity
  8
7_ALL_FEATURES
  6
Continuous
 62
     7
100
AcDbCircle
 10
70.641755
 20
134.557951
 30
0.0
 40
0.0976200982
100
AcDbArc
 50
200.971018
 51
265.205885
  0
ARC
  5
2DF
330
20B
100
AcDbEntity
  8
7_ALL_FEATURES
  6
Continuous
 62
     7
100
AcDbCircle
 10
70.648221
 20
135.083056
 30
0.0
 40
0.0976200982
100
AcDbArc
 50
108.040186
 51
180.434051
  0
ARC
  5
2E0
330
20B
100
AcDbEntity
  8
7_ALL_FEATURES
  6
Continuous
 62
     7
100
AcDbCircle
 10
68.083081
 20
134.557951
 30
0.0
 40
0.0976200982
100
AcDbArc
 50
274.794115
 51
339.028982
  0
LINE
  5
2E1
330
20B
100
AcDbEntity
  8
7_ALL_FEATURES
  6
Continuous
 62
     7
100
AcDbLine
 10
70.550603
 20
135.082316
 30
0.0
 11
70.550603
 21
134.523014
 31
0.0
  0
LINE
  5
2E2
330
20B
100
AcDbEntity
  8
7_ALL_FEATURES
  6
Continuous
 62
     7
100
AcDbLine
 10
68.174234
 20
135.082316
 30
0.0
 11
68.174234
 21
134.523014
 31
0.0
  0
ARC
  5
2E3
330
20B
100
AcDbEntity
  8
7_ALL_FEATURES
  6
Continuous
 62
     7
100
AcDbCircle
 10
68.076615
 20
135.083056
 30
0.0
 40
0.0976200982
100
AcDbArc
 50
359.565949
 51
71.959814
  0
ARC
  5
2E4
330
20B
100
AcDbEntity
  8
7_ALL_FEATURES
  6
Continuous
 62
     7
100
AcDbCircle
 10
66.889058
 20
70.039961
 30
0.0
 40
64.4978416437
100
AcDbArc
 50
86.148017
 51
86.824028
  0
LINE
  5
2E5
330
20B
100
AcDbEntity
  8
7_ALL_FEATURES
  6
Continuous
 62
     7
100
AcDbLine
 10
71.221954
 20
134.392098
 30
0.0
 11
71.522957
 21
134.392097
 31
0.0
  0
SPLINE
  5
2E6
330
20B
100
AcDbEntity
  8
7_ALL_FEATURES
  6
Continuous
 62
     7
100
AcDbSpline
 70
     0
 71
     3
 72
    11
 73
     7
 74
     0
 42
0.000000001
 43
0.0000001
 40
0.0
 40
0.0
 40
0.0
 40
0.0
 40
0.2502946815
 40
0.5005467742
 40
0.7504001169
 40
1.0
 40
1.0
 40
1.0
 40
1.0
 10
71.2219684499
 20
133.0134542744
 30
0.0
 10
71.2348731261
 20
133.0125240086
 30
0.0
 10
71.2605867167
 20
133.006803129
 30
0.0
 10
71.2945097564
 20
132.9865229701
 30
0.0
 10
71.3190482657
 20
132.955233134
 30
0.0
 10
71.3251969249
 20
132.9290779528
 30
0.0
 10
71.3251969249
 20
132.9161757052
 30
0.0
  0
LINE
  5
2E7
330
20B
100
AcDbEntity
  8
7_ALL_FEATURES
  6
Continuous
 62
     9
100
AcDbLine
 10
71.32519
 20
132.916176
 30
0.0
 11
71.612418
 21
132.916176
 31
0.0
  0
LINE
  5
2E8
330
20B
100
AcDbEntity
  8
7_ALL_FEATURES
  6
Continuous
 62
     9
100
AcDbLine
 10
67.112418
 20
132.916176
 30
0.0
 11
67.399647
 21
132.916176
 31
0.0
  0
SPLINE
  5
2E9
330
20B
100
AcDbEntity
  8
7_ALL_FEATURES
  6
Continuous
 62
     7
100
AcDbSpline
 70
     0
 71
     3
 72
    11
 73
     7
 74
     0
 42
0.000000001
 43
0.0000001
 40
0.0
 40
0.0
 40
0.0
 40
0.0
 40
0.2496038587
 40
0.4994603634
 40
0.7497094095
 40
1.0
 40
1.0
 40
1.0
 40
1.0
 10
67.3996396396
 20
132.9161757052
 30
0.0
 10
67.399639642
 20
132.9290781591
 30
0.0
 10
67.4057884565
 20
132.9552337403
 30
0.0
 10
67.4303274606
 20
132.986523489
 30
0.0
 10
67.4642504049
 20
133.0068033466
 30
0.0
 10
67.4899636486
 20
133.0125240237
 30
0.0
 10
67.5028681145
 20
133.0134542744
 30
0.0
  0
LINE
  5
2EA
330
20B
100
AcDbEntity
  8
7_ALL_FEATURES
  6
Continuous
 62
     9
100
AcDbLine
 10
68.286217
 20
132.916176
 30
0.0
 11
70.46242
 21
132.916176
 31
0.0
  0
LINE
  5
2EB
330
20B
100
AcDbEntity
  8
7_ALL_FEATURES
  6
Continuous
 62
     7
100
AcDbLine
 10
67.20188
 20
133.013454
 30
0.0
 11
67.502883
 21
133.013455
 31
0.0
  0
ARC
  5
2EC
330
20B
100
AcDbEntity
  8
7_ALL_FEATURES
  6
Continuous
 62
     7
100
AcDbCircle
 10
71.761183
 20
69.845933
 30
0.0
 40
63.3108910782
100
AcDbArc
 50
93.146393
 51
93.856648
  0
LINE
  5
2ED
330
20B
100
AcDbEntity
  8
7_ALL_FEATURES
  6
Continuous
 62
     7
100
AcDbLine
 10
68.286226
 20
133.013456
 30
0.0
 11
70.462413
 21
133.013455
 31
0.0
  0
ARC
  5
2EE
330
20B
100
AcDbEntity
  8
7_ALL_FEATURES
  6
Continuous
 62
     7
100
AcDbCircle
 10
66.889058
 20
68.661318
 30
0.0
 40
64.4978416417
100
AcDbArc
 50
86.148017
 51
86.824028
  0
LINE
  5
2EF
330
20B
100
AcDbEntity
  8
7_ALL_FEATURES
  6
Continuous
 62
     7
100
AcDbLine
 10
71.221954
 20
133.013455
 30
0.0
 11
71.522957
 21
133.013454
 31
0.0
  0
LINE
  5
2F0
330
20B
100
AcDbEntity
  8
7_ALL_FEATURES
  6
Continuous
 62
     7
100
AcDbLine
 10
67.937694
 20
130.805738
 30
0.0
 11
67.892597
 21
131.5956
 31
0.0
  0
SPLINE
  5
2F1
330
20B
100
AcDbEntity
  8
7_ALL_FEATURES
  6
Continuous
 62
     7
100
AcDbSpline
 70
     0
 71
     3
 72
     8
 73
     4
 74
     0
 42
0.000000001
 43
0.0000001
 40
0.0
 40
0.0
 40
0.0
 40
0.0
 40
1.0
 40
1.0
 40
1.0
 40
1.0
 10
70.7871426496
 20
130.805737662
 30
0.0
 10
70.6825224274
 20
130.6524768591
 30
0.0
 10
70.5750861449
 20
130.501008043
 30
0.0
 10
70.4624182822
 20
130.3535624011
 30
0.0
  0
LINE
  5
2F2
330
20B
100
AcDbEntity
  8
7_ALL_FEATURES
  6
Continuous
 62
     7
100
AcDbLine
 10
70.46242
 20
130.805728
 30
0.0
 11
68.286217
 21
130.80573
 31
0.0
  0
SPLINE
  5
2F3
330
20B
100
AcDbEntity
  8
7_ALL_FEATURES
  6
Continuous
 62
     7
100
AcDbSpline
 70
     0
 71
     3
 72
     8
 73
     4
 74
     0
 42
0.000000001
 43
0.0000001
 40
0.0
 40
0.0
 40
0.0
 40
0.0
 40
1.0
 40
1.0
 40
1.0
 40
1.0
 10
68.2862179724
 20
130.322586643
 30
0.0
 10
68.1648070612
 20
130.4797272176
 30
0.0
 10
68.0496517208
 20
130.6417278476
 30
0.0
 10
67.9376939149
 20
130.805737662
 30
0.0
  0
LINE
  5
2F4
330
20B
100
AcDbEntity
  8
7_ALL_FEATURES
  6
Continuous
 62
     7
100
AcDbLine
 10
67.9377
 20
130.805727
 30
0.0
 11
67.562463
 21
130.805738
 31
0.0
  0
LINE
  5
2F5
330
20B
100
AcDbEntity
  8
7_ALL_FEATURES
  6
Continuous
 62
     7
100
AcDbLine
 10
70.83224
 20
131.5956
 30
0.0
 11
70.787143
 21
130.805738
 31
0.0
  0
LINE
  5
2F6
330
20B
100
AcDbEntity
  8
7_ALL_FEATURES
  6
Continuous
 62
     7
100
AcDbLine
 10
70.550603
 20
131.613552
 30
0.0
 11
70.448787
 21
131.613552
 31
0.0
  0
LINE
  5
2F7
330
20B
100
AcDbEntity
  8
7_ALL_FEATURES
  6
Continuous
 62
     7
100
AcDbLine
 10
70.448787
 20
131.613552
 30
0.0
 11
68.283912
 21
131.613552
 31
0.0
  0
LINE
  5
2F8
330
20B
100
AcDbEntity
  8
7_ALL_FEATURES
  6
Continuous
 62
     7
100
AcDbLine
 10
68.283912
 20
131.613552
 30
0.0
 11
68.174234
 21
131.613552
 31
0.0
  0
LINE
  5
2F9
330
20B
100
AcDbEntity
  8
7_ALL_FEATURES
  6
Continuous
 62
     7
100
AcDbLine
 10
67.52656
 20
131.5956
 30
0.0
 11
67.892603
 21
131.595601
 31
0.0
  0
ARC
  5
2FA
330
20B
100
AcDbEntity
  8
7_ALL_FEATURES
  6
Continuous
 62
     7
100
AcDbCircle
 10
71.022528
 20
-8.671521
 30
0.0
 40
140.3020379086
100
AcDbArc
 50
91.11751
 51
91.27829
  0
LINE
  5
2FB
330
20B
100
AcDbEntity
  8
7_ALL_FEATURES
  6
Continuous
 62
     7
100
AcDbLine
 10
68.286224
 20
131.595601
 30
0.0
 11
70.462411
 21
131.595601
 31
0.0
  0
ARC
  5
2FC
330
20B
100
AcDbEntity
  8
7_ALL_FEATURES
  6
Continuous
 62
     7
100
AcDbCircle
 10
67.649333
 20
-11.150959
 30
0.0
 40
142.7820405832
100
AcDbArc
 50
88.722653
 51
88.871088
  0
LINE
  5
2FD
330
20B
100
AcDbEntity
  8
7_ALL_FEATURES
  6
Continuous
 62
     7
100
AcDbLine
 10
70.832222
 20
131.595601
 30
0.0
 11
71.198277
 21
131.5956
 31
0.0
  0
LINE
  5
2FE
330
20B
100
AcDbEntity
  8
7_ALL_FEATURES
  6
Continuous
 62
     7
100
AcDbLine
 10
68.174234
 20
132.32503
 30
0.0
 11
70.550603
 21
132.32503
 31
0.0
  0
LINE
  5
2FF
330
20B
100
AcDbEntity
  8
7_ALL_FEATURES
  6
Continuous
 62
     7
100
AcDbLine
 10
70.61799
 20
132.418591
 30
0.0
 11
68.106847
 21
132.418591
 31
0.0
  0
LINE
  5
300
330
20B
100
AcDbEntity
  8
7_ALL_FEATURES
  6
Continuous
 62
     7
100
AcDbLine
 10
71.54503
 20
132.697168
 30
0.0
 11
71.247552
 21
132.697164
 31
0.0
  0
SPLINE
  5
301
330
20B
100
AcDbEntity
  8
7_ALL_FEATURES
  6
Continuous
 62
     7
100
AcDbSpline
 70
     0
 71
     3
 72
     9
 73
     5
 74
     0
 42
0.000000001
 43
0.0000001
 40
0.0
 40
0.0
 40
0.0
 40
0.0
 40
0.5000035478
 40
1.0
 40
1.0
 40
1.0
 40
1.0
 10
71.2475686759
 20
132.6971682
 30
0.0
 10
71.117302685
 20
132.6633580798
 30
0.0
 10
70.8563496731
 20
132.5973581319
 30
0.0
 10
70.5940594741
 20
132.5367325914
 30
0.0
 10
70.4624182822
 20
132.5087605493
 30
0.0
  0
LINE
  5
302
330
20B
100
AcDbEntity
  8
7_ALL_FEATURES
  6
Continuous
 62
     7
100
AcDbLine
 10
70.462412
 20
132.697163
 30
0.0
 11
68.286227
 21
132.697161
 31
0.0
  0
SPLINE
  5
303
330
20B
100
AcDbEntity
  8
7_ALL_FEATURES
  6
Continuous
 62
     7
100
AcDbSpline
 70
     0
 71
     3
 72
     9
 73
     5
 74
     0
 42
0.000000001
 43
0.0000001
 40
0.0
 40
0.0
 40
0.0
 40
0.0
 40
0.4999959649
 40
1.0
 40
1.0
 40
1.0
 40
1.0
 10
68.2862179724
 20
132.5037310769
 30
0.0
 10
68.1505475628
 20
132.5322423256
 30
0.0
 10
67.8802832418
 20
132.5943986612
 30
0.0
 10
67.6114578376
 20
132.6623396291
 30
0.0
 10
67.4772678886
 20
132.6971682
 30
0.0
  0
LINE
  5
304
330
20B
100
AcDbEntity
  8
7_ALL_FEATURES
  6
Continuous
 62
     7
100
AcDbLine
 10
67.477284
 20
132.697164
 30
0.0
 11
67.179807
 21
132.697168
 31
0.0
  0
LINE
  5
305
330
20B
100
AcDbEntity
  8
7_ALL_FEATURES
  6
Continuous
 62
     7
100
AcDbLine
 10
71.325197
 20
132.916176
 30
0.0
 11
71.325197
 21
132.789989
 31
0.0
  0
LINE
  5
306
330
20B
100
AcDbEntity
  8
7_ALL_FEATURES
  6
Continuous
 62
     9
100
AcDbLine
 10
71.32519
 20
132.789989
 30
0.0
 11
71.612418
 21
132.789989
 31
0.0
  0
LINE
  5
307
330
20B
100
AcDbEntity
  8
7_ALL_FEATURES
  6
Continuous
 62
     9
100
AcDbLine
 10
67.112418
 20
132.789989
 30
0.0
 11
67.399647
 21
132.789989
 31
0.0
  0
LINE
  5
308
330
20B
100
AcDbEntity
  8
7_ALL_FEATURES
  6
Continuous
 62
     7
100
AcDbLine
 10
67.39964
 20
132.789989
 30
0.0
 11
67.39964
 21
132.916176
 31
0.0
  0
LINE
  5
309
330
20B
100
AcDbEntity
  8
7_ALL_FEATURES
  6
Continuous
 62
     9
100
AcDbLine
 10
68.286217
 20
132.789989
 30
0.0
 11
70.46242
 21
132.789989
 31
0.0
  0
SPLINE
  5
30A
330
20B
100
AcDbEntity
  8
7_ALL_FEATURES
  6
Continuous
 62
     7
100
AcDbSpline
 70
     0
 71
     3
 72
    11
 73
     7
 74
     0
 42
0.000000001
 43
0.0000001
 40
0.0
 40
0.0
 40
0.0
 40
0.0
 40
0.2499566193
 40
0.4998329146
 40
0.7498597631
 40
1.0
 40
1.0
 40
1.0
 40
1.0
 10
71.3251969249
 20
132.7899892496
 30
0.0
 10
71.3251969249
 20
132.7792079813
 30
0.0
 10
71.3209663686
 20
132.7574417675
 30
0.0
 10
71.303458757
 20
132.7295029173
 30
0.0
 10
71.2780846667
 20
132.708659153
 30
0.0
 10
71.2579550959
 20
132.7000886215
 30
0.0
 10
71.2475686759
 20
132.6971682
 30
0.0
  0
SPLINE
  5
30B
330
20B
100
AcDbEntity
  8
7_ALL_FEATURES
  6
Continuous
 62
     7
100
AcDbSpline
 70
     0
 71
     3
 72
    11
 73
     7
 74
     0
 42
0.000000001
 43
0.0000001
 40
0.0
 40
0.0
 40
0.0
 40
0.0
 40
0.2501436227
 40
0.5001736918
 40
0.7500481102
 40
1.0
 40
1.0
 40
1.0
 40
1.0
 10
67.4772678886
 20
132.6971682
 30
0.0
 10
67.4668813267
 20
132.7000886614
 30
0.0
 10
67.4467514998
 20
132.7086593619
 30
0.0
 10
67.4213773633
 20
132.7295034121
 30
0.0
 10
67.403869986
 20
132.7574422458
 30
0.0
 10
67.3996396396
 20
132.779208184
 30
0.0
 10
67.3996396396
 20
132.7899892496
 30
0.0
  0
LINE
  5
30C
330
20B
100
AcDbEntity
  8
7_ALL_FEATURES
  6
Continuous
 62
     7
100
AcDbLine
 10
71.162374
 20
130.805738
 30
0.0
 11
70.787136
 21
130.805727
 31
0.0
  0
LINE
  5
30D
330
20B
100
AcDbEntity
  8
7_ALL_FEATURES
  6
Continuous
 62
     7
100
AcDbLine
 10
68.09124
 20
133.08203
 30
0.0
 11
68.287391
 21
133.082031
 31
0.0
  0
LINE
  5
30E
330
20B
100
AcDbEntity
  8
7_ALL_FEATURES
  6
Continuous
 62
     7
100
AcDbLine
 10
68.287391
 20
133.082031
 30
0.0
 11
70.633596
 21
133.08203
 31
0.0
  0
LINE
  5
30F
330
20B
100
AcDbEntity
  8
7_ALL_FEATURES
  6
Continuous
 62
     7
100
AcDbLine
 10
70.550603
 20
133.144371
 30
0.0
 11
68.174234
 21
133.144371
 31
0.0
  0
LINE
  5
310
330
20B
100
AcDbEntity
  8
7_ALL_FEATURES
  6
Continuous
 62
     7
100
AcDbLine
 10
68.174234
 20
133.703673
 30
0.0
 11
70.550603
 21
133.703673
 31
0.0
  0
LINE
  5
311
330
20B
100
AcDbEntity
  8
7_ALL_FEATURES
  6
Continuous
 62
     7
100
AcDbLine
 10
70.61799
 20
133.797234
 30
0.0
 11
68.106847
 21
133.797234
 31
0.0
  0
SPLINE
  5
312
330
20B
100
AcDbEntity
  8
7_ALL_FEATURES
  6
Continuous
 62
     7
100
AcDbSpline
 70
     0
 71
     3
 72
    11
 73
     7
 74
     0
 42
0.000000001
 43
0.0000001
 40
0.0
 40
0.0
 40
0.0
 40
0.0
 40
0.2502740889
 40
0.5004763808
 40
0.7503203644
 40
1.0
 40
1.0
 40
1.0
 40
1.0
 10
71.2219684499
 20
134.3920973409
 30
0.0
 10
71.234872067
 20
134.3911671513
 30
0.0
 10
71.2605822802
 20
134.3854477917
 30
0.0
 10
71.294501785
 20
134.3651709562
 30
0.0
 10
71.3190461659
 20
134.3338846109
 30
0.0
 10
71.3251969249
 20
134.3077251444
 30
0.0
 10
71.3251969249
 20
134.2948187716
 30
0.0
  0
LINE
  5
313
330
20B
100
AcDbEntity
  8
7_ALL_FEATURES
  6
Continuous
 62
     7
100
AcDbLine
 10
71.54503
 20
134.075811
 30
0.0
 11
71.247552
 21
134.075808
 31
0.0
  0
SPLINE
  5
314
330
20B
100
AcDbEntity
  8
7_ALL_FEATURES
  6
Continuous
 62
     7
100
AcDbSpline
 70
     0
 71
     3
 72
     9
 73
     5
 74
     0
 42
0.000000001
 43
0.0000001
 40
0.0
 40
0.0
 40
0.0
 40
0.0
 40
0.5000035478
 40
1.0
 40
1.0
 40
1.0
 40
1.0
 10
71.2475686759
 20
134.0758112665
 30
0.0
 10
71.1173026849
 20
134.0420011463
 30
0.0
 10
70.8563496731
 20
133.9760011983
 30
0.0
 10
70.5940594741
 20
133.9153756579
 30
0.0
 10
70.4624182822
 20
133.8874036157
 30
0.0
  0
LINE
  5
315
330
20B
100
AcDbEntity
  8
7_ALL_FEATURES
  6
Continuous
 62
     9
100
AcDbLine
 10
71.32519
 20
134.294819
 30
0.0
 11
71.612418
 21
134.294819
 31
0.0
  0
LINE
  5
316
330
20B
100
AcDbEntity
  8
7_ALL_FEATURES
  6
Continuous
 62
     7
100
AcDbLine
 10
70.462412
 20
134.075806
 30
0.0
 11
68.286218
 21
134.075811
 31
0.0
  0
LINE
  5
317
330
20B
100
AcDbEntity
  8
7_ALL_FEATURES
  6
Continuous
 62
     9
100
AcDbLine
 10
67.112418
 20
134.294819
 30
0.0
 11
67.399647
 21
134.294819
 31
0.0
  0
SPLINE
  5
318
330
20B
100
AcDbEntity
  8
7_ALL_FEATURES
  6
Continuous
 62
     7
100
AcDbSpline
 70
     0
 71
     3
 72
     9
 73
     5
 74
     0
 42
0.000000001
 43
0.0000001
 40
0.0
 40
0.0
 40
0.0
 40
0.0
 40
0.4999959648
 40
1.0
 40
1.0
 40
1.0
 40
1.0
 10
68.2862179724
 20
133.8823741433
 30
0.0
 10
68.1505475514
 20
133.9108853377
 30
0.0
 10
67.8802832668
 20
133.9730418311
 30
0.0
 10
67.6114578114
 20
134.0409825947
 30
0.0
 10
67.4772678886
 20
134.0758112665
 30
0.0
  0
LINE
  5
319
330
20B
100
AcDbEntity
  8
7_ALL_FEATURES
  6
Continuous
 62
     7
100
AcDbLine
 10
67.477271
 20
134.07581
 30
0.0
 11
67.179807
 21
134.075811
 31
0.0
  0
SPLINE
  5
31A
330
20B
100
AcDbEntity
  8
7_ALL_FEATURES
  6
Continuous
 62
     7
100
AcDbSpline
 70
     0
 71
     3
 72
    11
 73
     7
 74
     0
 42
0.000000001
 43
0.0000001
 40
0.0
 40
0.0
 40
0.0
 40
0.0
 40
0.2496038587
 40
0.4994603634
 40
0.7497094095
 40
1.0
 40
1.0
 40
1.0
 40
1.0
 10
67.3996396396
 20
134.2948187716
 30
0.0
 10
67.399639642
 20
134.3077212255
 30
0.0
 10
67.4057884565
 20
134.3338768068
 30
0.0
 10
67.4303274606
 20
134.3651665554
 30
0.0
 10
67.4642504049
 20
134.385446413
 30
0.0
 10
67.4899636486
 20
134.3911670901
 30
0.0
 10
67.5028681145
 20
134.3920973409
 30
0.0
  0
LINE
  5
31B
330
20B
100
AcDbEntity
  8
7_ALL_FEATURES
  6
Continuous
 62
     7
100
AcDbLine
 10
71.325197
 20
134.294819
 30
0.0
 11
71.325197
 21
134.168632
 31
0.0
  0
LINE
  5
31C
330
20B
100
AcDbEntity
  8
7_ALL_FEATURES
  6
Continuous
 62
     9
100
AcDbLine
 10
71.32519
 20
134.168632
 30
0.0
 11
71.612418
 21
134.168632
 31
0.0
  0
LINE
  5
31D
330
20B
100
AcDbEntity
  8
7_ALL_FEATURES
  6
Continuous
 62
     9
100
AcDbLine
 10
67.112418
 20
134.168632
 30
0.0
 11
67.399647
 21
134.168632
 31
0.0
  0
LINE
  5
31E
330
20B
100
AcDbEntity
  8
7_ALL_FEATURES
  6
Continuous
 62
     7
100
AcDbLine
 10
67.39964
 20
134.168632
 30
0.0
 11
67.39964
 21
134.294819
 31
0.0
  0
LINE
  5
31F
330
20B
100
AcDbEntity
  8
7_ALL_FEATURES
  6
Continuous
 62
     9
100
AcDbLine
 10
68.286217
 20
134.294819
 30
0.0
 11
70.46242
 21
134.294819
 31
0.0
  0
LINE
  5
320
330
20B
100
AcDbEntity
  8
7_ALL_FEATURES
  6
Continuous
 62
     9
100
AcDbLine
 10
68.286217
 20
134.168632
 30
0.0
 11
70.46242
 21
134.168632
 31
0.0
  0
SPLINE
  5
321
330
20B
100
AcDbEntity
  8
7_ALL_FEATURES
  6
Continuous
 62
     7
100
AcDbSpline
 70
     0
 71
     3
 72
    11
 73
     7
 74
     0
 42
0.000000001
 43
0.0000001
 40
0.0
 40
0.0
 40
0.0
 40
0.0
 40
0.2499566193
 40
0.4998329146
 40
0.7498597631
 40
1.0
 40
1.0
 40
1.0
 40
1.0
 10
71.3251969249
 20
134.1686323161
 30
0.0
 10
71.3251969249
 20
134.1578510478
 30
0.0
 10
71.3209663686
 20
134.136084834
 30
0.0
 10
71.303458757
 20
134.1081459837
 30
0.0
 10
71.2780846667
 20
134.0873022194
 30
0.0
 10
71.2579550959
 20
134.078731688
 30
0.0
 10
71.2475686759
 20
134.0758112665
 30
0.0
  0
SPLINE
  5
322
330
20B
100
AcDbEntity
  8
7_ALL_FEATURES
  6
Continuous
 62
     7
100
AcDbSpline
 70
     0
 71
     3
 72
    11
 73
     7
 74
     0
 42
0.000000001
 43
0.0000001
 40
0.0
 40
0.0
 40
0.0
 40
0.0
 40
0.2501440492
 40
0.5001750187
 40
0.7500494801
 40
1.0
 40
1.0
 40
1.0
 40
1.0
 10
67.4772678886
 20
134.0758112665
 30
0.0
 10
67.4668813086
 20
134.0787317329
 30
0.0
 10
67.4467514286
 20
134.0873024628
 30
0.0
 10
67.4213772657
 20
134.10814658
 30
0.0
 10
67.4038699313
 20
134.1360854257
 30
0.0
 10
67.3996396396
 20
134.1578513091
 30
0.0
 10
67.3996396396
 20
134.1686323161
 30
0.0
  0
LINE
  5
323
330
20B
100
AcDbEntity
  8
7_ALL_FEATURES
  6
Continuous
 62
     7
100
AcDbLine
 10
67.20188
 20
134.392097
 30
0.0
 11
67.502883
 21
134.392098
 31
0.0
  0
ARC
  5
324
330
20B
100
AcDbEntity
  8
7_ALL_FEATURES
  6
Continuous
 62
     7
100
AcDbCircle
 10
71.761183
 20
71.224577
 30
0.0
 40
63.3108910799
100
AcDbArc
 50
93.146393
 51
93.856648
  0
LINE
  5
325
330
20B
100
AcDbEntity
  8
7_ALL_FEATURES
  6
Continuous
 62
     7
100
AcDbLine
 10
68.286226
 20
134.392099
 30
0.0
 11
70.462413
 21
134.392099
 31
0.0
  0
SPLINE
  5
326
330
20B
100
AcDbEntity
  8
7_ALL_FEATURES
  6
Continuous
 62
     7
100
AcDbSpline
 70
     0
 71
     3
 72
    11
 73
     7
 74
     0
 42
0.000000001
 43
0.0000001
 40
0.0
 40
0.0
 40
0.0
 40
0.0
 40
0.2501440492
 40
0.5001750187
 40
0.7500494801
 40
1.0
 40
1.0
 40
1.0
 40
1.0
 10
67.4772678886
 20
135.4544543329
 30
0.0
 10
67.4668813086
 20
135.4573747994
 30
0.0
 10
67.4467514286
 20
135.4659455292
 30
0.0
 10
67.4213772657
 20
135.4867896465
 30
0.0
 10
67.4038699313
 20
135.5147284921
 30
0.0
 10
67.3996396396
 20
135.5364943756
 30
0.0
 10
67.3996396396
 20
135.5472753825
 30
0.0
  0
SPLINE
  5
327
330
20B
100
AcDbEntity
  8
7_ALL_FEATURES
  6
Continuous
 62
     7
100
AcDbSpline
 70
     0
 71
     3
 72
    11
 73
     7
 74
     0
 42
0.000000001
 43
0.0000001
 40
0.0
 40
0.0
 40
0.0
 40
0.0
 40
0.2499552493
 40
0.4998315863
 40
0.7498593356
 40
1.0
 40
1.0
 40
1.0
 40
1.0
 10
71.3251969249
 20
135.5472753825
 30
0.0
 10
71.3251969249
 20
135.5364941729
 30
0.0
 10
71.3209664242
 20
135.5147280135
 30
0.0
 10
71.3034588545
 20
135.486789152
 30
0.0
 10
71.2780847381
 20
135.4659453203
 30
0.0
 10
71.2579551141
 20
135.4573747595
 30
0.0
 10
71.2475686759
 20
135.4544543329
 30
0.0
  0
LINE
  5
328
330
20B
100
AcDbEntity
  8
7_ALL_FEATURES
  6
Continuous
 62
     9
100
AcDbLine
 10
68.286217
 20
135.547275
 30
0.0
 11
70.46242
 21
135.547275
 31
0.0
  0
LINE
  5
329
330
20B
100
AcDbEntity
  8
7_ALL_FEATURES
  6
Continuous
 62
     7
100
AcDbLine
 10
67.39964
 20
135.547275
 30
0.0
 11
67.39964
 21
135.579761
 31
0.0
  0
LINE
  5
32A
330
20B
100
AcDbEntity
  8
7_ALL_FEATURES
  6
Continuous
 62
     9
100
AcDbLine
 10
67.112418
 20
135.547275
 30
0.0
 11
67.399647
 21
135.547275
 31
0.0
  0
LINE
  5
32B
330
20B
100
AcDbEntity
  8
7_ALL_FEATURES
  6
Continuous
 62
     9
100
AcDbLine
 10
71.32519
 20
135.547275
 30
0.0
 11
71.612418
 21
135.547275
 31
0.0
  0
LINE
  5
32C
330
20B
100
AcDbEntity
  8
7_ALL_FEATURES
  6
Continuous
 62
     7
100
AcDbLine
 10
71.325197
 20
135.579761
 30
0.0
 11
71.325197
 21
135.547275
 31
0.0
  0
LINE
  5
32D
330
20B
100
AcDbEntity
  8
7_ALL_FEATURES
  6
Continuous
 62
     7
100
AcDbLine
 10
67.477424
 20
135.454413
 30
0.0
 11
67.179807
 21
135.454454
 31
0.0
  0
SPLINE
  5
32E
330
20B
100
AcDbEntity
  8
7_ALL_FEATURES
  6
Continuous
 62
     7
100
AcDbSpline
 70
     0
 71
     3
 72
     9
 73
     5
 74
     0
 42
0.000000001
 43
0.0000001
 40
0.0
 40
0.0
 40
0.0
 40
0.0
 40
0.4999959638
 40
1.0
 40
1.0
 40
1.0
 40
1.0
 10
68.2862179724
 20
135.2610172098
 30
0.0
 10
68.1505477466
 20
135.289529334
 30
0.0
 10
67.8802830202
 20
135.3516838371
 30
0.0
 10
67.6114579861
 20
135.4196263311
 30
0.0
 10
67.4772678886
 20
135.4544543329
 30
0.0
  0
LINE
  5
32F
330
20B
100
AcDbEntity
  8
7_ALL_FEATURES
  6
Continuous
 62
     7
100
AcDbLine
 10
70.462413
 20
135.454449
 30
0.0
 11
68.286206
 21
135.454461
 31
0.0
  0
SPLINE
  5
330
330
20B
100
AcDbEntity
  8
7_ALL_FEATURES
  6
Continuous
 62
     7
100
AcDbSpline
 70
     0
 71
     3
 72
     9
 73
     5
 74
     0
 42
0.000000001
 43
0.0000001
 40
0.0
 40
0.0
 40
0.0
 40
0.0
 40
0.5000035478
 40
1.0
 40
1.0
 40
1.0
 40
1.0
 10
71.2475686759
 20
135.4544543329
 30
0.0
 10
71.1173026849
 20
135.4206442129
 30
0.0
 10
70.8563496731
 20
135.3546442647
 30
0.0
 10
70.5940594741
 20
135.2940187243
 30
0.0
 10
70.4624182822
 20
135.2660466822
 30
0.0
  0
LINE
  5
331
330
20B
100
AcDbEntity
  8
7_ALL_FEATURES
  6
Continuous
 62
     7
100
AcDbLine
 10
71.54503
 20
135.454454
 30
0.0
 11
71.247552
 21
135.454451
 31
0.0
  0
LINE
  5
332
330
20B
100
AcDbEntity
  8
7_ALL_FEATURES
  6
Continuous
 62
     7
100
AcDbLine
 10
68.09124
 20
134.460673
 30
0.0
 11
68.287391
 21
134.460674
 31
0.0
  0
LINE
  5
333
330
20B
100
AcDbEntity
  8
7_ALL_FEATURES
  6
Continuous
 62
     7
100
AcDbLine
 10
68.287391
 20
134.460674
 30
0.0
 11
70.633596
 21
134.460673
 31
0.0
  0
LINE
  5
334
330
20B
100
AcDbEntity
  8
7_ALL_FEATURES
  6
Continuous
 62
     7
100
AcDbLine
 10
70.550603
 20
134.523014
 30
0.0
 11
68.174234
 21
134.523014
 31
0.0
  0
LINE
  5
335
330
20B
100
AcDbEntity
  8
7_ALL_FEATURES
  6
Continuous
 62
     7
100
AcDbLine
 10
70.61799
 20
135.175877
 30
0.0
 11
68.106847
 21
135.175877
 31
0.0
  0
LINE
  5
336
330
20B
100
AcDbEntity
  8
7_ALL_FEATURES
  6
Continuous
 62
     7
100
AcDbLine
 10
68.174234
 20
135.082316
 30
0.0
 11
70.550603
 21
135.082316
 31
0.0
  0
LINE
  5
337
330
20B
100
AcDbEntity
  8
7_ALL_FEATURES
  6
Continuous
 62
     7
100
AcDbLine
 10
86.002374
 20
145.579761
 30
0.0
 11
85.81455
 21
145.579761
 31
0.0
  0
LINE
  5
338
330
20B
100
AcDbEntity
  8
7_ALL_FEATURES
  6
Continuous
 62
     7
100
AcDbLine
 10
93.722462
 20
145.579761
 30
0.0
 11
86.002374
 21
145.579761
 31
0.0
  0
ARC
  5
339
330
20B
100
AcDbEntity
  8
7_ALL_FEATURES
  6
Continuous
 62
     7
100
AcDbCircle
 10
56.669281
 20
143.279761
 30
0.0
 40
0.2
100
AcDbArc
 50
295.954838
 51
345.018501
  0
ARC
  5
33A
330
20B
100
AcDbEntity
  8
7_ALL_FEATURES
  6
Continuous
 62
     7
100
AcDbCircle
 10
123.055556
 20
143.279761
 30
0.0
 40
0.2
100
AcDbArc
 50
195.016026
 51
270.0
  0
LINE
  5
33B
330
20B
100
AcDbEntity
  8
7_ALL_FEATURES
  6
Continuous
 62
     9
100
AcDbLine
 10
93.722462
 20
145.579761
 30
0.0
 11
93.690504
 21
146.886741
 31
0.0
  0
LINE
  5
33C
330
20B
100
AcDbEntity
  8
7_ALL_FEATURES
  6
Continuous
 62
     9
100
AcDbLine
 10
86.034332
 20
146.886741
 30
0.0
 11
93.690504
 21
146.886741
 31
0.0
  0
LINE
  5
33D
330
20B
100
AcDbEntity
  8
7_ALL_FEATURES
  6
Continuous
 62
     9
100
AcDbLine
 10
93.690504
 20
147.079761
 30
0.0
 11
93.690504
 21
146.886741
 31
0.0
  0
SPLINE
  5
33E
330
20B
100
AcDbEntity
  8
7_ALL_FEATURES
  6
Continuous
 62
     9
100
AcDbSpline
 70
     0
 71
     3
 72
     9
 73
     5
 74
     0
 42
0.000000001
 43
0.0000001
 40
0.0
 40
0.0
 40
0.0
 40
0.0
 40
0.6102084499
 40
1.0
 40
1.0
 40
1.0
 40
1.0
 10
93.6905040912
 20
146.8867407926
 30
0.0
 10
93.7287020309
 20
146.8876736629
 30
0.0
 10
93.7912846414
 20
146.8883203114
 30
0.0
 10
93.8539823084
 20
146.888475146
 30
0.0
 10
93.8783281283
 20
146.8867407926
 30
0.0
  0
LINE
  5
33F
330
20B
100
AcDbEntity
  8
7_ALL_FEATURES
  6
Continuous
 62
     7
100
AcDbLine
 10
55.862418
 20
135.579761
 30
0.0
 11
54.862418
 21
135.579761
 31
0.0
  0
LINE
  5
340
330
20B
100
AcDbEntity
  8
7_ALL_FEATURES
  6
Continuous
 62
     7
100
AcDbLine
 10
55.862418
 20
135.579761
 30
0.0
 11
123.862418
 21
135.579761
 31
0.0
  0
LINE
  5
341
330
20B
100
AcDbEntity
  8
7_ALL_FEATURES
  6
Continuous
 62
     7
100
AcDbLine
 10
124.862418
 20
135.579761
 30
0.0
 11
123.862418
 21
135.579761
 31
0.0
  0
LINE
  5
342
330
20B
100
AcDbEntity
  8
7_ALL_FEATURES
  6
Continuous
 62
     7
100
AcDbLine
 10
54.862418
 20
171.579761
 30
0.0
 11
54.862418
 21
145.579761
 31
0.0
  0
LINE
  5
343
330
20B
100
AcDbEntity
  8
7_ALL_FEATURES
  6
Continuous
 62
     7
100
AcDbLine
 10
124.862418
 20
171.579761
 30
0.0
 11
124.862418
 21
145.579761
 31
0.0
  0
LINE
  5
344
330
20B
100
AcDbEntity
  8
7_ALL_FEATURES
  6
Continuous
 62
     7
100
AcDbLine
 10
54.862418
 20
143.079761
 30
0.0
 11
54.862418
 21
135.579761
 31
0.0
  0
LINE
  5
345
330
20B
100
AcDbEntity
  8
7_ALL_FEATURES
  6
Continuous
 62
     7
100
AcDbLine
 10
55.862418
 20
143.079761
 30
0.0
 11
123.862418
 21
143.079761
 31
0.0
  0
LINE
  5
346
330
20B
100
AcDbEntity
  8
7_ALL_FEATURES
  6
Continuous
 62
     7
100
AcDbLine
 10
124.862418
 20
143.079761
 30
0.0
 11
124.862418
 21
135.579761
 31
0.0
  0
LINE
  5
347
330
20B
100
AcDbEntity
  8
7_ALL_FEATURES
  6
Continuous
 62
     7
100
AcDbLine
 10
54.862418
 20
171.579761
 30
0.0
 11
55.862418
 21
171.579761
 31
0.0
  0
LINE
  5
348
330
20B
100
AcDbEntity
  8
7_ALL_FEATURES
  6
Continuous
 62
     7
100
AcDbLine
 10
55.862418
 20
171.579761
 30
0.0
 11
123.862418
 21
171.579761
 31
0.0
  0
LINE
  5
349
330
20B
100
AcDbEntity
  8
7_ALL_FEATURES
  6
Continuous
 62
     7
100
AcDbLine
 10
123.862418
 20
171.579761
 30
0.0
 11
124.862418
 21
171.579761
 31
0.0
  0
LINE
  5
34A
330
20B
100
AcDbEntity
  8
7_ALL_FEATURES
  6
Continuous
 62
     7
100
AcDbLine
 10
124.862418
 20
145.579761
 30
0.0
 11
123.862418
 21
145.579761
 31
0.0
  0
LINE
  5
34B
330
20B
100
AcDbEntity
  8
7_ALL_FEATURES
  6
Continuous
 62
     7
100
AcDbLine
 10
54.862418
 20
143.079761
 30
0.0
 11
55.862418
 21
143.079761
 31
0.0
  0
LINE
  5
34C
330
20B
100
AcDbEntity
  8
7_ALL_FEATURES
  6
Continuous
 62
     7
100
AcDbLine
 10
55.862418
 20
145.579761
 30
0.0
 11
83.944739
 21
145.579761
 31
0.0
  0
LINE
  5
34D
330
20B
100
AcDbEntity
  8
7_ALL_FEATURES
  6
Continuous
 62
     7
100
AcDbLine
 10
83.944739
 20
145.579761
 30
0.0
 11
85.81455
 21
145.579761
 31
0.0
  0
LINE
  5
34E
330
20B
100
AcDbEntity
  8
7_ALL_FEATURES
  6
Continuous
 62
     7
100
AcDbLine
 10
85.81455
 20
145.579761
 30
0.0
 11
86.002374
 21
145.579761
 31
0.0
  0
LINE
  5
34F
330
20B
100
AcDbEntity
  8
7_ALL_FEATURES
  6
Continuous
 62
     7
100
AcDbLine
 10
86.002374
 20
145.579761
 30
0.0
 11
93.722462
 21
145.579761
 31
0.0
  0
LINE
  5
350
330
20B
100
AcDbEntity
  8
7_ALL_FEATURES
  6
Continuous
 62
     7
100
AcDbLine
 10
93.722462
 20
145.579761
 30
0.0
 11
93.910286
 21
145.579761
 31
0.0
  0
LINE
  5
351
330
20B
100
AcDbEntity
  8
7_ALL_FEATURES
  6
Continuous
 62
     7
100
AcDbLine
 10
93.910286
 20
145.579761
 30
0.0
 11
95.780098
 21
145.579761
 31
0.0
  0
LINE
  5
352
330
20B
100
AcDbEntity
  8
7_ALL_FEATURES
  6
Continuous
 62
     7
100
AcDbLine
 10
95.780098
 20
145.579761
 30
0.0
 11
123.862418
 21
145.579761
 31
0.0
  0
LINE
  5
353
330
20B
100
AcDbEntity
  8
7_ALL_FEATURES
  6
Continuous
 62
     7
100
AcDbLine
 10
55.862418
 20
145.579761
 30
0.0
 11
54.862418
 21
145.579761
 31
0.0
  0
LINE
  5
354
330
20B
100
AcDbEntity
  8
7_ALL_FEATURES
  6
Continuous
 62
     7
100
AcDbLine
 10
123.862418
 20
143.079761
 30
0.0
 11
124.862418
 21
143.079761
 31
0.0
  0
LINE
  5
355
330
20B
100
AcDbEntity
  8
7_ALL_FEATURES
  6
Continuous
 62
     7
100
AcDbLine
 10
56.862418
 20
143.079761
 30
0.0
 11
56.862418
 21
145.579761
 31
0.0
  0
LINE
  5
356
330
20B
100
AcDbEntity
  8
7_ALL_FEATURES
  6
Continuous
 62
     7
100
AcDbLine
 10
122.862418
 20
143.079761
 30
0.0
 11
122.862418
 21
145.579761
 31
0.0
  0
LINE
  5
357
330
20B
100
AcDbEntity
  8
7_ALL_FEATURES
  6
Continuous
 62
     9
100
AcDbLine
 10
123.862418
 20
171.579761
 30
0.0
 11
123.862418
 21
145.579761
 31
0.0
  0
LINE
  5
358
330
20B
100
AcDbEntity
  8
7_ALL_FEATURES
  6
Continuous
 62
     9
100
AcDbLine
 10
123.862418
 20
143.079761
 30
0.0
 11
123.862418
 21
135.579761
 31
0.0
  0
LINE
  5
359
330
20B
100
AcDbEntity
  8
7_ALL_FEATURES
  6
Continuous
 62
     9
100
AcDbLine
 10
121.862418
 20
143.079761
 30
0.0
 11
121.862418
 21
145.579761
 31
0.0
  0
LINE
  5
35A
330
20B
100
AcDbEntity
  8
7_ALL_FEATURES
  6
Continuous
 62
     9
100
AcDbLine
 10
57.862418
 20
143.079761
 30
0.0
 11
57.862418
 21
145.579761
 31
0.0
  0
LINE
  5
35B
330
20B
100
AcDbEntity
  8
7_ALL_FEATURES
  6
Continuous
 62
     9
100
AcDbLine
 10
55.862418
 20
171.579761
 30
0.0
 11
55.862418
 21
145.579761
 31
0.0
  0
LINE
  5
35C
330
20B
100
AcDbEntity
  8
7_ALL_FEATURES
  6
Continuous
 62
     9
100
AcDbLine
 10
55.862418
 20
143.079761
 30
0.0
 11
55.862418
 21
135.579761
 31
0.0
  0
LINE
  5
35D
330
20B
100
AcDbEntity
  8
7_ALL_FEATURES
  6
Continuous
 62
     7
100
AcDbLine
 10
123.862418
 20
95.308898
 30
0.0
 11
55.862418
 21
95.308898
 31
0.0
  0
ARC
  5
35E
330
20B
100
AcDbEntity
  8
7_ALL_FEATURES
  6
Continuous
 62
     7
100
AcDbCircle
 10
55.862418
 20
94.308898
 30
0.0
 40
1.0
100
AcDbArc
 50
90.0
 51
180.0
  0
LINE
  5
35F
330
20B
100
AcDbEntity
  8
7_ALL_FEATURES
  6
Continuous
 62
     7
100
AcDbLine
 10
54.862418
 20
94.308898
 30
0.0
 11
54.862418
 21
26.308898
 31
0.0
  0
ARC
  5
360
330
20B
100
AcDbEntity
  8
7_ALL_FEATURES
  6
Continuous
 62
     7
100
AcDbCircle
 10
55.862418
 20
26.308898
 30
0.0
 40
1.0
100
AcDbArc
 50
180.0
 51
270.0
  0
LINE
  5
361
330
20B
100
AcDbEntity
  8
7_ALL_FEATURES
  6
Continuous
 62
     7
100
AcDbLine
 10
55.862418
 20
25.308898
 30
0.0
 11
123.862418
 21
25.308898
 31
0.0
  0
ARC
  5
362
330
20B
100
AcDbEntity
  8
7_ALL_FEATURES
  6
Continuous
 62
     7
100
AcDbCircle
 10
123.862418
 20
26.308898
 30
0.0
 40
1.0
100
AcDbArc
 50
270.0
 51
360.0
  0
LINE
  5
363
330
20B
100
AcDbEntity
  8
7_ALL_FEATURES
  6
Continuous
 62
     7
100
AcDbLine
 10
124.862418
 20
26.308898
 30
0.0
 11
124.862418
 21
94.308898
 31
0.0
  0
ARC
  5
364
330
20B
100
AcDbEntity
  8
7_ALL_FEATURES
  6
Continuous
 62
     7
100
AcDbCircle
 10
123.862418
 20
94.308898
 30
0.0
 40
1.0
100
AcDbArc
 50
0.0
 51
90.0
  0
ARC
  5
365
330
20B
100
AcDbEntity
  8
7_ALL_FEATURES
  6
Continuous
 62
     7
100
AcDbCircle
 10
227.450665
 20
134.294819
 30
0.0
 40
0.0976201153
100
AcDbArc
 50
0.0
 51
85.205063
  0
LINE
  5
366
330
20B
100
AcDbEntity
  8
7_ALL_FEATURES
  6
Continuous
 62
     7
100
AcDbLine
 10
227.458825
 20
134.392097
 30
0.0
 11
227.173386
 21
134.414106
 31
0.0
  0
LINE
  5
367
330
20B
100
AcDbEntity
  8
7_ALL_FEATURES
  6
Continuous
 62
     7
100
AcDbLine
 10
227.173386
 20
134.414106
 30
0.0
 11
226.56946
 21
134.460673
 31
0.0
  0
ARC
  5
368
330
20B
100
AcDbEntity
  8
7_ALL_FEATURES
  6
Continuous
 62
     7
100
AcDbCircle
 10
227.450665
 20
132.916176
 30
0.0
 40
0.0976201153
100
AcDbArc
 50
0.0
 51
85.205063
  0
LINE
  5
369
330
20B
100
AcDbEntity
  8
7_ALL_FEATURES
  6
Continuous
 62
     7
100
AcDbLine
 10
227.458825
 20
133.013454
 30
0.0
 11
227.173386
 21
133.035463
 31
0.0
  0
LINE
  5
36A
330
20B
100
AcDbEntity
  8
7_ALL_FEATURES
  6
Continuous
 62
     7
100
AcDbLine
 10
227.173386
 20
133.035463
 30
0.0
 11
226.56946
 21
133.08203
 31
0.0
  0
LINE
  5
36B
330
20B
100
AcDbEntity
  8
7_ALL_FEATURES
  6
Continuous
 62
     7
100
AcDbLine
 10
227.09824
 20
130.805738
 30
0.0
 11
227.134143
 21
131.5956
 31
0.0
  0
LINE
  5
36C
330
20B
100
AcDbEntity
  8
7_ALL_FEATURES
  6
Continuous
 62
     7
100
AcDbLine
 10
223.498329
 20
130.805738
 30
0.0
 11
223.462426
 21
131.5956
 31
0.0
  0
LINE
  5
36D
330
20B
100
AcDbEntity
  8
7_ALL_FEATURES
  6
Continuous
 62
     7
100
AcDbLine
 10
224.701075
 20
128.579761
 30
0.0
 11
223.498329
 21
130.805738
 31
0.0
  0
LINE
  5
36E
330
20B
100
AcDbEntity
  8
7_ALL_FEATURES
  6
Continuous
 62
     7
100
AcDbLine
 10
225.895448
 20
128.579761
 30
0.0
 11
225.298285
 21
128.579761
 31
0.0
  0
LINE
  5
36F
330
20B
100
AcDbEntity
  8
7_ALL_FEATURES
  6
Continuous
 62
     7
100
AcDbLine
 10
225.895495
 20
128.579761
 30
0.0
 11
227.09824
 21
130.805738
 31
0.0
  0
LINE
  5
370
330
20B
100
AcDbEntity
  8
7_ALL_FEATURES
  6
Continuous
 62
     7
100
AcDbLine
 10
223.462426
 20
131.5956
 30
0.0
 11
224.1101
 21
131.613552
 31
0.0
  0
LINE
  5
371
330
20B
100
AcDbEntity
  8
7_ALL_FEATURES
  6
Continuous
 62
     7
100
AcDbLine
 10
227.134143
 20
131.5956
 30
0.0
 11
226.785871
 21
131.605253
 31
0.0
  0
LINE
  5
372
330
20B
100
AcDbEntity
  8
7_ALL_FEATURES
  6
Continuous
 62
     7
100
AcDbLine
 10
226.785871
 20
131.605253
 30
0.0
 11
226.486469
 21
131.613552
 31
0.0
  0
ARC
  5
373
330
20B
100
AcDbEntity
  8
7_ALL_FEATURES
  6
Continuous
 62
     7
100
AcDbCircle
 10
226.584088
 20
132.32577
 30
0.0
 40
0.0976200982
100
AcDbArc
 50
108.041925
 51
180.434038
  0
LINE
  5
374
330
20B
100
AcDbEntity
  8
7_ALL_FEATURES
  6
Continuous
 62
     7
100
AcDbLine
 10
226.486469
 20
131.613552
 30
0.0
 11
226.486469
 21
132.32503
 31
0.0
  0
LINE
  5
375
330
20B
100
AcDbEntity
  8
7_ALL_FEATURES
  6
Continuous
 62
     7
100
AcDbLine
 10
224.1101
 20
131.613552
 30
0.0
 11
224.1101
 21
132.32503
 31
0.0
  0
ARC
  5
376
330
20B
100
AcDbEntity
  8
7_ALL_FEATURES
  6
Continuous
 62
     7
100
AcDbCircle
 10
224.012482
 20
132.32577
 30
0.0
 40
0.0976200982
100
AcDbArc
 50
359.565962
 51
71.958075
  0
LINE
  5
377
330
20B
100
AcDbEntity
  8
7_ALL_FEATURES
  6
Continuous
 62
     7
100
AcDbLine
 10
223.115671
 20
132.697169
 30
0.0
 11
223.115671
 21
132.697169
 31
0.0
  0
LINE
  5
378
330
20B
100
AcDbEntity
  8
7_ALL_FEATURES
  6
Continuous
 62
     7
100
AcDbLine
 10
224.042716
 20
132.41859
 30
0.0
 11
223.115671
 21
132.697169
 31
0.0
  0
LINE
  5
379
330
20B
100
AcDbEntity
  8
7_ALL_FEATURES
  6
Continuous
 62
     7
100
AcDbLine
 10
226.553854
 20
132.41859
 30
0.0
 11
227.480896
 21
132.697168
 31
0.0
  0
LINE
  5
37A
330
20B
100
AcDbEntity
  8
7_ALL_FEATURES
  6
Continuous
 62
     7
100
AcDbLine
 10
227.548285
 20
132.789989
 30
0.0
 11
227.548285
 21
132.789989
 31
0.0
  0
LINE
  5
37B
330
20B
100
AcDbEntity
  8
7_ALL_FEATURES
  6
Continuous
 62
     7
100
AcDbLine
 10
227.548285
 20
132.789989
 30
0.0
 11
227.548285
 21
132.916176
 31
0.0
  0
ARC
  5
37C
330
20B
100
AcDbEntity
  8
7_ALL_FEATURES
  6
Continuous
 62
     7
100
AcDbCircle
 10
227.450665
 20
132.789989
 30
0.0
 40
0.0976200982
100
AcDbArc
 50
288.040227
 51
360.0
  0
ARC
  5
37D
330
20B
100
AcDbEntity
  8
7_ALL_FEATURES
  6
Continuous
 62
     7
100
AcDbCircle
 10
223.145905
 20
132.789989
 30
0.0
 40
0.0976200982
100
AcDbArc
 50
180.0
 51
251.958938
  0
LINE
  5
37E
330
20B
100
AcDbEntity
  8
7_ALL_FEATURES
  6
Continuous
 62
     7
100
AcDbLine
 10
223.048285
 20
132.789989
 30
0.0
 11
223.048285
 21
132.916176
 31
0.0
  0
ARC
  5
37F
330
20B
100
AcDbEntity
  8
7_ALL_FEATURES
  6
Continuous
 62
     7
100
AcDbCircle
 10
223.145905
 20
132.916176
 30
0.0
 40
0.0976201153
100
AcDbArc
 50
94.794224
 51
180.0
  0
LINE
  5
380
330
20B
100
AcDbEntity
  8
7_ALL_FEATURES
  6
Continuous
 62
     7
100
AcDbLine
 10
223.137746
 20
133.013454
 30
0.0
 11
224.02711
 21
133.08203
 31
0.0
  0
ARC
  5
381
330
20B
100
AcDbEntity
  8
7_ALL_FEATURES
  6
Continuous
 62
     7
100
AcDbCircle
 10
224.018948
 20
133.179308
 30
0.0
 40
0.0976200982
100
AcDbArc
 50
274.795947
 51
339.026685
  0
ARC
  5
382
330
20B
100
AcDbEntity
  8
7_ALL_FEATURES
  6
Continuous
 62
     7
100
AcDbCircle
 10
226.577622
 20
133.179308
 30
0.0
 40
0.0976200982
100
AcDbArc
 50
200.973315
 51
265.204053
  0
ARC
  5
383
330
20B
100
AcDbEntity
  8
7_ALL_FEATURES
  6
Continuous
 62
     7
100
AcDbCircle
 10
226.584088
 20
133.704413
 30
0.0
 40
0.0976200982
100
AcDbArc
 50
108.041925
 51
180.434038
  0
LINE
  5
384
330
20B
100
AcDbEntity
  8
7_ALL_FEATURES
  6
Continuous
 62
     7
100
AcDbLine
 10
226.486469
 20
133.144371
 30
0.0
 11
226.486469
 21
133.703673
 31
0.0
  0
LINE
  5
385
330
20B
100
AcDbEntity
  8
7_ALL_FEATURES
  6
Continuous
 62
     7
100
AcDbLine
 10
224.1101
 20
133.144371
 30
0.0
 11
224.1101
 21
133.703673
 31
0.0
  0
ARC
  5
386
330
20B
100
AcDbEntity
  8
7_ALL_FEATURES
  6
Continuous
 62
     7
100
AcDbCircle
 10
224.012482
 20
133.704413
 30
0.0
 40
0.0976200982
100
AcDbArc
 50
359.565962
 51
71.958075
  0
LINE
  5
387
330
20B
100
AcDbEntity
  8
7_ALL_FEATURES
  6
Continuous
 62
     7
100
AcDbLine
 10
223.115671
 20
134.075812
 30
0.0
 11
223.115671
 21
134.075812
 31
0.0
  0
LINE
  5
388
330
20B
100
AcDbEntity
  8
7_ALL_FEATURES
  6
Continuous
 62
     7
100
AcDbLine
 10
224.042716
 20
133.797233
 30
0.0
 11
223.115671
 21
134.075812
 31
0.0
  0
LINE
  5
389
330
20B
100
AcDbEntity
  8
7_ALL_FEATURES
  6
Continuous
 62
     7
100
AcDbLine
 10
226.553853
 20
133.797233
 30
0.0
 11
227.480896
 21
134.075811
 31
0.0
  0
LINE
  5
38A
330
20B
100
AcDbEntity
  8
7_ALL_FEATURES
  6
Continuous
 62
     7
100
AcDbLine
 10
227.548285
 20
134.168632
 30
0.0
 11
227.548285
 21
134.168632
 31
0.0
  0
LINE
  5
38B
330
20B
100
AcDbEntity
  8
7_ALL_FEATURES
  6
Continuous
 62
     7
100
AcDbLine
 10
227.548285
 20
134.168632
 30
0.0
 11
227.548285
 21
134.294819
 31
0.0
  0
ARC
  5
38C
330
20B
100
AcDbEntity
  8
7_ALL_FEATURES
  6
Continuous
 62
     7
100
AcDbCircle
 10
227.450665
 20
134.168632
 30
0.0
 40
0.0976200982
100
AcDbArc
 50
288.040227
 51
360.0
  0
ARC
  5
38D
330
20B
100
AcDbEntity
  8
7_ALL_FEATURES
  6
Continuous
 62
     7
100
AcDbCircle
 10
223.145905
 20
134.168632
 30
0.0
 40
0.0976200982
100
AcDbArc
 50
180.0
 51
251.958938
  0
LINE
  5
38E
330
20B
100
AcDbEntity
  8
7_ALL_FEATURES
  6
Continuous
 62
     7
100
AcDbLine
 10
223.048285
 20
134.168632
 30
0.0
 11
223.048285
 21
134.294819
 31
0.0
  0
ARC
  5
38F
330
20B
100
AcDbEntity
  8
7_ALL_FEATURES
  6
Continuous
 62
     7
100
AcDbCircle
 10
223.145905
 20
134.294819
 30
0.0
 40
0.0976201153
100
AcDbArc
 50
94.794224
 51
180.0
  0
LINE
  5
390
330
20B
100
AcDbEntity
  8
7_ALL_FEATURES
  6
Continuous
 62
     7
100
AcDbLine
 10
223.137746
 20
134.392097
 30
0.0
 11
224.02711
 21
134.460673
 31
0.0
  0
ARC
  5
391
330
20B
100
AcDbEntity
  8
7_ALL_FEATURES
  6
Continuous
 62
     7
100
AcDbCircle
 10
224.018948
 20
134.557951
 30
0.0
 40
0.0976200982
100
AcDbArc
 50
274.795947
 51
339.026685
  0
ARC
  5
392
330
20B
100
AcDbEntity
  8
7_ALL_FEATURES
  6
Continuous
 62
     7
100
AcDbCircle
 10
226.577622
 20
134.557951
 30
0.0
 40
0.0976200982
100
AcDbArc
 50
200.973315
 51
265.204053
  0
ARC
  5
393
330
20B
100
AcDbEntity
  8
7_ALL_FEATURES
  6
Continuous
 62
     7
100
AcDbCircle
 10
226.584088
 20
135.083056
 30
0.0
 40
0.0976200982
100
AcDbArc
 50
108.041925
 51
180.434038
  0
LINE
  5
394
330
20B
100
AcDbEntity
  8
7_ALL_FEATURES
  6
Continuous
 62
     7
100
AcDbLine
 10
226.486469
 20
134.523014
 30
0.0
 11
226.486469
 21
135.082316
 31
0.0
  0
LINE
  5
395
330
20B
100
AcDbEntity
  8
7_ALL_FEATURES
  6
Continuous
 62
     7
100
AcDbLine
 10
224.1101
 20
134.523014
 30
0.0
 11
224.1101
 21
135.082316
 31
0.0
  0
ARC
  5
396
330
20B
100
AcDbEntity
  8
7_ALL_FEATURES
  6
Continuous
 62
     7
100
AcDbCircle
 10
224.012482
 20
135.083056
 30
0.0
 40
0.0976200982
100
AcDbArc
 50
359.565962
 51
71.958075
  0
LINE
  5
397
330
20B
100
AcDbEntity
  8
7_ALL_FEATURES
  6
Continuous
 62
     7
100
AcDbLine
 10
223.115671
 20
135.454455
 30
0.0
 11
223.115671
 21
135.454455
 31
0.0
  0
LINE
  5
398
330
20B
100
AcDbEntity
  8
7_ALL_FEATURES
  6
Continuous
 62
     7
100
AcDbLine
 10
224.042716
 20
135.175876
 30
0.0
 11
223.115671
 21
135.454455
 31
0.0
  0
LINE
  5
399
330
20B
100
AcDbEntity
  8
7_ALL_FEATURES
  6
Continuous
 62
     7
100
AcDbLine
 10
226.553854
 20
135.175876
 30
0.0
 11
227.480896
 21
135.454454
 31
0.0
  0
LINE
  5
39A
330
20B
100
AcDbEntity
  8
7_ALL_FEATURES
  6
Continuous
 62
     7
100
AcDbLine
 10
227.548285
 20
135.547275
 30
0.0
 11
227.548285
 21
135.547275
 31
0.0
  0
LINE
  5
39B
330
20B
100
AcDbEntity
  8
7_ALL_FEATURES
  6
Continuous
 62
     7
100
AcDbLine
 10
227.548285
 20
135.547275
 30
0.0
 11
227.548285
 21
135.579761
 31
0.0
  0
ARC
  5
39C
330
20B
100
AcDbEntity
  8
7_ALL_FEATURES
  6
Continuous
 62
     7
100
AcDbCircle
 10
227.450665
 20
135.547275
 30
0.0
 40
0.0976200982
100
AcDbArc
 50
288.040227
 51
360.0
  0
ARC
  5
39D
330
20B
100
AcDbEntity
  8
7_ALL_FEATURES
  6
Continuous
 62
     7
100
AcDbCircle
 10
223.145905
 20
135.547275
 30
0.0
 40
0.0976200982
100
AcDbArc
 50
180.0
 51
251.958938
  0
LINE
  5
39E
330
20B
100
AcDbEntity
  8
7_ALL_FEATURES
  6
Continuous
 62
     7
100
AcDbLine
 10
223.048285
 20
135.547275
 30
0.0
 11
223.048285
 21
135.579761
 31
0.0
  0
LINE
  5
39F
330
20B
100
AcDbEntity
  8
7_ALL_FEATURES
  6
Continuous
 62
     7
100
AcDbLine
 10
224.222084
 20
135.579761
 30
0.0
 11
224.222084
 21
135.547275
 31
0.0
  0
LINE
  5
3A0
330
20B
100
AcDbEntity
  8
7_ALL_FEATURES
  6
Continuous
 62
     7
100
AcDbLine
 10
224.222084
 20
135.547275
 30
0.0
 11
224.222084
 21
135.454454
 31
0.0
  0
LINE
  5
3A1
330
20B
100
AcDbEntity
  8
7_ALL_FEATURES
  6
Continuous
 62
     7
100
AcDbLine
 10
226.398285
 20
135.454454
 30
0.0
 11
226.398285
 21
135.547275
 31
0.0
  0
LINE
  5
3A2
330
20B
100
AcDbEntity
  8
7_ALL_FEATURES
  6
Continuous
 62
     7
100
AcDbLine
 10
226.398285
 20
135.547275
 30
0.0
 11
226.398285
 21
135.579761
 31
0.0
  0
LINE
  5
3A3
330
20B
100
AcDbEntity
  8
7_ALL_FEATURES
  6
Continuous
 62
     7
100
AcDbLine
 10
226.398285
 20
135.261017
 30
0.0
 11
226.398285
 21
135.454454
 31
0.0
  0
LINE
  5
3A4
330
20B
100
AcDbEntity
  8
7_ALL_FEATURES
  6
Continuous
 62
     7
100
AcDbLine
 10
224.222084
 20
135.454454
 30
0.0
 11
224.222084
 21
135.255932
 31
0.0
  0
LINE
  5
3A5
330
20B
100
AcDbEntity
  8
7_ALL_FEATURES
  6
Continuous
 62
     7
100
AcDbLine
 10
224.222084
 20
134.441335
 30
0.0
 11
224.222084
 21
134.392097
 31
0.0
  0
LINE
  5
3A6
330
20B
100
AcDbEntity
  8
7_ALL_FEATURES
  6
Continuous
 62
     7
100
AcDbLine
 10
224.222084
 20
134.392097
 30
0.0
 11
224.222084
 21
134.294819
 31
0.0
  0
LINE
  5
3A7
330
20B
100
AcDbEntity
  8
7_ALL_FEATURES
  6
Continuous
 62
     7
100
AcDbLine
 10
224.222084
 20
134.294819
 30
0.0
 11
224.222084
 21
134.168632
 31
0.0
  0
LINE
  5
3A8
330
20B
100
AcDbEntity
  8
7_ALL_FEATURES
  6
Continuous
 62
     7
100
AcDbLine
 10
224.222084
 20
134.168632
 30
0.0
 11
224.222084
 21
134.075811
 31
0.0
  0
LINE
  5
3A9
330
20B
100
AcDbEntity
  8
7_ALL_FEATURES
  6
Continuous
 62
     7
100
AcDbLine
 10
226.398285
 20
134.075811
 30
0.0
 11
226.398285
 21
134.168632
 31
0.0
  0
LINE
  5
3AA
330
20B
100
AcDbEntity
  8
7_ALL_FEATURES
  6
Continuous
 62
     7
100
AcDbLine
 10
226.398285
 20
134.168632
 30
0.0
 11
226.398285
 21
134.294819
 31
0.0
  0
LINE
  5
3AB
330
20B
100
AcDbEntity
  8
7_ALL_FEATURES
  6
Continuous
 62
     7
100
AcDbLine
 10
226.398285
 20
133.882374
 30
0.0
 11
226.398285
 21
134.075811
 31
0.0
  0
LINE
  5
3AC
330
20B
100
AcDbEntity
  8
7_ALL_FEATURES
  6
Continuous
 62
     7
100
AcDbLine
 10
224.222084
 20
134.075811
 30
0.0
 11
224.222084
 21
133.877289
 31
0.0
  0
LINE
  5
3AD
330
20B
100
AcDbEntity
  8
7_ALL_FEATURES
  6
Continuous
 62
     7
100
AcDbLine
 10
224.222084
 20
133.062692
 30
0.0
 11
224.222084
 21
133.013454
 31
0.0
  0
LINE
  5
3AE
330
20B
100
AcDbEntity
  8
7_ALL_FEATURES
  6
Continuous
 62
     7
100
AcDbLine
 10
224.222084
 20
133.013454
 30
0.0
 11
224.222084
 21
132.916176
 31
0.0
  0
LINE
  5
3AF
330
20B
100
AcDbEntity
  8
7_ALL_FEATURES
  6
Continuous
 62
     7
100
AcDbLine
 10
224.222084
 20
132.916176
 30
0.0
 11
224.222084
 21
132.789989
 31
0.0
  0
LINE
  5
3B0
330
20B
100
AcDbEntity
  8
7_ALL_FEATURES
  6
Continuous
 62
     7
100
AcDbLine
 10
224.222084
 20
132.789989
 30
0.0
 11
224.222084
 21
132.697168
 31
0.0
  0
LINE
  5
3B1
330
20B
100
AcDbEntity
  8
7_ALL_FEATURES
  6
Continuous
 62
     7
100
AcDbLine
 10
226.398285
 20
132.697168
 30
0.0
 11
226.398285
 21
132.789989
 31
0.0
  0
LINE
  5
3B2
330
20B
100
AcDbEntity
  8
7_ALL_FEATURES
  6
Continuous
 62
     7
100
AcDbLine
 10
226.398285
 20
132.789989
 30
0.0
 11
226.398285
 21
132.916176
 31
0.0
  0
LINE
  5
3B3
330
20B
100
AcDbEntity
  8
7_ALL_FEATURES
  6
Continuous
 62
     7
100
AcDbLine
 10
226.398285
 20
132.503731
 30
0.0
 11
226.398285
 21
132.697168
 31
0.0
  0
LINE
  5
3B4
330
20B
100
AcDbEntity
  8
7_ALL_FEATURES
  6
Continuous
 62
     7
100
AcDbLine
 10
224.222084
 20
132.697168
 30
0.0
 11
224.222084
 21
132.498646
 31
0.0
  0
LINE
  5
3B5
330
20B
100
AcDbEntity
  8
7_ALL_FEATURES
  6
Continuous
 62
     7
100
AcDbLine
 10
226.398285
 20
131.5956
 30
0.0
 11
226.398285
 21
131.603831
 31
0.0
  0
LINE
  5
3B6
330
20B
100
AcDbEntity
  8
7_ALL_FEATURES
  6
Continuous
 62
     7
100
AcDbLine
 10
224.222084
 20
131.6043
 30
0.0
 11
224.222084
 21
131.5956
 31
0.0
  0
LINE
  5
3B7
330
20B
100
AcDbEntity
  8
7_ALL_FEATURES
  6
Continuous
 62
     7
100
AcDbLine
 10
226.398285
 20
130.322587
 30
0.0
 11
226.398285
 21
130.805738
 31
0.0
  0
LINE
  5
3B8
330
20B
100
AcDbEntity
  8
7_ALL_FEATURES
  6
Continuous
 62
     7
100
AcDbLine
 10
224.222084
 20
130.805738
 30
0.0
 11
224.222084
 21
130.29127
 31
0.0
  0
LINE
  5
3B9
330
20B
100
AcDbEntity
  8
7_ALL_FEATURES
  6
Continuous
 62
     7
100
AcDbLine
 10
225.298285
 20
128.579761
 30
0.0
 11
224.701121
 21
128.579761
 31
0.0
  0
LINE
  5
3BA
330
20B
100
AcDbEntity
  8
7_ALL_FEATURES
  6
Continuous
 62
     7
100
AcDbLine
 10
224.222084
 20
131.5956
 30
0.0
 11
224.222084
 21
130.805738
 31
0.0
  0
LINE
  5
3BB
330
20B
100
AcDbEntity
  8
7_ALL_FEATURES
  6
Continuous
 62
     7
100
AcDbLine
 10
226.398285
 20
130.805738
 30
0.0
 11
226.398285
 21
131.5956
 31
0.0
  0
LINE
  5
3BC
330
20B
100
AcDbEntity
  8
7_ALL_FEATURES
  6
Continuous
 62
     7
100
AcDbLine
 10
226.398285
 20
133.013454
 30
0.0
 11
226.398285
 21
133.061387
 31
0.0
  0
LINE
  5
3BD
330
20B
100
AcDbEntity
  8
7_ALL_FEATURES
  6
Continuous
 62
     7
100
AcDbLine
 10
226.398285
 20
132.916176
 30
0.0
 11
226.398285
 21
133.013454
 31
0.0
  0
LINE
  5
3BE
330
20B
100
AcDbEntity
  8
7_ALL_FEATURES
  6
Continuous
 62
     7
100
AcDbLine
 10
226.398285
 20
134.392097
 30
0.0
 11
226.398285
 21
134.44003
 31
0.0
  0
LINE
  5
3BF
330
20B
100
AcDbEntity
  8
7_ALL_FEATURES
  6
Continuous
 62
     7
100
AcDbLine
 10
226.398285
 20
134.294819
 30
0.0
 11
226.398285
 21
134.392097
 31
0.0
  0
LINE
  5
3C0
330
20B
100
AcDbEntity
  8
7_ALL_FEATURES
  6
Continuous
 62
     7
100
AcDbLine
 10
224.02711
 20
133.08203
 30
0.0
 11
224.222084
 21
133.082031
 31
0.0
  0
LINE
  5
3C1
330
20B
100
AcDbEntity
  8
7_ALL_FEATURES
  6
Continuous
 62
     7
100
AcDbLine
 10
224.222084
 20
133.082031
 30
0.0
 11
225.298285
 21
133.08203
 31
0.0
  0
LINE
  5
3C2
330
20B
100
AcDbEntity
  8
7_ALL_FEATURES
  6
Continuous
 62
     7
100
AcDbLine
 10
226.486469
 20
133.144371
 30
0.0
 11
225.298285
 21
133.144371
 31
0.0
  0
LINE
  5
3C3
330
20B
100
AcDbEntity
  8
7_ALL_FEATURES
  6
Continuous
 62
     7
100
AcDbLine
 10
224.1101
 20
133.703673
 30
0.0
 11
225.298285
 21
133.703673
 31
0.0
  0
LINE
  5
3C4
330
20B
100
AcDbEntity
  8
7_ALL_FEATURES
  6
Continuous
 62
     7
100
AcDbLine
 10
226.486469
 20
131.613552
 30
0.0
 11
226.398285
 21
131.613552
 31
0.0
  0
LINE
  5
3C5
330
20B
100
AcDbEntity
  8
7_ALL_FEATURES
  6
Continuous
 62
     7
100
AcDbLine
 10
226.398285
 20
131.613552
 30
0.0
 11
225.298285
 21
131.613552
 31
0.0
  0
LINE
  5
3C6
330
20B
100
AcDbEntity
  8
7_ALL_FEATURES
  6
Continuous
 62
     7
100
AcDbLine
 10
226.553853
 20
133.797233
 30
0.0
 11
225.298285
 21
133.797234
 31
0.0
  0
LINE
  5
3C7
330
20B
100
AcDbEntity
  8
7_ALL_FEATURES
  6
Continuous
 62
     7
100
AcDbLine
 10
224.1101
 20
132.32503
 30
0.0
 11
225.298285
 21
132.32503
 31
0.0
  0
LINE
  5
3C8
330
20B
100
AcDbEntity
  8
7_ALL_FEATURES
  6
Continuous
 62
     7
100
AcDbLine
 10
227.480896
 20
134.075811
 30
0.0
 11
227.197123
 21
134.075811
 31
0.0
  0
LINE
  5
3C9
330
20B
100
AcDbEntity
  8
7_ALL_FEATURES
  6
Continuous
 62
     9
100
AcDbLine
 10
223.048285
 20
134.168632
 30
0.0
 11
223.322357
 21
134.168632
 31
0.0
  0
LINE
  5
3CA
330
20B
100
AcDbEntity
  8
7_ALL_FEATURES
  6
Continuous
 62
     7
100
AcDbLine
 10
226.553854
 20
132.41859
 30
0.0
 11
225.298285
 21
132.418591
 31
0.0
  0
LINE
  5
3CB
330
20B
100
AcDbEntity
  8
7_ALL_FEATURES
  6
Continuous
 62
     9
100
AcDbLine
 10
223.048285
 20
134.294819
 30
0.0
 11
223.322357
 21
134.294819
 31
0.0
  0
LINE
  5
3CC
330
20B
100
AcDbEntity
  8
7_ALL_FEATURES
  6
Continuous
 62
     7
100
AcDbLine
 10
223.137746
 20
134.392097
 30
0.0
 11
223.42488
 21
134.392099
 31
0.0
  0
LINE
  5
3CD
330
20B
100
AcDbEntity
  8
7_ALL_FEATURES
  6
Continuous
 62
     7
100
AcDbLine
 10
224.02711
 20
134.460673
 30
0.0
 11
224.222084
 21
134.460674
 31
0.0
  0
LINE
  5
3CE
330
20B
100
AcDbEntity
  8
7_ALL_FEATURES
  6
Continuous
 62
     7
100
AcDbLine
 10
224.222084
 20
134.460674
 30
0.0
 11
225.298285
 21
134.460673
 31
0.0
  0
LINE
  5
3CF
330
20B
100
AcDbEntity
  8
7_ALL_FEATURES
  6
Continuous
 62
     9
100
AcDbLine
 10
224.222071
 20
135.547275
 30
0.0
 11
225.298285
 21
135.547275
 31
0.0
  0
LINE
  5
3D0
330
20B
100
AcDbEntity
  8
7_ALL_FEATURES
  6
Continuous
 62
     7
100
AcDbLine
 10
223.322356
 20
135.547275
 30
0.0
 11
223.322356
 21
135.579761
 31
0.0
  0
SPLINE
  5
3D1
330
20B
100
AcDbEntity
  8
7_ALL_FEATURES
  6
Continuous
 62
     7
100
AcDbSpline
 70
     0
 71
     3
 72
    11
 73
     7
 74
     0
 42
0.000000001
 43
0.0000001
 40
0.0
 40
0.0
 40
0.0
 40
0.0
 40
0.2501326631
 40
0.5001622705
 40
0.7500498031
 40
1.0
 40
1.0
 40
1.0
 40
1.0
 10
223.3994469963
 20
135.4544543329
 30
0.0
 10
223.3890977831
 20
135.4573850128
 30
0.0
 10
223.3690519672
 20
135.4659954125
 30
0.0
 10
223.3438519654
 20
135.4868983531
 30
0.0
 10
223.3265290412
 20
135.5148294469
 30
0.0
 10
223.32235641
 20
135.5365270634
 30
0.0
 10
223.32235641
 20
135.5472753825
 30
0.0
  0
LINE
  5
3D2
330
20B
100
AcDbEntity
  8
7_ALL_FEATURES
  6
Continuous
 62
     7
100
AcDbLine
 10
226.486469
 20
134.523014
 30
0.0
 11
225.298285
 21
134.523014
 31
0.0
  0
SPLINE
  5
3D3
330
20B
100
AcDbEntity
  8
7_ALL_FEATURES
  6
Continuous
 62
     7
100
AcDbSpline
 70
     0
 71
     3
 72
    11
 73
     7
 74
     0
 42
0.000000001
 43
0.0000001
 40
0.0
 40
0.0
 40
0.0
 40
0.0
 40
0.2499631182
 40
0.4998457813
 40
0.7498671337
 40
1.0
 40
1.0
 40
1.0
 40
1.0
 10
227.2742131347
 20
135.5472753825
 30
0.0
 10
227.2742131347
 20
135.5365265119
 30
0.0
 10
227.2700400334
 20
135.5148285733
 30
0.0
 10
227.2527169032
 20
135.4868977093
 30
0.0
 10
227.2275172419
 20
135.4659952861
 30
0.0
 10
227.2074717659
 20
135.4573850141
 30
0.0
 10
227.1971225484
 20
135.4544543329
 30
0.0
  0
LINE
  5
3D4
330
20B
100
AcDbEntity
  8
7_ALL_FEATURES
  6
Continuous
 62
     9
100
AcDbLine
 10
227.274213
 20
135.547275
 30
0.0
 11
227.548285
 21
135.547275
 31
0.0
  0
LINE
  5
3D5
330
20B
100
AcDbEntity
  8
7_ALL_FEATURES
  6
Continuous
 62
     7
100
AcDbLine
 10
227.274213
 20
135.579761
 30
0.0
 11
227.274213
 21
135.547275
 31
0.0
  0
LINE
  5
3D6
330
20B
100
AcDbEntity
  8
7_ALL_FEATURES
  6
Continuous
 62
     9
100
AcDbLine
 10
225.298285
 20
135.547275
 30
0.0
 11
226.398297
 21
135.547275
 31
0.0
  0
LINE
  5
3D7
330
20B
100
AcDbEntity
  8
7_ALL_FEATURES
  6
Continuous
 62
     7
100
AcDbLine
 10
226.398282
 20
135.454413
 30
0.0
 11
225.298285
 21
135.454454
 31
0.0
  0
SPLINE
  5
3D8
330
20B
100
AcDbEntity
  8
7_ALL_FEATURES
  6
Continuous
 62
     7
100
AcDbSpline
 70
     0
 71
     3
 72
     9
 73
     5
 74
     0
 42
0.000000001
 43
0.0000001
 40
0.0
 40
0.0
 40
0.0
 40
0.0
 40
0.5000035806
 40
1.0
 40
1.0
 40
1.0
 40
1.0
 10
227.1971225484
 20
135.4544543329
 30
0.0
 10
227.0645808197
 20
135.4198036934
 30
0.0
 10
226.7990783352
 20
135.3521051103
 30
0.0
 10
226.5322242463
 20
135.2897862271
 30
0.0
 10
226.3982847723
 20
135.2610172098
 30
0.0
  0
LINE
  5
3D9
330
20B
100
AcDbEntity
  8
7_ALL_FEATURES
  6
Continuous
 62
     7
100
AcDbLine
 10
224.1101
 20
135.082316
 30
0.0
 11
225.298285
 21
135.082316
 31
0.0
  0
LINE
  5
3DA
330
20B
100
AcDbEntity
  8
7_ALL_FEATURES
  6
Continuous
 62
     7
100
AcDbLine
 10
223.399468
 20
135.454448
 30
0.0
 11
223.115671
 21
135.454455
 31
0.0
  0
SPLINE
  5
3DB
330
20B
100
AcDbEntity
  8
7_ALL_FEATURES
  6
Continuous
 62
     7
100
AcDbSpline
 70
     0
 71
     3
 72
     9
 73
     5
 74
     0
 42
0.000000001
 43
0.0000001
 40
0.0
 40
0.0
 40
0.0
 40
0.0
 40
0.4999959308
 40
1.0
 40
1.0
 40
1.0
 40
1.0
 10
224.2220844625
 20
135.2559324326
 30
0.0
 10
224.0841149272
 20
135.2852491654
 30
0.0
 10
223.8092869745
 20
135.3491200762
 30
0.0
 10
223.5359127382
 20
135.418777836
 30
0.0
 10
223.3994469963
 20
135.4544543329
 30
0.0
  0
LINE
  5
3DC
330
20B
100
AcDbEntity
  8
7_ALL_FEATURES
  6
Continuous
 62
     7
100
AcDbLine
 10
225.298285
 20
135.454454
 30
0.0
 11
224.222081
 21
135.454449
 31
0.0
  0
LINE
  5
3DD
330
20B
100
AcDbEntity
  8
7_ALL_FEATURES
  6
Continuous
 62
     7
100
AcDbLine
 10
225.298285
 20
135.175877
 30
0.0
 11
224.042716
 21
135.175876
 31
0.0
  0
LINE
  5
3DE
330
20B
100
AcDbEntity
  8
7_ALL_FEATURES
  6
Continuous
 62
     7
100
AcDbLine
 10
225.298285
 20
135.082316
 30
0.0
 11
226.486469
 21
135.082316
 31
0.0
  0
LINE
  5
3DF
330
20B
100
AcDbEntity
  8
7_ALL_FEATURES
  6
Continuous
 62
     7
100
AcDbLine
 10
225.298285
 20
134.460673
 30
0.0
 11
226.398285
 21
134.460674
 31
0.0
  0
LINE
  5
3E0
330
20B
100
AcDbEntity
  8
7_ALL_FEATURES
  6
Continuous
 62
     7
100
AcDbLine
 10
226.398285
 20
134.460674
 30
0.0
 11
226.402986
 21
134.460674
 31
0.0
  0
LINE
  5
3E1
330
20B
100
AcDbEntity
  8
7_ALL_FEATURES
  6
Continuous
 62
     7
100
AcDbLine
 10
226.402986
 20
134.460674
 30
0.0
 11
226.56946
 21
134.460673
 31
0.0
  0
LINE
  5
3E2
330
20B
100
AcDbEntity
  8
7_ALL_FEATURES
  6
Continuous
 62
     7
100
AcDbLine
 10
227.480896
 20
132.697168
 30
0.0
 11
227.197102
 21
132.697161
 31
0.0
  0
LINE
  5
3E3
330
20B
100
AcDbEntity
  8
7_ALL_FEATURES
  6
Continuous
 62
     7
100
AcDbLine
 10
225.298285
 20
134.523014
 30
0.0
 11
224.1101
 21
134.523014
 31
0.0
  0
LINE
  5
3E4
330
20B
100
AcDbEntity
  8
7_ALL_FEATURES
  6
Continuous
 62
     7
100
AcDbLine
 10
224.222082
 20
134.392099
 30
0.0
 11
225.298285
 21
134.392097
 31
0.0
  0
ARC
  5
3E5
330
20B
100
AcDbEntity
  8
7_ALL_FEATURES
  6
Continuous
 62
     7
100
AcDbCircle
 10
227.829156
 20
69.558823
 30
0.0
 40
64.9826998704
100
AcDbArc
 50
93.18202
 51
93.886283
  0
LINE
  5
3E6
330
20B
100
AcDbEntity
  8
7_ALL_FEATURES
  6
Continuous
 62
     7
100
AcDbLine
 10
226.553854
 20
135.175876
 30
0.0
 11
225.298285
 21
135.175877
 31
0.0
  0
LINE
  5
3E7
330
20B
100
AcDbEntity
  8
7_ALL_FEATURES
  6
Continuous
 62
     9
100
AcDbLine
 10
224.222071
 20
134.294819
 30
0.0
 11
225.298285
 21
134.294819
 31
0.0
  0
LINE
  5
3E8
330
20B
100
AcDbEntity
  8
7_ALL_FEATURES
  6
Continuous
 62
     7
100
AcDbLine
 10
227.09824
 20
130.805737
 30
0.0
 11
226.741065
 21
130.80573
 31
0.0
  0
SPLINE
  5
3E9
330
20B
100
AcDbEntity
  8
7_ALL_FEATURES
  6
Continuous
 62
     7
100
AcDbSpline
 70
     0
 71
     3
 72
    11
 73
     7
 74
     0
 42
0.000000001
 43
0.0000001
 40
0.0
 40
0.0
 40
0.0
 40
0.0
 40
0.2496262502
 40
0.4994823591
 40
0.7497178152
 40
1.0
 40
1.0
 40
1.0
 40
1.0
 10
223.32235641
 20
134.2948187716
 30
0.0
 10
223.3223564123
 20
134.3076745746
 30
0.0
 10
223.3284112174
 20
134.3337308048
 30
0.0
 10
223.3526850424
 20
134.3650352531
 30
0.0
 10
223.3863906892
 20
134.3854056857
 30
0.0
 10
223.4120043631
 20
134.3911648972
 30
0.0
 10
223.4248601757
 20
134.3920973409
 30
0.0
  0
LINE
  5
3EA
330
20B
100
AcDbEntity
  8
7_ALL_FEATURES
  6
Continuous
 62
     9
100
AcDbLine
 10
224.222071
 20
134.168632
 30
0.0
 11
225.298285
 21
134.168632
 31
0.0
  0
LINE
  5
3EB
330
20B
100
AcDbEntity
  8
7_ALL_FEATURES
  6
Continuous
 62
     7
100
AcDbLine
 10
223.322356
 20
134.168632
 30
0.0
 11
223.322356
 21
134.294819
 31
0.0
  0
LINE
  5
3EC
330
20B
100
AcDbEntity
  8
7_ALL_FEATURES
  6
Continuous
 62
     7
100
AcDbLine
 10
227.480896
 20
135.454454
 30
0.0
 11
227.19714
 21
135.454461
 31
0.0
  0
SPLINE
  5
3ED
330
20B
100
AcDbEntity
  8
7_ALL_FEATURES
  6
Continuous
 62
     7
100
AcDbSpline
 70
     0
 71
     3
 72
    11
 73
     7
 74
     0
 42
0.000000001
 43
0.0000001
 40
0.0
 40
0.0
 40
0.0
 40
0.0
 40
0.2501326631
 40
0.5001622705
 40
0.7500498031
 40
1.0
 40
1.0
 40
1.0
 40
1.0
 10
223.3994469963
 20
134.0758112665
 30
0.0
 10
223.3890977831
 20
134.0787419464
 30
0.0
 10
223.3690519672
 20
134.0873523461
 30
0.0
 10
223.3438519654
 20
134.1082552866
 30
0.0
 10
223.3265290412
 20
134.1361863805
 30
0.0
 10
223.32235641
 20
134.1578839969
 30
0.0
 10
223.32235641
 20
134.1686323161
 30
0.0
  0
SPLINE
  5
3EE
330
20B
100
AcDbEntity
  8
7_ALL_FEATURES
  6
Continuous
 62
     7
100
AcDbSpline
 70
     0
 71
     3
 72
    11
 73
     7
 74
     0
 42
0.000000001
 43
0.0000001
 40
0.0
 40
0.0
 40
0.0
 40
0.0
 40
0.2499631182
 40
0.4998457813
 40
0.7498671337
 40
1.0
 40
1.0
 40
1.0
 40
1.0
 10
227.2742131347
 20
134.1686323161
 30
0.0
 10
227.2742131347
 20
134.1578834454
 30
0.0
 10
227.2700400334
 20
134.1361855068
 30
0.0
 10
227.2527169032
 20
134.1082546429
 30
0.0
 10
227.2275172419
 20
134.0873522196
 30
0.0
 10
227.2074717659
 20
134.0787419476
 30
0.0
 10
227.1971225484
 20
134.0758112665
 30
0.0
  0
LINE
  5
3EF
330
20B
100
AcDbEntity
  8
7_ALL_FEATURES
  6
Continuous
 62
     9
100
AcDbLine
 10
223.048285
 20
132.789989
 30
0.0
 11
223.322357
 21
132.789989
 31
0.0
  0
LINE
  5
3F0
330
20B
100
AcDbEntity
  8
7_ALL_FEATURES
  6
Continuous
 62
     9
100
AcDbLine
 10
227.274213
 20
134.168632
 30
0.0
 11
227.548285
 21
134.168632
 31
0.0
  0
LINE
  5
3F1
330
20B
100
AcDbEntity
  8
7_ALL_FEATURES
  6
Continuous
 62
     7
100
AcDbLine
 10
227.274213
 20
134.294819
 30
0.0
 11
227.274213
 21
134.168632
 31
0.0
  0
LINE
  5
3F2
330
20B
100
AcDbEntity
  8
7_ALL_FEATURES
  6
Continuous
 62
     9
100
AcDbLine
 10
225.298285
 20
134.168632
 30
0.0
 11
226.398297
 21
134.168632
 31
0.0
  0
LINE
  5
3F3
330
20B
100
AcDbEntity
  8
7_ALL_FEATURES
  6
Continuous
 62
     9
100
AcDbLine
 10
223.048285
 20
135.547275
 30
0.0
 11
223.322357
 21
135.547275
 31
0.0
  0
LINE
  5
3F4
330
20B
100
AcDbEntity
  8
7_ALL_FEATURES
  6
Continuous
 62
     7
100
AcDbLine
 10
226.398282
 20
134.07581
 30
0.0
 11
225.298285
 21
134.075811
 31
0.0
  0
SPLINE
  5
3F5
330
20B
100
AcDbEntity
  8
7_ALL_FEATURES
  6
Continuous
 62
     7
100
AcDbSpline
 70
     0
 71
     3
 72
     9
 73
     5
 74
     0
 42
0.000000001
 43
0.0000001
 40
0.0
 40
0.0
 40
0.0
 40
0.0
 40
0.5000035828
 40
1.0
 40
1.0
 40
1.0
 40
1.0
 10
227.1971225484
 20
134.0758112665
 30
0.0
 10
227.0645808228
 20
134.0411606117
 30
0.0
 10
226.7990784618
 20
133.9734614668
 30
0.0
 10
226.5322240534
 20
133.911144057
 30
0.0
 10
226.3982847723
 20
133.8823741433
 30
0.0
  0
LINE
  5
3F6
330
20B
100
AcDbEntity
  8
7_ALL_FEATURES
  6
Continuous
 62
     7
100
AcDbLine
 10
223.399468
 20
134.075804
 30
0.0
 11
223.115671
 21
134.075812
 31
0.0
  0
SPLINE
  5
3F7
330
20B
100
AcDbEntity
  8
7_ALL_FEATURES
  6
Continuous
 62
     7
100
AcDbSpline
 70
     0
 71
     3
 72
     9
 73
     5
 74
     0
 42
0.000000001
 43
0.0000001
 40
0.0
 40
0.0
 40
0.0
 40
0.0
 40
0.4999959308
 40
1.0
 40
1.0
 40
1.0
 40
1.0
 10
224.2220844625
 20
133.8772893661
 30
0.0
 10
224.0841149272
 20
133.906606099
 30
0.0
 10
223.8092869745
 20
133.9704770098
 30
0.0
 10
223.5359127382
 20
134.0401347696
 30
0.0
 10
223.3994469963
 20
134.0758112665
 30
0.0
  0
LINE
  5
3F8
330
20B
100
AcDbEntity
  8
7_ALL_FEATURES
  6
Continuous
 62
     9
100
AcDbLine
 10
223.048285
 20
132.916176
 30
0.0
 11
223.322357
 21
132.916176
 31
0.0
  0
LINE
  5
3F9
330
20B
100
AcDbEntity
  8
7_ALL_FEATURES
  6
Continuous
 62
     7
100
AcDbLine
 10
225.298285
 20
134.075811
 30
0.0
 11
224.222081
 21
134.075806
 31
0.0
  0
LINE
  5
3FA
330
20B
100
AcDbEntity
  8
7_ALL_FEATURES
  6
Continuous
 62
     7
100
AcDbLine
 10
225.298285
 20
133.797234
 30
0.0
 11
224.042716
 21
133.797233
 31
0.0
  0
LINE
  5
3FB
330
20B
100
AcDbEntity
  8
7_ALL_FEATURES
  6
Continuous
 62
     7
100
AcDbLine
 10
225.298285
 20
133.703673
 30
0.0
 11
226.486469
 21
133.703673
 31
0.0
  0
LINE
  5
3FC
330
20B
100
AcDbEntity
  8
7_ALL_FEATURES
  6
Continuous
 62
     7
100
AcDbLine
 10
225.298285
 20
133.08203
 30
0.0
 11
226.398285
 21
133.082031
 31
0.0
  0
LINE
  5
3FD
330
20B
100
AcDbEntity
  8
7_ALL_FEATURES
  6
Continuous
 62
     7
100
AcDbLine
 10
226.398285
 20
133.082031
 30
0.0
 11
226.402986
 21
133.082031
 31
0.0
  0
LINE
  5
3FE
330
20B
100
AcDbEntity
  8
7_ALL_FEATURES
  6
Continuous
 62
     7
100
AcDbLine
 10
226.402986
 20
133.082031
 30
0.0
 11
226.56946
 21
133.08203
 31
0.0
  0
LINE
  5
3FF
330
20B
100
AcDbEntity
  8
7_ALL_FEATURES
  6
Continuous
 62
     7
100
AcDbLine
 10
225.298285
 20
133.144371
 30
0.0
 11
224.1101
 21
133.144371
 31
0.0
  0
LINE
  5
400
330
20B
100
AcDbEntity
  8
7_ALL_FEATURES
  6
Continuous
 62
     7
100
AcDbLine
 10
224.222082
 20
133.013456
 30
0.0
 11
225.298285
 21
133.013454
 31
0.0
  0
ARC
  5
401
330
20B
100
AcDbEntity
  8
7_ALL_FEATURES
  6
Continuous
 62
     7
100
AcDbCircle
 10
227.829156
 20
68.18018
 30
0.0
 40
64.9826998713
100
AcDbArc
 50
93.18202
 51
93.886283
  0
LINE
  5
402
330
20B
100
AcDbEntity
  8
7_ALL_FEATURES
  6
Continuous
 62
     9
100
AcDbLine
 10
224.222071
 20
132.916176
 30
0.0
 11
225.298285
 21
132.916176
 31
0.0
  0
SPLINE
  5
403
330
20B
100
AcDbEntity
  8
7_ALL_FEATURES
  6
Continuous
 62
     7
100
AcDbSpline
 70
     0
 71
     3
 72
    11
 73
     7
 74
     0
 42
0.000000001
 43
0.0000001
 40
0.0
 40
0.0
 40
0.0
 40
0.0
 40
0.2496262502
 40
0.4994823591
 40
0.7497178152
 40
1.0
 40
1.0
 40
1.0
 40
1.0
 10
223.32235641
 20
132.9161757052
 30
0.0
 10
223.3223564123
 20
132.9290315081
 30
0.0
 10
223.3284112174
 20
132.9550877384
 30
0.0
 10
223.3526850424
 20
132.9863921866
 30
0.0
 10
223.3863906892
 20
133.0067626192
 30
0.0
 10
223.4120043631
 20
133.0125218307
 30
0.0
 10
223.4248601757
 20
133.0134542744
 30
0.0
  0
LINE
  5
404
330
20B
100
AcDbEntity
  8
7_ALL_FEATURES
  6
Continuous
 62
     9
100
AcDbLine
 10
224.222071
 20
132.789989
 30
0.0
 11
225.298285
 21
132.789989
 31
0.0
  0
LINE
  5
405
330
20B
100
AcDbEntity
  8
7_ALL_FEATURES
  6
Continuous
 62
     7
100
AcDbLine
 10
223.322356
 20
132.789989
 30
0.0
 11
223.322356
 21
132.916176
 31
0.0
  0
LINE
  5
406
330
20B
100
AcDbEntity
  8
7_ALL_FEATURES
  6
Continuous
 62
     7
100
AcDbLine
 10
223.137746
 20
133.013454
 30
0.0
 11
223.42488
 21
133.013456
 31
0.0
  0
SPLINE
  5
407
330
20B
100
AcDbEntity
  8
7_ALL_FEATURES
  6
Continuous
 62
     7
100
AcDbSpline
 70
     0
 71
     3
 72
    11
 73
     7
 74
     0
 42
0.000000001
 43
0.0000001
 40
0.0
 40
0.0
 40
0.0
 40
0.0
 40
0.2501326631
 40
0.5001622705
 40
0.7500498031
 40
1.0
 40
1.0
 40
1.0
 40
1.0
 10
223.3994469963
 20
132.6971682
 30
0.0
 10
223.3890977831
 20
132.7000988799
 30
0.0
 10
223.3690519672
 20
132.7087092796
 30
0.0
 10
223.3438519654
 20
132.7296122202
 30
0.0
 10
223.3265290412
 20
132.757543314
 30
0.0
 10
223.32235641
 20
132.7792409305
 30
0.0
 10
223.32235641
 20
132.7899892496
 30
0.0
  0
SPLINE
  5
408
330
20B
100
AcDbEntity
  8
7_ALL_FEATURES
  6
Continuous
 62
     7
100
AcDbSpline
 70
     0
 71
     3
 72
    11
 73
     7
 74
     0
 42
0.000000001
 43
0.0000001
 40
0.0
 40
0.0
 40
0.0
 40
0.0
 40
0.2499617957
 40
0.4998444902
 40
0.7498667189
 40
1.0
 40
1.0
 40
1.0
 40
1.0
 10
227.2742131347
 20
132.7899892496
 30
0.0
 10
227.2742131347
 20
132.7792404354
 30
0.0
 10
227.270040087
 20
132.7575425496
 30
0.0
 10
227.2527169965
 20
132.7296116756
 30
0.0
 10
227.2275173111
 20
132.7087091867
 30
0.0
 10
227.2074717835
 20
132.7000988861
 30
0.0
 10
227.1971225484
 20
132.6971682
 30
0.0
  0
LINE
  5
409
330
20B
100
AcDbEntity
  8
7_ALL_FEATURES
  6
Continuous
 62
     9
100
AcDbLine
 10
227.274213
 20
132.789989
 30
0.0
 11
227.548285
 21
132.789989
 31
0.0
  0
LINE
  5
40A
330
20B
100
AcDbEntity
  8
7_ALL_FEATURES
  6
Continuous
 62
     7
100
AcDbLine
 10
227.274213
 20
132.916176
 30
0.0
 11
227.274213
 21
132.789989
 31
0.0
  0
LINE
  5
40B
330
20B
100
AcDbEntity
  8
7_ALL_FEATURES
  6
Continuous
 62
     9
100
AcDbLine
 10
225.298285
 20
132.789989
 30
0.0
 11
226.398297
 21
132.789989
 31
0.0
  0
LINE
  5
40C
330
20B
100
AcDbEntity
  8
7_ALL_FEATURES
  6
Continuous
 62
     7
100
AcDbLine
 10
226.398288
 20
132.697164
 30
0.0
 11
225.298285
 21
132.697168
 31
0.0
  0
SPLINE
  5
40D
330
20B
100
AcDbEntity
  8
7_ALL_FEATURES
  6
Continuous
 62
     7
100
AcDbSpline
 70
     0
 71
     3
 72
     9
 73
     5
 74
     0
 42
0.000000001
 43
0.0000001
 40
0.0
 40
0.0
 40
0.0
 40
0.0
 40
0.5000035827
 40
1.0
 40
1.0
 40
1.0
 40
1.0
 10
227.1971225484
 20
132.6971682
 30
0.0
 10
227.0645808177
 20
132.6625175648
 30
0.0
 10
226.7990784577
 20
132.5948184215
 30
0.0
 10
226.5322240647
 20
132.5325009382
 30
0.0
 10
226.3982847723
 20
132.5037310769
 30
0.0
  0
LINE
  5
40E
330
20B
100
AcDbEntity
  8
7_ALL_FEATURES
  6
Continuous
 62
     7
100
AcDbLine
 10
223.399468
 20
132.697161
 30
0.0
 11
223.115671
 21
132.697169
 31
0.0
  0
SPLINE
  5
40F
330
20B
100
AcDbEntity
  8
7_ALL_FEATURES
  6
Continuous
 62
     7
100
AcDbSpline
 70
     0
 71
     3
 72
     9
 73
     5
 74
     0
 42
0.000000001
 43
0.0000001
 40
0.0
 40
0.0
 40
0.0
 40
0.0
 40
0.4999959308
 40
1.0
 40
1.0
 40
1.0
 40
1.0
 10
224.2220844625
 20
132.4986462997
 30
0.0
 10
224.0841149272
 20
132.5279630325
 30
0.0
 10
223.8092869745
 20
132.5918339434
 30
0.0
 10
223.5359127382
 20
132.6614917031
 30
0.0
 10
223.3994469963
 20
132.6971682
 30
0.0
  0
LINE
  5
410
330
20B
100
AcDbEntity
  8
7_ALL_FEATURES
  6
Continuous
 62
     7
100
AcDbLine
 10
225.298285
 20
132.697168
 30
0.0
 11
224.222081
 21
132.697163
 31
0.0
  0
LINE
  5
411
330
20B
100
AcDbEntity
  8
7_ALL_FEATURES
  6
Continuous
 62
     7
100
AcDbLine
 10
225.298285
 20
132.418591
 30
0.0
 11
224.042716
 21
132.41859
 31
0.0
  0
LINE
  5
412
330
20B
100
AcDbEntity
  8
7_ALL_FEATURES
  6
Continuous
 62
     7
100
AcDbLine
 10
225.298285
 20
132.32503
 30
0.0
 11
226.486469
 21
132.32503
 31
0.0
  0
LINE
  5
413
330
20B
100
AcDbEntity
  8
7_ALL_FEATURES
  6
Continuous
 62
     7
100
AcDbLine
 10
226.785604
 20
131.595601
 30
0.0
 11
227.134145
 21
131.5956
 31
0.0
  0
ARC
  5
414
330
20B
100
AcDbEntity
  8
7_ALL_FEATURES
  6
Continuous
 62
     7
100
AcDbCircle
 10
223.476428
 20
-15.015569
 30
0.0
 40
146.6485110846
100
AcDbArc
 50
88.706984
 51
88.858351
  0
LINE
  5
415
330
20B
100
AcDbEntity
  8
7_ALL_FEATURES
  6
Continuous
 62
     7
100
AcDbLine
 10
225.298285
 20
131.5956
 30
0.0
 11
226.398278
 21
131.595601
 31
0.0
  0
LINE
  5
416
330
20B
100
AcDbEntity
  8
7_ALL_FEATURES
  6
Continuous
 62
     7
100
AcDbLine
 10
225.298285
 20
131.613552
 30
0.0
 11
224.222084
 21
131.613552
 31
0.0
  0
LINE
  5
417
330
20B
100
AcDbEntity
  8
7_ALL_FEATURES
  6
Continuous
 62
     7
100
AcDbLine
 10
224.222084
 20
131.613552
 30
0.0
 11
224.1101
 21
131.613552
 31
0.0
  0
LINE
  5
418
330
20B
100
AcDbEntity
  8
7_ALL_FEATURES
  6
Continuous
 62
     7
100
AcDbLine
 10
224.222094
 20
131.595601
 30
0.0
 11
225.298285
 21
131.5956
 31
0.0
  0
ARC
  5
419
330
20B
100
AcDbEntity
  8
7_ALL_FEATURES
  6
Continuous
 62
     7
100
AcDbCircle
 10
227.063753
 20
-12.407334
 30
0.0
 40
144.0396677951
100
AcDbArc
 50
91.130426
 51
91.294003
  0
LINE
  5
41A
330
20B
100
AcDbEntity
  8
7_ALL_FEATURES
  6
Continuous
 62
     7
100
AcDbLine
 10
226.398283
 20
130.805727
 30
0.0
 11
225.298285
 21
130.805738
 31
0.0
  0
SPLINE
  5
41B
330
20B
100
AcDbEntity
  8
7_ALL_FEATURES
  6
Continuous
 62
     7
100
AcDbSpline
 70
     0
 71
     3
 72
     8
 73
     4
 74
     0
 42
0.000000001
 43
0.0000001
 40
0.0
 40
0.0
 40
0.0
 40
0.0
 40
1.0
 40
1.0
 40
1.0
 40
1.0
 10
226.7410711099
 20
130.805737662
 30
0.0
 10
226.6306970657
 20
130.6419981963
 30
0.0
 10
226.5173597981
 20
130.4801118172
 30
0.0
 10
226.3982847723
 20
130.322586643
 30
0.0
  0
LINE
  5
41C
330
20B
100
AcDbEntity
  8
7_ALL_FEATURES
  6
Continuous
 62
     7
100
AcDbLine
 10
223.855504
 20
130.80573
 30
0.0
 11
223.498329
 21
130.805739
 31
0.0
  0
SPLINE
  5
41D
330
20B
100
AcDbEntity
  8
7_ALL_FEATURES
  6
Continuous
 62
     7
100
AcDbSpline
 70
     0
 71
     3
 72
     9
 73
     5
 74
     0
 42
0.000000001
 43
0.0000001
 40
0.0
 40
0.0
 40
0.0
 40
0.0
 40
0.4999956567
 40
1.0
 40
1.0
 40
1.0
 40
1.0
 10
224.2220844625
 20
130.2912702709
 30
0.0
 10
224.1581527774
 20
130.374936084
 30
0.0
 10
224.0338150702
 20
130.5449710982
 30
0.0
 10
223.9143546651
 20
130.718424673
 30
0.0
 10
223.8554984347
 20
130.805737662
 30
0.0
  0
LINE
  5
41E
330
20B
100
AcDbEntity
  8
7_ALL_FEATURES
  6
Continuous
 62
     7
100
AcDbLine
 10
225.298285
 20
130.805738
 30
0.0
 11
224.222086
 21
130.805729
 31
0.0
  0
LINE
  5
41F
330
20B
100
AcDbEntity
  8
7_ALL_FEATURES
  6
Continuous
 62
     7
100
AcDbLine
 10
223.855498
 20
130.805738
 30
0.0
 11
223.810949
 21
131.5956
 31
0.0
  0
LINE
  5
420
330
20B
100
AcDbEntity
  8
7_ALL_FEATURES
  6
Continuous
 62
     7
100
AcDbLine
 10
226.785621
 20
131.5956
 30
0.0
 11
226.741071
 21
130.805738
 31
0.0
  0
LINE
  5
421
330
20B
100
AcDbEntity
  8
7_ALL_FEATURES
  6
Continuous
 62
     7
100
AcDbLine
 10
223.462426
 20
131.5956
 30
0.0
 11
223.810961
 21
131.595601
 31
0.0
  0
LINE
  5
422
330
20B
100
AcDbEntity
  8
7_ALL_FEATURES
  6
Continuous
 62
     7
100
AcDbLine
 10
227.171689
 20
133.013456
 30
0.0
 11
227.458825
 21
133.013454
 31
0.0
  0
ARC
  5
423
330
20B
100
AcDbEntity
  8
7_ALL_FEATURES
  6
Continuous
 62
     7
100
AcDbCircle
 10
222.688443
 20
66.936758
 30
0.0
 40
66.2286155139
100
AcDbArc
 50
86.118462
 51
86.788856
  0
LINE
  5
424
330
20B
100
AcDbEntity
  8
7_ALL_FEATURES
  6
Continuous
 62
     7
100
AcDbLine
 10
225.298285
 20
133.013454
 30
0.0
 11
226.398288
 21
133.013455
 31
0.0
  0
LINE
  5
425
330
20B
100
AcDbEntity
  8
7_ALL_FEATURES
  6
Continuous
 62
     9
100
AcDbLine
 10
227.274213
 20
132.916176
 30
0.0
 11
227.548285
 21
132.916176
 31
0.0
  0
SPLINE
  5
426
330
20B
100
AcDbEntity
  8
7_ALL_FEATURES
  6
Continuous
 62
     7
100
AcDbSpline
 70
     0
 71
     3
 72
    11
 73
     7
 74
     0
 42
0.000000001
 43
0.0000001
 40
0.0
 40
0.0
 40
0.0
 40
0.0
 40
0.2502864979
 40
0.5005248903
 40
0.7503775352
 40
1.0
 40
1.0
 40
1.0
 40
1.0
 10
227.1717093689
 20
133.0134542744
 30
0.0
 10
227.1845654023
 20
133.0125218147
 30
0.0
 10
227.2101794279
 20
133.0067623929
 30
0.0
 10
227.2438851494
 20
132.9863916528
 30
0.0
 10
227.2681584866
 20
132.955087142
 30
0.0
 10
227.2742131347
 20
132.9290313124
 30
0.0
 10
227.2742131347
 20
132.9161757052
 30
0.0
  0
LINE
  5
427
330
20B
100
AcDbEntity
  8
7_ALL_FEATURES
  6
Continuous
 62
     9
100
AcDbLine
 10
225.298285
 20
132.916176
 30
0.0
 11
226.398297
 21
132.916176
 31
0.0
  0
LINE
  5
428
330
20B
100
AcDbEntity
  8
7_ALL_FEATURES
  6
Continuous
 62
     7
100
AcDbLine
 10
227.171689
 20
134.392099
 30
0.0
 11
227.458825
 21
134.392097
 31
0.0
  0
ARC
  5
429
330
20B
100
AcDbEntity
  8
7_ALL_FEATURES
  6
Continuous
 62
     7
100
AcDbCircle
 10
222.688443
 20
68.315401
 30
0.0
 40
66.2286155149
100
AcDbArc
 50
86.118462
 51
86.788856
  0
LINE
  5
42A
330
20B
100
AcDbEntity
  8
7_ALL_FEATURES
  6
Continuous
 62
     7
100
AcDbLine
 10
225.298285
 20
134.392097
 30
0.0
 11
226.398288
 21
134.392098
 31
0.0
  0
LINE
  5
42B
330
20B
100
AcDbEntity
  8
7_ALL_FEATURES
  6
Continuous
 62
     9
100
AcDbLine
 10
227.274213
 20
134.294819
 30
0.0
 11
227.548285
 21
134.294819
 31
0.0
  0
SPLINE
  5
42C
330
20B
100
AcDbEntity
  8
7_ALL_FEATURES
  6
Continuous
 62
     7
100
AcDbSpline
 70
     0
 71
     3
 72
    11
 73
     7
 74
     0
 42
0.000000001
 43
0.0000001
 40
0.0
 40
0.0
 40
0.0
 40
0.0
 40
0.2502864979
 40
0.5005248903
 40
0.7503775352
 40
1.0
 40
1.0
 40
1.0
 40
1.0
 10
227.1717093689
 20
134.3920973409
 30
0.0
 10
227.1845654023
 20
134.3911648812
 30
0.0
 10
227.2101794279
 20
134.3854054593
 30
0.0
 10
227.2438851494
 20
134.3650347192
 30
0.0
 10
227.2681584866
 20
134.3337302084
 30
0.0
 10
227.2742131347
 20
134.3076743789
 30
0.0
 10
227.2742131347
 20
134.2948187716
 30
0.0
  0
LINE
  5
42D
330
20B
100
AcDbEntity
  8
7_ALL_FEATURES
  6
Continuous
 62
     9
100
AcDbLine
 10
225.298285
 20
134.294819
 30
0.0
 11
226.398297
 21
134.294819
 31
0.0
  0
LINE
  5
42E
330
20B
100
AcDbEntity
  8
7_ALL_FEATURES
  6
Continuous
 62
     9
100
AcDbLine
 10
236.964976
 20
143.272781
 30
0.0
 11
236.951496
 21
143.079761
 31
0.0
  0
LWPOLYLINE
  5
42F
330
20B
100
AcDbEntity
  8
7_ALL_FEATURES
  6
Continuous
 62
     9
100
AcDbPolyline
 90
       12
 70
     0
 43
0.0
 10
236.964976
 20
143.272781
 10
236.962862
 20
143.242509
 10
236.960787
 20
143.212796
 10
236.958802
 20
143.184372
 10
236.956985
 20
143.158362
 10
236.955422
 20
143.135983
 10
236.954159
 20
143.11789
 10
236.953176
 20
143.103817
 10
236.952441
 20
143.093291
 10
236.951926
 20
143.08593
 10
236.95161
 20
143.081401
 10
236.951496
 20
143.079761
  0
SPLINE
  5
430
330
20B
100
AcDbEntity
  8
7_ALL_FEATURES
  6
Continuous
 62
     9
100
AcDbSpline
 70
     0
 71
     3
 72
    16
 73
    12
 74
     0
 42
0.000000001
 43
0.0000001
 40
0.0
 40
0.0
 40
0.0
 40
0.0
 40
0.0059117303
 40
0.0206984258
 40
0.0447004472
 40
0.077822929
 40
0.1703254652
 40
0.2944635411
 40
0.4456684825
 40
0.6182638232
 40
1.0
 40
1.0
 40
1.0
 40
1.0
 10
237.1648546179
 20
143.2588211953
 30
0.0
 10
237.1648684202
 20
143.2592164431
 30
0.0
 10
237.1630989512
 20
143.2598197499
 30
0.0
 10
237.1606053784
 20
143.2604647621
 30
0.0
 10
237.1556308152
 20
143.2612780261
 30
0.0
 10
237.1458361456
 20
143.2625441119
 30
0.0
 10
237.1291013564
 20
143.2641273527
 30
0.0
 10
237.104607805
 20
143.2659867016
 30
0.0
 10
237.0746828124
 20
143.2678603875
 30
0.0
 10
237.0275560449
 20
143.2703637827
 30
0.0
 10
236.9904986938
 20
143.2718908232
 30
0.0
 10
236.9649764525
 20
143.2727809939
 30
0.0
  0
LINE
  5
431
330
20B
100
AcDbEntity
  8
7_ALL_FEATURES
  6
Continuous
 62
     9
100
AcDbLine
 10
220.913083
 20
141.786741
 30
0.0
 11
213.683487
 21
141.786741
 31
0.0
  0
LINE
  5
432
330
20B
100
AcDbEntity
  8
7_ALL_FEATURES
  6
Continuous
 62
     9
100
AcDbLine
 10
213.645074
 20
142.886741
 30
0.0
 11
213.683487
 21
141.786741
 31
0.0
  0
LINE
  5
433
330
20B
100
AcDbEntity
  8
7_ALL_FEATURES
  6
Continuous
 62
     9
100
AcDbLine
 10
220.951496
 20
142.886741
 30
0.0
 11
213.645074
 21
142.886741
 31
0.0
  0
LINE
  5
434
330
20B
100
AcDbEntity
  8
7_ALL_FEATURES
  6
Continuous
 62
     9
100
AcDbLine
 10
220.913083
 20
141.786741
 30
0.0
 11
220.951496
 21
142.886741
 31
0.0
  0
LINE
  5
435
330
20B
100
AcDbEntity
  8
7_ALL_FEATURES
  6
Continuous
 62
     9
100
AcDbLine
 10
220.964976
 20
143.272781
 30
0.0
 11
220.951496
 21
143.079761
 31
0.0
  0
LWPOLYLINE
  5
436
330
20B
100
AcDbEntity
  8
7_ALL_FEATURES
  6
Continuous
 62
     9
100
AcDbPolyline
 90
       12
 70
     0
 43
0.0
 10
220.964976
 20
143.272781
 10
220.962862
 20
143.242509
 10
220.960787
 20
143.212796
 10
220.958802
 20
143.184373
 10
220.956985
 20
143.158362
 10
220.955422
 20
143.135983
 10
220.954159
 20
143.11789
 10
220.953176
 20
143.103817
 10
220.952441
 20
143.093291
 10
220.951926
 20
143.08593
 10
220.95161
 20
143.081401
 10
220.951496
 20
143.079761
  0
LINE
  5
437
330
20B
100
AcDbEntity
  8
7_ALL_FEATURES
  6
Continuous
 62
     9
100
AcDbLine
 10
220.951496
 20
143.079761
 30
0.0
 11
220.951496
 21
142.886741
 31
0.0
  0
SPLINE
  5
438
330
20B
100
AcDbEntity
  8
7_ALL_FEATURES
  6
Continuous
 62
     9
100
AcDbSpline
 70
     0
 71
     3
 72
    16
 73
    12
 74
     0
 42
0.000000001
 43
0.0000001
 40
0.0
 40
0.0
 40
0.0
 40
0.0
 40
0.3817673069
 40
0.5544098585
 40
0.7056492586
 40
0.8297655084
 40
0.9222259994
 40
0.9553376506
 40
0.9793227815
 40
0.9940940803
 40
1.0
 40
1.0
 40
1.0
 40
1.0
 10
220.9514956316
 20
142.8867407926
 30
0.0
 10
220.9770199879
 20
142.8858505481
 30
0.0
 10
221.0140826243
 20
142.8843233261
 30
0.0
 10
221.0612169816
 20
142.8818192432
 30
0.0
 10
221.0911459844
 20
142.879945175
 30
0.0
 10
221.1156376643
 20
142.8780858489
 30
0.0
 10
221.1323672558
 20
142.8765022642
 30
0.0
 10
221.1421575906
 20
142.8752372749
 30
0.0
 10
221.1471288067
 20
142.8744240195
 30
0.0
 10
221.1496208789
 20
142.8737797626
 30
0.0
 10
221.1513875858
 20
142.8731758538
 30
0.0
 10
221.151373797
 20
142.8727809939
 30
0.0
  0
SPLINE
  5
439
330
20B
100
AcDbEntity
  8
7_ALL_FEATURES
  6
Continuous
 62
     9
100
AcDbSpline
 70
     0
 71
     3
 72
    16
 73
    12
 74
     0
 42
0.000000001
 43
0.0000001
 40
0.0
 40
0.0
 40
0.0
 40
0.0
 40
0.0059117299
 40
0.0206984241
 40
0.044700444
 40
0.0778229247
 40
0.1703254561
 40
0.2944635272
 40
0.445668467
 40
0.6182638118
 40
1.0
 40
1.0
 40
1.0
 40
1.0
 10
221.1129609506
 20
141.7727809939
 30
0.0
 10
221.1129747529
 20
141.7731762417
 30
0.0
 10
221.1112052841
 20
141.7737795486
 30
0.0
 10
221.1087117115
 20
141.7744245608
 30
0.0
 10
221.1037371485
 20
141.7752378247
 30
0.0
 10
221.0939424793
 20
141.7765039105
 30
0.0
 10
221.077207691
 20
141.7780871512
 30
0.0
 10
221.0527141402
 20
141.7799465
 30
0.0
 10
221.0227891478
 20
141.781820186
 30
0.0
 10
220.9756623793
 20
141.7843235813
 30
0.0
 10
220.9386050272
 20
141.7858506218
 30
0.0
 10
220.9130827852
 20
141.7867407926
 30
0.0
  0
LINE
  5
43A
330
20B
100
AcDbEntity
  8
7_ALL_FEATURES
  6
Continuous
 62
     9
100
AcDbLine
 10
220.913083
 20
141.786741
 30
0.0
 11
220.913083
 21
141.579761
 31
0.0
  0
LINE
  5
43B
330
20B
100
AcDbEntity
  8
7_ALL_FEATURES
  6
Continuous
 62
     9
100
AcDbLine
 10
213.683487
 20
141.579761
 30
0.0
 11
213.683487
 21
141.786741
 31
0.0
  0
SPLINE
  5
43C
330
20B
100
AcDbEntity
  8
7_ALL_FEATURES
  6
Continuous
 62
     9
100
AcDbSpline
 70
     0
 71
     3
 72
    16
 73
    12
 74
     0
 42
0.000000001
 43
0.0000001
 40
0.0
 40
0.0
 40
0.0
 40
0.0
 40
0.3817361882
 40
0.554331533
 40
0.7055364728
 40
0.8296745439
 40
0.9221770753
 40
0.955299556
 40
0.9793015759
 40
0.9940882701
 40
1.0
 40
1.0
 40
1.0
 40
1.0
 10
213.6834867595
 20
141.7867407926
 30
0.0
 10
213.6579645174
 20
141.7858506218
 30
0.0
 10
213.6209071653
 20
141.7843235813
 30
0.0
 10
213.5737803968
 20
141.781820186
 30
0.0
 10
213.5438554044
 20
141.7799465
 30
0.0
 10
213.5193618537
 20
141.7780871512
 30
0.0
 10
213.5026270653
 20
141.7765039105
 30
0.0
 10
213.4928323961
 20
141.7752378247
 30
0.0
 10
213.4878578332
 20
141.7744245608
 30
0.0
 10
213.4853642605
 20
141.7737795486
 30
0.0
 10
213.4835947917
 20
141.7731762417
 30
0.0
 10
213.4836085941
 20
141.7727809939
 30
0.0
  0
LINE
  5
43D
330
20B
100
AcDbEntity
  8
7_ALL_FEATURES
  6
Continuous
 62
     9
100
AcDbLine
 10
213.645074
 20
142.886741
 30
0.0
 11
213.645074
 21
143.079761
 31
0.0
  0
SPLINE
  5
43E
330
20B
100
AcDbEntity
  8
7_ALL_FEATURES
  6
Continuous
 62
     9
100
AcDbSpline
 70
     0
 71
     3
 72
    16
 73
    12
 74
     0
 42
0.000000001
 43
0.0000001
 40
0.0
 40
0.0
 40
0.0
 40
0.0
 40
0.0059114586
 40
0.0206987886
 40
0.0447048059
 40
0.0778370632
 40
0.170392599
 40
0.2945833891
 40
0.445809684
 40
0.6183728367
 40
1.0
 40
1.0
 40
1.0
 40
1.0
 10
213.4451957476
 20
142.8727809939
 30
0.0
 10
213.4451819459
 20
142.8731762236
 30
0.0
 10
213.4469513921
 20
142.8737796013
 30
0.0
 10
213.449445253
 20
142.8744246068
 30
0.0
 10
213.454420812
 20
142.8752379977
 30
0.0
 10
213.4642198637
 20
142.8765045602
 30
0.0
 10
213.4809624489
 20
142.8780880794
 30
0.0
 10
213.5054644538
 20
142.8799480797
 30
0.0
 10
213.5353922696
 20
142.8818215714
 30
0.0
 10
213.5825110424
 20
142.8843243589
 30
0.0
 10
213.6195589596
 20
142.885850876
 30
0.0
 10
213.645073913
 20
142.8867407926
 30
0.0
  0
LINE
  5
43F
330
20B
100
AcDbEntity
  8
7_ALL_FEATURES
  6
Continuous
 62
     9
100
AcDbLine
 10
213.645074
 20
143.079761
 30
0.0
 11
213.631593
 21
143.272781
 31
0.0
  0
LWPOLYLINE
  5
440
330
20B
100
AcDbEntity
  8
7_ALL_FEATURES
  6
Continuous
 62
     9
100
AcDbPolyline
 90
       12
 70
     0
 43
0.0
 10
213.645074
 20
143.079761
 10
213.64491
 20
143.082112
 10
213.644413
 20
143.08923
 10
213.643588
 20
143.101039
 10
213.642477
 20
143.116943
 10
213.641163
 20
143.135758
 10
213.639733
 20
143.15624
 10
213.638235
 20
143.177676
 10
213.636693
 20
143.199754
 10
213.635112
 20
143.222393
 10
213.633443
 20
143.246295
 10
213.631593
 20
143.272781
  0
SPLINE
  5
441
330
20B
100
AcDbEntity
  8
7_ALL_FEATURES
  6
Continuous
 62
     9
100
AcDbSpline
 70
     0
 71
     3
 72
    16
 73
    12
 74
     0
 42
0.000000001
 43
0.0000001
 40
0.0
 40
0.0
 40
0.0
 40
0.0
 40
0.3817361881
 40
0.5543315328
 40
0.7055364726
 40
0.8296745438
 40
0.9221770752
 40
0.955299556
 40
0.9793015759
 40
0.9940882701
 40
1.0
 40
1.0
 40
1.0
 40
1.0
 10
213.6315930922
 20
143.2727809939
 30
0.0
 10
213.6060708501
 20
143.2718908231
 30
0.0
 10
213.569013498
 20
143.2703637826
 30
0.0
 10
213.5218867295
 20
143.2678603874
 30
0.0
 10
213.4919617371
 20
143.2659867014
 30
0.0
 10
213.4674681864
 20
143.2641273526
 30
0.0
 10
213.450733398
 20
143.2625441118
 30
0.0
 10
213.4409387288
 20
143.261278026
 30
0.0
 10
213.4359641658
 20
143.2604647621
 30
0.0
 10
213.4334705932
 20
143.2598197499
 30
0.0
 10
213.4317011244
 20
143.259216443
 30
0.0
 10
213.4317149268
 20
143.2588211952
 30
0.0
  0
SPLINE
  5
442
330
20B
100
AcDbEntity
  8
7_ALL_FEATURES
  6
Continuous
 62
     9
100
AcDbSpline
 70
     0
 71
     3
 72
    16
 73
    12
 74
     0
 42
0.000000001
 43
0.0000001
 40
0.0
 40
0.0
 40
0.0
 40
0.0
 40
0.0059117303
 40
0.0206984258
 40
0.0447004472
 40
0.077822929
 40
0.1703254652
 40
0.2944635411
 40
0.4456684825
 40
0.6182638232
 40
1.0
 40
1.0
 40
1.0
 40
1.0
 10
221.1648546179
 20
143.2588211953
 30
0.0
 10
221.1648684202
 20
143.2592164431
 30
0.0
 10
221.1630989512
 20
143.2598197499
 30
0.0
 10
221.1606053784
 20
143.2604647621
 30
0.0
 10
221.1556308152
 20
143.2612780261
 30
0.0
 10
221.1458361456
 20
143.2625441119
 30
0.0
 10
221.1291013564
 20
143.2641273527
 30
0.0
 10
221.104607805
 20
143.2659867016
 30
0.0
 10
221.0746828124
 20
143.2678603875
 30
0.0
 10
221.0275560449
 20
143.2703637827
 30
0.0
 10
220.9904986938
 20
143.2718908232
 30
0.0
 10
220.9649764525
 20
143.2727809939
 30
0.0
  0
LINE
  5
443
330
20B
100
AcDbEntity
  8
7_ALL_FEATURES
  6
Continuous
 62
     9
100
AcDbLine
 10
236.964976
 20
143.272781
 30
0.0
 11
237.045538
 21
145.579761
 31
0.0
  0
LINE
  5
444
330
20B
100
AcDbEntity
  8
7_ALL_FEATURES
  6
Continuous
 62
     9
100
AcDbLine
 10
229.631593
 20
143.272781
 30
0.0
 11
236.964976
 21
143.272781
 31
0.0
  0
LINE
  5
445
330
20B
100
AcDbEntity
  8
7_ALL_FEATURES
  6
Continuous
 62
     9
100
AcDbLine
 10
229.551032
 20
145.579761
 30
0.0
 11
229.631593
 21
143.272781
 31
0.0
  0
LINE
  5
446
330
20B
100
AcDbEntity
  8
7_ALL_FEATURES
  6
Continuous
 62
     9
100
AcDbLine
 10
220.964976
 20
143.272781
 30
0.0
 11
221.045538
 21
145.579761
 31
0.0
  0
LINE
  5
447
330
20B
100
AcDbEntity
  8
7_ALL_FEATURES
  6
Continuous
 62
     9
100
AcDbLine
 10
213.631593
 20
143.272781
 30
0.0
 11
220.964976
 21
143.272781
 31
0.0
  0
LINE
  5
448
330
20B
100
AcDbEntity
  8
7_ALL_FEATURES
  6
Continuous
 62
     9
100
AcDbLine
 10
213.551032
 20
145.579761
 30
0.0
 11
213.631593
 21
143.272781
 31
0.0
  0
LINE
  5
449
330
20B
100
AcDbEntity
  8
7_ALL_FEATURES
  6
Continuous
 62
     9
100
AcDbLine
 10
229.645074
 20
143.079761
 30
0.0
 11
229.631593
 21
143.272781
 31
0.0
  0
LWPOLYLINE
  5
44A
330
20B
100
AcDbEntity
  8
7_ALL_FEATURES
  6
Continuous
 62
     9
100
AcDbPolyline
 90
       12
 70
     0
 43
0.0
 10
229.645074
 20
143.079761
 10
229.64491
 20
143.082112
 10
229.644413
 20
143.08923
 10
229.643588
 20
143.101039
 10
229.642477
 20
143.116943
 10
229.641163
 20
143.135758
 10
229.639733
 20
143.15624
 10
229.638235
 20
143.177677
 10
229.636693
 20
143.199754
 10
229.635112
 20
143.222393
 10
229.633443
 20
143.246295
 10
229.631593
 20
143.272781
  0
SPLINE
  5
44B
330
20B
100
AcDbEntity
  8
7_ALL_FEATURES
  6
Continuous
 62
     9
100
AcDbSpline
 70
     0
 71
     3
 72
    16
 73
    12
 74
     0
 42
0.000000001
 43
0.0000001
 40
0.0
 40
0.0
 40
0.0
 40
0.0
 40
0.3817361881
 40
0.5543315328
 40
0.7055364726
 40
0.8296745438
 40
0.9221770752
 40
0.955299556
 40
0.9793015759
 40
0.9940882701
 40
1.0
 40
1.0
 40
1.0
 40
1.0
 10
229.6315930922
 20
143.2727809939
 30
0.0
 10
229.6060708501
 20
143.2718908231
 30
0.0
 10
229.569013498
 20
143.2703637826
 30
0.0
 10
229.5218867295
 20
143.2678603874
 30
0.0
 10
229.4919617371
 20
143.2659867014
 30
0.0
 10
229.4674681864
 20
143.2641273526
 30
0.0
 10
229.450733398
 20
143.2625441118
 30
0.0
 10
229.4409387288
 20
143.261278026
 30
0.0
 10
229.4359641658
 20
143.2604647621
 30
0.0
 10
229.4334705932
 20
143.2598197499
 30
0.0
 10
229.4317011244
 20
143.259216443
 30
0.0
 10
229.4317149268
 20
143.2588211952
 30
0.0
  0
LINE
  5
44C
330
20B
100
AcDbEntity
  8
7_ALL_FEATURES
  6
Continuous
 62
     7
100
AcDbLine
 10
260.298285
 20
135.579761
 30
0.0
 11
259.298285
 21
135.579761
 31
0.0
  0
LINE
  5
44D
330
20B
100
AcDbEntity
  8
7_ALL_FEATURES
  6
Continuous
 62
     7
100
AcDbLine
 10
260.298285
 20
171.579761
 30
0.0
 11
260.298285
 21
145.579761
 31
0.0
  0
LINE
  5
44E
330
20B
100
AcDbEntity
  8
7_ALL_FEATURES
  6
Continuous
 62
     7
100
AcDbLine
 10
190.298285
 20
171.579761
 30
0.0
 11
190.298285
 21
145.579761
 31
0.0
  0
LINE
  5
44F
330
20B
100
AcDbEntity
  8
7_ALL_FEATURES
  6
Continuous
 62
     7
100
AcDbLine
 10
191.298285
 20
135.579761
 30
0.0
 11
190.298285
 21
135.579761
 31
0.0
  0
LINE
  5
450
330
20B
100
AcDbEntity
  8
7_ALL_FEATURES
  6
Continuous
 62
     7
100
AcDbLine
 10
191.298285
 20
135.579761
 30
0.0
 11
259.298285
 21
135.579761
 31
0.0
  0
LINE
  5
451
330
20B
100
AcDbEntity
  8
7_ALL_FEATURES
  6
Continuous
 62
     7
100
AcDbLine
 10
191.298285
 20
143.079761
 30
0.0
 11
259.298285
 21
143.079761
 31
0.0
  0
LINE
  5
452
330
20B
100
AcDbEntity
  8
7_ALL_FEATURES
  6
Continuous
 62
     7
100
AcDbLine
 10
260.298285
 20
143.079761
 30
0.0
 11
260.298285
 21
135.579761
 31
0.0
  0
LINE
  5
453
330
20B
100
AcDbEntity
  8
7_ALL_FEATURES
  6
Continuous
 62
     7
100
AcDbLine
 10
190.298285
 20
171.579761
 30
0.0
 11
191.298285
 21
171.579761
 31
0.0
  0
LINE
  5
454
330
20B
100
AcDbEntity
  8
7_ALL_FEATURES
  6
Continuous
 62
     7
100
AcDbLine
 10
191.298285
 20
171.579761
 30
0.0
 11
259.298285
 21
171.579761
 31
0.0
  0
LINE
  5
455
330
20B
100
AcDbEntity
  8
7_ALL_FEATURES
  6
Continuous
 62
     7
100
AcDbLine
 10
259.298285
 20
171.579761
 30
0.0
 11
260.298285
 21
171.579761
 31
0.0
  0
LINE
  5
456
330
20B
100
AcDbEntity
  8
7_ALL_FEATURES
  6
Continuous
 62
     7
100
AcDbLine
 10
260.298285
 20
145.579761
 30
0.0
 11
259.298285
 21
145.579761
 31
0.0
  0
LINE
  5
457
330
20B
100
AcDbEntity
  8
7_ALL_FEATURES
  6
Continuous
 62
     7
100
AcDbLine
 10
190.298285
 20
143.079761
 30
0.0
 11
190.298285
 21
135.579761
 31
0.0
  0
LINE
  5
458
330
20B
100
AcDbEntity
  8
7_ALL_FEATURES
  6
Continuous
 62
     7
100
AcDbLine
 10
259.298285
 20
143.079761
 30
0.0
 11
260.298285
 21
143.079761
 31
0.0
  0
LINE
  5
459
330
20B
100
AcDbEntity
  8
7_ALL_FEATURES
  6
Continuous
 62
     7
100
AcDbLine
 10
190.298285
 20
143.079761
 30
0.0
 11
191.298285
 21
143.079761
 31
0.0
  0
LINE
  5
45A
330
20B
100
AcDbEntity
  8
7_ALL_FEATURES
  6
Continuous
 62
     7
100
AcDbLine
 10
191.298285
 20
145.579761
 30
0.0
 11
259.298285
 21
145.579761
 31
0.0
  0
LINE
  5
45B
330
20B
100
AcDbEntity
  8
7_ALL_FEATURES
  6
Continuous
 62
     7
100
AcDbLine
 10
191.298285
 20
145.579761
 30
0.0
 11
190.298285
 21
145.579761
 31
0.0
  0
LINE
  5
45C
330
20B
100
AcDbEntity
  8
7_ALL_FEATURES
  6
Continuous
 62
     7
100
AcDbLine
 10
258.298285
 20
143.079761
 30
0.0
 11
258.298285
 21
145.579761
 31
0.0
  0
LINE
  5
45D
330
20B
100
AcDbEntity
  8
7_ALL_FEATURES
  6
Continuous
 62
     7
100
AcDbLine
 10
192.298285
 20
143.079761
 30
0.0
 11
192.298285
 21
145.579761
 31
0.0
  0
LINE
  5
45E
330
20B
100
AcDbEntity
  8
7_ALL_FEATURES
  6
Continuous
 62
     9
100
AcDbLine
 10
193.298285
 20
143.079761
 30
0.0
 11
193.298285
 21
145.579761
 31
0.0
  0
LINE
  5
45F
330
20B
100
AcDbEntity
  8
7_ALL_FEATURES
  6
Continuous
 62
     9
100
AcDbLine
 10
257.298285
 20
143.079761
 30
0.0
 11
257.298285
 21
145.579761
 31
0.0
  0
LINE
  5
460
330
20B
100
AcDbEntity
  8
7_ALL_FEATURES
  6
Continuous
 62
     9
100
AcDbLine
 10
259.298285
 20
143.079761
 30
0.0
 11
259.298285
 21
135.579761
 31
0.0
  0
LINE
  5
461
330
20B
100
AcDbEntity
  8
7_ALL_FEATURES
  6
Continuous
 62
     9
100
AcDbLine
 10
191.298285
 20
143.079761
 30
0.0
 11
191.298285
 21
135.579761
 31
0.0
  0
LINE
  5
462
330
20B
100
AcDbEntity
  8
7_ALL_FEATURES
  6
Continuous
 62
     9
100
AcDbLine
 10
259.298285
 20
171.579761
 30
0.0
 11
259.298285
 21
145.579761
 31
0.0
  0
LINE
  5
463
330
20B
100
AcDbEntity
  8
7_ALL_FEATURES
  6
Continuous
 62
     9
100
AcDbLine
 10
191.298285
 20
171.579761
 30
0.0
 11
191.298285
 21
145.579761
 31
0.0
  0
DIMENSION
  5
464
330
20B
100
AcDbEntity
  8
0
  6
Continuous
 62
     2
100
AcDbDimension
280
     0
  2
*D1
 10
149.506149
 20
135.579761
 30
0.0
 11
149.506149
 21
153.57729
 31
0.0
 70
   160
 71
     2
 42
36.0
 73
     0
 74
     0
 75
     0
  3
DIMSTYLE_1
100
AcDbAlignedDimension
 13
140.453914
 23
171.579761
 33
0.0
 14
140.453914
 24
135.579761
 34
0.0
 50
270.0
100
AcDbRotatedDimension
  0
DIMENSION
  5
465
330
20B
100
AcDbEntity
  8
0
  6
Continuous
 62
     2
100
AcDbDimension
280
     0
  2
*D2
 10
158.698482
 20
128.579759
 30
0.0
 11
158.698482
 21
150.004795
 31
0.0
 70
   160
 71
     2
 42
43.000001
 73
     0
 74
     0
 75
     0
  3
DIMSTYLE_1
100
AcDbAlignedDimension
 13
140.679878
 23
171.579761
 33
0.0
 14
140.460304
 24
128.579759
 34
0.0
 50
270.0
100
AcDbRotatedDimension
  0
DIMENSION
  5
466
330
20B
100
AcDbEntity
  8
0
  6
Continuous
 62
     2
100
AcDbDimension
280
     0
  2
*D3
 10
54.862418
 20
112.601499
 30
0.0
 11
89.865522
 21
112.601499
 31
0.0
 70
   160
 71
     2
 42
70.0
 73
     0
 74
     0
 75
     0
  3
DIMSTYLE_1
100
AcDbAlignedDimension
 13
124.862418
 23
104.251301
 33
0.0
 14
54.862418
 24
103.799374
 34
0.0
 50
180.0
100
AcDbRotatedDimension
  0
DIMENSION
  5
467
330
20B
100
AcDbEntity
  8
0
  6
Continuous
 62
     2
100
AcDbDimension
280
     0
  2
*D4
 10
149.506149
 20
25.308898
 30
0.0
 11
149.506149
 21
60.312002
 31
0.0
 70
   160
 71
     2
 42
70.0
 73
     0
 74
     0
 75
     0
  3
DIMSTYLE_1
100
AcDbAlignedDimension
 13
140.583733
 23
95.308898
 33
0.0
 14
139.679878
 24
25.308898
 34
0.0
 50
270.0
100
AcDbRotatedDimension
  0
INSERT
  5
468
330
20B
100
AcDbEntity
  8
0
  6
Continuous
 62
     2
100
AcDbBlockReference
  2
LOGO2_BL0
 10
207.63177
 20
39.871717
 30
0.0
  0
ACAD_TABLE
  5
469
102
{ACAD_XDICTIONARY
360
4BE
102
}
330
20B
100
AcDbEntity
  8
0
  6
Continuous
 62
     2
160
              3320
310
F80C000017000000880000001D000000000000000000F03F0000000000000000000000000000000054BDBA7BC83968400000000000000000000000000000F03F00000000000000001F1CE16D94AF4A4000000000000000000000000000000000000000000000F03F0000000000000000000000000000000000000000000000
310
000000000000000000000000000000F03F54000000200000000200000000000000000000000000000000000000000000000000000000000000008056400000000000000000000000000000000000000000000000000000000000000000000000000000F03F5400000020000000020000000000000000000000000000000000
310
00000000000000000000000000000000000000000000000044C0000000000000000000000000000000000000000000000000000000000000F03F5400000020000000020000000000000000003E4000000000000018C00000000000000000000000000080564000000000000018C00000000000000000000000000000000000
310
00000000000000000000000000F03F5400000020000000020000000000000000003E4000000000000028C00000000000000000000000000080564000000000000028C0000000000000000000000000000000000000000000000000000000000000F03F5400000020000000020000000000000000003E4000000000000036C0
310
0000000000000000000000000080564000000000000036C0000000000000000000000000000000000000000000000000000000000000F03F54000000200000000200000000000000000000000000000000003BC0000000000000000000000000008056400000000000003BC000000000000000000000000000000000000000
310
0000000000000000000000F03F540000002000000002000000000000000000000000000000000044C00000000000000000000000000080564000000000000044C0000000000000000000000000000000000000000000000000000000000000F03F5400000020000000020000000000000000003E4000000000000000000000
310
0000000000000000000000003E400000000000003BC0000000000000000000000000000000000000000000000000000000000000F03F540000002000000002000000000000000080514000000000000000000000000000000000000000000080514000000000000028C0000000000000000000000000000000000000000000
310
000000000000000000F03F540000002000000002000000000000000080564000000000000000000000000000000000000000000080564000000000000044C0000000000000000000000000000000000000000000000000000000000000F03F0C000000100000000B000000D000000026000000CDCCCCCCCC7C3F404E621058
310
393412C0000000000000000000000000000000000000000000000000000000000000F03F000000000000F03F0000000000000000000000000000000041003100390034005F0043005F003400300031000000000014000000010000000000000000000840000000000000F03F0000000000000000000000000000F03F000000
310
0000000000000000000000000000000000000000000000000000000000000000000000000061007200690061006C002E00740074006600000000000000C800000026000000C2F5285C8FC6514075931804560E13C0000000000000000000000000000000000000000000000000000000000000F03F000000000000F03F0000
310
00000000000000000000000000005200650076003A0030003000000000000C000000010000000000000000000C40000000000000F03F0000000000000000000000000000F03F0000000000000000000000000000000000000000000000000000000000000000000000000000000061007200690061006C002E007400740066
310
00000000000000CC00000026000000FA7E6ABC74433F405839B4C8769E26C0000000000000000000000000000000000000000000000000000000000000F03F000000000000F03F000000000000000000000000000000005300630061006C0065003A0031003A003100000012000000010000000000000000000C4000000000
310
0000F03F0000000000000000000000000000F03F0000000000000000000000000000000000000000000000000000000000000000000000000000000061007200690061006C002E00740074006600000000000000C0000000260000003333333333DF514000000000008025C000000000000000000000000000000000000000
310
0000000000000000000000F03F000000000000F03F00000000000000000000000000000000410034000000000004000000010000000000000000000C40000000000000F03F0000000000000000000000000000F03F000000000000000000000000000000000000000000000000000000000000000000000000000000006100
310
7200690061006C002E00740074006600000000000000DC00000026000000D122DBF97E3A3F40AC1C5A643BCF32C0000000000000000000000000000000000000000000000000000000000000F03F000000000000F03F0000000000000000000000000000000047004F004300430049004100200033002E00350020002D0020
310
0033002E0039000000000020000000010000000000000000000C40000000000000F03F0000000000000000000000000000F03F0000000000000000000000000000000000000000000000000000000000000000000000000000000061007200690061006C002E00740074006600000000000000D40000002600000048E17A14
310
AE373F40C3F5285C8FC239C0000000000000000000000000000000000000000000000000000000000000F03F000000000000F03F0000000000000000000000000000000044004100540045003A00310032002E00310030002E003200330000001A000000010000000000000000000440000000000000F03F00000000000000
310
00000000000000F03F0000000000000000000000000000000000000000000000000000000000000000000000000000000061007200690061006C002E007400740066000000000000002401000026000000CDCCCCCCCCCCF73F0000000000903DC0000000000000000000000000000000000000000000000000000000000000
310
F03F000000000000F03F0000000000000000000000000000000041006E007900200069006E00740065006700720061006C0020006F00720020007000610072007400690061006C00200072006500700072006F00640075006300740069006F006E00730020006100720065002000700072006F006800690062006900740065
310
0064000000000068000000010000000000000000000240000000000000F03F0000000000000000000000000000F03F0000000000000000000000000000000000000000000000000000000000000000000000000000000061007200690061006C002E007400740066000000000000002C01000026000000FED478E926B1F73F
310
37894160E57C40C0000000000000000000000000000000000000000000000000000000000000F03F000000000000F03F0000000000000000000000000000000077006900740068006F007500740020007000720069006F007200200061007500740068006F007200690073006100740069006F006E0020006F00660020004C
310
002000260020004C0020004C007500630065002000260020004C006900670068007400200073002E0072002E006C002E002C00000072000000010000000000000000000240000000000000F03F0000000000000000000000000000F03F00000000000000000000000000000000000000000000000000000000000000000000
310
00000000000061007200690061006C002E007400740066000000000000000401000026000000C1CAA145B673F43F4F1E166A4D3142C0000000000000000000000000000000000000000000000000000000000000F03F000000000000F03F0000000000000000000000000000000069006E0020006100630063006F00720064
310
0061006E006300650020007700690074006800200074006800650020006C0061007700200069006E00200066006F007200630065002E000000000048000000010000000000000000000240000000000000F03F0000000000000000000000000000F03F00000000000000000000000000000000000000000000000000000000
310
00000000000000000000000061007200690061006C002E00740074006600000000000000E400000026000000CDCCCCCCCCCCF73F302AA913D0E043C0000000000000000000000000000000000000000000000000000000000000F03F000000000000F03F0000000000000000000000000000000041006C006C002000720069
310
0067006800740073002000720065007300650072007600650064002E000000000028000000010000000000000000000240000000000000F03F0000000000000000000000000000F03F0000000000000000000000000000000000000000000000000000000000000000000000000000000061007200690061006C002E007400
310
74006600000000000000080000001F000000
100
AcDbBlockReference
  2
*T6
 10
193.805723
 20
53.371717
 30
0.0
100
AcDbTable
342
492
343
213
 11
1.0
 21
0.0
 31
0.0
 90
       22
 91
        5
 92
        5
 93
        0
 94
        0
 95
        0
 96
        0
141
6.0
141
6.0
141
10.0
141
5.0
141
13.0
142
10.0
142
10.0
142
10.0
142
40.0
142
20.0
171
     1
172
     0
173
     0
174
     0
175
     3
176
     4
 91
       32
178
     0
145
0.0
140
3.5
 92
        0
301
CELL_VALUE
 93
        2
 90
        4
  1
 
 94
        0
300

302
 
304
ACVALUE_END
171
     1
172
     0
173
     1
174
     0
175
     1
176
     1
 91
        0
178
     0
145
0.0
 92
        0
301
CELL_VALUE
 93
        3
 90
        0
 91
        0
 94
        0
300

302

304
ACVALUE_END
171
     1
172
     0
173
     1
174
     0
175
     1
176
     1
 91
        0
178
     0
145
0.0
 92
        0
301
CELL_VALUE
 93
        3
 90
        0
 91
        0
 94
        0
300

302

304
ACVALUE_END
171
     1
172
     0
173
     0
174
     0
175
     1
176
     1
 91
       33
178
     0
145
0.0
170
     4
140
3.0
 92
        0
301
CELL_VALUE
 93
        2
 90
        4
  1
A194_C_401
 94
        0
300

302
A194_C_401
304
ACVALUE_END
171
     1
172
     0
173
     0
174
     0
175
     1
176
     1
 91
       33
178
     0
145
0.0
170
     4
140
3.5
 92
        0
301
CELL_VALUE
 93
        2
 90
        4
  1
Rev:00
 94
        0
300

302
Rev:00
304
ACVALUE_END
171
     1
172
     0
173
     1
174
     0
175
     1
176
     1
 91
        0
178
     0
145
0.0
 92
        0
301
CELL_VALUE
 93
        3
 90
        0
 91
        0
 94
        0
300

302

304
ACVALUE_END
171
     1
172
     0
173
     1
174
     0
175
     1
176
     1
 91
        0
178
     0
145
0.0
 92
        0
301
CELL_VALUE
 93
        3
 90
        0
 91
        0
 94
        0
300

302

304
ACVALUE_END
171
     1
172
     0
173
     1
174
     0
175
     1
176
     1
 91
        0
178
     0
145
0.0
 92
        0
301
CELL_VALUE
 93
        3
 90
        0
 91
        0
 94
        0
300

302

304
ACVALUE_END
171
     1
172
     0
173
     0
174
     0
175
     1
176
     1
 91
       33
178
     0
145
0.0
170
     1
140
3.5
 92
        0
301
CELL_VALUE
 93
        2
 90
        4
  1
Scale:1:1
 94
        0
300

302
Scale:1:1
304
ACVALUE_END
171
     1
172
     0
173
     0
174
     0
175
     1
176
     1
 91
       33
178
     0
145
0.0
170
     4
140
3.5
 92
        0
301
CELL_VALUE
 93
        2
 90
        4
  1
A4
 94
        0
300

302
A4
304
ACVALUE_END
171
     1
172
     0
173
     1
174
     0
175
     1
176
     1
 91
        0
178
     0
145
0.0
 92
        0
301
CELL_VALUE
 93
        3
 90
        0
 91
        0
 94
        0
300

302

304
ACVALUE_END
171
     1
172
     0
173
     1
174
     0
175
     1
176
     1
 91
        0
178
     0
145
0.0
 92
        0
301
CELL_VALUE
 93
        3
 90
        0
 91
        0
 94
        0
300

302

304
ACVALUE_END
171
     1
172
     0
173
     1
174
     0
175
     1
176
     1
 91
        0
178
     0
145
0.0
 92
        0
301
CELL_VALUE
 93
        3
 90
        0
 91
        0
 94
        0
300

302

304
ACVALUE_END
171
     1
172
     0
173
     0
174
     0
175
     2
176
     1
 91
       33
178
     0
145
0.0
170
     4
140
3.5
 92
        0
301
CELL_VALUE
 93
        2
 90
        4
  1
GOCCIA 3.5 - 3.9
 94
        0
300

302
GOCCIA 3.5 - 3.9
304
ACVALUE_END
171
     1
172
     0
173
     1
174
     0
175
     1
176
     1
 91
        0
178
     0
145
0.0
 92
        0
301
CELL_VALUE
 93
        3
 90
        0
 91
        0
 94
        0
300

302

304
ACVALUE_END
171
     1
172
     0
173
     1
174
     0
175
     1
176
     1
 91
        0
178
     0
145
0.0
 92
        0
301
CELL_VALUE
 93
        3
 90
        0
 91
        0
 94
        0
300

302

304
ACVALUE_END
171
     1
172
     0
173
     1
174
     0
175
     1
176
     1
 91
        0
178
     0
145
0.0
 92
        0
301
CELL_VALUE
 93
        3
 90
        0
 91
        0
 94
        0
300

302

304
ACVALUE_END
171
     1
172
     0
173
     1
174
     0
175
     1
176
     1
 91
        0
178
     0
145
0.0
 92
        0
301
CELL_VALUE
 93
        3
 90
        0
 91
        0
 94
        0
300

302

304
ACVALUE_END
171
     1
172
     0
173
     0
174
     0
175
     2
176
     1
 91
       33
178
     0
145
0.0
170
     4
140
2.5
 92
        0
301
CELL_VALUE
 93
        2
 90
        4
  1
DATE:12.10.23
 94
        0
300

302
DATE:12.10.23
304
ACVALUE_END
171
     1
172
     0
173
     1
174
     0
175
     1
176
     1
 91
        0
178
     0
145
0.0
 92
        0
301
CELL_VALUE
 93
        3
 90
        0
 91
        0
 94
        0
300

302

304
ACVALUE_END
171
     1
172
     0
173
     0
174
     0
175
     5
176
     1
 91
       33
178
     0
145
0.0
170
     4
140
2.25
 92
        0
301
CELL_VALUE
 93
        2
 90
        4
  1
Any integral or partial reproductions are prohibited \Pwithout prior authorisation of L & L Luce & Light s.r.l., \Pin accordance with the law in force. \PAll rights reserved.
 94
        0
300

302
Any integral or partial reproductions are prohibited \Pwithout prior authorisation of L & L Luce & Light s.r.l., \Pin accordance with the law in force. \PAll rights reserved.
304
ACVALUE_END
171
     1
172
     0
173
     1
174
     0
175
     1
176
     1
 91
        0
178
     0
145
0.0
 92
        0
301
CELL_VALUE
 93
        3
 90
        0
 91
        0
 94
        0
300

302

304
ACVALUE_END
171
     1
172
     0
173
     1
174
     0
175
     1
176
     1
 91
        0
178
     0
145
0.0
 92
        0
301
CELL_VALUE
 93
        3
 90
        0
 91
        0
 94
        0
300

302

304
ACVALUE_END
171
     1
172
     0
173
     1
174
     0
175
     1
176
     1
 91
        0
178
     0
145
0.0
 92
        0
301
CELL_VALUE
 93
        3
 90
        0
 91
        0
 94
        0
300

302

304
ACVALUE_END
171
     1
172
     0
173
     1
174
     0
175
     1
176
     1
 91
        0
178
     0
145
0.0
 92
        0
301
CELL_VALUE
 93
        3
 90
        0
 91
        0
 94
        0
300

302

304
ACVALUE_END
  0
ENDSEC
  0
SECTION
  2
OBJECTS
  0
DICTIONARY
  5
C
330
0
100
AcDbDictionary
281
     1
  3
ACAD_DETAILVIEWSTYLE
350
4C7
  3
ACAD_GROUP
350
D
  3
ACAD_IMAGE_DICT
350
4B7
  3
ACAD_LAYOUT
350
1A
  3
ACAD_MATERIAL
350
4AD
  3
ACAD_MLEADERSTYLE
350
4C6
  3
ACAD_MLINESTYLE
350
17
  3
ACAD_PLOTSETTINGS
350
19
  3
ACAD_PLOTSTYLENAME
350
E
  3
ACAD_SCALELIST
350
46F
  3
ACAD_SECTIONVIEWSTYLE
350
4C8
  3
ACAD_TABLESTYLE
350
491
  3
ACAD_VISUALSTYLE
350
494
  3
ACDB_RECOMPOSE_DATA
350
4C4
  3
AcDbVariableDictionary
350
4C0
  3
MCS_STREAM_DICT
350
4B3
  0
SUN
  5
4B6
330
1F4
100
AcDbSun
 90
        1
290
     0
 63
     7
421
 16777215
 40
1.0
291
     1
 91
  2455826
 92
 54000000
292
     0
 70
     2
 71
   256
280
     1
  0
DICTIONARY
  5
4BE
330
469
100
AcDbDictionary
280
     1
281
     1
  3
ACAD_XREC_ROUNDTRIP
360
4BF
  0
DICTIONARY
  5
4C7
102
{ACAD_REACTORS
330
C
102
}
330
C
100
AcDbDictionary
281
     1
  0
DICTIONARY
  5
D
102
{ACAD_REACTORS
330
C
102
}
330
C
100
AcDbDictionary
281
     1
  0
DICTIONARY
  5
4B7
102
{ACAD_REACTORS
330
C
102
}
330
C
100
AcDbDictionary
281
     1
  0
DICTIONARY
  5
1A
102
{ACAD_REACTORS
330
C
102
}
330
C
100
AcDbDictionary
281
     1
  3
Layout1
350
46C
  3
Model
350
46B
  0
DICTIONARY
  5
4AD
102
{ACAD_REACTORS
330
C
102
}
330
C
100
AcDbDictionary
281
     1
  3
ByBlock
350
4AF
  3
ByLayer
350
4AE
  3
Global
350
4B0
  0
DICTIONARY
  5
4C6
102
{ACAD_REACTORS
330
C
102
}
330
C
100
AcDbDictionary
281
     1
  0
DICTIONARY
  5
17
102
{ACAD_REACTORS
330
C
102
}
330
C
100
AcDbDictionary
281
     1
  3
Standard
350
18
  0
DICTIONARY
  5
19
102
{ACAD_REACTORS
330
C
102
}
330
C
100
AcDbDictionary
281
     1
  0
ACDBDICTIONARYWDFLT
  5
E
102
{ACAD_REACTORS
330
C
102
}
330
C
100
AcDbDictionary
281
     1
  3
Normal
350
F
100
AcDbDictionaryWithDefault
340
F
  0
DICTIONARY
  5
46F
102
{ACAD_REACTORS
330
C
102
}
330
C
100
AcDbDictionary
281
     1
  3
A0
350
470
  3
A1
350
471
  3
A2
350
472
  3
A3
350
473
  3
A4
350
474
  3
A5
350
475
  3
A6
350
476
  3
A7
350
477
  3
A8
350
478
  3
A9
350
479
  3
B0
350
47A
  3
B1
350
47B
  3
B2
350
47C
  3
B3
350
47D
  3
B4
350
47E
  3
B5
350
47F
  3
B6
350
480
  3
B7
350
481
  3
B8
350
482
  3
B9
350
483
  3
C0
350
484
  3
C1
350
485
  3
C2
350
486
  3
C3
350
487
  3
C4
350
488
  3
C5
350
489
  3
C6
350
48A
  3
C7
350
48B
  3
C8
350
48C
  3
C9
350
48D
  3
D0
350
48E
  3
D1
350
48F
  3
D2
350
490
  0
DICTIONARY
  5
4C8
102
{ACAD_REACTORS
330
C
102
}
330
C
100
AcDbDictionary
281
     1
  0
DICTIONARY
  5
491
102
{ACAD_REACTORS
330
C
102
}
330
C
100
AcDbDictionary
281
     1
  3
Standard
350
492
  0
DICTIONARY
  5
494
102
{ACAD_REACTORS
330
C
102
}
330
C
100
AcDbDictionary
281
     1
  3
2dWireframe
350
499
  3
Basic
350
49C
  3
Brighten
350
4A0
  3
ColorChange
350
4A4
  3
Conceptual
350
49E
  3
Dim
350
49F
  3
EdgeColorOff
350
4A7
  3
Facepattern
350
4A3
  3
Flat
350
495
  3
FlatWithEdges
350
496
  3
Gouraud
350
497
  3
GouraudWithEdges
350
498
  3
Hidden
350
49B
  3
JitterOff
350
4A5
  3
Linepattern
350
4A2
  3
OverhangOff
350
4A6
  3
Realistic
350
49D
  3
Shaded
350
4AC
  3
Shaded with edges
350
4AB
  3
Shades of Gray
350
4A8
  3
Sketchy
350
4A9
  3
Thicken
350
4A1
  3
Wireframe
350
49A
  3
X-Ray
350
4AA
  0
XRECORD
  5
4C4
102
{ACAD_REACTORS
330
C
102
}
330
C
100
AcDbXrecord
280
     1
 90
        1
330
469
330
492
  0
DICTIONARY
  5
4C0
102
{ACAD_REACTORS
330
C
102
}
330
C
100
AcDbDictionary
281
     1
  3
CANNOSCALE
350
4C1
  3
CTABLESTYLE
350
4C5
  0
DICTIONARY
  5
4B3
102
{ACAD_REACTORS
330
C
102
}
330
C
100
AcDbDictionary
281
     1
  3
MC_VERSION_DATA
350
4BA
  3
MCS_DOCUMENT_ID
350
4B4
  3
MCS_PARAMS_DATA
350
4B8
  0
XRECORD
  5
4BF
102
{ACAD_REACTORS
330
4BE
102
}
330
4BE
100
AcDbXrecord
280
     1
102
ACAD_ROUNDTRIP_2008_TABLE_ENTITY
360
4BC
 70
     2
 90
        1
 10
0.0
 20
0.0
 30
0.0
 90
        0
 90
        4
361
4BD
  0
LAYOUT
  5
46C
102
{ACAD_REACTORS
330
1A
102
}
330
1A
100
AcDbPlotSettings
  1

  2
none_device
  4
ISO_A4_(297.00_x_210.00_MM)
  6

 40
0.0
 41
0.0
 42
0.0
 43
0.0
 44
297.0
 45
210.0
 46
0.0
 47
0.0
 48
0.0
 49
0.0
140
0.0
141
0.0
142
1.0
143
1.0
 70
     0
 72
     1
 73
     0
 74
     0
  7

 75
     0
 76
     0
 77
     2
 78
   300
147
1.0
148
0.0
149
0.0
100
AcDbLayout
  1
Layout1
 70
     0
 71
     1
 10
0.0
 20
0.0
 11
297.0
 21
210.0
 12
0.0
 22
0.0
 32
0.0
 14
0.0
 24
0.0
 34
0.0
 15
0.0
 25
0.0
 35
0.0
146
0.0
 13
0.0
 23
0.0
 33
0.0
 16
1.0
 26
0.0
 36
0.0
 17
0.0
 27
1.0
 37
0.0
 76
     0
330
20C
  0
LAYOUT
  5
46B
102
{ACAD_REACTORS
330
1A
102
}
330
1A
100
AcDbPlotSettings
  1

  2
none_device
  4
ISO_A4_(297.00_x_210.00_MM)
  6

 40
0.0
 41
0.0
 42
0.0
 43
0.0
 44
297.0
 45
210.0
 46
0.0
 47
0.0
 48
0.0
 49
0.0
140
0.0
141
0.0
142
1.0
143
1.0
 70
  1024
 72
     1
 73
     0
 74
     0
  7

 75
     0
 76
     0
 77
     2
 78
   300
147
1.0
148
0.0
149
0.0
100
AcDbLayout
  1
Model
 70
     0
 71
     0
 10
0.0
 20
0.0
 11
297.0
 21
210.0
 12
0.0
 22
0.0
 32
0.0
 14
0.0
 24
0.0
 34
0.0
 15
0.0
 25
0.0
 35
0.0
146
0.0
 13
0.0
 23
0.0
 33
0.0
 16
1.0
 26
0.0
 36
0.0
 17
0.0
 27
1.0
 37
0.0
 76
     0
330
20B
331
1F4
  0
MATERIAL
  5
4AF
102
{ACAD_REACTORS
330
4AD
102
}
330
4AD
100
AcDbMaterial
  1
ByBlock
 72
     1
 94
      127
  0
MATERIAL
  5
4AE
102
{ACAD_REACTORS
330
4AD
102
}
330
4AD
100
AcDbMaterial
  1
ByLayer
 72
     1
 94
      127
  0
MATERIAL
  5
4B0
102
{ACAD_REACTORS
330
4AD
102
}
330
4AD
100
AcDbMaterial
  1
Global
 72
     1
 94
      127
  0
MLINESTYLE
  5
18
102
{ACAD_REACTORS
330
17
102
}
330
17
100
AcDbMlineStyle
  2
STANDARD
 70
     0
  3

 62
   256
 51
90.0
 52
90.0
 71
     2
 49
0.5
 62
   256
  6
BYLAYER
 49
-0.5
 62
   256
  6
BYLAYER
  0
ACDBPLACEHOLDER
  5
F
102
{ACAD_REACTORS
330
E
102
}
330
E
  0
SCALE
  5
470
102
{ACAD_REACTORS
330
46F
102
}
330
46F
100
AcDbScale
 70
     0
300
1:1
140
1.0
141
1.0
290
     1
  0
SCALE
  5
471
102
{ACAD_REACTORS
330
46F
102
}
330
46F
100
AcDbScale
 70
     0
300
1:2
140
1.0
141
2.0
290
     0
  0
SCALE
  5
472
102
{ACAD_REACTORS
330
46F
102
}
330
46F
100
AcDbScale
 70
     0
300
1:4
140
1.0
141
4.0
290
     0
  0
SCALE
  5
473
102
{ACAD_REACTORS
330
46F
102
}
330
46F
100
AcDbScale
 70
     0
300
1:5
140
1.0
141
5.0
290
     0
  0
SCALE
  5
474
102
{ACAD_REACTORS
330
46F
102
}
330
46F
100
AcDbScale
 70
     0
300
1:8
140
1.0
141
8.0
290
     0
  0
SCALE
  5
475
102
{ACAD_REACTORS
330
46F
102
}
330
46F
100
AcDbScale
 70
     0
300
1:10
140
1.0
141
10.0
290
     0
  0
SCALE
  5
476
102
{ACAD_REACTORS
330
46F
102
}
330
46F
100
AcDbScale
 70
     0
300
1:16
140
1.0
141
16.0
290
     0
  0
SCALE
  5
477
102
{ACAD_REACTORS
330
46F
102
}
330
46F
100
AcDbScale
 70
     0
300
1:20
140
1.0
141
20.0
290
     0
  0
SCALE
  5
478
102
{ACAD_REACTORS
330
46F
102
}
330
46F
100
AcDbScale
 70
     0
300
1:30
140
1.0
141
30.0
290
     0
  0
SCALE
  5
479
102
{ACAD_REACTORS
330
46F
102
}
330
46F
100
AcDbScale
 70
     0
300
1:40
140
1.0
141
40.0
290
     0
  0
SCALE
  5
47A
102
{ACAD_REACTORS
330
46F
102
}
330
46F
100
AcDbScale
 70
     0
300
1:50
140
1.0
141
50.0
290
     0
  0
SCALE
  5
47B
102
{ACAD_REACTORS
330
46F
102
}
330
46F
100
AcDbScale
 70
     0
300
1:100
140
1.0
141
100.0
290
     0
  0
SCALE
  5
47C
102
{ACAD_REACTORS
330
46F
102
}
330
46F
100
AcDbScale
 70
     0
300
2:1
140
2.0
141
1.0
290
     0
  0
SCALE
  5
47D
102
{ACAD_REACTORS
330
46F
102
}
330
46F
100
AcDbScale
 70
     0
300
4:1
140
4.0
141
1.0
290
     0
  0
SCALE
  5
47E
102
{ACAD_REACTORS
330
46F
102
}
330
46F
100
AcDbScale
 70
     0
300
8:1
140
8.0
141
1.0
290
     0
  0
SCALE
  5
47F
102
{ACAD_REACTORS
330
46F
102
}
330
46F
100
AcDbScale
 70
     0
300
10:1
140
10.0
141
1.0
290
     0
  0
SCALE
  5
480
102
{ACAD_REACTORS
330
46F
102
}
330
46F
100
AcDbScale
 70
     0
300
100:1
140
100.0
141
1.0
290
     0
  0
SCALE
  5
481
102
{ACAD_REACTORS
330
46F
102
}
330
46F
100
AcDbScale
 70
     0
300
1/128" = 1'-0"
140
0.007812
141
12.0
290
     0
  0
SCALE
  5
482
102
{ACAD_REACTORS
330
46F
102
}
330
46F
100
AcDbScale
 70
     0
300
1/64" = 1'-0"
140
0.015625
141
12.0
290
     0
  0
SCALE
  5
483
102
{ACAD_REACTORS
330
46F
102
}
330
46F
100
AcDbScale
 70
     0
300
1/32" = 1'-0"
140
0.03125
141
12.0
290
     0
  0
SCALE
  5
484
102
{ACAD_REACTORS
330
46F
102
}
330
46F
100
AcDbScale
 70
     0
300
1/16" = 1'-0"
140
0.0625
141
12.0
290
     0
  0
SCALE
  5
485
102
{ACAD_REACTORS
330
46F
102
}
330
46F
100
AcDbScale
 70
     0
300
3/32" = 1'-0"
140
0.09375
141
12.0
290
     0
  0
SCALE
  5
486
102
{ACAD_REACTORS
330
46F
102
}
330
46F
100
AcDbScale
 70
     0
300
1/8" = 1'-0"
140
0.125
141
12.0
290
     0
  0
SCALE
  5
487
102
{ACAD_REACTORS
330
46F
102
}
330
46F
100
AcDbScale
 70
     0
300
3/16" = 1'-0"
140
0.1875
141
12.0
290
     0
  0
SCALE
  5
488
102
{ACAD_REACTORS
330
46F
102
}
330
46F
100
AcDbScale
 70
     0
300
1/4" = 1'-0"
140
0.25
141
12.0
290
     0
  0
SCALE
  5
489
102
{ACAD_REACTORS
330
46F
102
}
330
46F
100
AcDbScale
 70
     0
300
3/8" = 1'-0"
140
0.375
141
12.0
290
     0
  0
SCALE
  5
48A
102
{ACAD_REACTORS
330
46F
102
}
330
46F
100
AcDbScale
 70
     0
300
1/2" = 1'-0"
140
0.5
141
12.0
290
     0
  0
SCALE
  5
48B
102
{ACAD_REACTORS
330
46F
102
}
330
46F
100
AcDbScale
 70
     0
300
3/4" = 1'-0"
140
0.75
141
12.0
290
     0
  0
SCALE
  5
48C
102
{ACAD_REACTORS
330
46F
102
}
330
46F
100
AcDbScale
 70
     0
300
1" = 1'-0"
140
1.0
141
12.0
290
     0
  0
SCALE
  5
48D
102
{ACAD_REACTORS
330
46F
102
}
330
46F
100
AcDbScale
 70
     0
300
1-1/2" = 1'-0"
140
1.5
141
12.0
290
     0
  0
SCALE
  5
48E
102
{ACAD_REACTORS
330
46F
102
}
330
46F
100
AcDbScale
 70
     0
300
3" = 1'-0"
140
3.0
141
12.0
290
     0
  0
SCALE
  5
48F
102
{ACAD_REACTORS
330
46F
102
}
330
46F
100
AcDbScale
 70
     0
300
6" = 1'-0"
140
6.0
141
12.0
290
     0
  0
SCALE
  5
490
102
{ACAD_REACTORS
330
46F
102
}
330
46F
100
AcDbScale
 70
     0
300
1'-0" = 1'-0"
140
12.0
141
12.0
290
     0
  0
TABLESTYLE
  5
492
102
{ACAD_REACTORS
330
491
102
}
102
{ACAD_XDICTIONARY
360
4C2
102
}
330
491
100
AcDbTableStyle
  3
Standard
 70
     0
 71
     0
 40
0.06
 41
0.06
280
     0
281
     0
  7
STANDARD
140
4.5
170
     2
 62
     0
 63
   257
283
     0
 90
        4
 91
        0
  1

274
    -2
284
     1
 64
     0
275
    -2
285
     1
 65
     0
276
    -2
286
     1
 66
     0
277
    -2
287
     1
 67
     0
278
    -2
288
     1
 68
     0
279
    -2
289
     1
 69
     0
  7
STANDARD
140
6.0
170
     5
 62
     0
 63
   257
283
     0
 90
        4
 91
        0
  1

274
    -2
284
     1
 64
     0
275
    -2
285
     1
 65
     0
276
    -2
286
     1
 66
     0
277
    -2
287
     1
 67
     0
278
    -2
288
     1
 68
     0
279
    -2
289
     1
 69
     0
  7
STANDARD
140
4.5
170
     5
 62
     0
 63
   257
283
     0
 90
        4
 91
        0
  1

274
    -2
284
     1
 64
     0
275
    -2
285
     1
 65
     0
276
    -2
286
     1
 66
     0
277
    -2
287
     1
 67
     0
278
    -2
288
     1
 68
     0
279
    -2
289
     1
 69
     0
  0
VISUALSTYLE
  5
499
102
{ACAD_REACTORS
330
494
102
}
330
494
100
AcDbVisualStyle
  2
2dWireframe
 70
     4
177
     3
291
     0
 70
    58
 90
        0
176
     1
 90
        2
176
     1
 90
        0
176
     1
 90
        0
176
     1
 40
0.6
176
     1
 40
30.0
176
     1
 62
     7
420
 16777215
176
     1
 90
        1
176
     1
 90
        4
176
     1
 62
     7
176
     1
 62
   257
176
     1
 90
        1
176
     1
 90
        1
176
     1
 40
1.0
176
     1
 90
        0
176
     1
 62
   257
176
     1
 40
1.0
176
     1
 90
        1
176
     1
 90
        6
176
     1
 90
        2
176
     1
 62
     7
176
     1
 90
        5
176
     1
 90
        0
176
     1
 90
        0
176
     1
290
     0
176
     1
 90
        1
176
     1
 40
0.0
176
     1
 90
        0
176
     1
290
     1
176
     1
290
     1
176
     1
290
     0
176
     1
290
     0
176
     1
290
     0
176
     1
290
     0
176
     1
290
     0
176
     1
290
     0
176
     1
290
     0
176
     1
 90
       50
176
     1
 40
0.0
176
     1
 40
1.0
176
     1
 90
        0
176
     1
 62
    18
420
        0
176
     1
 90
       50
176
     1
 90
        3
176
     1
 62
     5
420
      255
176
     1
290
     0
176
     1
 90
       50
176
     1
 90
       50
176
     1
 90
       50
176
     1
290
     0
176
     1
 90
       50
176
     1
 62
   256
176
     0
 40
1.0
176
     0
 90
        2
176
     1
  1
strokes_ogs.tif
176
     1
290
     0
176
     1
 40
1.0
176
     1
 40
1.0
176
     1
  0
VISUALSTYLE
  5
49C
102
{ACAD_REACTORS
330
494
102
}
330
494
100
AcDbVisualStyle
  2
Basic
 70
     7
177
     3
291
     1
 70
    58
 90
        1
176
     1
 90
        0
176
     1
 90
        1
176
     1
 90
        0
176
     1
 40
0.6
176
     1
 40
30.0
176
     1
 62
     7
420
 16777215
176
     1
 90
        0
176
     1
 90
        4
176
     1
 62
     7
176
     1
 62
   257
176
     1
 90
        1
176
     1
 90
        1
176
     1
 40
1.0
176
     1
 90
        8
176
     1
 62
     7
176
     1
 40
1.0
176
     1
 90
        1
176
     1
 90
        6
176
     1
 90
        2
176
     1
 62
     7
176
     1
 90
        5
176
     1
 90
        0
176
     1
 90
        0
176
     1
290
     0
176
     1
 90
        1
176
     1
 40
0.0
176
     1
 90
        0
176
     1
290
     0
176
     1
290
     1
176
     1
290
     1
176
     1
290
     0
176
     1
290
     0
176
     1
290
     0
176
     1
290
     0
176
     1
290
     0
176
     1
290
     0
176
     1
 90
       50
176
     1
 40
0.0
176
     1
 40
1.0
176
     1
 90
        0
176
     1
 62
    18
420
        0
176
     1
 90
       50
176
     1
 90
        3
176
     1
 62
     5
420
      255
176
     1
290
     0
176
     1
 90
       50
176
     1
 90
       50
176
     1
 90
       50
176
     1
290
     0
176
     1
 90
       50
176
     1
 62
   256
176
     0
 40
1.0
176
     0
 90
        2
176
     1
  1
strokes_ogs.tif
176
     1
290
     0
176
     1
 40
1.0
176
     1
 40
1.0
176
     1
  0
VISUALSTYLE
  5
4A0
102
{ACAD_REACTORS
330
494
102
}
330
494
100
AcDbVisualStyle
  2
Brighten
 70
    12
177
     3
291
     1
 70
    58
 90
        2
176
     1
 90
        2
176
     1
 90
        0
176
     1
 90
        0
176
     1
 40
0.6
176
     1
 40
30.0
176
     1
 62
     7
420
 16777215
176
     1
 90
        1
176
     1
 90
        4
176
     1
 62
     7
176
     1
 62
   257
176
     1
 90
        1
176
     1
 90
        1
176
     1
 40
1.0
176
     1
 90
        8
176
     1
 62
     7
176
     1
 40
1.0
176
     1
 90
        1
176
     1
 90
        6
176
     1
 90
        2
176
     1
 62
     7
176
     1
 90
        5
176
     1
 90
        0
176
     1
 90
        0
176
     1
290
     0
176
     1
 90
        1
176
     1
 40
50.0
176
     1
 90
        0
176
     1
290
     0
176
     1
290
     1
176
     1
290
     1
176
     1
290
     0
176
     1
290
     0
176
     1
290
     0
176
     1
290
     0
176
     1
290
     0
176
     1
290
     0
176
     1
 90
       50
176
     1
 40
0.0
176
     1
 40
1.0
176
     1
 90
        0
176
     1
 62
    18
420
        0
176
     1
 90
       50
176
     1
 90
        3
176
     1
 62
     5
420
      255
176
     1
290
     0
176
     1
 90
       50
176
     1
 90
       50
176
     1
 90
       50
176
     1
290
     0
176
     1
 90
       50
176
     1
 62
   256
176
     0
 40
1.0
176
     0
 90
        2
176
     1
  1
strokes_ogs.tif
176
     1
290
     0
176
     1
 40
1.0
176
     1
 40
1.0
176
     1
  0
VISUALSTYLE
  5
4A4
102
{ACAD_REACTORS
330
494
102
}
330
494
100
AcDbVisualStyle
  2
ColorChange
 70
    16
177
     3
291
     1
 70
    58
 90
        2
176
     1
 90
        2
176
     1
 90
        3
176
     1
 90
        0
176
     1
 40
0.6
176
     1
 40
30.0
176
     1
 62
     8
420
  8421504
176
     1
 90
        1
176
     1
 90
        4
176
     1
 62
     7
176
     1
 62
   257
176
     1
 90
        1
176
     1
 90
        1
176
     1
 40
1.0
176
     1
 90
        8
176
     1
 62
     8
420
  8421504
176
     1
 40
1.0
176
     1
 90
        1
176
     1
 90
        6
176
     1
 90
        2
176
     1
 62
     7
176
     1
 90
        5
176
     1
 90
        0
176
     1
 90
        0
176
     1
290
     0
176
     1
 90
        1
176
     1
 40
0.0
176
     1
 90
        0
176
     1
290
     0
176
     1
290
     1
176
     1
290
     1
176
     1
290
     0
176
     1
290
     0
176
     1
290
     0
176
     1
290
     0
176
     1
290
     0
176
     1
290
     0
176
     1
 90
       50
176
     1
 40
0.0
176
     1
 40
1.0
176
     1
 90
        0
176
     1
 62
    18
420
        0
176
     1
 90
       50
176
     1
 90
        3
176
     1
 62
     5
420
      255
176
     1
290
     0
176
     1
 90
       50
176
     1
 90
       50
176
     1
 90
       50
176
     1
290
     0
176
     1
 90
       50
176
     1
 62
   256
176
     0
 40
1.0
176
     0
 90
        2
176
     1
  1
strokes_ogs.tif
176
     1
290
     0
176
     1
 40
1.0
176
     1
 40
1.0
176
     1
  0
VISUALSTYLE
  5
49E
102
{ACAD_REACTORS
330
494
102
}
330
494
100
AcDbVisualStyle
  2
Conceptual
 70
     9
177
     3
291
     0
 70
    58
 90
        3
176
     1
 90
        2
176
     1
 90
        0
176
     1
 90
        0
176
     1
 40
0.6
176
     1
 40
30.0
176
     1
 62
     7
420
 16777215
176
     1
 90
        2
176
     1
 90
        2
176
     1
 62
     7
176
     1
 62
   257
176
     1
 90
        1
176
     1
 90
        1
176
     1
 40
179.0
176
     1
 90
        8
176
     1
 62
     7
176
     1
 40
1.0
176
     1
 90
        1
176
     1
 90
        6
176
     1
 90
        2
176
     1
 62
     7
176
     1
 90
        3
176
     1
 90
        0
176
     1
 90
        0
176
     1
290
     0
176
     1
 90
        1
176
     1
 40
0.0
176
     1
 90
        0
176
     1
290
     0
176
     1
290
     1
176
     1
290
     1
176
     1
290
     0
176
     1
290
     0
176
     1
290
     0
176
     1
290
     0
176
     1
290
     0
176
     1
290
     0
176
     1
 90
       50
176
     1
 40
0.0
176
     1
 40
1.0
176
     1
 90
        0
176
     1
 62
    18
420
        0
176
     1
 90
       50
176
     1
 90
        3
176
     1
 62
     5
420
      255
176
     1
290
     0
176
     1
 90
       50
176
     1
 90
       50
176
     1
 90
       50
176
     1
290
     0
176
     1
 90
       50
176
     1
 62
   256
176
     0
 40
1.0
176
     0
 90
        2
176
     1
  1
strokes_ogs.tif
176
     1
290
     0
176
     1
 40
1.0
176
     1
 40
1.0
176
     1
  0
VISUALSTYLE
  5
49F
102
{ACAD_REACTORS
330
494
102
}
330
494
100
AcDbVisualStyle
  2
Dim
 70
    11
177
     3
291
     1
 70
    58
 90
        2
176
     1
 90
        2
176
     1
 90
        0
176
     1
 90
        0
176
     1
 40
0.6
176
     1
 40
30.0
176
     1
 62
     7
420
 16777215
176
     1
 90
        1
176
     1
 90
        4
176
     1
 62
     7
176
     1
 62
   257
176
     1
 90
        1
176
     1
 90
        1
176
     1
 40
1.0
176
     1
 90
        8
176
     1
 62
     7
176
     1
 40
1.0
176
     1
 90
        1
176
     1
 90
        6
176
     1
 90
        2
176
     1
 62
     7
176
     1
 90
        5
176
     1
 90
        0
176
     1
 90
        0
176
     1
290
     0
176
     1
 90
        1
176
     1
 40
-50.0
176
     1
 90
        0
176
     1
290
     0
176
     1
290
     1
176
     1
290
     1
176
     1
290
     0
176
     1
290
     0
176
     1
290
     0
176
     1
290
     0
176
     1
290
     0
176
     1
290
     0
176
     1
 90
       50
176
     1
 40
0.0
176
     1
 40
1.0
176
     1
 90
        0
176
     1
 62
    18
420
        0
176
     1
 90
       50
176
     1
 90
        3
176
     1
 62
     5
420
      255
176
     1
290
     0
176
     1
 90
       50
176
     1
 90
       50
176
     1
 90
       50
176
     1
290
     0
176
     1
 90
       50
176
     1
 62
   256
176
     0
 40
1.0
176
     0
 90
        2
176
     1
  1
strokes_ogs.tif
176
     1
290
     0
176
     1
 40
1.0
176
     1
 40
1.0
176
     1
  0
VISUALSTYLE
  5
4A7
102
{ACAD_REACTORS
330
494
102
}
330
494
100
AcDbVisualStyle
  2
EdgeColorOff
 70
    22
177
     3
291
     1
 70
    58
 90
        2
176
     0
 90
        2
176
     0
 90
        0
176
     0
 90
        0
176
     0
 40
0.6
176
     0
 40
30.0
176
     0
 62
     7
420
 16777215
176
     0
 90
        1
176
     0
 90
        4
176
     0
 62
     7
176
     0
 62
   257
176
     0
 90
        1
176
     0
 90
        1
176
     0
 40
1.0
176
     0
 90
        8
176
     2
 62
     7
176
     0
 40
1.0
176
     0
 90
        1
176
     0
 90
        6
176
     0
 90
        2
176
     0
 62
     7
176
     0
 90
        5
176
     0
 90
        0
176
     0
 90
        0
176
     0
290
     0
176
     0
 90
        1
176
     0
 40
0.0
176
     0
 90
        0
176
     0
290
     0
176
     0
290
     1
176
     0
290
     1
176
     0
290
     0
176
     0
290
     0
176
     0
290
     0
176
     0
290
     0
176
     0
290
     0
176
     0
290
     0
176
     0
 90
       50
176
     0
 40
0.0
176
     0
 40
1.0
176
     0
 90
        0
176
     0
 62
    18
420
        0
176
     0
 90
       50
176
     0
 90
        3
176
     0
 62
     5
420
      255
176
     0
290
     0
176
     0
 90
       50
176
     0
 90
       50
176
     0
 90
       50
176
     0
290
     0
176
     0
 90
       50
176
     0
 62
   256
176
     0
 40
1.0
176
     0
 90
        2
176
     0
  1
strokes_ogs.tif
176
     0
290
     0
176
     0
 40
1.0
176
     0
 40
1.0
176
     0
  0
VISUALSTYLE
  5
4A3
102
{ACAD_REACTORS
330
494
102
}
330
494
100
AcDbVisualStyle
  2
Facepattern
 70
    15
177
     3
291
     1
 70
    58
 90
        2
176
     1
 90
        2
176
     1
 90
        0
176
     1
 90
        0
176
     1
 40
0.6
176
     1
 40
30.0
176
     1
 62
     7
420
 16777215
176
     1
 90
        1
176
     1
 90
        4
176
     1
 62
     7
176
     1
 62
   257
176
     1
 90
        1
176
     1
 90
        1
176
     1
 40
1.0
176
     1
 90
        8
176
     1
 62
     7
176
     1
 40
1.0
176
     1
 90
        1
176
     1
 90
        6
176
     1
 90
        2
176
     1
 62
     7
176
     1
 90
        5
176
     1
 90
        0
176
     1
 90
        0
176
     1
290
     0
176
     1
 90
        1
176
     1
 40
0.0
176
     1
 90
        0
176
     1
290
     0
176
     1
290
     1
176
     1
290
     1
176
     1
290
     0
176
     1
290
     0
176
     1
290
     0
176
     1
290
     0
176
     1
290
     0
176
     1
290
     0
176
     1
 90
       50
176
     1
 40
0.0
176
     1
 40
1.0
176
     1
 90
        0
176
     1
 62
    18
420
        0
176
     1
 90
       50
176
     1
 90
        3
176
     1
 62
     5
420
      255
176
     1
290
     0
176
     1
 90
       50
176
     1
 90
       50
176
     1
 90
       50
176
     1
290
     0
176
     1
 90
       50
176
     1
 62
   256
176
     0
 40
1.0
176
     0
 90
        2
176
     1
  1
strokes_ogs.tif
176
     1
290
     0
176
     1
 40
1.0
176
     1
 40
1.0
176
     1
  0
VISUALSTYLE
  5
495
102
{ACAD_REACTORS
330
494
102
}
330
494
100
AcDbVisualStyle
  2
Flat
 70
     0
177
     3
291
     1
 70
    58
 90
        2
176
     1
 90
        1
176
     1
 90
        1
176
     1
 90
        2
176
     1
 40
0.6
176
     1
 40
30.0
176
     1
 62
     7
420
 16777215
176
     1
 90
        0
176
     1
 90
        0
176
     1
 62
     7
176
     1
 62
   257
176
     1
 90
        1
176
     1
 90
        1
176
     1
 40
1.0
176
     1
 90
        8
176
     1
 62
     7
176
     1
 40
1.0
176
     1
 90
        1
176
     1
 90
        6
176
     1
 90
        2
176
     1
 62
     7
176
     1
 90
        5
176
     1
 90
        0
176
     1
 90
        0
176
     1
290
     0
176
     1
 90
       13
176
     1
 40
0.0
176
     1
 90
        0
176
     1
290
     0
176
     1
290
     1
176
     1
290
     1
176
     1
290
     0
176
     1
290
     0
176
     1
290
     0
176
     1
290
     0
176
     1
290
     0
176
     1
290
     0
176
     1
 90
       50
176
     1
 40
0.0
176
     1
 40
1.0
176
     1
 90
        0
176
     1
 62
    18
420
        0
176
     1
 90
       50
176
     1
 90
        3
176
     1
 62
     5
420
      255
176
     1
290
     0
176
     1
 90
       50
176
     1
 90
       50
176
     1
 90
       50
176
     1
290
     0
176
     1
 90
       50
176
     1
 62
   256
176
     0
 40
1.0
176
     0
 90
        2
176
     1
  1
strokes_ogs.tif
176
     1
290
     0
176
     1
 40
1.0
176
     1
 40
1.0
176
     1
  0
VISUALSTYLE
  5
496
102
{ACAD_REACTORS
330
494
102
}
330
494
100
AcDbVisualStyle
  2
FlatWithEdges
 70
     1
177
     3
291
     1
 70
    58
 90
        2
176
     1
 90
        1
176
     1
 90
        1
176
     1
 90
        2
176
     1
 40
0.6
176
     1
 40
30.0
176
     1
 62
     7
420
 16777215
176
     1
 90
        1
176
     1
 90
        0
176
     1
 62
     7
176
     1
 62
   257
176
     1
 90
        1
176
     1
 90
        1
176
     1
 40
1.0
176
     1
 90
        0
176
     1
 62
   257
176
     1
 40
1.0
176
     1
 90
        1
176
     1
 90
        6
176
     1
 90
        2
176
     1
 62
     7
176
     1
 90
        5
176
     1
 90
        0
176
     1
 90
        0
176
     1
290
     0
176
     1
 90
       13
176
     1
 40
0.0
176
     1
 90
        0
176
     1
290
     0
176
     1
290
     1
176
     1
290
     1
176
     1
290
     0
176
     1
290
     0
176
     1
290
     0
176
     1
290
     0
176
     1
290
     0
176
     1
290
     0
176
     1
 90
       50
176
     1
 40
0.0
176
     1
 40
1.0
176
     1
 90
        0
176
     1
 62
    18
420
        0
176
     1
 90
       50
176
     1
 90
        3
176
     1
 62
     5
420
      255
176
     1
290
     0
176
     1
 90
       50
176
     1
 90
       50
176
     1
 90
       50
176
     1
290
     0
176
     1
 90
       50
176
     1
 62
   256
176
     0
 40
1.0
176
     0
 90
        2
176
     1
  1
strokes_ogs.tif
176
     1
290
     0
176
     1
 40
1.0
176
     1
 40
1.0
176
     1
  0
VISUALSTYLE
  5
497
102
{ACAD_REACTORS
330
494
102
}
330
494
100
AcDbVisualStyle
  2
Gouraud
 70
     2
177
     3
291
     1
 70
    58
 90
        2
176
     1
 90
        2
176
     1
 90
        1
176
     1
 90
        2
176
     1
 40
0.6
176
     1
 40
30.0
176
     1
 62
     7
420
 16777215
176
     1
 90
        0
176
     1
 90
        0
176
     1
 62
     7
176
     1
 62
   257
176
     1
 90
        1
176
     1
 90
        1
176
     1
 40
1.0
176
     1
 90
        0
176
     1
 62
     7
176
     1
 40
1.0
176
     1
 90
        1
176
     1
 90
        6
176
     1
 90
        2
176
     1
 62
     7
176
     1
 90
        5
176
     1
 90
        0
176
     1
 90
        0
176
     1
290
     0
176
     1
 90
       13
176
     1
 40
0.0
176
     1
 90
        0
176
     1
290
     0
176
     1
290
     1
176
     1
290
     1
176
     1
290
     0
176
     1
290
     0
176
     1
290
     0
176
     1
290
     0
176
     1
290
     0
176
     1
290
     0
176
     1
 90
       50
176
     1
 40
0.0
176
     1
 40
1.0
176
     1
 90
        0
176
     1
 62
    18
420
        0
176
     1
 90
       50
176
     1
 90
        3
176
     1
 62
     5
420
      255
176
     1
290
     0
176
     1
 90
       50
176
     1
 90
       50
176
     1
 90
       50
176
     1
290
     0
176
     1
 90
       50
176
     1
 62
   256
176
     0
 40
1.0
176
     0
 90
        2
176
     1
  1
strokes_ogs.tif
176
     1
290
     0
176
     1
 40
1.0
176
     1
 40
1.0
176
     1
  0
VISUALSTYLE
  5
498
102
{ACAD_REACTORS
330
494
102
}
330
494
100
AcDbVisualStyle
  2
GouraudWithEdges
 70
     3
177
     3
291
     1
 70
    58
 90
        2
176
     1
 90
        2
176
     1
 90
        1
176
     1
 90
        2
176
     1
 40
0.6
176
     1
 40
30.0
176
     1
 62
     7
420
 16777215
176
     1
 90
        1
176
     1
 90
        0
176
     1
 62
     7
176
     1
 62
   257
176
     1
 90
        1
176
     1
 90
        1
176
     1
 40
1.0
176
     1
 90
        0
176
     1
 62
   257
176
     1
 40
1.0
176
     1
 90
        1
176
     1
 90
        6
176
     1
 90
        2
176
     1
 62
     7
176
     1
 90
        5
176
     1
 90
        0
176
     1
 90
        0
176
     1
290
     0
176
     1
 90
       13
176
     1
 40
0.0
176
     1
 90
        0
176
     1
290
     0
176
     1
290
     1
176
     1
290
     1
176
     1
290
     0
176
     1
290
     0
176
     1
290
     0
176
     1
290
     0
176
     1
290
     0
176
     1
290
     0
176
     1
 90
       50
176
     1
 40
0.0
176
     1
 40
1.0
176
     1
 90
        0
176
     1
 62
    18
420
        0
176
     1
 90
       50
176
     1
 90
        3
176
     1
 62
     5
420
      255
176
     1
290
     0
176
     1
 90
       50
176
     1
 90
       50
176
     1
 90
       50
176
     1
290
     0
176
     1
 90
       50
176
     1
 62
   256
176
     0
 40
1.0
176
     0
 90
        2
176
     1
  1
strokes_ogs.tif
176
     1
290
     0
176
     1
 40
1.0
176
     1
 40
1.0
176
     1
  0
VISUALSTYLE
  5
49B
102
{ACAD_REACTORS
330
494
102
}
330
494
100
AcDbVisualStyle
  2
Hidden
 70
     6
177
     3
291
     0
 70
    58
 90
        1
176
     1
 90
        2
176
     1
 90
        2
176
     1
 90
        0
176
     1
 40
0.6
176
     1
 40
30.0
176
     1
 62
     7
420
 16777215
176
     1
 90
        2
176
     1
 90
        2
176
     1
 62
     7
176
     1
 62
   257
176
     1
 90
        2
176
     1
 90
        1
176
     1
 40
40.0
176
     1
 90
        0
176
     1
 62
   257
176
     1
 40
1.0
176
     1
 90
        1
176
     1
 90
        6
176
     1
 90
        2
176
     1
 62
     7
176
     1
 90
        3
176
     1
 90
        0
176
     1
 90
        0
176
     1
290
     0
176
     1
 90
        1
176
     1
 40
0.0
176
     1
 90
        0
176
     1
290
     0
176
     1
290
     1
176
     1
290
     1
176
     1
290
     0
176
     1
290
     0
176
     1
290
     0
176
     1
290
     0
176
     1
290
     0
176
     1
290
     0
176
     1
 90
       50
176
     1
 40
0.0
176
     1
 40
1.0
176
     1
 90
        0
176
     1
 62
    18
420
        0
176
     1
 90
       50
176
     1
 90
        3
176
     1
 62
     5
420
      255
176
     1
290
     0
176
     1
 90
       50
176
     1
 90
       50
176
     1
 90
       50
176
     1
290
     0
176
     1
 90
       50
176
     1
 62
   256
176
     0
 40
1.0
176
     0
 90
        2
176
     1
  1
strokes_ogs.tif
176
     1
290
     0
176
     1
 40
1.0
176
     1
 40
1.0
176
     1
  0
VISUALSTYLE
  5
4A5
102
{ACAD_REACTORS
330
494
102
}
330
494
100
AcDbVisualStyle
  2
JitterOff
 70
    20
177
     3
291
     1
 70
    58
 90
        2
176
     0
 90
        2
176
     0
 90
        0
176
     0
 90
        0
176
     0
 40
0.6
176
     0
 40
30.0
176
     0
 62
     7
420
 16777215
176
     0
 90
        1
176
     0
 90
        4
176
     0
 62
     7
176
     0
 62
   257
176
     0
 90
        1
176
     0
 90
        1
176
     0
 40
1.0
176
     0
 90
       10
176
     2
 62
     7
176
     0
 40
1.0
176
     0
 90
        1
176
     0
 90
        6
176
     0
 90
        2
176
     0
 62
     7
176
     0
 90
        5
176
     0
 90
        0
176
     0
 90
        0
176
     0
290
     0
176
     0
 90
        1
176
     0
 40
0.0
176
     0
 90
        0
176
     0
290
     0
176
     0
290
     1
176
     0
290
     1
176
     0
290
     0
176
     0
290
     0
176
     0
290
     0
176
     0
290
     0
176
     0
290
     0
176
     0
290
     0
176
     0
 90
       50
176
     0
 40
0.0
176
     0
 40
1.0
176
     0
 90
        0
176
     0
 62
    18
420
        0
176
     0
 90
       50
176
     0
 90
        3
176
     0
 62
     5
420
      255
176
     0
290
     0
176
     0
 90
       50
176
     0
 90
       50
176
     0
 90
       50
176
     0
290
     0
176
     0
 90
       50
176
     0
 62
   256
176
     0
 40
1.0
176
     0
 90
        2
176
     0
  1
strokes_ogs.tif
176
     0
290
     0
176
     0
 40
1.0
176
     0
 40
1.0
176
     0
  0
VISUALSTYLE
  5
4A2
102
{ACAD_REACTORS
330
494
102
}
330
494
100
AcDbVisualStyle
  2
Linepattern
 70
    14
177
     3
291
     1
 70
    58
 90
        2
176
     1
 90
        2
176
     1
 90
        0
176
     1
 90
        0
176
     1
 40
0.6
176
     1
 40
30.0
176
     1
 62
     7
420
 16777215
176
     1
 90
        1
176
     1
 90
        4
176
     1
 62
     7
176
     1
 62
   257
176
     1
 90
        7
176
     1
 90
        7
176
     1
 40
1.0
176
     1
 90
        8
176
     1
 62
     7
176
     1
 40
1.0
176
     1
 90
        1
176
     1
 90
        6
176
     1
 90
        2
176
     1
 62
     7
176
     1
 90
        5
176
     1
 90
        0
176
     1
 90
        0
176
     1
290
     0
176
     1
 90
        1
176
     1
 40
0.0
176
     1
 90
        0
176
     1
290
     0
176
     1
290
     1
176
     1
290
     1
176
     1
290
     0
176
     1
290
     0
176
     1
290
     0
176
     1
290
     0
176
     1
290
     0
176
     1
290
     0
176
     1
 90
       50
176
     1
 40
0.0
176
     1
 40
1.0
176
     1
 90
        0
176
     1
 62
    18
420
        0
176
     1
 90
       50
176
     1
 90
        3
176
     1
 62
     5
420
      255
176
     1
290
     0
176
     1
 90
       50
176
     1
 90
       50
176
     1
 90
       50
176
     1
290
     0
176
     1
 90
       50
176
     1
 62
   256
176
     0
 40
1.0
176
     0
 90
        2
176
     1
  1
strokes_ogs.tif
176
     1
290
     0
176
     1
 40
1.0
176
     1
 40
1.0
176
     1
  0
VISUALSTYLE
  5
4A6
102
{ACAD_REACTORS
330
494
102
}
330
494
100
AcDbVisualStyle
  2
OverhangOff
 70
    21
177
     3
291
     1
 70
    58
 90
        2
176
     0
 90
        2
176
     0
 90
        0
176
     0
 90
        0
176
     0
 40
0.6
176
     0
 40
30.0
176
     0
 62
     7
420
 16777215
176
     0
 90
        1
176
     0
 90
        4
176
     0
 62
     7
176
     0
 62
   257
176
     0
 90
        1
176
     0
 90
        1
176
     0
 40
1.0
176
     0
 90
        9
176
     2
 62
     7
176
     0
 40
1.0
176
     0
 90
        1
176
     0
 90
        6
176
     0
 90
        2
176
     0
 62
     7
176
     0
 90
        5
176
     0
 90
        0
176
     0
 90
        0
176
     0
290
     0
176
     0
 90
        1
176
     0
 40
0.0
176
     0
 90
        0
176
     0
290
     0
176
     0
290
     1
176
     0
290
     1
176
     0
290
     0
176
     0
290
     0
176
     0
290
     0
176
     0
290
     0
176
     0
290
     0
176
     0
290
     0
176
     0
 90
       50
176
     0
 40
0.0
176
     0
 40
1.0
176
     0
 90
        0
176
     0
 62
    18
420
        0
176
     0
 90
       50
176
     0
 90
        3
176
     0
 62
     5
420
      255
176
     0
290
     0
176
     0
 90
       50
176
     0
 90
       50
176
     0
 90
       50
176
     0
290
     0
176
     0
 90
       50
176
     0
 62
   256
176
     0
 40
1.0
176
     0
 90
        2
176
     0
  1
strokes_ogs.tif
176
     0
290
     0
176
     0
 40
1.0
176
     0
 40
1.0
176
     0
  0
VISUALSTYLE
  5
49D
102
{ACAD_REACTORS
330
494
102
}
330
494
100
AcDbVisualStyle
  2
Realistic
 70
     8
177
     3
291
     0
 70
    58
 90
        2
176
     1
 90
        3
176
     1
 90
        0
176
     1
 90
        2
176
     1
 40
0.6
176
     1
 40
30.0
176
     1
 62
     7
420
 16777215
176
     1
 90
        0
176
     1
 90
        0
176
     1
 62
     7
176
     1
 62
   257
176
     1
 90
        1
176
     1
 90
        1
176
     1
 40
1.0
176
     1
 90
        8
176
     1
 62
   257
176
     1
 40
1.0
176
     1
 90
        1
176
     1
 90
        6
176
     1
 90
        2
176
     1
 62
     7
176
     1
 90
        3
176
     1
 90
        0
176
     1
 90
        0
176
     1
290
     0
176
     1
 90
       13
176
     1
 40
0.0
176
     1
 90
        0
176
     1
290
     0
176
     1
290
     1
176
     1
290
     1
176
     1
290
     0
176
     1
290
     0
176
     1
290
     0
176
     1
290
     0
176
     1
290
     0
176
     1
290
     0
176
     1
 90
       50
176
     1
 40
0.0
176
     1
 40
1.0
176
     1
 90
        0
176
     1
 62
    18
420
        0
176
     1
 90
       50
176
     1
 90
        3
176
     1
 62
     5
420
      255
176
     1
290
     0
176
     1
 90
       50
176
     1
 90
       50
176
     1
 90
       50
176
     1
290
     0
176
     1
 90
       50
176
     1
 62
   256
176
     0
 40
1.0
176
     0
 90
        2
176
     1
  1
strokes_ogs.tif
176
     1
290
     0
176
     1
 40
1.0
176
     1
 40
1.0
176
     1
  0
VISUALSTYLE
  5
4AC
102
{ACAD_REACTORS
330
494
102
}
330
494
100
AcDbVisualStyle
  2
Shaded
 70
    27
177
     3
291
     0
 70
    58
 90
        2
176
     1
 90
        2
176
     1
 90
        1
176
     1
 90
        2
176
     1
 40
0.6
176
     1
 40
30.0
176
     1
 62
     7
420
 16777215
176
     1
 90
        0
176
     1
 90
        4
176
     1
 62
     7
176
     1
 62
   257
176
     1
 90
        1
176
     1
 90
        1
176
     1
 40
1.0
176
     1
 90
        8
176
     1
 62
   257
176
     1
 40
1.0
176
     1
 90
        1
176
     1
 90
        6
176
     1
 90
        2
176
     1
 62
     8
420
  7895160
176
     1
 90
        3
176
     1
 90
        0
176
     1
 90
        0
176
     1
290
     0
176
     1
 90
        5
176
     1
 40
0.0
176
     1
 90
        0
176
     1
290
     0
176
     1
290
     1
176
     1
290
     1
176
     1
290
     0
176
     1
290
     0
176
     1
290
     0
176
     1
290
     0
176
     1
290
     0
176
     1
290
     0
176
     1
 90
       50
176
     1
 40
0.0
176
     1
 40
1.0
176
     1
 90
        0
176
     1
 62
    18
420
        0
176
     1
 90
       50
176
     1
 90
        3
176
     1
 62
     5
420
      255
176
     1
290
     0
176
     1
 90
       50
176
     1
 90
       50
176
     1
 90
       50
176
     1
290
     0
176
     1
 90
       50
176
     1
 62
   256
176
     0
 40
1.0
176
     0
 90
        2
176
     1
  1
strokes_ogs.tif
176
     1
290
     0
176
     1
 40
1.0
176
     1
 40
1.0
176
     1
  0
VISUALSTYLE
  5
4AB
102
{ACAD_REACTORS
330
494
102
}
330
494
100
AcDbVisualStyle
  2
Shaded with edges
 70
    26
177
     3
291
     0
 70
    58
 90
        2
176
     1
 90
        2
176
     1
 90
        1
176
     1
 90
        2
176
     1
 40
0.6
176
     1
 40
30.0
176
     1
 62
     7
420
 16777215
176
     1
 90
        1
176
     1
 90
       10
176
     1
 62
     7
176
     1
 62
   257
176
     1
 90
        2
176
     1
 90
        1
176
     1
 40
1.0
176
     1
 90
        8
176
     1
 62
   257
176
     1
 40
1.0
176
     1
 90
        1
176
     1
 90
        6
176
     1
 90
        2
176
     1
 62
     7
176
     1
 90
        3
176
     1
 90
        0
176
     1
 90
        0
176
     1
290
     0
176
     1
 90
        5
176
     1
 40
0.0
176
     1
 90
        0
176
     1
290
     0
176
     1
290
     1
176
     1
290
     1
176
     1
290
     0
176
     1
290
     0
176
     1
290
     0
176
     1
290
     0
176
     1
290
     0
176
     1
290
     0
176
     1
 90
       50
176
     1
 40
0.0
176
     1
 40
1.0
176
     1
 90
        0
176
     1
 62
    18
420
        0
176
     1
 90
       50
176
     1
 90
        3
176
     1
 62
     5
420
      255
176
     1
290
     0
176
     1
 90
       50
176
     1
 90
       50
176
     1
 90
       50
176
     1
290
     0
176
     1
 90
       50
176
     1
 62
   256
176
     0
 40
1.0
176
     0
 90
        2
176
     1
  1
strokes_ogs.tif
176
     1
290
     0
176
     1
 40
1.0
176
     1
 40
1.0
176
     1
  0
VISUALSTYLE
  5
4A8
102
{ACAD_REACTORS
330
494
102
}
330
494
100
AcDbVisualStyle
  2
Shades of Gray
 70
    23
177
     3
291
     0
 70
    58
 90
        2
176
     1
 90
        2
176
     1
 90
        3
176
     1
 90
        0
176
     1
 40
0.6
176
     1
 40
30.0
176
     1
 62
     7
420
 16777215
176
     1
 90
        2
176
     1
 90
        2
176
     1
 62
     7
176
     1
 62
     7
176
     1
 90
        1
176
     1
 90
        1
176
     1
 40
40.0
176
     1
 90
        8
176
     1
 62
     7
176
     1
 40
1.0
176
     1
 90
        1
176
     1
 90
        6
176
     1
 90
        2
176
     1
 62
     7
176
     1
 90
        3
176
     1
 90
        0
176
     1
 90
        0
176
     1
290
     0
176
     1
 90
        1
176
     1
 40
0.0
176
     1
 90
        0
176
     1
290
     0
176
     1
290
     1
176
     1
290
     1
176
     1
290
     0
176
     1
290
     0
176
     1
290
     0
176
     1
290
     0
176
     1
290
     0
176
     1
290
     0
176
     1
 90
       50
176
     1
 40
0.0
176
     1
 40
1.0
176
     1
 90
        0
176
     1
 62
    18
420
        0
176
     1
 90
       50
176
     1
 90
        3
176
     1
 62
     5
420
      255
176
     1
290
     0
176
     1
 90
       50
176
     1
 90
       50
176
     1
 90
       50
176
     1
290
     0
176
     1
 90
       50
176
     1
 62
   256
176
     0
 40
1.0
176
     0
 90
        2
176
     1
  1
strokes_ogs.tif
176
     1
290
     0
176
     1
 40
1.0
176
     1
 40
1.0
176
     1
  0
VISUALSTYLE
  5
4A9
102
{ACAD_REACTORS
330
494
102
}
330
494
100
AcDbVisualStyle
  2
Sketchy
 70
    24
177
     3
291
     0
 70
    58
 90
        1
176
     1
 90
        2
176
     1
 90
        2
176
     1
 90
        0
176
     1
 40
0.6
176
     1
 40
30.0
176
     1
 62
     7
420
 16777215
176
     1
 90
        2
176
     1
 90
        2
176
     1
 62
     7
176
     1
 62
     7
176
     1
 90
        1
176
     1
 90
        1
176
     1
 40
40.0
176
     1
 90
       11
176
     1
 62
     7
176
     1
 40
1.0
176
     1
 90
        1
176
     1
 90
        6
176
     1
 90
        2
176
     1
 62
     7
176
     1
 90
        6
176
     1
 90
        0
176
     1
 90
        0
176
     1
290
     0
176
     1
 90
        1
176
     1
 40
0.0
176
     1
 90
        0
176
     1
290
     0
176
     1
290
     1
176
     1
290
     1
176
     1
290
     0
176
     1
290
     0
176
     1
290
     0
176
     1
290
     0
176
     1
290
     0
176
     1
290
     0
176
     1
 90
       50
176
     1
 40
0.0
176
     1
 40
1.0
176
     1
 90
        0
176
     1
 62
    18
420
        0
176
     1
 90
       50
176
     1
 90
        3
176
     1
 62
     5
420
      255
176
     1
290
     0
176
     1
 90
       50
176
     1
 90
       50
176
     1
 90
       50
176
     1
290
     0
176
     1
 90
       50
176
     1
 62
   256
176
     0
 40
1.0
176
     0
 90
        2
176
     1
  1
strokes_ogs.tif
176
     1
290
     0
176
     1
 40
1.0
176
     1
 40
1.0
176
     1
  0
VISUALSTYLE
  5
4A1
102
{ACAD_REACTORS
330
494
102
}
330
494
100
AcDbVisualStyle
  2
Thicken
 70
    13
177
     3
291
     1
 70
    58
 90
        2
176
     1
 90
        2
176
     1
 90
        0
176
     1
 90
        0
176
     1
 40
0.6
176
     1
 40
30.0
176
     1
 62
     7
420
 16777215
176
     1
 90
        1
176
     1
 90
        4
176
     1
 62
     7
176
     1
 62
   257
176
     1
 90
        1
176
     1
 90
        1
176
     1
 40
1.0
176
     1
 90
       12
176
     1
 62
     7
176
     1
 40
1.0
176
     1
 90
        1
176
     1
 90
        6
176
     1
 90
        2
176
     1
 62
     7
176
     1
 90
        5
176
     1
 90
        0
176
     1
 90
        0
176
     1
290
     0
176
     1
 90
        1
176
     1
 40
0.0
176
     1
 90
        0
176
     1
290
     0
176
     1
290
     1
176
     1
290
     1
176
     1
290
     0
176
     1
290
     0
176
     1
290
     0
176
     1
290
     0
176
     1
290
     0
176
     1
290
     0
176
     1
 90
       50
176
     1
 40
0.0
176
     1
 40
1.0
176
     1
 90
        0
176
     1
 62
    18
420
        0
176
     1
 90
       50
176
     1
 90
        3
176
     1
 62
     5
420
      255
176
     1
290
     0
176
     1
 90
       50
176
     1
 90
       50
176
     1
 90
       50
176
     1
290
     0
176
     1
 90
       50
176
     1
 62
   256
176
     0
 40
1.0
176
     0
 90
        2
176
     1
  1
strokes_ogs.tif
176
     1
290
     0
176
     1
 40
1.0
176
     1
 40
1.0
176
     1
  0
VISUALSTYLE
  5
49A
102
{ACAD_REACTORS
330
494
102
}
330
494
100
AcDbVisualStyle
  2
Wireframe
 70
     5
177
     3
291
     0
 70
    58
 90
        0
176
     1
 90
        2
176
     1
 90
        0
176
     1
 90
        0
176
     1
 40
0.6
176
     1
 40
30.0
176
     1
 62
     7
420
 16777215
176
     1
 90
        1
176
     1
 90
        4
176
     1
 62
     7
176
     1
 62
   257
176
     1
 90
        1
176
     1
 90
        1
176
     1
 40
1.0
176
     1
 90
        0
176
     1
 62
   257
176
     1
 40
1.0
176
     1
 90
        1
176
     1
 90
        6
176
     1
 90
        2
176
     1
 62
     7
176
     1
 90
        3
176
     1
 90
        0
176
     1
 90
        0
176
     1
290
     0
176
     1
 90
        1
176
     1
 40
0.0
176
     1
 90
        0
176
     1
290
     0
176
     1
290
     1
176
     1
290
     1
176
     1
290
     0
176
     1
290
     0
176
     1
290
     0
176
     1
290
     0
176
     1
290
     0
176
     1
290
     0
176
     1
 90
       50
176
     1
 40
0.0
176
     1
 40
1.0
176
     1
 90
        0
176
     1
 62
    18
420
        0
176
     1
 90
       50
176
     1
 90
        3
176
     1
 62
     5
420
      255
176
     1
290
     0
176
     1
 90
       50
176
     1
 90
       50
176
     1
 90
       50
176
     1
290
     0
176
     1
 90
       50
176
     1
 62
   256
176
     0
 40
1.0
176
     0
 90
        2
176
     1
  1
strokes_ogs.tif
176
     1
290
     0
176
     1
 40
1.0
176
     1
 40
1.0
176
     1
  0
VISUALSTYLE
  5
4AA
102
{ACAD_REACTORS
330
494
102
}
330
494
100
AcDbVisualStyle
  2
X-Ray
 70
    25
177
     3
291
     0
 70
    58
 90
        2
176
     1
 90
        2
176
     1
 90
        1
176
     1
 90
        1
176
     1
 40
0.5
176
     1
 40
30.0
176
     1
 62
     7
420
 16777215
176
     1
 90
        1
176
     1
 90
        0
176
     1
 62
     7
176
     1
 62
   257
176
     1
 90
        1
176
     1
 90
        1
176
     1
 40
1.0
176
     1
 90
        8
176
     1
 62
     7
176
     1
 40
1.0
176
     1
 90
        1
176
     1
 90
        6
176
     1
 90
        2
176
     1
 62
     7
176
     1
 90
        3
176
     1
 90
        0
176
     1
 90
        0
176
     1
290
     0
176
     1
 90
       13
176
     1
 40
0.0
176
     1
 90
        0
176
     1
290
     0
176
     1
290
     1
176
     1
290
     1
176
     1
290
     0
176
     1
290
     0
176
     1
290
     0
176
     1
290
     0
176
     1
290
     0
176
     1
290
     0
176
     1
 90
       50
176
     1
 40
0.0
176
     1
 40
1.0
176
     1
 90
        0
176
     1
 62
    18
420
        0
176
     1
 90
       50
176
     1
 90
        3
176
     1
 62
     5
420
      255
176
     1
290
     0
176
     1
 90
       50
176
     1
 90
       50
176
     1
 90
       50
176
     1
290
     0
176
     1
 90
       50
176
     1
 62
   256
176
     0
 40
1.0
176
     0
 90
        2
176
     1
  1
strokes_ogs.tif
176
     1
290
     0
176
     1
 40
1.0
176
     1
 40
1.0
176
     1
  0
DICTIONARYVAR
  5
4C1
102
{ACAD_REACTORS
330
4C0
102
}
330
4C0
100
DictionaryVariables
280
     0
  1
1:1
  0
DICTIONARYVAR
  5
4C5
102
{ACAD_REACTORS
330
4C0
102
}
330
4C0
100
DictionaryVariables
280
     0
  1
Standard
  0
XRECORD
  5
4BA
102
{ACAD_REACTORS
330
4B3
102
}
330
4B3
100
AcDbXrecord
280
     1
300
MC_VERSION_DATA
 90
       95
310
0600000002000000570000001C000000E404000000000000000000007801936764E5D8CF7A8393818115C460606066E0646662626666706006F214793899F8DE3171E725E6E53B3BBA2878E6951050AF75FEFFFFFF520032DE0F3057000000
  0
XRECORD
  5
4B4
102
{ACAD_REACTORS
330
4B3
102
}
330
4B3
100
AcDbXrecord
280
     1
300
MCS_DOCUMENT_ID
 90
       61
310
0600000002000000150000001C000000E404000000000000000000007801E3BDF2D26EE1945B828EFB2D73A62C3CB048F33F10000079F90C8A15000000
  0
XRECORD
  5
4B8
102
{ACAD_REACTORS
330
4B3
102
}
330
4B3
100
AcDbXrecord
280
     1
300
MCS_PARAMS_DATA
 90
     3313
310
0600000002000000F64B00001C000000E404000000000000000000007801C55C5B6C5CC519DE9D595FD6B9DF494B53970A1A6F4A58DF92A6426A1A1210527090E23EF0543976A2BA75E25CAC160A6DA92AF5A55255A96AD556551F4A49A0CF15A03EC0438190865E482021147221409310B6900B3826B1FB7F7366CEFC73E6
310
1CAFBDDE3D9B07D8FF3F73CEF7DFE6FB67E6ECBA757EA3143929F767A4FCCE8636299AA49C90529036BB402C105929F279912F89C6DEAF6FD8BC69AB14A46C51EAC2B9898909BA39945F872C1FCD848A834A91A13B1AD51D6D5266E8A9FAF627E9AABE92BD45CA6F03BD81A3CFC24D59D990C96408C7E066656E0232E13A03
310
14B0AB01724443F05CC3F08780DFC8F19B03FC710A073DC8486413411B49060E3311A05C24C45064703B01D7CCE196A818E5C59C9268B967CBD6DED68ED59DC52EEB78BEF08E09F8223D745649346F1DE9DB35D0B777C089FC5FC3C8EB60BF1A286CF47FE3467F17CC59C5CD990B0CD948C1A77FB9F5CA0E4F479188EA541E
310
3C25A2E22BC99C8892456878B2821857F6B05492C2AD881B41409C21325211340605C9C6DC6006EC49AC088A0CCBB25B1159B72248E415019155047D5453031360047082A7405D92B72AB0F03379693EAB50870260AC609E2C6F6510BB3D081DFE4EF5EFECD71494A7B3590EC7F12C5B25CB32539229914732934ECE22AF1D
310
D259AC8B7B7649E437DE7BDFA69EADF76EE95186E95A7ED74C032DBFA66A9BF1CEF341B19B78E45DDED9EF56FE29189043E4814BF734E1FF34659991678231F23A51010DA578E8294D435524988818E84710A7B2643B4F7C134F5CC6936D1E4176D01398C4D0A83AE0A6BDC86B0BB5C3E1E8299D70A5A945AC12322FE697C4
310
9C8DC3BBBE34D2BA77FBEEA1BEFEED79D15C120DF70F0FEE1A093EF60C8FF47F4BCAB3B0ED666EDB17F5733E2B445B5E2C298985C507BB8BEBBA3A3A3774178B1D777FA5B36B9D327BBE1ED84C030BC74C9EDAB5B64D88BC405AEF1E1CD9D73A34B88F70838775AD5DDBD1B9B6BBABBB73A0ABA37F5D7BE0E757F57D1DB80F
310
037BFBB60D6D6F1DDED1DA3B3CB47D6FDF2EF8A0AD5933506CEF2FF6F7ADD9D6B56D5DFF9A60D6A95222FF670B51F8295953F8455019945B7EE9315C7A8AFEC352DE9D4B4A5050256AA6D1B42D5F0C265BEED4473538E9811F770DEFDCDD3732B86D706870E4A1D69DC303E45F6349C807B6EFCB8B8692103DC352AE816545
310
9E9E798813B5E9A692C86DD9B1A355A5424F8E0BF018466AF90D150136590E2905AA568F782650907D5A7180140B84AD0159F8156902B8F63BDA8BE1A72E29AF48322EA98B5F578631B6F5489B26184C63434803DB221A328E6B58DEAED6DB808FEB6DC068BD0DF8A4DE065CABB7018B3045EB390B3EAD7704C6EA6DC07518
310
10B79C17773A0DB6C361F03BDD064B22C8C7303844629E5064B47323116EB9039777E096BB70247238880C6E39831B9F221C81B3E543C57019D4736C30574EE2DD4AD73B12B9771099772B997713E97A974DF4CECD5D9582B938116EC00926492C777A7F676A8F441E4C882C98032C983211AE26DE8974E196022EC7174366
310
F9AE62C95769E105B5C4B012E2E82ED8CD3516C5E34D519CF0D1F6765A8551C6CC0505130A3E8ABEC46EF81CED54DC1DA04AB7BC4DB0CA082453194AB29B82400C2B438BA6322032B88FE093B3E13470C11297490C8EEF78E88158D51A8AD42283A38F61044E78707A57F8BBDFE2DF2167F36975041D1DA7FCF59430C35792
310
05112533A905D5D3CAAB4759DBB4CA160F3E9309466F934A1794E7E1154C402D3088858048DCDF7EA3E7FECD5B7A7B376D5480CBF43A7E5E49CCBE6BEB37D945B2402FC65F52AB73B67E7F3A58AE93F37A04F6B7011D680556EBCCA2819BC8A21C320F385BBDB4EE56E6E32CE2CB18E358AD7676B4C7C096B1674BAF7B1278
310
1E906198B0DF8681EA696AF34D20563061CAB731C0DB01185B8B0DCA46538BD880EB0E2C6FC3120B40E62289BC162112587895C11513E18290E892090EBF46A9321968C513E0BB89A0AE8F2431B88A7DFC9E07A7BD0A8E668E3AF3CDEA083A3A8ECFB770A00AB53712018F2859D8DB3D93C2E4D422CB77A40BB73A5DB807A7
310
0857A5727AC8838BE45965D0D3D5B29CBEEF99145F4E558AC0C3E9C23D922EDC0FD285FBA107E7958EEDE721E98018A3E3AAC64E7F5C166D7ABA81B65C437BB31D766C74A6ED6E1FBC2766B7AFDAD87156F9771BF44A2A724C461AB43EE729AAFB710D63E2111810BBA3ABC9AE6037E09AB9BF3AB40BE8309F8736AB64CAB2
310
BE7E3364E5AC569CA6976081AF5A311628A8EF68C5B3A4609E3E86AC3AA156E3E83562F4B5A292099A878C61EB3B549CF92354989982613F016CE7AD5A4D09AA1F5126387AAD451EE384D9C035A925859E39C1AA865EE9A9B8DA21CEE289167F7CF1D4C4BC7A125EC5AED5D8BB0B5A9D9144D134CFA71BF85A8D44BE568348
310
F6AA55A2F3CAEACF6982FD29118CC249D3CBF852A586F278BA70FBD3853B90085793EDE51E143F0AD06C6B4CB2242BDDBDD1419166C2865E85F9CE1648F3CBF54B2E655D5432557AB8C599EEE6E763403914E55050D879E2BFFA30F366F009F0CB378371CA9B99D05949929DD07465EA8797A3808B6B06B9536E64AF9C844C
310
903AF2F3709D3783A318A078E4F37AEBBCEC2DD1B228B722F785DC2DB9D64C476675A63353CC74E937B1FA39BFA7DB58A6AFC19E49583A4A9B6110A6BA038D3C80418F79D091B18A763C1D8524AA5361F194EC4CC4B23EDBA3192533E95398E41423EB6DCA1C239B4DBF91D13F6D762A6897D7013D496371DC8BECCAA7D45E
310
0C251095ABC98AA38E1B6540CD3DACF829EF15C38D27C2B92DA64A071D13897001094F16523EC1C9E5A99FF465029665AB5B13C49AF8984D174EA40B273D389D33BB29A272F6749622C2719C22AC925104534E7A8CF33714555C6B3CF3BE4BE0AF28994CA9B8353E0F28878DD26D8D2F007FBAAD11BD305CEB4EAB35BE08B8
310
B8D678FEB81BD9134AB6ADF10A644BBEF9C2334A81E4EAA6772450D87DD2AF49C178F020A0EBD3055FF292CC5B8AB3FC4114C86BA708ACDB15F49C43C04EBBE7FCBD0CA8A1CB2AF59CC3897035E1E39713E16AD873FE91085A131FFF19C04DBEDBF8D75406FD3B3A2842E56C8ABE82A171BC3BF89ECB0E0F287926BC7B0450
310
75E4DDA3C09F2EEF56BE2579157071BCBBE7881BD93E255BDE7D04B225A07C61BD5230DE1DBA8C1158736B225E412358525F03747D78F79897E472BCCBAF5BAF2BA0DDE3804E9B765F2F035A65DA3D910857134A7A2311AE52DA8D6E0E9C1341735A873DD47F12A16BE2E99BE9C275792B70532835F1AEDB838B7404B509F7
310
74C449519D9AA19EB28205FF5B08785CE3F9307262735AC933693C270155C7C6730AF8E9359ED3808B6B3CA387DDC6734EC9B6F1C897238DE72006D89713F9C2E58B91C6F3388D608DE70CA0A7DA7866D30F8008DC16BEAA2D26A2AAB848F4108A0CF46D0F54D7A73989E2C56D75B6B8431D2F6EAB64C5CD94644C04869974
310
1626C5B6A280378D1BEE62BCE2C3917700E714386FAA719B1D7E7D464DF7DD444F8317374E8CAA75BEF65E19D0F8F0523EC21D7470DCC60B8CAEF29753FC38EF4760CFDBF99B4673F680D0869F6742513F06849341B61DF57EE3400A02734628D75C0DBC8B68A868B98655ECA330208EA3C6F1B52E3DF1E8849E2433679564
310
431A886148B568E62C4406F75F64308EFD2F9D7039EA6D259B5B2BF91AD8396F72B01004EFC5CD6C88F911E8CCDF849C077E5C64E9488747967101058B73015D99FA9B900B808B63FFB117DCC85E50324556799F2F34BC086EC70CD18A4318C0D9FF2AB6807CDB718046B0A4BE0FE8B4D9FFA207EA504E3D7E65FA014C7226
310
B329B0E8D703AAFEBAA304E869379E693123CD68457958A4FF2F11AE86ECFF6119D078F6E7138AD87FF2370F86D6E1E34789702D76FED2134932CCA824CB8C811832A3160D33426421BD940847AF6F0C11D33DEECB1CFE9B7175D1F926045DE5BD8DBFBDBE9C081764D0049324E6DDB40A8607F34A225C4D16463974B5B836
310
F3B3A32E193EACE499B49986C93A780A6DA631A981D7A6CD34012EAECDFCF23937B23F51B26D337F80CCDBCC36A5C0ECD07DE7E7A7236D663D8D6033A419D0536D33E07F56B8C4CA7C0D48229F9610695A461A0883CE7B494E8DD95B004DF38E8247AB09FE45AC1A52EDAC32A0861DD8DA85D8A76276989D08579353913989
310
700119397510D9BB4CAB9DF096393711B4263ECE4B176E7EBA700B3C389DB3F0B5335AA6A7234288EA142D784A9083AFB414616018456CF64C3293C4CD2F49D3E5A5F0410CEE3E0F2E6A6FEA11580893E29AEE529C2FC11C4DF48D4AA628982DB44A422820F8563073C8F989CF2240392BED74F7768B819FDEDE6E09E0E29A
310
EE0AFA030B3CB273954C91D5916E83CC9BEE074FAB1E6B73B11CFB6CBEB73B4C23589D2D05F4CC9AAE2E4C768646F0614DBB4BD40606BDCC4B726A4DF72640A7DD749797013521AB4ED3C5971C1BF2225712D922FD192CAA82F186C253F467B664EED8B163100EA1787299890C1D4314EEF90B040C236113FD72905624B8F0
310
99FF03A92412CEF64B0000
  0
TABLECONTENT
  5
4BC
330
4BF
100
AcDbLinkedData
  1

300

100
AcDbLinkedTableData
 90
        5
300
COLUMN
  1
LINKEDTABLEDATACOLUMN_BEGIN
300

 91
        0
301
CUSTOMDATA
  1
DATAMAP_BEGIN
 90
        0
309
DATAMAP_END
309
LINKEDTABLEDATACOLUMN_END
  1
FORMATTEDTABLEDATACOLUMN_BEGIN
300
COLUMNTABLEFORMAT
  1
TABLEFORMAT_BEGIN
 90
        3
170
     0
309
TABLEFORMAT_END
309
FORMATTEDTABLEDATACOLUMN_END
  1
TABLECOLUMN_BEGIN
 90
        0
 40
10.0
309
TABLECOLUMN_END
300
COLUMN
  1
LINKEDTABLEDATACOLUMN_BEGIN
300

 91
        0
301
CUSTOMDATA
  1
DATAMAP_BEGIN
 90
        0
309
DATAMAP_END
309
LINKEDTABLEDATACOLUMN_END
  1
FORMATTEDTABLEDATACOLUMN_BEGIN
300
COLUMNTABLEFORMAT
  1
TABLEFORMAT_BEGIN
 90
        3
170
     0
309
TABLEFORMAT_END
309
FORMATTEDTABLEDATACOLUMN_END
  1
TABLECOLUMN_BEGIN
 90
        0
 40
10.0
309
TABLECOLUMN_END
300
COLUMN
  1
LINKEDTABLEDATACOLUMN_BEGIN
300

 91
        0
301
CUSTOMDATA
  1
DATAMAP_BEGIN
 90
        0
309
DATAMAP_END
309
LINKEDTABLEDATACOLUMN_END
  1
FORMATTEDTABLEDATACOLUMN_BEGIN
300
COLUMNTABLEFORMAT
  1
TABLEFORMAT_BEGIN
 90
        3
170
     0
309
TABLEFORMAT_END
309
FORMATTEDTABLEDATACOLUMN_END
  1
TABLECOLUMN_BEGIN
 90
        0
 40
10.0
309
TABLECOLUMN_END
300
COLUMN
  1
LINKEDTABLEDATACOLUMN_BEGIN
300

 91
        0
301
CUSTOMDATA
  1
DATAMAP_BEGIN
 90
        0
309
DATAMAP_END
309
LINKEDTABLEDATACOLUMN_END
  1
FORMATTEDTABLEDATACOLUMN_BEGIN
300
COLUMNTABLEFORMAT
  1
TABLEFORMAT_BEGIN
 90
        3
170
     0
309
TABLEFORMAT_END
309
FORMATTEDTABLEDATACOLUMN_END
  1
TABLECOLUMN_BEGIN
 90
        0
 40
40.0
309
TABLECOLUMN_END
300
COLUMN
  1
LINKEDTABLEDATACOLUMN_BEGIN
300

 91
        0
301
CUSTOMDATA
  1
DATAMAP_BEGIN
 90
        0
309
DATAMAP_END
309
LINKEDTABLEDATACOLUMN_END
  1
FORMATTEDTABLEDATACOLUMN_BEGIN
300
COLUMNTABLEFORMAT
  1
TABLEFORMAT_BEGIN
 90
        3
170
     0
309
TABLEFORMAT_END
309
FORMATTEDTABLEDATACOLUMN_END
  1
TABLECOLUMN_BEGIN
 90
        0
 40
20.0
309
TABLECOLUMN_END
 91
        5
301
ROW
  1
LINKEDTABLEDATAROW_BEGIN
 90
        5
300
CELL
  1
LINKEDTABLEDATACELL_BEGIN
 90
        0
300

 91
        0
301
CUSTOMDATA
  1
DATAMAP_BEGIN
 90
        1
300
ACAD_ROUNDTRIP_2008_CELL_CHECKSUM
301
DATAMAP_VALUE
 93
        2
 90
        2
140
32.0
 94
        0
300

302

304
ACVALUE_END
309
DATAMAP_END
 92
        0
 95
        1
302
CONTENT
  1
CELLCONTENT_BEGIN
 90
        1
300
VALUE
 93
        2
 90
        4
  1
 
 94
        0
300

302
 
304
ACVALUE_END
 91
        0
309
CELLCONTENT_END
  1
FORMATTEDCELLCONTENT_BEGIN
170
     1
300
CONTENTFORMAT
  1
CONTENTFORMAT_BEGIN
 90
      132
 91
        0
 92
      512
 93
        0
300

 40
0.0
140
1.0
 94
        1
 62
     0
340
0
144
3.5
309
CONTENTFORMAT_END
309
FORMATTEDCELLCONTENT_END
309
LINKEDTABLEDATACELL_END
  1
FORMATTEDTABLEDATACELL_BEGIN
300
CELLTABLEFORMAT
  1
TABLEFORMAT_BEGIN
 90
        1
170
     1
 91
        0
 92
        0
 62
   257
 93
        1
300
CONTENTFORMAT
  1
CONTENTFORMAT_BEGIN
 90
        0
 91
        0
 92
      512
 93
        0
300

 40
0.0
140
1.0
 94
        1
 62
     0
340
0
144
0.18
309
CONTENTFORMAT_END
171
     0
 94
        0
309
TABLEFORMAT_END
309
FORMATTEDTABLEDATACELL_END
  1
TABLECELL_BEGIN
 90
        0
 91
        0
309
TABLECELL_END
300
CELL
  1
LINKEDTABLEDATACELL_BEGIN
 90
        0
300

 91
        0
301
CUSTOMDATA
  1
DATAMAP_BEGIN
 90
        0
309
DATAMAP_END
 92
        0
 95
        0
309
LINKEDTABLEDATACELL_END
  1
FORMATTEDTABLEDATACELL_BEGIN
300
CELLTABLEFORMAT
  1
TABLEFORMAT_BEGIN
 90
        1
170
     1
 91
        0
 92
        0
 62
   257
 93
        1
300
CONTENTFORMAT
  1
CONTENTFORMAT_BEGIN
 90
        0
 91
        0
 92
      512
 93
        0
300

 40
0.0
140
1.0
 94
        1
 62
     0
340
0
144
0.18
309
CONTENTFORMAT_END
171
     0
 94
        0
309
TABLEFORMAT_END
309
FORMATTEDTABLEDATACELL_END
  1
TABLECELL_BEGIN
 90
        0
 91
        0
309
TABLECELL_END
300
CELL
  1
LINKEDTABLEDATACELL_BEGIN
 90
        0
300

 91
        0
301
CUSTOMDATA
  1
DATAMAP_BEGIN
 90
        0
309
DATAMAP_END
 92
        0
 95
        0
309
LINKEDTABLEDATACELL_END
  1
FORMATTEDTABLEDATACELL_BEGIN
300
CELLTABLEFORMAT
  1
TABLEFORMAT_BEGIN
 90
        1
170
     1
 91
        0
 92
        0
 62
   257
 93
        1
300
CONTENTFORMAT
  1
CONTENTFORMAT_BEGIN
 90
        0
 91
        0
 92
      512
 93
        0
300

 40
0.0
140
1.0
 94
        1
 62
     0
340
0
144
0.18
309
CONTENTFORMAT_END
171
     0
 94
        0
309
TABLEFORMAT_END
309
FORMATTEDTABLEDATACELL_END
  1
TABLECELL_BEGIN
 90
        0
 91
        0
309
TABLECELL_END
300
CELL
  1
LINKEDTABLEDATACELL_BEGIN
 90
        0
300

 91
        0
301
CUSTOMDATA
  1
DATAMAP_BEGIN
 90
        1
300
ACAD_ROUNDTRIP_2008_CELL_CHECKSUM
301
DATAMAP_VALUE
 93
        2
 90
        2
140
3422.0
 94
        0
300

302

304
ACVALUE_END
309
DATAMAP_END
 92
        0
 95
        1
302
CONTENT
  1
CELLCONTENT_BEGIN
 90
        1
300
VALUE
 93
        2
 90
        4
  1
A194_C_401
 94
        0
300

302
A194_C_401
304
ACVALUE_END
 91
        0
309
CELLCONTENT_END
  1
FORMATTEDCELLCONTENT_BEGIN
170
     1
300
CONTENTFORMAT
  1
CONTENTFORMAT_BEGIN
 90
      132
 91
        0
 92
      512
 93
        0
300

 40
0.0
140
1.0
 94
        1
 62
     0
340
0
144
3.0
309
CONTENTFORMAT_END
309
FORMATTEDCELLCONTENT_END
309
LINKEDTABLEDATACELL_END
  1
FORMATTEDTABLEDATACELL_BEGIN
300
CELLTABLEFORMAT
  1
TABLEFORMAT_BEGIN
 90
        1
170
     1
 91
       16
 92
        0
 62
   257
 93
        1
300
CONTENTFORMAT
  1
CONTENTFORMAT_BEGIN
 90
       16
 91
        0
 92
      512
 93
        0
300

 40
0.0
140
1.0
 94
        4
 62
     0
340
0
144
0.18
309
CONTENTFORMAT_END
171
     0
 94
        4
 95
        1
302
GRIDFORMAT
  1
GRIDFORMAT_BEGIN
 90
       26
 91
        1
 62
     0
 92
       -2
340
0
 93
        0
 40
0.045
309
GRIDFORMAT_END
 95
        4
302
GRIDFORMAT
  1
GRIDFORMAT_BEGIN
 90
       26
 91
        1
 62
     0
 92
       -2
340
0
 93
        0
 40
0.045
309
GRIDFORMAT_END
 95
        8
302
GRIDFORMAT
  1
GRIDFORMAT_BEGIN
 90
       26
 91
        1
 62
     0
 92
       -2
340
0
 93
        0
 40
0.045
309
GRIDFORMAT_END
 95
       32
302
GRIDFORMAT
  1
GRIDFORMAT_BEGIN
 90
       26
 91
        1
 62
     0
 92
       -2
340
0
 93
        0
 40
0.045
309
GRIDFORMAT_END
309
TABLEFORMAT_END
309
FORMATTEDTABLEDATACELL_END
  1
TABLECELL_BEGIN
 90
        0
 91
        0
309
TABLECELL_END
300
CELL
  1
LINKEDTABLEDATACELL_BEGIN
 90
        0
300

 91
        0
301
CUSTOMDATA
  1
DATAMAP_BEGIN
 90
        1
300
ACAD_ROUNDTRIP_2008_CELL_CHECKSUM
301
DATAMAP_VALUE
 93
        2
 90
        2
140
1398.0
 94
        0
300

302

304
ACVALUE_END
309
DATAMAP_END
 92
        0
 95
        1
302
CONTENT
  1
CELLCONTENT_BEGIN
 90
        1
300
VALUE
 93
        2
 90
        4
  1
Rev:00
 94
        0
300

302
Rev:00
304
ACVALUE_END
 91
        0
309
CELLCONTENT_END
  1
FORMATTEDCELLCONTENT_BEGIN
170
     1
300
CONTENTFORMAT
  1
CONTENTFORMAT_BEGIN
 90
      132
 91
        0
 92
      512
 93
        0
300

 40
0.0
140
1.0
 94
        1
 62
     0
340
0
144
3.5
309
CONTENTFORMAT_END
309
FORMATTEDCELLCONTENT_END
309
LINKEDTABLEDATACELL_END
  1
FORMATTEDTABLEDATACELL_BEGIN
300
CELLTABLEFORMAT
  1
TABLEFORMAT_BEGIN
 90
        1
170
     1
 91
       16
 92
        0
 62
   257
 93
        1
300
CONTENTFORMAT
  1
CONTENTFORMAT_BEGIN
 90
       16
 91
        0
 92
      512
 93
        0
300

 40
0.0
140
1.0
 94
        4
 62
     0
340
0
144
0.18
309
CONTENTFORMAT_END
171
     0
 94
        4
 95
        1
302
GRIDFORMAT
  1
GRIDFORMAT_BEGIN
 90
       26
 91
        1
 62
     0
 92
       -2
340
0
 93
        0
 40
0.045
309
GRIDFORMAT_END
 95
        4
302
GRIDFORMAT
  1
GRIDFORMAT_BEGIN
 90
       26
 91
        1
 62
     0
 92
       -2
340
0
 93
        0
 40
0.045
309
GRIDFORMAT_END
 95
        8
302
GRIDFORMAT
  1
GRIDFORMAT_BEGIN
 90
       26
 91
        1
 62
     0
 92
       -2
340
0
 93
        0
 40
0.045
309
GRIDFORMAT_END
 95
       32
302
GRIDFORMAT
  1
GRIDFORMAT_BEGIN
 90
       26
 91
        1
 62
     0
 92
       -2
340
0
 93
        0
 40
0.045
309
GRIDFORMAT_END
309
TABLEFORMAT_END
309
FORMATTEDTABLEDATACELL_END
  1
TABLECELL_BEGIN
 90
        0
 91
        0
309
TABLECELL_END
 91
        0
301
CUSTOMDATA
  1
DATAMAP_BEGIN
 90
        0
309
DATAMAP_END
309
LINKEDTABLEDATAROW_END
  1
FORMATTEDTABLEDATAROW_BEGIN
300
ROWTABLEFORMAT
  1
TABLEFORMAT_BEGIN
 90
        2
170
     0
309
TABLEFORMAT_END
309
FORMATTEDTABLEDATAROW_END
  1
TABLEROW_BEGIN
 90
        1
 40
6.0
309
TABLEROW_END
301
ROW
  1
LINKEDTABLEDATAROW_BEGIN
 90
        5
300
CELL
  1
LINKEDTABLEDATACELL_BEGIN
 90
        0
300

 91
        0
301
CUSTOMDATA
  1
DATAMAP_BEGIN
 90
        0
309
DATAMAP_END
 92
        0
 95
        0
309
LINKEDTABLEDATACELL_END
  1
FORMATTEDTABLEDATACELL_BEGIN
300
CELLTABLEFORMAT
  1
TABLEFORMAT_BEGIN
 90
        1
170
     1
 91
        0
 92
        0
 62
   257
 93
        1
300
CONTENTFORMAT
  1
CONTENTFORMAT_BEGIN
 90
        0
 91
        0
 92
      512
 93
        0
300

 40
0.0
140
1.0
 94
        1
 62
     0
340
0
144
0.18
309
CONTENTFORMAT_END
171
     0
 94
        0
309
TABLEFORMAT_END
309
FORMATTEDTABLEDATACELL_END
  1
TABLECELL_BEGIN
 90
        0
 91
        0
309
TABLECELL_END
300
CELL
  1
LINKEDTABLEDATACELL_BEGIN
 90
        0
300

 91
        0
301
CUSTOMDATA
  1
DATAMAP_BEGIN
 90
        0
309
DATAMAP_END
 92
        0
 95
        0
309
LINKEDTABLEDATACELL_END
  1
FORMATTEDTABLEDATACELL_BEGIN
300
CELLTABLEFORMAT
  1
TABLEFORMAT_BEGIN
 90
        1
170
     1
 91
        0
 92
        0
 62
   257
 93
        1
300
CONTENTFORMAT
  1
CONTENTFORMAT_BEGIN
 90
        0
 91
        0
 92
      512
 93
        0
300

 40
0.0
140
1.0
 94
        1
 62
     0
340
0
144
0.18
309
CONTENTFORMAT_END
171
     0
 94
        0
309
TABLEFORMAT_END
309
FORMATTEDTABLEDATACELL_END
  1
TABLECELL_BEGIN
 90
        0
 91
        0
309
TABLECELL_END
300
CELL
  1
LINKEDTABLEDATACELL_BEGIN
 90
        0
300

 91
        0
301
CUSTOMDATA
  1
DATAMAP_BEGIN
 90
        0
309
DATAMAP_END
 92
        0
 95
        0
309
LINKEDTABLEDATACELL_END
  1
FORMATTEDTABLEDATACELL_BEGIN
300
CELLTABLEFORMAT
  1
TABLEFORMAT_BEGIN
 90
        1
170
     1
 91
        0
 92
        0
 62
   257
 93
        1
300
CONTENTFORMAT
  1
CONTENTFORMAT_BEGIN
 90
        0
 91
        0
 92
      512
 93
        0
300

 40
0.0
140
1.0
 94
        1
 62
     0
340
0
144
0.18
309
CONTENTFORMAT_END
171
     0
 94
        0
309
TABLEFORMAT_END
309
FORMATTEDTABLEDATACELL_END
  1
TABLECELL_BEGIN
 90
        0
 91
        0
309
TABLECELL_END
300
CELL
  1
LINKEDTABLEDATACELL_BEGIN
 90
        0
300

 91
        0
301
CUSTOMDATA
  1
DATAMAP_BEGIN
 90
        1
300
ACAD_ROUNDTRIP_2008_CELL_CHECKSUM
301
DATAMAP_VALUE
 93
        2
 90
        2
140
3105.0
 94
        0
300

302

304
ACVALUE_END
309
DATAMAP_END
 92
        0
 95
        1
302
CONTENT
  1
CELLCONTENT_BEGIN
 90
        1
300
VALUE
 93
        2
 90
        4
  1
Scale:1:1
 94
        0
300

302
Scale:1:1
304
ACVALUE_END
 91
        0
309
CELLCONTENT_END
  1
FORMATTEDCELLCONTENT_BEGIN
170
     1
300
CONTENTFORMAT
  1
CONTENTFORMAT_BEGIN
 90
      132
 91
        0
 92
      512
 93
        0
300

 40
0.0
140
1.0
 94
        1
 62
     0
340
0
144
3.5
309
CONTENTFORMAT_END
309
FORMATTEDCELLCONTENT_END
309
LINKEDTABLEDATACELL_END
  1
FORMATTEDTABLEDATACELL_BEGIN
300
CELLTABLEFORMAT
  1
TABLEFORMAT_BEGIN
 90
        1
170
     1
 91
       16
 92
        0
 62
   257
 93
        1
300
CONTENTFORMAT
  1
CONTENTFORMAT_BEGIN
 90
       16
 91
        0
 92
      512
 93
        0
300

 40
0.0
140
1.0
 94
        1
 62
     0
340
0
144
0.18
309
CONTENTFORMAT_END
171
     0
 94
        4
 95
        1
302
GRIDFORMAT
  1
GRIDFORMAT_BEGIN
 90
       26
 91
        1
 62
     0
 92
       -2
340
0
 93
        0
 40
0.045
309
GRIDFORMAT_END
 95
        4
302
GRIDFORMAT
  1
GRIDFORMAT_BEGIN
 90
       26
 91
        1
 62
     0
 92
       -2
340
0
 93
        0
 40
0.045
309
GRIDFORMAT_END
 95
        8
302
GRIDFORMAT
  1
GRIDFORMAT_BEGIN
 90
       26
 91
        1
 62
     0
 92
       -2
340
0
 93
        0
 40
0.045
309
GRIDFORMAT_END
 95
       32
302
GRIDFORMAT
  1
GRIDFORMAT_BEGIN
 90
       26
 91
        1
 62
     0
 92
       -2
340
0
 93
        0
 40
0.045
309
GRIDFORMAT_END
309
TABLEFORMAT_END
309
FORMATTEDTABLEDATACELL_END
  1
TABLECELL_BEGIN
 90
        0
 91
        0
309
TABLECELL_END
300
CELL
  1
LINKEDTABLEDATACELL_BEGIN
 90
        0
300

 91
        0
301
CUSTOMDATA
  1
DATAMAP_BEGIN
 90
        1
300
ACAD_ROUNDTRIP_2008_CELL_CHECKSUM
301
DATAMAP_VALUE
 93
        2
 90
        2
140
169.0
 94
        0
300

302

304
ACVALUE_END
309
DATAMAP_END
 92
        0
 95
        1
302
CONTENT
  1
CELLCONTENT_BEGIN
 90
        1
300
VALUE
 93
        2
 90
        4
  1
A4
 94
        0
300

302
A4
304
ACVALUE_END
 91
        0
309
CELLCONTENT_END
  1
FORMATTEDCELLCONTENT_BEGIN
170
     1
300
CONTENTFORMAT
  1
CONTENTFORMAT_BEGIN
 90
      132
 91
        0
 92
      512
 93
        0
300

 40
0.0
140
1.0
 94
        1
 62
     0
340
0
144
3.5
309
CONTENTFORMAT_END
309
FORMATTEDCELLCONTENT_END
309
LINKEDTABLEDATACELL_END
  1
FORMATTEDTABLEDATACELL_BEGIN
300
CELLTABLEFORMAT
  1
TABLEFORMAT_BEGIN
 90
        1
170
     1
 91
       16
 92
        0
 62
   257
 93
        1
300
CONTENTFORMAT
  1
CONTENTFORMAT_BEGIN
 90
       16
 91
        0
 92
      512
 93
        0
300

 40
0.0
140
1.0
 94
        4
 62
     0
340
0
144
0.18
309
CONTENTFORMAT_END
171
     0
 94
        4
 95
        1
302
GRIDFORMAT
  1
GRIDFORMAT_BEGIN
 90
       26
 91
        1
 62
     0
 92
       -2
340
0
 93
        0
 40
0.045
309
GRIDFORMAT_END
 95
        4
302
GRIDFORMAT
  1
GRIDFORMAT_BEGIN
 90
       26
 91
        1
 62
     0
 92
       -2
340
0
 93
        0
 40
0.045
309
GRIDFORMAT_END
 95
        8
302
GRIDFORMAT
  1
GRIDFORMAT_BEGIN
 90
       26
 91
        1
 62
     0
 92
       -2
340
0
 93
        0
 40
0.045
309
GRIDFORMAT_END
 95
       32
302
GRIDFORMAT
  1
GRIDFORMAT_BEGIN
 90
       26
 91
        1
 62
     0
 92
       -2
340
0
 93
        0
 40
0.045
309
GRIDFORMAT_END
309
TABLEFORMAT_END
309
FORMATTEDTABLEDATACELL_END
  1
TABLECELL_BEGIN
 90
        0
 91
        0
309
TABLECELL_END
 91
        0
301
CUSTOMDATA
  1
DATAMAP_BEGIN
 90
        0
309
DATAMAP_END
309
LINKEDTABLEDATAROW_END
  1
FORMATTEDTABLEDATAROW_BEGIN
300
ROWTABLEFORMAT
  1
TABLEFORMAT_BEGIN
 90
        2
170
     0
309
TABLEFORMAT_END
309
FORMATTEDTABLEDATAROW_END
  1
TABLEROW_BEGIN
 90
        2
 40
6.0
309
TABLEROW_END
301
ROW
  1
LINKEDTABLEDATAROW_BEGIN
 90
        5
300
CELL
  1
LINKEDTABLEDATACELL_BEGIN
 90
        0
300

 91
        0
301
CUSTOMDATA
  1
DATAMAP_BEGIN
 90
        0
309
DATAMAP_END
 92
        0
 95
        0
309
LINKEDTABLEDATACELL_END
  1
FORMATTEDTABLEDATACELL_BEGIN
300
CELLTABLEFORMAT
  1
TABLEFORMAT_BEGIN
 90
        1
170
     1
 91
        0
 92
        0
 62
   257
 93
        1
300
CONTENTFORMAT
  1
CONTENTFORMAT_BEGIN
 90
        0
 91
        0
 92
      512
 93
        0
300

 40
0.0
140
1.0
 94
        1
 62
     0
340
0
144
0.18
309
CONTENTFORMAT_END
171
     0
 94
        0
309
TABLEFORMAT_END
309
FORMATTEDTABLEDATACELL_END
  1
TABLECELL_BEGIN
 90
        0
 91
        0
309
TABLECELL_END
300
CELL
  1
LINKEDTABLEDATACELL_BEGIN
 90
        0
300

 91
        0
301
CUSTOMDATA
  1
DATAMAP_BEGIN
 90
        0
309
DATAMAP_END
 92
        0
 95
        0
309
LINKEDTABLEDATACELL_END
  1
FORMATTEDTABLEDATACELL_BEGIN
300
CELLTABLEFORMAT
  1
TABLEFORMAT_BEGIN
 90
        1
170
     1
 91
        0
 92
        0
 62
   257
 93
        1
300
CONTENTFORMAT
  1
CONTENTFORMAT_BEGIN
 90
        0
 91
        0
 92
      512
 93
        0
300

 40
0.0
140
1.0
 94
        1
 62
     0
340
0
144
0.18
309
CONTENTFORMAT_END
171
     0
 94
        0
309
TABLEFORMAT_END
309
FORMATTEDTABLEDATACELL_END
  1
TABLECELL_BEGIN
 90
        0
 91
        0
309
TABLECELL_END
300
CELL
  1
LINKEDTABLEDATACELL_BEGIN
 90
        0
300

 91
        0
301
CUSTOMDATA
  1
DATAMAP_BEGIN
 90
        0
309
DATAMAP_END
 92
        0
 95
        0
309
LINKEDTABLEDATACELL_END
  1
FORMATTEDTABLEDATACELL_BEGIN
300
CELLTABLEFORMAT
  1
TABLEFORMAT_BEGIN
 90
        1
170
     1
 91
        0
 92
        0
 62
   257
 93
        1
300
CONTENTFORMAT
  1
CONTENTFORMAT_BEGIN
 90
        0
 91
        0
 92
      512
 93
        0
300

 40
0.0
140
1.0
 94
        1
 62
     0
340
0
144
0.18
309
CONTENTFORMAT_END
171
     0
 94
        0
309
TABLEFORMAT_END
309
FORMATTEDTABLEDATACELL_END
  1
TABLECELL_BEGIN
 90
        0
 91
        0
309
TABLECELL_END
300
CELL
  1
LINKEDTABLEDATACELL_BEGIN
 90
        0
300

 91
        0
301
CUSTOMDATA
  1
DATAMAP_BEGIN
 90
        1
300
ACAD_ROUNDTRIP_2008_CELL_CHECKSUM
301
DATAMAP_VALUE
 93
        2
 90
        2
140
6653.0
 94
        0
300

302

304
ACVALUE_END
309
DATAMAP_END
 92
        0
 95
        1
302
CONTENT
  1
CELLCONTENT_BEGIN
 90
        1
300
VALUE
 93
        2
 90
        4
  1
GOCCIA 3.5 - 3.9
 94
        0
300

302
GOCCIA 3.5 - 3.9
304
ACVALUE_END
 91
        0
309
CELLCONTENT_END
  1
FORMATTEDCELLCONTENT_BEGIN
170
     1
300
CONTENTFORMAT
  1
CONTENTFORMAT_BEGIN
 90
      132
 91
        0
 92
      512
 93
        0
300

 40
0.0
140
1.0
 94
        1
 62
     0
340
0
144
3.5
309
CONTENTFORMAT_END
309
FORMATTEDCELLCONTENT_END
309
LINKEDTABLEDATACELL_END
  1
FORMATTEDTABLEDATACELL_BEGIN
300
CELLTABLEFORMAT
  1
TABLEFORMAT_BEGIN
 90
        1
170
     1
 91
       16
 92
        0
 62
   257
 93
        1
300
CONTENTFORMAT
  1
CONTENTFORMAT_BEGIN
 90
       16
 91
        0
 92
      512
 93
        0
300

 40
0.0
140
1.0
 94
        4
 62
     0
340
0
144
0.18
309
CONTENTFORMAT_END
171
     0
 94
        4
 95
        1
302
GRIDFORMAT
  1
GRIDFORMAT_BEGIN
 90
       26
 91
        1
 62
     0
 92
       -2
340
0
 93
        0
 40
0.045
309
GRIDFORMAT_END
 95
        4
302
GRIDFORMAT
  1
GRIDFORMAT_BEGIN
 90
       26
 91
        1
 62
     0
 92
       -2
340
0
 93
        0
 40
0.045
309
GRIDFORMAT_END
 95
        8
302
GRIDFORMAT
  1
GRIDFORMAT_BEGIN
 90
       26
 91
        1
 62
     0
 92
       -2
340
0
 93
        0
 40
0.045
309
GRIDFORMAT_END
 95
       32
302
GRIDFORMAT
  1
GRIDFORMAT_BEGIN
 90
       26
 91
        1
 62
     0
 92
       -2
340
0
 93
        0
 40
0.045
309
GRIDFORMAT_END
309
TABLEFORMAT_END
309
FORMATTEDTABLEDATACELL_END
  1
TABLECELL_BEGIN
 90
        0
 91
        0
309
TABLECELL_END
300
CELL
  1
LINKEDTABLEDATACELL_BEGIN
 90
        0
300

 91
        0
301
CUSTOMDATA
  1
DATAMAP_BEGIN
 90
        0
309
DATAMAP_END
 92
        0
 95
        0
309
LINKEDTABLEDATACELL_END
  1
FORMATTEDTABLEDATACELL_BEGIN
300
CELLTABLEFORMAT
  1
TABLEFORMAT_BEGIN
 90
        1
170
     1
 91
        0
 92
        0
 62
   257
 93
        1
300
CONTENTFORMAT
  1
CONTENTFORMAT_BEGIN
 90
        0
 91
        0
 92
      512
 93
        0
300

 40
0.0
140
1.0
 94
        1
 62
     0
340
0
144
0.18
309
CONTENTFORMAT_END
171
     0
 94
        0
309
TABLEFORMAT_END
309
FORMATTEDTABLEDATACELL_END
  1
TABLECELL_BEGIN
 90
        0
 91
        0
309
TABLECELL_END
 91
        0
301
CUSTOMDATA
  1
DATAMAP_BEGIN
 90
        0
309
DATAMAP_END
309
LINKEDTABLEDATAROW_END
  1
FORMATTEDTABLEDATAROW_BEGIN
300
ROWTABLEFORMAT
  1
TABLEFORMAT_BEGIN
 90
        2
170
     0
309
TABLEFORMAT_END
309
FORMATTEDTABLEDATAROW_END
  1
TABLEROW_BEGIN
 90
        3
 40
10.0
309
TABLEROW_END
301
ROW
  1
LINKEDTABLEDATAROW_BEGIN
 90
        5
300
CELL
  1
LINKEDTABLEDATACELL_BEGIN
 90
        0
300

 91
        0
301
CUSTOMDATA
  1
DATAMAP_BEGIN
 90
        0
309
DATAMAP_END
 92
        0
 95
        0
309
LINKEDTABLEDATACELL_END
  1
FORMATTEDTABLEDATACELL_BEGIN
300
CELLTABLEFORMAT
  1
TABLEFORMAT_BEGIN
 90
        1
170
     1
 91
        0
 92
        0
 62
   257
 93
        1
300
CONTENTFORMAT
  1
CONTENTFORMAT_BEGIN
 90
        0
 91
        0
 92
      512
 93
        0
300

 40
0.0
140
1.0
 94
        1
 62
     0
340
0
144
0.18
309
CONTENTFORMAT_END
171
     0
 94
        0
309
TABLEFORMAT_END
309
FORMATTEDTABLEDATACELL_END
  1
TABLECELL_BEGIN
 90
        0
 91
        0
309
TABLECELL_END
300
CELL
  1
LINKEDTABLEDATACELL_BEGIN
 90
        0
300

 91
        0
301
CUSTOMDATA
  1
DATAMAP_BEGIN
 90
        0
309
DATAMAP_END
 92
        0
 95
        0
309
LINKEDTABLEDATACELL_END
  1
FORMATTEDTABLEDATACELL_BEGIN
300
CELLTABLEFORMAT
  1
TABLEFORMAT_BEGIN
 90
        1
170
     1
 91
        0
 92
        0
 62
   257
 93
        1
300
CONTENTFORMAT
  1
CONTENTFORMAT_BEGIN
 90
        0
 91
        0
 92
      512
 93
        0
300

 40
0.0
140
1.0
 94
        1
 62
     0
340
0
144
0.18
309
CONTENTFORMAT_END
171
     0
 94
        0
309
TABLEFORMAT_END
309
FORMATTEDTABLEDATACELL_END
  1
TABLECELL_BEGIN
 90
        0
 91
        0
309
TABLECELL_END
300
CELL
  1
LINKEDTABLEDATACELL_BEGIN
 90
        0
300

 91
        0
301
CUSTOMDATA
  1
DATAMAP_BEGIN
 90
        0
309
DATAMAP_END
 92
        0
 95
        0
309
LINKEDTABLEDATACELL_END
  1
FORMATTEDTABLEDATACELL_BEGIN
300
CELLTABLEFORMAT
  1
TABLEFORMAT_BEGIN
 90
        1
170
     1
 91
        0
 92
        0
 62
   257
 93
        1
300
CONTENTFORMAT
  1
CONTENTFORMAT_BEGIN
 90
        0
 91
        0
 92
      512
 93
        0
300

 40
0.0
140
1.0
 94
        1
 62
     0
340
0
144
0.18
309
CONTENTFORMAT_END
171
     0
 94
        0
309
TABLEFORMAT_END
309
FORMATTEDTABLEDATACELL_END
  1
TABLECELL_BEGIN
 90
        0
 91
        0
309
TABLECELL_END
300
CELL
  1
LINKEDTABLEDATACELL_BEGIN
 90
        0
300

 91
        0
301
CUSTOMDATA
  1
DATAMAP_BEGIN
 90
        1
300
ACAD_ROUNDTRIP_2008_CELL_CHECKSUM
301
DATAMAP_VALUE
 93
        2
 90
        2
140
4718.0
 94
        0
300

302

304
ACVALUE_END
309
DATAMAP_END
 92
        0
 95
        1
302
CONTENT
  1
CELLCONTENT_BEGIN
 90
        1
300
VALUE
 93
        2
 90
        4
  1
DATE:12.10.23
 94
        0
300

302
DATE:12.10.23
304
ACVALUE_END
 91
        0
309
CELLCONTENT_END
  1
FORMATTEDCELLCONTENT_BEGIN
170
     1
300
CONTENTFORMAT
  1
CONTENTFORMAT_BEGIN
 90
      132
 91
        0
 92
      512
 93
        0
300

 40
0.0
140
1.0
 94
        1
 62
     0
340
0
144
2.5
309
CONTENTFORMAT_END
309
FORMATTEDCELLCONTENT_END
309
LINKEDTABLEDATACELL_END
  1
FORMATTEDTABLEDATACELL_BEGIN
300
CELLTABLEFORMAT
  1
TABLEFORMAT_BEGIN
 90
        1
170
     1
 91
       16
 92
        0
 62
   257
 93
        1
300
CONTENTFORMAT
  1
CONTENTFORMAT_BEGIN
 90
       16
 91
        0
 92
      512
 93
        0
300

 40
0.0
140
1.0
 94
        4
 62
     0
340
0
144
0.18
309
CONTENTFORMAT_END
171
     0
 94
        4
 95
        1
302
GRIDFORMAT
  1
GRIDFORMAT_BEGIN
 90
       26
 91
        1
 62
     0
 92
       -2
340
0
 93
        0
 40
0.045
309
GRIDFORMAT_END
 95
        4
302
GRIDFORMAT
  1
GRIDFORMAT_BEGIN
 90
       26
 91
        1
 62
     0
 92
       -2
340
0
 93
        0
 40
0.045
309
GRIDFORMAT_END
 95
        8
302
GRIDFORMAT
  1
GRIDFORMAT_BEGIN
 90
       26
 91
        1
 62
     0
 92
       -2
340
0
 93
        0
 40
0.045
309
GRIDFORMAT_END
 95
       32
302
GRIDFORMAT
  1
GRIDFORMAT_BEGIN
 90
       26
 91
        1
 62
     0
 92
       -2
340
0
 93
        0
 40
0.045
309
GRIDFORMAT_END
309
TABLEFORMAT_END
309
FORMATTEDTABLEDATACELL_END
  1
TABLECELL_BEGIN
 90
        0
 91
        0
309
TABLECELL_END
300
CELL
  1
LINKEDTABLEDATACELL_BEGIN
 90
        0
300

 91
        0
301
CUSTOMDATA
  1
DATAMAP_BEGIN
 90
        0
309
DATAMAP_END
 92
        0
 95
        0
309
LINKEDTABLEDATACELL_END
  1
FORMATTEDTABLEDATACELL_BEGIN
300
CELLTABLEFORMAT
  1
TABLEFORMAT_BEGIN
 90
        1
170
     1
 91
        0
 92
        0
 62
   257
 93
        1
300
CONTENTFORMAT
  1
CONTENTFORMAT_BEGIN
 90
        0
 91
        0
 92
      512
 93
        0
300

 40
0.0
140
1.0
 94
        1
 62
     0
340
0
144
0.18
309
CONTENTFORMAT_END
171
     0
 94
        0
309
TABLEFORMAT_END
309
FORMATTEDTABLEDATACELL_END
  1
TABLECELL_BEGIN
 90
        0
 91
        0
309
TABLECELL_END
 91
        0
301
CUSTOMDATA
  1
DATAMAP_BEGIN
 90
        0
309
DATAMAP_END
309
LINKEDTABLEDATAROW_END
  1
FORMATTEDTABLEDATAROW_BEGIN
300
ROWTABLEFORMAT
  1
TABLEFORMAT_BEGIN
 90
        2
170
     0
309
TABLEFORMAT_END
309
FORMATTEDTABLEDATAROW_END
  1
TABLEROW_BEGIN
 90
        3
 40
5.0
309
TABLEROW_END
301
ROW
  1
LINKEDTABLEDATAROW_BEGIN
 90
        5
300
CELL
  1
LINKEDTABLEDATACELL_BEGIN
 90
        0
300

 91
        0
301
CUSTOMDATA
  1
DATAMAP_BEGIN
 90
        1
300
ACAD_ROUNDTRIP_2008_CELL_CHECKSUM
301
DATAMAP_VALUE
 93
        2
 90
        2
140
1361482.0
 94
        0
300

302

304
ACVALUE_END
309
DATAMAP_END
 92
        0
 95
        1
302
CONTENT
  1
CELLCONTENT_BEGIN
 90
        1
300
VALUE
 93
        2
 90
        4
  1
Any integral or partial reproductions are prohibited \Pwithout prior authorisation of L & L Luce & Light s.r.l., \Pin accordance with the law in force. \PAll rights reserved.
 94
        0
300

302
Any integral or partial reproductions are prohibited \Pwithout prior authorisation of L & L Luce & Light s.r.l., \Pin accordance with the law in force. \PAll rights reserved.
304
ACVALUE_END
 91
        0
309
CELLCONTENT_END
  1
FORMATTEDCELLCONTENT_BEGIN
170
     1
300
CONTENTFORMAT
  1
CONTENTFORMAT_BEGIN
 90
      132
 91
        0
 92
      512
 93
        0
300

 40
0.0
140
1.0
 94
        1
 62
     0
340
0
144
2.25
309
CONTENTFORMAT_END
309
FORMATTEDCELLCONTENT_END
309
LINKEDTABLEDATACELL_END
  1
FORMATTEDTABLEDATACELL_BEGIN
300
CELLTABLEFORMAT
  1
TABLEFORMAT_BEGIN
 90
        1
170
     1
 91
       16
 92
        0
 62
   257
 93
        1
300
CONTENTFORMAT
  1
CONTENTFORMAT_BEGIN
 90
       16
 91
        0
 92
      512
 93
        0
300

 40
0.0
140
1.0
 94
        4
 62
     0
340
0
144
0.18
309
CONTENTFORMAT_END
171
     0
 94
        4
 95
        1
302
GRIDFORMAT
  1
GRIDFORMAT_BEGIN
 90
       26
 91
        1
 62
     0
 92
       -2
340
0
 93
        0
 40
0.045
309
GRIDFORMAT_END
 95
        4
302
GRIDFORMAT
  1
GRIDFORMAT_BEGIN
 90
       26
 91
        1
 62
     0
 92
       -2
340
0
 93
        0
 40
0.045
309
GRIDFORMAT_END
 95
        8
302
GRIDFORMAT
  1
GRIDFORMAT_BEGIN
 90
       26
 91
        1
 62
     0
 92
       -2
340
0
 93
        0
 40
0.045
309
GRIDFORMAT_END
 95
       32
302
GRIDFORMAT
  1
GRIDFORMAT_BEGIN
 90
       26
 91
        1
 62
     0
 92
       -2
340
0
 93
        0
 40
0.045
309
GRIDFORMAT_END
309
TABLEFORMAT_END
309
FORMATTEDTABLEDATACELL_END
  1
TABLECELL_BEGIN
 90
        0
 91
        0
309
TABLECELL_END
300
CELL
  1
LINKEDTABLEDATACELL_BEGIN
 90
        0
300

 91
        0
301
CUSTOMDATA
  1
DATAMAP_BEGIN
 90
        0
309
DATAMAP_END
 92
        0
 95
        0
309
LINKEDTABLEDATACELL_END
  1
FORMATTEDTABLEDATACELL_BEGIN
300
CELLTABLEFORMAT
  1
TABLEFORMAT_BEGIN
 90
        1
170
     1
 91
        0
 92
        0
 62
   257
 93
        1
300
CONTENTFORMAT
  1
CONTENTFORMAT_BEGIN
 90
        0
 91
        0
 92
      512
 93
        0
300

 40
0.0
140
1.0
 94
        1
 62
     0
340
0
144
0.18
309
CONTENTFORMAT_END
171
     0
 94
        0
309
TABLEFORMAT_END
309
FORMATTEDTABLEDATACELL_END
  1
TABLECELL_BEGIN
 90
        0
 91
        0
309
TABLECELL_END
300
CELL
  1
LINKEDTABLEDATACELL_BEGIN
 90
        0
300

 91
        0
301
CUSTOMDATA
  1
DATAMAP_BEGIN
 90
        0
309
DATAMAP_END
 92
        0
 95
        0
309
LINKEDTABLEDATACELL_END
  1
FORMATTEDTABLEDATACELL_BEGIN
300
CELLTABLEFORMAT
  1
TABLEFORMAT_BEGIN
 90
        1
170
     1
 91
        0
 92
        0
 62
   257
 93
        1
300
CONTENTFORMAT
  1
CONTENTFORMAT_BEGIN
 90
        0
 91
        0
 92
      512
 93
        0
300

 40
0.0
140
1.0
 94
        1
 62
     0
340
0
144
0.18
309
CONTENTFORMAT_END
171
     0
 94
        0
309
TABLEFORMAT_END
309
FORMATTEDTABLEDATACELL_END
  1
TABLECELL_BEGIN
 90
        0
 91
        0
309
TABLECELL_END
300
CELL
  1
LINKEDTABLEDATACELL_BEGIN
 90
        0
300

 91
        0
301
CUSTOMDATA
  1
DATAMAP_BEGIN
 90
        0
309
DATAMAP_END
 92
        0
 95
        0
309
LINKEDTABLEDATACELL_END
  1
FORMATTEDTABLEDATACELL_BEGIN
300
CELLTABLEFORMAT
  1
TABLEFORMAT_BEGIN
 90
        1
170
     1
 91
        0
 92
        0
 62
   257
 93
        1
300
CONTENTFORMAT
  1
CONTENTFORMAT_BEGIN
 90
        0
 91
        0
 92
      512
 93
        0
300

 40
0.0
140
1.0
 94
        1
 62
     0
340
0
144
0.18
309
CONTENTFORMAT_END
171
     0
 94
        0
309
TABLEFORMAT_END
309
FORMATTEDTABLEDATACELL_END
  1
TABLECELL_BEGIN
 90
        0
 91
        0
309
TABLECELL_END
300
CELL
  1
LINKEDTABLEDATACELL_BEGIN
 90
        0
300

 91
        0
301
CUSTOMDATA
  1
DATAMAP_BEGIN
 90
        0
309
DATAMAP_END
 92
        0
 95
        0
309
LINKEDTABLEDATACELL_END
  1
FORMATTEDTABLEDATACELL_BEGIN
300
CELLTABLEFORMAT
  1
TABLEFORMAT_BEGIN
 90
        1
170
     1
 91
        0
 92
        0
 62
   257
 93
        1
300
CONTENTFORMAT
  1
CONTENTFORMAT_BEGIN
 90
        0
 91
        0
 92
      512
 93
        0
300

 40
0.0
140
1.0
 94
        1
 62
     0
340
0
144
0.18
309
CONTENTFORMAT_END
171
     0
 94
        0
309
TABLEFORMAT_END
309
FORMATTEDTABLEDATACELL_END
  1
TABLECELL_BEGIN
 90
        0
 91
        0
309
TABLECELL_END
 91
        0
301
CUSTOMDATA
  1
DATAMAP_BEGIN
 90
        0
309
DATAMAP_END
309
LINKEDTABLEDATAROW_END
  1
FORMATTEDTABLEDATAROW_BEGIN
300
ROWTABLEFORMAT
  1
TABLEFORMAT_BEGIN
 90
        2
170
     0
309
TABLEFORMAT_END
309
FORMATTEDTABLEDATAROW_END
  1
TABLEROW_BEGIN
 90
        3
 40
13.0
309
TABLEROW_END
100
AcDbFormattedTableData
300
TABLEFORMAT
  1
TABLEFORMAT_BEGIN
 90
        4
170
     1
 91
    15360
 92
        0
 62
   257
 93
        1
300
CONTENTFORMAT
  1
CONTENTFORMAT_BEGIN
 90
        0
 91
        0
 92
      512
 93
        0
300

 40
0.0
140
1.0
 94
        1
 62
     0
340
0
144
0.18
309
CONTENTFORMAT_END
171
     1
301
MARGIN
  1
CELLMARGIN_BEGIN
 40
0.06
 40
0.06
 40
0.06
 40
0.06
 40
0.06
 40
0.06
309
CELLMARGIN_END
 94
        0
309
TABLEFORMAT_END
 90
        4
 91
        0
 92
        0
 93
        3
 94
        2
 91
        2
 92
        3
 93
        2
 94
        4
 91
        3
 92
        3
 93
        3
 94
        4
 91
        4
 92
        0
 93
        4
 94
        4
100
AcDbTableContent
340
492
  0
TABLEGEOMETRY
  5
4BD
330
4BF
100
AcDbTableGeometry
 90
        5
 91
        5
 92
       25
 93
        0
 40
0.0
 41
0.0
330
0
 94
        0
 93
        0
 40
0.0
 41
0.0
330
0
 94
        0
 93
        0
 40
0.0
 41
0.0
330
0
 94
        0
 93
        0
 40
0.0
 41
0.0
330
0
 94
        0
 93
        0
 40
0.0
 41
0.0
330
0
 94
        0
 93
        0
 40
0.0
 41
0.0
330
0
 94
        0
 93
        0
 40
0.0
 41
0.0
330
0
 94
        0
 93
        0
 40
0.0
 41
0.0
330
0
 94
        0
 93
        0
 40
0.0
 41
0.0
330
0
 94
        0
 93
        0
 40
0.0
 41
0.0
330
0
 94
        0
 93
        0
 40
0.0
 41
0.0
330
0
 94
        0
 93
        0
 40
0.0
 41
0.0
330
0
 94
        0
 93
        0
 40
0.0
 41
0.0
330
0
 94
        0
 93
        0
 40
0.0
 41
0.0
330
0
 94
        0
 93
        0
 40
0.0
 41
0.0
330
0
 94
        0
 93
        0
 40
0.0
 41
0.0
330
0
 94
        0
 93
        0
 40
0.0
 41
0.0
330
0
 94
        0
 93
        0
 40
0.0
 41
0.0
330
0
 94
        0
 93
        0
 40
0.0
 41
0.0
330
0
 94
        0
 93
        0
 40
0.0
 41
0.0
330
0
 94
        0
 93
        0
 40
0.0
 41
0.0
330
0
 94
        0
 93
        0
 40
0.0
 41
0.0
330
0
 94
        0
 93
        0
 40
0.0
 41
0.0
330
0
 94
        0
 93
        0
 40
0.0
 41
0.0
330
0
 94
        0
 93
        0
 40
0.0
 41
0.0
330
0
 94
        0
  0
DICTIONARY
  5
4C2
330
492
100
AcDbDictionary
280
     1
281
     1
  3
ACAD_ROUNDTRIP_2008_TABLESTYLE_CELLSTYLEMAP
360
4C3
  0
CELLSTYLEMAP
  5
4C3
102
{ACAD_REACTORS
330
4C2
102
}
330
4C2
100
AcDbCellStyleMap
 90
        3
300
CELLSTYLE
  1
TABLEFORMAT_BEGIN
 90
        5
170
     1
 91
        0
 92
        0
 62
   257
 93
        1
300
CONTENTFORMAT
  1
CONTENTFORMAT_BEGIN
 90
        0
 91
        0
 92
        4
 93
        0
300

 40
0.0
140
1.0
 94
        5
 62
     0
340
11
144
6.0
309
CONTENTFORMAT_END
171
     1
301
MARGIN
  1
CELLMARGIN_BEGIN
 40
1.5
 40
1.5
 40
1.5
 40
1.5
 40
1.5
 40
1.5
309
CELLMARGIN_END
 94
        6
 95
        1
302
GRIDFORMAT
  1
GRIDFORMAT_BEGIN
 90
        0
 91
        1
 62
     0
 92
       -2
340
14
 93
        0
 40
0.045
309
GRIDFORMAT_END
 95
        2
302
GRIDFORMAT
  1
GRIDFORMAT_BEGIN
 90
        0
 91
        1
 62
     0
 92
       -2
340
14
 93
        0
 40
0.045
309
GRIDFORMAT_END
 95
        4
302
GRIDFORMAT
  1
GRIDFORMAT_BEGIN
 90
        0
 91
        1
 62
     0
 92
       -2
340
14
 93
        0
 40
0.045
309
GRIDFORMAT_END
 95
        8
302
GRIDFORMAT
  1
GRIDFORMAT_BEGIN
 90
        0
 91
        1
 62
     0
 92
       -2
340
14
 93
        0
 40
0.045
309
GRIDFORMAT_END
 95
       16
302
GRIDFORMAT
  1
GRIDFORMAT_BEGIN
 90
        0
 91
        1
 62
     0
 92
       -2
340
14
 93
        0
 40
0.045
309
GRIDFORMAT_END
 95
       32
302
GRIDFORMAT
  1
GRIDFORMAT_BEGIN
 90
        0
 91
        1
 62
     0
 92
       -2
340
14
 93
        0
 40
0.045
309
GRIDFORMAT_END
309
TABLEFORMAT_END
  1
CELLSTYLE_BEGIN
 90
        1
 91
        1
300
_TITLE
309
CELLSTYLE_END
300
CELLSTYLE
  1
TABLEFORMAT_BEGIN
 90
        5
170
     1
 91
        0
 92
        0
 62
   257
 93
        1
300
CONTENTFORMAT
  1
CONTENTFORMAT_BEGIN
 90
        0
 91
        0
 92
        4
 93
        0
300

 40
0.0
140
1.0
 94
        5
 62
     0
340
11
144
4.5
309
CONTENTFORMAT_END
171
     1
301
MARGIN
  1
CELLMARGIN_BEGIN
 40
1.5
 40
1.5
 40
1.5
 40
1.5
 40
1.5
 40
1.5
309
CELLMARGIN_END
 94
        6
 95
        1
302
GRIDFORMAT
  1
GRIDFORMAT_BEGIN
 90
        0
 91
        1
 62
     0
 92
       -2
340
14
 93
        0
 40
0.045
309
GRIDFORMAT_END
 95
        2
302
GRIDFORMAT
  1
GRIDFORMAT_BEGIN
 90
        0
 91
        1
 62
     0
 92
       -2
340
14
 93
        0
 40
0.045
309
GRIDFORMAT_END
 95
        4
302
GRIDFORMAT
  1
GRIDFORMAT_BEGIN
 90
        0
 91
        1
 62
     0
 92
       -2
340
14
 93
        0
 40
0.045
309
GRIDFORMAT_END
 95
        8
302
GRIDFORMAT
  1
GRIDFORMAT_BEGIN
 90
        0
 91
        1
 62
     0
 92
       -2
340
14
 93
        0
 40
0.045
309
GRIDFORMAT_END
 95
       16
302
GRIDFORMAT
  1
GRIDFORMAT_BEGIN
 90
        0
 91
        1
 62
     0
 92
       -2
340
14
 93
        0
 40
0.045
309
GRIDFORMAT_END
 95
       32
302
GRIDFORMAT
  1
GRIDFORMAT_BEGIN
 90
        0
 91
        1
 62
     0
 92
       -2
340
14
 93
        0
 40
0.045
309
GRIDFORMAT_END
309
TABLEFORMAT_END
  1
CELLSTYLE_BEGIN
 90
        2
 91
        1
300
_HEADER
309
CELLSTYLE_END
300
CELLSTYLE
  1
TABLEFORMAT_BEGIN
 90
        5
170
     1
 91
        0
 92
        0
 62
   257
 93
        1
300
CONTENTFORMAT
  1
CONTENTFORMAT_BEGIN
 90
        0
 91
        0
 92
        4
 93
        0
300

 40
0.0
140
1.0
 94
        2
 62
     0
340
11
144
4.5
309
CONTENTFORMAT_END
171
     1
301
MARGIN
  1
CELLMARGIN_BEGIN
 40
1.5
 40
1.5
 40
1.5
 40
1.5
 40
1.5
 40
1.5
309
CELLMARGIN_END
 94
        6
 95
        1
302
GRIDFORMAT
  1
GRIDFORMAT_BEGIN
 90
        0
 91
        1
 62
     0
 92
       -2
340
14
 93
        0
 40
0.045
309
GRIDFORMAT_END
 95
        2
302
GRIDFORMAT
  1
GRIDFORMAT_BEGIN
 90
        0
 91
        1
 62
     0
 92
       -2
340
14
 93
        0
 40
0.045
309
GRIDFORMAT_END
 95
        4
302
GRIDFORMAT
  1
GRIDFORMAT_BEGIN
 90
        0
 91
        1
 62
     0
 92
       -2
340
14
 93
        0
 40
0.045
309
GRIDFORMAT_END
 95
        8
302
GRIDFORMAT
  1
GRIDFORMAT_BEGIN
 90
        0
 91
        1
 62
     0
 92
       -2
340
14
 93
        0
 40
0.045
309
GRIDFORMAT_END
 95
       16
302
GRIDFORMAT
  1
GRIDFORMAT_BEGIN
 90
        0
 91
        1
 62
     0
 92
       -2
340
14
 93
        0
 40
0.045
309
GRIDFORMAT_END
 95
       32
302
GRIDFORMAT
  1
GRIDFORMAT_BEGIN
 90
        0
 91
        1
 62
     0
 92
       -2
340
14
 93
        0
 40
0.045
309
GRIDFORMAT_END
309
TABLEFORMAT_END
  1
CELLSTYLE_BEGIN
 90
        3
 91
        2
300
_DATA
309
CELLSTYLE_END
  0
ENDSEC
  0
EOF
