999
DXF file: 720_c_001.dxf
999
Pro/ENGINEER 2016360 by Parametric Technology Corporation
  0
SECTION
  2
HEADER
  9
$ACADVER
  1
AC1014
  9
$DWGCODEPAGE
  3
ANSI_1252
  9
$EXTMAX
 10
297.0
 20
210.0
 30
0.0
  9
$EXTMIN
 10
0.0
 20
0.0
 30
0.0
  9
$LIMMIN
 10
0.0
 20
0.0
  9
$LIMMAX
 10
297.0
 20
210.0
  9
$VIEWCTR
 10
148.5
 20
105.0
  9
$VIEWSIZE
 40
210.0
  9
$CLAYER
  8
0
  9
$LTSCALE
 40
16.335
  9
$CELTYPE
  6
BYLAYER
  9
$DIMSCALE
 40
1.0
  9
$DIMASZ
 40
2.5
  9
$DIMEXO
 40
0.75
  9
$DIMDLI
 40
11.286
  9
$DIMEXE
 40
0.75
  9
$DIMCEN
 40
2.673
  9
$DIMLFAC
 40
1.0
  9
$DIMBLK
  1
_CLOSED
  9
$DIMALT
 70
0
  9
$DIMALTF
 40
25.4
  9
$DIMTXT
 40
3.0
  9
$DIMTOL
 70
1
  9
$DIMLIM
 70
0
  9
$DIMTFAC
 40
1.0
  9
$DIMTP
 40
0.01
  9
$DIMTM
 40
0.01
  9
$DIMGAP
 40
0.625
  9
$AUNITS
 70
0
  9
$PDMODE
 70
3
  9
$PDSIZE
 40
0.3125
  9
$HANDSEED
  5
391
  9
$TILEMODE
 70
1
  9
$MEASUREMENT
 70
1
  0
ENDSEC
  0
SECTION
  2
CLASSES
  0
ENDSEC
  0
SECTION
  2
TABLES
  0
TABLE
  2
VPORT
  5
8
100
AcDbSymbolTable
 70
2
  0
VPORT
  5
1F4
100
AcDbSymbolTableRecord
100
AcDbViewportTableRecord
  2
*ACTIVE
 70
0
 10
0.0
 20
0.0
 11
1.0
 21
1.0
 12
148.5
 22
105.0
 13
0.0
 23
0.0
 14
1.0
 24
1.0
 15
0.0
 25
0.0
 16
0.0
 26
0.0
 36
1.0
 17
0.0
 27
0.0
 37
0.0
 40
210.0
 41
1.4142857143
 42
50.0
 43
0.0
 44
0.0
 50
0.0
 51
0.0
 71
0
 72
100
 73
1
 74
1
 75
0
 76
0
 77
0
 78
0
  0
ENDTAB
  0
TABLE
  2
LTYPE
  5
5
100
AcDbSymbolTable
 70
6
  0
LTYPE
  5
14
100
AcDbSymbolTableRecord
100
AcDbLinetypeTableRecord
  2
BYBLOCK
 70
0
  3

 72
65
 73
0
 40
0.0
  0
LTYPE
  5
15
100
AcDbSymbolTableRecord
100
AcDbLinetypeTableRecord
  2
BYLAYER
 70
0
  3

 72
65
 73
0
 40
0.0
  0
LTYPE
  5
16
100
AcDbSymbolTableRecord
100
AcDbLinetypeTableRecord
  2
CONTINUOUS
 70
64
  3
Solid line
 72
65
 73
0
 40
0.0
  0
LTYPE
  5
1F5
100
AcDbSymbolTableRecord
100
AcDbLinetypeTableRecord
  2
CENTER
 70
64
  3
____ _ ____ _ ____ _ ____ _ ____ _ ____ _ ____
 72
65
 73
4
 40
0.6
 49
0.375
 74
0
 49
-0.075
 74
0
 49
0.075
 74
0
 49
-0.075
 74
0
  0
LTYPE
  5
1F6
100
AcDbSymbolTableRecord
100
AcDbLinetypeTableRecord
  2
HIDDEN
 70
64
  3
- - - - - - - - - - - - - - - - - - - -
 72
65
 73
2
 40
0.2
 49
0.1
 74
0
 49
-0.1
 74
0
  0
LTYPE
  5
1F7
100
AcDbSymbolTableRecord
100
AcDbLinetypeTableRecord
  2
PHANTOM
 70
64
  3
_____ _ _ _____ _ _ _____ _ _ _____
 72
65
 73
6
 40
0.8
 49
0.45
 74
0
 49
-0.05
 74
0
 49
0.1
 74
0
 49
-0.05
 74
0
 49
0.1
 74
0
 49
-0.05
 74
0
  0
LTYPE
  5
1F8
100
AcDbSymbolTableRecord
100
AcDbLinetypeTableRecord
  2
DOT
 70
64
  3
. . . . . . . . . . . . . . . . . . . .
 72
65
 73
2
 40
0.2
 49
0.1
 74
0
 49
-0.1
 74
0
  0
LTYPE
  5
1F9
100
AcDbSymbolTableRecord
100
AcDbLinetypeTableRecord
  2
DASHED
 70
64
  3
- - - - - - - - - - - - - - - - - - - -
 72
65
 73
2
 40
0.2
 49
0.1
 74
0
 49
-0.1
 74
0
  0
ENDTAB
  0
TABLE
  2
LAYER
  5
2
100
AcDbSymbolTable
 70
36
  0
LAYER
  5
10
100
AcDbSymbolTableRecord
100
AcDbLayerTableRecord
  2
0
 70
0
 62
7
  6
CONTINUOUS
  0
LAYER
  5
1FA
100
AcDbSymbolTableRecord
100
AcDbLayerTableRecord
  2
DEFAULT_1
 70
0
 62
7
  6
CENTER
  0
LAYER
  5
1FB
100
AcDbSymbolTableRecord
100
AcDbLayerTableRecord
  2
DEFAULT_2
 70
0
 62
8
  6
HIDDEN
  0
LAYER
  5
1FC
100
AcDbSymbolTableRecord
100
AcDbLayerTableRecord
  2
DEFAULT_3
 70
0
 62
7
  6
PHANTOM
  0
LAYER
  5
1FD
100
AcDbSymbolTableRecord
100
AcDbLayerTableRecord
  2
01_ALL_DTM_PLN
 70
0
 62
7
  6
CONTINUOUS
  0
LAYER
  5
1FE
100
AcDbSymbolTableRecord
100
AcDbLayerTableRecord
  2
01__ASM_ALL_DTM_PLN
 70
0
 62
7
  6
CONTINUOUS
  0
LAYER
  5
1FF
100
AcDbSymbolTableRecord
100
AcDbLayerTableRecord
  2
01__ASM_DEF_DTM_PLN
 70
0
 62
7
  6
CONTINUOUS
  0
LAYER
  5
200
100
AcDbSymbolTableRecord
100
AcDbLayerTableRecord
  2
01___PRT_ALL_DTM_PLN
 70
0
 62
7
  6
CONTINUOUS
  0
LAYER
  5
201
100
AcDbSymbolTableRecord
100
AcDbLayerTableRecord
  2
01___PRT_DEF_DTM_PLN
 70
0
 62
7
  6
CONTINUOUS
  0
LAYER
  5
202
100
AcDbSymbolTableRecord
100
AcDbLayerTableRecord
  2
02_ALL_AXES
 70
0
 62
7
  6
CONTINUOUS
  0
LAYER
  5
203
100
AcDbSymbolTableRecord
100
AcDbLayerTableRecord
  2
02__ASM_ALL_AXES
 70
0
 62
7
  6
CONTINUOUS
  0
LAYER
  5
204
100
AcDbSymbolTableRecord
100
AcDbLayerTableRecord
  2
02___PRT_ALL_AXES
 70
0
 62
7
  6
CONTINUOUS
  0
LAYER
  5
205
100
AcDbSymbolTableRecord
100
AcDbLayerTableRecord
  2
03_ALL_CURVES
 70
0
 62
7
  6
CONTINUOUS
  0
LAYER
  5
206
100
AcDbSymbolTableRecord
100
AcDbLayerTableRecord
  2
03__ASM_ALL_CURVES
 70
0
 62
7
  6
CONTINUOUS
  0
LAYER
  5
207
100
AcDbSymbolTableRecord
100
AcDbLayerTableRecord
  2
03___PRT_ALL_CURVES
 70
0
 62
7
  6
CONTINUOUS
  0
LAYER
  5
208
100
AcDbSymbolTableRecord
100
AcDbLayerTableRecord
  2
04_ALL_DTM_PNT
 70
0
 62
7
  6
CONTINUOUS
  0
LAYER
  5
209
100
AcDbSymbolTableRecord
100
AcDbLayerTableRecord
  2
04__ASM_ALL_DTM_PNT
 70
0
 62
7
  6
CONTINUOUS
  0
LAYER
  5
20A
100
AcDbSymbolTableRecord
100
AcDbLayerTableRecord
  2
04___PRT_ALL_DTM_PNT
 70
0
 62
7
  6
CONTINUOUS
  0
LAYER
  5
20B
100
AcDbSymbolTableRecord
100
AcDbLayerTableRecord
  2
05_ALL_DTM_CSYS
 70
0
 62
7
  6
CONTINUOUS
  0
LAYER
  5
20C
100
AcDbSymbolTableRecord
100
AcDbLayerTableRecord
  2
05__ASM_ALL_DTM_CSYS
 70
0
 62
7
  6
CONTINUOUS
  0
LAYER
  5
20D
100
AcDbSymbolTableRecord
100
AcDbLayerTableRecord
  2
05__ASM_DEF_DTM_CSYS
 70
0
 62
7
  6
CONTINUOUS
  0
LAYER
  5
20E
100
AcDbSymbolTableRecord
100
AcDbLayerTableRecord
  2
05___PRT_ALL_DTM_CSYS
 70
0
 62
7
  6
CONTINUOUS
  0
LAYER
  5
20F
100
AcDbSymbolTableRecord
100
AcDbLayerTableRecord
  2
05___PRT_DEF_DTM_CSYS
 70
0
 62
7
  6
CONTINUOUS
  0
LAYER
  5
210
100
AcDbSymbolTableRecord
100
AcDbLayerTableRecord
  2
06_ALL_SURFS
 70
0
 62
7
  6
CONTINUOUS
  0
LAYER
  5
211
100
AcDbSymbolTableRecord
100
AcDbLayerTableRecord
  2
06__ASM_ALL_SURFS
 70
0
 62
7
  6
CONTINUOUS
  0
LAYER
  5
212
100
AcDbSymbolTableRecord
100
AcDbLayerTableRecord
  2
06___PRT_ALL_SURFS
 70
0
 62
7
  6
CONTINUOUS
  0
LAYER
  5
213
100
AcDbSymbolTableRecord
100
AcDbLayerTableRecord
  2
07__ASM_ALL_SKELETONS
 70
0
 62
7
  6
CONTINUOUS
  0
LAYER
  5
214
100
AcDbSymbolTableRecord
100
AcDbLayerTableRecord
  2
1_ALL_PLANES
 70
0
 62
7
  6
CONTINUOUS
  0
LAYER
  5
215
100
AcDbSymbolTableRecord
100
AcDbLayerTableRecord
  2
2_ALL_CSYS
 70
0
 62
7
  6
CONTINUOUS
  0
LAYER
  5
216
100
AcDbSymbolTableRecord
100
AcDbLayerTableRecord
  2
3_ALL_AXES
 70
0
 62
7
  6
CONTINUOUS
  0
LAYER
  5
217
100
AcDbSymbolTableRecord
100
AcDbLayerTableRecord
  2
4_ALL_POINTS
 70
0
 62
7
  6
CONTINUOUS
  0
LAYER
  5
218
100
AcDbSymbolTableRecord
100
AcDbLayerTableRecord
  2
5_ALL_CURVES
 70
0
 62
7
  6
CONTINUOUS
  0
LAYER
  5
219
100
AcDbSymbolTableRecord
100
AcDbLayerTableRecord
  2
7_ALL_FEATURES
 70
0
 62
7
  6
CONTINUOUS
  0
LAYER
  5
21A
100
AcDbSymbolTableRecord
100
AcDbLayerTableRecord
  2
8_ALL_NOTES_BALLOONS_SYMBOLS_GT
 70
0
 62
7
  6
CONTINUOUS
  0
LAYER
  5
21B
100
AcDbSymbolTableRecord
100
AcDbLayerTableRecord
  2
9_SOLID
 70
0
 62
7
  6
CONTINUOUS
  0
LAYER
  5
21C
100
AcDbSymbolTableRecord
100
AcDbLayerTableRecord
  2
INTFCLR_2
 70
0
 62
7
  6
CONTINUOUS
  0
LAYER
  5
21D
100
AcDbSymbolTableRecord
100
AcDbLayerTableRecord
  2
INTFCLR_6
 70
0
 62
7
  6
CONTINUOUS
  0
LAYER
  5
21E
100
AcDbSymbolTableRecord
100
AcDbLayerTableRecord
  2
INTFCLR_8
 70
0
 62
7
  6
CONTINUOUS
  0
LAYER
  5
21F
100
AcDbSymbolTableRecord
100
AcDbLayerTableRecord
  2
INTF_BLUE
 70
0
 62
7
  6
CONTINUOUS
  0
LAYER
  5
220
100
AcDbSymbolTableRecord
100
AcDbLayerTableRecord
  2
INTF_CYAN
 70
0
 62
7
  6
CONTINUOUS
  0
LAYER
  5
221
100
AcDbSymbolTableRecord
100
AcDbLayerTableRecord
  2
INTF_MAGENTA
 70
0
 62
7
  6
CONTINUOUS
  0
LAYER
  5
222
100
AcDbSymbolTableRecord
100
AcDbLayerTableRecord
  2
INTF_RED
 70
0
 62
7
  6
CONTINUOUS
  0
LAYER
  5
223
100
AcDbSymbolTableRecord
100
AcDbLayerTableRecord
  2
INTF_YELLOW
 70
0
 62
7
  6
CONTINUOUS
  0
LAYER
  5
224
100
AcDbSymbolTableRecord
100
AcDbLayerTableRecord
  2
XSEC_DATUMS
 70
0
 62
7
  6
CONTINUOUS
  0
ENDTAB
  0
TABLE
  2
STYLE
  5
3
100
AcDbSymbolTable
 70
1
  0
STYLE
  5
11
100
AcDbSymbolTableRecord
100
AcDbTextStyleTableRecord
  2
STANDARD
 70
0
 40
0.0
 41
0.85
 50
0.0
 71
0
 42
0.2
  3
txt
  4

  0
STYLE
  5
225
100
AcDbSymbolTableRecord
100
AcDbTextStyleTableRecord
  2
TEXTSTYLE_1
 70
0
 40
0.0
 41
0.8
 50
0.0
 71
0
 42
0.2
  3
gdt
  4

  0
STYLE
  5
226
100
AcDbSymbolTableRecord
100
AcDbTextStyleTableRecord
  2
TEXTSTYLE_2
 70
0
 40
0.0
 41
0.85
 50
0.0
 71
0
 42
0.2
  3
gdt
  4

  0
ENDTAB
  0
TABLE
  2
VIEW
  5
6
100
AcDbSymbolTable
 70
0
  0
ENDTAB
  0
TABLE
  2
UCS
  5
7
100
AcDbSymbolTable
 70
0
  0
ENDTAB
  0
TABLE
  2
APPID
  5
9
100
AcDbSymbolTable
 70
1
  0
APPID
  5
227
100
AcDbSymbolTableRecord
100
AcDbRegAppTableRecord
  2
ACAD
 70
0
  0
ENDTAB
  0
TABLE
  2
BLOCK_RECORD
  5
1
100
AcDbSymbolTable
 70
0
  0
BLOCK_RECORD
  5
1F
100
AcDbSymbolTableRecord
100
AcDbBlockTableRecord
  2
*MODEL_SPACE
  0
BLOCK_RECORD
  5
1B
100
AcDbSymbolTableRecord
100
AcDbBlockTableRecord
  2
*PAPER_SPACE
  0
BLOCK_RECORD
  5
228
100
AcDbSymbolTableRecord
100
AcDbBlockTableRecord
  2
_CLOSED
  0
BLOCK_RECORD
  5
229
100
AcDbSymbolTableRecord
100
AcDbBlockTableRecord
  2
*D0
  0
BLOCK_RECORD
  5
22A
100
AcDbSymbolTableRecord
100
AcDbBlockTableRecord
  2
*D1
  0
BLOCK_RECORD
  5
22B
100
AcDbSymbolTableRecord
100
AcDbBlockTableRecord
  2
*D2
  0
BLOCK_RECORD
  5
22C
100
AcDbSymbolTableRecord
100
AcDbBlockTableRecord
  2
*D3
  0
BLOCK_RECORD
  5
22D
100
AcDbSymbolTableRecord
100
AcDbBlockTableRecord
  2
LOGO2_BL0
  0
ENDTAB
  0
TABLE
  2
DIMSTYLE
  5
A
100
AcDbSymbolTable
 70
1
  0
DIMSTYLE
105
22E
100
AcDbSymbolTableRecord
100
AcDbDimStyleTableRecord
  2
STANDARD
 70
0
  3

  4

  5
_CLOSED
  6
_CLOSED
  7
_CLOSED
 40
1.0
 41
2.5
 42
0.75
 43
0.38
 44
0.75
 45
0.0
 46
0.0
 47
0.01
 48
0.01
140
3.0
141
0.09
142
0.0
143
25.4
144
1.0
145
0.0
146
1.0
147
0.625
 71
1.0
 72
0.0
 73
0
 74
0
 75
0
 76
0
 77
1
 78
8
 79
2
170
0
171
1
172
0
173
0
174
0
175
0
176
0
177
0
178
0
270
2
179
2
271
2
272
2
273
2
274
2
275
0
280
0
281
0
282
0
283
1
284
8
285
0
286
0
287
3
288
0
340
11
  0
DIMSTYLE
105
22F
100
AcDbSymbolTableRecord
100
AcDbDimStyleTableRecord
  2
DIMSTYLE_1
 70
0
  3
<>
  4

  5
_CLOSED
  6
_CLOSED
  7
_CLOSED
 40
1.0
 41
2.5
 42
0.75
 43
0.38
 44
0.75
 45
0.0
 46
0.0
 47
0.3
 48
0.3
140
3.0
141
0.09
142
0.0
143
25.4
144
1.0
145
0.0
146
1.0
147
0.625
 71
0.0
 72
0.0
 73
0
 74
0
 75
0
 76
0
 77
1
 78
8
 79
2
170
0
171
1
172
1
173
0
174
0
175
0
176
0
177
0
178
0
270
2
179
2
271
2
272
2
273
2
274
2
275
0
280
0
281
0
282
0
283
1
284
8
285
0
286
0
287
3
288
1
340
11
  0
DIMSTYLE
105
230
100
AcDbSymbolTableRecord
100
AcDbDimStyleTableRecord
  2
DIMSTYLE_2
 70
0
  3

  4

  5
_CLOSED
  6
_CLOSED
  7
_CLOSED
 40
1.0
 41
2.5
 42
0.75
 43
0.38
 44
0.75
 45
0.0
 46
0.0
 47
0.2
 48
0.2
140
3.0
141
0.09
142
0.0
143
25.4
144
1.0
145
0.0
146
1.0
147
0.75
 71
0.0
 72
0.0
 73
0
 74
0
 75
0
 76
0
 77
1
 78
8
 79
2
170
0
171
1
172
0
173
0
174
0
175
0
176
0
177
0
178
0
270
2
179
0
271
0
272
0
273
2
274
2
275
0
280
0
281
0
282
0
283
1
284
8
285
0
286
0
287
3
288
0
340
11
  0
DIMSTYLE
105
231
100
AcDbSymbolTableRecord
100
AcDbDimStyleTableRecord
  2
DIMSTYLE_3
 70
0
  3

  4

  5
_CLOSED
  6
_CLOSED
  7
_CLOSED
 40
1.0
 41
2.5
 42
0.75
 43
0.38
 44
0.75
 45
0.0
 46
0.0
 47
0.3
 48
0.3
140
3.0
141
0.09
142
0.0
143
25.4
144
1.0
145
0.0
146
1.0
147
0.75
 71
0.0
 72
0.0
 73
0
 74
0
 75
0
 76
0
 77
1
 78
8
 79
2
170
0
171
1
172
0
173
0
174
0
175
0
176
0
177
0
178
0
270
2
179
0
271
0
272
0
273
2
274
2
275
0
280
0
281
0
282
0
283
1
284
8
285
0
286
0
287
3
288
0
340
11
  0
DIMSTYLE
105
232
100
AcDbSymbolTableRecord
100
AcDbDimStyleTableRecord
  2
DIMSTYLE_4
 70
0
  3

  4

  5
_CLOSED
  6
_CLOSED
  7
_CLOSED
 40
1.0
 41
2.5
 42
0.75
 43
0.38
 44
0.75
 45
0.0
 46
0.0
 47
0.2
 48
0.2
140
3.0
141
0.09
142
0.0
143
25.4
144
1.0
145
0.0
146
1.0
147
0.75
 71
0.0
 72
0.0
 73
0
 74
0
 75
0
 76
0
 77
1
 78
8
 79
2
170
0
171
1
172
0
173
0
174
0
175
0
176
0
177
0
178
0
270
2
179
2
271
2
272
2
273
2
274
2
275
0
280
0
281
0
282
0
283
1
284
8
285
0
286
0
287
3
288
0
340
11
  0
ENDTAB
  0
ENDSEC
  0
SECTION
  2
BLOCKS
  0
BLOCK
  5
20
100
AcDbEntity
  8
0
100
AcDbBlockBegin
  2
*MODEL_SPACE
 70
0
 10
0.0
 20
0.0
 30
0.0
  3
*MODEL_SPACE
  1

  0
ENDBLK
  5
21
100
AcDbEntity
  8
0
100
AcDbBlockEnd
  0
BLOCK
  5
1C
100
AcDbEntity
  8
0
100
AcDbBlockBegin
  2
*PAPER_SPACE
 70
0
 10
0.0
 20
0.0
 30
0.0
  3
*PAPER_SPACE
  1

  0
ENDBLK
  5
1D
100
AcDbEntity
  8
0
100
AcDbBlockEnd
  0
BLOCK
  5
233
100
AcDbEntity
  8
0
100
AcDbBlockBegin
 62
2
  6
CONTINUOUS
  2
LOGO2_BL0
 70
64
 10
207.6164605391
 20
39.6725198453
  3
LOGO2_BL0
  1

  0
LINE
  5
234
100
AcDbEntity
  8
0
100
AcDbLine
 62
7
  6
CONTINUOUS
 10
199.3593857673
 20
42.8680111841
 11
198.055044838
 21
42.8680111841
  0
LINE
  5
235
100
AcDbEntity
  8
0
100
AcDbLine
 62
7
  6
CONTINUOUS
 10
198.055044838
 20
42.8680111841
 11
198.055044838
 21
32.4089451242
  0
LINE
  5
236
100
AcDbEntity
  8
0
100
AcDbLine
 62
7
  6
CONTINUOUS
 10
198.055044838
 20
32.4089451242
 11
202.5360997262
 21
32.4089451242
  0
LINE
  5
237
100
AcDbEntity
  8
0
100
AcDbLine
 62
7
  6
CONTINUOUS
 10
202.5360997262
 20
32.4089451242
 11
202.5360997262
 21
33.6017994493
  0
LINE
  5
238
100
AcDbEntity
  8
0
100
AcDbLine
 62
7
  6
CONTINUOUS
 10
202.5360997262
 20
33.6017994493
 11
199.3593857673
 21
33.6017994493
  0
LINE
  5
239
100
AcDbEntity
  8
0
100
AcDbLine
 62
7
  6
CONTINUOUS
 10
199.3593857673
 20
33.6017994493
 11
199.3593857673
 21
42.8680111841
  0
LINE
  5
23A
100
AcDbEntity
  8
0
100
AcDbLine
 62
7
  6
CONTINUOUS
 10
214.2957119836
 20
42.8680111841
 11
212.9918944656
 21
42.8680111841
  0
LINE
  5
23B
100
AcDbEntity
  8
0
100
AcDbLine
 62
7
  6
CONTINUOUS
 10
212.9918944656
 20
42.8680111841
 11
212.9918944656
 21
32.4089451242
  0
LINE
  5
23C
100
AcDbEntity
  8
0
100
AcDbLine
 62
7
  6
CONTINUOUS
 10
212.9918944656
 20
32.4089451242
 11
217.4730802067
 21
32.4089451242
  0
LINE
  5
23D
100
AcDbEntity
  8
0
100
AcDbLine
 62
7
  6
CONTINUOUS
 10
217.4730802067
 20
32.4089451242
 11
217.4730802067
 21
33.6017994493
  0
LINE
  5
23E
100
AcDbEntity
  8
0
100
AcDbLine
 62
7
  6
CONTINUOUS
 10
217.4730802067
 20
33.6017994493
 11
214.2957119836
 21
33.6017994493
  0
LINE
  5
23F
100
AcDbEntity
  8
0
100
AcDbLine
 62
7
  6
CONTINUOUS
 10
214.2957119836
 20
33.6017994493
 11
214.2957119836
 21
42.8680111841
  0
LWPOLYLINE
  5
240
100
AcDbEntity
  8
0
100
AcDbPolyline
 62
7
  6
CONTINUOUS
 90
2
 70
0
 43
0.2
 10
196.4094397489
 20
29.0653938173
 10
196.4094397489
 20
27.208330568
  0
LWPOLYLINE
  5
241
100
AcDbEntity
  8
0
100
AcDbPolyline
 62
7
  6
CONTINUOUS
 90
2
 70
0
 43
0.2
 10
196.4094397489
 20
27.208330568
 10
197.2051557593
 20
27.208330568
  0
LWPOLYLINE
  5
242
100
AcDbEntity
  8
0
100
AcDbPolyline
 62
7
  6
CONTINUOUS
 90
2
 70
0
 43
0.2
 10
197.2051557593
 20
27.208330568
 10
197.2051557593
 20
27.4203121396
  0
LWPOLYLINE
  5
243
100
AcDbEntity
  8
0
100
AcDbPolyline
 62
7
  6
CONTINUOUS
 90
2
 70
0
 43
0.2
 10
197.2051557593
 20
27.4203121396
 10
196.6410492438
 20
27.4203121396
  0
LWPOLYLINE
  5
244
100
AcDbEntity
  8
0
100
AcDbPolyline
 62
7
  6
CONTINUOUS
 90
2
 70
0
 43
0.2
 10
196.6410492438
 20
27.4203121396
 10
196.6410492438
 20
29.0653938173
  0
LWPOLYLINE
  5
245
100
AcDbEntity
  8
0
100
AcDbPolyline
 62
7
  6
CONTINUOUS
 90
2
 70
0
 43
0.2
 10
196.6410492438
 20
29.0653938173
 10
196.4094397489
 20
29.0653938173
  0
SPLINE
  5
246
100
AcDbEntity
  8
0
100
AcDbSpline
 62
7
  6
CONTINUOUS
 70
2
 71
3
 72
35
 73
31
 74
0
 42
0.0000001
 43
0.0000001
 44
0.0000000001
 40
0.0
 40
0.0
 40
0.0
 40
0.0
 40
1.0
 40
1.0
 40
1.0
 40
2.0
 40
2.0
 40
2.0
 40
3.0
 40
3.0
 40
3.0
 40
4.0
 40
4.0
 40
4.0
 40
5.0
 40
5.0
 40
5.0
 40
6.0
 40
6.0
 40
6.0
 40
7.0
 40
7.0
 40
7.0
 40
8.0
 40
8.0
 40
8.0
 40
9.0
 40
9.0
 40
9.0
 40
10.0
 40
10.0
 40
10.0
 40
10.0
 10
198.6034490148
 20
28.3608822239
 30
0.0
 10
198.6034490148
 20
28.3608822239
 30
0.0
 10
198.6034490148
 20
27.6987669447
 30
0.0
 10
198.6034490148
 20
27.6987669447
 30
0.0
 10
198.6034490148
 20
27.3836733494
 30
0.0
 10
198.7513127037
 20
27.1690747214
 30
0.0
 10
199.0913991879
 20
27.1690747214
 30
0.0
 10
199.430962261
 20
27.1690747214
 30
0.0
 10
199.5790876554
 20
27.3836733494
 30
0.0
 10
199.5790876554
 20
27.6987669447
 30
0.0
 10
199.5790876554
 20
27.6987669447
 30
0.0
 10
199.5790876554
 20
28.3608822239
 30
0.0
 10
199.5790876554
 20
28.3608822239
 30
0.0
 10
199.5790876554
 20
28.3608822239
 30
0.0
 10
199.3570304165
 20
28.3608822239
 30
0.0
 10
199.3570304165
 20
28.3608822239
 30
0.0
 10
199.3570304165
 20
28.3608822239
 30
0.0
 10
199.3570304165
 20
27.7238906865
 30
0.0
 10
199.3570304165
 20
27.7238906865
 30
0.0
 10
199.3570304165
 20
27.5380796793
 30
0.0
 10
199.3103159591
 20
27.3752987688
 30
0.0
 10
199.0913991879
 20
27.3752987688
 30
0.0
 10
198.8719590055
 20
27.3752987688
 30
0.0
 10
198.8252445481
 20
27.5380796793
 30
0.0
 10
198.8252445481
 20
27.7238906865
 30
0.0
 10
198.8252445481
 20
27.7238906865
 30
0.0
 10
198.8252445481
 20
28.3608822239
 30
0.0
 10
198.8252445481
 20
28.3608822239
 30
0.0
 10
198.8252445481
 20
28.3608822239
 30
0.0
 10
198.6034490148
 20
28.3608822239
 30
0.0
 10
198.6034490148
 20
28.3608822239
 30
0.0
  0
SPLINE
  5
247
100
AcDbEntity
  8
0
100
AcDbSpline
 62
7
  6
CONTINUOUS
 70
2
 71
3
 72
35
 73
31
 74
0
 42
0.0000001
 43
0.0000001
 44
0.0000000001
 40
0.0
 40
0.0
 40
0.0
 40
0.0
 40
1.0
 40
1.0
 40
1.0
 40
2.0
 40
2.0
 40
2.0
 40
3.0
 40
3.0
 40
3.0
 40
4.0
 40
4.0
 40
4.0
 40
5.0
 40
5.0
 40
5.0
 40
6.0
 40
6.0
 40
6.0
 40
7.0
 40
7.0
 40
7.0
 40
8.0
 40
8.0
 40
8.0
 40
9.0
 40
9.0
 40
9.0
 40
10.0
 40
10.0
 40
10.0
 40
10.0
 10
202.0022202126
 20
28.3195327321
 30
0.0
 10
201.913763705
 20
28.3708270383
 30
0.0
 10
201.8003143083
 20
28.3959507801
 30
0.0
 10
201.6966788733
 20
28.3959507801
 30
0.0
 10
201.3418060201
 20
28.3959507801
 30
0.0
 10
201.0663608299
 20
28.1321514911
 30
0.0
 10
201.0663608299
 20
27.7746615814
 30
0.0
 10
201.0663608299
 20
27.4297335427
 30
0.0
 10
201.344815635
 20
27.1695981327
 30
0.0
 10
201.6843787081
 20
27.1695981327
 30
0.0
 10
201.8003143083
 20
27.1695981327
 30
0.0
 10
201.9010709812
 20
27.1915814068
 30
0.0
 10
202.0022202126
 20
27.2454927694
 30
0.0
 10
202.0022202126
 20
27.2454927694
 30
0.0
 10
202.0022202126
 20
27.5281348649
 30
0.0
 10
202.0022202126
 20
27.5281348649
 30
0.0
 10
201.9183435537
 20
27.4349676556
 30
0.0
 10
201.8148389716
 20
27.3758221801
 30
0.0
 10
201.6867340588
 20
27.3758221801
 30
0.0
 10
201.4530309188
 20
27.3758221801
 30
0.0
 10
201.2877638047
 20
27.5480244938
 30
0.0
 10
201.2877638047
 20
27.7846063959
 30
0.0
 10
201.2877638047
 20
27.9965879675
 30
0.0
 10
201.4555171224
 20
28.1886799102
 30
0.0
 10
201.6723402484
 20
28.1886799102
 30
0.0
 10
201.8051558627
 20
28.1886799102
 30
0.0
 10
201.913763705
 20
28.1347685475
 30
0.0
 10
202.0022202126
 20
28.0337501689
 30
0.0
 10
202.0022202126
 20
28.0337501689
 30
0.0
 10
202.0022202126
 20
28.3195327321
 30
0.0
 10
202.0022202126
 20
28.3195327321
 30
0.0
  0
SPLINE
  5
248
100
AcDbEntity
  8
0
100
AcDbSpline
 62
7
  6
CONTINUOUS
 70
2
 71
3
 72
32
 73
28
 74
0
 42
0.0000001
 43
0.0000001
 44
0.0000000001
 40
0.0
 40
0.0
 40
0.0
 40
0.0
 40
1.0
 40
1.0
 40
1.0
 40
2.0
 40
2.0
 40
2.0
 40
3.0
 40
3.0
 40
3.0
 40
4.0
 40
4.0
 40
4.0
 40
5.0
 40
5.0
 40
5.0
 40
6.0
 40
6.0
 40
6.0
 40
7.0
 40
7.0
 40
7.0
 40
8.0
 40
8.0
 40
8.0
 40
9.0
 40
9.0
 40
9.0
 40
9.0
 10
204.5340914649
 20
27.7479676058
 30
0.0
 10
204.5340914649
 20
27.7479676058
 30
0.0
 10
204.5340914649
 20
27.7819893395
 30
0.0
 10
204.5340914649
 20
27.7819893395
 30
0.0
 10
204.5340914649
 20
28.1243003217
 30
0.0
 10
204.361234887
 20
28.3959507801
 30
0.0
 10
203.9945852799
 20
28.3959507801
 30
0.0
 10
203.6229632655
 20
28.3959507801
 30
0.0
 10
203.4332266736
 20
28.1295344346
 30
0.0
 10
203.4332266736
 20
27.7746615814
 30
0.0
 10
203.4332266736
 20
27.4349676556
 30
0.0
 10
203.6473018904
 20
27.1690747214
 30
0.0
 10
203.9994268343
 20
27.1690747214
 30
0.0
 10
204.2234468655
 20
27.1690747214
 30
0.0
 10
204.4256144755
 20
27.284748616
 30
0.0
 10
204.5340914649
 20
27.4841683167
 30
0.0
 10
204.5340914649
 20
27.4841683167
 30
0.0
 10
204.3464485182
 20
27.5909442194
 30
0.0
 10
204.3464485182
 20
27.5909442194
 30
0.0
 10
204.2629644177
 20
27.4522402281
 30
0.0
 10
204.1717600008
 20
27.3664007769
 30
0.0
 10
204.0021747436
 20
27.3664007769
 30
0.0
 10
203.790193172
 20
27.3664007769
 30
0.0
 10
203.6572467049
 20
27.5511649615
 30
0.0
 10
203.6548913541
 20
27.7479676058
 30
0.0
 10
203.6548913541
 20
27.7479676058
 30
0.0
 10
204.5340914649
 20
27.7479676058
 30
0.0
 10
204.5340914649
 20
27.7479676058
 30
0.0
  0
SPLINE
  5
249
100
AcDbEntity
  8
0
100
AcDbSpline
 62
7
  6
CONTINUOUS
 70
2
 71
3
 72
14
 73
10
 74
0
 42
0.0000001
 43
0.0000001
 44
0.0000000001
 40
0.0
 40
0.0
 40
0.0
 40
0.0
 40
1.0
 40
1.0
 40
1.0
 40
2.0
 40
2.0
 40
2.0
 40
3.0
 40
3.0
 40
3.0
 40
3.0
 10
203.6669298137
 20
27.9154592179
 30
0.0
 10
203.6945397591
 20
28.0803337736
 30
0.0
 10
203.8223829662
 20
28.2033354262
 30
0.0
 10
203.9945852799
 20
28.2033354262
 30
0.0
 10
204.1717600008
 20
28.2033354262
 30
0.0
 10
204.2852093975
 20
28.0876615316
 30
0.0
 10
204.3124267844
 20
27.9154592179
 30
0.0
 10
204.3124267844
 20
27.9154592179
 30
0.0
 10
203.6669298137
 20
27.9154592179
 30
0.0
 10
203.6669298137
 20
27.9154592179
 30
0.0
  0
SPLINE
  5
24A
100
AcDbEntity
  8
0
100
AcDbSpline
 62
7
  6
CONTINUOUS
 70
2
 71
3
 72
20
 73
16
 74
0
 42
0.0000001
 43
0.0000001
 44
0.0000000001
 40
0.0
 40
0.0
 40
0.0
 40
0.0
 40
1.0
 40
1.0
 40
1.0
 40
2.0
 40
2.0
 40
2.0
 40
3.0
 40
3.0
 40
3.0
 40
4.0
 40
4.0
 40
4.0
 40
5.0
 40
5.0
 40
5.0
 40
5.0
 10
206.5581229151
 20
28.124823733
 30
0.0
 10
206.5581229151
 20
28.124823733
 30
0.0
 10
206.9692624817
 20
27.6223488967
 30
0.0
 10
206.9692624817
 20
27.6223488967
 30
0.0
 10
206.8531960286
 20
27.5066750021
 30
0.0
 10
206.7154080071
 20
27.3763455914
 30
0.0
 10
206.543467399
 20
27.3763455914
 30
0.0
 10
206.3660309724
 20
27.3763455914
 30
0.0
 10
206.1985393603
 20
27.5406967358
 30
0.0
 10
206.1985393603
 20
27.7176097511
 30
0.0
 10
206.1985393603
 20
27.8955695889
 30
0.0
 10
206.4082964339
 20
28.0217117093
 30
0.0
 10
206.5358779353
 20
28.1096448057
 30
0.0
 10
206.5358779353
 20
28.1096448057
 30
0.0
 10
206.5581229151
 20
28.124823733
 30
0.0
 10
206.5581229151
 20
28.124823733
 30
0.0
  0
SPLINE
  5
24B
100
AcDbEntity
  8
0
100
AcDbSpline
 62
7
  6
CONTINUOUS
 70
2
 71
3
 72
23
 73
19
 74
0
 42
0.0000001
 43
0.0000001
 44
0.0000000001
 40
0.0
 40
0.0
 40
0.0
 40
0.0
 40
1.0
 40
1.0
 40
1.0
 40
2.0
 40
2.0
 40
2.0
 40
3.0
 40
3.0
 40
3.0
 40
4.0
 40
4.0
 40
4.0
 40
5.0
 40
5.0
 40
5.0
 40
6.0
 40
6.0
 40
6.0
 40
6.0
 10
206.6074544289
 20
28.4158404091
 30
0.0
 10
206.6074544289
 20
28.4158404091
 30
0.0
 10
206.5458227498
 20
28.4943521023
 30
0.0
 10
206.5458227498
 20
28.4943521023
 30
0.0
 10
206.4919113871
 20
28.562918981
 30
0.0
 10
206.4351212624
 20
28.632009271
 30
0.0
 10
206.4351212624
 20
28.7256998915
 30
0.0
 10
206.4351212624
 20
28.8445142539
 30
0.0
 10
206.5310363809
 20
28.9219791245
 30
0.0
 10
206.6419995739
 20
28.9219791245
 30
0.0
 10
206.7652629322
 20
28.9219791245
 30
0.0
 10
206.8585609943
 20
28.8507951893
 30
0.0
 10
206.8585609943
 20
28.7204657786
 30
0.0
 10
206.8585609943
 20
28.5854256664
 30
0.0
 10
206.7304560816
 20
28.5090076183
 30
0.0
 10
206.6368963139
 20
28.4352066267
 30
0.0
 10
206.6368963139
 20
28.4352066267
 30
0.0
 10
206.6074544289
 20
28.4158404091
 30
0.0
 10
206.6074544289
 20
28.4158404091
 30
0.0
  0
SPLINE
  5
24C
100
AcDbEntity
  8
0
100
AcDbSpline
 62
7
  6
CONTINUOUS
 70
2
 71
3
 72
50
 73
46
 74
0
 42
0.0000001
 43
0.0000001
 44
0.0000000001
 40
0.0
 40
0.0
 40
0.0
 40
0.0
 40
1.0
 40
1.0
 40
1.0
 40
2.0
 40
2.0
 40
2.0
 40
3.0
 40
3.0
 40
3.0
 40
4.0
 40
4.0
 40
4.0
 40
5.0
 40
5.0
 40
5.0
 40
6.0
 40
6.0
 40
6.0
 40
7.0
 40
7.0
 40
7.0
 40
8.0
 40
8.0
 40
8.0
 40
9.0
 40
9.0
 40
9.0
 40
10.0
 40
10.0
 40
10.0
 40
11.0
 40
11.0
 40
11.0
 40
12.0
 40
12.0
 40
12.0
 40
13.0
 40
13.0
 40
13.0
 40
14.0
 40
14.0
 40
14.0
 40
15.0
 40
15.0
 40
15.0
 40
15.0
 10
207.3096106716
 20
27.2088539793
 30
0.0
 10
207.3096106716
 20
27.2088539793
 30
0.0
 10
207.5950006763
 20
27.2088539793
 30
0.0
 10
207.5950006763
 20
27.2088539793
 30
0.0
 10
207.5950006763
 20
27.2088539793
 30
0.0
 10
207.2626345085
 20
27.6197318402
 30
0.0
 10
207.2626345085
 20
27.6197318402
 30
0.0
 10
207.2626345085
 20
27.6197318402
 30
0.0
 10
207.4891407434
 20
27.8856247745
 30
0.0
 10
207.4891407434
 20
27.8856247745
 30
0.0
 10
207.4891407434
 20
27.8856247745
 30
0.0
 10
207.3408844961
 20
28.0384608705
 30
0.0
 10
207.3408844961
 20
28.0384608705
 30
0.0
 10
207.3408844961
 20
28.0384608705
 30
0.0
 10
207.1249773398
 20
27.7872234524
 30
0.0
 10
207.1249773398
 20
27.7872234524
 30
0.0
 10
207.1249773398
 20
27.7872234524
 30
0.0
 10
206.7379146924
 20
28.2551531437
 30
0.0
 10
206.7379146924
 20
28.2551531437
 30
0.0
 10
206.8933678449
 20
28.3692568045
 30
0.0
 10
207.0756458259
 20
28.5090076183
 30
0.0
 10
207.0756458259
 20
28.7183721335
 30
0.0
 10
207.0756458259
 20
28.9622817936
 30
0.0
 10
206.8736090688
 20
29.1056964865
 30
0.0
 10
206.647102834
 20
29.1056964865
 30
0.0
 10
206.4029314682
 20
29.1056964865
 30
0.0
 10
206.2185598421
 20
28.9549540356
 30
0.0
 10
206.2185598421
 20
28.6984825045
 30
0.0
 10
206.2185598421
 20
28.5409357069
 30
0.0
 10
206.3172228698
 20
28.4032785382
 30
0.0
 10
206.4225593915
 20
28.2923153452
 30
0.0
 10
206.4225593915
 20
28.2923153452
 30
0.0
 10
206.3070163497
 20
28.2085695391
 30
0.0
 10
206.3070163497
 20
28.2085695391
 30
0.0
 10
206.1293182175
 20
28.0803337736
 30
0.0
 10
205.9819779399
 20
27.9526214193
 30
0.0
 10
205.9819779399
 20
27.7155161059
 30
0.0
 10
205.9819779399
 20
27.3951883977
 30
0.0
 10
206.2405431161
 20
27.1690747214
 30
0.0
 10
206.5509260098
 20
27.1690747214
 30
0.0
 10
206.769842781
 20
27.1690747214
 30
0.0
 10
206.9670379837
 20
27.2941700192
 30
0.0
 10
207.1073122089
 20
27.4600913974
 30
0.0
 10
207.1073122089
 20
27.4600913974
 30
0.0
 10
207.3096106716
 20
27.2088539793
 30
0.0
 10
207.3096106716
 20
27.2088539793
 30
0.0
  0
LWPOLYLINE
  5
24D
100
AcDbEntity
  8
0
100
AcDbPolyline
 62
7
  6
CONTINUOUS
 90
2
 70
0
 43
0.2
 10
209.2450547613
 20
29.0653938173
 10
209.0137069721
 20
29.0653938173
  0
LWPOLYLINE
  5
24E
100
AcDbEntity
  8
0
100
AcDbPolyline
 62
7
  6
CONTINUOUS
 90
2
 70
0
 43
0.2
 10
209.0137069721
 20
29.0653938173
 10
209.0137069721
 20
27.208330568
  0
LWPOLYLINE
  5
24F
100
AcDbEntity
  8
0
100
AcDbPolyline
 62
7
  6
CONTINUOUS
 90
2
 70
0
 43
0.2
 10
209.0137069721
 20
27.208330568
 10
209.809030424
 20
27.208330568
  0
LWPOLYLINE
  5
250
100
AcDbEntity
  8
0
100
AcDbPolyline
 62
7
  6
CONTINUOUS
 90
2
 70
0
 43
0.2
 10
209.809030424
 20
27.208330568
 10
209.809030424
 20
27.4203121396
  0
LWPOLYLINE
  5
251
100
AcDbEntity
  8
0
100
AcDbPolyline
 62
7
  6
CONTINUOUS
 90
2
 70
0
 43
0.2
 10
209.809030424
 20
27.4203121396
 10
209.2450547613
 20
27.4203121396
  0
LWPOLYLINE
  5
252
100
AcDbEntity
  8
0
100
AcDbPolyline
 62
7
  6
CONTINUOUS
 90
2
 70
0
 43
0.2
 10
209.2450547613
 20
27.4203121396
 10
209.2450547613
 20
29.0653938173
  0
LWPOLYLINE
  5
253
100
AcDbEntity
  8
0
100
AcDbPolyline
 62
7
  6
CONTINUOUS
 90
2
 70
0
 43
0.2
 10
211.4881338355
 20
28.3608822239
 10
211.2669925664
 20
28.3608822239
  0
LWPOLYLINE
  5
254
100
AcDbEntity
  8
0
100
AcDbPolyline
 62
7
  6
CONTINUOUS
 90
2
 70
0
 43
0.2
 10
211.2669925664
 20
28.3608822239
 10
211.2669925664
 20
27.2088539793
  0
LWPOLYLINE
  5
255
100
AcDbEntity
  8
0
100
AcDbPolyline
 62
7
  6
CONTINUOUS
 90
2
 70
0
 43
0.2
 10
211.2669925664
 20
27.2088539793
 10
211.4881338355
 20
27.2088539793
  0
LWPOLYLINE
  5
256
100
AcDbEntity
  8
0
100
AcDbPolyline
 62
7
  6
CONTINUOUS
 90
2
 70
0
 43
0.2
 10
211.4881338355
 20
27.2088539793
 10
211.4881338355
 20
28.3608822239
  0
SPLINE
  5
257
100
AcDbEntity
  8
0
100
AcDbSpline
 62
7
  6
CONTINUOUS
 70
2
 71
3
 72
17
 73
13
 74
0
 42
0.0000001
 43
0.0000001
 44
0.0000000001
 40
0.0
 40
0.0
 40
0.0
 40
0.0
 40
1.0
 40
1.0
 40
1.0
 40
2.0
 40
2.0
 40
2.0
 40
3.0
 40
3.0
 40
3.0
 40
4.0
 40
4.0
 40
4.0
 40
4.0
 10
211.3776940538
 20
29.0434105432
 30
0.0
 10
211.2936865421
 20
29.0434105432
 30
0.0
 10
211.2251196633
 20
28.9743202532
 30
0.0
 10
211.2251196633
 20
28.888480802
 30
0.0
 10
211.2251196633
 20
28.8042115847
 30
0.0
 10
211.2936865421
 20
28.7382617624
 30
0.0
 10
211.3776940538
 20
28.7382617624
 30
0.0
 10
211.4614398598
 20
28.7382617624
 30
0.0
 10
211.5302684442
 20
28.8042115847
 30
0.0
 10
211.5302684442
 20
28.888480802
 30
0.0
 10
211.5302684442
 20
28.9743202532
 30
0.0
 10
211.4614398598
 20
29.0434105432
 30
0.0
 10
211.3776940538
 20
29.0434105432
 30
0.0
  0
SPLINE
  5
258
100
AcDbEntity
  8
0
100
AcDbSpline
 62
7
  6
CONTINUOUS
 70
2
 71
3
 72
17
 73
13
 74
0
 42
0.0000001
 43
0.0000001
 44
0.0000000001
 40
0.0
 40
0.0
 40
0.0
 40
0.0
 40
1.0
 40
1.0
 40
1.0
 40
2.0
 40
2.0
 40
2.0
 40
3.0
 40
3.0
 40
3.0
 40
4.0
 40
4.0
 40
4.0
 40
4.0
 10
213.6184177771
 20
27.3664007769
 30
0.0
 10
213.3844529315
 20
27.3664007769
 30
0.0
 10
213.2541235208
 20
27.568437534
 30
0.0
 10
213.2541235208
 20
27.7846063959
 30
0.0
 10
213.2541235208
 20
27.9992050239
 30
0.0
 10
213.38994875
 20
28.1981013133
 30
0.0
 10
213.6184177771
 20
28.1981013133
 30
0.0
 10
213.8578784413
 20
28.1981013133
 30
0.0
 10
213.9934419649
 20
28.0091498384
 30
0.0
 10
213.9934419649
 20
27.7846063959
 30
0.0
 10
213.9934419649
 20
27.5584927196
 30
0.0
 10
213.8602337921
 20
27.3664007769
 30
0.0
 10
213.6184177771
 20
27.3664007769
 30
0.0
  0
SPLINE
  5
259
100
AcDbEntity
  8
0
100
AcDbSpline
 62
7
  6
CONTINUOUS
 70
2
 71
3
 72
50
 73
46
 74
0
 42
0.0000001
 43
0.0000001
 44
0.0000000001
 40
0.0
 40
0.0
 40
0.0
 40
0.0
 40
1.0
 40
1.0
 40
1.0
 40
2.0
 40
2.0
 40
2.0
 40
3.0
 40
3.0
 40
3.0
 40
4.0
 40
4.0
 40
4.0
 40
5.0
 40
5.0
 40
5.0
 40
6.0
 40
6.0
 40
6.0
 40
7.0
 40
7.0
 40
7.0
 40
8.0
 40
8.0
 40
8.0
 40
9.0
 40
9.0
 40
9.0
 40
10.0
 40
10.0
 40
10.0
 40
11.0
 40
11.0
 40
11.0
 40
12.0
 40
12.0
 40
12.0
 40
13.0
 40
13.0
 40
13.0
 40
14.0
 40
14.0
 40
14.0
 40
15.0
 40
15.0
 40
15.0
 40
15.0
 10
214.2025447744
 20
28.3614056352
 30
0.0
 10
214.2025447744
 20
28.3614056352
 30
0.0
 10
213.980880094
 20
28.3614056352
 30
0.0
 10
213.980880094
 20
28.3614056352
 30
0.0
 10
213.980880094
 20
28.3614056352
 30
0.0
 10
213.980880094
 20
28.1640795796
 30
0.0
 10
213.980880094
 20
28.1640795796
 30
0.0
 10
213.980880094
 20
28.1640795796
 30
0.0
 10
213.9761693924
 20
28.1640795796
 30
0.0
 10
213.9761693924
 20
28.1640795796
 30
0.0
 10
213.8848341227
 20
28.3069708612
 30
0.0
 10
213.7469152483
 20
28.3954273689
 30
0.0
 10
213.5741895233
 20
28.3954273689
 30
0.0
 10
213.2418233555
 20
28.3954273689
 30
0.0
 10
213.032720546
 20
28.1075511605
 30
0.0
 10
213.032720546
 20
27.7919341539
 30
0.0
 10
213.032720546
 20
27.4621850426
 30
0.0
 10
213.2297848959
 20
27.1690747214
 30
0.0
 10
213.5846577491
 20
27.1690747214
 30
0.0
 10
213.7469152483
 20
27.1690747214
 30
0.0
 10
213.8869277678
 20
27.257531229
 30
0.0
 10
213.9761693924
 20
27.388384051
 30
0.0
 10
213.9761693924
 20
27.388384051
 30
0.0
 10
213.980880094
 20
27.388384051
 30
0.0
 10
213.980880094
 20
27.388384051
 30
0.0
 10
213.980880094
 20
27.388384051
 30
0.0
 10
213.980880094
 20
27.1690747214
 30
0.0
 10
213.980880094
 20
27.1690747214
 30
0.0
 10
213.980880094
 20
26.9324928193
 30
0.0
 10
213.9243516749
 20
26.7456349895
 30
0.0
 10
213.6511309826
 20
26.7456349895
 30
0.0
 10
213.4488325199
 20
26.7456349895
 30
0.0
 10
213.3062029439
 20
26.8639259406
 30
0.0
 10
213.3062029439
 20
27.070149988
 30
0.0
 10
213.3062029439
 20
27.070149988
 30
0.0
 10
213.0845382635
 20
27.070149988
 30
0.0
 10
213.0845382635
 20
27.070149988
 30
0.0
 10
213.0895106707
 20
26.7456349895
 30
0.0
 10
213.3205967543
 20
26.5488323453
 30
0.0
 10
213.6409244625
 20
26.5488323453
 30
0.0
 10
214.0889645249
 20
26.5488323453
 30
0.0
 10
214.2025447744
 20
26.8340914971
 30
0.0
 10
214.2025447744
 20
27.2308372534
 30
0.0
 10
214.2025447744
 20
27.2308372534
 30
0.0
 10
214.2025447744
 20
28.3614056352
 30
0.0
 10
214.2025447744
 20
28.3614056352
 30
0.0
  0
SPLINE
  5
25A
100
AcDbEntity
  8
0
100
AcDbSpline
 62
7
  6
CONTINUOUS
 70
2
 71
3
 72
44
 73
40
 74
0
 42
0.0000001
 43
0.0000001
 44
0.0000000001
 40
0.0
 40
0.0
 40
0.0
 40
0.0
 40
1.0
 40
1.0
 40
1.0
 40
2.0
 40
2.0
 40
2.0
 40
3.0
 40
3.0
 40
3.0
 40
4.0
 40
4.0
 40
4.0
 40
5.0
 40
5.0
 40
5.0
 40
6.0
 40
6.0
 40
6.0
 40
7.0
 40
7.0
 40
7.0
 40
8.0
 40
8.0
 40
8.0
 40
9.0
 40
9.0
 40
9.0
 40
10.0
 40
10.0
 40
10.0
 40
11.0
 40
11.0
 40
11.0
 40
12.0
 40
12.0
 40
12.0
 40
13.0
 40
13.0
 40
13.0
 40
13.0
 10
215.7714701098
 20
29.3464656789
 30
0.0
 10
215.7714701098
 20
29.3464656789
 30
0.0
 10
215.7714701098
 20
27.208330568
 30
0.0
 10
215.7714701098
 20
27.208330568
 30
0.0
 10
215.7714701098
 20
27.208330568
 30
0.0
 10
215.9928730846
 20
27.208330568
 30
0.0
 10
215.9928730846
 20
27.208330568
 30
0.0
 10
215.9928730846
 20
27.208330568
 30
0.0
 10
215.9928730846
 20
27.7380227913
 30
0.0
 10
215.9928730846
 20
27.7380227913
 30
0.0
 10
215.9928730846
 20
27.9479107177
 30
0.0
 10
215.9928730846
 20
28.1986247246
 30
0.0
 10
216.2781322364
 20
28.1986247246
 30
0.0
 10
216.5050310297
 20
28.1986247246
 30
0.0
 10
216.5319867111
 20
28.0656782575
 30
0.0
 10
216.5319867111
 20
27.8693990246
 30
0.0
 10
216.5319867111
 20
27.8693990246
 30
0.0
 10
216.5319867111
 20
27.208330568
 30
0.0
 10
216.5319867111
 20
27.208330568
 30
0.0
 10
216.5319867111
 20
27.208330568
 30
0.0
 10
216.7539130971
 20
27.208330568
 30
0.0
 10
216.7539130971
 20
27.208330568
 30
0.0
 10
216.7539130971
 20
27.208330568
 30
0.0
 10
216.7539130971
 20
27.8955695889
 30
0.0
 10
216.7539130971
 20
27.8955695889
 30
0.0
 10
216.7539130971
 20
28.1761180392
 30
0.0
 10
216.6699055854
 20
28.3959507801
 30
0.0
 10
216.3448671757
 20
28.3959507801
 30
0.0
 10
216.2051163618
 20
28.3959507801
 30
0.0
 10
216.0669357818
 20
28.3294775466
 30
0.0
 10
215.9975837861
 20
28.2064758939
 30
0.0
 10
215.9975837861
 20
28.2064758939
 30
0.0
 10
215.9928730846
 20
28.2064758939
 30
0.0
 10
215.9928730846
 20
28.2064758939
 30
0.0
 10
215.9928730846
 20
28.2064758939
 30
0.0
 10
215.9928730846
 20
29.3464656789
 30
0.0
 10
215.9928730846
 20
29.3464656789
 30
0.0
 10
215.9928730846
 20
29.3464656789
 30
0.0
 10
215.7714701098
 20
29.3464656789
 30
0.0
 10
215.7714701098
 20
29.3464656789
 30
0.0
  0
LWPOLYLINE
  5
25B
100
AcDbEntity
  8
0
100
AcDbPolyline
 62
7
  6
CONTINUOUS
 90
2
 70
0
 43
0.2
 10
218.593703774
 20
28.1541347652
 10
218.8101343415
 20
28.1541347652
  0
LWPOLYLINE
  5
25C
100
AcDbEntity
  8
0
100
AcDbPolyline
 62
7
  6
CONTINUOUS
 90
2
 70
0
 43
0.2
 10
218.8101343415
 20
28.1541347652
 10
218.8101343415
 20
28.3608822239
  0
LWPOLYLINE
  5
25D
100
AcDbEntity
  8
0
100
AcDbPolyline
 62
7
  6
CONTINUOUS
 90
2
 70
0
 43
0.2
 10
218.8101343415
 20
28.3608822239
 10
218.593703774
 20
28.3608822239
  0
LWPOLYLINE
  5
25E
100
AcDbEntity
  8
0
100
AcDbPolyline
 62
7
  6
CONTINUOUS
 90
2
 70
0
 43
0.2
 10
218.593703774
 20
28.3608822239
 10
218.593703774
 20
28.8015945282
  0
LWPOLYLINE
  5
25F
100
AcDbEntity
  8
0
100
AcDbPolyline
 62
7
  6
CONTINUOUS
 90
2
 70
0
 43
0.2
 10
218.593703774
 20
28.8015945282
 10
218.3720390936
 20
28.8015945282
  0
LWPOLYLINE
  5
260
100
AcDbEntity
  8
0
100
AcDbPolyline
 62
7
  6
CONTINUOUS
 90
2
 70
0
 43
0.2
 10
218.3720390936
 20
28.8015945282
 10
218.3720390936
 20
28.3608822239
  0
LWPOLYLINE
  5
261
100
AcDbEntity
  8
0
100
AcDbPolyline
 62
7
  6
CONTINUOUS
 90
2
 70
0
 43
0.2
 10
218.3720390936
 20
28.3608822239
 10
218.2513927917
 20
28.3608822239
  0
LWPOLYLINE
  5
262
100
AcDbEntity
  8
0
100
AcDbPolyline
 62
7
  6
CONTINUOUS
 90
2
 70
0
 43
0.2
 10
218.2513927917
 20
28.3608822239
 10
218.2513927917
 20
28.1541347652
  0
LWPOLYLINE
  5
263
100
AcDbEntity
  8
0
100
AcDbPolyline
 62
7
  6
CONTINUOUS
 90
2
 70
0
 43
0.2
 10
218.2513927917
 20
28.1541347652
 10
218.3720390936
 20
28.1541347652
  0
LWPOLYLINE
  5
264
100
AcDbEntity
  8
0
100
AcDbPolyline
 62
7
  6
CONTINUOUS
 90
2
 70
0
 43
0.2
 10
218.3720390936
 20
28.1541347652
 10
218.3720390936
 20
27.208330568
  0
LWPOLYLINE
  5
265
100
AcDbEntity
  8
0
100
AcDbPolyline
 62
7
  6
CONTINUOUS
 90
2
 70
0
 43
0.2
 10
218.3720390936
 20
27.208330568
 10
218.593703774
 20
27.208330568
  0
LWPOLYLINE
  5
266
100
AcDbEntity
  8
0
100
AcDbPolyline
 62
7
  6
CONTINUOUS
 90
2
 70
0
 43
0.2
 10
218.593703774
 20
27.208330568
 10
218.593703774
 20
28.1541347652
  0
SPLINE
  5
267
100
AcDbEntity
  8
0
100
AcDbSpline
 62
7
  6
CONTINUOUS
 70
2
 71
3
 72
20
 73
16
 74
0
 42
0.0000001
 43
0.0000001
 44
0.0000000001
 40
0.0
 40
0.0
 40
0.0
 40
0.0
 40
1.0
 40
1.0
 40
1.0
 40
2.0
 40
2.0
 40
2.0
 40
3.0
 40
3.0
 40
3.0
 40
4.0
 40
4.0
 40
4.0
 40
5.0
 40
5.0
 40
5.0
 40
5.0
 10
206.3757140812
 20
37.5692570114
 30
0.0
 10
206.3757140812
 20
37.5692570114
 30
0.0
 10
208.6920707357
 20
34.7396955891
 30
0.0
 10
208.6920707357
 20
34.7396955891
 30
0.0
 10
208.0404236823
 20
34.0875251244
 30
0.0
 10
207.2635504783
 20
33.3516088537
 30
0.0
 10
206.2923608336
 20
33.3516088537
 30
0.0
 10
205.2938229492
 20
33.3516088537
 30
0.0
 10
204.3505049556
 20
34.281187301
 30
0.0
 10
204.3505049556
 20
35.2803794495
 30
0.0
 10
204.3505049556
 20
36.279571598
 30
0.0
 10
205.5293580287
 20
36.9861768367
 30
0.0
 10
206.2508804891
 20
37.4860346166
 30
0.0
 10
206.2508804891
 20
37.4860346166
 30
0.0
 10
206.3757140812
 20
37.5692570114
 30
0.0
 10
206.3757140812
 20
37.5692570114
 30
0.0
  0
SPLINE
  5
268
100
AcDbEntity
  8
0
100
AcDbSpline
 62
7
  6
CONTINUOUS
 70
2
 71
3
 72
23
 73
19
 74
0
 42
0.0000001
 43
0.0000001
 44
0.0000000001
 40
0.0
 40
0.0
 40
0.0
 40
0.0
 40
1.0
 40
1.0
 40
1.0
 40
2.0
 40
2.0
 40
2.0
 40
3.0
 40
3.0
 40
3.0
 40
4.0
 40
4.0
 40
4.0
 40
5.0
 40
5.0
 40
5.0
 40
6.0
 40
6.0
 40
6.0
 40
6.0
 10
206.6531220638
 20
39.2070109311
 30
0.0
 10
206.6531220638
 20
39.2070109311
 30
0.0
 10
206.3066237912
 20
39.6503402919
 30
0.0
 10
206.3066237912
 20
39.6503402919
 30
0.0
 10
206.0008207463
 20
40.0384497619
 30
0.0
 10
205.6819324192
 20
40.4269517903
 30
0.0
 10
205.6819324192
 20
40.9538961044
 30
0.0
 10
205.6819324192
 20
41.620067821
 30
0.0
 10
206.2232705436
 20
42.0637897403
 30
0.0
 10
206.8471767988
 20
42.0637897403
 30
0.0
 10
207.5409584609
 20
42.0637897403
 30
0.0
 10
208.0681644806
 20
41.6615481656
 30
0.0
 10
208.0681644806
 20
40.9265478646
 30
0.0
 10
208.0681644806
 20
40.163283354
 30
0.0
 10
207.3469037259
 20
39.7331701282
 30
0.0
 10
206.819828559
 20
39.3174507128
 30
0.0
 10
206.819828559
 20
39.3174507128
 30
0.0
 10
206.6531220638
 20
39.2070109311
 30
0.0
 10
206.6531220638
 20
39.2070109311
 30
0.0
  0
SPLINE
  5
269
100
AcDbEntity
  8
0
100
AcDbSpline
 62
7
  6
CONTINUOUS
 70
2
 71
3
 72
50
 73
46
 74
0
 42
0.0000001
 43
0.0000001
 44
0.0000000001
 40
0.0
 40
0.0
 40
0.0
 40
0.0
 40
1.0
 40
1.0
 40
1.0
 40
2.0
 40
2.0
 40
2.0
 40
3.0
 40
3.0
 40
3.0
 40
4.0
 40
4.0
 40
4.0
 40
5.0
 40
5.0
 40
5.0
 40
6.0
 40
6.0
 40
6.0
 40
7.0
 40
7.0
 40
7.0
 40
8.0
 40
8.0
 40
8.0
 40
9.0
 40
9.0
 40
9.0
 40
10.0
 40
10.0
 40
10.0
 40
11.0
 40
11.0
 40
11.0
 40
12.0
 40
12.0
 40
12.0
 40
13.0
 40
13.0
 40
13.0
 40
14.0
 40
14.0
 40
14.0
 40
15.0
 40
15.0
 40
15.0
 40
15.0
 10
210.6067092267
 20
32.408421713
 30
0.0
 10
210.6067092267
 20
32.408421713
 30
0.0
 10
212.2159372313
 20
32.408421713
 30
0.0
 10
212.2159372313
 20
32.408421713
 30
0.0
 10
212.2159372313
 20
32.408421713
 30
0.0
 10
210.3429099376
 20
34.7255634844
 30
0.0
 10
210.3429099376
 20
34.7255634844
 30
0.0
 10
210.3429099376
 20
34.7255634844
 30
0.0
 10
211.6192483631
 20
36.223043179
 30
0.0
 10
211.6192483631
 20
36.223043179
 30
0.0
 10
211.6192483631
 20
36.223043179
 30
0.0
 10
210.7870244154
 20
37.0840547475
 30
0.0
 10
210.7870244154
 20
37.0840547475
 30
0.0
 10
210.7870244154
 20
37.0840547475
 30
0.0
 10
209.5664292921
 20
35.6687506251
 30
0.0
 10
209.5664292921
 20
35.6687506251
 30
0.0
 10
209.5664292921
 20
35.6687506251
 30
0.0
 10
207.3885149233
 20
38.3041264595
 30
0.0
 10
207.3885149233
 20
38.3041264595
 30
0.0
 10
208.2620883627
 20
38.9421648194
 30
0.0
 10
209.2887596039
 20
39.7331701282
 30
0.0
 10
209.2887596039
 20
40.9120232013
 30
0.0
 10
209.2887596039
 20
42.2857161264
 30
0.0
 10
208.150863464
 20
43.0901992758
 30
0.0
 10
206.8755718611
 20
43.0901992758
 30
0.0
 10
205.5021406418
 20
43.0901992758
 30
0.0
 10
204.461206443
 20
42.2439740762
 30
0.0
 10
204.461206443
 20
40.801321714
 30
0.0
 10
204.461206443
 20
39.9137470226
 30
0.0
 10
205.0165458195
 20
39.1368738185
 30
0.0
 10
205.6127112763
 20
38.5124441521
 30
0.0
 10
205.6127112763
 20
38.5124441521
 30
0.0
 10
204.9608025173
 20
38.0408505817
 30
0.0
 10
204.9608025173
 20
38.0408505817
 30
0.0
 10
203.9622646329
 20
37.319589827
 30
0.0
 10
203.129386421
 20
36.5983290724
 30
0.0
 10
203.129386421
 20
35.266770756
 30
0.0
 10
203.129386421
 20
33.463095458
 30
0.0
 10
204.5864325936
 20
32.1864953269
 30
0.0
 10
206.333972031
 20
32.1864953269
 30
0.0
 10
207.5688301119
 20
32.1864953269
 30
0.0
 10
208.6782003366
 20
32.8946707994
 30
0.0
 10
209.4690747925
 20
33.8232024241
 30
0.0
 10
209.4690747925
 20
33.8232024241
 30
0.0
 10
210.6067092267
 20
32.408421713
 30
0.0
 10
210.6067092267
 20
32.408421713
 30
0.0
  0
LINE
  5
26A
100
AcDbEntity
  8
0
100
AcDbLine
 62
7
  6
CONTINUOUS
 10
196.4095706017
 20
30.3822966176
 11
218.8234813294
 21
30.3822966176
  0
LINE
  5
26B
100
AcDbEntity
  8
0
100
AcDbLine
 62
7
  6
CONTINUOUS
 10
218.8234813294
 20
30.3822966176
 11
218.8234813294
 21
52.7962073453
  0
LINE
  5
26C
100
AcDbEntity
  8
0
100
AcDbLine
 62
7
  6
CONTINUOUS
 10
218.8234813294
 20
52.7962073453
 11
196.4095706017
 21
52.7962073453
  0
LINE
  5
26D
100
AcDbEntity
  8
0
100
AcDbLine
 62
7
  6
CONTINUOUS
 10
196.4095706017
 20
52.7962073453
 11
196.4095706017
 21
30.3822966176
  0
ENDBLK
  5
26E
100
AcDbEntity
  8
0
  6
BYBLOCK
 62
0
100
AcDbBlockEnd
  0
BLOCK
  5
26F
100
AcDbEntity
  8
0
100
AcDbBlockBegin
  2
_CLOSED
 70
64
 10
0.0
 20
0.0
  3
_CLOSED
  1

  0
LINE
  5
270
100
AcDbEntity
  8
0
  6
BYBLOCK
 62
0
100
AcDbLine
 10
0.0
 20
0.0
 11
-1.0
 21
0.2
  0
LINE
  5
271
100
AcDbEntity
  8
0
  6
BYBLOCK
 62
0
100
AcDbLine
 10
-1.0
 20
0.2
 11
-1.0
 21
-0.2
  0
LINE
  5
272
100
AcDbEntity
  8
0
  6
BYBLOCK
 62
0
100
AcDbLine
 10
-1.0
 20
-0.2
 11
0.0
 21
0.0
  0
LINE
  5
273
100
AcDbEntity
  8
0
  6
BYBLOCK
 62
0
100
AcDbLine
 10
-1.0
 20
0.0
 11
0.0
 21
0.0
  0
ENDBLK
  5
274
100
AcDbEntity
  8
0
  6
BYBLOCK
 62
0
100
AcDbBlockEnd
  0
BLOCK
  5
275
100
AcDbEntity
  8
0
100
AcDbBlockBegin
 62
2
  6
CONTINUOUS
  2
*D0
 70
65
 10
0.0
 20
0.0
  3
*D0
  1

  0
MTEXT
  5
276
100
AcDbEntity
  8
0
100
AcDbMText
 62
2
  6
CONTINUOUS
  7
TEXTSTYLE_2
 71
1
 72
1
 10
83.1117093209
 20
84.1018878258
 30
0.0
 11
0.9024390132
 21
0.4308176267
 31
0.0
  1
{\Fgdt;n}\Ftxt;45
 40
3.0
 41
12.75
  0
LINE
  5
277
100
AcDbEntity
  8
0
100
AcDbLine
 62
2
  6
CONTINUOUS
 10
77.6545371403
 20
77.3412692374
 11
92.3980070331
 21
84.3796913535
  0
INSERT
  5
278
100
AcDbEntity
  8
0
100
AcDbBlockReference
 62
2
  6
CONTINUOUS
  2
_CLOSED
 10
77.6545371403
 20
77.3412692374
 41
2.5
 42
2.5
 43
2.5
 50
205.5194599817
  0
ENDBLK
  5
279
100
AcDbEntity
  8
0
  6
BYBLOCK
 62
0
100
AcDbBlockEnd
  0
BLOCK
  5
27A
100
AcDbEntity
  8
0
100
AcDbBlockBegin
 62
2
  6
CONTINUOUS
  2
*D1
 70
65
 10
0.0
 20
0.0
  3
*D1
  1

  0
MTEXT
  5
27B
100
AcDbEntity
  8
0
100
AcDbMText
 62
2
  6
CONTINUOUS
  7
STANDARD
 71
2
 72
1
 10
95.2677650591
 20
172.7372360996
 30
0.0
 11
0.0
 21
1.0
 31
0.0
  1
7
 40
3.0
 41
3.5357142857
  0
LINE
  5
27C
100
AcDbEntity
  8
0
100
AcDbLine
 62
2
  6
CONTINUOUS
 10
87.8635498888
 20
175.9872360996
 11
99.7677650591
 21
175.9872360996
  0
LINE
  5
27D
100
AcDbEntity
  8
0
100
AcDbLine
 62
2
  6
CONTINUOUS
 10
87.9068504449
 20
169.4872360996
 11
99.7677650591
 21
169.4872360996
  0
LINE
  5
27E
100
AcDbEntity
  8
0
100
AcDbLine
 62
2
  6
CONTINUOUS
 10
99.0177650591
 20
175.9872360996
 11
99.0177650591
 21
172.7372360996
  0
LINE
  5
27F
100
AcDbEntity
  8
0
100
AcDbLine
 62
2
  6
CONTINUOUS
 10
99.0177650591
 20
169.4872360996
 11
99.0177650591
 21
172.7372360996
  0
INSERT
  5
280
100
AcDbEntity
  8
0
100
AcDbBlockReference
 62
2
  6
CONTINUOUS
  2
_CLOSED
 10
99.0177650591
 20
175.9872360996
 41
2.5
 42
2.5
 43
2.5
 50
90.0
  0
INSERT
  5
281
100
AcDbEntity
  8
0
100
AcDbBlockReference
 62
2
  6
CONTINUOUS
  2
_CLOSED
 10
99.0177650591
 20
169.4872360996
 41
2.5
 42
2.5
 43
2.5
 50
270.0
  0
ENDBLK
  5
282
100
AcDbEntity
  8
0
  6
BYBLOCK
 62
0
100
AcDbBlockEnd
  0
BLOCK
  5
283
100
AcDbEntity
  8
0
100
AcDbBlockBegin
 62
2
  6
CONTINUOUS
  2
*D2
 70
65
 10
0.0
 20
0.0
  3
*D2
  1

  0
MTEXT
  5
284
100
AcDbEntity
  8
0
100
AcDbMText
 62
2
  6
CONTINUOUS
  7
STANDARD
 71
2
 72
1
 10
111.0808503617
 20
153.1872360996
 30
0.0
 11
0.0
 21
1.0
 31
0.0
  1
46
 40
3.0
 41
7.0714285714
  0
LINE
  5
285
100
AcDbEntity
  8
0
100
AcDbLine
 62
2
  6
CONTINUOUS
 10
88.0462296663
 20
175.9872360996
 11
115.5808503617
 21
175.9872360996
  0
LINE
  5
286
100
AcDbEntity
  8
0
100
AcDbLine
 62
2
  6
CONTINUOUS
 10
71.0996593437
 20
130.3872360996
 11
115.5808503617
 21
130.3872360996
  0
LINE
  5
287
100
AcDbEntity
  8
0
100
AcDbLine
 62
2
  6
CONTINUOUS
 10
114.8308503617
 20
175.9872360996
 11
114.8308503617
 21
153.1872360996
  0
LINE
  5
288
100
AcDbEntity
  8
0
100
AcDbLine
 62
2
  6
CONTINUOUS
 10
114.8308503617
 20
130.3872360996
 11
114.8308503617
 21
153.1872360996
  0
INSERT
  5
289
100
AcDbEntity
  8
0
100
AcDbBlockReference
 62
2
  6
CONTINUOUS
  2
_CLOSED
 10
114.8308503617
 20
175.9872360996
 41
2.5
 42
2.5
 43
2.5
 50
90.0
  0
INSERT
  5
28A
100
AcDbEntity
  8
0
100
AcDbBlockReference
 62
2
  6
CONTINUOUS
  2
_CLOSED
 10
114.8308503617
 20
130.3872360996
 41
2.5
 42
2.5
 43
2.5
 50
270.0
  0
ENDBLK
  5
28B
100
AcDbEntity
  8
0
  6
BYBLOCK
 62
0
100
AcDbBlockEnd
  0
BLOCK
  5
28C
100
AcDbEntity
  8
0
100
AcDbBlockBegin
 62
2
  6
CONTINUOUS
  2
*D3
 70
65
 10
0.0
 20
0.0
  3
*D3
  1

  0
MTEXT
  5
28D
100
AcDbEntity
  8
0
100
AcDbMText
 62
2
  6
CONTINUOUS
  7
STANDARD
 71
2
 72
1
 10
103.1224835902
 20
161.1872360996
 30
0.0
 11
0.0
 21
1.0
 31
0.0
  1
29,6
 40
3.0
 41
13.1785714286
  0
LINE
  5
28E
100
AcDbEntity
  8
0
100
AcDbLine
 62
2
  6
CONTINUOUS
 10
87.9596285539
 20
146.3872360996
 11
107.6224835902
 21
146.3872360996
  0
LINE
  5
28F
100
AcDbEntity
  8
0
100
AcDbLine
 62
2
  6
CONTINUOUS
 10
87.9548897775
 20
175.9872360996
 11
107.6224835902
 21
175.9872360996
  0
LINE
  5
290
100
AcDbEntity
  8
0
100
AcDbLine
 62
2
  6
CONTINUOUS
 10
106.8724835902
 20
146.3872360996
 11
106.8724835902
 21
161.1872360996
  0
LINE
  5
291
100
AcDbEntity
  8
0
100
AcDbLine
 62
2
  6
CONTINUOUS
 10
106.8724835902
 20
175.9872360996
 11
106.8724835902
 21
161.1872360996
  0
INSERT
  5
292
100
AcDbEntity
  8
0
100
AcDbBlockReference
 62
2
  6
CONTINUOUS
  2
_CLOSED
 10
106.8724835902
 20
146.3872360996
 41
2.5
 42
2.5
 43
2.5
 50
270.0
  0
INSERT
  5
293
100
AcDbEntity
  8
0
100
AcDbBlockReference
 62
2
  6
CONTINUOUS
  2
_CLOSED
 10
106.8724835902
 20
175.9872360996
 41
2.5
 42
2.5
 43
2.5
 50
90.0
  0
ENDBLK
  5
294
100
AcDbEntity
  8
0
  6
BYBLOCK
 62
0
100
AcDbBlockEnd
  0
ENDSEC
  0
SECTION
  2
ENTITIES
  0
DIMENSION
  5
295
100
AcDbEntity
  8
0
100
AcDbDimension
 62
2
  6
CONTINUOUS
  2
*D0
 10
77.6545371403
 20
77.3412692374
 11
87.5933015669
 21
84.5792042196
 70
163
  1
%%c<>
  3
DIMSTYLE_1
100
AcDbDiametricDimension
 15
37.0447815472
 25
57.9544760351
  0
DIMENSION
  5
296
100
AcDbEntity
  8
0
100
AcDbDimension
 62
2
  6
CONTINUOUS
  2
*D1
 10
99.0177650591
 20
169.4872360996
 11
99.0177650591
 21
172.308662994
 70
160
  3
DIMSTYLE_2
100
AcDbAlignedDimension
 13
87.1135498888
 23
175.9872360996
 14
87.1568504449
 24
169.4872360996
 50
270.0
100
AcDbRotatedDimension
  0
DIMENSION
  5
297
100
AcDbEntity
  8
0
100
AcDbDimension
 62
2
  6
CONTINUOUS
  2
*D2
 10
114.8308503617
 20
130.3872360996
 11
114.8308503617
 21
152.758663764
 70
160
  3
DIMSTYLE_3
100
AcDbAlignedDimension
 13
87.2962296663
 23
175.9872360996
 14
70.3496593437
 24
130.3872360996
 50
270.0
100
AcDbRotatedDimension
  0
DIMENSION
  5
298
100
AcDbEntity
  8
0
100
AcDbDimension
 62
2
  6
CONTINUOUS
  2
*D3
 10
106.8724835902
 20
175.9872360996
 11
106.8724835902
 21
160.7586642112
 70
160
  3
DIMSTYLE_4
100
AcDbAlignedDimension
 13
87.2096285539
 23
146.3872360996
 14
87.2048897775
 24
175.9872360996
 50
90.0
100
AcDbRotatedDimension
  0
LINE
  5
299
100
AcDbEntity
  8
0
100
AcDbLine
 62
2
  6
CONTINUOUS
 10
193.7904134944
 20
53.1725198453
 11
283.7904134944
 21
53.1725198453
  0
LINE
  5
29A
100
AcDbEntity
  8
0
100
AcDbLine
 62
2
  6
CONTINUOUS
 10
193.7904134944
 20
53.1725198453
 11
193.7904134944
 21
13.1725198453
  0
LINE
  5
29B
100
AcDbEntity
  8
0
100
AcDbLine
 62
2
  6
CONTINUOUS
 10
223.7904134944
 20
47.1725198453
 11
283.7904134944
 21
47.1725198453
  0
LINE
  5
29C
100
AcDbEntity
  8
0
100
AcDbLine
 62
2
  6
CONTINUOUS
 10
223.7904134944
 20
41.1725198453
 11
283.7904134944
 21
41.1725198453
  0
LINE
  5
29D
100
AcDbEntity
  8
0
100
AcDbLine
 62
2
  6
CONTINUOUS
 10
223.7904134944
 20
31.1725198453
 11
283.7904134944
 21
31.1725198453
  0
LINE
  5
29E
100
AcDbEntity
  8
0
100
AcDbLine
 62
2
  6
CONTINUOUS
 10
193.7904134944
 20
26.1725198453
 11
283.7904134944
 21
26.1725198453
  0
LINE
  5
29F
100
AcDbEntity
  8
0
100
AcDbLine
 62
2
  6
CONTINUOUS
 10
193.7904134944
 20
13.1725198453
 11
283.7904134944
 21
13.1725198453
  0
LINE
  5
2A0
100
AcDbEntity
  8
0
100
AcDbLine
 62
2
  6
CONTINUOUS
 10
223.7904134944
 20
53.1725198453
 11
223.7904134944
 21
26.1725198453
  0
LINE
  5
2A1
100
AcDbEntity
  8
0
100
AcDbLine
 62
2
  6
CONTINUOUS
 10
263.7904134944
 20
53.1725198453
 11
263.7904134944
 21
41.1725198453
  0
LINE
  5
2A2
100
AcDbEntity
  8
0
100
AcDbLine
 62
2
  6
CONTINUOUS
 10
283.7904134944
 20
53.1725198453
 11
283.7904134944
 21
13.1725198453
  0
INSERT
  5
2A3
100
AcDbEntity
  8
0
100
AcDbBlockReference
 62
2
  6
CONTINUOUS
  2
LOGO2_BL0
 10
207.6164605391
 20
39.6725198453
  0
MTEXT
  5
2A4
100
AcDbEntity
  8
9_SOLID
100
AcDbMText
 62
2
  6
CONTINUOUS
  7
STANDARD
 71
1
 72
1
 10
225.2779134944
 20
51.6725198453
 30
0.0
 11
1.0
 21
0.0
 31
0.0
  1
720_C_001
 40
3.0
 41
31.9285714286
  0
MTEXT
  5
2A5
100
AcDbEntity
  8
0
100
AcDbMText
 62
2
  6
CONTINUOUS
  7
STANDARD
 71
1
 72
1
 10
265.2779134944
 20
51.9225198453
 30
0.0
 11
1.0
 21
0.0
 31
0.0
  1
Rev:02
 40
3.5
 41
22.75
  0
MTEXT
  5
2A6
100
AcDbEntity
  8
9_SOLID
100
AcDbMText
 62
2
  6
CONTINUOUS
  7
STANDARD
 71
1
 72
1
 10
225.2779134944
 20
45.4225198453
 30
0.0
 11
1.0
 21
0.0
 31
0.0
  1
Scale:1:1
 40
3.5
 41
28.375
  0
MTEXT
  5
2A7
100
AcDbEntity
  8
9_SOLID
100
AcDbMText
 62
2
  6
CONTINUOUS
  7
STANDARD
 71
1
 72
1
 10
265.2779134944
 20
45.9225198453
 30
0.0
 11
1.0
 21
0.0
 31
0.0
  1
A4
 40
3.5
 41
9.625
  0
MTEXT
  5
2A8
100
AcDbEntity
  8
0
100
AcDbMText
 62
2
  6
CONTINUOUS
  7
STANDARD
 71
1
 72
1
 10
225.2779134944
 20
37.9225198453
 30
0.0
 11
1.0
 21
0.0
 31
0.0
  1
Goccia 2.0 - 2.6
 40
3.5
 41
60.75
  0
MTEXT
  5
2A9
100
AcDbEntity
  8
0
100
AcDbMText
 62
2
  6
CONTINUOUS
  7
STANDARD
 71
1
 72
1
 10
225.2779134944
 20
29.9225198453
 30
0.0
 11
1.0
 21
0.0
 31
0.0
  1
DATE:19/03/2018
 40
2.5
 41
41.9642857143
  0
MTEXT
  5
2AA
100
AcDbEntity
  8
9_SOLID
100
AcDbMText
 62
2
  6
CONTINUOUS
  7
STANDARD
 71
1
 72
1
 10
195.2779134944
 20
25.8600198453
 30
0.0
 11
1.0
 21
0.0
 31
0.0
  1
Any integral or partial reproductions are prohibited \Pwithout prior authorisation of L {\Ftxt.shx;\W0.190476;\H2.250000; }& L Luce & Light s.r.l., \Pin accordance with the law in force. \PAll rights reserved.
 40
2.25
 41
134.5982142857
  0
LWPOLYLINE
  5
2AB
100
AcDbEntity
  8
0
100
AcDbPolyline
 62
7
  6
CONTINUOUS
 90
2
 70
0
 43
0.100000004
 10
10.0
 20
10.0
 10
10.0
 20
200.0
  0
LWPOLYLINE
  5
2AC
100
AcDbEntity
  8
0
100
AcDbPolyline
 62
7
  6
CONTINUOUS
 90
2
 70
0
 43
0.100000004
 10
10.0
 20
10.0
 10
287.0
 20
10.0
  0
LWPOLYLINE
  5
2AD
100
AcDbEntity
  8
0
100
AcDbPolyline
 62
7
  6
CONTINUOUS
 90
2
 70
0
 43
0.100000004
 10
10.0
 20
200.0
 10
287.0
 20
200.0
  0
LWPOLYLINE
  5
2AE
100
AcDbEntity
  8
0
100
AcDbPolyline
 62
7
  6
CONTINUOUS
 90
2
 70
0
 43
0.100000004
 10
287.0
 20
10.0
 10
287.0
 20
200.0
  0
LINE
  5
2AF
100
AcDbEntity
  8
7_ALL_FEATURES
100
AcDbLine
 62
7
  6
CONTINUOUS
 10
34.8496593437
 20
175.4872360996
 11
35.3496593437
 21
175.9872360996
  0
LINE
  5
2B0
100
AcDbEntity
  8
3_ALL_AXES
100
AcDbLine
 62
7
  6
CONTINUOUS
 10
34.8496593437
 20
168.3872360996
 11
34.8496593437
 21
157.9872360996
  0
LINE
  5
2B1
100
AcDbEntity
  8
3_ALL_AXES
100
AcDbLine
 62
7
  6
CONTINUOUS
 10
34.8496593437
 20
154.3872360996
 11
34.8496593437
 21
147.8872360996
  0
LINE
  5
2B2
100
AcDbEntity
  8
3_ALL_AXES
100
AcDbLine
 62
7
  6
CONTINUOUS
 10
34.8496593437
 20
169.4872360996
 11
34.8496593437
 21
175.4872360996
  0
LINE
  5
2B3
100
AcDbEntity
  8
02___PRT_ALL_AXES
100
AcDbLine
 62
7
  6
CONTINUOUS
 10
35.0996593437
 20
168.9872360996
 11
35.0996593437
 21
168.3872360996
  0
LINE
  5
2B4
100
AcDbEntity
  8
02___PRT_ALL_AXES
100
AcDbLine
 62
7
  6
CONTINUOUS
 10
63.3496593437
 20
130.3872360996
 11
70.3496593437
 21
130.3872360996
  0
LINE
  5
2B5
100
AcDbEntity
  8
7_ALL_FEATURES
100
AcDbLine
 62
7
  6
CONTINUOUS
 10
63.3496593437
 20
130.3872360996
 11
70.3496593437
 21
130.3872360996
  0
LINE
  5
2B6
100
AcDbEntity
  8
7_ALL_FEATURES
100
AcDbLine
 62
7
  6
CONTINUOUS
 10
37.1496593437
 20
154.4722360996
 11
37.1496593437
 21
154.3872360996
  0
LINE
  5
2B7
100
AcDbEntity
  8
02___PRT_ALL_AXES
100
AcDbLine
 62
9
  6
CONTINUOUS
 10
73.8496593437
 20
133.8872360996
 11
73.3496593437
 21
133.8872360996
  0
LINE
  5
2B8
100
AcDbEntity
  8
02___PRT_ALL_AXES
100
AcDbLine
 62
9
  6
CONTINUOUS
 10
72.3496593437
 20
133.8872360996
 11
67.8496593437
 21
133.8872360996
  0
LINE
  5
2B9
100
AcDbEntity
  8
02___PRT_ALL_AXES
100
AcDbLine
 62
9
  6
CONTINUOUS
 10
65.8496593437
 20
133.8872360996
 11
61.3496593437
 21
133.8872360996
  0
LINE
  5
2BA
100
AcDbEntity
  8
02___PRT_ALL_AXES
100
AcDbLine
 62
9
  6
CONTINUOUS
 10
60.3496593437
 20
133.8872360996
 11
59.8496593437
 21
133.8872360996
  0
LINE
  5
2BB
100
AcDbEntity
  8
7_ALL_FEATURES
100
AcDbLine
 62
7
  6
CONTINUOUS
 10
34.8496593437
 20
147.8872360996
 11
36.3496593437
 21
146.3872360996
  0
LINE
  5
2BC
100
AcDbEntity
  8
02___PRT_ALL_AXES
100
AcDbLine
 62
7
  6
CONTINUOUS
 10
72.3496593437
 20
134.3872360996
 11
67.8496593437
 21
134.3872360996
  0
LINE
  5
2BD
100
AcDbEntity
  8
02___PRT_ALL_AXES
100
AcDbLine
 62
7
  6
CONTINUOUS
 10
65.8496593437
 20
134.3872360996
 11
61.3496593437
 21
134.3872360996
  0
LINE
  5
2BE
100
AcDbEntity
  8
02___PRT_ALL_AXES
100
AcDbLine
 62
7
  6
CONTINUOUS
 10
59.8496593437
 20
134.3872360996
 11
60.3496593437
 21
134.3872360996
  0
LINE
  5
2BF
100
AcDbEntity
  8
02___PRT_ALL_AXES
100
AcDbLine
 62
7
  6
CONTINUOUS
 10
73.3496593437
 20
134.3872360996
 11
73.8496593437
 21
134.3872360996
  0
LINE
  5
2C0
100
AcDbEntity
  8
02___PRT_ALL_AXES
100
AcDbLine
 62
7
  6
CONTINUOUS
 10
74.8496593437
 20
139.8872360996
 11
58.8496593437
 21
139.8872360996
  0
LINE
  5
2C1
100
AcDbEntity
  8
02___PRT_ALL_AXES
100
AcDbLine
 62
7
  6
CONTINUOUS
 10
59.8496593437
 20
134.3872360996
 11
58.8496593437
 21
135.3872360996
  0
LINE
  5
2C2
100
AcDbEntity
  8
02___PRT_ALL_AXES
100
AcDbLine
 62
7
  6
CONTINUOUS
 10
74.8496593437
 20
142.8872360996
 11
58.8496593437
 21
142.8872360996
  0
LINE
  5
2C3
100
AcDbEntity
  8
7_ALL_FEATURES
100
AcDbLine
 62
7
  6
CONTINUOUS
 10
36.3499054048
 20
146.3872360996
 11
78.3494132826
 21
146.3872360996
  0
LINE
  5
2C4
100
AcDbEntity
  8
7_ALL_FEATURES
100
AcDbLine
 62
7
  6
CONTINUOUS
 10
34.8496593437
 20
147.8872360996
 11
79.8496593437
 21
147.8872360996
  0
LINE
  5
2C5
100
AcDbEntity
  8
7_ALL_FEATURES
100
AcDbLine
 62
7
  6
CONTINUOUS
 10
35.3496593437
 20
168.9872360996
 11
34.8496593437
 21
169.4872360996
  0
LINE
  5
2C6
100
AcDbEntity
  8
02___PRT_ALL_AXES
100
AcDbLine
 62
7
  6
CONTINUOUS
 10
58.8496593437
 20
146.3872360996
 11
58.8496593437
 21
142.8872360996
  0
LINE
  5
2C7
100
AcDbEntity
  8
02___PRT_ALL_AXES
100
AcDbLine
 62
7
  6
CONTINUOUS
 10
58.8496593437
 20
139.8872360996
 11
58.8496593437
 21
135.3872360996
  0
LINE
  5
2C8
100
AcDbEntity
  8
7_ALL_FEATURES
100
AcDbLine
 62
7
  6
CONTINUOUS
 10
34.8498426575
 20
154.3872360996
 11
79.84947603
 21
154.3872360996
  0
LINE
  5
2C9
100
AcDbEntity
  8
3_ALL_AXES
100
AcDbLine
 62
7
  6
CONTINUOUS
 10
35.7396593437
 20
154.4722360996
 11
78.9596593437
 21
154.4722360996
  0
LINE
  5
2CA
100
AcDbEntity
  8
02___PRT_ALL_AXES
100
AcDbLine
 62
7
  6
CONTINUOUS
 10
59.8496593437
 20
133.8872360996
 11
59.8496593437
 21
134.3872360996
  0
LINE
  5
2CB
100
AcDbEntity
  8
02___PRT_ALL_AXES
100
AcDbLine
 62
7
  6
CONTINUOUS
 10
60.3496593437
 20
133.8872360996
 11
60.3496593437
 21
134.3872360996
  0
LINE
  5
2CC
100
AcDbEntity
  8
02___PRT_ALL_AXES
100
AcDbLine
 62
7
  6
CONTINUOUS
 10
60.8496593437
 20
142.8872360996
 11
60.8496593437
 21
139.8872360996
  0
LINE
  5
2CD
100
AcDbEntity
  8
02___PRT_ALL_AXES
100
AcDbLine
 62
7
  6
CONTINUOUS
 10
61.3496593437
 20
133.8872360996
 11
61.3496593437
 21
134.3872360996
  0
LINE
  5
2CE
100
AcDbEntity
  8
7_ALL_FEATURES
100
AcDbLine
 62
7
  6
CONTINUOUS
 10
79.3496593437
 20
168.9872360996
 11
79.8496593437
 21
169.4872360996
  0
LINE
  5
2CF
100
AcDbEntity
  8
02___PRT_ALL_AXES
100
AcDbLine
 62
7
  6
CONTINUOUS
 10
62.8496593437
 20
146.3872360996
 11
62.8496593437
 21
142.8872360996
  0
LINE
  5
2D0
100
AcDbEntity
  8
02___PRT_ALL_AXES
100
AcDbLine
 62
7
  6
CONTINUOUS
 10
62.8496593437
 20
139.8872360996
 11
62.8496593437
 21
135.3872360996
  0
LINE
  5
2D1
100
AcDbEntity
  8
7_ALL_FEATURES
100
AcDbLine
 62
7
  6
CONTINUOUS
 10
79.84947603
 20
157.9872360996
 11
34.8498426575
 21
157.9872360996
  0
LINE
  5
2D2
100
AcDbEntity
  8
02___PRT_ALL_AXES
100
AcDbLine
 62
7
  6
CONTINUOUS
 10
65.8496593437
 20
133.8872360996
 11
65.8496593437
 21
134.3872360996
  0
LINE
  5
2D3
100
AcDbEntity
  8
02___PRT_ALL_AXES
100
AcDbLine
 62
7
  6
CONTINUOUS
 10
67.8496593437
 20
133.8872360996
 11
67.8496593437
 21
134.3872360996
  0
LINE
  5
2D4
100
AcDbEntity
  8
02___PRT_ALL_AXES
100
AcDbLine
 62
7
  6
CONTINUOUS
 10
70.8496593437
 20
146.3872360996
 11
70.8496593437
 21
142.8872360996
  0
LINE
  5
2D5
100
AcDbEntity
  8
02___PRT_ALL_AXES
100
AcDbLine
 62
7
  6
CONTINUOUS
 10
70.8496593437
 20
139.8872360996
 11
70.8496593437
 21
135.3872360996
  0
LINE
  5
2D6
100
AcDbEntity
  8
02___PRT_ALL_AXES
100
AcDbLine
 62
7
  6
CONTINUOUS
 10
72.3496593437
 20
133.8872360996
 11
72.3496593437
 21
134.3872360996
  0
LINE
  5
2D7
100
AcDbEntity
  8
02___PRT_ALL_AXES
100
AcDbLine
 62
7
  6
CONTINUOUS
 10
72.8496593437
 20
142.8872360996
 11
72.8496593437
 21
139.8872360996
  0
LINE
  5
2D8
100
AcDbEntity
  8
3_ALL_AXES
100
AcDbLine
 62
7
  6
CONTINUOUS
 10
34.8497319003
 20
168.3872360996
 11
79.8495867872
 21
168.3872360996
  0
LINE
  5
2D9
100
AcDbEntity
  8
02___PRT_ALL_AXES
100
AcDbLine
 62
7
  6
CONTINUOUS
 10
73.3496593437
 20
133.8872360996
 11
73.3496593437
 21
134.3872360996
  0
LINE
  5
2DA
100
AcDbEntity
  8
02___PRT_ALL_AXES
100
AcDbLine
 62
7
  6
CONTINUOUS
 10
73.8496593437
 20
133.8872360996
 11
73.8496593437
 21
134.3872360996
  0
LINE
  5
2DB
100
AcDbEntity
  8
02___PRT_ALL_AXES
100
AcDbLine
 62
7
  6
CONTINUOUS
 10
74.8496593437
 20
146.3872360996
 11
74.8496593437
 21
142.8872360996
  0
LINE
  5
2DC
100
AcDbEntity
  8
02___PRT_ALL_AXES
100
AcDbLine
 62
7
  6
CONTINUOUS
 10
74.8496593437
 20
139.8872360996
 11
74.8496593437
 21
135.3872360996
  0
LINE
  5
2DD
100
AcDbEntity
  8
02___PRT_ALL_AXES
100
AcDbLine
 62
7
  6
CONTINUOUS
 10
79.5996593437
 20
168.9872360996
 11
35.0996593437
 21
168.9872360996
  0
LINE
  5
2DE
100
AcDbEntity
  8
7_ALL_FEATURES
100
AcDbLine
 62
7
  6
CONTINUOUS
 10
34.8496593437
 20
169.4872360996
 11
79.8496593437
 21
169.4872360996
  0
LINE
  5
2DF
100
AcDbEntity
  8
7_ALL_FEATURES
100
AcDbLine
 62
7
  6
CONTINUOUS
 10
79.8496593437
 20
147.8872360996
 11
78.3496593437
 21
146.3872360996
  0
LINE
  5
2E0
100
AcDbEntity
  8
7_ALL_FEATURES
100
AcDbLine
 62
7
  6
CONTINUOUS
 10
77.5496593437
 20
154.4722360996
 11
77.5496593437
 21
154.3872360996
  0
LINE
  5
2E1
100
AcDbEntity
  8
02___PRT_ALL_AXES
100
AcDbLine
 62
7
  6
CONTINUOUS
 10
79.5996593437
 20
168.9872360996
 11
79.5996593437
 21
168.3872360996
  0
LINE
  5
2E2
100
AcDbEntity
  8
3_ALL_AXES
100
AcDbLine
 62
7
  6
CONTINUOUS
 10
79.8496593437
 20
168.3872360996
 11
79.8496593437
 21
157.9872360996
  0
LINE
  5
2E3
100
AcDbEntity
  8
3_ALL_AXES
100
AcDbLine
 62
7
  6
CONTINUOUS
 10
79.8496593437
 20
154.3872360996
 11
79.8496593437
 21
147.8872360996
  0
LINE
  5
2E4
100
AcDbEntity
  8
3_ALL_AXES
100
AcDbLine
 62
7
  6
CONTINUOUS
 10
79.8496593437
 20
169.4872360996
 11
79.8496593437
 21
175.4872360996
  0
LINE
  5
2E5
100
AcDbEntity
  8
7_ALL_FEATURES
100
AcDbLine
 62
7
  6
CONTINUOUS
 10
34.8496593437
 20
175.4872360996
 11
79.8496593437
 21
175.4872360996
  0
LINE
  5
2E6
100
AcDbEntity
  8
7_ALL_FEATURES
100
AcDbLine
 62
7
  6
CONTINUOUS
 10
35.3496593437
 20
175.9872360996
 11
79.3496593437
 21
175.9872360996
  0
LINE
  5
2E7
100
AcDbEntity
  8
02___PRT_ALL_AXES
100
AcDbLine
 62
7
  6
CONTINUOUS
 10
73.8496593437
 20
134.3872360996
 11
74.8496593437
 21
135.3872360996
  0
LINE
  5
2E8
100
AcDbEntity
  8
7_ALL_FEATURES
100
AcDbLine
 62
7
  6
CONTINUOUS
 10
79.8496593437
 20
175.4872360996
 11
79.3496593437
 21
175.9872360996
  0
LINE
  5
2E9
100
AcDbEntity
  8
7_ALL_FEATURES
100
AcDbLine
 62
7
  6
CONTINUOUS
 10
143.3469423774
 20
175.4872360996
 11
143.8469423774
 21
175.9872360996
  0
LINE
  5
2EA
100
AcDbEntity
  8
7_ALL_FEATURES
100
AcDbLine
 62
7
  6
CONTINUOUS
 10
143.3469423774
 20
175.4872360996
 11
143.3469423774
 21
169.4872360996
  0
LINE
  5
2EB
100
AcDbEntity
  8
3_ALL_AXES
100
AcDbLine
 62
7
  6
CONTINUOUS
 10
143.3469423774
 20
168.3872360996
 11
143.3469423774
 21
157.9872360996
  0
LINE
  5
2EC
100
AcDbEntity
  8
3_ALL_AXES
100
AcDbLine
 62
7
  6
CONTINUOUS
 10
143.3469423774
 20
154.3872360996
 11
143.3469423774
 21
147.8872360996
  0
LINE
  5
2ED
100
AcDbEntity
  8
7_ALL_FEATURES
100
AcDbLine
 62
7
  6
CONTINUOUS
 10
143.3469423774
 20
157.9872360996
 11
143.3469423774
 21
168.3872360996
  0
LINE
  5
2EE
100
AcDbEntity
  8
3_ALL_AXES
100
AcDbLine
 62
7
  6
CONTINUOUS
 10
143.3469423774
 20
169.4872360996
 11
143.3469423774
 21
175.4872360996
  0
LINE
  5
2EF
100
AcDbEntity
  8
02___PRT_ALL_AXES
100
AcDbLine
 62
7
  6
CONTINUOUS
 10
143.5969423774
 20
168.9872360996
 11
143.5969423774
 21
168.3872360996
  0
LINE
  5
2F0
100
AcDbEntity
  8
02___PRT_ALL_AXES
100
AcDbLine
 62
7
  6
CONTINUOUS
 10
162.3469423774
 20
130.3872360996
 11
169.3469423774
 21
130.3872360996
  0
LINE
  5
2F1
100
AcDbEntity
  8
7_ALL_FEATURES
100
AcDbLine
 62
7
  6
CONTINUOUS
 10
162.3469423774
 20
130.3872360996
 11
169.3469423774
 21
130.3872360996
  0
LINE
  5
2F2
100
AcDbEntity
  8
7_ALL_FEATURES
100
AcDbLine
 62
7
  6
CONTINUOUS
 10
145.6469423774
 20
154.4722360996
 11
145.6469423774
 21
154.3872360996
  0
LINE
  5
2F3
100
AcDbEntity
  8
02___PRT_ALL_AXES
100
AcDbLine
 62
9
  6
CONTINUOUS
 10
172.7751456077
 20
133.8872360996
 11
170.1770693963
 21
133.8872360996
  0
LINE
  5
2F4
100
AcDbEntity
  8
02___PRT_ALL_AXES
100
AcDbLine
 62
9
  6
CONTINUOUS
 10
158.9187391471
 20
133.8872360996
 11
161.5168153585
 21
133.8872360996
  0
LINE
  5
2F5
100
AcDbEntity
  8
02___PRT_ALL_AXES
100
AcDbLine
 62
9
  6
CONTINUOUS
 10
163.248866166
 20
133.8872360996
 11
168.4450185887
 21
133.8872360996
  0
LINE
  5
2F6
100
AcDbEntity
  8
7_ALL_FEATURES
100
AcDbLine
 62
7
  6
CONTINUOUS
 10
143.3469423774
 20
147.8872360996
 11
144.8469423774
 21
146.3872360996
  0
LINE
  5
2F7
100
AcDbEntity
  8
02___PRT_ALL_AXES
100
AcDbLine
 62
7
  6
CONTINUOUS
 10
172.7751456077
 20
134.3872360996
 11
170.1770693963
 21
134.3872360996
  0
LINE
  5
2F8
100
AcDbEntity
  8
02___PRT_ALL_AXES
100
AcDbLine
 62
7
  6
CONTINUOUS
 10
158.9187391471
 20
134.3872360996
 11
161.5168153585
 21
134.3872360996
  0
LINE
  5
2F9
100
AcDbEntity
  8
02___PRT_ALL_AXES
100
AcDbLine
 62
7
  6
CONTINUOUS
 10
163.248866166
 20
134.3872360996
 11
168.4450185887
 21
134.3872360996
  0
LINE
  5
2FA
100
AcDbEntity
  8
02___PRT_ALL_AXES
100
AcDbLine
 62
7
  6
CONTINUOUS
 10
172.7751456077
 20
139.8872360996
 11
158.9187391471
 21
139.8872360996
  0
LINE
  5
2FB
100
AcDbEntity
  8
02___PRT_ALL_AXES
100
AcDbLine
 62
7
  6
CONTINUOUS
 10
172.7751456077
 20
142.8872360996
 11
158.9187391471
 21
142.8872360996
  0
LINE
  5
2FC
100
AcDbEntity
  8
02___PRT_ALL_AXES
100
AcDbLine
 62
7
  6
CONTINUOUS
 10
158.9187391471
 20
146.3872360996
 11
158.9187391471
 21
142.8872360996
  0
LINE
  5
2FD
100
AcDbEntity
  8
02___PRT_ALL_AXES
100
AcDbLine
 62
7
  6
CONTINUOUS
 10
158.9187391471
 20
133.182073998
 11
158.9187391471
 21
139.8872360996
  0
LINE
  5
2FE
100
AcDbEntity
  8
7_ALL_FEATURES
100
AcDbLine
 62
7
  6
CONTINUOUS
 10
186.8469423774
 20
146.3872360996
 11
144.8469423774
 21
146.3872360996
  0
LINE
  5
2FF
100
AcDbEntity
  8
02___PRT_ALL_AXES
100
AcDbLine
 62
7
  6
CONTINUOUS
 10
159.8469423774
 20
139.8872360996
 11
159.8469423774
 21
142.8872360996
  0
LINE
  5
300
100
AcDbEntity
  8
02___PRT_ALL_AXES
100
AcDbLine
 62
7
  6
CONTINUOUS
 10
161.5168153585
 20
133.8872360996
 11
161.5168153585
 21
134.3872360996
  0
LINE
  5
301
100
AcDbEntity
  8
7_ALL_FEATURES
100
AcDbLine
 62
7
  6
CONTINUOUS
 10
188.3469423774
 20
147.8872360996
 11
143.3469423774
 21
147.8872360996
  0
LINE
  5
302
100
AcDbEntity
  8
7_ALL_FEATURES
100
AcDbLine
 62
7
  6
CONTINUOUS
 10
143.8469423774
 20
168.9872360996
 11
143.3469423774
 21
169.4872360996
  0
LINE
  5
303
100
AcDbEntity
  8
02___PRT_ALL_AXES
100
AcDbLine
 62
7
  6
CONTINUOUS
 10
163.248866166
 20
133.8872360996
 11
163.248866166
 21
134.3872360996
  0
LINE
  5
304
100
AcDbEntity
  8
02___PRT_ALL_AXES
100
AcDbLine
 62
7
  6
CONTINUOUS
 10
165.8469423774
 20
146.3872360996
 11
165.8469423774
 21
142.8872360996
  0
LINE
  5
305
100
AcDbEntity
  8
02___PRT_ALL_AXES
100
AcDbLine
 62
7
  6
CONTINUOUS
 10
165.8469423774
 20
139.8872360996
 11
165.8469423774
 21
135.3872360996
  0
LINE
  5
306
100
AcDbEntity
  8
7_ALL_FEATURES
100
AcDbLine
 62
7
  6
CONTINUOUS
 10
143.3469423774
 20
154.3872360996
 11
188.3469423774
 21
154.3872360996
  0
LINE
  5
307
100
AcDbEntity
  8
3_ALL_AXES
100
AcDbLine
 62
7
  6
CONTINUOUS
 10
144.2369423774
 20
154.4722360996
 11
187.4569423774
 21
154.4722360996
  0
LINE
  5
308
100
AcDbEntity
  8
02___PRT_ALL_AXES
100
AcDbLine
 62
7
  6
CONTINUOUS
 10
168.4450185887
 20
133.8872360996
 11
168.4450185887
 21
134.3872360996
  0
LINE
  5
309
100
AcDbEntity
  8
02___PRT_ALL_AXES
100
AcDbLine
 62
7
  6
CONTINUOUS
 10
170.1770693963
 20
133.8872360996
 11
170.1770693963
 21
134.3872360996
  0
LINE
  5
30A
100
AcDbEntity
  8
7_ALL_FEATURES
100
AcDbLine
 62
7
  6
CONTINUOUS
 10
187.8469423774
 20
168.9872360996
 11
188.3469423774
 21
169.4872360996
  0
LINE
  5
30B
100
AcDbEntity
  8
02___PRT_ALL_AXES
100
AcDbLine
 62
7
  6
CONTINUOUS
 10
171.8469423774
 20
139.8872360996
 11
171.8469423774
 21
142.8872360996
  0
LINE
  5
30C
100
AcDbEntity
  8
7_ALL_FEATURES
100
AcDbLine
 62
7
  6
CONTINUOUS
 10
188.3469423774
 20
157.9872360996
 11
143.3469423774
 21
157.9872360996
  0
LINE
  5
30D
100
AcDbEntity
  8
02___PRT_ALL_AXES
100
AcDbLine
 62
7
  6
CONTINUOUS
 10
172.7751456077
 20
146.3872360996
 11
172.7751456077
 21
142.8872360996
  0
LINE
  5
30E
100
AcDbEntity
  8
02___PRT_ALL_AXES
100
AcDbLine
 62
7
  6
CONTINUOUS
 10
172.7751456077
 20
133.182073998
 11
172.7751456077
 21
139.8872360996
  0
LINE
  5
30F
100
AcDbEntity
  8
3_ALL_AXES
100
AcDbLine
 62
7
  6
CONTINUOUS
 10
188.3469423774
 20
168.3872360996
 11
143.3469423774
 21
168.3872360996
  0
LINE
  5
310
100
AcDbEntity
  8
02___PRT_ALL_AXES
100
AcDbLine
 62
7
  6
CONTINUOUS
 10
188.0969423774
 20
168.9872360996
 11
143.5969423774
 21
168.9872360996
  0
LINE
  5
311
100
AcDbEntity
  8
7_ALL_FEATURES
100
AcDbLine
 62
7
  6
CONTINUOUS
 10
143.3469423774
 20
169.4872360996
 11
188.3469423774
 21
169.4872360996
  0
LINE
  5
312
100
AcDbEntity
  8
7_ALL_FEATURES
100
AcDbLine
 62
7
  6
CONTINUOUS
 10
188.3469423774
 20
147.8872360996
 11
186.8469423774
 21
146.3872360996
  0
LINE
  5
313
100
AcDbEntity
  8
7_ALL_FEATURES
100
AcDbLine
 62
7
  6
CONTINUOUS
 10
186.0469423774
 20
154.4722360996
 11
186.0469423774
 21
154.3872360996
  0
LINE
  5
314
100
AcDbEntity
  8
02___PRT_ALL_AXES
100
AcDbLine
 62
7
  6
CONTINUOUS
 10
188.0969423774
 20
168.9872360996
 11
188.0969423774
 21
168.3872360996
  0
LINE
  5
315
100
AcDbEntity
  8
7_ALL_FEATURES
100
AcDbLine
 62
7
  6
CONTINUOUS
 10
188.3469423774
 20
175.4872360996
 11
188.3469423774
 21
169.4872360996
  0
LINE
  5
316
100
AcDbEntity
  8
3_ALL_AXES
100
AcDbLine
 62
7
  6
CONTINUOUS
 10
188.3469423774
 20
168.3872360996
 11
188.3469423774
 21
157.9872360996
  0
LINE
  5
317
100
AcDbEntity
  8
3_ALL_AXES
100
AcDbLine
 62
7
  6
CONTINUOUS
 10
188.3469423774
 20
154.3872360996
 11
188.3469423774
 21
147.8872360996
  0
LINE
  5
318
100
AcDbEntity
  8
7_ALL_FEATURES
100
AcDbLine
 62
7
  6
CONTINUOUS
 10
188.3469423774
 20
147.8872360996
 11
188.3469423774
 21
154.3872360996
  0
LINE
  5
319
100
AcDbEntity
  8
7_ALL_FEATURES
100
AcDbLine
 62
7
  6
CONTINUOUS
 10
188.3469423774
 20
157.9872360996
 11
188.3469423774
 21
168.3872360996
  0
LINE
  5
31A
100
AcDbEntity
  8
3_ALL_AXES
100
AcDbLine
 62
7
  6
CONTINUOUS
 10
188.3469423774
 20
169.4872360996
 11
188.3469423774
 21
175.4872360996
  0
LINE
  5
31B
100
AcDbEntity
  8
7_ALL_FEATURES
100
AcDbLine
 62
7
  6
CONTINUOUS
 10
143.3469423774
 20
175.4872360996
 11
188.3469423774
 21
175.4872360996
  0
LINE
  5
31C
100
AcDbEntity
  8
7_ALL_FEATURES
100
AcDbLine
 62
7
  6
CONTINUOUS
 10
143.8469423774
 20
175.9872360996
 11
187.8469423774
 21
175.9872360996
  0
LINE
  5
31D
100
AcDbEntity
  8
7_ALL_FEATURES
100
AcDbLine
 62
7
  6
CONTINUOUS
 10
188.3469423774
 20
175.4872360996
 11
187.8469423774
 21
175.9872360996
  0
LINE
  5
31E
100
AcDbEntity
  8
7_ALL_FEATURES
100
AcDbLine
 62
7
  6
CONTINUOUS
 10
215.4281812279
 20
88.4818816509
 11
216.6529260993
 21
87.6158562471
  0
LINE
  5
31F
100
AcDbEntity
  8
02___PRT_ALL_AXES
100
AcDbLine
 62
7
  6
CONTINUOUS
 10
220.2993542988
 20
84.5847673339
 11
217.2877397711
 21
87.1929020212
  0
LINE
  5
320
100
AcDbEntity
  8
3_ALL_AXES
100
AcDbLine
 62
7
  6
CONTINUOUS
 10
211.2993542988
 20
112.7305929568
 11
211.2993542988
 21
103.7239287575
  0
LINE
  5
321
100
AcDbEntity
  8
3_ALL_AXES
100
AcDbLine
 62
7
  6
CONTINUOUS
 10
211.2993542988
 20
98.7197580889
 11
211.2993542988
 21
94.9770721793
  0
LINE
  5
322
100
AcDbEntity
  8
3_ALL_AXES
100
AcDbLine
 62
7
  6
CONTINUOUS
 10
211.2993542988
 20
113.683220901
 11
211.2993542988
 21
118.8793733237
  0
LINE
  5
323
100
AcDbEntity
  8
02___PRT_ALL_AXES
100
AcDbLine
 62
7
  6
CONTINUOUS
 10
223.3128406872
 20
84.5847673339
 11
220.2993542988
 21
84.5847673339
  0
LINE
  5
324
100
AcDbEntity
  8
02___PRT_ALL_AXES
100
AcDbLine
 62
7
  6
CONTINUOUS
 10
216.2993542988
 20
87.8658692649
 11
216.2993542988
 21
84.151754632
  0
LINE
  5
325
100
AcDbEntity
  8
02___PRT_ALL_AXES
100
AcDbLine
 62
7
  6
CONTINUOUS
 10
217.7993542988
 20
81.5536784206
 11
217.7993542988
 21
81.9866911225
  0
LINE
  5
326
100
AcDbEntity
  8
02___PRT_ALL_AXES
100
AcDbLine
 62
7
  6
CONTINUOUS
 10
218.7993542988
 20
80.6876530168
 11
218.7993542988
 21
81.1206657187
  0
LINE
  5
327
100
AcDbEntity
  8
02___PRT_ALL_AXES
100
AcDbLine
 62
7
  6
CONTINUOUS
 10
220.2993542988
 20
84.5847673339
 11
220.2993542988
 21
80.6876530168
  0
LINE
  5
328
100
AcDbEntity
  8
02___PRT_ALL_AXES
100
AcDbLine
 62
7
  6
CONTINUOUS
 10
223.2993542988
 20
79.3886149111
 11
223.2993542988
 21
79.821627613
  0
LINE
  5
329
100
AcDbEntity
  8
02___PRT_ALL_AXES
100
AcDbLine
 62
7
  6
CONTINUOUS
 10
225.2993542988
 20
79.3886149111
 11
225.2993542988
 21
79.821627613
  0
LINE
  5
32A
100
AcDbEntity
  8
02___PRT_ALL_AXES
100
AcDbLine
 62
7
  6
CONTINUOUS
 10
228.2993542988
 20
83.5475329732
 11
228.2993542988
 21
80.6876530168
  0
LINE
  5
32B
100
AcDbEntity
  8
02___PRT_ALL_AXES
100
AcDbLine
 62
7
  6
CONTINUOUS
 10
229.7993542988
 20
80.6876530168
 11
229.7993542988
 21
81.1206657187
  0
LINE
  5
32C
100
AcDbEntity
  8
02___PRT_ALL_AXES
100
AcDbLine
 62
7
  6
CONTINUOUS
 10
230.7993542988
 20
81.5536784206
 11
230.7993542988
 21
81.9866911225
  0
LINE
  5
32D
100
AcDbEntity
  8
3_ALL_AXES
100
AcDbLine
 62
7
  6
CONTINUOUS
 10
256.2993542988
 20
112.7305929568
 11
256.2993542988
 21
103.7239287575
  0
LINE
  5
32E
100
AcDbEntity
  8
3_ALL_AXES
100
AcDbLine
 62
7
  6
CONTINUOUS
 10
256.2993542988
 20
98.7206676023
 11
256.2993542988
 21
94.9770721793
  0
LINE
  5
32F
100
AcDbEntity
  8
3_ALL_AXES
100
AcDbLine
 62
7
  6
CONTINUOUS
 10
256.2993542988
 20
113.683220901
 11
256.2993542988
 21
118.8793733237
  0
LINE
  5
330
100
AcDbEntity
  8
7_ALL_FEATURES
100
AcDbLine
 62
7
  6
CONTINUOUS
 10
252.1705273697
 20
88.4818816509
 11
250.9457824983
 21
87.6158562471
  0
CIRCLE
  5
331
100
AcDbEntity
  8
3_ALL_AXES
100
AcDbCircle
 62
7
  6
CONTINUOUS
 10
57.3496593437
 20
67.6478726363
 40
23.375
  0
CIRCLE
  5
332
100
AcDbEntity
  8
7_ALL_FEATURES
100
AcDbCircle
 62
7
  6
CONTINUOUS
 10
57.3496593437
 20
67.6478726363
 40
22.5
  0
CIRCLE
  5
333
100
AcDbEntity
  8
7_ALL_FEATURES
100
AcDbCircle
 62
7
  6
CONTINUOUS
 10
57.3496593437
 20
67.6478726363
 40
22.0
  0
ARC
  5
334
100
AcDbEntity
  8
02___PRT_ALL_AXES
100
AcDbCircle
 62
7
  6
CONTINUOUS
 10
63.3496593437
 20
133.8872360996
 40
3.5
100
AcDbArc
 50
180.0
 51
270.0
  0
ARC
  5
335
100
AcDbEntity
  8
02___PRT_ALL_AXES
100
AcDbCircle
 62
7
  6
CONTINUOUS
 10
70.3496593437
 20
133.8872360996
 40
3.5
100
AcDbArc
 50
270.0
 51
360.0
  0
ARC
  5
336
100
AcDbEntity
  8
7_ALL_FEATURES
100
AcDbCircle
 62
7
  6
CONTINUOUS
 10
70.3496593437
 20
133.8872360996
 40
3.5
100
AcDbArc
 50
270.0
 51
360.0
  0
ARC
  5
337
100
AcDbEntity
  8
7_ALL_FEATURES
100
AcDbCircle
 62
7
  6
CONTINUOUS
 10
63.3496593437
 20
133.8872360996
 40
3.5
100
AcDbArc
 50
180.0
 51
270.0
  0
ARC
  5
338
100
AcDbEntity
  8
3_ALL_AXES
100
AcDbCircle
 62
7
  6
CONTINUOUS
 10
78.9596593437
 20
156.2372360996
 40
1.765
100
AcDbArc
 50
270.0
 51
86.2587866511
  0
ARC
  5
339
100
AcDbEntity
  8
3_ALL_AXES
100
AcDbCircle
 62
7
  6
CONTINUOUS
 10
35.7396593437
 20
156.2372360996
 40
1.765
100
AcDbArc
 50
93.7412133489
 51
270.0
  0
ARC
  5
33A
100
AcDbEntity
  8
02___PRT_ALL_AXES
100
AcDbCircle
 62
7
  6
CONTINUOUS
 10
169.3469423774
 20
133.8872360996
 40
3.5
100
AcDbArc
 50
270.0
 51
348.4316348941
  0
ARC
  5
33B
100
AcDbEntity
  8
02___PRT_ALL_AXES
100
AcDbCircle
 62
7
  6
CONTINUOUS
 10
162.3469423774
 20
133.8872360996
 40
3.5
100
AcDbArc
 50
191.5683651059
 51
270.0
  0
ARC
  5
33C
100
AcDbEntity
  8
3_ALL_AXES
100
AcDbCircle
 62
7
  6
CONTINUOUS
 10
144.2369423774
 20
156.2372360996
 40
1.765
100
AcDbArc
 50
93.7412133489
 51
270.0
  0
ARC
  5
33D
100
AcDbEntity
  8
3_ALL_AXES
100
AcDbCircle
 62
7
  6
CONTINUOUS
 10
187.4569423774
 20
156.2372360996
 40
1.765
100
AcDbArc
 50
270.0
 51
86.2587866511
  0
ARC
  5
33E
100
AcDbEntity
  8
7_ALL_FEATURES
100
AcDbCircle
 62
7
  6
CONTINUOUS
 10
242.6262747629
 20
120.6932479979
 40
16.5373286738
100
AcDbArc
 50
303.5310202199
 51
305.2491438472
  0
ARC
  5
33F
100
AcDbEntity
  8
7_ALL_FEATURES
100
AcDbCircle
 62
7
  6
CONTINUOUS
 10
224.9724338346
 20
120.6932479978
 40
16.5373286736
100
AcDbArc
 50
234.7508561527
 51
236.4689797801
  0
ARC
  5
340
100
AcDbEntity
  8
02___PRT_ALL_AXES
100
AcDbCircle
 62
7
  6
CONTINUOUS
 10
224.6146076683
 20
119.5286832023
 40
15.5566499063
100
AcDbArc
 50
233.3268389729
 51
235.2037119805
  0
ARC
  5
341
100
AcDbEntity
  8
02___PRT_ALL_AXES
100
AcDbCircle
 62
7
  6
CONTINUOUS
 10
243.090428084
 20
119.3809023903
 40
15.3746179416
100
AcDbArc
 50
304.7851761343
 51
306.6842729123
  0
ARC
  5
342
100
AcDbEntity
  8
7_ALL_FEATURES
100
AcDbCircle
 62
7
  6
CONTINUOUS
 10
243.1448886931
 20
113.468203154
 40
14.9324458366
100
AcDbArc
 50
52.8274538202
 51
54.751464003
  0
ARC
  5
343
100
AcDbEntity
  8
7_ALL_FEATURES
100
AcDbCircle
 62
7
  6
CONTINUOUS
 10
224.4538199045
 20
113.4682031541
 40
14.9324458364
100
AcDbArc
 50
125.248535997
 51
127.1725461798
  0
ARC
  5
344
100
AcDbEntity
  8
7_ALL_FEATURES
100
AcDbCircle
 62
7
  6
CONTINUOUS
 10
224.074820922
 20
113.9697690766
 40
14.3037905827
100
AcDbArc
 50
127.176796393
 51
127.8819177884
  0
ARC
  5
345
100
AcDbEntity
  8
7_ALL_FEATURES
100
AcDbCircle
 62
7
  6
CONTINUOUS
 10
243.5238876763
 20
113.9697690774
 40
14.3037905817
100
AcDbArc
 50
52.1180822116
 51
52.823203607
  0
ARC
  5
346
100
AcDbEntity
  8
7_ALL_FEATURES
100
AcDbCircle
 62
7
  6
CONTINUOUS
 10
217.0155987104
 20
113.6883760308
 40
5.7162467362
100
AcDbArc
 50
180.0516715309
 51
190.834867982
  0
ARC
  5
347
100
AcDbEntity
  8
7_ALL_FEATURES
100
AcDbCircle
 62
7
  6
CONTINUOUS
 10
250.5831098872
 20
113.6883760308
 40
5.7162467362
100
AcDbArc
 50
349.165132018
 51
359.9483284691
  0
ARC
  5
348
100
AcDbEntity
  8
3_ALL_AXES
100
AcDbCircle
 62
7
  6
CONTINUOUS
 10
216.9426551886
 20
112.7302173071
 40
5.6432928088
100
AcDbArc
 50
175.2172814237
 51
179.996186066
  0
ARC
  5
349
100
AcDbEntity
  8
3_ALL_AXES
100
AcDbCircle
 62
7
  6
CONTINUOUS
 10
250.656053409
 20
112.7302173071
 40
5.6432928088
100
AcDbArc
 50
0.003813934
 51
4.7827185763
  0
SPLINE
  5
34A
100
AcDbEntity
  8
02___PRT_ALL_AXES
100
AcDbSpline
 62
7
  6
CONTINUOUS
 70
0
 71
3
 72
19
 73
15
 74
0
 42
0.0000001
 43
0.0000001
 44
0.0000000001
 40
0.0
 40
0.0
 40
0.0
 40
0.0
 40
0.062499569
 40
0.1250450196
 40
0.1876243679
 40
0.2502137548
 40
0.3750836247
 40
0.5000591496
 40
0.6250261711
 40
0.7498800617
 40
0.8124624827
 40
0.8750225901
 40
0.9375286272
 40
1.0
 40
1.0
 40
1.0
 40
1.0
 10
65.8496593437
 20
133.8872360996
 30
0.0
 10
65.8496593437
 20
133.8311624879
 30
0.0
 10
65.8691684587
 20
133.718173394
 30
0.0
 10
65.9489524289
 20
133.5674510107
 30
0.0
 10
66.0640118834
 20
133.4424013019
 30
0.0
 10
66.247455583
 20
133.3112354359
 30
0.0
 10
66.5128555204
 20
133.2081046846
 30
0.0
 10
66.8498132315
 20
133.168848262
 30
0.0
 10
67.1867450646
 20
133.2081859741
 30
0.0
 10
67.4520992514
 20
133.3113542919
 30
0.0
 10
67.6354808786
 20
133.4425454482
 30
0.0
 10
67.7504516486
 20
133.5675954773
 30
0.0
 10
67.8301694243
 20
133.7182595807
 30
0.0
 10
67.8496593437
 20
133.8311877851
 30
0.0
 10
67.8496593437
 20
133.8872360996
 30
0.0
  0
SPLINE
  5
34B
100
AcDbEntity
  8
02___PRT_ALL_AXES
100
AcDbSpline
 62
7
  6
CONTINUOUS
 70
0
 71
3
 72
11
 73
7
 74
0
 42
0.0000001
 43
0.0000001
 44
0.0000000001
 40
0.0
 40
0.0
 40
0.0
 40
0.0
 40
0.2500103617
 40
0.5000189242
 40
0.7500124732
 40
1.0
 40
1.0
 40
1.0
 40
1.0
 10
62.8496593437
 20
135.3872360996
 30
0.0
 10
63.0863320214
 20
135.2688997608
 30
0.0
 10
63.5660995338
 20
135.0447150253
 30
0.0
 10
64.3063902509
 20
134.7562780274
 30
0.0
 10
65.0676075206
 20
134.5279276242
 30
0.0
 10
65.5877346166
 20
134.4246539178
 30
0.0
 10
65.8496593437
 20
134.3872360996
 30
0.0
  0
SPLINE
  5
34C
100
AcDbEntity
  8
02___PRT_ALL_AXES
100
AcDbSpline
 62
7
  6
CONTINUOUS
 70
0
 71
3
 72
11
 73
7
 74
0
 42
0.0000001
 43
0.0000001
 44
0.0000000001
 40
0.0
 40
0.0
 40
0.0
 40
0.0
 40
0.2699449571
 40
0.5270499909
 40
0.7701654741
 40
1.0
 40
1.0
 40
1.0
 40
1.0
 10
70.8496593437
 20
135.3872360996
 30
0.0
 10
70.9654853086
 20
135.2714101347
 30
0.0
 10
71.1990199233
 20
135.0524098233
 30
0.0
 10
71.5675305246
 20
134.7636511777
 30
0.0
 10
71.9475312952
 20
134.5334641775
 30
0.0
 10
72.2155617204
 20
134.4255497063
 30
0.0
 10
72.3496593437
 20
134.3872360996
 30
0.0
  0
SPLINE
  5
34D
100
AcDbEntity
  8
02___PRT_ALL_AXES
100
AcDbSpline
 62
7
  6
CONTINUOUS
 70
0
 71
3
 72
11
 73
7
 74
0
 42
0.0000001
 43
0.0000001
 44
0.0000000001
 40
0.0
 40
0.0
 40
0.0
 40
0.0
 40
0.2298345438
 40
0.4729500311
 40
0.7300550521
 40
1.0
 40
1.0
 40
1.0
 40
1.0
 10
73.3496593437
 20
134.3872360996
 30
0.0
 10
73.4837569774
 20
134.4255497093
 30
0.0
 10
73.7517874145
 20
134.5334641874
 30
0.0
 10
74.1317881861
 20
134.7636511965
 30
0.0
 10
74.5002987766
 20
135.0524098378
 30
0.0
 10
74.7338333828
 20
135.2714101387
 30
0.0
 10
74.8496593437
 20
135.3872360996
 30
0.0
  0
SPLINE
  5
34E
100
AcDbEntity
  8
02___PRT_ALL_AXES
100
AcDbSpline
 62
7
  6
CONTINUOUS
 70
0
 71
3
 72
11
 73
7
 74
0
 42
0.0000001
 43
0.0000001
 44
0.0000000001
 40
0.0
 40
0.0
 40
0.0
 40
0.0
 40
0.2699449571
 40
0.5270499909
 40
0.7701654741
 40
1.0
 40
1.0
 40
1.0
 40
1.0
 10
58.8496593437
 20
135.3872360996
 30
0.0
 10
58.9654853086
 20
135.2714101347
 30
0.0
 10
59.1990199233
 20
135.0524098233
 30
0.0
 10
59.5675305246
 20
134.7636511777
 30
0.0
 10
59.9475312952
 20
134.5334641775
 30
0.0
 10
60.2155617204
 20
134.4255497063
 30
0.0
 10
60.3496593437
 20
134.3872360996
 30
0.0
  0
SPLINE
  5
34F
100
AcDbEntity
  8
02___PRT_ALL_AXES
100
AcDbSpline
 62
7
  6
CONTINUOUS
 70
0
 71
3
 72
11
 73
7
 74
0
 42
0.0000001
 43
0.0000001
 44
0.0000000001
 40
0.0
 40
0.0
 40
0.0
 40
0.0
 40
0.2298345438
 40
0.4729500311
 40
0.7300550521
 40
1.0
 40
1.0
 40
1.0
 40
1.0
 10
61.3496593437
 20
134.3872360996
 30
0.0
 10
61.4837569774
 20
134.4255497093
 30
0.0
 10
61.7517874145
 20
134.5334641874
 30
0.0
 10
62.1317881861
 20
134.7636511965
 30
0.0
 10
62.5002987766
 20
135.0524098378
 30
0.0
 10
62.7338333828
 20
135.2714101387
 30
0.0
 10
62.8496593437
 20
135.3872360996
 30
0.0
  0
SPLINE
  5
350
100
AcDbEntity
  8
02___PRT_ALL_AXES
100
AcDbSpline
 62
7
  6
CONTINUOUS
 70
0
 71
3
 72
19
 73
15
 74
0
 42
0.0000001
 43
0.0000001
 44
0.0000000001
 40
0.0
 40
0.0
 40
0.0
 40
0.0
 40
0.1683000113
 40
0.2404505744
 40
0.3036556532
 40
0.4090388234
 40
0.4554737865
 40
0.5000393211
 40
0.5446067335
 40
0.591042408
 40
0.696430429
 40
0.7596418824
 40
0.8317824151
 40
1.0
 40
1.0
 40
1.0
 40
1.0
 10
60.3496593437
 20
133.8872360996
 30
0.0
 10
60.3496593437
 20
133.7806304244
 30
0.0
 10
60.3738322085
 20
133.6263039978
 30
0.0
 10
60.4526492849
 20
133.4499102749
 30
0.0
 10
60.5385970382
 20
133.323377411
 30
0.0
 10
60.6460339089
 20
133.2323897545
 30
0.0
 10
60.7636694701
 20
133.1889120532
 30
0.0
 10
60.8497372802
 20
133.178535974
 30
0.0
 10
60.9358045658
 20
133.1889390616
 30
0.0
 10
61.0534166089
 20
133.2324920716
 30
0.0
 10
61.1608393977
 20
133.323497207
 30
0.0
 10
61.2467536226
 20
133.4500568265
 30
0.0
 10
61.3254997468
 20
133.6264203438
 30
0.0
 10
61.3496593437
 20
133.7806826355
 30
0.0
 10
61.3496593437
 20
133.8872360996
 30
0.0
  0
SPLINE
  5
351
100
AcDbEntity
  8
02___PRT_ALL_AXES
100
AcDbSpline
 62
7
  6
CONTINUOUS
 70
0
 71
3
 72
19
 73
15
 74
0
 42
0.0000001
 43
0.0000001
 44
0.0000000001
 40
0.0
 40
0.0
 40
0.0
 40
0.0
 40
0.1683075029
 40
0.2404576968
 40
0.3036660769
 40
0.4090527407
 40
0.4554823394
 40
0.5000445236
 40
0.5446094138
 40
0.5910415449
 40
0.6964181475
 40
0.7596236278
 40
0.8317654351
 40
1.0
 40
1.0
 40
1.0
 40
1.0
 10
72.3496593437
 20
133.8872360996
 30
0.0
 10
72.3496593437
 20
133.7806257673
 30
0.0
 10
72.3738342707
 20
133.62629457
 30
0.0
 10
72.452657373
 20
133.4498966484
 30
0.0
 10
72.5386089804
 20
133.3233613276
 30
0.0
 10
72.646053367
 20
133.2323799298
 30
0.0
 10
72.7636873849
 20
133.1889096496
 30
0.0
 10
72.8497481928
 20
133.1785354711
 30
0.0
 10
72.9358089442
 20
133.1889416016
 30
0.0
 10
73.0534102735
 20
133.2324902571
 30
0.0
 10
73.1608233591
 20
133.3234844085
 30
0.0
 10
73.2467386363
 20
133.4500305051
 30
0.0
 10
73.325497481
 20
133.6263970421
 30
0.0
 10
73.3496593437
 20
133.7806719681
 30
0.0
 10
73.3496593437
 20
133.8872360996
 30
0.0
  0
SPLINE
  5
352
100
AcDbEntity
  8
02___PRT_ALL_AXES
100
AcDbSpline
 62
7
  6
CONTINUOUS
 70
0
 71
3
 72
11
 73
7
 74
0
 42
0.0000001
 43
0.0000001
 44
0.0000000001
 40
0.0
 40
0.0
 40
0.0
 40
0.0
 40
0.2499875457
 40
0.4999810974
 40
0.7499896465
 40
1.0
 40
1.0
 40
1.0
 40
1.0
 10
67.8496593437
 20
134.3872360996
 30
0.0
 10
68.1115840907
 20
134.4246539206
 30
0.0
 10
68.6317112089
 20
134.5279276332
 30
0.0
 10
69.3929284846
 20
134.7562780464
 30
0.0
 10
70.1332191812
 20
135.0447150411
 30
0.0
 10
70.6129866738
 20
135.2688997647
 30
0.0
 10
70.8496593437
 20
135.3872360996
 30
0.0
  0
SPLINE
  5
353
100
AcDbEntity
  8
02___PRT_ALL_AXES
100
AcDbSpline
 62
7
  6
CONTINUOUS
 70
0
 71
3
 72
11
 73
7
 74
0
 42
0.0000001
 43
0.0000001
 44
0.0000000001
 40
0.0
 40
0.0
 40
0.0
 40
0.0
 40
0.2528641712
 40
0.5038317346
 40
0.7528115376
 40
1.0
 40
1.0
 40
1.0
 40
1.0
 10
165.8469423774
 20
135.3872360996
 30
0.0
 10
166.0511886743
 20
135.2693144451
 30
0.0
 10
166.4650159378
 20
135.0459035674
 30
0.0
 10
167.1059274623
 20
134.7573145652
 30
0.0
 10
167.7652863946
 20
134.5286251718
 30
0.0
 10
168.2175430764
 20
134.4247598277
 30
0.0
 10
168.4450185887
 20
134.3872360996
 30
0.0
  0
SPLINE
  5
354
100
AcDbEntity
  8
02___PRT_ALL_AXES
100
AcDbSpline
 62
7
  6
CONTINUOUS
 70
0
 71
3
 72
11
 73
7
 74
0
 42
0.0000001
 43
0.0000001
 44
0.0000000001
 40
0.0
 40
0.0
 40
0.0
 40
0.0
 40
0.2528641712
 40
0.5038317346
 40
0.7528115376
 40
1.0
 40
1.0
 40
1.0
 40
1.0
 10
158.9187391471
 20
135.3872360996
 30
0.0
 10
159.122985444
 20
135.2693144451
 30
0.0
 10
159.5368127076
 20
135.0459035674
 30
0.0
 10
160.1777242321
 20
134.7573145652
 30
0.0
 10
160.8370831643
 20
134.5286251718
 30
0.0
 10
161.2893398461
 20
134.4247598277
 30
0.0
 10
161.5168153585
 20
134.3872360996
 30
0.0
  0
SPLINE
  5
355
100
AcDbEntity
  8
02___PRT_ALL_AXES
100
AcDbSpline
 62
7
  6
CONTINUOUS
 70
0
 71
3
 72
11
 73
7
 74
0
 42
0.0000001
 43
0.0000001
 44
0.0000000001
 40
0.0
 40
0.0
 40
0.0
 40
0.0
 40
0.2471884812
 40
0.4961682871
 40
0.7471358372
 40
1.0
 40
1.0
 40
1.0
 40
1.0
 10
163.248866166
 20
134.3872360996
 30
0.0
 10
163.4763416956
 20
134.4247598306
 30
0.0
 10
163.9285983969
 20
134.5286251809
 30
0.0
 10
164.5879573339
 20
134.7573145842
 30
0.0
 10
165.2288688404
 20
135.045903583
 30
0.0
 10
165.6426960872
 20
135.269314449
 30
0.0
 10
165.8469423774
 20
135.3872360996
 30
0.0
  0
SPLINE
  5
356
100
AcDbEntity
  8
02___PRT_ALL_AXES
100
AcDbSpline
 62
7
  6
CONTINUOUS
 70
0
 71
3
 72
19
 73
15
 74
0
 42
0.0000001
 43
0.0000001
 44
0.0000000001
 40
0.0
 40
0.0
 40
0.0
 40
0.0
 40
0.067939647
 40
0.1343369129
 40
0.1986396402
 40
0.2610648807
 40
0.3817414899
 40
0.5000607139
 40
0.6183763092
 40
0.739024176
 40
0.8014382043
 40
0.865725454
 40
0.9320917545
 40
1.0
 40
1.0
 40
1.0
 40
1.0
 10
161.5168153585
 20
133.8872360996
 30
0.0
 10
161.5168153585
 20
133.8313504491
 30
0.0
 10
161.5332021953
 20
133.7202054843
 30
0.0
 10
161.6013769756
 20
133.569745597
 30
0.0
 10
161.7007900104
 20
133.4440588334
 30
0.0
 10
161.858233892
 20
133.3133169998
 30
0.0
 10
162.0882251066
 20
133.2086766949
 30
0.0
 10
162.3829903276
 20
133.1686982105
 30
0.0
 10
162.6777190513
 20
133.2087626352
 30
0.0
 10
162.9076498642
 20
133.3134420384
 30
0.0
 10
163.0650289533
 20
133.4441919264
 30
0.0
 10
163.1643718793
 20
133.5698729171
 30
0.0
 10
163.2324928874
 20
133.7202833085
 30
0.0
 10
163.248866166
 20
133.8313762793
 30
0.0
 10
163.248866166
 20
133.8872360996
 30
0.0
  0
SPLINE
  5
357
100
AcDbEntity
  8
02___PRT_ALL_AXES
100
AcDbSpline
 62
7
  6
CONTINUOUS
 70
0
 71
3
 72
11
 73
7
 74
0
 42
0.0000001
 43
0.0000001
 44
0.0000000001
 40
0.0
 40
0.0
 40
0.0
 40
0.0
 40
0.2471884812
 40
0.4961682871
 40
0.7471358372
 40
1.0
 40
1.0
 40
1.0
 40
1.0
 10
170.1770693963
 20
134.3872360996
 30
0.0
 10
170.4045449259
 20
134.4247598306
 30
0.0
 10
170.8568016272
 20
134.5286251809
 30
0.0
 10
171.5161605642
 20
134.7573145842
 30
0.0
 10
172.1570720707
 20
135.045903583
 30
0.0
 10
172.5708993175
 20
135.269314449
 30
0.0
 10
172.7751456077
 20
135.3872360996
 30
0.0
  0
SPLINE
  5
358
100
AcDbEntity
  8
02___PRT_ALL_AXES
100
AcDbSpline
 62
7
  6
CONTINUOUS
 70
0
 71
3
 72
19
 73
15
 74
0
 42
0.0000001
 43
0.0000001
 44
0.0000000001
 40
0.0
 40
0.0
 40
0.0
 40
0.0
 40
0.0679313718
 40
0.134330414
 40
0.1986328954
 40
0.2610542132
 40
0.3817238737
 40
0.5000536105
 40
0.6183773004
 40
0.7390372629
 40
0.8014553941
 40
0.8657396837
 40
0.9320963707
 40
1.0
 40
1.0
 40
1.0
 40
1.0
 10
168.4450185887
 20
133.8872360996
 30
0.0
 10
168.4450185887
 20
133.8313572481
 30
0.0
 10
168.4614043294
 20
133.7202182362
 30
0.0
 10
168.5295696311
 20
133.56976016
 30
0.0
 10
168.6289791937
 20
133.4440726734
 30
0.0
 10
168.7864135213
 20
133.3133343233
 30
0.0
 10
169.0163981874
 20
133.2086811777
 30
0.0
 10
169.3111738574
 20
133.1686974707
 30
0.0
 10
169.6059282043
 20
133.2087612853
 30
0.0
 10
169.8358777966
 20
133.3134520679
 30
0.0
 10
169.9932588012
 20
133.4442176783
 30
0.0
 10
170.092587534
 20
133.5699005687
 30
0.0
 10
170.1606997229
 20
133.7202985557
 30
0.0
 10
170.1770693963
 20
133.8313800685
 30
0.0
 10
170.1770693963
 20
133.8872360996
 30
0.0
  0
SPLINE
  5
359
100
AcDbEntity
  8
02___PRT_ALL_AXES
100
AcDbSpline
 62
7
  6
CONTINUOUS
 70
0
 71
3
 72
30
 73
26
 74
0
 42
0.0000001
 43
0.0000001
 44
0.0000000001
 40
0.0
 40
0.0
 40
0.0
 40
0.0
 40
0.0310664201
 40
0.0620816362
 40
0.0929909856
 40
0.1237576935
 40
0.1543724668
 40
0.1848521451
 40
0.2152645903
 40
0.2456938612
 40
0.3070712054
 40
0.3699134886
 40
0.4344444502
 40
0.5000785803
 40
0.5657105235
 40
0.630235994
 40
0.6930693543
 40
0.7544349005
 40
0.8151835236
 40
0.8456561638
 40
0.8762623343
 40
0.9070199016
 40
0.9379197175
 40
0.96893028
 40
1.0
 40
1.0
 40
1.0
 40
1.0
 10
217.3071050017
 20
82.592406474
 30
0.0
 10
217.3187684727
 20
82.3966519146
 30
0.0
 10
217.3684978927
 20
82.0065353972
 30
0.0
 10
217.5199537582
 20
81.437730336
 30
0.0
 10
217.7436338217
 20
80.8952900347
 30
0.0
 10
218.0328442826
 20
80.3878473724
 30
0.0
 10
218.3798624119
 20
79.9215841914
 30
0.0
 10
218.7765597451
 20
79.5000875566
 30
0.0
 10
219.2153378482
 20
79.124595486
 30
0.0
 10
219.8495032556
 20
78.6833766131
 30
0.0
 10
220.7247457199
 20
78.2394054289
 30
0.0
 10
221.8615867977
 20
77.8701136054
 30
0.0
 10
223.0634019934
 20
77.6510203302
 30
0.0
 10
224.3000865799
 20
77.578313912
 30
0.0
 10
225.5367455073
 20
77.6512024396
 30
0.0
 10
226.7383699693
 20
77.8703986705
 30
0.0
 10
227.8751937994
 20
78.2400108571
 30
0.0
 10
228.9211121225
 20
78.7704331609
 30
0.0
 10
229.6912307248
 20
79.3607889171
 30
0.0
 10
230.2191403931
 20
79.9219426069
 30
0.0
 10
230.5660266026
 20
80.3881441363
 30
0.0
 10
230.855159102
 20
80.8954220379
 30
0.0
 10
231.0787599215
 20
81.437738253
 30
0.0
 10
231.2302025099
 20
82.0064742659
 30
0.0
 10
231.27992387
 20
82.3965831279
 30
0.0
 10
231.2915954633
 20
82.5923580705
 30
0.0
  0
SPLINE
  5
35A
100
AcDbEntity
  8
02___PRT_ALL_AXES
100
AcDbSpline
 62
7
  6
CONTINUOUS
 70
0
 71
3
 72
9
 73
5
 74
0
 42
0.0000001
 43
0.0000001
 44
0.0000000001
 40
0.0
 40
0.0
 40
0.0
 40
0.0
 40
0.4824850783
 40
1.0
 40
1.0
 40
1.0
 40
1.0
 10
230.7993542988
 20
81.9866911225
 30
0.0
 10
230.9665670046
 20
82.1728759881
 30
0.0
 10
231.2925297086
 20
82.5773677833
 30
0.0
 10
231.5876025913
 20
83.0042990132
 30
0.0
 10
231.7345234074
 20
83.2289382339
 30
0.0
  0
SPLINE
  5
35B
100
AcDbEntity
  8
02___PRT_ALL_AXES
100
AcDbSpline
 62
7
  6
CONTINUOUS
 70
0
 71
3
 72
11
 73
7
 74
0
 42
0.0000001
 43
0.0000001
 44
0.0000000001
 40
0.0
 40
0.0
 40
0.0
 40
0.0
 40
0.2656870709
 40
0.5228702757
 40
0.7687205482
 40
1.0
 40
1.0
 40
1.0
 40
1.0
 10
216.2993542988
 20
84.151754632
 30
0.0
 10
216.4161753253
 20
83.9494146787
 30
0.0
 10
216.6517095875
 20
83.5544117583
 30
0.0
 10
217.0193789014
 20
82.9868891989
 30
0.0
 10
217.3966925925
 20
82.462484428
 30
0.0
 10
217.6634561886
 20
82.1380083999
 30
0.0
 10
217.7993542988
 20
81.9866911225
 30
0.0
  0
SPLINE
  5
35C
100
AcDbEntity
  8
02___PRT_ALL_AXES
100
AcDbSpline
 62
9
  6
CONTINUOUS
 70
0
 71
3
 72
10
 73
6
 74
0
 42
0.0000001
 43
0.0000001
 44
0.0000000001
 40
0.0
 40
0.0
 40
0.0
 40
0.0
 40
0.2358579744
 40
0.4793268464
 40
1.0
 40
1.0
 40
1.0
 40
1.0
 10
217.3220147462
 20
82.5713940783
 30
0.0
 10
217.3362180608
 20
82.4833079105
 30
0.0
 10
217.3785222385
 20
82.306185835
 30
0.0
 10
217.5173930023
 20
81.9533326376
 30
0.0
 10
217.6763648395
 20
81.7075290817
 30
0.0
 10
217.7993542988
 20
81.5536784206
 30
0.0
  0
SPLINE
  5
35D
100
AcDbEntity
  8
02___PRT_ALL_AXES
100
AcDbSpline
 62
7
  6
CONTINUOUS
 70
0
 71
3
 72
11
 73
7
 74
0
 42
0.0000001
 43
0.0000001
 44
0.0000000001
 40
0.0
 40
0.0
 40
0.0
 40
0.0
 40
0.2280797841
 40
0.4666624923
 40
0.7216979073
 40
1.0
 40
1.0
 40
1.0
 40
1.0
 10
228.2993542988
 20
80.6876530168
 30
0.0
 10
228.4195587566
 20
80.6876530168
 30
0.0
 10
228.6658135153
 20
80.7021386174
 30
0.0
 10
229.0403386893
 20
80.7752411866
 30
0.0
 10
229.425346451
 20
80.9111411939
 30
0.0
 10
229.6746177733
 20
81.0435050045
 30
0.0
 10
229.7993542988
 20
81.1206657187
 30
0.0
  0
SPLINE
  5
35E
100
AcDbEntity
  8
02___PRT_ALL_AXES
100
AcDbSpline
 62
7
  6
CONTINUOUS
 70
0
 71
3
 72
23
 73
19
 74
0
 42
0.0000001
 43
0.0000001
 44
0.0000000001
 40
0.0
 40
0.0
 40
0.0
 40
0.0
 40
0.068324413
 40
0.0968860468
 40
0.1219751189
 40
0.1642505141
 40
0.1834013216
 40
0.2022601491
 40
0.2413123119
 40
0.2846784661
 40
0.3335090943
 40
0.3881300161
 40
0.4485932966
 40
0.5148628034
 40
0.6642804298
 40
0.8328528868
 40
0.9192909655
 40
1.0
 40
1.0
 40
1.0
 40
1.0
 10
229.7993542988
 20
80.6876530168
 30
0.0
 10
229.7993542988
 20
80.6435437606
 30
0.0
 10
229.804590038
 20
80.5804283203
 30
0.0
 10
229.8278228567
 20
80.5048628719
 30
0.0
 10
229.8553332912
 20
80.4491945814
 30
0.0
 10
229.8942866891
 20
80.4064393207
 30
0.0
 10
229.9407072265
 20
80.3824712339
 30
0.0
 10
229.98912605
 20
80.3695934853
 30
0.0
 10
230.0558549237
 20
80.3721099987
 30
0.0
 10
230.1369317657
 20
80.3989918952
 30
0.0
 10
230.2198445219
 20
80.4458196407
 30
0.0
 10
230.3037064408
 20
80.5108190772
 30
0.0
 10
230.3875624873
 20
80.592834922
 30
0.0
 10
230.5023775048
 20
80.7295275059
 30
0.0
 10
230.6354963751
 20
80.9402673653
 30
0.0
 10
230.7371698203
 20
81.1826050154
 30
0.0
 10
230.7884410529
 20
81.3936087475
 30
0.0
 10
230.7993542988
 20
81.5015738312
 30
0.0
 10
230.7993542988
 20
81.5536784206
 30
0.0
  0
SPLINE
  5
35F
100
AcDbEntity
  8
02___PRT_ALL_AXES
100
AcDbSpline
 62
7
  6
CONTINUOUS
 70
0
 71
3
 72
11
 73
7
 74
0
 42
0.0000001
 43
0.0000001
 44
0.0000000001
 40
0.0
 40
0.0
 40
0.0
 40
0.0
 40
0.2477228382
 40
0.4969765111
 40
0.7477887612
 40
1.0
 40
1.0
 40
1.0
 40
1.0
 10
220.2993542988
 20
80.6876530168
 30
0.0
 10
220.5367231447
 20
80.5848692915
 30
0.0
 10
221.0180517842
 20
80.390177722
 30
0.0
 10
221.7584626442
 20
80.1405132328
 30
0.0
 10
222.5194991036
 20
79.9430037039
 30
0.0
 10
223.0379935215
 20
79.8539626234
 30
0.0
 10
223.2993542988
 20
79.821627613
 30
0.0
  0
SPLINE
  5
360
100
AcDbEntity
  8
02___PRT_ALL_AXES
100
AcDbSpline
 62
7
  6
CONTINUOUS
 70
0
 71
3
 72
11
 73
7
 74
0
 42
0.0000001
 43
0.0000001
 44
0.0000000001
 40
0.0
 40
0.0
 40
0.0
 40
0.0
 40
0.2522112579
 40
0.5030235105
 40
0.75227717
 40
1.0
 40
1.0
 40
1.0
 40
1.0
 10
225.2993542988
 20
79.821627613
 30
0.0
 10
225.5607150958
 20
79.8539626259
 30
0.0
 10
226.0792095358
 20
79.9430037117
 30
0.0
 10
226.8402460016
 20
80.1405132493
 30
0.0
 10
227.5806568414
 20
80.3901777358
 30
0.0
 10
228.0619854608
 20
80.5848692949
 30
0.0
 10
228.2993542988
 20
80.6876530168
 30
0.0
  0
SPLINE
  5
361
100
AcDbEntity
  8
02___PRT_ALL_AXES
100
AcDbSpline
 62
7
  6
CONTINUOUS
 70
0
 71
3
 72
21
 73
17
 74
0
 42
0.0000001
 43
0.0000001
 44
0.0000000001
 40
0.0
 40
0.0
 40
0.0
 40
0.0
 40
0.0571180647
 40
0.115979905
 40
0.1770298861
 40
0.2398835776
 40
0.3040230243
 40
0.3690148297
 40
0.5000622279
 40
0.6310997721
 40
0.6960779356
 40
0.7602119254
 40
0.8230564258
 40
0.8840846482
 40
0.942907901
 40
1.0
 40
1.0
 40
1.0
 40
1.0
 10
223.2993542988
 20
79.3886149111
 30
0.0
 10
223.2993542988
 20
79.3398314278
 30
0.0
 10
223.3196420509
 20
79.2399546398
 30
0.0
 10
223.4005094885
 20
79.109496226
 30
0.0
 10
223.5155726608
 20
79.0020176059
 30
0.0
 10
223.6529642461
 20
78.917319289
 30
0.0
 10
223.8046700635
 20
78.8536757548
 30
0.0
 10
224.0194001489
 20
78.7946622641
 30
0.0
 10
224.299506477
 20
78.7665429991
 30
0.0
 10
224.5795961108
 20
78.7947173975
 30
0.0
 10
224.7942890105
 20
78.8537706057
 30
0.0
 10
224.9459639067
 20
78.9174249005
 30
0.0
 10
225.0833097188
 20
79.0021416102
 30
0.0
 10
225.1982876999
 20
79.1096232847
 30
0.0
 10
225.2790869169
 20
79.2400321967
 30
0.0
 10
225.2993542988
 20
79.3398536046
 30
0.0
 10
225.2993542988
 20
79.3886149111
 30
0.0
  0
SPLINE
  5
362
100
AcDbEntity
  8
02___PRT_ALL_AXES
100
AcDbSpline
 62
7
  6
CONTINUOUS
 70
0
 71
3
 72
11
 73
7
 74
0
 42
0.0000001
 43
0.0000001
 44
0.0000000001
 40
0.0
 40
0.0
 40
0.0
 40
0.0
 40
0.2783021128
 40
0.5333375285
 40
0.7719202231
 40
1.0
 40
1.0
 40
1.0
 40
1.0
 10
218.7993542988
 20
81.1206657187
 30
0.0
 10
218.9240908333
 20
81.043504999
 30
0.0
 10
219.173362166
 20
80.9111411839
 30
0.0
 10
219.5583699336
 20
80.7752411817
 30
0.0
 10
219.9328950974
 20
80.7021386191
 30
0.0
 10
220.1791498449
 20
80.6876530168
 30
0.0
 10
220.2993542988
 20
80.6876530168
 30
0.0
  0
SPLINE
  5
363
100
AcDbEntity
  8
02___PRT_ALL_AXES
100
AcDbSpline
 62
7
  6
CONTINUOUS
 70
0
 71
3
 72
24
 73
20
 74
0
 42
0.0000001
 43
0.0000001
 44
0.0000000001
 40
0.0
 40
0.0
 40
0.0
 40
0.0
 40
0.0807190161
 40
0.1671820131
 40
0.3357424739
 40
0.4851405203
 40
0.5513943019
 40
0.6118366416
 40
0.6664397593
 40
0.7152434023
 40
0.7585796821
 40
0.7976136363
 40
0.8164613947
 40
0.8356088042
 40
0.8558625756
 40
0.8781095769
 40
0.9031787579
 40
0.9317248039
 40
1.0
 40
1.0
 40
1.0
 40
1.0
 10
217.7993542988
 20
81.5536784206
 30
0.0
 10
217.7993542988
 20
81.5015550715
 30
0.0
 10
217.810275876
 20
81.393542066
 30
0.0
 10
217.8615764669
 20
81.1824766363
 30
0.0
 10
217.963304247
 20
80.9401002879
 30
0.0
 10
218.0964493334
 20
80.7293416992
 30
0.0
 10
218.2113026168
 20
80.5926731961
 30
0.0
 10
218.2951664624
 20
80.5106767251
 30
0.0
 10
218.3790249788
 20
80.4457008241
 30
0.0
 10
218.4619389901
 20
80.3989219965
 30
0.0
 10
218.5429997195
 20
80.3720981594
 30
0.0
 10
218.6097124886
 20
80.3695928165
 30
0.0
 10
218.6581045924
 20
80.3825210728
 30
0.0
 10
218.6917873978
 20
80.3999575843
 30
0.0
 10
218.7223796197
 20
80.4259400605
 30
0.0
 10
218.7490563493
 20
80.4608460943
 30
0.0
 10
218.770955832
 20
80.5049586588
 30
0.0
 10
218.7940898403
 20
80.5804662055
 30
0.0
 10
218.7993542988
 20
80.6435651172
 30
0.0
 10
218.7993542988
 20
80.6876530168
 30
0.0
  0
SPLINE
  5
364
100
AcDbEntity
  8
02___PRT_ALL_AXES
100
AcDbSpline
 62
9
  6
CONTINUOUS
 70
0
 71
3
 72
10
 73
6
 74
0
 42
0.0000001
 43
0.0000001
 44
0.0000000001
 40
0.0
 40
0.0
 40
0.0
 40
0.0
 40
0.520673166
 40
0.7641420306
 40
1.0
 40
1.0
 40
1.0
 40
1.0
 10
230.7993542988
 20
81.5536784206
 30
0.0
 10
230.9223439044
 20
81.7075292647
 30
0.0
 10
231.0813159041
 20
81.9533331364
 30
0.0
 10
231.2201866829
 20
82.3061868062
 30
0.0
 10
231.2624907974
 20
82.4833091127
 30
0.0
 10
231.2766940632
 20
82.5713953917
 30
0.0
  0
SPLINE
  5
365
100
AcDbEntity
  8
02___PRT_ALL_AXES
100
AcDbSpline
 62
9
  6
CONTINUOUS
 70
0
 71
3
 72
12
 73
8
 74
0
 42
0.0000001
 43
0.0000001
 44
0.0000000001
 40
0.0
 40
0.0
 40
0.0
 40
0.0
 40
0.2752334867
 40
0.5375549521
 40
0.7806828468
 40
0.8935752149
 40
1.0
 40
1.0
 40
1.0
 40
1.0
 10
225.2993542988
 20
79.3886149111
 30
0.0
 10
225.7318379163
 20
79.4198267278
 30
0.0
 10
226.5743408639
 20
79.5207505861
 30
0.0
 10
227.7763049964
 20
79.7911771901
 30
0.0
 10
228.6987514319
 20
80.1135112197
 30
0.0
 10
229.3576153713
 20
80.4257405661
 30
0.0
 10
229.6578209473
 20
80.5977672664
 30
0.0
 10
229.7993542988
 20
80.6876530168
 30
0.0
  0
SPLINE
  5
366
100
AcDbEntity
  8
02___PRT_ALL_AXES
100
AcDbSpline
 62
7
  6
CONTINUOUS
 70
0
 71
3
 72
12
 73
8
 74
0
 42
0.0000001
 43
0.0000001
 44
0.0000000001
 40
0.0
 40
0.0
 40
0.0
 40
0.0
 40
0.2752334867
 40
0.5375549521
 40
0.7806828468
 40
0.8935752149
 40
1.0
 40
1.0
 40
1.0
 40
1.0
 10
225.2993542988
 20
79.821627613
 30
0.0
 10
225.7318379163
 20
79.8528394297
 30
0.0
 10
226.5743408639
 20
79.953763288
 30
0.0
 10
227.7763049964
 20
80.224189892
 30
0.0
 10
228.6987514319
 20
80.5465239216
 30
0.0
 10
229.3576153713
 20
80.8587532679
 30
0.0
 10
229.6578209473
 20
81.0307799683
 30
0.0
 10
229.7993542988
 20
81.1206657187
 30
0.0
  0
SPLINE
  5
367
100
AcDbEntity
  8
02___PRT_ALL_AXES
100
AcDbSpline
 62
9
  6
CONTINUOUS
 70
0
 71
3
 72
12
 73
8
 74
0
 42
0.0000001
 43
0.0000001
 44
0.0000000001
 40
0.0
 40
0.0
 40
0.0
 40
0.0
 40
0.1064247851
 40
0.2193171532
 40
0.4624450479
 40
0.7247665133
 40
1.0
 40
1.0
 40
1.0
 40
1.0
 10
218.7993542988
 20
80.6876530168
 30
0.0
 10
218.9408876503
 20
80.5977672664
 30
0.0
 10
219.2410932263
 20
80.4257405661
 30
0.0
 10
219.8999571657
 20
80.1135112197
 30
0.0
 10
220.8224036013
 20
79.7911771901
 30
0.0
 10
222.0243677337
 20
79.5207505861
 30
0.0
 10
222.8668706813
 20
79.4198267278
 30
0.0
 10
223.2993542988
 20
79.3886149111
 30
0.0
  0
SPLINE
  5
368
100
AcDbEntity
  8
02___PRT_ALL_AXES
100
AcDbSpline
 62
7
  6
CONTINUOUS
 70
0
 71
3
 72
12
 73
8
 74
0
 42
0.0000001
 43
0.0000001
 44
0.0000000001
 40
0.0
 40
0.0
 40
0.0
 40
0.0
 40
0.1064247851
 40
0.2193171532
 40
0.4624450479
 40
0.7247665133
 40
1.0
 40
1.0
 40
1.0
 40
1.0
 10
218.7993542988
 20
81.1206657187
 30
0.0
 10
218.9408876503
 20
81.0307799683
 30
0.0
 10
219.2410932263
 20
80.8587532679
 30
0.0
 10
219.8999571657
 20
80.5465239216
 30
0.0
 10
220.8224036013
 20
80.224189892
 30
0.0
 10
222.0243677337
 20
79.953763288
 30
0.0
 10
222.8668706813
 20
79.8528394297
 30
0.0
 10
223.2993542988
 20
79.821627613
 30
0.0
  0
SPLINE
  5
369
100
AcDbEntity
  8
02___PRT_ALL_AXES
100
AcDbSpline
 62
7
  6
CONTINUOUS
 70
0
 71
3
 72
20
 73
16
 74
0
 42
0.0000001
 43
0.0000001
 44
0.0000000001
 40
0.0
 40
0.0
 40
0.0
 40
0.0
 40
0.0407770112
 40
0.0833994728
 40
0.128614358
 40
0.1769579416
 40
0.2287724707
 40
0.2842303765
 40
0.3433575757
 40
0.4060625807
 40
0.4721545909
 40
0.5413626192
 40
0.6876797158
 40
0.8418208016
 40
1.0
 40
1.0
 40
1.0
 40
1.0
 10
255.9634009425
 20
111.7539655649
 30
0.0
 10
255.9021854311
 20
111.4065725402
 30
0.0
 10
255.7108117906
 20
110.7063345117
 30
0.0
 10
255.2379298509
 20
109.6942093576
 30
0.0
 10
254.5808828872
 20
108.7115123664
 30
0.0
 10
253.7467243312
 20
107.7661222404
 30
0.0
 10
252.7430189679
 20
106.8650953699
 30
0.0
 10
251.578489933
 20
106.0153594816
 30
0.0
 10
250.2629942601
 20
105.2235173384
 30
0.0
 10
248.8075337498
 20
104.4960695651
 30
0.0
 10
247.2243332232
 20
103.8389510947
 30
0.0
 10
244.9182439765
 20
103.0494359975
 30
0.0
 10
241.8061082186
 20
102.2837174585
 30
0.0
 10
237.8718229318
 20
101.7296496879
 30
0.0
 10
235.1682552697
 20
101.6056101225
 30
0.0
 10
233.7999114794
 20
101.6055929603
 30
0.0
  0
SPLINE
  5
36A
100
AcDbEntity
  8
02___PRT_ALL_AXES
100
AcDbSpline
 62
7
  6
CONTINUOUS
 70
0
 71
3
 72
20
 73
16
 74
0
 42
0.0000001
 43
0.0000001
 44
0.0000000001
 40
0.0
 40
0.0
 40
0.0
 40
0.0
 40
0.1581782559
 40
0.3123192356
 40
0.4586367597
 40
0.5278451038
 40
0.5939374465
 40
0.6566427629
 40
0.7157702207
 40
0.7712283024
 40
0.8230429016
 40
0.8713864366
 40
0.9166011526
 40
0.9592233381
 40
1.0
 40
1.0
 40
1.0
 40
1.0
 10
233.7999114794
 20
101.6055929603
 30
0.0
 10
232.431517136
 20
101.6055757976
 30
0.0
 10
229.7278394031
 20
101.7295571791
 30
0.0
 10
225.7933786285
 20
102.2835638779
 30
0.0
 10
222.6810884416
 20
103.0492539598
 30
0.0
 10
220.3748759813
 20
103.8387608081
 30
0.0
 10
218.791587205
 20
104.495880218
 30
0.0
 10
217.3360435435
 20
105.2233352823
 30
0.0
 10
216.0204712883
 20
106.0151905026
 30
0.0
 10
214.8558736354
 20
106.8649447616
 30
0.0
 10
213.8521088445
 20
107.7659947152
 30
0.0
 10
213.0179010549
 20
108.711411973
 30
0.0
 10
212.3608160219
 20
109.6941395841
 30
0.0
 10
211.8879080089
 20
110.7062981228
 30
0.0
 10
211.6965252685
 20
111.4065606119
 30
0.0
 10
211.6353076552
 20
111.7539655649
 30
0.0
  0
SPLINE
  5
36B
100
AcDbEntity
  8
02___PRT_ALL_AXES
100
AcDbSpline
 62
7
  6
CONTINUOUS
 70
0
 71
3
 72
10
 73
6
 74
0
 42
0.0000001
 43
0.0000001
 44
0.0000000001
 40
0.0
 40
0.0
 40
0.0
 40
0.0
 40
0.4702439922
 40
0.7272842282
 40
1.0
 40
1.0
 40
1.0
 40
1.0
 10
255.2275283197
 20
110.2545455294
 30
0.0
 10
254.8922484086
 20
109.6549828262
 30
0.0
 10
254.244249558
 20
108.7970274335
 30
0.0
 10
253.1974296615
 20
107.777147087
 30
0.0
 10
252.5947622768
 20
107.2894171817
 30
0.0
 10
252.2753024149
 20
107.0513865695
 30
0.0
  0
SPLINE
  5
36C
100
AcDbEntity
  8
02___PRT_ALL_AXES
100
AcDbSpline
 62
7
  6
CONTINUOUS
 70
0
 71
3
 72
23
 73
19
 74
0
 42
0.0000001
 43
0.0000001
 44
0.0000000001
 40
0.0
 40
0.0
 40
0.0
 40
0.0
 40
0.0515809848
 40
0.1071567353
 40
0.1664318781
 40
0.2289737197
 40
0.2942445103
 40
0.361627578
 40
0.4304495055
 40
0.5
 40
0.5695504945
 40
0.638372422
 40
0.7057554897
 40
0.7710262803
 40
0.8335681219
 40
0.8928432647
 40
0.9484190152
 40
1.0
 40
1.0
 40
1.0
 40
1.0
 10
251.8616644785
 20
106.7537772638
 30
0.0
 10
251.3279080147
 20
106.3827826026
 30
0.0
 10
250.1718705305
 20
105.6787585105
 30
0.0
 10
248.2789325266
 20
104.7692721929
 30
0.0
 10
246.1856937354
 20
103.9773628776
 30
0.0
 10
243.9211009745
 20
103.313994797
 30
0.0
 10
241.5161971273
 20
102.7882090739
 30
0.0
 10
239.0042312748
 20
102.4073174128
 30
0.0
 10
236.419994491
 20
102.1766251638
 30
0.0
 10
233.7993542988
 20
102.0993643549
 30
0.0
 10
231.1787141066
 20
102.1766251638
 30
0.0
 10
228.5944773228
 20
102.4073174128
 30
0.0
 10
226.0825114704
 20
102.7882090739
 30
0.0
 10
223.6776076231
 20
103.313994797
 30
0.0
 10
221.4130148622
 20
103.9773628776
 30
0.0
 10
219.319776071
 20
104.7692721929
 30
0.0
 10
217.4268380671
 20
105.6787585105
 30
0.0
 10
216.2708005829
 20
106.3827826026
 30
0.0
 10
215.7370441191
 20
106.7537772638
 30
0.0
  0
SPLINE
  5
36D
100
AcDbEntity
  8
02___PRT_ALL_AXES
100
AcDbSpline
 62
7
  6
CONTINUOUS
 70
0
 71
3
 72
10
 73
6
 74
0
 42
0.0000001
 43
0.0000001
 44
0.0000000001
 40
0.0
 40
0.0
 40
0.0
 40
0.0
 40
0.2727157718
 40
0.5297560078
 40
1.0
 40
1.0
 40
1.0
 40
1.0
 10
215.3234061827
 20
107.0513865695
 30
0.0
 10
215.0039463208
 20
107.2894171817
 30
0.0
 10
214.4012789361
 20
107.777147087
 30
0.0
 10
213.3544590396
 20
108.7970274335
 30
0.0
 10
212.706460189
 20
109.6549828262
 30
0.0
 10
212.371180278
 20
110.2545455294
 30
0.0
  0
SPLINE
  5
36E
100
AcDbEntity
  8
3_ALL_AXES
100
AcDbSpline
 62
7
  6
CONTINUOUS
 70
0
 71
3
 72
10
 73
6
 74
0
 42
0.0000001
 43
0.0000001
 44
0.0000000001
 40
0.0
 40
0.0
 40
0.0
 40
0.0
 40
0.2476698278
 40
0.4957695711
 40
1.0
 40
1.0
 40
1.0
 40
1.0
 10
257.1743542988
 20
102.2083843009
 30
0.0
 10
257.1743542988
 20
102.5077469185
 30
0.0
 10
257.1366460397
 20
103.107772612
 30
0.0
 10
256.9117148826
 20
104.2975859757
 30
0.0
 10
256.5804813979
 20
105.1557153768
 30
0.0
 10
256.3024326375
 20
105.6980663622
 30
0.0
  0
SPLINE
  5
36F
100
AcDbEntity
  8
3_ALL_AXES
100
AcDbSpline
 62
7
  6
CONTINUOUS
 70
0
 71
3
 72
10
 73
6
 74
0
 42
0.0000001
 43
0.0000001
 44
0.0000000001
 40
0.0
 40
0.0
 40
0.0
 40
0.0
 40
0.5042266485
 40
0.7523388322
 40
1.0
 40
1.0
 40
1.0
 40
1.0
 10
211.2958766893
 20
105.6972935642
 30
0.0
 10
211.0179409681
 20
105.155053484
 30
0.0
 10
210.6868649961
 20
104.2970896289
 30
0.0
 10
210.4620507535
 20
103.1075508746
 30
0.0
 10
210.4243542988
 20
102.5076648926
 30
0.0
 10
210.4243542988
 20
102.2083843009
 30
0.0
  0
SPLINE
  5
370
100
AcDbEntity
  8
3_ALL_AXES
100
AcDbSpline
 62
7
  6
CONTINUOUS
 70
0
 71
3
 72
37
 73
33
 74
0
 42
0.0000001
 43
0.0000001
 44
0.0000000001
 40
0.0
 40
0.0
 40
0.0
 40
0.0
 40
0.0236154772
 40
0.0474578406
 40
0.0718491858
 40
0.0970483974
 40
0.1100480797
 40
0.123351572
 40
0.150957503
 40
0.1800299215
 40
0.2106444836
 40
0.2428024095
 40
0.2764394698
 40
0.3114379501
 40
0.3476347938
 40
0.4227722094
 40
0.5000029753
 40
0.5772335821
 40
0.6523705322
 40
0.6885670163
 40
0.723565019
 40
0.7572016789
 40
0.7893590907
 40
0.8199730095
 40
0.849044946
 40
0.8766501956
 40
0.8899534999
 40
0.9029529287
 40
0.9281516722
 40
0.9525421576
 40
0.976385026
 40
1.0
 40
1.0
 40
1.0
 40
1.0
 10
210.4243542988
 20
102.2083843009
 30
0.0
 10
210.4243542988
 20
101.7529373998
 30
0.0
 10
210.5124084448
 20
100.8353227838
 30
0.0
 10
210.9018336596
 20
99.4979819212
 30
0.0
 10
211.5284420029
 20
98.2207596834
 30
0.0
 10
212.2250145394
 20
97.2293425015
 30
0.0
 10
212.8753946912
 20
96.47791186
 30
0.0
 10
213.6049102706
 20
95.7362314634
 30
0.0
 10
214.6362514635
 20
94.8609055075
 30
0.0
 10
216.0270220918
 20
93.9078372082
 30
0.0
 10
217.5740638796
 20
93.0407880977
 30
0.0
 10
219.2647881898
 20
92.2628961808
 30
0.0
 10
221.0855221306
 20
91.5777496651
 30
0.0
 10
223.0211827714
 20
90.989307662
 30
0.0
 10
225.7669246181
 20
90.3310603135
 30
0.0
 10
229.3697998474
 20
89.7835141983
 30
0.0
 10
233.7995239936
 20
89.5648279644
 30
0.0
 10
238.2292369726
 20
89.7835504677
 30
0.0
 10
241.8320901494
 20
90.3311157658
 30
0.0
 10
244.5778017393
 20
90.9893822435
 30
0.0
 10
246.5134335748
 20
91.5778363873
 30
0.0
 10
248.3341381601
 20
92.2629847904
 30
0.0
 10
250.0248268574
 20
93.040882341
 30
0.0
 10
251.5718337826
 20
93.9079286896
 30
0.0
 10
252.9625669666
 20
94.8609901128
 30
0.0
 10
253.9938798558
 20
95.7363088796
 30
0.0
 10
254.7233754762
 20
96.4779783377
 30
0.0
 10
255.3737393077
 20
97.2294004436
 30
0.0
 10
256.0702759269
 20
98.2208033925
 30
0.0
 10
256.6969023715
 20
99.4979996472
 30
0.0
 10
257.0862909089
 20
100.8353351083
 30
0.0
 10
257.1743542988
 20
101.7529471041
 30
0.0
 10
257.1743542988
 20
102.2083843009
 30
0.0
  0
SPLINE
  5
371
100
AcDbEntity
  8
7_ALL_FEATURES
100
AcDbSpline
 62
7
  6
CONTINUOUS
 70
0
 71
3
 72
15
 73
11
 74
0
 42
0.0000001
 43
0.0000001
 44
0.0000000001
 40
0.0
 40
0.0
 40
0.0
 40
0.0
 40
0.1393387911
 40
0.2772119815
 40
0.4121359561
 40
0.5427654803
 40
0.667837613
 40
0.7862668938
 40
0.8971824187
 40
1.0
 40
1.0
 40
1.0
 40
1.0
 10
233.7993542988
 20
102.2502081991
 30
0.0
 10
234.6733605281
 20
102.2502081991
 30
0.0
 10
236.4126330542
 20
102.301934748
 30
0.0
 10
238.9888707215
 20
102.5338703367
 30
0.0
 10
241.4919622433
 20
102.9168815582
 30
0.0
 10
243.8864168521
 20
103.4453679509
 30
0.0
 10
246.1386945929
 20
104.1119764898
 30
0.0
 10
248.2173642736
 20
104.9074116709
 30
0.0
 10
250.0932134091
 20
105.8205036643
 30
0.0
 10
251.2361938188
 20
106.5273565836
 30
0.0
 10
251.7627663916
 20
106.8997150752
 30
0.0
  0
SPLINE
  5
372
100
AcDbEntity
  8
7_ALL_FEATURES
100
AcDbSpline
 62
7
  6
CONTINUOUS
 70
0
 71
3
 72
15
 73
11
 74
0
 42
0.0000001
 43
0.0000001
 44
0.0000000001
 40
0.0
 40
0.0
 40
0.0
 40
0.0
 40
0.1393387911
 40
0.2772119815
 40
0.4121359561
 40
0.5427654803
 40
0.667837613
 40
0.7862668938
 40
0.8971824187
 40
1.0
 40
1.0
 40
1.0
 40
1.0
 10
233.7993542988
 20
102.2502081991
 30
0.0
 10
232.9253480695
 20
102.2502081991
 30
0.0
 10
231.1860755434
 20
102.301934748
 30
0.0
 10
228.6098378761
 20
102.5338703367
 30
0.0
 10
226.1067463543
 20
102.9168815582
 30
0.0
 10
223.7122917455
 20
103.4453679509
 30
0.0
 10
221.4600140048
 20
104.1119764898
 30
0.0
 10
219.381344324
 20
104.9074116709
 30
0.0
 10
217.5054951886
 20
105.8205036643
 30
0.0
 10
216.3625147788
 20
106.5273565836
 30
0.0
 10
215.8359422061
 20
106.8997150752
 30
0.0
  0
SPLINE
  5
373
100
AcDbEntity
  8
7_ALL_FEATURES
100
AcDbSpline
 62
7
  6
CONTINUOUS
 70
0
 71
3
 72
14
 73
10
 74
0
 42
0.0000001
 43
0.0000001
 44
0.0000000001
 40
0.0
 40
0.0
 40
0.0
 40
0.0
 40
0.1085048327
 40
0.2189012107
 40
0.332946355
 40
0.452150682
 40
0.5777309946
 40
0.7105852784
 40
1.0
 40
1.0
 40
1.0
 40
1.0
 10
256.2993542988
 20
118.8793733237
 30
0.0
 10
256.2993542988
 20
119.1684478517
 30
0.0
 10
256.2539701153
 20
119.7525944811
 30
0.0
 10
256.0513016883
 20
120.6193497763
 30
0.0
 10
255.7155507877
 20
121.4743177071
 30
0.0
 10
255.24977257
 20
122.3120562798
 30
0.0
 10
254.6572026583
 20
123.1279225049
 30
0.0
 10
253.6757393273
 20
124.2110816884
 30
0.0
 10
252.8000795033
 20
124.9294064717
 30
0.0
 10
252.17051266
 20
125.3745586512
 30
0.0
  0
SPLINE
  5
374
100
AcDbEntity
  8
7_ALL_FEATURES
100
AcDbSpline
 62
7
  6
CONTINUOUS
 70
0
 71
3
 72
12
 73
8
 74
0
 42
0.0000001
 43
0.0000001
 44
0.0000000001
 40
0.0
 40
0.0
 40
0.0
 40
0.0
 40
0.2853085703
 40
0.5442362126
 40
0.7802352371
 40
0.8916816928
 40
1.0
 40
1.0
 40
1.0
 40
1.0
 10
215.4281959376
 20
107.1880355735
 30
0.0
 10
214.8911736273
 20
107.5677516504
 30
0.0
 10
213.9093028848
 20
108.3566761047
 30
0.0
 10
212.6935195048
 20
109.6931683507
 30
0.0
 10
211.9599273365
 20
110.8966045585
 30
0.0
 10
211.5752145629
 20
111.8765397397
 30
0.0
 10
211.4480870867
 20
112.3685721474
 30
0.0
 10
211.4012552998
 20
112.6138413332
 30
0.0
  0
SPLINE
  5
375
100
AcDbEntity
  8
7_ALL_FEATURES
100
AcDbSpline
 62
7
  6
CONTINUOUS
 70
0
 71
3
 72
14
 73
10
 74
0
 42
0.0000001
 43
0.0000001
 44
0.0000000001
 40
0.0
 40
0.0
 40
0.0
 40
0.0
 40
0.1085048327
 40
0.2189012107
 40
0.332946355
 40
0.452150682
 40
0.5777309946
 40
0.7105852784
 40
1.0
 40
1.0
 40
1.0
 40
1.0
 10
211.2993542988
 20
118.8793733237
 30
0.0
 10
211.2993542988
 20
119.1684478517
 30
0.0
 10
211.3447384823
 20
119.7525944811
 30
0.0
 10
211.5474069093
 20
120.6193497763
 30
0.0
 10
211.8831578099
 20
121.4743177071
 30
0.0
 10
212.3489360276
 20
122.3120562798
 30
0.0
 10
212.9415059393
 20
123.1279225049
 30
0.0
 10
213.9229692704
 20
124.2110816884
 30
0.0
 10
214.7986290943
 20
124.9294064717
 30
0.0
 10
215.4281959376
 20
125.3745586512
 30
0.0
  0
SPLINE
  5
376
100
AcDbEntity
  8
7_ALL_FEATURES
100
AcDbSpline
 62
7
  6
CONTINUOUS
 70
0
 71
3
 72
12
 73
8
 74
0
 42
0.0000001
 43
0.0000001
 44
0.0000000001
 40
0.0
 40
0.0
 40
0.0
 40
0.0
 40
0.2853085703
 40
0.5442362126
 40
0.7802352371
 40
0.8916816928
 40
1.0
 40
1.0
 40
1.0
 40
1.0
 10
252.17051266
 20
107.1880355735
 30
0.0
 10
252.7075349703
 20
107.5677516504
 30
0.0
 10
253.6894057128
 20
108.3566761047
 30
0.0
 10
254.9051890928
 20
109.6931683507
 30
0.0
 10
255.6387812611
 20
110.8966045585
 30
0.0
 10
256.0234940348
 20
111.8765397397
 30
0.0
 10
256.1506215109
 20
112.3685721474
 30
0.0
 10
256.1974532978
 20
112.6138413332
 30
0.0
  0
SPLINE
  5
377
100
AcDbEntity
  8
7_ALL_FEATURES
100
AcDbSpline
 62
7
  6
CONTINUOUS
 70
0
 71
3
 72
15
 73
11
 74
0
 42
0.0000001
 43
0.0000001
 44
0.0000000001
 40
0.0
 40
0.0
 40
0.0
 40
0.0
 40
0.1028175813
 40
0.2137331062
 40
0.332162387
 40
0.4572345197
 40
0.5878640439
 40
0.7227880185
 40
0.8606612089
 40
1.0
 40
1.0
 40
1.0
 40
1.0
 10
251.7627663916
 20
125.6628791495
 30
0.0
 10
251.2361938188
 20
126.0352376411
 30
0.0
 10
250.0932134091
 20
126.7420905605
 30
0.0
 10
248.2173642736
 20
127.6551825539
 30
0.0
 10
246.1386945929
 20
128.4506177349
 30
0.0
 10
243.8864168521
 20
129.1172262739
 30
0.0
 10
241.4919622433
 20
129.6457126665
 30
0.0
 10
238.9888707215
 20
130.028723888
 30
0.0
 10
236.4126330542
 20
130.2606594767
 30
0.0
 10
234.6733605281
 20
130.3123860256
 30
0.0
 10
233.7993542988
 20
130.3123860256
 30
0.0
  0
SPLINE
  5
378
100
AcDbEntity
  8
7_ALL_FEATURES
100
AcDbSpline
 62
7
  6
CONTINUOUS
 70
0
 71
3
 72
15
 73
11
 74
0
 42
0.0000001
 43
0.0000001
 44
0.0000000001
 40
0.0
 40
0.0
 40
0.0
 40
0.0
 40
0.1028175813
 40
0.2137331062
 40
0.332162387
 40
0.4572345197
 40
0.5878640439
 40
0.7227880185
 40
0.8606612089
 40
1.0
 40
1.0
 40
1.0
 40
1.0
 10
215.8359422061
 20
125.6628791495
 30
0.0
 10
216.3625147788
 20
126.0352376411
 30
0.0
 10
217.5054951886
 20
126.7420905605
 30
0.0
 10
219.381344324
 20
127.6551825539
 30
0.0
 10
221.4600140048
 20
128.4506177349
 30
0.0
 10
223.7122917455
 20
129.1172262739
 30
0.0
 10
226.1067463543
 20
129.6457126665
 30
0.0
 10
228.6098378761
 20
130.028723888
 30
0.0
 10
231.1860755434
 20
130.2606594767
 30
0.0
 10
232.9253480695
 20
130.3123860256
 30
0.0
 10
233.7993542988
 20
130.3123860256
 30
0.0
  0
SPLINE
  5
379
100
AcDbEntity
  8
7_ALL_FEATURES
100
AcDbSpline
 62
7
  6
CONTINUOUS
 70
0
 71
3
 72
21
 73
17
 74
0
 42
0.0000001
 43
0.0000001
 44
0.0000000001
 40
0.0
 40
0.0
 40
0.0
 40
0.0
 40
0.1613722212
 40
0.3181183651
 40
0.3934303751
 40
0.4660252102
 40
0.5354774584
 40
0.6014294492
 40
0.6636108603
 40
0.7218569426
 40
0.7761352463
 40
0.8265775074
 40
0.8735110689
 40
0.9174913718
 40
0.9593168957
 40
1.0
 40
1.0
 40
1.0
 40
1.0
 10
233.7993542988
 20
107.6293733237
 30
0.0
 10
235.2643446611
 20
107.6293733237
 30
0.0
 10
238.1541861075
 20
107.7696259338
 30
0.0
 10
241.6935483639
 20
108.2981808459
 30
0.0
 10
244.3869726481
 20
108.9323448298
 30
0.0
 10
246.2790649021
 20
109.4968486556
 30
0.0
 10
248.051886526
 20
110.1510303388
 30
0.0
 10
249.6886819429
 20
110.8887723921
 30
0.0
 10
251.1740235688
 20
111.7031548106
 30
0.0
 10
252.4939382521
 20
112.5867909571
 30
0.0
 10
253.6359877513
 20
113.5318608812
 30
0.0
 10
254.5892880137
 20
114.5302384644
 30
0.0
 10
255.3441632116
 20
115.5736133179
 30
0.0
 10
255.8918252493
 20
116.6534201678
 30
0.0
 10
256.2245275872
 20
117.7590339895
 30
0.0
 10
256.2993542988
 20
118.5100386563
 30
0.0
 10
256.2993542988
 20
118.8793733237
 30
0.0
  0
SPLINE
  5
37A
100
AcDbEntity
  8
7_ALL_FEATURES
100
AcDbSpline
 62
7
  6
CONTINUOUS
 70
0
 71
3
 72
27
 73
23
 74
0
 42
0.0000001
 43
0.0000001
 44
0.0000000001
 40
0.0
 40
0.0
 40
0.0
 40
0.0
 40
0.0870139714
 40
0.1728676985
 40
0.2564272566
 40
0.3366468144
 40
0.4125913901
 40
0.4834960409
 40
0.5488215474
 40
0.608333312
 40
0.662202216
 40
0.7111270969
 40
0.7341675435
 40
0.7565264861
 40
0.7784654825
 40
0.8002682536
 40
0.8222265892
 40
0.8446231698
 40
0.867717513
 40
0.8917339769
 40
0.9431719244
 40
1.0
 40
1.0
 40
1.0
 40
1.0
 10
233.7993542988
 20
108.3123860256
 30
0.0
 10
234.7787055758
 20
108.3123860256
 30
0.0
 10
236.724990626
 20
108.3771850097
 30
0.0
 10
239.5986229314
 20
108.667639195
 30
0.0
 10
242.3697577675
 20
109.1460159699
 30
0.0
 10
244.9893181073
 20
109.8037483346
 30
0.0
 10
247.4114163423
 20
110.6293071703
 30
0.0
 10
249.5938843126
 20
111.608407412
 30
0.0
 10
251.4991406072
 20
112.7245705298
 30
0.0
 10
253.094706023
 20
113.9603960407
 30
0.0
 10
254.352540541
 20
115.2970563229
 30
0.0
 10
255.1134746606
 20
116.5057780111
 30
0.0
 10
255.5127745476
 20
117.4920098726
 30
0.0
 10
255.7084993593
 20
118.226371456
 30
0.0
 10
255.805041574
 20
118.9662518012
 30
0.0
 10
255.8017047981
 20
119.7079430747
 30
0.0
 10
255.6985253799
 20
120.447576975
 30
0.0
 10
255.4962466478
 20
121.1814042315
 30
0.0
 10
255.1960947084
 20
121.9058891501
 30
0.0
 10
254.6556696714
 20
122.8769351869
 30
0.0
 10
253.7253303935
 20
124.0522609149
 30
0.0
 10
252.8117482903
 20
124.8666803548
 30
0.0
 10
252.3069320211
 20
125.2594350176
 30
0.0
  0
SPLINE
  5
37B
100
AcDbEntity
  8
7_ALL_FEATURES
100
AcDbSpline
 62
7
  6
CONTINUOUS
 70
0
 71
3
 72
21
 73
17
 74
0
 42
0.0000001
 43
0.0000001
 44
0.0000000001
 40
0.0
 40
0.0
 40
0.0
 40
0.0
 40
0.1613722212
 40
0.3181183651
 40
0.3934303751
 40
0.4660252102
 40
0.5354774584
 40
0.6014294492
 40
0.6636108603
 40
0.7218569426
 40
0.7761352463
 40
0.8265775074
 40
0.8735110689
 40
0.9174913718
 40
0.9593168957
 40
1.0
 40
1.0
 40
1.0
 40
1.0
 10
233.7993542988
 20
107.6293733237
 30
0.0
 10
232.3343639365
 20
107.6293733237
 30
0.0
 10
229.4445224901
 20
107.7696259338
 30
0.0
 10
225.9051602337
 20
108.2981808459
 30
0.0
 10
223.2117359495
 20
108.9323448298
 30
0.0
 10
221.3196436956
 20
109.4968486556
 30
0.0
 10
219.5468220716
 20
110.1510303388
 30
0.0
 10
217.9100266547
 20
110.8887723921
 30
0.0
 10
216.4246850289
 20
111.7031548106
 30
0.0
 10
215.1047703455
 20
112.5867909571
 30
0.0
 10
213.9627208463
 20
113.5318608812
 30
0.0
 10
213.0094205839
 20
114.5302384644
 30
0.0
 10
212.254545386
 20
115.5736133179
 30
0.0
 10
211.7068833483
 20
116.6534201678
 30
0.0
 10
211.3741810105
 20
117.7590339895
 30
0.0
 10
211.2993542988
 20
118.5100386563
 30
0.0
 10
211.2993542988
 20
118.8793733237
 30
0.0
  0
SPLINE
  5
37C
100
AcDbEntity
  8
7_ALL_FEATURES
100
AcDbSpline
 62
7
  6
CONTINUOUS
 70
0
 71
3
 72
27
 73
23
 74
0
 42
0.0000001
 43
0.0000001
 44
0.0000000001
 40
0.0
 40
0.0
 40
0.0
 40
0.0
 40
0.0870139714
 40
0.1728676985
 40
0.2564272566
 40
0.3366468144
 40
0.4125913901
 40
0.4834960409
 40
0.5488215474
 40
0.608333312
 40
0.662202216
 40
0.7111270969
 40
0.7341675435
 40
0.7565264861
 40
0.7784654825
 40
0.8002682536
 40
0.8222265892
 40
0.8446231698
 40
0.867717513
 40
0.8917339769
 40
0.9431719244
 40
1.0
 40
1.0
 40
1.0
 40
1.0
 10
233.7993542988
 20
108.3123860256
 30
0.0
 10
232.8200030219
 20
108.3123860256
 30
0.0
 10
230.8737179716
 20
108.3771850097
 30
0.0
 10
228.0000856662
 20
108.667639195
 30
0.0
 10
225.2289508301
 20
109.1460159699
 30
0.0
 10
222.6093904903
 20
109.8037483346
 30
0.0
 10
220.1872922553
 20
110.6293071703
 30
0.0
 10
218.004824285
 20
111.608407412
 30
0.0
 10
216.0995679904
 20
112.7245705298
 30
0.0
 10
214.5040025747
 20
113.9603960407
 30
0.0
 10
213.2461680566
 20
115.2970563229
 30
0.0
 10
212.485233937
 20
116.5057780111
 30
0.0
 10
212.08593405
 20
117.4920098726
 30
0.0
 10
211.8902092383
 20
118.226371456
 30
0.0
 10
211.7936670236
 20
118.9662518012
 30
0.0
 10
211.7970037995
 20
119.7079430747
 30
0.0
 10
211.9001832177
 20
120.447576975
 30
0.0
 10
212.1024619499
 20
121.1814042315
 30
0.0
 10
212.4026138892
 20
121.9058891501
 30
0.0
 10
212.9430389263
 20
122.8769351869
 30
0.0
 10
213.8733782041
 20
124.0522609149
 30
0.0
 10
214.7869603073
 20
124.8666803548
 30
0.0
 10
215.2917765765
 20
125.2594350176
 30
0.0
  0
SPLINE
  5
37D
100
AcDbEntity
  8
7_ALL_FEATURES
100
AcDbSpline
 62
7
  6
CONTINUOUS
 70
0
 71
3
 72
15
 73
11
 74
0
 42
0.0000001
 43
0.0000001
 44
0.0000000001
 40
0.0
 40
0.0
 40
0.0
 40
0.0
 40
0.1384180877
 40
0.2754778007
 40
0.4097866026
 40
0.5400921113
 40
0.6652029668
 40
0.7840838032
 40
0.8958845794
 40
1.0
 40
1.0
 40
1.0
 40
1.0
 10
233.7993542988
 20
102.433220901
 30
0.0
 10
234.664434265
 20
102.433220901
 30
0.0
 10
236.3865240938
 20
102.4827999334
 30
0.0
 10
238.9393398797
 20
102.7051168939
 30
0.0
 10
241.4242840767
 20
103.0724862978
 30
0.0
 10
243.8083013669
 20
103.5798367841
 30
0.0
 10
246.0601025645
 20
104.2205744187
 30
0.0
 10
248.150181914
 20
104.9863047143
 30
0.0
 10
250.0509773585
 20
105.8669197713
 30
0.0
 10
251.2189197028
 20
106.5484670261
 30
0.0
 10
251.7613028648
 20
106.907947811
 30
0.0
  0
SPLINE
  5
37E
100
AcDbEntity
  8
7_ALL_FEATURES
100
AcDbSpline
 62
7
  6
CONTINUOUS
 70
0
 71
3
 72
15
 73
11
 74
0
 42
0.0000001
 43
0.0000001
 44
0.0000000001
 40
0.0
 40
0.0
 40
0.0
 40
0.0
 40
0.1384180877
 40
0.2754778007
 40
0.4097866026
 40
0.5400921113
 40
0.6652029668
 40
0.7840838032
 40
0.8958845794
 40
1.0
 40
1.0
 40
1.0
 40
1.0
 10
233.7993542988
 20
102.433220901
 30
0.0
 10
232.9342743326
 20
102.433220901
 30
0.0
 10
231.2121845038
 20
102.4827999334
 30
0.0
 10
228.6593687179
 20
102.7051168939
 30
0.0
 10
226.174424521
 20
103.0724862978
 30
0.0
 10
223.7904072307
 20
103.5798367841
 30
0.0
 10
221.5386060332
 20
104.2205744187
 30
0.0
 10
219.4485266836
 20
104.9863047143
 30
0.0
 10
217.5477312391
 20
105.8669197713
 30
0.0
 10
216.3797888948
 20
106.5484670261
 30
0.0
 10
215.8374057328
 20
106.907947811
 30
0.0
  0
SPLINE
  5
37F
100
AcDbEntity
  8
7_ALL_FEATURES
100
AcDbSpline
 62
7
  6
CONTINUOUS
 70
0
 71
3
 72
21
 73
17
 74
0
 42
0.0000001
 43
0.0000001
 44
0.0000000001
 40
0.0
 40
0.0
 40
0.0
 40
0.0
 40
0.1613715935
 40
0.3181187739
 40
0.393430345
 40
0.4660249964
 40
0.5354775484
 40
0.6014296556
 40
0.6636106401
 40
0.7218567891
 40
0.7761355926
 40
0.8265774668
 40
0.8735107765
 40
0.9174915104
 40
0.9593170219
 40
1.0
 40
1.0
 40
1.0
 40
1.0
 10
233.7993542988
 20
92.4739287575
 30
0.0
 10
232.3343694916
 20
92.4739287575
 30
0.0
 10
229.4445247788
 20
92.6141865088
 30
0.0
 10
225.9051599759
 20
93.142725397
 30
0.0
 10
223.2117327864
 20
93.7768971138
 30
0.0
 10
221.3196481064
 20
94.3414154857
 30
0.0
 10
219.5468178627
 20
94.9955791649
 30
0.0
 10
217.9100190769
 20
95.7333163313
 30
0.0
 10
216.4246916548
 20
96.5477208055
 30
0.0
 10
215.1047746849
 20
97.4313528585
 30
0.0
 10
213.9627005017
 20
98.3763972731
 30
0.0
 10
213.0094224286
 20
99.3747980568
 30
0.0
 10
212.2545702135
 20
100.4181822609
 30
0.0
 10
211.7068540473
 20
101.4979631015
 30
0.0
 10
211.3741658638
 20
102.603590187
 30
0.0
 10
211.2993747907
 20
103.3545951988
 30
0.0
 10
211.2993747907
 20
103.7239287575
 30
0.0
  0
SPLINE
  5
380
100
AcDbEntity
  8
7_ALL_FEATURES
100
AcDbSpline
 62
7
  6
CONTINUOUS
 70
0
 71
3
 72
15
 73
11
 74
0
 42
0.0000001
 43
0.0000001
 44
0.0000000001
 40
0.0
 40
0.0
 40
0.0
 40
0.0
 40
0.1028207599
 40
0.2137380632
 40
0.3321678073
 40
0.4572403446
 40
0.5878697373
 40
0.7227903276
 40
0.8606666388
 40
1.0
 40
1.0
 40
1.0
 40
1.0
 10
216.6533132766
 20
87.6156040306
 30
0.0
 10
217.1559494447
 20
87.2601979246
 30
0.0
 10
218.2470025497
 20
86.5855999828
 30
0.0
 10
220.0375364052
 20
85.7141091809
 30
0.0
 10
222.0216414131
 20
84.9549197954
 30
0.0
 10
224.1714382143
 20
84.3187009892
 30
0.0
 10
226.456913973
 20
83.8143207462
 30
0.0
 10
228.8460901706
 20
83.4487575812
 30
0.0
 10
231.3050524544
 20
83.2274126483
 30
0.0
 10
232.9651564751
 20
83.1780340736
 30
0.0
 10
233.7993542988
 20
83.1780340736
 30
0.0
  0
SPLINE
  5
381
100
AcDbEntity
  8
7_ALL_FEATURES
100
AcDbSpline
 62
7
  6
CONTINUOUS
 70
0
 71
3
 72
15
 73
11
 74
0
 42
0.0000001
 43
0.0000001
 44
0.0000000001
 40
0.0
 40
0.0
 40
0.0
 40
0.0
 40
0.1028207599
 40
0.2137380632
 40
0.3321678073
 40
0.4572403446
 40
0.5878697373
 40
0.7227903276
 40
0.8606666388
 40
1.0
 40
1.0
 40
1.0
 40
1.0
 10
250.945395321
 20
87.6156040306
 30
0.0
 10
250.4427591529
 20
87.2601979246
 30
0.0
 10
249.3517060479
 20
86.5855999828
 30
0.0
 10
247.5611721924
 20
85.7141091809
 30
0.0
 10
245.5770671845
 20
84.9549197954
 30
0.0
 10
243.4272703833
 20
84.3187009892
 30
0.0
 10
241.1417946246
 20
83.8143207462
 30
0.0
 10
238.752618427
 20
83.4487575812
 30
0.0
 10
236.2936561432
 20
83.2274126483
 30
0.0
 10
234.6335521225
 20
83.1780340736
 30
0.0
 10
233.7993542988
 20
83.1780340736
 30
0.0
  0
SPLINE
  5
382
100
AcDbEntity
  8
7_ALL_FEATURES
100
AcDbSpline
 62
7
  6
CONTINUOUS
 70
0
 71
3
 72
21
 73
17
 74
0
 42
0.0000001
 43
0.0000001
 44
0.0000000001
 40
0.0
 40
0.0
 40
0.0
 40
0.0
 40
0.0406829781
 40
0.0825084896
 40
0.1264892235
 40
0.1734225332
 40
0.2238644074
 40
0.2781432109
 40
0.3363893599
 40
0.3985703444
 40
0.4645224516
 40
0.5339750036
 40
0.606569655
 40
0.6818812261
 40
0.8386284065
 40
1.0
 40
1.0
 40
1.0
 40
1.0
 10
256.2993338069
 20
103.7239287575
 30
0.0
 10
256.2993338069
 20
103.3545951988
 30
0.0
 10
256.2245427338
 20
102.603590187
 30
0.0
 10
255.8918545503
 20
101.4979631015
 30
0.0
 10
255.3441383841
 20
100.4181822609
 30
0.0
 10
254.589286169
 20
99.3747980568
 30
0.0
 10
253.6360080959
 20
98.3763972731
 30
0.0
 10
252.4939339127
 20
97.4313528585
 30
0.0
 10
251.1740169428
 20
96.5477208055
 30
0.0
 10
249.6886895207
 20
95.7333163313
 30
0.0
 10
248.0518907349
 20
94.9955791649
 30
0.0
 10
246.2790604912
 20
94.3414154857
 30
0.0
 10
244.3869758112
 20
93.7768971138
 30
0.0
 10
241.6935486217
 20
93.142725397
 30
0.0
 10
238.1541838189
 20
92.6141865088
 30
0.0
 10
235.2643391061
 20
92.4739287575
 30
0.0
 10
233.7993542988
 20
92.4739287575
 30
0.0
  0
SPLINE
  5
383
100
AcDbEntity
  8
7_ALL_FEATURES
100
AcDbSpline
 62
7
  6
CONTINUOUS
 70
0
 71
3
 72
14
 73
10
 74
0
 42
0.0000001
 43
0.0000001
 44
0.0000000001
 40
0.0
 40
0.0
 40
0.0
 40
0.0
 40
0.1085043765
 40
0.2189018681
 40
0.3329452186
 40
0.4521515606
 40
0.577729647
 40
0.7105859157
 40
1.0
 40
1.0
 40
1.0
 40
1.0
 10
256.2993247847
 20
94.9770721793
 30
0.0
 10
256.2993247847
 20
94.6879988177
 30
0.0
 10
256.2540426984
 20
94.1038377685
 30
0.0
 10
256.0512321279
 20
93.2371180382
 30
0.0
 10
255.7156058331
 20
92.3821007902
 30
0.0
 10
255.2497268854
 20
91.5444191465
 30
0.0
 10
254.6572325582
 20
90.728497923
 30
0.0
 10
253.6757056942
 20
89.645389828
 30
0.0
 10
252.8000555258
 20
88.9270627289
 30
0.0
 10
252.1705055913
 20
88.4818893505
 30
0.0
  0
SPLINE
  5
384
100
AcDbEntity
  8
7_ALL_FEATURES
100
AcDbSpline
 62
7
  6
CONTINUOUS
 70
0
 71
3
 72
14
 73
10
 74
0
 42
0.0000001
 43
0.0000001
 44
0.0000000001
 40
0.0
 40
0.0
 40
0.0
 40
0.0
 40
0.1085043765
 40
0.2189018681
 40
0.3329452186
 40
0.4521515606
 40
0.577729647
 40
0.7105859157
 40
1.0
 40
1.0
 40
1.0
 40
1.0
 10
211.2993838129
 20
94.9770721793
 30
0.0
 10
211.2993838129
 20
94.6879988177
 30
0.0
 10
211.3446658993
 20
94.1038377685
 30
0.0
 10
211.5474764697
 20
93.2371180382
 30
0.0
 10
211.8831027645
 20
92.3821007902
 30
0.0
 10
212.3489817123
 20
91.5444191465
 30
0.0
 10
212.9414760394
 20
90.728497923
 30
0.0
 10
213.9230029034
 20
89.645389828
 30
0.0
 10
214.7986530718
 20
88.9270627289
 30
0.0
 10
215.4282030063
 20
88.4818893505
 30
0.0
  0
SPLINE
  5
385
100
AcDbEntity
  8
7_ALL_FEATURES
100
AcDbSpline
 62
7
  6
CONTINUOUS
 70
0
 71
3
 72
9
 73
5
 74
0
 42
0.0000001
 43
0.0000001
 44
0.0000000001
 40
0.0
 40
0.0
 40
0.0
 40
0.0
 40
0.2441997856
 40
1.0
 40
1.0
 40
1.0
 40
1.0
 10
215.4282030063
 20
88.4818893505
 30
0.0
 10
215.5275032145
 20
88.4116712363
 30
0.0
 10
215.9374253559
 20
88.1287910273
 30
0.0
 10
216.3599467935
 20
87.8642785502
 30
0.0
 10
216.6847276928
 20
87.6740089233
 30
0.0
  0
SPLINE
  5
386
100
AcDbEntity
  8
7_ALL_FEATURES
100
AcDbSpline
 62
7
  6
CONTINUOUS
 70
0
 71
3
 72
14
 73
10
 74
0
 42
0.0000001
 43
0.0000001
 44
0.0000000001
 40
0.0
 40
0.0
 40
0.0
 40
0.0
 40
0.1065881674
 40
0.2200518562
 40
0.339769634
 40
0.4649468569
 40
0.594647293
 40
0.7278176475
 40
1.0
 40
1.0
 40
1.0
 40
1.0
 10
216.6847276928
 20
87.6740089233
 30
0.0
 10
217.2288735489
 20
87.3552265402
 30
0.0
 10
218.3849798855
 20
86.7519515609
 30
0.0
 10
220.2399416914
 20
85.9721935347
 30
0.0
 10
222.2515556107
 20
85.296437461
 30
0.0
 10
224.3965314865
 20
84.7325826199
 30
0.0
 10
226.6503543354
 20
84.2870879684
 30
0.0
 10
229.7876542237
 20
83.854841552
 30
0.0
 10
232.1889385762
 20
83.7270721793
 30
0.0
 10
233.7993542988
 20
83.7270721793
 30
0.0
  0
SPLINE
  5
387
100
AcDbEntity
  8
7_ALL_FEATURES
100
AcDbSpline
 62
7
  6
CONTINUOUS
 70
0
 71
3
 72
16
 73
12
 74
0
 42
0.0000001
 43
0.0000001
 44
0.0000000001
 40
0.0
 40
0.0
 40
0.0
 40
0.0
 40
0.1477549701
 40
0.2930044546
 40
0.4333609147
 40
0.566628488
 40
0.6909488305
 40
0.8049344819
 40
0.8578293004
 40
0.9079394302
 40
1.0
 40
1.0
 40
1.0
 40
1.0
 10
233.7993542988
 20
89.3562373039
 30
0.0
 10
234.9258339972
 20
89.3562373039
 30
0.0
 10
237.160628781
 20
89.4398317848
 30
0.0
 10
240.4464694327
 20
89.8142938384
 30
0.0
 10
243.584000485
 20
90.4289391063
 30
0.0
 10
246.5035001985
 20
91.2701283733
 30
0.0
 10
249.1402938836
 20
92.3191756648
 30
0.0
 10
251.1017181193
 20
93.3731782738
 30
0.0
 10
252.4685830115
 20
94.308093646
 30
0.0
 10
253.6276612362
 20
95.2408402577
 30
0.0
 10
254.3861780555
 20
96.0275990061
 30
0.0
 10
254.8128142401
 20
96.5849131832
 30
0.0
  0
SPLINE
  5
388
100
AcDbEntity
  8
7_ALL_FEATURES
100
AcDbSpline
 62
7
  6
CONTINUOUS
 70
0
 71
3
 72
9
 73
5
 74
0
 42
0.0000001
 43
0.0000001
 44
0.0000000001
 40
0.0
 40
0.0
 40
0.0
 40
0.0
 40
0.2441997856
 40
1.0
 40
1.0
 40
1.0
 40
1.0
 10
252.1705055913
 20
88.4818893505
 30
0.0
 10
252.0712053831
 20
88.4116712363
 30
0.0
 10
251.6612832418
 20
88.1287910273
 30
0.0
 10
251.2387618042
 20
87.8642785502
 30
0.0
 10
250.9139809049
 20
87.6740089233
 30
0.0
  0
SPLINE
  5
389
100
AcDbEntity
  8
7_ALL_FEATURES
100
AcDbSpline
 62
7
  6
CONTINUOUS
 70
0
 71
3
 72
14
 73
10
 74
0
 42
0.0000001
 43
0.0000001
 44
0.0000000001
 40
0.0
 40
0.0
 40
0.0
 40
0.0
 40
0.1065881674
 40
0.2200518562
 40
0.339769634
 40
0.4649468569
 40
0.594647293
 40
0.7278176475
 40
1.0
 40
1.0
 40
1.0
 40
1.0
 10
250.9139809049
 20
87.6740089233
 30
0.0
 10
250.3698350487
 20
87.3552265402
 30
0.0
 10
249.2137287121
 20
86.7519515609
 30
0.0
 10
247.3587669062
 20
85.9721935347
 30
0.0
 10
245.3471529869
 20
85.296437461
 30
0.0
 10
243.2021771112
 20
84.7325826199
 30
0.0
 10
240.9483542622
 20
84.2870879684
 30
0.0
 10
237.811054374
 20
83.854841552
 30
0.0
 10
235.4097700214
 20
83.7270721793
 30
0.0
 10
233.7993542988
 20
83.7270721793
 30
0.0
  0
SPLINE
  5
38A
100
AcDbEntity
  8
3_ALL_AXES
100
AcDbSpline
 62
7
  6
CONTINUOUS
 70
0
 71
3
 72
21
 73
17
 74
0
 42
0.0000001
 43
0.0000001
 44
0.0000000001
 40
0.0
 40
0.0
 40
0.0
 40
0.0
 40
0.0406830211
 40
0.0825085465
 40
0.1264890557
 40
0.1734223577
 40
0.2238644843
 40
0.2781431667
 40
0.3363891474
 40
0.3985703921
 40
0.4645226707
 40
0.533974889
 40
0.6065698707
 40
0.6818810008
 40
0.8386315092
 40
1.0
 40
1.0
 40
1.0
 40
1.0
 10
256.2993462054
 20
112.7305929568
 30
0.0
 10
256.2993462054
 20
112.3612589143
 30
0.0
 10
256.224543536
 20
111.6102533738
 30
0.0
 10
255.891844873
 20
110.5046329897
 30
0.0
 10
255.3441545733
 20
109.4248416369
 30
0.0
 10
254.5893018844
 20
108.3814546395
 30
0.0
 10
253.6360089846
 20
107.3830665643
 30
0.0
 10
252.4939409023
 20
106.4380161912
 30
0.0
 10
251.1740299107
 20
105.5543739469
 30
0.0
 10
249.6886939716
 20
104.7399780062
 30
0.0
 10
248.0518891826
 20
104.002252393
 30
0.0
 10
246.2790633562
 20
103.3480713734
 30
0.0
 10
244.3869803028
 20
102.7835583101
 30
0.0
 10
241.6935228962
 20
102.1493855504
 30
0.0
 10
238.1541587832
 20
101.6208476039
 30
0.0
 10
235.2643113103
 20
101.4805929568
 30
0.0
 10
233.7993542988
 20
101.4805929568
 30
0.0
  0
SPLINE
  5
38B
100
AcDbEntity
  8
3_ALL_AXES
100
AcDbSpline
 62
7
  6
CONTINUOUS
 70
0
 71
3
 72
21
 73
17
 74
0
 42
0.0000001
 43
0.0000001
 44
0.0000000001
 40
0.0
 40
0.0
 40
0.0
 40
0.0
 40
0.0406830211
 40
0.0825085465
 40
0.1264890557
 40
0.1734223577
 40
0.2238644843
 40
0.2781431667
 40
0.3363891474
 40
0.3985703921
 40
0.4645226707
 40
0.533974889
 40
0.6065698707
 40
0.6818810008
 40
0.8386315092
 40
1.0
 40
1.0
 40
1.0
 40
1.0
 10
211.2993623922
 20
112.7305929568
 30
0.0
 10
211.2993623922
 20
112.3612589143
 30
0.0
 10
211.3741650616
 20
111.6102533738
 30
0.0
 10
211.7068637246
 20
110.5046329897
 30
0.0
 10
212.2545540243
 20
109.4248416369
 30
0.0
 10
213.0094067132
 20
108.3814546395
 30
0.0
 10
213.962699613
 20
107.3830665643
 30
0.0
 10
215.1047676953
 20
106.4380161912
 30
0.0
 10
216.4246786869
 20
105.5543739469
 30
0.0
 10
217.9100146261
 20
104.7399780062
 30
0.0
 10
219.546819415
 20
104.002252393
 30
0.0
 10
221.3196452414
 20
103.3480713734
 30
0.0
 10
223.2117282948
 20
102.7835583101
 30
0.0
 10
225.9051857014
 20
102.1493855504
 30
0.0
 10
229.4445498145
 20
101.6208476039
 30
0.0
 10
232.3343972874
 20
101.4805929568
 30
0.0
 10
233.7993542988
 20
101.4805929568
 30
0.0
  0
SPLINE
  5
38C
100
AcDbEntity
  8
7_ALL_FEATURES
100
AcDbSpline
 62
7
  6
CONTINUOUS
 70
0
 71
3
 72
16
 73
12
 74
0
 42
0.0000001
 43
0.0000001
 44
0.0000000001
 40
0.0
 40
0.0
 40
0.0
 40
0.0
 40
0.0920978341
 40
0.1422244302
 40
0.1951332422
 40
0.3091375174
 40
0.4334624282
 40
0.5667209993
 40
0.7070570244
 40
0.8522779134
 40
1.0
 40
1.0
 40
1.0
 40
1.0
 10
212.7931254883
 20
96.5754798599
 30
0.0
 10
213.2204359964
 20
96.0187830217
 30
0.0
 10
213.9796554445
 20
95.2329653216
 30
0.0
 10
215.1392977438
 20
94.3013293335
 30
0.0
 10
216.5063960754
 20
93.3676234617
 30
0.0
 10
218.4675657718
 20
92.3150274147
 30
0.0
 10
221.1034464924
 20
91.2674022451
 30
0.0
 10
224.0214400585
 20
90.4273905671
 30
0.0
 10
227.1569978559
 20
89.8136262597
 30
0.0
 10
230.4405420946
 20
89.4397095223
 30
0.0
 10
232.6737088473
 20
89.3562373039
 30
0.0
 10
233.7993542988
 20
89.3562373039
 30
0.0
  0
ENDSEC
  0
SECTION
  2
OBJECTS
  0
DICTIONARY
  5
38D
100
AcDbDictionary
  3
ACAD_GROUP
350
38E
  3
ACAD_MLINESTYLE
350
38F
  0
DICTIONARY
  5
38E
102
{ACAD_REACTORS
330
38D
102
}
100
AcDbDictionary
  0
DICTIONARY
  5
38F
102
{ACAD_REACTORS
330
38D
102
}
100
AcDbDictionary
  3
STANDARD
350
390
  0
MLINESTYLE
  5
390
102
{ACAD_REACTORS
330
38F
102
}
100
AcDbMlineStyle
  2
STANDARD
 70
0
  3

 62
256
 51
90.0
 52
90.0
 71
2
 49
0.5
 62
256
  6
BYLAYER
 49
-0.5
 62
256
  6
BYLAYER
  0
ENDSEC
  0
EOF
