  0
SECTION
  2
HEADER
  9
$ACADVER
  1
AC1027
  9
$ACADMAINTVER
 70
     8
  9
$DWGCODEPAGE
  3
ANSI_1252
  9
$REQUIREDVERSIONS
160
                 0
  9
$INSBASE
 10
0.0
 20
0.0
 30
0.0
  9
$EXTMIN
 10
0.0
 20
0.0
 30
0.0
  9
$EXTMAX
 10
297.0
 20
210.0
 30
0.0
  9
$LIMMIN
 10
0.0
 20
0.0
  9
$LIMMAX
 10
297.0
 20
210.0
  9
$ORTHOMODE
 70
     0
  9
$REGENMODE
 70
     1
  9
$FILLMODE
 70
     1
  9
$QTEXTMODE
 70
     0
  9
$MIRRTEXT
 70
     1
  9
$LTSCALE
 40
16.335
  9
$ATTMODE
 70
     1
  9
$TEXTSIZE
 40
0.2
  9
$TRACEWID
 40
0.05
  9
$TEXTSTYLE
  7
STANDARD
  9
$CLAYER
  8
0
  9
$CELTYPE
  6
BYLAYER
  9
$CECOLOR
 62
   256
  9
$CELTSCALE
 40
1.0
  9
$DISPSILH
 70
     0
  9
$DIMSCALE
 40
1.0
  9
$DIMASZ
 40
2.5
  9
$DIMEXO
 40
0.75
  9
$DIMDLI
 40
11.286
  9
$DIMRND
 40
0.0
  9
$DIMDLE
 40
0.0
  9
$DIMEXE
 40
0.75
  9
$DIMTP
 40
0.01
  9
$DIMTM
 40
0.01
  9
$DIMTXT
 40
3.0
  9
$DIMCEN
 40
2.673
  9
$DIMTSZ
 40
0.0
  9
$DIMTOL
 70
     1
  9
$DIMLIM
 70
     0
  9
$DIMTIH
 70
     1
  9
$DIMTOH
 70
     1
  9
$DIMSE1
 70
     0
  9
$DIMSE2
 70
     0
  9
$DIMTAD
 70
     0
  9
$DIMZIN
 70
     0
  9
$DIMBLK
  1
CLOSED
  9
$DIMASO
 70
     1
  9
$DIMSHO
 70
     1
  9
$DIMPOST
  1

  9
$DIMAPOST
  1

  9
$DIMALT
 70
     0
  9
$DIMALTD
 70
     2
  9
$DIMALTF
 40
25.4
  9
$DIMLFAC
 40
1.0
  9
$DIMTOFL
 70
     0
  9
$DIMTVP
 40
0.0
  9
$DIMTIX
 70
     0
  9
$DIMSOXD
 70
     0
  9
$DIMSAH
 70
     0
  9
$DIMBLK1
  1

  9
$DIMBLK2
  1

  9
$DIMSTYLE
  2
STANDARD
  9
$DIMCLRD
 70
     0
  9
$DIMCLRE
 70
     0
  9
$DIMCLRT
 70
     0
  9
$DIMTFAC
 40
1.0
  9
$DIMGAP
 40
0.625
  9
$DIMJUST
 70
     0
  9
$DIMSD1
 70
     0
  9
$DIMSD2
 70
     0
  9
$DIMTOLJ
 70
     1
  9
$DIMTZIN
 70
     0
  9
$DIMALTZ
 70
     0
  9
$DIMALTTZ
 70
     0
  9
$DIMUPT
 70
     0
  9
$DIMDEC
 70
     4
  9
$DIMTDEC
 70
     4
  9
$DIMALTU
 70
     2
  9
$DIMALTTD
 70
     2
  9
$DIMTXSTY
  7
STANDARD
  9
$DIMAUNIT
 70
     0
  9
$DIMADEC
 70
     0
  9
$DIMALTRND
 40
0.0
  9
$DIMAZIN
 70
     0
  9
$DIMDSEP
 70
    44
  9
$DIMATFIT
 70
     3
  9
$DIMFRAC
 70
     0
  9
$DIMLDRBLK
  1

  9
$DIMLUNIT
 70
     2
  9
$DIMLWD
 70
    -2
  9
$DIMLWE
 70
    -2
  9
$DIMTMOVE
 70
     0
  9
$DIMFXL
 40
1.0
  9
$DIMFXLON
 70
     0
  9
$DIMJOGANG
 40
0.785398
  9
$DIMTFILL
 70
     0
  9
$DIMTFILLCLR
 70
     0
  9
$DIMARCSYM
 70
     0
  9
$DIMLTYPE
  6

  9
$DIMLTEX1
  6

  9
$DIMLTEX2
  6

  9
$DIMTXTDIRECTION
 70
     0
  9
$LUNITS
 70
     2
  9
$LUPREC
 70
     4
  9
$SKETCHINC
 40
0.1
  9
$FILLETRAD
 40
0.5
  9
$AUNITS
 70
     0
  9
$AUPREC
 70
     0
  9
$MENU
  1
.
  9
$ELEVATION
 40
0.0
  9
$PELEVATION
 40
0.0
  9
$THICKNESS
 40
0.0
  9
$LIMCHECK
 70
     0
  9
$CHAMFERA
 40
0.0
  9
$CHAMFERB
 40
0.0
  9
$CHAMFERC
 40
0.0
  9
$CHAMFERD
 40
0.0
  9
$SKPOLY
 70
     0
  9
$TDCREATE
 40
2447893.083333333
  9
$TDUCREATE
 40
0.0
  9
$TDUPDATE
 40
2460231.382981875
  9
$TDUUPDATE
 40
2460231.299648541
  9
$TDINDWG
 40
0.0
  9
$TDUSRTIMER
 40
0.0
  9
$USRTIMER
 70
     1
  9
$ANGBASE
 50
0.0
  9
$ANGDIR
 70
     0
  9
$PDMODE
 70
     3
  9
$PDSIZE
 40
0.3125
  9
$PLINEWID
 40
0.0
  9
$SPLFRAME
 70
     0
  9
$SPLINETYPE
 70
     6
  9
$SPLINESEGS
 70
     8
  9
$HANDSEED
  5
4C5
  9
$SURFTAB1
 70
     6
  9
$SURFTAB2
 70
     6
  9
$SURFTYPE
 70
     6
  9
$SURFU
 70
     6
  9
$SURFV
 70
     6
  9
$UCSBASE
  2

  9
$UCSNAME
  2

  9
$UCSORG
 10
0.0
 20
0.0
 30
0.0
  9
$UCSXDIR
 10
1.0
 20
0.0
 30
0.0
  9
$UCSYDIR
 10
0.0
 20
1.0
 30
0.0
  9
$UCSORTHOREF
  2

  9
$UCSORTHOVIEW
 70
     0
  9
$UCSORGTOP
 10
0.0
 20
0.0
 30
0.0
  9
$UCSORGBOTTOM
 10
0.0
 20
0.0
 30
0.0
  9
$UCSORGLEFT
 10
0.0
 20
0.0
 30
0.0
  9
$UCSORGRIGHT
 10
0.0
 20
0.0
 30
0.0
  9
$UCSORGFRONT
 10
0.0
 20
0.0
 30
0.0
  9
$UCSORGBACK
 10
0.0
 20
0.0
 30
0.0
  9
$PUCSBASE
  2

  9
$PUCSNAME
  2

  9
$PUCSORG
 10
0.0
 20
0.0
 30
0.0
  9
$PUCSXDIR
 10
1.0
 20
0.0
 30
0.0
  9
$PUCSYDIR
 10
0.0
 20
1.0
 30
0.0
  9
$PUCSORTHOREF
  2

  9
$PUCSORTHOVIEW
 70
     0
  9
$PUCSORGTOP
 10
0.0
 20
0.0
 30
0.0
  9
$PUCSORGBOTTOM
 10
0.0
 20
0.0
 30
0.0
  9
$PUCSORGLEFT
 10
0.0
 20
0.0
 30
0.0
  9
$PUCSORGRIGHT
 10
0.0
 20
0.0
 30
0.0
  9
$PUCSORGFRONT
 10
0.0
 20
0.0
 30
0.0
  9
$PUCSORGBACK
 10
0.0
 20
0.0
 30
0.0
  9
$USERI1
 70
     0
  9
$USERI2
 70
     0
  9
$USERI3
 70
     0
  9
$USERI4
 70
     0
  9
$USERI5
 70
     0
  9
$USERR1
 40
0.0
  9
$USERR2
 40
0.0
  9
$USERR3
 40
0.0
  9
$USERR4
 40
0.0
  9
$USERR5
 40
0.0
  9
$WORLDVIEW
 70
     1
  9
$SHADEDGE
 70
     3
  9
$SHADEDIF
 70
    70
  9
$TILEMODE
 70
     1
  9
$MAXACTVP
 70
    64
  9
$PINSBASE
 10
0.0
 20
0.0
 30
0.0
  9
$PLIMCHECK
 70
     0
  9
$PEXTMIN
 10
1.000000E+20
 20
1.000000E+20
 30
1.000000E+20
  9
$PEXTMAX
 10
-1.000000E+20
 20
-1.000000E+20
 30
-1.000000E+20
  9
$PLIMMIN
 10
0.0
 20
0.0
  9
$PLIMMAX
 10
12.0
 20
9.0
  9
$UNITMODE
 70
     0
  9
$VISRETAIN
 70
     1
  9
$PLINEGEN
 70
     0
  9
$PSLTSCALE
 70
     0
  9
$TREEDEPTH
 70
  3020
  9
$CMLSTYLE
  2

  9
$CMLJUST
 70
     0
  9
$CMLSCALE
 40
1.0
  9
$PROXYGRAPHICS
 70
     1
  9
$MEASUREMENT
 70
     1
  9
$CELWEIGHT
370
    -1
  9
$ENDCAPS
280
     0
  9
$JOINSTYLE
280
     0
  9
$LWDISPLAY
290
     0
  9
$INSUNITS
 70
     4
  9
$HYPERLINKBASE
  1

  9
$STYLESHEET
  1

  9
$XEDIT
290
     1
  9
$CEPSNTYPE
380
     0
  9
$PSTYLEMODE
290
     1
  9
$FINGERPRINTGUID
  2
{9A2C2145-2A70-4BBE-9C5E-F739C93FF6CE}
  9
$VERSIONGUID
  2
{FAEB1C32-E019-11D5-929B-00C0DF256EC4}
  9
$EXTNAMES
290
     1
  9
$PSVPSCALE
 40
0.0
  9
$OLESTARTUP
290
     0
  9
$SORTENTS
280
   127
  9
$INDEXCTL
280
     0
  9
$HIDETEXT
280
     1
  9
$XCLIPFRAME
280
     2
  9
$HALOGAP
280
     0
  9
$OBSCOLOR
 70
   257
  9
$OBSLTYPE
280
     0
  9
$INTERSECTIONDISPLAY
280
     0
  9
$INTERSECTIONCOLOR
 70
   257
  9
$DIMASSOC
280
     2
  9
$PROJECTNAME
  1

  9
$CAMERADISPLAY
290
     0
  9
$LENSLENGTH
 40
50.0
  9
$CAMERAHEIGHT
 40
0.0
  9
$STEPSPERSEC
 40
2.0
  9
$STEPSIZE
 40
6.0
  9
$3DDWFPREC
 40
2.0
  9
$PSOLWIDTH
 40
0.25
  9
$PSOLHEIGHT
 40
4.0
  9
$LOFTANG1
 40
1.570796
  9
$LOFTANG2
 40
1.570796
  9
$LOFTMAG1
 40
0.0
  9
$LOFTMAG2
 40
0.0
  9
$LOFTPARAM
 70
     7
  9
$LOFTNORMALS
280
     1
  9
$LATITUDE
 40
37.795
  9
$LONGITUDE
 40
-122.394
  9
$NORTHDIRECTION
 40
0.0
  9
$TIMEZONE
 70
 -8000
  9
$LIGHTGLYPHDISPLAY
280
     1
  9
$TILEMODELIGHTSYNCH
280
     1
  9
$SOLIDHIST
280
     1
  9
$SHOWHIST
280
     1
  9
$DWFFRAME
280
     2
  9
$DGNFRAME
280
     2
  9
$REALWORLDSCALE
290
     1
  9
$INTERFERECOLOR
 62
   256
  9
$CSHADOW
280
     0
  9
$SHADOWPLANELOCATION
 40
0.0
  0
ENDSEC
  0
SECTION
  2
CLASSES
  0
CLASS
  1
ACDBDICTIONARYWDFLT
  2
AcDbDictionaryWithDefault
  3
ObjectDBX Classes
 90
        0
 91
        6
280
     0
281
     0
  0
CLASS
  1
ACDBPLACEHOLDER
  2
AcDbPlaceHolder
  3
ObjectDBX Classes
 90
        0
 91
        1
280
     0
281
     0
  0
CLASS
  1
LAYOUT
  2
AcDbLayout
  3
ObjectDBX Classes
 90
        0
 91
        1
280
     0
281
     0
  0
CLASS
  1
TABLESTYLE
  2
AcDbTableStyle
  3
ObjectDBX Classes
 90
     4095
 91
        5
280
     0
281
     0
  0
CLASS
  1
ACAD_TABLE
  2
AcDbTable
  3
ObjectDBX Classes
 90
     1025
 91
        5
280
     0
281
     1
  0
CLASS
  1
SCALE
  2
AcDbScale
  3
ObjectDBX Classes
 90
     1153
 91
        5
280
     0
281
     0
  0
CLASS
  1
TABLEGEOMETRY
  2
AcDbTableGeometry
  3
ObjectDBX Classes
 90
     1152
 91
        4
280
     0
281
     0
  0
CLASS
  1
VISUALSTYLE
  2
AcDbVisualStyle
  3
ObjectDBX Classes
 90
     4095
 91
        5
280
     0
281
     0
  0
CLASS
  1
MATERIAL
  2
AcDbMaterial
  3
ObjectDBX Classes
 90
     1153
 91
        5
280
     0
281
     0
  0
CLASS
  1
SUN
  2
AcDbSun
  3
SCENEOE
 90
     1153
 91
        5
280
     0
281
     0
  0
CLASS
  1
TABLECONTENT
  2
AcDbTableContent
  3
ObjectDBX Classes
 90
     1152
 91
        4
280
     0
281
     0
  0
CLASS
  1
DICTIONARYVAR
  2
AcDbDictionaryVar
  3
ObjectDBX Classes
 90
        0
 91
        4
280
     0
281
     0
  0
CLASS
  1
CELLSTYLEMAP
  2
AcDbCellStyleMap
  3
ObjectDBX Classes
 90
     1152
 91
        4
280
     0
281
     0
  0
ENDSEC
  0
SECTION
  2
TABLES
  0
TABLE
  2
VPORT
  5
8
330
0
100
AcDbSymbolTable
 70
     1
  0
VPORT
  5
1F4
330
8
100
AcDbSymbolTableRecord
100
AcDbViewportTableRecord
  2
*ACTIVE
 70
     0
 10
0.0
 20
0.0
 11
1.0
 21
1.0
 12
148.5
 22
105.0
 13
0.0
 23
0.0
 14
1.0
 24
1.0
 15
0.0
 25
0.0
 16
0.0
 26
0.0
 36
1.0
 17
0.0
 27
0.0
 37
0.0
 40
210.0
 41
2.035649
 42
50.0
 43
0.0
 44
0.0
 50
0.0
 51
0.0
 71
    16
 72
   100
 73
     1
 74
     1
 75
     0
 76
     0
 77
     0
 78
     0
281
     0
 65
     1
110
0.0
120
0.0
130
0.0
111
1.0
121
0.0
131
0.0
112
0.0
122
1.0
132
0.0
 79
     0
146
0.0
 60
     3
 61
     5
292
     1
282
     1
141
0.0
142
0.0
 63
   256
361
4B2
  0
ENDTAB
  0
TABLE
  2
LTYPE
  5
5
330
0
100
AcDbSymbolTable
 70
     6
  0
LTYPE
  5
14
330
5
100
AcDbSymbolTableRecord
100
AcDbLinetypeTableRecord
  2
BYBLOCK
 70
     0
  3

 72
    65
 73
     0
 40
0.0
  0
LTYPE
  5
15
330
5
100
AcDbSymbolTableRecord
100
AcDbLinetypeTableRecord
  2
BYLAYER
 70
     0
  3

 72
    65
 73
     0
 40
0.0
  0
LTYPE
  5
16
330
5
100
AcDbSymbolTableRecord
100
AcDbLinetypeTableRecord
  2
CONTINUOUS
 70
     0
  3
Solid line
 72
    65
 73
     0
 40
0.0
  0
LTYPE
  5
1F5
330
5
100
AcDbSymbolTableRecord
100
AcDbLinetypeTableRecord
  2
CENTER
 70
     0
  3
____ _ ____ _ ____ _ ____ _ ____ _ ____ _ ____
 72
    65
 73
     4
 40
0.6
 49
0.375
 74
     0
 49
-0.075
 74
     0
 49
0.075
 74
     0
 49
-0.075
 74
     0
  0
LTYPE
  5
1F6
330
5
100
AcDbSymbolTableRecord
100
AcDbLinetypeTableRecord
  2
HIDDEN
 70
     0
  3
- - - - - - - - - - - - - - - - - - - -
 72
    65
 73
     2
 40
0.2
 49
0.1
 74
     0
 49
-0.1
 74
     0
  0
LTYPE
  5
1F7
330
5
100
AcDbSymbolTableRecord
100
AcDbLinetypeTableRecord
  2
PHANTOM
 70
     0
  3
_____ _ _ _____ _ _ _____ _ _ _____
 72
    65
 73
     6
 40
0.8
 49
0.45
 74
     0
 49
-0.05
 74
     0
 49
0.1
 74
     0
 49
-0.05
 74
     0
 49
0.1
 74
     0
 49
-0.05
 74
     0
  0
LTYPE
  5
1F8
330
5
100
AcDbSymbolTableRecord
100
AcDbLinetypeTableRecord
  2
DOT
 70
     0
  3
. . . . . . . . . . . . . . . . . . . .
 72
    65
 73
     2
 40
0.2
 49
0.1
 74
     0
 49
-0.1
 74
     0
  0
LTYPE
  5
1F9
330
5
100
AcDbSymbolTableRecord
100
AcDbLinetypeTableRecord
  2
DASHED
 70
     0
  3
- - - - - - - - - - - - - - - - - - - -
 72
    65
 73
     2
 40
0.2
 49
0.1
 74
     0
 49
-0.1
 74
     0
  0
ENDTAB
  0
TABLE
  2
LAYER
  5
2
330
0
100
AcDbSymbolTable
 70
    16
  0
LAYER
  5
10
330
2
100
AcDbSymbolTableRecord
100
AcDbLayerTableRecord
  2
0
 70
     0
 62
     7
  6
CONTINUOUS
370
    -3
390
F
347
4AC
348
0
  0
LAYER
  5
1FA
330
2
100
AcDbSymbolTableRecord
100
AcDbLayerTableRecord
  2
DEFAULT_1
 70
     0
 62
     7
  6
CENTER
370
    -3
390
F
347
4AC
348
0
  0
LAYER
  5
1FB
330
2
100
AcDbSymbolTableRecord
100
AcDbLayerTableRecord
  2
DEFAULT_2
 70
     0
 62
     8
  6
HIDDEN
370
    -3
390
F
347
4AC
348
0
  0
LAYER
  5
1FC
330
2
100
AcDbSymbolTableRecord
100
AcDbLayerTableRecord
  2
DEFAULT_3
 70
     0
 62
     7
  6
PHANTOM
370
    -3
390
F
347
4AC
348
0
  0
LAYER
  5
1FD
330
2
100
AcDbSymbolTableRecord
100
AcDbLayerTableRecord
  2
1_ALL_PLANES
 70
     0
 62
     7
  6
CONTINUOUS
370
    -3
390
F
347
4AC
348
0
  0
LAYER
  5
1FE
330
2
100
AcDbSymbolTableRecord
100
AcDbLayerTableRecord
  2
2_ALL_CSYS
 70
     0
 62
     7
  6
CONTINUOUS
370
    -3
390
F
347
4AC
348
0
  0
LAYER
  5
1FF
330
2
100
AcDbSymbolTableRecord
100
AcDbLayerTableRecord
  2
3_ALL_AXES
 70
     0
 62
     7
  6
CONTINUOUS
370
    -3
390
F
347
4AC
348
0
  0
LAYER
  5
200
330
2
100
AcDbSymbolTableRecord
100
AcDbLayerTableRecord
  2
4_ALL_POINTS
 70
     0
 62
     7
  6
CONTINUOUS
370
    -3
390
F
347
4AC
348
0
  0
LAYER
  5
201
330
2
100
AcDbSymbolTableRecord
100
AcDbLayerTableRecord
  2
5_ALL_CURVES
 70
     0
 62
     7
  6
CONTINUOUS
370
    -3
390
F
347
4AC
348
0
  0
LAYER
  5
202
330
2
100
AcDbSymbolTableRecord
100
AcDbLayerTableRecord
  2
6_ALL_SURFS
 70
     0
 62
     7
  6
CONTINUOUS
370
    -3
390
F
347
4AC
348
0
  0
LAYER
  5
203
330
2
100
AcDbSymbolTableRecord
100
AcDbLayerTableRecord
  2
7_ALL_FEATURES
 70
     0
 62
     7
  6
CONTINUOUS
370
    -3
390
F
347
4AC
348
0
  0
LAYER
  5
204
330
2
100
AcDbSymbolTableRecord
100
AcDbLayerTableRecord
  2
9_SOLID
 70
     0
 62
     7
  6
CONTINUOUS
370
    -3
390
F
347
4AC
348
0
  0
LAYER
  5
205
330
2
100
AcDbSymbolTableRecord
100
AcDbLayerTableRecord
  2
DEFAULT
 70
     0
 62
     7
  6
CONTINUOUS
370
    -3
390
F
347
4AC
348
0
  0
LAYER
  5
206
330
2
100
AcDbSymbolTableRecord
100
AcDbLayerTableRecord
  2
DEFAULT_15
 70
     0
 62
     7
  6
CONTINUOUS
370
    -3
390
F
347
4AC
348
0
  0
LAYER
  5
207
330
2
100
AcDbSymbolTableRecord
100
AcDbLayerTableRecord
  2
DEFAULT_16
 70
     0
 62
     7
  6
CONTINUOUS
370
    -3
390
F
347
4AC
348
0
  0
LAYER
  5
208
330
2
100
AcDbSymbolTableRecord
100
AcDbLayerTableRecord
  2
WHITE
 70
     0
 62
     7
  6
CONTINUOUS
370
    -3
390
F
347
4AC
348
0
  0
ENDTAB
  0
TABLE
  2
STYLE
  5
3
330
0
100
AcDbSymbolTable
 70
     2
  0
STYLE
  5
11
330
3
100
AcDbSymbolTableRecord
100
AcDbTextStyleTableRecord
  2
STANDARD
 70
     0
 40
0.0
 41
1.0
 50
0.0
 71
     0
 42
0.2
  3
arial.ttf
  4

  0
STYLE
  5
209
330
3
100
AcDbSymbolTableRecord
100
AcDbTextStyleTableRecord
  2
TEXTSTYLE_1
 70
     0
 40
0.0
 41
0.8
 50
0.0
 71
     0
 42
0.2
  3
gdt
  4

  0
ENDTAB
  0
TABLE
  2
VIEW
  5
6
330
0
100
AcDbSymbolTable
 70
     0
  0
ENDTAB
  0
TABLE
  2
UCS
  5
7
330
0
100
AcDbSymbolTable
 70
     0
  0
ENDTAB
  0
TABLE
  2
APPID
  5
9
330
0
100
AcDbSymbolTable
 70
     6
  0
APPID
  5
20A
330
9
100
AcDbSymbolTableRecord
100
AcDbRegAppTableRecord
  2
ACAD
 70
     0
  0
APPID
  5
4AD
330
9
100
AcDbSymbolTableRecord
100
AcDbRegAppTableRecord
  2
MCS_DIM1
 70
     0
  0
APPID
  5
4AE
330
9
100
AcDbSymbolTableRecord
100
AcDbRegAppTableRecord
  2
McsXdata5
 70
     0
  0
APPID
  5
4B1
330
9
100
AcDbSymbolTableRecord
100
AcDbRegAppTableRecord
  2
MCS_DOCUMENT_ID
 70
     0
  0
APPID
  5
4B5
330
9
100
AcDbSymbolTableRecord
100
AcDbRegAppTableRecord
  2
MCS_PARAMS_DATA
 70
     0
  0
APPID
  5
4B7
330
9
100
AcDbSymbolTableRecord
100
AcDbRegAppTableRecord
  2
MC_VERSION_DATA
 70
     0
  0
ENDTAB
  0
TABLE
  2
DIMSTYLE
  5
A
330
0
100
AcDbSymbolTable
 70
     2
100
AcDbDimStyleTable
  0
DIMSTYLE
105
213
330
A
100
AcDbSymbolTableRecord
100
AcDbDimStyleTableRecord
  2
STANDARD
 70
     0
 41
2.5
 42
0.75
 44
0.75
 47
0.01
 48
0.01
 71
     1
 73
     0
 74
     0
 77
     1
 78
     8
 79
     2
140
3.0
147
0.625
171
     1
178
     0
179
     2
271
     2
272
     2
278
    44
284
     8
340
11
341
20D
342
20D
343
20D
344
20D
  0
DIMSTYLE
105
214
330
A
100
AcDbSymbolTableRecord
100
AcDbDimStyleTableRecord
  2
DIMSTYLE_1
 70
     0
 41
2.5
 42
0.75
 44
0.75
 47
0.3
 48
0.3
 73
     0
 74
     0
 77
     1
 78
     8
 79
     2
140
3.0
147
0.75
171
     1
178
     0
179
     2
271
     2
272
     2
278
    44
284
     8
340
11
341
20D
342
20D
343
20D
344
20D
  0
ENDTAB
  0
TABLE
  2
BLOCK_RECORD
  5
1
330
0
100
AcDbSymbolTable
 70
     6
  0
BLOCK_RECORD
  5
20B
330
1
100
AcDbSymbolTableRecord
100
AcDbBlockTableRecord
  2
*Model_Space
340
467
 70
     0
280
     1
281
     0
  0
BLOCK_RECORD
  5
20C
330
1
100
AcDbSymbolTableRecord
100
AcDbBlockTableRecord
  2
*Paper_Space
340
468
 70
     0
280
     1
281
     0
  0
BLOCK_RECORD
  5
20D
330
1
100
AcDbSymbolTableRecord
100
AcDbBlockTableRecord
  2
_CLOSED
340
0
102
{BLKREFS
331
25D
331
25E
331
266
331
267
331
26F
331
270
102
}
 70
     0
280
     1
281
     0
  0
BLOCK_RECORD
  5
20E
330
1
100
AcDbSymbolTableRecord
100
AcDbBlockTableRecord
  2
*D1
340
0
 70
     0
280
     1
281
     0
  0
BLOCK_RECORD
  5
20F
330
1
100
AcDbSymbolTableRecord
100
AcDbBlockTableRecord
  2
*D2
340
0
 70
     0
280
     1
281
     0
  0
BLOCK_RECORD
  5
210
330
1
100
AcDbSymbolTableRecord
100
AcDbBlockTableRecord
  2
*D3
340
0
 70
     0
280
     1
281
     0
  0
BLOCK_RECORD
  5
211
330
1
100
AcDbSymbolTableRecord
100
AcDbBlockTableRecord
  2
LOGO2_BL0
340
0
102
{BLKREFS
331
464
102
}
 70
     0
280
     1
281
     0
  0
BLOCK_RECORD
  5
212
330
1
100
AcDbSymbolTableRecord
100
AcDbBlockTableRecord
  2
*T5
340
0
102
{BLKREFS
331
465
102
}
 70
     0
280
     1
281
     0
  0
ENDTAB
  0
ENDSEC
  0
SECTION
  2
BLOCKS
  0
BLOCK
  5
20
330
20B
100
AcDbEntity
  8
0
100
AcDbBlockBegin
  2
*Model_Space
 70
     0
 10
0.0
 20
0.0
 30
0.0
  3
*Model_Space
  1
*Model_Space
  0
ENDBLK
  5
21
330
20B
100
AcDbEntity
  8
0
100
AcDbBlockEnd
  0
BLOCK
  5
1C
330
20C
100
AcDbEntity
 67
     1
  8
0
100
AcDbBlockBegin
  2
*Paper_Space
 70
     0
 10
0.0
 20
0.0
 30
0.0
  3
*Paper_Space
  1
*Paper_Space
  0
ENDBLK
  5
1D
330
20C
100
AcDbEntity
 67
     1
  8
0
100
AcDbBlockEnd
  0
BLOCK
  5
251
330
20D
100
AcDbEntity
  8
0
100
AcDbBlockBegin
  2
_CLOSED
 70
     0
 10
0.0
 20
0.0
 30
0.0
  3
_CLOSED
  1
_CLOSED
  0
LINE
  5
252
330
20D
100
AcDbEntity
  8
0
  6
ByBlock
 62
     0
100
AcDbLine
 10
0.0
 20
0.0
 30
0.0
 11
-1.0
 21
0.2
 31
0.0
  0
LINE
  5
253
330
20D
100
AcDbEntity
  8
0
  6
ByBlock
 62
     0
100
AcDbLine
 10
-1.0
 20
0.2
 30
0.0
 11
-1.0
 21
-0.2
 31
0.0
  0
LINE
  5
254
330
20D
100
AcDbEntity
  8
0
  6
ByBlock
 62
     0
100
AcDbLine
 10
-1.0
 20
-0.2
 30
0.0
 11
0.0
 21
0.0
 31
0.0
  0
LINE
  5
255
330
20D
100
AcDbEntity
  8
0
  6
ByBlock
 62
     0
100
AcDbLine
 10
-1.0
 20
0.0
 30
0.0
 11
0.0
 21
0.0
 31
0.0
  0
ENDBLK
  5
256
330
20D
100
AcDbEntity
  8
0
  6
ByBlock
 62
     0
100
AcDbBlockEnd
  0
BLOCK
  5
257
330
20E
100
AcDbEntity
  8
0
100
AcDbBlockBegin
  2
*D1
 70
     1
 10
0.0
 20
0.0
 30
0.0
  3
*D1
  1
*D1
  0
MTEXT
  5
258
330
20E
100
AcDbEntity
  8
0
  6
Continuous
 62
     2
100
AcDbMText
 10
117.374932
 20
152.90187
 30
0.0
 40
3.0
 41
4.66171
 46
0.0
 71
     2
 72
     1
  1
33
 11
0.0
 21
1.0
 31
0.0
 73
     1
 44
0.9
  0
LINE
  5
259
330
20E
100
AcDbEntity
  8
0
  6
Continuous
 62
     2
100
AcDbLine
 10
112.610547
 20
169.40187
 30
0.0
 11
121.874932
 21
169.40187
 31
0.0
  0
LINE
  5
25A
330
20E
100
AcDbEntity
  8
0
  6
Continuous
 62
     2
100
AcDbLine
 10
111.283583
 20
136.40187
 30
0.0
 11
121.874932
 21
136.40187
 31
0.0
  0
LINE
  5
25B
330
20E
100
AcDbEntity
  8
0
  6
Continuous
 62
     2
100
AcDbLine
 10
121.124932
 20
169.40187
 30
0.0
 11
121.124932
 21
152.90187
 31
0.0
  0
LINE
  5
25C
330
20E
100
AcDbEntity
  8
0
  6
Continuous
 62
     2
100
AcDbLine
 10
121.124932
 20
136.40187
 30
0.0
 11
121.124932
 21
152.90187
 31
0.0
  0
INSERT
  5
25D
330
20E
100
AcDbEntity
  8
0
  6
Continuous
 62
     2
100
AcDbBlockReference
  2
_CLOSED
 10
121.124932
 20
169.40187
 30
0.0
 41
2.5
 42
2.5
 43
2.5
 50
90.0
  0
INSERT
  5
25E
330
20E
100
AcDbEntity
  8
0
  6
Continuous
 62
     2
100
AcDbBlockReference
  2
_CLOSED
 10
121.124932
 20
136.40187
 30
0.0
 41
2.5
 42
2.5
 43
2.5
 50
270.0
  0
ENDBLK
  5
25F
330
20E
100
AcDbEntity
  8
0
  6
ByBlock
 62
     0
100
AcDbBlockEnd
  0
BLOCK
  5
260
330
20F
100
AcDbEntity
  8
0
100
AcDbBlockBegin
  2
*D2
 70
     1
 10
0.0
 20
0.0
 30
0.0
  3
*D2
  1
*D2
  0
MTEXT
  5
261
330
20F
100
AcDbEntity
  8
0
  6
Continuous
 62
     2
100
AcDbMText
 10
80.371943
 20
110.27378
 30
0.0
 40
3.0
 41
4.66171
 46
0.0
 71
     2
 72
     1
  1
45
 73
     1
 44
0.9
  0
LINE
  5
262
330
20F
100
AcDbEntity
  8
0
  6
Continuous
 62
     2
100
AcDbLine
 10
102.871943
 20
98.479304
 30
0.0
 11
102.871943
 21
107.27378
 31
0.0
  0
LINE
  5
263
330
20F
100
AcDbEntity
  8
0
  6
Continuous
 62
     2
100
AcDbLine
 10
57.871943
 20
98.59424
 30
0.0
 11
57.871943
 21
107.27378
 31
0.0
  0
LINE
  5
264
330
20F
100
AcDbEntity
  8
0
  6
Continuous
 62
     2
100
AcDbLine
 10
102.871943
 20
106.52378
 30
0.0
 11
80.371943
 21
106.52378
 31
0.0
  0
LINE
  5
265
330
20F
100
AcDbEntity
  8
0
  6
Continuous
 62
     2
100
AcDbLine
 10
57.871943
 20
106.52378
 30
0.0
 11
80.371943
 21
106.52378
 31
0.0
  0
INSERT
  5
266
330
20F
100
AcDbEntity
  8
0
  6
Continuous
 62
     2
100
AcDbBlockReference
  2
_CLOSED
 10
102.871943
 20
106.52378
 30
0.0
 41
2.5
 42
2.5
 43
2.5
  0
INSERT
  5
267
330
20F
100
AcDbEntity
  8
0
  6
Continuous
 62
     2
100
AcDbBlockReference
  2
_CLOSED
 10
57.871943
 20
106.52378
 30
0.0
 41
2.5
 42
2.5
 43
2.5
 50
180.0
  0
ENDBLK
  5
268
330
20F
100
AcDbEntity
  8
0
  6
ByBlock
 62
     0
100
AcDbBlockEnd
  0
BLOCK
  5
269
330
210
100
AcDbEntity
  8
0
100
AcDbBlockBegin
  2
*D3
 70
     1
 10
0.0
 20
0.0
 30
0.0
  3
*D3
  1
*D3
  0
MTEXT
  5
26A
330
210
100
AcDbEntity
  8
0
  6
Continuous
 62
     2
100
AcDbMText
 10
120.061888
 20
66.609981
 30
0.0
 40
3.0
 41
4.66171
 46
0.0
 71
     2
 72
     1
  1
45
 11
0.0
 21
1.0
 31
0.0
 73
     1
 44
0.9
  0
LINE
  5
26B
330
210
100
AcDbEntity
  8
0
  6
Continuous
 62
     2
100
AcDbLine
 10
113.003344
 20
44.109981
 30
0.0
 11
124.561888
 21
44.109981
 31
0.0
  0
LINE
  5
26C
330
210
100
AcDbEntity
  8
0
  6
Continuous
 62
     2
100
AcDbLine
 10
113.452035
 20
89.109981
 30
0.0
 11
124.561888
 21
89.109981
 31
0.0
  0
LINE
  5
26D
330
210
100
AcDbEntity
  8
0
  6
Continuous
 62
     2
100
AcDbLine
 10
123.811888
 20
44.109981
 30
0.0
 11
123.811888
 21
66.609981
 31
0.0
  0
LINE
  5
26E
330
210
100
AcDbEntity
  8
0
  6
Continuous
 62
     2
100
AcDbLine
 10
123.811888
 20
89.109981
 30
0.0
 11
123.811888
 21
66.609981
 31
0.0
  0
INSERT
  5
26F
330
210
100
AcDbEntity
  8
0
  6
Continuous
 62
     2
100
AcDbBlockReference
  2
_CLOSED
 10
123.811888
 20
44.109981
 30
0.0
 41
2.5
 42
2.5
 43
2.5
 50
270.0
  0
INSERT
  5
270
330
210
100
AcDbEntity
  8
0
  6
Continuous
 62
     2
100
AcDbBlockReference
  2
_CLOSED
 10
123.811888
 20
89.109981
 30
0.0
 41
2.5
 42
2.5
 43
2.5
 50
90.0
  0
ENDBLK
  5
271
330
210
100
AcDbEntity
  8
0
  6
ByBlock
 62
     0
100
AcDbBlockEnd
  0
BLOCK
  5
215
330
211
100
AcDbEntity
  8
0
100
AcDbBlockBegin
  2
LOGO2_BL0
 70
     0
 10
207.405806
 20
40.097681
 30
0.0
  3
LOGO2_BL0
  1
LOGO2_BL0
  0
LINE
  5
216
330
211
100
AcDbEntity
  8
0
  6
Continuous
 62
     7
100
AcDbLine
 10
199.148732
 20
43.293172
 30
0.0
 11
197.844391
 21
43.293172
 31
0.0
  0
LINE
  5
217
330
211
100
AcDbEntity
  8
0
  6
Continuous
 62
     7
100
AcDbLine
 10
197.844391
 20
43.293172
 30
0.0
 11
197.844391
 21
32.834106
 31
0.0
  0
LINE
  5
218
330
211
100
AcDbEntity
  8
0
  6
Continuous
 62
     7
100
AcDbLine
 10
197.844391
 20
32.834106
 30
0.0
 11
202.325446
 21
32.834106
 31
0.0
  0
LINE
  5
219
330
211
100
AcDbEntity
  8
0
  6
Continuous
 62
     7
100
AcDbLine
 10
202.325446
 20
32.834106
 30
0.0
 11
202.325446
 21
34.026961
 31
0.0
  0
LINE
  5
21A
330
211
100
AcDbEntity
  8
0
  6
Continuous
 62
     7
100
AcDbLine
 10
202.325446
 20
34.026961
 30
0.0
 11
199.148732
 21
34.026961
 31
0.0
  0
LINE
  5
21B
330
211
100
AcDbEntity
  8
0
  6
Continuous
 62
     7
100
AcDbLine
 10
199.148732
 20
34.026961
 30
0.0
 11
199.148732
 21
43.293172
 31
0.0
  0
LINE
  5
21C
330
211
100
AcDbEntity
  8
0
  6
Continuous
 62
     7
100
AcDbLine
 10
214.085058
 20
43.293172
 30
0.0
 11
212.78124
 21
43.293172
 31
0.0
  0
LINE
  5
21D
330
211
100
AcDbEntity
  8
0
  6
Continuous
 62
     7
100
AcDbLine
 10
212.78124
 20
43.293172
 30
0.0
 11
212.78124
 21
32.834106
 31
0.0
  0
LINE
  5
21E
330
211
100
AcDbEntity
  8
0
  6
Continuous
 62
     7
100
AcDbLine
 10
212.78124
 20
32.834106
 30
0.0
 11
217.262426
 21
32.834106
 31
0.0
  0
LINE
  5
21F
330
211
100
AcDbEntity
  8
0
  6
Continuous
 62
     7
100
AcDbLine
 10
217.262426
 20
32.834106
 30
0.0
 11
217.262426
 21
34.026961
 31
0.0
  0
LINE
  5
220
330
211
100
AcDbEntity
  8
0
  6
Continuous
 62
     7
100
AcDbLine
 10
217.262426
 20
34.026961
 30
0.0
 11
214.085058
 21
34.026961
 31
0.0
  0
LINE
  5
221
330
211
100
AcDbEntity
  8
0
  6
Continuous
 62
     7
100
AcDbLine
 10
214.085058
 20
34.026961
 30
0.0
 11
214.085058
 21
43.293172
 31
0.0
  0
LWPOLYLINE
  5
222
330
211
100
AcDbEntity
  8
0
  6
Continuous
 62
     7
100
AcDbPolyline
 90
        2
 70
     0
 43
0.2
 10
196.198786
 20
29.490555
 10
196.198786
 20
27.633492
  0
LWPOLYLINE
  5
223
330
211
100
AcDbEntity
  8
0
  6
Continuous
 62
     7
100
AcDbPolyline
 90
        2
 70
     0
 43
0.2
 10
196.198786
 20
27.633492
 10
196.994502
 20
27.633492
  0
LWPOLYLINE
  5
224
330
211
100
AcDbEntity
  8
0
  6
Continuous
 62
     7
100
AcDbPolyline
 90
        2
 70
     0
 43
0.2
 10
196.994502
 20
27.633492
 10
196.994502
 20
27.845473
  0
LWPOLYLINE
  5
225
330
211
100
AcDbEntity
  8
0
  6
Continuous
 62
     7
100
AcDbPolyline
 90
        2
 70
     0
 43
0.2
 10
196.994502
 20
27.845473
 10
196.430395
 20
27.845473
  0
LWPOLYLINE
  5
226
330
211
100
AcDbEntity
  8
0
  6
Continuous
 62
     7
100
AcDbPolyline
 90
        2
 70
     0
 43
0.2
 10
196.430395
 20
27.845473
 10
196.430395
 20
29.490555
  0
LWPOLYLINE
  5
227
330
211
100
AcDbEntity
  8
0
  6
Continuous
 62
     7
100
AcDbPolyline
 90
        2
 70
     0
 43
0.2
 10
196.430395
 20
29.490555
 10
196.198786
 20
29.490555
  0
SPLINE
  5
228
330
211
100
AcDbEntity
  8
0
  6
Continuous
 62
     7
100
AcDbSpline
 70
     3
 71
     3
 72
    35
 73
    31
 74
     0
 42
0.000000001
 43
0.0000001
 40
0.0
 40
0.0
 40
0.0
 40
0.0
 40
1.0
 40
1.0
 40
1.0
 40
2.0
 40
2.0
 40
2.0
 40
3.0
 40
3.0
 40
3.0
 40
4.0
 40
4.0
 40
4.0
 40
5.0
 40
5.0
 40
5.0
 40
6.0
 40
6.0
 40
6.0
 40
7.0
 40
7.0
 40
7.0
 40
8.0
 40
8.0
 40
8.0
 40
9.0
 40
9.0
 40
9.0
 40
10.0
 40
10.0
 40
10.0
 40
10.0
 10
198.3927948758
 20
28.7860432849
 30
0.0
 10
198.3927948758
 20
28.7860432849
 30
0.0
 10
198.3927948758
 20
28.1239280057
 30
0.0
 10
198.3927948758
 20
28.1239280057
 30
0.0
 10
198.3927948758
 20
27.8088344104
 30
0.0
 10
198.5406585646
 20
27.5942357824
 30
0.0
 10
198.8807450489
 20
27.5942357824
 30
0.0
 10
199.2203081219
 20
27.5942357824
 30
0.0
 10
199.3684335163
 20
27.8088344104
 30
0.0
 10
199.3684335163
 20
28.1239280057
 30
0.0
 10
199.3684335163
 20
28.1239280057
 30
0.0
 10
199.3684335163
 20
28.7860432849
 30
0.0
 10
199.3684335163
 20
28.7860432849
 30
0.0
 10
199.3684335163
 20
28.7860432849
 30
0.0
 10
199.1463762775
 20
28.7860432849
 30
0.0
 10
199.1463762775
 20
28.7860432849
 30
0.0
 10
199.1463762775
 20
28.7860432849
 30
0.0
 10
199.1463762775
 20
28.1490517475
 30
0.0
 10
199.1463762775
 20
28.1490517475
 30
0.0
 10
199.1463762775
 20
27.9632407403
 30
0.0
 10
199.09966182
 20
27.8004598298
 30
0.0
 10
198.8807450489
 20
27.8004598298
 30
0.0
 10
198.6613048664
 20
27.8004598298
 30
0.0
 10
198.614590409
 20
27.9632407403
 30
0.0
 10
198.614590409
 20
28.1490517475
 30
0.0
 10
198.614590409
 20
28.1490517475
 30
0.0
 10
198.614590409
 20
28.7860432849
 30
0.0
 10
198.614590409
 20
28.7860432849
 30
0.0
 10
198.614590409
 20
28.7860432849
 30
0.0
 10
198.3927948758
 20
28.7860432849
 30
0.0
 10
198.3927948758
 20
28.7860432849
 30
0.0
  0
SPLINE
  5
229
330
211
100
AcDbEntity
  8
0
  6
Continuous
 62
     7
100
AcDbSpline
 70
     3
 71
     3
 72
    35
 73
    31
 74
     0
 42
0.000000001
 43
0.0000001
 40
0.0
 40
0.0
 40
0.0
 40
0.0
 40
1.0
 40
1.0
 40
1.0
 40
2.0
 40
2.0
 40
2.0
 40
3.0
 40
3.0
 40
3.0
 40
4.0
 40
4.0
 40
4.0
 40
5.0
 40
5.0
 40
5.0
 40
6.0
 40
6.0
 40
6.0
 40
7.0
 40
7.0
 40
7.0
 40
8.0
 40
8.0
 40
8.0
 40
9.0
 40
9.0
 40
9.0
 40
10.0
 40
10.0
 40
10.0
 40
10.0
 10
201.7915660735
 20
28.7446937931
 30
0.0
 10
201.7031095659
 20
28.7959880993
 30
0.0
 10
201.5896601692
 20
28.8211118411
 30
0.0
 10
201.4860247342
 20
28.8211118411
 30
0.0
 10
201.1311518811
 20
28.8211118411
 30
0.0
 10
200.8557066908
 20
28.5573125521
 30
0.0
 10
200.8557066908
 20
28.1998226424
 30
0.0
 10
200.8557066908
 20
27.8548946037
 30
0.0
 10
201.134161496
 20
27.5947591937
 30
0.0
 10
201.473724569
 20
27.5947591937
 30
0.0
 10
201.5896601692
 20
27.5947591937
 30
0.0
 10
201.6904168422
 20
27.6167424678
 30
0.0
 10
201.7915660735
 20
27.6706538304
 30
0.0
 10
201.7915660735
 20
27.6706538304
 30
0.0
 10
201.7915660735
 20
27.9532959259
 30
0.0
 10
201.7915660735
 20
27.9532959259
 30
0.0
 10
201.7076894147
 20
27.8601287166
 30
0.0
 10
201.6041848325
 20
27.8009832411
 30
0.0
 10
201.4760799198
 20
27.8009832411
 30
0.0
 10
201.2423767797
 20
27.8009832411
 30
0.0
 10
201.0771096656
 20
27.9731855548
 30
0.0
 10
201.0771096656
 20
28.2097674569
 30
0.0
 10
201.0771096656
 20
28.4217490285
 30
0.0
 10
201.2448629834
 20
28.6138409711
 30
0.0
 10
201.4616861094
 20
28.6138409711
 30
0.0
 10
201.5945017237
 20
28.6138409711
 30
0.0
 10
201.7031095659
 20
28.5599296085
 30
0.0
 10
201.7915660735
 20
28.4589112299
 30
0.0
 10
201.7915660735
 20
28.4589112299
 30
0.0
 10
201.7915660735
 20
28.7446937931
 30
0.0
 10
201.7915660735
 20
28.7446937931
 30
0.0
  0
SPLINE
  5
22A
330
211
100
AcDbEntity
  8
0
  6
Continuous
 62
     7
100
AcDbSpline
 70
     3
 71
     3
 72
    32
 73
    28
 74
     0
 42
0.000000001
 43
0.0000001
 40
0.0
 40
0.0
 40
0.0
 40
0.0
 40
1.0
 40
1.0
 40
1.0
 40
2.0
 40
2.0
 40
2.0
 40
3.0
 40
3.0
 40
3.0
 40
4.0
 40
4.0
 40
4.0
 40
5.0
 40
5.0
 40
5.0
 40
6.0
 40
6.0
 40
6.0
 40
7.0
 40
7.0
 40
7.0
 40
8.0
 40
8.0
 40
8.0
 40
9.0
 40
9.0
 40
9.0
 40
9.0
 10
204.3234373258
 20
28.1731286668
 30
0.0
 10
204.3234373258
 20
28.1731286668
 30
0.0
 10
204.3234373258
 20
28.2071504005
 30
0.0
 10
204.3234373258
 20
28.2071504005
 30
0.0
 10
204.3234373258
 20
28.5494613827
 30
0.0
 10
204.150580748
 20
28.8211118411
 30
0.0
 10
203.7839311408
 20
28.8211118411
 30
0.0
 10
203.4123091264
 20
28.8211118411
 30
0.0
 10
203.2225725346
 20
28.5546954956
 30
0.0
 10
203.2225725346
 20
28.1998226424
 30
0.0
 10
203.2225725346
 20
27.8601287166
 30
0.0
 10
203.4366477513
 20
27.5942357824
 30
0.0
 10
203.7887726952
 20
27.5942357824
 30
0.0
 10
204.0127927264
 20
27.5942357824
 30
0.0
 10
204.2149603364
 20
27.709909677
 30
0.0
 10
204.3234373258
 20
27.9093293777
 30
0.0
 10
204.3234373258
 20
27.9093293777
 30
0.0
 10
204.1357943791
 20
28.0161052804
 30
0.0
 10
204.1357943791
 20
28.0161052804
 30
0.0
 10
204.0523102787
 20
27.8774012891
 30
0.0
 10
203.9611058618
 20
27.7915618379
 30
0.0
 10
203.7915206045
 20
27.7915618379
 30
0.0
 10
203.5795390329
 20
27.7915618379
 30
0.0
 10
203.4465925658
 20
27.9763260225
 30
0.0
 10
203.444237215
 20
28.1731286668
 30
0.0
 10
203.444237215
 20
28.1731286668
 30
0.0
 10
204.3234373258
 20
28.1731286668
 30
0.0
 10
204.3234373258
 20
28.1731286668
 30
0.0
  0
SPLINE
  5
22B
330
211
100
AcDbEntity
  8
0
  6
Continuous
 62
     7
100
AcDbSpline
 70
     3
 71
     3
 72
    14
 73
    10
 74
     0
 42
0.000000001
 43
0.0000001
 40
0.0
 40
0.0
 40
0.0
 40
0.0
 40
1.0
 40
1.0
 40
1.0
 40
2.0
 40
2.0
 40
2.0
 40
3.0
 40
3.0
 40
3.0
 40
3.0
 10
203.4562756746
 20
28.3406202789
 30
0.0
 10
203.48388562
 20
28.5054948346
 30
0.0
 10
203.6117288271
 20
28.6284964872
 30
0.0
 10
203.7839311408
 20
28.6284964872
 30
0.0
 10
203.9611058618
 20
28.6284964872
 30
0.0
 10
204.0745552584
 20
28.5128225926
 30
0.0
 10
204.1017726454
 20
28.3406202789
 30
0.0
 10
204.1017726454
 20
28.3406202789
 30
0.0
 10
203.4562756746
 20
28.3406202789
 30
0.0
 10
203.4562756746
 20
28.3406202789
 30
0.0
  0
SPLINE
  5
22C
330
211
100
AcDbEntity
  8
0
  6
Continuous
 62
     7
100
AcDbSpline
 70
     3
 71
     3
 72
    20
 73
    16
 74
     0
 42
0.000000001
 43
0.0000001
 40
0.0
 40
0.0
 40
0.0
 40
0.0
 40
1.0
 40
1.0
 40
1.0
 40
2.0
 40
2.0
 40
2.0
 40
3.0
 40
3.0
 40
3.0
 40
4.0
 40
4.0
 40
4.0
 40
5.0
 40
5.0
 40
5.0
 40
5.0
 10
206.347468776
 20
28.549984794
 30
0.0
 10
206.347468776
 20
28.549984794
 30
0.0
 10
206.7586083426
 20
28.0475099577
 30
0.0
 10
206.7586083426
 20
28.0475099577
 30
0.0
 10
206.6425418895
 20
27.9318360631
 30
0.0
 10
206.504753868
 20
27.8015066524
 30
0.0
 10
206.3328132599
 20
27.8015066524
 30
0.0
 10
206.1553768333
 20
27.8015066524
 30
0.0
 10
205.9878852212
 20
27.9658577968
 30
0.0
 10
205.9878852212
 20
28.1427708121
 30
0.0
 10
205.9878852212
 20
28.3207306499
 30
0.0
 10
206.1976422948
 20
28.4468727703
 30
0.0
 10
206.3252237962
 20
28.5348058667
 30
0.0
 10
206.3252237962
 20
28.5348058667
 30
0.0
 10
206.347468776
 20
28.549984794
 30
0.0
 10
206.347468776
 20
28.549984794
 30
0.0
  0
SPLINE
  5
22D
330
211
100
AcDbEntity
  8
0
  6
Continuous
 62
     7
100
AcDbSpline
 70
     3
 71
     3
 72
    23
 73
    19
 74
     0
 42
0.000000001
 43
0.0000001
 40
0.0
 40
0.0
 40
0.0
 40
0.0
 40
1.0
 40
1.0
 40
1.0
 40
2.0
 40
2.0
 40
2.0
 40
3.0
 40
3.0
 40
3.0
 40
4.0
 40
4.0
 40
4.0
 40
5.0
 40
5.0
 40
5.0
 40
6.0
 40
6.0
 40
6.0
 40
6.0
 10
206.3968002899
 20
28.8410014701
 30
0.0
 10
206.3968002899
 20
28.8410014701
 30
0.0
 10
206.3351686107
 20
28.9195131633
 30
0.0
 10
206.3351686107
 20
28.9195131633
 30
0.0
 10
206.2812572481
 20
28.988080042
 30
0.0
 10
206.2244671233
 20
29.057170332
 30
0.0
 10
206.2244671233
 20
29.1508609525
 30
0.0
 10
206.2244671233
 20
29.2696753149
 30
0.0
 10
206.3203822418
 20
29.3471401855
 30
0.0
 10
206.4313454349
 20
29.3471401855
 30
0.0
 10
206.5546087932
 20
29.3471401855
 30
0.0
 10
206.6479068552
 20
29.2759562503
 30
0.0
 10
206.6479068552
 20
29.1456268396
 30
0.0
 10
206.6479068552
 20
29.0105867274
 30
0.0
 10
206.5198019425
 20
28.9341686793
 30
0.0
 10
206.4262421748
 20
28.8603676877
 30
0.0
 10
206.4262421748
 20
28.8603676877
 30
0.0
 10
206.3968002899
 20
28.8410014701
 30
0.0
 10
206.3968002899
 20
28.8410014701
 30
0.0
  0
SPLINE
  5
22E
330
211
100
AcDbEntity
  8
0
  6
Continuous
 62
     7
100
AcDbSpline
 70
     3
 71
     3
 72
    50
 73
    46
 74
     0
 42
0.000000001
 43
0.0000001
 40
0.0
 40
0.0
 40
0.0
 40
0.0
 40
1.0
 40
1.0
 40
1.0
 40
2.0
 40
2.0
 40
2.0
 40
3.0
 40
3.0
 40
3.0
 40
4.0
 40
4.0
 40
4.0
 40
5.0
 40
5.0
 40
5.0
 40
6.0
 40
6.0
 40
6.0
 40
7.0
 40
7.0
 40
7.0
 40
8.0
 40
8.0
 40
8.0
 40
9.0
 40
9.0
 40
9.0
 40
10.0
 40
10.0
 40
10.0
 40
11.0
 40
11.0
 40
11.0
 40
12.0
 40
12.0
 40
12.0
 40
13.0
 40
13.0
 40
13.0
 40
14.0
 40
14.0
 40
14.0
 40
15.0
 40
15.0
 40
15.0
 40
15.0
 10
207.0989565325
 20
27.6340150403
 30
0.0
 10
207.0989565325
 20
27.6340150403
 30
0.0
 10
207.3843465372
 20
27.6340150403
 30
0.0
 10
207.3843465372
 20
27.6340150403
 30
0.0
 10
207.3843465372
 20
27.6340150403
 30
0.0
 10
207.0519803695
 20
28.0448929012
 30
0.0
 10
207.0519803695
 20
28.0448929012
 30
0.0
 10
207.0519803695
 20
28.0448929012
 30
0.0
 10
207.2784866043
 20
28.3107858355
 30
0.0
 10
207.2784866043
 20
28.3107858355
 30
0.0
 10
207.2784866043
 20
28.3107858355
 30
0.0
 10
207.130230357
 20
28.4636219315
 30
0.0
 10
207.130230357
 20
28.4636219315
 30
0.0
 10
207.130230357
 20
28.4636219315
 30
0.0
 10
206.9143232007
 20
28.2123845134
 30
0.0
 10
206.9143232007
 20
28.2123845134
 30
0.0
 10
206.9143232007
 20
28.2123845134
 30
0.0
 10
206.5272605534
 20
28.6803142047
 30
0.0
 10
206.5272605534
 20
28.6803142047
 30
0.0
 10
206.6827137059
 20
28.7944178655
 30
0.0
 10
206.8649916869
 20
28.9341686793
 30
0.0
 10
206.8649916869
 20
29.1435331945
 30
0.0
 10
206.8649916869
 20
29.3874428546
 30
0.0
 10
206.6629549297
 20
29.5308575475
 30
0.0
 10
206.4364486949
 20
29.5308575475
 30
0.0
 10
206.1922773291
 20
29.5308575475
 30
0.0
 10
206.007905703
 20
29.3801150966
 30
0.0
 10
206.007905703
 20
29.1236435655
 30
0.0
 10
206.007905703
 20
28.9660967679
 30
0.0
 10
206.1065687307
 20
28.8284395992
 30
0.0
 10
206.2119052524
 20
28.7174764061
 30
0.0
 10
206.2119052524
 20
28.7174764061
 30
0.0
 10
206.0963622106
 20
28.6337306001
 30
0.0
 10
206.0963622106
 20
28.6337306001
 30
0.0
 10
205.9186640784
 20
28.5054948346
 30
0.0
 10
205.7713238009
 20
28.3777824803
 30
0.0
 10
205.7713238009
 20
28.1406771669
 30
0.0
 10
205.7713238009
 20
27.8203494587
 30
0.0
 10
206.0298889771
 20
27.5942357824
 30
0.0
 10
206.3402718708
 20
27.5942357824
 30
0.0
 10
206.5591886419
 20
27.5942357824
 30
0.0
 10
206.7563838446
 20
27.7193310802
 30
0.0
 10
206.8966580698
 20
27.8852524584
 30
0.0
 10
206.8966580698
 20
27.8852524584
 30
0.0
 10
207.0989565325
 20
27.6340150403
 30
0.0
 10
207.0989565325
 20
27.6340150403
 30
0.0
  0
LWPOLYLINE
  5
22F
330
211
100
AcDbEntity
  8
0
  6
Continuous
 62
     7
100
AcDbPolyline
 90
        2
 70
     0
 43
0.2
 10
209.034401
 20
29.490555
 10
208.803053
 20
29.490555
  0
LWPOLYLINE
  5
230
330
211
100
AcDbEntity
  8
0
  6
Continuous
 62
     7
100
AcDbPolyline
 90
        2
 70
     0
 43
0.2
 10
208.803053
 20
29.490555
 10
208.803053
 20
27.633492
  0
LWPOLYLINE
  5
231
330
211
100
AcDbEntity
  8
0
  6
Continuous
 62
     7
100
AcDbPolyline
 90
        2
 70
     0
 43
0.2
 10
208.803053
 20
27.633492
 10
209.598376
 20
27.633492
  0
LWPOLYLINE
  5
232
330
211
100
AcDbEntity
  8
0
  6
Continuous
 62
     7
100
AcDbPolyline
 90
        2
 70
     0
 43
0.2
 10
209.598376
 20
27.633492
 10
209.598376
 20
27.845473
  0
LWPOLYLINE
  5
233
330
211
100
AcDbEntity
  8
0
  6
Continuous
 62
     7
100
AcDbPolyline
 90
        2
 70
     0
 43
0.2
 10
209.598376
 20
27.845473
 10
209.034401
 20
27.845473
  0
LWPOLYLINE
  5
234
330
211
100
AcDbEntity
  8
0
  6
Continuous
 62
     7
100
AcDbPolyline
 90
        2
 70
     0
 43
0.2
 10
209.034401
 20
27.845473
 10
209.034401
 20
29.490555
  0
LWPOLYLINE
  5
235
330
211
100
AcDbEntity
  8
0
  6
Continuous
 62
     7
100
AcDbPolyline
 90
        2
 70
     0
 43
0.2
 10
211.27748
 20
28.786043
 10
211.056338
 20
28.786043
  0
LWPOLYLINE
  5
236
330
211
100
AcDbEntity
  8
0
  6
Continuous
 62
     7
100
AcDbPolyline
 90
        2
 70
     0
 43
0.2
 10
211.056338
 20
28.786043
 10
211.056338
 20
27.634015
  0
LWPOLYLINE
  5
237
330
211
100
AcDbEntity
  8
0
  6
Continuous
 62
     7
100
AcDbPolyline
 90
        2
 70
     0
 43
0.2
 10
211.056338
 20
27.634015
 10
211.27748
 20
27.634015
  0
LWPOLYLINE
  5
238
330
211
100
AcDbEntity
  8
0
  6
Continuous
 62
     7
100
AcDbPolyline
 90
        2
 70
     0
 43
0.2
 10
211.27748
 20
27.634015
 10
211.27748
 20
28.786043
  0
SPLINE
  5
239
330
211
100
AcDbEntity
  8
0
  6
Continuous
 62
     7
100
AcDbSpline
 70
     3
 71
     3
 72
    17
 73
    13
 74
     0
 42
0.000000001
 43
0.0000001
 40
0.0
 40
0.0
 40
0.0
 40
0.0
 40
1.0
 40
1.0
 40
1.0
 40
2.0
 40
2.0
 40
2.0
 40
3.0
 40
3.0
 40
3.0
 40
4.0
 40
4.0
 40
4.0
 40
4.0
 10
211.1670399147
 20
29.4685716042
 30
0.0
 10
211.083032403
 20
29.4685716042
 30
0.0
 10
211.0144655243
 20
29.3994813142
 30
0.0
 10
211.0144655243
 20
29.313641863
 30
0.0
 10
211.0144655243
 20
29.2293726457
 30
0.0
 10
211.083032403
 20
29.1634228234
 30
0.0
 10
211.1670399147
 20
29.1634228234
 30
0.0
 10
211.2507857207
 20
29.1634228234
 30
0.0
 10
211.3196143051
 20
29.2293726457
 30
0.0
 10
211.3196143051
 20
29.313641863
 30
0.0
 10
211.3196143051
 20
29.3994813142
 30
0.0
 10
211.2507857207
 20
29.4685716042
 30
0.0
 10
211.1670399147
 20
29.4685716042
 30
0.0
  0
SPLINE
  5
23A
330
211
100
AcDbEntity
  8
0
  6
Continuous
 62
     7
100
AcDbSpline
 70
     3
 71
     3
 72
    17
 73
    13
 74
     0
 42
0.000000001
 43
0.0000001
 40
0.0
 40
0.0
 40
0.0
 40
0.0
 40
1.0
 40
1.0
 40
1.0
 40
2.0
 40
2.0
 40
2.0
 40
3.0
 40
3.0
 40
3.0
 40
4.0
 40
4.0
 40
4.0
 40
4.0
 10
213.4077636381
 20
27.7915618379
 30
0.0
 10
213.1737987924
 20
27.7915618379
 30
0.0
 10
213.0434693817
 20
27.993598595
 30
0.0
 10
213.0434693817
 20
28.2097674569
 30
0.0
 10
213.0434693817
 20
28.4243660849
 30
0.0
 10
213.1792946109
 20
28.6232623743
 30
0.0
 10
213.4077636381
 20
28.6232623743
 30
0.0
 10
213.6472243023
 20
28.6232623743
 30
0.0
 10
213.7827878258
 20
28.4343108994
 30
0.0
 10
213.7827878258
 20
28.2097674569
 30
0.0
 10
213.7827878258
 20
27.9836537806
 30
0.0
 10
213.6495796531
 20
27.7915618379
 30
0.0
 10
213.4077636381
 20
27.7915618379
 30
0.0
  0
SPLINE
  5
23B
330
211
100
AcDbEntity
  8
0
  6
Continuous
 62
     7
100
AcDbSpline
 70
     3
 71
     3
 72
    50
 73
    46
 74
     0
 42
0.000000001
 43
0.0000001
 40
0.0
 40
0.0
 40
0.0
 40
0.0
 40
1.0
 40
1.0
 40
1.0
 40
2.0
 40
2.0
 40
2.0
 40
3.0
 40
3.0
 40
3.0
 40
4.0
 40
4.0
 40
4.0
 40
5.0
 40
5.0
 40
5.0
 40
6.0
 40
6.0
 40
6.0
 40
7.0
 40
7.0
 40
7.0
 40
8.0
 40
8.0
 40
8.0
 40
9.0
 40
9.0
 40
9.0
 40
10.0
 40
10.0
 40
10.0
 40
11.0
 40
11.0
 40
11.0
 40
12.0
 40
12.0
 40
12.0
 40
13.0
 40
13.0
 40
13.0
 40
14.0
 40
14.0
 40
14.0
 40
15.0
 40
15.0
 40
15.0
 40
15.0
 10
213.9918906353
 20
28.7865666961
 30
0.0
 10
213.9918906353
 20
28.7865666961
 30
0.0
 10
213.7702259549
 20
28.7865666961
 30
0.0
 10
213.7702259549
 20
28.7865666961
 30
0.0
 10
213.7702259549
 20
28.7865666961
 30
0.0
 10
213.7702259549
 20
28.5892406406
 30
0.0
 10
213.7702259549
 20
28.5892406406
 30
0.0
 10
213.7702259549
 20
28.5892406406
 30
0.0
 10
213.7655152533
 20
28.5892406406
 30
0.0
 10
213.7655152533
 20
28.5892406406
 30
0.0
 10
213.6741799836
 20
28.7321319222
 30
0.0
 10
213.5362611092
 20
28.8205884299
 30
0.0
 10
213.3635353842
 20
28.8205884299
 30
0.0
 10
213.0311692164
 20
28.8205884299
 30
0.0
 10
212.8220664069
 20
28.5327122215
 30
0.0
 10
212.8220664069
 20
28.2170952149
 30
0.0
 10
212.8220664069
 20
27.8873461036
 30
0.0
 10
213.0191307568
 20
27.5942357824
 30
0.0
 10
213.37400361
 20
27.5942357824
 30
0.0
 10
213.5362611092
 20
27.5942357824
 30
0.0
 10
213.6762736287
 20
27.68269229
 30
0.0
 10
213.7655152533
 20
27.813545112
 30
0.0
 10
213.7655152533
 20
27.813545112
 30
0.0
 10
213.7702259549
 20
27.813545112
 30
0.0
 10
213.7702259549
 20
27.813545112
 30
0.0
 10
213.7702259549
 20
27.813545112
 30
0.0
 10
213.7702259549
 20
27.5942357824
 30
0.0
 10
213.7702259549
 20
27.5942357824
 30
0.0
 10
213.7702259549
 20
27.3576538803
 30
0.0
 10
213.7136975358
 20
27.1707960505
 30
0.0
 10
213.4404768436
 20
27.1707960505
 30
0.0
 10
213.2381783808
 20
27.1707960505
 30
0.0
 10
213.0955488048
 20
27.2890870016
 30
0.0
 10
213.0955488048
 20
27.495311049
 30
0.0
 10
213.0955488048
 20
27.495311049
 30
0.0
 10
212.8738841244
 20
27.495311049
 30
0.0
 10
212.8738841244
 20
27.495311049
 30
0.0
 10
212.8788565317
 20
27.1707960505
 30
0.0
 10
213.1099426153
 20
26.9739934063
 30
0.0
 10
213.4302703234
 20
26.9739934063
 30
0.0
 10
213.8783103859
 20
26.9739934063
 30
0.0
 10
213.9918906353
 20
27.2592525581
 30
0.0
 10
213.9918906353
 20
27.6559983143
 30
0.0
 10
213.9918906353
 20
27.6559983143
 30
0.0
 10
213.9918906353
 20
28.7865666961
 30
0.0
 10
213.9918906353
 20
28.7865666961
 30
0.0
  0
SPLINE
  5
23C
330
211
100
AcDbEntity
  8
0
  6
Continuous
 62
     7
100
AcDbSpline
 70
     3
 71
     3
 72
    44
 73
    40
 74
     0
 42
0.000000001
 43
0.0000001
 40
0.0
 40
0.0
 40
0.0
 40
0.0
 40
1.0
 40
1.0
 40
1.0
 40
2.0
 40
2.0
 40
2.0
 40
3.0
 40
3.0
 40
3.0
 40
4.0
 40
4.0
 40
4.0
 40
5.0
 40
5.0
 40
5.0
 40
6.0
 40
6.0
 40
6.0
 40
7.0
 40
7.0
 40
7.0
 40
8.0
 40
8.0
 40
8.0
 40
9.0
 40
9.0
 40
9.0
 40
10.0
 40
10.0
 40
10.0
 40
11.0
 40
11.0
 40
11.0
 40
12.0
 40
12.0
 40
12.0
 40
13.0
 40
13.0
 40
13.0
 40
13.0
 10
215.5608159707
 20
29.7716267399
 30
0.0
 10
215.5608159707
 20
29.7716267399
 30
0.0
 10
215.5608159707
 20
27.633491629
 30
0.0
 10
215.5608159707
 20
27.633491629
 30
0.0
 10
215.5608159707
 20
27.633491629
 30
0.0
 10
215.7822189455
 20
27.633491629
 30
0.0
 10
215.7822189455
 20
27.633491629
 30
0.0
 10
215.7822189455
 20
27.633491629
 30
0.0
 10
215.7822189455
 20
28.1631838523
 30
0.0
 10
215.7822189455
 20
28.1631838523
 30
0.0
 10
215.7822189455
 20
28.3730717787
 30
0.0
 10
215.7822189455
 20
28.6237857856
 30
0.0
 10
216.0674780974
 20
28.6237857856
 30
0.0
 10
216.2943768907
 20
28.6237857856
 30
0.0
 10
216.321332572
 20
28.4908393185
 30
0.0
 10
216.321332572
 20
28.2945600855
 30
0.0
 10
216.321332572
 20
28.2945600855
 30
0.0
 10
216.321332572
 20
27.633491629
 30
0.0
 10
216.321332572
 20
27.633491629
 30
0.0
 10
216.321332572
 20
27.633491629
 30
0.0
 10
216.543258958
 20
27.633491629
 30
0.0
 10
216.543258958
 20
27.633491629
 30
0.0
 10
216.543258958
 20
27.633491629
 30
0.0
 10
216.543258958
 20
28.3207306499
 30
0.0
 10
216.543258958
 20
28.3207306499
 30
0.0
 10
216.543258958
 20
28.6012791002
 30
0.0
 10
216.4592514463
 20
28.8211118411
 30
0.0
 10
216.1342130366
 20
28.8211118411
 30
0.0
 10
215.9944622227
 20
28.8211118411
 30
0.0
 10
215.8562816427
 20
28.7546386076
 30
0.0
 10
215.7869296471
 20
28.6316369549
 30
0.0
 10
215.7869296471
 20
28.6316369549
 30
0.0
 10
215.7822189455
 20
28.6316369549
 30
0.0
 10
215.7822189455
 20
28.6316369549
 30
0.0
 10
215.7822189455
 20
28.6316369549
 30
0.0
 10
215.7822189455
 20
29.7716267399
 30
0.0
 10
215.7822189455
 20
29.7716267399
 30
0.0
 10
215.7822189455
 20
29.7716267399
 30
0.0
 10
215.5608159707
 20
29.7716267399
 30
0.0
 10
215.5608159707
 20
29.7716267399
 30
0.0
  0
LWPOLYLINE
  5
23D
330
211
100
AcDbEntity
  8
0
  6
Continuous
 62
     7
100
AcDbPolyline
 90
        2
 70
     0
 43
0.2
 10
218.38305
 20
28.579296
 10
218.59948
 20
28.579296
  0
LWPOLYLINE
  5
23E
330
211
100
AcDbEntity
  8
0
  6
Continuous
 62
     7
100
AcDbPolyline
 90
        2
 70
     0
 43
0.2
 10
218.59948
 20
28.579296
 10
218.59948
 20
28.786043
  0
LWPOLYLINE
  5
23F
330
211
100
AcDbEntity
  8
0
  6
Continuous
 62
     7
100
AcDbPolyline
 90
        2
 70
     0
 43
0.2
 10
218.59948
 20
28.786043
 10
218.38305
 20
28.786043
  0
LWPOLYLINE
  5
240
330
211
100
AcDbEntity
  8
0
  6
Continuous
 62
     7
100
AcDbPolyline
 90
        2
 70
     0
 43
0.2
 10
218.38305
 20
28.786043
 10
218.38305
 20
29.226756
  0
LWPOLYLINE
  5
241
330
211
100
AcDbEntity
  8
0
  6
Continuous
 62
     7
100
AcDbPolyline
 90
        2
 70
     0
 43
0.2
 10
218.38305
 20
29.226756
 10
218.161385
 20
29.226756
  0
LWPOLYLINE
  5
242
330
211
100
AcDbEntity
  8
0
  6
Continuous
 62
     7
100
AcDbPolyline
 90
        2
 70
     0
 43
0.2
 10
218.161385
 20
29.226756
 10
218.161385
 20
28.786043
  0
LWPOLYLINE
  5
243
330
211
100
AcDbEntity
  8
0
  6
Continuous
 62
     7
100
AcDbPolyline
 90
        2
 70
     0
 43
0.2
 10
218.161385
 20
28.786043
 10
218.040739
 20
28.786043
  0
LWPOLYLINE
  5
244
330
211
100
AcDbEntity
  8
0
  6
Continuous
 62
     7
100
AcDbPolyline
 90
        2
 70
     0
 43
0.2
 10
218.040739
 20
28.786043
 10
218.040739
 20
28.579296
  0
LWPOLYLINE
  5
245
330
211
100
AcDbEntity
  8
0
  6
Continuous
 62
     7
100
AcDbPolyline
 90
        2
 70
     0
 43
0.2
 10
218.040739
 20
28.579296
 10
218.161385
 20
28.579296
  0
LWPOLYLINE
  5
246
330
211
100
AcDbEntity
  8
0
  6
Continuous
 62
     7
100
AcDbPolyline
 90
        2
 70
     0
 43
0.2
 10
218.161385
 20
28.579296
 10
218.161385
 20
27.633492
  0
LWPOLYLINE
  5
247
330
211
100
AcDbEntity
  8
0
  6
Continuous
 62
     7
100
AcDbPolyline
 90
        2
 70
     0
 43
0.2
 10
218.161385
 20
27.633492
 10
218.38305
 20
27.633492
  0
LWPOLYLINE
  5
248
330
211
100
AcDbEntity
  8
0
  6
Continuous
 62
     7
100
AcDbPolyline
 90
        2
 70
     0
 43
0.2
 10
218.38305
 20
27.633492
 10
218.38305
 20
28.579296
  0
SPLINE
  5
249
330
211
100
AcDbEntity
  8
0
  6
Continuous
 62
     7
100
AcDbSpline
 70
     3
 71
     3
 72
    20
 73
    16
 74
     0
 42
0.000000001
 43
0.0000001
 40
0.0
 40
0.0
 40
0.0
 40
0.0
 40
1.0
 40
1.0
 40
1.0
 40
2.0
 40
2.0
 40
2.0
 40
3.0
 40
3.0
 40
3.0
 40
4.0
 40
4.0
 40
4.0
 40
5.0
 40
5.0
 40
5.0
 40
5.0
 10
206.1650599422
 20
37.9944180724
 30
0.0
 10
206.1650599422
 20
37.9944180724
 30
0.0
 10
208.4814165966
 20
35.1648566501
 30
0.0
 10
208.4814165966
 20
35.1648566501
 30
0.0
 10
207.8297695432
 20
34.5126861854
 30
0.0
 10
207.0528963392
 20
33.7767699147
 30
0.0
 10
206.0817066946
 20
33.7767699147
 30
0.0
 10
205.0831688101
 20
33.7767699147
 30
0.0
 10
204.1398508166
 20
34.706348362
 30
0.0
 10
204.1398508166
 20
35.7055405105
 30
0.0
 10
204.1398508166
 20
36.704732659
 30
0.0
 10
205.3187038897
 20
37.4113378977
 30
0.0
 10
206.04022635
 20
37.9111956776
 30
0.0
 10
206.04022635
 20
37.9111956776
 30
0.0
 10
206.1650599422
 20
37.9944180724
 30
0.0
 10
206.1650599422
 20
37.9944180724
 30
0.0
  0
SPLINE
  5
24A
330
211
100
AcDbEntity
  8
0
  6
Continuous
 62
     7
100
AcDbSpline
 70
     3
 71
     3
 72
    23
 73
    19
 74
     0
 42
0.000000001
 43
0.0000001
 40
0.0
 40
0.0
 40
0.0
 40
0.0
 40
1.0
 40
1.0
 40
1.0
 40
2.0
 40
2.0
 40
2.0
 40
3.0
 40
3.0
 40
3.0
 40
4.0
 40
4.0
 40
4.0
 40
5.0
 40
5.0
 40
5.0
 40
6.0
 40
6.0
 40
6.0
 40
6.0
 10
206.4424679247
 20
39.6321719921
 30
0.0
 10
206.4424679247
 20
39.6321719921
 30
0.0
 10
206.0959696522
 20
40.0755013529
 30
0.0
 10
206.0959696522
 20
40.0755013529
 30
0.0
 10
205.7901666072
 20
40.4636108229
 30
0.0
 10
205.4712782801
 20
40.8521128513
 30
0.0
 10
205.4712782801
 20
41.3790571654
 30
0.0
 10
205.4712782801
 20
42.045228882
 30
0.0
 10
206.0126164046
 20
42.4889508013
 30
0.0
 10
206.6365226597
 20
42.4889508013
 30
0.0
 10
207.3303043218
 20
42.4889508013
 30
0.0
 10
207.8575103415
 20
42.0867092266
 30
0.0
 10
207.8575103415
 20
41.3517089256
 30
0.0
 10
207.8575103415
 20
40.588444415
 30
0.0
 10
207.1362495868
 20
40.1583311892
 30
0.0
 10
206.6091744199
 20
39.7426117738
 30
0.0
 10
206.6091744199
 20
39.7426117738
 30
0.0
 10
206.4424679247
 20
39.6321719921
 30
0.0
 10
206.4424679247
 20
39.6321719921
 30
0.0
  0
SPLINE
  5
24B
330
211
100
AcDbEntity
  8
0
  6
Continuous
 62
     7
100
AcDbSpline
 70
     3
 71
     3
 72
    50
 73
    46
 74
     0
 42
0.000000001
 43
0.0000001
 40
0.0
 40
0.0
 40
0.0
 40
0.0
 40
1.0
 40
1.0
 40
1.0
 40
2.0
 40
2.0
 40
2.0
 40
3.0
 40
3.0
 40
3.0
 40
4.0
 40
4.0
 40
4.0
 40
5.0
 40
5.0
 40
5.0
 40
6.0
 40
6.0
 40
6.0
 40
7.0
 40
7.0
 40
7.0
 40
8.0
 40
8.0
 40
8.0
 40
9.0
 40
9.0
 40
9.0
 40
10.0
 40
10.0
 40
10.0
 40
11.0
 40
11.0
 40
11.0
 40
12.0
 40
12.0
 40
12.0
 40
13.0
 40
13.0
 40
13.0
 40
14.0
 40
14.0
 40
14.0
 40
15.0
 40
15.0
 40
15.0
 40
15.0
 10
210.3960550877
 20
32.833582774
 30
0.0
 10
210.3960550877
 20
32.833582774
 30
0.0
 10
212.0052830922
 20
32.833582774
 30
0.0
 10
212.0052830922
 20
32.833582774
 30
0.0
 10
212.0052830922
 20
32.833582774
 30
0.0
 10
210.1322557986
 20
35.1507245454
 30
0.0
 10
210.1322557986
 20
35.1507245454
 30
0.0
 10
210.1322557986
 20
35.1507245454
 30
0.0
 10
211.408594224
 20
36.64820424
 30
0.0
 10
211.408594224
 20
36.64820424
 30
0.0
 10
211.408594224
 20
36.64820424
 30
0.0
 10
210.5763702763
 20
37.5092158085
 30
0.0
 10
210.5763702763
 20
37.5092158085
 30
0.0
 10
210.5763702763
 20
37.5092158085
 30
0.0
 10
209.355775153
 20
36.0939116861
 30
0.0
 10
209.355775153
 20
36.0939116861
 30
0.0
 10
209.355775153
 20
36.0939116861
 30
0.0
 10
207.1778607842
 20
38.7292875205
 30
0.0
 10
207.1778607842
 20
38.7292875205
 30
0.0
 10
208.0514342236
 20
39.3673258804
 30
0.0
 10
209.0781054648
 20
40.1583311892
 30
0.0
 10
209.0781054648
 20
41.3371842623
 30
0.0
 10
209.0781054648
 20
42.7108771874
 30
0.0
 10
207.940209325
 20
43.5153603368
 30
0.0
 10
206.6649177221
 20
43.5153603368
 30
0.0
 10
205.2914865027
 20
43.5153603368
 30
0.0
 10
204.2505523039
 20
42.6691351371
 30
0.0
 10
204.2505523039
 20
41.226482775
 30
0.0
 10
204.2505523039
 20
40.3389080835
 30
0.0
 10
204.8058916804
 20
39.5620348795
 30
0.0
 10
205.4020571373
 20
38.9376052131
 30
0.0
 10
205.4020571373
 20
38.9376052131
 30
0.0
 10
204.7501483782
 20
38.4660116427
 30
0.0
 10
204.7501483782
 20
38.4660116427
 30
0.0
 10
203.7516104938
 20
37.744750888
 30
0.0
 10
202.918732282
 20
37.0234901334
 30
0.0
 10
202.918732282
 20
35.691931817
 30
0.0
 10
202.918732282
 20
33.888256519
 30
0.0
 10
204.3757784546
 20
32.6116563879
 30
0.0
 10
206.1233178919
 20
32.6116563879
 30
0.0
 10
207.3581759729
 20
32.6116563879
 30
0.0
 10
208.4675461975
 20
33.3198318604
 30
0.0
 10
209.2584206535
 20
34.2483634851
 30
0.0
 10
209.2584206535
 20
34.2483634851
 30
0.0
 10
210.3960550877
 20
32.833582774
 30
0.0
 10
210.3960550877
 20
32.833582774
 30
0.0
  0
LINE
  5
24C
330
211
100
AcDbEntity
  8
0
  6
Continuous
 62
     7
100
AcDbLine
 10
196.198916
 20
30.807458
 30
0.0
 11
218.612827
 21
30.807458
 31
0.0
  0
LINE
  5
24D
330
211
100
AcDbEntity
  8
0
  6
Continuous
 62
     7
100
AcDbLine
 10
218.612827
 20
30.807458
 30
0.0
 11
218.612827
 21
53.221368
 31
0.0
  0
LINE
  5
24E
330
211
100
AcDbEntity
  8
0
  6
Continuous
 62
     7
100
AcDbLine
 10
218.612827
 20
53.221368
 30
0.0
 11
196.198916
 21
53.221368
 31
0.0
  0
LINE
  5
24F
330
211
100
AcDbEntity
  8
0
  6
Continuous
 62
     7
100
AcDbLine
 10
196.198916
 20
53.221368
 30
0.0
 11
196.198916
 21
30.807458
 31
0.0
  0
ENDBLK
  5
250
330
211
100
AcDbEntity
  8
0
  6
ByBlock
 62
     0
100
AcDbBlockEnd
  0
BLOCK
  5
272
330
212
100
AcDbEntity
  8
0
100
AcDbBlockBegin
  2
*T5
 70
     1
 10
0.0
 20
0.0
 30
0.0
  3
*T5
  1
*T5
  0
LINE
  5
273
330
212
100
AcDbEntity
  8
0
  6
Continuous
 62
     2
100
AcDbLine
 10
0.0
 20
0.0
 30
0.0
 11
90.0
 21
0.0
 31
0.0
  0
LINE
  5
274
330
212
100
AcDbEntity
  8
0
  6
Continuous
 62
     2
100
AcDbLine
 10
0.0
 20
0.0
 30
0.0
 11
0.0
 21
-40.0
 31
0.0
  0
LINE
  5
275
330
212
100
AcDbEntity
  8
0
  6
Continuous
 62
     2
100
AcDbLine
 10
30.0
 20
-6.0
 30
0.0
 11
90.0
 21
-6.0
 31
0.0
  0
LINE
  5
276
330
212
100
AcDbEntity
  8
0
  6
Continuous
 62
     2
100
AcDbLine
 10
30.0
 20
-12.0
 30
0.0
 11
90.0
 21
-12.0
 31
0.0
  0
LINE
  5
277
330
212
100
AcDbEntity
  8
0
  6
Continuous
 62
     2
100
AcDbLine
 10
30.0
 20
-22.0
 30
0.0
 11
90.0
 21
-22.0
 31
0.0
  0
LINE
  5
278
330
212
100
AcDbEntity
  8
0
  6
Continuous
 62
     2
100
AcDbLine
 10
0.0
 20
-27.0
 30
0.0
 11
90.0
 21
-27.0
 31
0.0
  0
LINE
  5
279
330
212
100
AcDbEntity
  8
0
  6
Continuous
 62
     2
100
AcDbLine
 10
0.0
 20
-40.0
 30
0.0
 11
90.0
 21
-40.0
 31
0.0
  0
LINE
  5
27A
330
212
100
AcDbEntity
  8
0
  6
Continuous
 62
     2
100
AcDbLine
 10
30.0
 20
0.0
 30
0.0
 11
30.0
 21
-27.0
 31
0.0
  0
LINE
  5
27B
330
212
100
AcDbEntity
  8
0
  6
Continuous
 62
     2
100
AcDbLine
 10
70.0
 20
0.0
 30
0.0
 11
70.0
 21
-12.0
 31
0.0
  0
LINE
  5
27C
330
212
100
AcDbEntity
  8
0
  6
Continuous
 62
     2
100
AcDbLine
 10
90.0
 20
0.0
 30
0.0
 11
90.0
 21
-40.0
 31
0.0
  0
MTEXT
  5
27D
330
212
100
AcDbEntity
  8
9_SOLID
  6
Continuous
 62
     2
100
AcDbMText
 10
31.4875
 20
-1.5
 30
0.0
 40
3.0
 41
48.914498
 46
0.0
 71
     1
 72
     1
  1
A193_C_401
 73
     1
 44
0.9
  0
MTEXT
  5
27E
330
212
100
AcDbEntity
  8
9_SOLID
  6
Continuous
 62
     2
100
AcDbMText
 10
71.4875
 20
-1.25
 30
0.0
 40
3.5
 41
30.966543
 46
0.0
 71
     1
 72
     1
  1
Rev:00
 73
     1
 44
0.9
  0
MTEXT
  5
27F
330
212
100
AcDbEntity
  8
9_SOLID
  6
Continuous
 62
     2
100
AcDbMText
 10
31.4875
 20
-7.75
 30
0.0
 40
3.5
 41
40.724907
 46
0.0
 71
     1
 72
     1
  1
Scale:1:1
 73
     1
 44
0.9
  0
MTEXT
  5
280
330
212
100
AcDbEntity
  8
9_SOLID
  6
Continuous
 62
     2
100
AcDbMText
 10
71.4875
 20
-7.25
 30
0.0
 40
3.5
 41
11.944238
 46
0.0
 71
     1
 72
     1
  1
A4
 73
     1
 44
0.9
  0
MTEXT
  5
281
330
212
100
AcDbEntity
  8
9_SOLID
  6
Continuous
 62
     2
100
AcDbMText
 10
31.4875
 20
-15.25
 30
0.0
 40
3.5
 41
77.052045
 46
0.0
 71
     1
 72
     1
  1
GOCCIA 2.5 - 2.9
 73
     1
 44
0.9
  0
MTEXT
  5
282
330
212
100
AcDbEntity
  8
9_SOLID
  6
Continuous
 62
     2
100
AcDbMText
 10
31.4875
 20
-23.25
 30
0.0
 40
2.5
 41
47.695167
 46
0.0
 71
     1
 72
     1
  1
DATE:12.10.23
 73
     1
 44
0.9
  0
MTEXT
  5
283
330
212
100
AcDbEntity
  8
9_SOLID
  6
Continuous
 62
     2
100
AcDbMText
 10
1.4875
 20
-27.3125
 30
0.0
 40
2.25
 41
148.98513
 46
0.0
 71
     1
 72
     1
  1
Any integral or partial reproductions are prohibited \Pwithout prior authorisation of L & L Luce & Light s.r.l., \Pin accordance with the law in force. \PAll rights reserved.
 73
     1
 44
0.9
  0
ENDBLK
  5
284
330
212
100
AcDbEntity
  8
0
  6
ByBlock
 62
     0
100
AcDbBlockEnd
  0
ENDSEC
  0
SECTION
  2
ENTITIES
  0
LWPOLYLINE
  5
285
330
20B
100
AcDbEntity
  8
0
  6
Continuous
 62
     7
100
AcDbPolyline
 90
        2
 70
     0
 43
0.1
 10
10.0
 20
200.0
 10
287.0
 20
200.0
  0
LWPOLYLINE
  5
286
330
20B
100
AcDbEntity
  8
0
  6
Continuous
 62
     7
100
AcDbPolyline
 90
        2
 70
     0
 43
0.1
 10
10.0
 20
10.0
 10
10.0
 20
200.0
  0
LWPOLYLINE
  5
287
330
20B
100
AcDbEntity
  8
0
  6
Continuous
 62
     7
100
AcDbPolyline
 90
        2
 70
     0
 43
0.1
 10
287.0
 20
10.0
 10
287.0
 20
200.0
  0
LWPOLYLINE
  5
288
330
20B
100
AcDbEntity
  8
0
  6
Continuous
 62
     7
100
AcDbPolyline
 90
        2
 70
     0
 43
0.1
 10
10.0
 20
10.0
 10
287.0
 20
10.0
  0
LINE
  5
289
330
20B
100
AcDbEntity
  8
7_ALL_FEATURES
  6
Continuous
 62
     7
100
AcDbLine
 10
67.965385
 20
131.627847
 30
0.0
 11
67.929483
 21
132.417709
 31
0.0
  0
ARC
  5
28A
330
20B
100
AcDbEntity
  8
7_ALL_FEATURES
  6
Continuous
 62
     7
100
AcDbCircle
 10
71.917721
 20
135.116928
 30
0.0
 40
0.0976201153
100
AcDbArc
 50
0.0
 51
85.205874
  0
LINE
  5
28B
330
20B
100
AcDbEntity
  8
7_ALL_FEATURES
  6
Continuous
 62
     7
100
AcDbLine
 10
71.036519
 20
135.282782
 30
0.0
 11
71.925879
 21
135.214206
 31
0.0
  0
ARC
  5
28C
330
20B
100
AcDbEntity
  8
7_ALL_FEATURES
  6
Continuous
 62
     7
100
AcDbCircle
 10
71.917721
 20
133.738285
 30
0.0
 40
0.0976201153
100
AcDbArc
 50
0.0
 51
85.205873
  0
LINE
  5
28D
330
20B
100
AcDbEntity
  8
7_ALL_FEATURES
  6
Continuous
 62
     7
100
AcDbLine
 10
71.036519
 20
133.904139
 30
0.0
 11
71.925879
 21
133.835563
 31
0.0
  0
LINE
  5
28E
330
20B
100
AcDbEntity
  8
7_ALL_FEATURES
  6
Continuous
 62
     7
100
AcDbLine
 10
71.601199
 20
132.417709
 30
0.0
 11
71.565296
 21
131.627847
 31
0.0
  0
LINE
  5
28F
330
20B
100
AcDbEntity
  8
7_ALL_FEATURES
  6
Continuous
 62
     7
100
AcDbLine
 10
70.841541
 20
131.627847
 30
0.0
 11
70.841541
 21
132.417709
 31
0.0
  0
LINE
  5
290
330
20B
100
AcDbEntity
  8
7_ALL_FEATURES
  6
Continuous
 62
     7
100
AcDbLine
 10
68.665341
 20
132.417709
 30
0.0
 11
68.665341
 21
131.627847
 31
0.0
  0
LINE
  5
291
330
20B
100
AcDbEntity
  8
7_ALL_FEATURES
  6
Continuous
 62
     7
100
AcDbLine
 10
70.362551
 20
129.40187
 30
0.0
 11
69.168131
 21
129.40187
 31
0.0
  0
LINE
  5
292
330
20B
100
AcDbEntity
  8
7_ALL_FEATURES
  6
Continuous
 62
     7
100
AcDbLine
 10
70.841541
 20
131.113379
 30
0.0
 11
70.841541
 21
131.627847
 31
0.0
  0
LINE
  5
293
330
20B
100
AcDbEntity
  8
7_ALL_FEATURES
  6
Continuous
 62
     7
100
AcDbLine
 10
68.665341
 20
131.627847
 30
0.0
 11
68.665341
 21
131.144696
 31
0.0
  0
LINE
  5
294
330
20B
100
AcDbEntity
  8
7_ALL_FEATURES
  6
Continuous
 62
     7
100
AcDbLine
 10
67.965385
 20
131.627847
 30
0.0
 11
69.168131
 21
129.40187
 31
0.0
  0
LINE
  5
295
330
20B
100
AcDbEntity
  8
7_ALL_FEATURES
  6
Continuous
 62
     7
100
AcDbLine
 10
71.565296
 20
131.627847
 30
0.0
 11
70.362551
 21
129.40187
 31
0.0
  0
LINE
  5
296
330
20B
100
AcDbEntity
  8
7_ALL_FEATURES
  6
Continuous
 62
     7
100
AcDbLine
 10
68.665341
 20
132.42594
 30
0.0
 11
68.665341
 21
132.417709
 31
0.0
  0
LINE
  5
297
330
20B
100
AcDbEntity
  8
7_ALL_FEATURES
  6
Continuous
 62
     7
100
AcDbLine
 10
70.841541
 20
132.417709
 30
0.0
 11
70.841541
 21
132.426409
 31
0.0
  0
LINE
  5
298
330
20B
100
AcDbEntity
  8
7_ALL_FEATURES
  6
Continuous
 62
     7
100
AcDbLine
 10
68.577158
 20
132.435661
 30
0.0
 11
68.27775
 21
132.427362
 31
0.0
  0
LINE
  5
299
330
20B
100
AcDbEntity
  8
7_ALL_FEATURES
  6
Continuous
 62
     7
100
AcDbLine
 10
68.27775
 20
132.427362
 30
0.0
 11
67.929483
 21
132.417709
 31
0.0
  0
LINE
  5
29A
330
20B
100
AcDbEntity
  8
7_ALL_FEATURES
  6
Continuous
 62
     7
100
AcDbLine
 10
70.953524
 20
132.435661
 30
0.0
 11
71.601199
 21
132.417709
 31
0.0
  0
ARC
  5
29B
330
20B
100
AcDbEntity
  8
7_ALL_FEATURES
  6
Continuous
 62
     7
100
AcDbCircle
 10
71.051144
 20
133.147879
 30
0.0
 40
0.0976200982
100
AcDbArc
 50
108.040186
 51
180.434051
  0
LINE
  5
29C
330
20B
100
AcDbEntity
  8
7_ALL_FEATURES
  6
Continuous
 62
     7
100
AcDbLine
 10
70.953525
 20
133.147139
 30
0.0
 11
70.953525
 21
132.435661
 31
0.0
  0
LINE
  5
29D
330
20B
100
AcDbEntity
  8
7_ALL_FEATURES
  6
Continuous
 62
     7
100
AcDbLine
 10
68.577157
 20
133.147139
 30
0.0
 11
68.577157
 21
132.435661
 31
0.0
  0
ARC
  5
29E
330
20B
100
AcDbEntity
  8
7_ALL_FEATURES
  6
Continuous
 62
     7
100
AcDbCircle
 10
68.479538
 20
133.147879
 30
0.0
 40
0.0976200982
100
AcDbArc
 50
359.565949
 51
71.959814
  0
LINE
  5
29F
330
20B
100
AcDbEntity
  8
7_ALL_FEATURES
  6
Continuous
 62
     7
100
AcDbLine
 10
70.841541
 20
133.320755
 30
0.0
 11
70.841541
 21
133.519277
 31
0.0
  0
LINE
  5
2A0
330
20B
100
AcDbEntity
  8
7_ALL_FEATURES
  6
Continuous
 62
     7
100
AcDbLine
 10
68.665341
 20
133.519277
 30
0.0
 11
68.665341
 21
133.32584
 31
0.0
  0
LINE
  5
2A1
330
20B
100
AcDbEntity
  8
7_ALL_FEATURES
  6
Continuous
 62
     7
100
AcDbLine
 10
67.58273
 20
133.519277
 30
0.0
 11
68.509769
 21
133.2407
 31
0.0
  0
LINE
  5
2A2
330
20B
100
AcDbEntity
  8
7_ALL_FEATURES
  6
Continuous
 62
     7
100
AcDbLine
 10
71.947952
 20
133.519277
 30
0.0
 11
71.020913
 21
133.2407
 31
0.0
  0
LINE
  5
2A3
330
20B
100
AcDbEntity
  8
7_ALL_FEATURES
  6
Continuous
 62
     7
100
AcDbLine
 10
72.015341
 20
133.738285
 30
0.0
 11
72.015341
 21
133.612098
 31
0.0
  0
ARC
  5
2A4
330
20B
100
AcDbEntity
  8
7_ALL_FEATURES
  6
Continuous
 62
     7
100
AcDbCircle
 10
71.917721
 20
133.612098
 30
0.0
 40
0.0976200982
100
AcDbArc
 50
288.040186
 51
360.0
  0
ARC
  5
2A5
330
20B
100
AcDbEntity
  8
7_ALL_FEATURES
  6
Continuous
 62
     7
100
AcDbCircle
 10
67.612961
 20
133.612098
 30
0.0
 40
0.0976200982
100
AcDbArc
 50
180.0
 51
251.959814
  0
LINE
  5
2A6
330
20B
100
AcDbEntity
  8
7_ALL_FEATURES
  6
Continuous
 62
     7
100
AcDbLine
 10
68.665341
 20
133.612098
 30
0.0
 11
68.665341
 21
133.519277
 31
0.0
  0
LINE
  5
2A7
330
20B
100
AcDbEntity
  8
7_ALL_FEATURES
  6
Continuous
 62
     7
100
AcDbLine
 10
70.841541
 20
133.519277
 30
0.0
 11
70.841541
 21
133.612098
 31
0.0
  0
LINE
  5
2A8
330
20B
100
AcDbEntity
  8
7_ALL_FEATURES
  6
Continuous
 62
     7
100
AcDbLine
 10
67.515341
 20
133.738285
 30
0.0
 11
67.515341
 21
133.612098
 31
0.0
  0
LINE
  5
2A9
330
20B
100
AcDbEntity
  8
7_ALL_FEATURES
  6
Continuous
 62
     7
100
AcDbLine
 10
70.841541
 20
133.612098
 30
0.0
 11
70.841541
 21
133.738285
 31
0.0
  0
LINE
  5
2AA
330
20B
100
AcDbEntity
  8
7_ALL_FEATURES
  6
Continuous
 62
     7
100
AcDbLine
 10
68.665341
 20
133.738285
 30
0.0
 11
68.665341
 21
133.612098
 31
0.0
  0
ARC
  5
2AB
330
20B
100
AcDbEntity
  8
7_ALL_FEATURES
  6
Continuous
 62
     7
100
AcDbCircle
 10
67.612961
 20
133.738285
 30
0.0
 40
0.0976201153
100
AcDbArc
 50
94.794126
 51
180.0
  0
LINE
  5
2AC
330
20B
100
AcDbEntity
  8
7_ALL_FEATURES
  6
Continuous
 62
     7
100
AcDbLine
 10
70.841541
 20
133.738285
 30
0.0
 11
70.841541
 21
133.835563
 31
0.0
  0
LINE
  5
2AD
330
20B
100
AcDbEntity
  8
7_ALL_FEATURES
  6
Continuous
 62
     7
100
AcDbLine
 10
68.665341
 20
133.835563
 30
0.0
 11
68.665341
 21
133.738285
 31
0.0
  0
LINE
  5
2AE
330
20B
100
AcDbEntity
  8
7_ALL_FEATURES
  6
Continuous
 62
     7
100
AcDbLine
 10
68.665341
 20
133.883496
 30
0.0
 11
68.665341
 21
133.835563
 31
0.0
  0
LINE
  5
2AF
330
20B
100
AcDbEntity
  8
7_ALL_FEATURES
  6
Continuous
 62
     7
100
AcDbLine
 10
70.841541
 20
133.835563
 30
0.0
 11
70.841541
 21
133.8848
 31
0.0
  0
LINE
  5
2B0
330
20B
100
AcDbEntity
  8
7_ALL_FEATURES
  6
Continuous
 62
     7
100
AcDbLine
 10
68.494163
 20
133.904139
 30
0.0
 11
67.604802
 21
133.835563
 31
0.0
  0
ARC
  5
2B1
330
20B
100
AcDbEntity
  8
7_ALL_FEATURES
  6
Continuous
 62
     7
100
AcDbCircle
 10
68.486004
 20
134.001417
 30
0.0
 40
0.0976200982
100
AcDbArc
 50
274.794115
 51
339.028982
  0
ARC
  5
2B2
330
20B
100
AcDbEntity
  8
7_ALL_FEATURES
  6
Continuous
 62
     7
100
AcDbCircle
 10
71.044678
 20
134.001417
 30
0.0
 40
0.0976200982
100
AcDbArc
 50
200.971018
 51
265.205885
  0
ARC
  5
2B3
330
20B
100
AcDbEntity
  8
7_ALL_FEATURES
  6
Continuous
 62
     7
100
AcDbCircle
 10
71.051144
 20
134.526522
 30
0.0
 40
0.0976200982
100
AcDbArc
 50
108.040186
 51
180.434051
  0
LINE
  5
2B4
330
20B
100
AcDbEntity
  8
7_ALL_FEATURES
  6
Continuous
 62
     7
100
AcDbLine
 10
70.953525
 20
134.525782
 30
0.0
 11
70.953525
 21
133.966479
 31
0.0
  0
LINE
  5
2B5
330
20B
100
AcDbEntity
  8
7_ALL_FEATURES
  6
Continuous
 62
     7
100
AcDbLine
 10
68.577157
 20
134.525782
 30
0.0
 11
68.577157
 21
133.966479
 31
0.0
  0
ARC
  5
2B6
330
20B
100
AcDbEntity
  8
7_ALL_FEATURES
  6
Continuous
 62
     7
100
AcDbCircle
 10
68.479538
 20
134.526522
 30
0.0
 40
0.0976200982
100
AcDbArc
 50
359.565949
 51
71.959814
  0
LINE
  5
2B7
330
20B
100
AcDbEntity
  8
7_ALL_FEATURES
  6
Continuous
 62
     7
100
AcDbLine
 10
70.841541
 20
134.699398
 30
0.0
 11
70.841541
 21
134.89792
 31
0.0
  0
LINE
  5
2B8
330
20B
100
AcDbEntity
  8
7_ALL_FEATURES
  6
Continuous
 62
     7
100
AcDbLine
 10
68.665341
 20
134.89792
 30
0.0
 11
68.665341
 21
134.704483
 31
0.0
  0
LINE
  5
2B9
330
20B
100
AcDbEntity
  8
7_ALL_FEATURES
  6
Continuous
 62
     7
100
AcDbLine
 10
67.58273
 20
134.89792
 30
0.0
 11
68.509769
 21
134.619343
 31
0.0
  0
LINE
  5
2BA
330
20B
100
AcDbEntity
  8
7_ALL_FEATURES
  6
Continuous
 62
     7
100
AcDbLine
 10
71.947952
 20
134.89792
 30
0.0
 11
71.020913
 21
134.619343
 31
0.0
  0
LINE
  5
2BB
330
20B
100
AcDbEntity
  8
7_ALL_FEATURES
  6
Continuous
 62
     7
100
AcDbLine
 10
72.015341
 20
135.116928
 30
0.0
 11
72.015341
 21
134.990741
 31
0.0
  0
ARC
  5
2BC
330
20B
100
AcDbEntity
  8
7_ALL_FEATURES
  6
Continuous
 62
     7
100
AcDbCircle
 10
71.917721
 20
134.990741
 30
0.0
 40
0.0976200982
100
AcDbArc
 50
288.040186
 51
360.0
  0
ARC
  5
2BD
330
20B
100
AcDbEntity
  8
7_ALL_FEATURES
  6
Continuous
 62
     7
100
AcDbCircle
 10
67.612961
 20
134.990741
 30
0.0
 40
0.0976200982
100
AcDbArc
 50
180.0
 51
251.959814
  0
LINE
  5
2BE
330
20B
100
AcDbEntity
  8
7_ALL_FEATURES
  6
Continuous
 62
     7
100
AcDbLine
 10
68.665341
 20
134.990741
 30
0.0
 11
68.665341
 21
134.89792
 31
0.0
  0
LINE
  5
2BF
330
20B
100
AcDbEntity
  8
7_ALL_FEATURES
  6
Continuous
 62
     7
100
AcDbLine
 10
70.841541
 20
134.89792
 30
0.0
 11
70.841541
 21
134.990741
 31
0.0
  0
LINE
  5
2C0
330
20B
100
AcDbEntity
  8
7_ALL_FEATURES
  6
Continuous
 62
     7
100
AcDbLine
 10
67.515341
 20
135.116928
 30
0.0
 11
67.515341
 21
134.990741
 31
0.0
  0
LINE
  5
2C1
330
20B
100
AcDbEntity
  8
7_ALL_FEATURES
  6
Continuous
 62
     7
100
AcDbLine
 10
70.841541
 20
134.990741
 30
0.0
 11
70.841541
 21
135.116928
 31
0.0
  0
LINE
  5
2C2
330
20B
100
AcDbEntity
  8
7_ALL_FEATURES
  6
Continuous
 62
     7
100
AcDbLine
 10
68.665341
 20
135.116928
 30
0.0
 11
68.665341
 21
134.990741
 31
0.0
  0
LINE
  5
2C3
330
20B
100
AcDbEntity
  8
7_ALL_FEATURES
  6
Continuous
 62
     7
100
AcDbLine
 10
68.665341
 20
136.40187
 30
0.0
 11
68.665341
 21
136.369384
 31
0.0
  0
LINE
  5
2C4
330
20B
100
AcDbEntity
  8
7_ALL_FEATURES
  6
Continuous
 62
     7
100
AcDbLine
 10
70.841541
 20
136.369384
 30
0.0
 11
70.841541
 21
136.40187
 31
0.0
  0
LINE
  5
2C5
330
20B
100
AcDbEntity
  8
7_ALL_FEATURES
  6
Continuous
 62
     7
100
AcDbLine
 10
67.515341
 20
136.40187
 30
0.0
 11
67.515341
 21
136.369384
 31
0.0
  0
LINE
  5
2C6
330
20B
100
AcDbEntity
  8
7_ALL_FEATURES
  6
Continuous
 62
     7
100
AcDbLine
 10
70.841541
 20
136.276563
 30
0.0
 11
70.841541
 21
136.369384
 31
0.0
  0
LINE
  5
2C7
330
20B
100
AcDbEntity
  8
7_ALL_FEATURES
  6
Continuous
 62
     7
100
AcDbLine
 10
68.665341
 20
136.369384
 30
0.0
 11
68.665341
 21
136.276563
 31
0.0
  0
ARC
  5
2C8
330
20B
100
AcDbEntity
  8
7_ALL_FEATURES
  6
Continuous
 62
     7
100
AcDbCircle
 10
67.612961
 20
136.369384
 30
0.0
 40
0.0976200982
100
AcDbArc
 50
180.0
 51
251.959814
  0
ARC
  5
2C9
330
20B
100
AcDbEntity
  8
7_ALL_FEATURES
  6
Continuous
 62
     7
100
AcDbCircle
 10
67.612961
 20
135.116928
 30
0.0
 40
0.0976201153
100
AcDbArc
 50
94.794126
 51
180.0
  0
ARC
  5
2CA
330
20B
100
AcDbEntity
  8
7_ALL_FEATURES
  6
Continuous
 62
     7
100
AcDbCircle
 10
71.917721
 20
136.369384
 30
0.0
 40
0.0976200982
100
AcDbArc
 50
288.040186
 51
360.0
  0
LINE
  5
2CB
330
20B
100
AcDbEntity
  8
7_ALL_FEATURES
  6
Continuous
 62
     7
100
AcDbLine
 10
70.841541
 20
135.116928
 30
0.0
 11
70.841541
 21
135.214206
 31
0.0
  0
LINE
  5
2CC
330
20B
100
AcDbEntity
  8
7_ALL_FEATURES
  6
Continuous
 62
     7
100
AcDbLine
 10
68.665341
 20
135.214206
 30
0.0
 11
68.665341
 21
135.116928
 31
0.0
  0
LINE
  5
2CD
330
20B
100
AcDbEntity
  8
7_ALL_FEATURES
  6
Continuous
 62
     7
100
AcDbLine
 10
72.015341
 20
136.40187
 30
0.0
 11
72.015341
 21
136.369384
 31
0.0
  0
LINE
  5
2CE
330
20B
100
AcDbEntity
  8
7_ALL_FEATURES
  6
Continuous
 62
     7
100
AcDbLine
 10
68.665341
 20
135.262139
 30
0.0
 11
68.665341
 21
135.214206
 31
0.0
  0
LINE
  5
2CF
330
20B
100
AcDbEntity
  8
7_ALL_FEATURES
  6
Continuous
 62
     7
100
AcDbLine
 10
71.947952
 20
136.276563
 30
0.0
 11
71.020913
 21
135.997986
 31
0.0
  0
LINE
  5
2D0
330
20B
100
AcDbEntity
  8
7_ALL_FEATURES
  6
Continuous
 62
     7
100
AcDbLine
 10
70.841541
 20
135.214206
 30
0.0
 11
70.841541
 21
135.263444
 31
0.0
  0
LINE
  5
2D1
330
20B
100
AcDbEntity
  8
7_ALL_FEATURES
  6
Continuous
 62
     7
100
AcDbLine
 10
68.494163
 20
135.282782
 30
0.0
 11
67.604802
 21
135.214206
 31
0.0
  0
ARC
  5
2D2
330
20B
100
AcDbEntity
  8
7_ALL_FEATURES
  6
Continuous
 62
     7
100
AcDbCircle
 10
68.486004
 20
135.38006
 30
0.0
 40
0.0976200982
100
AcDbArc
 50
274.794115
 51
339.028982
  0
LINE
  5
2D3
330
20B
100
AcDbEntity
  8
7_ALL_FEATURES
  6
Continuous
 62
     7
100
AcDbLine
 10
67.58273
 20
136.276563
 30
0.0
 11
68.509769
 21
135.997986
 31
0.0
  0
LINE
  5
2D4
330
20B
100
AcDbEntity
  8
7_ALL_FEATURES
  6
Continuous
 62
     7
100
AcDbLine
 10
68.665341
 20
136.276563
 30
0.0
 11
68.665341
 21
136.083126
 31
0.0
  0
LINE
  5
2D5
330
20B
100
AcDbEntity
  8
7_ALL_FEATURES
  6
Continuous
 62
     7
100
AcDbLine
 10
70.841541
 20
136.078041
 30
0.0
 11
70.841541
 21
136.276563
 31
0.0
  0
ARC
  5
2D6
330
20B
100
AcDbEntity
  8
7_ALL_FEATURES
  6
Continuous
 62
     7
100
AcDbCircle
 10
68.479538
 20
135.905165
 30
0.0
 40
0.0976200982
100
AcDbArc
 50
359.565949
 51
71.959814
  0
LINE
  5
2D7
330
20B
100
AcDbEntity
  8
7_ALL_FEATURES
  6
Continuous
 62
     7
100
AcDbLine
 10
68.577157
 20
135.904425
 30
0.0
 11
68.577157
 21
135.345123
 31
0.0
  0
LINE
  5
2D8
330
20B
100
AcDbEntity
  8
7_ALL_FEATURES
  6
Continuous
 62
     7
100
AcDbLine
 10
70.953525
 20
135.904425
 30
0.0
 11
70.953525
 21
135.345123
 31
0.0
  0
ARC
  5
2D9
330
20B
100
AcDbEntity
  8
7_ALL_FEATURES
  6
Continuous
 62
     7
100
AcDbCircle
 10
71.051144
 20
135.905165
 30
0.0
 40
0.0976200982
100
AcDbArc
 50
108.040186
 51
180.434051
  0
ARC
  5
2DA
330
20B
100
AcDbEntity
  8
7_ALL_FEATURES
  6
Continuous
 62
     7
100
AcDbCircle
 10
71.044678
 20
135.38006
 30
0.0
 40
0.0976200982
100
AcDbArc
 50
200.971018
 51
265.205885
  0
LINE
  5
2DB
330
20B
100
AcDbEntity
  8
7_ALL_FEATURES
  6
Continuous
 62
     9
100
AcDbLine
 10
71.741262
 20
133.612098
 30
0.0
 11
72.015341
 21
133.612098
 31
0.0
  0
LINE
  5
2DC
330
20B
100
AcDbEntity
  8
7_ALL_FEATURES
  6
Continuous
 62
     9
100
AcDbLine
 10
67.515341
 20
133.738285
 30
0.0
 11
67.78942
 21
133.738285
 31
0.0
  0
LINE
  5
2DD
330
20B
100
AcDbEntity
  8
7_ALL_FEATURES
  6
Continuous
 62
     9
100
AcDbLine
 10
68.665339
 20
133.738285
 30
0.0
 11
70.841542
 21
133.738285
 31
0.0
  0
SPLINE
  5
2DE
330
20B
100
AcDbEntity
  8
7_ALL_FEATURES
  6
Continuous
 62
     7
100
AcDbSpline
 70
     0
 71
     3
 72
    11
 73
     7
 74
     0
 42
0.000000001
 43
0.0000001
 40
0.0
 40
0.0
 40
0.0
 40
0.0
 40
0.2496262527
 40
0.4994825254
 40
0.7497177145
 40
1.0
 40
1.0
 40
1.0
 40
1.0
 10
67.7894125484
 20
133.738284587
 30
0.0
 10
67.7894125507
 20
133.7511403888
 30
0.0
 10
67.7954673698
 20
133.7771966304
 30
0.0
 10
67.8197411436
 20
133.808501042
 30
0.0
 10
67.8534468571
 20
133.8288716546
 30
0.0
 10
67.8790605422
 20
133.8346300987
 30
0.0
 10
67.8919163141
 20
133.8355631563
 30
0.0
  0
LINE
  5
2DF
330
20B
100
AcDbEntity
  8
7_ALL_FEATURES
  6
Continuous
 62
     7
100
AcDbLine
 10
68.665349
 20
132.41771
 30
0.0
 11
70.841536
 21
132.41771
 31
0.0
  0
SPLINE
  5
2E0
330
20B
100
AcDbEntity
  8
7_ALL_FEATURES
  6
Continuous
 62
     7
100
AcDbSpline
 70
     0
 71
     3
 72
    11
 73
     7
 74
     0
 42
0.000000001
 43
0.0000001
 40
0.0
 40
0.0
 40
0.0
 40
0.0
 40
0.2502866003
 40
0.5005247215
 40
0.7503775325
 40
1.0
 40
1.0
 40
1.0
 40
1.0
 10
71.6387655073
 20
133.8355631563
 30
0.0
 10
71.6516215
 20
133.8346300827
 30
0.0
 10
71.6772355359
 20
133.8288714261
 30
0.0
 10
71.7109413256
 20
133.8085005089
 30
0.0
 10
71.7352146107
 20
133.7771960338
 30
0.0
 10
71.741269273
 20
133.751140193
 30
0.0
 10
71.741269273
 20
133.738284587
 30
0.0
  0
LINE
  5
2E1
330
20B
100
AcDbEntity
  8
7_ALL_FEATURES
  6
Continuous
 62
     9
100
AcDbLine
 10
71.741262
 20
133.738285
 30
0.0
 11
72.015341
 21
133.738285
 31
0.0
  0
LINE
  5
2E2
330
20B
100
AcDbEntity
  8
7_ALL_FEATURES
  6
Continuous
 62
     7
100
AcDbLine
 10
71.252677
 20
132.417709
 30
0.0
 11
71.208127
 21
131.627847
 31
0.0
  0
ARC
  5
2E3
330
20B
100
AcDbEntity
  8
7_ALL_FEATURES
  6
Continuous
 62
     7
100
AcDbCircle
 10
72.375245
 20
67.757876
 30
0.0
 40
66.2296075919
100
AcDbArc
 50
93.211149
 51
93.881533
  0
ARC
  5
2E4
330
20B
100
AcDbEntity
  8
7_ALL_FEATURES
  6
Continuous
 62
     7
100
AcDbCircle
 10
67.999901
 20
-11.583911
 30
0.0
 40
144.0383528795
100
AcDbArc
 50
88.705996
 51
88.869575
  0
LINE
  5
2E5
330
20B
100
AcDbEntity
  8
7_ALL_FEATURES
  6
Continuous
 62
     7
100
AcDbLine
 10
68.665347
 20
133.835564
 30
0.0
 11
70.841533
 21
133.835565
 31
0.0
  0
LINE
  5
2E6
330
20B
100
AcDbEntity
  8
7_ALL_FEATURES
  6
Continuous
 62
     7
100
AcDbLine
 10
71.252665
 20
132.41771
 30
0.0
 11
71.601199
 21
132.417709
 31
0.0
  0
ARC
  5
2E7
330
20B
100
AcDbEntity
  8
7_ALL_FEATURES
  6
Continuous
 62
     7
100
AcDbCircle
 10
67.234413
 20
69.001372
 30
0.0
 40
64.9836181236
100
AcDbArc
 50
86.113722
 51
86.817975
  0
LINE
  5
2E8
330
20B
100
AcDbEntity
  8
7_ALL_FEATURES
  6
Continuous
 62
     7
100
AcDbLine
 10
70.953525
 20
132.435661
 30
0.0
 11
70.841541
 21
132.435661
 31
0.0
  0
LINE
  5
2E9
330
20B
100
AcDbEntity
  8
7_ALL_FEATURES
  6
Continuous
 62
     7
100
AcDbLine
 10
70.841541
 20
132.435661
 30
0.0
 11
68.686834
 21
132.435661
 31
0.0
  0
LINE
  5
2EA
330
20B
100
AcDbEntity
  8
7_ALL_FEATURES
  6
Continuous
 62
     7
100
AcDbLine
 10
68.686834
 20
132.435661
 30
0.0
 11
68.577157
 21
132.435661
 31
0.0
  0
LINE
  5
2EB
330
20B
100
AcDbEntity
  8
7_ALL_FEATURES
  6
Continuous
 62
     7
100
AcDbLine
 10
71.638745
 20
133.835564
 30
0.0
 11
71.925879
 21
133.835563
 31
0.0
  0
LINE
  5
2EC
330
20B
100
AcDbEntity
  8
7_ALL_FEATURES
  6
Continuous
 62
     7
100
AcDbLine
 10
67.604802
 20
133.835563
 30
0.0
 11
67.891936
 21
133.835564
 31
0.0
  0
LINE
  5
2ED
330
20B
100
AcDbEntity
  8
7_ALL_FEATURES
  6
Continuous
 62
     7
100
AcDbLine
 10
70.953525
 20
133.966479
 30
0.0
 11
68.577157
 21
133.966479
 31
0.0
  0
LINE
  5
2EE
330
20B
100
AcDbEntity
  8
7_ALL_FEATURES
  6
Continuous
 62
     7
100
AcDbLine
 10
68.494163
 20
133.904139
 30
0.0
 11
68.665341
 21
133.90414
 31
0.0
  0
LINE
  5
2EF
330
20B
100
AcDbEntity
  8
7_ALL_FEATURES
  6
Continuous
 62
     7
100
AcDbLine
 10
68.665341
 20
133.90414
 30
0.0
 11
70.829219
 21
133.90414
 31
0.0
  0
LINE
  5
2F0
330
20B
100
AcDbEntity
  8
7_ALL_FEATURES
  6
Continuous
 62
     7
100
AcDbLine
 10
70.829219
 20
133.90414
 30
0.0
 11
71.036519
 21
133.904139
 31
0.0
  0
LINE
  5
2F1
330
20B
100
AcDbEntity
  8
7_ALL_FEATURES
  6
Continuous
 62
     7
100
AcDbLine
 10
71.020913
 20
134.619343
 30
0.0
 11
68.509769
 21
134.619343
 31
0.0
  0
LINE
  5
2F2
330
20B
100
AcDbEntity
  8
7_ALL_FEATURES
  6
Continuous
 62
     7
100
AcDbLine
 10
71.020913
 20
133.2407
 30
0.0
 11
68.509769
 21
133.2407
 31
0.0
  0
LINE
  5
2F3
330
20B
100
AcDbEntity
  8
7_ALL_FEATURES
  6
Continuous
 62
     7
100
AcDbLine
 10
71.565296
 20
131.627847
 30
0.0
 11
71.208123
 21
131.627838
 31
0.0
  0
LINE
  5
2F4
330
20B
100
AcDbEntity
  8
7_ALL_FEATURES
  6
Continuous
 62
     7
100
AcDbLine
 10
68.577157
 20
133.147139
 30
0.0
 11
70.953525
 21
133.147139
 31
0.0
  0
LINE
  5
2F5
330
20B
100
AcDbEntity
  8
7_ALL_FEATURES
  6
Continuous
 62
     7
100
AcDbLine
 10
71.947952
 20
133.519277
 30
0.0
 11
71.664157
 21
133.519272
 31
0.0
  0
SPLINE
  5
2F6
330
20B
100
AcDbEntity
  8
7_ALL_FEATURES
  6
Continuous
 62
     7
100
AcDbSpline
 70
     0
 71
     3
 72
     9
 73
     5
 74
     0
 42
0.000000001
 43
0.0000001
 40
0.0
 40
0.0
 40
0.0
 40
0.0
 40
0.500004069
 40
1.0
 40
1.0
 40
1.0
 40
1.0
 10
71.6641786867
 20
133.5192770819
 30
0.0
 10
71.5277129199
 20
133.4836006803
 30
0.0
 10
71.254338725
 20
133.4139427609
 30
0.0
 10
70.9795107559
 20
133.3500719144
 30
0.0
 10
70.8415412205
 20
133.3207551815
 30
0.0
  0
SPLINE
  5
2F7
330
20B
100
AcDbEntity
  8
7_ALL_FEATURES
  6
Continuous
 62
     7
100
AcDbSpline
 70
     0
 71
     3
 72
     9
 73
     5
 74
     0
 42
0.000000001
 43
0.0000001
 40
0.0
 40
0.0
 40
0.0
 40
0.0
 40
0.5000043435
 40
1.0
 40
1.0
 40
1.0
 40
1.0
 10
71.2081272483
 20
131.6278465439
 30
0.0
 10
71.1492710699
 20
131.5405335198
 30
0.0
 10
71.0298105785
 20
131.3670800035
 30
0.0
 10
70.9054729056
 20
131.1970449658
 30
0.0
 10
70.8415412205
 20
131.1133791528
 30
0.0
  0
LINE
  5
2F8
330
20B
100
AcDbEntity
  8
7_ALL_FEATURES
  6
Continuous
 62
     7
100
AcDbLine
 10
70.841532
 20
133.51927
 30
0.0
 11
68.665347
 21
133.519272
 31
0.0
  0
LINE
  5
2F9
330
20B
100
AcDbEntity
  8
7_ALL_FEATURES
  6
Continuous
 62
     7
100
AcDbLine
 10
68.577157
 20
134.525782
 30
0.0
 11
70.953525
 21
134.525782
 31
0.0
  0
LINE
  5
2FA
330
20B
100
AcDbEntity
  8
7_ALL_FEATURES
  6
Continuous
 62
     7
100
AcDbLine
 10
71.947952
 20
134.89792
 30
0.0
 11
71.664157
 21
134.897915
 31
0.0
  0
SPLINE
  5
2FB
330
20B
100
AcDbEntity
  8
7_ALL_FEATURES
  6
Continuous
 62
     7
100
AcDbSpline
 70
     0
 71
     3
 72
     9
 73
     5
 74
     0
 42
0.000000001
 43
0.0000001
 40
0.0
 40
0.0
 40
0.0
 40
0.0
 40
0.500004069
 40
1.0
 40
1.0
 40
1.0
 40
1.0
 10
71.6641786867
 20
134.8979201484
 30
0.0
 10
71.5277129199
 20
134.8622437468
 30
0.0
 10
71.254338725
 20
134.7925858274
 30
0.0
 10
70.9795107559
 20
134.7287149809
 30
0.0
 10
70.8415412205
 20
134.699398248
 30
0.0
  0
LINE
  5
2FC
330
20B
100
AcDbEntity
  8
7_ALL_FEATURES
  6
Continuous
 62
     7
100
AcDbLine
 10
70.841542
 20
131.627839
 30
0.0
 11
68.665339
 21
131.627837
 31
0.0
  0
SPLINE
  5
2FD
330
20B
100
AcDbEntity
  8
7_ALL_FEATURES
  6
Continuous
 62
     7
100
AcDbSpline
 70
     0
 71
     3
 72
     8
 73
     4
 74
     0
 42
0.000000001
 43
0.0000001
 40
0.0
 40
0.0
 40
0.0
 40
0.0
 40
1.0
 40
1.0
 40
1.0
 40
1.0
 10
68.6653409107
 20
131.1446955249
 30
0.0
 10
68.5462658871
 20
131.3022207007
 30
0.0
 10
68.4329285198
 20
131.4641070125
 30
0.0
 10
68.3225545731
 20
131.6278465439
 30
0.0
  0
LINE
  5
2FE
330
20B
100
AcDbEntity
  8
7_ALL_FEATURES
  6
Continuous
 62
     7
100
AcDbLine
 10
68.322559
 20
131.627838
 30
0.0
 11
67.965385
 21
131.627847
 31
0.0
  0
SPLINE
  5
2FF
330
20B
100
AcDbEntity
  8
7_ALL_FEATURES
  6
Continuous
 62
     7
100
AcDbSpline
 70
     0
 71
     3
 72
     9
 73
     5
 74
     0
 42
0.000000001
 43
0.0000001
 40
0.0
 40
0.0
 40
0.0
 40
0.0
 40
0.4999964175
 40
1.0
 40
1.0
 40
1.0
 40
1.0
 10
68.6653409107
 20
133.3258399588
 30
0.0
 10
68.5314016184
 20
133.3546098209
 30
0.0
 10
68.2645472092
 20
133.4169272404
 30
0.0
 10
67.9990448895
 20
133.4846265393
 30
0.0
 10
67.8665031347
 20
133.5192770819
 30
0.0
  0
LINE
  5
300
330
20B
100
AcDbEntity
  8
7_ALL_FEATURES
  6
Continuous
 62
     7
100
AcDbLine
 10
70.841532
 20
134.897913
 30
0.0
 11
68.665347
 21
134.897915
 31
0.0
  0
LINE
  5
301
330
20B
100
AcDbEntity
  8
7_ALL_FEATURES
  6
Continuous
 62
     7
100
AcDbLine
 10
67.866525
 20
133.519272
 30
0.0
 11
67.58273
 21
133.519277
 31
0.0
  0
SPLINE
  5
302
330
20B
100
AcDbEntity
  8
7_ALL_FEATURES
  6
Continuous
 62
     7
100
AcDbSpline
 70
     0
 71
     3
 72
     9
 73
     5
 74
     0
 42
0.000000001
 43
0.0000001
 40
0.0
 40
0.0
 40
0.0
 40
0.0
 40
0.4999964175
 40
1.0
 40
1.0
 40
1.0
 40
1.0
 10
68.6653409107
 20
134.7044830252
 30
0.0
 10
68.5314016184
 20
134.7332528873
 30
0.0
 10
68.2645472092
 20
134.7955703069
 30
0.0
 10
67.9990448895
 20
134.8632696057
 30
0.0
 10
67.8665031347
 20
134.8979201484
 30
0.0
  0
LINE
  5
303
330
20B
100
AcDbEntity
  8
7_ALL_FEATURES
  6
Continuous
 62
     7
100
AcDbLine
 10
67.866525
 20
134.897915
 30
0.0
 11
67.58273
 21
134.89792
 31
0.0
  0
SPLINE
  5
304
330
20B
100
AcDbEntity
  8
7_ALL_FEATURES
  6
Continuous
 62
     7
100
AcDbSpline
 70
     0
 71
     3
 72
    11
 73
     7
 74
     0
 42
0.000000001
 43
0.0000001
 40
0.0
 40
0.0
 40
0.0
 40
0.0
 40
0.2501364238
 40
0.5001610833
 40
0.7500417017
 40
1.0
 40
1.0
 40
1.0
 40
1.0
 10
67.8665031347
 20
134.8979201484
 30
0.0
 10
67.8561537463
 20
134.9008507929
 30
0.0
 10
67.8361080328
 20
134.9094613472
 30
0.0
 10
67.8109083263
 20
134.9303640321
 30
0.0
 10
67.7935854357
 20
134.9582948817
 30
0.0
 10
67.7894125484
 20
134.9799925332
 30
0.0
 10
67.7894125484
 20
134.990741198
 30
0.0
  0
SPLINE
  5
305
330
20B
100
AcDbEntity
  8
7_ALL_FEATURES
  6
Continuous
 62
     7
100
AcDbSpline
 70
     0
 71
     3
 72
    11
 73
     7
 74
     0
 42
0.000000001
 43
0.0000001
 40
0.0
 40
0.0
 40
0.0
 40
0.0
 40
0.2499631163
 40
0.4998457702
 40
0.7498671425
 40
1.0
 40
1.0
 40
1.0
 40
1.0
 10
71.741269273
 20
134.990741198
 30
0.0
 10
71.741269273
 20
134.9799923273
 30
0.0
 10
71.737096172
 20
134.9582943908
 30
0.0
 10
71.7197730411
 20
134.9303635178
 30
0.0
 10
71.6945733754
 20
134.9094611285
 30
0.0
 10
71.6745279263
 20
134.9008507508
 30
0.0
 10
71.6641786867
 20
134.8979201484
 30
0.0
  0
LINE
  5
306
330
20B
100
AcDbEntity
  8
7_ALL_FEATURES
  6
Continuous
 62
     7
100
AcDbLine
 10
67.789413
 20
134.990741
 30
0.0
 11
67.789413
 21
135.116928
 31
0.0
  0
LINE
  5
307
330
20B
100
AcDbEntity
  8
7_ALL_FEATURES
  6
Continuous
 62
     9
100
AcDbLine
 10
67.515341
 20
134.990741
 30
0.0
 11
67.78942
 21
134.990741
 31
0.0
  0
LINE
  5
308
330
20B
100
AcDbEntity
  8
7_ALL_FEATURES
  6
Continuous
 62
     9
100
AcDbLine
 10
68.665339
 20
134.990741
 30
0.0
 11
70.841542
 21
134.990741
 31
0.0
  0
LINE
  5
309
330
20B
100
AcDbEntity
  8
7_ALL_FEATURES
  6
Continuous
 62
     7
100
AcDbLine
 10
71.741269
 20
135.116928
 30
0.0
 11
71.741269
 21
134.990741
 31
0.0
  0
LINE
  5
30A
330
20B
100
AcDbEntity
  8
7_ALL_FEATURES
  6
Continuous
 62
     9
100
AcDbLine
 10
71.741262
 20
134.990741
 30
0.0
 11
72.015341
 21
134.990741
 31
0.0
  0
LINE
  5
30B
330
20B
100
AcDbEntity
  8
7_ALL_FEATURES
  6
Continuous
 62
     9
100
AcDbLine
 10
71.741262
 20
136.369384
 30
0.0
 11
72.015341
 21
136.369384
 31
0.0
  0
LINE
  5
30C
330
20B
100
AcDbEntity
  8
7_ALL_FEATURES
  6
Continuous
 62
     7
100
AcDbLine
 10
71.741269
 20
136.40187
 30
0.0
 11
71.741269
 21
136.369384
 31
0.0
  0
LINE
  5
30D
330
20B
100
AcDbEntity
  8
7_ALL_FEATURES
  6
Continuous
 62
     9
100
AcDbLine
 10
68.665339
 20
136.369384
 30
0.0
 11
70.841542
 21
136.369384
 31
0.0
  0
LINE
  5
30E
330
20B
100
AcDbEntity
  8
7_ALL_FEATURES
  6
Continuous
 62
     9
100
AcDbLine
 10
67.515341
 20
136.369384
 30
0.0
 11
67.78942
 21
136.369384
 31
0.0
  0
LINE
  5
30F
330
20B
100
AcDbEntity
  8
7_ALL_FEATURES
  6
Continuous
 62
     7
100
AcDbLine
 10
67.789413
 20
136.369384
 30
0.0
 11
67.789413
 21
136.40187
 31
0.0
  0
SPLINE
  5
310
330
20B
100
AcDbEntity
  8
7_ALL_FEATURES
  6
Continuous
 62
     7
100
AcDbSpline
 70
     0
 71
     3
 72
    11
 73
     7
 74
     0
 42
0.000000001
 43
0.0000001
 40
0.0
 40
0.0
 40
0.0
 40
0.0
 40
0.2499631162
 40
0.49984577
 40
0.7498671424
 40
1.0
 40
1.0
 40
1.0
 40
1.0
 10
71.741269273
 20
136.3693842644
 30
0.0
 10
71.741269273
 20
136.3586353937
 30
0.0
 10
71.737096172
 20
136.3369374572
 30
0.0
 10
71.7197730411
 20
136.3090065843
 30
0.0
 10
71.6945733754
 20
136.2881041949
 30
0.0
 10
71.6745279263
 20
136.2794938172
 30
0.0
 10
71.6641786867
 20
136.2765632148
 30
0.0
  0
SPLINE
  5
311
330
20B
100
AcDbEntity
  8
7_ALL_FEATURES
  6
Continuous
 62
     7
100
AcDbSpline
 70
     0
 71
     3
 72
    11
 73
     7
 74
     0
 42
0.000000001
 43
0.0000001
 40
0.0
 40
0.0
 40
0.0
 40
0.0
 40
0.2501364238
 40
0.5001610833
 40
0.7500417017
 40
1.0
 40
1.0
 40
1.0
 40
1.0
 10
67.8665031347
 20
136.2765632148
 30
0.0
 10
67.8561537463
 20
136.2794938594
 30
0.0
 10
67.8361080328
 20
136.2881044137
 30
0.0
 10
67.8109083263
 20
136.3090070986
 30
0.0
 10
67.7935854357
 20
136.3369379481
 30
0.0
 10
67.7894125484
 20
136.3586355996
 30
0.0
 10
67.7894125484
 20
136.3693842644
 30
0.0
  0
LINE
  5
312
330
20B
100
AcDbEntity
  8
7_ALL_FEATURES
  6
Continuous
 62
     7
100
AcDbLine
 10
68.322555
 20
131.627847
 30
0.0
 11
68.278005
 21
132.417709
 31
0.0
  0
SPLINE
  5
313
330
20B
100
AcDbEntity
  8
7_ALL_FEATURES
  6
Continuous
 62
     7
100
AcDbSpline
 70
     0
 71
     3
 72
    11
 73
     7
 74
     0
 42
0.000000001
 43
0.0000001
 40
0.0
 40
0.0
 40
0.0
 40
0.0
 40
0.2497069449
 40
0.499554361
 40
0.7497388726
 40
1.0
 40
1.0
 40
1.0
 40
1.0
 10
67.7894125484
 20
135.1169276535
 30
0.0
 10
67.7894125507
 20
135.1297876123
 30
0.0
 10
67.7954695913
 20
135.1558481506
 30
0.0
 10
67.8197491345
 20
135.1871492195
 30
0.0
 10
67.8534513965
 20
135.2075163415
 30
0.0
 10
67.8790616276
 20
135.2132732439
 30
0.0
 10
67.8919163141
 20
135.2142062227
 30
0.0
  0
ARC
  5
314
330
20B
100
AcDbEntity
  8
7_ALL_FEATURES
  6
Continuous
 62
     7
100
AcDbCircle
 10
71.587095
 20
-14.188636
 30
0.0
 40
146.643685367
100
AcDbArc
 50
91.141647
 51
91.293019
  0
LINE
  5
315
330
20B
100
AcDbEntity
  8
7_ALL_FEATURES
  6
Continuous
 62
     9
100
AcDbLine
 10
67.515341
 20
135.116928
 30
0.0
 11
67.78942
 21
135.116928
 31
0.0
  0
LINE
  5
316
330
20B
100
AcDbEntity
  8
7_ALL_FEATURES
  6
Continuous
 62
     7
100
AcDbLine
 10
67.929483
 20
132.417709
 30
0.0
 11
68.278017
 21
132.41771
 31
0.0
  0
LINE
  5
317
330
20B
100
AcDbEntity
  8
7_ALL_FEATURES
  6
Continuous
 62
     9
100
AcDbLine
 10
68.665339
 20
135.116928
 30
0.0
 11
70.841542
 21
135.116928
 31
0.0
  0
SPLINE
  5
318
330
20B
100
AcDbEntity
  8
7_ALL_FEATURES
  6
Continuous
 62
     7
100
AcDbSpline
 70
     0
 71
     3
 72
    11
 73
     7
 74
     0
 42
0.000000001
 43
0.0000001
 40
0.0
 40
0.0
 40
0.0
 40
0.0
 40
0.2502866003
 40
0.5005247215
 40
0.7503775325
 40
1.0
 40
1.0
 40
1.0
 40
1.0
 10
71.6387655073
 20
135.2142062227
 30
0.0
 10
71.6516215
 20
135.2132731491
 30
0.0
 10
71.6772355359
 20
135.2075144925
 30
0.0
 10
71.7109413256
 20
135.1871435753
 30
0.0
 10
71.7352146107
 20
135.1558391003
 30
0.0
 10
71.741269273
 20
135.1297832595
 30
0.0
 10
71.741269273
 20
135.1169276535
 30
0.0
  0
LINE
  5
319
330
20B
100
AcDbEntity
  8
7_ALL_FEATURES
  6
Continuous
 62
     9
100
AcDbLine
 10
71.741262
 20
135.116928
 30
0.0
 11
72.015341
 21
135.116928
 31
0.0
  0
ARC
  5
31A
330
20B
100
AcDbEntity
  8
7_ALL_FEATURES
  6
Continuous
 62
     7
100
AcDbCircle
 10
72.375245
 20
69.136519
 30
0.0
 40
66.2296075929
100
AcDbArc
 50
93.211149
 51
93.881533
  0
SPLINE
  5
31B
330
20B
100
AcDbEntity
  8
7_ALL_FEATURES
  6
Continuous
 62
     7
100
AcDbSpline
 70
     0
 71
     3
 72
    11
 73
     7
 74
     0
 42
0.000000001
 43
0.0000001
 40
0.0
 40
0.0
 40
0.0
 40
0.0
 40
0.2501364238
 40
0.5001610833
 40
0.7500417017
 40
1.0
 40
1.0
 40
1.0
 40
1.0
 10
67.8665031347
 20
133.5192770819
 30
0.0
 10
67.8561537463
 20
133.5222077265
 30
0.0
 10
67.8361080328
 20
133.5308182808
 30
0.0
 10
67.8109083263
 20
133.5517209657
 30
0.0
 10
67.7935854357
 20
133.5796518153
 30
0.0
 10
67.7894125484
 20
133.6013494667
 30
0.0
 10
67.7894125484
 20
133.6120981315
 30
0.0
  0
LINE
  5
31C
330
20B
100
AcDbEntity
  8
7_ALL_FEATURES
  6
Continuous
 62
     7
100
AcDbLine
 10
68.665347
 20
135.214207
 30
0.0
 11
70.841533
 21
135.214208
 31
0.0
  0
ARC
  5
31D
330
20B
100
AcDbEntity
  8
7_ALL_FEATURES
  6
Continuous
 62
     7
100
AcDbCircle
 10
67.234413
 20
70.380015
 30
0.0
 40
64.9836181228
100
AcDbArc
 50
86.113722
 51
86.817975
  0
LINE
  5
31E
330
20B
100
AcDbEntity
  8
7_ALL_FEATURES
  6
Continuous
 62
     7
100
AcDbLine
 10
71.638745
 20
135.214207
 30
0.0
 11
71.925879
 21
135.214206
 31
0.0
  0
LINE
  5
31F
330
20B
100
AcDbEntity
  8
7_ALL_FEATURES
  6
Continuous
 62
     7
100
AcDbLine
 10
67.604802
 20
135.214206
 30
0.0
 11
67.891936
 21
135.214207
 31
0.0
  0
LINE
  5
320
330
20B
100
AcDbEntity
  8
7_ALL_FEATURES
  6
Continuous
 62
     7
100
AcDbLine
 10
70.953525
 20
135.345123
 30
0.0
 11
68.577157
 21
135.345123
 31
0.0
  0
SPLINE
  5
321
330
20B
100
AcDbEntity
  8
7_ALL_FEATURES
  6
Continuous
 62
     7
100
AcDbSpline
 70
     0
 71
     3
 72
    11
 73
     7
 74
     0
 42
0.000000001
 43
0.0000001
 40
0.0
 40
0.0
 40
0.0
 40
0.0
 40
0.2499631163
 40
0.4998457702
 40
0.7498671425
 40
1.0
 40
1.0
 40
1.0
 40
1.0
 10
71.741269273
 20
133.6120981315
 30
0.0
 10
71.741269273
 20
133.6013492608
 30
0.0
 10
71.737096172
 20
133.5796513243
 30
0.0
 10
71.7197730411
 20
133.5517204514
 30
0.0
 10
71.6945733754
 20
133.530818062
 30
0.0
 10
71.6745279263
 20
133.5222076843
 30
0.0
 10
71.6641786867
 20
133.5192770819
 30
0.0
  0
LINE
  5
322
330
20B
100
AcDbEntity
  8
7_ALL_FEATURES
  6
Continuous
 62
     7
100
AcDbLine
 10
67.789413
 20
133.612098
 30
0.0
 11
67.789413
 21
133.738285
 31
0.0
  0
LINE
  5
323
330
20B
100
AcDbEntity
  8
7_ALL_FEATURES
  6
Continuous
 62
     7
100
AcDbLine
 10
67.866525
 20
136.276558
 30
0.0
 11
67.58273
 21
136.276563
 31
0.0
  0
SPLINE
  5
324
330
20B
100
AcDbEntity
  8
7_ALL_FEATURES
  6
Continuous
 62
     7
100
AcDbSpline
 70
     0
 71
     3
 72
     9
 73
     5
 74
     0
 42
0.000000001
 43
0.0000001
 40
0.0
 40
0.0
 40
0.0
 40
0.0
 40
0.4999964175
 40
1.0
 40
1.0
 40
1.0
 40
1.0
 10
68.6653409107
 20
136.0831260917
 30
0.0
 10
68.5314016184
 20
136.1118959538
 30
0.0
 10
68.2645472092
 20
136.1742133733
 30
0.0
 10
67.9990448895
 20
136.2419126722
 30
0.0
 10
67.8665031347
 20
136.2765632148
 30
0.0
  0
LINE
  5
325
330
20B
100
AcDbEntity
  8
7_ALL_FEATURES
  6
Continuous
 62
     7
100
AcDbLine
 10
70.841532
 20
136.276556
 30
0.0
 11
68.665347
 21
136.276558
 31
0.0
  0
LINE
  5
326
330
20B
100
AcDbEntity
  8
7_ALL_FEATURES
  6
Continuous
 62
     9
100
AcDbLine
 10
67.515341
 20
133.612098
 30
0.0
 11
67.78942
 21
133.612098
 31
0.0
  0
SPLINE
  5
327
330
20B
100
AcDbEntity
  8
7_ALL_FEATURES
  6
Continuous
 62
     7
100
AcDbSpline
 70
     0
 71
     3
 72
     9
 73
     5
 74
     0
 42
0.000000001
 43
0.0000001
 40
0.0
 40
0.0
 40
0.0
 40
0.0
 40
0.500004069
 40
1.0
 40
1.0
 40
1.0
 40
1.0
 10
71.6641786867
 20
136.2765632148
 30
0.0
 10
71.5277129199
 20
136.2408868132
 30
0.0
 10
71.254338725
 20
136.1712288938
 30
0.0
 10
70.9795107559
 20
136.1073580473
 30
0.0
 10
70.8415412205
 20
136.0780413144
 30
0.0
  0
LINE
  5
328
330
20B
100
AcDbEntity
  8
7_ALL_FEATURES
  6
Continuous
 62
     7
100
AcDbLine
 10
71.947952
 20
136.276563
 30
0.0
 11
71.664157
 21
136.276558
 31
0.0
  0
LINE
  5
329
330
20B
100
AcDbEntity
  8
7_ALL_FEATURES
  6
Continuous
 62
     7
100
AcDbLine
 10
68.577157
 20
135.904425
 30
0.0
 11
70.953525
 21
135.904425
 31
0.0
  0
LINE
  5
32A
330
20B
100
AcDbEntity
  8
7_ALL_FEATURES
  6
Continuous
 62
     7
100
AcDbLine
 10
71.020913
 20
135.997986
 30
0.0
 11
68.509769
 21
135.997986
 31
0.0
  0
LINE
  5
32B
330
20B
100
AcDbEntity
  8
7_ALL_FEATURES
  6
Continuous
 62
     9
100
AcDbLine
 10
68.665339
 20
133.612098
 30
0.0
 11
70.841542
 21
133.612098
 31
0.0
  0
LINE
  5
32C
330
20B
100
AcDbEntity
  8
7_ALL_FEATURES
  6
Continuous
 62
     7
100
AcDbLine
 10
68.494163
 20
135.282782
 30
0.0
 11
68.665341
 21
135.282783
 31
0.0
  0
LINE
  5
32D
330
20B
100
AcDbEntity
  8
7_ALL_FEATURES
  6
Continuous
 62
     7
100
AcDbLine
 10
68.665341
 20
135.282783
 30
0.0
 11
70.829219
 21
135.282783
 31
0.0
  0
LINE
  5
32E
330
20B
100
AcDbEntity
  8
7_ALL_FEATURES
  6
Continuous
 62
     7
100
AcDbLine
 10
70.829219
 20
135.282783
 30
0.0
 11
71.036519
 21
135.282782
 31
0.0
  0
LINE
  5
32F
330
20B
100
AcDbEntity
  8
7_ALL_FEATURES
  6
Continuous
 62
     7
100
AcDbLine
 10
71.741269
 20
133.738285
 30
0.0
 11
71.741269
 21
133.612098
 31
0.0
  0
LINE
  5
330
330
20B
100
AcDbEntity
  8
7_ALL_FEATURES
  6
Continuous
 62
     9
100
AcDbLine
 10
77.021661
 20
143.10885
 30
0.0
 11
72.722224
 21
143.10885
 31
0.0
  0
LINE
  5
331
330
20B
100
AcDbEntity
  8
7_ALL_FEATURES
  6
Continuous
 62
     9
100
AcDbLine
 10
72.701271
 20
143.70885
 30
0.0
 11
72.722224
 21
143.10885
 31
0.0
  0
LINE
  5
332
330
20B
100
AcDbEntity
  8
7_ALL_FEATURES
  6
Continuous
 62
     9
100
AcDbLine
 10
77.042614
 20
143.70885
 30
0.0
 11
72.701271
 21
143.70885
 31
0.0
  0
LINE
  5
333
330
20B
100
AcDbEntity
  8
7_ALL_FEATURES
  6
Continuous
 62
     9
100
AcDbLine
 10
77.021661
 20
143.10885
 30
0.0
 11
77.042614
 21
143.70885
 31
0.0
  0
LINE
  5
334
330
20B
100
AcDbEntity
  8
7_ALL_FEATURES
  6
Continuous
 62
     9
100
AcDbLine
 10
72.687791
 20
144.09489
 30
0.0
 11
77.056095
 21
144.09489
 31
0.0
  0
LINE
  5
335
330
20B
100
AcDbEntity
  8
7_ALL_FEATURES
  6
Continuous
 62
     9
100
AcDbLine
 10
72.607229
 20
146.40187
 30
0.0
 11
72.687791
 21
144.09489
 31
0.0
  0
LINE
  5
336
330
20B
100
AcDbEntity
  8
7_ALL_FEATURES
  6
Continuous
 62
     9
100
AcDbLine
 10
77.056095
 20
144.09489
 30
0.0
 11
77.136656
 21
146.40187
 31
0.0
  0
LINE
  5
337
330
20B
100
AcDbEntity
  8
7_ALL_FEATURES
  6
Continuous
 62
     9
100
AcDbLine
 10
88.056095
 20
144.09489
 30
0.0
 11
88.042614
 21
143.90187
 31
0.0
  0
LWPOLYLINE
  5
338
330
20B
100
AcDbEntity
  8
7_ALL_FEATURES
  6
Continuous
 62
     9
100
AcDbPolyline
 90
       16
 70
     0
 43
0.0
 10
88.056095
 20
144.09489
 10
88.05464
 20
144.074375
 10
88.053237
 20
144.054193
 10
88.051884
 20
144.034554
 10
88.05057
 20
144.015679
 10
88.049307
 20
143.99774
 10
88.048132
 20
143.980875
 10
88.047045
 20
143.965245
 10
88.046045
 20
143.951035
 10
88.045165
 20
143.938408
 10
88.044407
 20
143.927499
 10
88.043769
 20
143.918413
 10
88.043268
 20
143.911239
 10
88.042912
 20
143.906055
 10
88.042694
 20
143.902919
 10
88.042614
 20
143.90187
  0
SPLINE
  5
339
330
20B
100
AcDbEntity
  8
7_ALL_FEATURES
  6
Continuous
 62
     9
100
AcDbSpline
 70
     0
 71
     3
 72
    17
 73
    13
 74
     0
 42
0.000000001
 43
0.0000001
 40
0.0
 40
0.0
 40
0.0
 40
0.0
 40
0.0059117181
 40
0.0206983835
 40
0.0447003537
 40
0.0778227613
 40
0.1703250984
 40
0.2944629006
 40
0.4456674897
 40
0.6182623973
 40
0.8058172573
 40
1.0
 40
1.0
 40
1.0
 40
1.0
 10
77.2559728588
 20
144.080930078
 30
0.0
 10
77.2559866612
 20
144.081325326
 30
0.0
 10
77.2542171913
 20
144.0819286326
 30
0.0
 10
77.2517236179
 20
144.0825736451
 30
0.0
 10
77.2467490533
 20
144.083386909
 30
0.0
 10
77.2369543817
 20
144.0846529963
 30
0.0
 10
77.2202195859
 20
144.0862362245
 30
0.0
 10
77.1957260488
 20
144.0880956487
 30
0.0
 10
77.1658009646
 20
144.0899689612
 30
0.0
 10
77.131645044
 20
144.0917850479
 30
0.0
 10
77.0945964784
 20
144.0934591001
 30
0.0
 10
77.0690774575
 20
144.0944370603
 30
0.0
 10
77.0560946934
 20
144.0948898761
 30
0.0
  0
LINE
  5
33A
330
20B
100
AcDbEntity
  8
7_ALL_FEATURES
  6
Continuous
 62
     9
100
AcDbLine
 10
77.056095
 20
144.09489
 30
0.0
 11
77.042614
 21
143.90187
 31
0.0
  0
LWPOLYLINE
  5
33B
330
20B
100
AcDbEntity
  8
7_ALL_FEATURES
  6
Continuous
 62
     9
100
AcDbPolyline
 90
       16
 70
     0
 43
0.0
 10
77.056095
 20
144.09489
 10
77.05464
 20
144.074375
 10
77.053237
 20
144.054193
 10
77.051884
 20
144.034554
 10
77.05057
 20
144.015679
 10
77.049307
 20
143.99774
 10
77.048132
 20
143.980875
 10
77.047045
 20
143.965245
 10
77.046045
 20
143.951035
 10
77.045165
 20
143.938408
 10
77.044407
 20
143.927499
 10
77.043769
 20
143.918413
 10
77.043268
 20
143.911239
 10
77.042912
 20
143.906055
 10
77.042694
 20
143.902919
 10
77.042614
 20
143.90187
  0
SPLINE
  5
33C
330
20B
100
AcDbEntity
  8
7_ALL_FEATURES
  6
Continuous
 62
     9
100
AcDbSpline
 70
     0
 71
     3
 72
    17
 73
    13
 74
     0
 42
0.000000001
 43
0.0000001
 40
0.0
 40
0.0
 40
0.0
 40
0.0
 40
0.1941858738
 40
0.3817687924
 40
0.5544109292
 40
0.7056499658
 40
0.8297659175
 40
0.9222261863
 40
0.9553377579
 40
0.9793228311
 40
0.9940940945
 40
1.0
 40
1.0
 40
1.0
 40
1.0
 10
77.0426138725
 20
143.7088496745
 30
0.0
 10
77.0555968631
 20
143.7083968507
 30
0.0
 10
77.0811180026
 20
143.7074187944
 30
0.0
 10
77.118171857
 20
143.7057445083
 30
0.0
 10
77.1523351475
 20
143.7039278135
 30
0.0
 10
77.1822642407
 20
143.7020541209
 30
0.0
 10
77.2067559024
 20
143.7001947191
 30
0.0
 10
77.223485497
 20
143.6986111469
 30
0.0
 10
77.2332758315
 20
143.6973461567
 30
0.0
 10
77.2382470476
 20
143.6965329013
 30
0.0
 10
77.2407391198
 20
143.6958886445
 30
0.0
 10
77.2425058267
 20
143.6952847356
 30
0.0
 10
77.2424920379
 20
143.6948898758
 30
0.0
  0
LINE
  5
33D
330
20B
100
AcDbEntity
  8
7_ALL_FEATURES
  6
Continuous
 62
     9
100
AcDbLine
 10
77.042614
 20
143.90187
 30
0.0
 11
77.042614
 21
143.70885
 31
0.0
  0
SPLINE
  5
33E
330
20B
100
AcDbEntity
  8
7_ALL_FEATURES
  6
Continuous
 62
     9
100
AcDbSpline
 70
     0
 71
     3
 72
    17
 73
    13
 74
     0
 42
0.000000001
 43
0.0000001
 40
0.0
 40
0.0
 40
0.0
 40
0.0
 40
0.0059117157
 40
0.0206983744
 40
0.0447003366
 40
0.0778227378
 40
0.170325047
 40
0.2944628199
 40
0.4456673964
 40
0.6182623266
 40
0.8058172364
 40
1.0
 40
1.0
 40
1.0
 40
1.0
 10
77.2215395762
 20
143.0948898758
 30
0.0
 10
77.2215533786
 20
143.0952851236
 30
0.0
 10
77.2197839098
 20
143.0958884305
 30
0.0
 10
77.2172903371
 20
143.0965334427
 30
0.0
 10
77.2123157741
 20
143.0973467065
 30
0.0
 10
77.2025211052
 20
143.0986127932
 30
0.0
 10
77.1857863138
 20
143.1001960215
 30
0.0
 10
77.1612927813
 20
143.1020554456
 30
0.0
 10
77.1313676984
 20
143.1039287583
 30
0.0
 10
77.0972117738
 20
143.1057448454
 30
0.0
 10
77.0601632019
 20
143.107418898
 30
0.0
 10
77.0346441763
 20
143.1083968585
 30
0.0
 10
77.0216614108
 20
143.1088496745
 30
0.0
  0
LINE
  5
33F
330
20B
100
AcDbEntity
  8
7_ALL_FEATURES
  6
Continuous
 62
     9
100
AcDbLine
 10
77.021661
 20
143.10885
 30
0.0
 11
77.021661
 21
142.90187
 31
0.0
  0
SPLINE
  5
340
330
20B
100
AcDbEntity
  8
7_ALL_FEATURES
  6
Continuous
 62
     9
100
AcDbSpline
 70
     0
 71
     3
 72
    17
 73
    13
 74
     0
 42
0.000000001
 43
0.0000001
 40
0.0
 40
0.0
 40
0.0
 40
0.0
 40
0.1941827636
 40
0.3817376734
 40
0.5543326036
 40
0.7055371801
 40
0.829674953
 40
0.9221772622
 40
0.9552996634
 40
0.9793016256
 40
0.9940882843
 40
1.0
 40
1.0
 40
1.0
 40
1.0
 10
72.7222238462
 20
143.1088496745
 30
0.0
 10
72.7092410807
 20
143.1083968585
 30
0.0
 10
72.6837220551
 20
143.107418898
 30
0.0
 10
72.6466734832
 20
143.1057448454
 30
0.0
 10
72.6125175586
 20
143.1039287583
 30
0.0
 10
72.5825924757
 20
143.1020554456
 30
0.0
 10
72.5580989432
 20
143.1001960215
 30
0.0
 10
72.5413641518
 20
143.0986127932
 30
0.0
 10
72.5315694828
 20
143.0973467065
 30
0.0
 10
72.5265949198
 20
143.0965334427
 30
0.0
 10
72.5241013472
 20
143.0958884305
 30
0.0
 10
72.5223318784
 20
143.0952851236
 30
0.0
 10
72.5223456808
 20
143.0948898758
 30
0.0
  0
LINE
  5
341
330
20B
100
AcDbEntity
  8
7_ALL_FEATURES
  6
Continuous
 62
     9
100
AcDbLine
 10
72.722224
 20
142.90187
 30
0.0
 11
72.722224
 21
143.10885
 31
0.0
  0
SPLINE
  5
342
330
20B
100
AcDbEntity
  8
7_ALL_FEATURES
  6
Continuous
 62
     9
100
AcDbSpline
 70
     0
 71
     3
 72
    17
 73
    13
 74
     0
 42
0.000000001
 43
0.0000001
 40
0.0
 40
0.0
 40
0.0
 40
0.0
 40
0.0059114444
 40
0.0206987388
 40
0.0447046985
 40
0.0778368762
 40
0.1703921895
 40
0.2945826812
 40
0.4458086127
 40
0.6183713508
 40
0.8058500992
 40
1.0
 40
1.0
 40
1.0
 40
1.0
 10
72.5013932191
 20
143.6948898758
 30
0.0
 10
72.5013794173
 20
143.6952851054
 30
0.0
 10
72.5031488635
 20
143.6958884832
 30
0.0
 10
72.5056427244
 20
143.6965334886
 30
0.0
 10
72.5106182834
 20
143.6973468795
 30
0.0
 10
72.5204173349
 20
143.698613443
 30
0.0
 10
72.5371599232
 20
143.7001969499
 30
0.0
 10
72.5616619099
 20
143.7020570236
 30
0.0
 10
72.5915898158
 20
143.7039301519
 30
0.0
 10
72.6257399389
 20
143.7057457521
 30
0.0
 10
72.6627790704
 20
143.7074194461
 30
0.0
 10
72.6882908159
 20
143.7083969351
 30
0.0
 10
72.7012713845
 20
143.7088496745
 30
0.0
  0
LINE
  5
343
330
20B
100
AcDbEntity
  8
7_ALL_FEATURES
  6
Continuous
 62
     9
100
AcDbLine
 10
72.701271
 20
143.70885
 30
0.0
 11
72.701271
 21
143.90187
 31
0.0
  0
SPLINE
  5
344
330
20B
100
AcDbEntity
  8
7_ALL_FEATURES
  6
Continuous
 62
     9
100
AcDbSpline
 70
     0
 71
     3
 72
    17
 73
    13
 74
     0
 42
0.000000001
 43
0.0000001
 40
0.0
 40
0.0
 40
0.0
 40
0.0
 40
0.1941827526
 40
0.3817376367
 40
0.5543325563
 40
0.7055371407
 40
0.8296749285
 40
0.9221772514
 40
0.9552996557
 40
0.9793016215
 40
0.9940882832
 40
1.0
 40
1.0
 40
1.0
 40
1.0
 10
72.6877905636
 20
144.0948898759
 30
0.0
 10
72.6748077989
 20
144.09443706
 30
0.0
 10
72.6492887757
 20
144.0934590997
 30
0.0
 10
72.612240207
 20
144.0917850473
 30
0.0
 10
72.5780842842
 20
144.0899689604
 30
0.0
 10
72.5481592005
 20
144.0880956479
 30
0.0
 10
72.5236656656
 20
144.0862362237
 30
0.0
 10
72.506930872
 20
144.0846529954
 30
0.0
 10
72.4971362018
 20
144.0833869084
 30
0.0
 10
72.4921616381
 20
144.0825736446
 30
0.0
 10
72.4896680651
 20
144.0819286322
 30
0.0
 10
72.4878985958
 20
144.0813253254
 30
0.0
 10
72.4879123982
 20
144.0809300776
 30
0.0
  0
LINE
  5
345
330
20B
100
AcDbEntity
  8
7_ALL_FEATURES
  6
Continuous
 62
     9
100
AcDbLine
 10
72.701271
 20
143.90187
 30
0.0
 11
72.687791
 21
144.09489
 31
0.0
  0
LWPOLYLINE
  5
346
330
20B
100
AcDbEntity
  8
7_ALL_FEATURES
  6
Continuous
 62
     9
100
AcDbPolyline
 90
       16
 70
     0
 43
0.0
 10
72.701271
 20
143.90187
 10
72.70119
 20
143.902926
 10
72.700971
 20
143.906075
 10
72.700615
 20
143.911275
 10
72.700114
 20
143.918453
 10
72.699476
 20
143.92753
 10
72.698719
 20
143.938429
 10
72.697839
 20
143.951055
 10
72.696839
 20
143.965269
 10
72.695751
 20
143.980912
 10
72.694573
 20
143.997809
 10
72.693307
 20
144.015791
 10
72.691992
 20
144.034688
 10
72.69064
 20
144.054311
 10
72.68924
 20
144.074448
 10
72.687791
 20
144.09489
  0
LINE
  5
347
330
20B
100
AcDbEntity
  8
7_ALL_FEATURES
  6
Continuous
 62
     7
100
AcDbLine
 10
57.871943
 20
169.40187
 30
0.0
 11
57.871943
 21
146.40187
 31
0.0
  0
LINE
  5
348
330
20B
100
AcDbEntity
  8
7_ALL_FEATURES
  6
Continuous
 62
     7
100
AcDbLine
 10
58.871943
 20
136.40187
 30
0.0
 11
57.871943
 21
136.40187
 31
0.0
  0
LINE
  5
349
330
20B
100
AcDbEntity
  8
7_ALL_FEATURES
  6
Continuous
 62
     7
100
AcDbLine
 10
58.871943
 20
136.40187
 30
0.0
 11
101.871943
 21
136.40187
 31
0.0
  0
LINE
  5
34A
330
20B
100
AcDbEntity
  8
7_ALL_FEATURES
  6
Continuous
 62
     7
100
AcDbLine
 10
102.871943
 20
136.40187
 30
0.0
 11
101.871943
 21
136.40187
 31
0.0
  0
LINE
  5
34B
330
20B
100
AcDbEntity
  8
7_ALL_FEATURES
  6
Continuous
 62
     7
100
AcDbLine
 10
102.871943
 20
169.40187
 30
0.0
 11
102.871943
 21
146.40187
 31
0.0
  0
LINE
  5
34C
330
20B
100
AcDbEntity
  8
7_ALL_FEATURES
  6
Continuous
 62
     7
100
AcDbLine
 10
57.871943
 20
169.40187
 30
0.0
 11
58.871943
 21
169.40187
 31
0.0
  0
LINE
  5
34D
330
20B
100
AcDbEntity
  8
7_ALL_FEATURES
  6
Continuous
 62
     7
100
AcDbLine
 10
58.871943
 20
169.40187
 30
0.0
 11
101.871943
 21
169.40187
 31
0.0
  0
LINE
  5
34E
330
20B
100
AcDbEntity
  8
7_ALL_FEATURES
  6
Continuous
 62
     7
100
AcDbLine
 10
57.871943
 20
143.90187
 30
0.0
 11
57.871943
 21
136.40187
 31
0.0
  0
LINE
  5
34F
330
20B
100
AcDbEntity
  8
7_ALL_FEATURES
  6
Continuous
 62
     7
100
AcDbLine
 10
101.871943
 20
169.40187
 30
0.0
 11
102.871943
 21
169.40187
 31
0.0
  0
LINE
  5
350
330
20B
100
AcDbEntity
  8
7_ALL_FEATURES
  6
Continuous
 62
     7
100
AcDbLine
 10
58.871943
 20
143.90187
 30
0.0
 11
101.871943
 21
143.90187
 31
0.0
  0
LINE
  5
351
330
20B
100
AcDbEntity
  8
7_ALL_FEATURES
  6
Continuous
 62
     7
100
AcDbLine
 10
102.871943
 20
143.90187
 30
0.0
 11
102.871943
 21
136.40187
 31
0.0
  0
LINE
  5
352
330
20B
100
AcDbEntity
  8
7_ALL_FEATURES
  6
Continuous
 62
     7
100
AcDbLine
 10
102.871943
 20
146.40187
 30
0.0
 11
101.871943
 21
146.40187
 31
0.0
  0
LINE
  5
353
330
20B
100
AcDbEntity
  8
7_ALL_FEATURES
  6
Continuous
 62
     7
100
AcDbLine
 10
58.871943
 20
146.40187
 30
0.0
 11
101.871943
 21
146.40187
 31
0.0
  0
LINE
  5
354
330
20B
100
AcDbEntity
  8
7_ALL_FEATURES
  6
Continuous
 62
     7
100
AcDbLine
 10
101.871943
 20
143.90187
 30
0.0
 11
102.871943
 21
143.90187
 31
0.0
  0
LINE
  5
355
330
20B
100
AcDbEntity
  8
7_ALL_FEATURES
  6
Continuous
 62
     7
100
AcDbLine
 10
57.871943
 20
143.90187
 30
0.0
 11
58.871943
 21
143.90187
 31
0.0
  0
LINE
  5
356
330
20B
100
AcDbEntity
  8
7_ALL_FEATURES
  6
Continuous
 62
     7
100
AcDbLine
 10
58.871943
 20
146.40187
 30
0.0
 11
57.871943
 21
146.40187
 31
0.0
  0
LINE
  5
357
330
20B
100
AcDbEntity
  8
7_ALL_FEATURES
  6
Continuous
 62
     7
100
AcDbLine
 10
101.371943
 20
143.90187
 30
0.0
 11
101.371943
 21
146.40187
 31
0.0
  0
LINE
  5
358
330
20B
100
AcDbEntity
  8
7_ALL_FEATURES
  6
Continuous
 62
     7
100
AcDbLine
 10
59.371943
 20
143.90187
 30
0.0
 11
59.371943
 21
146.40187
 31
0.0
  0
LINE
  5
359
330
20B
100
AcDbEntity
  8
7_ALL_FEATURES
  6
Continuous
 62
     9
100
AcDbLine
 10
60.371943
 20
143.90187
 30
0.0
 11
60.371943
 21
146.40187
 31
0.0
  0
LINE
  5
35A
330
20B
100
AcDbEntity
  8
7_ALL_FEATURES
  6
Continuous
 62
     9
100
AcDbLine
 10
100.371943
 20
143.90187
 30
0.0
 11
100.371943
 21
146.40187
 31
0.0
  0
LINE
  5
35B
330
20B
100
AcDbEntity
  8
7_ALL_FEATURES
  6
Continuous
 62
     9
100
AcDbLine
 10
101.871943
 20
169.40187
 30
0.0
 11
101.871943
 21
146.40187
 31
0.0
  0
LINE
  5
35C
330
20B
100
AcDbEntity
  8
7_ALL_FEATURES
  6
Continuous
 62
     9
100
AcDbLine
 10
58.871943
 20
169.40187
 30
0.0
 11
58.871943
 21
146.40187
 31
0.0
  0
LINE
  5
35D
330
20B
100
AcDbEntity
  8
7_ALL_FEATURES
  6
Continuous
 62
     9
100
AcDbLine
 10
101.871943
 20
143.90187
 30
0.0
 11
101.871943
 21
136.40187
 31
0.0
  0
LINE
  5
35E
330
20B
100
AcDbEntity
  8
7_ALL_FEATURES
  6
Continuous
 62
     9
100
AcDbLine
 10
58.871943
 20
143.90187
 30
0.0
 11
58.871943
 21
136.40187
 31
0.0
  0
LINE
  5
35F
330
20B
100
AcDbEntity
  8
7_ALL_FEATURES
  6
Continuous
 62
     7
100
AcDbLine
 10
101.871943
 20
89.109981
 30
0.0
 11
58.871943
 21
89.109981
 31
0.0
  0
ARC
  5
360
330
20B
100
AcDbEntity
  8
7_ALL_FEATURES
  6
Continuous
 62
     7
100
AcDbCircle
 10
58.871943
 20
88.109981
 30
0.0
 40
1.0
100
AcDbArc
 50
90.0
 51
180.0
  0
LINE
  5
361
330
20B
100
AcDbEntity
  8
7_ALL_FEATURES
  6
Continuous
 62
     7
100
AcDbLine
 10
57.871943
 20
88.109981
 30
0.0
 11
57.871943
 21
45.109981
 31
0.0
  0
ARC
  5
362
330
20B
100
AcDbEntity
  8
7_ALL_FEATURES
  6
Continuous
 62
     7
100
AcDbCircle
 10
58.871943
 20
45.109981
 30
0.0
 40
1.0
100
AcDbArc
 50
180.0
 51
270.0
  0
LINE
  5
363
330
20B
100
AcDbEntity
  8
7_ALL_FEATURES
  6
Continuous
 62
     7
100
AcDbLine
 10
58.871943
 20
44.109981
 30
0.0
 11
101.871943
 21
44.109981
 31
0.0
  0
ARC
  5
364
330
20B
100
AcDbEntity
  8
7_ALL_FEATURES
  6
Continuous
 62
     7
100
AcDbCircle
 10
101.871943
 20
45.109981
 30
0.0
 40
1.0
100
AcDbArc
 50
270.0
 51
360.0
  0
LINE
  5
365
330
20B
100
AcDbEntity
  8
7_ALL_FEATURES
  6
Continuous
 62
     7
100
AcDbLine
 10
102.871943
 20
45.109981
 30
0.0
 11
102.871943
 21
88.109981
 31
0.0
  0
ARC
  5
366
330
20B
100
AcDbEntity
  8
7_ALL_FEATURES
  6
Continuous
 62
     7
100
AcDbCircle
 10
101.871943
 20
88.109981
 30
0.0
 40
1.0
100
AcDbArc
 50
0.0
 51
90.0
  0
ARC
  5
367
330
20B
100
AcDbEntity
  8
7_ALL_FEATURES
  6
Continuous
 62
     7
100
AcDbCircle
 10
172.687613
 20
135.116928
 30
0.0
 40
0.0976201153
100
AcDbArc
 50
94.794937
 51
180.0
  0
LINE
  5
368
330
20B
100
AcDbEntity
  8
7_ALL_FEATURES
  6
Continuous
 62
     7
100
AcDbLine
 10
172.679453
 20
135.214206
 30
0.0
 11
173.568818
 21
135.282782
 31
0.0
  0
ARC
  5
369
330
20B
100
AcDbEntity
  8
7_ALL_FEATURES
  6
Continuous
 62
     7
100
AcDbCircle
 10
172.687613
 20
133.738285
 30
0.0
 40
0.0976201153
100
AcDbArc
 50
94.794937
 51
180.0
  0
LINE
  5
36A
330
20B
100
AcDbEntity
  8
7_ALL_FEATURES
  6
Continuous
 62
     7
100
AcDbLine
 10
172.679453
 20
133.835563
 30
0.0
 11
173.568818
 21
133.904139
 31
0.0
  0
LINE
  5
36B
330
20B
100
AcDbEntity
  8
7_ALL_FEATURES
  6
Continuous
 62
     7
100
AcDbLine
 10
173.040038
 20
131.627847
 30
0.0
 11
173.004135
 21
132.417709
 31
0.0
  0
LINE
  5
36C
330
20B
100
AcDbEntity
  8
7_ALL_FEATURES
  6
Continuous
 62
     7
100
AcDbLine
 10
176.639949
 20
131.627847
 30
0.0
 11
176.675851
 21
132.417709
 31
0.0
  0
LINE
  5
36D
330
20B
100
AcDbEntity
  8
7_ALL_FEATURES
  6
Continuous
 62
     7
100
AcDbLine
 10
175.437157
 20
129.40187
 30
0.0
 11
174.839993
 21
129.40187
 31
0.0
  0
LINE
  5
36E
330
20B
100
AcDbEntity
  8
7_ALL_FEATURES
  6
Continuous
 62
     7
100
AcDbLine
 10
175.437203
 20
129.40187
 30
0.0
 11
176.639949
 21
131.627847
 31
0.0
  0
LINE
  5
36F
330
20B
100
AcDbEntity
  8
7_ALL_FEATURES
  6
Continuous
 62
     7
100
AcDbLine
 10
174.242783
 20
129.40187
 30
0.0
 11
173.040038
 21
131.627847
 31
0.0
  0
LINE
  5
370
330
20B
100
AcDbEntity
  8
7_ALL_FEATURES
  6
Continuous
 62
     7
100
AcDbLine
 10
176.675851
 20
132.417709
 30
0.0
 11
176.310078
 21
132.427847
 31
0.0
  0
LINE
  5
371
330
20B
100
AcDbEntity
  8
7_ALL_FEATURES
  6
Continuous
 62
     7
100
AcDbLine
 10
176.310078
 20
132.427847
 30
0.0
 11
176.028177
 21
132.435661
 31
0.0
  0
LINE
  5
372
330
20B
100
AcDbEntity
  8
7_ALL_FEATURES
  6
Continuous
 62
     7
100
AcDbLine
 10
173.004135
 20
132.417709
 30
0.0
 11
173.651809
 21
132.435661
 31
0.0
  0
ARC
  5
373
330
20B
100
AcDbEntity
  8
7_ALL_FEATURES
  6
Continuous
 62
     7
100
AcDbCircle
 10
173.55419
 20
133.147879
 30
0.0
 40
0.0976200982
100
AcDbArc
 50
359.565962
 51
71.958075
  0
LINE
  5
374
330
20B
100
AcDbEntity
  8
7_ALL_FEATURES
  6
Continuous
 62
     7
100
AcDbLine
 10
173.651809
 20
132.435661
 30
0.0
 11
173.651809
 21
133.147139
 31
0.0
  0
LINE
  5
375
330
20B
100
AcDbEntity
  8
7_ALL_FEATURES
  6
Continuous
 62
     7
100
AcDbLine
 10
176.028177
 20
132.435661
 30
0.0
 11
176.028177
 21
133.147139
 31
0.0
  0
ARC
  5
376
330
20B
100
AcDbEntity
  8
7_ALL_FEATURES
  6
Continuous
 62
     7
100
AcDbCircle
 10
176.125796
 20
133.147879
 30
0.0
 40
0.0976200982
100
AcDbArc
 50
108.041925
 51
180.434038
  0
LINE
  5
377
330
20B
100
AcDbEntity
  8
7_ALL_FEATURES
  6
Continuous
 62
     7
100
AcDbLine
 10
177.022607
 20
133.519278
 30
0.0
 11
177.022607
 21
133.519278
 31
0.0
  0
LINE
  5
378
330
20B
100
AcDbEntity
  8
7_ALL_FEATURES
  6
Continuous
 62
     7
100
AcDbLine
 10
176.095562
 20
133.240699
 30
0.0
 11
177.022607
 21
133.519278
 31
0.0
  0
LINE
  5
379
330
20B
100
AcDbEntity
  8
7_ALL_FEATURES
  6
Continuous
 62
     7
100
AcDbLine
 10
173.584424
 20
133.240699
 30
0.0
 11
172.657382
 21
133.519277
 31
0.0
  0
LINE
  5
37A
330
20B
100
AcDbEntity
  8
7_ALL_FEATURES
  6
Continuous
 62
     7
100
AcDbLine
 10
172.589993
 20
133.612098
 30
0.0
 11
172.589993
 21
133.612098
 31
0.0
  0
LINE
  5
37B
330
20B
100
AcDbEntity
  8
7_ALL_FEATURES
  6
Continuous
 62
     7
100
AcDbLine
 10
172.589993
 20
133.612098
 30
0.0
 11
172.589993
 21
133.738285
 31
0.0
  0
ARC
  5
37C
330
20B
100
AcDbEntity
  8
7_ALL_FEATURES
  6
Continuous
 62
     7
100
AcDbCircle
 10
172.687613
 20
133.612098
 30
0.0
 40
0.0976200982
100
AcDbArc
 50
180.0
 51
251.959773
  0
ARC
  5
37D
330
20B
100
AcDbEntity
  8
7_ALL_FEATURES
  6
Continuous
 62
     7
100
AcDbCircle
 10
176.992373
 20
133.612098
 30
0.0
 40
0.0976200982
100
AcDbArc
 50
288.041062
 51
360.0
  0
LINE
  5
37E
330
20B
100
AcDbEntity
  8
7_ALL_FEATURES
  6
Continuous
 62
     7
100
AcDbLine
 10
177.089993
 20
133.612098
 30
0.0
 11
177.089993
 21
133.738285
 31
0.0
  0
ARC
  5
37F
330
20B
100
AcDbEntity
  8
7_ALL_FEATURES
  6
Continuous
 62
     7
100
AcDbCircle
 10
176.992373
 20
133.738285
 30
0.0
 40
0.0976201153
100
AcDbArc
 50
0.0
 51
85.205776
  0
LINE
  5
380
330
20B
100
AcDbEntity
  8
7_ALL_FEATURES
  6
Continuous
 62
     7
100
AcDbLine
 10
177.000532
 20
133.835563
 30
0.0
 11
176.701308
 21
133.858635
 31
0.0
  0
LINE
  5
381
330
20B
100
AcDbEntity
  8
7_ALL_FEATURES
  6
Continuous
 62
     7
100
AcDbLine
 10
176.701308
 20
133.858635
 30
0.0
 11
176.111168
 21
133.904139
 31
0.0
  0
ARC
  5
382
330
20B
100
AcDbEntity
  8
7_ALL_FEATURES
  6
Continuous
 62
     7
100
AcDbCircle
 10
176.11933
 20
134.001417
 30
0.0
 40
0.0976200982
100
AcDbArc
 50
200.973315
 51
265.204053
  0
ARC
  5
383
330
20B
100
AcDbEntity
  8
7_ALL_FEATURES
  6
Continuous
 62
     7
100
AcDbCircle
 10
173.560656
 20
134.001417
 30
0.0
 40
0.0976200982
100
AcDbArc
 50
274.795947
 51
339.026685
  0
ARC
  5
384
330
20B
100
AcDbEntity
  8
7_ALL_FEATURES
  6
Continuous
 62
     7
100
AcDbCircle
 10
173.55419
 20
134.526522
 30
0.0
 40
0.0976200982
100
AcDbArc
 50
359.565962
 51
71.958075
  0
LINE
  5
385
330
20B
100
AcDbEntity
  8
7_ALL_FEATURES
  6
Continuous
 62
     7
100
AcDbLine
 10
173.651809
 20
133.966479
 30
0.0
 11
173.651809
 21
134.525782
 31
0.0
  0
LINE
  5
386
330
20B
100
AcDbEntity
  8
7_ALL_FEATURES
  6
Continuous
 62
     7
100
AcDbLine
 10
176.028177
 20
133.966479
 30
0.0
 11
176.028177
 21
134.525782
 31
0.0
  0
ARC
  5
387
330
20B
100
AcDbEntity
  8
7_ALL_FEATURES
  6
Continuous
 62
     7
100
AcDbCircle
 10
176.125796
 20
134.526522
 30
0.0
 40
0.0976200982
100
AcDbArc
 50
108.041925
 51
180.434038
  0
LINE
  5
388
330
20B
100
AcDbEntity
  8
7_ALL_FEATURES
  6
Continuous
 62
     7
100
AcDbLine
 10
177.022607
 20
134.897921
 30
0.0
 11
177.022607
 21
134.897921
 31
0.0
  0
LINE
  5
389
330
20B
100
AcDbEntity
  8
7_ALL_FEATURES
  6
Continuous
 62
     7
100
AcDbLine
 10
176.095562
 20
134.619342
 30
0.0
 11
177.022607
 21
134.897921
 31
0.0
  0
LINE
  5
38A
330
20B
100
AcDbEntity
  8
7_ALL_FEATURES
  6
Continuous
 62
     7
100
AcDbLine
 10
173.584425
 20
134.619342
 30
0.0
 11
172.657382
 21
134.89792
 31
0.0
  0
LINE
  5
38B
330
20B
100
AcDbEntity
  8
7_ALL_FEATURES
  6
Continuous
 62
     7
100
AcDbLine
 10
172.589993
 20
134.990741
 30
0.0
 11
172.589993
 21
134.990741
 31
0.0
  0
LINE
  5
38C
330
20B
100
AcDbEntity
  8
7_ALL_FEATURES
  6
Continuous
 62
     7
100
AcDbLine
 10
172.589993
 20
134.990741
 30
0.0
 11
172.589993
 21
135.116928
 31
0.0
  0
ARC
  5
38D
330
20B
100
AcDbEntity
  8
7_ALL_FEATURES
  6
Continuous
 62
     7
100
AcDbCircle
 10
172.687613
 20
134.990741
 30
0.0
 40
0.0976200982
100
AcDbArc
 50
180.0
 51
251.959773
  0
ARC
  5
38E
330
20B
100
AcDbEntity
  8
7_ALL_FEATURES
  6
Continuous
 62
     7
100
AcDbCircle
 10
176.992373
 20
134.990741
 30
0.0
 40
0.0976200982
100
AcDbArc
 50
288.041062
 51
360.0
  0
LINE
  5
38F
330
20B
100
AcDbEntity
  8
7_ALL_FEATURES
  6
Continuous
 62
     7
100
AcDbLine
 10
177.089993
 20
134.990741
 30
0.0
 11
177.089993
 21
135.116928
 31
0.0
  0
ARC
  5
390
330
20B
100
AcDbEntity
  8
7_ALL_FEATURES
  6
Continuous
 62
     7
100
AcDbCircle
 10
176.992373
 20
135.116928
 30
0.0
 40
0.0976201153
100
AcDbArc
 50
0.0
 51
85.205776
  0
LINE
  5
391
330
20B
100
AcDbEntity
  8
7_ALL_FEATURES
  6
Continuous
 62
     7
100
AcDbLine
 10
177.000532
 20
135.214206
 30
0.0
 11
176.701308
 21
135.237278
 31
0.0
  0
LINE
  5
392
330
20B
100
AcDbEntity
  8
7_ALL_FEATURES
  6
Continuous
 62
     7
100
AcDbLine
 10
176.701308
 20
135.237278
 30
0.0
 11
176.111168
 21
135.282782
 31
0.0
  0
ARC
  5
393
330
20B
100
AcDbEntity
  8
7_ALL_FEATURES
  6
Continuous
 62
     7
100
AcDbCircle
 10
176.11933
 20
135.38006
 30
0.0
 40
0.0976200982
100
AcDbArc
 50
200.973315
 51
265.204053
  0
ARC
  5
394
330
20B
100
AcDbEntity
  8
7_ALL_FEATURES
  6
Continuous
 62
     7
100
AcDbCircle
 10
173.560656
 20
135.38006
 30
0.0
 40
0.0976200982
100
AcDbArc
 50
274.795947
 51
339.026685
  0
ARC
  5
395
330
20B
100
AcDbEntity
  8
7_ALL_FEATURES
  6
Continuous
 62
     7
100
AcDbCircle
 10
173.55419
 20
135.905165
 30
0.0
 40
0.0976200982
100
AcDbArc
 50
359.565962
 51
71.958075
  0
LINE
  5
396
330
20B
100
AcDbEntity
  8
7_ALL_FEATURES
  6
Continuous
 62
     7
100
AcDbLine
 10
173.651809
 20
135.345123
 30
0.0
 11
173.651809
 21
135.904425
 31
0.0
  0
LINE
  5
397
330
20B
100
AcDbEntity
  8
7_ALL_FEATURES
  6
Continuous
 62
     7
100
AcDbLine
 10
176.028177
 20
135.345123
 30
0.0
 11
176.028177
 21
135.904425
 31
0.0
  0
ARC
  5
398
330
20B
100
AcDbEntity
  8
7_ALL_FEATURES
  6
Continuous
 62
     7
100
AcDbCircle
 10
176.125796
 20
135.905165
 30
0.0
 40
0.0976200982
100
AcDbArc
 50
108.041925
 51
180.434038
  0
LINE
  5
399
330
20B
100
AcDbEntity
  8
7_ALL_FEATURES
  6
Continuous
 62
     7
100
AcDbLine
 10
177.022607
 20
136.276564
 30
0.0
 11
177.022607
 21
136.276564
 31
0.0
  0
LINE
  5
39A
330
20B
100
AcDbEntity
  8
7_ALL_FEATURES
  6
Continuous
 62
     7
100
AcDbLine
 10
176.095562
 20
135.997985
 30
0.0
 11
177.022607
 21
136.276564
 31
0.0
  0
LINE
  5
39B
330
20B
100
AcDbEntity
  8
7_ALL_FEATURES
  6
Continuous
 62
     7
100
AcDbLine
 10
173.584424
 20
135.997985
 30
0.0
 11
172.657382
 21
136.276563
 31
0.0
  0
LINE
  5
39C
330
20B
100
AcDbEntity
  8
7_ALL_FEATURES
  6
Continuous
 62
     7
100
AcDbLine
 10
172.589993
 20
136.369384
 30
0.0
 11
172.589993
 21
136.369384
 31
0.0
  0
LINE
  5
39D
330
20B
100
AcDbEntity
  8
7_ALL_FEATURES
  6
Continuous
 62
     7
100
AcDbLine
 10
172.589993
 20
136.369384
 30
0.0
 11
172.589993
 21
136.40187
 31
0.0
  0
ARC
  5
39E
330
20B
100
AcDbEntity
  8
7_ALL_FEATURES
  6
Continuous
 62
     7
100
AcDbCircle
 10
172.687613
 20
136.369384
 30
0.0
 40
0.0976200982
100
AcDbArc
 50
180.0
 51
251.959773
  0
ARC
  5
39F
330
20B
100
AcDbEntity
  8
7_ALL_FEATURES
  6
Continuous
 62
     7
100
AcDbCircle
 10
176.992373
 20
136.369384
 30
0.0
 40
0.0976200982
100
AcDbArc
 50
288.041062
 51
360.0
  0
LINE
  5
3A0
330
20B
100
AcDbEntity
  8
7_ALL_FEATURES
  6
Continuous
 62
     7
100
AcDbLine
 10
177.089993
 20
136.369384
 30
0.0
 11
177.089993
 21
136.40187
 31
0.0
  0
LINE
  5
3A1
330
20B
100
AcDbEntity
  8
7_ALL_FEATURES
  6
Continuous
 62
     7
100
AcDbLine
 10
175.916193
 20
136.369384
 30
0.0
 11
175.916193
 21
136.40187
 31
0.0
  0
LINE
  5
3A2
330
20B
100
AcDbEntity
  8
7_ALL_FEATURES
  6
Continuous
 62
     7
100
AcDbLine
 10
175.916193
 20
136.276563
 30
0.0
 11
175.916193
 21
136.369384
 31
0.0
  0
LINE
  5
3A3
330
20B
100
AcDbEntity
  8
7_ALL_FEATURES
  6
Continuous
 62
     7
100
AcDbLine
 10
173.739993
 20
136.369384
 30
0.0
 11
173.739993
 21
136.276563
 31
0.0
  0
LINE
  5
3A4
330
20B
100
AcDbEntity
  8
7_ALL_FEATURES
  6
Continuous
 62
     7
100
AcDbLine
 10
173.739993
 20
136.40187
 30
0.0
 11
173.739993
 21
136.369384
 31
0.0
  0
LINE
  5
3A5
330
20B
100
AcDbEntity
  8
7_ALL_FEATURES
  6
Continuous
 62
     7
100
AcDbLine
 10
173.739993
 20
136.276563
 30
0.0
 11
173.739993
 21
136.088156
 31
0.0
  0
LINE
  5
3A6
330
20B
100
AcDbEntity
  8
7_ALL_FEATURES
  6
Continuous
 62
     7
100
AcDbLine
 10
175.916193
 20
136.083126
 30
0.0
 11
175.916193
 21
136.276563
 31
0.0
  0
LINE
  5
3A7
330
20B
100
AcDbEntity
  8
7_ALL_FEATURES
  6
Continuous
 62
     7
100
AcDbLine
 10
175.916193
 20
135.214206
 30
0.0
 11
175.916193
 21
135.262139
 31
0.0
  0
LINE
  5
3A8
330
20B
100
AcDbEntity
  8
7_ALL_FEATURES
  6
Continuous
 62
     7
100
AcDbLine
 10
175.916193
 20
135.116928
 30
0.0
 11
175.916193
 21
135.214206
 31
0.0
  0
LINE
  5
3A9
330
20B
100
AcDbEntity
  8
7_ALL_FEATURES
  6
Continuous
 62
     7
100
AcDbLine
 10
175.916193
 20
134.990741
 30
0.0
 11
175.916193
 21
135.116928
 31
0.0
  0
LINE
  5
3AA
330
20B
100
AcDbEntity
  8
7_ALL_FEATURES
  6
Continuous
 62
     7
100
AcDbLine
 10
175.916193
 20
134.89792
 30
0.0
 11
175.916193
 21
134.990741
 31
0.0
  0
LINE
  5
3AB
330
20B
100
AcDbEntity
  8
7_ALL_FEATURES
  6
Continuous
 62
     7
100
AcDbLine
 10
173.739993
 20
134.990741
 30
0.0
 11
173.739993
 21
134.89792
 31
0.0
  0
LINE
  5
3AC
330
20B
100
AcDbEntity
  8
7_ALL_FEATURES
  6
Continuous
 62
     7
100
AcDbLine
 10
173.739993
 20
135.116928
 30
0.0
 11
173.739993
 21
134.990741
 31
0.0
  0
LINE
  5
3AD
330
20B
100
AcDbEntity
  8
7_ALL_FEATURES
  6
Continuous
 62
     7
100
AcDbLine
 10
173.739993
 20
134.89792
 30
0.0
 11
173.739993
 21
134.709512
 31
0.0
  0
LINE
  5
3AE
330
20B
100
AcDbEntity
  8
7_ALL_FEATURES
  6
Continuous
 62
     7
100
AcDbLine
 10
175.916193
 20
134.704483
 30
0.0
 11
175.916193
 21
134.89792
 31
0.0
  0
LINE
  5
3AF
330
20B
100
AcDbEntity
  8
7_ALL_FEATURES
  6
Continuous
 62
     7
100
AcDbLine
 10
175.916193
 20
133.835563
 30
0.0
 11
175.916193
 21
133.883496
 31
0.0
  0
LINE
  5
3B0
330
20B
100
AcDbEntity
  8
7_ALL_FEATURES
  6
Continuous
 62
     7
100
AcDbLine
 10
175.916193
 20
133.738285
 30
0.0
 11
175.916193
 21
133.835563
 31
0.0
  0
LINE
  5
3B1
330
20B
100
AcDbEntity
  8
7_ALL_FEATURES
  6
Continuous
 62
     7
100
AcDbLine
 10
175.916193
 20
133.612098
 30
0.0
 11
175.916193
 21
133.738285
 31
0.0
  0
LINE
  5
3B2
330
20B
100
AcDbEntity
  8
7_ALL_FEATURES
  6
Continuous
 62
     7
100
AcDbLine
 10
175.916193
 20
133.519277
 30
0.0
 11
175.916193
 21
133.612098
 31
0.0
  0
LINE
  5
3B3
330
20B
100
AcDbEntity
  8
7_ALL_FEATURES
  6
Continuous
 62
     7
100
AcDbLine
 10
173.739993
 20
133.612098
 30
0.0
 11
173.739993
 21
133.519277
 31
0.0
  0
LINE
  5
3B4
330
20B
100
AcDbEntity
  8
7_ALL_FEATURES
  6
Continuous
 62
     7
100
AcDbLine
 10
173.739993
 20
133.738285
 30
0.0
 11
173.739993
 21
133.612098
 31
0.0
  0
LINE
  5
3B5
330
20B
100
AcDbEntity
  8
7_ALL_FEATURES
  6
Continuous
 62
     7
100
AcDbLine
 10
173.739993
 20
133.519277
 30
0.0
 11
173.739993
 21
133.330869
 31
0.0
  0
LINE
  5
3B6
330
20B
100
AcDbEntity
  8
7_ALL_FEATURES
  6
Continuous
 62
     7
100
AcDbLine
 10
175.916193
 20
133.32584
 30
0.0
 11
175.916193
 21
133.519277
 31
0.0
  0
LINE
  5
3B7
330
20B
100
AcDbEntity
  8
7_ALL_FEATURES
  6
Continuous
 62
     7
100
AcDbLine
 10
173.739993
 20
132.425476
 30
0.0
 11
173.739993
 21
132.417709
 31
0.0
  0
LINE
  5
3B8
330
20B
100
AcDbEntity
  8
7_ALL_FEATURES
  6
Continuous
 62
     7
100
AcDbLine
 10
175.916193
 20
132.417709
 30
0.0
 11
175.916193
 21
132.42594
 31
0.0
  0
LINE
  5
3B9
330
20B
100
AcDbEntity
  8
7_ALL_FEATURES
  6
Continuous
 62
     7
100
AcDbLine
 10
173.739993
 20
132.417709
 30
0.0
 11
173.739993
 21
131.627847
 31
0.0
  0
LINE
  5
3BA
330
20B
100
AcDbEntity
  8
7_ALL_FEATURES
  6
Continuous
 62
     7
100
AcDbLine
 10
175.916193
 20
131.627847
 30
0.0
 11
175.916193
 21
132.417709
 31
0.0
  0
LINE
  5
3BB
330
20B
100
AcDbEntity
  8
7_ALL_FEATURES
  6
Continuous
 62
     7
100
AcDbLine
 10
173.739993
 20
131.627847
 30
0.0
 11
173.739993
 21
131.175671
 31
0.0
  0
LINE
  5
3BC
330
20B
100
AcDbEntity
  8
7_ALL_FEATURES
  6
Continuous
 62
     7
100
AcDbLine
 10
175.916193
 20
131.144696
 30
0.0
 11
175.916193
 21
131.627847
 31
0.0
  0
LINE
  5
3BD
330
20B
100
AcDbEntity
  8
7_ALL_FEATURES
  6
Continuous
 62
     7
100
AcDbLine
 10
174.839993
 20
129.40187
 30
0.0
 11
174.24283
 21
129.40187
 31
0.0
  0
LINE
  5
3BE
330
20B
100
AcDbEntity
  8
7_ALL_FEATURES
  6
Continuous
 62
     7
100
AcDbLine
 10
173.739993
 20
133.882205
 30
0.0
 11
173.739993
 21
133.835563
 31
0.0
  0
LINE
  5
3BF
330
20B
100
AcDbEntity
  8
7_ALL_FEATURES
  6
Continuous
 62
     7
100
AcDbLine
 10
173.739993
 20
133.835563
 30
0.0
 11
173.739993
 21
133.738285
 31
0.0
  0
LINE
  5
3C0
330
20B
100
AcDbEntity
  8
7_ALL_FEATURES
  6
Continuous
 62
     7
100
AcDbLine
 10
173.739993
 20
135.260848
 30
0.0
 11
173.739993
 21
135.214206
 31
0.0
  0
LINE
  5
3C1
330
20B
100
AcDbEntity
  8
7_ALL_FEATURES
  6
Continuous
 62
     7
100
AcDbLine
 10
173.739993
 20
135.214206
 30
0.0
 11
173.739993
 21
135.116928
 31
0.0
  0
LINE
  5
3C2
330
20B
100
AcDbEntity
  8
7_ALL_FEATURES
  6
Continuous
 62
     9
100
AcDbLine
 10
172.589993
 20
133.738285
 30
0.0
 11
172.877216
 21
133.738285
 31
0.0
  0
LINE
  5
3C3
330
20B
100
AcDbEntity
  8
7_ALL_FEATURES
  6
Continuous
 62
     7
100
AcDbLine
 10
172.679453
 20
135.214206
 30
0.0
 11
172.980457
 21
135.214207
 31
0.0
  0
LINE
  5
3C4
330
20B
100
AcDbEntity
  8
7_ALL_FEATURES
  6
Continuous
 62
     9
100
AcDbLine
 10
172.589993
 20
133.612098
 30
0.0
 11
172.877216
 21
133.612098
 31
0.0
  0
LINE
  5
3C5
330
20B
100
AcDbEntity
  8
7_ALL_FEATURES
  6
Continuous
 62
     7
100
AcDbLine
 10
177.022607
 20
133.519278
 30
0.0
 11
176.725128
 21
133.519272
 31
0.0
  0
LINE
  5
3C6
330
20B
100
AcDbEntity
  8
7_ALL_FEATURES
  6
Continuous
 62
     7
100
AcDbLine
 10
172.679453
 20
133.835563
 30
0.0
 11
172.980457
 21
133.835564
 31
0.0
  0
LINE
  5
3C7
330
20B
100
AcDbEntity
  8
7_ALL_FEATURES
  6
Continuous
 62
     7
100
AcDbLine
 10
173.568818
 20
133.904139
 30
0.0
 11
174.839993
 21
133.904139
 31
0.0
  0
LINE
  5
3C8
330
20B
100
AcDbEntity
  8
7_ALL_FEATURES
  6
Continuous
 62
     7
100
AcDbLine
 10
173.651809
 20
134.525782
 30
0.0
 11
174.839993
 21
134.525782
 31
0.0
  0
LINE
  5
3C9
330
20B
100
AcDbEntity
  8
7_ALL_FEATURES
  6
Continuous
 62
     7
100
AcDbLine
 10
176.028177
 20
133.966479
 30
0.0
 11
174.839993
 21
133.966479
 31
0.0
  0
LINE
  5
3CA
330
20B
100
AcDbEntity
  8
7_ALL_FEATURES
  6
Continuous
 62
     7
100
AcDbLine
 10
176.639949
 20
131.627848
 30
0.0
 11
176.26471
 21
131.627837
 31
0.0
  0
LINE
  5
3CB
330
20B
100
AcDbEntity
  8
7_ALL_FEATURES
  6
Continuous
 62
     7
100
AcDbLine
 10
176.095562
 20
134.619342
 30
0.0
 11
174.839993
 21
134.619343
 31
0.0
  0
LINE
  5
3CC
330
20B
100
AcDbEntity
  8
7_ALL_FEATURES
  6
Continuous
 62
     9
100
AcDbLine
 10
176.802771
 20
136.369384
 30
0.0
 11
177.089993
 21
136.369384
 31
0.0
  0
LINE
  5
3CD
330
20B
100
AcDbEntity
  8
7_ALL_FEATURES
  6
Continuous
 62
     7
100
AcDbLine
 10
176.802772
 20
136.40187
 30
0.0
 11
176.802772
 21
136.369384
 31
0.0
  0
LINE
  5
3CE
330
20B
100
AcDbEntity
  8
7_ALL_FEATURES
  6
Continuous
 62
     9
100
AcDbLine
 10
174.839993
 20
136.369384
 30
0.0
 11
175.916207
 21
136.369384
 31
0.0
  0
SPLINE
  5
3CF
330
20B
100
AcDbEntity
  8
7_ALL_FEATURES
  6
Continuous
 62
     7
100
AcDbSpline
 70
     0
 71
     3
 72
    11
 73
     7
 74
     0
 42
0.000000001
 43
0.0000001
 40
0.0
 40
0.0
 40
0.0
 40
0.0
 40
0.2499552509
 40
0.499831596
 40
0.7498593284
 40
1.0
 40
1.0
 40
1.0
 40
1.0
 10
176.8027717586
 20
136.3693842644
 30
0.0
 10
176.8027717586
 20
136.3586030548
 30
0.0
 10
176.7985412577
 20
136.3368368938
 30
0.0
 10
176.7810336888
 20
136.3088980392
 30
0.0
 10
176.7556595753
 20
136.2880541812
 30
0.0
 10
176.7355299303
 20
136.2794837043
 30
0.0
 10
176.7251435096
 20
136.2765632148
 30
0.0
  0
SPLINE
  5
3D0
330
20B
100
AcDbEntity
  8
7_ALL_FEATURES
  6
Continuous
 62
     7
100
AcDbSpline
 70
     0
 71
     3
 72
    11
 73
     7
 74
     0
 42
0.000000001
 43
0.0000001
 40
0.0
 40
0.0
 40
0.0
 40
0.0
 40
0.2501436301
 40
0.5001736819
 40
0.7500481085
 40
1.0
 40
1.0
 40
1.0
 40
1.0
 10
172.9548427223
 20
136.2765632148
 30
0.0
 10
172.9444561778
 20
136.279483739
 30
0.0
 10
172.92432633
 20
136.2880543558
 30
0.0
 10
172.8989521963
 20
136.3088984321
 30
0.0
 10
172.8814448199
 20
136.336837259
 30
0.0
 10
172.8772144733
 20
136.3586031988
 30
0.0
 10
172.8772144733
 20
136.3693842644
 30
0.0
  0
LINE
  5
3D1
330
20B
100
AcDbEntity
  8
7_ALL_FEATURES
  6
Continuous
 62
     9
100
AcDbLine
 10
172.589993
 20
135.116928
 30
0.0
 11
172.877216
 21
135.116928
 31
0.0
  0
LINE
  5
3D2
330
20B
100
AcDbEntity
  8
7_ALL_FEATURES
  6
Continuous
 62
     7
100
AcDbLine
 10
172.877214
 20
136.369384
 30
0.0
 11
172.877214
 21
136.40187
 31
0.0
  0
LINE
  5
3D3
330
20B
100
AcDbEntity
  8
7_ALL_FEATURES
  6
Continuous
 62
     9
100
AcDbLine
 10
172.589993
 20
134.990741
 30
0.0
 11
172.877216
 21
134.990741
 31
0.0
  0
LINE
  5
3D4
330
20B
100
AcDbEntity
  8
7_ALL_FEATURES
  6
Continuous
 62
     9
100
AcDbLine
 10
173.739981
 20
136.369384
 30
0.0
 11
174.839993
 21
136.369384
 31
0.0
  0
LINE
  5
3D5
330
20B
100
AcDbEntity
  8
7_ALL_FEATURES
  6
Continuous
 62
     7
100
AcDbLine
 10
172.954859
 20
136.276558
 30
0.0
 11
172.657382
 21
136.276563
 31
0.0
  0
SPLINE
  5
3D6
330
20B
100
AcDbEntity
  8
7_ALL_FEATURES
  6
Continuous
 62
     7
100
AcDbSpline
 70
     0
 71
     3
 72
     9
 73
     5
 74
     0
 42
0.000000001
 43
0.0000001
 40
0.0
 40
0.0
 40
0.0
 40
0.0
 40
0.4999964521
 40
1.0
 40
1.0
 40
1.0
 40
1.0
 10
173.7399931159
 20
136.088155564
 30
0.0
 10
173.6083519241
 20
136.1161276062
 30
0.0
 10
173.3460617359
 20
136.1767531889
 30
0.0
 10
173.0851086969
 20
136.2427530319
 30
0.0
 10
172.9548427223
 20
136.2765632148
 30
0.0
  0
LINE
  5
3D7
330
20B
100
AcDbEntity
  8
7_ALL_FEATURES
  6
Continuous
 62
     7
100
AcDbLine
 10
174.839993
 20
136.276563
 30
0.0
 11
173.73999
 21
136.276559
 31
0.0
  0
LINE
  5
3D8
330
20B
100
AcDbEntity
  8
7_ALL_FEATURES
  6
Continuous
 62
     7
100
AcDbLine
 10
175.916197
 20
136.276558
 30
0.0
 11
174.839993
 21
136.276563
 31
0.0
  0
SPLINE
  5
3D9
330
20B
100
AcDbEntity
  8
7_ALL_FEATURES
  6
Continuous
 62
     7
100
AcDbSpline
 70
     0
 71
     3
 72
     9
 73
     5
 74
     0
 42
0.000000001
 43
0.0000001
 40
0.0
 40
0.0
 40
0.0
 40
0.0
 40
0.500004036
 40
1.0
 40
1.0
 40
1.0
 40
1.0
 10
176.7251435096
 20
136.2765632148
 30
0.0
 10
176.5909535799
 20
136.2417345685
 30
0.0
 10
176.3221281434
 20
136.1737937256
 30
0.0
 10
176.0518638353
 20
136.1116373395
 30
0.0
 10
175.9161934258
 20
136.0831260917
 30
0.0
  0
LINE
  5
3DA
330
20B
100
AcDbEntity
  8
7_ALL_FEATURES
  6
Continuous
 62
     7
100
AcDbLine
 10
174.839993
 20
135.904425
 30
0.0
 11
176.028177
 21
135.904425
 31
0.0
  0
LINE
  5
3DB
330
20B
100
AcDbEntity
  8
7_ALL_FEATURES
  6
Continuous
 62
     7
100
AcDbLine
 10
174.839993
 20
135.997986
 30
0.0
 11
173.584424
 21
135.997985
 31
0.0
  0
LINE
  5
3DC
330
20B
100
AcDbEntity
  8
7_ALL_FEATURES
  6
Continuous
 62
     7
100
AcDbLine
 10
174.839993
 20
135.345123
 30
0.0
 11
173.651809
 21
135.345123
 31
0.0
  0
LINE
  5
3DD
330
20B
100
AcDbEntity
  8
7_ALL_FEATURES
  6
Continuous
 62
     7
100
AcDbLine
 10
174.839993
 20
135.282782
 30
0.0
 11
175.916193
 21
135.282783
 31
0.0
  0
LINE
  5
3DE
330
20B
100
AcDbEntity
  8
7_ALL_FEATURES
  6
Continuous
 62
     7
100
AcDbLine
 10
175.916193
 20
135.282783
 30
0.0
 11
176.111168
 21
135.282782
 31
0.0
  0
LINE
  5
3DF
330
20B
100
AcDbEntity
  8
7_ALL_FEATURES
  6
Continuous
 62
     7
100
AcDbLine
 10
174.839993
 20
135.214206
 30
0.0
 11
175.916196
 21
135.214207
 31
0.0
  0
LINE
  5
3E0
330
20B
100
AcDbEntity
  8
7_ALL_FEATURES
  6
Continuous
 62
     7
100
AcDbLine
 10
177.022607
 20
134.897921
 30
0.0
 11
176.725128
 21
134.897915
 31
0.0
  0
LINE
  5
3E1
330
20B
100
AcDbEntity
  8
7_ALL_FEATURES
  6
Continuous
 62
     7
100
AcDbLine
 10
176.699529
 20
135.214207
 30
0.0
 11
177.000532
 21
135.214206
 31
0.0
  0
ARC
  5
3E2
330
20B
100
AcDbEntity
  8
7_ALL_FEATURES
  6
Continuous
 62
     7
100
AcDbCircle
 10
172.441271
 20
72.047378
 30
0.0
 40
63.3101972747
100
AcDbArc
 50
86.143348
 51
86.853611
  0
LINE
  5
3E3
330
20B
100
AcDbEntity
  8
7_ALL_FEATURES
  6
Continuous
 62
     9
100
AcDbLine
 10
176.802771
 20
135.116928
 30
0.0
 11
177.089993
 21
135.116928
 31
0.0
  0
SPLINE
  5
3E4
330
20B
100
AcDbEntity
  8
7_ALL_FEATURES
  6
Continuous
 62
     7
100
AcDbSpline
 70
     0
 71
     3
 72
    11
 73
     7
 74
     0
 42
0.000000001
 43
0.0000001
 40
0.0
 40
0.0
 40
0.0
 40
0.0
 40
0.2502945991
 40
0.5005469111
 40
0.7504001187
 40
1.0
 40
1.0
 40
1.0
 40
1.0
 10
176.6995432836
 20
135.2142062227
 30
0.0
 10
176.7124479914
 20
135.2132764396
 30
0.0
 10
176.7381615757
 20
135.2075549626
 30
0.0
 10
176.772084559
 20
135.1872749367
 30
0.0
 10
176.7966231111
 20
135.155985075
 30
0.0
 10
176.8027717586
 20
135.1298299022
 30
0.0
 10
176.8027717586
 20
135.1169276535
 30
0.0
  0
LINE
  5
3E5
330
20B
100
AcDbEntity
  8
7_ALL_FEATURES
  6
Continuous
 62
     9
100
AcDbLine
 10
174.839993
 20
135.116928
 30
0.0
 11
175.916207
 21
135.116928
 31
0.0
  0
LINE
  5
3E6
330
20B
100
AcDbEntity
  8
7_ALL_FEATURES
  6
Continuous
 62
     9
100
AcDbLine
 10
176.802771
 20
134.990741
 30
0.0
 11
177.089993
 21
134.990741
 31
0.0
  0
LINE
  5
3E7
330
20B
100
AcDbEntity
  8
7_ALL_FEATURES
  6
Continuous
 62
     7
100
AcDbLine
 10
176.802772
 20
135.116928
 30
0.0
 11
176.802772
 21
134.990741
 31
0.0
  0
LINE
  5
3E8
330
20B
100
AcDbEntity
  8
7_ALL_FEATURES
  6
Continuous
 62
     7
100
AcDbLine
 10
173.004133
 20
132.417709
 30
0.0
 11
173.370189
 21
132.41771
 31
0.0
  0
LINE
  5
3E9
330
20B
100
AcDbEntity
  8
7_ALL_FEATURES
  6
Continuous
 62
     9
100
AcDbLine
 10
174.839993
 20
134.990741
 30
0.0
 11
175.916207
 21
134.990741
 31
0.0
  0
SPLINE
  5
3EA
330
20B
100
AcDbEntity
  8
7_ALL_FEATURES
  6
Continuous
 62
     7
100
AcDbSpline
 70
     0
 71
     3
 72
    11
 73
     7
 74
     0
 42
0.000000001
 43
0.0000001
 40
0.0
 40
0.0
 40
0.0
 40
0.0
 40
0.249956621
 40
0.4998329242
 40
0.7498597558
 40
1.0
 40
1.0
 40
1.0
 40
1.0
 10
176.8027717586
 20
134.990741198
 30
0.0
 10
176.8027717586
 20
134.9799599296
 30
0.0
 10
176.798541202
 20
134.9581937142
 30
0.0
 10
176.7810335913
 20
134.9302548709
 30
0.0
 10
176.7556595039
 20
134.9094110802
 30
0.0
 10
176.7355299122
 20
134.9008406327
 30
0.0
 10
176.7251435096
 20
134.8979201484
 30
0.0
  0
SPLINE
  5
3EB
330
20B
100
AcDbEntity
  8
7_ALL_FEATURES
  6
Continuous
 62
     7
100
AcDbSpline
 70
     0
 71
     3
 72
    11
 73
     7
 74
     0
 42
0.000000001
 43
0.0000001
 40
0.0
 40
0.0
 40
0.0
 40
0.0
 40
0.2501436301
 40
0.5001736819
 40
0.7500481085
 40
1.0
 40
1.0
 40
1.0
 40
1.0
 10
172.9548427223
 20
134.8979201484
 30
0.0
 10
172.9444561778
 20
134.9008406726
 30
0.0
 10
172.92432633
 20
134.9094112893
 30
0.0
 10
172.8989521963
 20
134.9302553657
 30
0.0
 10
172.8814448199
 20
134.9581941926
 30
0.0
 10
172.8772144733
 20
134.9799601323
 30
0.0
 10
172.8772144733
 20
134.990741198
 30
0.0
  0
LINE
  5
3EC
330
20B
100
AcDbEntity
  8
7_ALL_FEATURES
  6
Continuous
 62
     7
100
AcDbLine
 10
173.568818
 20
135.282782
 30
0.0
 11
174.839993
 21
135.282782
 31
0.0
  0
LINE
  5
3ED
330
20B
100
AcDbEntity
  8
7_ALL_FEATURES
  6
Continuous
 62
     7
100
AcDbLine
 10
172.877214
 20
134.990741
 30
0.0
 11
172.877214
 21
135.116928
 31
0.0
  0
LINE
  5
3EE
330
20B
100
AcDbEntity
  8
7_ALL_FEATURES
  6
Continuous
 62
     9
100
AcDbLine
 10
173.739981
 20
134.990741
 30
0.0
 11
174.839993
 21
134.990741
 31
0.0
  0
LINE
  5
3EF
330
20B
100
AcDbEntity
  8
7_ALL_FEATURES
  6
Continuous
 62
     7
100
AcDbLine
 10
173.651809
 20
133.147139
 30
0.0
 11
174.839993
 21
133.147139
 31
0.0
  0
LINE
  5
3F0
330
20B
100
AcDbEntity
  8
7_ALL_FEATURES
  6
Continuous
 62
     7
100
AcDbLine
 10
172.954859
 20
134.897915
 30
0.0
 11
172.657382
 21
134.89792
 31
0.0
  0
SPLINE
  5
3F1
330
20B
100
AcDbEntity
  8
7_ALL_FEATURES
  6
Continuous
 62
     7
100
AcDbSpline
 70
     0
 71
     3
 72
     9
 73
     5
 74
     0
 42
0.000000001
 43
0.0000001
 40
0.0
 40
0.0
 40
0.0
 40
0.0
 40
0.499996452
 40
1.0
 40
1.0
 40
1.0
 40
1.0
 10
173.7399931159
 20
134.7095124976
 30
0.0
 10
173.6083519241
 20
134.7374845397
 30
0.0
 10
173.346061737
 20
134.798110127
 30
0.0
 10
173.0851086952
 20
134.8641099587
 30
0.0
 10
172.9548427223
 20
134.8979201484
 30
0.0
  0
LINE
  5
3F2
330
20B
100
AcDbEntity
  8
7_ALL_FEATURES
  6
Continuous
 62
     7
100
AcDbLine
 10
173.651809
 20
135.904425
 30
0.0
 11
174.839993
 21
135.904425
 31
0.0
  0
LINE
  5
3F3
330
20B
100
AcDbEntity
  8
7_ALL_FEATURES
  6
Continuous
 62
     7
100
AcDbLine
 10
174.839993
 20
134.89792
 30
0.0
 11
173.73999
 21
134.897916
 31
0.0
  0
LINE
  5
3F4
330
20B
100
AcDbEntity
  8
7_ALL_FEATURES
  6
Continuous
 62
     7
100
AcDbLine
 10
175.916197
 20
134.897915
 30
0.0
 11
174.839993
 21
134.89792
 31
0.0
  0
SPLINE
  5
3F5
330
20B
100
AcDbEntity
  8
7_ALL_FEATURES
  6
Continuous
 62
     7
100
AcDbSpline
 70
     0
 71
     3
 72
     9
 73
     5
 74
     0
 42
0.000000001
 43
0.0000001
 40
0.0
 40
0.0
 40
0.0
 40
0.0
 40
0.500004036
 40
1.0
 40
1.0
 40
1.0
 40
1.0
 10
176.7251435096
 20
134.8979201484
 30
0.0
 10
176.5909535799
 20
134.863091502
 30
0.0
 10
176.3221281434
 20
134.7951506591
 30
0.0
 10
176.0518638353
 20
134.732994273
 30
0.0
 10
175.9161934258
 20
134.7044830252
 30
0.0
  0
LINE
  5
3F6
330
20B
100
AcDbEntity
  8
7_ALL_FEATURES
  6
Continuous
 62
     7
100
AcDbLine
 10
174.839993
 20
134.525782
 30
0.0
 11
176.028177
 21
134.525782
 31
0.0
  0
LINE
  5
3F7
330
20B
100
AcDbEntity
  8
7_ALL_FEATURES
  6
Continuous
 62
     7
100
AcDbLine
 10
174.839993
 20
134.619343
 30
0.0
 11
173.584425
 21
134.619342
 31
0.0
  0
LINE
  5
3F8
330
20B
100
AcDbEntity
  8
7_ALL_FEATURES
  6
Continuous
 62
     7
100
AcDbLine
 10
176.028177
 20
135.345123
 30
0.0
 11
174.839993
 21
135.345123
 31
0.0
  0
LINE
  5
3F9
330
20B
100
AcDbEntity
  8
7_ALL_FEATURES
  6
Continuous
 62
     7
100
AcDbLine
 10
174.839993
 20
133.966479
 30
0.0
 11
173.651809
 21
133.966479
 31
0.0
  0
LINE
  5
3FA
330
20B
100
AcDbEntity
  8
7_ALL_FEATURES
  6
Continuous
 62
     7
100
AcDbLine
 10
174.839993
 20
133.904139
 30
0.0
 11
175.916193
 21
133.90414
 31
0.0
  0
LINE
  5
3FB
330
20B
100
AcDbEntity
  8
7_ALL_FEATURES
  6
Continuous
 62
     7
100
AcDbLine
 10
175.916193
 20
133.90414
 30
0.0
 11
176.111168
 21
133.904139
 31
0.0
  0
LINE
  5
3FC
330
20B
100
AcDbEntity
  8
7_ALL_FEATURES
  6
Continuous
 62
     7
100
AcDbLine
 10
174.839993
 20
133.835563
 30
0.0
 11
175.916196
 21
133.835564
 31
0.0
  0
LINE
  5
3FD
330
20B
100
AcDbEntity
  8
7_ALL_FEATURES
  6
Continuous
 62
     7
100
AcDbLine
 10
176.699529
 20
133.835564
 30
0.0
 11
177.000532
 21
133.835563
 31
0.0
  0
ARC
  5
3FE
330
20B
100
AcDbEntity
  8
7_ALL_FEATURES
  6
Continuous
 62
     7
100
AcDbCircle
 10
172.441271
 20
70.668735
 30
0.0
 40
63.3101972738
100
AcDbArc
 50
86.143348
 51
86.853611
  0
LINE
  5
3FF
330
20B
100
AcDbEntity
  8
7_ALL_FEATURES
  6
Continuous
 62
     9
100
AcDbLine
 10
176.802771
 20
133.738285
 30
0.0
 11
177.089993
 21
133.738285
 31
0.0
  0
SPLINE
  5
400
330
20B
100
AcDbEntity
  8
7_ALL_FEATURES
  6
Continuous
 62
     7
100
AcDbSpline
 70
     0
 71
     3
 72
    11
 73
     7
 74
     0
 42
0.000000001
 43
0.0000001
 40
0.0
 40
0.0
 40
0.0
 40
0.0
 40
0.2502945991
 40
0.5005469111
 40
0.7504001187
 40
1.0
 40
1.0
 40
1.0
 40
1.0
 10
176.6995432836
 20
133.8355631563
 30
0.0
 10
176.7124479914
 20
133.8346333732
 30
0.0
 10
176.7381615757
 20
133.8289118962
 30
0.0
 10
176.772084559
 20
133.8086318703
 30
0.0
 10
176.7966231111
 20
133.7773420086
 30
0.0
 10
176.8027717586
 20
133.7511868357
 30
0.0
 10
176.8027717586
 20
133.738284587
 30
0.0
  0
LINE
  5
401
330
20B
100
AcDbEntity
  8
7_ALL_FEATURES
  6
Continuous
 62
     9
100
AcDbLine
 10
174.839993
 20
133.738285
 30
0.0
 11
175.916207
 21
133.738285
 31
0.0
  0
LINE
  5
402
330
20B
100
AcDbEntity
  8
7_ALL_FEATURES
  6
Continuous
 62
     7
100
AcDbLine
 10
176.028177
 20
132.435661
 30
0.0
 11
175.916193
 21
132.435661
 31
0.0
  0
LINE
  5
403
330
20B
100
AcDbEntity
  8
7_ALL_FEATURES
  6
Continuous
 62
     7
100
AcDbLine
 10
175.916193
 20
132.435661
 30
0.0
 11
174.839993
 21
132.435661
 31
0.0
  0
LINE
  5
404
330
20B
100
AcDbEntity
  8
7_ALL_FEATURES
  6
Continuous
 62
     9
100
AcDbLine
 10
176.802771
 20
133.612098
 30
0.0
 11
177.089993
 21
133.612098
 31
0.0
  0
LINE
  5
405
330
20B
100
AcDbEntity
  8
7_ALL_FEATURES
  6
Continuous
 62
     7
100
AcDbLine
 10
176.802772
 20
133.738285
 30
0.0
 11
176.802772
 21
133.612098
 31
0.0
  0
LINE
  5
406
330
20B
100
AcDbEntity
  8
7_ALL_FEATURES
  6
Continuous
 62
     7
100
AcDbLine
 10
176.095562
 20
135.997985
 30
0.0
 11
174.839993
 21
135.997986
 31
0.0
  0
LINE
  5
407
330
20B
100
AcDbEntity
  8
7_ALL_FEATURES
  6
Continuous
 62
     9
100
AcDbLine
 10
174.839993
 20
133.612098
 30
0.0
 11
175.916207
 21
133.612098
 31
0.0
  0
SPLINE
  5
408
330
20B
100
AcDbEntity
  8
7_ALL_FEATURES
  6
Continuous
 62
     7
100
AcDbSpline
 70
     0
 71
     3
 72
    11
 73
     7
 74
     0
 42
0.000000001
 43
0.0000001
 40
0.0
 40
0.0
 40
0.0
 40
0.0
 40
0.2499552509
 40
0.499831596
 40
0.7498593284
 40
1.0
 40
1.0
 40
1.0
 40
1.0
 10
176.8027717586
 20
133.6120981315
 30
0.0
 10
176.8027717586
 20
133.6013169219
 30
0.0
 10
176.7985412577
 20
133.5795507609
 30
0.0
 10
176.7810336888
 20
133.5516119063
 30
0.0
 10
176.7556595753
 20
133.5307680483
 30
0.0
 10
176.7355299303
 20
133.5221975714
 30
0.0
 10
176.7251435096
 20
133.5192770819
 30
0.0
  0
SPLINE
  5
409
330
20B
100
AcDbEntity
  8
7_ALL_FEATURES
  6
Continuous
 62
     7
100
AcDbSpline
 70
     0
 71
     3
 72
    11
 73
     7
 74
     0
 42
0.000000001
 43
0.0000001
 40
0.0
 40
0.0
 40
0.0
 40
0.0
 40
0.2501436301
 40
0.5001736819
 40
0.7500481085
 40
1.0
 40
1.0
 40
1.0
 40
1.0
 10
172.9548427223
 20
133.5192770819
 30
0.0
 10
172.9444561778
 20
133.5221976061
 30
0.0
 10
172.92432633
 20
133.5307682229
 30
0.0
 10
172.8989521963
 20
133.5516122992
 30
0.0
 10
172.8814448199
 20
133.5795511261
 30
0.0
 10
172.8772144733
 20
133.6013170659
 30
0.0
 10
172.8772144733
 20
133.6120981315
 30
0.0
  0
LINE
  5
40A
330
20B
100
AcDbEntity
  8
7_ALL_FEATURES
  6
Continuous
 62
     7
100
AcDbLine
 10
172.877214
 20
133.612098
 30
0.0
 11
172.877214
 21
133.738285
 31
0.0
  0
LINE
  5
40B
330
20B
100
AcDbEntity
  8
7_ALL_FEATURES
  6
Continuous
 62
     9
100
AcDbLine
 10
173.739981
 20
133.612098
 30
0.0
 11
174.839993
 21
133.612098
 31
0.0
  0
LINE
  5
40C
330
20B
100
AcDbEntity
  8
7_ALL_FEATURES
  6
Continuous
 62
     7
100
AcDbLine
 10
172.954859
 20
133.519272
 30
0.0
 11
172.657382
 21
133.519277
 31
0.0
  0
SPLINE
  5
40D
330
20B
100
AcDbEntity
  8
7_ALL_FEATURES
  6
Continuous
 62
     7
100
AcDbSpline
 70
     0
 71
     3
 72
     9
 73
     5
 74
     0
 42
0.000000001
 43
0.0000001
 40
0.0
 40
0.0
 40
0.0
 40
0.0
 40
0.499996452
 40
1.0
 40
1.0
 40
1.0
 40
1.0
 10
173.7399931159
 20
133.3308694311
 30
0.0
 10
173.6083519241
 20
133.3588414733
 30
0.0
 10
173.3460617377
 20
133.419467063
 30
0.0
 10
173.0851086942
 20
133.4854668886
 30
0.0
 10
172.9548427223
 20
133.5192770819
 30
0.0
  0
LINE
  5
40E
330
20B
100
AcDbEntity
  8
7_ALL_FEATURES
  6
Continuous
 62
     7
100
AcDbLine
 10
174.839993
 20
133.519277
 30
0.0
 11
173.73999
 21
133.519273
 31
0.0
  0
LINE
  5
40F
330
20B
100
AcDbEntity
  8
7_ALL_FEATURES
  6
Continuous
 62
     7
100
AcDbLine
 10
175.916197
 20
133.519272
 30
0.0
 11
174.839993
 21
133.519277
 31
0.0
  0
SPLINE
  5
410
330
20B
100
AcDbEntity
  8
7_ALL_FEATURES
  6
Continuous
 62
     7
100
AcDbSpline
 70
     0
 71
     3
 72
     9
 73
     5
 74
     0
 42
0.000000001
 43
0.0000001
 40
0.0
 40
0.0
 40
0.0
 40
0.0
 40
0.500004036
 40
1.0
 40
1.0
 40
1.0
 40
1.0
 10
176.7251435096
 20
133.5192770819
 30
0.0
 10
176.5909535799
 20
133.4844484356
 30
0.0
 10
176.3221281435
 20
133.4165075926
 30
0.0
 10
176.0518638353
 20
133.3543512066
 30
0.0
 10
175.9161934258
 20
133.3258399588
 30
0.0
  0
LINE
  5
411
330
20B
100
AcDbEntity
  8
7_ALL_FEATURES
  6
Continuous
 62
     7
100
AcDbLine
 10
174.839993
 20
133.147139
 30
0.0
 11
176.028177
 21
133.147139
 31
0.0
  0
LINE
  5
412
330
20B
100
AcDbEntity
  8
7_ALL_FEATURES
  6
Continuous
 62
     7
100
AcDbLine
 10
174.839993
 20
133.2407
 30
0.0
 11
173.584424
 21
133.240699
 31
0.0
  0
LINE
  5
413
330
20B
100
AcDbEntity
  8
7_ALL_FEATURES
  6
Continuous
 62
     7
100
AcDbLine
 10
173.740005
 20
132.41771
 30
0.0
 11
174.839993
 21
132.417709
 31
0.0
  0
ARC
  5
414
330
20B
100
AcDbEntity
  8
7_ALL_FEATURES
  6
Continuous
 62
     7
100
AcDbCircle
 10
176.553111
 20
-10.330409
 30
0.0
 40
142.7836002402
100
AcDbArc
 50
91.128913
 51
91.277346
  0
LINE
  5
415
330
20B
100
AcDbEntity
  8
7_ALL_FEATURES
  6
Continuous
 62
     7
100
AcDbLine
 10
174.839993
 20
132.435661
 30
0.0
 11
173.739993
 21
132.435661
 31
0.0
  0
LINE
  5
416
330
20B
100
AcDbEntity
  8
7_ALL_FEATURES
  6
Continuous
 62
     7
100
AcDbLine
 10
173.739993
 20
132.435661
 30
0.0
 11
173.651809
 21
132.435661
 31
0.0
  0
LINE
  5
417
330
20B
100
AcDbEntity
  8
7_ALL_FEATURES
  6
Continuous
 62
     7
100
AcDbLine
 10
174.839993
 20
132.417709
 30
0.0
 11
175.916184
 21
132.41771
 31
0.0
  0
LINE
  5
418
330
20B
100
AcDbEntity
  8
7_ALL_FEATURES
  6
Continuous
 62
     7
100
AcDbLine
 10
176.309797
 20
132.41771
 30
0.0
 11
176.675852
 21
132.417709
 31
0.0
  0
ARC
  5
419
330
20B
100
AcDbEntity
  8
7_ALL_FEATURES
  6
Continuous
 62
     7
100
AcDbCircle
 10
173.179788
 20
-7.853977
 30
0.0
 40
140.306604043
100
AcDbArc
 50
88.721712
 51
88.882487
  0
LINE
  5
41A
330
20B
100
AcDbEntity
  8
7_ALL_FEATURES
  6
Continuous
 62
     9
100
AcDbLine
 10
172.589993
 20
136.369384
 30
0.0
 11
172.877216
 21
136.369384
 31
0.0
  0
LINE
  5
41B
330
20B
100
AcDbEntity
  8
7_ALL_FEATURES
  6
Continuous
 62
     7
100
AcDbLine
 10
177.022607
 20
136.276564
 30
0.0
 11
176.725128
 21
136.276558
 31
0.0
  0
LINE
  5
41C
330
20B
100
AcDbEntity
  8
7_ALL_FEATURES
  6
Continuous
 62
     7
100
AcDbLine
 10
173.415276
 20
131.627837
 30
0.0
 11
173.040038
 21
131.627846
 31
0.0
  0
SPLINE
  5
41D
330
20B
100
AcDbEntity
  8
7_ALL_FEATURES
  6
Continuous
 62
     7
100
AcDbSpline
 70
     0
 71
     3
 72
     8
 73
     4
 74
     0
 42
0.000000001
 43
0.0000001
 40
0.0
 40
0.0
 40
0.0
 40
0.0
 40
1.0
 40
1.0
 40
1.0
 40
1.0
 10
173.7399931159
 20
131.175671283
 30
0.0
 10
173.6273252533
 20
131.3231169249
 30
0.0
 10
173.5198890644
 20
131.4745858049
 30
0.0
 10
173.4152687486
 20
131.6278465439
 30
0.0
  0
LINE
  5
41E
330
20B
100
AcDbEntity
  8
7_ALL_FEATURES
  6
Continuous
 62
     7
100
AcDbLine
 10
174.839993
 20
131.627847
 30
0.0
 11
173.739994
 21
131.627836
 31
0.0
  0
LINE
  5
41F
330
20B
100
AcDbEntity
  8
7_ALL_FEATURES
  6
Continuous
 62
     7
100
AcDbLine
 10
175.916191
 20
131.627838
 30
0.0
 11
174.839993
 21
131.627847
 31
0.0
  0
SPLINE
  5
420
330
20B
100
AcDbEntity
  8
7_ALL_FEATURES
  6
Continuous
 62
     7
100
AcDbSpline
 70
     0
 71
     3
 72
     8
 73
     4
 74
     0
 42
0.000000001
 43
0.0000001
 40
0.0
 40
0.0
 40
0.0
 40
0.0
 40
1.0
 40
1.0
 40
1.0
 40
1.0
 10
176.2647174832
 20
131.6278465439
 30
0.0
 10
176.1527595771
 20
131.4638367979
 30
0.0
 10
176.0376043392
 20
131.3018360977
 30
0.0
 10
175.9161934258
 20
131.1446955249
 30
0.0
  0
LINE
  5
421
330
20B
100
AcDbEntity
  8
7_ALL_FEATURES
  6
Continuous
 62
     7
100
AcDbLine
 10
176.095562
 20
133.240699
 30
0.0
 11
174.839993
 21
133.2407
 31
0.0
  0
LINE
  5
422
330
20B
100
AcDbEntity
  8
7_ALL_FEATURES
  6
Continuous
 62
     7
100
AcDbLine
 10
176.309815
 20
132.417709
 30
0.0
 11
176.264717
 21
131.627847
 31
0.0
  0
LINE
  5
423
330
20B
100
AcDbEntity
  8
7_ALL_FEATURES
  6
Continuous
 62
     7
100
AcDbLine
 10
173.415269
 20
131.627847
 30
0.0
 11
173.370171
 21
132.417709
 31
0.0
  0
LINE
  5
424
330
20B
100
AcDbEntity
  8
7_ALL_FEATURES
  6
Continuous
 62
     7
100
AcDbLine
 10
173.73999
 20
133.835564
 30
0.0
 11
174.839993
 21
133.835563
 31
0.0
  0
ARC
  5
425
330
20B
100
AcDbEntity
  8
7_ALL_FEATURES
  6
Continuous
 62
     7
100
AcDbCircle
 10
177.313308
 20
69.484159
 30
0.0
 40
64.4971078438
100
AcDbArc
 50
93.175968
 51
93.851987
  0
SPLINE
  5
426
330
20B
100
AcDbEntity
  8
7_ALL_FEATURES
  6
Continuous
 62
     7
100
AcDbSpline
 70
     0
 71
     3
 72
    11
 73
     7
 74
     0
 42
0.000000001
 43
0.0000001
 40
0.0
 40
0.0
 40
0.0
 40
0.0
 40
0.2496038571
 40
0.4994602285
 40
0.7497094907
 40
1.0
 40
1.0
 40
1.0
 40
1.0
 10
172.8772144733
 20
133.738284587
 30
0.0
 10
172.8772144756
 20
133.751187042
 30
0.0
 10
172.8833632786
 20
133.7773426147
 30
0.0
 10
172.9079023249
 20
133.8086323898
 30
0.0
 10
172.9418252139
 20
133.8289121121
 30
0.0
 10
172.9675384505
 20
133.8346333883
 30
0.0
 10
172.9804429482
 20
133.8355631563
 30
0.0
  0
LINE
  5
427
330
20B
100
AcDbEntity
  8
7_ALL_FEATURES
  6
Continuous
 62
     9
100
AcDbLine
 10
173.739981
 20
133.738285
 30
0.0
 11
174.839993
 21
133.738285
 31
0.0
  0
LINE
  5
428
330
20B
100
AcDbEntity
  8
7_ALL_FEATURES
  6
Continuous
 62
     7
100
AcDbLine
 10
173.73999
 20
135.214207
 30
0.0
 11
174.839993
 21
135.214206
 31
0.0
  0
ARC
  5
429
330
20B
100
AcDbEntity
  8
7_ALL_FEATURES
  6
Continuous
 62
     7
100
AcDbCircle
 10
177.313308
 20
70.862802
 30
0.0
 40
64.4971078457
100
AcDbArc
 50
93.175968
 51
93.851987
  0
SPLINE
  5
42A
330
20B
100
AcDbEntity
  8
7_ALL_FEATURES
  6
Continuous
 62
     7
100
AcDbSpline
 70
     0
 71
     3
 72
    11
 73
     7
 74
     0
 42
0.000000001
 43
0.0000001
 40
0.0
 40
0.0
 40
0.0
 40
0.0
 40
0.2496837391
 40
0.4995306591
 40
0.7497301003
 40
1.0
 40
1.0
 40
1.0
 40
1.0
 10
172.8772144733
 20
135.1169276535
 30
0.0
 10
172.8772144756
 20
135.1298342396
 30
0.0
 10
172.8833654059
 20
135.1559940902
 30
0.0
 10
172.9079102989
 20
135.1872803885
 30
0.0
 10
172.9418296605
 20
135.2075567628
 30
0.0
 10
172.9675395112
 20
135.2132765312
 30
0.0
 10
172.9804429482
 20
135.2142062227
 30
0.0
  0
LINE
  5
42B
330
20B
100
AcDbEntity
  8
7_ALL_FEATURES
  6
Continuous
 62
     9
100
AcDbLine
 10
173.739981
 20
135.116928
 30
0.0
 11
174.839993
 21
135.116928
 31
0.0
  0
LINE
  5
42C
330
20B
100
AcDbEntity
  8
7_ALL_FEATURES
  6
Continuous
 62
     7
100
AcDbLine
 10
183.061995
 20
146.40187
 30
0.0
 11
182.888895
 21
146.40187
 31
0.0
  0
LINE
  5
42D
330
20B
100
AcDbEntity
  8
7_ALL_FEATURES
  6
Continuous
 62
     7
100
AcDbLine
 10
187.831195
 20
146.40187
 30
0.0
 11
183.061995
 21
146.40187
 31
0.0
  0
ARC
  5
42E
330
20B
100
AcDbEntity
  8
7_ALL_FEATURES
  6
Continuous
 62
     7
100
AcDbCircle
 10
164.253457
 20
144.10187
 30
0.0
 40
0.2
100
AcDbArc
 50
270.0
 51
287.623714
  0
ARC
  5
42F
330
20B
100
AcDbEntity
  8
7_ALL_FEATURES
  6
Continuous
 62
     7
100
AcDbCircle
 10
164.253457
 20
144.10187
 30
0.0
 40
0.2
100
AcDbArc
 50
270.0
 51
340.331562
  0
ARC
  5
430
330
20B
100
AcDbEntity
  8
7_ALL_FEATURES
  6
Continuous
 62
     7
100
AcDbCircle
 10
164.253457
 20
144.10187
 30
0.0
 40
0.2
100
AcDbArc
 50
270.0
 51
287.62422
  0
ARC
  5
431
330
20B
100
AcDbEntity
  8
7_ALL_FEATURES
  6
Continuous
 62
     7
100
AcDbCircle
 10
164.253457
 20
144.10187
 30
0.0
 40
0.2
100
AcDbArc
 50
270.0
 51
287.623714
  0
ARC
  5
432
330
20B
100
AcDbEntity
  8
7_ALL_FEATURES
  6
Continuous
 62
     7
100
AcDbCircle
 10
206.639733
 20
144.10187
 30
0.0
 40
0.2
100
AcDbArc
 50
252.37578
 51
270.0
  0
ARC
  5
433
330
20B
100
AcDbEntity
  8
7_ALL_FEATURES
  6
Continuous
 62
     7
100
AcDbCircle
 10
206.639733
 20
144.10187
 30
0.0
 40
0.2
100
AcDbArc
 50
252.376286
 51
270.0
  0
ARC
  5
434
330
20B
100
AcDbEntity
  8
7_ALL_FEATURES
  6
Continuous
 62
     7
100
AcDbCircle
 10
206.639733
 20
144.10187
 30
0.0
 40
0.2
100
AcDbArc
 50
252.37578
 51
270.0
  0
ARC
  5
435
330
20B
100
AcDbEntity
  8
7_ALL_FEATURES
  6
Continuous
 62
     7
100
AcDbCircle
 10
206.639733
 20
144.10187
 30
0.0
 40
0.2
100
AcDbArc
 50
199.627735
 51
270.0
  0
LINE
  5
436
330
20B
100
AcDbEntity
  8
7_ALL_FEATURES
  6
Continuous
 62
     9
100
AcDbLine
 10
187.831195
 20
146.40187
 30
0.0
 11
187.814925
 21
147.20885
 31
0.0
  0
LINE
  5
437
330
20B
100
AcDbEntity
  8
7_ALL_FEATURES
  6
Continuous
 62
     9
100
AcDbLine
 10
183.061995
 20
146.40187
 30
0.0
 11
183.078264
 21
147.20885
 31
0.0
  0
SPLINE
  5
438
330
20B
100
AcDbEntity
  8
7_ALL_FEATURES
  6
Continuous
 62
     9
100
AcDbSpline
 70
     0
 71
     3
 72
    11
 73
     7
 74
     0
 42
0.000000001
 43
0.0000001
 40
0.0
 40
0.0
 40
0.0
 40
0.0
 40
0.2335419458
 40
0.4769106876
 40
0.7336833137
 40
1.0
 40
1.0
 40
1.0
 40
1.0
 10
183.0782644842
 20
147.4018697751
 30
0.0
 10
183.0560979388
 20
147.4018697751
 30
0.0
 10
183.0102782178
 20
147.3913696122
 30
0.0
 10
182.9536260886
 20
147.3477574232
 30
0.0
 10
182.9156588931
 20
147.2839170117
 30
0.0
 10
182.9059290104
 20
147.2341154706
 30
0.0
 10
182.9051649153
 20
147.2088496745
 30
0.0
  0
SPLINE
  5
439
330
20B
100
AcDbEntity
  8
7_ALL_FEATURES
  6
Continuous
 62
     9
100
AcDbSpline
 70
     0
 71
     3
 72
     9
 73
     5
 74
     0
 42
0.000000001
 43
0.0000001
 40
0.0
 40
0.0
 40
0.0
 40
0.0
 40
0.4227603741
 40
1.0
 40
1.0
 40
1.0
 40
1.0
 10
182.9051649153
 20
147.2088496745
 30
0.0
 10
182.9295403556
 20
147.2098301748
 30
0.0
 10
182.9872642583
 20
147.2101442827
 30
0.0
 10
183.0449619435
 20
147.2095202864
 30
0.0
 10
183.0782644842
 20
147.2088496745
 30
0.0
  0
LINE
  5
43A
330
20B
100
AcDbEntity
  8
7_ALL_FEATURES
  6
Continuous
 62
     9
100
AcDbLine
 10
183.078264
 20
147.20885
 30
0.0
 11
183.078264
 21
147.40187
 31
0.0
  0
SPLINE
  5
43B
330
20B
100
AcDbEntity
  8
7_ALL_FEATURES
  6
Continuous
 62
     9
100
AcDbSpline
 70
     0
 71
     3
 72
    11
 73
     7
 74
     0
 42
0.000000001
 43
0.0000001
 40
0.0
 40
0.0
 40
0.0
 40
0.0
 40
0.2663421422
 40
0.5231257399
 40
0.7664636114
 40
1.0
 40
1.0
 40
1.0
 40
1.0
 10
187.9880247521
 20
147.2088496745
 30
0.0
 10
187.987260584
 20
147.2341178842
 30
0.0
 10
187.9775287344
 20
147.2839228227
 30
0.0
 10
187.9395589156
 20
147.3477625221
 30
0.0
 10
187.882907418
 20
147.3913707809
 30
0.0
 10
187.8370911999
 20
147.4018697751
 30
0.0
 10
187.8149251832
 20
147.4018697751
 30
0.0
  0
LINE
  5
43C
330
20B
100
AcDbEntity
  8
7_ALL_FEATURES
  6
Continuous
 62
     9
100
AcDbLine
 10
187.814925
 20
147.40187
 30
0.0
 11
187.814925
 21
147.20885
 31
0.0
  0
SPLINE
  5
43D
330
20B
100
AcDbEntity
  8
7_ALL_FEATURES
  6
Continuous
 62
     9
100
AcDbSpline
 70
     0
 71
     3
 72
     9
 73
     5
 74
     0
 42
0.000000001
 43
0.0000001
 40
0.0
 40
0.0
 40
0.0
 40
0.0
 40
0.5772689219
 40
1.0
 40
1.0
 40
1.0
 40
1.0
 10
187.8149251832
 20
147.2088496745
 30
0.0
 10
187.8482294141
 20
147.2095203204
 30
0.0
 10
187.9059271004
 20
147.2101442623
 30
0.0
 10
187.963651001
 20
147.2098301068
 30
0.0
 10
187.9880247521
 20
147.2088496745
 30
0.0
  0
LINE
  5
43E
330
20B
100
AcDbEntity
  8
7_ALL_FEATURES
  6
Continuous
 62
     9
100
AcDbLine
 10
183.078264
 20
147.20885
 30
0.0
 11
187.814925
 21
147.20885
 31
0.0
  0
LINE
  5
43F
330
20B
100
AcDbEntity
  8
7_ALL_FEATURES
  6
Continuous
 62
     9
100
AcDbLine
 10
188.004295
 20
146.40187
 30
0.0
 11
187.988025
 21
147.20885
 31
0.0
  0
LINE
  5
440
330
20B
100
AcDbEntity
  8
7_ALL_FEATURES
  6
Continuous
 62
     9
100
AcDbLine
 10
187.988025
 20
147.20885
 30
0.0
 11
190.155539
 21
147.20885
 31
0.0
  0
LINE
  5
441
330
20B
100
AcDbEntity
  8
7_ALL_FEATURES
  6
Continuous
 62
     9
100
AcDbLine
 10
180.737651
 20
147.20885
 30
0.0
 11
182.905165
 21
147.20885
 31
0.0
  0
LINE
  5
442
330
20B
100
AcDbEntity
  8
7_ALL_FEATURES
  6
Continuous
 62
     9
100
AcDbLine
 10
182.888895
 20
146.40187
 30
0.0
 11
182.905165
 21
147.20885
 31
0.0
  0
LINE
  5
443
330
20B
100
AcDbEntity
  8
7_ALL_FEATURES
  6
Continuous
 62
     7
100
AcDbLine
 10
207.946595
 20
169.40187
 30
0.0
 11
207.946595
 21
146.40187
 31
0.0
  0
LINE
  5
444
330
20B
100
AcDbEntity
  8
7_ALL_FEATURES
  6
Continuous
 62
     7
100
AcDbLine
 10
163.946595
 20
136.40187
 30
0.0
 11
162.946595
 21
136.40187
 31
0.0
  0
LINE
  5
445
330
20B
100
AcDbEntity
  8
7_ALL_FEATURES
  6
Continuous
 62
     7
100
AcDbLine
 10
163.946595
 20
136.40187
 30
0.0
 11
206.946595
 21
136.40187
 31
0.0
  0
LINE
  5
446
330
20B
100
AcDbEntity
  8
7_ALL_FEATURES
  6
Continuous
 62
     7
100
AcDbLine
 10
207.946595
 20
136.40187
 30
0.0
 11
206.946595
 21
136.40187
 31
0.0
  0
LINE
  5
447
330
20B
100
AcDbEntity
  8
7_ALL_FEATURES
  6
Continuous
 62
     7
100
AcDbLine
 10
162.946595
 20
169.40187
 30
0.0
 11
162.946595
 21
146.40187
 31
0.0
  0
LINE
  5
448
330
20B
100
AcDbEntity
  8
7_ALL_FEATURES
  6
Continuous
 62
     7
100
AcDbLine
 10
162.946595
 20
143.90187
 30
0.0
 11
162.946595
 21
136.40187
 31
0.0
  0
LINE
  5
449
330
20B
100
AcDbEntity
  8
7_ALL_FEATURES
  6
Continuous
 62
     7
100
AcDbLine
 10
163.946595
 20
143.90187
 30
0.0
 11
206.946595
 21
143.90187
 31
0.0
  0
LINE
  5
44A
330
20B
100
AcDbEntity
  8
7_ALL_FEATURES
  6
Continuous
 62
     7
100
AcDbLine
 10
207.946595
 20
143.90187
 30
0.0
 11
207.946595
 21
136.40187
 31
0.0
  0
LINE
  5
44B
330
20B
100
AcDbEntity
  8
7_ALL_FEATURES
  6
Continuous
 62
     7
100
AcDbLine
 10
162.946595
 20
169.40187
 30
0.0
 11
163.946595
 21
169.40187
 31
0.0
  0
LINE
  5
44C
330
20B
100
AcDbEntity
  8
7_ALL_FEATURES
  6
Continuous
 62
     7
100
AcDbLine
 10
163.946595
 20
169.40187
 30
0.0
 11
206.946595
 21
169.40187
 31
0.0
  0
LINE
  5
44D
330
20B
100
AcDbEntity
  8
7_ALL_FEATURES
  6
Continuous
 62
     7
100
AcDbLine
 10
206.946595
 20
169.40187
 30
0.0
 11
207.946595
 21
169.40187
 31
0.0
  0
LINE
  5
44E
330
20B
100
AcDbEntity
  8
7_ALL_FEATURES
  6
Continuous
 62
     7
100
AcDbLine
 10
207.946595
 20
146.40187
 30
0.0
 11
206.946595
 21
146.40187
 31
0.0
  0
LINE
  5
44F
330
20B
100
AcDbEntity
  8
7_ALL_FEATURES
  6
Continuous
 62
     7
100
AcDbLine
 10
163.946595
 20
146.40187
 30
0.0
 11
180.713243
 21
146.40187
 31
0.0
  0
LINE
  5
450
330
20B
100
AcDbEntity
  8
7_ALL_FEATURES
  6
Continuous
 62
     7
100
AcDbLine
 10
180.713243
 20
146.40187
 30
0.0
 11
182.888895
 21
146.40187
 31
0.0
  0
LINE
  5
451
330
20B
100
AcDbEntity
  8
7_ALL_FEATURES
  6
Continuous
 62
     7
100
AcDbLine
 10
182.888895
 20
146.40187
 30
0.0
 11
183.061995
 21
146.40187
 31
0.0
  0
LINE
  5
452
330
20B
100
AcDbEntity
  8
7_ALL_FEATURES
  6
Continuous
 62
     7
100
AcDbLine
 10
183.061995
 20
146.40187
 30
0.0
 11
187.831195
 21
146.40187
 31
0.0
  0
LINE
  5
453
330
20B
100
AcDbEntity
  8
7_ALL_FEATURES
  6
Continuous
 62
     7
100
AcDbLine
 10
187.831195
 20
146.40187
 30
0.0
 11
188.004295
 21
146.40187
 31
0.0
  0
LINE
  5
454
330
20B
100
AcDbEntity
  8
7_ALL_FEATURES
  6
Continuous
 62
     7
100
AcDbLine
 10
188.004295
 20
146.40187
 30
0.0
 11
190.179946
 21
146.40187
 31
0.0
  0
LINE
  5
455
330
20B
100
AcDbEntity
  8
7_ALL_FEATURES
  6
Continuous
 62
     7
100
AcDbLine
 10
190.179946
 20
146.40187
 30
0.0
 11
206.946595
 21
146.40187
 31
0.0
  0
LINE
  5
456
330
20B
100
AcDbEntity
  8
7_ALL_FEATURES
  6
Continuous
 62
     7
100
AcDbLine
 10
163.946595
 20
146.40187
 30
0.0
 11
162.946595
 21
146.40187
 31
0.0
  0
LINE
  5
457
330
20B
100
AcDbEntity
  8
7_ALL_FEATURES
  6
Continuous
 62
     7
100
AcDbLine
 10
206.946595
 20
143.90187
 30
0.0
 11
207.946595
 21
143.90187
 31
0.0
  0
LINE
  5
458
330
20B
100
AcDbEntity
  8
7_ALL_FEATURES
  6
Continuous
 62
     7
100
AcDbLine
 10
162.946595
 20
143.90187
 30
0.0
 11
163.946595
 21
143.90187
 31
0.0
  0
LINE
  5
459
330
20B
100
AcDbEntity
  8
7_ALL_FEATURES
  6
Continuous
 62
     7
100
AcDbLine
 10
206.446595
 20
143.90187
 30
0.0
 11
206.446595
 21
146.40187
 31
0.0
  0
LINE
  5
45A
330
20B
100
AcDbEntity
  8
7_ALL_FEATURES
  6
Continuous
 62
     7
100
AcDbLine
 10
164.446595
 20
143.90187
 30
0.0
 11
164.446595
 21
146.40187
 31
0.0
  0
LINE
  5
45B
330
20B
100
AcDbEntity
  8
7_ALL_FEATURES
  6
Continuous
 62
     9
100
AcDbLine
 10
163.946595
 20
143.90187
 30
0.0
 11
163.946595
 21
136.40187
 31
0.0
  0
LINE
  5
45C
330
20B
100
AcDbEntity
  8
7_ALL_FEATURES
  6
Continuous
 62
     9
100
AcDbLine
 10
163.946595
 20
169.40187
 30
0.0
 11
163.946595
 21
146.40187
 31
0.0
  0
LINE
  5
45D
330
20B
100
AcDbEntity
  8
7_ALL_FEATURES
  6
Continuous
 62
     9
100
AcDbLine
 10
206.946595
 20
169.40187
 30
0.0
 11
206.946595
 21
146.40187
 31
0.0
  0
LINE
  5
45E
330
20B
100
AcDbEntity
  8
7_ALL_FEATURES
  6
Continuous
 62
     9
100
AcDbLine
 10
206.946595
 20
143.90187
 30
0.0
 11
206.946595
 21
136.40187
 31
0.0
  0
LINE
  5
45F
330
20B
100
AcDbEntity
  8
7_ALL_FEATURES
  6
Continuous
 62
     9
100
AcDbLine
 10
205.446595
 20
143.90187
 30
0.0
 11
205.446595
 21
146.40187
 31
0.0
  0
LINE
  5
460
330
20B
100
AcDbEntity
  8
7_ALL_FEATURES
  6
Continuous
 62
     9
100
AcDbLine
 10
165.446595
 20
143.90187
 30
0.0
 11
165.446595
 21
146.40187
 31
0.0
  0
DIMENSION
  5
461
330
20B
100
AcDbEntity
  8
0
  6
Continuous
 62
     2
100
AcDbDimension
280
     0
  2
*D1
 10
121.124932
 20
136.40187
 30
0.0
 11
121.124932
 21
152.899401
 31
0.0
 70
   160
 71
     2
 42
33.0
 73
     0
 74
     0
 75
     0
  3
DIMSTYLE_1
100
AcDbAlignedDimension
 13
111.860547
 23
169.40187
 33
0.0
 14
110.533583
 24
136.40187
 34
0.0
 50
270.0
100
AcDbRotatedDimension
  0
DIMENSION
  5
462
330
20B
100
AcDbEntity
  8
0
  6
Continuous
 62
     2
100
AcDbDimension
280
     0
  2
*D2
 10
57.871943
 20
106.52378
 30
0.0
 11
80.308132
 21
106.52378
 31
0.0
 70
   160
 71
     2
 42
45.0
 73
     0
 74
     0
 75
     0
  3
DIMSTYLE_1
100
AcDbAlignedDimension
 13
102.871943
 23
97.729304
 33
0.0
 14
57.871943
 24
97.84424
 34
0.0
 50
180.0
100
AcDbRotatedDimension
  0
DIMENSION
  5
463
330
20B
100
AcDbEntity
  8
0
  6
Continuous
 62
     2
100
AcDbDimension
280
     0
  2
*D3
 10
123.811888
 20
89.109981
 30
0.0
 11
123.811888
 21
66.546176
 31
0.0
 70
   160
 71
     2
 42
45.0
 73
     0
 74
     0
 75
     0
  3
DIMSTYLE_1
100
AcDbAlignedDimension
 13
112.253344
 23
44.109981
 33
0.0
 14
112.702035
 24
89.109981
 34
0.0
 50
90.0
100
AcDbRotatedDimension
  0
INSERT
  5
464
330
20B
100
AcDbEntity
  8
0
  6
Continuous
 62
     2
100
AcDbBlockReference
  2
LOGO2_BL0
 10
207.405806
 20
40.097681
 30
0.0
  0
ACAD_TABLE
  5
465
102
{ACAD_XDICTIONARY
360
4BA
102
}
330
20B
100
AcDbEntity
  8
0
  6
Continuous
 62
     2
160
              3320
310
F80C000017000000880000001D000000000000000000F03F0000000000000000000000000000000009D27D638D3268400000000000000000000000000000F03F00000000000000004600D5CE80CC4A4000000000000000000000000000000000000000000000F03F0000000000000000000000000000000000000000000000
310
000000000000000000000000000000F03F54000000200000000200000000000000000000000000000000000000000000000000000000000000008056400000000000000000000000000000000000000000000000000000000000000000000000000000F03F5400000020000000020000000000000000000000000000000000
310
00000000000000000000000000000000000000000000000044C0000000000000000000000000000000000000000000000000000000000000F03F5400000020000000020000000000000000003E4000000000000018C00000000000000000000000000080564000000000000018C00000000000000000000000000000000000
310
00000000000000000000000000F03F5400000020000000020000000000000000003E4000000000000028C00000000000000000000000000080564000000000000028C0000000000000000000000000000000000000000000000000000000000000F03F5400000020000000020000000000000000003E4000000000000036C0
310
0000000000000000000000000080564000000000000036C0000000000000000000000000000000000000000000000000000000000000F03F54000000200000000200000000000000000000000000000000003BC0000000000000000000000000008056400000000000003BC000000000000000000000000000000000000000
310
0000000000000000000000F03F540000002000000002000000000000000000000000000000000044C00000000000000000000000000080564000000000000044C0000000000000000000000000000000000000000000000000000000000000F03F5400000020000000020000000000000000003E4000000000000000000000
310
0000000000000000000000003E400000000000003BC0000000000000000000000000000000000000000000000000000000000000F03F540000002000000002000000000000000080514000000000000000000000000000000000000000000080514000000000000028C0000000000000000000000000000000000000000000
310
000000000000000000F03F540000002000000002000000000000000080564000000000000000000000000000000000000000000080564000000000000044C0000000000000000000000000000000000000000000000000000000000000F03F0C000000100000000B000000D000000026000000CDCCCCCCCC7C3F404E621058
310
393412C0000000000000000000000000000000000000000000000000000000000000F03F000000000000F03F0000000000000000000000000000000041003100390033005F0043005F003400300031000000000014000000010000000000000000000840000000000000F03F0000000000000000000000000000F03F000000
310
0000000000000000000000000000000000000000000000000000000000000000000000000061007200690061006C002E00740074006600000000000000C800000026000000C2F5285C8FC6514075931804560E13C0000000000000000000000000000000000000000000000000000000000000F03F000000000000F03F0000
310
00000000000000000000000000005200650076003A0030003000000000000C000000010000000000000000000C40000000000000F03F0000000000000000000000000000F03F0000000000000000000000000000000000000000000000000000000000000000000000000000000061007200690061006C002E007400740066
310
00000000000000CC00000026000000FA7E6ABC74433F405839B4C8769E26C0000000000000000000000000000000000000000000000000000000000000F03F000000000000F03F000000000000000000000000000000005300630061006C0065003A0031003A003100000012000000010000000000000000000C4000000000
310
0000F03F0000000000000000000000000000F03F0000000000000000000000000000000000000000000000000000000000000000000000000000000061007200690061006C002E00740074006600000000000000C0000000260000003333333333DF514000000000008025C000000000000000000000000000000000000000
310
0000000000000000000000F03F000000000000F03F00000000000000000000000000000000410034000000000004000000010000000000000000000C40000000000000F03F0000000000000000000000000000F03F000000000000000000000000000000000000000000000000000000000000000000000000000000006100
310
7200690061006C002E00740074006600000000000000DC00000026000000D122DBF97E3A3F40AC1C5A643BCF32C0000000000000000000000000000000000000000000000000000000000000F03F000000000000F03F0000000000000000000000000000000047004F004300430049004100200032002E00350020002D0020
310
0032002E0039000000000020000000010000000000000000000C40000000000000F03F0000000000000000000000000000F03F0000000000000000000000000000000000000000000000000000000000000000000000000000000061007200690061006C002E00740074006600000000000000D40000002600000048E17A14
310
AE373F40C3F5285C8FC239C0000000000000000000000000000000000000000000000000000000000000F03F000000000000F03F0000000000000000000000000000000044004100540045003A00310032002E00310030002E003200330000001A000000010000000000000000000440000000000000F03F00000000000000
310
00000000000000F03F0000000000000000000000000000000000000000000000000000000000000000000000000000000061007200690061006C002E007400740066000000000000002401000026000000CDCCCCCCCCCCF73F0000000000903DC0000000000000000000000000000000000000000000000000000000000000
310
F03F000000000000F03F0000000000000000000000000000000041006E007900200069006E00740065006700720061006C0020006F00720020007000610072007400690061006C00200072006500700072006F00640075006300740069006F006E00730020006100720065002000700072006F006800690062006900740065
310
0064000000000068000000010000000000000000000240000000000000F03F0000000000000000000000000000F03F0000000000000000000000000000000000000000000000000000000000000000000000000000000061007200690061006C002E007400740066000000000000002C01000026000000FED478E926B1F73F
310
37894160E57C40C0000000000000000000000000000000000000000000000000000000000000F03F000000000000F03F0000000000000000000000000000000077006900740068006F007500740020007000720069006F007200200061007500740068006F007200690073006100740069006F006E0020006F00660020004C
310
002000260020004C0020004C007500630065002000260020004C006900670068007400200073002E0072002E006C002E002C00000072000000010000000000000000000240000000000000F03F0000000000000000000000000000F03F00000000000000000000000000000000000000000000000000000000000000000000
310
00000000000061007200690061006C002E007400740066000000000000000401000026000000C1CAA145B673F43F4F1E166A4D3142C0000000000000000000000000000000000000000000000000000000000000F03F000000000000F03F0000000000000000000000000000000069006E0020006100630063006F00720064
310
0061006E006300650020007700690074006800200074006800650020006C0061007700200069006E00200066006F007200630065002E000000000048000000010000000000000000000240000000000000F03F0000000000000000000000000000F03F00000000000000000000000000000000000000000000000000000000
310
00000000000000000000000061007200690061006C002E00740074006600000000000000E400000026000000CDCCCCCCCCCCF73F302AA913D0E043C0000000000000000000000000000000000000000000000000000000000000F03F000000000000F03F0000000000000000000000000000000041006C006C002000720069
310
0067006800740073002000720065007300650072007600650064002E000000000028000000010000000000000000000240000000000000F03F0000000000000000000000000000F03F0000000000000000000000000000000000000000000000000000000000000000000000000000000061007200690061006C002E007400
310
74006600000000000000080000001F000000
100
AcDbBlockReference
  2
*T5
 10
193.579759
 20
53.597681
 30
0.0
100
AcDbTable
342
48E
343
212
 11
1.0
 21
0.0
 31
0.0
 90
       22
 91
        5
 92
        5
 93
        0
 94
        0
 95
        0
 96
        0
141
6.0
141
6.0
141
10.0
141
5.0
141
13.0
142
10.0
142
10.0
142
10.0
142
40.0
142
20.0
171
     1
172
     0
173
     0
174
     0
175
     3
176
     4
 91
       32
178
     0
145
0.0
140
3.5
 92
        0
301
CELL_VALUE
 93
        2
 90
        4
  1
 
 94
        0
300

302
 
304
ACVALUE_END
171
     1
172
     0
173
     1
174
     0
175
     1
176
     1
 91
        0
178
     0
145
0.0
 92
        0
301
CELL_VALUE
 93
        3
 90
        0
 91
        0
 94
        0
300

302

304
ACVALUE_END
171
     1
172
     0
173
     1
174
     0
175
     1
176
     1
 91
        0
178
     0
145
0.0
 92
        0
301
CELL_VALUE
 93
        3
 90
        0
 91
        0
 94
        0
300

302

304
ACVALUE_END
171
     1
172
     0
173
     0
174
     0
175
     1
176
     1
 91
       33
178
     0
145
0.0
170
     4
140
3.0
 92
        0
301
CELL_VALUE
 93
        2
 90
        4
  1
A193_C_401
 94
        0
300

302
A193_C_401
304
ACVALUE_END
171
     1
172
     0
173
     0
174
     0
175
     1
176
     1
 91
       33
178
     0
145
0.0
170
     4
140
3.5
 92
        0
301
CELL_VALUE
 93
        2
 90
        4
  1
Rev:00
 94
        0
300

302
Rev:00
304
ACVALUE_END
171
     1
172
     0
173
     1
174
     0
175
     1
176
     1
 91
        0
178
     0
145
0.0
 92
        0
301
CELL_VALUE
 93
        3
 90
        0
 91
        0
 94
        0
300

302

304
ACVALUE_END
171
     1
172
     0
173
     1
174
     0
175
     1
176
     1
 91
        0
178
     0
145
0.0
 92
        0
301
CELL_VALUE
 93
        3
 90
        0
 91
        0
 94
        0
300

302

304
ACVALUE_END
171
     1
172
     0
173
     1
174
     0
175
     1
176
     1
 91
        0
178
     0
145
0.0
 92
        0
301
CELL_VALUE
 93
        3
 90
        0
 91
        0
 94
        0
300

302

304
ACVALUE_END
171
     1
172
     0
173
     0
174
     0
175
     1
176
     1
 91
       33
178
     0
145
0.0
170
     1
140
3.5
 92
        0
301
CELL_VALUE
 93
        2
 90
        4
  1
Scale:1:1
 94
        0
300

302
Scale:1:1
304
ACVALUE_END
171
     1
172
     0
173
     0
174
     0
175
     1
176
     1
 91
       33
178
     0
145
0.0
170
     4
140
3.5
 92
        0
301
CELL_VALUE
 93
        2
 90
        4
  1
A4
 94
        0
300

302
A4
304
ACVALUE_END
171
     1
172
     0
173
     1
174
     0
175
     1
176
     1
 91
        0
178
     0
145
0.0
 92
        0
301
CELL_VALUE
 93
        3
 90
        0
 91
        0
 94
        0
300

302

304
ACVALUE_END
171
     1
172
     0
173
     1
174
     0
175
     1
176
     1
 91
        0
178
     0
145
0.0
 92
        0
301
CELL_VALUE
 93
        3
 90
        0
 91
        0
 94
        0
300

302

304
ACVALUE_END
171
     1
172
     0
173
     1
174
     0
175
     1
176
     1
 91
        0
178
     0
145
0.0
 92
        0
301
CELL_VALUE
 93
        3
 90
        0
 91
        0
 94
        0
300

302

304
ACVALUE_END
171
     1
172
     0
173
     0
174
     0
175
     2
176
     1
 91
       33
178
     0
145
0.0
170
     4
140
3.5
 92
        0
301
CELL_VALUE
 93
        2
 90
        4
  1
GOCCIA 2.5 - 2.9
 94
        0
300

302
GOCCIA 2.5 - 2.9
304
ACVALUE_END
171
     1
172
     0
173
     1
174
     0
175
     1
176
     1
 91
        0
178
     0
145
0.0
 92
        0
301
CELL_VALUE
 93
        3
 90
        0
 91
        0
 94
        0
300

302

304
ACVALUE_END
171
     1
172
     0
173
     1
174
     0
175
     1
176
     1
 91
        0
178
     0
145
0.0
 92
        0
301
CELL_VALUE
 93
        3
 90
        0
 91
        0
 94
        0
300

302

304
ACVALUE_END
171
     1
172
     0
173
     1
174
     0
175
     1
176
     1
 91
        0
178
     0
145
0.0
 92
        0
301
CELL_VALUE
 93
        3
 90
        0
 91
        0
 94
        0
300

302

304
ACVALUE_END
171
     1
172
     0
173
     1
174
     0
175
     1
176
     1
 91
        0
178
     0
145
0.0
 92
        0
301
CELL_VALUE
 93
        3
 90
        0
 91
        0
 94
        0
300

302

304
ACVALUE_END
171
     1
172
     0
173
     0
174
     0
175
     2
176
     1
 91
       33
178
     0
145
0.0
170
     4
140
2.5
 92
        0
301
CELL_VALUE
 93
        2
 90
        4
  1
DATE:12.10.23
 94
        0
300

302
DATE:12.10.23
304
ACVALUE_END
171
     1
172
     0
173
     1
174
     0
175
     1
176
     1
 91
        0
178
     0
145
0.0
 92
        0
301
CELL_VALUE
 93
        3
 90
        0
 91
        0
 94
        0
300

302

304
ACVALUE_END
171
     1
172
     0
173
     0
174
     0
175
     5
176
     1
 91
       33
178
     0
145
0.0
170
     4
140
2.25
 92
        0
301
CELL_VALUE
 93
        2
 90
        4
  1
Any integral or partial reproductions are prohibited \Pwithout prior authorisation of L & L Luce & Light s.r.l., \Pin accordance with the law in force. \PAll rights reserved.
 94
        0
300

302
Any integral or partial reproductions are prohibited \Pwithout prior authorisation of L & L Luce & Light s.r.l., \Pin accordance with the law in force. \PAll rights reserved.
304
ACVALUE_END
171
     1
172
     0
173
     1
174
     0
175
     1
176
     1
 91
        0
178
     0
145
0.0
 92
        0
301
CELL_VALUE
 93
        3
 90
        0
 91
        0
 94
        0
300

302

304
ACVALUE_END
171
     1
172
     0
173
     1
174
     0
175
     1
176
     1
 91
        0
178
     0
145
0.0
 92
        0
301
CELL_VALUE
 93
        3
 90
        0
 91
        0
 94
        0
300

302

304
ACVALUE_END
171
     1
172
     0
173
     1
174
     0
175
     1
176
     1
 91
        0
178
     0
145
0.0
 92
        0
301
CELL_VALUE
 93
        3
 90
        0
 91
        0
 94
        0
300

302

304
ACVALUE_END
171
     1
172
     0
173
     1
174
     0
175
     1
176
     1
 91
        0
178
     0
145
0.0
 92
        0
301
CELL_VALUE
 93
        3
 90
        0
 91
        0
 94
        0
300

302

304
ACVALUE_END
  0
ENDSEC
  0
SECTION
  2
OBJECTS
  0
DICTIONARY
  5
C
330
0
100
AcDbDictionary
281
     1
  3
ACAD_DETAILVIEWSTYLE
350
4C3
  3
ACAD_GROUP
350
D
  3
ACAD_IMAGE_DICT
350
4B3
  3
ACAD_LAYOUT
350
1A
  3
ACAD_MATERIAL
350
4A9
  3
ACAD_MLEADERSTYLE
350
4C2
  3
ACAD_MLINESTYLE
350
17
  3
ACAD_PLOTSETTINGS
350
19
  3
ACAD_PLOTSTYLENAME
350
E
  3
ACAD_SCALELIST
350
46B
  3
ACAD_SECTIONVIEWSTYLE
350
4C4
  3
ACAD_TABLESTYLE
350
48D
  3
ACAD_VISUALSTYLE
350
490
  3
ACDB_RECOMPOSE_DATA
350
4C0
  3
AcDbVariableDictionary
350
4BC
  3
MCS_STREAM_DICT
350
4AF
  0
SUN
  5
4B2
330
1F4
100
AcDbSun
 90
        1
290
     0
 63
     7
421
 16777215
 40
1.0
291
     1
 91
  2455826
 92
 54000000
292
     0
 70
     2
 71
   256
280
     1
  0
DICTIONARY
  5
4BA
330
465
100
AcDbDictionary
280
     1
281
     1
  3
ACAD_XREC_ROUNDTRIP
360
4BB
  0
DICTIONARY
  5
4C3
102
{ACAD_REACTORS
330
C
102
}
330
C
100
AcDbDictionary
281
     1
  0
DICTIONARY
  5
D
102
{ACAD_REACTORS
330
C
102
}
330
C
100
AcDbDictionary
281
     1
  0
DICTIONARY
  5
4B3
102
{ACAD_REACTORS
330
C
102
}
330
C
100
AcDbDictionary
281
     1
  0
DICTIONARY
  5
1A
102
{ACAD_REACTORS
330
C
102
}
330
C
100
AcDbDictionary
281
     1
  3
Layout1
350
468
  3
Model
350
467
  0
DICTIONARY
  5
4A9
102
{ACAD_REACTORS
330
C
102
}
330
C
100
AcDbDictionary
281
     1
  3
ByBlock
350
4AB
  3
ByLayer
350
4AA
  3
Global
350
4AC
  0
DICTIONARY
  5
4C2
102
{ACAD_REACTORS
330
C
102
}
330
C
100
AcDbDictionary
281
     1
  0
DICTIONARY
  5
17
102
{ACAD_REACTORS
330
C
102
}
330
C
100
AcDbDictionary
281
     1
  3
Standard
350
18
  0
DICTIONARY
  5
19
102
{ACAD_REACTORS
330
C
102
}
330
C
100
AcDbDictionary
281
     1
  0
ACDBDICTIONARYWDFLT
  5
E
102
{ACAD_REACTORS
330
C
102
}
330
C
100
AcDbDictionary
281
     1
  3
Normal
350
F
100
AcDbDictionaryWithDefault
340
F
  0
DICTIONARY
  5
46B
102
{ACAD_REACTORS
330
C
102
}
330
C
100
AcDbDictionary
281
     1
  3
A0
350
46C
  3
A1
350
46D
  3
A2
350
46E
  3
A3
350
46F
  3
A4
350
470
  3
A5
350
471
  3
A6
350
472
  3
A7
350
473
  3
A8
350
474
  3
A9
350
475
  3
B0
350
476
  3
B1
350
477
  3
B2
350
478
  3
B3
350
479
  3
B4
350
47A
  3
B5
350
47B
  3
B6
350
47C
  3
B7
350
47D
  3
B8
350
47E
  3
B9
350
47F
  3
C0
350
480
  3
C1
350
481
  3
C2
350
482
  3
C3
350
483
  3
C4
350
484
  3
C5
350
485
  3
C6
350
486
  3
C7
350
487
  3
C8
350
488
  3
C9
350
489
  3
D0
350
48A
  3
D1
350
48B
  3
D2
350
48C
  0
DICTIONARY
  5
4C4
102
{ACAD_REACTORS
330
C
102
}
330
C
100
AcDbDictionary
281
     1
  0
DICTIONARY
  5
48D
102
{ACAD_REACTORS
330
C
102
}
330
C
100
AcDbDictionary
281
     1
  3
Standard
350
48E
  0
DICTIONARY
  5
490
102
{ACAD_REACTORS
330
C
102
}
330
C
100
AcDbDictionary
281
     1
  3
2dWireframe
350
495
  3
Basic
350
498
  3
Brighten
350
49C
  3
ColorChange
350
4A0
  3
Conceptual
350
49A
  3
Dim
350
49B
  3
EdgeColorOff
350
4A3
  3
Facepattern
350
49F
  3
Flat
350
491
  3
FlatWithEdges
350
492
  3
Gouraud
350
493
  3
GouraudWithEdges
350
494
  3
Hidden
350
497
  3
JitterOff
350
4A1
  3
Linepattern
350
49E
  3
OverhangOff
350
4A2
  3
Realistic
350
499
  3
Shaded
350
4A8
  3
Shaded with edges
350
4A7
  3
Shades of Gray
350
4A4
  3
Sketchy
350
4A5
  3
Thicken
350
49D
  3
Wireframe
350
496
  3
X-Ray
350
4A6
  0
XRECORD
  5
4C0
102
{ACAD_REACTORS
330
C
102
}
330
C
100
AcDbXrecord
280
     1
 90
        1
330
465
330
48E
  0
DICTIONARY
  5
4BC
102
{ACAD_REACTORS
330
C
102
}
330
C
100
AcDbDictionary
281
     1
  3
CANNOSCALE
350
4BD
  3
CTABLESTYLE
350
4C1
  0
DICTIONARY
  5
4AF
102
{ACAD_REACTORS
330
C
102
}
330
C
100
AcDbDictionary
281
     1
  3
MC_VERSION_DATA
350
4B6
  3
MCS_DOCUMENT_ID
350
4B0
  3
MCS_PARAMS_DATA
350
4B4
  0
XRECORD
  5
4BB
102
{ACAD_REACTORS
330
4BA
102
}
330
4BA
100
AcDbXrecord
280
     1
102
ACAD_ROUNDTRIP_2008_TABLE_ENTITY
360
4B8
 70
     2
 90
        1
 10
0.0
 20
0.0
 30
0.0
 90
        0
 90
        4
361
4B9
  0
LAYOUT
  5
468
102
{ACAD_REACTORS
330
1A
102
}
330
1A
100
AcDbPlotSettings
  1

  2
none_device
  4
ISO_A4_(297.00_x_210.00_MM)
  6

 40
0.0
 41
0.0
 42
0.0
 43
0.0
 44
297.0
 45
210.0
 46
0.0
 47
0.0
 48
0.0
 49
0.0
140
0.0
141
0.0
142
1.0
143
1.0
 70
     0
 72
     1
 73
     0
 74
     0
  7

 75
     0
 76
     0
 77
     2
 78
   300
147
1.0
148
0.0
149
0.0
100
AcDbLayout
  1
Layout1
 70
     0
 71
     1
 10
0.0
 20
0.0
 11
297.0
 21
210.0
 12
0.0
 22
0.0
 32
0.0
 14
0.0
 24
0.0
 34
0.0
 15
0.0
 25
0.0
 35
0.0
146
0.0
 13
0.0
 23
0.0
 33
0.0
 16
1.0
 26
0.0
 36
0.0
 17
0.0
 27
1.0
 37
0.0
 76
     0
330
20C
  0
LAYOUT
  5
467
102
{ACAD_REACTORS
330
1A
102
}
330
1A
100
AcDbPlotSettings
  1

  2
none_device
  4
ISO_A4_(297.00_x_210.00_MM)
  6

 40
0.0
 41
0.0
 42
0.0
 43
0.0
 44
297.0
 45
210.0
 46
0.0
 47
0.0
 48
0.0
 49
0.0
140
0.0
141
0.0
142
1.0
143
1.0
 70
  1024
 72
     1
 73
     0
 74
     0
  7

 75
     0
 76
     0
 77
     2
 78
   300
147
1.0
148
0.0
149
0.0
100
AcDbLayout
  1
Model
 70
     0
 71
     0
 10
0.0
 20
0.0
 11
297.0
 21
210.0
 12
0.0
 22
0.0
 32
0.0
 14
0.0
 24
0.0
 34
0.0
 15
0.0
 25
0.0
 35
0.0
146
0.0
 13
0.0
 23
0.0
 33
0.0
 16
1.0
 26
0.0
 36
0.0
 17
0.0
 27
1.0
 37
0.0
 76
     0
330
20B
331
1F4
  0
MATERIAL
  5
4AB
102
{ACAD_REACTORS
330
4A9
102
}
330
4A9
100
AcDbMaterial
  1
ByBlock
 72
     1
 94
      127
  0
MATERIAL
  5
4AA
102
{ACAD_REACTORS
330
4A9
102
}
330
4A9
100
AcDbMaterial
  1
ByLayer
 72
     1
 94
      127
  0
MATERIAL
  5
4AC
102
{ACAD_REACTORS
330
4A9
102
}
330
4A9
100
AcDbMaterial
  1
Global
 72
     1
 94
      127
  0
MLINESTYLE
  5
18
102
{ACAD_REACTORS
330
17
102
}
330
17
100
AcDbMlineStyle
  2
STANDARD
 70
     0
  3

 62
   256
 51
90.0
 52
90.0
 71
     2
 49
0.5
 62
   256
  6
BYLAYER
 49
-0.5
 62
   256
  6
BYLAYER
  0
ACDBPLACEHOLDER
  5
F
102
{ACAD_REACTORS
330
E
102
}
330
E
  0
SCALE
  5
46C
102
{ACAD_REACTORS
330
46B
102
}
330
46B
100
AcDbScale
 70
     0
300
1:1
140
1.0
141
1.0
290
     1
  0
SCALE
  5
46D
102
{ACAD_REACTORS
330
46B
102
}
330
46B
100
AcDbScale
 70
     0
300
1:2
140
1.0
141
2.0
290
     0
  0
SCALE
  5
46E
102
{ACAD_REACTORS
330
46B
102
}
330
46B
100
AcDbScale
 70
     0
300
1:4
140
1.0
141
4.0
290
     0
  0
SCALE
  5
46F
102
{ACAD_REACTORS
330
46B
102
}
330
46B
100
AcDbScale
 70
     0
300
1:5
140
1.0
141
5.0
290
     0
  0
SCALE
  5
470
102
{ACAD_REACTORS
330
46B
102
}
330
46B
100
AcDbScale
 70
     0
300
1:8
140
1.0
141
8.0
290
     0
  0
SCALE
  5
471
102
{ACAD_REACTORS
330
46B
102
}
330
46B
100
AcDbScale
 70
     0
300
1:10
140
1.0
141
10.0
290
     0
  0
SCALE
  5
472
102
{ACAD_REACTORS
330
46B
102
}
330
46B
100
AcDbScale
 70
     0
300
1:16
140
1.0
141
16.0
290
     0
  0
SCALE
  5
473
102
{ACAD_REACTORS
330
46B
102
}
330
46B
100
AcDbScale
 70
     0
300
1:20
140
1.0
141
20.0
290
     0
  0
SCALE
  5
474
102
{ACAD_REACTORS
330
46B
102
}
330
46B
100
AcDbScale
 70
     0
300
1:30
140
1.0
141
30.0
290
     0
  0
SCALE
  5
475
102
{ACAD_REACTORS
330
46B
102
}
330
46B
100
AcDbScale
 70
     0
300
1:40
140
1.0
141
40.0
290
     0
  0
SCALE
  5
476
102
{ACAD_REACTORS
330
46B
102
}
330
46B
100
AcDbScale
 70
     0
300
1:50
140
1.0
141
50.0
290
     0
  0
SCALE
  5
477
102
{ACAD_REACTORS
330
46B
102
}
330
46B
100
AcDbScale
 70
     0
300
1:100
140
1.0
141
100.0
290
     0
  0
SCALE
  5
478
102
{ACAD_REACTORS
330
46B
102
}
330
46B
100
AcDbScale
 70
     0
300
2:1
140
2.0
141
1.0
290
     0
  0
SCALE
  5
479
102
{ACAD_REACTORS
330
46B
102
}
330
46B
100
AcDbScale
 70
     0
300
4:1
140
4.0
141
1.0
290
     0
  0
SCALE
  5
47A
102
{ACAD_REACTORS
330
46B
102
}
330
46B
100
AcDbScale
 70
     0
300
8:1
140
8.0
141
1.0
290
     0
  0
SCALE
  5
47B
102
{ACAD_REACTORS
330
46B
102
}
330
46B
100
AcDbScale
 70
     0
300
10:1
140
10.0
141
1.0
290
     0
  0
SCALE
  5
47C
102
{ACAD_REACTORS
330
46B
102
}
330
46B
100
AcDbScale
 70
     0
300
100:1
140
100.0
141
1.0
290
     0
  0
SCALE
  5
47D
102
{ACAD_REACTORS
330
46B
102
}
330
46B
100
AcDbScale
 70
     0
300
1/128" = 1'-0"
140
0.007812
141
12.0
290
     0
  0
SCALE
  5
47E
102
{ACAD_REACTORS
330
46B
102
}
330
46B
100
AcDbScale
 70
     0
300
1/64" = 1'-0"
140
0.015625
141
12.0
290
     0
  0
SCALE
  5
47F
102
{ACAD_REACTORS
330
46B
102
}
330
46B
100
AcDbScale
 70
     0
300
1/32" = 1'-0"
140
0.03125
141
12.0
290
     0
  0
SCALE
  5
480
102
{ACAD_REACTORS
330
46B
102
}
330
46B
100
AcDbScale
 70
     0
300
1/16" = 1'-0"
140
0.0625
141
12.0
290
     0
  0
SCALE
  5
481
102
{ACAD_REACTORS
330
46B
102
}
330
46B
100
AcDbScale
 70
     0
300
3/32" = 1'-0"
140
0.09375
141
12.0
290
     0
  0
SCALE
  5
482
102
{ACAD_REACTORS
330
46B
102
}
330
46B
100
AcDbScale
 70
     0
300
1/8" = 1'-0"
140
0.125
141
12.0
290
     0
  0
SCALE
  5
483
102
{ACAD_REACTORS
330
46B
102
}
330
46B
100
AcDbScale
 70
     0
300
3/16" = 1'-0"
140
0.1875
141
12.0
290
     0
  0
SCALE
  5
484
102
{ACAD_REACTORS
330
46B
102
}
330
46B
100
AcDbScale
 70
     0
300
1/4" = 1'-0"
140
0.25
141
12.0
290
     0
  0
SCALE
  5
485
102
{ACAD_REACTORS
330
46B
102
}
330
46B
100
AcDbScale
 70
     0
300
3/8" = 1'-0"
140
0.375
141
12.0
290
     0
  0
SCALE
  5
486
102
{ACAD_REACTORS
330
46B
102
}
330
46B
100
AcDbScale
 70
     0
300
1/2" = 1'-0"
140
0.5
141
12.0
290
     0
  0
SCALE
  5
487
102
{ACAD_REACTORS
330
46B
102
}
330
46B
100
AcDbScale
 70
     0
300
3/4" = 1'-0"
140
0.75
141
12.0
290
     0
  0
SCALE
  5
488
102
{ACAD_REACTORS
330
46B
102
}
330
46B
100
AcDbScale
 70
     0
300
1" = 1'-0"
140
1.0
141
12.0
290
     0
  0
SCALE
  5
489
102
{ACAD_REACTORS
330
46B
102
}
330
46B
100
AcDbScale
 70
     0
300
1-1/2" = 1'-0"
140
1.5
141
12.0
290
     0
  0
SCALE
  5
48A
102
{ACAD_REACTORS
330
46B
102
}
330
46B
100
AcDbScale
 70
     0
300
3" = 1'-0"
140
3.0
141
12.0
290
     0
  0
SCALE
  5
48B
102
{ACAD_REACTORS
330
46B
102
}
330
46B
100
AcDbScale
 70
     0
300
6" = 1'-0"
140
6.0
141
12.0
290
     0
  0
SCALE
  5
48C
102
{ACAD_REACTORS
330
46B
102
}
330
46B
100
AcDbScale
 70
     0
300
1'-0" = 1'-0"
140
12.0
141
12.0
290
     0
  0
TABLESTYLE
  5
48E
102
{ACAD_REACTORS
330
48D
102
}
102
{ACAD_XDICTIONARY
360
4BE
102
}
330
48D
100
AcDbTableStyle
  3
Standard
 70
     0
 71
     0
 40
0.06
 41
0.06
280
     0
281
     0
  7
STANDARD
140
4.5
170
     2
 62
     0
 63
   257
283
     0
 90
        4
 91
        0
  1

274
    -2
284
     1
 64
     0
275
    -2
285
     1
 65
     0
276
    -2
286
     1
 66
     0
277
    -2
287
     1
 67
     0
278
    -2
288
     1
 68
     0
279
    -2
289
     1
 69
     0
  7
STANDARD
140
6.0
170
     5
 62
     0
 63
   257
283
     0
 90
        4
 91
        0
  1

274
    -2
284
     1
 64
     0
275
    -2
285
     1
 65
     0
276
    -2
286
     1
 66
     0
277
    -2
287
     1
 67
     0
278
    -2
288
     1
 68
     0
279
    -2
289
     1
 69
     0
  7
STANDARD
140
4.5
170
     5
 62
     0
 63
   257
283
     0
 90
        4
 91
        0
  1

274
    -2
284
     1
 64
     0
275
    -2
285
     1
 65
     0
276
    -2
286
     1
 66
     0
277
    -2
287
     1
 67
     0
278
    -2
288
     1
 68
     0
279
    -2
289
     1
 69
     0
  0
VISUALSTYLE
  5
495
102
{ACAD_REACTORS
330
490
102
}
330
490
100
AcDbVisualStyle
  2
2dWireframe
 70
     4
177
     3
291
     0
 70
    58
 90
        0
176
     1
 90
        2
176
     1
 90
        0
176
     1
 90
        0
176
     1
 40
0.6
176
     1
 40
30.0
176
     1
 62
     7
420
 16777215
176
     1
 90
        1
176
     1
 90
        4
176
     1
 62
     7
176
     1
 62
   257
176
     1
 90
        1
176
     1
 90
        1
176
     1
 40
1.0
176
     1
 90
        0
176
     1
 62
   257
176
     1
 40
1.0
176
     1
 90
        1
176
     1
 90
        6
176
     1
 90
        2
176
     1
 62
     7
176
     1
 90
        5
176
     1
 90
        0
176
     1
 90
        0
176
     1
290
     0
176
     1
 90
        1
176
     1
 40
0.0
176
     1
 90
        0
176
     1
290
     1
176
     1
290
     1
176
     1
290
     0
176
     1
290
     0
176
     1
290
     0
176
     1
290
     0
176
     1
290
     0
176
     1
290
     0
176
     1
290
     0
176
     1
 90
       50
176
     1
 40
0.0
176
     1
 40
1.0
176
     1
 90
        0
176
     1
 62
    18
420
        0
176
     1
 90
       50
176
     1
 90
        3
176
     1
 62
     5
420
      255
176
     1
290
     0
176
     1
 90
       50
176
     1
 90
       50
176
     1
 90
       50
176
     1
290
     0
176
     1
 90
       50
176
     1
 62
   256
176
     0
 40
1.0
176
     0
 90
        2
176
     1
  1
strokes_ogs.tif
176
     1
290
     0
176
     1
 40
1.0
176
     1
 40
1.0
176
     1
  0
VISUALSTYLE
  5
498
102
{ACAD_REACTORS
330
490
102
}
330
490
100
AcDbVisualStyle
  2
Basic
 70
     7
177
     3
291
     1
 70
    58
 90
        1
176
     1
 90
        0
176
     1
 90
        1
176
     1
 90
        0
176
     1
 40
0.6
176
     1
 40
30.0
176
     1
 62
     7
420
 16777215
176
     1
 90
        0
176
     1
 90
        4
176
     1
 62
     7
176
     1
 62
   257
176
     1
 90
        1
176
     1
 90
        1
176
     1
 40
1.0
176
     1
 90
        8
176
     1
 62
     7
176
     1
 40
1.0
176
     1
 90
        1
176
     1
 90
        6
176
     1
 90
        2
176
     1
 62
     7
176
     1
 90
        5
176
     1
 90
        0
176
     1
 90
        0
176
     1
290
     0
176
     1
 90
        1
176
     1
 40
0.0
176
     1
 90
        0
176
     1
290
     0
176
     1
290
     1
176
     1
290
     1
176
     1
290
     0
176
     1
290
     0
176
     1
290
     0
176
     1
290
     0
176
     1
290
     0
176
     1
290
     0
176
     1
 90
       50
176
     1
 40
0.0
176
     1
 40
1.0
176
     1
 90
        0
176
     1
 62
    18
420
        0
176
     1
 90
       50
176
     1
 90
        3
176
     1
 62
     5
420
      255
176
     1
290
     0
176
     1
 90
       50
176
     1
 90
       50
176
     1
 90
       50
176
     1
290
     0
176
     1
 90
       50
176
     1
 62
   256
176
     0
 40
1.0
176
     0
 90
        2
176
     1
  1
strokes_ogs.tif
176
     1
290
     0
176
     1
 40
1.0
176
     1
 40
1.0
176
     1
  0
VISUALSTYLE
  5
49C
102
{ACAD_REACTORS
330
490
102
}
330
490
100
AcDbVisualStyle
  2
Brighten
 70
    12
177
     3
291
     1
 70
    58
 90
        2
176
     1
 90
        2
176
     1
 90
        0
176
     1
 90
        0
176
     1
 40
0.6
176
     1
 40
30.0
176
     1
 62
     7
420
 16777215
176
     1
 90
        1
176
     1
 90
        4
176
     1
 62
     7
176
     1
 62
   257
176
     1
 90
        1
176
     1
 90
        1
176
     1
 40
1.0
176
     1
 90
        8
176
     1
 62
     7
176
     1
 40
1.0
176
     1
 90
        1
176
     1
 90
        6
176
     1
 90
        2
176
     1
 62
     7
176
     1
 90
        5
176
     1
 90
        0
176
     1
 90
        0
176
     1
290
     0
176
     1
 90
        1
176
     1
 40
50.0
176
     1
 90
        0
176
     1
290
     0
176
     1
290
     1
176
     1
290
     1
176
     1
290
     0
176
     1
290
     0
176
     1
290
     0
176
     1
290
     0
176
     1
290
     0
176
     1
290
     0
176
     1
 90
       50
176
     1
 40
0.0
176
     1
 40
1.0
176
     1
 90
        0
176
     1
 62
    18
420
        0
176
     1
 90
       50
176
     1
 90
        3
176
     1
 62
     5
420
      255
176
     1
290
     0
176
     1
 90
       50
176
     1
 90
       50
176
     1
 90
       50
176
     1
290
     0
176
     1
 90
       50
176
     1
 62
   256
176
     0
 40
1.0
176
     0
 90
        2
176
     1
  1
strokes_ogs.tif
176
     1
290
     0
176
     1
 40
1.0
176
     1
 40
1.0
176
     1
  0
VISUALSTYLE
  5
4A0
102
{ACAD_REACTORS
330
490
102
}
330
490
100
AcDbVisualStyle
  2
ColorChange
 70
    16
177
     3
291
     1
 70
    58
 90
        2
176
     1
 90
        2
176
     1
 90
        3
176
     1
 90
        0
176
     1
 40
0.6
176
     1
 40
30.0
176
     1
 62
     8
420
  8421504
176
     1
 90
        1
176
     1
 90
        4
176
     1
 62
     7
176
     1
 62
   257
176
     1
 90
        1
176
     1
 90
        1
176
     1
 40
1.0
176
     1
 90
        8
176
     1
 62
     8
420
  8421504
176
     1
 40
1.0
176
     1
 90
        1
176
     1
 90
        6
176
     1
 90
        2
176
     1
 62
     7
176
     1
 90
        5
176
     1
 90
        0
176
     1
 90
        0
176
     1
290
     0
176
     1
 90
        1
176
     1
 40
0.0
176
     1
 90
        0
176
     1
290
     0
176
     1
290
     1
176
     1
290
     1
176
     1
290
     0
176
     1
290
     0
176
     1
290
     0
176
     1
290
     0
176
     1
290
     0
176
     1
290
     0
176
     1
 90
       50
176
     1
 40
0.0
176
     1
 40
1.0
176
     1
 90
        0
176
     1
 62
    18
420
        0
176
     1
 90
       50
176
     1
 90
        3
176
     1
 62
     5
420
      255
176
     1
290
     0
176
     1
 90
       50
176
     1
 90
       50
176
     1
 90
       50
176
     1
290
     0
176
     1
 90
       50
176
     1
 62
   256
176
     0
 40
1.0
176
     0
 90
        2
176
     1
  1
strokes_ogs.tif
176
     1
290
     0
176
     1
 40
1.0
176
     1
 40
1.0
176
     1
  0
VISUALSTYLE
  5
49A
102
{ACAD_REACTORS
330
490
102
}
330
490
100
AcDbVisualStyle
  2
Conceptual
 70
     9
177
     3
291
     0
 70
    58
 90
        3
176
     1
 90
        2
176
     1
 90
        0
176
     1
 90
        0
176
     1
 40
0.6
176
     1
 40
30.0
176
     1
 62
     7
420
 16777215
176
     1
 90
        2
176
     1
 90
        2
176
     1
 62
     7
176
     1
 62
   257
176
     1
 90
        1
176
     1
 90
        1
176
     1
 40
179.0
176
     1
 90
        8
176
     1
 62
     7
176
     1
 40
1.0
176
     1
 90
        1
176
     1
 90
        6
176
     1
 90
        2
176
     1
 62
     7
176
     1
 90
        3
176
     1
 90
        0
176
     1
 90
        0
176
     1
290
     0
176
     1
 90
        1
176
     1
 40
0.0
176
     1
 90
        0
176
     1
290
     0
176
     1
290
     1
176
     1
290
     1
176
     1
290
     0
176
     1
290
     0
176
     1
290
     0
176
     1
290
     0
176
     1
290
     0
176
     1
290
     0
176
     1
 90
       50
176
     1
 40
0.0
176
     1
 40
1.0
176
     1
 90
        0
176
     1
 62
    18
420
        0
176
     1
 90
       50
176
     1
 90
        3
176
     1
 62
     5
420
      255
176
     1
290
     0
176
     1
 90
       50
176
     1
 90
       50
176
     1
 90
       50
176
     1
290
     0
176
     1
 90
       50
176
     1
 62
   256
176
     0
 40
1.0
176
     0
 90
        2
176
     1
  1
strokes_ogs.tif
176
     1
290
     0
176
     1
 40
1.0
176
     1
 40
1.0
176
     1
  0
VISUALSTYLE
  5
49B
102
{ACAD_REACTORS
330
490
102
}
330
490
100
AcDbVisualStyle
  2
Dim
 70
    11
177
     3
291
     1
 70
    58
 90
        2
176
     1
 90
        2
176
     1
 90
        0
176
     1
 90
        0
176
     1
 40
0.6
176
     1
 40
30.0
176
     1
 62
     7
420
 16777215
176
     1
 90
        1
176
     1
 90
        4
176
     1
 62
     7
176
     1
 62
   257
176
     1
 90
        1
176
     1
 90
        1
176
     1
 40
1.0
176
     1
 90
        8
176
     1
 62
     7
176
     1
 40
1.0
176
     1
 90
        1
176
     1
 90
        6
176
     1
 90
        2
176
     1
 62
     7
176
     1
 90
        5
176
     1
 90
        0
176
     1
 90
        0
176
     1
290
     0
176
     1
 90
        1
176
     1
 40
-50.0
176
     1
 90
        0
176
     1
290
     0
176
     1
290
     1
176
     1
290
     1
176
     1
290
     0
176
     1
290
     0
176
     1
290
     0
176
     1
290
     0
176
     1
290
     0
176
     1
290
     0
176
     1
 90
       50
176
     1
 40
0.0
176
     1
 40
1.0
176
     1
 90
        0
176
     1
 62
    18
420
        0
176
     1
 90
       50
176
     1
 90
        3
176
     1
 62
     5
420
      255
176
     1
290
     0
176
     1
 90
       50
176
     1
 90
       50
176
     1
 90
       50
176
     1
290
     0
176
     1
 90
       50
176
     1
 62
   256
176
     0
 40
1.0
176
     0
 90
        2
176
     1
  1
strokes_ogs.tif
176
     1
290
     0
176
     1
 40
1.0
176
     1
 40
1.0
176
     1
  0
VISUALSTYLE
  5
4A3
102
{ACAD_REACTORS
330
490
102
}
330
490
100
AcDbVisualStyle
  2
EdgeColorOff
 70
    22
177
     3
291
     1
 70
    58
 90
        2
176
     0
 90
        2
176
     0
 90
        0
176
     0
 90
        0
176
     0
 40
0.6
176
     0
 40
30.0
176
     0
 62
     7
420
 16777215
176
     0
 90
        1
176
     0
 90
        4
176
     0
 62
     7
176
     0
 62
   257
176
     0
 90
        1
176
     0
 90
        1
176
     0
 40
1.0
176
     0
 90
        8
176
     2
 62
     7
176
     0
 40
1.0
176
     0
 90
        1
176
     0
 90
        6
176
     0
 90
        2
176
     0
 62
     7
176
     0
 90
        5
176
     0
 90
        0
176
     0
 90
        0
176
     0
290
     0
176
     0
 90
        1
176
     0
 40
0.0
176
     0
 90
        0
176
     0
290
     0
176
     0
290
     1
176
     0
290
     1
176
     0
290
     0
176
     0
290
     0
176
     0
290
     0
176
     0
290
     0
176
     0
290
     0
176
     0
290
     0
176
     0
 90
       50
176
     0
 40
0.0
176
     0
 40
1.0
176
     0
 90
        0
176
     0
 62
    18
420
        0
176
     0
 90
       50
176
     0
 90
        3
176
     0
 62
     5
420
      255
176
     0
290
     0
176
     0
 90
       50
176
     0
 90
       50
176
     0
 90
       50
176
     0
290
     0
176
     0
 90
       50
176
     0
 62
   256
176
     0
 40
1.0
176
     0
 90
        2
176
     0
  1
strokes_ogs.tif
176
     0
290
     0
176
     0
 40
1.0
176
     0
 40
1.0
176
     0
  0
VISUALSTYLE
  5
49F
102
{ACAD_REACTORS
330
490
102
}
330
490
100
AcDbVisualStyle
  2
Facepattern
 70
    15
177
     3
291
     1
 70
    58
 90
        2
176
     1
 90
        2
176
     1
 90
        0
176
     1
 90
        0
176
     1
 40
0.6
176
     1
 40
30.0
176
     1
 62
     7
420
 16777215
176
     1
 90
        1
176
     1
 90
        4
176
     1
 62
     7
176
     1
 62
   257
176
     1
 90
        1
176
     1
 90
        1
176
     1
 40
1.0
176
     1
 90
        8
176
     1
 62
     7
176
     1
 40
1.0
176
     1
 90
        1
176
     1
 90
        6
176
     1
 90
        2
176
     1
 62
     7
176
     1
 90
        5
176
     1
 90
        0
176
     1
 90
        0
176
     1
290
     0
176
     1
 90
        1
176
     1
 40
0.0
176
     1
 90
        0
176
     1
290
     0
176
     1
290
     1
176
     1
290
     1
176
     1
290
     0
176
     1
290
     0
176
     1
290
     0
176
     1
290
     0
176
     1
290
     0
176
     1
290
     0
176
     1
 90
       50
176
     1
 40
0.0
176
     1
 40
1.0
176
     1
 90
        0
176
     1
 62
    18
420
        0
176
     1
 90
       50
176
     1
 90
        3
176
     1
 62
     5
420
      255
176
     1
290
     0
176
     1
 90
       50
176
     1
 90
       50
176
     1
 90
       50
176
     1
290
     0
176
     1
 90
       50
176
     1
 62
   256
176
     0
 40
1.0
176
     0
 90
        2
176
     1
  1
strokes_ogs.tif
176
     1
290
     0
176
     1
 40
1.0
176
     1
 40
1.0
176
     1
  0
VISUALSTYLE
  5
491
102
{ACAD_REACTORS
330
490
102
}
330
490
100
AcDbVisualStyle
  2
Flat
 70
     0
177
     3
291
     1
 70
    58
 90
        2
176
     1
 90
        1
176
     1
 90
        1
176
     1
 90
        2
176
     1
 40
0.6
176
     1
 40
30.0
176
     1
 62
     7
420
 16777215
176
     1
 90
        0
176
     1
 90
        0
176
     1
 62
     7
176
     1
 62
   257
176
     1
 90
        1
176
     1
 90
        1
176
     1
 40
1.0
176
     1
 90
        8
176
     1
 62
     7
176
     1
 40
1.0
176
     1
 90
        1
176
     1
 90
        6
176
     1
 90
        2
176
     1
 62
     7
176
     1
 90
        5
176
     1
 90
        0
176
     1
 90
        0
176
     1
290
     0
176
     1
 90
       13
176
     1
 40
0.0
176
     1
 90
        0
176
     1
290
     0
176
     1
290
     1
176
     1
290
     1
176
     1
290
     0
176
     1
290
     0
176
     1
290
     0
176
     1
290
     0
176
     1
290
     0
176
     1
290
     0
176
     1
 90
       50
176
     1
 40
0.0
176
     1
 40
1.0
176
     1
 90
        0
176
     1
 62
    18
420
        0
176
     1
 90
       50
176
     1
 90
        3
176
     1
 62
     5
420
      255
176
     1
290
     0
176
     1
 90
       50
176
     1
 90
       50
176
     1
 90
       50
176
     1
290
     0
176
     1
 90
       50
176
     1
 62
   256
176
     0
 40
1.0
176
     0
 90
        2
176
     1
  1
strokes_ogs.tif
176
     1
290
     0
176
     1
 40
1.0
176
     1
 40
1.0
176
     1
  0
VISUALSTYLE
  5
492
102
{ACAD_REACTORS
330
490
102
}
330
490
100
AcDbVisualStyle
  2
FlatWithEdges
 70
     1
177
     3
291
     1
 70
    58
 90
        2
176
     1
 90
        1
176
     1
 90
        1
176
     1
 90
        2
176
     1
 40
0.6
176
     1
 40
30.0
176
     1
 62
     7
420
 16777215
176
     1
 90
        1
176
     1
 90
        0
176
     1
 62
     7
176
     1
 62
   257
176
     1
 90
        1
176
     1
 90
        1
176
     1
 40
1.0
176
     1
 90
        0
176
     1
 62
   257
176
     1
 40
1.0
176
     1
 90
        1
176
     1
 90
        6
176
     1
 90
        2
176
     1
 62
     7
176
     1
 90
        5
176
     1
 90
        0
176
     1
 90
        0
176
     1
290
     0
176
     1
 90
       13
176
     1
 40
0.0
176
     1
 90
        0
176
     1
290
     0
176
     1
290
     1
176
     1
290
     1
176
     1
290
     0
176
     1
290
     0
176
     1
290
     0
176
     1
290
     0
176
     1
290
     0
176
     1
290
     0
176
     1
 90
       50
176
     1
 40
0.0
176
     1
 40
1.0
176
     1
 90
        0
176
     1
 62
    18
420
        0
176
     1
 90
       50
176
     1
 90
        3
176
     1
 62
     5
420
      255
176
     1
290
     0
176
     1
 90
       50
176
     1
 90
       50
176
     1
 90
       50
176
     1
290
     0
176
     1
 90
       50
176
     1
 62
   256
176
     0
 40
1.0
176
     0
 90
        2
176
     1
  1
strokes_ogs.tif
176
     1
290
     0
176
     1
 40
1.0
176
     1
 40
1.0
176
     1
  0
VISUALSTYLE
  5
493
102
{ACAD_REACTORS
330
490
102
}
330
490
100
AcDbVisualStyle
  2
Gouraud
 70
     2
177
     3
291
     1
 70
    58
 90
        2
176
     1
 90
        2
176
     1
 90
        1
176
     1
 90
        2
176
     1
 40
0.6
176
     1
 40
30.0
176
     1
 62
     7
420
 16777215
176
     1
 90
        0
176
     1
 90
        0
176
     1
 62
     7
176
     1
 62
   257
176
     1
 90
        1
176
     1
 90
        1
176
     1
 40
1.0
176
     1
 90
        0
176
     1
 62
     7
176
     1
 40
1.0
176
     1
 90
        1
176
     1
 90
        6
176
     1
 90
        2
176
     1
 62
     7
176
     1
 90
        5
176
     1
 90
        0
176
     1
 90
        0
176
     1
290
     0
176
     1
 90
       13
176
     1
 40
0.0
176
     1
 90
        0
176
     1
290
     0
176
     1
290
     1
176
     1
290
     1
176
     1
290
     0
176
     1
290
     0
176
     1
290
     0
176
     1
290
     0
176
     1
290
     0
176
     1
290
     0
176
     1
 90
       50
176
     1
 40
0.0
176
     1
 40
1.0
176
     1
 90
        0
176
     1
 62
    18
420
        0
176
     1
 90
       50
176
     1
 90
        3
176
     1
 62
     5
420
      255
176
     1
290
     0
176
     1
 90
       50
176
     1
 90
       50
176
     1
 90
       50
176
     1
290
     0
176
     1
 90
       50
176
     1
 62
   256
176
     0
 40
1.0
176
     0
 90
        2
176
     1
  1
strokes_ogs.tif
176
     1
290
     0
176
     1
 40
1.0
176
     1
 40
1.0
176
     1
  0
VISUALSTYLE
  5
494
102
{ACAD_REACTORS
330
490
102
}
330
490
100
AcDbVisualStyle
  2
GouraudWithEdges
 70
     3
177
     3
291
     1
 70
    58
 90
        2
176
     1
 90
        2
176
     1
 90
        1
176
     1
 90
        2
176
     1
 40
0.6
176
     1
 40
30.0
176
     1
 62
     7
420
 16777215
176
     1
 90
        1
176
     1
 90
        0
176
     1
 62
     7
176
     1
 62
   257
176
     1
 90
        1
176
     1
 90
        1
176
     1
 40
1.0
176
     1
 90
        0
176
     1
 62
   257
176
     1
 40
1.0
176
     1
 90
        1
176
     1
 90
        6
176
     1
 90
        2
176
     1
 62
     7
176
     1
 90
        5
176
     1
 90
        0
176
     1
 90
        0
176
     1
290
     0
176
     1
 90
       13
176
     1
 40
0.0
176
     1
 90
        0
176
     1
290
     0
176
     1
290
     1
176
     1
290
     1
176
     1
290
     0
176
     1
290
     0
176
     1
290
     0
176
     1
290
     0
176
     1
290
     0
176
     1
290
     0
176
     1
 90
       50
176
     1
 40
0.0
176
     1
 40
1.0
176
     1
 90
        0
176
     1
 62
    18
420
        0
176
     1
 90
       50
176
     1
 90
        3
176
     1
 62
     5
420
      255
176
     1
290
     0
176
     1
 90
       50
176
     1
 90
       50
176
     1
 90
       50
176
     1
290
     0
176
     1
 90
       50
176
     1
 62
   256
176
     0
 40
1.0
176
     0
 90
        2
176
     1
  1
strokes_ogs.tif
176
     1
290
     0
176
     1
 40
1.0
176
     1
 40
1.0
176
     1
  0
VISUALSTYLE
  5
497
102
{ACAD_REACTORS
330
490
102
}
330
490
100
AcDbVisualStyle
  2
Hidden
 70
     6
177
     3
291
     0
 70
    58
 90
        1
176
     1
 90
        2
176
     1
 90
        2
176
     1
 90
        0
176
     1
 40
0.6
176
     1
 40
30.0
176
     1
 62
     7
420
 16777215
176
     1
 90
        2
176
     1
 90
        2
176
     1
 62
     7
176
     1
 62
   257
176
     1
 90
        2
176
     1
 90
        1
176
     1
 40
40.0
176
     1
 90
        0
176
     1
 62
   257
176
     1
 40
1.0
176
     1
 90
        1
176
     1
 90
        6
176
     1
 90
        2
176
     1
 62
     7
176
     1
 90
        3
176
     1
 90
        0
176
     1
 90
        0
176
     1
290
     0
176
     1
 90
        1
176
     1
 40
0.0
176
     1
 90
        0
176
     1
290
     0
176
     1
290
     1
176
     1
290
     1
176
     1
290
     0
176
     1
290
     0
176
     1
290
     0
176
     1
290
     0
176
     1
290
     0
176
     1
290
     0
176
     1
 90
       50
176
     1
 40
0.0
176
     1
 40
1.0
176
     1
 90
        0
176
     1
 62
    18
420
        0
176
     1
 90
       50
176
     1
 90
        3
176
     1
 62
     5
420
      255
176
     1
290
     0
176
     1
 90
       50
176
     1
 90
       50
176
     1
 90
       50
176
     1
290
     0
176
     1
 90
       50
176
     1
 62
   256
176
     0
 40
1.0
176
     0
 90
        2
176
     1
  1
strokes_ogs.tif
176
     1
290
     0
176
     1
 40
1.0
176
     1
 40
1.0
176
     1
  0
VISUALSTYLE
  5
4A1
102
{ACAD_REACTORS
330
490
102
}
330
490
100
AcDbVisualStyle
  2
JitterOff
 70
    20
177
     3
291
     1
 70
    58
 90
        2
176
     0
 90
        2
176
     0
 90
        0
176
     0
 90
        0
176
     0
 40
0.6
176
     0
 40
30.0
176
     0
 62
     7
420
 16777215
176
     0
 90
        1
176
     0
 90
        4
176
     0
 62
     7
176
     0
 62
   257
176
     0
 90
        1
176
     0
 90
        1
176
     0
 40
1.0
176
     0
 90
       10
176
     2
 62
     7
176
     0
 40
1.0
176
     0
 90
        1
176
     0
 90
        6
176
     0
 90
        2
176
     0
 62
     7
176
     0
 90
        5
176
     0
 90
        0
176
     0
 90
        0
176
     0
290
     0
176
     0
 90
        1
176
     0
 40
0.0
176
     0
 90
        0
176
     0
290
     0
176
     0
290
     1
176
     0
290
     1
176
     0
290
     0
176
     0
290
     0
176
     0
290
     0
176
     0
290
     0
176
     0
290
     0
176
     0
290
     0
176
     0
 90
       50
176
     0
 40
0.0
176
     0
 40
1.0
176
     0
 90
        0
176
     0
 62
    18
420
        0
176
     0
 90
       50
176
     0
 90
        3
176
     0
 62
     5
420
      255
176
     0
290
     0
176
     0
 90
       50
176
     0
 90
       50
176
     0
 90
       50
176
     0
290
     0
176
     0
 90
       50
176
     0
 62
   256
176
     0
 40
1.0
176
     0
 90
        2
176
     0
  1
strokes_ogs.tif
176
     0
290
     0
176
     0
 40
1.0
176
     0
 40
1.0
176
     0
  0
VISUALSTYLE
  5
49E
102
{ACAD_REACTORS
330
490
102
}
330
490
100
AcDbVisualStyle
  2
Linepattern
 70
    14
177
     3
291
     1
 70
    58
 90
        2
176
     1
 90
        2
176
     1
 90
        0
176
     1
 90
        0
176
     1
 40
0.6
176
     1
 40
30.0
176
     1
 62
     7
420
 16777215
176
     1
 90
        1
176
     1
 90
        4
176
     1
 62
     7
176
     1
 62
   257
176
     1
 90
        7
176
     1
 90
        7
176
     1
 40
1.0
176
     1
 90
        8
176
     1
 62
     7
176
     1
 40
1.0
176
     1
 90
        1
176
     1
 90
        6
176
     1
 90
        2
176
     1
 62
     7
176
     1
 90
        5
176
     1
 90
        0
176
     1
 90
        0
176
     1
290
     0
176
     1
 90
        1
176
     1
 40
0.0
176
     1
 90
        0
176
     1
290
     0
176
     1
290
     1
176
     1
290
     1
176
     1
290
     0
176
     1
290
     0
176
     1
290
     0
176
     1
290
     0
176
     1
290
     0
176
     1
290
     0
176
     1
 90
       50
176
     1
 40
0.0
176
     1
 40
1.0
176
     1
 90
        0
176
     1
 62
    18
420
        0
176
     1
 90
       50
176
     1
 90
        3
176
     1
 62
     5
420
      255
176
     1
290
     0
176
     1
 90
       50
176
     1
 90
       50
176
     1
 90
       50
176
     1
290
     0
176
     1
 90
       50
176
     1
 62
   256
176
     0
 40
1.0
176
     0
 90
        2
176
     1
  1
strokes_ogs.tif
176
     1
290
     0
176
     1
 40
1.0
176
     1
 40
1.0
176
     1
  0
VISUALSTYLE
  5
4A2
102
{ACAD_REACTORS
330
490
102
}
330
490
100
AcDbVisualStyle
  2
OverhangOff
 70
    21
177
     3
291
     1
 70
    58
 90
        2
176
     0
 90
        2
176
     0
 90
        0
176
     0
 90
        0
176
     0
 40
0.6
176
     0
 40
30.0
176
     0
 62
     7
420
 16777215
176
     0
 90
        1
176
     0
 90
        4
176
     0
 62
     7
176
     0
 62
   257
176
     0
 90
        1
176
     0
 90
        1
176
     0
 40
1.0
176
     0
 90
        9
176
     2
 62
     7
176
     0
 40
1.0
176
     0
 90
        1
176
     0
 90
        6
176
     0
 90
        2
176
     0
 62
     7
176
     0
 90
        5
176
     0
 90
        0
176
     0
 90
        0
176
     0
290
     0
176
     0
 90
        1
176
     0
 40
0.0
176
     0
 90
        0
176
     0
290
     0
176
     0
290
     1
176
     0
290
     1
176
     0
290
     0
176
     0
290
     0
176
     0
290
     0
176
     0
290
     0
176
     0
290
     0
176
     0
290
     0
176
     0
 90
       50
176
     0
 40
0.0
176
     0
 40
1.0
176
     0
 90
        0
176
     0
 62
    18
420
        0
176
     0
 90
       50
176
     0
 90
        3
176
     0
 62
     5
420
      255
176
     0
290
     0
176
     0
 90
       50
176
     0
 90
       50
176
     0
 90
       50
176
     0
290
     0
176
     0
 90
       50
176
     0
 62
   256
176
     0
 40
1.0
176
     0
 90
        2
176
     0
  1
strokes_ogs.tif
176
     0
290
     0
176
     0
 40
1.0
176
     0
 40
1.0
176
     0
  0
VISUALSTYLE
  5
499
102
{ACAD_REACTORS
330
490
102
}
330
490
100
AcDbVisualStyle
  2
Realistic
 70
     8
177
     3
291
     0
 70
    58
 90
        2
176
     1
 90
        3
176
     1
 90
        0
176
     1
 90
        2
176
     1
 40
0.6
176
     1
 40
30.0
176
     1
 62
     7
420
 16777215
176
     1
 90
        0
176
     1
 90
        0
176
     1
 62
     7
176
     1
 62
   257
176
     1
 90
        1
176
     1
 90
        1
176
     1
 40
1.0
176
     1
 90
        8
176
     1
 62
   257
176
     1
 40
1.0
176
     1
 90
        1
176
     1
 90
        6
176
     1
 90
        2
176
     1
 62
     7
176
     1
 90
        3
176
     1
 90
        0
176
     1
 90
        0
176
     1
290
     0
176
     1
 90
       13
176
     1
 40
0.0
176
     1
 90
        0
176
     1
290
     0
176
     1
290
     1
176
     1
290
     1
176
     1
290
     0
176
     1
290
     0
176
     1
290
     0
176
     1
290
     0
176
     1
290
     0
176
     1
290
     0
176
     1
 90
       50
176
     1
 40
0.0
176
     1
 40
1.0
176
     1
 90
        0
176
     1
 62
    18
420
        0
176
     1
 90
       50
176
     1
 90
        3
176
     1
 62
     5
420
      255
176
     1
290
     0
176
     1
 90
       50
176
     1
 90
       50
176
     1
 90
       50
176
     1
290
     0
176
     1
 90
       50
176
     1
 62
   256
176
     0
 40
1.0
176
     0
 90
        2
176
     1
  1
strokes_ogs.tif
176
     1
290
     0
176
     1
 40
1.0
176
     1
 40
1.0
176
     1
  0
VISUALSTYLE
  5
4A8
102
{ACAD_REACTORS
330
490
102
}
330
490
100
AcDbVisualStyle
  2
Shaded
 70
    27
177
     3
291
     0
 70
    58
 90
        2
176
     1
 90
        2
176
     1
 90
        1
176
     1
 90
        2
176
     1
 40
0.6
176
     1
 40
30.0
176
     1
 62
     7
420
 16777215
176
     1
 90
        0
176
     1
 90
        4
176
     1
 62
     7
176
     1
 62
   257
176
     1
 90
        1
176
     1
 90
        1
176
     1
 40
1.0
176
     1
 90
        8
176
     1
 62
   257
176
     1
 40
1.0
176
     1
 90
        1
176
     1
 90
        6
176
     1
 90
        2
176
     1
 62
     8
420
  7895160
176
     1
 90
        3
176
     1
 90
        0
176
     1
 90
        0
176
     1
290
     0
176
     1
 90
        5
176
     1
 40
0.0
176
     1
 90
        0
176
     1
290
     0
176
     1
290
     1
176
     1
290
     1
176
     1
290
     0
176
     1
290
     0
176
     1
290
     0
176
     1
290
     0
176
     1
290
     0
176
     1
290
     0
176
     1
 90
       50
176
     1
 40
0.0
176
     1
 40
1.0
176
     1
 90
        0
176
     1
 62
    18
420
        0
176
     1
 90
       50
176
     1
 90
        3
176
     1
 62
     5
420
      255
176
     1
290
     0
176
     1
 90
       50
176
     1
 90
       50
176
     1
 90
       50
176
     1
290
     0
176
     1
 90
       50
176
     1
 62
   256
176
     0
 40
1.0
176
     0
 90
        2
176
     1
  1
strokes_ogs.tif
176
     1
290
     0
176
     1
 40
1.0
176
     1
 40
1.0
176
     1
  0
VISUALSTYLE
  5
4A7
102
{ACAD_REACTORS
330
490
102
}
330
490
100
AcDbVisualStyle
  2
Shaded with edges
 70
    26
177
     3
291
     0
 70
    58
 90
        2
176
     1
 90
        2
176
     1
 90
        1
176
     1
 90
        2
176
     1
 40
0.6
176
     1
 40
30.0
176
     1
 62
     7
420
 16777215
176
     1
 90
        1
176
     1
 90
       10
176
     1
 62
     7
176
     1
 62
   257
176
     1
 90
        2
176
     1
 90
        1
176
     1
 40
1.0
176
     1
 90
        8
176
     1
 62
   257
176
     1
 40
1.0
176
     1
 90
        1
176
     1
 90
        6
176
     1
 90
        2
176
     1
 62
     7
176
     1
 90
        3
176
     1
 90
        0
176
     1
 90
        0
176
     1
290
     0
176
     1
 90
        5
176
     1
 40
0.0
176
     1
 90
        0
176
     1
290
     0
176
     1
290
     1
176
     1
290
     1
176
     1
290
     0
176
     1
290
     0
176
     1
290
     0
176
     1
290
     0
176
     1
290
     0
176
     1
290
     0
176
     1
 90
       50
176
     1
 40
0.0
176
     1
 40
1.0
176
     1
 90
        0
176
     1
 62
    18
420
        0
176
     1
 90
       50
176
     1
 90
        3
176
     1
 62
     5
420
      255
176
     1
290
     0
176
     1
 90
       50
176
     1
 90
       50
176
     1
 90
       50
176
     1
290
     0
176
     1
 90
       50
176
     1
 62
   256
176
     0
 40
1.0
176
     0
 90
        2
176
     1
  1
strokes_ogs.tif
176
     1
290
     0
176
     1
 40
1.0
176
     1
 40
1.0
176
     1
  0
VISUALSTYLE
  5
4A4
102
{ACAD_REACTORS
330
490
102
}
330
490
100
AcDbVisualStyle
  2
Shades of Gray
 70
    23
177
     3
291
     0
 70
    58
 90
        2
176
     1
 90
        2
176
     1
 90
        3
176
     1
 90
        0
176
     1
 40
0.6
176
     1
 40
30.0
176
     1
 62
     7
420
 16777215
176
     1
 90
        2
176
     1
 90
        2
176
     1
 62
     7
176
     1
 62
     7
176
     1
 90
        1
176
     1
 90
        1
176
     1
 40
40.0
176
     1
 90
        8
176
     1
 62
     7
176
     1
 40
1.0
176
     1
 90
        1
176
     1
 90
        6
176
     1
 90
        2
176
     1
 62
     7
176
     1
 90
        3
176
     1
 90
        0
176
     1
 90
        0
176
     1
290
     0
176
     1
 90
        1
176
     1
 40
0.0
176
     1
 90
        0
176
     1
290
     0
176
     1
290
     1
176
     1
290
     1
176
     1
290
     0
176
     1
290
     0
176
     1
290
     0
176
     1
290
     0
176
     1
290
     0
176
     1
290
     0
176
     1
 90
       50
176
     1
 40
0.0
176
     1
 40
1.0
176
     1
 90
        0
176
     1
 62
    18
420
        0
176
     1
 90
       50
176
     1
 90
        3
176
     1
 62
     5
420
      255
176
     1
290
     0
176
     1
 90
       50
176
     1
 90
       50
176
     1
 90
       50
176
     1
290
     0
176
     1
 90
       50
176
     1
 62
   256
176
     0
 40
1.0
176
     0
 90
        2
176
     1
  1
strokes_ogs.tif
176
     1
290
     0
176
     1
 40
1.0
176
     1
 40
1.0
176
     1
  0
VISUALSTYLE
  5
4A5
102
{ACAD_REACTORS
330
490
102
}
330
490
100
AcDbVisualStyle
  2
Sketchy
 70
    24
177
     3
291
     0
 70
    58
 90
        1
176
     1
 90
        2
176
     1
 90
        2
176
     1
 90
        0
176
     1
 40
0.6
176
     1
 40
30.0
176
     1
 62
     7
420
 16777215
176
     1
 90
        2
176
     1
 90
        2
176
     1
 62
     7
176
     1
 62
     7
176
     1
 90
        1
176
     1
 90
        1
176
     1
 40
40.0
176
     1
 90
       11
176
     1
 62
     7
176
     1
 40
1.0
176
     1
 90
        1
176
     1
 90
        6
176
     1
 90
        2
176
     1
 62
     7
176
     1
 90
        6
176
     1
 90
        0
176
     1
 90
        0
176
     1
290
     0
176
     1
 90
        1
176
     1
 40
0.0
176
     1
 90
        0
176
     1
290
     0
176
     1
290
     1
176
     1
290
     1
176
     1
290
     0
176
     1
290
     0
176
     1
290
     0
176
     1
290
     0
176
     1
290
     0
176
     1
290
     0
176
     1
 90
       50
176
     1
 40
0.0
176
     1
 40
1.0
176
     1
 90
        0
176
     1
 62
    18
420
        0
176
     1
 90
       50
176
     1
 90
        3
176
     1
 62
     5
420
      255
176
     1
290
     0
176
     1
 90
       50
176
     1
 90
       50
176
     1
 90
       50
176
     1
290
     0
176
     1
 90
       50
176
     1
 62
   256
176
     0
 40
1.0
176
     0
 90
        2
176
     1
  1
strokes_ogs.tif
176
     1
290
     0
176
     1
 40
1.0
176
     1
 40
1.0
176
     1
  0
VISUALSTYLE
  5
49D
102
{ACAD_REACTORS
330
490
102
}
330
490
100
AcDbVisualStyle
  2
Thicken
 70
    13
177
     3
291
     1
 70
    58
 90
        2
176
     1
 90
        2
176
     1
 90
        0
176
     1
 90
        0
176
     1
 40
0.6
176
     1
 40
30.0
176
     1
 62
     7
420
 16777215
176
     1
 90
        1
176
     1
 90
        4
176
     1
 62
     7
176
     1
 62
   257
176
     1
 90
        1
176
     1
 90
        1
176
     1
 40
1.0
176
     1
 90
       12
176
     1
 62
     7
176
     1
 40
1.0
176
     1
 90
        1
176
     1
 90
        6
176
     1
 90
        2
176
     1
 62
     7
176
     1
 90
        5
176
     1
 90
        0
176
     1
 90
        0
176
     1
290
     0
176
     1
 90
        1
176
     1
 40
0.0
176
     1
 90
        0
176
     1
290
     0
176
     1
290
     1
176
     1
290
     1
176
     1
290
     0
176
     1
290
     0
176
     1
290
     0
176
     1
290
     0
176
     1
290
     0
176
     1
290
     0
176
     1
 90
       50
176
     1
 40
0.0
176
     1
 40
1.0
176
     1
 90
        0
176
     1
 62
    18
420
        0
176
     1
 90
       50
176
     1
 90
        3
176
     1
 62
     5
420
      255
176
     1
290
     0
176
     1
 90
       50
176
     1
 90
       50
176
     1
 90
       50
176
     1
290
     0
176
     1
 90
       50
176
     1
 62
   256
176
     0
 40
1.0
176
     0
 90
        2
176
     1
  1
strokes_ogs.tif
176
     1
290
     0
176
     1
 40
1.0
176
     1
 40
1.0
176
     1
  0
VISUALSTYLE
  5
496
102
{ACAD_REACTORS
330
490
102
}
330
490
100
AcDbVisualStyle
  2
Wireframe
 70
     5
177
     3
291
     0
 70
    58
 90
        0
176
     1
 90
        2
176
     1
 90
        0
176
     1
 90
        0
176
     1
 40
0.6
176
     1
 40
30.0
176
     1
 62
     7
420
 16777215
176
     1
 90
        1
176
     1
 90
        4
176
     1
 62
     7
176
     1
 62
   257
176
     1
 90
        1
176
     1
 90
        1
176
     1
 40
1.0
176
     1
 90
        0
176
     1
 62
   257
176
     1
 40
1.0
176
     1
 90
        1
176
     1
 90
        6
176
     1
 90
        2
176
     1
 62
     7
176
     1
 90
        3
176
     1
 90
        0
176
     1
 90
        0
176
     1
290
     0
176
     1
 90
        1
176
     1
 40
0.0
176
     1
 90
        0
176
     1
290
     0
176
     1
290
     1
176
     1
290
     1
176
     1
290
     0
176
     1
290
     0
176
     1
290
     0
176
     1
290
     0
176
     1
290
     0
176
     1
290
     0
176
     1
 90
       50
176
     1
 40
0.0
176
     1
 40
1.0
176
     1
 90
        0
176
     1
 62
    18
420
        0
176
     1
 90
       50
176
     1
 90
        3
176
     1
 62
     5
420
      255
176
     1
290
     0
176
     1
 90
       50
176
     1
 90
       50
176
     1
 90
       50
176
     1
290
     0
176
     1
 90
       50
176
     1
 62
   256
176
     0
 40
1.0
176
     0
 90
        2
176
     1
  1
strokes_ogs.tif
176
     1
290
     0
176
     1
 40
1.0
176
     1
 40
1.0
176
     1
  0
VISUALSTYLE
  5
4A6
102
{ACAD_REACTORS
330
490
102
}
330
490
100
AcDbVisualStyle
  2
X-Ray
 70
    25
177
     3
291
     0
 70
    58
 90
        2
176
     1
 90
        2
176
     1
 90
        1
176
     1
 90
        1
176
     1
 40
0.5
176
     1
 40
30.0
176
     1
 62
     7
420
 16777215
176
     1
 90
        1
176
     1
 90
        0
176
     1
 62
     7
176
     1
 62
   257
176
     1
 90
        1
176
     1
 90
        1
176
     1
 40
1.0
176
     1
 90
        8
176
     1
 62
     7
176
     1
 40
1.0
176
     1
 90
        1
176
     1
 90
        6
176
     1
 90
        2
176
     1
 62
     7
176
     1
 90
        3
176
     1
 90
        0
176
     1
 90
        0
176
     1
290
     0
176
     1
 90
       13
176
     1
 40
0.0
176
     1
 90
        0
176
     1
290
     0
176
     1
290
     1
176
     1
290
     1
176
     1
290
     0
176
     1
290
     0
176
     1
290
     0
176
     1
290
     0
176
     1
290
     0
176
     1
290
     0
176
     1
 90
       50
176
     1
 40
0.0
176
     1
 40
1.0
176
     1
 90
        0
176
     1
 62
    18
420
        0
176
     1
 90
       50
176
     1
 90
        3
176
     1
 62
     5
420
      255
176
     1
290
     0
176
     1
 90
       50
176
     1
 90
       50
176
     1
 90
       50
176
     1
290
     0
176
     1
 90
       50
176
     1
 62
   256
176
     0
 40
1.0
176
     0
 90
        2
176
     1
  1
strokes_ogs.tif
176
     1
290
     0
176
     1
 40
1.0
176
     1
 40
1.0
176
     1
  0
DICTIONARYVAR
  5
4BD
102
{ACAD_REACTORS
330
4BC
102
}
330
4BC
100
DictionaryVariables
280
     0
  1
1:1
  0
DICTIONARYVAR
  5
4C1
102
{ACAD_REACTORS
330
4BC
102
}
330
4BC
100
DictionaryVariables
280
     0
  1
Standard
  0
XRECORD
  5
4B6
102
{ACAD_REACTORS
330
4AF
102
}
330
4AF
100
AcDbXrecord
280
     1
300
MC_VERSION_DATA
 90
       95
310
0600000002000000570000001C000000E404000000000000000000007801936764E5D8CF7A8393818115C460606066E0646662626666706006F214793899F8DE3171E725E6E53B3BBA2878E6951050AF75FEFFFFFF520032DE0F3057000000
  0
XRECORD
  5
4B0
102
{ACAD_REACTORS
330
4AF
102
}
330
4AF
100
AcDbXrecord
280
     1
300
MCS_DOCUMENT_ID
 90
       60
310
0600000002000000150000001C000000E404000000000000000000007801E39D70969BEBB1ED79BFA9DC2B5C4F279FBEFA1F08006A780C1415000000
  0
XRECORD
  5
4B4
102
{ACAD_REACTORS
330
4AF
102
}
330
4AF
100
AcDbXrecord
280
     1
300
MCS_PARAMS_DATA
 90
     3313
310
0600000002000000F64B00001C000000E404000000000000000000007801C55C5B6C5CC519DE9D595FD6B9DF494B53970A1A6F4A58DF92A6426A1A1210527090E23EF0543976A2BA75E25CAC160A6DA92AF5A55255A96AD556551F4A49A0CF15A03EC0438190865E482021147221409310B6900B3826B1FB7F7366CEFC73E6
310
1CAFBDDE3D9B07D8FF3F73CEF7DFE6FB67E6ECBA757EA3143929F767A4FCCE8636299AA49C90529036BB402C105929F279912F89C6DEAF6FD8BC69AB14A46C51EAC2B9898909BA39945F872C1FCD848A834A91A13B1AD51D6D5266E8A9FAF627E9AABE92BD45CA6F03BD81A3CFC24D59D990C96408C7E066656E0232E13A03
310
14B0AB01724443F05CC3F08780DFC8F19B03FC710A073DC8486413411B49060E3311A05C24C45064703B01D7CCE196A818E5C59C9268B967CBD6DED68ED59DC52EEB78BEF08E09F8223D745649346F1DE9DB35D0B777C089FC5FC3C8EB60BF1A286CF47FE3467F17CC59C5CD990B0CD948C1A77FB9F5CA0E4F479188EA541E
310
3C25A2E22BC99C8892456878B2821857F6B05492C2AD881B41409C21325211340605C9C6DC6006EC49AC088A0CCBB25B1159B72248E415019155047D5453031360047082A7405D92B72AB0F03379693EAB50870260AC609E2C6F6510BB3D081DFE4EF5EFECD71494A7B3590EC7F12C5B25CB32539229914732934ECE22AF1D
310
D259AC8B7B7649E437DE7BDFA69EADF76EE95186E95A7ED74C032DBFA66A9BF1CEF341B19B78E45DDED9EF56FE29189043E4814BF734E1FF34659991678231F23A51010DA578E8294D435524988818E84710A7B2643B4F7C134F5CC6936D1E4176D01398C4D0A83AE0A6BDC86B0BB5C3E1E8299D70A5A945AC12322FE697C4
310
9C8DC3BBBE34D2BA77FBEEA1BEFEED79D15C120DF70F0FEE1A093EF60C8FF47F4BCAB3B0ED666EDB17F5733E2B445B5E2C298985C507BB8BEBBA3A3A3774178B1D777FA5B36B9D327BBE1ED84C030BC74C9EDAB5B64D88BC405AEF1E1CD9D73A34B88F70838775AD5DDBD1B9B6BBABBB73A0ABA37F5D7BE0E757F57D1DB80F
310
037BFBB60D6D6F1DDED1DA3B3CB47D6FDF2EF8A0AD5933506CEF2FF6F7ADD9D6B56D5DFF9A60D6A95222FF670B51F8295953F8455019945B7EE9315C7A8AFEC352DE9D4B4A5050256AA6D1B42D5F0C265BEED4473538E9811F770DEFDCDD3732B86D706870E4A1D69DC303E45F6349C807B6EFCB8B8692103DC352AE816545
310
9E9E798813B5E9A692C86DD9B1A355A5424F8E0BF018466AF90D150136590E2905AA568F782650907D5A7180140B84AD0159F8156902B8F63BDA8BE1A72E29AF48322EA98B5F578631B6F5489B26184C63434803DB221A328E6B58DEAED6DB808FEB6DC068BD0DF8A4DE065CABB7018B3045EB390B3EAD7704C6EA6DC07518
310
10B79C17773A0DB6C361F03BDD064B22C8C7303844629E5064B47323116EB9039777E096BB70247238880C6E39831B9F221C81B3E543C57019D4736C30574EE2DD4AD73B12B9771099772B997713E97A974DF4CECD5D9582B938116EC00926492C777A7F676A8F441E4C882C98032C983211AE26DE8974E196022EC7174366
310
F9AE62C95769E105B5C4B012E2E82ED8CD3516C5E34D519CF0D1F6765A8551C6CC0505130A3E8ABEC46EF81CED54DC1DA04AB7BC4DB0CA082453194AB29B82400C2B438BA6322032B88FE093B3E13470C11297490C8EEF78E88158D51A8AD42283A38F61044E78707A57F8BBDFE2DF2167F36975041D1DA7FCF59430C35792
310
05112533A905D5D3CAAB4759DBB4CA160F3E9309466F934A1794E7E1154C402D3088858048DCDF7EA3E7FECD5B7A7B376D5480CBF43A7E5E49CCBE6BEB37D945B2402FC65F52AB73B67E7F3A58AE93F37A04F6B7011D680556EBCCA2819BC8A21C320F385BBDB4EE56E6E32CE2CB18E358AD7676B4C7C096B1674BAF7B1278
310
1E906198B0DF8681EA696AF34D20563061CAB731C0DB01185B8B0DCA46538BD880EB0E2C6FC3120B40E62289BC162112587895C11513E18290E892090EBF46A9321968C513E0BB89A0AE8F2431B88A7DFC9E07A7BD0A8E668E3AF3CDEA083A3A8ECFB770A00AB53712018F2859D8DB3D93C2E4D422CB77A40BB73A5DB807A7
310
0857A5727AC8838BE45965D0D3D5B29CBEEF99145F4E558AC0C3E9C23D922EDC0FD285FBA107E7958EEDE721E98018A3E3AAC64E7F5C166D7ABA81B65C437BB31D766C74A6ED6E1FBC2766B7AFDAD87156F9771BF44A2A724C461AB43EE729AAFB710D63E2111810BBA3ABC9AE6037E09AB9BF3AB40BE8309F8736AB64CAB2
310
BE7E3364E5AC569CA6976081AF5A311628A8EF68C5B3A4609E3E86AC3AA156E3E83562F4B5A292099A878C61EB3B549CF92354989982613F016CE7AD5A4D09AA1F5126387AAD451EE384D9C035A925859E39C1AA865EE9A9B8DA21CEE289167F7CF1D4C4BC7A125EC5AED5D8BB0B5A9D9144D134CFA71BF85A8D44BE568348
310
F6AA55A2F3CAEACF6982FD29118CC249D3CBF852A586F278BA70FBD3853B90085793EDE51E143F0AD06C6B4CB2242BDDBDD1419166C2865E85F9CE1648F3CBF54B2E655D5432557AB8C599EEE6E763403914E55050D879E2BFFA30F366F009F0CB378371CA9B99D05949929DD07465EA8797A3808B6B06B9536E64AF9C844C
310
903AF2F3709D3783A318A078E4F37AEBBCEC2DD1B228B722F785DC2DB9D64C476675A63353CC74E937B1FA39BFA7DB58A6AFC19E49583A4A9B6110A6BA038D3C80418F79D091B18A763C1D8524AA5361F194EC4CC4B23EDBA3192533E95398E41423EB6DCA1C239B4DBF91D13F6D762A6897D7013D496371DC8BECCAA7D45E
310
0C251095ABC98AA38E1B6540CD3DACF829EF15C38D27C2B92DA64A071D13897001094F16523EC1C9E5A99FF465029665AB5B13C49AF8984D174EA40B273D389D33BB29A272F6749622C2719C22AC925104534E7A8CF33714555C6B3CF3BE4BE0AF28994CA9B8353E0F28878DD26D8D2F007FBAAD11BD305CEB4EAB35BE08B8
310
B8D678FEB81BD9134AB6ADF10A644BBEF9C2334A81E4EAA6772450D87DD2AF49C178F020A0EBD3055FF292CC5B8AB3FC4114C86BA708ACDB15F49C43C04EBBE7FCBD0CA8A1CB2AF59CC3897035E1E39713E16AD873FE91085A131FFF19C04DBEDBF8D75406FD3B3A2842E56C8ABE82A171BC3BF89ECB0E0F287926BC7B0450
310
75E4DDA3C09F2EEF56BE2579157071BCBBE7881BD93E255BDE7D04B225A07C61BD5230DE1DBA8C1158736B225E412358525F03747D78F79897E472BCCBAF5BAF2BA0DDE3804E9B765F2F035A65DA3D910857134A7A2311AE52DA8D6E0E9C1341735A873DD47F12A16BE2E99BE9C275792B70532835F1AEDB838B7404B509F7
310
74C449519D9AA19EB28205FF5B08785CE3F9307262735AC933693C270155C7C6730AF8E9359ED3808B6B3CA387DDC6734EC9B6F1C897238DE72006D89713F9C2E58B91C6F3388D608DE70CA0A7DA7866D30F8008DC16BEAA2D26A2AAB848F4108A0CF46D0F54D7A73989E2C56D75B6B8431D2F6EAB64C5CD94644C04869974
310
1626C5B6A280378D1BEE62BCE2C3917700E714386FAA719B1D7E7D464DF7DD444F8317374E8CAA75BEF65E19D0F8F0523EC21D7470DCC60B8CAEF29753FC38EF4760CFDBF99B4673F680D0869F6742513F06849341B61DF57EE3400A02734628D75C0DBC8B68A868B98655ECA330208EA3C6F1B52E3DF1E8849E2433679564
310
431A886148B568E62C4406F75F64308EFD2F9D7039EA6D259B5B2BF91AD8396F72B01004EFC5CD6C88F911E8CCDF849C077E5C64E9488747967101058B73015D99FA9B900B808B63FFB117DCC85E50324556799F2F34BC086EC70CD18A4318C0D9FF2AB6807CDB718046B0A4BE0FE8B4D9FFA207EA504E3D7E65FA014C7226
310
B329B0E8D703AAFEBAA304E869379E693123CD68457958A4FF2F11AE86ECFF6119D078F6E7138AD87FF2370F86D6E1E34789702D76FED2134932CCA824CB8C811832A3160D33426421BD940847AF6F0C11D33DEECB1CFE9B7175D1F926045DE5BD8DBFBDBE9C081764D0049324E6DDB40A8607F34A225C4D16463974B5B836
310
F3B3A32E193EACE499B49986C93A780A6DA631A981D7A6CD34012EAECDFCF23937B23F51B26D337F80CCDBCC36A5C0ECD07DE7E7A7236D663D8D6033A419D0536D33E07F56B8C4CA7C0D48229F9610695A461A0883CE7B494E8DD95B004DF38E8247AB09FE45AC1A52EDAC32A0861DD8DA85D8A76276989D08579353913989
310
700119397510D9BB4CAB9DF096393711B4263ECE4B176E7EBA700B3C389DB3F0B5335AA6A7234288EA142D784A9083AFB414616018456CF64C3293C4CD2F49D3E5A5F0410CEE3E0F2E6A6FEA11580893E29AEE529C2FC11C4DF48D4AA628982DB44A422820F8563073C8F989CF2240392BED74F7768B819FDEDE6E09E0E29A
310
EE0AFA030B3CB273954C91D5916E83CC9BEE074FAB1E6B73B11CFB6CBEB73B4C23589D2D05F4CC9AAE2E4C768646F0614DBB4BD40606BDCC4B726A4DF72640A7DD749797013521AB4ED3C5971C1BF2225712D922FD192CAA82F186C253F467B664EED8B163100EA1787299890C1D4314EEF90B040C236113FD72905624B8F0
310
99FF03A92412CEF64B0000
  0
TABLECONTENT
  5
4B8
330
4BB
100
AcDbLinkedData
  1

300

100
AcDbLinkedTableData
 90
        5
300
COLUMN
  1
LINKEDTABLEDATACOLUMN_BEGIN
300

 91
        0
301
CUSTOMDATA
  1
DATAMAP_BEGIN
 90
        0
309
DATAMAP_END
309
LINKEDTABLEDATACOLUMN_END
  1
FORMATTEDTABLEDATACOLUMN_BEGIN
300
COLUMNTABLEFORMAT
  1
TABLEFORMAT_BEGIN
 90
        3
170
     0
309
TABLEFORMAT_END
309
FORMATTEDTABLEDATACOLUMN_END
  1
TABLECOLUMN_BEGIN
 90
        0
 40
10.0
309
TABLECOLUMN_END
300
COLUMN
  1
LINKEDTABLEDATACOLUMN_BEGIN
300

 91
        0
301
CUSTOMDATA
  1
DATAMAP_BEGIN
 90
        0
309
DATAMAP_END
309
LINKEDTABLEDATACOLUMN_END
  1
FORMATTEDTABLEDATACOLUMN_BEGIN
300
COLUMNTABLEFORMAT
  1
TABLEFORMAT_BEGIN
 90
        3
170
     0
309
TABLEFORMAT_END
309
FORMATTEDTABLEDATACOLUMN_END
  1
TABLECOLUMN_BEGIN
 90
        0
 40
10.0
309
TABLECOLUMN_END
300
COLUMN
  1
LINKEDTABLEDATACOLUMN_BEGIN
300

 91
        0
301
CUSTOMDATA
  1
DATAMAP_BEGIN
 90
        0
309
DATAMAP_END
309
LINKEDTABLEDATACOLUMN_END
  1
FORMATTEDTABLEDATACOLUMN_BEGIN
300
COLUMNTABLEFORMAT
  1
TABLEFORMAT_BEGIN
 90
        3
170
     0
309
TABLEFORMAT_END
309
FORMATTEDTABLEDATACOLUMN_END
  1
TABLECOLUMN_BEGIN
 90
        0
 40
10.0
309
TABLECOLUMN_END
300
COLUMN
  1
LINKEDTABLEDATACOLUMN_BEGIN
300

 91
        0
301
CUSTOMDATA
  1
DATAMAP_BEGIN
 90
        0
309
DATAMAP_END
309
LINKEDTABLEDATACOLUMN_END
  1
FORMATTEDTABLEDATACOLUMN_BEGIN
300
COLUMNTABLEFORMAT
  1
TABLEFORMAT_BEGIN
 90
        3
170
     0
309
TABLEFORMAT_END
309
FORMATTEDTABLEDATACOLUMN_END
  1
TABLECOLUMN_BEGIN
 90
        0
 40
40.0
309
TABLECOLUMN_END
300
COLUMN
  1
LINKEDTABLEDATACOLUMN_BEGIN
300

 91
        0
301
CUSTOMDATA
  1
DATAMAP_BEGIN
 90
        0
309
DATAMAP_END
309
LINKEDTABLEDATACOLUMN_END
  1
FORMATTEDTABLEDATACOLUMN_BEGIN
300
COLUMNTABLEFORMAT
  1
TABLEFORMAT_BEGIN
 90
        3
170
     0
309
TABLEFORMAT_END
309
FORMATTEDTABLEDATACOLUMN_END
  1
TABLECOLUMN_BEGIN
 90
        0
 40
20.0
309
TABLECOLUMN_END
 91
        5
301
ROW
  1
LINKEDTABLEDATAROW_BEGIN
 90
        5
300
CELL
  1
LINKEDTABLEDATACELL_BEGIN
 90
        0
300

 91
        0
301
CUSTOMDATA
  1
DATAMAP_BEGIN
 90
        1
300
ACAD_ROUNDTRIP_2008_CELL_CHECKSUM
301
DATAMAP_VALUE
 93
        2
 90
        2
140
32.0
 94
        0
300

302

304
ACVALUE_END
309
DATAMAP_END
 92
        0
 95
        1
302
CONTENT
  1
CELLCONTENT_BEGIN
 90
        1
300
VALUE
 93
        2
 90
        4
  1
 
 94
        0
300

302
 
304
ACVALUE_END
 91
        0
309
CELLCONTENT_END
  1
FORMATTEDCELLCONTENT_BEGIN
170
     1
300
CONTENTFORMAT
  1
CONTENTFORMAT_BEGIN
 90
      132
 91
        0
 92
      512
 93
        0
300

 40
0.0
140
1.0
 94
        1
 62
     0
340
0
144
3.5
309
CONTENTFORMAT_END
309
FORMATTEDCELLCONTENT_END
309
LINKEDTABLEDATACELL_END
  1
FORMATTEDTABLEDATACELL_BEGIN
300
CELLTABLEFORMAT
  1
TABLEFORMAT_BEGIN
 90
        1
170
     1
 91
        0
 92
        0
 62
   257
 93
        1
300
CONTENTFORMAT
  1
CONTENTFORMAT_BEGIN
 90
        0
 91
        0
 92
      512
 93
        0
300

 40
0.0
140
1.0
 94
        1
 62
     0
340
0
144
0.18
309
CONTENTFORMAT_END
171
     0
 94
        0
309
TABLEFORMAT_END
309
FORMATTEDTABLEDATACELL_END
  1
TABLECELL_BEGIN
 90
        0
 91
        0
309
TABLECELL_END
300
CELL
  1
LINKEDTABLEDATACELL_BEGIN
 90
        0
300

 91
        0
301
CUSTOMDATA
  1
DATAMAP_BEGIN
 90
        0
309
DATAMAP_END
 92
        0
 95
        0
309
LINKEDTABLEDATACELL_END
  1
FORMATTEDTABLEDATACELL_BEGIN
300
CELLTABLEFORMAT
  1
TABLEFORMAT_BEGIN
 90
        1
170
     1
 91
        0
 92
        0
 62
   257
 93
        1
300
CONTENTFORMAT
  1
CONTENTFORMAT_BEGIN
 90
        0
 91
        0
 92
      512
 93
        0
300

 40
0.0
140
1.0
 94
        1
 62
     0
340
0
144
0.18
309
CONTENTFORMAT_END
171
     0
 94
        0
309
TABLEFORMAT_END
309
FORMATTEDTABLEDATACELL_END
  1
TABLECELL_BEGIN
 90
        0
 91
        0
309
TABLECELL_END
300
CELL
  1
LINKEDTABLEDATACELL_BEGIN
 90
        0
300

 91
        0
301
CUSTOMDATA
  1
DATAMAP_BEGIN
 90
        0
309
DATAMAP_END
 92
        0
 95
        0
309
LINKEDTABLEDATACELL_END
  1
FORMATTEDTABLEDATACELL_BEGIN
300
CELLTABLEFORMAT
  1
TABLEFORMAT_BEGIN
 90
        1
170
     1
 91
        0
 92
        0
 62
   257
 93
        1
300
CONTENTFORMAT
  1
CONTENTFORMAT_BEGIN
 90
        0
 91
        0
 92
      512
 93
        0
300

 40
0.0
140
1.0
 94
        1
 62
     0
340
0
144
0.18
309
CONTENTFORMAT_END
171
     0
 94
        0
309
TABLEFORMAT_END
309
FORMATTEDTABLEDATACELL_END
  1
TABLECELL_BEGIN
 90
        0
 91
        0
309
TABLECELL_END
300
CELL
  1
LINKEDTABLEDATACELL_BEGIN
 90
        0
300

 91
        0
301
CUSTOMDATA
  1
DATAMAP_BEGIN
 90
        1
300
ACAD_ROUNDTRIP_2008_CELL_CHECKSUM
301
DATAMAP_VALUE
 93
        2
 90
        2
140
3418.0
 94
        0
300

302

304
ACVALUE_END
309
DATAMAP_END
 92
        0
 95
        1
302
CONTENT
  1
CELLCONTENT_BEGIN
 90
        1
300
VALUE
 93
        2
 90
        4
  1
A193_C_401
 94
        0
300

302
A193_C_401
304
ACVALUE_END
 91
        0
309
CELLCONTENT_END
  1
FORMATTEDCELLCONTENT_BEGIN
170
     1
300
CONTENTFORMAT
  1
CONTENTFORMAT_BEGIN
 90
      132
 91
        0
 92
      512
 93
        0
300

 40
0.0
140
1.0
 94
        1
 62
     0
340
0
144
3.0
309
CONTENTFORMAT_END
309
FORMATTEDCELLCONTENT_END
309
LINKEDTABLEDATACELL_END
  1
FORMATTEDTABLEDATACELL_BEGIN
300
CELLTABLEFORMAT
  1
TABLEFORMAT_BEGIN
 90
        1
170
     1
 91
       16
 92
        0
 62
   257
 93
        1
300
CONTENTFORMAT
  1
CONTENTFORMAT_BEGIN
 90
       16
 91
        0
 92
      512
 93
        0
300

 40
0.0
140
1.0
 94
        4
 62
     0
340
0
144
0.18
309
CONTENTFORMAT_END
171
     0
 94
        4
 95
        1
302
GRIDFORMAT
  1
GRIDFORMAT_BEGIN
 90
       26
 91
        1
 62
     0
 92
       -2
340
0
 93
        0
 40
0.045
309
GRIDFORMAT_END
 95
        4
302
GRIDFORMAT
  1
GRIDFORMAT_BEGIN
 90
       26
 91
        1
 62
     0
 92
       -2
340
0
 93
        0
 40
0.045
309
GRIDFORMAT_END
 95
        8
302
GRIDFORMAT
  1
GRIDFORMAT_BEGIN
 90
       26
 91
        1
 62
     0
 92
       -2
340
0
 93
        0
 40
0.045
309
GRIDFORMAT_END
 95
       32
302
GRIDFORMAT
  1
GRIDFORMAT_BEGIN
 90
       26
 91
        1
 62
     0
 92
       -2
340
0
 93
        0
 40
0.045
309
GRIDFORMAT_END
309
TABLEFORMAT_END
309
FORMATTEDTABLEDATACELL_END
  1
TABLECELL_BEGIN
 90
        0
 91
        0
309
TABLECELL_END
300
CELL
  1
LINKEDTABLEDATACELL_BEGIN
 90
        0
300

 91
        0
301
CUSTOMDATA
  1
DATAMAP_BEGIN
 90
        1
300
ACAD_ROUNDTRIP_2008_CELL_CHECKSUM
301
DATAMAP_VALUE
 93
        2
 90
        2
140
1398.0
 94
        0
300

302

304
ACVALUE_END
309
DATAMAP_END
 92
        0
 95
        1
302
CONTENT
  1
CELLCONTENT_BEGIN
 90
        1
300
VALUE
 93
        2
 90
        4
  1
Rev:00
 94
        0
300

302
Rev:00
304
ACVALUE_END
 91
        0
309
CELLCONTENT_END
  1
FORMATTEDCELLCONTENT_BEGIN
170
     1
300
CONTENTFORMAT
  1
CONTENTFORMAT_BEGIN
 90
      132
 91
        0
 92
      512
 93
        0
300

 40
0.0
140
1.0
 94
        1
 62
     0
340
0
144
3.5
309
CONTENTFORMAT_END
309
FORMATTEDCELLCONTENT_END
309
LINKEDTABLEDATACELL_END
  1
FORMATTEDTABLEDATACELL_BEGIN
300
CELLTABLEFORMAT
  1
TABLEFORMAT_BEGIN
 90
        1
170
     1
 91
       16
 92
        0
 62
   257
 93
        1
300
CONTENTFORMAT
  1
CONTENTFORMAT_BEGIN
 90
       16
 91
        0
 92
      512
 93
        0
300

 40
0.0
140
1.0
 94
        4
 62
     0
340
0
144
0.18
309
CONTENTFORMAT_END
171
     0
 94
        4
 95
        1
302
GRIDFORMAT
  1
GRIDFORMAT_BEGIN
 90
       26
 91
        1
 62
     0
 92
       -2
340
0
 93
        0
 40
0.045
309
GRIDFORMAT_END
 95
        4
302
GRIDFORMAT
  1
GRIDFORMAT_BEGIN
 90
       26
 91
        1
 62
     0
 92
       -2
340
0
 93
        0
 40
0.045
309
GRIDFORMAT_END
 95
        8
302
GRIDFORMAT
  1
GRIDFORMAT_BEGIN
 90
       26
 91
        1
 62
     0
 92
       -2
340
0
 93
        0
 40
0.045
309
GRIDFORMAT_END
 95
       32
302
GRIDFORMAT
  1
GRIDFORMAT_BEGIN
 90
       26
 91
        1
 62
     0
 92
       -2
340
0
 93
        0
 40
0.045
309
GRIDFORMAT_END
309
TABLEFORMAT_END
309
FORMATTEDTABLEDATACELL_END
  1
TABLECELL_BEGIN
 90
        0
 91
        0
309
TABLECELL_END
 91
        0
301
CUSTOMDATA
  1
DATAMAP_BEGIN
 90
        0
309
DATAMAP_END
309
LINKEDTABLEDATAROW_END
  1
FORMATTEDTABLEDATAROW_BEGIN
300
ROWTABLEFORMAT
  1
TABLEFORMAT_BEGIN
 90
        2
170
     0
309
TABLEFORMAT_END
309
FORMATTEDTABLEDATAROW_END
  1
TABLEROW_BEGIN
 90
        1
 40
6.0
309
TABLEROW_END
301
ROW
  1
LINKEDTABLEDATAROW_BEGIN
 90
        5
300
CELL
  1
LINKEDTABLEDATACELL_BEGIN
 90
        0
300

 91
        0
301
CUSTOMDATA
  1
DATAMAP_BEGIN
 90
        0
309
DATAMAP_END
 92
        0
 95
        0
309
LINKEDTABLEDATACELL_END
  1
FORMATTEDTABLEDATACELL_BEGIN
300
CELLTABLEFORMAT
  1
TABLEFORMAT_BEGIN
 90
        1
170
     1
 91
        0
 92
        0
 62
   257
 93
        1
300
CONTENTFORMAT
  1
CONTENTFORMAT_BEGIN
 90
        0
 91
        0
 92
      512
 93
        0
300

 40
0.0
140
1.0
 94
        1
 62
     0
340
0
144
0.18
309
CONTENTFORMAT_END
171
     0
 94
        0
309
TABLEFORMAT_END
309
FORMATTEDTABLEDATACELL_END
  1
TABLECELL_BEGIN
 90
        0
 91
        0
309
TABLECELL_END
300
CELL
  1
LINKEDTABLEDATACELL_BEGIN
 90
        0
300

 91
        0
301
CUSTOMDATA
  1
DATAMAP_BEGIN
 90
        0
309
DATAMAP_END
 92
        0
 95
        0
309
LINKEDTABLEDATACELL_END
  1
FORMATTEDTABLEDATACELL_BEGIN
300
CELLTABLEFORMAT
  1
TABLEFORMAT_BEGIN
 90
        1
170
     1
 91
        0
 92
        0
 62
   257
 93
        1
300
CONTENTFORMAT
  1
CONTENTFORMAT_BEGIN
 90
        0
 91
        0
 92
      512
 93
        0
300

 40
0.0
140
1.0
 94
        1
 62
     0
340
0
144
0.18
309
CONTENTFORMAT_END
171
     0
 94
        0
309
TABLEFORMAT_END
309
FORMATTEDTABLEDATACELL_END
  1
TABLECELL_BEGIN
 90
        0
 91
        0
309
TABLECELL_END
300
CELL
  1
LINKEDTABLEDATACELL_BEGIN
 90
        0
300

 91
        0
301
CUSTOMDATA
  1
DATAMAP_BEGIN
 90
        0
309
DATAMAP_END
 92
        0
 95
        0
309
LINKEDTABLEDATACELL_END
  1
FORMATTEDTABLEDATACELL_BEGIN
300
CELLTABLEFORMAT
  1
TABLEFORMAT_BEGIN
 90
        1
170
     1
 91
        0
 92
        0
 62
   257
 93
        1
300
CONTENTFORMAT
  1
CONTENTFORMAT_BEGIN
 90
        0
 91
        0
 92
      512
 93
        0
300

 40
0.0
140
1.0
 94
        1
 62
     0
340
0
144
0.18
309
CONTENTFORMAT_END
171
     0
 94
        0
309
TABLEFORMAT_END
309
FORMATTEDTABLEDATACELL_END
  1
TABLECELL_BEGIN
 90
        0
 91
        0
309
TABLECELL_END
300
CELL
  1
LINKEDTABLEDATACELL_BEGIN
 90
        0
300

 91
        0
301
CUSTOMDATA
  1
DATAMAP_BEGIN
 90
        1
300
ACAD_ROUNDTRIP_2008_CELL_CHECKSUM
301
DATAMAP_VALUE
 93
        2
 90
        2
140
3105.0
 94
        0
300

302

304
ACVALUE_END
309
DATAMAP_END
 92
        0
 95
        1
302
CONTENT
  1
CELLCONTENT_BEGIN
 90
        1
300
VALUE
 93
        2
 90
        4
  1
Scale:1:1
 94
        0
300

302
Scale:1:1
304
ACVALUE_END
 91
        0
309
CELLCONTENT_END
  1
FORMATTEDCELLCONTENT_BEGIN
170
     1
300
CONTENTFORMAT
  1
CONTENTFORMAT_BEGIN
 90
      132
 91
        0
 92
      512
 93
        0
300

 40
0.0
140
1.0
 94
        1
 62
     0
340
0
144
3.5
309
CONTENTFORMAT_END
309
FORMATTEDCELLCONTENT_END
309
LINKEDTABLEDATACELL_END
  1
FORMATTEDTABLEDATACELL_BEGIN
300
CELLTABLEFORMAT
  1
TABLEFORMAT_BEGIN
 90
        1
170
     1
 91
       16
 92
        0
 62
   257
 93
        1
300
CONTENTFORMAT
  1
CONTENTFORMAT_BEGIN
 90
       16
 91
        0
 92
      512
 93
        0
300

 40
0.0
140
1.0
 94
        1
 62
     0
340
0
144
0.18
309
CONTENTFORMAT_END
171
     0
 94
        4
 95
        1
302
GRIDFORMAT
  1
GRIDFORMAT_BEGIN
 90
       26
 91
        1
 62
     0
 92
       -2
340
0
 93
        0
 40
0.045
309
GRIDFORMAT_END
 95
        4
302
GRIDFORMAT
  1
GRIDFORMAT_BEGIN
 90
       26
 91
        1
 62
     0
 92
       -2
340
0
 93
        0
 40
0.045
309
GRIDFORMAT_END
 95
        8
302
GRIDFORMAT
  1
GRIDFORMAT_BEGIN
 90
       26
 91
        1
 62
     0
 92
       -2
340
0
 93
        0
 40
0.045
309
GRIDFORMAT_END
 95
       32
302
GRIDFORMAT
  1
GRIDFORMAT_BEGIN
 90
       26
 91
        1
 62
     0
 92
       -2
340
0
 93
        0
 40
0.045
309
GRIDFORMAT_END
309
TABLEFORMAT_END
309
FORMATTEDTABLEDATACELL_END
  1
TABLECELL_BEGIN
 90
        0
 91
        0
309
TABLECELL_END
300
CELL
  1
LINKEDTABLEDATACELL_BEGIN
 90
        0
300

 91
        0
301
CUSTOMDATA
  1
DATAMAP_BEGIN
 90
        1
300
ACAD_ROUNDTRIP_2008_CELL_CHECKSUM
301
DATAMAP_VALUE
 93
        2
 90
        2
140
169.0
 94
        0
300

302

304
ACVALUE_END
309
DATAMAP_END
 92
        0
 95
        1
302
CONTENT
  1
CELLCONTENT_BEGIN
 90
        1
300
VALUE
 93
        2
 90
        4
  1
A4
 94
        0
300

302
A4
304
ACVALUE_END
 91
        0
309
CELLCONTENT_END
  1
FORMATTEDCELLCONTENT_BEGIN
170
     1
300
CONTENTFORMAT
  1
CONTENTFORMAT_BEGIN
 90
      132
 91
        0
 92
      512
 93
        0
300

 40
0.0
140
1.0
 94
        1
 62
     0
340
0
144
3.5
309
CONTENTFORMAT_END
309
FORMATTEDCELLCONTENT_END
309
LINKEDTABLEDATACELL_END
  1
FORMATTEDTABLEDATACELL_BEGIN
300
CELLTABLEFORMAT
  1
TABLEFORMAT_BEGIN
 90
        1
170
     1
 91
       16
 92
        0
 62
   257
 93
        1
300
CONTENTFORMAT
  1
CONTENTFORMAT_BEGIN
 90
       16
 91
        0
 92
      512
 93
        0
300

 40
0.0
140
1.0
 94
        4
 62
     0
340
0
144
0.18
309
CONTENTFORMAT_END
171
     0
 94
        4
 95
        1
302
GRIDFORMAT
  1
GRIDFORMAT_BEGIN
 90
       26
 91
        1
 62
     0
 92
       -2
340
0
 93
        0
 40
0.045
309
GRIDFORMAT_END
 95
        4
302
GRIDFORMAT
  1
GRIDFORMAT_BEGIN
 90
       26
 91
        1
 62
     0
 92
       -2
340
0
 93
        0
 40
0.045
309
GRIDFORMAT_END
 95
        8
302
GRIDFORMAT
  1
GRIDFORMAT_BEGIN
 90
       26
 91
        1
 62
     0
 92
       -2
340
0
 93
        0
 40
0.045
309
GRIDFORMAT_END
 95
       32
302
GRIDFORMAT
  1
GRIDFORMAT_BEGIN
 90
       26
 91
        1
 62
     0
 92
       -2
340
0
 93
        0
 40
0.045
309
GRIDFORMAT_END
309
TABLEFORMAT_END
309
FORMATTEDTABLEDATACELL_END
  1
TABLECELL_BEGIN
 90
        0
 91
        0
309
TABLECELL_END
 91
        0
301
CUSTOMDATA
  1
DATAMAP_BEGIN
 90
        0
309
DATAMAP_END
309
LINKEDTABLEDATAROW_END
  1
FORMATTEDTABLEDATAROW_BEGIN
300
ROWTABLEFORMAT
  1
TABLEFORMAT_BEGIN
 90
        2
170
     0
309
TABLEFORMAT_END
309
FORMATTEDTABLEDATAROW_END
  1
TABLEROW_BEGIN
 90
        2
 40
6.0
309
TABLEROW_END
301
ROW
  1
LINKEDTABLEDATAROW_BEGIN
 90
        5
300
CELL
  1
LINKEDTABLEDATACELL_BEGIN
 90
        0
300

 91
        0
301
CUSTOMDATA
  1
DATAMAP_BEGIN
 90
        0
309
DATAMAP_END
 92
        0
 95
        0
309
LINKEDTABLEDATACELL_END
  1
FORMATTEDTABLEDATACELL_BEGIN
300
CELLTABLEFORMAT
  1
TABLEFORMAT_BEGIN
 90
        1
170
     1
 91
        0
 92
        0
 62
   257
 93
        1
300
CONTENTFORMAT
  1
CONTENTFORMAT_BEGIN
 90
        0
 91
        0
 92
      512
 93
        0
300

 40
0.0
140
1.0
 94
        1
 62
     0
340
0
144
0.18
309
CONTENTFORMAT_END
171
     0
 94
        0
309
TABLEFORMAT_END
309
FORMATTEDTABLEDATACELL_END
  1
TABLECELL_BEGIN
 90
        0
 91
        0
309
TABLECELL_END
300
CELL
  1
LINKEDTABLEDATACELL_BEGIN
 90
        0
300

 91
        0
301
CUSTOMDATA
  1
DATAMAP_BEGIN
 90
        0
309
DATAMAP_END
 92
        0
 95
        0
309
LINKEDTABLEDATACELL_END
  1
FORMATTEDTABLEDATACELL_BEGIN
300
CELLTABLEFORMAT
  1
TABLEFORMAT_BEGIN
 90
        1
170
     1
 91
        0
 92
        0
 62
   257
 93
        1
300
CONTENTFORMAT
  1
CONTENTFORMAT_BEGIN
 90
        0
 91
        0
 92
      512
 93
        0
300

 40
0.0
140
1.0
 94
        1
 62
     0
340
0
144
0.18
309
CONTENTFORMAT_END
171
     0
 94
        0
309
TABLEFORMAT_END
309
FORMATTEDTABLEDATACELL_END
  1
TABLECELL_BEGIN
 90
        0
 91
        0
309
TABLECELL_END
300
CELL
  1
LINKEDTABLEDATACELL_BEGIN
 90
        0
300

 91
        0
301
CUSTOMDATA
  1
DATAMAP_BEGIN
 90
        0
309
DATAMAP_END
 92
        0
 95
        0
309
LINKEDTABLEDATACELL_END
  1
FORMATTEDTABLEDATACELL_BEGIN
300
CELLTABLEFORMAT
  1
TABLEFORMAT_BEGIN
 90
        1
170
     1
 91
        0
 92
        0
 62
   257
 93
        1
300
CONTENTFORMAT
  1
CONTENTFORMAT_BEGIN
 90
        0
 91
        0
 92
      512
 93
        0
300

 40
0.0
140
1.0
 94
        1
 62
     0
340
0
144
0.18
309
CONTENTFORMAT_END
171
     0
 94
        0
309
TABLEFORMAT_END
309
FORMATTEDTABLEDATACELL_END
  1
TABLECELL_BEGIN
 90
        0
 91
        0
309
TABLECELL_END
300
CELL
  1
LINKEDTABLEDATACELL_BEGIN
 90
        0
300

 91
        0
301
CUSTOMDATA
  1
DATAMAP_BEGIN
 90
        1
300
ACAD_ROUNDTRIP_2008_CELL_CHECKSUM
301
DATAMAP_VALUE
 93
        2
 90
        2
140
6631.0
 94
        0
300

302

304
ACVALUE_END
309
DATAMAP_END
 92
        0
 95
        1
302
CONTENT
  1
CELLCONTENT_BEGIN
 90
        1
300
VALUE
 93
        2
 90
        4
  1
GOCCIA 2.5 - 2.9
 94
        0
300

302
GOCCIA 2.5 - 2.9
304
ACVALUE_END
 91
        0
309
CELLCONTENT_END
  1
FORMATTEDCELLCONTENT_BEGIN
170
     1
300
CONTENTFORMAT
  1
CONTENTFORMAT_BEGIN
 90
      132
 91
        0
 92
      512
 93
        0
300

 40
0.0
140
1.0
 94
        1
 62
     0
340
0
144
3.5
309
CONTENTFORMAT_END
309
FORMATTEDCELLCONTENT_END
309
LINKEDTABLEDATACELL_END
  1
FORMATTEDTABLEDATACELL_BEGIN
300
CELLTABLEFORMAT
  1
TABLEFORMAT_BEGIN
 90
        1
170
     1
 91
       16
 92
        0
 62
   257
 93
        1
300
CONTENTFORMAT
  1
CONTENTFORMAT_BEGIN
 90
       16
 91
        0
 92
      512
 93
        0
300

 40
0.0
140
1.0
 94
        4
 62
     0
340
0
144
0.18
309
CONTENTFORMAT_END
171
     0
 94
        4
 95
        1
302
GRIDFORMAT
  1
GRIDFORMAT_BEGIN
 90
       26
 91
        1
 62
     0
 92
       -2
340
0
 93
        0
 40
0.045
309
GRIDFORMAT_END
 95
        4
302
GRIDFORMAT
  1
GRIDFORMAT_BEGIN
 90
       26
 91
        1
 62
     0
 92
       -2
340
0
 93
        0
 40
0.045
309
GRIDFORMAT_END
 95
        8
302
GRIDFORMAT
  1
GRIDFORMAT_BEGIN
 90
       26
 91
        1
 62
     0
 92
       -2
340
0
 93
        0
 40
0.045
309
GRIDFORMAT_END
 95
       32
302
GRIDFORMAT
  1
GRIDFORMAT_BEGIN
 90
       26
 91
        1
 62
     0
 92
       -2
340
0
 93
        0
 40
0.045
309
GRIDFORMAT_END
309
TABLEFORMAT_END
309
FORMATTEDTABLEDATACELL_END
  1
TABLECELL_BEGIN
 90
        0
 91
        0
309
TABLECELL_END
300
CELL
  1
LINKEDTABLEDATACELL_BEGIN
 90
        0
300

 91
        0
301
CUSTOMDATA
  1
DATAMAP_BEGIN
 90
        0
309
DATAMAP_END
 92
        0
 95
        0
309
LINKEDTABLEDATACELL_END
  1
FORMATTEDTABLEDATACELL_BEGIN
300
CELLTABLEFORMAT
  1
TABLEFORMAT_BEGIN
 90
        1
170
     1
 91
        0
 92
        0
 62
   257
 93
        1
300
CONTENTFORMAT
  1
CONTENTFORMAT_BEGIN
 90
        0
 91
        0
 92
      512
 93
        0
300

 40
0.0
140
1.0
 94
        1
 62
     0
340
0
144
0.18
309
CONTENTFORMAT_END
171
     0
 94
        0
309
TABLEFORMAT_END
309
FORMATTEDTABLEDATACELL_END
  1
TABLECELL_BEGIN
 90
        0
 91
        0
309
TABLECELL_END
 91
        0
301
CUSTOMDATA
  1
DATAMAP_BEGIN
 90
        0
309
DATAMAP_END
309
LINKEDTABLEDATAROW_END
  1
FORMATTEDTABLEDATAROW_BEGIN
300
ROWTABLEFORMAT
  1
TABLEFORMAT_BEGIN
 90
        2
170
     0
309
TABLEFORMAT_END
309
FORMATTEDTABLEDATAROW_END
  1
TABLEROW_BEGIN
 90
        3
 40
10.0
309
TABLEROW_END
301
ROW
  1
LINKEDTABLEDATAROW_BEGIN
 90
        5
300
CELL
  1
LINKEDTABLEDATACELL_BEGIN
 90
        0
300

 91
        0
301
CUSTOMDATA
  1
DATAMAP_BEGIN
 90
        0
309
DATAMAP_END
 92
        0
 95
        0
309
LINKEDTABLEDATACELL_END
  1
FORMATTEDTABLEDATACELL_BEGIN
300
CELLTABLEFORMAT
  1
TABLEFORMAT_BEGIN
 90
        1
170
     1
 91
        0
 92
        0
 62
   257
 93
        1
300
CONTENTFORMAT
  1
CONTENTFORMAT_BEGIN
 90
        0
 91
        0
 92
      512
 93
        0
300

 40
0.0
140
1.0
 94
        1
 62
     0
340
0
144
0.18
309
CONTENTFORMAT_END
171
     0
 94
        0
309
TABLEFORMAT_END
309
FORMATTEDTABLEDATACELL_END
  1
TABLECELL_BEGIN
 90
        0
 91
        0
309
TABLECELL_END
300
CELL
  1
LINKEDTABLEDATACELL_BEGIN
 90
        0
300

 91
        0
301
CUSTOMDATA
  1
DATAMAP_BEGIN
 90
        0
309
DATAMAP_END
 92
        0
 95
        0
309
LINKEDTABLEDATACELL_END
  1
FORMATTEDTABLEDATACELL_BEGIN
300
CELLTABLEFORMAT
  1
TABLEFORMAT_BEGIN
 90
        1
170
     1
 91
        0
 92
        0
 62
   257
 93
        1
300
CONTENTFORMAT
  1
CONTENTFORMAT_BEGIN
 90
        0
 91
        0
 92
      512
 93
        0
300

 40
0.0
140
1.0
 94
        1
 62
     0
340
0
144
0.18
309
CONTENTFORMAT_END
171
     0
 94
        0
309
TABLEFORMAT_END
309
FORMATTEDTABLEDATACELL_END
  1
TABLECELL_BEGIN
 90
        0
 91
        0
309
TABLECELL_END
300
CELL
  1
LINKEDTABLEDATACELL_BEGIN
 90
        0
300

 91
        0
301
CUSTOMDATA
  1
DATAMAP_BEGIN
 90
        0
309
DATAMAP_END
 92
        0
 95
        0
309
LINKEDTABLEDATACELL_END
  1
FORMATTEDTABLEDATACELL_BEGIN
300
CELLTABLEFORMAT
  1
TABLEFORMAT_BEGIN
 90
        1
170
     1
 91
        0
 92
        0
 62
   257
 93
        1
300
CONTENTFORMAT
  1
CONTENTFORMAT_BEGIN
 90
        0
 91
        0
 92
      512
 93
        0
300

 40
0.0
140
1.0
 94
        1
 62
     0
340
0
144
0.18
309
CONTENTFORMAT_END
171
     0
 94
        0
309
TABLEFORMAT_END
309
FORMATTEDTABLEDATACELL_END
  1
TABLECELL_BEGIN
 90
        0
 91
        0
309
TABLECELL_END
300
CELL
  1
LINKEDTABLEDATACELL_BEGIN
 90
        0
300

 91
        0
301
CUSTOMDATA
  1
DATAMAP_BEGIN
 90
        1
300
ACAD_ROUNDTRIP_2008_CELL_CHECKSUM
301
DATAMAP_VALUE
 93
        2
 90
        2
140
4718.0
 94
        0
300

302

304
ACVALUE_END
309
DATAMAP_END
 92
        0
 95
        1
302
CONTENT
  1
CELLCONTENT_BEGIN
 90
        1
300
VALUE
 93
        2
 90
        4
  1
DATE:12.10.23
 94
        0
300

302
DATE:12.10.23
304
ACVALUE_END
 91
        0
309
CELLCONTENT_END
  1
FORMATTEDCELLCONTENT_BEGIN
170
     1
300
CONTENTFORMAT
  1
CONTENTFORMAT_BEGIN
 90
      132
 91
        0
 92
      512
 93
        0
300

 40
0.0
140
1.0
 94
        1
 62
     0
340
0
144
2.5
309
CONTENTFORMAT_END
309
FORMATTEDCELLCONTENT_END
309
LINKEDTABLEDATACELL_END
  1
FORMATTEDTABLEDATACELL_BEGIN
300
CELLTABLEFORMAT
  1
TABLEFORMAT_BEGIN
 90
        1
170
     1
 91
       16
 92
        0
 62
   257
 93
        1
300
CONTENTFORMAT
  1
CONTENTFORMAT_BEGIN
 90
       16
 91
        0
 92
      512
 93
        0
300

 40
0.0
140
1.0
 94
        4
 62
     0
340
0
144
0.18
309
CONTENTFORMAT_END
171
     0
 94
        4
 95
        1
302
GRIDFORMAT
  1
GRIDFORMAT_BEGIN
 90
       26
 91
        1
 62
     0
 92
       -2
340
0
 93
        0
 40
0.045
309
GRIDFORMAT_END
 95
        4
302
GRIDFORMAT
  1
GRIDFORMAT_BEGIN
 90
       26
 91
        1
 62
     0
 92
       -2
340
0
 93
        0
 40
0.045
309
GRIDFORMAT_END
 95
        8
302
GRIDFORMAT
  1
GRIDFORMAT_BEGIN
 90
       26
 91
        1
 62
     0
 92
       -2
340
0
 93
        0
 40
0.045
309
GRIDFORMAT_END
 95
       32
302
GRIDFORMAT
  1
GRIDFORMAT_BEGIN
 90
       26
 91
        1
 62
     0
 92
       -2
340
0
 93
        0
 40
0.045
309
GRIDFORMAT_END
309
TABLEFORMAT_END
309
FORMATTEDTABLEDATACELL_END
  1
TABLECELL_BEGIN
 90
        0
 91
        0
309
TABLECELL_END
300
CELL
  1
LINKEDTABLEDATACELL_BEGIN
 90
        0
300

 91
        0
301
CUSTOMDATA
  1
DATAMAP_BEGIN
 90
        0
309
DATAMAP_END
 92
        0
 95
        0
309
LINKEDTABLEDATACELL_END
  1
FORMATTEDTABLEDATACELL_BEGIN
300
CELLTABLEFORMAT
  1
TABLEFORMAT_BEGIN
 90
        1
170
     1
 91
        0
 92
        0
 62
   257
 93
        1
300
CONTENTFORMAT
  1
CONTENTFORMAT_BEGIN
 90
        0
 91
        0
 92
      512
 93
        0
300

 40
0.0
140
1.0
 94
        1
 62
     0
340
0
144
0.18
309
CONTENTFORMAT_END
171
     0
 94
        0
309
TABLEFORMAT_END
309
FORMATTEDTABLEDATACELL_END
  1
TABLECELL_BEGIN
 90
        0
 91
        0
309
TABLECELL_END
 91
        0
301
CUSTOMDATA
  1
DATAMAP_BEGIN
 90
        0
309
DATAMAP_END
309
LINKEDTABLEDATAROW_END
  1
FORMATTEDTABLEDATAROW_BEGIN
300
ROWTABLEFORMAT
  1
TABLEFORMAT_BEGIN
 90
        2
170
     0
309
TABLEFORMAT_END
309
FORMATTEDTABLEDATAROW_END
  1
TABLEROW_BEGIN
 90
        3
 40
5.0
309
TABLEROW_END
301
ROW
  1
LINKEDTABLEDATAROW_BEGIN
 90
        5
300
CELL
  1
LINKEDTABLEDATACELL_BEGIN
 90
        0
300

 91
        0
301
CUSTOMDATA
  1
DATAMAP_BEGIN
 90
        1
300
ACAD_ROUNDTRIP_2008_CELL_CHECKSUM
301
DATAMAP_VALUE
 93
        2
 90
        2
140
1361482.0
 94
        0
300

302

304
ACVALUE_END
309
DATAMAP_END
 92
        0
 95
        1
302
CONTENT
  1
CELLCONTENT_BEGIN
 90
        1
300
VALUE
 93
        2
 90
        4
  1
Any integral or partial reproductions are prohibited \Pwithout prior authorisation of L & L Luce & Light s.r.l., \Pin accordance with the law in force. \PAll rights reserved.
 94
        0
300

302
Any integral or partial reproductions are prohibited \Pwithout prior authorisation of L & L Luce & Light s.r.l., \Pin accordance with the law in force. \PAll rights reserved.
304
ACVALUE_END
 91
        0
309
CELLCONTENT_END
  1
FORMATTEDCELLCONTENT_BEGIN
170
     1
300
CONTENTFORMAT
  1
CONTENTFORMAT_BEGIN
 90
      132
 91
        0
 92
      512
 93
        0
300

 40
0.0
140
1.0
 94
        1
 62
     0
340
0
144
2.25
309
CONTENTFORMAT_END
309
FORMATTEDCELLCONTENT_END
309
LINKEDTABLEDATACELL_END
  1
FORMATTEDTABLEDATACELL_BEGIN
300
CELLTABLEFORMAT
  1
TABLEFORMAT_BEGIN
 90
        1
170
     1
 91
       16
 92
        0
 62
   257
 93
        1
300
CONTENTFORMAT
  1
CONTENTFORMAT_BEGIN
 90
       16
 91
        0
 92
      512
 93
        0
300

 40
0.0
140
1.0
 94
        4
 62
     0
340
0
144
0.18
309
CONTENTFORMAT_END
171
     0
 94
        4
 95
        1
302
GRIDFORMAT
  1
GRIDFORMAT_BEGIN
 90
       26
 91
        1
 62
     0
 92
       -2
340
0
 93
        0
 40
0.045
309
GRIDFORMAT_END
 95
        4
302
GRIDFORMAT
  1
GRIDFORMAT_BEGIN
 90
       26
 91
        1
 62
     0
 92
       -2
340
0
 93
        0
 40
0.045
309
GRIDFORMAT_END
 95
        8
302
GRIDFORMAT
  1
GRIDFORMAT_BEGIN
 90
       26
 91
        1
 62
     0
 92
       -2
340
0
 93
        0
 40
0.045
309
GRIDFORMAT_END
 95
       32
302
GRIDFORMAT
  1
GRIDFORMAT_BEGIN
 90
       26
 91
        1
 62
     0
 92
       -2
340
0
 93
        0
 40
0.045
309
GRIDFORMAT_END
309
TABLEFORMAT_END
309
FORMATTEDTABLEDATACELL_END
  1
TABLECELL_BEGIN
 90
        0
 91
        0
309
TABLECELL_END
300
CELL
  1
LINKEDTABLEDATACELL_BEGIN
 90
        0
300

 91
        0
301
CUSTOMDATA
  1
DATAMAP_BEGIN
 90
        0
309
DATAMAP_END
 92
        0
 95
        0
309
LINKEDTABLEDATACELL_END
  1
FORMATTEDTABLEDATACELL_BEGIN
300
CELLTABLEFORMAT
  1
TABLEFORMAT_BEGIN
 90
        1
170
     1
 91
        0
 92
        0
 62
   257
 93
        1
300
CONTENTFORMAT
  1
CONTENTFORMAT_BEGIN
 90
        0
 91
        0
 92
      512
 93
        0
300

 40
0.0
140
1.0
 94
        1
 62
     0
340
0
144
0.18
309
CONTENTFORMAT_END
171
     0
 94
        0
309
TABLEFORMAT_END
309
FORMATTEDTABLEDATACELL_END
  1
TABLECELL_BEGIN
 90
        0
 91
        0
309
TABLECELL_END
300
CELL
  1
LINKEDTABLEDATACELL_BEGIN
 90
        0
300

 91
        0
301
CUSTOMDATA
  1
DATAMAP_BEGIN
 90
        0
309
DATAMAP_END
 92
        0
 95
        0
309
LINKEDTABLEDATACELL_END
  1
FORMATTEDTABLEDATACELL_BEGIN
300
CELLTABLEFORMAT
  1
TABLEFORMAT_BEGIN
 90
        1
170
     1
 91
        0
 92
        0
 62
   257
 93
        1
300
CONTENTFORMAT
  1
CONTENTFORMAT_BEGIN
 90
        0
 91
        0
 92
      512
 93
        0
300

 40
0.0
140
1.0
 94
        1
 62
     0
340
0
144
0.18
309
CONTENTFORMAT_END
171
     0
 94
        0
309
TABLEFORMAT_END
309
FORMATTEDTABLEDATACELL_END
  1
TABLECELL_BEGIN
 90
        0
 91
        0
309
TABLECELL_END
300
CELL
  1
LINKEDTABLEDATACELL_BEGIN
 90
        0
300

 91
        0
301
CUSTOMDATA
  1
DATAMAP_BEGIN
 90
        0
309
DATAMAP_END
 92
        0
 95
        0
309
LINKEDTABLEDATACELL_END
  1
FORMATTEDTABLEDATACELL_BEGIN
300
CELLTABLEFORMAT
  1
TABLEFORMAT_BEGIN
 90
        1
170
     1
 91
        0
 92
        0
 62
   257
 93
        1
300
CONTENTFORMAT
  1
CONTENTFORMAT_BEGIN
 90
        0
 91
        0
 92
      512
 93
        0
300

 40
0.0
140
1.0
 94
        1
 62
     0
340
0
144
0.18
309
CONTENTFORMAT_END
171
     0
 94
        0
309
TABLEFORMAT_END
309
FORMATTEDTABLEDATACELL_END
  1
TABLECELL_BEGIN
 90
        0
 91
        0
309
TABLECELL_END
300
CELL
  1
LINKEDTABLEDATACELL_BEGIN
 90
        0
300

 91
        0
301
CUSTOMDATA
  1
DATAMAP_BEGIN
 90
        0
309
DATAMAP_END
 92
        0
 95
        0
309
LINKEDTABLEDATACELL_END
  1
FORMATTEDTABLEDATACELL_BEGIN
300
CELLTABLEFORMAT
  1
TABLEFORMAT_BEGIN
 90
        1
170
     1
 91
        0
 92
        0
 62
   257
 93
        1
300
CONTENTFORMAT
  1
CONTENTFORMAT_BEGIN
 90
        0
 91
        0
 92
      512
 93
        0
300

 40
0.0
140
1.0
 94
        1
 62
     0
340
0
144
0.18
309
CONTENTFORMAT_END
171
     0
 94
        0
309
TABLEFORMAT_END
309
FORMATTEDTABLEDATACELL_END
  1
TABLECELL_BEGIN
 90
        0
 91
        0
309
TABLECELL_END
 91
        0
301
CUSTOMDATA
  1
DATAMAP_BEGIN
 90
        0
309
DATAMAP_END
309
LINKEDTABLEDATAROW_END
  1
FORMATTEDTABLEDATAROW_BEGIN
300
ROWTABLEFORMAT
  1
TABLEFORMAT_BEGIN
 90
        2
170
     0
309
TABLEFORMAT_END
309
FORMATTEDTABLEDATAROW_END
  1
TABLEROW_BEGIN
 90
        3
 40
13.0
309
TABLEROW_END
100
AcDbFormattedTableData
300
TABLEFORMAT
  1
TABLEFORMAT_BEGIN
 90
        4
170
     1
 91
    15360
 92
        0
 62
   257
 93
        1
300
CONTENTFORMAT
  1
CONTENTFORMAT_BEGIN
 90
        0
 91
        0
 92
      512
 93
        0
300

 40
0.0
140
1.0
 94
        1
 62
     0
340
0
144
0.18
309
CONTENTFORMAT_END
171
     1
301
MARGIN
  1
CELLMARGIN_BEGIN
 40
0.06
 40
0.06
 40
0.06
 40
0.06
 40
0.06
 40
0.06
309
CELLMARGIN_END
 94
        0
309
TABLEFORMAT_END
 90
        4
 91
        0
 92
        0
 93
        3
 94
        2
 91
        2
 92
        3
 93
        2
 94
        4
 91
        3
 92
        3
 93
        3
 94
        4
 91
        4
 92
        0
 93
        4
 94
        4
100
AcDbTableContent
340
48E
  0
TABLEGEOMETRY
  5
4B9
330
4BB
100
AcDbTableGeometry
 90
        5
 91
        5
 92
       25
 93
        0
 40
0.0
 41
0.0
330
0
 94
        0
 93
        0
 40
0.0
 41
0.0
330
0
 94
        0
 93
        0
 40
0.0
 41
0.0
330
0
 94
        0
 93
        0
 40
0.0
 41
0.0
330
0
 94
        0
 93
        0
 40
0.0
 41
0.0
330
0
 94
        0
 93
        0
 40
0.0
 41
0.0
330
0
 94
        0
 93
        0
 40
0.0
 41
0.0
330
0
 94
        0
 93
        0
 40
0.0
 41
0.0
330
0
 94
        0
 93
        0
 40
0.0
 41
0.0
330
0
 94
        0
 93
        0
 40
0.0
 41
0.0
330
0
 94
        0
 93
        0
 40
0.0
 41
0.0
330
0
 94
        0
 93
        0
 40
0.0
 41
0.0
330
0
 94
        0
 93
        0
 40
0.0
 41
0.0
330
0
 94
        0
 93
        0
 40
0.0
 41
0.0
330
0
 94
        0
 93
        0
 40
0.0
 41
0.0
330
0
 94
        0
 93
        0
 40
0.0
 41
0.0
330
0
 94
        0
 93
        0
 40
0.0
 41
0.0
330
0
 94
        0
 93
        0
 40
0.0
 41
0.0
330
0
 94
        0
 93
        0
 40
0.0
 41
0.0
330
0
 94
        0
 93
        0
 40
0.0
 41
0.0
330
0
 94
        0
 93
        0
 40
0.0
 41
0.0
330
0
 94
        0
 93
        0
 40
0.0
 41
0.0
330
0
 94
        0
 93
        0
 40
0.0
 41
0.0
330
0
 94
        0
 93
        0
 40
0.0
 41
0.0
330
0
 94
        0
 93
        0
 40
0.0
 41
0.0
330
0
 94
        0
  0
DICTIONARY
  5
4BE
330
48E
100
AcDbDictionary
280
     1
281
     1
  3
ACAD_ROUNDTRIP_2008_TABLESTYLE_CELLSTYLEMAP
360
4BF
  0
CELLSTYLEMAP
  5
4BF
102
{ACAD_REACTORS
330
4BE
102
}
330
4BE
100
AcDbCellStyleMap
 90
        3
300
CELLSTYLE
  1
TABLEFORMAT_BEGIN
 90
        5
170
     1
 91
        0
 92
        0
 62
   257
 93
        1
300
CONTENTFORMAT
  1
CONTENTFORMAT_BEGIN
 90
        0
 91
        0
 92
        4
 93
        0
300

 40
0.0
140
1.0
 94
        5
 62
     0
340
11
144
6.0
309
CONTENTFORMAT_END
171
     1
301
MARGIN
  1
CELLMARGIN_BEGIN
 40
1.5
 40
1.5
 40
1.5
 40
1.5
 40
1.5
 40
1.5
309
CELLMARGIN_END
 94
        6
 95
        1
302
GRIDFORMAT
  1
GRIDFORMAT_BEGIN
 90
        0
 91
        1
 62
     0
 92
       -2
340
14
 93
        0
 40
0.045
309
GRIDFORMAT_END
 95
        2
302
GRIDFORMAT
  1
GRIDFORMAT_BEGIN
 90
        0
 91
        1
 62
     0
 92
       -2
340
14
 93
        0
 40
0.045
309
GRIDFORMAT_END
 95
        4
302
GRIDFORMAT
  1
GRIDFORMAT_BEGIN
 90
        0
 91
        1
 62
     0
 92
       -2
340
14
 93
        0
 40
0.045
309
GRIDFORMAT_END
 95
        8
302
GRIDFORMAT
  1
GRIDFORMAT_BEGIN
 90
        0
 91
        1
 62
     0
 92
       -2
340
14
 93
        0
 40
0.045
309
GRIDFORMAT_END
 95
       16
302
GRIDFORMAT
  1
GRIDFORMAT_BEGIN
 90
        0
 91
        1
 62
     0
 92
       -2
340
14
 93
        0
 40
0.045
309
GRIDFORMAT_END
 95
       32
302
GRIDFORMAT
  1
GRIDFORMAT_BEGIN
 90
        0
 91
        1
 62
     0
 92
       -2
340
14
 93
        0
 40
0.045
309
GRIDFORMAT_END
309
TABLEFORMAT_END
  1
CELLSTYLE_BEGIN
 90
        1
 91
        1
300
_TITLE
309
CELLSTYLE_END
300
CELLSTYLE
  1
TABLEFORMAT_BEGIN
 90
        5
170
     1
 91
        0
 92
        0
 62
   257
 93
        1
300
CONTENTFORMAT
  1
CONTENTFORMAT_BEGIN
 90
        0
 91
        0
 92
        4
 93
        0
300

 40
0.0
140
1.0
 94
        5
 62
     0
340
11
144
4.5
309
CONTENTFORMAT_END
171
     1
301
MARGIN
  1
CELLMARGIN_BEGIN
 40
1.5
 40
1.5
 40
1.5
 40
1.5
 40
1.5
 40
1.5
309
CELLMARGIN_END
 94
        6
 95
        1
302
GRIDFORMAT
  1
GRIDFORMAT_BEGIN
 90
        0
 91
        1
 62
     0
 92
       -2
340
14
 93
        0
 40
0.045
309
GRIDFORMAT_END
 95
        2
302
GRIDFORMAT
  1
GRIDFORMAT_BEGIN
 90
        0
 91
        1
 62
     0
 92
       -2
340
14
 93
        0
 40
0.045
309
GRIDFORMAT_END
 95
        4
302
GRIDFORMAT
  1
GRIDFORMAT_BEGIN
 90
        0
 91
        1
 62
     0
 92
       -2
340
14
 93
        0
 40
0.045
309
GRIDFORMAT_END
 95
        8
302
GRIDFORMAT
  1
GRIDFORMAT_BEGIN
 90
        0
 91
        1
 62
     0
 92
       -2
340
14
 93
        0
 40
0.045
309
GRIDFORMAT_END
 95
       16
302
GRIDFORMAT
  1
GRIDFORMAT_BEGIN
 90
        0
 91
        1
 62
     0
 92
       -2
340
14
 93
        0
 40
0.045
309
GRIDFORMAT_END
 95
       32
302
GRIDFORMAT
  1
GRIDFORMAT_BEGIN
 90
        0
 91
        1
 62
     0
 92
       -2
340
14
 93
        0
 40
0.045
309
GRIDFORMAT_END
309
TABLEFORMAT_END
  1
CELLSTYLE_BEGIN
 90
        2
 91
        1
300
_HEADER
309
CELLSTYLE_END
300
CELLSTYLE
  1
TABLEFORMAT_BEGIN
 90
        5
170
     1
 91
        0
 92
        0
 62
   257
 93
        1
300
CONTENTFORMAT
  1
CONTENTFORMAT_BEGIN
 90
        0
 91
        0
 92
        4
 93
        0
300

 40
0.0
140
1.0
 94
        2
 62
     0
340
11
144
4.5
309
CONTENTFORMAT_END
171
     1
301
MARGIN
  1
CELLMARGIN_BEGIN
 40
1.5
 40
1.5
 40
1.5
 40
1.5
 40
1.5
 40
1.5
309
CELLMARGIN_END
 94
        6
 95
        1
302
GRIDFORMAT
  1
GRIDFORMAT_BEGIN
 90
        0
 91
        1
 62
     0
 92
       -2
340
14
 93
        0
 40
0.045
309
GRIDFORMAT_END
 95
        2
302
GRIDFORMAT
  1
GRIDFORMAT_BEGIN
 90
        0
 91
        1
 62
     0
 92
       -2
340
14
 93
        0
 40
0.045
309
GRIDFORMAT_END
 95
        4
302
GRIDFORMAT
  1
GRIDFORMAT_BEGIN
 90
        0
 91
        1
 62
     0
 92
       -2
340
14
 93
        0
 40
0.045
309
GRIDFORMAT_END
 95
        8
302
GRIDFORMAT
  1
GRIDFORMAT_BEGIN
 90
        0
 91
        1
 62
     0
 92
       -2
340
14
 93
        0
 40
0.045
309
GRIDFORMAT_END
 95
       16
302
GRIDFORMAT
  1
GRIDFORMAT_BEGIN
 90
        0
 91
        1
 62
     0
 92
       -2
340
14
 93
        0
 40
0.045
309
GRIDFORMAT_END
 95
       32
302
GRIDFORMAT
  1
GRIDFORMAT_BEGIN
 90
        0
 91
        1
 62
     0
 92
       -2
340
14
 93
        0
 40
0.045
309
GRIDFORMAT_END
309
TABLEFORMAT_END
  1
CELLSTYLE_BEGIN
 90
        3
 91
        2
300
_DATA
309
CELLSTYLE_END
  0
ENDSEC
  0
EOF
