  0
SECTION
  2
HEADER
  9
$ACADVER
  1
AC1014
  9
$ACADMAINTVER
 70
     9
  9
$DWGCODEPAGE
  3
ANSI_1252
  9
$INSBASE
 10
0.0
 20
0.0
 30
0.0
  9
$EXTMIN
 10
0.0
 20
0.0
 30
0.0
  9
$EXTMAX
 10
420.0
 20
297.0
 30
0.0
  9
$LIMMIN
 10
0.0
 20
0.0
  9
$LIMMAX
 10
420.0
 20
297.0
  9
$ORTHOMODE
 70
     0
  9
$REGENMODE
 70
     1
  9
$FILLMODE
 70
     1
  9
$QTEXTMODE
 70
     0
  9
$MIRRTEXT
 70
     1
  9
$DRAGMODE
 70
     2
  9
$LTSCALE
 40
23.1
  9
$OSMODE
 70
    37
  9
$ATTMODE
 70
     1
  9
$TEXTSIZE
 40
0.2
  9
$TRACEWID
 40
0.05
  9
$TEXTSTYLE
  7
STANDARD
  9
$CLAYER
  8
0
  9
$CELTYPE
  6
BYLAYER
  9
$CECOLOR
 62
   256
  9
$CELTSCALE
 40
1.0
  9
$DELOBJ
 70
     1
  9
$DISPSILH
 70
     0
  9
$DIMSCALE
 40
1.0
  9
$DIMASZ
 40
2.5
  9
$DIMEXO
 40
0.75
  9
$DIMDLI
 40
15.96
  9
$DIMRND
 40
0.0
  9
$DIMDLE
 40
0.0
  9
$DIMEXE
 40
0.75
  9
$DIMTP
 40
0.01
  9
$DIMTM
 40
0.01
  9
$DIMTXT
 40
3.0
  9
$DIMCEN
 40
3.78
  9
$DIMTSZ
 40
0.0
  9
$DIMTOL
 70
     1
  9
$DIMLIM
 70
     0
  9
$DIMTIH
 70
     1
  9
$DIMTOH
 70
     1
  9
$DIMSE1
 70
     0
  9
$DIMSE2
 70
     0
  9
$DIMTAD
 70
     0
  9
$DIMZIN
 70
     0
  9
$DIMBLK
  1
CLOSED
  9
$DIMASO
 70
     1
  9
$DIMSHO
 70
     1
  9
$DIMPOST
  1

  9
$DIMAPOST
  1

  9
$DIMALT
 70
     0
  9
$DIMALTD
 70
     2
  9
$DIMALTF
 40
25.4
  9
$DIMLFAC
 40
1.0
  9
$DIMTOFL
 70
     0
  9
$DIMTVP
 40
0.0
  9
$DIMTIX
 70
     0
  9
$DIMSOXD
 70
     0
  9
$DIMSAH
 70
     0
  9
$DIMBLK1
  1

  9
$DIMBLK2
  1

  9
$DIMSTYLE
  2
STANDARD
  9
$DIMCLRD
 70
     0
  9
$DIMCLRE
 70
     0
  9
$DIMCLRT
 70
     0
  9
$DIMTFAC
 40
1.0
  9
$DIMGAP
 40
0.625
  9
$DIMJUST
 70
     0
  9
$DIMSD1
 70
     0
  9
$DIMSD2
 70
     0
  9
$DIMTOLJ
 70
     1
  9
$DIMTZIN
 70
     0
  9
$DIMALTZ
 70
     0
  9
$DIMALTTZ
 70
     0
  9
$DIMFIT
 70
     5
  9
$DIMUPT
 70
     0
  9
$DIMUNIT
 70
     2
  9
$DIMDEC
 70
     4
  9
$DIMTDEC
 70
     4
  9
$DIMALTU
 70
     2
  9
$DIMALTTD
 70
     2
  9
$DIMTXSTY
  7
STANDARD
  9
$DIMAUNIT
 70
     0
  9
$LUNITS
 70
     2
  9
$LUPREC
 70
     4
  9
$SKETCHINC
 40
0.1
  9
$FILLETRAD
 40
0.5
  9
$AUNITS
 70
     0
  9
$AUPREC
 70
     0
  9
$MENU
  1
.
  9
$ELEVATION
 40
0.0
  9
$PELEVATION
 40
0.0
  9
$THICKNESS
 40
0.0
  9
$LIMCHECK
 70
     0
  9
$CHAMFERA
 40
0.0
  9
$CHAMFERB
 40
0.0
  9
$CHAMFERC
 40
0.0
  9
$CHAMFERD
 40
0.0
  9
$SKPOLY
 70
     0
  9
$TDCREATE
 40
2447893.041666667
  9
$TDUPDATE
 40
2459957.641481574
  9
$TDINDWG
 40
0.0
  9
$TDUSRTIMER
 40
0.0
  9
$USRTIMER
 70
     1
  9
$ANGBASE
 50
0.0
  9
$ANGDIR
 70
     0
  9
$PDMODE
 70
     3
  9
$PDSIZE
 40
0.3125
  9
$PLINEWID
 40
0.0
  9
$COORDS
 70
     1
  9
$SPLFRAME
 70
     0
  9
$SPLINETYPE
 70
     6
  9
$SPLINESEGS
 70
     8
  9
$ATTDIA
 70
     0
  9
$ATTREQ
 70
     1
  9
$HANDLING
 70
     1
  9
$HANDSEED
  5
58C
  9
$SURFTAB1
 70
     6
  9
$SURFTAB2
 70
     6
  9
$SURFTYPE
 70
     6
  9
$SURFU
 70
     6
  9
$SURFV
 70
     6
  9
$UCSNAME
  2

  9
$UCSORG
 10
0.0
 20
0.0
 30
0.0
  9
$UCSXDIR
 10
1.0
 20
0.0
 30
0.0
  9
$UCSYDIR
 10
0.0
 20
1.0
 30
0.0
  9
$PUCSNAME
  2

  9
$PUCSORG
 10
0.0
 20
0.0
 30
0.0
  9
$PUCSXDIR
 10
1.0
 20
0.0
 30
0.0
  9
$PUCSYDIR
 10
0.0
 20
1.0
 30
0.0
  9
$USERI1
 70
     0
  9
$USERI2
 70
     0
  9
$USERI3
 70
     0
  9
$USERI4
 70
     0
  9
$USERI5
 70
     0
  9
$USERR1
 40
0.0
  9
$USERR2
 40
0.0
  9
$USERR3
 40
0.0
  9
$USERR4
 40
0.0
  9
$USERR5
 40
0.0
  9
$WORLDVIEW
 70
     1
  9
$SHADEDGE
 70
     3
  9
$SHADEDIF
 70
    70
  9
$TILEMODE
 70
     1
  9
$MAXACTVP
 70
    64
  9
$PINSBASE
 10
0.0
 20
0.0
 30
0.0
  9
$PLIMCHECK
 70
     0
  9
$PEXTMIN
 10
1.000000E+20
 20
1.000000E+20
 30
1.000000E+20
  9
$PEXTMAX
 10
-1.000000E+20
 20
-1.000000E+20
 30
-1.000000E+20
  9
$PLIMMIN
 10
0.0
 20
0.0
  9
$PLIMMAX
 10
12.0
 20
9.0
  9
$UNITMODE
 70
     0
  9
$VISRETAIN
 70
     1
  9
$PLINEGEN
 70
     0
  9
$PSLTSCALE
 70
     0
  9
$TREEDEPTH
 70
  3020
  9
$PICKSTYLE
 70
     1
  9
$CMLSTYLE
  2

  9
$CMLJUST
 70
     0
  9
$CMLSCALE
 40
1.0
  9
$PROXYGRAPHICS
 70
     1
  9
$MEASUREMENT
 70
     1
  0
ENDSEC
  0
SECTION
  2
CLASSES
  0
CLASS
  1
SCALE
  2
AcDbScale
  3
ObjectDBX Classes
 90
     1153
280
     0
281
     0
  0
CLASS
  1
VISUALSTYLE
  2
AcDbVisualStyle
  3
ObjectDBX Classes
 90
     4095
280
     0
281
     0
  0
CLASS
  1
MATERIAL
  2
AcDbMaterial
  3
ObjectDBX Classes
 90
     1153
280
     0
281
     0
  0
CLASS
  1
SUN
  2
AcDbSun
  3
SCENEOE
 90
     1153
280
     0
281
     0
  0
CLASS
  1
TABLESTYLE
  2
AcDbTableStyle
  3
ObjectDBX Classes
 90
     4095
280
     0
281
     0
  0
CLASS
  1
CSACDOCUMENTOPTIONS
  2
CDocDataContainer
  3
"DERU003_CSAPP"
 90
     4095
280
     0
281
     0
  0
CLASS
  1
DICTIONARYVAR
  2
AcDbDictionaryVar
  3
ObjectDBX Classes
 90
        0
280
     0
281
     0
  0
CLASS
  1
XRECORD
  2
AcDbXrecord
  3
ObjectDBX Classes
 90
        0
280
     0
281
     0
  0
CLASS
  1
LWPOLYLINE
  2
AcDbPolyline
  3
ObjectDBX Classes
 90
        0
280
     0
281
     1
  0
CLASS
  1
HATCH
  2
AcDbHatch
  3
ObjectDBX Classes
 90
        0
280
     0
281
     1
  0
CLASS
  1
ACDBPLACEHOLDER
  2
AcDbPlaceHolder
  3
ObjectDBX Classes
 90
        0
280
     0
281
     0
  0
CLASS
  1
LAYOUT
  2
AcDbLayout
  3
ObjectDBX Classes
 90
        0
280
     0
281
     0
  0
ENDSEC
  0
SECTION
  2
TABLES
  0
TABLE
  2
VPORT
  5
8
102
{ACAD_XDICTIONARY
360
583
102
}
330
0
100
AcDbSymbolTable
 70
     1
  0
VPORT
  5
1F4
330
8
100
AcDbSymbolTableRecord
100
AcDbViewportTableRecord
  2
*ACTIVE
 70
     0
 10
0.0
 20
0.0
 11
1.0
 21
1.0
 12
210.0
 22
148.5
 13
0.0
 23
0.0
 14
1.0
 24
1.0
 15
0.0
 25
0.0
 16
0.0
 26
0.0
 36
1.0
 17
0.0
 27
0.0
 37
0.0
 40
302.94
 41
1.7369
 42
50.0
 43
0.0
 44
0.0
 50
0.0
 51
0.0
 71
    16
 72
   100
 73
     1
 74
     1
 75
     0
 76
     0
 77
     0
 78
     0
  0
ENDTAB
  0
TABLE
  2
LTYPE
  5
5
330
0
100
AcDbSymbolTable
 70
     6
  0
LTYPE
  5
14
330
5
100
AcDbSymbolTableRecord
100
AcDbLinetypeTableRecord
  2
BYBLOCK
 70
     0
  3

 72
    65
 73
     0
 40
0.0
  0
LTYPE
  5
15
330
5
100
AcDbSymbolTableRecord
100
AcDbLinetypeTableRecord
  2
BYLAYER
 70
     0
  3

 72
    65
 73
     0
 40
0.0
  0
LTYPE
  5
16
330
5
100
AcDbSymbolTableRecord
100
AcDbLinetypeTableRecord
  2
CONTINUOUS
 70
     0
  3
Solid line
 72
    65
 73
     0
 40
0.0
  0
LTYPE
  5
1F5
330
5
100
AcDbSymbolTableRecord
100
AcDbLinetypeTableRecord
  2
CENTER
 70
     0
  3
____ _ ____ _ ____ _ ____ _ ____ _ ____ _ ____
 72
    65
 73
     4
 40
0.6
 49
0.375
 74
     0
 49
-0.075
 74
     0
 49
0.075
 74
     0
 49
-0.075
 74
     0
  0
LTYPE
  5
1F6
330
5
100
AcDbSymbolTableRecord
100
AcDbLinetypeTableRecord
  2
HIDDEN
 70
     0
  3
- - - - - - - - - - - - - - - - - - - -
 72
    65
 73
     2
 40
0.2
 49
0.1
 74
     0
 49
-0.1
 74
     0
  0
LTYPE
  5
1F7
330
5
100
AcDbSymbolTableRecord
100
AcDbLinetypeTableRecord
  2
PHANTOM
 70
     0
  3
_____ _ _ _____ _ _ _____ _ _ _____
 72
    65
 73
     6
 40
0.8
 49
0.45
 74
     0
 49
-0.05
 74
     0
 49
0.1
 74
     0
 49
-0.05
 74
     0
 49
0.1
 74
     0
 49
-0.05
 74
     0
  0
LTYPE
  5
1F8
330
5
100
AcDbSymbolTableRecord
100
AcDbLinetypeTableRecord
  2
DOT
 70
     0
  3
. . . . . . . . . . . . . . . . . . . .
 72
    65
 73
     2
 40
0.2
 49
0.1
 74
     0
 49
-0.1
 74
     0
  0
LTYPE
  5
1F9
330
5
100
AcDbSymbolTableRecord
100
AcDbLinetypeTableRecord
  2
DASHED
 70
     0
  3
- - - - - - - - - - - - - - - - - - - -
 72
    65
 73
     2
 40
0.2
 49
0.1
 74
     0
 49
-0.1
 74
     0
  0
ENDTAB
  0
TABLE
  2
LAYER
  5
2
330
0
100
AcDbSymbolTable
 70
    39
  0
LAYER
  5
10
330
2
100
AcDbSymbolTableRecord
100
AcDbLayerTableRecord
  2
0
 70
     0
 62
     7
  6
CONTINUOUS
  0
LAYER
  5
1FA
330
2
100
AcDbSymbolTableRecord
100
AcDbLayerTableRecord
  2
DEFAULT_1
 70
     0
 62
     7
  6
CENTER
  0
LAYER
  5
1FB
330
2
100
AcDbSymbolTableRecord
100
AcDbLayerTableRecord
  2
DEFAULT_2
 70
     0
 62
     8
  6
HIDDEN
  0
LAYER
  5
1FC
330
2
100
AcDbSymbolTableRecord
100
AcDbLayerTableRecord
  2
DEFAULT_3
 70
     0
 62
     7
  6
PHANTOM
  0
LAYER
  5
1FD
330
2
100
AcDbSymbolTableRecord
100
AcDbLayerTableRecord
  2
01_ALL_DTM_PLN
 70
     0
 62
     7
  6
CONTINUOUS
  0
LAYER
  5
1FE
330
2
100
AcDbSymbolTableRecord
100
AcDbLayerTableRecord
  2
01__ASM_ALL_DTM_PLN
 70
     0
 62
     7
  6
CONTINUOUS
  0
LAYER
  5
1FF
330
2
100
AcDbSymbolTableRecord
100
AcDbLayerTableRecord
  2
01__ASM_DEF_DTM_PLN
 70
     0
 62
     7
  6
CONTINUOUS
  0
LAYER
  5
200
330
2
100
AcDbSymbolTableRecord
100
AcDbLayerTableRecord
  2
01___PRT_ALL_DTM_PLN
 70
     0
 62
     7
  6
CONTINUOUS
  0
LAYER
  5
201
330
2
100
AcDbSymbolTableRecord
100
AcDbLayerTableRecord
  2
01___PRT_DEF_DTM_PLN
 70
     0
 62
     7
  6
CONTINUOUS
  0
LAYER
  5
202
330
2
100
AcDbSymbolTableRecord
100
AcDbLayerTableRecord
  2
02_ALL_AXES
 70
     0
 62
     7
  6
CONTINUOUS
  0
LAYER
  5
203
330
2
100
AcDbSymbolTableRecord
100
AcDbLayerTableRecord
  2
02__ASM_ALL_AXES
 70
     0
 62
     7
  6
CONTINUOUS
  0
LAYER
  5
204
330
2
100
AcDbSymbolTableRecord
100
AcDbLayerTableRecord
  2
02___PRT_ALL_AXES
 70
     0
 62
     7
  6
CONTINUOUS
  0
LAYER
  5
205
330
2
100
AcDbSymbolTableRecord
100
AcDbLayerTableRecord
  2
03_ALL_CURVES
 70
     0
 62
     7
  6
CONTINUOUS
  0
LAYER
  5
206
330
2
100
AcDbSymbolTableRecord
100
AcDbLayerTableRecord
  2
03__ASM_ALL_CURVES
 70
     0
 62
     7
  6
CONTINUOUS
  0
LAYER
  5
207
330
2
100
AcDbSymbolTableRecord
100
AcDbLayerTableRecord
  2
03___PRT_ALL_CURVES
 70
     0
 62
     7
  6
CONTINUOUS
  0
LAYER
  5
208
330
2
100
AcDbSymbolTableRecord
100
AcDbLayerTableRecord
  2
04_ALL_DTM_PNT
 70
     0
 62
     7
  6
CONTINUOUS
  0
LAYER
  5
209
330
2
100
AcDbSymbolTableRecord
100
AcDbLayerTableRecord
  2
04__ASM_ALL_DTM_PNT
 70
     0
 62
     7
  6
CONTINUOUS
  0
LAYER
  5
20A
330
2
100
AcDbSymbolTableRecord
100
AcDbLayerTableRecord
  2
04___PRT_ALL_DTM_PNT
 70
     0
 62
     7
  6
CONTINUOUS
  0
LAYER
  5
20B
330
2
100
AcDbSymbolTableRecord
100
AcDbLayerTableRecord
  2
05_ALL_DTM_CSYS
 70
     0
 62
     7
  6
CONTINUOUS
  0
LAYER
  5
20C
330
2
100
AcDbSymbolTableRecord
100
AcDbLayerTableRecord
  2
05__ASM_ALL_DTM_CSYS
 70
     0
 62
     7
  6
CONTINUOUS
  0
LAYER
  5
20D
330
2
100
AcDbSymbolTableRecord
100
AcDbLayerTableRecord
  2
05__ASM_DEF_DTM_CSYS
 70
     0
 62
     7
  6
CONTINUOUS
  0
LAYER
  5
20E
330
2
100
AcDbSymbolTableRecord
100
AcDbLayerTableRecord
  2
05___PRT_ALL_DTM_CSYS
 70
     0
 62
     7
  6
CONTINUOUS
  0
LAYER
  5
20F
330
2
100
AcDbSymbolTableRecord
100
AcDbLayerTableRecord
  2
05___PRT_DEF_DTM_CSYS
 70
     0
 62
     7
  6
CONTINUOUS
  0
LAYER
  5
210
330
2
100
AcDbSymbolTableRecord
100
AcDbLayerTableRecord
  2
06_ALL_SURFS
 70
     0
 62
     7
  6
CONTINUOUS
  0
LAYER
  5
211
330
2
100
AcDbSymbolTableRecord
100
AcDbLayerTableRecord
  2
06__ASM_ALL_SURFS
 70
     0
 62
     7
  6
CONTINUOUS
  0
LAYER
  5
212
330
2
100
AcDbSymbolTableRecord
100
AcDbLayerTableRecord
  2
06___PRT_ALL_SURFS
 70
     0
 62
     7
  6
CONTINUOUS
  0
LAYER
  5
213
330
2
100
AcDbSymbolTableRecord
100
AcDbLayerTableRecord
  2
07__ASM_ALL_SKELETONS
 70
     0
 62
     7
  6
CONTINUOUS
  0
LAYER
  5
214
330
2
100
AcDbSymbolTableRecord
100
AcDbLayerTableRecord
  2
1_ALL_PLANES
 70
     0
 62
     7
  6
CONTINUOUS
  0
LAYER
  5
215
330
2
100
AcDbSymbolTableRecord
100
AcDbLayerTableRecord
  2
2_ALL_CSYS
 70
     0
 62
     7
  6
CONTINUOUS
  0
LAYER
  5
216
330
2
100
AcDbSymbolTableRecord
100
AcDbLayerTableRecord
  2
3_ALL_AXES
 70
     0
 62
     7
  6
CONTINUOUS
  0
LAYER
  5
217
330
2
100
AcDbSymbolTableRecord
100
AcDbLayerTableRecord
  2
4_ALL_POINTS
 70
     0
 62
     7
  6
CONTINUOUS
  0
LAYER
  5
218
330
2
100
AcDbSymbolTableRecord
100
AcDbLayerTableRecord
  2
5_ALL_CURVES
 70
     0
 62
     7
  6
CONTINUOUS
  0
LAYER
  5
219
330
2
100
AcDbSymbolTableRecord
100
AcDbLayerTableRecord
  2
5__COSTRUZIONE
 70
     0
 62
     7
  6
CONTINUOUS
  0
LAYER
  5
21A
330
2
100
AcDbSymbolTableRecord
100
AcDbLayerTableRecord
  2
6_ALL_SURFS
 70
     0
 62
     7
  6
CONTINUOUS
  0
LAYER
  5
21B
330
2
100
AcDbSymbolTableRecord
100
AcDbLayerTableRecord
  2
7_ALL_FEATURES
 70
     0
 62
     7
  6
CONTINUOUS
  0
LAYER
  5
21C
330
2
100
AcDbSymbolTableRecord
100
AcDbLayerTableRecord
  2
9_SOLID
 70
     0
 62
     7
  6
CONTINUOUS
  0
LAYER
  5
21D
330
2
100
AcDbSymbolTableRecord
100
AcDbLayerTableRecord
  2
CLOSED_SHELL
 70
     0
 62
     7
  6
CONTINUOUS
  0
LAYER
  5
21E
330
2
100
AcDbSymbolTableRecord
100
AcDbLayerTableRecord
  2
XSEC_DATUMS
 70
     0
 62
     7
  6
CONTINUOUS
  0
LAYER
  5
21F
330
2
100
AcDbSymbolTableRecord
100
AcDbLayerTableRecord
  2
XXX_SOLIDO
 70
     0
 62
     7
  6
CONTINUOUS
  0
ENDTAB
  0
TABLE
  2
STYLE
  5
3
330
0
100
AcDbSymbolTable
 70
     3
  0
STYLE
  5
11
330
3
100
AcDbSymbolTableRecord
100
AcDbTextStyleTableRecord
  2
STANDARD
 70
     0
 40
0.0
 41
1.0
 50
0.0
 71
     0
 42
0.2
  3
arial.ttf
  4

  0
STYLE
  5
220
330
3
100
AcDbSymbolTableRecord
100
AcDbTextStyleTableRecord
  2
TEXTSTYLE_1
 70
     0
 40
0.0
 41
0.8
 50
0.0
 71
     0
 42
0.2
  3
gdt
  4

  0
STYLE
  5
221
330
3
100
AcDbSymbolTableRecord
100
AcDbTextStyleTableRecord
  2
TEXTSTYLE_2
 70
     0
 40
0.0
 41
0.85
 50
0.0
 71
     0
 42
0.2
  3
txt
  4

  0
ENDTAB
  0
TABLE
  2
VIEW
  5
6
330
0
100
AcDbSymbolTable
 70
     0
  0
ENDTAB
  0
TABLE
  2
UCS
  5
7
330
0
100
AcDbSymbolTable
 70
     0
  0
ENDTAB
  0
TABLE
  2
APPID
  5
9
330
0
100
AcDbSymbolTable
 70
     6
  0
APPID
  5
222
330
9
100
AcDbSymbolTableRecord
100
AcDbRegAppTableRecord
  2
ACAD
 70
     0
  0
APPID
  5
54C
330
9
100
AcDbSymbolTableRecord
100
AcDbRegAppTableRecord
  2
MCS_DIM1
 70
     0
  0
APPID
  5
54D
330
9
100
AcDbSymbolTableRecord
100
AcDbRegAppTableRecord
  2
MCSXDATA5
 70
     0
  0
APPID
  5
550
330
9
100
AcDbSymbolTableRecord
100
AcDbRegAppTableRecord
  2
MCS_DOCUMENT_ID
 70
     0
  0
APPID
  5
559
330
9
100
AcDbSymbolTableRecord
100
AcDbRegAppTableRecord
  2
MCS_PARAMS_DATA
 70
     0
  0
APPID
  5
55B
330
9
100
AcDbSymbolTableRecord
100
AcDbRegAppTableRecord
  2
MC_VERSION_DATA
 70
     0
  0
ENDTAB
  0
TABLE
  2
DIMSTYLE
  5
A
330
0
100
AcDbSymbolTable
 70
     2
  0
DIMSTYLE
105
228
330
A
100
AcDbSymbolTableRecord
100
AcDbDimStyleTableRecord
  2
STANDARD
 70
     0
  3

  4

  5
CLOSED
  6
CLOSED
  7
CLOSED
 40
1.0
 41
2.5
 42
0.75
 43
0.38
 44
0.75
 45
0.0
 46
0.0
 47
0.01
 48
0.01
140
3.0
141
0.09
142
0.0
143
25.4
144
1.0
145
0.0
146
1.0
147
0.625
 71
     1
 72
     0
 73
     0
 74
     0
 75
     0
 76
     0
 77
     1
 78
     8
170
     0
171
     1
172
     0
173
     0
174
     0
175
     0
176
     0
177
     0
178
     0
179
     2
270
     2
271
     2
272
     2
273
     2
274
     2
340
11
275
     0
280
     0
281
     0
282
     0
283
     1
284
     8
285
     0
286
     0
287
     3
288
     0
  0
DIMSTYLE
105
229
330
A
100
AcDbSymbolTableRecord
100
AcDbDimStyleTableRecord
  2
DIMSTYLE_1
 70
     0
  3

  4

  5
CLOSED
  6
CLOSED
  7
CLOSED
 40
1.0
 41
2.5
 42
0.75
 43
0.38
 44
0.75
 45
0.0
 46
0.0
 47
0.3
 48
0.3
140
3.0
141
0.09
142
0.0
143
25.4
144
1.0
145
0.0
146
1.0
147
0.75
 71
     0
 72
     0
 73
     0
 74
     0
 75
     0
 76
     0
 77
     1
 78
     8
170
     0
171
     1
172
     0
173
     0
174
     0
175
     0
176
     0
177
     0
178
     0
179
     2
270
     2
271
     2
272
     2
273
     2
274
     2
340
11
275
     0
280
     0
281
     0
282
     0
283
     1
284
     8
285
     0
286
     0
287
     3
288
     0
  0
ENDTAB
  0
TABLE
  2
BLOCK_RECORD
  5
1
330
0
100
AcDbSymbolTable
 70
     5
  0
BLOCK_RECORD
  5
1F
330
1
100
AcDbSymbolTableRecord
100
AcDbBlockTableRecord
  2
*MODEL_SPACE
  0
BLOCK_RECORD
  5
1B
330
1
100
AcDbSymbolTableRecord
100
AcDbBlockTableRecord
  2
*PAPER_SPACE
  0
BLOCK_RECORD
  5
223
330
1
100
AcDbSymbolTableRecord
100
AcDbBlockTableRecord
  2
_CLOSED
  0
BLOCK_RECORD
  5
224
330
1
100
AcDbSymbolTableRecord
100
AcDbBlockTableRecord
  2
*D1
  0
BLOCK_RECORD
  5
225
330
1
100
AcDbSymbolTableRecord
100
AcDbBlockTableRecord
  2
*D2
  0
BLOCK_RECORD
  5
226
330
1
100
AcDbSymbolTableRecord
100
AcDbBlockTableRecord
  2
*D3
  0
BLOCK_RECORD
  5
227
330
1
100
AcDbSymbolTableRecord
100
AcDbBlockTableRecord
  2
LOGO2_BL0
  0
ENDTAB
  0
ENDSEC
  0
SECTION
  2
BLOCKS
  0
BLOCK
  5
20
330
1F
100
AcDbEntity
  8
0
100
AcDbBlockBegin
  2
*MODEL_SPACE
 70
     0
 10
0.0
 20
0.0
 30
0.0
  3
*MODEL_SPACE
  1

  0
ENDBLK
  5
21
330
1F
100
AcDbEntity
  8
0
100
AcDbBlockEnd
  0
BLOCK
  5
1C
330
1B
100
AcDbEntity
 67
     1
  8
0
100
AcDbBlockBegin
  2
*PAPER_SPACE
 70
     0
 10
0.0
 20
0.0
 30
0.0
  3
*PAPER_SPACE
  1

  0
ENDBLK
  5
1D
330
1B
100
AcDbEntity
 67
     1
  8
0
100
AcDbBlockEnd
  0
BLOCK
  5
266
330
223
100
AcDbEntity
  8
0
100
AcDbBlockBegin
  2
_CLOSED
 70
     0
 10
0.0
 20
0.0
 30
0.0
  3
_CLOSED
  1
_CLOSED
  0
LINE
  5
267
330
223
100
AcDbEntity
  8
0
  6
BYBLOCK
 62
     0
100
AcDbLine
 10
0.0
 20
0.0
 30
0.0
 11
-1.0
 21
0.2
 31
0.0
  0
LINE
  5
268
330
223
100
AcDbEntity
  8
0
  6
BYBLOCK
 62
     0
100
AcDbLine
 10
-1.0
 20
0.2
 30
0.0
 11
-1.0
 21
-0.2
 31
0.0
  0
LINE
  5
269
330
223
100
AcDbEntity
  8
0
  6
BYBLOCK
 62
     0
100
AcDbLine
 10
-1.0
 20
-0.2
 30
0.0
 11
0.0
 21
0.0
 31
0.0
  0
LINE
  5
26A
330
223
100
AcDbEntity
  8
0
  6
BYBLOCK
 62
     0
100
AcDbLine
 10
-1.0
 20
0.0
 30
0.0
 11
0.0
 21
0.0
 31
0.0
  0
ENDBLK
  5
26B
330
223
100
AcDbEntity
  8
0
  6
BYBLOCK
 62
     0
100
AcDbBlockEnd
  0
BLOCK
  5
26C
330
224
100
AcDbEntity
  8
0
100
AcDbBlockBegin
  2
*D1
 70
     1
 10
0.0
 20
0.0
 30
0.0
  3
*D1
  1
*D1
  0
MTEXT
  5
26D
330
224
100
AcDbEntity
  8
0
  6
CONTINUOUS
 62
     2
100
AcDbMText
 10
157.520153
 20
221.227684
 30
0.0
 40
3.0
 41
6.992565
 71
     2
 72
     1
  1
117
 11
0.0
 21
1.0
 31
0.0
  0
LINE
  5
26E
330
224
100
AcDbEntity
  8
0
  6
CONTINUOUS
 62
     2
100
AcDbLine
 10
150.798737
 20
279.727684
 30
0.0
 11
162.020153
 21
279.727684
 31
0.0
  0
LINE
  5
26F
330
224
100
AcDbEntity
  8
0
  6
CONTINUOUS
 62
     2
100
AcDbLine
 10
150.27767
 20
162.727684
 30
0.0
 11
162.020153
 21
162.727684
 31
0.0
  0
LINE
  5
270
330
224
100
AcDbEntity
  8
0
  6
CONTINUOUS
 62
     2
100
AcDbLine
 10
161.270153
 20
279.727684
 30
0.0
 11
161.270153
 21
221.227684
 31
0.0
  0
LINE
  5
271
330
224
100
AcDbEntity
  8
0
  6
CONTINUOUS
 62
     2
100
AcDbLine
 10
161.270153
 20
162.727684
 30
0.0
 11
161.270153
 21
221.227684
 31
0.0
  0
INSERT
  5
272
330
224
100
AcDbEntity
  8
0
  6
CONTINUOUS
 62
     2
100
AcDbBlockReference
  2
_CLOSED
 10
161.270153
 20
279.727684
 30
0.0
 41
2.5
 42
2.5
 43
2.5
 50
90.0
  0
INSERT
  5
273
330
224
100
AcDbEntity
  8
0
  6
CONTINUOUS
 62
     2
100
AcDbBlockReference
  2
_CLOSED
 10
161.270153
 20
162.727684
 30
0.0
 41
2.5
 42
2.5
 43
2.5
 50
270.0
  0
ENDBLK
  5
274
330
224
100
AcDbEntity
  8
0
  6
BYBLOCK
 62
     0
100
AcDbBlockEnd
  0
BLOCK
  5
275
330
225
100
AcDbEntity
  8
0
100
AcDbBlockBegin
  2
*D2
 70
     1
 10
0.0
 20
0.0
 30
0.0
  3
*D2
  1
*D2
  0
MTEXT
  5
276
330
225
100
AcDbEntity
  8
0
  6
CONTINUOUS
 62
     2
100
AcDbMText
 10
84.254032
 20
10.766829
 30
0.0
 40
3.0
 41
7.918216
 71
     2
 72
     1
  1
Ø84
  0
LINE
  5
277
330
225
100
AcDbEntity
  8
0
  6
CONTINUOUS
 62
     2
100
AcDbLine
 10
42.254032
 20
12.680835
 30
0.0
 11
42.254032
 21
6.266829
 31
0.0
  0
LINE
  5
278
330
225
100
AcDbEntity
  8
0
  6
CONTINUOUS
 62
     2
100
AcDbLine
 10
126.254032
 20
13.165213
 30
0.0
 11
126.254032
 21
6.266829
 31
0.0
  0
LINE
  5
279
330
225
100
AcDbEntity
  8
0
  6
CONTINUOUS
 62
     2
100
AcDbLine
 10
42.254032
 20
7.016829
 30
0.0
 11
84.254032
 21
7.016829
 31
0.0
  0
LINE
  5
27A
330
225
100
AcDbEntity
  8
0
  6
CONTINUOUS
 62
     2
100
AcDbLine
 10
126.254032
 20
7.016829
 30
0.0
 11
84.254032
 21
7.016829
 31
0.0
  0
INSERT
  5
27B
330
225
100
AcDbEntity
  8
0
  6
CONTINUOUS
 62
     2
100
AcDbBlockReference
  2
_CLOSED
 10
42.254032
 20
7.016829
 30
0.0
 41
2.5
 42
2.5
 43
2.5
 50
180.0
  0
INSERT
  5
27C
330
225
100
AcDbEntity
  8
0
  6
CONTINUOUS
 62
     2
100
AcDbBlockReference
  2
_CLOSED
 10
126.254032
 20
7.016829
 30
0.0
 41
2.5
 42
2.5
 43
2.5
  0
ENDBLK
  5
27D
330
225
100
AcDbEntity
  8
0
  6
BYBLOCK
 62
     0
100
AcDbBlockEnd
  0
BLOCK
  5
27E
330
226
100
AcDbEntity
  8
0
100
AcDbBlockBegin
  2
*D3
 70
     1
 10
0.0
 20
0.0
 30
0.0
  3
*D3
  1
*D3
  0
MTEXT
  5
27F
330
226
100
AcDbEntity
  8
0
  6
CONTINUOUS
 62
     2
100
AcDbMText
 10
289.070078
 20
294.10382
 30
0.0
 40
3.0
 41
8.152416
 71
     2
 72
     1
  1
87,7
  0
LINE
  5
280
330
226
100
AcDbEntity
  8
0
  6
CONTINUOUS
 62
     2
100
AcDbLine
 10
245.220078
 20
286.177724
 30
0.0
 11
245.220078
 21
291.10382
 31
0.0
  0
LINE
  5
281
330
226
100
AcDbEntity
  8
0
  6
CONTINUOUS
 62
     2
100
AcDbLine
 10
332.920078
 20
286.377724
 30
0.0
 11
332.920078
 21
291.10382
 31
0.0
  0
LINE
  5
282
330
226
100
AcDbEntity
  8
0
  6
CONTINUOUS
 62
     2
100
AcDbLine
 10
245.220078
 20
290.35382
 30
0.0
 11
289.070078
 21
290.35382
 31
0.0
  0
LINE
  5
283
330
226
100
AcDbEntity
  8
0
  6
CONTINUOUS
 62
     2
100
AcDbLine
 10
332.920078
 20
290.35382
 30
0.0
 11
289.070078
 21
290.35382
 31
0.0
  0
INSERT
  5
284
330
226
100
AcDbEntity
  8
0
  6
CONTINUOUS
 62
     2
100
AcDbBlockReference
  2
_CLOSED
 10
245.220078
 20
290.35382
 30
0.0
 41
2.5
 42
2.5
 43
2.5
 50
180.0
  0
INSERT
  5
285
330
226
100
AcDbEntity
  8
0
  6
CONTINUOUS
 62
     2
100
AcDbBlockReference
  2
_CLOSED
 10
332.920078
 20
290.35382
 30
0.0
 41
2.5
 42
2.5
 43
2.5
  0
ENDBLK
  5
286
330
226
100
AcDbEntity
  8
0
  6
BYBLOCK
 62
     0
100
AcDbBlockEnd
  0
BLOCK
  5
22A
330
227
100
AcDbEntity
  8
0
100
AcDbBlockBegin
  2
LOGO2_BL0
 70
     0
 10
333.647566
 20
36.921792
 30
0.0
  3
LOGO2_BL0
  1
LOGO2_BL0
  0
LINE
  5
22B
330
227
100
AcDbEntity
  8
0
  6
CONTINUOUS
 62
     7
100
AcDbLine
 10
325.390491
 20
40.117283
 30
0.0
 11
324.08615
 21
40.117283
 31
0.0
  0
LINE
  5
22C
330
227
100
AcDbEntity
  8
0
  6
CONTINUOUS
 62
     7
100
AcDbLine
 10
324.08615
 20
40.117283
 30
0.0
 11
324.08615
 21
29.658217
 31
0.0
  0
LINE
  5
22D
330
227
100
AcDbEntity
  8
0
  6
CONTINUOUS
 62
     7
100
AcDbLine
 10
324.08615
 20
29.658217
 30
0.0
 11
328.567205
 21
29.658217
 31
0.0
  0
LINE
  5
22E
330
227
100
AcDbEntity
  8
0
  6
CONTINUOUS
 62
     7
100
AcDbLine
 10
328.567205
 20
29.658217
 30
0.0
 11
328.567205
 21
30.851072
 31
0.0
  0
LINE
  5
22F
330
227
100
AcDbEntity
  8
0
  6
CONTINUOUS
 62
     7
100
AcDbLine
 10
328.567205
 20
30.851072
 30
0.0
 11
325.390491
 21
30.851072
 31
0.0
  0
LINE
  5
230
330
227
100
AcDbEntity
  8
0
  6
CONTINUOUS
 62
     7
100
AcDbLine
 10
325.390491
 20
30.851072
 30
0.0
 11
325.390491
 21
40.117283
 31
0.0
  0
LINE
  5
231
330
227
100
AcDbEntity
  8
0
  6
CONTINUOUS
 62
     7
100
AcDbLine
 10
340.326817
 20
40.117283
 30
0.0
 11
339.023
 21
40.117283
 31
0.0
  0
LINE
  5
232
330
227
100
AcDbEntity
  8
0
  6
CONTINUOUS
 62
     7
100
AcDbLine
 10
339.023
 20
40.117283
 30
0.0
 11
339.023
 21
29.658217
 31
0.0
  0
LINE
  5
233
330
227
100
AcDbEntity
  8
0
  6
CONTINUOUS
 62
     7
100
AcDbLine
 10
339.023
 20
29.658217
 30
0.0
 11
343.504186
 21
29.658217
 31
0.0
  0
LINE
  5
234
330
227
100
AcDbEntity
  8
0
  6
CONTINUOUS
 62
     7
100
AcDbLine
 10
343.504186
 20
29.658217
 30
0.0
 11
343.504186
 21
30.851072
 31
0.0
  0
LINE
  5
235
330
227
100
AcDbEntity
  8
0
  6
CONTINUOUS
 62
     7
100
AcDbLine
 10
343.504186
 20
30.851072
 30
0.0
 11
340.326817
 21
30.851072
 31
0.0
  0
LINE
  5
236
330
227
100
AcDbEntity
  8
0
  6
CONTINUOUS
 62
     7
100
AcDbLine
 10
340.326817
 20
30.851072
 30
0.0
 11
340.326817
 21
40.117283
 31
0.0
  0
LWPOLYLINE
  5
237
330
227
100
AcDbEntity
  8
0
  6
CONTINUOUS
 62
     7
100
AcDbPolyline
 90
        2
 70
     0
 43
0.2
 10
322.440545
 20
26.314666
 10
322.440545
 20
24.457603
  0
LWPOLYLINE
  5
238
330
227
100
AcDbEntity
  8
0
  6
CONTINUOUS
 62
     7
100
AcDbPolyline
 90
        2
 70
     0
 43
0.2
 10
322.440545
 20
24.457603
 10
323.236261
 20
24.457603
  0
LWPOLYLINE
  5
239
330
227
100
AcDbEntity
  8
0
  6
CONTINUOUS
 62
     7
100
AcDbPolyline
 90
        2
 70
     0
 43
0.2
 10
323.236261
 20
24.457603
 10
323.236261
 20
24.669584
  0
LWPOLYLINE
  5
23A
330
227
100
AcDbEntity
  8
0
  6
CONTINUOUS
 62
     7
100
AcDbPolyline
 90
        2
 70
     0
 43
0.2
 10
323.236261
 20
24.669584
 10
322.672155
 20
24.669584
  0
LWPOLYLINE
  5
23B
330
227
100
AcDbEntity
  8
0
  6
CONTINUOUS
 62
     7
100
AcDbPolyline
 90
        2
 70
     0
 43
0.2
 10
322.672155
 20
24.669584
 10
322.672155
 20
26.314666
  0
LWPOLYLINE
  5
23C
330
227
100
AcDbEntity
  8
0
  6
CONTINUOUS
 62
     7
100
AcDbPolyline
 90
        2
 70
     0
 43
0.2
 10
322.672155
 20
26.314666
 10
322.440545
 20
26.314666
  0
SPLINE
  5
23D
330
227
100
AcDbEntity
  8
0
  6
CONTINUOUS
 62
     7
100
AcDbSpline
 70
     3
 71
     3
 72
    35
 73
    31
 74
     0
 42
0.000000001
 43
0.0000001
 40
0.0
 40
0.0
 40
0.0
 40
0.0
 40
1.0
 40
1.0
 40
1.0
 40
2.0
 40
2.0
 40
2.0
 40
3.0
 40
3.0
 40
3.0
 40
4.0
 40
4.0
 40
4.0
 40
5.0
 40
5.0
 40
5.0
 40
6.0
 40
6.0
 40
6.0
 40
7.0
 40
7.0
 40
7.0
 40
8.0
 40
8.0
 40
8.0
 40
9.0
 40
9.0
 40
9.0
 40
10.0
 40
10.0
 40
10.0
 40
10.0
 10
324.6345543915
 20
25.6101544177
 30
0.0
 10
324.6345543915
 20
25.6101544177
 30
0.0
 10
324.6345543915
 20
24.9480391385
 30
0.0
 10
324.6345543915
 20
24.9480391385
 30
0.0
 10
324.6345543915
 20
24.6329455432
 30
0.0
 10
324.7824180804
 20
24.4183469152
 30
0.0
 10
325.1225045647
 20
24.4183469152
 30
0.0
 10
325.4620676377
 20
24.4183469152
 30
0.0
 10
325.6101930321
 20
24.6329455432
 30
0.0
 10
325.6101930321
 20
24.9480391385
 30
0.0
 10
325.6101930321
 20
24.9480391385
 30
0.0
 10
325.6101930321
 20
25.6101544177
 30
0.0
 10
325.6101930321
 20
25.6101544177
 30
0.0
 10
325.6101930321
 20
25.6101544177
 30
0.0
 10
325.3881357933
 20
25.6101544177
 30
0.0
 10
325.3881357933
 20
25.6101544177
 30
0.0
 10
325.3881357933
 20
25.6101544177
 30
0.0
 10
325.3881357933
 20
24.9731628803
 30
0.0
 10
325.3881357933
 20
24.9731628803
 30
0.0
 10
325.3881357933
 20
24.7873518732
 30
0.0
 10
325.3414213358
 20
24.6245709626
 30
0.0
 10
325.1225045647
 20
24.6245709626
 30
0.0
 10
324.9030643822
 20
24.6245709626
 30
0.0
 10
324.8563499248
 20
24.7873518732
 30
0.0
 10
324.8563499248
 20
24.9731628803
 30
0.0
 10
324.8563499248
 20
24.9731628803
 30
0.0
 10
324.8563499248
 20
25.6101544177
 30
0.0
 10
324.8563499248
 20
25.6101544177
 30
0.0
 10
324.8563499248
 20
25.6101544177
 30
0.0
 10
324.6345543915
 20
25.6101544177
 30
0.0
 10
324.6345543915
 20
25.6101544177
 30
0.0
  0
SPLINE
  5
23E
330
227
100
AcDbEntity
  8
0
  6
CONTINUOUS
 62
     7
100
AcDbSpline
 70
     3
 71
     3
 72
    35
 73
    31
 74
     0
 42
0.000000001
 43
0.0000001
 40
0.0
 40
0.0
 40
0.0
 40
0.0
 40
1.0
 40
1.0
 40
1.0
 40
2.0
 40
2.0
 40
2.0
 40
3.0
 40
3.0
 40
3.0
 40
4.0
 40
4.0
 40
4.0
 40
5.0
 40
5.0
 40
5.0
 40
6.0
 40
6.0
 40
6.0
 40
7.0
 40
7.0
 40
7.0
 40
8.0
 40
8.0
 40
8.0
 40
9.0
 40
9.0
 40
9.0
 40
10.0
 40
10.0
 40
10.0
 40
10.0
 10
328.0333255893
 20
25.5688049259
 30
0.0
 10
327.9448690817
 20
25.6200992322
 30
0.0
 10
327.831419685
 20
25.645222974
 30
0.0
 10
327.72778425
 20
25.645222974
 30
0.0
 10
327.3729113969
 20
25.645222974
 30
0.0
 10
327.0974662066
 20
25.3814236849
 30
0.0
 10
327.0974662066
 20
25.0239337753
 30
0.0
 10
327.0974662066
 20
24.6790057366
 30
0.0
 10
327.3759210118
 20
24.4188703265
 30
0.0
 10
327.7154840848
 20
24.4188703265
 30
0.0
 10
327.831419685
 20
24.4188703265
 30
0.0
 10
327.9321763579
 20
24.4408536006
 30
0.0
 10
328.0333255893
 20
24.4947649632
 30
0.0
 10
328.0333255893
 20
24.4947649632
 30
0.0
 10
328.0333255893
 20
24.7774070587
 30
0.0
 10
328.0333255893
 20
24.7774070587
 30
0.0
 10
327.9494489304
 20
24.6842398494
 30
0.0
 10
327.8459443483
 20
24.6250943739
 30
0.0
 10
327.7178394356
 20
24.6250943739
 30
0.0
 10
327.4841362955
 20
24.6250943739
 30
0.0
 10
327.3188691814
 20
24.7972966876
 30
0.0
 10
327.3188691814
 20
25.0338785897
 30
0.0
 10
327.3188691814
 20
25.2458601613
 30
0.0
 10
327.4866224991
 20
25.437952104
 30
0.0
 10
327.7034456251
 20
25.437952104
 30
0.0
 10
327.8362612394
 20
25.437952104
 30
0.0
 10
327.9448690817
 20
25.3840407413
 30
0.0
 10
328.0333255893
 20
25.2830223628
 30
0.0
 10
328.0333255893
 20
25.2830223628
 30
0.0
 10
328.0333255893
 20
25.5688049259
 30
0.0
 10
328.0333255893
 20
25.5688049259
 30
0.0
  0
SPLINE
  5
23F
330
227
100
AcDbEntity
  8
0
  6
CONTINUOUS
 62
     7
100
AcDbSpline
 70
     3
 71
     3
 72
    32
 73
    28
 74
     0
 42
0.000000001
 43
0.0000001
 40
0.0
 40
0.0
 40
0.0
 40
0.0
 40
1.0
 40
1.0
 40
1.0
 40
2.0
 40
2.0
 40
2.0
 40
3.0
 40
3.0
 40
3.0
 40
4.0
 40
4.0
 40
4.0
 40
5.0
 40
5.0
 40
5.0
 40
6.0
 40
6.0
 40
6.0
 40
7.0
 40
7.0
 40
7.0
 40
8.0
 40
8.0
 40
8.0
 40
9.0
 40
9.0
 40
9.0
 40
9.0
 10
330.5651968416
 20
24.9972397996
 30
0.0
 10
330.5651968416
 20
24.9972397996
 30
0.0
 10
330.5651968416
 20
25.0312615333
 30
0.0
 10
330.5651968416
 20
25.0312615333
 30
0.0
 10
330.5651968416
 20
25.3735725156
 30
0.0
 10
330.3923402638
 20
25.645222974
 30
0.0
 10
330.0256906566
 20
25.645222974
 30
0.0
 10
329.6540686422
 20
25.645222974
 30
0.0
 10
329.4643320504
 20
25.3788066284
 30
0.0
 10
329.4643320504
 20
25.0239337753
 30
0.0
 10
329.4643320504
 20
24.6842398494
 30
0.0
 10
329.6784072671
 20
24.4183469152
 30
0.0
 10
330.030532211
 20
24.4183469152
 30
0.0
 10
330.2545522422
 20
24.4183469152
 30
0.0
 10
330.4567198522
 20
24.5340208098
 30
0.0
 10
330.5651968416
 20
24.7334405105
 30
0.0
 10
330.5651968416
 20
24.7334405105
 30
0.0
 10
330.3775538949
 20
24.8402164132
 30
0.0
 10
330.3775538949
 20
24.8402164132
 30
0.0
 10
330.2940697945
 20
24.7015124219
 30
0.0
 10
330.2028653775
 20
24.6156729707
 30
0.0
 10
330.0332801203
 20
24.6156729707
 30
0.0
 10
329.8212985487
 20
24.6156729707
 30
0.0
 10
329.6883520816
 20
24.8004371554
 30
0.0
 10
329.6859967308
 20
24.9972397996
 30
0.0
 10
329.6859967308
 20
24.9972397996
 30
0.0
 10
330.5651968416
 20
24.9972397996
 30
0.0
 10
330.5651968416
 20
24.9972397996
 30
0.0
  0
SPLINE
  5
240
330
227
100
AcDbEntity
  8
0
  6
CONTINUOUS
 62
     7
100
AcDbSpline
 70
     3
 71
     3
 72
    14
 73
    10
 74
     0
 42
0.000000001
 43
0.0000001
 40
0.0
 40
0.0
 40
0.0
 40
0.0
 40
1.0
 40
1.0
 40
1.0
 40
2.0
 40
2.0
 40
2.0
 40
3.0
 40
3.0
 40
3.0
 40
3.0
 10
329.6980351904
 20
25.1647314117
 30
0.0
 10
329.7256451358
 20
25.3296059674
 30
0.0
 10
329.8534883429
 20
25.45260762
 30
0.0
 10
330.0256906566
 20
25.45260762
 30
0.0
 10
330.2028653775
 20
25.45260762
 30
0.0
 10
330.3163147742
 20
25.3369337254
 30
0.0
 10
330.3435321612
 20
25.1647314117
 30
0.0
 10
330.3435321612
 20
25.1647314117
 30
0.0
 10
329.6980351904
 20
25.1647314117
 30
0.0
 10
329.6980351904
 20
25.1647314117
 30
0.0
  0
SPLINE
  5
241
330
227
100
AcDbEntity
  8
0
  6
CONTINUOUS
 62
     7
100
AcDbSpline
 70
     3
 71
     3
 72
    20
 73
    16
 74
     0
 42
0.000000001
 43
0.0000001
 40
0.0
 40
0.0
 40
0.0
 40
0.0
 40
1.0
 40
1.0
 40
1.0
 40
2.0
 40
2.0
 40
2.0
 40
3.0
 40
3.0
 40
3.0
 40
4.0
 40
4.0
 40
4.0
 40
5.0
 40
5.0
 40
5.0
 40
5.0
 10
332.5892282918
 20
25.3740959269
 30
0.0
 10
332.5892282918
 20
25.3740959269
 30
0.0
 10
333.0003678584
 20
24.8716210905
 30
0.0
 10
333.0003678584
 20
24.8716210905
 30
0.0
 10
332.8843014053
 20
24.7559471959
 30
0.0
 10
332.7465133838
 20
24.6256177852
 30
0.0
 10
332.5745727757
 20
24.6256177852
 30
0.0
 10
332.3971363491
 20
24.6256177852
 30
0.0
 10
332.229644737
 20
24.7899689296
 30
0.0
 10
332.229644737
 20
24.9668819449
 30
0.0
 10
332.229644737
 20
25.1448417828
 30
0.0
 10
332.4394018106
 20
25.2709839031
 30
0.0
 10
332.566983312
 20
25.3589169995
 30
0.0
 10
332.566983312
 20
25.3589169995
 30
0.0
 10
332.5892282918
 20
25.3740959269
 30
0.0
 10
332.5892282918
 20
25.3740959269
 30
0.0
  0
SPLINE
  5
242
330
227
100
AcDbEntity
  8
0
  6
CONTINUOUS
 62
     7
100
AcDbSpline
 70
     3
 71
     3
 72
    23
 73
    19
 74
     0
 42
0.000000001
 43
0.0000001
 40
0.0
 40
0.0
 40
0.0
 40
0.0
 40
1.0
 40
1.0
 40
1.0
 40
2.0
 40
2.0
 40
2.0
 40
3.0
 40
3.0
 40
3.0
 40
4.0
 40
4.0
 40
4.0
 40
5.0
 40
5.0
 40
5.0
 40
6.0
 40
6.0
 40
6.0
 40
6.0
 10
332.6385598056
 20
25.6651126029
 30
0.0
 10
332.6385598056
 20
25.6651126029
 30
0.0
 10
332.5769281265
 20
25.7436242961
 30
0.0
 10
332.5769281265
 20
25.7436242961
 30
0.0
 10
332.5230167639
 20
25.8121911748
 30
0.0
 10
332.4662266391
 20
25.8812814648
 30
0.0
 10
332.4662266391
 20
25.9749720853
 30
0.0
 10
332.4662266391
 20
26.0937864477
 30
0.0
 10
332.5621417576
 20
26.1712513183
 30
0.0
 10
332.6731049506
 20
26.1712513183
 30
0.0
 10
332.7963683089
 20
26.1712513183
 30
0.0
 10
332.889666371
 20
26.1000673831
 30
0.0
 10
332.889666371
 20
25.9697379725
 30
0.0
 10
332.889666371
 20
25.8346978602
 30
0.0
 10
332.7615614583
 20
25.7582798122
 30
0.0
 10
332.6680016906
 20
25.6844788206
 30
0.0
 10
332.6680016906
 20
25.6844788206
 30
0.0
 10
332.6385598056
 20
25.6651126029
 30
0.0
 10
332.6385598056
 20
25.6651126029
 30
0.0
  0
SPLINE
  5
243
330
227
100
AcDbEntity
  8
0
  6
CONTINUOUS
 62
     7
100
AcDbSpline
 70
     3
 71
     3
 72
    50
 73
    46
 74
     0
 42
0.000000001
 43
0.0000001
 40
0.0
 40
0.0
 40
0.0
 40
0.0
 40
1.0
 40
1.0
 40
1.0
 40
2.0
 40
2.0
 40
2.0
 40
3.0
 40
3.0
 40
3.0
 40
4.0
 40
4.0
 40
4.0
 40
5.0
 40
5.0
 40
5.0
 40
6.0
 40
6.0
 40
6.0
 40
7.0
 40
7.0
 40
7.0
 40
8.0
 40
8.0
 40
8.0
 40
9.0
 40
9.0
 40
9.0
 40
10.0
 40
10.0
 40
10.0
 40
11.0
 40
11.0
 40
11.0
 40
12.0
 40
12.0
 40
12.0
 40
13.0
 40
13.0
 40
13.0
 40
14.0
 40
14.0
 40
14.0
 40
15.0
 40
15.0
 40
15.0
 40
15.0
 10
333.3407160483
 20
24.4581261731
 30
0.0
 10
333.3407160483
 20
24.4581261731
 30
0.0
 10
333.626106053
 20
24.4581261731
 30
0.0
 10
333.626106053
 20
24.4581261731
 30
0.0
 10
333.626106053
 20
24.4581261731
 30
0.0
 10
333.2937398852
 20
24.8690040341
 30
0.0
 10
333.2937398852
 20
24.8690040341
 30
0.0
 10
333.2937398852
 20
24.8690040341
 30
0.0
 10
333.5202461201
 20
25.1348969683
 30
0.0
 10
333.5202461201
 20
25.1348969683
 30
0.0
 10
333.5202461201
 20
25.1348969683
 30
0.0
 10
333.3719898728
 20
25.2877330644
 30
0.0
 10
333.3719898728
 20
25.2877330644
 30
0.0
 10
333.3719898728
 20
25.2877330644
 30
0.0
 10
333.1560827165
 20
25.0364956462
 30
0.0
 10
333.1560827165
 20
25.0364956462
 30
0.0
 10
333.1560827165
 20
25.0364956462
 30
0.0
 10
332.7690200692
 20
25.5044253375
 30
0.0
 10
332.7690200692
 20
25.5044253375
 30
0.0
 10
332.9244732216
 20
25.6185289983
 30
0.0
 10
333.1067512026
 20
25.7582798122
 30
0.0
 10
333.1067512026
 20
25.9676443273
 30
0.0
 10
333.1067512026
 20
26.2115539874
 30
0.0
 10
332.9047144455
 20
26.3549686803
 30
0.0
 10
332.6782082107
 20
26.3549686803
 30
0.0
 10
332.4340368449
 20
26.3549686803
 30
0.0
 10
332.2496652188
 20
26.2042262294
 30
0.0
 10
332.2496652188
 20
25.9477546984
 30
0.0
 10
332.2496652188
 20
25.7902079007
 30
0.0
 10
332.3483282465
 20
25.652550732
 30
0.0
 10
332.4536647682
 20
25.541587539
 30
0.0
 10
332.4536647682
 20
25.541587539
 30
0.0
 10
332.3381217264
 20
25.4578417329
 30
0.0
 10
332.3381217264
 20
25.4578417329
 30
0.0
 10
332.1604235942
 20
25.3296059674
 30
0.0
 10
332.0130833166
 20
25.2018936131
 30
0.0
 10
332.0130833166
 20
24.9647882997
 30
0.0
 10
332.0130833166
 20
24.6444605916
 30
0.0
 10
332.2716484929
 20
24.4183469152
 30
0.0
 10
332.5820313866
 20
24.4183469152
 30
0.0
 10
332.8009481577
 20
24.4183469152
 30
0.0
 10
332.9981433604
 20
24.543442213
 30
0.0
 10
333.1384175856
 20
24.7093635913
 30
0.0
 10
333.1384175856
 20
24.7093635913
 30
0.0
 10
333.3407160483
 20
24.4581261731
 30
0.0
 10
333.3407160483
 20
24.4581261731
 30
0.0
  0
LWPOLYLINE
  5
244
330
227
100
AcDbEntity
  8
0
  6
CONTINUOUS
 62
     7
100
AcDbPolyline
 90
        2
 70
     0
 43
0.2
 10
335.27616
 20
26.314666
 10
335.044812
 20
26.314666
  0
LWPOLYLINE
  5
245
330
227
100
AcDbEntity
  8
0
  6
CONTINUOUS
 62
     7
100
AcDbPolyline
 90
        2
 70
     0
 43
0.2
 10
335.044812
 20
26.314666
 10
335.044812
 20
24.457603
  0
LWPOLYLINE
  5
246
330
227
100
AcDbEntity
  8
0
  6
CONTINUOUS
 62
     7
100
AcDbPolyline
 90
        2
 70
     0
 43
0.2
 10
335.044812
 20
24.457603
 10
335.840136
 20
24.457603
  0
LWPOLYLINE
  5
247
330
227
100
AcDbEntity
  8
0
  6
CONTINUOUS
 62
     7
100
AcDbPolyline
 90
        2
 70
     0
 43
0.2
 10
335.840136
 20
24.457603
 10
335.840136
 20
24.669584
  0
LWPOLYLINE
  5
248
330
227
100
AcDbEntity
  8
0
  6
CONTINUOUS
 62
     7
100
AcDbPolyline
 90
        2
 70
     0
 43
0.2
 10
335.840136
 20
24.669584
 10
335.27616
 20
24.669584
  0
LWPOLYLINE
  5
249
330
227
100
AcDbEntity
  8
0
  6
CONTINUOUS
 62
     7
100
AcDbPolyline
 90
        2
 70
     0
 43
0.2
 10
335.27616
 20
24.669584
 10
335.27616
 20
26.314666
  0
LWPOLYLINE
  5
24A
330
227
100
AcDbEntity
  8
0
  6
CONTINUOUS
 62
     7
100
AcDbPolyline
 90
        2
 70
     0
 43
0.2
 10
337.519239
 20
25.610154
 10
337.298098
 20
25.610154
  0
LWPOLYLINE
  5
24B
330
227
100
AcDbEntity
  8
0
  6
CONTINUOUS
 62
     7
100
AcDbPolyline
 90
        2
 70
     0
 43
0.2
 10
337.298098
 20
25.610154
 10
337.298098
 20
24.458126
  0
LWPOLYLINE
  5
24C
330
227
100
AcDbEntity
  8
0
  6
CONTINUOUS
 62
     7
100
AcDbPolyline
 90
        2
 70
     0
 43
0.2
 10
337.298098
 20
24.458126
 10
337.519239
 20
24.458126
  0
LWPOLYLINE
  5
24D
330
227
100
AcDbEntity
  8
0
  6
CONTINUOUS
 62
     7
100
AcDbPolyline
 90
        2
 70
     0
 43
0.2
 10
337.519239
 20
24.458126
 10
337.519239
 20
25.610154
  0
LWPOLYLINE
  5
24E
330
227
100
AcDbEntity
  8
0
  6
CONTINUOUS
 62
     7
100
AcDbPolyline
 90
        2
 70
     1
 43
0.2
 10
337.256216
 20
26.140108
 42
1.0
 10
337.561383
 20
26.140108
 42
1.0
  0
SPLINE
  5
24F
330
227
100
AcDbEntity
  8
0
  6
CONTINUOUS
 62
     7
100
AcDbSpline
 70
     3
 71
     3
 72
    17
 73
    13
 74
     0
 42
0.000000001
 43
0.0000001
 40
0.0
 40
0.0
 40
0.0
 40
0.0
 40
1.0
 40
1.0
 40
1.0
 40
2.0
 40
2.0
 40
2.0
 40
3.0
 40
3.0
 40
3.0
 40
4.0
 40
4.0
 40
4.0
 40
4.0
 10
339.6495231538
 20
24.6156729707
 30
0.0
 10
339.4155583082
 20
24.6156729707
 30
0.0
 10
339.2852288975
 20
24.8177097279
 30
0.0
 10
339.2852288975
 20
25.0338785897
 30
0.0
 10
339.2852288975
 20
25.2484772178
 30
0.0
 10
339.4210541267
 20
25.4473735072
 30
0.0
 10
339.6495231538
 20
25.4473735072
 30
0.0
 10
339.888983818
 20
25.4473735072
 30
0.0
 10
340.0245473416
 20
25.2584220322
 30
0.0
 10
340.0245473416
 20
25.0338785897
 30
0.0
 10
340.0245473416
 20
24.8077649134
 30
0.0
 10
339.8913391688
 20
24.6156729707
 30
0.0
 10
339.6495231538
 20
24.6156729707
 30
0.0
  0
SPLINE
  5
250
330
227
100
AcDbEntity
  8
0
  6
CONTINUOUS
 62
     7
100
AcDbSpline
 70
     3
 71
     3
 72
    50
 73
    46
 74
     0
 42
0.000000001
 43
0.0000001
 40
0.0
 40
0.0
 40
0.0
 40
0.0
 40
1.0
 40
1.0
 40
1.0
 40
2.0
 40
2.0
 40
2.0
 40
3.0
 40
3.0
 40
3.0
 40
4.0
 40
4.0
 40
4.0
 40
5.0
 40
5.0
 40
5.0
 40
6.0
 40
6.0
 40
6.0
 40
7.0
 40
7.0
 40
7.0
 40
8.0
 40
8.0
 40
8.0
 40
9.0
 40
9.0
 40
9.0
 40
10.0
 40
10.0
 40
10.0
 40
11.0
 40
11.0
 40
11.0
 40
12.0
 40
12.0
 40
12.0
 40
13.0
 40
13.0
 40
13.0
 40
14.0
 40
14.0
 40
14.0
 40
15.0
 40
15.0
 40
15.0
 40
15.0
 10
340.2336501511
 20
25.610677829
 30
0.0
 10
340.2336501511
 20
25.610677829
 30
0.0
 10
340.0119854707
 20
25.610677829
 30
0.0
 10
340.0119854707
 20
25.610677829
 30
0.0
 10
340.0119854707
 20
25.610677829
 30
0.0
 10
340.0119854707
 20
25.4133517734
 30
0.0
 10
340.0119854707
 20
25.4133517734
 30
0.0
 10
340.0119854707
 20
25.4133517734
 30
0.0
 10
340.0072747691
 20
25.4133517734
 30
0.0
 10
340.0072747691
 20
25.4133517734
 30
0.0
 10
339.9159394994
 20
25.556243055
 30
0.0
 10
339.778020625
 20
25.6446995627
 30
0.0
 10
339.6052949
 20
25.6446995627
 30
0.0
 10
339.2729287322
 20
25.6446995627
 30
0.0
 10
339.0638259227
 20
25.3568233544
 30
0.0
 10
339.0638259227
 20
25.0412063478
 30
0.0
 10
339.0638259227
 20
24.7114572364
 30
0.0
 10
339.2608902726
 20
24.4183469152
 30
0.0
 10
339.6157631258
 20
24.4183469152
 30
0.0
 10
339.778020625
 20
24.4183469152
 30
0.0
 10
339.9180331445
 20
24.5068034229
 30
0.0
 10
340.0072747691
 20
24.6376562448
 30
0.0
 10
340.0072747691
 20
24.6376562448
 30
0.0
 10
340.0119854707
 20
24.6376562448
 30
0.0
 10
340.0119854707
 20
24.6376562448
 30
0.0
 10
340.0119854707
 20
24.6376562448
 30
0.0
 10
340.0119854707
 20
24.4183469152
 30
0.0
 10
340.0119854707
 20
24.4183469152
 30
0.0
 10
340.0119854707
 20
24.1817650131
 30
0.0
 10
339.9554570516
 20
23.9949071833
 30
0.0
 10
339.6822363593
 20
23.9949071833
 30
0.0
 10
339.4799378966
 20
23.9949071833
 30
0.0
 10
339.3373083206
 20
24.1131981344
 30
0.0
 10
339.3373083206
 20
24.3194221818
 30
0.0
 10
339.3373083206
 20
24.3194221818
 30
0.0
 10
339.1156436402
 20
24.3194221818
 30
0.0
 10
339.1156436402
 20
24.3194221818
 30
0.0
 10
339.1206160475
 20
23.9949071833
 30
0.0
 10
339.351702131
 20
23.7981045391
 30
0.0
 10
339.6720298392
 20
23.7981045391
 30
0.0
 10
340.1200699016
 20
23.7981045391
 30
0.0
 10
340.2336501511
 20
24.083363691
 30
0.0
 10
340.2336501511
 20
24.4801094472
 30
0.0
 10
340.2336501511
 20
24.4801094472
 30
0.0
 10
340.2336501511
 20
25.610677829
 30
0.0
 10
340.2336501511
 20
25.610677829
 30
0.0
  0
SPLINE
  5
251
330
227
100
AcDbEntity
  8
0
  6
CONTINUOUS
 62
     7
100
AcDbSpline
 70
     3
 71
     3
 72
    44
 73
    40
 74
     0
 42
0.000000001
 43
0.0000001
 40
0.0
 40
0.0
 40
0.0
 40
0.0
 40
1.0
 40
1.0
 40
1.0
 40
2.0
 40
2.0
 40
2.0
 40
3.0
 40
3.0
 40
3.0
 40
4.0
 40
4.0
 40
4.0
 40
5.0
 40
5.0
 40
5.0
 40
6.0
 40
6.0
 40
6.0
 40
7.0
 40
7.0
 40
7.0
 40
8.0
 40
8.0
 40
8.0
 40
9.0
 40
9.0
 40
9.0
 40
10.0
 40
10.0
 40
10.0
 40
11.0
 40
11.0
 40
11.0
 40
12.0
 40
12.0
 40
12.0
 40
13.0
 40
13.0
 40
13.0
 40
13.0
 10
341.8025754865
 20
26.5957378727
 30
0.0
 10
341.8025754865
 20
26.5957378727
 30
0.0
 10
341.8025754865
 20
24.4576027618
 30
0.0
 10
341.8025754865
 20
24.4576027618
 30
0.0
 10
341.8025754865
 20
24.4576027618
 30
0.0
 10
342.0239784613
 20
24.4576027618
 30
0.0
 10
342.0239784613
 20
24.4576027618
 30
0.0
 10
342.0239784613
 20
24.4576027618
 30
0.0
 10
342.0239784613
 20
24.9872949851
 30
0.0
 10
342.0239784613
 20
24.9872949851
 30
0.0
 10
342.0239784613
 20
25.1971829116
 30
0.0
 10
342.0239784613
 20
25.4478969184
 30
0.0
 10
342.3092376132
 20
25.4478969184
 30
0.0
 10
342.5361364065
 20
25.4478969184
 30
0.0
 10
342.5630920878
 20
25.3149504513
 30
0.0
 10
342.5630920878
 20
25.1186712184
 30
0.0
 10
342.5630920878
 20
25.1186712184
 30
0.0
 10
342.5630920878
 20
24.4576027618
 30
0.0
 10
342.5630920878
 20
24.4576027618
 30
0.0
 10
342.5630920878
 20
24.4576027618
 30
0.0
 10
342.7850184738
 20
24.4576027618
 30
0.0
 10
342.7850184738
 20
24.4576027618
 30
0.0
 10
342.7850184738
 20
24.4576027618
 30
0.0
 10
342.7850184738
 20
25.1448417828
 30
0.0
 10
342.7850184738
 20
25.1448417828
 30
0.0
 10
342.7850184738
 20
25.4253902331
 30
0.0
 10
342.7010109621
 20
25.645222974
 30
0.0
 10
342.3759725524
 20
25.645222974
 30
0.0
 10
342.2362217385
 20
25.645222974
 30
0.0
 10
342.0980411585
 20
25.5787497404
 30
0.0
 10
342.0286891629
 20
25.4557480878
 30
0.0
 10
342.0286891629
 20
25.4557480878
 30
0.0
 10
342.0239784613
 20
25.4557480878
 30
0.0
 10
342.0239784613
 20
25.4557480878
 30
0.0
 10
342.0239784613
 20
25.4557480878
 30
0.0
 10
342.0239784613
 20
26.5957378727
 30
0.0
 10
342.0239784613
 20
26.5957378727
 30
0.0
 10
342.0239784613
 20
26.5957378727
 30
0.0
 10
341.8025754865
 20
26.5957378727
 30
0.0
 10
341.8025754865
 20
26.5957378727
 30
0.0
  0
LWPOLYLINE
  5
252
330
227
100
AcDbEntity
  8
0
  6
CONTINUOUS
 62
     7
100
AcDbPolyline
 90
        2
 70
     0
 43
0.2
 10
344.624809
 20
25.403407
 10
344.84124
 20
25.403407
  0
LWPOLYLINE
  5
253
330
227
100
AcDbEntity
  8
0
  6
CONTINUOUS
 62
     7
100
AcDbPolyline
 90
        2
 70
     0
 43
0.2
 10
344.84124
 20
25.403407
 10
344.84124
 20
25.610154
  0
LWPOLYLINE
  5
254
330
227
100
AcDbEntity
  8
0
  6
CONTINUOUS
 62
     7
100
AcDbPolyline
 90
        2
 70
     0
 43
0.2
 10
344.84124
 20
25.610154
 10
344.624809
 20
25.610154
  0
LWPOLYLINE
  5
255
330
227
100
AcDbEntity
  8
0
  6
CONTINUOUS
 62
     7
100
AcDbPolyline
 90
        2
 70
     0
 43
0.2
 10
344.624809
 20
25.610154
 10
344.624809
 20
26.050867
  0
LWPOLYLINE
  5
256
330
227
100
AcDbEntity
  8
0
  6
CONTINUOUS
 62
     7
100
AcDbPolyline
 90
        2
 70
     0
 43
0.2
 10
344.624809
 20
26.050867
 10
344.403144
 20
26.050867
  0
LWPOLYLINE
  5
257
330
227
100
AcDbEntity
  8
0
  6
CONTINUOUS
 62
     7
100
AcDbPolyline
 90
        2
 70
     0
 43
0.2
 10
344.403144
 20
26.050867
 10
344.403144
 20
25.610154
  0
LWPOLYLINE
  5
258
330
227
100
AcDbEntity
  8
0
  6
CONTINUOUS
 62
     7
100
AcDbPolyline
 90
        2
 70
     0
 43
0.2
 10
344.403144
 20
25.610154
 10
344.282498
 20
25.610154
  0
LWPOLYLINE
  5
259
330
227
100
AcDbEntity
  8
0
  6
CONTINUOUS
 62
     7
100
AcDbPolyline
 90
        2
 70
     0
 43
0.2
 10
344.282498
 20
25.610154
 10
344.282498
 20
25.403407
  0
LWPOLYLINE
  5
25A
330
227
100
AcDbEntity
  8
0
  6
CONTINUOUS
 62
     7
100
AcDbPolyline
 90
        2
 70
     0
 43
0.2
 10
344.282498
 20
25.403407
 10
344.403144
 20
25.403407
  0
LWPOLYLINE
  5
25B
330
227
100
AcDbEntity
  8
0
  6
CONTINUOUS
 62
     7
100
AcDbPolyline
 90
        2
 70
     0
 43
0.2
 10
344.403144
 20
25.403407
 10
344.403144
 20
24.457603
  0
LWPOLYLINE
  5
25C
330
227
100
AcDbEntity
  8
0
  6
CONTINUOUS
 62
     7
100
AcDbPolyline
 90
        2
 70
     0
 43
0.2
 10
344.403144
 20
24.457603
 10
344.624809
 20
24.457603
  0
LWPOLYLINE
  5
25D
330
227
100
AcDbEntity
  8
0
  6
CONTINUOUS
 62
     7
100
AcDbPolyline
 90
        2
 70
     0
 43
0.2
 10
344.624809
 20
24.457603
 10
344.624809
 20
25.403407
  0
SPLINE
  5
25E
330
227
100
AcDbEntity
  8
0
  6
CONTINUOUS
 62
     7
100
AcDbSpline
 70
     3
 71
     3
 72
    20
 73
    16
 74
     0
 42
0.000000001
 43
0.0000001
 40
0.0
 40
0.0
 40
0.0
 40
0.0
 40
1.0
 40
1.0
 40
1.0
 40
2.0
 40
2.0
 40
2.0
 40
3.0
 40
3.0
 40
3.0
 40
4.0
 40
4.0
 40
4.0
 40
5.0
 40
5.0
 40
5.0
 40
5.0
 10
332.4068194579
 20
34.8185292052
 30
0.0
 10
332.4068194579
 20
34.8185292052
 30
0.0
 10
334.7231761124
 20
31.988967783
 30
0.0
 10
334.7231761124
 20
31.988967783
 30
0.0
 10
334.071529059
 20
31.3367973183
 30
0.0
 10
333.294655855
 20
30.6008810475
 30
0.0
 10
332.3234662104
 20
30.6008810475
 30
0.0
 10
331.3249283259
 20
30.6008810475
 30
0.0
 10
330.3816103324
 20
31.5304594948
 30
0.0
 10
330.3816103324
 20
32.5296516433
 30
0.0
 10
330.3816103324
 20
33.5288437919
 30
0.0
 10
331.5604634055
 20
34.2354490305
 30
0.0
 10
332.2819858658
 20
34.7353068104
 30
0.0
 10
332.2819858658
 20
34.7353068104
 30
0.0
 10
332.4068194579
 20
34.8185292052
 30
0.0
 10
332.4068194579
 20
34.8185292052
 30
0.0
  0
SPLINE
  5
25F
330
227
100
AcDbEntity
  8
0
  6
CONTINUOUS
 62
     7
100
AcDbSpline
 70
     3
 71
     3
 72
    23
 73
    19
 74
     0
 42
0.000000001
 43
0.0000001
 40
0.0
 40
0.0
 40
0.0
 40
0.0
 40
1.0
 40
1.0
 40
1.0
 40
2.0
 40
2.0
 40
2.0
 40
3.0
 40
3.0
 40
3.0
 40
4.0
 40
4.0
 40
4.0
 40
5.0
 40
5.0
 40
5.0
 40
6.0
 40
6.0
 40
6.0
 40
6.0
 10
332.6842274405
 20
36.4562831249
 30
0.0
 10
332.6842274405
 20
36.4562831249
 30
0.0
 10
332.3377291679
 20
36.8996124858
 30
0.0
 10
332.3377291679
 20
36.8996124858
 30
0.0
 10
332.031926123
 20
37.2877219557
 30
0.0
 10
331.7130377959
 20
37.6762239841
 30
0.0
 10
331.7130377959
 20
38.2031682982
 30
0.0
 10
331.7130377959
 20
38.8693400148
 30
0.0
 10
332.2543759204
 20
39.3130619341
 30
0.0
 10
332.8782821755
 20
39.3130619341
 30
0.0
 10
333.5720638376
 20
39.3130619341
 30
0.0
 10
334.0992698573
 20
38.9108203594
 30
0.0
 10
334.0992698573
 20
38.1758200584
 30
0.0
 10
334.0992698573
 20
37.4125555479
 30
0.0
 10
333.3780091026
 20
36.9824423221
 30
0.0
 10
332.8509339357
 20
36.5667229067
 30
0.0
 10
332.8509339357
 20
36.5667229067
 30
0.0
 10
332.6842274405
 20
36.4562831249
 30
0.0
 10
332.6842274405
 20
36.4562831249
 30
0.0
  0
SPLINE
  5
260
330
227
100
AcDbEntity
  8
0
  6
CONTINUOUS
 62
     7
100
AcDbSpline
 70
     3
 71
     3
 72
    50
 73
    46
 74
     0
 42
0.000000001
 43
0.0000001
 40
0.0
 40
0.0
 40
0.0
 40
0.0
 40
1.0
 40
1.0
 40
1.0
 40
2.0
 40
2.0
 40
2.0
 40
3.0
 40
3.0
 40
3.0
 40
4.0
 40
4.0
 40
4.0
 40
5.0
 40
5.0
 40
5.0
 40
6.0
 40
6.0
 40
6.0
 40
7.0
 40
7.0
 40
7.0
 40
8.0
 40
8.0
 40
8.0
 40
9.0
 40
9.0
 40
9.0
 40
10.0
 40
10.0
 40
10.0
 40
11.0
 40
11.0
 40
11.0
 40
12.0
 40
12.0
 40
12.0
 40
13.0
 40
13.0
 40
13.0
 40
14.0
 40
14.0
 40
14.0
 40
15.0
 40
15.0
 40
15.0
 40
15.0
 10
336.6378146034
 20
29.6576939068
 30
0.0
 10
336.6378146034
 20
29.6576939068
 30
0.0
 10
338.247042608
 20
29.6576939068
 30
0.0
 10
338.247042608
 20
29.6576939068
 30
0.0
 10
338.247042608
 20
29.6576939068
 30
0.0
 10
336.3740153144
 20
31.9748356782
 30
0.0
 10
336.3740153144
 20
31.9748356782
 30
0.0
 10
336.3740153144
 20
31.9748356782
 30
0.0
 10
337.6503537398
 20
33.4723153728
 30
0.0
 10
337.6503537398
 20
33.4723153728
 30
0.0
 10
337.6503537398
 20
33.4723153728
 30
0.0
 10
336.8181297921
 20
34.3333269413
 30
0.0
 10
336.8181297921
 20
34.3333269413
 30
0.0
 10
336.8181297921
 20
34.3333269413
 30
0.0
 10
335.5975346688
 20
32.9180228189
 30
0.0
 10
335.5975346688
 20
32.9180228189
 30
0.0
 10
335.5975346688
 20
32.9180228189
 30
0.0
 10
333.4196203
 20
35.5533986534
 30
0.0
 10
333.4196203
 20
35.5533986534
 30
0.0
 10
334.2931937394
 20
36.1914370133
 30
0.0
 10
335.3198649806
 20
36.9824423221
 30
0.0
 10
335.3198649806
 20
38.1612953952
 30
0.0
 10
335.3198649806
 20
39.5349883202
 30
0.0
 10
334.1819688408
 20
40.3394714696
 30
0.0
 10
332.9066772379
 20
40.3394714696
 30
0.0
 10
331.5332460185
 20
40.3394714696
 30
0.0
 10
330.4923118197
 20
39.49324627
 30
0.0
 10
330.4923118197
 20
38.0505939078
 30
0.0
 10
330.4923118197
 20
37.1630192164
 30
0.0
 10
331.0476511962
 20
36.3861460124
 30
0.0
 10
331.6438166531
 20
35.7617163459
 30
0.0
 10
331.6438166531
 20
35.7617163459
 30
0.0
 10
330.991907894
 20
35.2901227756
 30
0.0
 10
330.991907894
 20
35.2901227756
 30
0.0
 10
329.9933700096
 20
34.5688620209
 30
0.0
 10
329.1604917978
 20
33.8476012662
 30
0.0
 10
329.1604917978
 20
32.5160429498
 30
0.0
 10
329.1604917978
 20
30.7123676518
 30
0.0
 10
330.6175379704
 20
29.4357675207
 30
0.0
 10
332.3650774077
 20
29.4357675207
 30
0.0
 10
333.5999354886
 20
29.4357675207
 30
0.0
 10
334.7093057133
 20
30.1439429932
 30
0.0
 10
335.5001801693
 20
31.0724746179
 30
0.0
 10
335.5001801693
 20
31.0724746179
 30
0.0
 10
336.6378146034
 20
29.6576939068
 30
0.0
 10
336.6378146034
 20
29.6576939068
 30
0.0
  0
LINE
  5
261
330
227
100
AcDbEntity
  8
0
  6
CONTINUOUS
 62
     7
100
AcDbLine
 10
322.440676
 20
27.631569
 30
0.0
 11
344.854587
 21
27.631569
 31
0.0
  0
LINE
  5
262
330
227
100
AcDbEntity
  8
0
  6
CONTINUOUS
 62
     7
100
AcDbLine
 10
344.854587
 20
27.631569
 30
0.0
 11
344.854587
 21
50.04548
 31
0.0
  0
LINE
  5
263
330
227
100
AcDbEntity
  8
0
  6
CONTINUOUS
 62
     7
100
AcDbLine
 10
344.854587
 20
50.04548
 30
0.0
 11
322.440676
 21
50.04548
 31
0.0
  0
LINE
  5
264
330
227
100
AcDbEntity
  8
0
  6
CONTINUOUS
 62
     7
100
AcDbLine
 10
322.440676
 20
50.04548
 30
0.0
 11
322.440676
 21
27.631569
 31
0.0
  0
ENDBLK
  5
265
330
227
100
AcDbEntity
  8
0
  6
BYBLOCK
 62
     0
100
AcDbBlockEnd
  0
ENDSEC
  0
SECTION
  2
ENTITIES
  0
DIMENSION
  5
287
330
1F
100
AcDbEntity
  8
0
  6
CONTINUOUS
 62
     2
100
AcDbDimension
  2
*D1
 10
161.270153
 20
162.727684
 30
0.0
 11
161.270153
 21
221.356574
 31
0.0
 70
   160
  3
DIMSTYLE_1
100
AcDbAlignedDimension
 13
150.048737
 23
279.727684
 33
0.0
 14
149.52767
 24
162.727684
 34
0.0
 50
270.0
100
AcDbRotatedDimension
  0
DIMENSION
  5
288
330
1F
100
AcDbEntity
  8
0
  6
CONTINUOUS
 62
     2
100
AcDbDimension
  2
*D2
 10
126.254032
 20
7.016829
 30
0.0
 11
84.254032
 21
7.016829
 31
0.0
 70
   160
  1
Ø<>
  3
DIMSTYLE_1
100
AcDbAlignedDimension
 13
42.254032
 23
13.430835
 33
0.0
 14
126.254032
 24
13.915213
 34
0.0
100
AcDbRotatedDimension
  0
DIMENSION
  5
289
330
1F
100
AcDbEntity
  8
0
  6
CONTINUOUS
 62
     2
100
AcDbDimension
  2
*D3
 10
332.920078
 20
290.35382
 30
0.0
 11
289.055028
 21
290.35382
 31
0.0
 70
   160
  3
DIMSTYLE_1
100
AcDbAlignedDimension
 13
245.220078
 23
285.427724
 33
0.0
 14
332.920078
 24
285.627724
 34
0.0
100
AcDbRotatedDimension
  0
LINE
  5
28A
330
1F
100
AcDbEntity
  8
0
  6
CONTINUOUS
 62
     2
100
AcDbLine
 10
319.821519
 20
50.421792
 30
0.0
 11
409.821519
 21
50.421792
 31
0.0
  0
LINE
  5
28B
330
1F
100
AcDbEntity
  8
0
  6
CONTINUOUS
 62
     2
100
AcDbLine
 10
319.821519
 20
50.421792
 30
0.0
 11
319.821519
 21
10.421792
 31
0.0
  0
LINE
  5
28C
330
1F
100
AcDbEntity
  8
0
  6
CONTINUOUS
 62
     2
100
AcDbLine
 10
349.821519
 20
44.421792
 30
0.0
 11
409.821519
 21
44.421792
 31
0.0
  0
LINE
  5
28D
330
1F
100
AcDbEntity
  8
0
  6
CONTINUOUS
 62
     2
100
AcDbLine
 10
349.821519
 20
38.421792
 30
0.0
 11
409.821519
 21
38.421792
 31
0.0
  0
LINE
  5
28E
330
1F
100
AcDbEntity
  8
0
  6
CONTINUOUS
 62
     2
100
AcDbLine
 10
349.821519
 20
28.421792
 30
0.0
 11
409.821519
 21
28.421792
 31
0.0
  0
LINE
  5
28F
330
1F
100
AcDbEntity
  8
0
  6
CONTINUOUS
 62
     2
100
AcDbLine
 10
319.821519
 20
23.421792
 30
0.0
 11
409.821519
 21
23.421792
 31
0.0
  0
LINE
  5
290
330
1F
100
AcDbEntity
  8
0
  6
CONTINUOUS
 62
     2
100
AcDbLine
 10
319.821519
 20
10.421792
 30
0.0
 11
409.821519
 21
10.421792
 31
0.0
  0
LINE
  5
291
330
1F
100
AcDbEntity
  8
0
  6
CONTINUOUS
 62
     2
100
AcDbLine
 10
349.821519
 20
50.421792
 30
0.0
 11
349.821519
 21
23.421792
 31
0.0
  0
LINE
  5
292
330
1F
100
AcDbEntity
  8
0
  6
CONTINUOUS
 62
     2
100
AcDbLine
 10
389.821519
 20
50.421792
 30
0.0
 11
389.821519
 21
38.421792
 31
0.0
  0
LINE
  5
293
330
1F
100
AcDbEntity
  8
0
  6
CONTINUOUS
 62
     2
100
AcDbLine
 10
409.821519
 20
50.421792
 30
0.0
 11
409.821519
 21
10.421792
 31
0.0
  0
INSERT
  5
294
330
1F
100
AcDbEntity
  8
0
  6
CONTINUOUS
 62
     2
100
AcDbBlockReference
  2
LOGO2_BL0
 10
333.647566
 20
36.921792
 30
0.0
  0
MTEXT
  5
295
330
1F
100
AcDbEntity
  8
9_SOLID
  6
CONTINUOUS
 62
     2
100
AcDbMText
 10
351.309019
 20
48.921792
 30
0.0
 40
3.0
 41
31.285714
 71
     1
 72
     1
  1
260_C_001
  7
TEXTSTYLE_2
  0
MTEXT
  5
296
330
1F
100
AcDbEntity
  8
0
  6
CONTINUOUS
 62
     2
100
AcDbMText
 10
391.309019
 20
49.171792
 30
0.0
 40
3.5
 41
22.75
 71
     1
 72
     1
  1
Rev:00
  7
TEXTSTYLE_2
  0
MTEXT
  5
297
330
1F
100
AcDbEntity
  8
9_SOLID
  6
CONTINUOUS
 62
     2
100
AcDbMText
 10
351.309019
 20
42.671792
 30
0.0
 40
3.5
 41
28.375
 71
     1
 72
     1
  1
Scale:1:1
  7
TEXTSTYLE_2
  0
MTEXT
  5
298
330
1F
100
AcDbEntity
  8
9_SOLID
  6
CONTINUOUS
 62
     2
100
AcDbMText
 10
391.309019
 20
43.171792
 30
0.0
 40
3.5
 41
9.25
 71
     1
 72
     1
  1
A3
  7
TEXTSTYLE_2
  0
MTEXT
  5
299
330
1F
100
AcDbEntity
  8
0
  6
CONTINUOUS
 62
     2
100
AcDbMText
 10
351.309019
 20
35.171792
 30
0.0
 40
3.5
 41
34.125
 71
     1
 72
     1
  1
Ginko 3.3
  7
TEXTSTYLE_2
  0
MTEXT
  5
29A
330
1F
100
AcDbEntity
  8
0
  6
CONTINUOUS
 62
     2
100
AcDbMText
 10
351.309019
 20
27.171792
 30
0.0
 40
2.5
 41
42.232143
 71
     1
 72
     1
  1
DATE:12/01/2023
  7
TEXTSTYLE_2
  0
MTEXT
  5
29B
330
1F
100
AcDbEntity
  8
9_SOLID
  6
CONTINUOUS
 62
     2
100
AcDbMText
 10
321.309019
 20
23.109292
 30
0.0
 40
2.25
 41
134.598214
 71
     1
 72
     1
  1
Any integral or partial reproductions are prohibited \Pwithout prior authorisation of L {\Ftxt.shx;\W0.190476;\H2.250000; }& L Luce & Light s.r.l., \Pin accordance with the law in force. \PAll rights reserved.
  7
TEXTSTYLE_2
  0
LINE
  5
29C
330
1F
100
AcDbEntity
  8
0
  6
CONTINUOUS
 62
     7
100
AcDbLine
 10
0.0
 20
0.0
 30
0.0
 11
0.0
 21
297.0
 31
0.0
  0
LINE
  5
29D
330
1F
100
AcDbEntity
  8
0
  6
CONTINUOUS
 62
     7
100
AcDbLine
 10
0.0
 20
0.0
 30
0.0
 11
420.0
 21
0.0
 31
0.0
  0
LINE
  5
29E
330
1F
100
AcDbEntity
  8
0
  6
CONTINUOUS
 62
     7
100
AcDbLine
 10
0.0
 20
297.0
 30
0.0
 11
420.0
 21
297.0
 31
0.0
  0
LINE
  5
29F
330
1F
100
AcDbEntity
  8
0
  6
CONTINUOUS
 62
     7
100
AcDbLine
 10
420.0
 20
0.0
 30
0.0
 11
420.0
 21
297.0
 31
0.0
  0
LINE
  5
2A0
330
1F
100
AcDbEntity
  8
7_ALL_FEATURES
  6
CONTINUOUS
 62
     7
100
AcDbLine
 10
49.254032
 20
162.727684
 30
0.0
 11
119.254032
 21
162.727684
 31
0.0
  0
LINE
  5
2A1
330
1F
100
AcDbEntity
  8
7_ALL_FEATURES
  6
CONTINUOUS
 62
     3
100
AcDbLine
 10
49.254032
 20
164.727684
 30
0.0
 11
119.254032
 21
164.727684
 31
0.0
  0
LINE
  5
2A2
330
1F
100
AcDbEntity
  8
7_ALL_FEATURES
  6
CONTINUOUS
 62
     7
100
AcDbLine
 10
38.890023
 20
241.077374
 30
0.0
 11
40.318079
 21
244.749518
 31
0.0
  0
LINE
  5
2A3
330
1F
100
AcDbEntity
  8
7_ALL_FEATURES
  6
CONTINUOUS
 62
     9
100
AcDbLine
 10
126.234201
 20
169.201144
 30
0.0
 11
124.226231
 21
169.201144
 31
0.0
  0
LINE
  5
2A4
330
1F
100
AcDbEntity
  8
7_ALL_FEATURES
  6
CONTINUOUS
 62
     9
100
AcDbLine
 10
42.273863
 20
169.201144
 30
0.0
 11
44.281834
 21
169.201144
 31
0.0
  0
LINE
  5
2A5
330
1F
100
AcDbEntity
  8
7_ALL_FEATURES
  6
CONTINUOUS
 62
     7
100
AcDbLine
 10
38.754032
 20
240.352481
 30
0.0
 11
38.754032
 21
235.102886
 31
0.0
  0
LINE
  5
2A6
330
1F
100
AcDbEntity
  8
7_ALL_FEATURES
  6
CONTINUOUS
 62
     9
100
AcDbLine
 10
38.890023
 20
234.377993
 30
0.0
 11
38.890023
 21
241.077374
 31
0.0
  0
LINE
  5
2A7
330
1F
100
AcDbEntity
  8
7_ALL_FEATURES
  6
CONTINUOUS
 62
     9
100
AcDbLine
 10
40.318079
 20
244.749518
 30
0.0
 11
40.318079
 21
230.705849
 31
0.0
  0
LINE
  5
2A8
330
1F
100
AcDbEntity
  8
7_ALL_FEATURES
  6
CONTINUOUS
 62
     9
100
AcDbLine
 10
126.254032
 20
176.041547
 30
0.0
 11
124.254032
 21
176.041547
 31
0.0
  0
LINE
  5
2A9
330
1F
100
AcDbEntity
  8
7_ALL_FEATURES
  6
CONTINUOUS
 62
     9
100
AcDbLine
 10
42.254032
 20
176.041547
 30
0.0
 11
44.254032
 21
176.041547
 31
0.0
  0
LINE
  5
2AA
330
1F
100
AcDbEntity
  8
7_ALL_FEATURES
  6
CONTINUOUS
 62
     9
100
AcDbLine
 10
41.017083
 20
245.227684
 30
0.0
 11
41.017083
 21
230.227684
 31
0.0
  0
LINE
  5
2AB
330
1F
100
AcDbEntity
  8
7_ALL_FEATURES
  6
CONTINUOUS
 62
     9
100
AcDbLine
 10
41.654032
 20
245.227684
 30
0.0
 11
41.654032
 21
230.227684
 31
0.0
  0
LINE
  5
2AC
330
1F
100
AcDbEntity
  8
7_ALL_FEATURES
  6
CONTINUOUS
 62
     7
100
AcDbLine
 10
41.754032
 20
245.127684
 30
0.0
 11
41.754032
 21
230.327684
 31
0.0
  0
LINE
  5
2AD
330
1F
100
AcDbEntity
  8
7_ALL_FEATURES
  6
CONTINUOUS
 62
     7
100
AcDbLine
 10
42.254032
 20
169.727684
 30
0.0
 11
42.254032
 21
237.477684
 31
0.0
  0
LINE
  5
2AE
330
1F
100
AcDbEntity
  8
7_ALL_FEATURES
  6
CONTINUOUS
 62
     7
100
AcDbLine
 10
42.254032
 20
237.977684
 30
0.0
 11
42.254032
 21
251.702889
 31
0.0
  0
LINE
  5
2AF
330
1F
100
AcDbEntity
  8
7_ALL_FEATURES
  6
CONTINUOUS
 62
     3
100
AcDbLine
 10
44.254032
 20
169.727684
 30
0.0
 11
44.254032
 21
224.922319
 31
0.0
  0
LINE
  5
2B0
330
1F
100
AcDbEntity
  8
7_ALL_FEATURES
  6
CONTINUOUS
 62
     3
100
AcDbLine
 10
44.254032
 20
250.533048
 30
0.0
 11
44.254032
 21
251.702889
 31
0.0
  0
LINE
  5
2B1
330
1F
100
AcDbEntity
  8
7_ALL_FEATURES
  6
CONTINUOUS
 62
     9
100
AcDbLine
 10
49.254032
 20
162.727684
 30
0.0
 11
49.254032
 21
164.727684
 31
0.0
  0
LINE
  5
2B2
330
1F
100
AcDbEntity
  8
7_ALL_FEATURES
  6
CONTINUOUS
 62
     7
100
AcDbLine
 10
38.890023
 20
234.377993
 30
0.0
 11
40.318079
 21
230.705849
 31
0.0
  0
LINE
  5
2B3
330
1F
100
AcDbEntity
  8
7_ALL_FEATURES
  6
CONTINUOUS
 62
     7
100
AcDbLine
 10
76.754032
 20
195.727684
 30
0.0
 11
91.754032
 21
195.727684
 31
0.0
  0
LINE
  5
2B4
330
1F
100
AcDbEntity
  8
7_ALL_FEATURES
  6
CONTINUOUS
 62
     9
100
AcDbLine
 10
76.254032
 20
196.227684
 30
0.0
 11
77.794756
 21
196.227684
 31
0.0
  0
LINE
  5
2B5
330
1F
100
AcDbEntity
  8
7_ALL_FEATURES
  6
CONTINUOUS
 62
     9
100
AcDbLine
 10
90.713309
 20
196.227684
 30
0.0
 11
92.254032
 21
196.227684
 31
0.0
  0
LINE
  5
2B6
330
1F
100
AcDbEntity
  8
7_ALL_FEATURES
  6
CONTINUOUS
 62
     7
100
AcDbLine
 10
76.254032
 20
196.227684
 30
0.0
 11
76.254032
 21
196.497396
 31
0.0
  0
LINE
  5
2B7
330
1F
100
AcDbEntity
  8
7_ALL_FEATURES
  6
CONTINUOUS
 62
     7
100
AcDbLine
 10
126.254032
 20
223.818917
 30
0.0
 11
124.254032
 21
223.818917
 31
0.0
  0
LINE
  5
2B8
330
1F
100
AcDbEntity
  8
7_ALL_FEATURES
  6
CONTINUOUS
 62
     7
100
AcDbLine
 10
42.254032
 20
223.818917
 30
0.0
 11
44.254032
 21
223.818917
 31
0.0
  0
LINE
  5
2B9
330
1F
100
AcDbEntity
  8
7_ALL_FEATURES
  6
CONTINUOUS
 62
     7
100
AcDbLine
 10
43.75292
 20
226.60801
 30
0.0
 11
42.254032
 21
226.60801
 31
0.0
  0
LINE
  5
2BA
330
1F
100
AcDbEntity
  8
7_ALL_FEATURES
  6
CONTINUOUS
 62
     7
100
AcDbLine
 10
124.755145
 20
226.60801
 30
0.0
 11
126.254032
 21
226.60801
 31
0.0
  0
LINE
  5
2BB
330
1F
100
AcDbEntity
  8
7_ALL_FEATURES
  6
CONTINUOUS
 62
     7
100
AcDbLine
 10
92.254032
 20
196.227684
 30
0.0
 11
92.254032
 21
196.497396
 31
0.0
  0
LINE
  5
2BC
330
1F
100
AcDbEntity
  8
7_ALL_FEATURES
  6
CONTINUOUS
 62
     7
100
AcDbLine
 10
43.539521
 20
227.41995
 30
0.0
 11
42.254032
 21
227.41995
 31
0.0
  0
LINE
  5
2BD
330
1F
100
AcDbEntity
  8
7_ALL_FEATURES
  6
CONTINUOUS
 62
     7
100
AcDbLine
 10
124.968544
 20
227.41995
 30
0.0
 11
126.254032
 21
227.41995
 31
0.0
  0
LINE
  5
2BE
330
1F
100
AcDbEntity
  8
7_ALL_FEATURES
  6
CONTINUOUS
 62
     7
100
AcDbLine
 10
43.336635
 20
228.254003
 30
0.0
 11
42.254032
 21
228.254003
 31
0.0
  0
LINE
  5
2BF
330
1F
100
AcDbEntity
  8
7_ALL_FEATURES
  6
CONTINUOUS
 62
     7
100
AcDbLine
 10
125.17143
 20
228.254003
 30
0.0
 11
126.254032
 21
228.254003
 31
0.0
  0
LINE
  5
2C0
330
1F
100
AcDbEntity
  8
7_ALL_FEATURES
  6
CONTINUOUS
 62
     7
100
AcDbLine
 10
43.12499
 20
229.221635
 30
0.0
 11
42.254032
 21
229.221635
 31
0.0
  0
LINE
  5
2C1
330
1F
100
AcDbEntity
  8
7_ALL_FEATURES
  6
CONTINUOUS
 62
     7
100
AcDbLine
 10
125.383075
 20
229.221635
 30
0.0
 11
126.254032
 21
229.221635
 31
0.0
  0
LINE
  5
2C2
330
1F
100
AcDbEntity
  8
7_ALL_FEATURES
  6
CONTINUOUS
 62
     7
100
AcDbLine
 10
42.9373
 20
230.187849
 30
0.0
 11
42.254032
 21
230.187849
 31
0.0
  0
LINE
  5
2C3
330
1F
100
AcDbEntity
  8
7_ALL_FEATURES
  6
CONTINUOUS
 62
     7
100
AcDbLine
 10
125.570765
 20
230.187849
 30
0.0
 11
126.254032
 21
230.187849
 31
0.0
  0
LINE
  5
2C4
330
1F
100
AcDbEntity
  8
02___PRT_ALL_AXES
  6
CONTINUOUS
 62
     7
100
AcDbLine
 10
41.654032
 20
230.227684
 30
0.0
 11
41.017083
 21
230.227684
 31
0.0
  0
LINE
  5
2C5
330
1F
100
AcDbEntity
  8
02___PRT_ALL_AXES
  6
CONTINUOUS
 62
     7
100
AcDbLine
 10
126.854032
 20
230.227684
 30
0.0
 11
127.490982
 21
230.227684
 31
0.0
  0
LINE
  5
2C6
330
1F
100
AcDbEntity
  8
7_ALL_FEATURES
  6
CONTINUOUS
 62
     7
100
AcDbLine
 10
42.772387
 20
231.154478
 30
0.0
 11
42.254032
 21
231.154478
 31
0.0
  0
LINE
  5
2C7
330
1F
100
AcDbEntity
  8
7_ALL_FEATURES
  6
CONTINUOUS
 62
     7
100
AcDbLine
 10
125.735678
 20
231.154478
 30
0.0
 11
126.254032
 21
231.154478
 31
0.0
  0
LINE
  5
2C8
330
1F
100
AcDbEntity
  8
7_ALL_FEATURES
  6
CONTINUOUS
 62
     7
100
AcDbLine
 10
42.752576
 20
231.281771
 30
0.0
 11
42.254032
 21
231.281771
 31
0.0
  0
LINE
  5
2C9
330
1F
100
AcDbEntity
  8
7_ALL_FEATURES
  6
CONTINUOUS
 62
     7
100
AcDbLine
 10
125.755489
 20
231.281771
 30
0.0
 11
126.254032
 21
231.281771
 31
0.0
  0
LINE
  5
2CA
330
1F
100
AcDbEntity
  8
3_ALL_AXES
  6
CONTINUOUS
 62
     7
100
AcDbLine
 10
42.254032
 20
231.727684
 30
0.0
 11
41.754032
 21
231.727684
 31
0.0
  0
LINE
  5
2CB
330
1F
100
AcDbEntity
  8
3_ALL_AXES
  6
CONTINUOUS
 62
     7
100
AcDbLine
 10
126.254032
 20
231.727684
 30
0.0
 11
126.754032
 21
231.727684
 31
0.0
  0
LINE
  5
2CC
330
1F
100
AcDbEntity
  8
7_ALL_FEATURES
  6
CONTINUOUS
 62
     9
100
AcDbLine
 10
126.254032
 20
231.811028
 30
0.0
 11
125.834243
 21
231.811028
 31
0.0
  0
LINE
  5
2CD
330
1F
100
AcDbEntity
  8
7_ALL_FEATURES
  6
CONTINUOUS
 62
     9
100
AcDbLine
 10
42.254032
 20
231.811028
 30
0.0
 11
42.673821
 21
231.811028
 31
0.0
  0
LINE
  5
2CE
330
1F
100
AcDbEntity
  8
7_ALL_FEATURES
  6
CONTINUOUS
 62
     7
100
AcDbLine
 10
42.600572
 20
232.350789
 30
0.0
 11
42.254032
 21
232.350789
 31
0.0
  0
LINE
  5
2CF
330
1F
100
AcDbEntity
  8
7_ALL_FEATURES
  6
CONTINUOUS
 62
     7
100
AcDbLine
 10
125.907492
 20
232.350789
 30
0.0
 11
126.254032
 21
232.350789
 31
0.0
  0
LINE
  5
2D0
330
1F
100
AcDbEntity
  8
7_ALL_FEATURES
  6
CONTINUOUS
 62
     7
100
AcDbLine
 10
42.503325
 20
233.161887
 30
0.0
 11
42.254032
 21
233.161887
 31
0.0
  0
LINE
  5
2D1
330
1F
100
AcDbEntity
  8
7_ALL_FEATURES
  6
CONTINUOUS
 62
     7
100
AcDbLine
 10
126.00474
 20
233.161887
 30
0.0
 11
126.254032
 21
233.161887
 31
0.0
  0
LINE
  5
2D2
330
1F
100
AcDbEntity
  8
7_ALL_FEATURES
  6
CONTINUOUS
 62
     7
100
AcDbLine
 10
42.464487
 20
233.537764
 30
0.0
 11
42.254032
 21
233.537764
 31
0.0
  0
LINE
  5
2D3
330
1F
100
AcDbEntity
  8
7_ALL_FEATURES
  6
CONTINUOUS
 62
     7
100
AcDbLine
 10
126.043578
 20
233.537764
 30
0.0
 11
126.254032
 21
233.537764
 31
0.0
  0
LINE
  5
2D4
330
1F
100
AcDbEntity
  8
7_ALL_FEATURES
  6
CONTINUOUS
 62
     7
100
AcDbLine
 10
42.365886
 20
234.677103
 30
0.0
 11
42.254032
 21
234.677103
 31
0.0
  0
LINE
  5
2D5
330
1F
100
AcDbEntity
  8
7_ALL_FEATURES
  6
CONTINUOUS
 62
     7
100
AcDbLine
 10
126.142178
 20
234.677103
 30
0.0
 11
126.254032
 21
234.677103
 31
0.0
  0
LINE
  5
2D6
330
1F
100
AcDbEntity
  8
7_ALL_FEATURES
  6
CONTINUOUS
 62
     7
100
AcDbLine
 10
42.324576
 20
235.308025
 30
0.0
 11
42.254032
 21
235.308025
 31
0.0
  0
LINE
  5
2D7
330
1F
100
AcDbEntity
  8
7_ALL_FEATURES
  6
CONTINUOUS
 62
     7
100
AcDbLine
 10
126.183489
 20
235.308025
 30
0.0
 11
126.254032
 21
235.308025
 31
0.0
  0
LINE
  5
2D8
330
1F
100
AcDbEntity
  8
7_ALL_FEATURES
  6
CONTINUOUS
 62
     7
100
AcDbLine
 10
42.303827
 20
235.701948
 30
0.0
 11
42.254032
 21
235.701948
 31
0.0
  0
LINE
  5
2D9
330
1F
100
AcDbEntity
  8
7_ALL_FEATURES
  6
CONTINUOUS
 62
     7
100
AcDbLine
 10
126.204237
 20
235.701948
 30
0.0
 11
126.254032
 21
235.701948
 31
0.0
  0
LINE
  5
2DA
330
1F
100
AcDbEntity
  8
7_ALL_FEATURES
  6
CONTINUOUS
 62
     7
100
AcDbLine
 10
42.293523
 20
235.921066
 30
0.0
 11
42.254032
 21
235.921066
 31
0.0
  0
LINE
  5
2DB
330
1F
100
AcDbEntity
  8
7_ALL_FEATURES
  6
CONTINUOUS
 62
     7
100
AcDbLine
 10
126.214541
 20
235.921066
 30
0.0
 11
126.254032
 21
235.921066
 31
0.0
  0
LINE
  5
2DC
330
1F
100
AcDbEntity
  8
7_ALL_FEATURES
  6
CONTINUOUS
 62
     7
100
AcDbLine
 10
42.263235
 20
236.894839
 30
0.0
 11
42.254032
 21
236.894839
 31
0.0
  0
LINE
  5
2DD
330
1F
100
AcDbEntity
  8
7_ALL_FEATURES
  6
CONTINUOUS
 62
     7
100
AcDbLine
 10
126.244829
 20
236.894839
 30
0.0
 11
126.254032
 21
236.894839
 31
0.0
  0
LINE
  5
2DE
330
1F
100
AcDbEntity
  8
7_ALL_FEATURES
  6
CONTINUOUS
 62
     7
100
AcDbLine
 10
42.263235
 20
238.560528
 30
0.0
 11
42.254032
 21
238.560528
 31
0.0
  0
LINE
  5
2DF
330
1F
100
AcDbEntity
  8
7_ALL_FEATURES
  6
CONTINUOUS
 62
     7
100
AcDbLine
 10
126.244829
 20
238.560528
 30
0.0
 11
126.254032
 21
238.560528
 31
0.0
  0
LINE
  5
2E0
330
1F
100
AcDbEntity
  8
7_ALL_FEATURES
  6
CONTINUOUS
 62
     7
100
AcDbLine
 10
42.293523
 20
239.534302
 30
0.0
 11
42.254032
 21
239.534302
 31
0.0
  0
LINE
  5
2E1
330
1F
100
AcDbEntity
  8
7_ALL_FEATURES
  6
CONTINUOUS
 62
     7
100
AcDbLine
 10
126.214541
 20
239.534302
 30
0.0
 11
126.254032
 21
239.534302
 31
0.0
  0
LINE
  5
2E2
330
1F
100
AcDbEntity
  8
7_ALL_FEATURES
  6
CONTINUOUS
 62
     7
100
AcDbLine
 10
42.303827
 20
239.753419
 30
0.0
 11
42.254032
 21
239.753419
 31
0.0
  0
LINE
  5
2E3
330
1F
100
AcDbEntity
  8
7_ALL_FEATURES
  6
CONTINUOUS
 62
     7
100
AcDbLine
 10
126.204237
 20
239.753419
 30
0.0
 11
126.254032
 21
239.753419
 31
0.0
  0
LINE
  5
2E4
330
1F
100
AcDbEntity
  8
7_ALL_FEATURES
  6
CONTINUOUS
 62
     7
100
AcDbLine
 10
42.324576
 20
240.147342
 30
0.0
 11
42.254032
 21
240.147342
 31
0.0
  0
LINE
  5
2E5
330
1F
100
AcDbEntity
  8
7_ALL_FEATURES
  6
CONTINUOUS
 62
     7
100
AcDbLine
 10
126.183489
 20
240.147342
 30
0.0
 11
126.254032
 21
240.147342
 31
0.0
  0
LINE
  5
2E6
330
1F
100
AcDbEntity
  8
7_ALL_FEATURES
  6
CONTINUOUS
 62
     7
100
AcDbLine
 10
42.365886
 20
240.778264
 30
0.0
 11
42.254032
 21
240.778264
 31
0.0
  0
LINE
  5
2E7
330
1F
100
AcDbEntity
  8
7_ALL_FEATURES
  6
CONTINUOUS
 62
     7
100
AcDbLine
 10
126.142178
 20
240.778264
 30
0.0
 11
126.254032
 21
240.778264
 31
0.0
  0
LINE
  5
2E8
330
1F
100
AcDbEntity
  8
7_ALL_FEATURES
  6
CONTINUOUS
 62
     7
100
AcDbLine
 10
42.464487
 20
241.917603
 30
0.0
 11
42.254032
 21
241.917603
 31
0.0
  0
LINE
  5
2E9
330
1F
100
AcDbEntity
  8
7_ALL_FEATURES
  6
CONTINUOUS
 62
     7
100
AcDbLine
 10
126.043578
 20
241.917603
 30
0.0
 11
126.254032
 21
241.917603
 31
0.0
  0
LINE
  5
2EA
330
1F
100
AcDbEntity
  8
7_ALL_FEATURES
  6
CONTINUOUS
 62
     7
100
AcDbLine
 10
42.503325
 20
242.29348
 30
0.0
 11
42.254032
 21
242.29348
 31
0.0
  0
LINE
  5
2EB
330
1F
100
AcDbEntity
  8
7_ALL_FEATURES
  6
CONTINUOUS
 62
     7
100
AcDbLine
 10
126.00474
 20
242.29348
 30
0.0
 11
126.254032
 21
242.29348
 31
0.0
  0
LINE
  5
2EC
330
1F
100
AcDbEntity
  8
7_ALL_FEATURES
  6
CONTINUOUS
 62
     7
100
AcDbLine
 10
42.600572
 20
243.104578
 30
0.0
 11
42.254032
 21
243.104578
 31
0.0
  0
LINE
  5
2ED
330
1F
100
AcDbEntity
  8
7_ALL_FEATURES
  6
CONTINUOUS
 62
     7
100
AcDbLine
 10
125.907492
 20
243.104578
 30
0.0
 11
126.254032
 21
243.104578
 31
0.0
  0
LINE
  5
2EE
330
1F
100
AcDbEntity
  8
3_ALL_AXES
  6
CONTINUOUS
 62
     7
100
AcDbLine
 10
42.254032
 20
243.727684
 30
0.0
 11
41.754032
 21
243.727684
 31
0.0
  0
LINE
  5
2EF
330
1F
100
AcDbEntity
  8
3_ALL_AXES
  6
CONTINUOUS
 62
     7
100
AcDbLine
 10
126.254032
 20
243.727684
 30
0.0
 11
126.754032
 21
243.727684
 31
0.0
  0
LINE
  5
2F0
330
1F
100
AcDbEntity
  8
7_ALL_FEATURES
  6
CONTINUOUS
 62
     7
100
AcDbLine
 10
42.752576
 20
244.173596
 30
0.0
 11
42.254032
 21
244.173596
 31
0.0
  0
LINE
  5
2F1
330
1F
100
AcDbEntity
  8
7_ALL_FEATURES
  6
CONTINUOUS
 62
     7
100
AcDbLine
 10
125.755489
 20
244.173596
 30
0.0
 11
126.254032
 21
244.173596
 31
0.0
  0
LINE
  5
2F2
330
1F
100
AcDbEntity
  8
7_ALL_FEATURES
  6
CONTINUOUS
 62
     7
100
AcDbLine
 10
42.772387
 20
244.300889
 30
0.0
 11
42.254032
 21
244.300889
 31
0.0
  0
LINE
  5
2F3
330
1F
100
AcDbEntity
  8
7_ALL_FEATURES
  6
CONTINUOUS
 62
     7
100
AcDbLine
 10
125.735678
 20
244.300889
 30
0.0
 11
126.254032
 21
244.300889
 31
0.0
  0
LINE
  5
2F4
330
1F
100
AcDbEntity
  8
02___PRT_ALL_AXES
  6
CONTINUOUS
 62
     7
100
AcDbLine
 10
41.654032
 20
245.227684
 30
0.0
 11
41.017083
 21
245.227684
 31
0.0
  0
LINE
  5
2F5
330
1F
100
AcDbEntity
  8
02___PRT_ALL_AXES
  6
CONTINUOUS
 62
     7
100
AcDbLine
 10
126.854032
 20
245.227684
 30
0.0
 11
127.490982
 21
245.227684
 31
0.0
  0
LINE
  5
2F6
330
1F
100
AcDbEntity
  8
7_ALL_FEATURES
  6
CONTINUOUS
 62
     7
100
AcDbLine
 10
42.9373
 20
245.267518
 30
0.0
 11
42.254032
 21
245.267518
 31
0.0
  0
LINE
  5
2F7
330
1F
100
AcDbEntity
  8
7_ALL_FEATURES
  6
CONTINUOUS
 62
     7
100
AcDbLine
 10
125.570765
 20
245.267518
 30
0.0
 11
126.254032
 21
245.267518
 31
0.0
  0
LINE
  5
2F8
330
1F
100
AcDbEntity
  8
7_ALL_FEATURES
  6
CONTINUOUS
 62
     7
100
AcDbLine
 10
43.12499
 20
246.233733
 30
0.0
 11
42.254032
 21
246.233733
 31
0.0
  0
LINE
  5
2F9
330
1F
100
AcDbEntity
  8
7_ALL_FEATURES
  6
CONTINUOUS
 62
     7
100
AcDbLine
 10
125.383075
 20
246.233733
 30
0.0
 11
126.254032
 21
246.233733
 31
0.0
  0
LINE
  5
2FA
330
1F
100
AcDbEntity
  8
7_ALL_FEATURES
  6
CONTINUOUS
 62
     7
100
AcDbLine
 10
43.336635
 20
247.201364
 30
0.0
 11
42.254032
 21
247.201364
 31
0.0
  0
LINE
  5
2FB
330
1F
100
AcDbEntity
  8
7_ALL_FEATURES
  6
CONTINUOUS
 62
     7
100
AcDbLine
 10
125.17143
 20
247.201364
 30
0.0
 11
126.254032
 21
247.201364
 31
0.0
  0
LINE
  5
2FC
330
1F
100
AcDbEntity
  8
7_ALL_FEATURES
  6
CONTINUOUS
 62
     7
100
AcDbLine
 10
43.539521
 20
248.035418
 30
0.0
 11
42.254032
 21
248.035418
 31
0.0
  0
LINE
  5
2FD
330
1F
100
AcDbEntity
  8
7_ALL_FEATURES
  6
CONTINUOUS
 62
     7
100
AcDbLine
 10
124.968544
 20
248.035418
 30
0.0
 11
126.254032
 21
248.035418
 31
0.0
  0
LINE
  5
2FE
330
1F
100
AcDbEntity
  8
7_ALL_FEATURES
  6
CONTINUOUS
 62
     7
100
AcDbLine
 10
43.75292
 20
248.847357
 30
0.0
 11
42.254032
 21
248.847357
 31
0.0
  0
LINE
  5
2FF
330
1F
100
AcDbEntity
  8
7_ALL_FEATURES
  6
CONTINUOUS
 62
     7
100
AcDbLine
 10
124.755145
 20
248.847357
 30
0.0
 11
126.254032
 21
248.847357
 31
0.0
  0
LINE
  5
300
330
1F
100
AcDbEntity
  8
7_ALL_FEATURES
  6
CONTINUOUS
 62
     7
100
AcDbLine
 10
43.945259
 20
249.523907
 30
0.0
 11
42.254032
 21
249.523907
 31
0.0
  0
LINE
  5
301
330
1F
100
AcDbEntity
  8
7_ALL_FEATURES
  6
CONTINUOUS
 62
     7
100
AcDbLine
 10
124.562805
 20
249.523907
 30
0.0
 11
126.254032
 21
249.523907
 31
0.0
  0
LINE
  5
302
330
1F
100
AcDbEntity
  8
7_ALL_FEATURES
  6
CONTINUOUS
 62
     7
100
AcDbLine
 10
44.135767
 20
250.155484
 30
0.0
 11
42.254032
 21
250.155484
 31
0.0
  0
LINE
  5
303
330
1F
100
AcDbEntity
  8
7_ALL_FEATURES
  6
CONTINUOUS
 62
     7
100
AcDbLine
 10
124.372298
 20
250.155484
 30
0.0
 11
126.254032
 21
250.155484
 31
0.0
  0
LINE
  5
304
330
1F
100
AcDbEntity
  8
7_ALL_FEATURES
  6
CONTINUOUS
 62
     7
100
AcDbLine
 10
44.254032
 20
250.653975
 30
0.0
 11
42.254032
 21
250.653975
 31
0.0
  0
LINE
  5
305
330
1F
100
AcDbEntity
  8
7_ALL_FEATURES
  6
CONTINUOUS
 62
     7
100
AcDbLine
 10
124.254032
 20
250.653975
 30
0.0
 11
126.254032
 21
250.653975
 31
0.0
  0
LINE
  5
306
330
1F
100
AcDbEntity
  8
7_ALL_FEATURES
  6
CONTINUOUS
 62
     7
100
AcDbLine
 10
44.254032
 20
251.085998
 30
0.0
 11
42.254032
 21
251.085998
 31
0.0
  0
LINE
  5
307
330
1F
100
AcDbEntity
  8
7_ALL_FEATURES
  6
CONTINUOUS
 62
     7
100
AcDbLine
 10
124.254032
 20
251.085998
 30
0.0
 11
126.254032
 21
251.085998
 31
0.0
  0
LINE
  5
308
330
1F
100
AcDbEntity
  8
7_ALL_FEATURES
  6
CONTINUOUS
 62
     7
100
AcDbLine
 10
44.254032
 20
251.391283
 30
0.0
 11
42.254032
 21
251.391283
 31
0.0
  0
LINE
  5
309
330
1F
100
AcDbEntity
  8
7_ALL_FEATURES
  6
CONTINUOUS
 62
     7
100
AcDbLine
 10
124.254032
 20
251.391283
 30
0.0
 11
126.254032
 21
251.391283
 31
0.0
  0
LINE
  5
30A
330
1F
100
AcDbEntity
  8
7_ALL_FEATURES
  6
CONTINUOUS
 62
     9
100
AcDbLine
 10
119.254032
 20
162.727684
 30
0.0
 11
119.254032
 21
164.727684
 31
0.0
  0
LINE
  5
30B
330
1F
100
AcDbEntity
  8
7_ALL_FEATURES
  6
CONTINUOUS
 62
     7
100
AcDbLine
 10
44.254032
 20
251.610627
 30
0.0
 11
42.254032
 21
251.610627
 31
0.0
  0
LINE
  5
30C
330
1F
100
AcDbEntity
  8
7_ALL_FEATURES
  6
CONTINUOUS
 62
     7
100
AcDbLine
 10
124.254032
 20
251.610627
 30
0.0
 11
126.254032
 21
251.610627
 31
0.0
  0
LINE
  5
30D
330
1F
100
AcDbEntity
  8
7_ALL_FEATURES
  6
CONTINUOUS
 62
     7
100
AcDbLine
 10
44.254032
 20
251.702889
 30
0.0
 11
42.254032
 21
251.702889
 31
0.0
  0
LINE
  5
30E
330
1F
100
AcDbEntity
  8
7_ALL_FEATURES
  6
CONTINUOUS
 62
     7
100
AcDbLine
 10
124.254032
 20
251.702889
 30
0.0
 11
126.254032
 21
251.702889
 31
0.0
  0
LINE
  5
30F
330
1F
100
AcDbEntity
  8
7_ALL_FEATURES
  6
CONTINUOUS
 62
     3
100
AcDbLine
 10
124.254032
 20
251.702889
 30
0.0
 11
124.254032
 21
250.533048
 31
0.0
  0
LINE
  5
310
330
1F
100
AcDbEntity
  8
7_ALL_FEATURES
  6
CONTINUOUS
 62
     3
100
AcDbLine
 10
124.254032
 20
169.727684
 30
0.0
 11
124.254032
 21
224.922319
 31
0.0
  0
LINE
  5
311
330
1F
100
AcDbEntity
  8
7_ALL_FEATURES
  6
CONTINUOUS
 62
     7
100
AcDbLine
 10
129.618042
 20
234.377993
 30
0.0
 11
128.189985
 21
230.705849
 31
0.0
  0
LINE
  5
312
330
1F
100
AcDbEntity
  8
7_ALL_FEATURES
  6
CONTINUOUS
 62
     7
100
AcDbLine
 10
126.254032
 20
251.702889
 30
0.0
 11
126.254032
 21
237.977684
 31
0.0
  0
LINE
  5
313
330
1F
100
AcDbEntity
  8
7_ALL_FEATURES
  6
CONTINUOUS
 62
     7
100
AcDbLine
 10
126.254032
 20
237.477684
 30
0.0
 11
126.254032
 21
169.727684
 31
0.0
  0
LINE
  5
314
330
1F
100
AcDbEntity
  8
7_ALL_FEATURES
  6
CONTINUOUS
 62
     7
100
AcDbLine
 10
126.754032
 20
230.327684
 30
0.0
 11
126.754032
 21
245.127684
 31
0.0
  0
LINE
  5
315
330
1F
100
AcDbEntity
  8
7_ALL_FEATURES
  6
CONTINUOUS
 62
     9
100
AcDbLine
 10
126.854032
 20
230.227684
 30
0.0
 11
126.854032
 21
245.227684
 31
0.0
  0
LINE
  5
316
330
1F
100
AcDbEntity
  8
7_ALL_FEATURES
  6
CONTINUOUS
 62
     9
100
AcDbLine
 10
127.490982
 20
230.227684
 30
0.0
 11
127.490982
 21
245.227684
 31
0.0
  0
LINE
  5
317
330
1F
100
AcDbEntity
  8
7_ALL_FEATURES
  6
CONTINUOUS
 62
     9
100
AcDbLine
 10
128.189985
 20
230.705849
 30
0.0
 11
128.189985
 21
244.749518
 31
0.0
  0
LINE
  5
318
330
1F
100
AcDbEntity
  8
7_ALL_FEATURES
  6
CONTINUOUS
 62
     9
100
AcDbLine
 10
129.618042
 20
241.077374
 30
0.0
 11
129.618042
 21
234.377993
 31
0.0
  0
LINE
  5
319
330
1F
100
AcDbEntity
  8
7_ALL_FEATURES
  6
CONTINUOUS
 62
     7
100
AcDbLine
 10
129.754032
 20
235.102886
 30
0.0
 11
129.754032
 21
240.352481
 31
0.0
  0
LINE
  5
31A
330
1F
100
AcDbEntity
  8
7_ALL_FEATURES
  6
CONTINUOUS
 62
     7
100
AcDbLine
 10
129.618042
 20
241.077374
 30
0.0
 11
128.189985
 21
244.749518
 31
0.0
  0
LINE
  5
31B
330
1F
100
AcDbEntity
  8
7_ALL_FEATURES
  6
CONTINUOUS
 62
     7
100
AcDbLine
 10
245.220078
 20
279.227684
 30
0.0
 11
245.720078
 21
279.727684
 31
0.0
  0
LINE
  5
31C
330
1F
100
AcDbEntity
  8
7_ALL_FEATURES
  6
CONTINUOUS
 62
     7
100
AcDbLine
 10
213.220078
 20
168.02441
 30
0.0
 11
213.220078
 21
162.727684
 31
0.0
  0
LINE
  5
31D
330
1F
100
AcDbEntity
  8
7_ALL_FEATURES
  6
CONTINUOUS
 62
     7
100
AcDbLine
 10
213.220078
 20
162.727684
 30
0.0
 11
244.220078
 21
162.727684
 31
0.0
  0
LINE
  5
31E
330
1F
100
AcDbEntity
  8
7_ALL_FEATURES
  6
CONTINUOUS
 62
     9
100
AcDbLine
 10
213.292738
 20
169.727684
 30
0.0
 11
244.22701
 21
169.727684
 31
0.0
  0
LINE
  5
31F
330
1F
100
AcDbEntity
  8
7_ALL_FEATURES
  6
CONTINUOUS
 62
     7
100
AcDbLine
 10
282.020078
 20
279.427684
 30
0.0
 11
282.320078
 21
279.727684
 31
0.0
  0
LINE
  5
320
330
1F
100
AcDbEntity
  8
7_ALL_FEATURES
  6
CONTINUOUS
 62
     7
100
AcDbLine
 10
252.839188
 20
247.404495
 30
0.0
 11
253.145605
 21
247.66161
 31
0.0
  0
LINE
  5
321
330
1F
100
AcDbEntity
  8
7_ALL_FEATURES
  6
CONTINUOUS
 62
     7
100
AcDbLine
 10
254.646873
 20
248.712809
 30
0.0
 11
254.993283
 21
248.912809
 31
0.0
  0
LINE
  5
322
330
1F
100
AcDbEntity
  8
7_ALL_FEATURES
  6
CONTINUOUS
 62
     7
100
AcDbLine
 10
244.220078
 20
169.201144
 30
0.0
 11
244.220078
 21
162.727684
 31
0.0
  0
LINE
  5
323
330
1F
100
AcDbEntity
  8
7_ALL_FEATURES
  6
CONTINUOUS
 62
     7
100
AcDbLine
 10
245.220078
 20
237.002781
 30
0.0
 11
245.220078
 21
279.227684
 31
0.0
  0
LINE
  5
324
330
1F
100
AcDbEntity
  8
7_ALL_FEATURES
  6
CONTINUOUS
 62
     7
100
AcDbLine
 10
245.720078
 20
253.316141
 30
0.0
 11
245.720078
 21
279.727684
 31
0.0
  0
LINE
  5
325
330
1F
100
AcDbEntity
  8
7_ALL_FEATURES
  6
CONTINUOUS
 62
     7
100
AcDbLine
 10
248.687388
 20
243.967209
 30
0.0
 11
215.316235
 21
176.938017
 31
0.0
  0
LINE
  5
326
330
1F
100
AcDbEntity
  8
7_ALL_FEATURES
  6
CONTINUOUS
 62
     7
100
AcDbLine
 10
251.286151
 20
245.802156
 30
0.0
 11
251.543267
 21
246.108574
 31
0.0
  0
LINE
  5
327
330
1F
100
AcDbEntity
  8
03___PRT_ALL_CURVES
  6
CONTINUOUS
 62
    40
100
AcDbLine
 10
260.427109
 20
248.754279
 30
0.0
 11
260.345078
 21
248.679811
 31
0.0
  0
LINE
  5
328
330
1F
100
AcDbEntity
  8
03___PRT_ALL_CURVES
  6
CONTINUOUS
 62
    40
100
AcDbLine
 10
260.782578
 20
248.084067
 30
0.0
 11
260.864609
 21
248.158535
 31
0.0
  0
LINE
  5
329
330
1F
100
AcDbEntity
  8
03___PRT_ALL_CURVES
  6
CONTINUOUS
 62
    40
100
AcDbLine
 10
261.684922
 20
248.754279
 30
0.0
 11
261.60289
 21
248.679811
 31
0.0
  0
LINE
  5
32A
330
1F
100
AcDbEntity
  8
03___PRT_ALL_CURVES
  6
CONTINUOUS
 62
    40
100
AcDbLine
 10
260.809922
 20
247.897896
 30
0.0
 11
260.973984
 21
248.046832
 31
0.0
  0
LINE
  5
32B
330
1F
100
AcDbEntity
  8
03___PRT_ALL_CURVES
  6
CONTINUOUS
 62
    40
100
AcDbLine
 10
260.864609
 20
247.525556
 30
0.0
 11
260.782578
 21
247.451088
 31
0.0
  0
LINE
  5
32C
330
1F
100
AcDbEntity
  8
03___PRT_ALL_CURVES
  6
CONTINUOUS
 62
    40
100
AcDbLine
 10
260.399765
 20
248.940449
 30
0.0
 11
260.263047
 21
248.828747
 31
0.0
  0
LINE
  5
32D
330
1F
100
AcDbEntity
  8
03___PRT_ALL_CURVES
  6
CONTINUOUS
 62
    40
100
AcDbLine
 10
261.657578
 20
248.940449
 30
0.0
 11
261.520859
 21
248.828747
 31
0.0
  0
LINE
  5
32E
330
1F
100
AcDbEntity
  8
03___PRT_ALL_CURVES
  6
CONTINUOUS
 62
    40
100
AcDbLine
 10
260.809922
 20
247.264918
 30
0.0
 11
260.94664
 21
247.37662
 31
0.0
  0
LINE
  5
32F
330
1F
100
AcDbEntity
  8
03___PRT_ALL_CURVES
  6
CONTINUOUS
 62
    40
100
AcDbLine
 10
261.985703
 20
247.264918
 30
0.0
 11
262.122422
 21
247.37662
 31
0.0
  0
LINE
  5
330
330
1F
100
AcDbEntity
  8
03___PRT_ALL_CURVES
  6
CONTINUOUS
 62
    40
100
AcDbLine
 10
260.50914
 20
248.791513
 30
0.0
 11
260.427109
 21
248.754279
 31
0.0
  0
LINE
  5
331
330
1F
100
AcDbEntity
  8
03___PRT_ALL_CURVES
  6
CONTINUOUS
 62
    40
100
AcDbLine
 10
260.700547
 20
248.046832
 30
0.0
 11
260.782578
 21
248.084067
 31
0.0
  0
LINE
  5
332
330
1F
100
AcDbEntity
  8
03___PRT_ALL_CURVES
  6
CONTINUOUS
 62
    40
100
AcDbLine
 10
260.782578
 20
247.451088
 30
0.0
 11
260.700547
 21
247.413854
 31
0.0
  0
LINE
  5
333
330
1F
100
AcDbEntity
  8
7_ALL_FEATURES
  6
CONTINUOUS
 62
     7
100
AcDbLine
 10
256.654282
 20
249.687345
 30
0.0
 11
257.030159
 21
249.824153
 31
0.0
  0
LINE
  5
334
330
1F
100
AcDbEntity
  8
03___PRT_ALL_CURVES
  6
CONTINUOUS
 62
    40
100
AcDbLine
 10
260.345078
 20
248.679811
 30
0.0
 11
260.29039
 21
248.568109
 31
0.0
  0
LINE
  5
335
330
1F
100
AcDbEntity
  8
03___PRT_ALL_CURVES
  6
CONTINUOUS
 62
    40
100
AcDbLine
 10
260.864609
 20
248.158535
 30
0.0
 11
260.919297
 21
248.270237
 31
0.0
  0
LINE
  5
336
330
1F
100
AcDbEntity
  8
03___PRT_ALL_CURVES
  6
CONTINUOUS
 62
    40
100
AcDbLine
 10
260.919297
 20
247.637258
 30
0.0
 11
260.864609
 21
247.525556
 31
0.0
  0
LINE
  5
337
330
1F
100
AcDbEntity
  8
03___PRT_ALL_CURVES
  6
CONTINUOUS
 62
    40
100
AcDbLine
 10
261.60289
 20
248.679811
 30
0.0
 11
261.493515
 21
248.456407
 31
0.0
  0
LINE
  5
338
330
1F
100
AcDbEntity
  8
03___PRT_ALL_CURVES
  6
CONTINUOUS
 62
    40
100
AcDbLine
 10
260.263047
 20
248.828747
 30
0.0
 11
260.181015
 21
248.679811
 31
0.0
  0
LINE
  5
339
330
1F
100
AcDbEntity
  8
03___PRT_ALL_CURVES
  6
CONTINUOUS
 62
    40
100
AcDbLine
 10
260.94664
 20
247.37662
 30
0.0
 11
261.028672
 21
247.525556
 31
0.0
  0
LINE
  5
33A
330
1F
100
AcDbEntity
  8
7_ALL_FEATURES
  6
CONTINUOUS
 62
     7
100
AcDbLine
 10
263.639736
 20
250.298493
 30
0.0
 11
264.270659
 21
251.391283
 31
0.0
  0
LINE
  5
33B
330
1F
100
AcDbEntity
  8
03___PRT_ALL_CURVES
  6
CONTINUOUS
 62
    40
100
AcDbLine
 10
261.520859
 20
248.828747
 30
0.0
 11
261.438828
 21
248.717045
 31
0.0
  0
LINE
  5
33C
330
1F
100
AcDbEntity
  8
03___PRT_ALL_CURVES
  6
CONTINUOUS
 62
    40
100
AcDbLine
 10
262.122422
 20
247.37662
 30
0.0
 11
262.204453
 21
247.488322
 31
0.0
  0
LINE
  5
33D
330
1F
100
AcDbEntity
  8
7_ALL_FEATURES
  6
CONTINUOUS
 62
     7
100
AcDbLine
 10
265.785874
 20
249.687345
 30
0.0
 11
266.596973
 21
250.653975
 31
0.0
  0
LINE
  5
33E
330
1F
100
AcDbEntity
  8
03___PRT_ALL_CURVES
  6
CONTINUOUS
 62
    40
100
AcDbLine
 10
261.958359
 20
247.451088
 30
0.0
 11
262.04039
 21
247.525556
 31
0.0
  0
LINE
  5
33F
330
1F
100
AcDbEntity
  8
7_ALL_FEATURES
  6
CONTINUOUS
 62
     7
100
AcDbLine
 10
267.793283
 20
248.712809
 30
0.0
 11
268.759913
 21
249.523907
 31
0.0
  0
LINE
  5
340
330
1F
100
AcDbEntity
  8
7_ALL_FEATURES
  6
CONTINUOUS
 62
     7
100
AcDbLine
 10
269.600968
 20
247.404495
 30
0.0
 11
270.693758
 21
248.035418
 31
0.0
  0
LINE
  5
341
330
1F
100
AcDbEntity
  8
7_ALL_FEATURES
  6
CONTINUOUS
 62
     7
100
AcDbLine
 10
261.220078
 20
239.459734
 30
0.0
 11
259.720078
 21
238.593709
 31
0.0
  0
LINE
  5
342
330
1F
100
AcDbEntity
  8
7_ALL_FEATURES
  6
CONTINUOUS
 62
     7
100
AcDbLine
 10
271.154004
 20
245.802156
 30
0.0
 11
272.339751
 21
246.233733
 31
0.0
  0
LINE
  5
343
330
1F
100
AcDbEntity
  8
02___PRT_ALL_AXES
  6
CONTINUOUS
 62
     7
100
AcDbLine
 10
252.591393
 20
195.727684
 30
0.0
 11
257.370078
 21
195.727684
 31
0.0
  0
LINE
  5
344
330
1F
100
AcDbEntity
  8
7_ALL_FEATURES
  6
CONTINUOUS
 62
     7
100
AcDbLine
 10
257.720078
 20
195.727684
 30
0.0
 11
272.720078
 21
195.727684
 31
0.0
  0
LINE
  5
345
330
1F
100
AcDbEntity
  8
02___PRT_ALL_AXES
  6
CONTINUOUS
 62
     7
100
AcDbLine
 10
273.070078
 20
195.727684
 30
0.0
 11
281.720071
 21
195.727684
 31
0.0
  0
LINE
  5
346
330
1F
100
AcDbEntity
  8
02___PRT_ALL_AXES
  6
CONTINUOUS
 62
     7
100
AcDbLine
 10
282.320078
 20
195.727684
 30
0.0
 11
332.620078
 21
195.727684
 31
0.0
  0
LINE
  5
347
330
1F
100
AcDbEntity
  8
7_ALL_FEATURES
  6
CONTINUOUS
 62
     9
100
AcDbLine
 10
260.652872
 20
196.227684
 30
0.0
 11
269.787284
 21
196.227684
 31
0.0
  0
LINE
  5
348
330
1F
100
AcDbEntity
  8
7_ALL_FEATURES
  6
CONTINUOUS
 62
     7
100
AcDbLine
 10
257.030159
 20
249.824153
 30
0.0
 11
257.030159
 21
251.085998
 31
0.0
  0
LINE
  5
349
330
1F
100
AcDbEntity
  8
7_ALL_FEATURES
  6
CONTINUOUS
 62
     7
100
AcDbLine
 10
259.194343
 20
250.367952
 30
0.0
 11
259.41346
 21
251.610627
 31
0.0
  0
LINE
  5
34A
330
1F
100
AcDbEntity
  8
03___PRT_ALL_CURVES
  6
CONTINUOUS
 62
    40
100
AcDbLine
 10
260.29039
 20
248.568109
 30
0.0
 11
260.263047
 21
248.456407
 31
0.0
  0
LINE
  5
34B
330
1F
100
AcDbEntity
  8
03___PRT_ALL_CURVES
  6
CONTINUOUS
 62
    40
100
AcDbLine
 10
260.919297
 20
248.270237
 30
0.0
 11
260.94664
 21
248.381939
 31
0.0
  0
LINE
  5
34C
330
1F
100
AcDbEntity
  8
03___PRT_ALL_CURVES
  6
CONTINUOUS
 62
    40
100
AcDbLine
 10
260.94664
 20
247.74896
 30
0.0
 11
260.919297
 21
247.637258
 31
0.0
  0
LINE
  5
34D
330
1F
100
AcDbEntity
  8
03___PRT_ALL_CURVES
  6
CONTINUOUS
 62
    40
100
AcDbLine
 10
261.38414
 20
248.568109
 30
0.0
 11
261.356797
 21
248.456407
 31
0.0
  0
LINE
  5
34E
330
1F
100
AcDbEntity
  8
03___PRT_ALL_CURVES
  6
CONTINUOUS
 62
    40
100
AcDbLine
 10
262.25914
 20
247.637258
 30
0.0
 11
262.286484
 21
247.74896
 31
0.0
  0
LINE
  5
34F
330
1F
100
AcDbEntity
  8
7_ALL_FEATURES
  6
CONTINUOUS
 62
     7
100
AcDbLine
 10
261.470078
 20
249.527684
 30
0.0
 11
262.052922
 21
251.702889
 31
0.0
  0
LINE
  5
350
330
1F
100
AcDbEntity
  8
03___PRT_ALL_CURVES
  6
CONTINUOUS
 62
    40
100
AcDbLine
 10
260.181015
 20
248.679811
 30
0.0
 11
260.126328
 21
248.493641
 31
0.0
  0
LINE
  5
351
330
1F
100
AcDbEntity
  8
03___PRT_ALL_CURVES
  6
CONTINUOUS
 62
    40
100
AcDbLine
 10
261.028672
 20
247.525556
 30
0.0
 11
261.083359
 21
247.711726
 31
0.0
  0
LINE
  5
352
330
1F
100
AcDbEntity
  8
03___PRT_ALL_CURVES
  6
CONTINUOUS
 62
    40
100
AcDbLine
 10
261.438828
 20
248.717045
 30
0.0
 11
261.38414
 21
248.568109
 31
0.0
  0
LINE
  5
353
330
1F
100
AcDbEntity
  8
03___PRT_ALL_CURVES
  6
CONTINUOUS
 62
    40
100
AcDbLine
 10
262.204453
 20
247.488322
 30
0.0
 11
262.25914
 21
247.637258
 31
0.0
  0
LINE
  5
354
330
1F
100
AcDbEntity
  8
03___PRT_ALL_CURVES
  6
CONTINUOUS
 62
    40
100
AcDbLine
 10
262.04039
 20
247.525556
 30
0.0
 11
262.149765
 21
247.74896
 31
0.0
  0
LINE
  5
355
330
1F
100
AcDbEntity
  8
03___PRT_ALL_CURVES
  6
CONTINUOUS
 62
    40
100
AcDbLine
 10
267.794682
 20
244.585131
 30
0.0
 11
270.410977
 21
247.201426
 31
0.0
  0
LINE
  5
356
330
1F
100
AcDbEntity
  8
03___PRT_ALL_CURVES
  6
CONTINUOUS
 62
    40
100
AcDbLine
 10
270.69382
 20
246.918583
 30
0.0
 11
268.077525
 21
244.302288
 31
0.0
  0
LINE
  5
357
330
1F
100
AcDbEntity
  8
7_ALL_FEATURES
  6
CONTINUOUS
 62
     7
100
AcDbLine
 10
274.146369
 20
243.104578
 30
0.0
 11
273.179739
 21
242.29348
 31
0.0
  0
LINE
  5
358
330
1F
100
AcDbEntity
  8
7_ALL_FEATURES
  6
CONTINUOUS
 62
     7
100
AcDbLine
 10
261.220078
 20
235.995633
 30
0.0
 11
262.720078
 21
236.861658
 31
0.0
  0
LINE
  5
359
330
1F
100
AcDbEntity
  8
7_ALL_FEATURES
  6
CONTINUOUS
 62
     7
100
AcDbLine
 10
274.883678
 20
240.778264
 30
0.0
 11
273.790887
 21
240.147342
 31
0.0
  0
LINE
  5
35A
330
1F
100
AcDbEntity
  8
03___PRT_ALL_CURVES
  6
CONTINUOUS
 62
    40
100
AcDbLine
 10
271.129652
 20
238.165184
 30
0.0
 11
270.980716
 21
238.110496
 31
0.0
  0
LINE
  5
35B
330
1F
100
AcDbEntity
  8
7_ALL_FEATURES
  6
CONTINUOUS
 62
     7
100
AcDbLine
 10
259.720078
 20
238.593709
 30
0.0
 11
259.720078
 21
236.861658
 31
0.0
  0
LINE
  5
35C
330
1F
100
AcDbEntity
  8
03___PRT_ALL_CURVES
  6
CONTINUOUS
 62
    40
100
AcDbLine
 10
260.126328
 20
248.493641
 30
0.0
 11
260.126328
 21
248.344705
 31
0.0
  0
LINE
  5
35D
330
1F
100
AcDbEntity
  8
03___PRT_ALL_CURVES
  6
CONTINUOUS
 62
    40
100
AcDbLine
 10
260.263047
 20
248.456407
 30
0.0
 11
260.263047
 21
248.381939
 31
0.0
  0
LINE
  5
35E
330
1F
100
AcDbEntity
  8
03___PRT_ALL_CURVES
  6
CONTINUOUS
 62
    40
100
AcDbLine
 10
260.94664
 20
248.381939
 30
0.0
 11
260.94664
 21
248.456407
 31
0.0
  0
LINE
  5
35F
330
1F
100
AcDbEntity
  8
03___PRT_ALL_CURVES
  6
CONTINUOUS
 62
    40
100
AcDbLine
 10
260.973984
 20
248.046832
 30
0.0
 11
260.973984
 21
247.972364
 31
0.0
  0
LINE
  5
360
330
1F
100
AcDbEntity
  8
03___PRT_ALL_CURVES
  6
CONTINUOUS
 62
    40
100
AcDbLine
 10
261.110703
 20
247.972364
 30
0.0
 11
261.110703
 21
248.233003
 31
0.0
  0
LINE
  5
361
330
1F
100
AcDbEntity
  8
03___PRT_ALL_CURVES
  6
CONTINUOUS
 62
    40
100
AcDbLine
 10
261.329453
 20
248.270237
 30
0.0
 11
261.329453
 21
247.93513
 31
0.0
  0
LINE
  5
362
330
1F
100
AcDbEntity
  8
03___PRT_ALL_CURVES
  6
CONTINUOUS
 62
    40
100
AcDbLine
 10
261.466172
 20
248.233003
 30
0.0
 11
261.466172
 21
247.972364
 31
0.0
  0
LINE
  5
363
330
1F
100
AcDbEntity
  8
03___PRT_ALL_CURVES
  6
CONTINUOUS
 62
    40
100
AcDbLine
 10
262.177109
 20
247.972364
 30
0.0
 11
262.177109
 21
248.233003
 31
0.0
  0
LINE
  5
364
330
1F
100
AcDbEntity
  8
03___PRT_ALL_CURVES
  6
CONTINUOUS
 62
    40
100
AcDbLine
 10
262.313828
 20
247.93513
 30
0.0
 11
262.313828
 21
248.270237
 31
0.0
  0
LINE
  5
365
330
1F
100
AcDbEntity
  8
03___PRT_ALL_CURVES
  6
CONTINUOUS
 62
    40
100
AcDbLine
 10
261.083359
 20
247.711726
 30
0.0
 11
261.110703
 21
247.972364
 31
0.0
  0
LINE
  5
366
330
1F
100
AcDbEntity
  8
03___PRT_ALL_CURVES
  6
CONTINUOUS
 62
    40
100
AcDbLine
 10
260.973984
 20
247.972364
 30
0.0
 11
260.94664
 21
247.74896
 31
0.0
  0
LINE
  5
367
330
1F
100
AcDbEntity
  8
03___PRT_ALL_CURVES
  6
CONTINUOUS
 62
    40
100
AcDbLine
 10
261.493515
 20
248.456407
 30
0.0
 11
261.466172
 21
248.233003
 31
0.0
  0
LINE
  5
368
330
1F
100
AcDbEntity
  8
03___PRT_ALL_CURVES
  6
CONTINUOUS
 62
    40
100
AcDbLine
 10
262.149765
 20
247.74896
 30
0.0
 11
262.177109
 21
247.972364
 31
0.0
  0
LINE
  5
369
330
1F
100
AcDbEntity
  8
03___PRT_ALL_CURVES
  6
CONTINUOUS
 62
    40
100
AcDbLine
 10
261.356797
 20
248.456407
 30
0.0
 11
261.329453
 21
248.270237
 31
0.0
  0
LINE
  5
36A
330
1F
100
AcDbEntity
  8
03___PRT_ALL_CURVES
  6
CONTINUOUS
 62
    40
100
AcDbLine
 10
262.286484
 20
247.74896
 30
0.0
 11
262.313828
 21
247.93513
 31
0.0
  0
LINE
  5
36B
330
1F
100
AcDbEntity
  8
7_ALL_FEATURES
  6
CONTINUOUS
 62
     7
100
AcDbLine
 10
269.726127
 20
248.847357
 30
0.0
 11
269.29455
 21
247.66161
 31
0.0
  0
LINE
  5
36C
330
1F
100
AcDbEntity
  8
7_ALL_FEATURES
  6
CONTINUOUS
 62
     7
100
AcDbLine
 10
245.426225
 20
176.041547
 30
0.0
 11
262.815766
 21
223.818917
 31
0.0
  0
LINE
  5
36D
330
1F
100
AcDbEntity
  8
7_ALL_FEATURES
  6
CONTINUOUS
 62
     7
100
AcDbLine
 10
271.527812
 20
247.201364
 30
0.0
 11
270.896889
 21
246.108574
 31
0.0
  0
LINE
  5
36E
330
1F
100
AcDbEntity
  8
03___PRT_ALL_CURVES
  6
CONTINUOUS
 62
    40
100
AcDbLine
 10
270.869014
 20
238.028465
 30
0.0
 11
270.757312
 21
237.891746
 31
0.0
  0
LINE
  5
36F
330
1F
100
AcDbEntity
  8
03___PRT_ALL_CURVES
  6
CONTINUOUS
 62
    40
100
AcDbLine
 10
272.321142
 20
237.426902
 30
0.0
 11
272.432844
 21
237.563621
 31
0.0
  0
LINE
  5
370
330
1F
100
AcDbEntity
  8
7_ALL_FEATURES
  6
CONTINUOUS
 62
     7
100
AcDbLine
 10
273.016302
 20
245.267518
 30
0.0
 11
272.205203
 21
244.300889
 31
0.0
  0
LINE
  5
371
330
1F
100
AcDbEntity
  8
03___PRT_ALL_CURVES
  6
CONTINUOUS
 62
    40
100
AcDbLine
 10
271.01795
 20
237.946434
 30
0.0
 11
270.943482
 21
237.864402
 31
0.0
  0
LINE
  5
372
330
1F
100
AcDbEntity
  8
03___PRT_ALL_CURVES
  6
CONTINUOUS
 62
    40
100
AcDbLine
 10
272.172206
 20
237.508934
 30
0.0
 11
272.246674
 21
237.590965
 31
0.0
  0
LINE
  5
373
330
1F
100
AcDbEntity
  8
03___PRT_ALL_CURVES
  6
CONTINUOUS
 62
    40
100
AcDbLine
 10
270.980716
 20
238.110496
 30
0.0
 11
270.869014
 21
238.028465
 31
0.0
  0
LINE
  5
374
330
1F
100
AcDbEntity
  8
03___PRT_ALL_CURVES
  6
CONTINUOUS
 62
    40
100
AcDbLine
 10
272.20944
 20
237.344871
 30
0.0
 11
272.321142
 21
237.426902
 31
0.0
  0
LINE
  5
375
330
1F
100
AcDbEntity
  8
03___PRT_ALL_CURVES
  6
CONTINUOUS
 62
    40
100
AcDbLine
 10
271.241354
 20
238.055809
 30
0.0
 11
271.01795
 21
237.946434
 31
0.0
  0
LINE
  5
376
330
1F
100
AcDbEntity
  8
03___PRT_ALL_CURVES
  6
CONTINUOUS
 62
    40
100
AcDbLine
 10
271.948801
 20
237.399559
 30
0.0
 11
272.172206
 21
237.508934
 31
0.0
  0
LINE
  5
377
330
1F
100
AcDbEntity
  8
03___PRT_ALL_CURVES
  6
CONTINUOUS
 62
    40
100
AcDbLine
 10
272.060503
 20
237.290184
 30
0.0
 11
272.20944
 21
237.344871
 31
0.0
  0
LINE
  5
378
330
1F
100
AcDbEntity
  8
7_ALL_FEATURES
  6
CONTINUOUS
 62
     7
100
AcDbLine
 10
282.020078
 20
196.027684
 30
0.0
 11
282.320078
 21
195.727684
 31
0.0
  0
LINE
  5
379
330
1F
100
AcDbEntity
  8
7_ALL_FEATURES
  6
CONTINUOUS
 62
     7
100
AcDbLine
 10
254.993283
 20
248.912809
 30
0.0
 11
254.774166
 21
250.155484
 31
0.0
  0
LINE
  5
37A
330
1F
100
AcDbEntity
  8
03___PRT_ALL_CURVES
  6
CONTINUOUS
 62
    40
100
AcDbLine
 10
261.110703
 20
248.233003
 30
0.0
 11
261.083359
 21
248.493641
 31
0.0
  0
LINE
  5
37B
330
1F
100
AcDbEntity
  8
7_ALL_FEATURES
  6
CONTINUOUS
 62
     7
100
AcDbLine
 10
262.720078
 20
236.861658
 30
0.0
 11
262.720078
 21
238.593709
 31
0.0
  0
LINE
  5
37C
330
1F
100
AcDbEntity
  8
7_ALL_FEATURES
  6
CONTINUOUS
 62
     7
100
AcDbLine
 10
265.409997
 20
251.085998
 30
0.0
 11
265.409997
 21
249.824153
 31
0.0
  0
LINE
  5
37D
330
1F
100
AcDbEntity
  8
7_ALL_FEATURES
  6
CONTINUOUS
 62
     7
100
AcDbLine
 10
267.66599
 20
250.155484
 30
0.0
 11
267.446873
 21
248.912809
 31
0.0
  0
LINE
  5
37E
330
1F
100
AcDbEntity
  8
03___PRT_ALL_CURVES
  6
CONTINUOUS
 62
    40
100
AcDbLine
 10
270.757312
 20
237.891746
 30
0.0
 11
270.720078
 21
237.727684
 31
0.0
  0
LINE
  5
37F
330
1F
100
AcDbEntity
  8
03___PRT_ALL_CURVES
  6
CONTINUOUS
 62
    40
100
AcDbLine
 10
270.943482
 20
237.864402
 30
0.0
 11
270.906248
 21
237.727684
 31
0.0
  0
LINE
  5
380
330
1F
100
AcDbEntity
  8
03___PRT_ALL_CURVES
  6
CONTINUOUS
 62
    40
100
AcDbLine
 10
272.246674
 20
237.590965
 30
0.0
 11
272.283908
 21
237.727684
 31
0.0
  0
LINE
  5
381
330
1F
100
AcDbEntity
  8
7_ALL_FEATURES
  6
CONTINUOUS
 62
     7
100
AcDbLine
 10
272.405203
 20
231.500889
 30
0.0
 11
272.205203
 21
231.154478
 31
0.0
  0
LINE
  5
382
330
1F
100
AcDbEntity
  8
7_ALL_FEATURES
  6
CONTINUOUS
 62
     7
100
AcDbLine
 10
271.154004
 20
229.653211
 30
0.0
 11
270.896889
 21
229.346793
 31
0.0
  0
LINE
  5
383
330
1F
100
AcDbEntity
  8
7_ALL_FEATURES
  6
CONTINUOUS
 62
     7
100
AcDbLine
 10
269.600968
 20
228.050872
 30
0.0
 11
269.29455
 21
227.793757
 31
0.0
  0
LINE
  5
384
330
1F
100
AcDbEntity
  8
7_ALL_FEATURES
  6
CONTINUOUS
 62
     7
100
AcDbLine
 10
251.543267
 20
246.108574
 30
0.0
 11
250.912344
 21
247.201364
 31
0.0
  0
LINE
  5
385
330
1F
100
AcDbEntity
  8
7_ALL_FEATURES
  6
CONTINUOUS
 62
     7
100
AcDbLine
 10
253.145605
 20
247.66161
 30
0.0
 11
252.714029
 21
248.847357
 31
0.0
  0
LINE
  5
386
330
1F
100
AcDbEntity
  8
03___PRT_ALL_CURVES
  6
CONTINUOUS
 62
    40
100
AcDbLine
 10
260.181015
 20
247.637258
 30
0.0
 11
260.208359
 21
247.525556
 31
0.0
  0
LINE
  5
387
330
1F
100
AcDbEntity
  8
03___PRT_ALL_CURVES
  6
CONTINUOUS
 62
    40
100
AcDbLine
 10
260.263047
 20
248.381939
 30
0.0
 11
260.29039
 21
248.270237
 31
0.0
  0
LINE
  5
388
330
1F
100
AcDbEntity
  8
03___PRT_ALL_CURVES
  6
CONTINUOUS
 62
    40
100
AcDbLine
 10
260.94664
 20
248.456407
 30
0.0
 11
260.919297
 21
248.568109
 31
0.0
  0
LINE
  5
389
330
1F
100
AcDbEntity
  8
03___PRT_ALL_CURVES
  6
CONTINUOUS
 62
    40
100
AcDbLine
 10
261.356797
 20
247.74896
 30
0.0
 11
261.38414
 21
247.637258
 31
0.0
  0
LINE
  5
38A
330
1F
100
AcDbEntity
  8
03___PRT_ALL_CURVES
  6
CONTINUOUS
 62
    40
100
AcDbLine
 10
261.329453
 20
247.93513
 30
0.0
 11
261.356797
 21
247.74896
 31
0.0
  0
LINE
  5
38B
330
1F
100
AcDbEntity
  8
03___PRT_ALL_CURVES
  6
CONTINUOUS
 62
    40
100
AcDbLine
 10
262.313828
 20
248.270237
 30
0.0
 11
262.286484
 21
248.456407
 31
0.0
  0
LINE
  5
38C
330
1F
100
AcDbEntity
  8
03___PRT_ALL_CURVES
  6
CONTINUOUS
 62
    40
100
AcDbLine
 10
261.466172
 20
247.972364
 30
0.0
 11
261.493515
 21
247.74896
 31
0.0
  0
LINE
  5
38D
330
1F
100
AcDbEntity
  8
03___PRT_ALL_CURVES
  6
CONTINUOUS
 62
    40
100
AcDbLine
 10
262.177109
 20
248.233003
 30
0.0
 11
262.149765
 21
248.456407
 31
0.0
  0
LINE
  5
38E
330
1F
100
AcDbEntity
  8
7_ALL_FEATURES
  6
CONTINUOUS
 62
     7
100
AcDbLine
 10
273.020078
 20
237.977684
 30
0.0
 11
273.020078
 21
237.477684
 31
0.0
  0
LINE
  5
38F
330
1F
100
AcDbEntity
  8
7_ALL_FEATURES
  6
CONTINUOUS
 62
     7
100
AcDbLine
 10
273.860347
 20
235.701948
 30
0.0
 11
273.790887
 21
235.308025
 31
0.0
  0
LINE
  5
390
330
1F
100
AcDbEntity
  8
03___PRT_ALL_CURVES
  6
CONTINUOUS
 62
    40
100
AcDbLine
 10
272.432844
 20
237.563621
 30
0.0
 11
272.470078
 21
237.727684
 31
0.0
  0
LINE
  5
391
330
1F
100
AcDbEntity
  8
7_ALL_FEATURES
  6
CONTINUOUS
 62
     7
100
AcDbLine
 10
273.316547
 20
233.537764
 30
0.0
 11
273.179739
 21
233.161887
 31
0.0
  0
LINE
  5
392
330
1F
100
AcDbEntity
  8
03___PRT_ALL_CURVES
  6
CONTINUOUS
 62
    40
100
AcDbLine
 10
260.372422
 20
247.525556
 30
0.0
 11
260.317734
 21
247.637258
 31
0.0
  0
LINE
  5
393
330
1F
100
AcDbEntity
  8
03___PRT_ALL_CURVES
  6
CONTINUOUS
 62
    40
100
AcDbLine
 10
260.29039
 20
248.270237
 30
0.0
 11
260.345078
 21
248.158535
 31
0.0
  0
LINE
  5
394
330
1F
100
AcDbEntity
  8
03___PRT_ALL_CURVES
  6
CONTINUOUS
 62
    40
100
AcDbLine
 10
261.38414
 20
247.637258
 30
0.0
 11
261.438828
 21
247.488322
 31
0.0
  0
LINE
  5
395
330
1F
100
AcDbEntity
  8
03___PRT_ALL_CURVES
  6
CONTINUOUS
 62
    40
100
AcDbLine
 10
262.25914
 20
248.568109
 30
0.0
 11
262.204453
 21
248.717045
 31
0.0
  0
LINE
  5
396
330
1F
100
AcDbEntity
  8
7_ALL_FEATURES
  6
CONTINUOUS
 62
     7
100
AcDbLine
 10
269.29455
 20
227.793757
 30
0.0
 11
269.726127
 21
226.60801
 31
0.0
  0
LINE
  5
397
330
1F
100
AcDbEntity
  8
03___PRT_ALL_CURVES
  6
CONTINUOUS
 62
    40
100
AcDbLine
 10
260.126328
 20
248.344705
 30
0.0
 11
260.181015
 21
248.158535
 31
0.0
  0
LINE
  5
398
330
1F
100
AcDbEntity
  8
03___PRT_ALL_CURVES
  6
CONTINUOUS
 62
    40
100
AcDbLine
 10
261.083359
 20
248.493641
 30
0.0
 11
261.028672
 21
248.679811
 31
0.0
  0
LINE
  5
399
330
1F
100
AcDbEntity
  8
7_ALL_FEATURES
  6
CONTINUOUS
 62
     7
100
AcDbLine
 10
260.387233
 20
251.702889
 30
0.0
 11
260.970078
 21
249.527684
 31
0.0
  0
LINE
  5
39A
330
1F
100
AcDbEntity
  8
03___PRT_ALL_CURVES
  6
CONTINUOUS
 62
    40
100
AcDbLine
 10
262.286484
 20
248.456407
 30
0.0
 11
262.25914
 21
248.568109
 31
0.0
  0
LINE
  5
39B
330
1F
100
AcDbEntity
  8
7_ALL_FEATURES
  6
CONTINUOUS
 62
     7
100
AcDbLine
 10
263.026696
 20
251.610627
 30
0.0
 11
263.245813
 21
250.367952
 31
0.0
  0
LINE
  5
39C
330
1F
100
AcDbEntity
  8
7_ALL_FEATURES
  6
CONTINUOUS
 62
     7
100
AcDbLine
 10
276.220078
 20
222.139226
 30
0.0
 11
276.220078
 21
253.316141
 31
0.0
  0
LINE
  5
39D
330
1F
100
AcDbEntity
  8
7_ALL_FEATURES
  6
CONTINUOUS
 62
     7
100
AcDbLine
 10
262.204409
 20
222.139226
 30
0.0
 11
276.220078
 21
222.139226
 31
0.0
  0
LINE
  5
39E
330
1F
100
AcDbEntity
  8
7_ALL_FEATURES
  6
CONTINUOUS
 62
     7
100
AcDbLine
 10
270.693758
 20
227.41995
 30
0.0
 11
269.600968
 21
228.050872
 31
0.0
  0
LINE
  5
39F
330
1F
100
AcDbEntity
  8
7_ALL_FEATURES
  6
CONTINUOUS
 62
     7
100
AcDbLine
 10
255.843183
 20
250.653975
 30
0.0
 11
256.654282
 21
249.687345
 31
0.0
  0
LINE
  5
3A0
330
1F
100
AcDbEntity
  8
7_ALL_FEATURES
  6
CONTINUOUS
 62
     7
100
AcDbLine
 10
272.205203
 20
231.154478
 30
0.0
 11
273.016302
 21
230.187849
 31
0.0
  0
LINE
  5
3A1
330
1F
100
AcDbEntity
  8
03___PRT_ALL_CURVES
  6
CONTINUOUS
 62
    40
100
AcDbLine
 10
261.438828
 20
247.488322
 30
0.0
 11
261.520859
 21
247.37662
 31
0.0
  0
LINE
  5
3A2
330
1F
100
AcDbEntity
  8
7_ALL_FEATURES
  6
CONTINUOUS
 62
     7
100
AcDbLine
 10
258.169497
 20
251.391283
 30
0.0
 11
258.80042
 21
250.298493
 31
0.0
  0
LINE
  5
3A3
330
1F
100
AcDbEntity
  8
7_ALL_FEATURES
  6
CONTINUOUS
 62
     7
100
AcDbLine
 10
270.896889
 20
229.346793
 30
0.0
 11
271.527812
 21
228.254003
 31
0.0
  0
LINE
  5
3A4
330
1F
100
AcDbEntity
  8
03___PRT_ALL_CURVES
  6
CONTINUOUS
 62
    40
100
AcDbLine
 10
260.208359
 20
247.525556
 30
0.0
 11
260.29039
 21
247.37662
 31
0.0
  0
LINE
  5
3A5
330
1F
100
AcDbEntity
  8
03___PRT_ALL_CURVES
  6
CONTINUOUS
 62
    40
100
AcDbLine
 10
260.181015
 20
248.158535
 30
0.0
 11
260.263047
 21
248.009598
 31
0.0
  0
LINE
  5
3A6
330
1F
100
AcDbEntity
  8
03___PRT_ALL_CURVES
  6
CONTINUOUS
 62
    40
100
AcDbLine
 10
261.028672
 20
248.679811
 30
0.0
 11
260.94664
 21
248.828747
 31
0.0
  0
LINE
  5
3A7
330
1F
100
AcDbEntity
  8
03___PRT_ALL_CURVES
  6
CONTINUOUS
 62
    40
100
AcDbLine
 10
260.919297
 20
248.568109
 30
0.0
 11
260.864609
 21
248.679811
 31
0.0
  0
LINE
  5
3A8
330
1F
100
AcDbEntity
  8
03___PRT_ALL_CURVES
  6
CONTINUOUS
 62
    40
100
AcDbLine
 10
261.493515
 20
247.74896
 30
0.0
 11
261.60289
 21
247.525556
 31
0.0
  0
LINE
  5
3A9
330
1F
100
AcDbEntity
  8
03___PRT_ALL_CURVES
  6
CONTINUOUS
 62
    40
100
AcDbLine
 10
262.149765
 20
248.456407
 30
0.0
 11
262.04039
 21
248.679811
 31
0.0
  0
LINE
  5
3AA
330
1F
100
AcDbEntity
  8
03___PRT_ALL_CURVES
  6
CONTINUOUS
 62
    40
100
AcDbLine
 10
270.906248
 20
237.727684
 30
0.0
 11
270.943482
 21
237.590965
 31
0.0
  0
LINE
  5
3AB
330
1F
100
AcDbEntity
  8
03___PRT_ALL_CURVES
  6
CONTINUOUS
 62
    40
100
AcDbLine
 10
272.283908
 20
237.727684
 30
0.0
 11
272.246674
 21
237.864402
 31
0.0
  0
LINE
  5
3AC
330
1F
100
AcDbEntity
  8
03___PRT_ALL_CURVES
  6
CONTINUOUS
 62
    40
100
AcDbLine
 10
270.720078
 20
237.727684
 30
0.0
 11
270.757312
 21
237.563621
 31
0.0
  0
LINE
  5
3AD
330
1F
100
AcDbEntity
  8
03___PRT_ALL_CURVES
  6
CONTINUOUS
 62
    40
100
AcDbLine
 10
272.470078
 20
237.727684
 30
0.0
 11
272.432844
 21
237.891746
 31
0.0
  0
LINE
  5
3AE
330
1F
100
AcDbEntity
  8
7_ALL_FEATURES
  6
CONTINUOUS
 62
     7
100
AcDbLine
 10
273.790887
 20
240.147342
 30
0.0
 11
273.860347
 21
239.753419
 31
0.0
  0
LINE
  5
3AF
330
1F
100
AcDbEntity
  8
7_ALL_FEATURES
  6
CONTINUOUS
 62
     7
100
AcDbLine
 10
281.720071
 20
195.727684
 30
0.0
 11
281.720078
 21
237.428324
 31
0.0
  0
LINE
  5
3B0
330
1F
100
AcDbEntity
  8
7_ALL_FEATURES
  6
CONTINUOUS
 62
     7
100
AcDbLine
 10
281.720078
 20
238.027043
 30
0.0
 11
281.720071
 21
279.727684
 31
0.0
  0
LINE
  5
3B1
330
1F
100
AcDbEntity
  8
7_ALL_FEATURES
  6
CONTINUOUS
 62
     7
100
AcDbLine
 10
282.020078
 20
196.027703
 30
0.0
 11
282.020078
 21
279.427665
 31
0.0
  0
LINE
  5
3B2
330
1F
100
AcDbEntity
  8
7_ALL_FEATURES
  6
CONTINUOUS
 62
     7
100
AcDbLine
 10
282.320078
 20
195.727684
 30
0.0
 11
282.320078
 21
279.727684
 31
0.0
  0
LINE
  5
3B3
330
1F
100
AcDbEntity
  8
7_ALL_FEATURES
  6
CONTINUOUS
 62
     7
100
AcDbLine
 10
273.647878
 20
231.281771
 30
0.0
 11
272.405203
 21
231.500889
 31
0.0
  0
LINE
  5
3B4
330
1F
100
AcDbEntity
  8
7_ALL_FEATURES
  6
CONTINUOUS
 62
     7
100
AcDbLine
 10
272.339751
 20
229.221635
 30
0.0
 11
271.154004
 21
229.653211
 31
0.0
  0
LINE
  5
3B5
330
1F
100
AcDbEntity
  8
7_ALL_FEATURES
  6
CONTINUOUS
 62
     7
100
AcDbLine
 10
259.720078
 20
236.861658
 30
0.0
 11
261.220078
 21
235.995633
 31
0.0
  0
LINE
  5
3B6
330
1F
100
AcDbEntity
  8
7_ALL_FEATURES
  6
CONTINUOUS
 62
     7
100
AcDbLine
 10
262.720078
 20
238.593709
 30
0.0
 11
261.220078
 21
239.459734
 31
0.0
  0
LINE
  5
3B7
330
1F
100
AcDbEntity
  8
03___PRT_ALL_CURVES
  6
CONTINUOUS
 62
    40
100
AcDbLine
 10
270.869014
 20
237.426902
 30
0.0
 11
270.980716
 21
237.344871
 31
0.0
  0
LINE
  5
3B8
330
1F
100
AcDbEntity
  8
7_ALL_FEATURES
  6
CONTINUOUS
 62
     7
100
AcDbLine
 10
253.680243
 20
249.523907
 30
0.0
 11
254.646873
 21
248.712809
 31
0.0
  0
LINE
  5
3B9
330
1F
100
AcDbEntity
  8
7_ALL_FEATURES
  6
CONTINUOUS
 62
     7
100
AcDbLine
 10
273.179739
 20
233.161887
 30
0.0
 11
274.146369
 21
232.350789
 31
0.0
  0
LINE
  5
3BA
330
1F
100
AcDbEntity
  8
03___PRT_ALL_CURVES
  6
CONTINUOUS
 62
    40
100
AcDbLine
 10
260.454453
 20
247.451088
 30
0.0
 11
260.372422
 21
247.525556
 31
0.0
  0
LINE
  5
3BB
330
1F
100
AcDbEntity
  8
03___PRT_ALL_CURVES
  6
CONTINUOUS
 62
    40
100
AcDbLine
 10
260.345078
 20
248.158535
 30
0.0
 11
260.427109
 21
248.084067
 31
0.0
  0
LINE
  5
3BC
330
1F
100
AcDbEntity
  8
03___PRT_ALL_CURVES
  6
CONTINUOUS
 62
    40
100
AcDbLine
 10
261.60289
 20
247.525556
 30
0.0
 11
261.684922
 21
247.451088
 31
0.0
  0
LINE
  5
3BD
330
1F
100
AcDbEntity
  8
03___PRT_ALL_CURVES
  6
CONTINUOUS
 62
    40
100
AcDbLine
 10
270.943482
 20
237.590965
 30
0.0
 11
271.01795
 21
237.508934
 31
0.0
  0
LINE
  5
3BE
330
1F
100
AcDbEntity
  8
03___PRT_ALL_CURVES
  6
CONTINUOUS
 62
    40
100
AcDbLine
 10
272.246674
 20
237.864402
 30
0.0
 11
272.172206
 21
237.946434
 31
0.0
  0
LINE
  5
3BF
330
1F
100
AcDbEntity
  8
03___PRT_ALL_CURVES
  6
CONTINUOUS
 62
    40
100
AcDbLine
 10
270.757312
 20
237.563621
 30
0.0
 11
270.869014
 21
237.426902
 31
0.0
  0
LINE
  5
3C0
330
1F
100
AcDbEntity
  8
03___PRT_ALL_CURVES
  6
CONTINUOUS
 62
    40
100
AcDbLine
 10
272.432844
 20
237.891746
 30
0.0
 11
272.321142
 21
238.028465
 31
0.0
  0
LINE
  5
3C1
330
1F
100
AcDbEntity
  8
03___PRT_ALL_CURVES
  6
CONTINUOUS
 62
    40
100
AcDbLine
 10
262.204453
 20
248.717045
 30
0.0
 11
262.122422
 21
248.828747
 31
0.0
  0
LINE
  5
3C2
330
1F
100
AcDbEntity
  8
7_ALL_FEATURES
  6
CONTINUOUS
 62
     7
100
AcDbLine
 10
272.205203
 20
244.300889
 30
0.0
 11
272.405203
 21
243.954478
 31
0.0
  0
LINE
  5
3C3
330
1F
100
AcDbEntity
  8
7_ALL_FEATURES
  6
CONTINUOUS
 62
     7
100
AcDbLine
 10
273.179739
 20
242.29348
 30
0.0
 11
273.316547
 21
241.917603
 31
0.0
  0
LINE
  5
3C4
330
1F
100
AcDbEntity
  8
7_ALL_FEATURES
  6
CONTINUOUS
 62
     7
100
AcDbLine
 10
275.195283
 20
238.560528
 30
0.0
 11
273.020078
 21
237.977684
 31
0.0
  0
LINE
  5
3C5
330
1F
100
AcDbEntity
  8
03___PRT_ALL_CURVES
  6
CONTINUOUS
 62
    40
100
AcDbLine
 10
271.948801
 20
237.26284
 30
0.0
 11
272.060503
 21
237.290184
 31
0.0
  0
LINE
  5
3C6
330
1F
100
AcDbEntity
  8
03___PRT_ALL_CURVES
  6
CONTINUOUS
 62
    40
100
AcDbLine
 10
271.241354
 20
238.192527
 30
0.0
 11
271.129652
 21
238.165184
 31
0.0
  0
LINE
  5
3C7
330
1F
100
AcDbEntity
  8
7_ALL_FEATURES
  6
CONTINUOUS
 62
     7
100
AcDbLine
 10
275.103022
 20
235.921066
 30
0.0
 11
273.860347
 21
235.701948
 31
0.0
  0
LINE
  5
3C8
330
1F
100
AcDbEntity
  8
03___PRT_ALL_CURVES
  6
CONTINUOUS
 62
    40
100
AcDbLine
 10
271.762631
 20
237.235496
 30
0.0
 11
271.948801
 21
237.26284
 31
0.0
  0
LINE
  5
3C9
330
1F
100
AcDbEntity
  8
03___PRT_ALL_CURVES
  6
CONTINUOUS
 62
    40
100
AcDbLine
 10
271.427525
 20
238.219871
 30
0.0
 11
271.241354
 21
238.192527
 31
0.0
  0
LINE
  5
3CA
330
1F
100
AcDbEntity
  8
03___PRT_ALL_CURVES
  6
CONTINUOUS
 62
    40
100
AcDbLine
 10
271.725397
 20
237.372215
 30
0.0
 11
271.948801
 21
237.399559
 31
0.0
  0
LINE
  5
3CB
330
1F
100
AcDbEntity
  8
03___PRT_ALL_CURVES
  6
CONTINUOUS
 62
    40
100
AcDbLine
 10
271.464759
 20
238.083152
 30
0.0
 11
271.241354
 21
238.055809
 31
0.0
  0
LINE
  5
3CC
330
1F
100
AcDbEntity
  8
7_ALL_FEATURES
  6
CONTINUOUS
 62
     7
100
AcDbLine
 10
274.578393
 20
233.537764
 30
0.0
 11
273.316547
 21
233.537764
 31
0.0
  0
LINE
  5
3CD
330
1F
100
AcDbEntity
  8
03___PRT_ALL_CURVES
  6
CONTINUOUS
 62
    40
100
AcDbLine
 10
271.427525
 20
237.235496
 30
0.0
 11
271.762631
 21
237.235496
 31
0.0
  0
LINE
  5
3CE
330
1F
100
AcDbEntity
  8
03___PRT_ALL_CURVES
  6
CONTINUOUS
 62
    40
100
AcDbLine
 10
271.464759
 20
237.372215
 30
0.0
 11
271.725397
 21
237.372215
 31
0.0
  0
LINE
  5
3CF
330
1F
100
AcDbEntity
  8
7_ALL_FEATURES
  6
CONTINUOUS
 62
     7
100
AcDbLine
 10
276.220078
 20
237.428324
 30
0.0
 11
281.720078
 21
237.428324
 31
0.0
  0
LINE
  5
3D0
330
1F
100
AcDbEntity
  8
7_ALL_FEATURES
  6
CONTINUOUS
 62
     7
100
AcDbLine
 10
276.220078
 20
237.727684
 30
0.0
 11
282.020078
 21
237.727684
 31
0.0
  0
LINE
  5
3D1
330
1F
100
AcDbEntity
  8
7_ALL_FEATURES
  6
CONTINUOUS
 62
     7
100
AcDbLine
 10
276.220078
 20
238.027043
 30
0.0
 11
281.720078
 21
238.027043
 31
0.0
  0
LINE
  5
3D2
330
1F
100
AcDbEntity
  8
03___PRT_ALL_CURVES
  6
CONTINUOUS
 62
    40
100
AcDbLine
 10
271.725397
 20
238.083152
 30
0.0
 11
271.464759
 21
238.083152
 31
0.0
  0
LINE
  5
3D3
330
1F
100
AcDbEntity
  8
03___PRT_ALL_CURVES
  6
CONTINUOUS
 62
    40
100
AcDbLine
 10
271.762631
 20
238.219871
 30
0.0
 11
271.427525
 21
238.219871
 31
0.0
  0
LINE
  5
3D4
330
1F
100
AcDbEntity
  8
03___PRT_ALL_CURVES
  6
CONTINUOUS
 62
    40
100
AcDbLine
 10
271.241354
 20
237.399559
 30
0.0
 11
271.464759
 21
237.372215
 31
0.0
  0
LINE
  5
3D5
330
1F
100
AcDbEntity
  8
03___PRT_ALL_CURVES
  6
CONTINUOUS
 62
    40
100
AcDbLine
 10
271.948801
 20
238.055809
 30
0.0
 11
271.725397
 21
238.083152
 31
0.0
  0
LINE
  5
3D6
330
1F
100
AcDbEntity
  8
03___PRT_ALL_CURVES
  6
CONTINUOUS
 62
    40
100
AcDbLine
 10
271.241354
 20
237.26284
 30
0.0
 11
271.427525
 21
237.235496
 31
0.0
  0
LINE
  5
3D7
330
1F
100
AcDbEntity
  8
03___PRT_ALL_CURVES
  6
CONTINUOUS
 62
    40
100
AcDbLine
 10
271.948801
 20
238.192527
 30
0.0
 11
271.762631
 21
238.219871
 31
0.0
  0
LINE
  5
3D8
330
1F
100
AcDbEntity
  8
03___PRT_ALL_CURVES
  6
CONTINUOUS
 62
    40
100
AcDbLine
 10
271.129652
 20
237.290184
 30
0.0
 11
271.241354
 21
237.26284
 31
0.0
  0
LINE
  5
3D9
330
1F
100
AcDbEntity
  8
03___PRT_ALL_CURVES
  6
CONTINUOUS
 62
    40
100
AcDbLine
 10
272.060503
 20
238.165184
 30
0.0
 11
271.948801
 21
238.192527
 31
0.0
  0
LINE
  5
3DA
330
1F
100
AcDbEntity
  8
7_ALL_FEATURES
  6
CONTINUOUS
 62
     7
100
AcDbLine
 10
273.020078
 20
237.477684
 30
0.0
 11
275.195283
 21
236.894839
 31
0.0
  0
LINE
  5
3DB
330
1F
100
AcDbEntity
  8
7_ALL_FEATURES
  6
CONTINUOUS
 62
     7
100
AcDbLine
 10
250.100405
 20
246.233733
 30
0.0
 11
251.286151
 21
245.802156
 31
0.0
  0
LINE
  5
3DC
330
1F
100
AcDbEntity
  8
03___PRT_ALL_CURVES
  6
CONTINUOUS
 62
    40
100
AcDbLine
 10
270.980716
 20
237.344871
 30
0.0
 11
271.129652
 21
237.290184
 31
0.0
  0
LINE
  5
3DD
330
1F
100
AcDbEntity
  8
03___PRT_ALL_CURVES
  6
CONTINUOUS
 62
    40
100
AcDbLine
 10
272.20944
 20
238.110496
 30
0.0
 11
272.060503
 21
238.165184
 31
0.0
  0
LINE
  5
3DE
330
1F
100
AcDbEntity
  8
03___PRT_ALL_CURVES
  6
CONTINUOUS
 62
    40
100
AcDbLine
 10
271.01795
 20
237.508934
 30
0.0
 11
271.241354
 21
237.399559
 31
0.0
  0
LINE
  5
3DF
330
1F
100
AcDbEntity
  8
03___PRT_ALL_CURVES
  6
CONTINUOUS
 62
    40
100
AcDbLine
 10
272.172206
 20
237.946434
 30
0.0
 11
271.948801
 21
238.055809
 31
0.0
  0
LINE
  5
3E0
330
1F
100
AcDbEntity
  8
7_ALL_FEATURES
  6
CONTINUOUS
 62
     7
100
AcDbLine
 10
251.746397
 20
248.035418
 30
0.0
 11
252.839188
 21
247.404495
 31
0.0
  0
LINE
  5
3E1
330
1F
100
AcDbEntity
  8
7_ALL_FEATURES
  6
CONTINUOUS
 62
     7
100
AcDbLine
 10
273.790887
 20
235.308025
 30
0.0
 11
274.883678
 21
234.677103
 31
0.0
  0
LINE
  5
3E2
330
1F
100
AcDbEntity
  8
03___PRT_ALL_CURVES
  6
CONTINUOUS
 62
    40
100
AcDbLine
 10
272.321142
 20
238.028465
 30
0.0
 11
272.20944
 21
238.110496
 31
0.0
  0
LINE
  5
3E3
330
1F
100
AcDbEntity
  8
03___PRT_ALL_CURVES
  6
CONTINUOUS
 62
    40
100
AcDbLine
 10
260.29039
 20
247.37662
 30
0.0
 11
260.427109
 21
247.264918
 31
0.0
  0
LINE
  5
3E4
330
1F
100
AcDbEntity
  8
03___PRT_ALL_CURVES
  6
CONTINUOUS
 62
    40
100
AcDbLine
 10
260.263047
 20
248.009598
 30
0.0
 11
260.399765
 21
247.897896
 31
0.0
  0
LINE
  5
3E5
330
1F
100
AcDbEntity
  8
03___PRT_ALL_CURVES
  6
CONTINUOUS
 62
    40
100
AcDbLine
 10
261.520859
 20
247.37662
 30
0.0
 11
261.657578
 21
247.264918
 31
0.0
  0
LINE
  5
3E6
330
1F
100
AcDbEntity
  8
03___PRT_ALL_CURVES
  6
CONTINUOUS
 62
    40
100
AcDbLine
 10
260.94664
 20
248.828747
 30
0.0
 11
260.809922
 21
248.940449
 31
0.0
  0
LINE
  5
3E7
330
1F
100
AcDbEntity
  8
03___PRT_ALL_CURVES
  6
CONTINUOUS
 62
    40
100
AcDbLine
 10
262.122422
 20
248.828747
 30
0.0
 11
261.985703
 21
248.940449
 31
0.0
  0
LINE
  5
3E8
330
1F
100
AcDbEntity
  8
03___PRT_ALL_CURVES
  6
CONTINUOUS
 62
    40
100
AcDbLine
 10
260.864609
 20
248.679811
 30
0.0
 11
260.782578
 21
248.754279
 31
0.0
  0
LINE
  5
3E9
330
1F
100
AcDbEntity
  8
03___PRT_ALL_CURVES
  6
CONTINUOUS
 62
    40
100
AcDbLine
 10
262.04039
 20
248.679811
 30
0.0
 11
261.958359
 21
248.754279
 31
0.0
  0
LINE
  5
3EA
330
1F
100
AcDbEntity
  8
7_ALL_FEATURES
  6
CONTINUOUS
 62
     7
100
AcDbLine
 10
270.896889
 20
246.108574
 30
0.0
 11
271.154004
 21
245.802156
 31
0.0
  0
LINE
  5
3EB
330
1F
100
AcDbEntity
  8
7_ALL_FEATURES
  6
CONTINUOUS
 62
     7
100
AcDbLine
 10
272.405203
 20
243.954478
 30
0.0
 11
273.647878
 21
244.173596
 31
0.0
  0
LINE
  5
3EC
330
1F
100
AcDbEntity
  8
7_ALL_FEATURES
  6
CONTINUOUS
 62
     7
100
AcDbLine
 10
273.316547
 20
241.917603
 30
0.0
 11
274.578393
 21
241.917603
 31
0.0
  0
LINE
  5
3ED
330
1F
100
AcDbEntity
  8
7_ALL_FEATURES
  6
CONTINUOUS
 62
     7
100
AcDbLine
 10
273.860347
 20
239.753419
 30
0.0
 11
275.103022
 21
239.534302
 31
0.0
  0
LINE
  5
3EE
330
1F
100
AcDbEntity
  8
03___PRT_ALL_CURVES
  6
CONTINUOUS
 62
    40
100
AcDbLine
 10
261.657578
 20
247.264918
 30
0.0
 11
261.82164
 21
247.227684
 31
0.0
  0
LINE
  5
3EF
330
1F
100
AcDbEntity
  8
03___PRT_ALL_CURVES
  6
CONTINUOUS
 62
    40
100
AcDbLine
 10
260.427109
 20
247.264918
 30
0.0
 11
260.563828
 21
247.227684
 31
0.0
  0
LINE
  5
3F0
330
1F
100
AcDbEntity
  8
03___PRT_ALL_CURVES
  6
CONTINUOUS
 62
    40
100
AcDbLine
 10
261.684922
 20
247.451088
 30
0.0
 11
261.82164
 21
247.413854
 31
0.0
  0
LINE
  5
3F1
330
1F
100
AcDbEntity
  8
03___PRT_ALL_CURVES
  6
CONTINUOUS
 62
    40
100
AcDbLine
 10
260.399765
 20
247.897896
 30
0.0
 11
260.536484
 21
247.860662
 31
0.0
  0
LINE
  5
3F2
330
1F
100
AcDbEntity
  8
03___PRT_ALL_CURVES
  6
CONTINUOUS
 62
    40
100
AcDbLine
 10
260.536484
 20
247.413854
 30
0.0
 11
260.454453
 21
247.451088
 31
0.0
  0
LINE
  5
3F3
330
1F
100
AcDbEntity
  8
03___PRT_ALL_CURVES
  6
CONTINUOUS
 62
    40
100
AcDbLine
 10
260.427109
 20
248.084067
 30
0.0
 11
260.50914
 21
248.046832
 31
0.0
  0
LINE
  5
3F4
330
1F
100
AcDbEntity
  8
03___PRT_ALL_CURVES
  6
CONTINUOUS
 62
    40
100
AcDbLine
 10
260.782578
 20
248.754279
 30
0.0
 11
260.700547
 21
248.791513
 31
0.0
  0
LINE
  5
3F5
330
1F
100
AcDbEntity
  8
7_ALL_FEATURES
  6
CONTINUOUS
 62
     7
100
AcDbLine
 10
267.446873
 20
248.912809
 30
0.0
 11
267.793283
 21
248.712809
 31
0.0
  0
LINE
  5
3F6
330
1F
100
AcDbEntity
  8
7_ALL_FEATURES
  6
CONTINUOUS
 62
     7
100
AcDbLine
 10
269.29455
 20
247.66161
 30
0.0
 11
269.600968
 21
247.404495
 31
0.0
  0
LINE
  5
3F7
330
1F
100
AcDbEntity
  8
7_ALL_FEATURES
  6
CONTINUOUS
 62
     7
100
AcDbLine
 10
282.020078
 20
196.02769
 30
0.0
 11
281.720071
 21
195.727684
 31
0.0
  0
LINE
  5
3F8
330
1F
100
AcDbEntity
  8
03___PRT_ALL_CURVES
  6
CONTINUOUS
 62
    40
100
AcDbLine
 10
261.82164
 20
247.413854
 30
0.0
 11
261.958359
 21
247.451088
 31
0.0
  0
LINE
  5
3F9
330
1F
100
AcDbEntity
  8
03___PRT_ALL_CURVES
  6
CONTINUOUS
 62
    40
100
AcDbLine
 10
260.673203
 20
247.227684
 30
0.0
 11
260.809922
 21
247.264918
 31
0.0
  0
LINE
  5
3FA
330
1F
100
AcDbEntity
  8
03___PRT_ALL_CURVES
  6
CONTINUOUS
 62
    40
100
AcDbLine
 10
261.82164
 20
247.227684
 30
0.0
 11
261.985703
 21
247.264918
 31
0.0
  0
LINE
  5
3FB
330
1F
100
AcDbEntity
  8
03___PRT_ALL_CURVES
  6
CONTINUOUS
 62
    40
100
AcDbLine
 10
260.563828
 20
247.227684
 30
0.0
 11
260.673203
 21
247.227684
 31
0.0
  0
LINE
  5
3FC
330
1F
100
AcDbEntity
  8
03___PRT_ALL_CURVES
  6
CONTINUOUS
 62
    40
100
AcDbLine
 10
260.700547
 20
247.413854
 30
0.0
 11
260.536484
 21
247.413854
 31
0.0
  0
LINE
  5
3FD
330
1F
100
AcDbEntity
  8
03___PRT_ALL_CURVES
  6
CONTINUOUS
 62
    40
100
AcDbLine
 10
260.317734
 20
247.637258
 30
0.0
 11
260.181015
 21
247.637258
 31
0.0
  0
LINE
  5
3FE
330
1F
100
AcDbEntity
  8
03___PRT_ALL_CURVES
  6
CONTINUOUS
 62
    40
100
AcDbLine
 10
260.536484
 20
247.860662
 30
0.0
 11
260.673203
 21
247.860662
 31
0.0
  0
LINE
  5
3FF
330
1F
100
AcDbEntity
  8
03___PRT_ALL_CURVES
  6
CONTINUOUS
 62
    40
100
AcDbLine
 10
260.50914
 20
248.046832
 30
0.0
 11
260.700547
 21
248.046832
 31
0.0
  0
LINE
  5
400
330
1F
100
AcDbEntity
  8
03___PRT_ALL_CURVES
  6
CONTINUOUS
 62
    40
100
AcDbLine
 10
260.700547
 20
248.791513
 30
0.0
 11
260.50914
 21
248.791513
 31
0.0
  0
LINE
  5
401
330
1F
100
AcDbEntity
  8
03___PRT_ALL_CURVES
  6
CONTINUOUS
 62
    40
100
AcDbLine
 10
260.673203
 20
248.977684
 30
0.0
 11
260.536484
 21
248.977684
 31
0.0
  0
LINE
  5
402
330
1F
100
AcDbEntity
  8
7_ALL_FEATURES
  6
CONTINUOUS
 62
     7
100
AcDbLine
 10
260.970078
 20
249.527684
 30
0.0
 11
261.470078
 21
249.527684
 31
0.0
  0
LINE
  5
403
330
1F
100
AcDbEntity
  8
7_ALL_FEATURES
  6
CONTINUOUS
 62
     7
100
AcDbLine
 10
263.245813
 20
250.367952
 30
0.0
 11
263.639736
 21
250.298493
 31
0.0
  0
LINE
  5
404
330
1F
100
AcDbEntity
  8
03___PRT_ALL_CURVES
  6
CONTINUOUS
 62
    40
100
AcDbLine
 10
261.985703
 20
248.940449
 30
0.0
 11
261.82164
 21
248.977684
 31
0.0
  0
LINE
  5
405
330
1F
100
AcDbEntity
  8
03___PRT_ALL_CURVES
  6
CONTINUOUS
 62
    40
100
AcDbLine
 10
260.809922
 20
248.940449
 30
0.0
 11
260.673203
 21
248.977684
 31
0.0
  0
LINE
  5
406
330
1F
100
AcDbEntity
  8
03___PRT_ALL_CURVES
  6
CONTINUOUS
 62
    40
100
AcDbLine
 10
261.958359
 20
248.754279
 30
0.0
 11
261.82164
 21
248.791513
 31
0.0
  0
LINE
  5
407
330
1F
100
AcDbEntity
  8
7_ALL_FEATURES
  6
CONTINUOUS
 62
     7
100
AcDbLine
 10
265.409997
 20
249.824153
 30
0.0
 11
265.785874
 21
249.687345
 31
0.0
  0
LINE
  5
408
330
1F
100
AcDbEntity
  8
03___PRT_ALL_CURVES
  6
CONTINUOUS
 62
    40
100
AcDbLine
 10
260.673203
 20
247.860662
 30
0.0
 11
260.809922
 21
247.897896
 31
0.0
  0
LINE
  5
409
330
1F
100
AcDbEntity
  8
03___PRT_ALL_CURVES
  6
CONTINUOUS
 62
    40
100
AcDbLine
 10
261.82164
 20
248.791513
 30
0.0
 11
261.684922
 21
248.754279
 31
0.0
  0
LINE
  5
40A
330
1F
100
AcDbEntity
  8
03___PRT_ALL_CURVES
  6
CONTINUOUS
 62
    40
100
AcDbLine
 10
260.536484
 20
248.977684
 30
0.0
 11
260.399765
 21
248.940449
 31
0.0
  0
LINE
  5
40B
330
1F
100
AcDbEntity
  8
03___PRT_ALL_CURVES
  6
CONTINUOUS
 62
    40
100
AcDbLine
 10
261.82164
 20
248.977684
 30
0.0
 11
261.657578
 21
248.940449
 31
0.0
  0
LINE
  5
40C
330
1F
100
AcDbEntity
  8
7_ALL_FEATURES
  6
CONTINUOUS
 62
     7
100
AcDbLine
 10
258.80042
 20
250.298493
 30
0.0
 11
259.194343
 21
250.367952
 31
0.0
  0
LINE
  5
40D
330
1F
100
AcDbEntity
  8
7_ALL_FEATURES
  6
CONTINUOUS
 62
     7
100
AcDbLine
 10
245.720078
 20
253.316141
 30
0.0
 11
276.220078
 21
253.316141
 31
0.0
  0
LINE
  5
40E
330
1F
100
AcDbEntity
  8
7_ALL_FEATURES
  6
CONTINUOUS
 62
     7
100
AcDbLine
 10
282.020078
 20
279.427677
 30
0.0
 11
281.720071
 21
279.727684
 31
0.0
  0
LINE
  5
40F
330
1F
100
AcDbEntity
  8
7_ALL_FEATURES
  6
CONTINUOUS
 62
     7
100
AcDbLine
 10
332.620078
 20
195.727684
 30
0.0
 11
332.620078
 21
279.727684
 31
0.0
  0
LINE
  5
410
330
1F
100
AcDbEntity
  8
7_ALL_FEATURES
  6
CONTINUOUS
 62
     7
100
AcDbLine
 10
332.920078
 20
196.027684
 30
0.0
 11
332.920078
 21
279.427684
 31
0.0
  0
LINE
  5
411
330
1F
100
AcDbEntity
  8
7_ALL_FEATURES
  6
CONTINUOUS
 62
     7
100
AcDbLine
 10
332.920078
 20
196.027684
 30
0.0
 11
332.620078
 21
195.727684
 31
0.0
  0
LINE
  5
412
330
1F
100
AcDbEntity
  8
02___PRT_ALL_AXES
  6
CONTINUOUS
 62
     7
100
AcDbLine
 10
245.720078
 20
279.727684
 30
0.0
 11
281.720071
 21
279.727684
 31
0.0
  0
LINE
  5
413
330
1F
100
AcDbEntity
  8
02___PRT_ALL_AXES
  6
CONTINUOUS
 62
     7
100
AcDbLine
 10
282.320078
 20
279.727684
 30
0.0
 11
332.620078
 21
279.727684
 31
0.0
  0
LINE
  5
414
330
1F
100
AcDbEntity
  8
7_ALL_FEATURES
  6
CONTINUOUS
 62
     7
100
AcDbLine
 10
332.920078
 20
279.427684
 30
0.0
 11
332.620078
 21
279.727684
 31
0.0
  0
LINE
  5
415
330
1F
100
AcDbEntity
  8
7_ALL_FEATURES
  6
CONTINUOUS
 62
     7
100
AcDbLine
 10
42.254032
 20
24.894452
 30
0.0
 11
42.554032
 21
24.594452
 31
0.0
  0
LINE
  5
416
330
1F
100
AcDbEntity
  8
7_ALL_FEATURES
  6
CONTINUOUS
 62
     7
100
AcDbLine
 10
42.554032
 20
24.594452
 30
0.0
 11
125.954032
 21
24.594452
 31
0.0
  0
LINE
  5
417
330
1F
100
AcDbEntity
  8
7_ALL_FEATURES
  6
CONTINUOUS
 62
     7
100
AcDbLine
 10
42.254032
 20
24.894452
 30
0.0
 11
126.254032
 21
24.894452
 31
0.0
  0
LINE
  5
418
330
1F
100
AcDbEntity
  8
7_ALL_FEATURES
  6
CONTINUOUS
 62
     7
100
AcDbLine
 10
38.754032
 20
93.669654
 30
0.0
 11
38.754032
 21
98.91925
 31
0.0
  0
LINE
  5
419
330
1F
100
AcDbEntity
  8
7_ALL_FEATURES
  6
CONTINUOUS
 62
     9
100
AcDbLine
 10
38.890023
 20
92.944762
 30
0.0
 11
38.890023
 21
99.644142
 31
0.0
  0
LINE
  5
41A
330
1F
100
AcDbEntity
  8
7_ALL_FEATURES
  6
CONTINUOUS
 62
     7
100
AcDbLine
 10
40.318079
 20
103.316287
 30
0.0
 11
38.890023
 21
99.644142
 31
0.0
  0
LINE
  5
41B
330
1F
100
AcDbEntity
  8
7_ALL_FEATURES
  6
CONTINUOUS
 62
     9
100
AcDbLine
 10
40.318079
 20
103.316287
 30
0.0
 11
40.318079
 21
89.272617
 31
0.0
  0
LINE
  5
41C
330
1F
100
AcDbEntity
  8
7_ALL_FEATURES
  6
CONTINUOUS
 62
     9
100
AcDbLine
 10
41.017083
 20
103.794452
 30
0.0
 11
41.017083
 21
88.794452
 31
0.0
  0
LINE
  5
41D
330
1F
100
AcDbEntity
  8
7_ALL_FEATURES
  6
CONTINUOUS
 62
     9
100
AcDbLine
 10
41.654032
 20
103.794452
 30
0.0
 11
41.654032
 21
88.794452
 31
0.0
  0
LINE
  5
41E
330
1F
100
AcDbEntity
  8
7_ALL_FEATURES
  6
CONTINUOUS
 62
     7
100
AcDbLine
 10
41.754032
 20
103.694452
 30
0.0
 11
41.754032
 21
88.894452
 31
0.0
  0
LINE
  5
41F
330
1F
100
AcDbEntity
  8
7_ALL_FEATURES
  6
CONTINUOUS
 62
     7
100
AcDbLine
 10
42.254032
 20
24.894452
 30
0.0
 11
42.254032
 21
75.194452
 31
0.0
  0
LINE
  5
420
330
1F
100
AcDbEntity
  8
7_ALL_FEATURES
  6
CONTINUOUS
 62
     7
100
AcDbLine
 10
42.254032
 20
82.319247
 30
0.0
 11
42.254032
 21
144.221792
 31
0.0
  0
LINE
  5
421
330
1F
100
AcDbEntity
  8
7_ALL_FEATURES
  6
CONTINUOUS
 62
     7
100
AcDbLine
 10
42.255099
 20
81.294452
 30
0.0
 11
42.255099
 21
75.794452
 31
0.0
  0
LINE
  5
422
330
1F
100
AcDbEntity
  8
7_ALL_FEATURES
  6
CONTINUOUS
 62
     3
100
AcDbLine
 10
44.254032
 20
82.319247
 30
0.0
 11
44.254032
 21
144.221792
 31
0.0
  0
LINE
  5
423
330
1F
100
AcDbEntity
  8
7_ALL_FEATURES
  6
CONTINUOUS
 62
     7
100
AcDbLine
 10
45.254032
 20
81.294452
 30
0.0
 11
45.254032
 21
112.294452
 31
0.0
  0
LINE
  5
424
330
1F
100
AcDbEntity
  8
7_ALL_FEATURES
  6
CONTINUOUS
 62
     9
100
AcDbLine
 10
49.254032
 20
144.294452
 30
0.0
 11
49.254032
 21
113.294452
 31
0.0
  0
LINE
  5
425
330
1F
100
AcDbEntity
  8
7_ALL_FEATURES
  6
CONTINUOUS
 62
     7
100
AcDbLine
 10
42.554205
 20
75.494452
 30
0.0
 11
42.504494
 21
75.544257
 31
0.0
  0
LINE
  5
426
330
1F
100
AcDbEntity
  8
7_ALL_FEATURES
  6
CONTINUOUS
 62
     7
100
AcDbLine
 10
42.554205
 20
75.494452
 30
0.0
 11
42.504493
 21
75.544256
 31
0.0
  0
LINE
  5
427
330
1F
100
AcDbEntity
  8
7_ALL_FEATURES
  6
CONTINUOUS
 62
     7
100
AcDbLine
 10
40.318079
 20
89.272617
 30
0.0
 11
38.890023
 21
92.944762
 31
0.0
  0
LINE
  5
428
330
1F
100
AcDbEntity
  8
7_ALL_FEATURES
  6
CONTINUOUS
 62
     7
100
AcDbLine
 10
42.554032
 20
75.494452
 30
0.0
 11
42.254032
 21
75.194452
 31
0.0
  0
LINE
  5
429
330
1F
100
AcDbEntity
  8
7_ALL_FEATURES
  6
CONTINUOUS
 62
     7
100
AcDbLine
 10
42.254032
 20
75.194452
 30
0.0
 11
126.254032
 21
75.194452
 31
0.0
  0
LINE
  5
42A
330
1F
100
AcDbEntity
  8
7_ALL_FEATURES
  6
CONTINUOUS
 62
     7
100
AcDbLine
 10
42.554032
 20
75.494452
 30
0.0
 11
125.954032
 21
75.494452
 31
0.0
  0
LINE
  5
42B
330
1F
100
AcDbEntity
  8
7_ALL_FEATURES
  6
CONTINUOUS
 62
     7
100
AcDbLine
 10
42.255099
 20
75.794452
 30
0.0
 11
126.252965
 21
75.794452
 31
0.0
  0
LINE
  5
42C
330
1F
100
AcDbEntity
  8
7_ALL_FEATURES
  6
CONTINUOUS
 62
     7
100
AcDbLine
 10
126.252965
 20
81.294452
 30
0.0
 11
123.254032
 21
81.294452
 31
0.0
  0
LINE
  5
42D
330
1F
100
AcDbEntity
  8
7_ALL_FEATURES
  6
CONTINUOUS
 62
     7
100
AcDbLine
 10
42.255099
 20
81.294452
 30
0.0
 11
45.254032
 21
81.294452
 31
0.0
  0
LINE
  5
42E
330
1F
100
AcDbEntity
  8
7_ALL_FEATURES
  6
CONTINUOUS
 62
     7
100
AcDbLine
 10
44.254032
 20
82.319247
 30
0.0
 11
42.254032
 21
82.319247
 31
0.0
  0
LINE
  5
42F
330
1F
100
AcDbEntity
  8
7_ALL_FEATURES
  6
CONTINUOUS
 62
     7
100
AcDbLine
 10
124.254032
 20
82.319247
 30
0.0
 11
126.254032
 21
82.319247
 31
0.0
  0
LINE
  5
430
330
1F
100
AcDbEntity
  8
7_ALL_FEATURES
  6
CONTINUOUS
 62
     7
100
AcDbLine
 10
44.254032
 20
82.411508
 30
0.0
 11
42.254032
 21
82.411508
 31
0.0
  0
LINE
  5
431
330
1F
100
AcDbEntity
  8
7_ALL_FEATURES
  6
CONTINUOUS
 62
     7
100
AcDbLine
 10
124.254032
 20
82.411508
 30
0.0
 11
126.254032
 21
82.411508
 31
0.0
  0
LINE
  5
432
330
1F
100
AcDbEntity
  8
7_ALL_FEATURES
  6
CONTINUOUS
 62
     7
100
AcDbLine
 10
44.254032
 20
82.630852
 30
0.0
 11
42.254032
 21
82.630852
 31
0.0
  0
LINE
  5
433
330
1F
100
AcDbEntity
  8
7_ALL_FEATURES
  6
CONTINUOUS
 62
     7
100
AcDbLine
 10
124.254032
 20
82.630852
 30
0.0
 11
126.254032
 21
82.630852
 31
0.0
  0
LINE
  5
434
330
1F
100
AcDbEntity
  8
7_ALL_FEATURES
  6
CONTINUOUS
 62
     7
100
AcDbLine
 10
44.254032
 20
82.936137
 30
0.0
 11
42.254032
 21
82.936137
 31
0.0
  0
LINE
  5
435
330
1F
100
AcDbEntity
  8
7_ALL_FEATURES
  6
CONTINUOUS
 62
     7
100
AcDbLine
 10
124.254032
 20
82.936137
 30
0.0
 11
126.254032
 21
82.936137
 31
0.0
  0
LINE
  5
436
330
1F
100
AcDbEntity
  8
7_ALL_FEATURES
  6
CONTINUOUS
 62
     7
100
AcDbLine
 10
44.254032
 20
83.368161
 30
0.0
 11
42.254032
 21
83.368161
 31
0.0
  0
LINE
  5
437
330
1F
100
AcDbEntity
  8
7_ALL_FEATURES
  6
CONTINUOUS
 62
     7
100
AcDbLine
 10
124.254032
 20
83.368161
 30
0.0
 11
126.254032
 21
83.368161
 31
0.0
  0
LINE
  5
438
330
1F
100
AcDbEntity
  8
7_ALL_FEATURES
  6
CONTINUOUS
 62
     7
100
AcDbLine
 10
44.254032
 20
83.866652
 30
0.0
 11
42.254032
 21
83.866652
 31
0.0
  0
LINE
  5
439
330
1F
100
AcDbEntity
  8
7_ALL_FEATURES
  6
CONTINUOUS
 62
     7
100
AcDbLine
 10
124.254032
 20
83.866652
 30
0.0
 11
126.254032
 21
83.866652
 31
0.0
  0
LINE
  5
43A
330
1F
100
AcDbEntity
  8
7_ALL_FEATURES
  6
CONTINUOUS
 62
     7
100
AcDbLine
 10
44.254032
 20
84.498228
 30
0.0
 11
42.254032
 21
84.498228
 31
0.0
  0
LINE
  5
43B
330
1F
100
AcDbEntity
  8
7_ALL_FEATURES
  6
CONTINUOUS
 62
     7
100
AcDbLine
 10
124.254032
 20
84.498228
 30
0.0
 11
126.254032
 21
84.498228
 31
0.0
  0
LINE
  5
43C
330
1F
100
AcDbEntity
  8
7_ALL_FEATURES
  6
CONTINUOUS
 62
     7
100
AcDbLine
 10
44.254032
 20
85.174779
 30
0.0
 11
42.254032
 21
85.174779
 31
0.0
  0
LINE
  5
43D
330
1F
100
AcDbEntity
  8
7_ALL_FEATURES
  6
CONTINUOUS
 62
     7
100
AcDbLine
 10
124.254032
 20
85.174779
 30
0.0
 11
126.254032
 21
85.174779
 31
0.0
  0
LINE
  5
43E
330
1F
100
AcDbEntity
  8
3_ALL_AXES
  6
CONTINUOUS
 62
     7
100
AcDbLine
 10
45.254032
 20
85.944452
 30
0.0
 11
45.087367
 21
85.944452
 31
0.0
  0
LINE
  5
43F
330
1F
100
AcDbEntity
  8
7_ALL_FEATURES
  6
CONTINUOUS
 62
     7
100
AcDbLine
 10
44.254032
 20
85.986718
 30
0.0
 11
42.254032
 21
85.986718
 31
0.0
  0
LINE
  5
440
330
1F
100
AcDbEntity
  8
7_ALL_FEATURES
  6
CONTINUOUS
 62
     7
100
AcDbLine
 10
124.254032
 20
85.986718
 30
0.0
 11
126.254032
 21
85.986718
 31
0.0
  0
LINE
  5
441
330
1F
100
AcDbEntity
  8
3_ALL_AXES
  6
CONTINUOUS
 62
     7
100
AcDbLine
 10
45.087367
 20
86.644452
 30
0.0
 11
45.254032
 21
86.644452
 31
0.0
  0
LINE
  5
442
330
1F
100
AcDbEntity
  8
7_ALL_FEATURES
  6
CONTINUOUS
 62
     7
100
AcDbLine
 10
44.254032
 20
86.820772
 30
0.0
 11
42.254032
 21
86.820772
 31
0.0
  0
LINE
  5
443
330
1F
100
AcDbEntity
  8
7_ALL_FEATURES
  6
CONTINUOUS
 62
     7
100
AcDbLine
 10
124.254032
 20
86.820772
 30
0.0
 11
126.254032
 21
86.820772
 31
0.0
  0
LINE
  5
444
330
1F
100
AcDbEntity
  8
7_ALL_FEATURES
  6
CONTINUOUS
 62
     7
100
AcDbLine
 10
44.254032
 20
87.788403
 30
0.0
 11
42.254032
 21
87.788403
 31
0.0
  0
LINE
  5
445
330
1F
100
AcDbEntity
  8
7_ALL_FEATURES
  6
CONTINUOUS
 62
     7
100
AcDbLine
 10
124.254032
 20
87.788403
 30
0.0
 11
126.254032
 21
87.788403
 31
0.0
  0
LINE
  5
446
330
1F
100
AcDbEntity
  8
7_ALL_FEATURES
  6
CONTINUOUS
 62
     7
100
AcDbLine
 10
44.254032
 20
88.754618
 30
0.0
 11
42.254032
 21
88.754618
 31
0.0
  0
LINE
  5
447
330
1F
100
AcDbEntity
  8
7_ALL_FEATURES
  6
CONTINUOUS
 62
     7
100
AcDbLine
 10
124.254032
 20
88.754618
 30
0.0
 11
126.254032
 21
88.754618
 31
0.0
  0
LINE
  5
448
330
1F
100
AcDbEntity
  8
7_ALL_FEATURES
  6
CONTINUOUS
 62
     7
100
AcDbLine
 10
127.490982
 20
88.794452
 30
0.0
 11
126.854032
 21
88.794452
 31
0.0
  0
LINE
  5
449
330
1F
100
AcDbEntity
  8
7_ALL_FEATURES
  6
CONTINUOUS
 62
     7
100
AcDbLine
 10
41.017083
 20
88.794452
 30
0.0
 11
41.654032
 21
88.794452
 31
0.0
  0
LINE
  5
44A
330
1F
100
AcDbEntity
  8
7_ALL_FEATURES
  6
CONTINUOUS
 62
     7
100
AcDbLine
 10
44.254032
 20
89.721247
 30
0.0
 11
42.254032
 21
89.721247
 31
0.0
  0
LINE
  5
44B
330
1F
100
AcDbEntity
  8
7_ALL_FEATURES
  6
CONTINUOUS
 62
     7
100
AcDbLine
 10
124.254032
 20
89.721247
 30
0.0
 11
126.254032
 21
89.721247
 31
0.0
  0
LINE
  5
44C
330
1F
100
AcDbEntity
  8
7_ALL_FEATURES
  6
CONTINUOUS
 62
     7
100
AcDbLine
 10
44.254032
 20
89.84854
 30
0.0
 11
42.254032
 21
89.84854
 31
0.0
  0
LINE
  5
44D
330
1F
100
AcDbEntity
  8
7_ALL_FEATURES
  6
CONTINUOUS
 62
     7
100
AcDbLine
 10
124.254032
 20
89.84854
 30
0.0
 11
126.254032
 21
89.84854
 31
0.0
  0
LINE
  5
44E
330
1F
100
AcDbEntity
  8
3_ALL_AXES
  6
CONTINUOUS
 62
     7
100
AcDbLine
 10
45.254032
 20
90.294452
 30
0.0
 11
44.254032
 21
90.294452
 31
0.0
  0
LINE
  5
44F
330
1F
100
AcDbEntity
  8
3_ALL_AXES
  6
CONTINUOUS
 62
     7
100
AcDbLine
 10
42.254032
 20
90.294452
 30
0.0
 11
41.754032
 21
90.294452
 31
0.0
  0
LINE
  5
450
330
1F
100
AcDbEntity
  8
3_ALL_AXES
  6
CONTINUOUS
 62
     7
100
AcDbLine
 10
123.254032
 20
90.294452
 30
0.0
 11
124.254032
 21
90.294452
 31
0.0
  0
LINE
  5
451
330
1F
100
AcDbEntity
  8
3_ALL_AXES
  6
CONTINUOUS
 62
     7
100
AcDbLine
 10
126.254032
 20
90.294452
 30
0.0
 11
126.754032
 21
90.294452
 31
0.0
  0
LINE
  5
452
330
1F
100
AcDbEntity
  8
7_ALL_FEATURES
  6
CONTINUOUS
 62
     7
100
AcDbLine
 10
44.254032
 20
90.917557
 30
0.0
 11
42.254032
 21
90.917557
 31
0.0
  0
LINE
  5
453
330
1F
100
AcDbEntity
  8
7_ALL_FEATURES
  6
CONTINUOUS
 62
     7
100
AcDbLine
 10
124.254032
 20
90.917557
 30
0.0
 11
126.254032
 21
90.917557
 31
0.0
  0
LINE
  5
454
330
1F
100
AcDbEntity
  8
7_ALL_FEATURES
  6
CONTINUOUS
 62
     7
100
AcDbLine
 10
44.254032
 20
91.728656
 30
0.0
 11
42.254032
 21
91.728656
 31
0.0
  0
LINE
  5
455
330
1F
100
AcDbEntity
  8
7_ALL_FEATURES
  6
CONTINUOUS
 62
     7
100
AcDbLine
 10
124.254032
 20
91.728656
 30
0.0
 11
126.254032
 21
91.728656
 31
0.0
  0
LINE
  5
456
330
1F
100
AcDbEntity
  8
7_ALL_FEATURES
  6
CONTINUOUS
 62
     7
100
AcDbLine
 10
44.254032
 20
92.104533
 30
0.0
 11
42.254032
 21
92.104533
 31
0.0
  0
LINE
  5
457
330
1F
100
AcDbEntity
  8
7_ALL_FEATURES
  6
CONTINUOUS
 62
     7
100
AcDbLine
 10
124.254032
 20
92.104533
 30
0.0
 11
126.254032
 21
92.104533
 31
0.0
  0
LINE
  5
458
330
1F
100
AcDbEntity
  8
7_ALL_FEATURES
  6
CONTINUOUS
 62
     7
100
AcDbLine
 10
44.254032
 20
93.243871
 30
0.0
 11
42.254032
 21
93.243871
 31
0.0
  0
LINE
  5
459
330
1F
100
AcDbEntity
  8
7_ALL_FEATURES
  6
CONTINUOUS
 62
     7
100
AcDbLine
 10
124.254032
 20
93.243871
 30
0.0
 11
126.254032
 21
93.243871
 31
0.0
  0
LINE
  5
45A
330
1F
100
AcDbEntity
  8
7_ALL_FEATURES
  6
CONTINUOUS
 62
     7
100
AcDbLine
 10
44.254032
 20
93.874794
 30
0.0
 11
42.254032
 21
93.874794
 31
0.0
  0
LINE
  5
45B
330
1F
100
AcDbEntity
  8
7_ALL_FEATURES
  6
CONTINUOUS
 62
     7
100
AcDbLine
 10
124.254032
 20
93.874794
 30
0.0
 11
126.254032
 21
93.874794
 31
0.0
  0
LINE
  5
45C
330
1F
100
AcDbEntity
  8
7_ALL_FEATURES
  6
CONTINUOUS
 62
     7
100
AcDbLine
 10
44.254032
 20
94.268717
 30
0.0
 11
42.254032
 21
94.268717
 31
0.0
  0
LINE
  5
45D
330
1F
100
AcDbEntity
  8
7_ALL_FEATURES
  6
CONTINUOUS
 62
     7
100
AcDbLine
 10
124.254032
 20
94.268717
 30
0.0
 11
126.254032
 21
94.268717
 31
0.0
  0
LINE
  5
45E
330
1F
100
AcDbEntity
  8
7_ALL_FEATURES
  6
CONTINUOUS
 62
     7
100
AcDbLine
 10
44.254032
 20
94.487834
 30
0.0
 11
42.254032
 21
94.487834
 31
0.0
  0
LINE
  5
45F
330
1F
100
AcDbEntity
  8
7_ALL_FEATURES
  6
CONTINUOUS
 62
     7
100
AcDbLine
 10
124.254032
 20
94.487834
 30
0.0
 11
126.254032
 21
94.487834
 31
0.0
  0
LINE
  5
460
330
1F
100
AcDbEntity
  8
7_ALL_FEATURES
  6
CONTINUOUS
 62
     7
100
AcDbLine
 10
44.254032
 20
95.461608
 30
0.0
 11
42.254032
 21
95.461608
 31
0.0
  0
LINE
  5
461
330
1F
100
AcDbEntity
  8
7_ALL_FEATURES
  6
CONTINUOUS
 62
     7
100
AcDbLine
 10
124.254032
 20
95.461608
 30
0.0
 11
126.254032
 21
95.461608
 31
0.0
  0
LINE
  5
462
330
1F
100
AcDbEntity
  8
7_ALL_FEATURES
  6
CONTINUOUS
 62
     7
100
AcDbLine
 10
44.254032
 20
96.044452
 30
0.0
 11
42.254032
 21
96.044452
 31
0.0
  0
LINE
  5
463
330
1F
100
AcDbEntity
  8
7_ALL_FEATURES
  6
CONTINUOUS
 62
     7
100
AcDbLine
 10
124.254032
 20
96.044452
 30
0.0
 11
126.254032
 21
96.044452
 31
0.0
  0
LINE
  5
464
330
1F
100
AcDbEntity
  8
7_ALL_FEATURES
  6
CONTINUOUS
 62
     7
100
AcDbLine
 10
44.254032
 20
96.544452
 30
0.0
 11
42.254032
 21
96.544452
 31
0.0
  0
LINE
  5
465
330
1F
100
AcDbEntity
  8
7_ALL_FEATURES
  6
CONTINUOUS
 62
     7
100
AcDbLine
 10
124.254032
 20
96.544452
 30
0.0
 11
126.254032
 21
96.544452
 31
0.0
  0
LINE
  5
466
330
1F
100
AcDbEntity
  8
7_ALL_FEATURES
  6
CONTINUOUS
 62
     7
100
AcDbLine
 10
44.254032
 20
97.127297
 30
0.0
 11
42.254032
 21
97.127297
 31
0.0
  0
LINE
  5
467
330
1F
100
AcDbEntity
  8
7_ALL_FEATURES
  6
CONTINUOUS
 62
     7
100
AcDbLine
 10
124.254032
 20
97.127297
 30
0.0
 11
126.254032
 21
97.127297
 31
0.0
  0
LINE
  5
468
330
1F
100
AcDbEntity
  8
7_ALL_FEATURES
  6
CONTINUOUS
 62
     7
100
AcDbLine
 10
44.254032
 20
98.10107
 30
0.0
 11
42.254032
 21
98.10107
 31
0.0
  0
LINE
  5
469
330
1F
100
AcDbEntity
  8
7_ALL_FEATURES
  6
CONTINUOUS
 62
     7
100
AcDbLine
 10
124.254032
 20
98.10107
 30
0.0
 11
126.254032
 21
98.10107
 31
0.0
  0
LINE
  5
46A
330
1F
100
AcDbEntity
  8
7_ALL_FEATURES
  6
CONTINUOUS
 62
     7
100
AcDbLine
 10
44.254032
 20
98.320187
 30
0.0
 11
42.254032
 21
98.320187
 31
0.0
  0
LINE
  5
46B
330
1F
100
AcDbEntity
  8
7_ALL_FEATURES
  6
CONTINUOUS
 62
     7
100
AcDbLine
 10
124.254032
 20
98.320187
 30
0.0
 11
126.254032
 21
98.320187
 31
0.0
  0
LINE
  5
46C
330
1F
100
AcDbEntity
  8
7_ALL_FEATURES
  6
CONTINUOUS
 62
     7
100
AcDbLine
 10
44.254032
 20
98.71411
 30
0.0
 11
42.254032
 21
98.71411
 31
0.0
  0
LINE
  5
46D
330
1F
100
AcDbEntity
  8
7_ALL_FEATURES
  6
CONTINUOUS
 62
     7
100
AcDbLine
 10
124.254032
 20
98.71411
 30
0.0
 11
126.254032
 21
98.71411
 31
0.0
  0
LINE
  5
46E
330
1F
100
AcDbEntity
  8
7_ALL_FEATURES
  6
CONTINUOUS
 62
     7
100
AcDbLine
 10
44.254032
 20
99.345033
 30
0.0
 11
42.254032
 21
99.345033
 31
0.0
  0
LINE
  5
46F
330
1F
100
AcDbEntity
  8
7_ALL_FEATURES
  6
CONTINUOUS
 62
     7
100
AcDbLine
 10
124.254032
 20
99.345033
 30
0.0
 11
126.254032
 21
99.345033
 31
0.0
  0
LINE
  5
470
330
1F
100
AcDbEntity
  8
7_ALL_FEATURES
  6
CONTINUOUS
 62
     7
100
AcDbLine
 10
44.254032
 20
100.484371
 30
0.0
 11
42.254032
 21
100.484371
 31
0.0
  0
LINE
  5
471
330
1F
100
AcDbEntity
  8
7_ALL_FEATURES
  6
CONTINUOUS
 62
     7
100
AcDbLine
 10
124.254032
 20
100.484371
 30
0.0
 11
126.254032
 21
100.484371
 31
0.0
  0
LINE
  5
472
330
1F
100
AcDbEntity
  8
7_ALL_FEATURES
  6
CONTINUOUS
 62
     7
100
AcDbLine
 10
44.254032
 20
100.860249
 30
0.0
 11
42.254032
 21
100.860249
 31
0.0
  0
LINE
  5
473
330
1F
100
AcDbEntity
  8
7_ALL_FEATURES
  6
CONTINUOUS
 62
     7
100
AcDbLine
 10
124.254032
 20
100.860249
 30
0.0
 11
126.254032
 21
100.860249
 31
0.0
  0
LINE
  5
474
330
1F
100
AcDbEntity
  8
7_ALL_FEATURES
  6
CONTINUOUS
 62
     7
100
AcDbLine
 10
44.254032
 20
101.671347
 30
0.0
 11
42.254032
 21
101.671347
 31
0.0
  0
LINE
  5
475
330
1F
100
AcDbEntity
  8
7_ALL_FEATURES
  6
CONTINUOUS
 62
     7
100
AcDbLine
 10
124.254032
 20
101.671347
 30
0.0
 11
126.254032
 21
101.671347
 31
0.0
  0
LINE
  5
476
330
1F
100
AcDbEntity
  8
3_ALL_AXES
  6
CONTINUOUS
 62
     7
100
AcDbLine
 10
45.254032
 20
102.294452
 30
0.0
 11
44.254032
 21
102.294452
 31
0.0
  0
LINE
  5
477
330
1F
100
AcDbEntity
  8
3_ALL_AXES
  6
CONTINUOUS
 62
     7
100
AcDbLine
 10
42.254032
 20
102.294452
 30
0.0
 11
41.754032
 21
102.294452
 31
0.0
  0
LINE
  5
478
330
1F
100
AcDbEntity
  8
3_ALL_AXES
  6
CONTINUOUS
 62
     7
100
AcDbLine
 10
123.254032
 20
102.294452
 30
0.0
 11
124.254032
 21
102.294452
 31
0.0
  0
LINE
  5
479
330
1F
100
AcDbEntity
  8
3_ALL_AXES
  6
CONTINUOUS
 62
     7
100
AcDbLine
 10
126.254032
 20
102.294452
 30
0.0
 11
126.754032
 21
102.294452
 31
0.0
  0
LINE
  5
47A
330
1F
100
AcDbEntity
  8
7_ALL_FEATURES
  6
CONTINUOUS
 62
     7
100
AcDbLine
 10
44.254032
 20
102.740364
 30
0.0
 11
42.254032
 21
102.740364
 31
0.0
  0
LINE
  5
47B
330
1F
100
AcDbEntity
  8
7_ALL_FEATURES
  6
CONTINUOUS
 62
     7
100
AcDbLine
 10
124.254032
 20
102.740364
 30
0.0
 11
126.254032
 21
102.740364
 31
0.0
  0
LINE
  5
47C
330
1F
100
AcDbEntity
  8
7_ALL_FEATURES
  6
CONTINUOUS
 62
     7
100
AcDbLine
 10
44.254032
 20
102.867657
 30
0.0
 11
42.254032
 21
102.867657
 31
0.0
  0
LINE
  5
47D
330
1F
100
AcDbEntity
  8
7_ALL_FEATURES
  6
CONTINUOUS
 62
     7
100
AcDbLine
 10
124.254032
 20
102.867657
 30
0.0
 11
126.254032
 21
102.867657
 31
0.0
  0
LINE
  5
47E
330
1F
100
AcDbEntity
  8
7_ALL_FEATURES
  6
CONTINUOUS
 62
     7
100
AcDbLine
 10
127.490982
 20
103.794452
 30
0.0
 11
126.854032
 21
103.794452
 31
0.0
  0
LINE
  5
47F
330
1F
100
AcDbEntity
  8
7_ALL_FEATURES
  6
CONTINUOUS
 62
     7
100
AcDbLine
 10
41.017083
 20
103.794452
 30
0.0
 11
41.654032
 21
103.794452
 31
0.0
  0
LINE
  5
480
330
1F
100
AcDbEntity
  8
7_ALL_FEATURES
  6
CONTINUOUS
 62
     7
100
AcDbLine
 10
44.254032
 20
103.834287
 30
0.0
 11
42.254032
 21
103.834287
 31
0.0
  0
LINE
  5
481
330
1F
100
AcDbEntity
  8
7_ALL_FEATURES
  6
CONTINUOUS
 62
     7
100
AcDbLine
 10
124.254032
 20
103.834287
 30
0.0
 11
126.254032
 21
103.834287
 31
0.0
  0
LINE
  5
482
330
1F
100
AcDbEntity
  8
7_ALL_FEATURES
  6
CONTINUOUS
 62
     7
100
AcDbLine
 10
44.254032
 20
104.800501
 30
0.0
 11
42.254032
 21
104.800501
 31
0.0
  0
LINE
  5
483
330
1F
100
AcDbEntity
  8
7_ALL_FEATURES
  6
CONTINUOUS
 62
     7
100
AcDbLine
 10
124.254032
 20
104.800501
 30
0.0
 11
126.254032
 21
104.800501
 31
0.0
  0
LINE
  5
484
330
1F
100
AcDbEntity
  8
7_ALL_FEATURES
  6
CONTINUOUS
 62
     7
100
AcDbLine
 10
44.254032
 20
105.768133
 30
0.0
 11
42.254032
 21
105.768133
 31
0.0
  0
LINE
  5
485
330
1F
100
AcDbEntity
  8
7_ALL_FEATURES
  6
CONTINUOUS
 62
     7
100
AcDbLine
 10
124.254032
 20
105.768133
 30
0.0
 11
126.254032
 21
105.768133
 31
0.0
  0
LINE
  5
486
330
1F
100
AcDbEntity
  8
7_ALL_FEATURES
  6
CONTINUOUS
 62
     7
100
AcDbLine
 10
44.254032
 20
106.602186
 30
0.0
 11
42.254032
 21
106.602186
 31
0.0
  0
LINE
  5
487
330
1F
100
AcDbEntity
  8
7_ALL_FEATURES
  6
CONTINUOUS
 62
     7
100
AcDbLine
 10
124.254032
 20
106.602186
 30
0.0
 11
126.254032
 21
106.602186
 31
0.0
  0
LINE
  5
488
330
1F
100
AcDbEntity
  8
7_ALL_FEATURES
  6
CONTINUOUS
 62
     7
100
AcDbLine
 10
44.254032
 20
107.414125
 30
0.0
 11
42.254032
 21
107.414125
 31
0.0
  0
LINE
  5
489
330
1F
100
AcDbEntity
  8
7_ALL_FEATURES
  6
CONTINUOUS
 62
     7
100
AcDbLine
 10
124.254032
 20
107.414125
 30
0.0
 11
126.254032
 21
107.414125
 31
0.0
  0
LINE
  5
48A
330
1F
100
AcDbEntity
  8
7_ALL_FEATURES
  6
CONTINUOUS
 62
     9
100
AcDbLine
 10
126.254032
 20
108.827142
 30
0.0
 11
124.254032
 21
108.827142
 31
0.0
  0
LINE
  5
48B
330
1F
100
AcDbEntity
  8
7_ALL_FEATURES
  6
CONTINUOUS
 62
     9
100
AcDbLine
 10
42.254032
 20
108.827142
 30
0.0
 11
44.254032
 21
108.827142
 31
0.0
  0
LINE
  5
48C
330
1F
100
AcDbEntity
  8
7_ALL_FEATURES
  6
CONTINUOUS
 62
     7
100
AcDbLine
 10
125.954032
 20
75.494452
 30
0.0
 11
126.254032
 21
75.194452
 31
0.0
  0
LINE
  5
48D
330
1F
100
AcDbEntity
  8
7_ALL_FEATURES
  6
CONTINUOUS
 62
     7
100
AcDbLine
 10
45.254032
 20
111.794452
 30
0.0
 11
123.254032
 21
111.794452
 31
0.0
  0
LINE
  5
48E
330
1F
100
AcDbEntity
  8
7_ALL_FEATURES
  6
CONTINUOUS
 62
     7
100
AcDbLine
 10
45.254032
 20
112.294452
 30
0.0
 11
123.254032
 21
112.294452
 31
0.0
  0
LINE
  5
48F
330
1F
100
AcDbEntity
  8
7_ALL_FEATURES
  6
CONTINUOUS
 62
     3
100
AcDbLine
 10
44.281834
 20
113.294452
 30
0.0
 11
124.226231
 21
113.294452
 31
0.0
  0
LINE
  5
490
330
1F
100
AcDbEntity
  8
7_ALL_FEATURES
  6
CONTINUOUS
 62
     9
100
AcDbLine
 10
119.254032
 20
113.294452
 30
0.0
 11
119.254032
 21
144.294452
 31
0.0
  0
LINE
  5
491
330
1F
100
AcDbEntity
  8
7_ALL_FEATURES
  6
CONTINUOUS
 62
     7
100
AcDbLine
 10
123.254032
 20
112.294452
 30
0.0
 11
123.254032
 21
81.294452
 31
0.0
  0
LINE
  5
492
330
1F
100
AcDbEntity
  8
7_ALL_FEATURES
  6
CONTINUOUS
 62
     3
100
AcDbLine
 10
124.254032
 20
82.319247
 30
0.0
 11
124.254032
 21
144.221792
 31
0.0
  0
LINE
  5
493
330
1F
100
AcDbEntity
  8
7_ALL_FEATURES
  6
CONTINUOUS
 62
     7
100
AcDbLine
 10
128.189985
 20
89.272617
 30
0.0
 11
129.618042
 21
92.944762
 31
0.0
  0
LINE
  5
494
330
1F
100
AcDbEntity
  8
7_ALL_FEATURES
  6
CONTINUOUS
 62
     7
100
AcDbLine
 10
126.252965
 20
81.294452
 30
0.0
 11
126.252965
 21
75.794452
 31
0.0
  0
LINE
  5
495
330
1F
100
AcDbEntity
  8
7_ALL_FEATURES
  6
CONTINUOUS
 62
     7
100
AcDbLine
 10
126.254032
 20
144.221792
 30
0.0
 11
126.254032
 21
82.319247
 31
0.0
  0
LINE
  5
496
330
1F
100
AcDbEntity
  8
7_ALL_FEATURES
  6
CONTINUOUS
 62
     7
100
AcDbLine
 10
126.254032
 20
75.194452
 30
0.0
 11
126.254032
 21
24.894452
 31
0.0
  0
LINE
  5
497
330
1F
100
AcDbEntity
  8
7_ALL_FEATURES
  6
CONTINUOUS
 62
     7
100
AcDbLine
 10
126.754032
 20
88.894452
 30
0.0
 11
126.754032
 21
103.694452
 31
0.0
  0
LINE
  5
498
330
1F
100
AcDbEntity
  8
7_ALL_FEATURES
  6
CONTINUOUS
 62
     9
100
AcDbLine
 10
126.854032
 20
88.794452
 30
0.0
 11
126.854032
 21
103.794452
 31
0.0
  0
LINE
  5
499
330
1F
100
AcDbEntity
  8
7_ALL_FEATURES
  6
CONTINUOUS
 62
     9
100
AcDbLine
 10
127.490982
 20
88.794452
 30
0.0
 11
127.490982
 21
103.794452
 31
0.0
  0
LINE
  5
49A
330
1F
100
AcDbEntity
  8
7_ALL_FEATURES
  6
CONTINUOUS
 62
     9
100
AcDbLine
 10
128.189985
 20
89.272617
 30
0.0
 11
128.189985
 21
103.316287
 31
0.0
  0
LINE
  5
49B
330
1F
100
AcDbEntity
  8
7_ALL_FEATURES
  6
CONTINUOUS
 62
     9
100
AcDbLine
 10
129.618042
 20
99.644142
 30
0.0
 11
129.618042
 21
92.944762
 31
0.0
  0
LINE
  5
49C
330
1F
100
AcDbEntity
  8
7_ALL_FEATURES
  6
CONTINUOUS
 62
     7
100
AcDbLine
 10
129.754032
 20
98.91925
 30
0.0
 11
129.754032
 21
93.669654
 31
0.0
  0
LINE
  5
49D
330
1F
100
AcDbEntity
  8
7_ALL_FEATURES
  6
CONTINUOUS
 62
     7
100
AcDbLine
 10
128.189985
 20
103.316287
 30
0.0
 11
129.618042
 21
99.644142
 31
0.0
  0
LINE
  5
49E
330
1F
100
AcDbEntity
  8
7_ALL_FEATURES
  6
CONTINUOUS
 62
     9
100
AcDbLine
 10
44.254032
 20
142.198295
 30
0.0
 11
42.254032
 21
142.198295
 31
0.0
  0
LINE
  5
49F
330
1F
100
AcDbEntity
  8
7_ALL_FEATURES
  6
CONTINUOUS
 62
     9
100
AcDbLine
 10
124.254032
 20
142.198295
 30
0.0
 11
126.254032
 21
142.198295
 31
0.0
  0
LINE
  5
4A0
330
1F
100
AcDbEntity
  8
7_ALL_FEATURES
  6
CONTINUOUS
 62
     7
100
AcDbLine
 10
44.55309
 20
144.294452
 30
0.0
 11
42.464418
 21
144.294452
 31
0.0
  0
LINE
  5
4A1
330
1F
100
AcDbEntity
  8
7_ALL_FEATURES
  6
CONTINUOUS
 62
     3
100
AcDbLine
 10
44.55309
 20
144.294452
 30
0.0
 11
123.954975
 21
144.294452
 31
0.0
  0
LINE
  5
4A2
330
1F
100
AcDbEntity
  8
7_ALL_FEATURES
  6
CONTINUOUS
 62
     7
100
AcDbLine
 10
123.954975
 20
144.294452
 30
0.0
 11
126.043646
 21
144.294452
 31
0.0
  0
LINE
  5
4A3
330
1F
100
AcDbEntity
  8
7_ALL_FEATURES
  6
CONTINUOUS
 62
     7
100
AcDbLine
 10
126.254032
 20
24.894452
 30
0.0
 11
125.954032
 21
24.594452
 31
0.0
  0
CIRCLE
  5
4A4
330
1F
100
AcDbEntity
  8
7_ALL_FEATURES
  6
CONTINUOUS
 62
     7
100
AcDbCircle
 10
84.254032
 20
237.727684
 30
0.0
 40
42.0
  0
CIRCLE
  5
4A5
330
1F
100
AcDbEntity
  8
7_ALL_FEATURES
  6
CONTINUOUS
 62
     7
100
AcDbCircle
 10
84.254032
 20
237.727684
 30
0.0
 40
41.7
  0
CIRCLE
  5
4A6
330
1F
100
AcDbEntity
  8
7_ALL_FEATURES
  6
CONTINUOUS
 62
     7
100
AcDbCircle
 10
84.254032
 20
237.727684
 30
0.0
 40
40.8
  0
CIRCLE
  5
4A7
330
1F
100
AcDbEntity
  8
7_ALL_FEATURES
  6
CONTINUOUS
 62
     7
100
AcDbCircle
 10
84.254032
 20
237.727684
 30
0.0
 40
40.5
  0
CIRCLE
  5
4A8
330
1F
100
AcDbEntity
  8
7_ALL_FEATURES
  6
CONTINUOUS
 62
     7
100
AcDbCircle
 10
84.254032
 20
237.727684
 30
0.0
 40
40.0
  0
CIRCLE
  5
4A9
330
1F
100
AcDbEntity
  8
7_ALL_FEATURES
  6
CONTINUOUS
 62
     7
100
AcDbCircle
 10
84.254032
 20
237.727684
 30
0.0
 40
39.5
  0
ARC
  5
4AA
330
1F
100
AcDbEntity
  8
7_ALL_FEATURES
  6
CONTINUOUS
 62
     7
100
AcDbCircle
 10
119.254032
 20
169.727684
 30
0.0
 40
7.0
100
AcDbArc
 50
270.0
 51
360.0
  0
ARC
  5
4AB
330
1F
100
AcDbEntity
  8
7_ALL_FEATURES
  6
CONTINUOUS
 62
     7
100
AcDbCircle
 10
49.254032
 20
169.727684
 30
0.0
 40
7.0
100
AcDbArc
 50
180.0
 51
270.0
  0
ARC
  5
4AC
330
1F
100
AcDbEntity
  8
7_ALL_FEATURES
  6
CONTINUOUS
 62
     3
100
AcDbCircle
 10
119.254032
 20
169.727684
 30
0.0
 40
5.0
100
AcDbArc
 50
270.0
 51
360.0
  0
ARC
  5
4AD
330
1F
100
AcDbEntity
  8
7_ALL_FEATURES
  6
CONTINUOUS
 62
     3
100
AcDbCircle
 10
49.254032
 20
169.727684
 30
0.0
 40
5.0
100
AcDbArc
 50
180.0
 51
270.0
  0
ARC
  5
4AE
330
1F
100
AcDbEntity
  8
7_ALL_FEATURES
  6
CONTINUOUS
 62
     7
100
AcDbCircle
 10
127.754032
 20
235.102886
 30
0.0
 40
2.0
100
AcDbArc
 50
338.749494
 51
360.0
  0
ARC
  5
4AF
330
1F
100
AcDbEntity
  8
7_ALL_FEATURES
  6
CONTINUOUS
 62
     7
100
AcDbCircle
 10
127.754032
 20
240.352481
 30
0.0
 40
2.0
100
AcDbArc
 50
0.0
 51
21.250506
  0
ARC
  5
4B0
330
1F
100
AcDbEntity
  8
7_ALL_FEATURES
  6
CONTINUOUS
 62
     7
100
AcDbCircle
 10
40.754032
 20
240.352481
 30
0.0
 40
2.0
100
AcDbArc
 50
158.749494
 51
180.0
  0
ARC
  5
4B1
330
1F
100
AcDbEntity
  8
7_ALL_FEATURES
  6
CONTINUOUS
 62
     7
100
AcDbCircle
 10
40.754032
 20
235.102886
 30
0.0
 40
2.0
100
AcDbArc
 50
180.0
 51
201.250506
  0
ARC
  5
4B2
330
1F
100
AcDbEntity
  8
7_ALL_FEATURES
  6
CONTINUOUS
 62
     7
100
AcDbCircle
 10
127.490982
 20
230.977684
 30
0.0
 40
0.75
100
AcDbArc
 50
270.0
 51
338.749494
  0
ARC
  5
4B3
330
1F
100
AcDbEntity
  8
7_ALL_FEATURES
  6
CONTINUOUS
 62
     7
100
AcDbCircle
 10
127.490982
 20
244.477684
 30
0.0
 40
0.75
100
AcDbArc
 50
21.250506
 51
90.0
  0
ARC
  5
4B4
330
1F
100
AcDbEntity
  8
7_ALL_FEATURES
  6
CONTINUOUS
 62
     7
100
AcDbCircle
 10
41.017083
 20
244.477684
 30
0.0
 40
0.75
100
AcDbArc
 50
90.0
 51
158.749494
  0
ARC
  5
4B5
330
1F
100
AcDbEntity
  8
7_ALL_FEATURES
  6
CONTINUOUS
 62
     7
100
AcDbCircle
 10
41.017083
 20
230.977684
 30
0.0
 40
0.75
100
AcDbArc
 50
201.250506
 51
270.0
  0
ARC
  5
4B6
330
1F
100
AcDbEntity
  8
7_ALL_FEATURES
  6
CONTINUOUS
 62
     7
100
AcDbCircle
 10
91.754032
 20
196.227684
 30
0.0
 40
0.5
100
AcDbArc
 50
270.0
 51
360.0
  0
ARC
  5
4B7
330
1F
100
AcDbEntity
  8
7_ALL_FEATURES
  6
CONTINUOUS
 62
     7
100
AcDbCircle
 10
76.754032
 20
196.227684
 30
0.0
 40
0.5
100
AcDbArc
 50
180.0
 51
270.0
  0
ARC
  5
4B8
330
1F
100
AcDbEntity
  8
7_ALL_FEATURES
  6
CONTINUOUS
 62
     7
100
AcDbCircle
 10
126.854032
 20
230.327684
 30
0.0
 40
0.1
100
AcDbArc
 50
180.0
 51
270.0
  0
ARC
  5
4B9
330
1F
100
AcDbEntity
  8
7_ALL_FEATURES
  6
CONTINUOUS
 62
     7
100
AcDbCircle
 10
126.854032
 20
245.127684
 30
0.0
 40
0.1
100
AcDbArc
 50
90.0
 51
180.0
  0
ARC
  5
4BA
330
1F
100
AcDbEntity
  8
7_ALL_FEATURES
  6
CONTINUOUS
 62
     7
100
AcDbCircle
 10
41.654032
 20
245.127684
 30
0.0
 40
0.1
100
AcDbArc
 50
0.0
 51
90.0
  0
ARC
  5
4BB
330
1F
100
AcDbEntity
  8
7_ALL_FEATURES
  6
CONTINUOUS
 62
     7
100
AcDbCircle
 10
41.654032
 20
230.327684
 30
0.0
 40
0.1
100
AcDbArc
 50
270.0
 51
360.0
  0
ARC
  5
4BC
330
1F
100
AcDbEntity
  8
7_ALL_FEATURES
  6
CONTINUOUS
 62
     7
100
AcDbCircle
 10
264.220078
 20
169.201144
 30
0.0
 40
20.0
100
AcDbArc
 50
160.0
 51
180.0
  0
ARC
  5
4BD
330
1F
100
AcDbEntity
  8
7_ALL_FEATURES
  6
CONTINUOUS
 62
     7
100
AcDbCircle
 10
233.220078
 20
168.02441
 30
0.0
 40
20.0
100
AcDbArc
 50
153.533123
 51
180.0
  0
ARC
  5
4BE
330
1F
100
AcDbEntity
  8
7_ALL_FEATURES
  6
CONTINUOUS
 62
     7
100
AcDbCircle
 10
257.720078
 20
196.227684
 30
0.0
 40
0.5
100
AcDbArc
 50
249.230484
 51
270.0
  0
ARC
  5
4BF
330
1F
100
AcDbEntity
  8
7_ALL_FEATURES
  6
CONTINUOUS
 62
     7
100
AcDbCircle
 10
261.220078
 20
237.727684
 30
0.0
 40
14.0
100
AcDbArc
 50
93.410476
 51
97.41436
  0
ARC
  5
4C0
330
1F
100
AcDbEntity
  8
7_ALL_FEATURES
  6
CONTINUOUS
 62
     7
100
AcDbCircle
 10
261.220078
 20
237.727684
 30
0.0
 40
14.0
100
AcDbArc
 50
102.58564
 51
107.41436
  0
ARC
  5
4C1
330
1F
100
AcDbEntity
  8
7_ALL_FEATURES
  6
CONTINUOUS
 62
     7
100
AcDbCircle
 10
261.220078
 20
237.727684
 30
0.0
 40
14.0
100
AcDbArc
 50
112.58564
 51
117.41436
  0
ARC
  5
4C2
330
1F
100
AcDbEntity
  8
7_ALL_FEATURES
  6
CONTINUOUS
 62
     7
100
AcDbCircle
 10
261.220078
 20
237.727684
 30
0.0
 40
14.0
100
AcDbArc
 50
122.58564
 51
127.41436
  0
ARC
  5
4C3
330
1F
100
AcDbEntity
  8
7_ALL_FEATURES
  6
CONTINUOUS
 62
     7
100
AcDbCircle
 10
261.220078
 20
237.727684
 30
0.0
 40
14.0
100
AcDbArc
 50
132.58564
 51
137.41436
  0
ARC
  5
4C4
330
1F
100
AcDbEntity
  8
7_ALL_FEATURES
  6
CONTINUOUS
 62
     7
100
AcDbCircle
 10
261.220078
 20
237.727684
 30
0.0
 40
14.0
100
AcDbArc
 50
142.58564
 51
153.533123
  0
ARC
  5
4C5
330
1F
100
AcDbEntity
  8
7_ALL_FEATURES
  6
CONTINUOUS
 62
     7
100
AcDbCircle
 10
261.220078
 20
237.727684
 30
0.0
 40
14.0
100
AcDbArc
 50
276.544666
 51
307.41436
  0
ARC
  5
4C6
330
1F
100
AcDbEntity
  8
7_ALL_FEATURES
  6
CONTINUOUS
 62
     7
100
AcDbCircle
 10
261.220078
 20
237.727684
 30
0.0
 40
14.0
100
AcDbArc
 50
312.58564
 51
317.41436
  0
ARC
  5
4C7
330
1F
100
AcDbEntity
  8
7_ALL_FEATURES
  6
CONTINUOUS
 62
     7
100
AcDbCircle
 10
261.220078
 20
237.727684
 30
0.0
 40
14.0
100
AcDbArc
 50
322.58564
 51
327.41436
  0
ARC
  5
4C8
330
1F
100
AcDbEntity
  8
7_ALL_FEATURES
  6
CONTINUOUS
 62
     7
100
AcDbCircle
 10
261.220078
 20
237.727684
 30
0.0
 40
14.0
100
AcDbArc
 50
332.58564
 51
337.41436
  0
ARC
  5
4C9
330
1F
100
AcDbEntity
  8
7_ALL_FEATURES
  6
CONTINUOUS
 62
     7
100
AcDbCircle
 10
261.220078
 20
237.727684
 30
0.0
 40
14.0
100
AcDbArc
 50
82.58564
 51
86.589524
  0
ARC
  5
4CA
330
1F
100
AcDbEntity
  8
7_ALL_FEATURES
  6
CONTINUOUS
 62
     7
100
AcDbCircle
 10
261.220078
 20
237.727684
 30
0.0
 40
14.0
100
AcDbArc
 50
72.58564
 51
77.41436
  0
ARC
  5
4CB
330
1F
100
AcDbEntity
  8
7_ALL_FEATURES
  6
CONTINUOUS
 62
     7
100
AcDbCircle
 10
261.220078
 20
237.727684
 30
0.0
 40
14.0
100
AcDbArc
 50
62.58564
 51
67.41436
  0
ARC
  5
4CC
330
1F
100
AcDbEntity
  8
7_ALL_FEATURES
  6
CONTINUOUS
 62
     7
100
AcDbCircle
 10
261.220078
 20
237.727684
 30
0.0
 40
14.0
100
AcDbArc
 50
52.58564
 51
57.41436
  0
ARC
  5
4CD
330
1F
100
AcDbEntity
  8
7_ALL_FEATURES
  6
CONTINUOUS
 62
     7
100
AcDbCircle
 10
261.220078
 20
237.727684
 30
0.0
 40
14.0
100
AcDbArc
 50
42.58564
 51
47.41436
  0
ARC
  5
4CE
330
1F
100
AcDbEntity
  8
7_ALL_FEATURES
  6
CONTINUOUS
 62
     7
100
AcDbCircle
 10
261.220078
 20
237.727684
 30
0.0
 40
14.0
100
AcDbArc
 50
32.58564
 51
37.41436
  0
ARC
  5
4CF
330
1F
100
AcDbEntity
  8
7_ALL_FEATURES
  6
CONTINUOUS
 62
     7
100
AcDbCircle
 10
261.220078
 20
237.727684
 30
0.0
 40
14.0
100
AcDbArc
 50
22.58564
 51
27.41436
  0
ARC
  5
4D0
330
1F
100
AcDbEntity
  8
7_ALL_FEATURES
  6
CONTINUOUS
 62
     7
100
AcDbCircle
 10
261.220078
 20
237.727684
 30
0.0
 40
14.0
100
AcDbArc
 50
12.58564
 51
17.41436
  0
ARC
  5
4D1
330
1F
100
AcDbEntity
  8
7_ALL_FEATURES
  6
CONTINUOUS
 62
     7
100
AcDbCircle
 10
261.220078
 20
237.727684
 30
0.0
 40
14.0
100
AcDbArc
 50
3.410476
 51
7.41436
  0
ARC
  5
4D2
330
1F
100
AcDbEntity
  8
7_ALL_FEATURES
  6
CONTINUOUS
 62
     7
100
AcDbCircle
 10
261.220078
 20
237.727684
 30
0.0
 40
14.0
100
AcDbArc
 50
352.58564
 51
356.589524
  0
ARC
  5
4D3
330
1F
100
AcDbEntity
  8
7_ALL_FEATURES
  6
CONTINUOUS
 62
     7
100
AcDbCircle
 10
261.220078
 20
237.727684
 30
0.0
 40
14.0
100
AcDbArc
 50
342.58564
 51
347.41436
  0
CIRCLE
  5
4D4
330
1F
100
AcDbEntity
  8
7_ALL_FEATURES
  6
CONTINUOUS
 62
     7
100
AcDbCircle
 10
261.220078
 20
237.727684
 30
0.0
 40
7.5
  0
CIRCLE
  5
4D5
330
1F
100
AcDbEntity
  8
7_ALL_FEATURES
  6
CONTINUOUS
 62
     9
100
AcDbCircle
 10
261.220078
 20
237.727684
 30
0.0
 40
7.0218346959
  0
CIRCLE
  5
4D6
330
1F
100
AcDbEntity
  8
7_ALL_FEATURES
  6
CONTINUOUS
 62
     9
100
AcDbCircle
 10
261.220078
 20
237.727684
 30
0.0
 40
3.3496902606
  0
CIRCLE
  5
4D7
330
1F
100
AcDbEntity
  8
7_ALL_FEATURES
  6
CONTINUOUS
 62
     9
100
AcDbCircle
 10
261.220078
 20
237.727684
 30
0.0
 40
2.6247977383
  0
ARC
  5
4D8
330
1F
100
AcDbEntity
  8
7_ALL_FEATURES
  6
CONTINUOUS
 62
     7
100
AcDbCircle
 10
272.720078
 20
196.227684
 30
0.0
 40
0.5
100
AcDbArc
 50
270.0
 51
290.769517
  0
ARC
  5
4D9
330
1F
100
AcDbEntity
  8
7_ALL_FEATURES
  6
CONTINUOUS
 62
     7
100
AcDbCircle
 10
299.380096
 20
233.391622
 30
0.0
 40
57.2397061913
100
AcDbArc
 50
159.629519
 51
161.119695
  0
ARC
  5
4DA
330
1F
100
AcDbEntity
  8
02___PRT_ALL_AXES
  6
CONTINUOUS
 62
     7
100
AcDbCircle
 10
271.220078
 20
237.727684
 30
0.0
 40
3.5
100
AcDbArc
 50
34.508045
 51
42.49325
  0
ARC
  5
4DB
330
1F
100
AcDbEntity
  8
02___PRT_ALL_AXES
  6
CONTINUOUS
 62
     7
100
AcDbCircle
 10
271.220078
 20
237.727684
 30
0.0
 40
3.5
100
AcDbArc
 50
317.50675
 51
325.491955
  0
ARC
  5
4DC
330
1F
100
AcDbEntity
  8
02___PRT_ALL_AXES
  6
CONTINUOUS
 62
     7
100
AcDbCircle
 10
271.220078
 20
237.727684
 30
0.0
 40
3.5
100
AcDbArc
 50
348.675962
 51
11.324038
  0
ARC
  5
4DD
330
1F
100
AcDbEntity
  8
02___PRT_ALL_AXES
  6
CONTINUOUS
 62
     7
100
AcDbCircle
 10
271.220078
 20
237.727684
 30
0.0
 40
3.0
100
AcDbArc
 50
349.289833
 51
10.710167
  0
ARC
  5
4DE
330
1F
100
AcDbEntity
  8
3_ALL_AXES
  6
CONTINUOUS
 62
     7
100
AcDbCircle
 10
271.220078
 20
237.727684
 30
0.0
 40
2.8
100
AcDbArc
 50
349.59818
 51
10.40182
  0
ARC
  5
4DF
330
1F
100
AcDbEntity
  8
03___PRT_ALL_CURVES
  6
CONTINUOUS
 62
    40
100
AcDbCircle
 10
270.552399
 20
247.060004
 30
0.0
 40
0.2
100
AcDbArc
 50
315.0
 51
135.0
  0
ARC
  5
4E0
330
1F
100
AcDbEntity
  8
03___PRT_ALL_CURVES
  6
CONTINUOUS
 62
    40
100
AcDbCircle
 10
267.936103
 20
244.443709
 30
0.0
 40
0.2
100
AcDbArc
 50
135.0
 51
315.0
  0
ARC
  5
4E1
330
1F
100
AcDbEntity
  8
02___PRT_ALL_AXES
  6
CONTINUOUS
 62
     3
100
AcDbCircle
 10
84.254032
 20
128.794452
 30
0.0
 40
22.75
100
AcDbArc
 50
330.0
 51
30.0
  0
ARC
  5
4E2
330
1F
100
AcDbEntity
  8
02___PRT_ALL_AXES
  6
CONTINUOUS
 62
     3
100
AcDbCircle
 10
84.254032
 20
128.794452
 30
0.0
 40
22.75
100
AcDbArc
 50
150.0
 51
210.0
  0
ARC
  5
4E3
330
1F
100
AcDbEntity
  8
02___PRT_ALL_AXES
  6
CONTINUOUS
 62
     3
100
AcDbCircle
 10
84.254032
 20
128.794452
 30
0.0
 40
17.25
100
AcDbArc
 50
330.0
 51
30.0
  0
ARC
  5
4E4
330
1F
100
AcDbEntity
  8
02___PRT_ALL_AXES
  6
CONTINUOUS
 62
     3
100
AcDbCircle
 10
84.254032
 20
128.794452
 30
0.0
 40
17.25
100
AcDbArc
 50
150.0
 51
210.0
  0
CIRCLE
  5
4E5
330
1F
100
AcDbEntity
  8
02___PRT_ALL_AXES
  6
CONTINUOUS
 62
     3
100
AcDbCircle
 10
84.254032
 20
128.794452
 30
0.0
 40
8.6
  0
ARC
  5
4E6
330
1F
100
AcDbEntity
  8
3_ALL_AXES
  6
CONTINUOUS
 62
     7
100
AcDbCircle
 10
49.554032
 20
86.294452
 30
0.0
 40
4.4863682417
100
AcDbArc
 50
185.371721
 51
196.568438
  0
ARC
  5
4E7
330
1F
100
AcDbEntity
  8
3_ALL_AXES
  6
CONTINUOUS
 62
     7
100
AcDbCircle
 10
49.554032
 20
86.294452
 30
0.0
 40
4.4863682417
100
AcDbArc
 50
163.429465
 51
174.628279
  0
ARC
  5
4E8
330
1F
100
AcDbEntity
  8
02___PRT_ALL_AXES
  6
CONTINUOUS
 62
     3
100
AcDbCircle
 10
101.57454
 20
118.794452
 30
0.0
 40
2.75
100
AcDbArc
 50
150.0
 51
330.0
  0
ARC
  5
4E9
330
1F
100
AcDbEntity
  8
02___PRT_ALL_AXES
  6
CONTINUOUS
 62
     3
100
AcDbCircle
 10
101.57454
 20
138.794452
 30
0.0
 40
2.75
100
AcDbArc
 50
30.0
 51
210.0
  0
ARC
  5
4EA
330
1F
100
AcDbEntity
  8
02___PRT_ALL_AXES
  6
CONTINUOUS
 62
     3
100
AcDbCircle
 10
66.933524
 20
118.794452
 30
0.0
 40
2.75
100
AcDbArc
 50
210.0
 51
30.0
  0
ARC
  5
4EB
330
1F
100
AcDbEntity
  8
02___PRT_ALL_AXES
  6
CONTINUOUS
 62
     3
100
AcDbCircle
 10
66.933524
 20
138.794452
 30
0.0
 40
2.75
100
AcDbArc
 50
330.0
 51
150.0
  0
ARC
  5
4EC
330
1F
100
AcDbEntity
  8
7_ALL_FEATURES
  6
CONTINUOUS
 62
     7
100
AcDbCircle
 10
127.754032
 20
93.669654
 30
0.0
 40
2.0
100
AcDbArc
 50
338.749494
 51
360.0
  0
ARC
  5
4ED
330
1F
100
AcDbEntity
  8
7_ALL_FEATURES
  6
CONTINUOUS
 62
     7
100
AcDbCircle
 10
127.754032
 20
98.91925
 30
0.0
 40
2.0
100
AcDbArc
 50
0.0
 51
21.250506
  0
ARC
  5
4EE
330
1F
100
AcDbEntity
  8
7_ALL_FEATURES
  6
CONTINUOUS
 62
     7
100
AcDbCircle
 10
40.754032
 20
93.669654
 30
0.0
 40
2.0
100
AcDbArc
 50
180.0
 51
201.250506
  0
ARC
  5
4EF
330
1F
100
AcDbEntity
  8
7_ALL_FEATURES
  6
CONTINUOUS
 62
     7
100
AcDbCircle
 10
40.754032
 20
98.91925
 30
0.0
 40
2.0
100
AcDbArc
 50
158.749494
 51
180.0
  0
ARC
  5
4F0
330
1F
100
AcDbEntity
  8
7_ALL_FEATURES
  6
CONTINUOUS
 62
     7
100
AcDbCircle
 10
127.490982
 20
103.044452
 30
0.0
 40
0.75
100
AcDbArc
 50
21.250506
 51
90.0
  0
ARC
  5
4F1
330
1F
100
AcDbEntity
  8
7_ALL_FEATURES
  6
CONTINUOUS
 62
     7
100
AcDbCircle
 10
127.490982
 20
89.544452
 30
0.0
 40
0.75
100
AcDbArc
 50
270.0
 51
338.749494
  0
ARC
  5
4F2
330
1F
100
AcDbEntity
  8
7_ALL_FEATURES
  6
CONTINUOUS
 62
     7
100
AcDbCircle
 10
41.017083
 20
103.044452
 30
0.0
 40
0.75
100
AcDbArc
 50
90.0
 51
158.749494
  0
ARC
  5
4F3
330
1F
100
AcDbEntity
  8
7_ALL_FEATURES
  6
CONTINUOUS
 62
     7
100
AcDbCircle
 10
41.017083
 20
89.544452
 30
0.0
 40
0.75
100
AcDbArc
 50
201.250506
 51
270.0
  0
ARC
  5
4F4
330
1F
100
AcDbEntity
  8
7_ALL_FEATURES
  6
CONTINUOUS
 62
     7
100
AcDbCircle
 10
126.854032
 20
103.694452
 30
0.0
 40
0.1
100
AcDbArc
 50
90.0
 51
180.0
  0
ARC
  5
4F5
330
1F
100
AcDbEntity
  8
7_ALL_FEATURES
  6
CONTINUOUS
 62
     7
100
AcDbCircle
 10
126.854032
 20
88.894452
 30
0.0
 40
0.1
100
AcDbArc
 50
180.0
 51
270.0
  0
ARC
  5
4F6
330
1F
100
AcDbEntity
  8
7_ALL_FEATURES
  6
CONTINUOUS
 62
     7
100
AcDbCircle
 10
41.654032
 20
103.694452
 30
0.0
 40
0.1
100
AcDbArc
 50
0.0
 51
90.0
  0
ARC
  5
4F7
330
1F
100
AcDbEntity
  8
7_ALL_FEATURES
  6
CONTINUOUS
 62
     7
100
AcDbCircle
 10
41.654032
 20
88.894452
 30
0.0
 40
0.1
100
AcDbArc
 50
270.0
 51
360.0
  0
SPLINE
  5
4F8
330
1F
100
AcDbEntity
  8
0
  6
CONTINUOUS
 62
     2
100
AcDbSpline
 70
     0
 71
     3
 72
    33
 73
    29
 74
     0
 42
0.000000001
 43
0.0000001
 40
0.0
 40
0.0
 40
0.0
 40
0.0
 40
0.0384613509
 40
0.0769228969
 40
0.1153844428
 40
0.1538459888
 40
0.1923075348
 40
0.2307690807
 40
0.2692306267
 40
0.3076921727
 40
0.3461537186
 40
0.3846152646
 40
0.4230768106
 40
0.4615383565
 40
0.4999999025
 40
0.5384614484
 40
0.5769229944
 40
0.6153845404
 40
0.6538460863
 40
0.6923076323
 40
0.7307691783
 40
0.7692307242
 40
0.8076922702
 40
0.8461538161
 40
0.8846153621
 40
0.9230769081
 40
0.961538454
 40
1.0
 40
1.0
 40
1.0
 40
1.0
 10
257.2200778643
 20
195.7276835373
 30
0.0
 10
257.2200777792
 20
195.7276835211
 30
0.0
 10
257.2296733515
 20
195.7295128231
 30
0.0
 10
257.2727917214
 20
195.7377045214
 30
0.0
 10
257.3446168659
 20
195.7512550415
 30
0.0
 10
257.4448753322
 20
195.7699715642
 30
0.0
 10
257.573554585
 20
195.7936542995
 30
0.0
 10
257.7300466017
 20
195.8219413577
 30
0.0
 10
257.9143524093
 20
195.8545295247
 30
0.0
 10
258.125442297
 20
195.8908868403
 30
0.0
 10
258.3632794101
 20
195.9306099785
 30
0.0
 10
258.6263665743
 20
195.9730151485
 30
0.0
 10
258.914560515
 20
196.0176094329
 30
0.0
 10
259.2258984603
 20
196.0635963952
 30
0.0
 10
259.5600850099
 20
196.1104192608
 30
0.0
 10
259.9147502072
 20
196.1572270915
 30
0.0
 10
260.2894447417
 20
196.203440064
 30
0.0
 10
260.681507695
 20
196.2482218593
 30
0.0
 10
261.090370994
 20
196.2910169386
 30
0.0
 10
261.5132407525
 20
196.331070648
 30
0.0
 10
261.9494709428
 20
196.3678937292
 30
0.0
 10
262.3963099931
 20
196.4008657094
 30
0.0
 10
262.8530417173
 20
196.4295922216
 30
0.0
 10
263.3171101
 20
196.4536168718
 30
0.0
 10
263.7876752369
 20
196.4726563106
 30
0.0
 10
264.2625342088
 20
196.4864269088
 30
0.0
 10
264.740619578
 20
196.494770086
 30
0.0
 10
265.0602891759
 20
196.4966215289
 30
0.0
 10
265.2200778643
 20
196.4966272811
 30
0.0
  0
SPLINE
  5
4F9
330
1F
100
AcDbEntity
  8
0
  6
CONTINUOUS
 62
     2
100
AcDbSpline
 70
     0
 71
     3
 72
    33
 73
    29
 74
     0
 42
0.000000001
 43
0.0000001
 40
0.0
 40
0.0
 40
0.0
 40
0.0
 40
0.038461531
 40
0.0769230619
 40
0.1153845929
 40
0.1538461238
 40
0.1923076548
 40
0.2307691858
 40
0.2692307167
 40
0.3076922477
 40
0.3461537786
 40
0.3846153096
 40
0.4230768406
 40
0.4615383715
 40
0.4999999025
 40
0.5384614334
 40
0.5769229644
 40
0.6153844954
 40
0.6538460263
 40
0.6923075573
 40
0.7307690882
 40
0.7692306192
 40
0.8076921502
 40
0.8461536811
 40
0.8846152121
 40
0.923076743
 40
0.961538274
 40
1.0
 40
1.0
 40
1.0
 40
1.0
 10
265.2200778643
 20
196.4966272811
 30
0.0
 10
265.3798665268
 20
196.4966215252
 30
0.0
 10
265.699536025
 20
196.494770079
 30
0.0
 10
266.1776185882
 20
196.4864269785
 30
0.0
 10
266.6524797008
 20
196.4726563321
 30
0.0
 10
267.1230407675
 20
196.4536170962
 30
0.0
 10
267.5871126778
 20
196.4295922961
 30
0.0
 10
268.0438400027
 20
196.4008660997
 30
0.0
 10
268.4906828548
 20
196.3678938825
 30
0.0
 10
268.9269090777
 20
196.3310711739
 30
0.0
 10
269.3497822986
 20
196.2910171837
 30
0.0
 10
269.7586424975
 20
196.2482224626
 30
0.0
 10
270.1507081425
 20
196.2034404046
 30
0.0
 10
270.5254006686
 20
196.1572277086
 30
0.0
 10
270.8800675736
 20
196.1104196914
 30
0.0
 10
271.2142532862
 20
196.0635969664
 30
0.0
 10
271.5255918813
 20
196.017609939
 30
0.0
 10
271.8137861239
 20
195.973015626
 30
0.0
 10
272.0768729363
 20
195.930610535
 30
0.0
 10
272.3147113451
 20
195.8908871938
 30
0.0
 10
272.525800075
 20
195.8545300916
 30
0.0
 10
272.7101078883
 20
195.8219415794
 30
0.0
 10
272.866598307
 20
195.7936548168
 30
0.0
 10
272.9952798205
 20
195.7699716717
 30
0.0
 10
273.0955368098
 20
195.7512554263
 30
0.0
 10
273.1673638389
 20
195.737704554
 30
0.0
 10
273.2104817205
 20
195.7295129479
 30
0.0
 10
273.2200777792
 20
195.7276835534
 30
0.0
 10
273.2200778643
 20
195.7276835373
 30
0.0
  0
LINE
  5
4FA
330
1F
100
AcDbEntity
  8
7_ALL_FEATURES
  6
CONTINUOUS
 62
     7
100
AcDbLine
 10
282.020078
 20
237.84758
 30
0.0
 11
281.720078
 21
238.027043
 31
0.0
  0
LINE
  5
4FB
330
1F
100
AcDbEntity
  8
7_ALL_FEATURES
  6
CONTINUOUS
 62
     7
100
AcDbLine
 10
281.720078
 20
237.428324
 30
0.0
 11
282.020078
 21
237.607787
 31
0.0
  0
SPLINE
  5
4FC
330
1F
100
AcDbEntity
  8
3_ALL_AXES
  6
CONTINUOUS
 62
     7
100
AcDbSpline
 70
     0
 71
     3
 72
    14
 73
    10
 74
     0
 42
0.000000001
 43
0.0000001
 40
0.0
 40
0.0
 40
0.0
 40
0.0
 40
0.0250589468
 40
0.0826559513
 40
0.1745548443
 40
0.2980070129
 40
0.4483865415
 40
0.6200279619
 40
1.0
 40
1.0
 40
1.0
 40
1.0
 10
45.0873668352
 20
85.9444521691
 30
0.0
 10
45.0867768394
 20
85.9444521691
 30
0.0
 10
45.0857205415
 20
85.9421541702
 30
0.0
 10
45.0852404952
 20
85.9384856856
 30
0.0
 10
45.0846860047
 20
85.9318617621
 30
0.0
 10
45.0845990726
 20
85.923336201
 30
0.0
 10
45.0847830588
 20
85.9128170222
 30
0.0
 10
45.0855347952
 20
85.8963178498
 30
0.0
 10
45.0865293211
 20
85.8833590627
 30
0.0
 10
45.0873668352
 20
85.8744521691
 30
0.0
  0
SPLINE
  5
4FD
330
1F
100
AcDbEntity
  8
3_ALL_AXES
  6
CONTINUOUS
 62
     7
100
AcDbSpline
 70
     0
 71
     3
 72
    14
 73
    10
 74
     0
 42
0.000000001
 43
0.0000001
 40
0.0
 40
0.0
 40
0.0
 40
0.0
 40
0.3799786992
 40
0.5516243447
 40
0.7020031692
 40
0.8254525363
 40
0.9173468735
 40
0.9749416161
 40
1.0
 40
1.0
 40
1.0
 40
1.0
 10
45.0873668352
 20
86.7144521691
 30
0.0
 10
45.0865293063
 20
86.7055451182
 30
0.0
 10
45.0855347655
 20
86.6925860735
 30
0.0
 10
45.0847830356
 20
86.676086658
 30
0.0
 10
45.0845990727
 20
86.6655674625
 30
0.0
 10
45.0846860186
 20
86.6570420821
 30
0.0
 10
45.0852405352
 20
86.6504184107
 30
0.0
 10
45.0857205477
 20
86.6467500542
 30
0.0
 10
45.0867768525
 20
86.6444521691
 30
0.0
 10
45.0873668352
 20
86.6444521691
 30
0.0
  0
SPLINE
  5
4FE
330
1F
100
AcDbEntity
  8
7_ALL_FEATURES
  6
CONTINUOUS
 62
     7
100
AcDbSpline
 70
     0
 71
     3
 72
    14
 73
    10
 74
     0
 42
0.000000001
 43
0.0000001
 40
0.0
 40
0.0
 40
0.0
 40
0.0
 40
0.3824561161
 40
0.5346891655
 40
0.6621903078
 40
0.7670345453
 40
0.8530801342
 40
0.9272666321
 40
1.0
 40
1.0
 40
1.0
 40
1.0
 10
126.0436463055
 20
144.2944521691
 30
0.0
 10
126.0743057143
 20
144.2944521691
 30
0.0
 10
126.117278707
 20
144.2931000543
 30
0.0
 10
126.1698607441
 20
144.285399085
 30
0.0
 10
126.1998195846
 20
144.2778011879
 30
0.0
 10
126.2234732435
 20
144.2678707556
 30
0.0
 10
126.24096438
 20
144.255322003
 30
0.0
 10
126.2518800845
 20
144.2395919283
 30
0.0
 10
126.2540322581
 20
144.2276222883
 30
0.0
 10
126.2540322581
 20
144.2217916532
 30
0.0
  0
SPLINE
  5
4FF
330
1F
100
AcDbEntity
  8
7_ALL_FEATURES
  6
CONTINUOUS
 62
     7
100
AcDbSpline
 70
     0
 71
     3
 72
    14
 73
    10
 74
     0
 42
0.000000001
 43
0.0000001
 40
0.0
 40
0.0
 40
0.0
 40
0.0
 40
0.0727333678
 40
0.1469198656
 40
0.2329654546
 40
0.3378096922
 40
0.4653108344
 40
0.6175438834
 40
1.0
 40
1.0
 40
1.0
 40
1.0
 10
42.2540322581
 20
144.2217916532
 30
0.0
 10
42.2540322581
 20
144.2276222882
 30
0.0
 10
42.2561844316
 20
144.2395919283
 30
0.0
 10
42.2671001361
 20
144.255322003
 30
0.0
 10
42.2845912726
 20
144.2678707556
 30
0.0
 10
42.3082449315
 20
144.2778011879
 30
0.0
 10
42.338203772
 20
144.285399085
 30
0.0
 10
42.3907858091
 20
144.2931000543
 30
0.0
 10
42.4337588018
 20
144.2944521691
 30
0.0
 10
42.4644182106
 20
144.2944521691
 30
0.0
  0
LINE
  5
500
330
1F
100
AcDbEntity
  8
7_ALL_FEATURES
  6
CONTINUOUS
 62
     7
100
AcDbLine
 10
42.504494
 20
75.544257
 30
0.0
 11
42.255099
 21
75.794452
 31
0.0
  0
LINE
  5
501
330
1F
100
AcDbEntity
  8
7_ALL_FEATURES
  6
CONTINUOUS
 62
     7
100
AcDbLine
 10
125.95386
 20
75.494452
 30
0.0
 11
126.252965
 21
75.794452
 31
0.0
  0
SPLINE
  5
502
330
1F
100
AcDbEntity
  8
7_ALL_FEATURES
  6
CONTINUOUS
 62
     3
100
AcDbSpline
 70
     0
 71
     3
 72
    11
 73
     7
 74
     0
 42
0.000000001
 43
0.0000001
 40
0.0
 40
0.0
 40
0.0
 40
0.0
 40
0.410370945
 40
0.5726135781
 40
0.7070012053
 40
1.0
 40
1.0
 40
1.0
 40
1.0
 10
124.2262305681
 20
113.2944521691
 30
0.0
 10
124.2302855698
 20
113.2944521691
 30
0.0
 10
124.2358998063
 20
113.2943391212
 30
0.0
 10
124.2429646595
 20
113.2935523394
 30
0.0
 10
124.248351781
 20
113.2926275505
 30
0.0
 10
124.2540322581
 20
113.2904150799
 30
0.0
 10
124.2540322581
 20
113.2875198685
 30
0.0
  0
SPLINE
  5
503
330
1F
100
AcDbEntity
  8
7_ALL_FEATURES
  6
CONTINUOUS
 62
     3
100
AcDbSpline
 70
     0
 71
     3
 72
    11
 73
     7
 74
     0
 42
0.000000001
 43
0.0000001
 40
0.0
 40
0.0
 40
0.0
 40
0.0
 40
0.2929987955
 40
0.4273864222
 40
0.5896290551
 40
1.0
 40
1.0
 40
1.0
 40
1.0
 10
44.2540322581
 20
113.2875198685
 30
0.0
 10
44.2540322581
 20
113.2904150799
 30
0.0
 10
44.2597127351
 20
113.2926275505
 30
0.0
 10
44.2650998566
 20
113.2935523394
 30
0.0
 10
44.2721647099
 20
113.2943391212
 30
0.0
 10
44.2777789463
 20
113.2944521691
 30
0.0
 10
44.281833948
 20
113.2944521691
 30
0.0
  0
SPLINE
  5
504
330
1F
100
AcDbEntity
  8
7_ALL_FEATURES
  6
CONTINUOUS
 62
     3
100
AcDbSpline
 70
     0
 71
     3
 72
    16
 73
    12
 74
     0
 42
0.000000001
 43
0.0000001
 40
0.0
 40
0.0
 40
0.0
 40
0.0
 40
0.2144307578
 40
0.4012987252
 40
0.5606200799
 40
0.6927821756
 40
0.7987735942
 40
0.8808560593
 40
0.9441733028
 40
0.9721531236
 40
1.0
 40
1.0
 40
1.0
 40
1.0
 10
44.5530899149
 20
144.2944521691
 30
0.0
 10
44.5298791691
 20
144.2944521691
 30
0.0
 10
44.4864363848
 20
144.2938887153
 30
0.0
 10
44.425810811
 20
144.2908540753
 30
0.0
 10
44.3742658406
 20
144.2856226095
 30
0.0
 10
44.3318379158
 20
144.2781815095
 30
0.0
 10
44.2984578406
 20
144.2684257551
 30
0.0
 10
44.2738666123
 20
144.2563696236
 30
0.0
 10
44.2599360844
 20
144.2428891889
 30
0.0
 10
44.2548019126
 20
144.2308854175
 30
0.0
 10
44.2540322581
 20
144.2248058978
 30
0.0
 10
44.2540322581
 20
144.2217916532
 30
0.0
  0
SPLINE
  5
505
330
1F
100
AcDbEntity
  8
7_ALL_FEATURES
  6
CONTINUOUS
 62
     3
100
AcDbSpline
 70
     0
 71
     3
 72
    16
 73
    12
 74
     0
 42
0.000000001
 43
0.0000001
 40
0.0
 40
0.0
 40
0.0
 40
0.0
 40
0.0278468764
 40
0.0558266972
 40
0.1191439406
 40
0.2012264057
 40
0.3072178243
 40
0.4393799202
 40
0.5987012751
 40
0.7855692423
 40
1.0
 40
1.0
 40
1.0
 40
1.0
 10
124.2540322581
 20
144.2217916532
 30
0.0
 10
124.2540322581
 20
144.2248058978
 30
0.0
 10
124.2532626035
 20
144.2308854175
 30
0.0
 10
124.2481284317
 20
144.2428891889
 30
0.0
 10
124.2341979039
 20
144.2563696236
 30
0.0
 10
124.2096066755
 20
144.2684257551
 30
0.0
 10
124.1762266004
 20
144.2781815095
 30
0.0
 10
124.1337986755
 20
144.2856226095
 30
0.0
 10
124.082253705
 20
144.2908540753
 30
0.0
 10
124.0216281313
 20
144.2938887153
 30
0.0
 10
123.978185347
 20
144.2944521691
 30
0.0
 10
123.9549746012
 20
144.2944521691
 30
0.0
  0
ENDSEC
  0
SECTION
  2
OBJECTS
  0
DICTIONARY
  5
506
330
0
100
AcDbDictionary
  3
ACAD_GROUP
350
507
  3
ACAD_IMAGE_DICT
350
557
  3
ACAD_LAYOUT
350
52C
  3
ACAD_MATERIAL
350
548
  3
ACAD_MLEADERSTYLE
350
57D
  3
ACAD_MLINESTYLE
350
508
  3
ACAD_PLOTSETTINGS
350
556
  3
ACAD_SCALELIST
350
50A
  3
ACAD_VISUALSTYLE
350
52F
  3
ACDBHEADERROUNDTRIPXREC
350
55C
  3
ACDBVARIABLEDICTIONARY
350
57C
  3
HOST_DOC_SETTINGS
350
554
  3
MCS_STREAM_DICT
350
54E
  0
DICTIONARY
  5
583
330
8
100
AcDbDictionary
280
     1
  3
ACAD_XREC_ROUNDTRIP
360
584
  0
DICTIONARY
  5
507
102
{ACAD_REACTORS
330
506
102
}
330
506
100
AcDbDictionary
  0
DICTIONARY
  5
557
102
{ACAD_REACTORS
330
506
102
}
330
506
100
AcDbDictionary
  0
DICTIONARY
  5
52C
102
{ACAD_REACTORS
330
506
102
}
330
506
100
AcDbDictionary
  0
DICTIONARY
  5
548
102
{ACAD_REACTORS
330
506
102
}
330
506
100
AcDbDictionary
  3
BYBLOCK
350
54A
  3
BYLAYER
350
549
  3
GLOBAL
350
54B
  0
DICTIONARY
  5
57D
102
{ACAD_REACTORS
330
506
102
}
330
506
100
AcDbDictionary
  0
DICTIONARY
  5
508
102
{ACAD_REACTORS
330
506
102
}
330
506
100
AcDbDictionary
  3
STANDARD
350
509
  0
DICTIONARY
  5
556
102
{ACAD_REACTORS
330
506
102
}
330
506
100
AcDbDictionary
  0
DICTIONARY
  5
50A
102
{ACAD_REACTORS
330
506
102
}
330
506
100
AcDbDictionary
  3
A0
350
50B
  3
A1
350
50C
  3
A2
350
50D
  3
A3
350
50E
  3
A4
350
50F
  3
A5
350
510
  3
A6
350
511
  3
A7
350
512
  3
A8
350
513
  3
A9
350
514
  3
B0
350
515
  3
B1
350
516
  3
B2
350
517
  3
B3
350
518
  3
B4
350
519
  3
B5
350
51A
  3
B6
350
51B
  3
B7
350
51C
  3
B8
350
51D
  3
B9
350
51E
  3
C0
350
51F
  3
C1
350
520
  3
C2
350
521
  3
C3
350
522
  3
C4
350
523
  3
C5
350
524
  3
C6
350
525
  3
C7
350
526
  3
C8
350
527
  3
C9
350
528
  3
D0
350
529
  3
D1
350
52A
  3
D2
350
52B
  0
DICTIONARY
  5
52F
102
{ACAD_REACTORS
330
506
102
}
330
506
100
AcDbDictionary
  3
2DWIREFRAME
350
534
  3
BASIC
350
537
  3
BRIGHTEN
350
53B
  3
COLORCHANGE
350
53F
  3
CONCEPTUAL
350
539
  3
DIM
350
53A
  3
EDGECOLOROFF
350
542
  3
FACEPATTERN
350
53E
  3
FLAT
350
530
  3
FLATWITHEDGES
350
531
  3
GOURAUD
350
532
  3
GOURAUDWITHEDGES
350
533
  3
HIDDEN
350
536
  3
JITTEROFF
350
540
  3
LINEPATTERN
350
53D
  3
OVERHANGOFF
350
541
  3
REALISTIC
350
538
  3
SHADED
350
547
  3
SHADED_WITH_EDGES
350
546
  3
SHADES_OF_GRAY
350
543
  3
SKETCHY
350
544
  3
THICKEN
350
53C
  3
WIREFRAME
350
535
  3
X-RAY
350
545
  0
DICTIONARY
  5
55C
102
{ACAD_REACTORS
330
506
102
}
330
506
100
AcDbDictionary
  3
CEPSNTYPE
350
565
  3
DIMSTYLEDATA
350
57B
  3
FINGERPRINTGUID
350
566
  3
HYPERLINKBASE
350
55F
  3
INSUNITS
350
564
  3
LAYOUTDICT
350
561
  3
LWETCUNION
350
563
  3
PLOTSETDICT
350
562
  3
PSVPSCALE
350
568
  3
PUCSBASE
350
56B
  3
PUCSORGBACK
350
571
  3
PUCSORGBOTTOM
350
56D
  3
PUCSORGFRONT
350
570
  3
PUCSORGLEFT
350
56E
  3
PUCSORGRIGHT
350
56F
  3
PUCSORGTOP
350
56C
  3
PUCSORTHOREF
350
569
  3
PUCSORTHOVIEW
350
56A
  3
STYLESHEET
350
560
  3
TSTACKALIGN
350
55D
  3
TSTACKSIZE
350
55E
  3
UCSBASE
350
574
  3
UCSORGBACK
350
57A
  3
UCSORGBOTTOM
350
576
  3
UCSORGFRONT
350
579
  3
UCSORGLEFT
350
577
  3
UCSORGRIGHT
350
578
  3
UCSORGTOP
350
575
  3
UCSORTHOREF
350
572
  3
UCSORTHOVIEW
350
573
  3
VERSIONGUID
350
567
  0
DICTIONARY
  5
57C
102
{ACAD_REACTORS
330
506
102
}
330
506
100
AcDbDictionary
  3
CANNOSCALE
350
585
  3
DIMASSOC
350
581
  3
HIDETEXT
350
582
  3
MSLTSCALE
350
57E
  0
DICTIONARY
  5
554
102
{ACAD_REACTORS
330
506
102
}
330
506
100
AcDbDictionary
  3
NCDOCPARAMETERS
350
555
  0
DICTIONARY
  5
54E
102
{ACAD_REACTORS
330
506
102
}
330
506
100
AcDbDictionary
  3
MC_VERSION_DATA
350
55A
  3
MCS_DOCUMENT_ID
350
54F
  3
MCS_PARAMS_DATA
350
558
  0
XRECORD
  5
584
102
{ACAD_REACTORS
330
583
102
}
330
583
100
AcDbXrecord
102
VTR_0.000_0.000_1.000_1.000_GRIDDISPLAY
 70
     3
102
VTR_0.000_0.000_1.000_1.000_GRIDMAJOR
 70
     5
102
VTR_0.000_0.000_1.000_1.000_DEFAULTLIGHTING
280
     1
102
VTR_0.000_0.000_1.000_1.000_DEFAULTLIGHTINGTYPE
 70
     1
102
VTR_0.000_0.000_1.000_1.000_BRIGHTNESS
141
0.0
102
VTR_0.000_0.000_1.000_1.000_CONTRAST
142
0.0
  0
MATERIAL
  5
54A
102
{ACAD_REACTORS
330
548
102
}
102
{ACAD_XDICTIONARY
360
588
102
}
330
548
100
AcDbMaterial
  1
BYBLOCK
  0
MATERIAL
  5
549
102
{ACAD_REACTORS
330
548
102
}
102
{ACAD_XDICTIONARY
360
586
102
}
330
548
100
AcDbMaterial
  1
BYLAYER
  0
MATERIAL
  5
54B
102
{ACAD_REACTORS
330
548
102
}
102
{ACAD_XDICTIONARY
360
58A
102
}
330
548
100
AcDbMaterial
  1
GLOBAL
  0
MLINESTYLE
  5
509
102
{ACAD_REACTORS
330
508
102
}
330
508
100
AcDbMlineStyle
  2
STANDARD
 70
     0
  3

 62
   256
 51
90.0
 52
90.0
 71
     2
 49
0.5
 62
   256
  6
BYLAYER
 49
-0.5
 62
   256
  6
BYLAYER
  0
ACAD_PROXY_OBJECT
  5
50B
102
{ACAD_REACTORS
330
50A
102
}
330
50A
100
AcDbProxyObject
 90
      499
 91
      500
 93
       41
310
903313A31580
  0
ACAD_PROXY_OBJECT
  5
50C
102
{ACAD_REACTORS
330
50A
102
}
330
50A
100
AcDbProxyObject
 90
      499
 91
      500
 93
      105
310
903313A324000000000000004000
  0
ACAD_PROXY_OBJECT
  5
50D
102
{ACAD_REACTORS
330
50A
102
}
330
50A
100
AcDbProxyObject
 90
      499
 91
      500
 93
      105
310
903313A344000000000000104000
  0
ACAD_PROXY_OBJECT
  5
50E
102
{ACAD_REACTORS
330
50A
102
}
330
50A
100
AcDbProxyObject
 90
      499
 91
      500
 93
      105
310
903313A354000000000000144000
  0
ACAD_PROXY_OBJECT
  5
50F
102
{ACAD_REACTORS
330
50A
102
}
330
50A
100
AcDbProxyObject
 90
      499
 91
      500
 93
      105
310
903313A384000000000000204000
  0
ACAD_PROXY_OBJECT
  5
510
102
{ACAD_REACTORS
330
50A
102
}
330
50A
100
AcDbProxyObject
 90
      499
 91
      500
 93
      113
310
904313A31304000000000000244000
  0
ACAD_PROXY_OBJECT
  5
511
102
{ACAD_REACTORS
330
50A
102
}
330
50A
100
AcDbProxyObject
 90
      499
 91
      500
 93
      113
310
904313A31364000000000000304000
  0
ACAD_PROXY_OBJECT
  5
512
102
{ACAD_REACTORS
330
50A
102
}
330
50A
100
AcDbProxyObject
 90
      499
 91
      500
 93
      113
310
904313A32304000000000000344000
  0
ACAD_PROXY_OBJECT
  5
513
102
{ACAD_REACTORS
330
50A
102
}
330
50A
100
AcDbProxyObject
 90
      499
 91
      500
 93
      113
310
904313A333040000000000003E4000
  0
ACAD_PROXY_OBJECT
  5
514
102
{ACAD_REACTORS
330
50A
102
}
330
50A
100
AcDbProxyObject
 90
      499
 91
      500
 93
      113
310
904313A34304000000000000444000
  0
ACAD_PROXY_OBJECT
  5
515
102
{ACAD_REACTORS
330
50A
102
}
330
50A
100
AcDbProxyObject
 90
      499
 91
      500
 93
      113
310
904313A35304000000000000494000
  0
ACAD_PROXY_OBJECT
  5
516
102
{ACAD_REACTORS
330
50A
102
}
330
50A
100
AcDbProxyObject
 90
      499
 91
      500
 93
      121
310
905313A3130304000000000000594000
  0
ACAD_PROXY_OBJECT
  5
517
102
{ACAD_REACTORS
330
50A
102
}
330
50A
100
AcDbProxyObject
 90
      499
 91
      500
 93
      105
310
903323A310000000000000010100
  0
ACAD_PROXY_OBJECT
  5
518
102
{ACAD_REACTORS
330
50A
102
}
330
50A
100
AcDbProxyObject
 90
      499
 91
      500
 93
      105
310
903343A310000000000000410100
  0
ACAD_PROXY_OBJECT
  5
519
102
{ACAD_REACTORS
330
50A
102
}
330
50A
100
AcDbProxyObject
 90
      499
 91
      500
 93
      105
310
903383A310000000000000810100
  0
ACAD_PROXY_OBJECT
  5
51A
102
{ACAD_REACTORS
330
50A
102
}
330
50A
100
AcDbProxyObject
 90
      499
 91
      500
 93
      113
310
90431303A310000000000000910100
  0
ACAD_PROXY_OBJECT
  5
51B
102
{ACAD_REACTORS
330
50A
102
}
330
50A
100
AcDbProxyObject
 90
      499
 91
      500
 93
      121
310
9053130303A310000000000001650100
  0
ACAD_PROXY_OBJECT
  5
51C
102
{ACAD_REACTORS
330
50A
102
}
330
50A
100
AcDbProxyObject
 90
      499
 91
      500
 93
      257
310
90E312F31323822203D2031272D3022000000000000200FC000000000000284000
  0
ACAD_PROXY_OBJECT
  5
51D
102
{ACAD_REACTORS
330
50A
102
}
330
50A
100
AcDbProxyObject
 90
      499
 91
      500
 93
      249
310
90D312F363422203D2031272D3022000000000000240FC000000000000284000
  0
ACAD_PROXY_OBJECT
  5
51E
102
{ACAD_REACTORS
330
50A
102
}
330
50A
100
AcDbProxyObject
 90
      499
 91
      500
 93
      249
310
90D312F333222203D2031272D3022000000000000280FC000000000000284000
  0
ACAD_PROXY_OBJECT
  5
51F
102
{ACAD_REACTORS
330
50A
102
}
330
50A
100
AcDbProxyObject
 90
      499
 91
      500
 93
      249
310
90D312F313622203D2031272D30220000000000002C0FC000000000000284000
  0
ACAD_PROXY_OBJECT
  5
520
102
{ACAD_REACTORS
330
50A
102
}
330
50A
100
AcDbProxyObject
 90
      499
 91
      500
 93
      249
310
90D332F333222203D2031272D30220000000000002E0FC000000000000284000
  0
ACAD_PROXY_OBJECT
  5
521
102
{ACAD_REACTORS
330
50A
102
}
330
50A
100
AcDbProxyObject
 90
      499
 91
      500
 93
      241
310
90C312F3822203D2031272D3022000000000000300FC000000000000284000
  0
ACAD_PROXY_OBJECT
  5
522
102
{ACAD_REACTORS
330
50A
102
}
330
50A
100
AcDbProxyObject
 90
      499
 91
      500
 93
      249
310
90D332F313622203D2031272D3022000000000000320FC000000000000284000
  0
ACAD_PROXY_OBJECT
  5
523
102
{ACAD_REACTORS
330
50A
102
}
330
50A
100
AcDbProxyObject
 90
      499
 91
      500
 93
      241
310
90C312F3422203D2031272D3022000000000000340FC000000000000284000
  0
ACAD_PROXY_OBJECT
  5
524
102
{ACAD_REACTORS
330
50A
102
}
330
50A
100
AcDbProxyObject
 90
      499
 91
      500
 93
      241
310
90C332F3822203D2031272D3022000000000000360FC000000000000284000
  0
ACAD_PROXY_OBJECT
  5
525
102
{ACAD_REACTORS
330
50A
102
}
330
50A
100
AcDbProxyObject
 90
      499
 91
      500
 93
      241
310
90C312F3222203D2031272D3022000000000000380FC000000000000284000
  0
ACAD_PROXY_OBJECT
  5
526
102
{ACAD_REACTORS
330
50A
102
}
330
50A
100
AcDbProxyObject
 90
      499
 91
      500
 93
      241
310
90C332F3422203D2031272D30220000000000003A0FC000000000000284000
  0
ACAD_PROXY_OBJECT
  5
527
102
{ACAD_REACTORS
330
50A
102
}
330
50A
100
AcDbProxyObject
 90
      499
 91
      500
 93
      161
310
90A3122203D2031272D30224000000000000284000
  0
ACAD_PROXY_OBJECT
  5
528
102
{ACAD_REACTORS
330
50A
102
}
330
50A
100
AcDbProxyObject
 90
      499
 91
      500
 93
      257
310
90E312D312F3222203D2031272D30220000000000003E0FC000000000000284000
  0
ACAD_PROXY_OBJECT
  5
529
102
{ACAD_REACTORS
330
50A
102
}
330
50A
100
AcDbProxyObject
 90
      499
 91
      500
 93
      225
310
90A3322203D2031272D302200000000000002100000000000000284000
  0
ACAD_PROXY_OBJECT
  5
52A
102
{ACAD_REACTORS
330
50A
102
}
330
50A
100
AcDbProxyObject
 90
      499
 91
      500
 93
      225
310
90A3622203D2031272D302200000000000006100000000000000284000
  0
ACAD_PROXY_OBJECT
  5
52B
102
{ACAD_REACTORS
330
50A
102
}
330
50A
100
AcDbProxyObject
 90
      499
 91
      500
 93
      249
310
90D31272D3022203D2031272D30220000000000000A100000000000000284000
  0
ACAD_PROXY_OBJECT
  5
534
102
{ACAD_REACTORS
330
52F
102
}
330
52F
100
AcDbProxyObject
 90
      499
 91
      501
 93
      436
310
42CC9915DA5C99599C985B595049028333333333333E33F0000000000000F90107901411070040501600405405064090741402480A0340
1001
ACAD
1000
AcDbSavedByObjectVersion
1070
     0
  0
ACAD_PROXY_OBJECT
  5
537
102
{ACAD_REACTORS
330
52F
102
}
330
52F
100
AcDbProxyObject
 90
      499
 91
      501
 93
      388
310
4150985CDA58D07406404333333333333E33F0000000000000F90107A41107004050150841D405064090741402480A0350
1001
ACAD
1000
AcDbSavedByObjectVersion
1070
     0
  0
ACAD_PROXY_OBJECT
  5
53B
102
{ACAD_REACTORS
330
52F
102
}
330
52F
100
AcDbProxyObject
 90
      499
 91
      501
 93
      428
310
42109C9A59DA1D195B90C409028333333333333E33F0000000000000F9010790141107004050150841D405064090741402480A029950
1001
ACAD
1000
AcDbSavedByObjectVersion
1070
     0
  0
ACAD_PROXY_OBJECT
  5
53F
102
{ACAD_REACTORS
330
52F
102
}
330
52F
100
AcDbProxyObject
 90
      499
 91
      501
 93
      452
310
42D0DBDB1BDC90DA185B99D95104090240C333333333333E33F0000000000000F90108901411070040501508421405064090741402480A0350
1001
ACAD
1000
AcDbSavedByObjectVersion
1070
     0
  0
ACAD_PROXY_OBJECT
  5
539
102
{ACAD_REACTORS
330
52F
102
}
330
52F
100
AcDbProxyObject
 90
      499
 91
      501
 93
      500
310
4290DBDB98D95C1D1D585B10940D028333333333333E33F0000000000000F90107902409070040501000000000018199010841D405064090740C02480A0340
1001
ACAD
1000
AcDbSavedByObjectVersion
1070
     0
  0
ACAD_PROXY_OBJECT
  5
53A
102
{ACAD_REACTORS
330
52F
102
}
330
52F
100
AcDbProxyObject
 90
      499
 91
      501
 93
      412
310
40D11A5B50B409028333333333333E33F0000000000000F9010790141107004050150841D405064090741402480A02677FFFFFD0
1001
ACAD
1000
AcDbSavedByObjectVersion
1070
     0
  0
ACAD_PROXY_OBJECT
  5
542
102
{ACAD_REACTORS
330
52F
102
}
330
52F
100
AcDbProxyObject
 90
      499
 91
      501
 93
      452
310
43115919D950DBDB1BDC93D999916409028333333333333E33F0000000000000F9010790141107004050150841D405064090741402480A0350
1001
ACAD
1000
AcDbSavedByObjectVersion
1070
     0
  0
ACAD_PROXY_OBJECT
  5
53E
102
{ACAD_REACTORS
330
52F
102
}
330
52F
100
AcDbProxyObject
 90
      499
 91
      501
 93
      444
310
42D19858D95C185D1D195C9B90F409028333333333333E33F0000000000000F9010790141107004050150841D405064090741402480A0350
1001
ACAD
1000
AcDbSavedByObjectVersion
1070
     0
  0
ACAD_PROXY_OBJECT
  5
530
102
{ACAD_REACTORS
330
52F
102
}
330
52F
100
AcDbProxyObject
 90
      499
 91
      501
 93
      380
310
41119B185D240901404333333333333E33F0000000000000F9010740A907004050150841D405064090741402480A1B50
1001
ACAD
1000
AcDbSavedByObjectVersion
1070
     0
  0
ACAD_PROXY_OBJECT
  5
531
102
{ACAD_REACTORS
330
52F
102
}
330
52F
100
AcDbProxyObject
 90
      499
 91
      501
 93
      468
310
43519B185D15DA5D1A115919D95CD0140901404333333333333E33F0000000000000F90107409019070040501600405405064090741402480A1B50
1001
ACAD
1000
AcDbSavedByObjectVersion
1070
     0
  0
ACAD_PROXY_OBJECT
  5
532
102
{ACAD_REACTORS
330
52F
102
}
330
52F
100
AcDbProxyObject
 90
      499
 91
      501
 93
      404
310
41D1DBDD5C985D5910240902404333333333333E33F0000000000000F9010740A9070040501641D405064090741402480A1B50
1001
ACAD
1000
AcDbSavedByObjectVersion
1070
     0
  0
ACAD_PROXY_OBJECT
  5
533
102
{ACAD_REACTORS
330
52F
102
}
330
52F
100
AcDbProxyObject
 90
      499
 91
      501
 93
      492
310
4411DBDD5C985D5915DA5D1A115919D95CD0340902404333333333333E33F0000000000000F90107409019070040501600405405064090741402480A1B50
1001
ACAD
1000
AcDbSavedByObjectVersion
1070
     0
  0
ACAD_PROXY_OBJECT
  5
536
102
{ACAD_REACTORS
330
52F
102
}
330
52F
100
AcDbProxyObject
 90
      499
 91
      501
 93
      476
310
41921A5919195B90640502408333333333333E33F0000000000000F901079024090700405020000000000001110200405405064090740C02480A0340
1001
ACAD
1000
AcDbSavedByObjectVersion
1070
     0
  0
ACAD_PROXY_OBJECT
  5
540
102
{ACAD_REACTORS
330
52F
102
}
330
52F
100
AcDbProxyObject
 90
      499
 91
      501
 93
      428
310
42529A5D1D195C93D999914409028333333333333E33F0000000000000F9010790141107004050150A41D405064090741402480A0350
1001
ACAD
1000
AcDbSavedByObjectVersion
1070
     0
  0
ACAD_PROXY_OBJECT
  5
53D
102
{ACAD_REACTORS
330
52F
102
}
330
52F
100
AcDbProxyObject
 90
      499
 91
      501
 93
      444
310
42D31A5B995C185D1D195C9B90E409028333333333333E33F0000000000000F9010790141107004050750841D405064090741402483A0350
1001
ACAD
1000
AcDbSavedByObjectVersion
1070
     0
  0
ACAD_PROXY_OBJECT
  5
541
102
{ACAD_REACTORS
330
52F
102
}
330
52F
100
AcDbProxyObject
 90
      499
 91
      501
 93
      444
310
42D3DD995C9A185B99D3D999915409028333333333333E33F0000000000000F9010790141107004050150941D405064090741402480A0350
1001
ACAD
1000
AcDbSavedByObjectVersion
1070
     0
  0
ACAD_PROXY_OBJECT
  5
538
102
{ACAD_REACTORS
330
52F
102
}
330
52F
100
AcDbProxyObject
 90
      499
 91
      501
 93
      428
310
425499585B1A5CDD1A58D08409038333333333333E33F0000000000000F9010740A907004050150800405405064090740C02480A1B40
1001
ACAD
1000
AcDbSavedByObjectVersion
1070
     0
  0
ACAD_PROXY_OBJECT
  5
547
102
{ACAD_REACTORS
330
52F
102
}
330
52F
100
AcDbProxyObject
 90
      499
 91
      501
 93
      420
310
4194DA1859195911B40902404333333333333E33F0000000000000F9010740A41107004050150800405405064090840C02480A0B40
1001
ACAD
1000
AcDbSavedByObjectVersion
1070
     0
  0
ACAD_PROXY_OBJECT
  5
546
102
{ACAD_REACTORS
330
52F
102
}
330
52F
100
AcDbProxyObject
 90
      499
 91
      501
 93
      516
310
4454DA18591959081DDA5D1A08195919D95CD1A40902404333333333333E33F0000000000000F901074090142907004050250800405405064090740C02480A0B40
1001
ACAD
1000
AcDbSavedByObjectVersion
1070
     0
  0
ACAD_PROXY_OBJECT
  5
543
102
{ACAD_REACTORS
330
52F
102
}
330
52F
100
AcDbProxyObject
 90
      499
 91
      501
 93
      532
310
4394DA1859195CC81BD98811DC985E5174090240C333333333333E33F0000000000000F901079024090741D01000000000000111010841D405064090740C02480A0340
1001
ACAD
1000
AcDbSavedByObjectVersion
1070
     0
  0
ACAD_PROXY_OBJECT
  5
544
102
{ACAD_REACTORS
330
52F
102
}
330
52F
100
AcDbProxyObject
 90
      499
 91
      501
 93
      476
310
41D4DAD95D18DA1E51840502408333333333333E33F0000000000000F901079024090741D01000000000000111010B41D405064090741802480A0340
1001
ACAD
1000
AcDbSavedByObjectVersion
1070
     0
  0
ACAD_PROXY_OBJECT
  5
53C
102
{ACAD_REACTORS
330
52F
102
}
330
52F
100
AcDbProxyObject
 90
      499
 91
      501
 93
      412
310
41D51A1A58DAD95B90D409028333333333333E33F0000000000000F9010790141107004050150C41D405064090741402480A0350
1001
ACAD
1000
AcDbSavedByObjectVersion
1070
     0
  0
ACAD_PROXY_OBJECT
  5
535
102
{ACAD_REACTORS
330
52F
102
}
330
52F
100
AcDbProxyObject
 90
      499
 91
      501
 93
      420
310
4255DA5C99599C985B595059028333333333333E33F0000000000000F90107901411070040501600405405064090740C02480A0340
1001
ACAD
1000
AcDbSavedByObjectVersion
1070
     0
  0
ACAD_PROXY_OBJECT
  5
545
102
{ACAD_REACTORS
330
52F
102
}
330
52F
100
AcDbProxyObject
 90
      499
 91
      501
 93
      404
310
41560B54985E51940902404000000000000E03F0000000000000F9010740501907004050150841D405064090740C02480A1B40
1001
ACAD
1000
AcDbSavedByObjectVersion
1070
     0
  0
XRECORD
  5
565
102
{ACAD_REACTORS
330
55C
102
}
330
55C
100
AcDbXrecord
 90
        0
  0
XRECORD
  5
57B
102
{ACAD_REACTORS
330
55C
102
}
330
55C
100
AcDbXrecord
1000
DSTYLE
1002
{
1070
   171
 70
     2
1070
   143
 40
25.4
1070
   274
 70
     2
1070
   342
340
223
1070
   141
 40
3.78
1070
   271
 70
     4
1070
    43
 40
15.96
1070
   278
 70
    46
1070
    44
 40
0.75
1070
    42
 40
0.75
1070
    77
 70
     0
1070
   272
 70
     4
1070
    73
 70
     1
1070
    48
 40
0.01
1070
   279
 70
     2
1070
   172
 70
     0
1070
    74
 70
     1
1070
    71
 70
     1
1070
   283
 70
     1
1070
    47
 40
0.01
1070
   340
340
11
1070
   140
 40
3.0
1070
   284
 70
     0
1070
    78
 70
     0
1002
}
  0
XRECORD
  5
566
102
{ACAD_REACTORS
330
55C
102
}
330
55C
100
AcDbXrecord
  1
{1B5C4F73-CD97-4106-838F-C7B6AFEAC09D}
  0
XRECORD
  5
55F
102
{ACAD_REACTORS
330
55C
102
}
330
55C
100
AcDbXrecord
  1

  0
XRECORD
  5
564
102
{ACAD_REACTORS
330
55C
102
}
330
55C
100
AcDbXrecord
 90
        0
  0
XRECORD
  5
561
102
{ACAD_REACTORS
330
55C
102
}
330
55C
100
AcDbXrecord
340
52C
  0
XRECORD
  5
563
102
{ACAD_REACTORS
330
55C
102
}
330
55C
100
AcDbXrecord
 90
    10781
  0
XRECORD
  5
562
102
{ACAD_REACTORS
330
55C
102
}
330
55C
100
AcDbXrecord
340
556
  0
XRECORD
  5
568
102
{ACAD_REACTORS
330
55C
102
}
330
55C
100
AcDbXrecord
 40
0.0
  0
XRECORD
  5
56B
102
{ACAD_REACTORS
330
55C
102
}
330
55C
100
AcDbXrecord
340
0
  0
XRECORD
  5
571
102
{ACAD_REACTORS
330
55C
102
}
330
55C
100
AcDbXrecord
 10
0.0
 20
0.0
 30
0.0
  0
XRECORD
  5
56D
102
{ACAD_REACTORS
330
55C
102
}
330
55C
100
AcDbXrecord
 10
0.0
 20
0.0
 30
0.0
  0
XRECORD
  5
570
102
{ACAD_REACTORS
330
55C
102
}
330
55C
100
AcDbXrecord
 10
0.0
 20
0.0
 30
0.0
  0
XRECORD
  5
56E
102
{ACAD_REACTORS
330
55C
102
}
330
55C
100
AcDbXrecord
 10
0.0
 20
0.0
 30
0.0
  0
XRECORD
  5
56F
102
{ACAD_REACTORS
330
55C
102
}
330
55C
100
AcDbXrecord
 10
0.0
 20
0.0
 30
0.0
  0
XRECORD
  5
56C
102
{ACAD_REACTORS
330
55C
102
}
330
55C
100
AcDbXrecord
 10
0.0
 20
0.0
 30
0.0
  0
XRECORD
  5
569
102
{ACAD_REACTORS
330
55C
102
}
330
55C
100
AcDbXrecord
340
0
  0
XRECORD
  5
56A
102
{ACAD_REACTORS
330
55C
102
}
330
55C
100
AcDbXrecord
 70
     0
  0
XRECORD
  5
560
102
{ACAD_REACTORS
330
55C
102
}
330
55C
100
AcDbXrecord
  1

  0
XRECORD
  5
55D
102
{ACAD_REACTORS
330
55C
102
}
330
55C
100
AcDbXrecord
 90
        1
  0
XRECORD
  5
55E
102
{ACAD_REACTORS
330
55C
102
}
330
55C
100
AcDbXrecord
 90
       70
  0
XRECORD
  5
574
102
{ACAD_REACTORS
330
55C
102
}
330
55C
100
AcDbXrecord
340
0
  0
XRECORD
  5
57A
102
{ACAD_REACTORS
330
55C
102
}
330
55C
100
AcDbXrecord
 10
0.0
 20
0.0
 30
0.0
  0
XRECORD
  5
576
102
{ACAD_REACTORS
330
55C
102
}
330
55C
100
AcDbXrecord
 10
0.0
 20
0.0
 30
0.0
  0
XRECORD
  5
579
102
{ACAD_REACTORS
330
55C
102
}
330
55C
100
AcDbXrecord
 10
0.0
 20
0.0
 30
0.0
  0
XRECORD
  5
577
102
{ACAD_REACTORS
330
55C
102
}
330
55C
100
AcDbXrecord
 10
0.0
 20
0.0
 30
0.0
  0
XRECORD
  5
578
102
{ACAD_REACTORS
330
55C
102
}
330
55C
100
AcDbXrecord
 10
0.0
 20
0.0
 30
0.0
  0
XRECORD
  5
575
102
{ACAD_REACTORS
330
55C
102
}
330
55C
100
AcDbXrecord
 10
0.0
 20
0.0
 30
0.0
  0
XRECORD
  5
572
102
{ACAD_REACTORS
330
55C
102
}
330
55C
100
AcDbXrecord
340
0
  0
XRECORD
  5
573
102
{ACAD_REACTORS
330
55C
102
}
330
55C
100
AcDbXrecord
 70
     0
  0
XRECORD
  5
567
102
{ACAD_REACTORS
330
55C
102
}
330
55C
100
AcDbXrecord
  1
{FAEB1C32-E019-11D5-929B-00C0DF256EC4}
  0
DICTIONARYVAR
  5
585
102
{ACAD_REACTORS
330
57C
102
}
330
57C
100
DictionaryVariables
280
     0
  1
1:1
  0
DICTIONARYVAR
  5
581
102
{ACAD_REACTORS
330
57C
102
}
330
57C
100
DictionaryVariables
280
     0
  1
2
  0
DICTIONARYVAR
  5
582
102
{ACAD_REACTORS
330
57C
102
}
330
57C
100
DictionaryVariables
280
     0
  1
1
  0
DICTIONARYVAR
  5
57E
102
{ACAD_REACTORS
330
57C
102
}
330
57C
100
DictionaryVariables
280
     0
  1
0
  0
CSACDOCUMENTOPTIONS
  5
555
102
{ACAD_REACTORS
330
554
102
}
330
554
  0
XRECORD
  5
55A
102
{ACAD_REACTORS
330
54E
102
}
330
54E
100
AcDbXrecord
300
MC_VERSION_DATA
 90
       95
310
0600000002000000570000001C000000E404000000000000000000007801936764E5D8CF7A8393818115C460606066E0646662626666706006F214793899F8DE3171E725E6E53B3BBA2878E6951050AF75FEFFFFFF520032DE0F3057000000
  0
XRECORD
  5
54F
102
{ACAD_REACTORS
330
54E
102
}
330
54E
100
AcDbXrecord
300
MCS_DOCUMENT_ID
 90
       61
310
0600000002000000150000001C000000E404000000000000000000007801E39D2AAABAFFE8CA52BFCD9327E79FDDB228F83F10000071440C8715000000
  0
XRECORD
  5
558
102
{ACAD_REACTORS
330
54E
102
}
330
54E
100
AcDbXrecord
300
MCS_PARAMS_DATA
 90
     3313
310
0600000002000000F64B00001C000000E404000000000000000000007801C55C5B905C45199EE99EBDCCE67E5DA218172C303B91307B4B8C459531245054850D55591F78B236BB49B9BAC9E6B22A082A9655BE5865596569A965F9209288CF16503EC8834088C10B092404211702988430422E9084CDAEFFD7A7FBF4DFA7CF
310
D9D99D9D39930798FF3F7DCEF7DFFAFBBBFBCC6CDBFC46297252EECB48F9CDF5ED5234493921A5206D76815820B252E4F3225F128D7D5F59BF69E3162948D9A2D485B3131313747328BF06593E960915079422437734AA3BDAA5CCD053F5ED4FD2557D257BAB94DF007A03479F859BB2B22193C9108EC1CDCADC0464C27506
310
28605703E48886E0B986E10F03BF91E33707F8E3140E7A9091C8268236920C1C662240B94888A1C8E07600AE99C32D5131CA8B3925D172EFE62D7D6D9DABBA8ADDD6F17CE16D13F0457AE8AC9268DE32DABF73B07FCFA013F9BF8491D7C17E2550D8E8FFCA8DFE4E98B3929B331718B291824FFF72EB941D9E8E2211D5A93C
310
784A44C557923911258BD0C8640531AEEC61A924855B11378280384364A422680C0A928DB9C10CD89D581114199665B722B26E4590C82B0222AB08FAA8A60626C028E0044F81BA246F5360E167F2D27C56A10E05C058C13C59DEC6207679103AFC5DEADF992F2B284F67B31C8EE359B64A9665A62453228F64269D98455E3B
310
A4B35817F7EC92C86FB8EFFE8DBD5BEEDBDCAB0CD3B5FC8E99065A7E55D536E39DE7826237F1C8BBBCB3CFADFC93302087C80397EE69C2FF69CA32234F0763E41851010DA578E8294D435524988818E84710A7B2643B4F7C034F6CE5C9368F203BE8094C6268541D70D35EE4B585DAE170F4942EB8D2D422560A9917F34B62
310
CE86919D9F1F6DDBB36DD770FFC0B6BC682E898607BEB5737424F8D83B323AF07529CFC0B69BB96D9FD3CFF9B410ED79B1A42416161FEA29AEEDEEEC5ADF532C76DEF3C5AEEEB5CAECF97A60330D2C1C3579EAD0DA7621F20269BD6768746FDBF0D0DE51F3B0EE356B3ABBD6F474F7740D76770EACED08FCFC92BEAF13F701
310
B5AF7FEBF0B6B691ED6D7D23C3DBF6F4EF840FDA9AD583C58E81E240FFEAADDD5BD70EAC0E669D2A25F27FB610851F9335859F059541B9E5971EC7A5A7E83F2CE53DB9A4040555A2661A4DDBF2C560B2E54E7D5483931EF871F7C88E5DFDA3435B878687461F6EDB313248FE3596847C70DBDEBC682809D13B22E56A5856E4
310
E9998738519B6E2A89DCE6EDDBDB542AF4E4380F8F61A4965F57116093E5A052A06AF588670205D9A715FB49B140D81A90855F902680EBB8B3A3187EEA96F2B224E392BAF898328CB1AD47DA34C1601A1B421AD816D190715CC3F276A5DE067C546F03AED6DB808FEB6DC0B57A1BB00853B49EB3E0937A47E07ABD0D188301
310
71CB797197D3603B1D06BFCB6DB024827C0C834324E60945463B3712E196397079076E990B47228783C8E09631B8F129C211385B3E540C97413DC70673C524DEAD70BD23917B079179B782793791AE77D944EFDCDC5529988B13E1069D6092C472A7F777A6F648E4C184C88239C8822913E16AE29D48176E29E0727C316496
310
EF2A967C95165E504B0C2B218EEE82DD5C63513CD614C5091F6D6FA7551865CC5C5030A1E0A3E84BEC86CFD04EC5DD01AA74CBDB05AB8C403295A124BB2908C4B032B4682A032283FB103E391B4E03172C7199C4E0F88E871E8855ADA1482D3238FA1846E0B807A77785BFF935FE1D74369F5647D0D171CA5F4F09337C2559
310
105132935A503D6DBC7A94B54D2B6DF1E0339960F436A97441791E5EC104D40283580888C4FDED577B1FD8B4B9AF6FE30605D8AAD7F1F34A62F6DD5BBEC62E92057A31FEA25A9DB3F5FBD3C1729D9CD723B0BF0DE8402BB05A67160DDE4416E59079C0D9EAA575B7321F67115FC018C76AB5B3A33D06B68CBD9BFBDC93C073
310
800CC384FD360C544F539B6F02B1820953BE9D01DE01C0D85A6C50369A5AC4065C7760793B965800321749E4B50891C0C2AB0CAE9808178444974C70F875952A9381563C01BE9D08EAFA481283ABD8C7EF7870DAABE068E68833DFAC8EA0A3E3F87C0B07AA507B2311F0889285BDC333294C4E2DB27C67BA70ABD2857B688A
310
70552AA7873DB8489E55063D5D2DCBE9BB9E49F1E554A5083C922EDCA3E9C27D2F5DB8EF7B705EE9D87E1E920E88313AAE6AECF4FBD668D3D30DB4E51ADA9BEDB0D7AFCEB4DDED85F7C4ECF6551B3BCE2AFF6E835E49458EC94883D6E73C45753FAE614C3C0A0362777435D915EC025C33F7578776011DE6F3D066954C59D6
310
D76F86AC9CD58A53F4122CF0552BAE070AEA3B5AF15752304F1F47569D50AB71F41A31FA5A51C904CD43C6B0F51D2ACEFC112ACC4CC1B0FF086CE7AD5A4D096A005126387AAD451EE384D9C035A925859E39C1AA865EE9A9B8DA21CEE289167F7CF1D4C4BC7A125EC5AED5D8BB0B5A9D9144D134CFA71BF85A8D44BE568348
310
F6AA55A2F3CAEA4F6982FD21118CC249D3CBF852A586F244BA70FBD285DB9F085793EDE56E143F0AD06C6B4CB2242BDD3DD1419166C2865E81F9CE1648F3CBD84597B22E28992A3DDCE24C77F3F311A01C8A722828EC3CF15F7D987933F818F8E59BC138E5CD4CE8AC24C94E68BA32F5C3CBAB808B6B06B9936E642F9F804C
310
903AF2F3709D37832318A078E4B37AEBDCFAA66859945B9EBB25776BAE2DD3995995E9CA1433DDFA4DAC7ECE6FE93696E96BB06712968ED2661884A9EE40230F60D0D73DE8C858453B9E8E4212D5A9B0784A762662599FEDD18C9299F4094C728A91F536658E91CDA6DFC8E89F363B15B4CB31404FD2581CF722BBF229B517
310
430944E56AB2E2A8E3461950730F2B7ECA7BC570E389706E8BA9D241C744225C40C29385944F707279EA277D998065D9EAD604B1263E66D38513E9C2490F4EE7CC6E8AA89C3D9DA588701CA708AB6414C194931EE3FC0D4515D71A4FBFE712F8CB4A26532A6E8DCF01CA61A3745BE3F3C09F6E6B442F0CD7BAD36A8D2F002E
310
AE359E3BE646F6B8926D6BBC0CD9926FBEF08C5220B9BAE91D0E14769FF44B52301E3C00E8FA74C117BD24F396E22C7F1005F2DA2902EB76053DE720B0D3EE397F2F036AE8B24A3DE750225C4DF8F8A544B81AF69C7F2482D6C4C77F067093EF36FE359541FF8E0E8A50399BA22F63681CEF0EBDEBB2C3834A9E09EF1E0654
310
1D79F708F0A7CBBB956F495E015C1CEFEE3EEC46B65FC996771F856C09285F58A7148C77872F6104D6DC9A8897D30896D457015D1FDE3DEA25B91CEFF2EBD6EB0A68F718A0D3A6DDD7CA805699768F27C2D584925E4F84AB9476A39B03E744D09CD6610FF59F44E89A78FA46BA70DDDE0ADC144A4DBCEBF1E0221D416DC23D
310
1D715254A766A8A7AC60C1FF26021ED7783E889CD89C52F24C1ACF0940D5B1F19C047E7A8DE714E0E21ACFD5436EE339AB64DB78E44B91C6730003ECCB897CE1D28548E3798246B0C6731AD0536D3CB3E90740046E0B5FD5161351555C247A084506FA9607AAEBD39C44F1E2B63A5BDCA18E17B755B2E2664A322602C34C3A
310
0393625B51C09BC60D77315EF1E1C8DB80730A9C37D5B8CD0EBF3EA3A6FB4EA2A7C18B1B2746D53A5F7BB70C687C78291FE10E3A386EE3054657F9CB297E9CF703B0E71DFC4DA3397B4068C3CF33A1A81F02C2C920DB8E7ABF712005813923946BAE06DE453454B45CC32AF6311810C751E3F85A979E7874424F9299B34AB2
310
210DC430A45A3473162283FB2F3218C7FE178FBB1CF59692CDAD957C0DECAC3739580882F7E26636C4FC0874E66F42CE013F2EB274A4C323CBB88082C5B980AE4CFD4DC879C0C5B1FFF5E7DDC89E57324556799F2F34BC006EC70CD18A8318C0D9FF0AB6807CDBB19F46B0A4BE07E8B4D9FF8207EA504E3D7E65FA3E4C7226
310
B329B0E8D703AAFEBAA304E869379E693123CD68457958A4FF2F11AE86ECFF4119D078F6E7138AD87FF2370F86D6E1E38789702D76FED2134932CCA824CB8C811832A3160D33426421BD980847AF6F0C11D33DEECB1CFE9B7175D1F926045DE5BD8DBFBDBE94081764D0049324E6DDB40A8607F372225C4D16463974B5B836
310
F393232E193EA2E499B49986C93A780A6DA631A981D7A6CD34012EAECDFCFC5937B23F52B26D33BF83CCDBCC56A5C0ECD07DE7A7A7226D661D8D6033A419D0536D33E07F56B8C4CA7C0D48229F9610695A461A0883CE7B494E8DD95B004DF38E8247AB09FE45AC1A52EDAC32A0861DD8DA85D8A76276989D08579353913989
310
700119397510D9BB4CAB9DF096393711B4263ECE4B176E7EBA700B3C389DB3F0B5335AA6A7234288EA142D784A9083AFB414616018456CF24C3293C4CD2F49D3E5A5F0410CEE7E0F2E6A6FEA11580893E29AEE529C2FC11C4DF48D4AA628982DB44A422820F8563073C8F989CF2240392BED74F7768B819FDEDE6E09E0E29A
310
EE72FA030B3CB273954C91D5916E87CC9BEEFB4FAB1E6B73B10CFB6CBEB73B4423589D2D05F4CC9AAE2E4C768646F0614DBB4BD40606DDEA2539B5A67B13A0D36EBACBCA809A9055A7E9E24B8E0D79912B896C91FE0C1655C17843E129FA335B3277F4E8510807513CB9CC44868E210AF7FE19028691B0917E39482B125CF8
310
D4FF01F0B312DAF64B0000
  0
DICTIONARY
  5
588
330
54A
100
AcDbDictionary
280
     1
  3
ACAD_XREC_ROUNDTRIP
360
589
  0
DICTIONARY
  5
586
330
549
100
AcDbDictionary
280
     1
  3
ACAD_XREC_ROUNDTRIP
360
587
  0
DICTIONARY
  5
58A
330
54B
100
AcDbDictionary
280
     1
  3
ACAD_XREC_ROUNDTRIP
360
58B
  0
XRECORD
  5
589
102
{ACAD_REACTORS
330
588
102
}
330
588
100
AcDbXrecord
102
MATERIAL
148
0.0
149
0.0
149
0.0
 93
        0
 94
      127
282
     0
 72
     1
 77
     1
171
     1
175
     1
179
     1
273
     0
  0
XRECORD
  5
587
102
{ACAD_REACTORS
330
586
102
}
330
586
100
AcDbXrecord
102
MATERIAL
148
0.0
149
0.0
149
0.0
 93
        0
 94
      127
282
     0
 72
     1
 77
     1
171
     1
175
     1
179
     1
273
     0
  0
XRECORD
  5
58B
102
{ACAD_REACTORS
330
58A
102
}
330
58A
100
AcDbXrecord
102
MATERIAL
148
0.0
149
0.0
149
0.0
 93
        0
 94
      127
282
     0
 72
     1
 77
     1
171
     1
175
     1
179
     1
273
     0
  0
ENDSEC
  0
EOF
