999
DXF file: 453_c_001.dxf
999
Pro/ENGINEER 2016360 by Parametric Technology Corporation
  0
SECTION
  2
HEADER
  9
$ACADVER
  1
AC1014
  9
$DWGCODEPAGE
  3
ANSI_1252
  9
$EXTMAX
 10
420.0
 20
297.0
 30
0.0
  9
$EXTMIN
 10
0.0
 20
0.0
 30
0.0
  9
$LIMMIN
 10
0.0
 20
0.0
  9
$LIMMAX
 10
420.0
 20
297.0
  9
$VIEWCTR
 10
210.0
 20
148.5
  9
$VIEWSIZE
 40
297.0
  9
$CLAYER
  8
0
  9
$LTSCALE
 40
23.1
  9
$CELTYPE
  6
BYLAYER
  9
$DIMSCALE
 40
1.0
  9
$DIMASZ
 40
2.5
  9
$DIMEXO
 40
0.75
  9
$DIMDLI
 40
15.96
  9
$DIMEXE
 40
0.75
  9
$DIMCEN
 40
3.78
  9
$DIMLFAC
 40
1.0
  9
$DIMBLK
  1
_CLOSED
  9
$DIMALT
 70
0
  9
$DIMALTF
 40
25.4
  9
$DIMTXT
 40
3.0
  9
$DIMTOL
 70
1
  9
$DIMLIM
 70
0
  9
$DIMTFAC
 40
1.0
  9
$DIMTP
 40
0.01
  9
$DIMTM
 40
0.01
  9
$DIMGAP
 40
0.625
  9
$AUNITS
 70
0
  9
$PDMODE
 70
3
  9
$PDSIZE
 40
0.3125
  9
$HANDSEED
  5
50A
  9
$TILEMODE
 70
1
  9
$MEASUREMENT
 70
1
  0
ENDSEC
  0
SECTION
  2
CLASSES
  0
ENDSEC
  0
SECTION
  2
TABLES
  0
TABLE
  2
VPORT
  5
8
100
AcDbSymbolTable
 70
2
  0
VPORT
  5
1F4
100
AcDbSymbolTableRecord
100
AcDbViewportTableRecord
  2
*ACTIVE
 70
0
 10
0.0
 20
0.0
 11
1.0
 21
1.0
 12
210.0
 22
148.5
 13
0.0
 23
0.0
 14
1.0
 24
1.0
 15
0.0
 25
0.0
 16
0.0
 26
0.0
 36
1.0
 17
0.0
 27
0.0
 37
0.0
 40
297.0
 41
1.4141414141
 42
50.0
 43
0.0
 44
0.0
 50
0.0
 51
0.0
 71
0
 72
100
 73
1
 74
1
 75
0
 76
0
 77
0
 78
0
  0
ENDTAB
  0
TABLE
  2
LTYPE
  5
5
100
AcDbSymbolTable
 70
6
  0
LTYPE
  5
14
100
AcDbSymbolTableRecord
100
AcDbLinetypeTableRecord
  2
BYBLOCK
 70
0
  3

 72
65
 73
0
 40
0.0
  0
LTYPE
  5
15
100
AcDbSymbolTableRecord
100
AcDbLinetypeTableRecord
  2
BYLAYER
 70
0
  3

 72
65
 73
0
 40
0.0
  0
LTYPE
  5
16
100
AcDbSymbolTableRecord
100
AcDbLinetypeTableRecord
  2
CONTINUOUS
 70
64
  3
Solid line
 72
65
 73
0
 40
0.0
  0
LTYPE
  5
1F5
100
AcDbSymbolTableRecord
100
AcDbLinetypeTableRecord
  2
CENTER
 70
64
  3
____ _ ____ _ ____ _ ____ _ ____ _ ____ _ ____
 72
65
 73
4
 40
0.6
 49
0.375
 74
0
 49
-0.075
 74
0
 49
0.075
 74
0
 49
-0.075
 74
0
  0
LTYPE
  5
1F6
100
AcDbSymbolTableRecord
100
AcDbLinetypeTableRecord
  2
HIDDEN
 70
64
  3
- - - - - - - - - - - - - - - - - - - -
 72
65
 73
2
 40
0.2
 49
0.1
 74
0
 49
-0.1
 74
0
  0
LTYPE
  5
1F7
100
AcDbSymbolTableRecord
100
AcDbLinetypeTableRecord
  2
PHANTOM
 70
64
  3
_____ _ _ _____ _ _ _____ _ _ _____
 72
65
 73
6
 40
0.8
 49
0.45
 74
0
 49
-0.05
 74
0
 49
0.1
 74
0
 49
-0.05
 74
0
 49
0.1
 74
0
 49
-0.05
 74
0
  0
LTYPE
  5
1F8
100
AcDbSymbolTableRecord
100
AcDbLinetypeTableRecord
  2
DOT
 70
64
  3
. . . . . . . . . . . . . . . . . . . .
 72
65
 73
2
 40
0.2
 49
0.1
 74
0
 49
-0.1
 74
0
  0
LTYPE
  5
1F9
100
AcDbSymbolTableRecord
100
AcDbLinetypeTableRecord
  2
DASHED
 70
64
  3
- - - - - - - - - - - - - - - - - - - -
 72
65
 73
2
 40
0.2
 49
0.1
 74
0
 49
-0.1
 74
0
  0
ENDTAB
  0
TABLE
  2
LAYER
  5
2
100
AcDbSymbolTable
 70
36
  0
LAYER
  5
10
100
AcDbSymbolTableRecord
100
AcDbLayerTableRecord
  2
0
 70
0
 62
7
  6
CONTINUOUS
  0
LAYER
  5
1FA
100
AcDbSymbolTableRecord
100
AcDbLayerTableRecord
  2
DEFAULT_1
 70
0
 62
7
  6
CENTER
  0
LAYER
  5
1FB
100
AcDbSymbolTableRecord
100
AcDbLayerTableRecord
  2
DEFAULT_2
 70
0
 62
8
  6
HIDDEN
  0
LAYER
  5
1FC
100
AcDbSymbolTableRecord
100
AcDbLayerTableRecord
  2
DEFAULT_3
 70
0
 62
7
  6
PHANTOM
  0
LAYER
  5
1FD
100
AcDbSymbolTableRecord
100
AcDbLayerTableRecord
  2
01_ALL_DTM_PLN
 70
0
 62
7
  6
CONTINUOUS
  0
LAYER
  5
1FE
100
AcDbSymbolTableRecord
100
AcDbLayerTableRecord
  2
01__ASM_ALL_DTM_PLN
 70
0
 62
7
  6
CONTINUOUS
  0
LAYER
  5
1FF
100
AcDbSymbolTableRecord
100
AcDbLayerTableRecord
  2
01__ASM_DEF_DTM_PLN
 70
0
 62
7
  6
CONTINUOUS
  0
LAYER
  5
200
100
AcDbSymbolTableRecord
100
AcDbLayerTableRecord
  2
01___PRT_ALL_DTM_PLN
 70
0
 62
7
  6
CONTINUOUS
  0
LAYER
  5
201
100
AcDbSymbolTableRecord
100
AcDbLayerTableRecord
  2
01___PRT_DEF_DTM_PLN
 70
0
 62
7
  6
CONTINUOUS
  0
LAYER
  5
202
100
AcDbSymbolTableRecord
100
AcDbLayerTableRecord
  2
02_ALL_AXES
 70
0
 62
7
  6
CONTINUOUS
  0
LAYER
  5
203
100
AcDbSymbolTableRecord
100
AcDbLayerTableRecord
  2
02__ASM_ALL_AXES
 70
0
 62
7
  6
CONTINUOUS
  0
LAYER
  5
204
100
AcDbSymbolTableRecord
100
AcDbLayerTableRecord
  2
02___PRT_ALL_AXES
 70
0
 62
7
  6
CONTINUOUS
  0
LAYER
  5
205
100
AcDbSymbolTableRecord
100
AcDbLayerTableRecord
  2
03_ALL_CURVES
 70
0
 62
7
  6
CONTINUOUS
  0
LAYER
  5
206
100
AcDbSymbolTableRecord
100
AcDbLayerTableRecord
  2
03__ASM_ALL_CURVES
 70
0
 62
7
  6
CONTINUOUS
  0
LAYER
  5
207
100
AcDbSymbolTableRecord
100
AcDbLayerTableRecord
  2
03___PRT_ALL_CURVES
 70
0
 62
7
  6
CONTINUOUS
  0
LAYER
  5
208
100
AcDbSymbolTableRecord
100
AcDbLayerTableRecord
  2
04_ALL_DTM_PNT
 70
0
 62
7
  6
CONTINUOUS
  0
LAYER
  5
209
100
AcDbSymbolTableRecord
100
AcDbLayerTableRecord
  2
04__ASM_ALL_DTM_PNT
 70
0
 62
7
  6
CONTINUOUS
  0
LAYER
  5
20A
100
AcDbSymbolTableRecord
100
AcDbLayerTableRecord
  2
04___PRT_ALL_DTM_PNT
 70
0
 62
7
  6
CONTINUOUS
  0
LAYER
  5
20B
100
AcDbSymbolTableRecord
100
AcDbLayerTableRecord
  2
05_ALL_DTM_CSYS
 70
0
 62
7
  6
CONTINUOUS
  0
LAYER
  5
20C
100
AcDbSymbolTableRecord
100
AcDbLayerTableRecord
  2
05__ASM_ALL_DTM_CSYS
 70
0
 62
7
  6
CONTINUOUS
  0
LAYER
  5
20D
100
AcDbSymbolTableRecord
100
AcDbLayerTableRecord
  2
05__ASM_DEF_DTM_CSYS
 70
0
 62
7
  6
CONTINUOUS
  0
LAYER
  5
20E
100
AcDbSymbolTableRecord
100
AcDbLayerTableRecord
  2
05___PRT_ALL_DTM_CSYS
 70
0
 62
7
  6
CONTINUOUS
  0
LAYER
  5
20F
100
AcDbSymbolTableRecord
100
AcDbLayerTableRecord
  2
05___PRT_DEF_DTM_CSYS
 70
0
 62
7
  6
CONTINUOUS
  0
LAYER
  5
210
100
AcDbSymbolTableRecord
100
AcDbLayerTableRecord
  2
06_ALL_SURFS
 70
0
 62
7
  6
CONTINUOUS
  0
LAYER
  5
211
100
AcDbSymbolTableRecord
100
AcDbLayerTableRecord
  2
06__ASM_ALL_SURFS
 70
0
 62
7
  6
CONTINUOUS
  0
LAYER
  5
212
100
AcDbSymbolTableRecord
100
AcDbLayerTableRecord
  2
06___PRT_ALL_SURFS
 70
0
 62
7
  6
CONTINUOUS
  0
LAYER
  5
213
100
AcDbSymbolTableRecord
100
AcDbLayerTableRecord
  2
07__ASM_ALL_SKELETONS
 70
0
 62
7
  6
CONTINUOUS
  0
LAYER
  5
214
100
AcDbSymbolTableRecord
100
AcDbLayerTableRecord
  2
1_ALL_PLANES
 70
0
 62
7
  6
CONTINUOUS
  0
LAYER
  5
215
100
AcDbSymbolTableRecord
100
AcDbLayerTableRecord
  2
2_ALL_CSYS
 70
0
 62
7
  6
CONTINUOUS
  0
LAYER
  5
216
100
AcDbSymbolTableRecord
100
AcDbLayerTableRecord
  2
3_ALL_AXES
 70
0
 62
7
  6
CONTINUOUS
  0
LAYER
  5
217
100
AcDbSymbolTableRecord
100
AcDbLayerTableRecord
  2
4_ALL_POINTS
 70
0
 62
7
  6
CONTINUOUS
  0
LAYER
  5
218
100
AcDbSymbolTableRecord
100
AcDbLayerTableRecord
  2
5_ALL_CURVES
 70
0
 62
7
  6
CONTINUOUS
  0
LAYER
  5
219
100
AcDbSymbolTableRecord
100
AcDbLayerTableRecord
  2
5__COSTRUZIONE
 70
0
 62
7
  6
CONTINUOUS
  0
LAYER
  5
21A
100
AcDbSymbolTableRecord
100
AcDbLayerTableRecord
  2
6_ALL_SURFS
 70
0
 62
7
  6
CONTINUOUS
  0
LAYER
  5
21B
100
AcDbSymbolTableRecord
100
AcDbLayerTableRecord
  2
7_ALL_FEATURES
 70
0
 62
7
  6
CONTINUOUS
  0
LAYER
  5
21C
100
AcDbSymbolTableRecord
100
AcDbLayerTableRecord
  2
9_SOLID
 70
0
 62
7
  6
CONTINUOUS
  0
LAYER
  5
21D
100
AcDbSymbolTableRecord
100
AcDbLayerTableRecord
  2
CLOSED_SHELL
 70
0
 62
7
  6
CONTINUOUS
  0
LAYER
  5
21E
100
AcDbSymbolTableRecord
100
AcDbLayerTableRecord
  2
XSEC_DATUMS
 70
0
 62
7
  6
CONTINUOUS
  0
LAYER
  5
21F
100
AcDbSymbolTableRecord
100
AcDbLayerTableRecord
  2
XXX_SOLIDO
 70
0
 62
7
  6
CONTINUOUS
  0
ENDTAB
  0
TABLE
  2
STYLE
  5
3
100
AcDbSymbolTable
 70
1
  0
STYLE
  5
11
100
AcDbSymbolTableRecord
100
AcDbTextStyleTableRecord
  2
STANDARD
 70
0
 40
0.0
 41
1.0
 50
0.0
 71
0
 42
0.2
  3
arial.ttf
  4

  0
STYLE
  5
220
100
AcDbSymbolTableRecord
100
AcDbTextStyleTableRecord
  2
TEXTSTYLE_1
 70
0
 40
0.0
 41
0.8
 50
0.0
 71
0
 42
0.2
  3
gdt
  4

  0
STYLE
  5
221
100
AcDbSymbolTableRecord
100
AcDbTextStyleTableRecord
  2
TEXTSTYLE_2
 70
0
 40
0.0
 41
0.85
 50
0.0
 71
0
 42
0.2
  3
txt
  4

  0
ENDTAB
  0
TABLE
  2
VIEW
  5
6
100
AcDbSymbolTable
 70
0
  0
ENDTAB
  0
TABLE
  2
UCS
  5
7
100
AcDbSymbolTable
 70
0
  0
ENDTAB
  0
TABLE
  2
APPID
  5
9
100
AcDbSymbolTable
 70
1
  0
APPID
  5
222
100
AcDbSymbolTableRecord
100
AcDbRegAppTableRecord
  2
ACAD
 70
0
  0
ENDTAB
  0
TABLE
  2
BLOCK_RECORD
  5
1
100
AcDbSymbolTable
 70
0
  0
BLOCK_RECORD
  5
1F
100
AcDbSymbolTableRecord
100
AcDbBlockTableRecord
  2
*MODEL_SPACE
  0
BLOCK_RECORD
  5
1B
100
AcDbSymbolTableRecord
100
AcDbBlockTableRecord
  2
*PAPER_SPACE
  0
BLOCK_RECORD
  5
223
100
AcDbSymbolTableRecord
100
AcDbBlockTableRecord
  2
_CLOSED
  0
BLOCK_RECORD
  5
224
100
AcDbSymbolTableRecord
100
AcDbBlockTableRecord
  2
*D0
  0
BLOCK_RECORD
  5
225
100
AcDbSymbolTableRecord
100
AcDbBlockTableRecord
  2
*D1
  0
BLOCK_RECORD
  5
226
100
AcDbSymbolTableRecord
100
AcDbBlockTableRecord
  2
*D2
  0
BLOCK_RECORD
  5
227
100
AcDbSymbolTableRecord
100
AcDbBlockTableRecord
  2
LOGO2_BL0
  0
ENDTAB
  0
TABLE
  2
DIMSTYLE
  5
A
100
AcDbSymbolTable
 70
1
  0
DIMSTYLE
105
228
100
AcDbSymbolTableRecord
100
AcDbDimStyleTableRecord
  2
STANDARD
 70
0
  3

  4

  5
_CLOSED
  6
_CLOSED
  7
_CLOSED
 40
1.0
 41
2.5
 42
0.75
 43
0.38
 44
0.75
 45
0.0
 46
0.0
 47
0.01
 48
0.01
140
3.0
141
0.09
142
0.0
143
25.4
144
1.0
145
0.0
146
1.0
147
0.625
 71
1.0
 72
0.0
 73
0
 74
0
 75
0
 76
0
 77
1
 78
8
 79
2
170
0
171
1
172
0
173
0
174
0
175
0
176
0
177
0
178
0
270
2
179
2
271
2
272
2
273
2
274
2
275
0
280
0
281
0
282
0
283
1
284
8
285
0
286
0
287
3
288
0
340
11
  0
DIMSTYLE
105
229
100
AcDbSymbolTableRecord
100
AcDbDimStyleTableRecord
  2
DIMSTYLE_1
 70
0
  3

  4

  5
_CLOSED
  6
_CLOSED
  7
_CLOSED
 40
1.0
 41
2.5
 42
0.75
 43
0.38
 44
0.75
 45
0.0
 46
0.0
 47
0.3
 48
0.3
140
3.0
141
0.09
142
0.0
143
25.4
144
1.0
145
0.0
146
1.0
147
0.75
 71
0.0
 72
0.0
 73
0
 74
0
 75
0
 76
0
 77
1
 78
8
 79
2
170
0
171
1
172
0
173
0
174
0
175
0
176
0
177
0
178
0
270
2
179
2
271
2
272
2
273
2
274
2
275
0
280
0
281
0
282
0
283
1
284
8
285
0
286
0
287
3
288
0
340
11
  0
ENDTAB
  0
ENDSEC
  0
SECTION
  2
BLOCKS
  0
BLOCK
  5
20
100
AcDbEntity
  8
0
100
AcDbBlockBegin
  2
*MODEL_SPACE
 70
0
 10
0.0
 20
0.0
 30
0.0
  3
*MODEL_SPACE
  1

  0
ENDBLK
  5
21
100
AcDbEntity
  8
0
100
AcDbBlockEnd
  0
BLOCK
  5
1C
100
AcDbEntity
  8
0
100
AcDbBlockBegin
  2
*PAPER_SPACE
 70
0
 10
0.0
 20
0.0
 30
0.0
  3
*PAPER_SPACE
  1

  0
ENDBLK
  5
1D
100
AcDbEntity
  8
0
100
AcDbBlockEnd
  0
BLOCK
  5
22A
100
AcDbEntity
  8
0
100
AcDbBlockBegin
 62
2
  6
CONTINUOUS
  2
LOGO2_BL0
 70
64
 10
333.6475659158
 20
36.9217920391
  3
LOGO2_BL0
  1

  0
LINE
  5
22B
100
AcDbEntity
  8
0
100
AcDbLine
 62
7
  6
CONTINUOUS
 10
325.390491144
 20
40.1172833779
 11
324.0861502147
 21
40.1172833779
  0
LINE
  5
22C
100
AcDbEntity
  8
0
100
AcDbLine
 62
7
  6
CONTINUOUS
 10
324.0861502147
 20
40.1172833779
 11
324.0861502147
 21
29.6582173181
  0
LINE
  5
22D
100
AcDbEntity
  8
0
100
AcDbLine
 62
7
  6
CONTINUOUS
 10
324.0861502147
 20
29.6582173181
 11
328.567205103
 21
29.6582173181
  0
LINE
  5
22E
100
AcDbEntity
  8
0
100
AcDbLine
 62
7
  6
CONTINUOUS
 10
328.567205103
 20
29.6582173181
 11
328.567205103
 21
30.8510716431
  0
LINE
  5
22F
100
AcDbEntity
  8
0
100
AcDbLine
 62
7
  6
CONTINUOUS
 10
328.567205103
 20
30.8510716431
 11
325.390491144
 21
30.8510716431
  0
LINE
  5
230
100
AcDbEntity
  8
0
100
AcDbLine
 62
7
  6
CONTINUOUS
 10
325.390491144
 20
30.8510716431
 11
325.390491144
 21
40.1172833779
  0
LINE
  5
231
100
AcDbEntity
  8
0
100
AcDbLine
 62
7
  6
CONTINUOUS
 10
340.3268173604
 20
40.1172833779
 11
339.0229998423
 21
40.1172833779
  0
LINE
  5
232
100
AcDbEntity
  8
0
100
AcDbLine
 62
7
  6
CONTINUOUS
 10
339.0229998423
 20
40.1172833779
 11
339.0229998423
 21
29.6582173181
  0
LINE
  5
233
100
AcDbEntity
  8
0
100
AcDbLine
 62
7
  6
CONTINUOUS
 10
339.0229998423
 20
29.6582173181
 11
343.5041855834
 21
29.6582173181
  0
LINE
  5
234
100
AcDbEntity
  8
0
100
AcDbLine
 62
7
  6
CONTINUOUS
 10
343.5041855834
 20
29.6582173181
 11
343.5041855834
 21
30.8510716431
  0
LINE
  5
235
100
AcDbEntity
  8
0
100
AcDbLine
 62
7
  6
CONTINUOUS
 10
343.5041855834
 20
30.8510716431
 11
340.3268173604
 21
30.8510716431
  0
LINE
  5
236
100
AcDbEntity
  8
0
100
AcDbLine
 62
7
  6
CONTINUOUS
 10
340.3268173604
 20
30.8510716431
 11
340.3268173604
 21
40.1172833779
  0
LWPOLYLINE
  5
237
100
AcDbEntity
  8
0
100
AcDbPolyline
 62
7
  6
CONTINUOUS
 90
2
 70
0
 43
0.2
 10
322.4405451256
 20
26.3146660112
 10
322.4405451256
 20
24.4576027618
  0
LWPOLYLINE
  5
238
100
AcDbEntity
  8
0
100
AcDbPolyline
 62
7
  6
CONTINUOUS
 90
2
 70
0
 43
0.2
 10
322.4405451256
 20
24.4576027618
 10
323.236261136
 20
24.4576027618
  0
LWPOLYLINE
  5
239
100
AcDbEntity
  8
0
100
AcDbPolyline
 62
7
  6
CONTINUOUS
 90
2
 70
0
 43
0.2
 10
323.236261136
 20
24.4576027618
 10
323.236261136
 20
24.6695843334
  0
LWPOLYLINE
  5
23A
100
AcDbEntity
  8
0
100
AcDbPolyline
 62
7
  6
CONTINUOUS
 90
2
 70
0
 43
0.2
 10
323.236261136
 20
24.6695843334
 10
322.6721546205
 20
24.6695843334
  0
LWPOLYLINE
  5
23B
100
AcDbEntity
  8
0
100
AcDbPolyline
 62
7
  6
CONTINUOUS
 90
2
 70
0
 43
0.2
 10
322.6721546205
 20
24.6695843334
 10
322.6721546205
 20
26.3146660112
  0
LWPOLYLINE
  5
23C
100
AcDbEntity
  8
0
100
AcDbPolyline
 62
7
  6
CONTINUOUS
 90
2
 70
0
 43
0.2
 10
322.6721546205
 20
26.3146660112
 10
322.4405451256
 20
26.3146660112
  0
SPLINE
  5
23D
100
AcDbEntity
  8
0
100
AcDbSpline
 62
7
  6
CONTINUOUS
 70
2
 71
3
 72
35
 73
31
 74
0
 42
0.0000001
 43
0.0000001
 44
0.0000000001
 40
0.0
 40
0.0
 40
0.0
 40
0.0
 40
1.0
 40
1.0
 40
1.0
 40
2.0
 40
2.0
 40
2.0
 40
3.0
 40
3.0
 40
3.0
 40
4.0
 40
4.0
 40
4.0
 40
5.0
 40
5.0
 40
5.0
 40
6.0
 40
6.0
 40
6.0
 40
7.0
 40
7.0
 40
7.0
 40
8.0
 40
8.0
 40
8.0
 40
9.0
 40
9.0
 40
9.0
 40
10.0
 40
10.0
 40
10.0
 40
10.0
 10
324.6345543915
 20
25.6101544177
 30
0.0
 10
324.6345543915
 20
25.6101544177
 30
0.0
 10
324.6345543915
 20
24.9480391385
 30
0.0
 10
324.6345543915
 20
24.9480391385
 30
0.0
 10
324.6345543915
 20
24.6329455432
 30
0.0
 10
324.7824180804
 20
24.4183469152
 30
0.0
 10
325.1225045647
 20
24.4183469152
 30
0.0
 10
325.4620676377
 20
24.4183469152
 30
0.0
 10
325.6101930321
 20
24.6329455432
 30
0.0
 10
325.6101930321
 20
24.9480391385
 30
0.0
 10
325.6101930321
 20
24.9480391385
 30
0.0
 10
325.6101930321
 20
25.6101544177
 30
0.0
 10
325.6101930321
 20
25.6101544177
 30
0.0
 10
325.6101930321
 20
25.6101544177
 30
0.0
 10
325.3881357933
 20
25.6101544177
 30
0.0
 10
325.3881357933
 20
25.6101544177
 30
0.0
 10
325.3881357933
 20
25.6101544177
 30
0.0
 10
325.3881357933
 20
24.9731628803
 30
0.0
 10
325.3881357933
 20
24.9731628803
 30
0.0
 10
325.3881357933
 20
24.7873518732
 30
0.0
 10
325.3414213358
 20
24.6245709626
 30
0.0
 10
325.1225045647
 20
24.6245709626
 30
0.0
 10
324.9030643822
 20
24.6245709626
 30
0.0
 10
324.8563499248
 20
24.7873518732
 30
0.0
 10
324.8563499248
 20
24.9731628803
 30
0.0
 10
324.8563499248
 20
24.9731628803
 30
0.0
 10
324.8563499248
 20
25.6101544177
 30
0.0
 10
324.8563499248
 20
25.6101544177
 30
0.0
 10
324.8563499248
 20
25.6101544177
 30
0.0
 10
324.6345543915
 20
25.6101544177
 30
0.0
 10
324.6345543915
 20
25.6101544177
 30
0.0
  0
SPLINE
  5
23E
100
AcDbEntity
  8
0
100
AcDbSpline
 62
7
  6
CONTINUOUS
 70
2
 71
3
 72
35
 73
31
 74
0
 42
0.0000001
 43
0.0000001
 44
0.0000000001
 40
0.0
 40
0.0
 40
0.0
 40
0.0
 40
1.0
 40
1.0
 40
1.0
 40
2.0
 40
2.0
 40
2.0
 40
3.0
 40
3.0
 40
3.0
 40
4.0
 40
4.0
 40
4.0
 40
5.0
 40
5.0
 40
5.0
 40
6.0
 40
6.0
 40
6.0
 40
7.0
 40
7.0
 40
7.0
 40
8.0
 40
8.0
 40
8.0
 40
9.0
 40
9.0
 40
9.0
 40
10.0
 40
10.0
 40
10.0
 40
10.0
 10
328.0333255893
 20
25.5688049259
 30
0.0
 10
327.9448690817
 20
25.6200992322
 30
0.0
 10
327.831419685
 20
25.645222974
 30
0.0
 10
327.72778425
 20
25.645222974
 30
0.0
 10
327.3729113969
 20
25.645222974
 30
0.0
 10
327.0974662066
 20
25.3814236849
 30
0.0
 10
327.0974662066
 20
25.0239337753
 30
0.0
 10
327.0974662066
 20
24.6790057366
 30
0.0
 10
327.3759210118
 20
24.4188703265
 30
0.0
 10
327.7154840848
 20
24.4188703265
 30
0.0
 10
327.831419685
 20
24.4188703265
 30
0.0
 10
327.9321763579
 20
24.4408536006
 30
0.0
 10
328.0333255893
 20
24.4947649632
 30
0.0
 10
328.0333255893
 20
24.4947649632
 30
0.0
 10
328.0333255893
 20
24.7774070587
 30
0.0
 10
328.0333255893
 20
24.7774070587
 30
0.0
 10
327.9494489304
 20
24.6842398494
 30
0.0
 10
327.8459443483
 20
24.6250943739
 30
0.0
 10
327.7178394356
 20
24.6250943739
 30
0.0
 10
327.4841362955
 20
24.6250943739
 30
0.0
 10
327.3188691814
 20
24.7972966876
 30
0.0
 10
327.3188691814
 20
25.0338785897
 30
0.0
 10
327.3188691814
 20
25.2458601613
 30
0.0
 10
327.4866224991
 20
25.437952104
 30
0.0
 10
327.7034456251
 20
25.437952104
 30
0.0
 10
327.8362612394
 20
25.437952104
 30
0.0
 10
327.9448690817
 20
25.3840407413
 30
0.0
 10
328.0333255893
 20
25.2830223628
 30
0.0
 10
328.0333255893
 20
25.2830223628
 30
0.0
 10
328.0333255893
 20
25.5688049259
 30
0.0
 10
328.0333255893
 20
25.5688049259
 30
0.0
  0
SPLINE
  5
23F
100
AcDbEntity
  8
0
100
AcDbSpline
 62
7
  6
CONTINUOUS
 70
2
 71
3
 72
32
 73
28
 74
0
 42
0.0000001
 43
0.0000001
 44
0.0000000001
 40
0.0
 40
0.0
 40
0.0
 40
0.0
 40
1.0
 40
1.0
 40
1.0
 40
2.0
 40
2.0
 40
2.0
 40
3.0
 40
3.0
 40
3.0
 40
4.0
 40
4.0
 40
4.0
 40
5.0
 40
5.0
 40
5.0
 40
6.0
 40
6.0
 40
6.0
 40
7.0
 40
7.0
 40
7.0
 40
8.0
 40
8.0
 40
8.0
 40
9.0
 40
9.0
 40
9.0
 40
9.0
 10
330.5651968416
 20
24.9972397996
 30
0.0
 10
330.5651968416
 20
24.9972397996
 30
0.0
 10
330.5651968416
 20
25.0312615333
 30
0.0
 10
330.5651968416
 20
25.0312615333
 30
0.0
 10
330.5651968416
 20
25.3735725156
 30
0.0
 10
330.3923402638
 20
25.645222974
 30
0.0
 10
330.0256906566
 20
25.645222974
 30
0.0
 10
329.6540686422
 20
25.645222974
 30
0.0
 10
329.4643320504
 20
25.3788066284
 30
0.0
 10
329.4643320504
 20
25.0239337753
 30
0.0
 10
329.4643320504
 20
24.6842398494
 30
0.0
 10
329.6784072671
 20
24.4183469152
 30
0.0
 10
330.030532211
 20
24.4183469152
 30
0.0
 10
330.2545522422
 20
24.4183469152
 30
0.0
 10
330.4567198522
 20
24.5340208098
 30
0.0
 10
330.5651968416
 20
24.7334405105
 30
0.0
 10
330.5651968416
 20
24.7334405105
 30
0.0
 10
330.3775538949
 20
24.8402164132
 30
0.0
 10
330.3775538949
 20
24.8402164132
 30
0.0
 10
330.2940697945
 20
24.7015124219
 30
0.0
 10
330.2028653775
 20
24.6156729707
 30
0.0
 10
330.0332801203
 20
24.6156729707
 30
0.0
 10
329.8212985487
 20
24.6156729707
 30
0.0
 10
329.6883520816
 20
24.8004371554
 30
0.0
 10
329.6859967308
 20
24.9972397996
 30
0.0
 10
329.6859967308
 20
24.9972397996
 30
0.0
 10
330.5651968416
 20
24.9972397996
 30
0.0
 10
330.5651968416
 20
24.9972397996
 30
0.0
  0
SPLINE
  5
240
100
AcDbEntity
  8
0
100
AcDbSpline
 62
7
  6
CONTINUOUS
 70
2
 71
3
 72
14
 73
10
 74
0
 42
0.0000001
 43
0.0000001
 44
0.0000000001
 40
0.0
 40
0.0
 40
0.0
 40
0.0
 40
1.0
 40
1.0
 40
1.0
 40
2.0
 40
2.0
 40
2.0
 40
3.0
 40
3.0
 40
3.0
 40
3.0
 10
329.6980351904
 20
25.1647314117
 30
0.0
 10
329.7256451358
 20
25.3296059674
 30
0.0
 10
329.8534883429
 20
25.45260762
 30
0.0
 10
330.0256906566
 20
25.45260762
 30
0.0
 10
330.2028653775
 20
25.45260762
 30
0.0
 10
330.3163147742
 20
25.3369337254
 30
0.0
 10
330.3435321612
 20
25.1647314117
 30
0.0
 10
330.3435321612
 20
25.1647314117
 30
0.0
 10
329.6980351904
 20
25.1647314117
 30
0.0
 10
329.6980351904
 20
25.1647314117
 30
0.0
  0
SPLINE
  5
241
100
AcDbEntity
  8
0
100
AcDbSpline
 62
7
  6
CONTINUOUS
 70
2
 71
3
 72
20
 73
16
 74
0
 42
0.0000001
 43
0.0000001
 44
0.0000000001
 40
0.0
 40
0.0
 40
0.0
 40
0.0
 40
1.0
 40
1.0
 40
1.0
 40
2.0
 40
2.0
 40
2.0
 40
3.0
 40
3.0
 40
3.0
 40
4.0
 40
4.0
 40
4.0
 40
5.0
 40
5.0
 40
5.0
 40
5.0
 10
332.5892282918
 20
25.3740959269
 30
0.0
 10
332.5892282918
 20
25.3740959269
 30
0.0
 10
333.0003678584
 20
24.8716210905
 30
0.0
 10
333.0003678584
 20
24.8716210905
 30
0.0
 10
332.8843014053
 20
24.7559471959
 30
0.0
 10
332.7465133838
 20
24.6256177852
 30
0.0
 10
332.5745727757
 20
24.6256177852
 30
0.0
 10
332.3971363491
 20
24.6256177852
 30
0.0
 10
332.229644737
 20
24.7899689296
 30
0.0
 10
332.229644737
 20
24.9668819449
 30
0.0
 10
332.229644737
 20
25.1448417828
 30
0.0
 10
332.4394018106
 20
25.2709839031
 30
0.0
 10
332.566983312
 20
25.3589169995
 30
0.0
 10
332.566983312
 20
25.3589169995
 30
0.0
 10
332.5892282918
 20
25.3740959269
 30
0.0
 10
332.5892282918
 20
25.3740959269
 30
0.0
  0
SPLINE
  5
242
100
AcDbEntity
  8
0
100
AcDbSpline
 62
7
  6
CONTINUOUS
 70
2
 71
3
 72
23
 73
19
 74
0
 42
0.0000001
 43
0.0000001
 44
0.0000000001
 40
0.0
 40
0.0
 40
0.0
 40
0.0
 40
1.0
 40
1.0
 40
1.0
 40
2.0
 40
2.0
 40
2.0
 40
3.0
 40
3.0
 40
3.0
 40
4.0
 40
4.0
 40
4.0
 40
5.0
 40
5.0
 40
5.0
 40
6.0
 40
6.0
 40
6.0
 40
6.0
 10
332.6385598056
 20
25.6651126029
 30
0.0
 10
332.6385598056
 20
25.6651126029
 30
0.0
 10
332.5769281265
 20
25.7436242961
 30
0.0
 10
332.5769281265
 20
25.7436242961
 30
0.0
 10
332.5230167639
 20
25.8121911748
 30
0.0
 10
332.4662266391
 20
25.8812814648
 30
0.0
 10
332.4662266391
 20
25.9749720853
 30
0.0
 10
332.4662266391
 20
26.0937864477
 30
0.0
 10
332.5621417576
 20
26.1712513183
 30
0.0
 10
332.6731049506
 20
26.1712513183
 30
0.0
 10
332.7963683089
 20
26.1712513183
 30
0.0
 10
332.889666371
 20
26.1000673831
 30
0.0
 10
332.889666371
 20
25.9697379725
 30
0.0
 10
332.889666371
 20
25.8346978602
 30
0.0
 10
332.7615614583
 20
25.7582798122
 30
0.0
 10
332.6680016906
 20
25.6844788206
 30
0.0
 10
332.6680016906
 20
25.6844788206
 30
0.0
 10
332.6385598056
 20
25.6651126029
 30
0.0
 10
332.6385598056
 20
25.6651126029
 30
0.0
  0
SPLINE
  5
243
100
AcDbEntity
  8
0
100
AcDbSpline
 62
7
  6
CONTINUOUS
 70
2
 71
3
 72
50
 73
46
 74
0
 42
0.0000001
 43
0.0000001
 44
0.0000000001
 40
0.0
 40
0.0
 40
0.0
 40
0.0
 40
1.0
 40
1.0
 40
1.0
 40
2.0
 40
2.0
 40
2.0
 40
3.0
 40
3.0
 40
3.0
 40
4.0
 40
4.0
 40
4.0
 40
5.0
 40
5.0
 40
5.0
 40
6.0
 40
6.0
 40
6.0
 40
7.0
 40
7.0
 40
7.0
 40
8.0
 40
8.0
 40
8.0
 40
9.0
 40
9.0
 40
9.0
 40
10.0
 40
10.0
 40
10.0
 40
11.0
 40
11.0
 40
11.0
 40
12.0
 40
12.0
 40
12.0
 40
13.0
 40
13.0
 40
13.0
 40
14.0
 40
14.0
 40
14.0
 40
15.0
 40
15.0
 40
15.0
 40
15.0
 10
333.3407160483
 20
24.4581261731
 30
0.0
 10
333.3407160483
 20
24.4581261731
 30
0.0
 10
333.626106053
 20
24.4581261731
 30
0.0
 10
333.626106053
 20
24.4581261731
 30
0.0
 10
333.626106053
 20
24.4581261731
 30
0.0
 10
333.2937398852
 20
24.8690040341
 30
0.0
 10
333.2937398852
 20
24.8690040341
 30
0.0
 10
333.2937398852
 20
24.8690040341
 30
0.0
 10
333.5202461201
 20
25.1348969683
 30
0.0
 10
333.5202461201
 20
25.1348969683
 30
0.0
 10
333.5202461201
 20
25.1348969683
 30
0.0
 10
333.3719898728
 20
25.2877330644
 30
0.0
 10
333.3719898728
 20
25.2877330644
 30
0.0
 10
333.3719898728
 20
25.2877330644
 30
0.0
 10
333.1560827165
 20
25.0364956462
 30
0.0
 10
333.1560827165
 20
25.0364956462
 30
0.0
 10
333.1560827165
 20
25.0364956462
 30
0.0
 10
332.7690200692
 20
25.5044253375
 30
0.0
 10
332.7690200692
 20
25.5044253375
 30
0.0
 10
332.9244732216
 20
25.6185289983
 30
0.0
 10
333.1067512026
 20
25.7582798122
 30
0.0
 10
333.1067512026
 20
25.9676443273
 30
0.0
 10
333.1067512026
 20
26.2115539874
 30
0.0
 10
332.9047144455
 20
26.3549686803
 30
0.0
 10
332.6782082107
 20
26.3549686803
 30
0.0
 10
332.4340368449
 20
26.3549686803
 30
0.0
 10
332.2496652188
 20
26.2042262294
 30
0.0
 10
332.2496652188
 20
25.9477546984
 30
0.0
 10
332.2496652188
 20
25.7902079007
 30
0.0
 10
332.3483282465
 20
25.652550732
 30
0.0
 10
332.4536647682
 20
25.541587539
 30
0.0
 10
332.4536647682
 20
25.541587539
 30
0.0
 10
332.3381217264
 20
25.4578417329
 30
0.0
 10
332.3381217264
 20
25.4578417329
 30
0.0
 10
332.1604235942
 20
25.3296059674
 30
0.0
 10
332.0130833166
 20
25.2018936131
 30
0.0
 10
332.0130833166
 20
24.9647882997
 30
0.0
 10
332.0130833166
 20
24.6444605916
 30
0.0
 10
332.2716484929
 20
24.4183469152
 30
0.0
 10
332.5820313866
 20
24.4183469152
 30
0.0
 10
332.8009481577
 20
24.4183469152
 30
0.0
 10
332.9981433604
 20
24.543442213
 30
0.0
 10
333.1384175856
 20
24.7093635913
 30
0.0
 10
333.1384175856
 20
24.7093635913
 30
0.0
 10
333.3407160483
 20
24.4581261731
 30
0.0
 10
333.3407160483
 20
24.4581261731
 30
0.0
  0
LWPOLYLINE
  5
244
100
AcDbEntity
  8
0
100
AcDbPolyline
 62
7
  6
CONTINUOUS
 90
2
 70
0
 43
0.2
 10
335.276160138
 20
26.3146660112
 10
335.0448123488
 20
26.3146660112
  0
LWPOLYLINE
  5
245
100
AcDbEntity
  8
0
100
AcDbPolyline
 62
7
  6
CONTINUOUS
 90
2
 70
0
 43
0.2
 10
335.0448123488
 20
26.3146660112
 10
335.0448123488
 20
24.4576027618
  0
LWPOLYLINE
  5
246
100
AcDbEntity
  8
0
100
AcDbPolyline
 62
7
  6
CONTINUOUS
 90
2
 70
0
 43
0.2
 10
335.0448123488
 20
24.4576027618
 10
335.8401358007
 20
24.4576027618
  0
LWPOLYLINE
  5
247
100
AcDbEntity
  8
0
100
AcDbPolyline
 62
7
  6
CONTINUOUS
 90
2
 70
0
 43
0.2
 10
335.8401358007
 20
24.4576027618
 10
335.8401358007
 20
24.6695843334
  0
LWPOLYLINE
  5
248
100
AcDbEntity
  8
0
100
AcDbPolyline
 62
7
  6
CONTINUOUS
 90
2
 70
0
 43
0.2
 10
335.8401358007
 20
24.6695843334
 10
335.276160138
 20
24.6695843334
  0
LWPOLYLINE
  5
249
100
AcDbEntity
  8
0
100
AcDbPolyline
 62
7
  6
CONTINUOUS
 90
2
 70
0
 43
0.2
 10
335.276160138
 20
24.6695843334
 10
335.276160138
 20
26.3146660112
  0
LWPOLYLINE
  5
24A
100
AcDbEntity
  8
0
100
AcDbPolyline
 62
7
  6
CONTINUOUS
 90
2
 70
0
 43
0.2
 10
337.5192392122
 20
25.6101544177
 10
337.2980979431
 20
25.6101544177
  0
LWPOLYLINE
  5
24B
100
AcDbEntity
  8
0
100
AcDbPolyline
 62
7
  6
CONTINUOUS
 90
2
 70
0
 43
0.2
 10
337.2980979431
 20
25.6101544177
 10
337.2980979431
 20
24.4581261731
  0
LWPOLYLINE
  5
24C
100
AcDbEntity
  8
0
100
AcDbPolyline
 62
7
  6
CONTINUOUS
 90
2
 70
0
 43
0.2
 10
337.2980979431
 20
24.4581261731
 10
337.5192392122
 20
24.4581261731
  0
LWPOLYLINE
  5
24D
100
AcDbEntity
  8
0
100
AcDbPolyline
 62
7
  6
CONTINUOUS
 90
2
 70
0
 43
0.2
 10
337.5192392122
 20
24.4581261731
 10
337.5192392122
 20
25.6101544177
  0
LWPOLYLINE
  5
24E
100
AcDbEntity
  8
0
100
AcDbPolyline
 62
7
  6
CONTINUOUS
 90
2
 70
1
 43
0.2
 10
337.256215935
 20
26.1401083467
 42
1.0
 10
337.5613829259
 20
26.1401083467
 42
1.0
  0
SPLINE
  5
24F
100
AcDbEntity
  8
0
100
AcDbSpline
 62
7
  6
CONTINUOUS
 70
2
 71
3
 72
17
 73
13
 74
0
 42
0.0000001
 43
0.0000001
 44
0.0000000001
 40
0.0
 40
0.0
 40
0.0
 40
0.0
 40
1.0
 40
1.0
 40
1.0
 40
2.0
 40
2.0
 40
2.0
 40
3.0
 40
3.0
 40
3.0
 40
4.0
 40
4.0
 40
4.0
 40
4.0
 10
339.6495231538
 20
24.6156729707
 30
0.0
 10
339.4155583082
 20
24.6156729707
 30
0.0
 10
339.2852288975
 20
24.8177097279
 30
0.0
 10
339.2852288975
 20
25.0338785897
 30
0.0
 10
339.2852288975
 20
25.2484772178
 30
0.0
 10
339.4210541267
 20
25.4473735072
 30
0.0
 10
339.6495231538
 20
25.4473735072
 30
0.0
 10
339.888983818
 20
25.4473735072
 30
0.0
 10
340.0245473416
 20
25.2584220322
 30
0.0
 10
340.0245473416
 20
25.0338785897
 30
0.0
 10
340.0245473416
 20
24.8077649134
 30
0.0
 10
339.8913391688
 20
24.6156729707
 30
0.0
 10
339.6495231538
 20
24.6156729707
 30
0.0
  0
SPLINE
  5
250
100
AcDbEntity
  8
0
100
AcDbSpline
 62
7
  6
CONTINUOUS
 70
2
 71
3
 72
50
 73
46
 74
0
 42
0.0000001
 43
0.0000001
 44
0.0000000001
 40
0.0
 40
0.0
 40
0.0
 40
0.0
 40
1.0
 40
1.0
 40
1.0
 40
2.0
 40
2.0
 40
2.0
 40
3.0
 40
3.0
 40
3.0
 40
4.0
 40
4.0
 40
4.0
 40
5.0
 40
5.0
 40
5.0
 40
6.0
 40
6.0
 40
6.0
 40
7.0
 40
7.0
 40
7.0
 40
8.0
 40
8.0
 40
8.0
 40
9.0
 40
9.0
 40
9.0
 40
10.0
 40
10.0
 40
10.0
 40
11.0
 40
11.0
 40
11.0
 40
12.0
 40
12.0
 40
12.0
 40
13.0
 40
13.0
 40
13.0
 40
14.0
 40
14.0
 40
14.0
 40
15.0
 40
15.0
 40
15.0
 40
15.0
 10
340.2336501511
 20
25.610677829
 30
0.0
 10
340.2336501511
 20
25.610677829
 30
0.0
 10
340.0119854707
 20
25.610677829
 30
0.0
 10
340.0119854707
 20
25.610677829
 30
0.0
 10
340.0119854707
 20
25.610677829
 30
0.0
 10
340.0119854707
 20
25.4133517734
 30
0.0
 10
340.0119854707
 20
25.4133517734
 30
0.0
 10
340.0119854707
 20
25.4133517734
 30
0.0
 10
340.0072747691
 20
25.4133517734
 30
0.0
 10
340.0072747691
 20
25.4133517734
 30
0.0
 10
339.9159394994
 20
25.556243055
 30
0.0
 10
339.778020625
 20
25.6446995627
 30
0.0
 10
339.6052949
 20
25.6446995627
 30
0.0
 10
339.2729287322
 20
25.6446995627
 30
0.0
 10
339.0638259227
 20
25.3568233544
 30
0.0
 10
339.0638259227
 20
25.0412063478
 30
0.0
 10
339.0638259227
 20
24.7114572364
 30
0.0
 10
339.2608902726
 20
24.4183469152
 30
0.0
 10
339.6157631258
 20
24.4183469152
 30
0.0
 10
339.778020625
 20
24.4183469152
 30
0.0
 10
339.9180331445
 20
24.5068034229
 30
0.0
 10
340.0072747691
 20
24.6376562448
 30
0.0
 10
340.0072747691
 20
24.6376562448
 30
0.0
 10
340.0119854707
 20
24.6376562448
 30
0.0
 10
340.0119854707
 20
24.6376562448
 30
0.0
 10
340.0119854707
 20
24.6376562448
 30
0.0
 10
340.0119854707
 20
24.4183469152
 30
0.0
 10
340.0119854707
 20
24.4183469152
 30
0.0
 10
340.0119854707
 20
24.1817650131
 30
0.0
 10
339.9554570516
 20
23.9949071833
 30
0.0
 10
339.6822363593
 20
23.9949071833
 30
0.0
 10
339.4799378966
 20
23.9949071833
 30
0.0
 10
339.3373083206
 20
24.1131981344
 30
0.0
 10
339.3373083206
 20
24.3194221818
 30
0.0
 10
339.3373083206
 20
24.3194221818
 30
0.0
 10
339.1156436402
 20
24.3194221818
 30
0.0
 10
339.1156436402
 20
24.3194221818
 30
0.0
 10
339.1206160475
 20
23.9949071833
 30
0.0
 10
339.351702131
 20
23.7981045391
 30
0.0
 10
339.6720298392
 20
23.7981045391
 30
0.0
 10
340.1200699016
 20
23.7981045391
 30
0.0
 10
340.2336501511
 20
24.083363691
 30
0.0
 10
340.2336501511
 20
24.4801094472
 30
0.0
 10
340.2336501511
 20
24.4801094472
 30
0.0
 10
340.2336501511
 20
25.610677829
 30
0.0
 10
340.2336501511
 20
25.610677829
 30
0.0
  0
SPLINE
  5
251
100
AcDbEntity
  8
0
100
AcDbSpline
 62
7
  6
CONTINUOUS
 70
2
 71
3
 72
44
 73
40
 74
0
 42
0.0000001
 43
0.0000001
 44
0.0000000001
 40
0.0
 40
0.0
 40
0.0
 40
0.0
 40
1.0
 40
1.0
 40
1.0
 40
2.0
 40
2.0
 40
2.0
 40
3.0
 40
3.0
 40
3.0
 40
4.0
 40
4.0
 40
4.0
 40
5.0
 40
5.0
 40
5.0
 40
6.0
 40
6.0
 40
6.0
 40
7.0
 40
7.0
 40
7.0
 40
8.0
 40
8.0
 40
8.0
 40
9.0
 40
9.0
 40
9.0
 40
10.0
 40
10.0
 40
10.0
 40
11.0
 40
11.0
 40
11.0
 40
12.0
 40
12.0
 40
12.0
 40
13.0
 40
13.0
 40
13.0
 40
13.0
 10
341.8025754865
 20
26.5957378727
 30
0.0
 10
341.8025754865
 20
26.5957378727
 30
0.0
 10
341.8025754865
 20
24.4576027618
 30
0.0
 10
341.8025754865
 20
24.4576027618
 30
0.0
 10
341.8025754865
 20
24.4576027618
 30
0.0
 10
342.0239784613
 20
24.4576027618
 30
0.0
 10
342.0239784613
 20
24.4576027618
 30
0.0
 10
342.0239784613
 20
24.4576027618
 30
0.0
 10
342.0239784613
 20
24.9872949851
 30
0.0
 10
342.0239784613
 20
24.9872949851
 30
0.0
 10
342.0239784613
 20
25.1971829116
 30
0.0
 10
342.0239784613
 20
25.4478969184
 30
0.0
 10
342.3092376132
 20
25.4478969184
 30
0.0
 10
342.5361364065
 20
25.4478969184
 30
0.0
 10
342.5630920878
 20
25.3149504513
 30
0.0
 10
342.5630920878
 20
25.1186712184
 30
0.0
 10
342.5630920878
 20
25.1186712184
 30
0.0
 10
342.5630920878
 20
24.4576027618
 30
0.0
 10
342.5630920878
 20
24.4576027618
 30
0.0
 10
342.5630920878
 20
24.4576027618
 30
0.0
 10
342.7850184738
 20
24.4576027618
 30
0.0
 10
342.7850184738
 20
24.4576027618
 30
0.0
 10
342.7850184738
 20
24.4576027618
 30
0.0
 10
342.7850184738
 20
25.1448417828
 30
0.0
 10
342.7850184738
 20
25.1448417828
 30
0.0
 10
342.7850184738
 20
25.4253902331
 30
0.0
 10
342.7010109621
 20
25.645222974
 30
0.0
 10
342.3759725524
 20
25.645222974
 30
0.0
 10
342.2362217385
 20
25.645222974
 30
0.0
 10
342.0980411585
 20
25.5787497404
 30
0.0
 10
342.0286891629
 20
25.4557480878
 30
0.0
 10
342.0286891629
 20
25.4557480878
 30
0.0
 10
342.0239784613
 20
25.4557480878
 30
0.0
 10
342.0239784613
 20
25.4557480878
 30
0.0
 10
342.0239784613
 20
25.4557480878
 30
0.0
 10
342.0239784613
 20
26.5957378727
 30
0.0
 10
342.0239784613
 20
26.5957378727
 30
0.0
 10
342.0239784613
 20
26.5957378727
 30
0.0
 10
341.8025754865
 20
26.5957378727
 30
0.0
 10
341.8025754865
 20
26.5957378727
 30
0.0
  0
LWPOLYLINE
  5
252
100
AcDbEntity
  8
0
100
AcDbPolyline
 62
7
  6
CONTINUOUS
 90
2
 70
0
 43
0.2
 10
344.6248091507
 20
25.403406959
 10
344.8412397182
 20
25.403406959
  0
LWPOLYLINE
  5
253
100
AcDbEntity
  8
0
100
AcDbPolyline
 62
7
  6
CONTINUOUS
 90
2
 70
0
 43
0.2
 10
344.8412397182
 20
25.403406959
 10
344.8412397182
 20
25.6101544177
  0
LWPOLYLINE
  5
254
100
AcDbEntity
  8
0
100
AcDbPolyline
 62
7
  6
CONTINUOUS
 90
2
 70
0
 43
0.2
 10
344.8412397182
 20
25.6101544177
 10
344.6248091507
 20
25.6101544177
  0
LWPOLYLINE
  5
255
100
AcDbEntity
  8
0
100
AcDbPolyline
 62
7
  6
CONTINUOUS
 90
2
 70
0
 43
0.2
 10
344.6248091507
 20
25.6101544177
 10
344.6248091507
 20
26.0508667221
  0
LWPOLYLINE
  5
256
100
AcDbEntity
  8
0
100
AcDbPolyline
 62
7
  6
CONTINUOUS
 90
2
 70
0
 43
0.2
 10
344.6248091507
 20
26.0508667221
 10
344.4031444703
 20
26.0508667221
  0
LWPOLYLINE
  5
257
100
AcDbEntity
  8
0
100
AcDbPolyline
 62
7
  6
CONTINUOUS
 90
2
 70
0
 43
0.2
 10
344.4031444703
 20
26.0508667221
 10
344.4031444703
 20
25.6101544177
  0
LWPOLYLINE
  5
258
100
AcDbEntity
  8
0
100
AcDbPolyline
 62
7
  6
CONTINUOUS
 90
2
 70
0
 43
0.2
 10
344.4031444703
 20
25.6101544177
 10
344.2824981684
 20
25.6101544177
  0
LWPOLYLINE
  5
259
100
AcDbEntity
  8
0
100
AcDbPolyline
 62
7
  6
CONTINUOUS
 90
2
 70
0
 43
0.2
 10
344.2824981684
 20
25.6101544177
 10
344.2824981684
 20
25.403406959
  0
LWPOLYLINE
  5
25A
100
AcDbEntity
  8
0
100
AcDbPolyline
 62
7
  6
CONTINUOUS
 90
2
 70
0
 43
0.2
 10
344.2824981684
 20
25.403406959
 10
344.4031444703
 20
25.403406959
  0
LWPOLYLINE
  5
25B
100
AcDbEntity
  8
0
100
AcDbPolyline
 62
7
  6
CONTINUOUS
 90
2
 70
0
 43
0.2
 10
344.4031444703
 20
25.403406959
 10
344.4031444703
 20
24.4576027618
  0
LWPOLYLINE
  5
25C
100
AcDbEntity
  8
0
100
AcDbPolyline
 62
7
  6
CONTINUOUS
 90
2
 70
0
 43
0.2
 10
344.4031444703
 20
24.4576027618
 10
344.6248091507
 20
24.4576027618
  0
LWPOLYLINE
  5
25D
100
AcDbEntity
  8
0
100
AcDbPolyline
 62
7
  6
CONTINUOUS
 90
2
 70
0
 43
0.2
 10
344.6248091507
 20
24.4576027618
 10
344.6248091507
 20
25.403406959
  0
SPLINE
  5
25E
100
AcDbEntity
  8
0
100
AcDbSpline
 62
7
  6
CONTINUOUS
 70
2
 71
3
 72
20
 73
16
 74
0
 42
0.0000001
 43
0.0000001
 44
0.0000000001
 40
0.0
 40
0.0
 40
0.0
 40
0.0
 40
1.0
 40
1.0
 40
1.0
 40
2.0
 40
2.0
 40
2.0
 40
3.0
 40
3.0
 40
3.0
 40
4.0
 40
4.0
 40
4.0
 40
5.0
 40
5.0
 40
5.0
 40
5.0
 10
332.4068194579
 20
34.8185292052
 30
0.0
 10
332.4068194579
 20
34.8185292052
 30
0.0
 10
334.7231761124
 20
31.988967783
 30
0.0
 10
334.7231761124
 20
31.988967783
 30
0.0
 10
334.071529059
 20
31.3367973183
 30
0.0
 10
333.294655855
 20
30.6008810475
 30
0.0
 10
332.3234662104
 20
30.6008810475
 30
0.0
 10
331.3249283259
 20
30.6008810475
 30
0.0
 10
330.3816103324
 20
31.5304594948
 30
0.0
 10
330.3816103324
 20
32.5296516433
 30
0.0
 10
330.3816103324
 20
33.5288437919
 30
0.0
 10
331.5604634055
 20
34.2354490305
 30
0.0
 10
332.2819858658
 20
34.7353068104
 30
0.0
 10
332.2819858658
 20
34.7353068104
 30
0.0
 10
332.4068194579
 20
34.8185292052
 30
0.0
 10
332.4068194579
 20
34.8185292052
 30
0.0
  0
SPLINE
  5
25F
100
AcDbEntity
  8
0
100
AcDbSpline
 62
7
  6
CONTINUOUS
 70
2
 71
3
 72
23
 73
19
 74
0
 42
0.0000001
 43
0.0000001
 44
0.0000000001
 40
0.0
 40
0.0
 40
0.0
 40
0.0
 40
1.0
 40
1.0
 40
1.0
 40
2.0
 40
2.0
 40
2.0
 40
3.0
 40
3.0
 40
3.0
 40
4.0
 40
4.0
 40
4.0
 40
5.0
 40
5.0
 40
5.0
 40
6.0
 40
6.0
 40
6.0
 40
6.0
 10
332.6842274405
 20
36.4562831249
 30
0.0
 10
332.6842274405
 20
36.4562831249
 30
0.0
 10
332.3377291679
 20
36.8996124858
 30
0.0
 10
332.3377291679
 20
36.8996124858
 30
0.0
 10
332.031926123
 20
37.2877219557
 30
0.0
 10
331.7130377959
 20
37.6762239841
 30
0.0
 10
331.7130377959
 20
38.2031682982
 30
0.0
 10
331.7130377959
 20
38.8693400148
 30
0.0
 10
332.2543759204
 20
39.3130619341
 30
0.0
 10
332.8782821755
 20
39.3130619341
 30
0.0
 10
333.5720638376
 20
39.3130619341
 30
0.0
 10
334.0992698573
 20
38.9108203594
 30
0.0
 10
334.0992698573
 20
38.1758200584
 30
0.0
 10
334.0992698573
 20
37.4125555479
 30
0.0
 10
333.3780091026
 20
36.9824423221
 30
0.0
 10
332.8509339357
 20
36.5667229067
 30
0.0
 10
332.8509339357
 20
36.5667229067
 30
0.0
 10
332.6842274405
 20
36.4562831249
 30
0.0
 10
332.6842274405
 20
36.4562831249
 30
0.0
  0
SPLINE
  5
260
100
AcDbEntity
  8
0
100
AcDbSpline
 62
7
  6
CONTINUOUS
 70
2
 71
3
 72
50
 73
46
 74
0
 42
0.0000001
 43
0.0000001
 44
0.0000000001
 40
0.0
 40
0.0
 40
0.0
 40
0.0
 40
1.0
 40
1.0
 40
1.0
 40
2.0
 40
2.0
 40
2.0
 40
3.0
 40
3.0
 40
3.0
 40
4.0
 40
4.0
 40
4.0
 40
5.0
 40
5.0
 40
5.0
 40
6.0
 40
6.0
 40
6.0
 40
7.0
 40
7.0
 40
7.0
 40
8.0
 40
8.0
 40
8.0
 40
9.0
 40
9.0
 40
9.0
 40
10.0
 40
10.0
 40
10.0
 40
11.0
 40
11.0
 40
11.0
 40
12.0
 40
12.0
 40
12.0
 40
13.0
 40
13.0
 40
13.0
 40
14.0
 40
14.0
 40
14.0
 40
15.0
 40
15.0
 40
15.0
 40
15.0
 10
336.6378146034
 20
29.6576939068
 30
0.0
 10
336.6378146034
 20
29.6576939068
 30
0.0
 10
338.247042608
 20
29.6576939068
 30
0.0
 10
338.247042608
 20
29.6576939068
 30
0.0
 10
338.247042608
 20
29.6576939068
 30
0.0
 10
336.3740153144
 20
31.9748356782
 30
0.0
 10
336.3740153144
 20
31.9748356782
 30
0.0
 10
336.3740153144
 20
31.9748356782
 30
0.0
 10
337.6503537398
 20
33.4723153728
 30
0.0
 10
337.6503537398
 20
33.4723153728
 30
0.0
 10
337.6503537398
 20
33.4723153728
 30
0.0
 10
336.8181297921
 20
34.3333269413
 30
0.0
 10
336.8181297921
 20
34.3333269413
 30
0.0
 10
336.8181297921
 20
34.3333269413
 30
0.0
 10
335.5975346688
 20
32.9180228189
 30
0.0
 10
335.5975346688
 20
32.9180228189
 30
0.0
 10
335.5975346688
 20
32.9180228189
 30
0.0
 10
333.4196203
 20
35.5533986534
 30
0.0
 10
333.4196203
 20
35.5533986534
 30
0.0
 10
334.2931937394
 20
36.1914370133
 30
0.0
 10
335.3198649806
 20
36.9824423221
 30
0.0
 10
335.3198649806
 20
38.1612953952
 30
0.0
 10
335.3198649806
 20
39.5349883202
 30
0.0
 10
334.1819688408
 20
40.3394714696
 30
0.0
 10
332.9066772379
 20
40.3394714696
 30
0.0
 10
331.5332460185
 20
40.3394714696
 30
0.0
 10
330.4923118197
 20
39.49324627
 30
0.0
 10
330.4923118197
 20
38.0505939078
 30
0.0
 10
330.4923118197
 20
37.1630192164
 30
0.0
 10
331.0476511962
 20
36.3861460124
 30
0.0
 10
331.6438166531
 20
35.7617163459
 30
0.0
 10
331.6438166531
 20
35.7617163459
 30
0.0
 10
330.991907894
 20
35.2901227756
 30
0.0
 10
330.991907894
 20
35.2901227756
 30
0.0
 10
329.9933700096
 20
34.5688620209
 30
0.0
 10
329.1604917978
 20
33.8476012662
 30
0.0
 10
329.1604917978
 20
32.5160429498
 30
0.0
 10
329.1604917978
 20
30.7123676518
 30
0.0
 10
330.6175379704
 20
29.4357675207
 30
0.0
 10
332.3650774077
 20
29.4357675207
 30
0.0
 10
333.5999354886
 20
29.4357675207
 30
0.0
 10
334.7093057133
 20
30.1439429932
 30
0.0
 10
335.5001801693
 20
31.0724746179
 30
0.0
 10
335.5001801693
 20
31.0724746179
 30
0.0
 10
336.6378146034
 20
29.6576939068
 30
0.0
 10
336.6378146034
 20
29.6576939068
 30
0.0
  0
LINE
  5
261
100
AcDbEntity
  8
0
100
AcDbLine
 62
7
  6
CONTINUOUS
 10
322.4406759784
 20
27.6315688114
 11
344.8545867061
 21
27.6315688114
  0
LINE
  5
262
100
AcDbEntity
  8
0
100
AcDbLine
 62
7
  6
CONTINUOUS
 10
344.8545867061
 20
27.6315688114
 11
344.8545867061
 21
50.0454795391
  0
LINE
  5
263
100
AcDbEntity
  8
0
100
AcDbLine
 62
7
  6
CONTINUOUS
 10
344.8545867061
 20
50.0454795391
 11
322.4406759784
 21
50.0454795391
  0
LINE
  5
264
100
AcDbEntity
  8
0
100
AcDbLine
 62
7
  6
CONTINUOUS
 10
322.4406759784
 20
50.0454795391
 11
322.4406759784
 21
27.6315688114
  0
ENDBLK
  5
265
100
AcDbEntity
  8
0
  6
BYBLOCK
 62
0
100
AcDbBlockEnd
  0
BLOCK
  5
266
100
AcDbEntity
  8
0
100
AcDbBlockBegin
  2
_CLOSED
 70
64
 10
0.0
 20
0.0
  3
_CLOSED
  1

  0
LINE
  5
267
100
AcDbEntity
  8
0
  6
BYBLOCK
 62
0
100
AcDbLine
 10
0.0
 20
0.0
 11
-1.0
 21
0.2
  0
LINE
  5
268
100
AcDbEntity
  8
0
  6
BYBLOCK
 62
0
100
AcDbLine
 10
-1.0
 20
0.2
 11
-1.0
 21
-0.2
  0
LINE
  5
269
100
AcDbEntity
  8
0
  6
BYBLOCK
 62
0
100
AcDbLine
 10
-1.0
 20
-0.2
 11
0.0
 21
0.0
  0
LINE
  5
26A
100
AcDbEntity
  8
0
  6
BYBLOCK
 62
0
100
AcDbLine
 10
-1.0
 20
0.0
 11
0.0
 21
0.0
  0
ENDBLK
  5
26B
100
AcDbEntity
  8
0
  6
BYBLOCK
 62
0
100
AcDbBlockEnd
  0
BLOCK
  5
26C
100
AcDbEntity
  8
0
100
AcDbBlockBegin
 62
2
  6
CONTINUOUS
  2
*D0
 70
65
 10
0.0
 20
0.0
  3
*D0
  1

  0
MTEXT
  5
26D
100
AcDbEntity
  8
0
100
AcDbMText
 62
2
  6
CONTINUOUS
  7
STANDARD
 71
2
 72
1
 10
157.5201531735
 20
221.2276835373
 30
0.0
 11
0.0
 21
1.0
 31
0.0
  1
117
 40
3.0
 41
6.9925650558
  0
LINE
  5
26E
100
AcDbEntity
  8
0
100
AcDbLine
 62
2
  6
CONTINUOUS
 10
150.7987374861
 20
279.7276835373
 11
162.0201531735
 21
279.7276835373
  0
LINE
  5
26F
100
AcDbEntity
  8
0
100
AcDbLine
 62
2
  6
CONTINUOUS
 10
150.2776696329
 20
162.7276835373
 11
162.0201531735
 21
162.7276835373
  0
LINE
  5
270
100
AcDbEntity
  8
0
100
AcDbLine
 62
2
  6
CONTINUOUS
 10
161.2701531735
 20
279.7276835373
 11
161.2701531735
 21
221.2276835373
  0
LINE
  5
271
100
AcDbEntity
  8
0
100
AcDbLine
 62
2
  6
CONTINUOUS
 10
161.2701531735
 20
162.7276835373
 11
161.2701531735
 21
221.2276835373
  0
INSERT
  5
272
100
AcDbEntity
  8
0
100
AcDbBlockReference
 62
2
  6
CONTINUOUS
  2
_CLOSED
 10
161.2701531735
 20
279.7276835373
 41
2.5
 42
2.5
 43
2.5
 50
90.0
  0
INSERT
  5
273
100
AcDbEntity
  8
0
100
AcDbBlockReference
 62
2
  6
CONTINUOUS
  2
_CLOSED
 10
161.2701531735
 20
162.7276835373
 41
2.5
 42
2.5
 43
2.5
 50
270.0
  0
ENDBLK
  5
274
100
AcDbEntity
  8
0
  6
BYBLOCK
 62
0
100
AcDbBlockEnd
  0
BLOCK
  5
275
100
AcDbEntity
  8
0
100
AcDbBlockBegin
 62
2
  6
CONTINUOUS
  2
*D1
 70
65
 10
0.0
 20
0.0
  3
*D1
  1

  0
MTEXT
  5
276
100
AcDbEntity
  8
0
100
AcDbMText
 62
2
  6
CONTINUOUS
  7
STANDARD
 71
2
 72
1
 10
84.2540322581
 20
10.7668290904
 30
0.0
 11
1.0
 21
0.0
 31
0.0
  1
Ø84
 40
3.0
 41
7.9182156134
  0
LINE
  5
277
100
AcDbEntity
  8
0
100
AcDbLine
 62
2
  6
CONTINUOUS
 10
42.2540322581
 20
12.6808348164
 11
42.2540322581
 21
6.2668290904
  0
LINE
  5
278
100
AcDbEntity
  8
0
100
AcDbLine
 62
2
  6
CONTINUOUS
 10
126.2540322581
 20
13.1652130144
 11
126.2540322581
 21
6.2668290904
  0
LINE
  5
279
100
AcDbEntity
  8
0
100
AcDbLine
 62
2
  6
CONTINUOUS
 10
42.2540322581
 20
7.0168290904
 11
84.2540322581
 21
7.0168290904
  0
LINE
  5
27A
100
AcDbEntity
  8
0
100
AcDbLine
 62
2
  6
CONTINUOUS
 10
126.2540322581
 20
7.0168290904
 11
84.2540322581
 21
7.0168290904
  0
INSERT
  5
27B
100
AcDbEntity
  8
0
100
AcDbBlockReference
 62
2
  6
CONTINUOUS
  2
_CLOSED
 10
42.2540322581
 20
7.0168290904
 41
2.5
 42
2.5
 43
2.5
 50
180.0
  0
INSERT
  5
27C
100
AcDbEntity
  8
0
100
AcDbBlockReference
 62
2
  6
CONTINUOUS
  2
_CLOSED
 10
126.2540322581
 20
7.0168290904
 41
2.5
 42
2.5
 43
2.5
  0
ENDBLK
  5
27D
100
AcDbEntity
  8
0
  6
BYBLOCK
 62
0
100
AcDbBlockEnd
  0
BLOCK
  5
27E
100
AcDbEntity
  8
0
100
AcDbBlockBegin
 62
2
  6
CONTINUOUS
  2
*D2
 70
65
 10
0.0
 20
0.0
  3
*D2
  1

  0
MTEXT
  5
27F
100
AcDbEntity
  8
0
100
AcDbMText
 62
2
  6
CONTINUOUS
  7
STANDARD
 71
2
 72
1
 10
289.0700778643
 20
294.1038204636
 30
0.0
 11
1.0
 21
0.0
 31
0.0
  1
87,7
 40
3.0
 41
8.1524163569
  0
LINE
  5
280
100
AcDbEntity
  8
0
100
AcDbLine
 62
2
  6
CONTINUOUS
 10
245.2200778643
 20
286.1777244716
 11
245.2200778643
 21
291.1038204636
  0
LINE
  5
281
100
AcDbEntity
  8
0
100
AcDbLine
 62
2
  6
CONTINUOUS
 10
332.9200778643
 20
286.3777244717
 11
332.9200778643
 21
291.1038204636
  0
LINE
  5
282
100
AcDbEntity
  8
0
100
AcDbLine
 62
2
  6
CONTINUOUS
 10
245.2200778643
 20
290.3538204636
 11
289.0700778643
 21
290.3538204636
  0
LINE
  5
283
100
AcDbEntity
  8
0
100
AcDbLine
 62
2
  6
CONTINUOUS
 10
332.9200778643
 20
290.3538204636
 11
289.0700778643
 21
290.3538204636
  0
INSERT
  5
284
100
AcDbEntity
  8
0
100
AcDbBlockReference
 62
2
  6
CONTINUOUS
  2
_CLOSED
 10
245.2200778643
 20
290.3538204636
 41
2.5
 42
2.5
 43
2.5
 50
180.0
  0
INSERT
  5
285
100
AcDbEntity
  8
0
100
AcDbBlockReference
 62
2
  6
CONTINUOUS
  2
_CLOSED
 10
332.9200778643
 20
290.3538204636
 41
2.5
 42
2.5
 43
2.5
  0
ENDBLK
  5
286
100
AcDbEntity
  8
0
  6
BYBLOCK
 62
0
100
AcDbBlockEnd
  0
ENDSEC
  0
SECTION
  2
ENTITIES
  0
DIMENSION
  5
287
100
AcDbEntity
  8
0
100
AcDbDimension
 62
2
  6
CONTINUOUS
  2
*D0
 10
161.2701531735
 20
162.7276835373
 11
161.2701531735
 21
221.3565737636
 70
160
  3
DIMSTYLE_1
100
AcDbAlignedDimension
 13
150.0487374861
 23
279.7276835373
 14
149.5276696329
 24
162.7276835373
 50
270.0
100
AcDbRotatedDimension
  0
DIMENSION
  5
288
100
AcDbEntity
  8
0
100
AcDbDimension
 62
2
  6
CONTINUOUS
  2
*D1
 10
126.2540322581
 20
7.0168290904
 11
84.2540322581
 21
7.0168290904
 70
160
  1
Ø<>
  3
DIMSTYLE_1
100
AcDbAlignedDimension
 13
42.2540322581
 23
13.4308348164
 14
126.2540322581
 24
13.9152130144
100
AcDbRotatedDimension
  0
DIMENSION
  5
289
100
AcDbEntity
  8
0
100
AcDbDimension
 62
2
  6
CONTINUOUS
  2
*D2
 10
332.9200778643
 20
290.3538204636
 11
289.0550280762
 21
290.3538204636
 70
160
  3
DIMSTYLE_1
100
AcDbAlignedDimension
 13
245.2200778643
 23
285.4277244716
 14
332.9200778643
 24
285.6277244717
100
AcDbRotatedDimension
  0
LINE
  5
28A
100
AcDbEntity
  8
0
100
AcDbLine
 62
2
  6
CONTINUOUS
 10
319.8215188711
 20
50.4217920391
 11
409.8215188711
 21
50.4217920391
  0
LINE
  5
28B
100
AcDbEntity
  8
0
100
AcDbLine
 62
2
  6
CONTINUOUS
 10
319.8215188711
 20
50.4217920391
 11
319.8215188711
 21
10.4217920391
  0
LINE
  5
28C
100
AcDbEntity
  8
0
100
AcDbLine
 62
2
  6
CONTINUOUS
 10
349.8215188711
 20
44.4217920391
 11
409.8215188711
 21
44.4217920391
  0
LINE
  5
28D
100
AcDbEntity
  8
0
100
AcDbLine
 62
2
  6
CONTINUOUS
 10
349.8215188711
 20
38.4217920391
 11
409.8215188711
 21
38.4217920391
  0
LINE
  5
28E
100
AcDbEntity
  8
0
100
AcDbLine
 62
2
  6
CONTINUOUS
 10
349.8215188711
 20
28.4217920391
 11
409.8215188711
 21
28.4217920391
  0
LINE
  5
28F
100
AcDbEntity
  8
0
100
AcDbLine
 62
2
  6
CONTINUOUS
 10
319.8215188711
 20
23.4217920391
 11
409.8215188711
 21
23.4217920391
  0
LINE
  5
290
100
AcDbEntity
  8
0
100
AcDbLine
 62
2
  6
CONTINUOUS
 10
319.8215188711
 20
10.4217920391
 11
409.8215188711
 21
10.4217920391
  0
LINE
  5
291
100
AcDbEntity
  8
0
100
AcDbLine
 62
2
  6
CONTINUOUS
 10
349.8215188711
 20
50.4217920391
 11
349.8215188711
 21
23.4217920391
  0
LINE
  5
292
100
AcDbEntity
  8
0
100
AcDbLine
 62
2
  6
CONTINUOUS
 10
389.8215188711
 20
50.4217920391
 11
389.8215188711
 21
38.4217920391
  0
LINE
  5
293
100
AcDbEntity
  8
0
100
AcDbLine
 62
2
  6
CONTINUOUS
 10
409.8215188711
 20
50.4217920391
 11
409.8215188711
 21
10.4217920391
  0
INSERT
  5
294
100
AcDbEntity
  8
0
100
AcDbBlockReference
 62
2
  6
CONTINUOUS
  2
LOGO2_BL0
 10
333.6475659158
 20
36.9217920391
  0
MTEXT
  5
295
100
AcDbEntity
  8
9_SOLID
100
AcDbMText
 62
2
  6
CONTINUOUS
  7
TEXTSTYLE_2
 71
1
 72
1
 10
351.3090188711
 20
48.9217920391
 30
0.0
 11
1.0
 21
0.0
 31
0.0
  1
453_C_001
 40
3.0
 41
31.2857142857
  0
MTEXT
  5
296
100
AcDbEntity
  8
0
100
AcDbMText
 62
2
  6
CONTINUOUS
  7
TEXTSTYLE_2
 71
1
 72
1
 10
391.3090188711
 20
49.1717920391
 30
0.0
 11
1.0
 21
0.0
 31
0.0
  1
Rev:00
 40
3.5
 41
22.75
  0
MTEXT
  5
297
100
AcDbEntity
  8
9_SOLID
100
AcDbMText
 62
2
  6
CONTINUOUS
  7
TEXTSTYLE_2
 71
1
 72
1
 10
351.3090188711
 20
42.6717920391
 30
0.0
 11
1.0
 21
0.0
 31
0.0
  1
Scale:1:1
 40
3.5
 41
28.375
  0
MTEXT
  5
298
100
AcDbEntity
  8
9_SOLID
100
AcDbMText
 62
2
  6
CONTINUOUS
  7
TEXTSTYLE_2
 71
1
 72
1
 10
391.3090188711
 20
43.1717920391
 30
0.0
 11
1.0
 21
0.0
 31
0.0
  1
A3
 40
3.5
 41
9.25
  0
MTEXT
  5
299
100
AcDbEntity
  8
0
100
AcDbMText
 62
2
  6
CONTINUOUS
  7
TEXTSTYLE_2
 71
1
 72
1
 10
351.3090188711
 20
35.1717920391
 30
0.0
 11
1.0
 21
0.0
 31
0.0
  1
Ginko 3.0
 40
3.5
 41
34.125
  0
MTEXT
  5
29A
100
AcDbEntity
  8
0
100
AcDbMText
 62
2
  6
CONTINUOUS
  7
TEXTSTYLE_2
 71
1
 72
1
 10
351.3090188711
 20
27.1717920391
 30
0.0
 11
1.0
 21
0.0
 31
0.0
  1
DATE:12/06/2018
 40
2.5
 41
42.2321428571
  0
MTEXT
  5
29B
100
AcDbEntity
  8
9_SOLID
100
AcDbMText
 62
2
  6
CONTINUOUS
  7
TEXTSTYLE_2
 71
1
 72
1
 10
321.3090188711
 20
23.1092920391
 30
0.0
 11
1.0
 21
0.0
 31
0.0
  1
Any integral or partial reproductions are prohibited \Pwithout prior authorisation of L {\Ftxt.shx;\W0.190476;\H2.250000; }& L Luce & Light s.r.l., \Pin accordance with the law in force. \PAll rights reserved.
 40
2.25
 41
134.5982142857
  0
LINE
  5
29C
100
AcDbEntity
  8
0
100
AcDbLine
 62
7
  6
CONTINUOUS
 10
0.0
 20
0.0
 11
0.0
 21
297.0
  0
LINE
  5
29D
100
AcDbEntity
  8
0
100
AcDbLine
 62
7
  6
CONTINUOUS
 10
0.0
 20
0.0
 11
420.0
 21
0.0
  0
LINE
  5
29E
100
AcDbEntity
  8
0
100
AcDbLine
 62
7
  6
CONTINUOUS
 10
0.0
 20
297.0
 11
420.0
 21
297.0
  0
LINE
  5
29F
100
AcDbEntity
  8
0
100
AcDbLine
 62
7
  6
CONTINUOUS
 10
420.0
 20
0.0
 11
420.0
 21
297.0
  0
LINE
  5
2A0
100
AcDbEntity
  8
7_ALL_FEATURES
100
AcDbLine
 62
7
  6
CONTINUOUS
 10
49.2540322581
 20
162.7276835373
 11
119.2540322581
 21
162.7276835373
  0
LINE
  5
2A1
100
AcDbEntity
  8
7_ALL_FEATURES
100
AcDbLine
 62
3
  6
CONTINUOUS
 10
49.2540322581
 20
164.7276835373
 11
119.2540322581
 21
164.7276835373
  0
LINE
  5
2A2
100
AcDbEntity
  8
7_ALL_FEATURES
100
AcDbLine
 62
7
  6
CONTINUOUS
 10
38.890022915
 20
241.0773737979
 11
40.3180790842
 21
244.7495182331
  0
LINE
  5
2A3
100
AcDbEntity
  8
7_ALL_FEATURES
100
AcDbLine
 62
9
  6
CONTINUOUS
 10
126.2342010264
 20
169.2011439231
 11
124.2262305681
 21
169.2011439231
  0
LINE
  5
2A4
100
AcDbEntity
  8
7_ALL_FEATURES
100
AcDbLine
 62
9
  6
CONTINUOUS
 10
42.2738634897
 20
169.2011439231
 11
44.281833948
 21
169.2011439231
  0
LINE
  5
2A5
100
AcDbEntity
  8
7_ALL_FEATURES
100
AcDbLine
 62
7
  6
CONTINUOUS
 10
38.7540322581
 20
240.3524812756
 11
38.7540322581
 21
235.1028857989
  0
LINE
  5
2A6
100
AcDbEntity
  8
7_ALL_FEATURES
100
AcDbLine
 62
9
  6
CONTINUOUS
 10
38.890022915
 20
234.3779932766
 11
38.890022915
 21
241.0773737979
  0
LINE
  5
2A7
100
AcDbEntity
  8
7_ALL_FEATURES
100
AcDbLine
 62
9
  6
CONTINUOUS
 10
40.3180790842
 20
244.7495182331
 11
40.3180790842
 21
230.7058488414
  0
LINE
  5
2A8
100
AcDbEntity
  8
7_ALL_FEATURES
100
AcDbLine
 62
9
  6
CONTINUOUS
 10
126.2540322581
 20
176.0415467896
 11
124.2540322581
 21
176.0415467896
  0
LINE
  5
2A9
100
AcDbEntity
  8
7_ALL_FEATURES
100
AcDbLine
 62
9
  6
CONTINUOUS
 10
42.2540322581
 20
176.0415467896
 11
44.2540322581
 21
176.0415467896
  0
LINE
  5
2AA
100
AcDbEntity
  8
7_ALL_FEATURES
100
AcDbLine
 62
9
  6
CONTINUOUS
 10
41.0170825879
 20
245.2276835373
 11
41.0170825879
 21
230.2276835373
  0
LINE
  5
2AB
100
AcDbEntity
  8
7_ALL_FEATURES
100
AcDbLine
 62
9
  6
CONTINUOUS
 10
41.6540322581
 20
245.2276835373
 11
41.6540322581
 21
230.2276835373
  0
LINE
  5
2AC
100
AcDbEntity
  8
7_ALL_FEATURES
100
AcDbLine
 62
7
  6
CONTINUOUS
 10
41.7540322581
 20
245.1276835296
 11
41.7540322581
 21
230.327683545
  0
LINE
  5
2AD
100
AcDbEntity
  8
7_ALL_FEATURES
100
AcDbLine
 62
7
  6
CONTINUOUS
 10
42.2540322581
 20
169.7276835373
 11
42.2540322581
 21
237.4776835373
  0
LINE
  5
2AE
100
AcDbEntity
  8
7_ALL_FEATURES
100
AcDbLine
 62
7
  6
CONTINUOUS
 10
42.2540322581
 20
237.9776835373
 11
42.2540322581
 21
251.7028890787
  0
LINE
  5
2AF
100
AcDbEntity
  8
7_ALL_FEATURES
100
AcDbLine
 62
3
  6
CONTINUOUS
 10
44.2540322581
 20
169.7276835373
 11
44.2540322581
 21
224.9223188052
  0
LINE
  5
2B0
100
AcDbEntity
  8
7_ALL_FEATURES
100
AcDbLine
 62
3
  6
CONTINUOUS
 10
44.2540322581
 20
250.5330482693
 11
44.2540322581
 21
251.7028890787
  0
LINE
  5
2B1
100
AcDbEntity
  8
7_ALL_FEATURES
100
AcDbLine
 62
9
  6
CONTINUOUS
 10
49.2540322581
 20
162.7276835373
 11
49.2540322581
 21
164.7276835373
  0
LINE
  5
2B2
100
AcDbEntity
  8
7_ALL_FEATURES
100
AcDbLine
 62
7
  6
CONTINUOUS
 10
38.890022915
 20
234.3779932766
 11
40.3180790842
 21
230.7058488414
  0
LINE
  5
2B3
100
AcDbEntity
  8
7_ALL_FEATURES
100
AcDbLine
 62
7
  6
CONTINUOUS
 10
76.7540322581
 20
195.7276835373
 11
91.7540322581
 21
195.7276835373
  0
LINE
  5
2B4
100
AcDbEntity
  8
7_ALL_FEATURES
100
AcDbLine
 62
9
  6
CONTINUOUS
 10
76.2540322581
 20
196.2276835373
 11
77.7947557397
 21
196.2276835373
  0
LINE
  5
2B5
100
AcDbEntity
  8
7_ALL_FEATURES
100
AcDbLine
 62
9
  6
CONTINUOUS
 10
90.713308522
 20
196.2276835373
 11
92.2540322581
 21
196.2276835373
  0
LINE
  5
2B6
100
AcDbEntity
  8
7_ALL_FEATURES
100
AcDbLine
 62
7
  6
CONTINUOUS
 10
76.2540322581
 20
196.2276835373
 11
76.2540322581
 21
196.4973960405
  0
LINE
  5
2B7
100
AcDbEntity
  8
7_ALL_FEATURES
100
AcDbLine
 62
7
  6
CONTINUOUS
 10
126.2540322581
 20
223.8189172798
 11
124.2540322581
 21
223.8189172798
  0
LINE
  5
2B8
100
AcDbEntity
  8
7_ALL_FEATURES
100
AcDbLine
 62
7
  6
CONTINUOUS
 10
42.2540322581
 20
223.8189172798
 11
44.2540322581
 21
223.8189172798
  0
LINE
  5
2B9
100
AcDbEntity
  8
7_ALL_FEATURES
100
AcDbLine
 62
7
  6
CONTINUOUS
 10
43.7529197803
 20
226.6080104306
 11
42.2540322581
 21
226.6080104306
  0
LINE
  5
2BA
100
AcDbEntity
  8
7_ALL_FEATURES
100
AcDbLine
 62
7
  6
CONTINUOUS
 10
124.7551447358
 20
226.6080104306
 11
126.2540322581
 21
226.6080104306
  0
LINE
  5
2BB
100
AcDbEntity
  8
7_ALL_FEATURES
100
AcDbLine
 62
7
  6
CONTINUOUS
 10
92.2540322581
 20
196.2276835373
 11
92.2540322581
 21
196.4973960405
  0
LINE
  5
2BC
100
AcDbEntity
  8
7_ALL_FEATURES
100
AcDbLine
 62
7
  6
CONTINUOUS
 10
43.5395209291
 20
227.4199495395
 11
42.2540322581
 21
227.4199495395
  0
LINE
  5
2BD
100
AcDbEntity
  8
7_ALL_FEATURES
100
AcDbLine
 62
7
  6
CONTINUOUS
 10
124.968543587
 20
227.4199495395
 11
126.2540322581
 21
227.4199495395
  0
LINE
  5
2BE
100
AcDbEntity
  8
7_ALL_FEATURES
100
AcDbLine
 62
7
  6
CONTINUOUS
 10
43.3366349787
 20
228.2540031631
 11
42.2540322581
 21
228.2540031631
  0
LINE
  5
2BF
100
AcDbEntity
  8
7_ALL_FEATURES
100
AcDbLine
 62
7
  6
CONTINUOUS
 10
125.1714295374
 20
228.2540031631
 11
126.2540322581
 21
228.2540031631
  0
LINE
  5
2C0
100
AcDbEntity
  8
7_ALL_FEATURES
100
AcDbLine
 62
7
  6
CONTINUOUS
 10
43.1249896595
 20
229.2216345131
 11
42.2540322581
 21
229.2216345131
  0
LINE
  5
2C1
100
AcDbEntity
  8
7_ALL_FEATURES
100
AcDbLine
 62
7
  6
CONTINUOUS
 10
125.3830748566
 20
229.2216345131
 11
126.2540322581
 21
229.2216345131
  0
LINE
  5
2C2
100
AcDbEntity
  8
7_ALL_FEATURES
100
AcDbLine
 62
7
  6
CONTINUOUS
 10
42.937299811
 20
230.1878488798
 11
42.2540322581
 21
230.1878488798
  0
LINE
  5
2C3
100
AcDbEntity
  8
7_ALL_FEATURES
100
AcDbLine
 62
7
  6
CONTINUOUS
 10
125.5707647051
 20
230.1878488798
 11
126.2540322581
 21
230.1878488798
  0
LINE
  5
2C4
100
AcDbEntity
  8
02___PRT_ALL_AXES
100
AcDbLine
 62
7
  6
CONTINUOUS
 10
41.6540322581
 20
230.2276835373
 11
41.0170825879
 21
230.2276835373
  0
LINE
  5
2C5
100
AcDbEntity
  8
02___PRT_ALL_AXES
100
AcDbLine
 62
7
  6
CONTINUOUS
 10
126.8540322581
 20
230.2276835373
 11
127.4909819282
 21
230.2276835373
  0
LINE
  5
2C6
100
AcDbEntity
  8
7_ALL_FEATURES
100
AcDbLine
 62
7
  6
CONTINUOUS
 10
42.7723866986
 20
231.1544784565
 11
42.2540322581
 21
231.1544784565
  0
LINE
  5
2C7
100
AcDbEntity
  8
7_ALL_FEATURES
100
AcDbLine
 62
7
  6
CONTINUOUS
 10
125.7356778176
 20
231.1544784565
 11
126.2540322581
 21
231.1544784565
  0
LINE
  5
2C8
100
AcDbEntity
  8
7_ALL_FEATURES
100
AcDbLine
 62
7
  6
CONTINUOUS
 10
42.7525756897
 20
231.281771482
 11
42.2540322581
 21
231.281771482
  0
LINE
  5
2C9
100
AcDbEntity
  8
7_ALL_FEATURES
100
AcDbLine
 62
7
  6
CONTINUOUS
 10
125.7554888264
 20
231.281771482
 11
126.2540322581
 21
231.281771482
  0
LINE
  5
2CA
100
AcDbEntity
  8
3_ALL_AXES
100
AcDbLine
 62
7
  6
CONTINUOUS
 10
42.2540322581
 20
231.7276835373
 11
41.7540322581
 21
231.7276835373
  0
LINE
  5
2CB
100
AcDbEntity
  8
3_ALL_AXES
100
AcDbLine
 62
7
  6
CONTINUOUS
 10
126.2540322581
 20
231.7276835373
 11
126.7540322581
 21
231.7276835373
  0
LINE
  5
2CC
100
AcDbEntity
  8
7_ALL_FEATURES
100
AcDbLine
 62
9
  6
CONTINUOUS
 10
126.2540322581
 20
231.8110278729
 11
125.8342432845
 21
231.8110278729
  0
LINE
  5
2CD
100
AcDbEntity
  8
7_ALL_FEATURES
100
AcDbLine
 62
9
  6
CONTINUOUS
 10
42.2540322581
 20
231.8110278729
 11
42.6738212316
 21
231.8110278729
  0
LINE
  5
2CE
100
AcDbEntity
  8
7_ALL_FEATURES
100
AcDbLine
 62
7
  6
CONTINUOUS
 10
42.6005721584
 20
232.3507886572
 11
42.2540322581
 21
232.3507886572
  0
LINE
  5
2CF
100
AcDbEntity
  8
7_ALL_FEATURES
100
AcDbLine
 62
7
  6
CONTINUOUS
 10
125.9074923577
 20
232.3507886572
 11
126.2540322581
 21
232.3507886572
  0
LINE
  5
2D0
100
AcDbEntity
  8
7_ALL_FEATURES
100
AcDbLine
 62
7
  6
CONTINUOUS
 10
42.5033248868
 20
233.1618871785
 11
42.2540322581
 21
233.1618871785
  0
LINE
  5
2D1
100
AcDbEntity
  8
7_ALL_FEATURES
100
AcDbLine
 62
7
  6
CONTINUOUS
 10
126.0047396293
 20
233.1618871785
 11
126.2540322581
 21
233.1618871785
  0
LINE
  5
2D2
100
AcDbEntity
  8
7_ALL_FEATURES
100
AcDbLine
 62
7
  6
CONTINUOUS
 10
42.464486711
 20
233.5377642269
 11
42.2540322581
 21
233.5377642269
  0
LINE
  5
2D3
100
AcDbEntity
  8
7_ALL_FEATURES
100
AcDbLine
 62
7
  6
CONTINUOUS
 10
126.0435778051
 20
233.5377642269
 11
126.2540322581
 21
233.5377642269
  0
LINE
  5
2D4
100
AcDbEntity
  8
7_ALL_FEATURES
100
AcDbLine
 62
7
  6
CONTINUOUS
 10
42.3658863158
 20
234.6771026648
 11
42.2540322581
 21
234.6771026648
  0
LINE
  5
2D5
100
AcDbEntity
  8
7_ALL_FEATURES
100
AcDbLine
 62
7
  6
CONTINUOUS
 10
126.1421782003
 20
234.6771026648
 11
126.2540322581
 21
234.6771026648
  0
LINE
  5
2D6
100
AcDbEntity
  8
7_ALL_FEATURES
100
AcDbLine
 62
7
  6
CONTINUOUS
 10
42.3245758611
 20
235.3080253125
 11
42.2540322581
 21
235.3080253125
  0
LINE
  5
2D7
100
AcDbEntity
  8
7_ALL_FEATURES
100
AcDbLine
 62
7
  6
CONTINUOUS
 10
126.1834886551
 20
235.3080253125
 11
126.2540322581
 21
235.3080253125
  0
LINE
  5
2D8
100
AcDbEntity
  8
7_ALL_FEATURES
100
AcDbLine
 62
7
  6
CONTINUOUS
 10
42.3038270317
 20
235.7019484137
 11
42.2540322581
 21
235.7019484137
  0
LINE
  5
2D9
100
AcDbEntity
  8
7_ALL_FEATURES
100
AcDbLine
 62
7
  6
CONTINUOUS
 10
126.2042374844
 20
235.7019484137
 11
126.2540322581
 21
235.7019484137
  0
LINE
  5
2DA
100
AcDbEntity
  8
7_ALL_FEATURES
100
AcDbLine
 62
7
  6
CONTINUOUS
 10
42.2935232159
 20
235.9210655498
 11
42.2540322581
 21
235.9210655498
  0
LINE
  5
2DB
100
AcDbEntity
  8
7_ALL_FEATURES
100
AcDbLine
 62
7
  6
CONTINUOUS
 10
126.2145413002
 20
235.9210655498
 11
126.2540322581
 21
235.9210655498
  0
LINE
  5
2DC
100
AcDbEntity
  8
7_ALL_FEATURES
100
AcDbLine
 62
7
  6
CONTINUOUS
 10
42.2632350696
 20
236.8948389691
 11
42.2540322581
 21
236.8948389691
  0
LINE
  5
2DD
100
AcDbEntity
  8
7_ALL_FEATURES
100
AcDbLine
 62
7
  6
CONTINUOUS
 10
126.2448294465
 20
236.8948389691
 11
126.2540322581
 21
236.8948389691
  0
LINE
  5
2DE
100
AcDbEntity
  8
7_ALL_FEATURES
100
AcDbLine
 62
7
  6
CONTINUOUS
 10
42.2632350696
 20
238.5605281055
 11
42.2540322581
 21
238.5605281055
  0
LINE
  5
2DF
100
AcDbEntity
  8
7_ALL_FEATURES
100
AcDbLine
 62
7
  6
CONTINUOUS
 10
126.2448294465
 20
238.5605281055
 11
126.2540322581
 21
238.5605281055
  0
LINE
  5
2E0
100
AcDbEntity
  8
7_ALL_FEATURES
100
AcDbLine
 62
7
  6
CONTINUOUS
 10
42.2935232159
 20
239.5343015247
 11
42.2540322581
 21
239.5343015247
  0
LINE
  5
2E1
100
AcDbEntity
  8
7_ALL_FEATURES
100
AcDbLine
 62
7
  6
CONTINUOUS
 10
126.2145413002
 20
239.5343015247
 11
126.2540322581
 21
239.5343015247
  0
LINE
  5
2E2
100
AcDbEntity
  8
7_ALL_FEATURES
100
AcDbLine
 62
7
  6
CONTINUOUS
 10
42.3038270317
 20
239.7534186608
 11
42.2540322581
 21
239.7534186608
  0
LINE
  5
2E3
100
AcDbEntity
  8
7_ALL_FEATURES
100
AcDbLine
 62
7
  6
CONTINUOUS
 10
126.2042374844
 20
239.7534186608
 11
126.2540322581
 21
239.7534186608
  0
LINE
  5
2E4
100
AcDbEntity
  8
7_ALL_FEATURES
100
AcDbLine
 62
7
  6
CONTINUOUS
 10
42.3245758611
 20
240.147341762
 11
42.2540322581
 21
240.147341762
  0
LINE
  5
2E5
100
AcDbEntity
  8
7_ALL_FEATURES
100
AcDbLine
 62
7
  6
CONTINUOUS
 10
126.1834886551
 20
240.147341762
 11
126.2540322581
 21
240.147341762
  0
LINE
  5
2E6
100
AcDbEntity
  8
7_ALL_FEATURES
100
AcDbLine
 62
7
  6
CONTINUOUS
 10
42.3658863158
 20
240.7782644098
 11
42.2540322581
 21
240.7782644098
  0
LINE
  5
2E7
100
AcDbEntity
  8
7_ALL_FEATURES
100
AcDbLine
 62
7
  6
CONTINUOUS
 10
126.1421782003
 20
240.7782644098
 11
126.2540322581
 21
240.7782644098
  0
LINE
  5
2E8
100
AcDbEntity
  8
7_ALL_FEATURES
100
AcDbLine
 62
7
  6
CONTINUOUS
 10
42.464486711
 20
241.9176028477
 11
42.2540322581
 21
241.9176028477
  0
LINE
  5
2E9
100
AcDbEntity
  8
7_ALL_FEATURES
100
AcDbLine
 62
7
  6
CONTINUOUS
 10
126.0435778051
 20
241.9176028477
 11
126.2540322581
 21
241.9176028477
  0
LINE
  5
2EA
100
AcDbEntity
  8
7_ALL_FEATURES
100
AcDbLine
 62
7
  6
CONTINUOUS
 10
42.5033248869
 20
242.293479896
 11
42.2540322581
 21
242.293479896
  0
LINE
  5
2EB
100
AcDbEntity
  8
7_ALL_FEATURES
100
AcDbLine
 62
7
  6
CONTINUOUS
 10
126.0047396293
 20
242.293479896
 11
126.2540322581
 21
242.293479896
  0
LINE
  5
2EC
100
AcDbEntity
  8
7_ALL_FEATURES
100
AcDbLine
 62
7
  6
CONTINUOUS
 10
42.6005721584
 20
243.1045784173
 11
42.2540322581
 21
243.1045784173
  0
LINE
  5
2ED
100
AcDbEntity
  8
7_ALL_FEATURES
100
AcDbLine
 62
7
  6
CONTINUOUS
 10
125.9074923577
 20
243.1045784173
 11
126.2540322581
 21
243.1045784173
  0
LINE
  5
2EE
100
AcDbEntity
  8
3_ALL_AXES
100
AcDbLine
 62
7
  6
CONTINUOUS
 10
42.2540322581
 20
243.7276835373
 11
41.7540322581
 21
243.7276835373
  0
LINE
  5
2EF
100
AcDbEntity
  8
3_ALL_AXES
100
AcDbLine
 62
7
  6
CONTINUOUS
 10
126.2540322581
 20
243.7276835373
 11
126.7540322581
 21
243.7276835373
  0
LINE
  5
2F0
100
AcDbEntity
  8
7_ALL_FEATURES
100
AcDbLine
 62
7
  6
CONTINUOUS
 10
42.7525756897
 20
244.1735955926
 11
42.2540322581
 21
244.1735955926
  0
LINE
  5
2F1
100
AcDbEntity
  8
7_ALL_FEATURES
100
AcDbLine
 62
7
  6
CONTINUOUS
 10
125.7554888264
 20
244.1735955926
 11
126.2540322581
 21
244.1735955926
  0
LINE
  5
2F2
100
AcDbEntity
  8
7_ALL_FEATURES
100
AcDbLine
 62
7
  6
CONTINUOUS
 10
42.7723866986
 20
244.300888618
 11
42.2540322581
 21
244.300888618
  0
LINE
  5
2F3
100
AcDbEntity
  8
7_ALL_FEATURES
100
AcDbLine
 62
7
  6
CONTINUOUS
 10
125.7356778176
 20
244.300888618
 11
126.2540322581
 21
244.300888618
  0
LINE
  5
2F4
100
AcDbEntity
  8
02___PRT_ALL_AXES
100
AcDbLine
 62
7
  6
CONTINUOUS
 10
41.6540322581
 20
245.2276835373
 11
41.0170825879
 21
245.2276835373
  0
LINE
  5
2F5
100
AcDbEntity
  8
02___PRT_ALL_AXES
100
AcDbLine
 62
7
  6
CONTINUOUS
 10
126.8540322581
 20
245.2276835373
 11
127.4909819282
 21
245.2276835373
  0
LINE
  5
2F6
100
AcDbEntity
  8
7_ALL_FEATURES
100
AcDbLine
 62
7
  6
CONTINUOUS
 10
42.937299811
 20
245.2675181947
 11
42.2540322581
 21
245.2675181947
  0
LINE
  5
2F7
100
AcDbEntity
  8
7_ALL_FEATURES
100
AcDbLine
 62
7
  6
CONTINUOUS
 10
125.5707647051
 20
245.2675181947
 11
126.2540322581
 21
245.2675181947
  0
LINE
  5
2F8
100
AcDbEntity
  8
7_ALL_FEATURES
100
AcDbLine
 62
7
  6
CONTINUOUS
 10
43.1249896595
 20
246.2337325615
 11
42.2540322581
 21
246.2337325615
  0
LINE
  5
2F9
100
AcDbEntity
  8
7_ALL_FEATURES
100
AcDbLine
 62
7
  6
CONTINUOUS
 10
125.3830748566
 20
246.2337325615
 11
126.2540322581
 21
246.2337325615
  0
LINE
  5
2FA
100
AcDbEntity
  8
7_ALL_FEATURES
100
AcDbLine
 62
7
  6
CONTINUOUS
 10
43.3366349787
 20
247.2013639114
 11
42.2540322581
 21
247.2013639114
  0
LINE
  5
2FB
100
AcDbEntity
  8
7_ALL_FEATURES
100
AcDbLine
 62
7
  6
CONTINUOUS
 10
125.1714295374
 20
247.2013639114
 11
126.2540322581
 21
247.2013639114
  0
LINE
  5
2FC
100
AcDbEntity
  8
7_ALL_FEATURES
100
AcDbLine
 62
7
  6
CONTINUOUS
 10
43.5395209291
 20
248.035417535
 11
42.2540322581
 21
248.035417535
  0
LINE
  5
2FD
100
AcDbEntity
  8
7_ALL_FEATURES
100
AcDbLine
 62
7
  6
CONTINUOUS
 10
124.968543587
 20
248.035417535
 11
126.2540322581
 21
248.035417535
  0
LINE
  5
2FE
100
AcDbEntity
  8
7_ALL_FEATURES
100
AcDbLine
 62
7
  6
CONTINUOUS
 10
43.7529197803
 20
248.8473566439
 11
42.2540322581
 21
248.8473566439
  0
LINE
  5
2FF
100
AcDbEntity
  8
7_ALL_FEATURES
100
AcDbLine
 62
7
  6
CONTINUOUS
 10
124.7551447358
 20
248.8473566439
 11
126.2540322581
 21
248.8473566439
  0
LINE
  5
300
100
AcDbEntity
  8
7_ALL_FEATURES
100
AcDbLine
 62
7
  6
CONTINUOUS
 10
43.9452591223
 20
249.523907227
 11
42.2540322581
 21
249.523907227
  0
LINE
  5
301
100
AcDbEntity
  8
7_ALL_FEATURES
100
AcDbLine
 62
7
  6
CONTINUOUS
 10
124.5628053938
 20
249.523907227
 11
126.2540322581
 21
249.523907227
  0
LINE
  5
302
100
AcDbEntity
  8
7_ALL_FEATURES
100
AcDbLine
 62
7
  6
CONTINUOUS
 10
44.1357667654
 20
250.1554837358
 11
42.2540322581
 21
250.1554837358
  0
LINE
  5
303
100
AcDbEntity
  8
7_ALL_FEATURES
100
AcDbLine
 62
7
  6
CONTINUOUS
 10
124.3722977507
 20
250.1554837358
 11
126.2540322581
 21
250.1554837358
  0
LINE
  5
304
100
AcDbEntity
  8
7_ALL_FEATURES
100
AcDbLine
 62
7
  6
CONTINUOUS
 10
44.2540322581
 20
250.6539746314
 11
42.2540322581
 21
250.6539746314
  0
LINE
  5
305
100
AcDbEntity
  8
7_ALL_FEATURES
100
AcDbLine
 62
7
  6
CONTINUOUS
 10
124.2540322581
 20
250.6539746314
 11
126.2540322581
 21
250.6539746314
  0
LINE
  5
306
100
AcDbEntity
  8
7_ALL_FEATURES
100
AcDbLine
 62
7
  6
CONTINUOUS
 10
44.2540322581
 20
251.0859984075
 11
42.2540322581
 21
251.0859984075
  0
LINE
  5
307
100
AcDbEntity
  8
7_ALL_FEATURES
100
AcDbLine
 62
7
  6
CONTINUOUS
 10
124.2540322581
 20
251.0859984075
 11
126.2540322581
 21
251.0859984075
  0
LINE
  5
308
100
AcDbEntity
  8
7_ALL_FEATURES
100
AcDbLine
 62
7
  6
CONTINUOUS
 10
44.2540322581
 20
251.3912832218
 11
42.2540322581
 21
251.3912832218
  0
LINE
  5
309
100
AcDbEntity
  8
7_ALL_FEATURES
100
AcDbLine
 62
7
  6
CONTINUOUS
 10
124.2540322581
 20
251.3912832218
 11
126.2540322581
 21
251.3912832218
  0
LINE
  5
30A
100
AcDbEntity
  8
7_ALL_FEATURES
100
AcDbLine
 62
9
  6
CONTINUOUS
 10
119.2540322581
 20
162.7276835373
 11
119.2540322581
 21
164.7276835373
  0
LINE
  5
30B
100
AcDbEntity
  8
7_ALL_FEATURES
100
AcDbLine
 62
7
  6
CONTINUOUS
 10
44.2540322581
 20
251.6106274415
 11
42.2540322581
 21
251.6106274415
  0
LINE
  5
30C
100
AcDbEntity
  8
7_ALL_FEATURES
100
AcDbLine
 62
7
  6
CONTINUOUS
 10
124.2540322581
 20
251.6106274415
 11
126.2540322581
 21
251.6106274415
  0
LINE
  5
30D
100
AcDbEntity
  8
7_ALL_FEATURES
100
AcDbLine
 62
7
  6
CONTINUOUS
 10
44.2540322581
 20
251.7028890787
 11
42.2540322581
 21
251.7028890787
  0
LINE
  5
30E
100
AcDbEntity
  8
7_ALL_FEATURES
100
AcDbLine
 62
7
  6
CONTINUOUS
 10
124.2540322581
 20
251.7028890787
 11
126.2540322581
 21
251.7028890787
  0
LINE
  5
30F
100
AcDbEntity
  8
7_ALL_FEATURES
100
AcDbLine
 62
3
  6
CONTINUOUS
 10
124.2540322581
 20
251.7028890787
 11
124.2540322581
 21
250.5330482693
  0
LINE
  5
310
100
AcDbEntity
  8
7_ALL_FEATURES
100
AcDbLine
 62
3
  6
CONTINUOUS
 10
124.2540322581
 20
169.7276835373
 11
124.2540322581
 21
224.9223188053
  0
LINE
  5
311
100
AcDbEntity
  8
7_ALL_FEATURES
100
AcDbLine
 62
7
  6
CONTINUOUS
 10
129.6180416011
 20
234.3779932766
 11
128.1899854319
 21
230.7058488414
  0
LINE
  5
312
100
AcDbEntity
  8
7_ALL_FEATURES
100
AcDbLine
 62
7
  6
CONTINUOUS
 10
126.2540322581
 20
251.7028890787
 11
126.2540322581
 21
237.9776835373
  0
LINE
  5
313
100
AcDbEntity
  8
7_ALL_FEATURES
100
AcDbLine
 62
7
  6
CONTINUOUS
 10
126.2540322581
 20
237.4776835373
 11
126.2540322581
 21
169.7276835373
  0
LINE
  5
314
100
AcDbEntity
  8
7_ALL_FEATURES
100
AcDbLine
 62
7
  6
CONTINUOUS
 10
126.7540322581
 20
230.3276835373
 11
126.7540322581
 21
245.1276835296
  0
LINE
  5
315
100
AcDbEntity
  8
7_ALL_FEATURES
100
AcDbLine
 62
9
  6
CONTINUOUS
 10
126.8540322581
 20
230.2276835373
 11
126.8540322581
 21
245.2276835373
  0
LINE
  5
316
100
AcDbEntity
  8
7_ALL_FEATURES
100
AcDbLine
 62
9
  6
CONTINUOUS
 10
127.4909819282
 20
230.2276835373
 11
127.4909819282
 21
245.2276835373
  0
LINE
  5
317
100
AcDbEntity
  8
7_ALL_FEATURES
100
AcDbLine
 62
9
  6
CONTINUOUS
 10
128.1899854319
 20
230.7058488414
 11
128.1899854319
 21
244.7495182331
  0
LINE
  5
318
100
AcDbEntity
  8
7_ALL_FEATURES
100
AcDbLine
 62
9
  6
CONTINUOUS
 10
129.6180416011
 20
241.0773737979
 11
129.6180416011
 21
234.3779932766
  0
LINE
  5
319
100
AcDbEntity
  8
7_ALL_FEATURES
100
AcDbLine
 62
7
  6
CONTINUOUS
 10
129.7540322581
 20
235.1028857989
 11
129.7540322581
 21
240.3524812756
  0
LINE
  5
31A
100
AcDbEntity
  8
7_ALL_FEATURES
100
AcDbLine
 62
7
  6
CONTINUOUS
 10
129.6180416011
 20
241.0773737979
 11
128.1899854319
 21
244.7495182331
  0
LINE
  5
31B
100
AcDbEntity
  8
7_ALL_FEATURES
100
AcDbLine
 62
7
  6
CONTINUOUS
 10
245.2200778643
 20
279.2276835373
 11
245.7200778643
 21
279.7276835373
  0
LINE
  5
31C
100
AcDbEntity
  8
7_ALL_FEATURES
100
AcDbLine
 62
7
  6
CONTINUOUS
 10
213.2200778643
 20
168.0244098991
 11
213.2200778643
 21
162.7276835373
  0
LINE
  5
31D
100
AcDbEntity
  8
7_ALL_FEATURES
100
AcDbLine
 62
7
  6
CONTINUOUS
 10
213.2200778643
 20
162.7276835373
 11
244.2200778643
 21
162.7276835373
  0
LINE
  5
31E
100
AcDbEntity
  8
7_ALL_FEATURES
100
AcDbLine
 62
9
  6
CONTINUOUS
 10
213.2927383802
 20
169.7276835373
 11
244.2270101648
 21
169.7276835373
  0
LINE
  5
31F
100
AcDbEntity
  8
7_ALL_FEATURES
100
AcDbLine
 62
7
  6
CONTINUOUS
 10
282.0200778643
 20
279.4276835373
 11
282.3200778643
 21
279.7276835373
  0
LINE
  5
320
100
AcDbEntity
  8
7_ALL_FEATURES
100
AcDbLine
 62
7
  6
CONTINUOUS
 10
252.8391875717
 20
247.4044948872
 11
253.1456053489
 21
247.6616099311
  0
LINE
  5
321
100
AcDbEntity
  8
7_ALL_FEATURES
100
AcDbLine
 62
7
  6
CONTINUOUS
 10
254.6468727835
 20
248.7128087057
 11
254.9932829451
 21
248.9128087057
  0
LINE
  5
322
100
AcDbEntity
  8
7_ALL_FEATURES
100
AcDbLine
 62
7
  6
CONTINUOUS
 10
244.2200778643
 20
169.2011439231
 11
244.2200778643
 21
162.7276835373
  0
LINE
  5
323
100
AcDbEntity
  8
7_ALL_FEATURES
100
AcDbLine
 62
7
  6
CONTINUOUS
 10
245.2200778643
 20
237.0027814636
 11
245.2200778643
 21
279.2276835373
  0
LINE
  5
324
100
AcDbEntity
  8
7_ALL_FEATURES
100
AcDbLine
 62
7
  6
CONTINUOUS
 10
245.7200778643
 20
253.3161408054
 11
245.7200778643
 21
279.7276835373
  0
LINE
  5
325
100
AcDbEntity
  8
7_ALL_FEATURES
100
AcDbLine
 62
7
  6
CONTINUOUS
 10
248.6873875697
 20
243.9672086779
 11
215.3162345863
 21
176.9380172428
  0
LINE
  5
326
100
AcDbEntity
  8
7_ALL_FEATURES
100
AcDbLine
 62
7
  6
CONTINUOUS
 10
251.2861514704
 20
245.8021560526
 11
251.5432665143
 21
246.1085738299
  0
LINE
  5
327
100
AcDbEntity
  8
03___PRT_ALL_CURVES
100
AcDbLine
 62
40
  6
CONTINUOUS
 10
260.427109091
 20
248.7542793086
 11
260.345077841
 21
248.6798112323
  0
LINE
  5
328
100
AcDbEntity
  8
03___PRT_ALL_CURVES
100
AcDbLine
 62
40
  6
CONTINUOUS
 10
260.7825778345
 20
248.0840665182
 11
260.8646090845
 21
248.1585345944
  0
LINE
  5
329
100
AcDbEntity
  8
03___PRT_ALL_CURVES
100
AcDbLine
 62
40
  6
CONTINUOUS
 10
261.6849215845
 20
248.7542793086
 11
261.6028903345
 21
248.6798112323
  0
LINE
  5
32A
100
AcDbEntity
  8
03___PRT_ALL_CURVES
100
AcDbLine
 62
40
  6
CONTINUOUS
 10
260.8099215584
 20
247.8978963276
 11
260.9739840584
 21
248.0468324801
  0
LINE
  5
32B
100
AcDbEntity
  8
03___PRT_ALL_CURVES
100
AcDbLine
 62
40
  6
CONTINUOUS
 10
260.8646090845
 20
247.5255558683
 11
260.7825778345
 21
247.451087792
  0
LINE
  5
32C
100
AcDbEntity
  8
03___PRT_ALL_CURVES
100
AcDbLine
 62
40
  6
CONTINUOUS
 10
260.399765328
 20
248.9404494991
 11
260.2630465812
 21
248.8287473848
  0
LINE
  5
32D
100
AcDbEntity
  8
03___PRT_ALL_CURVES
100
AcDbLine
 62
40
  6
CONTINUOUS
 10
261.6575777823
 20
248.9404494991
 11
261.5208590845
 21
248.8287473848
  0
LINE
  5
32E
100
AcDbEntity
  8
03___PRT_ALL_CURVES
100
AcDbLine
 62
40
  6
CONTINUOUS
 10
260.8099215584
 20
247.2649175786
 11
260.9466403345
 21
247.3766197028
  0
LINE
  5
32F
100
AcDbEntity
  8
03___PRT_ALL_CURVES
100
AcDbLine
 62
40
  6
CONTINUOUS
 10
261.9857027823
 20
247.2649175786
 11
262.1224216366
 21
247.3766197028
  0
LINE
  5
330
100
AcDbEntity
  8
03___PRT_ALL_CURVES
100
AcDbLine
 62
40
  6
CONTINUOUS
 10
260.5091403215
 20
248.7915133467
 11
260.427109091
 21
248.7542793086
  0
LINE
  5
331
100
AcDbEntity
  8
03___PRT_ALL_CURVES
100
AcDbLine
 62
40
  6
CONTINUOUS
 10
260.7005465845
 20
248.0468324801
 11
260.7825778345
 21
248.0840665182
  0
LINE
  5
332
100
AcDbEntity
  8
03___PRT_ALL_CURVES
100
AcDbLine
 62
40
  6
CONTINUOUS
 10
260.7825778345
 20
247.451087792
 11
260.7005465845
 21
247.4138537539
  0
LINE
  5
333
100
AcDbEntity
  8
7_ALL_FEATURES
100
AcDbLine
 62
7
  6
CONTINUOUS
 10
256.6542815056
 20
249.6873450547
 11
257.0301585539
 21
249.824153112
  0
LINE
  5
334
100
AcDbEntity
  8
03___PRT_ALL_CURVES
100
AcDbLine
 62
40
  6
CONTINUOUS
 10
260.345077841
 20
248.6798112323
 11
260.2903903345
 21
248.568109118
  0
LINE
  5
335
100
AcDbEntity
  8
03___PRT_ALL_CURVES
100
AcDbLine
 62
40
  6
CONTINUOUS
 10
260.8646090845
 20
248.1585345944
 11
260.9192966106
 21
248.2702367088
  0
LINE
  5
336
100
AcDbEntity
  8
03___PRT_ALL_CURVES
100
AcDbLine
 62
40
  6
CONTINUOUS
 10
260.9192966106
 20
247.6372580087
 11
260.8646090845
 21
247.5255558683
  0
LINE
  5
337
100
AcDbEntity
  8
03___PRT_ALL_CURVES
100
AcDbLine
 62
40
  6
CONTINUOUS
 10
261.6028903345
 20
248.6798112323
 11
261.4935152823
 21
248.4564068994
  0
LINE
  5
338
100
AcDbEntity
  8
03___PRT_ALL_CURVES
100
AcDbLine
 62
40
  6
CONTINUOUS
 10
260.2630465812
 20
248.8287473848
 11
260.1810153361
 21
248.6798112323
  0
LINE
  5
339
100
AcDbEntity
  8
03___PRT_ALL_CURVES
100
AcDbLine
 62
40
  6
CONTINUOUS
 10
260.9466403345
 20
247.3766197028
 11
261.0286715845
 21
247.5255558683
  0
LINE
  5
33A
100
AcDbEntity
  8
7_ALL_FEATURES
100
AcDbLine
 62
7
  6
CONTINUOUS
 10
263.639736089
 20
250.2984931403
 11
264.2706587368
 21
251.3912832218
  0
LINE
  5
33B
100
AcDbEntity
  8
03___PRT_ALL_CURVES
100
AcDbLine
 62
40
  6
CONTINUOUS
 10
261.5208590845
 20
248.8287473848
 11
261.4388278345
 21
248.7170452705
  0
LINE
  5
33C
100
AcDbEntity
  8
03___PRT_ALL_CURVES
100
AcDbLine
 62
40
  6
CONTINUOUS
 10
262.1224216366
 20
247.3766197028
 11
262.2044528866
 21
247.4883218301
  0
LINE
  5
33D
100
AcDbEntity
  8
7_ALL_FEATURES
100
AcDbLine
 62
7
  6
CONTINUOUS
 10
265.785874223
 20
249.6873450547
 11
266.5969727443
 21
250.6539746314
  0
LINE
  5
33E
100
AcDbEntity
  8
03___PRT_ALL_CURVES
100
AcDbLine
 62
40
  6
CONTINUOUS
 10
261.9583591366
 20
247.451087792
 11
262.0403903866
 21
247.5255558683
  0
LINE
  5
33F
100
AcDbEntity
  8
7_ALL_FEATURES
100
AcDbLine
 62
7
  6
CONTINUOUS
 10
267.7932829451
 20
248.7128087057
 11
268.7599125217
 21
249.523907227
  0
LINE
  5
340
100
AcDbEntity
  8
7_ALL_FEATURES
100
AcDbLine
 62
7
  6
CONTINUOUS
 10
269.6009681569
 20
247.4044948872
 11
270.6937582385
 21
248.035417535
  0
LINE
  5
341
100
AcDbEntity
  8
7_ALL_FEATURES
100
AcDbLine
 62
7
  6
CONTINUOUS
 10
261.2200778643
 20
239.4597343448
 11
259.7200778643
 21
238.593708941
  0
LINE
  5
342
100
AcDbEntity
  8
7_ALL_FEATURES
100
AcDbLine
 62
7
  6
CONTINUOUS
 10
271.1540042582
 20
245.8021560526
 11
272.3397509709
 21
246.2337325615
  0
LINE
  5
343
100
AcDbEntity
  8
02___PRT_ALL_AXES
100
AcDbLine
 62
7
  6
CONTINUOUS
 10
252.5913932524
 20
195.7276835373
 11
257.3700778717
 21
195.7276835373
  0
LINE
  5
344
100
AcDbEntity
  8
7_ALL_FEATURES
100
AcDbLine
 62
7
  6
CONTINUOUS
 10
257.7200778643
 20
195.7276835373
 11
272.7200778643
 21
195.7276835373
  0
LINE
  5
345
100
AcDbEntity
  8
02___PRT_ALL_AXES
100
AcDbLine
 62
7
  6
CONTINUOUS
 10
273.0700778737
 20
195.7276835373
 11
281.720071255
 21
195.7276835373
  0
LINE
  5
346
100
AcDbEntity
  8
02___PRT_ALL_AXES
100
AcDbLine
 62
7
  6
CONTINUOUS
 10
282.3200778643
 20
195.7276835373
 11
332.6200778643
 21
195.7276835373
  0
LINE
  5
347
100
AcDbEntity
  8
7_ALL_FEATURES
100
AcDbLine
 62
9
  6
CONTINUOUS
 10
260.6528719355
 20
196.2276835373
 11
269.7872841826
 21
196.2276835373
  0
LINE
  5
348
100
AcDbEntity
  8
7_ALL_FEATURES
100
AcDbLine
 62
7
  6
CONTINUOUS
 10
257.0301585539
 20
249.824153112
 11
257.0301585539
 21
251.0859984075
  0
LINE
  5
349
100
AcDbEntity
  8
7_ALL_FEATURES
100
AcDbLine
 62
7
  6
CONTINUOUS
 10
259.1943427408
 20
250.3679524114
 11
259.4134598768
 21
251.6106274415
  0
LINE
  5
34A
100
AcDbEntity
  8
03___PRT_ALL_CURVES
100
AcDbLine
 62
40
  6
CONTINUOUS
 10
260.2903903345
 20
248.568109118
 11
260.2630465812
 21
248.4564068994
  0
LINE
  5
34B
100
AcDbEntity
  8
03___PRT_ALL_CURVES
100
AcDbLine
 62
40
  6
CONTINUOUS
 10
260.9192966106
 20
248.2702367088
 11
260.9466403345
 21
248.3819388231
  0
LINE
  5
34C
100
AcDbEntity
  8
03___PRT_ALL_CURVES
100
AcDbLine
 62
40
  6
CONTINUOUS
 10
260.9466403345
 20
247.748960123
 11
260.9192966106
 21
247.6372580087
  0
LINE
  5
34D
100
AcDbEntity
  8
03___PRT_ALL_CURVES
100
AcDbLine
 62
40
  6
CONTINUOUS
 10
261.3841403084
 20
248.568109118
 11
261.3567965845
 21
248.4564068994
  0
LINE
  5
34E
100
AcDbEntity
  8
03___PRT_ALL_CURVES
100
AcDbLine
 62
40
  6
CONTINUOUS
 10
262.2591403345
 20
247.6372580087
 11
262.2864841366
 21
247.748960123
  0
LINE
  5
34F
100
AcDbEntity
  8
7_ALL_FEATURES
100
AcDbLine
 62
7
  6
CONTINUOUS
 10
261.4700778643
 20
249.5276835373
 11
262.0529224325
 21
251.7028890787
  0
LINE
  5
350
100
AcDbEntity
  8
03___PRT_ALL_CURVES
100
AcDbLine
 62
40
  6
CONTINUOUS
 10
260.1810153361
 20
248.6798112323
 11
260.1263278345
 21
248.4936409375
  0
LINE
  5
351
100
AcDbEntity
  8
03___PRT_ALL_CURVES
100
AcDbLine
 62
40
  6
CONTINUOUS
 10
261.0286715845
 20
247.5255558683
 11
261.0833591106
 21
247.7117260849
  0
LINE
  5
352
100
AcDbEntity
  8
03___PRT_ALL_CURVES
100
AcDbLine
 62
40
  6
CONTINUOUS
 10
261.4388278345
 20
248.7170452705
 11
261.3841403084
 21
248.568109118
  0
LINE
  5
353
100
AcDbEntity
  8
03___PRT_ALL_CURVES
100
AcDbLine
 62
40
  6
CONTINUOUS
 10
262.2044528866
 20
247.4883218301
 11
262.2591403345
 21
247.6372580087
  0
LINE
  5
354
100
AcDbEntity
  8
03___PRT_ALL_CURVES
100
AcDbLine
 62
40
  6
CONTINUOUS
 10
262.0403903866
 20
247.5255558683
 11
262.1497652823
 21
247.748960123
  0
LINE
  5
355
100
AcDbEntity
  8
03___PRT_ALL_CURVES
100
AcDbLine
 62
40
  6
CONTINUOUS
 10
267.7946821185
 20
244.5851305039
 11
270.4109772089
 21
247.2014255943
  0
LINE
  5
356
100
AcDbEntity
  8
03___PRT_ALL_CURVES
100
AcDbLine
 62
40
  6
CONTINUOUS
 10
270.6938199214
 20
246.9185828819
 11
268.077524831
 21
244.3022877915
  0
LINE
  5
357
100
AcDbEntity
  8
7_ALL_FEATURES
100
AcDbLine
 62
7
  6
CONTINUOUS
 10
274.1463689584
 20
243.1045784173
 11
273.1797393817
 21
242.293479896
  0
LINE
  5
358
100
AcDbEntity
  8
7_ALL_FEATURES
100
AcDbLine
 62
7
  6
CONTINUOUS
 10
261.2200778643
 20
235.9956327297
 11
262.7200778643
 21
236.8616581335
  0
LINE
  5
359
100
AcDbEntity
  8
7_ALL_FEATURES
100
AcDbLine
 62
7
  6
CONTINUOUS
 10
274.8836775489
 20
240.7782644098
 11
273.7908874673
 21
240.147341762
  0
LINE
  5
35A
100
AcDbEntity
  8
03___PRT_ALL_CURVES
100
AcDbLine
 62
40
  6
CONTINUOUS
 10
271.1296523357
 20
238.1651835356
 11
270.9807161572
 21
238.110496034
  0
LINE
  5
35B
100
AcDbEntity
  8
7_ALL_FEATURES
100
AcDbLine
 62
7
  6
CONTINUOUS
 10
259.7200778643
 20
238.593708941
 11
259.7200778643
 21
236.8616581335
  0
LINE
  5
35C
100
AcDbEntity
  8
03___PRT_ALL_CURVES
100
AcDbLine
 62
40
  6
CONTINUOUS
 10
260.1263278345
 20
248.4936409375
 11
260.1263278345
 21
248.344704785
  0
LINE
  5
35D
100
AcDbEntity
  8
03___PRT_ALL_CURVES
100
AcDbLine
 62
40
  6
CONTINUOUS
 10
260.2630465812
 20
248.4564068994
 11
260.2630465812
 21
248.3819388231
  0
LINE
  5
35E
100
AcDbEntity
  8
03___PRT_ALL_CURVES
100
AcDbLine
 62
40
  6
CONTINUOUS
 10
260.9466403345
 20
248.3819388231
 11
260.9466403345
 21
248.4564068994
  0
LINE
  5
35F
100
AcDbEntity
  8
03___PRT_ALL_CURVES
100
AcDbLine
 62
40
  6
CONTINUOUS
 10
260.9739840584
 20
248.0468324801
 11
260.9739840584
 21
247.9723644039
  0
LINE
  5
360
100
AcDbEntity
  8
03___PRT_ALL_CURVES
100
AcDbLine
 62
40
  6
CONTINUOUS
 10
261.1107028345
 20
247.9723644039
 11
261.1107028345
 21
248.2330026707
  0
LINE
  5
361
100
AcDbEntity
  8
03___PRT_ALL_CURVES
100
AcDbLine
 62
40
  6
CONTINUOUS
 10
261.3294528606
 20
248.2702367088
 11
261.3294528606
 21
247.9351303657
  0
LINE
  5
362
100
AcDbEntity
  8
03___PRT_ALL_CURVES
100
AcDbLine
 62
40
  6
CONTINUOUS
 10
261.4661716366
 20
248.2330026707
 11
261.4661716366
 21
247.9723644039
  0
LINE
  5
363
100
AcDbEntity
  8
03___PRT_ALL_CURVES
100
AcDbLine
 62
40
  6
CONTINUOUS
 10
262.1771090845
 20
247.9723644039
 11
262.1771090845
 21
248.2330026707
  0
LINE
  5
364
100
AcDbEntity
  8
03___PRT_ALL_CURVES
100
AcDbLine
 62
40
  6
CONTINUOUS
 10
262.3138277823
 20
247.9351303657
 11
262.3138277823
 21
248.2702367088
  0
LINE
  5
365
100
AcDbEntity
  8
03___PRT_ALL_CURVES
100
AcDbLine
 62
40
  6
CONTINUOUS
 10
261.0833591106
 20
247.7117260849
 11
261.1107028345
 21
247.9723644039
  0
LINE
  5
366
100
AcDbEntity
  8
03___PRT_ALL_CURVES
100
AcDbLine
 62
40
  6
CONTINUOUS
 10
260.9739840584
 20
247.9723644039
 11
260.9466403345
 21
247.748960123
  0
LINE
  5
367
100
AcDbEntity
  8
03___PRT_ALL_CURVES
100
AcDbLine
 62
40
  6
CONTINUOUS
 10
261.4935152823
 20
248.4564068994
 11
261.4661716366
 21
248.2330026707
  0
LINE
  5
368
100
AcDbEntity
  8
03___PRT_ALL_CURVES
100
AcDbLine
 62
40
  6
CONTINUOUS
 10
262.1497652823
 20
247.748960123
 11
262.1771090845
 21
247.9723644039
  0
LINE
  5
369
100
AcDbEntity
  8
03___PRT_ALL_CURVES
100
AcDbLine
 62
40
  6
CONTINUOUS
 10
261.3567965845
 20
248.4564068994
 11
261.3294528606
 21
248.2702367088
  0
LINE
  5
36A
100
AcDbEntity
  8
03___PRT_ALL_CURVES
100
AcDbLine
 62
40
  6
CONTINUOUS
 10
262.2864841366
 20
247.748960123
 11
262.3138277823
 21
247.9351303657
  0
LINE
  5
36B
100
AcDbEntity
  8
7_ALL_FEATURES
100
AcDbLine
 62
7
  6
CONTINUOUS
 10
269.7261268885
 20
248.8473566439
 11
269.2945503797
 21
247.6616099311
  0
LINE
  5
36C
100
AcDbEntity
  8
7_ALL_FEATURES
100
AcDbLine
 62
7
  6
CONTINUOUS
 10
245.4262254486
 20
176.0415467896
 11
262.8157661785
 21
223.8189172798
  0
LINE
  5
36D
100
AcDbEntity
  8
7_ALL_FEATURES
100
AcDbLine
 62
7
  6
CONTINUOUS
 10
271.527811862
 20
247.2013639114
 11
270.8968892143
 21
246.1085738299
  0
LINE
  5
36E
100
AcDbEntity
  8
03___PRT_ALL_CURVES
100
AcDbLine
 62
40
  6
CONTINUOUS
 10
270.8690140298
 20
238.0284647938
 11
270.7573119057
 21
237.8917460373
  0
LINE
  5
36F
100
AcDbEntity
  8
03___PRT_ALL_CURVES
100
AcDbLine
 62
40
  6
CONTINUOUS
 10
272.3211417118
 20
237.4269022612
 11
272.4328438262
 21
237.5636210373
  0
LINE
  5
370
100
AcDbEntity
  8
7_ALL_FEATURES
100
AcDbLine
 62
7
  6
CONTINUOUS
 10
273.016301554
 20
245.2675181947
 11
272.2052030327
 21
244.300888618
  0
LINE
  5
371
100
AcDbEntity
  8
03___PRT_ALL_CURVES
100
AcDbLine
 62
40
  6
CONTINUOUS
 10
271.0179501953
 20
237.9464335438
 11
270.9434821191
 21
237.8644022742
  0
LINE
  5
372
100
AcDbEntity
  8
03___PRT_ALL_CURVES
100
AcDbLine
 62
40
  6
CONTINUOUS
 10
272.1722055594
 20
237.5089335112
 11
272.2466736356
 21
237.5909648003
  0
LINE
  5
373
100
AcDbEntity
  8
03___PRT_ALL_CURVES
100
AcDbLine
 62
40
  6
CONTINUOUS
 10
270.9807161572
 20
238.110496034
 11
270.8690140298
 21
238.0284647938
  0
LINE
  5
374
100
AcDbEntity
  8
03___PRT_ALL_CURVES
100
AcDbLine
 62
40
  6
CONTINUOUS
 10
272.2094395975
 20
237.3448710112
 11
272.3211417118
 21
237.4269022612
  0
LINE
  5
375
100
AcDbEntity
  8
03___PRT_ALL_CURVES
100
AcDbLine
 62
40
  6
CONTINUOUS
 10
271.2413544501
 20
238.0558085373
 11
271.0179501953
 21
237.9464335438
  0
LINE
  5
376
100
AcDbEntity
  8
03___PRT_ALL_CURVES
100
AcDbLine
 62
40
  6
CONTINUOUS
 10
271.9488012264
 20
237.3995585373
 11
272.1722055594
 21
237.5089335112
  0
LINE
  5
377
100
AcDbEntity
  8
03___PRT_ALL_CURVES
100
AcDbLine
 62
40
  6
CONTINUOUS
 10
272.060503445
 20
237.2901835633
 11
272.2094395975
 21
237.3448710112
  0
LINE
  5
378
100
AcDbEntity
  8
7_ALL_FEATURES
100
AcDbLine
 62
7
  6
CONTINUOUS
 10
282.0200778643
 20
196.0276835373
 11
282.3200778643
 21
195.7276835373
  0
LINE
  5
379
100
AcDbEntity
  8
7_ALL_FEATURES
100
AcDbLine
 62
7
  6
CONTINUOUS
 10
254.9932829451
 20
248.9128087057
 11
254.774165809
 21
250.1554837358
  0
LINE
  5
37A
100
AcDbEntity
  8
03___PRT_ALL_CURVES
100
AcDbLine
 62
40
  6
CONTINUOUS
 10
261.1107028345
 20
248.2330026707
 11
261.0833591106
 21
248.4936409375
  0
LINE
  5
37B
100
AcDbEntity
  8
7_ALL_FEATURES
100
AcDbLine
 62
7
  6
CONTINUOUS
 10
262.7200778643
 20
236.8616581335
 11
262.7200778643
 21
238.593708941
  0
LINE
  5
37C
100
AcDbEntity
  8
7_ALL_FEATURES
100
AcDbLine
 62
7
  6
CONTINUOUS
 10
265.4099971747
 20
251.0859984075
 11
265.4099971747
 21
249.824153112
  0
LINE
  5
37D
100
AcDbEntity
  8
7_ALL_FEATURES
100
AcDbLine
 62
7
  6
CONTINUOUS
 10
267.6659899196
 20
250.1554837358
 11
267.4468727835
 21
248.9128087057
  0
LINE
  5
37E
100
AcDbEntity
  8
03___PRT_ALL_CURVES
100
AcDbLine
 62
40
  6
CONTINUOUS
 10
270.7573119057
 20
237.8917460373
 11
270.7200778643
 21
237.7276835373
  0
LINE
  5
37F
100
AcDbEntity
  8
03___PRT_ALL_CURVES
100
AcDbLine
 62
40
  6
CONTINUOUS
 10
270.9434821191
 20
237.8644022742
 11
270.9062480809
 21
237.7276835373
  0
LINE
  5
380
100
AcDbEntity
  8
03___PRT_ALL_CURVES
100
AcDbLine
 62
40
  6
CONTINUOUS
 10
272.2466736356
 20
237.5909648003
 11
272.2839076737
 21
237.7276835373
  0
LINE
  5
381
100
AcDbEntity
  8
7_ALL_FEATURES
100
AcDbLine
 62
7
  6
CONTINUOUS
 10
272.4052030327
 20
231.500888618
 11
272.2052030327
 21
231.1544784565
  0
LINE
  5
382
100
AcDbEntity
  8
7_ALL_FEATURES
100
AcDbLine
 62
7
  6
CONTINUOUS
 10
271.1540042582
 20
229.6532110219
 11
270.8968892143
 21
229.3467932447
  0
LINE
  5
383
100
AcDbEntity
  8
7_ALL_FEATURES
100
AcDbLine
 62
7
  6
CONTINUOUS
 10
269.6009681569
 20
228.0508721873
 11
269.2945503797
 21
227.7937571434
  0
LINE
  5
384
100
AcDbEntity
  8
7_ALL_FEATURES
100
AcDbLine
 62
7
  6
CONTINUOUS
 10
251.5432665143
 20
246.1085738299
 11
250.9123438666
 21
247.2013639114
  0
LINE
  5
385
100
AcDbEntity
  8
7_ALL_FEATURES
100
AcDbLine
 62
7
  6
CONTINUOUS
 10
253.1456053489
 20
247.6616099311
 11
252.7140288401
 21
248.8473566439
  0
LINE
  5
386
100
AcDbEntity
  8
03___PRT_ALL_CURVES
100
AcDbLine
 62
40
  6
CONTINUOUS
 10
260.1810153361
 20
247.6372580087
 11
260.2083590845
 21
247.5255558683
  0
LINE
  5
387
100
AcDbEntity
  8
03___PRT_ALL_CURVES
100
AcDbLine
 62
40
  6
CONTINUOUS
 10
260.2630465812
 20
248.3819388231
 11
260.2903903345
 21
248.2702367088
  0
LINE
  5
388
100
AcDbEntity
  8
03___PRT_ALL_CURVES
100
AcDbLine
 62
40
  6
CONTINUOUS
 10
260.9466403345
 20
248.4564068994
 11
260.9192966106
 21
248.568109118
  0
LINE
  5
389
100
AcDbEntity
  8
03___PRT_ALL_CURVES
100
AcDbLine
 62
40
  6
CONTINUOUS
 10
261.3567965845
 20
247.748960123
 11
261.3841403084
 21
247.6372580087
  0
LINE
  5
38A
100
AcDbEntity
  8
03___PRT_ALL_CURVES
100
AcDbLine
 62
40
  6
CONTINUOUS
 10
261.3294528606
 20
247.9351303657
 11
261.3567965845
 21
247.748960123
  0
LINE
  5
38B
100
AcDbEntity
  8
03___PRT_ALL_CURVES
100
AcDbLine
 62
40
  6
CONTINUOUS
 10
262.3138277823
 20
248.2702367088
 11
262.2864841366
 21
248.4564068994
  0
LINE
  5
38C
100
AcDbEntity
  8
03___PRT_ALL_CURVES
100
AcDbLine
 62
40
  6
CONTINUOUS
 10
261.4661716366
 20
247.9723644039
 11
261.4935152823
 21
247.748960123
  0
LINE
  5
38D
100
AcDbEntity
  8
03___PRT_ALL_CURVES
100
AcDbLine
 62
40
  6
CONTINUOUS
 10
262.1771090845
 20
248.2330026707
 11
262.1497652823
 21
248.4564068994
  0
LINE
  5
38E
100
AcDbEntity
  8
7_ALL_FEATURES
100
AcDbLine
 62
7
  6
CONTINUOUS
 10
273.0200778643
 20
237.9776835373
 11
273.0200778643
 21
237.4776835373
  0
LINE
  5
38F
100
AcDbEntity
  8
7_ALL_FEATURES
100
AcDbLine
 62
7
  6
CONTINUOUS
 10
273.8603467384
 20
235.7019484137
 11
273.7908874673
 21
235.3080253125
  0
LINE
  5
390
100
AcDbEntity
  8
03___PRT_ALL_CURVES
100
AcDbLine
 62
40
  6
CONTINUOUS
 10
272.4328438262
 20
237.5636210373
 11
272.4700778643
 21
237.7276835373
  0
LINE
  5
391
100
AcDbEntity
  8
7_ALL_FEATURES
100
AcDbLine
 62
7
  6
CONTINUOUS
 10
273.316547439
 20
233.5377642269
 11
273.1797393817
 21
233.1618871785
  0
LINE
  5
392
100
AcDbEntity
  8
03___PRT_ALL_CURVES
100
AcDbLine
 62
40
  6
CONTINUOUS
 10
260.3724215845
 20
247.5255558683
 11
260.317734078
 21
247.6372580087
  0
LINE
  5
393
100
AcDbEntity
  8
03___PRT_ALL_CURVES
100
AcDbLine
 62
40
  6
CONTINUOUS
 10
260.2903903345
 20
248.2702367088
 11
260.345077841
 21
248.1585345944
  0
LINE
  5
394
100
AcDbEntity
  8
03___PRT_ALL_CURVES
100
AcDbLine
 62
40
  6
CONTINUOUS
 10
261.3841403084
 20
247.6372580087
 11
261.4388278345
 21
247.4883218301
  0
LINE
  5
395
100
AcDbEntity
  8
03___PRT_ALL_CURVES
100
AcDbLine
 62
40
  6
CONTINUOUS
 10
262.2591403345
 20
248.568109118
 11
262.2044528866
 21
248.7170452705
  0
LINE
  5
396
100
AcDbEntity
  8
7_ALL_FEATURES
100
AcDbLine
 62
7
  6
CONTINUOUS
 10
269.2945503797
 20
227.7937571434
 11
269.7261268885
 21
226.6080104306
  0
LINE
  5
397
100
AcDbEntity
  8
03___PRT_ALL_CURVES
100
AcDbLine
 62
40
  6
CONTINUOUS
 10
260.1263278345
 20
248.344704785
 11
260.1810153361
 21
248.1585345944
  0
LINE
  5
398
100
AcDbEntity
  8
03___PRT_ALL_CURVES
100
AcDbLine
 62
40
  6
CONTINUOUS
 10
261.0833591106
 20
248.4936409375
 11
261.0286715845
 21
248.6798112323
  0
LINE
  5
399
100
AcDbEntity
  8
7_ALL_FEATURES
100
AcDbLine
 62
7
  6
CONTINUOUS
 10
260.3872332961
 20
251.7028890787
 11
260.9700778643
 21
249.5276835373
  0
LINE
  5
39A
100
AcDbEntity
  8
03___PRT_ALL_CURVES
100
AcDbLine
 62
40
  6
CONTINUOUS
 10
262.2864841366
 20
248.4564068994
 11
262.2591403345
 21
248.568109118
  0
LINE
  5
39B
100
AcDbEntity
  8
7_ALL_FEATURES
100
AcDbLine
 62
7
  6
CONTINUOUS
 10
263.0266958518
 20
251.6106274415
 11
263.2458129878
 21
250.3679524114
  0
LINE
  5
39C
100
AcDbEntity
  8
7_ALL_FEATURES
100
AcDbLine
 62
7
  6
CONTINUOUS
 10
276.2200778643
 20
222.1392262691
 11
276.2200778643
 21
253.3161408054
  0
LINE
  5
39D
100
AcDbEntity
  8
7_ALL_FEATURES
100
AcDbLine
 62
7
  6
CONTINUOUS
 10
262.2044086479
 20
222.1392262691
 11
276.2200778643
 21
222.1392262691
  0
LINE
  5
39E
100
AcDbEntity
  8
7_ALL_FEATURES
100
AcDbLine
 62
7
  6
CONTINUOUS
 10
270.6937582385
 20
227.4199495395
 11
269.6009681569
 21
228.0508721873
  0
LINE
  5
39F
100
AcDbEntity
  8
7_ALL_FEATURES
100
AcDbLine
 62
7
  6
CONTINUOUS
 10
255.8431829843
 20
250.6539746314
 11
256.6542815056
 21
249.6873450547
  0
LINE
  5
3A0
100
AcDbEntity
  8
7_ALL_FEATURES
100
AcDbLine
 62
7
  6
CONTINUOUS
 10
272.2052030327
 20
231.1544784565
 11
273.016301554
 21
230.1878488798
  0
LINE
  5
3A1
100
AcDbEntity
  8
03___PRT_ALL_CURVES
100
AcDbLine
 62
40
  6
CONTINUOUS
 10
261.4388278345
 20
247.4883218301
 11
261.5208590845
 21
247.3766197028
  0
LINE
  5
3A2
100
AcDbEntity
  8
7_ALL_FEATURES
100
AcDbLine
 62
7
  6
CONTINUOUS
 10
258.1694969918
 20
251.3912832218
 11
258.8004196396
 21
250.2984931403
  0
LINE
  5
3A3
100
AcDbEntity
  8
7_ALL_FEATURES
100
AcDbLine
 62
7
  6
CONTINUOUS
 10
270.8968892143
 20
229.3467932447
 11
271.527811862
 21
228.2540031631
  0
LINE
  5
3A4
100
AcDbEntity
  8
03___PRT_ALL_CURVES
100
AcDbLine
 62
40
  6
CONTINUOUS
 10
260.2083590845
 20
247.5255558683
 11
260.2903903345
 21
247.3766197028
  0
LINE
  5
3A5
100
AcDbEntity
  8
03___PRT_ALL_CURVES
100
AcDbLine
 62
40
  6
CONTINUOUS
 10
260.1810153361
 20
248.1585345944
 11
260.2630465812
 21
248.009598442
  0
LINE
  5
3A6
100
AcDbEntity
  8
03___PRT_ALL_CURVES
100
AcDbLine
 62
40
  6
CONTINUOUS
 10
261.0286715845
 20
248.6798112323
 11
260.9466403345
 21
248.8287473848
  0
LINE
  5
3A7
100
AcDbEntity
  8
03___PRT_ALL_CURVES
100
AcDbLine
 62
40
  6
CONTINUOUS
 10
260.9192966106
 20
248.568109118
 11
260.8646090845
 21
248.6798112323
  0
LINE
  5
3A8
100
AcDbEntity
  8
03___PRT_ALL_CURVES
100
AcDbLine
 62
40
  6
CONTINUOUS
 10
261.4935152823
 20
247.748960123
 11
261.6028903345
 21
247.5255558683
  0
LINE
  5
3A9
100
AcDbEntity
  8
03___PRT_ALL_CURVES
100
AcDbLine
 62
40
  6
CONTINUOUS
 10
262.1497652823
 20
248.4564068994
 11
262.0403903866
 21
248.6798112323
  0
LINE
  5
3AA
100
AcDbEntity
  8
03___PRT_ALL_CURVES
100
AcDbLine
 62
40
  6
CONTINUOUS
 10
270.9062480809
 20
237.7276835373
 11
270.9434821191
 21
237.5909648003
  0
LINE
  5
3AB
100
AcDbEntity
  8
03___PRT_ALL_CURVES
100
AcDbLine
 62
40
  6
CONTINUOUS
 10
272.2839076737
 20
237.7276835373
 11
272.2466736356
 21
237.8644022742
  0
LINE
  5
3AC
100
AcDbEntity
  8
03___PRT_ALL_CURVES
100
AcDbLine
 62
40
  6
CONTINUOUS
 10
270.7200778643
 20
237.7276835373
 11
270.7573119057
 21
237.5636210373
  0
LINE
  5
3AD
100
AcDbEntity
  8
03___PRT_ALL_CURVES
100
AcDbLine
 62
40
  6
CONTINUOUS
 10
272.4700778643
 20
237.7276835373
 11
272.4328438262
 21
237.8917460373
  0
LINE
  5
3AE
100
AcDbEntity
  8
7_ALL_FEATURES
100
AcDbLine
 62
7
  6
CONTINUOUS
 10
273.7908874673
 20
240.147341762
 11
273.8603467384
 21
239.7534186608
  0
LINE
  5
3AF
100
AcDbEntity
  8
7_ALL_FEATURES
100
AcDbLine
 62
7
  6
CONTINUOUS
 10
281.720071255
 20
195.7276835373
 11
281.7200778643
 21
237.4283236621
  0
LINE
  5
3B0
100
AcDbEntity
  8
7_ALL_FEATURES
100
AcDbLine
 62
7
  6
CONTINUOUS
 10
281.7200778643
 20
238.0270434125
 11
281.7200714205
 21
279.7276835373
  0
LINE
  5
3B1
100
AcDbEntity
  8
7_ALL_FEATURES
100
AcDbLine
 62
7
  6
CONTINUOUS
 10
282.0200778643
 20
196.0277026259
 11
282.0200778643
 21
279.4276648736
  0
LINE
  5
3B2
100
AcDbEntity
  8
7_ALL_FEATURES
100
AcDbLine
 62
7
  6
CONTINUOUS
 10
282.3200778643
 20
195.7276835373
 11
282.3200778643
 21
279.7276835373
  0
LINE
  5
3B3
100
AcDbEntity
  8
7_ALL_FEATURES
100
AcDbLine
 62
7
  6
CONTINUOUS
 10
273.6478780629
 20
231.281771482
 11
272.4052030327
 21
231.500888618
  0
LINE
  5
3B4
100
AcDbEntity
  8
7_ALL_FEATURES
100
AcDbLine
 62
7
  6
CONTINUOUS
 10
272.3397509709
 20
229.2216345131
 11
271.1540042582
 21
229.6532110219
  0
LINE
  5
3B5
100
AcDbEntity
  8
7_ALL_FEATURES
100
AcDbLine
 62
7
  6
CONTINUOUS
 10
259.7200778643
 20
236.8616581335
 11
261.2200778643
 21
235.9956327297
  0
LINE
  5
3B6
100
AcDbEntity
  8
7_ALL_FEATURES
100
AcDbLine
 62
7
  6
CONTINUOUS
 10
262.7200778643
 20
238.593708941
 11
261.2200778643
 21
239.4597343448
  0
LINE
  5
3B7
100
AcDbEntity
  8
03___PRT_ALL_CURVES
100
AcDbLine
 62
40
  6
CONTINUOUS
 10
270.8690140298
 20
237.4269022612
 11
270.9807161572
 21
237.3448710112
  0
LINE
  5
3B8
100
AcDbEntity
  8
7_ALL_FEATURES
100
AcDbLine
 62
7
  6
CONTINUOUS
 10
253.6802432068
 20
249.523907227
 11
254.6468727835
 21
248.7128087057
  0
LINE
  5
3B9
100
AcDbEntity
  8
7_ALL_FEATURES
100
AcDbLine
 62
7
  6
CONTINUOUS
 10
273.1797393817
 20
233.1618871785
 11
274.1463689584
 21
232.3507886572
  0
LINE
  5
3BA
100
AcDbEntity
  8
03___PRT_ALL_CURVES
100
AcDbLine
 62
40
  6
CONTINUOUS
 10
260.4544528345
 20
247.451087792
 11
260.3724215845
 21
247.5255558683
  0
LINE
  5
3BB
100
AcDbEntity
  8
03___PRT_ALL_CURVES
100
AcDbLine
 62
40
  6
CONTINUOUS
 10
260.345077841
 20
248.1585345944
 11
260.427109091
 21
248.0840665182
  0
LINE
  5
3BC
100
AcDbEntity
  8
03___PRT_ALL_CURVES
100
AcDbLine
 62
40
  6
CONTINUOUS
 10
261.6028903345
 20
247.5255558683
 11
261.6849215845
 21
247.451087792
  0
LINE
  5
3BD
100
AcDbEntity
  8
03___PRT_ALL_CURVES
100
AcDbLine
 62
40
  6
CONTINUOUS
 10
270.9434821191
 20
237.5909648003
 11
271.0179501953
 21
237.5089335112
  0
LINE
  5
3BE
100
AcDbEntity
  8
03___PRT_ALL_CURVES
100
AcDbLine
 62
40
  6
CONTINUOUS
 10
272.2466736356
 20
237.8644022742
 11
272.1722055594
 21
237.9464335438
  0
LINE
  5
3BF
100
AcDbEntity
  8
03___PRT_ALL_CURVES
100
AcDbLine
 62
40
  6
CONTINUOUS
 10
270.7573119057
 20
237.5636210373
 11
270.8690140298
 21
237.4269022612
  0
LINE
  5
3C0
100
AcDbEntity
  8
03___PRT_ALL_CURVES
100
AcDbLine
 62
40
  6
CONTINUOUS
 10
272.4328438262
 20
237.8917460373
 11
272.3211417118
 21
238.0284647938
  0
LINE
  5
3C1
100
AcDbEntity
  8
03___PRT_ALL_CURVES
100
AcDbLine
 62
40
  6
CONTINUOUS
 10
262.2044528866
 20
248.7170452705
 11
262.1224216366
 21
248.8287473848
  0
LINE
  5
3C2
100
AcDbEntity
  8
7_ALL_FEATURES
100
AcDbLine
 62
7
  6
CONTINUOUS
 10
272.2052030327
 20
244.300888618
 11
272.4052030327
 21
243.9544784565
  0
LINE
  5
3C3
100
AcDbEntity
  8
7_ALL_FEATURES
100
AcDbLine
 62
7
  6
CONTINUOUS
 10
273.1797393817
 20
242.293479896
 11
273.316547439
 21
241.9176028477
  0
LINE
  5
3C4
100
AcDbEntity
  8
7_ALL_FEATURES
100
AcDbLine
 62
7
  6
CONTINUOUS
 10
275.1952834057
 20
238.5605281055
 11
273.0200778643
 21
237.9776835373
  0
LINE
  5
3C5
100
AcDbEntity
  8
03___PRT_ALL_CURVES
100
AcDbLine
 62
40
  6
CONTINUOUS
 10
271.9488012264
 20
237.2628397612
 11
272.060503445
 21
237.2901835633
  0
LINE
  5
3C6
100
AcDbEntity
  8
03___PRT_ALL_CURVES
100
AcDbLine
 62
40
  6
CONTINUOUS
 10
271.2413544501
 20
238.1925272864
 11
271.1296523357
 21
238.1651835356
  0
LINE
  5
3C7
100
AcDbEntity
  8
7_ALL_FEATURES
100
AcDbLine
 62
7
  6
CONTINUOUS
 10
275.1030217685
 20
235.9210655498
 11
273.8603467384
 21
235.7019484137
  0
LINE
  5
3C8
100
AcDbEntity
  8
03___PRT_ALL_CURVES
100
AcDbLine
 62
40
  6
CONTINUOUS
 10
271.7626310358
 20
237.2354960373
 11
271.9488012264
 21
237.2628397612
  0
LINE
  5
3C9
100
AcDbEntity
  8
03___PRT_ALL_CURVES
100
AcDbLine
 62
40
  6
CONTINUOUS
 10
271.4275246928
 20
238.2198710373
 11
271.2413544501
 21
238.1925272864
  0
LINE
  5
3CA
100
AcDbEntity
  8
03___PRT_ALL_CURVES
100
AcDbLine
 62
40
  6
CONTINUOUS
 10
271.7253969977
 20
237.3722148133
 11
271.9488012264
 21
237.3995585373
  0
LINE
  5
3CB
100
AcDbEntity
  8
03___PRT_ALL_CURVES
100
AcDbLine
 62
40
  6
CONTINUOUS
 10
271.4647587309
 20
238.0831522905
 11
271.2413544501
 21
238.0558085373
  0
LINE
  5
3CC
100
AcDbEntity
  8
7_ALL_FEATURES
100
AcDbLine
 62
7
  6
CONTINUOUS
 10
274.5783927345
 20
233.5377642269
 11
273.316547439
 21
233.5377642269
  0
LINE
  5
3CD
100
AcDbEntity
  8
03___PRT_ALL_CURVES
100
AcDbLine
 62
40
  6
CONTINUOUS
 10
271.4275246928
 20
237.2354960373
 11
271.7626310358
 21
237.2354960373
  0
LINE
  5
3CE
100
AcDbEntity
  8
03___PRT_ALL_CURVES
100
AcDbLine
 62
40
  6
CONTINUOUS
 10
271.4647587309
 20
237.3722148133
 11
271.7253969977
 21
237.3722148133
  0
LINE
  5
3CF
100
AcDbEntity
  8
7_ALL_FEATURES
100
AcDbLine
 62
7
  6
CONTINUOUS
 10
276.2200778643
 20
237.4283236621
 11
281.7200778643
 21
237.4283236621
  0
LINE
  5
3D0
100
AcDbEntity
  8
7_ALL_FEATURES
100
AcDbLine
 62
7
  6
CONTINUOUS
 10
276.2200778643
 20
237.7276835373
 11
282.0200778643
 21
237.7276835373
  0
LINE
  5
3D1
100
AcDbEntity
  8
7_ALL_FEATURES
100
AcDbLine
 62
7
  6
CONTINUOUS
 10
276.2200778643
 20
238.0270434125
 11
281.7200778643
 21
238.0270434125
  0
LINE
  5
3D2
100
AcDbEntity
  8
03___PRT_ALL_CURVES
100
AcDbLine
 62
40
  6
CONTINUOUS
 10
271.7253969977
 20
238.0831522905
 11
271.4647587309
 21
238.0831522905
  0
LINE
  5
3D3
100
AcDbEntity
  8
03___PRT_ALL_CURVES
100
AcDbLine
 62
40
  6
CONTINUOUS
 10
271.7626310358
 20
238.2198710373
 11
271.4275246928
 21
238.2198710373
  0
LINE
  5
3D4
100
AcDbEntity
  8
03___PRT_ALL_CURVES
100
AcDbLine
 62
40
  6
CONTINUOUS
 10
271.2413544501
 20
237.3995585373
 11
271.4647587309
 21
237.3722148133
  0
LINE
  5
3D5
100
AcDbEntity
  8
03___PRT_ALL_CURVES
100
AcDbLine
 62
40
  6
CONTINUOUS
 10
271.9488012264
 20
238.0558085373
 11
271.7253969977
 21
238.0831522905
  0
LINE
  5
3D6
100
AcDbEntity
  8
03___PRT_ALL_CURVES
100
AcDbLine
 62
40
  6
CONTINUOUS
 10
271.2413544501
 20
237.2628397612
 11
271.4275246928
 21
237.2354960373
  0
LINE
  5
3D7
100
AcDbEntity
  8
03___PRT_ALL_CURVES
100
AcDbLine
 62
40
  6
CONTINUOUS
 10
271.9488012264
 20
238.1925272864
 11
271.7626310358
 21
238.2198710373
  0
LINE
  5
3D8
100
AcDbEntity
  8
03___PRT_ALL_CURVES
100
AcDbLine
 62
40
  6
CONTINUOUS
 10
271.1296523357
 20
237.2901835633
 11
271.2413544501
 21
237.2628397612
  0
LINE
  5
3D9
100
AcDbEntity
  8
03___PRT_ALL_CURVES
100
AcDbLine
 62
40
  6
CONTINUOUS
 10
272.060503445
 20
238.1651835356
 11
271.9488012264
 21
238.1925272864
  0
LINE
  5
3DA
100
AcDbEntity
  8
7_ALL_FEATURES
100
AcDbLine
 62
7
  6
CONTINUOUS
 10
273.0200778643
 20
237.4776835373
 11
275.1952834057
 21
236.8948389691
  0
LINE
  5
3DB
100
AcDbEntity
  8
7_ALL_FEATURES
100
AcDbLine
 62
7
  6
CONTINUOUS
 10
250.1004047577
 20
246.2337325615
 11
251.2861514704
 21
245.8021560526
  0
LINE
  5
3DC
100
AcDbEntity
  8
03___PRT_ALL_CURVES
100
AcDbLine
 62
40
  6
CONTINUOUS
 10
270.9807161572
 20
237.3448710112
 11
271.1296523357
 21
237.2901835633
  0
LINE
  5
3DD
100
AcDbEntity
  8
03___PRT_ALL_CURVES
100
AcDbLine
 62
40
  6
CONTINUOUS
 10
272.2094395975
 20
238.110496034
 11
272.060503445
 21
238.1651835356
  0
LINE
  5
3DE
100
AcDbEntity
  8
03___PRT_ALL_CURVES
100
AcDbLine
 62
40
  6
CONTINUOUS
 10
271.0179501953
 20
237.5089335112
 11
271.2413544501
 21
237.3995585373
  0
LINE
  5
3DF
100
AcDbEntity
  8
03___PRT_ALL_CURVES
100
AcDbLine
 62
40
  6
CONTINUOUS
 10
272.1722055594
 20
237.9464335438
 11
271.9488012264
 21
238.0558085373
  0
LINE
  5
3E0
100
AcDbEntity
  8
7_ALL_FEATURES
100
AcDbLine
 62
7
  6
CONTINUOUS
 10
251.7463974901
 20
248.035417535
 11
252.8391875717
 21
247.4044948872
  0
LINE
  5
3E1
100
AcDbEntity
  8
7_ALL_FEATURES
100
AcDbLine
 62
7
  6
CONTINUOUS
 10
273.7908874673
 20
235.3080253125
 11
274.8836775489
 21
234.6771026648
  0
LINE
  5
3E2
100
AcDbEntity
  8
03___PRT_ALL_CURVES
100
AcDbLine
 62
40
  6
CONTINUOUS
 10
272.3211417118
 20
238.0284647938
 11
272.2094395975
 21
238.110496034
  0
LINE
  5
3E3
100
AcDbEntity
  8
03___PRT_ALL_CURVES
100
AcDbLine
 62
40
  6
CONTINUOUS
 10
260.2903903345
 20
247.3766197028
 11
260.427109091
 21
247.2649175786
  0
LINE
  5
3E4
100
AcDbEntity
  8
03___PRT_ALL_CURVES
100
AcDbLine
 62
40
  6
CONTINUOUS
 10
260.2630465812
 20
248.009598442
 11
260.399765328
 21
247.8978963276
  0
LINE
  5
3E5
100
AcDbEntity
  8
03___PRT_ALL_CURVES
100
AcDbLine
 62
40
  6
CONTINUOUS
 10
261.5208590845
 20
247.3766197028
 11
261.6575777823
 21
247.2649175786
  0
LINE
  5
3E6
100
AcDbEntity
  8
03___PRT_ALL_CURVES
100
AcDbLine
 62
40
  6
CONTINUOUS
 10
260.9466403345
 20
248.8287473848
 11
260.8099215584
 21
248.9404494991
  0
LINE
  5
3E7
100
AcDbEntity
  8
03___PRT_ALL_CURVES
100
AcDbLine
 62
40
  6
CONTINUOUS
 10
262.1224216366
 20
248.8287473848
 11
261.9857027823
 21
248.9404494991
  0
LINE
  5
3E8
100
AcDbEntity
  8
03___PRT_ALL_CURVES
100
AcDbLine
 62
40
  6
CONTINUOUS
 10
260.8646090845
 20
248.6798112323
 11
260.7825778345
 21
248.7542793086
  0
LINE
  5
3E9
100
AcDbEntity
  8
03___PRT_ALL_CURVES
100
AcDbLine
 62
40
  6
CONTINUOUS
 10
262.0403903866
 20
248.6798112323
 11
261.9583591366
 21
248.7542793086
  0
LINE
  5
3EA
100
AcDbEntity
  8
7_ALL_FEATURES
100
AcDbLine
 62
7
  6
CONTINUOUS
 10
270.8968892143
 20
246.1085738299
 11
271.1540042582
 21
245.8021560526
  0
LINE
  5
3EB
100
AcDbEntity
  8
7_ALL_FEATURES
100
AcDbLine
 62
7
  6
CONTINUOUS
 10
272.4052030327
 20
243.9544784565
 11
273.6478780629
 21
244.1735955926
  0
LINE
  5
3EC
100
AcDbEntity
  8
7_ALL_FEATURES
100
AcDbLine
 62
7
  6
CONTINUOUS
 10
273.316547439
 20
241.9176028477
 11
274.5783927345
 21
241.9176028477
  0
LINE
  5
3ED
100
AcDbEntity
  8
7_ALL_FEATURES
100
AcDbLine
 62
7
  6
CONTINUOUS
 10
273.8603467384
 20
239.7534186608
 11
275.1030217685
 21
239.5343015247
  0
LINE
  5
3EE
100
AcDbEntity
  8
03___PRT_ALL_CURVES
100
AcDbLine
 62
40
  6
CONTINUOUS
 10
261.6575777823
 20
247.2649175786
 11
261.8216402823
 21
247.2276835373
  0
LINE
  5
3EF
100
AcDbEntity
  8
03___PRT_ALL_CURVES
100
AcDbLine
 62
40
  6
CONTINUOUS
 10
260.427109091
 20
247.2649175786
 11
260.5638278475
 21
247.2276835373
  0
LINE
  5
3F0
100
AcDbEntity
  8
03___PRT_ALL_CURVES
100
AcDbLine
 62
40
  6
CONTINUOUS
 10
261.6849215845
 20
247.451087792
 11
261.8216402823
 21
247.4138537539
  0
LINE
  5
3F1
100
AcDbEntity
  8
03___PRT_ALL_CURVES
100
AcDbLine
 62
40
  6
CONTINUOUS
 10
260.399765328
 20
247.8978963276
 11
260.5364840845
 21
247.8606622374
  0
LINE
  5
3F2
100
AcDbEntity
  8
03___PRT_ALL_CURVES
100
AcDbLine
 62
40
  6
CONTINUOUS
 10
260.5364840845
 20
247.4138537539
 11
260.4544528345
 21
247.451087792
  0
LINE
  5
3F3
100
AcDbEntity
  8
03___PRT_ALL_CURVES
100
AcDbLine
 62
40
  6
CONTINUOUS
 10
260.427109091
 20
248.0840665182
 11
260.5091403215
 21
248.0468324801
  0
LINE
  5
3F4
100
AcDbEntity
  8
03___PRT_ALL_CURVES
100
AcDbLine
 62
40
  6
CONTINUOUS
 10
260.7825778345
 20
248.7542793086
 11
260.7005465845
 21
248.7915133467
  0
LINE
  5
3F5
100
AcDbEntity
  8
7_ALL_FEATURES
100
AcDbLine
 62
7
  6
CONTINUOUS
 10
267.4468727835
 20
248.9128087057
 11
267.7932829451
 21
248.7128087057
  0
LINE
  5
3F6
100
AcDbEntity
  8
7_ALL_FEATURES
100
AcDbLine
 62
7
  6
CONTINUOUS
 10
269.2945503797
 20
247.6616099311
 11
269.6009681569
 21
247.4044948872
  0
LINE
  5
3F7
100
AcDbEntity
  8
7_ALL_FEATURES
100
AcDbLine
 62
7
  6
CONTINUOUS
 10
282.0200778643
 20
196.0276902877
 11
281.720071255
 21
195.7276835373
  0
LINE
  5
3F8
100
AcDbEntity
  8
03___PRT_ALL_CURVES
100
AcDbLine
 62
40
  6
CONTINUOUS
 10
261.8216402823
 20
247.4138537539
 11
261.9583591366
 21
247.451087792
  0
LINE
  5
3F9
100
AcDbEntity
  8
03___PRT_ALL_CURVES
100
AcDbLine
 62
40
  6
CONTINUOUS
 10
260.6732028215
 20
247.2276835373
 11
260.8099215584
 21
247.2649175786
  0
LINE
  5
3FA
100
AcDbEntity
  8
03___PRT_ALL_CURVES
100
AcDbLine
 62
40
  6
CONTINUOUS
 10
261.8216402823
 20
247.2276835373
 11
261.9857027823
 21
247.2649175786
  0
LINE
  5
3FB
100
AcDbEntity
  8
03___PRT_ALL_CURVES
100
AcDbLine
 62
40
  6
CONTINUOUS
 10
260.5638278475
 20
247.2276835373
 11
260.6732028215
 21
247.2276835373
  0
LINE
  5
3FC
100
AcDbEntity
  8
03___PRT_ALL_CURVES
100
AcDbLine
 62
40
  6
CONTINUOUS
 10
260.7005465845
 20
247.4138537539
 11
260.5364840845
 21
247.4138537539
  0
LINE
  5
3FD
100
AcDbEntity
  8
03___PRT_ALL_CURVES
100
AcDbLine
 62
40
  6
CONTINUOUS
 10
260.317734078
 20
247.6372580087
 11
260.1810153361
 21
247.6372580087
  0
LINE
  5
3FE
100
AcDbEntity
  8
03___PRT_ALL_CURVES
100
AcDbLine
 62
40
  6
CONTINUOUS
 10
260.5364840845
 20
247.8606622374
 11
260.6732028215
 21
247.8606622374
  0
LINE
  5
3FF
100
AcDbEntity
  8
03___PRT_ALL_CURVES
100
AcDbLine
 62
40
  6
CONTINUOUS
 10
260.5091403215
 20
248.0468324801
 11
260.7005465845
 21
248.0468324801
  0
LINE
  5
400
100
AcDbEntity
  8
03___PRT_ALL_CURVES
100
AcDbLine
 62
40
  6
CONTINUOUS
 10
260.7005465845
 20
248.7915133467
 11
260.5091403215
 21
248.7915133467
  0
LINE
  5
401
100
AcDbEntity
  8
03___PRT_ALL_CURVES
100
AcDbLine
 62
40
  6
CONTINUOUS
 10
260.6732028215
 20
248.9776835373
 11
260.5364840845
 21
248.9776835373
  0
LINE
  5
402
100
AcDbEntity
  8
7_ALL_FEATURES
100
AcDbLine
 62
7
  6
CONTINUOUS
 10
260.9700778643
 20
249.5276835373
 11
261.4700778643
 21
249.5276835373
  0
LINE
  5
403
100
AcDbEntity
  8
7_ALL_FEATURES
100
AcDbLine
 62
7
  6
CONTINUOUS
 10
263.2458129878
 20
250.3679524114
 11
263.639736089
 21
250.2984931403
  0
LINE
  5
404
100
AcDbEntity
  8
03___PRT_ALL_CURVES
100
AcDbLine
 62
40
  6
CONTINUOUS
 10
261.9857027823
 20
248.9404494991
 11
261.8216402823
 21
248.9776835373
  0
LINE
  5
405
100
AcDbEntity
  8
03___PRT_ALL_CURVES
100
AcDbLine
 62
40
  6
CONTINUOUS
 10
260.8099215584
 20
248.9404494991
 11
260.6732028215
 21
248.9776835373
  0
LINE
  5
406
100
AcDbEntity
  8
03___PRT_ALL_CURVES
100
AcDbLine
 62
40
  6
CONTINUOUS
 10
261.9583591366
 20
248.7542793086
 11
261.8216402823
 21
248.7915133467
  0
LINE
  5
407
100
AcDbEntity
  8
7_ALL_FEATURES
100
AcDbLine
 62
7
  6
CONTINUOUS
 10
265.4099971747
 20
249.824153112
 11
265.785874223
 21
249.6873450547
  0
LINE
  5
408
100
AcDbEntity
  8
03___PRT_ALL_CURVES
100
AcDbLine
 62
40
  6
CONTINUOUS
 10
260.6732028215
 20
247.8606622374
 11
260.8099215584
 21
247.8978963276
  0
LINE
  5
409
100
AcDbEntity
  8
03___PRT_ALL_CURVES
100
AcDbLine
 62
40
  6
CONTINUOUS
 10
261.8216402823
 20
248.7915133467
 11
261.6849215845
 21
248.7542793086
  0
LINE
  5
40A
100
AcDbEntity
  8
03___PRT_ALL_CURVES
100
AcDbLine
 62
40
  6
CONTINUOUS
 10
260.5364840845
 20
248.9776835373
 11
260.399765328
 21
248.9404494991
  0
LINE
  5
40B
100
AcDbEntity
  8
03___PRT_ALL_CURVES
100
AcDbLine
 62
40
  6
CONTINUOUS
 10
261.8216402823
 20
248.9776835373
 11
261.6575777823
 21
248.9404494991
  0
LINE
  5
40C
100
AcDbEntity
  8
7_ALL_FEATURES
100
AcDbLine
 62
7
  6
CONTINUOUS
 10
258.8004196396
 20
250.2984931403
 11
259.1943427408
 21
250.3679524114
  0
LINE
  5
40D
100
AcDbEntity
  8
7_ALL_FEATURES
100
AcDbLine
 62
7
  6
CONTINUOUS
 10
245.7200778643
 20
253.3161408054
 11
276.2200778643
 21
253.3161408054
  0
LINE
  5
40E
100
AcDbEntity
  8
7_ALL_FEATURES
100
AcDbLine
 62
7
  6
CONTINUOUS
 10
282.0200778643
 20
279.4276769522
 11
281.7200714205
 21
279.7276835373
  0
LINE
  5
40F
100
AcDbEntity
  8
7_ALL_FEATURES
100
AcDbLine
 62
7
  6
CONTINUOUS
 10
332.6200778643
 20
195.7276835373
 11
332.6200778643
 21
279.7276835373
  0
LINE
  5
410
100
AcDbEntity
  8
7_ALL_FEATURES
100
AcDbLine
 62
7
  6
CONTINUOUS
 10
332.9200778643
 20
196.0276835373
 11
332.9200778643
 21
279.4276835373
  0
LINE
  5
411
100
AcDbEntity
  8
7_ALL_FEATURES
100
AcDbLine
 62
7
  6
CONTINUOUS
 10
332.9200778643
 20
196.0276835373
 11
332.6200778643
 21
195.7276835373
  0
LINE
  5
412
100
AcDbEntity
  8
02___PRT_ALL_AXES
100
AcDbLine
 62
7
  6
CONTINUOUS
 10
245.7200778643
 20
279.7276835373
 11
281.7200714205
 21
279.7276835373
  0
LINE
  5
413
100
AcDbEntity
  8
02___PRT_ALL_AXES
100
AcDbLine
 62
7
  6
CONTINUOUS
 10
282.3200778643
 20
279.7276835373
 11
332.6200778643
 21
279.7276835373
  0
LINE
  5
414
100
AcDbEntity
  8
7_ALL_FEATURES
100
AcDbLine
 62
7
  6
CONTINUOUS
 10
332.9200778643
 20
279.4276835373
 11
332.6200778643
 21
279.7276835373
  0
LINE
  5
415
100
AcDbEntity
  8
7_ALL_FEATURES
100
AcDbLine
 62
7
  6
CONTINUOUS
 10
42.2540322581
 20
24.8944521691
 11
42.5540322581
 21
24.5944521691
  0
LINE
  5
416
100
AcDbEntity
  8
7_ALL_FEATURES
100
AcDbLine
 62
7
  6
CONTINUOUS
 10
42.5540322581
 20
24.5944521691
 11
125.9540322581
 21
24.5944521691
  0
LINE
  5
417
100
AcDbEntity
  8
7_ALL_FEATURES
100
AcDbLine
 62
7
  6
CONTINUOUS
 10
42.2540322581
 20
24.8944521691
 11
126.2540322581
 21
24.8944521691
  0
LINE
  5
418
100
AcDbEntity
  8
7_ALL_FEATURES
100
AcDbLine
 62
7
  6
CONTINUOUS
 10
38.7540322581
 20
93.6696544307
 11
38.7540322581
 21
98.9192499074
  0
LINE
  5
419
100
AcDbEntity
  8
7_ALL_FEATURES
100
AcDbLine
 62
9
  6
CONTINUOUS
 10
38.890022915
 20
92.9447619084
 11
38.890022915
 21
99.6441424297
  0
LINE
  5
41A
100
AcDbEntity
  8
7_ALL_FEATURES
100
AcDbLine
 62
7
  6
CONTINUOUS
 10
40.3180790842
 20
103.3162868649
 11
38.890022915
 21
99.6441424297
  0
LINE
  5
41B
100
AcDbEntity
  8
7_ALL_FEATURES
100
AcDbLine
 62
9
  6
CONTINUOUS
 10
40.3180790842
 20
103.3162868649
 11
40.3180790842
 21
89.2726174732
  0
LINE
  5
41C
100
AcDbEntity
  8
7_ALL_FEATURES
100
AcDbLine
 62
9
  6
CONTINUOUS
 10
41.0170825879
 20
103.7944521691
 11
41.0170825879
 21
88.7944521691
  0
LINE
  5
41D
100
AcDbEntity
  8
7_ALL_FEATURES
100
AcDbLine
 62
9
  6
CONTINUOUS
 10
41.6540322581
 20
103.7944521691
 11
41.6540322581
 21
88.7944521691
  0
LINE
  5
41E
100
AcDbEntity
  8
7_ALL_FEATURES
100
AcDbLine
 62
7
  6
CONTINUOUS
 10
41.7540322581
 20
103.6944521691
 11
41.7540322581
 21
88.8944521691
  0
LINE
  5
41F
100
AcDbEntity
  8
7_ALL_FEATURES
100
AcDbLine
 62
7
  6
CONTINUOUS
 10
42.2540322581
 20
24.8944521691
 11
42.2540322581
 21
75.1944521691
  0
LINE
  5
420
100
AcDbEntity
  8
7_ALL_FEATURES
100
AcDbLine
 62
7
  6
CONTINUOUS
 10
42.2540322581
 20
82.3192466276
 11
42.2540322581
 21
144.2217916532
  0
LINE
  5
421
100
AcDbEntity
  8
7_ALL_FEATURES
100
AcDbLine
 62
7
  6
CONTINUOUS
 10
42.2550991327
 20
81.2944521691
 11
42.2550991327
 21
75.7944521691
  0
LINE
  5
422
100
AcDbEntity
  8
7_ALL_FEATURES
100
AcDbLine
 62
3
  6
CONTINUOUS
 10
44.2540322581
 20
82.3192466276
 11
44.2540322581
 21
144.2217916532
  0
LINE
  5
423
100
AcDbEntity
  8
7_ALL_FEATURES
100
AcDbLine
 62
7
  6
CONTINUOUS
 10
45.2540322581
 20
81.2944521691
 11
45.2540322581
 21
112.2944521691
  0
LINE
  5
424
100
AcDbEntity
  8
7_ALL_FEATURES
100
AcDbLine
 62
9
  6
CONTINUOUS
 10
49.2540322581
 20
144.2944521691
 11
49.2540322581
 21
113.2944521691
  0
LINE
  5
425
100
AcDbEntity
  8
7_ALL_FEATURES
100
AcDbLine
 62
7
  6
CONTINUOUS
 10
42.5542046228
 20
75.4944521691
 11
42.5044939671
 21
75.5442572695
  0
LINE
  5
426
100
AcDbEntity
  8
7_ALL_FEATURES
100
AcDbLine
 62
7
  6
CONTINUOUS
 10
42.5542046228
 20
75.4944521691
 11
42.5044931697
 21
75.5442561873
  0
LINE
  5
427
100
AcDbEntity
  8
7_ALL_FEATURES
100
AcDbLine
 62
7
  6
CONTINUOUS
 10
40.3180790842
 20
89.2726174732
 11
38.890022915
 21
92.9447619084
  0
LINE
  5
428
100
AcDbEntity
  8
7_ALL_FEATURES
100
AcDbLine
 62
7
  6
CONTINUOUS
 10
42.5540322581
 20
75.4944521691
 11
42.2540322581
 21
75.1944521691
  0
LINE
  5
429
100
AcDbEntity
  8
7_ALL_FEATURES
100
AcDbLine
 62
7
  6
CONTINUOUS
 10
42.2540322581
 20
75.1944521691
 11
126.2540322581
 21
75.1944521691
  0
LINE
  5
42A
100
AcDbEntity
  8
7_ALL_FEATURES
100
AcDbLine
 62
7
  6
CONTINUOUS
 10
42.5540322581
 20
75.4944521691
 11
125.9540322581
 21
75.4944521691
  0
LINE
  5
42B
100
AcDbEntity
  8
7_ALL_FEATURES
100
AcDbLine
 62
7
  6
CONTINUOUS
 10
42.2550991327
 20
75.7944521691
 11
126.2529653834
 21
75.7944521691
  0
LINE
  5
42C
100
AcDbEntity
  8
7_ALL_FEATURES
100
AcDbLine
 62
7
  6
CONTINUOUS
 10
126.2529653834
 20
81.2944521691
 11
123.2540322581
 21
81.2944521691
  0
LINE
  5
42D
100
AcDbEntity
  8
7_ALL_FEATURES
100
AcDbLine
 62
7
  6
CONTINUOUS
 10
42.2550991327
 20
81.2944521691
 11
45.2540322581
 21
81.2944521691
  0
LINE
  5
42E
100
AcDbEntity
  8
7_ALL_FEATURES
100
AcDbLine
 62
7
  6
CONTINUOUS
 10
44.2540322581
 20
82.3192466276
 11
42.2540322581
 21
82.3192466276
  0
LINE
  5
42F
100
AcDbEntity
  8
7_ALL_FEATURES
100
AcDbLine
 62
7
  6
CONTINUOUS
 10
124.2540322581
 20
82.3192466276
 11
126.2540322581
 21
82.3192466276
  0
LINE
  5
430
100
AcDbEntity
  8
7_ALL_FEATURES
100
AcDbLine
 62
7
  6
CONTINUOUS
 10
44.2540322581
 20
82.4115082649
 11
42.2540322581
 21
82.4115082649
  0
LINE
  5
431
100
AcDbEntity
  8
7_ALL_FEATURES
100
AcDbLine
 62
7
  6
CONTINUOUS
 10
124.2540322581
 20
82.4115082649
 11
126.2540322581
 21
82.4115082649
  0
LINE
  5
432
100
AcDbEntity
  8
7_ALL_FEATURES
100
AcDbLine
 62
7
  6
CONTINUOUS
 10
44.2540322581
 20
82.6308524845
 11
42.2540322581
 21
82.6308524845
  0
LINE
  5
433
100
AcDbEntity
  8
7_ALL_FEATURES
100
AcDbLine
 62
7
  6
CONTINUOUS
 10
124.2540322581
 20
82.6308524845
 11
126.2540322581
 21
82.6308524845
  0
LINE
  5
434
100
AcDbEntity
  8
7_ALL_FEATURES
100
AcDbLine
 62
7
  6
CONTINUOUS
 10
44.2540322581
 20
82.9361372988
 11
42.2540322581
 21
82.9361372988
  0
LINE
  5
435
100
AcDbEntity
  8
7_ALL_FEATURES
100
AcDbLine
 62
7
  6
CONTINUOUS
 10
124.2540322581
 20
82.9361372988
 11
126.2540322581
 21
82.9361372988
  0
LINE
  5
436
100
AcDbEntity
  8
7_ALL_FEATURES
100
AcDbLine
 62
7
  6
CONTINUOUS
 10
44.2540322581
 20
83.368161075
 11
42.2540322581
 21
83.368161075
  0
LINE
  5
437
100
AcDbEntity
  8
7_ALL_FEATURES
100
AcDbLine
 62
7
  6
CONTINUOUS
 10
124.2540322581
 20
83.368161075
 11
126.2540322581
 21
83.368161075
  0
LINE
  5
438
100
AcDbEntity
  8
7_ALL_FEATURES
100
AcDbLine
 62
7
  6
CONTINUOUS
 10
44.2540322581
 20
83.8666519705
 11
42.2540322581
 21
83.8666519705
  0
LINE
  5
439
100
AcDbEntity
  8
7_ALL_FEATURES
100
AcDbLine
 62
7
  6
CONTINUOUS
 10
124.2540322581
 20
83.8666519705
 11
126.2540322581
 21
83.8666519705
  0
LINE
  5
43A
100
AcDbEntity
  8
7_ALL_FEATURES
100
AcDbLine
 62
7
  6
CONTINUOUS
 10
44.2540322581
 20
84.4982284793
 11
42.2540322581
 21
84.4982284793
  0
LINE
  5
43B
100
AcDbEntity
  8
7_ALL_FEATURES
100
AcDbLine
 62
7
  6
CONTINUOUS
 10
124.2540322581
 20
84.4982284793
 11
126.2540322581
 21
84.4982284793
  0
LINE
  5
43C
100
AcDbEntity
  8
7_ALL_FEATURES
100
AcDbLine
 62
7
  6
CONTINUOUS
 10
44.2540322581
 20
85.1747790625
 11
42.2540322581
 21
85.1747790625
  0
LINE
  5
43D
100
AcDbEntity
  8
7_ALL_FEATURES
100
AcDbLine
 62
7
  6
CONTINUOUS
 10
124.2540322581
 20
85.1747790625
 11
126.2540322581
 21
85.1747790625
  0
LINE
  5
43E
100
AcDbEntity
  8
3_ALL_AXES
100
AcDbLine
 62
7
  6
CONTINUOUS
 10
45.2540322581
 20
85.9444521691
 11
45.0873668352
 21
85.9444521691
  0
LINE
  5
43F
100
AcDbEntity
  8
7_ALL_FEATURES
100
AcDbLine
 62
7
  6
CONTINUOUS
 10
44.2540322581
 20
85.9867181713
 11
42.2540322581
 21
85.9867181713
  0
LINE
  5
440
100
AcDbEntity
  8
7_ALL_FEATURES
100
AcDbLine
 62
7
  6
CONTINUOUS
 10
124.2540322581
 20
85.9867181713
 11
126.2540322581
 21
85.9867181713
  0
LINE
  5
441
100
AcDbEntity
  8
3_ALL_AXES
100
AcDbLine
 62
7
  6
CONTINUOUS
 10
45.0873668352
 20
86.6444521691
 11
45.2540322581
 21
86.6444521691
  0
LINE
  5
442
100
AcDbEntity
  8
7_ALL_FEATURES
100
AcDbLine
 62
7
  6
CONTINUOUS
 10
44.2540322581
 20
86.8207717949
 11
42.2540322581
 21
86.8207717949
  0
LINE
  5
443
100
AcDbEntity
  8
7_ALL_FEATURES
100
AcDbLine
 62
7
  6
CONTINUOUS
 10
124.2540322581
 20
86.8207717949
 11
126.2540322581
 21
86.8207717949
  0
LINE
  5
444
100
AcDbEntity
  8
7_ALL_FEATURES
100
AcDbLine
 62
7
  6
CONTINUOUS
 10
44.2540322581
 20
87.7884031449
 11
42.2540322581
 21
87.7884031449
  0
LINE
  5
445
100
AcDbEntity
  8
7_ALL_FEATURES
100
AcDbLine
 62
7
  6
CONTINUOUS
 10
124.2540322581
 20
87.7884031449
 11
126.2540322581
 21
87.7884031449
  0
LINE
  5
446
100
AcDbEntity
  8
7_ALL_FEATURES
100
AcDbLine
 62
7
  6
CONTINUOUS
 10
44.2540322581
 20
88.7546175116
 11
42.2540322581
 21
88.7546175116
  0
LINE
  5
447
100
AcDbEntity
  8
7_ALL_FEATURES
100
AcDbLine
 62
7
  6
CONTINUOUS
 10
124.2540322581
 20
88.7546175116
 11
126.2540322581
 21
88.7546175116
  0
LINE
  5
448
100
AcDbEntity
  8
7_ALL_FEATURES
100
AcDbLine
 62
7
  6
CONTINUOUS
 10
127.4909819282
 20
88.7944521691
 11
126.8540322581
 21
88.7944521691
  0
LINE
  5
449
100
AcDbEntity
  8
7_ALL_FEATURES
100
AcDbLine
 62
7
  6
CONTINUOUS
 10
41.0170825879
 20
88.7944521691
 11
41.6540322581
 21
88.7944521691
  0
LINE
  5
44A
100
AcDbEntity
  8
7_ALL_FEATURES
100
AcDbLine
 62
7
  6
CONTINUOUS
 10
44.2540322581
 20
89.7212470883
 11
42.2540322581
 21
89.7212470883
  0
LINE
  5
44B
100
AcDbEntity
  8
7_ALL_FEATURES
100
AcDbLine
 62
7
  6
CONTINUOUS
 10
124.2540322581
 20
89.7212470883
 11
126.2540322581
 21
89.7212470883
  0
LINE
  5
44C
100
AcDbEntity
  8
7_ALL_FEATURES
100
AcDbLine
 62
7
  6
CONTINUOUS
 10
44.2540322581
 20
89.8485401138
 11
42.2540322581
 21
89.8485401138
  0
LINE
  5
44D
100
AcDbEntity
  8
7_ALL_FEATURES
100
AcDbLine
 62
7
  6
CONTINUOUS
 10
124.2540322581
 20
89.8485401138
 11
126.2540322581
 21
89.8485401138
  0
LINE
  5
44E
100
AcDbEntity
  8
3_ALL_AXES
100
AcDbLine
 62
7
  6
CONTINUOUS
 10
45.2540322581
 20
90.2944521691
 11
44.2540322581
 21
90.2944521691
  0
LINE
  5
44F
100
AcDbEntity
  8
3_ALL_AXES
100
AcDbLine
 62
7
  6
CONTINUOUS
 10
42.2540322581
 20
90.2944521691
 11
41.7540322581
 21
90.2944521691
  0
LINE
  5
450
100
AcDbEntity
  8
3_ALL_AXES
100
AcDbLine
 62
7
  6
CONTINUOUS
 10
123.2540322581
 20
90.2944521691
 11
124.2540322581
 21
90.2944521691
  0
LINE
  5
451
100
AcDbEntity
  8
3_ALL_AXES
100
AcDbLine
 62
7
  6
CONTINUOUS
 10
126.2540322581
 20
90.2944521691
 11
126.7540322581
 21
90.2944521691
  0
LINE
  5
452
100
AcDbEntity
  8
7_ALL_FEATURES
100
AcDbLine
 62
7
  6
CONTINUOUS
 10
44.2540322581
 20
90.9175572891
 11
42.2540322581
 21
90.9175572891
  0
LINE
  5
453
100
AcDbEntity
  8
7_ALL_FEATURES
100
AcDbLine
 62
7
  6
CONTINUOUS
 10
124.2540322581
 20
90.9175572891
 11
126.2540322581
 21
90.9175572891
  0
LINE
  5
454
100
AcDbEntity
  8
7_ALL_FEATURES
100
AcDbLine
 62
7
  6
CONTINUOUS
 10
44.2540322581
 20
91.7286558104
 11
42.2540322581
 21
91.7286558104
  0
LINE
  5
455
100
AcDbEntity
  8
7_ALL_FEATURES
100
AcDbLine
 62
7
  6
CONTINUOUS
 10
124.2540322581
 20
91.7286558104
 11
126.2540322581
 21
91.7286558104
  0
LINE
  5
456
100
AcDbEntity
  8
7_ALL_FEATURES
100
AcDbLine
 62
7
  6
CONTINUOUS
 10
44.2540322581
 20
92.1045328587
 11
42.2540322581
 21
92.1045328587
  0
LINE
  5
457
100
AcDbEntity
  8
7_ALL_FEATURES
100
AcDbLine
 62
7
  6
CONTINUOUS
 10
124.2540322581
 20
92.1045328587
 11
126.2540322581
 21
92.1045328587
  0
LINE
  5
458
100
AcDbEntity
  8
7_ALL_FEATURES
100
AcDbLine
 62
7
  6
CONTINUOUS
 10
44.2540322581
 20
93.2438712966
 11
42.2540322581
 21
93.2438712966
  0
LINE
  5
459
100
AcDbEntity
  8
7_ALL_FEATURES
100
AcDbLine
 62
7
  6
CONTINUOUS
 10
124.2540322581
 20
93.2438712966
 11
126.2540322581
 21
93.2438712966
  0
LINE
  5
45A
100
AcDbEntity
  8
7_ALL_FEATURES
100
AcDbLine
 62
7
  6
CONTINUOUS
 10
44.2540322581
 20
93.8747939443
 11
42.2540322581
 21
93.8747939443
  0
LINE
  5
45B
100
AcDbEntity
  8
7_ALL_FEATURES
100
AcDbLine
 62
7
  6
CONTINUOUS
 10
124.2540322581
 20
93.8747939443
 11
126.2540322581
 21
93.8747939443
  0
LINE
  5
45C
100
AcDbEntity
  8
7_ALL_FEATURES
100
AcDbLine
 62
7
  6
CONTINUOUS
 10
44.2540322581
 20
94.2687170455
 11
42.2540322581
 21
94.2687170455
  0
LINE
  5
45D
100
AcDbEntity
  8
7_ALL_FEATURES
100
AcDbLine
 62
7
  6
CONTINUOUS
 10
124.2540322581
 20
94.2687170455
 11
126.2540322581
 21
94.2687170455
  0
LINE
  5
45E
100
AcDbEntity
  8
7_ALL_FEATURES
100
AcDbLine
 62
7
  6
CONTINUOUS
 10
44.2540322581
 20
94.4878341816
 11
42.2540322581
 21
94.4878341816
  0
LINE
  5
45F
100
AcDbEntity
  8
7_ALL_FEATURES
100
AcDbLine
 62
7
  6
CONTINUOUS
 10
124.2540322581
 20
94.4878341816
 11
126.2540322581
 21
94.4878341816
  0
LINE
  5
460
100
AcDbEntity
  8
7_ALL_FEATURES
100
AcDbLine
 62
7
  6
CONTINUOUS
 10
44.2540322581
 20
95.4616076009
 11
42.2540322581
 21
95.4616076009
  0
LINE
  5
461
100
AcDbEntity
  8
7_ALL_FEATURES
100
AcDbLine
 62
7
  6
CONTINUOUS
 10
124.2540322581
 20
95.4616076009
 11
126.2540322581
 21
95.4616076009
  0
LINE
  5
462
100
AcDbEntity
  8
7_ALL_FEATURES
100
AcDbLine
 62
7
  6
CONTINUOUS
 10
44.2540322581
 20
96.0444521691
 11
42.2540322581
 21
96.0444521691
  0
LINE
  5
463
100
AcDbEntity
  8
7_ALL_FEATURES
100
AcDbLine
 62
7
  6
CONTINUOUS
 10
124.2540322581
 20
96.0444521691
 11
126.2540322581
 21
96.0444521691
  0
LINE
  5
464
100
AcDbEntity
  8
7_ALL_FEATURES
100
AcDbLine
 62
7
  6
CONTINUOUS
 10
44.2540322581
 20
96.5444521691
 11
42.2540322581
 21
96.5444521691
  0
LINE
  5
465
100
AcDbEntity
  8
7_ALL_FEATURES
100
AcDbLine
 62
7
  6
CONTINUOUS
 10
124.2540322581
 20
96.5444521691
 11
126.2540322581
 21
96.5444521691
  0
LINE
  5
466
100
AcDbEntity
  8
7_ALL_FEATURES
100
AcDbLine
 62
7
  6
CONTINUOUS
 10
44.2540322581
 20
97.1272967373
 11
42.2540322581
 21
97.1272967373
  0
LINE
  5
467
100
AcDbEntity
  8
7_ALL_FEATURES
100
AcDbLine
 62
7
  6
CONTINUOUS
 10
124.2540322581
 20
97.1272967373
 11
126.2540322581
 21
97.1272967373
  0
LINE
  5
468
100
AcDbEntity
  8
7_ALL_FEATURES
100
AcDbLine
 62
7
  6
CONTINUOUS
 10
44.2540322581
 20
98.1010701565
 11
42.2540322581
 21
98.1010701565
  0
LINE
  5
469
100
AcDbEntity
  8
7_ALL_FEATURES
100
AcDbLine
 62
7
  6
CONTINUOUS
 10
124.2540322581
 20
98.1010701565
 11
126.2540322581
 21
98.1010701565
  0
LINE
  5
46A
100
AcDbEntity
  8
7_ALL_FEATURES
100
AcDbLine
 62
7
  6
CONTINUOUS
 10
44.2540322581
 20
98.3201872926
 11
42.2540322581
 21
98.3201872926
  0
LINE
  5
46B
100
AcDbEntity
  8
7_ALL_FEATURES
100
AcDbLine
 62
7
  6
CONTINUOUS
 10
124.2540322581
 20
98.3201872926
 11
126.2540322581
 21
98.3201872926
  0
LINE
  5
46C
100
AcDbEntity
  8
7_ALL_FEATURES
100
AcDbLine
 62
7
  6
CONTINUOUS
 10
44.2540322581
 20
98.7141103938
 11
42.2540322581
 21
98.7141103938
  0
LINE
  5
46D
100
AcDbEntity
  8
7_ALL_FEATURES
100
AcDbLine
 62
7
  6
CONTINUOUS
 10
124.2540322581
 20
98.7141103938
 11
126.2540322581
 21
98.7141103938
  0
LINE
  5
46E
100
AcDbEntity
  8
7_ALL_FEATURES
100
AcDbLine
 62
7
  6
CONTINUOUS
 10
44.2540322581
 20
99.3450330416
 11
42.2540322581
 21
99.3450330416
  0
LINE
  5
46F
100
AcDbEntity
  8
7_ALL_FEATURES
100
AcDbLine
 62
7
  6
CONTINUOUS
 10
124.2540322581
 20
99.3450330416
 11
126.2540322581
 21
99.3450330416
  0
LINE
  5
470
100
AcDbEntity
  8
7_ALL_FEATURES
100
AcDbLine
 62
7
  6
CONTINUOUS
 10
44.2540322581
 20
100.4843714795
 11
42.2540322581
 21
100.4843714795
  0
LINE
  5
471
100
AcDbEntity
  8
7_ALL_FEATURES
100
AcDbLine
 62
7
  6
CONTINUOUS
 10
124.2540322581
 20
100.4843714795
 11
126.2540322581
 21
100.4843714795
  0
LINE
  5
472
100
AcDbEntity
  8
7_ALL_FEATURES
100
AcDbLine
 62
7
  6
CONTINUOUS
 10
44.2540322581
 20
100.8602485278
 11
42.2540322581
 21
100.8602485278
  0
LINE
  5
473
100
AcDbEntity
  8
7_ALL_FEATURES
100
AcDbLine
 62
7
  6
CONTINUOUS
 10
124.2540322581
 20
100.8602485278
 11
126.2540322581
 21
100.8602485278
  0
LINE
  5
474
100
AcDbEntity
  8
7_ALL_FEATURES
100
AcDbLine
 62
7
  6
CONTINUOUS
 10
44.2540322581
 20
101.6713470491
 11
42.2540322581
 21
101.6713470491
  0
LINE
  5
475
100
AcDbEntity
  8
7_ALL_FEATURES
100
AcDbLine
 62
7
  6
CONTINUOUS
 10
124.2540322581
 20
101.6713470491
 11
126.2540322581
 21
101.6713470491
  0
LINE
  5
476
100
AcDbEntity
  8
3_ALL_AXES
100
AcDbLine
 62
7
  6
CONTINUOUS
 10
45.2540322581
 20
102.2944521691
 11
44.2540322581
 21
102.2944521691
  0
LINE
  5
477
100
AcDbEntity
  8
3_ALL_AXES
100
AcDbLine
 62
7
  6
CONTINUOUS
 10
42.2540322581
 20
102.2944521691
 11
41.7540322581
 21
102.2944521691
  0
LINE
  5
478
100
AcDbEntity
  8
3_ALL_AXES
100
AcDbLine
 62
7
  6
CONTINUOUS
 10
123.2540322581
 20
102.2944521691
 11
124.2540322581
 21
102.2944521691
  0
LINE
  5
479
100
AcDbEntity
  8
3_ALL_AXES
100
AcDbLine
 62
7
  6
CONTINUOUS
 10
126.2540322581
 20
102.2944521691
 11
126.7540322581
 21
102.2944521691
  0
LINE
  5
47A
100
AcDbEntity
  8
7_ALL_FEATURES
100
AcDbLine
 62
7
  6
CONTINUOUS
 10
44.2540322581
 20
102.7403642244
 11
42.2540322581
 21
102.7403642244
  0
LINE
  5
47B
100
AcDbEntity
  8
7_ALL_FEATURES
100
AcDbLine
 62
7
  6
CONTINUOUS
 10
124.2540322581
 20
102.7403642244
 11
126.2540322581
 21
102.7403642244
  0
LINE
  5
47C
100
AcDbEntity
  8
7_ALL_FEATURES
100
AcDbLine
 62
7
  6
CONTINUOUS
 10
44.2540322581
 20
102.8676572498
 11
42.2540322581
 21
102.8676572498
  0
LINE
  5
47D
100
AcDbEntity
  8
7_ALL_FEATURES
100
AcDbLine
 62
7
  6
CONTINUOUS
 10
124.2540322581
 20
102.8676572498
 11
126.2540322581
 21
102.8676572498
  0
LINE
  5
47E
100
AcDbEntity
  8
7_ALL_FEATURES
100
AcDbLine
 62
7
  6
CONTINUOUS
 10
127.4909819282
 20
103.7944521691
 11
126.8540322581
 21
103.7944521691
  0
LINE
  5
47F
100
AcDbEntity
  8
7_ALL_FEATURES
100
AcDbLine
 62
7
  6
CONTINUOUS
 10
41.0170825879
 20
103.7944521691
 11
41.6540322581
 21
103.7944521691
  0
LINE
  5
480
100
AcDbEntity
  8
7_ALL_FEATURES
100
AcDbLine
 62
7
  6
CONTINUOUS
 10
44.2540322581
 20
103.8342868265
 11
42.2540322581
 21
103.8342868265
  0
LINE
  5
481
100
AcDbEntity
  8
7_ALL_FEATURES
100
AcDbLine
 62
7
  6
CONTINUOUS
 10
124.2540322581
 20
103.8342868265
 11
126.2540322581
 21
103.8342868265
  0
LINE
  5
482
100
AcDbEntity
  8
7_ALL_FEATURES
100
AcDbLine
 62
7
  6
CONTINUOUS
 10
44.2540322581
 20
104.8005011933
 11
42.2540322581
 21
104.8005011933
  0
LINE
  5
483
100
AcDbEntity
  8
7_ALL_FEATURES
100
AcDbLine
 62
7
  6
CONTINUOUS
 10
124.2540322581
 20
104.8005011933
 11
126.2540322581
 21
104.8005011933
  0
LINE
  5
484
100
AcDbEntity
  8
7_ALL_FEATURES
100
AcDbLine
 62
7
  6
CONTINUOUS
 10
44.2540322581
 20
105.7681325432
 11
42.2540322581
 21
105.7681325432
  0
LINE
  5
485
100
AcDbEntity
  8
7_ALL_FEATURES
100
AcDbLine
 62
7
  6
CONTINUOUS
 10
124.2540322581
 20
105.7681325432
 11
126.2540322581
 21
105.7681325432
  0
LINE
  5
486
100
AcDbEntity
  8
7_ALL_FEATURES
100
AcDbLine
 62
7
  6
CONTINUOUS
 10
44.2540322581
 20
106.6021861668
 11
42.2540322581
 21
106.6021861668
  0
LINE
  5
487
100
AcDbEntity
  8
7_ALL_FEATURES
100
AcDbLine
 62
7
  6
CONTINUOUS
 10
124.2540322581
 20
106.6021861668
 11
126.2540322581
 21
106.6021861668
  0
LINE
  5
488
100
AcDbEntity
  8
7_ALL_FEATURES
100
AcDbLine
 62
7
  6
CONTINUOUS
 10
44.2540322581
 20
107.4141252757
 11
42.2540322581
 21
107.4141252757
  0
LINE
  5
489
100
AcDbEntity
  8
7_ALL_FEATURES
100
AcDbLine
 62
7
  6
CONTINUOUS
 10
124.2540322581
 20
107.4141252757
 11
126.2540322581
 21
107.4141252757
  0
LINE
  5
48A
100
AcDbEntity
  8
7_ALL_FEATURES
100
AcDbLine
 62
9
  6
CONTINUOUS
 10
126.2540322581
 20
108.8271424637
 11
124.2540322581
 21
108.8271424637
  0
LINE
  5
48B
100
AcDbEntity
  8
7_ALL_FEATURES
100
AcDbLine
 62
9
  6
CONTINUOUS
 10
42.2540322581
 20
108.8271424637
 11
44.2540322581
 21
108.8271424637
  0
LINE
  5
48C
100
AcDbEntity
  8
7_ALL_FEATURES
100
AcDbLine
 62
7
  6
CONTINUOUS
 10
125.9540322581
 20
75.4944521691
 11
126.2540322581
 21
75.1944521691
  0
LINE
  5
48D
100
AcDbEntity
  8
7_ALL_FEATURES
100
AcDbLine
 62
7
  6
CONTINUOUS
 10
45.2540322581
 20
111.7944521691
 11
123.2540322581
 21
111.7944521691
  0
LINE
  5
48E
100
AcDbEntity
  8
7_ALL_FEATURES
100
AcDbLine
 62
7
  6
CONTINUOUS
 10
45.2540322581
 20
112.2944521691
 11
123.2540322581
 21
112.2944521691
  0
LINE
  5
48F
100
AcDbEntity
  8
7_ALL_FEATURES
100
AcDbLine
 62
3
  6
CONTINUOUS
 10
44.281833948
 20
113.2944521691
 11
124.2262305681
 21
113.2944521691
  0
LINE
  5
490
100
AcDbEntity
  8
7_ALL_FEATURES
100
AcDbLine
 62
9
  6
CONTINUOUS
 10
119.2540322581
 20
113.2944521691
 11
119.2540322581
 21
144.2944521691
  0
LINE
  5
491
100
AcDbEntity
  8
7_ALL_FEATURES
100
AcDbLine
 62
7
  6
CONTINUOUS
 10
123.2540322581
 20
112.2944521691
 11
123.2540322581
 21
81.2944521691
  0
LINE
  5
492
100
AcDbEntity
  8
7_ALL_FEATURES
100
AcDbLine
 62
3
  6
CONTINUOUS
 10
124.2540322581
 20
82.3192466276
 11
124.2540322581
 21
144.2217916532
  0
LINE
  5
493
100
AcDbEntity
  8
7_ALL_FEATURES
100
AcDbLine
 62
7
  6
CONTINUOUS
 10
128.1899854319
 20
89.2726174732
 11
129.6180416011
 21
92.9447619084
  0
LINE
  5
494
100
AcDbEntity
  8
7_ALL_FEATURES
100
AcDbLine
 62
7
  6
CONTINUOUS
 10
126.2529653834
 20
81.2944521691
 11
126.2529653834
 21
75.7944521691
  0
LINE
  5
495
100
AcDbEntity
  8
7_ALL_FEATURES
100
AcDbLine
 62
7
  6
CONTINUOUS
 10
126.2540322581
 20
144.2217916532
 11
126.2540322581
 21
82.3192466276
  0
LINE
  5
496
100
AcDbEntity
  8
7_ALL_FEATURES
100
AcDbLine
 62
7
  6
CONTINUOUS
 10
126.2540322581
 20
75.1944521691
 11
126.2540322581
 21
24.8944521691
  0
LINE
  5
497
100
AcDbEntity
  8
7_ALL_FEATURES
100
AcDbLine
 62
7
  6
CONTINUOUS
 10
126.7540322581
 20
88.8944521691
 11
126.7540322581
 21
103.6944521691
  0
LINE
  5
498
100
AcDbEntity
  8
7_ALL_FEATURES
100
AcDbLine
 62
9
  6
CONTINUOUS
 10
126.8540322581
 20
88.7944521691
 11
126.8540322581
 21
103.7944521691
  0
LINE
  5
499
100
AcDbEntity
  8
7_ALL_FEATURES
100
AcDbLine
 62
9
  6
CONTINUOUS
 10
127.4909819282
 20
88.7944521691
 11
127.4909819282
 21
103.7944521691
  0
LINE
  5
49A
100
AcDbEntity
  8
7_ALL_FEATURES
100
AcDbLine
 62
9
  6
CONTINUOUS
 10
128.1899854319
 20
89.2726174732
 11
128.1899854319
 21
103.3162868649
  0
LINE
  5
49B
100
AcDbEntity
  8
7_ALL_FEATURES
100
AcDbLine
 62
9
  6
CONTINUOUS
 10
129.6180416011
 20
99.6441424297
 11
129.6180416011
 21
92.9447619084
  0
LINE
  5
49C
100
AcDbEntity
  8
7_ALL_FEATURES
100
AcDbLine
 62
7
  6
CONTINUOUS
 10
129.7540322581
 20
98.9192499074
 11
129.7540322581
 21
93.6696544307
  0
LINE
  5
49D
100
AcDbEntity
  8
7_ALL_FEATURES
100
AcDbLine
 62
7
  6
CONTINUOUS
 10
128.1899854319
 20
103.3162868649
 11
129.6180416011
 21
99.6441424297
  0
LINE
  5
49E
100
AcDbEntity
  8
7_ALL_FEATURES
100
AcDbLine
 62
9
  6
CONTINUOUS
 10
44.2540322581
 20
142.198295447
 11
42.2540322581
 21
142.198295447
  0
LINE
  5
49F
100
AcDbEntity
  8
7_ALL_FEATURES
100
AcDbLine
 62
9
  6
CONTINUOUS
 10
124.2540322581
 20
142.198295447
 11
126.2540322581
 21
142.198295447
  0
LINE
  5
4A0
100
AcDbEntity
  8
7_ALL_FEATURES
100
AcDbLine
 62
7
  6
CONTINUOUS
 10
44.5530899149
 20
144.2944521691
 11
42.4644182106
 21
144.2944521691
  0
LINE
  5
4A1
100
AcDbEntity
  8
7_ALL_FEATURES
100
AcDbLine
 62
3
  6
CONTINUOUS
 10
44.5530899149
 20
144.2944521691
 11
123.9549746012
 21
144.2944521691
  0
LINE
  5
4A2
100
AcDbEntity
  8
7_ALL_FEATURES
100
AcDbLine
 62
7
  6
CONTINUOUS
 10
123.9549746012
 20
144.2944521691
 11
126.0436463055
 21
144.2944521691
  0
LINE
  5
4A3
100
AcDbEntity
  8
7_ALL_FEATURES
100
AcDbLine
 62
7
  6
CONTINUOUS
 10
126.2540322581
 20
24.8944521691
 11
125.9540322581
 21
24.5944521691
  0
CIRCLE
  5
4A4
100
AcDbEntity
  8
7_ALL_FEATURES
100
AcDbCircle
 62
7
  6
CONTINUOUS
 10
84.2540322581
 20
237.7276835373
 40
42.0
  0
CIRCLE
  5
4A5
100
AcDbEntity
  8
7_ALL_FEATURES
100
AcDbCircle
 62
7
  6
CONTINUOUS
 10
84.2540322581
 20
237.7276835373
 40
41.7
  0
CIRCLE
  5
4A6
100
AcDbEntity
  8
7_ALL_FEATURES
100
AcDbCircle
 62
7
  6
CONTINUOUS
 10
84.2540322581
 20
237.7276835373
 40
40.8
  0
CIRCLE
  5
4A7
100
AcDbEntity
  8
7_ALL_FEATURES
100
AcDbCircle
 62
7
  6
CONTINUOUS
 10
84.2540322581
 20
237.7276835373
 40
40.5
  0
CIRCLE
  5
4A8
100
AcDbEntity
  8
7_ALL_FEATURES
100
AcDbCircle
 62
7
  6
CONTINUOUS
 10
84.2540322581
 20
237.7276835373
 40
40.0
  0
CIRCLE
  5
4A9
100
AcDbEntity
  8
7_ALL_FEATURES
100
AcDbCircle
 62
7
  6
CONTINUOUS
 10
84.2540322581
 20
237.7276835373
 40
39.5
  0
ARC
  5
4AA
100
AcDbEntity
  8
7_ALL_FEATURES
100
AcDbCircle
 62
7
  6
CONTINUOUS
 10
119.2540322581
 20
169.7276835373
 40
7.0
100
AcDbArc
 50
270.0
 51
360.0
  0
ARC
  5
4AB
100
AcDbEntity
  8
7_ALL_FEATURES
100
AcDbCircle
 62
7
  6
CONTINUOUS
 10
49.2540322581
 20
169.7276835373
 40
7.0
100
AcDbArc
 50
180.0
 51
270.0
  0
ARC
  5
4AC
100
AcDbEntity
  8
7_ALL_FEATURES
100
AcDbCircle
 62
3
  6
CONTINUOUS
 10
119.2540322581
 20
169.7276835373
 40
5.0
100
AcDbArc
 50
270.0
 51
360.0
  0
ARC
  5
4AD
100
AcDbEntity
  8
7_ALL_FEATURES
100
AcDbCircle
 62
3
  6
CONTINUOUS
 10
49.2540322581
 20
169.7276835373
 40
5.0
100
AcDbArc
 50
180.0
 51
270.0
  0
ARC
  5
4AE
100
AcDbEntity
  8
7_ALL_FEATURES
100
AcDbCircle
 62
7
  6
CONTINUOUS
 10
127.7540322581
 20
235.1028857989
 40
2.0
100
AcDbArc
 50
338.7494944929
 51
360.0
  0
ARC
  5
4AF
100
AcDbEntity
  8
7_ALL_FEATURES
100
AcDbCircle
 62
7
  6
CONTINUOUS
 10
127.7540322581
 20
240.3524812756
 40
2.0
100
AcDbArc
 50
0.0
 51
21.2505055071
  0
ARC
  5
4B0
100
AcDbEntity
  8
7_ALL_FEATURES
100
AcDbCircle
 62
7
  6
CONTINUOUS
 10
40.7540322581
 20
240.3524812756
 40
2.0
100
AcDbArc
 50
158.7494944929
 51
180.0
  0
ARC
  5
4B1
100
AcDbEntity
  8
7_ALL_FEATURES
100
AcDbCircle
 62
7
  6
CONTINUOUS
 10
40.7540322581
 20
235.1028857989
 40
2.0
100
AcDbArc
 50
180.0
 51
201.2505055071
  0
ARC
  5
4B2
100
AcDbEntity
  8
7_ALL_FEATURES
100
AcDbCircle
 62
7
  6
CONTINUOUS
 10
127.4909819282
 20
230.9776835373
 40
0.75
100
AcDbArc
 50
270.0
 51
338.7494944929
  0
ARC
  5
4B3
100
AcDbEntity
  8
7_ALL_FEATURES
100
AcDbCircle
 62
7
  6
CONTINUOUS
 10
127.4909819282
 20
244.4776835373
 40
0.75
100
AcDbArc
 50
21.2505055071
 51
90.0
  0
ARC
  5
4B4
100
AcDbEntity
  8
7_ALL_FEATURES
100
AcDbCircle
 62
7
  6
CONTINUOUS
 10
41.0170825879
 20
244.4776835373
 40
0.75
100
AcDbArc
 50
90.0
 51
158.7494944929
  0
ARC
  5
4B5
100
AcDbEntity
  8
7_ALL_FEATURES
100
AcDbCircle
 62
7
  6
CONTINUOUS
 10
41.0170825879
 20
230.9776835373
 40
0.75
100
AcDbArc
 50
201.2505055071
 51
270.0
  0
ARC
  5
4B6
100
AcDbEntity
  8
7_ALL_FEATURES
100
AcDbCircle
 62
7
  6
CONTINUOUS
 10
91.7540322581
 20
196.2276835373
 40
0.5
100
AcDbArc
 50
270.0
 51
360.0
  0
ARC
  5
4B7
100
AcDbEntity
  8
7_ALL_FEATURES
100
AcDbCircle
 62
7
  6
CONTINUOUS
 10
76.7540322581
 20
196.2276835373
 40
0.5
100
AcDbArc
 50
180.0
 51
270.0
  0
ARC
  5
4B8
100
AcDbEntity
  8
7_ALL_FEATURES
100
AcDbCircle
 62
7
  6
CONTINUOUS
 10
126.8540322581
 20
230.3276835373
 40
0.1
100
AcDbArc
 50
180.0
 51
270.0
  0
ARC
  5
4B9
100
AcDbEntity
  8
7_ALL_FEATURES
100
AcDbCircle
 62
7
  6
CONTINUOUS
 10
126.8540322581
 20
245.1276835373
 40
0.1
100
AcDbArc
 50
90.0
 51
180.0
  0
ARC
  5
4BA
100
AcDbEntity
  8
7_ALL_FEATURES
100
AcDbCircle
 62
7
  6
CONTINUOUS
 10
41.6540322581
 20
245.1276835373
 40
0.1
100
AcDbArc
 50
0.0
 51
90.0
  0
ARC
  5
4BB
100
AcDbEntity
  8
7_ALL_FEATURES
100
AcDbCircle
 62
7
  6
CONTINUOUS
 10
41.6540322581
 20
230.3276835373
 40
0.1
100
AcDbArc
 50
270.0
 51
360.0
  0
ARC
  5
4BC
100
AcDbEntity
  8
7_ALL_FEATURES
100
AcDbCircle
 62
7
  6
CONTINUOUS
 10
264.2200778643
 20
169.2011439231
 40
20.0
100
AcDbArc
 50
160.0
 51
180.0
  0
ARC
  5
4BD
100
AcDbEntity
  8
7_ALL_FEATURES
100
AcDbCircle
 62
7
  6
CONTINUOUS
 10
233.2200778643
 20
168.0244098991
 40
20.0
100
AcDbArc
 50
153.5331233198
 51
180.0
  0
ARC
  5
4BE
100
AcDbEntity
  8
7_ALL_FEATURES
100
AcDbCircle
 62
7
  6
CONTINUOUS
 10
257.7200778643
 20
196.2276835373
 40
0.5
100
AcDbArc
 50
249.2304843863
 51
270.0
  0
ARC
  5
4BF
100
AcDbEntity
  8
7_ALL_FEATURES
100
AcDbCircle
 62
7
  6
CONTINUOUS
 10
261.2200778643
 20
237.7276835373
 40
14.0
100
AcDbArc
 50
93.4104763607
 51
97.4143604393
  0
ARC
  5
4C0
100
AcDbEntity
  8
7_ALL_FEATURES
100
AcDbCircle
 62
7
  6
CONTINUOUS
 10
261.2200778643
 20
237.7276835373
 40
14.0
100
AcDbArc
 50
102.5856395607
 51
107.4143604393
  0
ARC
  5
4C1
100
AcDbEntity
  8
7_ALL_FEATURES
100
AcDbCircle
 62
7
  6
CONTINUOUS
 10
261.2200778643
 20
237.7276835373
 40
14.0
100
AcDbArc
 50
112.5856395607
 51
117.4143604393
  0
ARC
  5
4C2
100
AcDbEntity
  8
7_ALL_FEATURES
100
AcDbCircle
 62
7
  6
CONTINUOUS
 10
261.2200778643
 20
237.7276835373
 40
14.0
100
AcDbArc
 50
122.5856395607
 51
127.4143604393
  0
ARC
  5
4C3
100
AcDbEntity
  8
7_ALL_FEATURES
100
AcDbCircle
 62
7
  6
CONTINUOUS
 10
261.2200778643
 20
237.7276835373
 40
14.0
100
AcDbArc
 50
132.5856395607
 51
137.4143604393
  0
ARC
  5
4C4
100
AcDbEntity
  8
7_ALL_FEATURES
100
AcDbCircle
 62
7
  6
CONTINUOUS
 10
261.2200778643
 20
237.7276835373
 40
14.0
100
AcDbArc
 50
142.5856395607
 51
153.5331233198
  0
ARC
  5
4C5
100
AcDbEntity
  8
7_ALL_FEATURES
100
AcDbCircle
 62
7
  6
CONTINUOUS
 10
261.2200778643
 20
237.7276835373
 40
14.0
100
AcDbArc
 50
276.5446659917
 51
307.4143604393
  0
ARC
  5
4C6
100
AcDbEntity
  8
7_ALL_FEATURES
100
AcDbCircle
 62
7
  6
CONTINUOUS
 10
261.2200778643
 20
237.7276835373
 40
14.0
100
AcDbArc
 50
312.5856395607
 51
317.4143604393
  0
ARC
  5
4C7
100
AcDbEntity
  8
7_ALL_FEATURES
100
AcDbCircle
 62
7
  6
CONTINUOUS
 10
261.2200778643
 20
237.7276835373
 40
14.0
100
AcDbArc
 50
322.5856395607
 51
327.4143604393
  0
ARC
  5
4C8
100
AcDbEntity
  8
7_ALL_FEATURES
100
AcDbCircle
 62
7
  6
CONTINUOUS
 10
261.2200778643
 20
237.7276835373
 40
14.0
100
AcDbArc
 50
332.5856395607
 51
337.4143604393
  0
ARC
  5
4C9
100
AcDbEntity
  8
7_ALL_FEATURES
100
AcDbCircle
 62
7
  6
CONTINUOUS
 10
261.2200778643
 20
237.7276835373
 40
14.0
100
AcDbArc
 50
82.5856395607
 51
86.5895236393
  0
ARC
  5
4CA
100
AcDbEntity
  8
7_ALL_FEATURES
100
AcDbCircle
 62
7
  6
CONTINUOUS
 10
261.2200778643
 20
237.7276835373
 40
14.0
100
AcDbArc
 50
72.5856395607
 51
77.4143604393
  0
ARC
  5
4CB
100
AcDbEntity
  8
7_ALL_FEATURES
100
AcDbCircle
 62
7
  6
CONTINUOUS
 10
261.2200778643
 20
237.7276835373
 40
14.0
100
AcDbArc
 50
62.5856395607
 51
67.4143604393
  0
ARC
  5
4CC
100
AcDbEntity
  8
7_ALL_FEATURES
100
AcDbCircle
 62
7
  6
CONTINUOUS
 10
261.2200778643
 20
237.7276835373
 40
14.0
100
AcDbArc
 50
52.5856395607
 51
57.4143604393
  0
ARC
  5
4CD
100
AcDbEntity
  8
7_ALL_FEATURES
100
AcDbCircle
 62
7
  6
CONTINUOUS
 10
261.2200778643
 20
237.7276835373
 40
14.0
100
AcDbArc
 50
42.5856395607
 51
47.4143604393
  0
ARC
  5
4CE
100
AcDbEntity
  8
7_ALL_FEATURES
100
AcDbCircle
 62
7
  6
CONTINUOUS
 10
261.2200778643
 20
237.7276835373
 40
14.0
100
AcDbArc
 50
32.5856395607
 51
37.4143604393
  0
ARC
  5
4CF
100
AcDbEntity
  8
7_ALL_FEATURES
100
AcDbCircle
 62
7
  6
CONTINUOUS
 10
261.2200778643
 20
237.7276835373
 40
14.0
100
AcDbArc
 50
22.5856395607
 51
27.4143604393
  0
ARC
  5
4D0
100
AcDbEntity
  8
7_ALL_FEATURES
100
AcDbCircle
 62
7
  6
CONTINUOUS
 10
261.2200778643
 20
237.7276835373
 40
14.0
100
AcDbArc
 50
12.5856395607
 51
17.4143604393
  0
ARC
  5
4D1
100
AcDbEntity
  8
7_ALL_FEATURES
100
AcDbCircle
 62
7
  6
CONTINUOUS
 10
261.2200778643
 20
237.7276835373
 40
14.0
100
AcDbArc
 50
3.4104763607
 51
7.4143604393
  0
ARC
  5
4D2
100
AcDbEntity
  8
7_ALL_FEATURES
100
AcDbCircle
 62
7
  6
CONTINUOUS
 10
261.2200778643
 20
237.7276835373
 40
14.0
100
AcDbArc
 50
352.5856395607
 51
356.5895236393
  0
ARC
  5
4D3
100
AcDbEntity
  8
7_ALL_FEATURES
100
AcDbCircle
 62
7
  6
CONTINUOUS
 10
261.2200778643
 20
237.7276835373
 40
14.0
100
AcDbArc
 50
342.5856395607
 51
347.4143604393
  0
CIRCLE
  5
4D4
100
AcDbEntity
  8
7_ALL_FEATURES
100
AcDbCircle
 62
7
  6
CONTINUOUS
 10
261.2200778643
 20
237.7276835373
 40
7.5
  0
CIRCLE
  5
4D5
100
AcDbEntity
  8
7_ALL_FEATURES
100
AcDbCircle
 62
9
  6
CONTINUOUS
 10
261.2200778643
 20
237.7276835373
 40
7.0218346959
  0
CIRCLE
  5
4D6
100
AcDbEntity
  8
7_ALL_FEATURES
100
AcDbCircle
 62
9
  6
CONTINUOUS
 10
261.2200778643
 20
237.7276835373
 40
3.3496902606
  0
CIRCLE
  5
4D7
100
AcDbEntity
  8
7_ALL_FEATURES
100
AcDbCircle
 62
9
  6
CONTINUOUS
 10
261.2200778643
 20
237.7276835373
 40
2.6247977383
  0
ARC
  5
4D8
100
AcDbEntity
  8
7_ALL_FEATURES
100
AcDbCircle
 62
7
  6
CONTINUOUS
 10
272.7200778643
 20
196.2276835373
 40
0.5
100
AcDbArc
 50
270.0
 51
290.769517068
  0
ARC
  5
4D9
100
AcDbEntity
  8
7_ALL_FEATURES
100
AcDbCircle
 62
7
  6
CONTINUOUS
 10
299.3800958413
 20
233.3916223528
 40
57.2397061913
100
AcDbArc
 50
159.6295189211
 51
161.119694676
  0
ARC
  5
4DA
100
AcDbEntity
  8
02___PRT_ALL_AXES
100
AcDbCircle
 62
7
  6
CONTINUOUS
 10
271.2200778643
 20
237.7276835373
 40
3.5
100
AcDbArc
 50
34.5080448089
 51
42.4932501578
  0
ARC
  5
4DB
100
AcDbEntity
  8
02___PRT_ALL_AXES
100
AcDbCircle
 62
7
  6
CONTINUOUS
 10
271.2200778643
 20
237.7276835373
 40
3.5
100
AcDbArc
 50
317.5067498422
 51
325.4919551911
  0
ARC
  5
4DC
100
AcDbEntity
  8
02___PRT_ALL_AXES
100
AcDbCircle
 62
7
  6
CONTINUOUS
 10
271.2200778643
 20
237.7276835373
 40
3.5
100
AcDbArc
 50
348.6759616351
 51
11.3240383649
  0
ARC
  5
4DD
100
AcDbEntity
  8
02___PRT_ALL_AXES
100
AcDbCircle
 62
7
  6
CONTINUOUS
 10
271.2200778643
 20
237.7276835373
 40
3.0
100
AcDbArc
 50
349.2898326267
 51
10.7101673733
  0
ARC
  5
4DE
100
AcDbEntity
  8
3_ALL_AXES
100
AcDbCircle
 62
7
  6
CONTINUOUS
 10
271.2200778643
 20
237.7276835373
 40
2.8
100
AcDbArc
 50
349.5981798833
 51
10.4018201167
  0
ARC
  5
4DF
100
AcDbEntity
  8
03___PRT_ALL_CURVES
100
AcDbCircle
 62
40
  6
CONTINUOUS
 10
270.5523985651
 20
247.0600042381
 40
0.2
100
AcDbArc
 50
315.0
 51
135.0
  0
ARC
  5
4E0
100
AcDbEntity
  8
03___PRT_ALL_CURVES
100
AcDbCircle
 62
40
  6
CONTINUOUS
 10
267.9361034747
 20
244.4437091477
 40
0.2
100
AcDbArc
 50
135.0
 51
315.0
  0
ARC
  5
4E1
100
AcDbEntity
  8
02___PRT_ALL_AXES
100
AcDbCircle
 62
3
  6
CONTINUOUS
 10
84.2540322581
 20
128.7944521691
 40
22.75
100
AcDbArc
 50
330.0
 51
30.0
  0
ARC
  5
4E2
100
AcDbEntity
  8
02___PRT_ALL_AXES
100
AcDbCircle
 62
3
  6
CONTINUOUS
 10
84.2540322581
 20
128.7944521691
 40
22.75
100
AcDbArc
 50
150.0
 51
210.0
  0
ARC
  5
4E3
100
AcDbEntity
  8
02___PRT_ALL_AXES
100
AcDbCircle
 62
3
  6
CONTINUOUS
 10
84.2540322581
 20
128.7944521691
 40
17.25
100
AcDbArc
 50
330.0
 51
30.0
  0
ARC
  5
4E4
100
AcDbEntity
  8
02___PRT_ALL_AXES
100
AcDbCircle
 62
3
  6
CONTINUOUS
 10
84.2540322581
 20
128.7944521691
 40
17.25
100
AcDbArc
 50
150.0
 51
210.0
  0
CIRCLE
  5
4E5
100
AcDbEntity
  8
02___PRT_ALL_AXES
100
AcDbCircle
 62
3
  6
CONTINUOUS
 10
84.2540322581
 20
128.7944521691
 40
8.6
  0
ARC
  5
4E6
100
AcDbEntity
  8
3_ALL_AXES
100
AcDbCircle
 62
7
  6
CONTINUOUS
 10
49.5540322581
 20
86.2944521691
 40
4.4863682417
100
AcDbArc
 50
185.3717206844
 51
196.5684381114
  0
ARC
  5
4E7
100
AcDbEntity
  8
3_ALL_AXES
100
AcDbCircle
 62
7
  6
CONTINUOUS
 10
49.5540322581
 20
86.2944521691
 40
4.4863682417
100
AcDbArc
 50
163.4294650646
 51
174.6282793156
  0
ARC
  5
4E8
100
AcDbEntity
  8
02___PRT_ALL_AXES
100
AcDbCircle
 62
3
  6
CONTINUOUS
 10
101.5745403338
 20
118.7944521691
 40
2.75
100
AcDbArc
 50
150.0
 51
330.0
  0
ARC
  5
4E9
100
AcDbEntity
  8
02___PRT_ALL_AXES
100
AcDbCircle
 62
3
  6
CONTINUOUS
 10
101.5745403338
 20
138.7944521691
 40
2.75
100
AcDbArc
 50
30.0
 51
210.0
  0
ARC
  5
4EA
100
AcDbEntity
  8
02___PRT_ALL_AXES
100
AcDbCircle
 62
3
  6
CONTINUOUS
 10
66.9335241824
 20
118.7944521691
 40
2.75
100
AcDbArc
 50
210.0
 51
30.0
  0
ARC
  5
4EB
100
AcDbEntity
  8
02___PRT_ALL_AXES
100
AcDbCircle
 62
3
  6
CONTINUOUS
 10
66.9335241824
 20
138.7944521691
 40
2.75
100
AcDbArc
 50
330.0
 51
150.0
  0
ARC
  5
4EC
100
AcDbEntity
  8
7_ALL_FEATURES
100
AcDbCircle
 62
7
  6
CONTINUOUS
 10
127.7540322581
 20
93.6696544307
 40
2.0
100
AcDbArc
 50
338.7494944929
 51
360.0
  0
ARC
  5
4ED
100
AcDbEntity
  8
7_ALL_FEATURES
100
AcDbCircle
 62
7
  6
CONTINUOUS
 10
127.7540322581
 20
98.9192499074
 40
2.0
100
AcDbArc
 50
0.0
 51
21.2505055071
  0
ARC
  5
4EE
100
AcDbEntity
  8
7_ALL_FEATURES
100
AcDbCircle
 62
7
  6
CONTINUOUS
 10
40.7540322581
 20
93.6696544307
 40
2.0
100
AcDbArc
 50
180.0
 51
201.2505055071
  0
ARC
  5
4EF
100
AcDbEntity
  8
7_ALL_FEATURES
100
AcDbCircle
 62
7
  6
CONTINUOUS
 10
40.7540322581
 20
98.9192499074
 40
2.0
100
AcDbArc
 50
158.7494944929
 51
180.0
  0
ARC
  5
4F0
100
AcDbEntity
  8
7_ALL_FEATURES
100
AcDbCircle
 62
7
  6
CONTINUOUS
 10
127.4909819282
 20
103.0444521691
 40
0.75
100
AcDbArc
 50
21.2505055071
 51
90.0
  0
ARC
  5
4F1
100
AcDbEntity
  8
7_ALL_FEATURES
100
AcDbCircle
 62
7
  6
CONTINUOUS
 10
127.4909819282
 20
89.5444521691
 40
0.75
100
AcDbArc
 50
270.0
 51
338.7494944929
  0
ARC
  5
4F2
100
AcDbEntity
  8
7_ALL_FEATURES
100
AcDbCircle
 62
7
  6
CONTINUOUS
 10
41.0170825879
 20
103.0444521691
 40
0.75
100
AcDbArc
 50
90.0
 51
158.7494944929
  0
ARC
  5
4F3
100
AcDbEntity
  8
7_ALL_FEATURES
100
AcDbCircle
 62
7
  6
CONTINUOUS
 10
41.0170825879
 20
89.5444521691
 40
0.75
100
AcDbArc
 50
201.2505055071
 51
270.0
  0
ARC
  5
4F4
100
AcDbEntity
  8
7_ALL_FEATURES
100
AcDbCircle
 62
7
  6
CONTINUOUS
 10
126.8540322581
 20
103.6944521691
 40
0.1
100
AcDbArc
 50
90.0
 51
180.0
  0
ARC
  5
4F5
100
AcDbEntity
  8
7_ALL_FEATURES
100
AcDbCircle
 62
7
  6
CONTINUOUS
 10
126.8540322581
 20
88.8944521691
 40
0.1
100
AcDbArc
 50
180.0
 51
270.0
  0
ARC
  5
4F6
100
AcDbEntity
  8
7_ALL_FEATURES
100
AcDbCircle
 62
7
  6
CONTINUOUS
 10
41.6540322581
 20
103.6944521691
 40
0.1
100
AcDbArc
 50
0.0
 51
90.0
  0
ARC
  5
4F7
100
AcDbEntity
  8
7_ALL_FEATURES
100
AcDbCircle
 62
7
  6
CONTINUOUS
 10
41.6540322581
 20
88.8944521691
 40
0.1
100
AcDbArc
 50
270.0
 51
360.0
  0
SPLINE
  5
4F8
100
AcDbEntity
  8
0
100
AcDbSpline
 62
2
  6
CONTINUOUS
 70
0
 71
3
 72
33
 73
29
 74
0
 42
0.0000001
 43
0.0000001
 44
0.0000000001
 40
0.0
 40
0.0
 40
0.0
 40
0.0
 40
0.0384613509
 40
0.0769228969
 40
0.1153844428
 40
0.1538459888
 40
0.1923075348
 40
0.2307690807
 40
0.2692306267
 40
0.3076921727
 40
0.3461537186
 40
0.3846152646
 40
0.4230768106
 40
0.4615383565
 40
0.4999999025
 40
0.5384614484
 40
0.5769229944
 40
0.6153845404
 40
0.6538460863
 40
0.6923076323
 40
0.7307691783
 40
0.7692307242
 40
0.8076922702
 40
0.8461538161
 40
0.8846153621
 40
0.9230769081
 40
0.961538454
 40
1.0
 40
1.0
 40
1.0
 40
1.0
 10
257.2200778643
 20
195.7276835373
 30
0.0
 10
257.2200777792
 20
195.7276835211
 30
0.0
 10
257.2296733515
 20
195.7295128231
 30
0.0
 10
257.2727917214
 20
195.7377045214
 30
0.0
 10
257.3446168659
 20
195.7512550415
 30
0.0
 10
257.4448753322
 20
195.7699715642
 30
0.0
 10
257.573554585
 20
195.7936542995
 30
0.0
 10
257.7300466017
 20
195.8219413577
 30
0.0
 10
257.9143524093
 20
195.8545295247
 30
0.0
 10
258.125442297
 20
195.8908868403
 30
0.0
 10
258.3632794101
 20
195.9306099785
 30
0.0
 10
258.6263665743
 20
195.9730151485
 30
0.0
 10
258.914560515
 20
196.0176094329
 30
0.0
 10
259.2258984603
 20
196.0635963952
 30
0.0
 10
259.5600850099
 20
196.1104192608
 30
0.0
 10
259.9147502072
 20
196.1572270915
 30
0.0
 10
260.2894447417
 20
196.203440064
 30
0.0
 10
260.681507695
 20
196.2482218593
 30
0.0
 10
261.090370994
 20
196.2910169386
 30
0.0
 10
261.5132407525
 20
196.331070648
 30
0.0
 10
261.9494709428
 20
196.3678937292
 30
0.0
 10
262.3963099931
 20
196.4008657094
 30
0.0
 10
262.8530417173
 20
196.4295922216
 30
0.0
 10
263.3171101
 20
196.4536168718
 30
0.0
 10
263.7876752369
 20
196.4726563106
 30
0.0
 10
264.2625342088
 20
196.4864269088
 30
0.0
 10
264.740619578
 20
196.494770086
 30
0.0
 10
265.0602891759
 20
196.4966215289
 30
0.0
 10
265.2200778643
 20
196.4966272811
 30
0.0
  0
SPLINE
  5
4F9
100
AcDbEntity
  8
0
100
AcDbSpline
 62
2
  6
CONTINUOUS
 70
0
 71
3
 72
33
 73
29
 74
0
 42
0.0000001
 43
0.0000001
 44
0.0000000001
 40
0.0
 40
0.0
 40
0.0
 40
0.0
 40
0.038461531
 40
0.0769230619
 40
0.1153845929
 40
0.1538461238
 40
0.1923076548
 40
0.2307691858
 40
0.2692307167
 40
0.3076922477
 40
0.3461537786
 40
0.3846153096
 40
0.4230768406
 40
0.4615383715
 40
0.4999999025
 40
0.5384614334
 40
0.5769229644
 40
0.6153844954
 40
0.6538460263
 40
0.6923075573
 40
0.7307690882
 40
0.7692306192
 40
0.8076921502
 40
0.8461536811
 40
0.8846152121
 40
0.923076743
 40
0.961538274
 40
1.0
 40
1.0
 40
1.0
 40
1.0
 10
265.2200778643
 20
196.4966272811
 30
0.0
 10
265.3798665268
 20
196.4966215252
 30
0.0
 10
265.699536025
 20
196.494770079
 30
0.0
 10
266.1776185882
 20
196.4864269785
 30
0.0
 10
266.6524797008
 20
196.4726563321
 30
0.0
 10
267.1230407675
 20
196.4536170962
 30
0.0
 10
267.5871126778
 20
196.4295922961
 30
0.0
 10
268.0438400027
 20
196.4008660997
 30
0.0
 10
268.4906828548
 20
196.3678938825
 30
0.0
 10
268.9269090777
 20
196.3310711739
 30
0.0
 10
269.3497822986
 20
196.2910171837
 30
0.0
 10
269.7586424975
 20
196.2482224626
 30
0.0
 10
270.1507081425
 20
196.2034404046
 30
0.0
 10
270.5254006686
 20
196.1572277086
 30
0.0
 10
270.8800675736
 20
196.1104196914
 30
0.0
 10
271.2142532862
 20
196.0635969664
 30
0.0
 10
271.5255918813
 20
196.017609939
 30
0.0
 10
271.8137861239
 20
195.973015626
 30
0.0
 10
272.0768729363
 20
195.930610535
 30
0.0
 10
272.3147113451
 20
195.8908871938
 30
0.0
 10
272.525800075
 20
195.8545300916
 30
0.0
 10
272.7101078883
 20
195.8219415794
 30
0.0
 10
272.866598307
 20
195.7936548168
 30
0.0
 10
272.9952798205
 20
195.7699716717
 30
0.0
 10
273.0955368098
 20
195.7512554263
 30
0.0
 10
273.1673638389
 20
195.737704554
 30
0.0
 10
273.2104817205
 20
195.7295129479
 30
0.0
 10
273.2200777792
 20
195.7276835534
 30
0.0
 10
273.2200778643
 20
195.7276835373
 30
0.0
  0
LINE
  5
4FA
100
AcDbEntity
  8
7_ALL_FEATURES
100
AcDbLine
 62
7
  6
CONTINUOUS
 10
282.0200778643
 20
237.8475801184
 11
281.7200778643
 21
238.0270434125
  0
LINE
  5
4FB
100
AcDbEntity
  8
7_ALL_FEATURES
100
AcDbLine
 62
7
  6
CONTINUOUS
 10
281.7200778643
 20
237.4283236621
 11
282.0200778643
 21
237.6077869561
  0
SPLINE
  5
4FC
100
AcDbEntity
  8
3_ALL_AXES
100
AcDbSpline
 62
7
  6
CONTINUOUS
 70
0
 71
3
 72
14
 73
10
 74
0
 42
0.0000001
 43
0.0000001
 44
0.0000000001
 40
0.0
 40
0.0
 40
0.0
 40
0.0
 40
0.0250589468
 40
0.0826559513
 40
0.1745548443
 40
0.2980070129
 40
0.4483865415
 40
0.6200279619
 40
1.0
 40
1.0
 40
1.0
 40
1.0
 10
45.0873668352
 20
85.9444521691
 30
0.0
 10
45.0867768394
 20
85.9444521691
 30
0.0
 10
45.0857205415
 20
85.9421541702
 30
0.0
 10
45.0852404952
 20
85.9384856856
 30
0.0
 10
45.0846860047
 20
85.9318617621
 30
0.0
 10
45.0845990726
 20
85.923336201
 30
0.0
 10
45.0847830588
 20
85.9128170222
 30
0.0
 10
45.0855347952
 20
85.8963178498
 30
0.0
 10
45.0865293211
 20
85.8833590627
 30
0.0
 10
45.0873668352
 20
85.8744521691
 30
0.0
  0
SPLINE
  5
4FD
100
AcDbEntity
  8
3_ALL_AXES
100
AcDbSpline
 62
7
  6
CONTINUOUS
 70
0
 71
3
 72
14
 73
10
 74
0
 42
0.0000001
 43
0.0000001
 44
0.0000000001
 40
0.0
 40
0.0
 40
0.0
 40
0.0
 40
0.3799786992
 40
0.5516243447
 40
0.7020031692
 40
0.8254525363
 40
0.9173468735
 40
0.9749416161
 40
1.0
 40
1.0
 40
1.0
 40
1.0
 10
45.0873668352
 20
86.7144521691
 30
0.0
 10
45.0865293063
 20
86.7055451182
 30
0.0
 10
45.0855347655
 20
86.6925860735
 30
0.0
 10
45.0847830356
 20
86.676086658
 30
0.0
 10
45.0845990727
 20
86.6655674625
 30
0.0
 10
45.0846860186
 20
86.6570420821
 30
0.0
 10
45.0852405352
 20
86.6504184107
 30
0.0
 10
45.0857205477
 20
86.6467500542
 30
0.0
 10
45.0867768525
 20
86.6444521691
 30
0.0
 10
45.0873668352
 20
86.6444521691
 30
0.0
  0
SPLINE
  5
4FE
100
AcDbEntity
  8
7_ALL_FEATURES
100
AcDbSpline
 62
7
  6
CONTINUOUS
 70
0
 71
3
 72
14
 73
10
 74
0
 42
0.0000001
 43
0.0000001
 44
0.0000000001
 40
0.0
 40
0.0
 40
0.0
 40
0.0
 40
0.3824561161
 40
0.5346891655
 40
0.6621903078
 40
0.7670345453
 40
0.8530801342
 40
0.9272666321
 40
1.0
 40
1.0
 40
1.0
 40
1.0
 10
126.0436463055
 20
144.2944521691
 30
0.0
 10
126.0743057143
 20
144.2944521691
 30
0.0
 10
126.117278707
 20
144.2931000543
 30
0.0
 10
126.1698607441
 20
144.285399085
 30
0.0
 10
126.1998195846
 20
144.2778011879
 30
0.0
 10
126.2234732435
 20
144.2678707556
 30
0.0
 10
126.24096438
 20
144.255322003
 30
0.0
 10
126.2518800845
 20
144.2395919283
 30
0.0
 10
126.2540322581
 20
144.2276222883
 30
0.0
 10
126.2540322581
 20
144.2217916532
 30
0.0
  0
SPLINE
  5
4FF
100
AcDbEntity
  8
7_ALL_FEATURES
100
AcDbSpline
 62
7
  6
CONTINUOUS
 70
0
 71
3
 72
14
 73
10
 74
0
 42
0.0000001
 43
0.0000001
 44
0.0000000001
 40
0.0
 40
0.0
 40
0.0
 40
0.0
 40
0.0727333678
 40
0.1469198656
 40
0.2329654546
 40
0.3378096922
 40
0.4653108344
 40
0.6175438834
 40
1.0
 40
1.0
 40
1.0
 40
1.0
 10
42.2540322581
 20
144.2217916532
 30
0.0
 10
42.2540322581
 20
144.2276222882
 30
0.0
 10
42.2561844316
 20
144.2395919283
 30
0.0
 10
42.2671001361
 20
144.255322003
 30
0.0
 10
42.2845912726
 20
144.2678707556
 30
0.0
 10
42.3082449315
 20
144.2778011879
 30
0.0
 10
42.338203772
 20
144.285399085
 30
0.0
 10
42.3907858091
 20
144.2931000543
 30
0.0
 10
42.4337588018
 20
144.2944521691
 30
0.0
 10
42.4644182106
 20
144.2944521691
 30
0.0
  0
LINE
  5
500
100
AcDbEntity
  8
7_ALL_FEATURES
100
AcDbLine
 62
7
  6
CONTINUOUS
 10
42.5044939671
 20
75.5442572695
 11
42.2550991327
 21
75.7944521691
  0
LINE
  5
501
100
AcDbEntity
  8
7_ALL_FEATURES
100
AcDbLine
 62
7
  6
CONTINUOUS
 10
125.9538598933
 20
75.4944521691
 11
126.2529653834
 21
75.7944521691
  0
SPLINE
  5
502
100
AcDbEntity
  8
7_ALL_FEATURES
100
AcDbSpline
 62
3
  6
CONTINUOUS
 70
0
 71
3
 72
11
 73
7
 74
0
 42
0.0000001
 43
0.0000001
 44
0.0000000001
 40
0.0
 40
0.0
 40
0.0
 40
0.0
 40
0.410370945
 40
0.5726135781
 40
0.7070012053
 40
1.0
 40
1.0
 40
1.0
 40
1.0
 10
124.2262305681
 20
113.2944521691
 30
0.0
 10
124.2302855698
 20
113.2944521691
 30
0.0
 10
124.2358998063
 20
113.2943391212
 30
0.0
 10
124.2429646595
 20
113.2935523394
 30
0.0
 10
124.248351781
 20
113.2926275505
 30
0.0
 10
124.2540322581
 20
113.2904150799
 30
0.0
 10
124.2540322581
 20
113.2875198685
 30
0.0
  0
SPLINE
  5
503
100
AcDbEntity
  8
7_ALL_FEATURES
100
AcDbSpline
 62
3
  6
CONTINUOUS
 70
0
 71
3
 72
11
 73
7
 74
0
 42
0.0000001
 43
0.0000001
 44
0.0000000001
 40
0.0
 40
0.0
 40
0.0
 40
0.0
 40
0.2929987955
 40
0.4273864222
 40
0.5896290551
 40
1.0
 40
1.0
 40
1.0
 40
1.0
 10
44.2540322581
 20
113.2875198685
 30
0.0
 10
44.2540322581
 20
113.2904150799
 30
0.0
 10
44.2597127351
 20
113.2926275505
 30
0.0
 10
44.2650998566
 20
113.2935523394
 30
0.0
 10
44.2721647099
 20
113.2943391212
 30
0.0
 10
44.2777789463
 20
113.2944521691
 30
0.0
 10
44.281833948
 20
113.2944521691
 30
0.0
  0
SPLINE
  5
504
100
AcDbEntity
  8
7_ALL_FEATURES
100
AcDbSpline
 62
3
  6
CONTINUOUS
 70
0
 71
3
 72
16
 73
12
 74
0
 42
0.0000001
 43
0.0000001
 44
0.0000000001
 40
0.0
 40
0.0
 40
0.0
 40
0.0
 40
0.2144307578
 40
0.4012987252
 40
0.5606200799
 40
0.6927821756
 40
0.7987735942
 40
0.8808560593
 40
0.9441733028
 40
0.9721531236
 40
1.0
 40
1.0
 40
1.0
 40
1.0
 10
44.5530899149
 20
144.2944521691
 30
0.0
 10
44.5298791691
 20
144.2944521691
 30
0.0
 10
44.4864363848
 20
144.2938887153
 30
0.0
 10
44.425810811
 20
144.2908540753
 30
0.0
 10
44.3742658406
 20
144.2856226095
 30
0.0
 10
44.3318379158
 20
144.2781815095
 30
0.0
 10
44.2984578406
 20
144.2684257551
 30
0.0
 10
44.2738666123
 20
144.2563696236
 30
0.0
 10
44.2599360844
 20
144.2428891889
 30
0.0
 10
44.2548019126
 20
144.2308854175
 30
0.0
 10
44.2540322581
 20
144.2248058978
 30
0.0
 10
44.2540322581
 20
144.2217916532
 30
0.0
  0
SPLINE
  5
505
100
AcDbEntity
  8
7_ALL_FEATURES
100
AcDbSpline
 62
3
  6
CONTINUOUS
 70
0
 71
3
 72
16
 73
12
 74
0
 42
0.0000001
 43
0.0000001
 44
0.0000000001
 40
0.0
 40
0.0
 40
0.0
 40
0.0
 40
0.0278468764
 40
0.0558266972
 40
0.1191439406
 40
0.2012264057
 40
0.3072178243
 40
0.4393799202
 40
0.5987012751
 40
0.7855692423
 40
1.0
 40
1.0
 40
1.0
 40
1.0
 10
124.2540322581
 20
144.2217916532
 30
0.0
 10
124.2540322581
 20
144.2248058978
 30
0.0
 10
124.2532626035
 20
144.2308854175
 30
0.0
 10
124.2481284317
 20
144.2428891889
 30
0.0
 10
124.2341979039
 20
144.2563696236
 30
0.0
 10
124.2096066755
 20
144.2684257551
 30
0.0
 10
124.1762266004
 20
144.2781815095
 30
0.0
 10
124.1337986755
 20
144.2856226095
 30
0.0
 10
124.082253705
 20
144.2908540753
 30
0.0
 10
124.0216281313
 20
144.2938887153
 30
0.0
 10
123.978185347
 20
144.2944521691
 30
0.0
 10
123.9549746012
 20
144.2944521691
 30
0.0
  0
ENDSEC
  0
SECTION
  2
OBJECTS
  0
DICTIONARY
  5
506
100
AcDbDictionary
  3
ACAD_GROUP
350
507
  3
ACAD_MLINESTYLE
350
508
  0
DICTIONARY
  5
507
102
{ACAD_REACTORS
330
506
102
}
100
AcDbDictionary
  0
DICTIONARY
  5
508
102
{ACAD_REACTORS
330
506
102
}
100
AcDbDictionary
  3
STANDARD
350
509
  0
MLINESTYLE
  5
509
102
{ACAD_REACTORS
330
508
102
}
100
AcDbMlineStyle
  2
STANDARD
 70
0
  3

 62
256
 51
90.0
 52
90.0
 71
2
 49
0.5
 62
256
  6
BYLAYER
 49
-0.5
 62
256
  6
BYLAYER
  0
ENDSEC
  0
EOF
