999
DXF file: 452_c_020.dxf
999
Pro/ENGINEER 2016360 by Parametric Technology Corporation
  0
SECTION
  2
HEADER
  9
$ACADVER
  1
AC1014
  9
$DWGCODEPAGE
  3
ANSI_1252
  9
$EXTMAX
 10
297.0
 20
420.0
 30
0.0
  9
$EXTMIN
 10
0.0
 20
0.0
 30
0.0
  9
$LIMMIN
 10
0.0
 20
0.0
  9
$LIMMAX
 10
297.0
 20
420.0
  9
$VIEWCTR
 10
148.5
 20
210.0
  9
$VIEWSIZE
 40
420.0
  9
$CLAYER
  8
0
  9
$LTSCALE
 40
27.3777777778
  9
$CELTYPE
  6
BYLAYER
  9
$DIMSCALE
 40
1.0
  9
$DIMASZ
 40
2.5
  9
$DIMEXO
 40
0.75
  9
$DIMDLI
 40
18.9155555556
  9
$DIMEXE
 40
0.75
  9
$DIMCEN
 40
4.48
  9
$DIMLFAC
 40
1.0
  9
$DIMBLK
  1
_CLOSED
  9
$DIMALT
 70
0
  9
$DIMALTF
 40
25.4
  9
$DIMTXT
 40
3.0
  9
$DIMTOL
 70
1
  9
$DIMLIM
 70
0
  9
$DIMTFAC
 40
1.0
  9
$DIMTP
 40
0.01
  9
$DIMTM
 40
0.01
  9
$DIMGAP
 40
0.625
  9
$AUNITS
 70
0
  9
$PDMODE
 70
3
  9
$PDSIZE
 40
0.3125
  9
$HANDSEED
  5
542
  9
$TILEMODE
 70
1
  9
$MEASUREMENT
 70
1
  0
ENDSEC
  0
SECTION
  2
CLASSES
  0
ENDSEC
  0
SECTION
  2
TABLES
  0
TABLE
  2
VPORT
  5
8
100
AcDbSymbolTable
 70
2
  0
VPORT
  5
1F4
100
AcDbSymbolTableRecord
100
AcDbViewportTableRecord
  2
*ACTIVE
 70
0
 10
0.0
 20
0.0
 11
1.0
 21
1.0
 12
148.5
 22
210.0
 13
0.0
 23
0.0
 14
1.0
 24
1.0
 15
0.0
 25
0.0
 16
0.0
 26
0.0
 36
1.0
 17
0.0
 27
0.0
 37
0.0
 40
420.0
 41
0.7071428571
 42
50.0
 43
0.0
 44
0.0
 50
0.0
 51
0.0
 71
0
 72
100
 73
1
 74
1
 75
0
 76
0
 77
0
 78
0
  0
ENDTAB
  0
TABLE
  2
LTYPE
  5
5
100
AcDbSymbolTable
 70
6
  0
LTYPE
  5
14
100
AcDbSymbolTableRecord
100
AcDbLinetypeTableRecord
  2
BYBLOCK
 70
0
  3

 72
65
 73
0
 40
0.0
  0
LTYPE
  5
15
100
AcDbSymbolTableRecord
100
AcDbLinetypeTableRecord
  2
BYLAYER
 70
0
  3

 72
65
 73
0
 40
0.0
  0
LTYPE
  5
16
100
AcDbSymbolTableRecord
100
AcDbLinetypeTableRecord
  2
CONTINUOUS
 70
64
  3
Solid line
 72
65
 73
0
 40
0.0
  0
LTYPE
  5
1F5
100
AcDbSymbolTableRecord
100
AcDbLinetypeTableRecord
  2
CENTER
 70
64
  3
____ _ ____ _ ____ _ ____ _ ____ _ ____ _ ____
 72
65
 73
4
 40
0.6
 49
0.375
 74
0
 49
-0.075
 74
0
 49
0.075
 74
0
 49
-0.075
 74
0
  0
LTYPE
  5
1F6
100
AcDbSymbolTableRecord
100
AcDbLinetypeTableRecord
  2
HIDDEN
 70
64
  3
- - - - - - - - - - - - - - - - - - - -
 72
65
 73
2
 40
0.2
 49
0.1
 74
0
 49
-0.1
 74
0
  0
LTYPE
  5
1F7
100
AcDbSymbolTableRecord
100
AcDbLinetypeTableRecord
  2
PHANTOM
 70
64
  3
_____ _ _ _____ _ _ _____ _ _ _____
 72
65
 73
6
 40
0.8
 49
0.45
 74
0
 49
-0.05
 74
0
 49
0.1
 74
0
 49
-0.05
 74
0
 49
0.1
 74
0
 49
-0.05
 74
0
  0
LTYPE
  5
1F8
100
AcDbSymbolTableRecord
100
AcDbLinetypeTableRecord
  2
DOT
 70
64
  3
. . . . . . . . . . . . . . . . . . . .
 72
65
 73
2
 40
0.2
 49
0.1
 74
0
 49
-0.1
 74
0
  0
LTYPE
  5
1F9
100
AcDbSymbolTableRecord
100
AcDbLinetypeTableRecord
  2
DASHED
 70
64
  3
- - - - - - - - - - - - - - - - - - - -
 72
65
 73
2
 40
0.2
 49
0.1
 74
0
 49
-0.1
 74
0
  0
ENDTAB
  0
TABLE
  2
LAYER
  5
2
100
AcDbSymbolTable
 70
36
  0
LAYER
  5
10
100
AcDbSymbolTableRecord
100
AcDbLayerTableRecord
  2
0
 70
0
 62
7
  6
CONTINUOUS
  0
LAYER
  5
1FA
100
AcDbSymbolTableRecord
100
AcDbLayerTableRecord
  2
DEFAULT_1
 70
0
 62
7
  6
CENTER
  0
LAYER
  5
1FB
100
AcDbSymbolTableRecord
100
AcDbLayerTableRecord
  2
DEFAULT_2
 70
0
 62
8
  6
HIDDEN
  0
LAYER
  5
1FC
100
AcDbSymbolTableRecord
100
AcDbLayerTableRecord
  2
DEFAULT_3
 70
0
 62
7
  6
PHANTOM
  0
LAYER
  5
1FD
100
AcDbSymbolTableRecord
100
AcDbLayerTableRecord
  2
01_ALL_DTM_PLN
 70
0
 62
7
  6
CONTINUOUS
  0
LAYER
  5
1FE
100
AcDbSymbolTableRecord
100
AcDbLayerTableRecord
  2
01__ASM_ALL_DTM_PLN
 70
0
 62
7
  6
CONTINUOUS
  0
LAYER
  5
1FF
100
AcDbSymbolTableRecord
100
AcDbLayerTableRecord
  2
01__ASM_DEF_DTM_PLN
 70
0
 62
7
  6
CONTINUOUS
  0
LAYER
  5
200
100
AcDbSymbolTableRecord
100
AcDbLayerTableRecord
  2
01___PRT_ALL_DTM_PLN
 70
0
 62
7
  6
CONTINUOUS
  0
LAYER
  5
201
100
AcDbSymbolTableRecord
100
AcDbLayerTableRecord
  2
01___PRT_DEF_DTM_PLN
 70
0
 62
7
  6
CONTINUOUS
  0
LAYER
  5
202
100
AcDbSymbolTableRecord
100
AcDbLayerTableRecord
  2
02_ALL_AXES
 70
0
 62
7
  6
CONTINUOUS
  0
LAYER
  5
203
100
AcDbSymbolTableRecord
100
AcDbLayerTableRecord
  2
02__ASM_ALL_AXES
 70
0
 62
7
  6
CONTINUOUS
  0
LAYER
  5
204
100
AcDbSymbolTableRecord
100
AcDbLayerTableRecord
  2
02___PRT_ALL_AXES
 70
0
 62
7
  6
CONTINUOUS
  0
LAYER
  5
205
100
AcDbSymbolTableRecord
100
AcDbLayerTableRecord
  2
03_ALL_CURVES
 70
0
 62
7
  6
CONTINUOUS
  0
LAYER
  5
206
100
AcDbSymbolTableRecord
100
AcDbLayerTableRecord
  2
03__ASM_ALL_CURVES
 70
0
 62
7
  6
CONTINUOUS
  0
LAYER
  5
207
100
AcDbSymbolTableRecord
100
AcDbLayerTableRecord
  2
03___PRT_ALL_CURVES
 70
0
 62
7
  6
CONTINUOUS
  0
LAYER
  5
208
100
AcDbSymbolTableRecord
100
AcDbLayerTableRecord
  2
04_ALL_DTM_PNT
 70
0
 62
7
  6
CONTINUOUS
  0
LAYER
  5
209
100
AcDbSymbolTableRecord
100
AcDbLayerTableRecord
  2
04__ASM_ALL_DTM_PNT
 70
0
 62
7
  6
CONTINUOUS
  0
LAYER
  5
20A
100
AcDbSymbolTableRecord
100
AcDbLayerTableRecord
  2
04___PRT_ALL_DTM_PNT
 70
0
 62
7
  6
CONTINUOUS
  0
LAYER
  5
20B
100
AcDbSymbolTableRecord
100
AcDbLayerTableRecord
  2
05_ALL_DTM_CSYS
 70
0
 62
7
  6
CONTINUOUS
  0
LAYER
  5
20C
100
AcDbSymbolTableRecord
100
AcDbLayerTableRecord
  2
05__ASM_ALL_DTM_CSYS
 70
0
 62
7
  6
CONTINUOUS
  0
LAYER
  5
20D
100
AcDbSymbolTableRecord
100
AcDbLayerTableRecord
  2
05__ASM_DEF_DTM_CSYS
 70
0
 62
7
  6
CONTINUOUS
  0
LAYER
  5
20E
100
AcDbSymbolTableRecord
100
AcDbLayerTableRecord
  2
05___PRT_ALL_DTM_CSYS
 70
0
 62
7
  6
CONTINUOUS
  0
LAYER
  5
20F
100
AcDbSymbolTableRecord
100
AcDbLayerTableRecord
  2
05___PRT_DEF_DTM_CSYS
 70
0
 62
7
  6
CONTINUOUS
  0
LAYER
  5
210
100
AcDbSymbolTableRecord
100
AcDbLayerTableRecord
  2
06_ALL_SURFS
 70
0
 62
7
  6
CONTINUOUS
  0
LAYER
  5
211
100
AcDbSymbolTableRecord
100
AcDbLayerTableRecord
  2
06__ASM_ALL_SURFS
 70
0
 62
7
  6
CONTINUOUS
  0
LAYER
  5
212
100
AcDbSymbolTableRecord
100
AcDbLayerTableRecord
  2
06___PRT_ALL_SURFS
 70
0
 62
7
  6
CONTINUOUS
  0
LAYER
  5
213
100
AcDbSymbolTableRecord
100
AcDbLayerTableRecord
  2
07__ASM_ALL_SKELETONS
 70
0
 62
7
  6
CONTINUOUS
  0
LAYER
  5
214
100
AcDbSymbolTableRecord
100
AcDbLayerTableRecord
  2
1_ALL_PLANES
 70
0
 62
7
  6
CONTINUOUS
  0
LAYER
  5
215
100
AcDbSymbolTableRecord
100
AcDbLayerTableRecord
  2
2_ALL_CSYS
 70
0
 62
7
  6
CONTINUOUS
  0
LAYER
  5
216
100
AcDbSymbolTableRecord
100
AcDbLayerTableRecord
  2
3_ALL_AXES
 70
0
 62
7
  6
CONTINUOUS
  0
LAYER
  5
217
100
AcDbSymbolTableRecord
100
AcDbLayerTableRecord
  2
4_ALL_POINTS
 70
0
 62
7
  6
CONTINUOUS
  0
LAYER
  5
218
100
AcDbSymbolTableRecord
100
AcDbLayerTableRecord
  2
5_ALL_CURVES
 70
0
 62
7
  6
CONTINUOUS
  0
LAYER
  5
219
100
AcDbSymbolTableRecord
100
AcDbLayerTableRecord
  2
5__COSTRUZIONE
 70
0
 62
7
  6
CONTINUOUS
  0
LAYER
  5
21A
100
AcDbSymbolTableRecord
100
AcDbLayerTableRecord
  2
6_ALL_SURFS
 70
0
 62
7
  6
CONTINUOUS
  0
LAYER
  5
21B
100
AcDbSymbolTableRecord
100
AcDbLayerTableRecord
  2
7_ALL_FEATURES
 70
0
 62
7
  6
CONTINUOUS
  0
LAYER
  5
21C
100
AcDbSymbolTableRecord
100
AcDbLayerTableRecord
  2
9_SOLID
 70
0
 62
7
  6
CONTINUOUS
  0
LAYER
  5
21D
100
AcDbSymbolTableRecord
100
AcDbLayerTableRecord
  2
CLOSED_SHELL
 70
0
 62
7
  6
CONTINUOUS
  0
LAYER
  5
21E
100
AcDbSymbolTableRecord
100
AcDbLayerTableRecord
  2
INTFCLR_2
 70
0
 62
7
  6
CONTINUOUS
  0
LAYER
  5
21F
100
AcDbSymbolTableRecord
100
AcDbLayerTableRecord
  2
XSEC_DATUMS
 70
0
 62
7
  6
CONTINUOUS
  0
LAYER
  5
220
100
AcDbSymbolTableRecord
100
AcDbLayerTableRecord
  2
XXX_SOLIDO
 70
0
 62
7
  6
CONTINUOUS
  0
ENDTAB
  0
TABLE
  2
STYLE
  5
3
100
AcDbSymbolTable
 70
1
  0
STYLE
  5
11
100
AcDbSymbolTableRecord
100
AcDbTextStyleTableRecord
  2
STANDARD
 70
0
 40
0.0
 41
1.0
 50
0.0
 71
0
 42
0.2
  3
arial.ttf
  4

  0
STYLE
  5
221
100
AcDbSymbolTableRecord
100
AcDbTextStyleTableRecord
  2
TEXTSTYLE_1
 70
0
 40
0.0
 41
0.8
 50
0.0
 71
0
 42
0.2
  3
gdt
  4

  0
STYLE
  5
222
100
AcDbSymbolTableRecord
100
AcDbTextStyleTableRecord
  2
TEXTSTYLE_2
 70
0
 40
0.0
 41
0.85
 50
0.0
 71
0
 42
0.2
  3
txt
  4

  0
ENDTAB
  0
TABLE
  2
VIEW
  5
6
100
AcDbSymbolTable
 70
0
  0
ENDTAB
  0
TABLE
  2
UCS
  5
7
100
AcDbSymbolTable
 70
0
  0
ENDTAB
  0
TABLE
  2
APPID
  5
9
100
AcDbSymbolTable
 70
1
  0
APPID
  5
223
100
AcDbSymbolTableRecord
100
AcDbRegAppTableRecord
  2
ACAD
 70
0
  0
ENDTAB
  0
TABLE
  2
BLOCK_RECORD
  5
1
100
AcDbSymbolTable
 70
0
  0
BLOCK_RECORD
  5
1F
100
AcDbSymbolTableRecord
100
AcDbBlockTableRecord
  2
*MODEL_SPACE
  0
BLOCK_RECORD
  5
1B
100
AcDbSymbolTableRecord
100
AcDbBlockTableRecord
  2
*PAPER_SPACE
  0
BLOCK_RECORD
  5
224
100
AcDbSymbolTableRecord
100
AcDbBlockTableRecord
  2
_CLOSED
  0
BLOCK_RECORD
  5
225
100
AcDbSymbolTableRecord
100
AcDbBlockTableRecord
  2
*D0
  0
BLOCK_RECORD
  5
226
100
AcDbSymbolTableRecord
100
AcDbBlockTableRecord
  2
*D1
  0
BLOCK_RECORD
  5
227
100
AcDbSymbolTableRecord
100
AcDbBlockTableRecord
  2
*D2
  0
BLOCK_RECORD
  5
228
100
AcDbSymbolTableRecord
100
AcDbBlockTableRecord
  2
*D3
  0
BLOCK_RECORD
  5
229
100
AcDbSymbolTableRecord
100
AcDbBlockTableRecord
  2
LOGO2_BL0
  0
ENDTAB
  0
TABLE
  2
DIMSTYLE
  5
A
100
AcDbSymbolTable
 70
1
  0
DIMSTYLE
105
22A
100
AcDbSymbolTableRecord
100
AcDbDimStyleTableRecord
  2
STANDARD
 70
0
  3

  4

  5
_CLOSED
  6
_CLOSED
  7
_CLOSED
 40
1.0
 41
2.5
 42
0.75
 43
0.38
 44
0.75
 45
0.0
 46
0.0
 47
0.01
 48
0.01
140
3.0
141
0.09
142
0.0
143
25.4
144
1.0
145
0.0
146
1.0
147
0.625
 71
1.0
 72
0.0
 73
0
 74
0
 75
0
 76
0
 77
1
 78
8
 79
2
170
0
171
1
172
0
173
0
174
0
175
0
176
0
177
0
178
0
270
2
179
2
271
2
272
2
273
2
274
2
275
0
280
0
281
0
282
0
283
1
284
8
285
0
286
0
287
3
288
0
340
11
  0
DIMSTYLE
105
22B
100
AcDbSymbolTableRecord
100
AcDbDimStyleTableRecord
  2
DIMSTYLE_1
 70
0
  3

  4

  5
_CLOSED
  6
_CLOSED
  7
_CLOSED
 40
1.0
 41
2.5
 42
0.75
 43
0.38
 44
0.75
 45
0.0
 46
0.0
 47
0.3
 48
0.3
140
3.0
141
0.09
142
0.0
143
25.4
144
1.0
145
0.0
146
1.0
147
0.75
 71
0.0
 72
0.0
 73
0
 74
0
 75
0
 76
0
 77
1
 78
8
 79
2
170
0
171
1
172
0
173
0
174
0
175
0
176
0
177
0
178
0
270
2
179
2
271
2
272
2
273
2
274
2
275
0
280
0
281
0
282
0
283
1
284
8
285
0
286
0
287
3
288
0
340
11
  0
DIMSTYLE
105
22C
100
AcDbSymbolTableRecord
100
AcDbDimStyleTableRecord
  2
DIMSTYLE_2
 70
0
  3

  4

  5
_CLOSED
  6
_CLOSED
  7
_CLOSED
 40
1.0
 41
2.5
 42
0.75
 43
0.38
 44
0.75
 45
0.0
 46
0.0
 47
0.2
 48
0.2
140
3.0
141
0.09
142
0.0
143
25.4
144
1.0
145
0.0
146
1.0
147
0.75
 71
0.0
 72
0.0
 73
0
 74
0
 75
0
 76
0
 77
1
 78
8
 79
2
170
0
171
1
172
0
173
0
174
0
175
0
176
0
177
0
178
0
270
2
179
2
271
2
272
2
273
2
274
2
275
0
280
0
281
0
282
0
283
1
284
8
285
0
286
0
287
3
288
0
340
11
  0
ENDTAB
  0
ENDSEC
  0
SECTION
  2
BLOCKS
  0
BLOCK
  5
20
100
AcDbEntity
  8
0
100
AcDbBlockBegin
  2
*MODEL_SPACE
 70
0
 10
0.0
 20
0.0
 30
0.0
  3
*MODEL_SPACE
  1

  0
ENDBLK
  5
21
100
AcDbEntity
  8
0
100
AcDbBlockEnd
  0
BLOCK
  5
1C
100
AcDbEntity
  8
0
100
AcDbBlockBegin
  2
*PAPER_SPACE
 70
0
 10
0.0
 20
0.0
 30
0.0
  3
*PAPER_SPACE
  1

  0
ENDBLK
  5
1D
100
AcDbEntity
  8
0
100
AcDbBlockEnd
  0
BLOCK
  5
22D
100
AcDbEntity
  8
0
100
AcDbBlockBegin
 62
2
  6
CONTINUOUS
  2
LOGO2_BL0
 70
64
 10
213.2815478115
 20
34.1842243154
  3
LOGO2_BL0
  1

  0
LINE
  5
22E
100
AcDbEntity
  8
0
100
AcDbLine
 62
7
  6
CONTINUOUS
 10
205.0244730397
 20
37.3797156543
 11
203.7201321103
 21
37.3797156543
  0
LINE
  5
22F
100
AcDbEntity
  8
0
100
AcDbLine
 62
7
  6
CONTINUOUS
 10
203.7201321103
 20
37.3797156543
 11
203.7201321103
 21
26.9206495944
  0
LINE
  5
230
100
AcDbEntity
  8
0
100
AcDbLine
 62
7
  6
CONTINUOUS
 10
203.7201321103
 20
26.9206495944
 11
208.2011869986
 21
26.9206495944
  0
LINE
  5
231
100
AcDbEntity
  8
0
100
AcDbLine
 62
7
  6
CONTINUOUS
 10
208.2011869986
 20
26.9206495944
 11
208.2011869986
 21
28.1135039195
  0
LINE
  5
232
100
AcDbEntity
  8
0
100
AcDbLine
 62
7
  6
CONTINUOUS
 10
208.2011869986
 20
28.1135039195
 11
205.0244730397
 21
28.1135039195
  0
LINE
  5
233
100
AcDbEntity
  8
0
100
AcDbLine
 62
7
  6
CONTINUOUS
 10
205.0244730397
 20
28.1135039195
 11
205.0244730397
 21
37.3797156543
  0
LINE
  5
234
100
AcDbEntity
  8
0
100
AcDbLine
 62
7
  6
CONTINUOUS
 10
219.960799256
 20
37.3797156543
 11
218.6569817379
 21
37.3797156543
  0
LINE
  5
235
100
AcDbEntity
  8
0
100
AcDbLine
 62
7
  6
CONTINUOUS
 10
218.6569817379
 20
37.3797156543
 11
218.6569817379
 21
26.9206495944
  0
LINE
  5
236
100
AcDbEntity
  8
0
100
AcDbLine
 62
7
  6
CONTINUOUS
 10
218.6569817379
 20
26.9206495944
 11
223.138167479
 21
26.9206495944
  0
LINE
  5
237
100
AcDbEntity
  8
0
100
AcDbLine
 62
7
  6
CONTINUOUS
 10
223.138167479
 20
26.9206495944
 11
223.138167479
 21
28.1135039195
  0
LINE
  5
238
100
AcDbEntity
  8
0
100
AcDbLine
 62
7
  6
CONTINUOUS
 10
223.138167479
 20
28.1135039195
 11
219.960799256
 21
28.1135039195
  0
LINE
  5
239
100
AcDbEntity
  8
0
100
AcDbLine
 62
7
  6
CONTINUOUS
 10
219.960799256
 20
28.1135039195
 11
219.960799256
 21
37.3797156543
  0
LWPOLYLINE
  5
23A
100
AcDbEntity
  8
0
100
AcDbPolyline
 62
7
  6
CONTINUOUS
 90
2
 70
0
 43
0.2
 10
202.0745270212
 20
23.5770982875
 10
202.0745270212
 20
21.7200350382
  0
LWPOLYLINE
  5
23B
100
AcDbEntity
  8
0
100
AcDbPolyline
 62
7
  6
CONTINUOUS
 90
2
 70
0
 43
0.2
 10
202.0745270212
 20
21.7200350382
 10
202.8702430316
 20
21.7200350382
  0
LWPOLYLINE
  5
23C
100
AcDbEntity
  8
0
100
AcDbPolyline
 62
7
  6
CONTINUOUS
 90
2
 70
0
 43
0.2
 10
202.8702430316
 20
21.7200350382
 10
202.8702430316
 20
21.9320166097
  0
LWPOLYLINE
  5
23D
100
AcDbEntity
  8
0
100
AcDbPolyline
 62
7
  6
CONTINUOUS
 90
2
 70
0
 43
0.2
 10
202.8702430316
 20
21.9320166097
 10
202.3061365161
 20
21.9320166097
  0
LWPOLYLINE
  5
23E
100
AcDbEntity
  8
0
100
AcDbPolyline
 62
7
  6
CONTINUOUS
 90
2
 70
0
 43
0.2
 10
202.3061365161
 20
21.9320166097
 10
202.3061365161
 20
23.5770982875
  0
LWPOLYLINE
  5
23F
100
AcDbEntity
  8
0
100
AcDbPolyline
 62
7
  6
CONTINUOUS
 90
2
 70
0
 43
0.2
 10
202.3061365161
 20
23.5770982875
 10
202.0745270212
 20
23.5770982875
  0
SPLINE
  5
240
100
AcDbEntity
  8
0
100
AcDbSpline
 62
7
  6
CONTINUOUS
 70
2
 71
3
 72
35
 73
31
 74
0
 42
0.0000001
 43
0.0000001
 44
0.0000000001
 40
0.0
 40
0.0
 40
0.0
 40
0.0
 40
1.0
 40
1.0
 40
1.0
 40
2.0
 40
2.0
 40
2.0
 40
3.0
 40
3.0
 40
3.0
 40
4.0
 40
4.0
 40
4.0
 40
5.0
 40
5.0
 40
5.0
 40
6.0
 40
6.0
 40
6.0
 40
7.0
 40
7.0
 40
7.0
 40
8.0
 40
8.0
 40
8.0
 40
9.0
 40
9.0
 40
9.0
 40
10.0
 40
10.0
 40
10.0
 40
10.0
 10
204.2685362872
 20
22.8725866941
 30
0.0
 10
204.2685362872
 20
22.8725866941
 30
0.0
 10
204.2685362872
 20
22.2104714149
 30
0.0
 10
204.2685362872
 20
22.2104714149
 30
0.0
 10
204.2685362872
 20
21.8953778196
 30
0.0
 10
204.416399976
 20
21.6807791916
 30
0.0
 10
204.7564864603
 20
21.6807791916
 30
0.0
 10
205.0960495333
 20
21.6807791916
 30
0.0
 10
205.2441749278
 20
21.8953778196
 30
0.0
 10
205.2441749278
 20
22.2104714149
 30
0.0
 10
205.2441749278
 20
22.2104714149
 30
0.0
 10
205.2441749278
 20
22.8725866941
 30
0.0
 10
205.2441749278
 20
22.8725866941
 30
0.0
 10
205.2441749278
 20
22.8725866941
 30
0.0
 10
205.0221176889
 20
22.8725866941
 30
0.0
 10
205.0221176889
 20
22.8725866941
 30
0.0
 10
205.0221176889
 20
22.8725866941
 30
0.0
 10
205.0221176889
 20
22.2355951567
 30
0.0
 10
205.0221176889
 20
22.2355951567
 30
0.0
 10
205.0221176889
 20
22.0497841495
 30
0.0
 10
204.9754032314
 20
21.887003239
 30
0.0
 10
204.7564864603
 20
21.887003239
 30
0.0
 10
204.5370462779
 20
21.887003239
 30
0.0
 10
204.4903318204
 20
22.0497841495
 30
0.0
 10
204.4903318204
 20
22.2355951567
 30
0.0
 10
204.4903318204
 20
22.2355951567
 30
0.0
 10
204.4903318204
 20
22.8725866941
 30
0.0
 10
204.4903318204
 20
22.8725866941
 30
0.0
 10
204.4903318204
 20
22.8725866941
 30
0.0
 10
204.2685362872
 20
22.8725866941
 30
0.0
 10
204.2685362872
 20
22.8725866941
 30
0.0
  0
SPLINE
  5
241
100
AcDbEntity
  8
0
100
AcDbSpline
 62
7
  6
CONTINUOUS
 70
2
 71
3
 72
35
 73
31
 74
0
 42
0.0000001
 43
0.0000001
 44
0.0000000001
 40
0.0
 40
0.0
 40
0.0
 40
0.0
 40
1.0
 40
1.0
 40
1.0
 40
2.0
 40
2.0
 40
2.0
 40
3.0
 40
3.0
 40
3.0
 40
4.0
 40
4.0
 40
4.0
 40
5.0
 40
5.0
 40
5.0
 40
6.0
 40
6.0
 40
6.0
 40
7.0
 40
7.0
 40
7.0
 40
8.0
 40
8.0
 40
8.0
 40
9.0
 40
9.0
 40
9.0
 40
10.0
 40
10.0
 40
10.0
 40
10.0
 10
207.667307485
 20
22.8312372023
 30
0.0
 10
207.5788509773
 20
22.8825315085
 30
0.0
 10
207.4654015807
 20
22.9076552503
 30
0.0
 10
207.3617661457
 20
22.9076552503
 30
0.0
 10
207.0068932925
 20
22.9076552503
 30
0.0
 10
206.7314481023
 20
22.6438559613
 30
0.0
 10
206.7314481023
 20
22.2863660516
 30
0.0
 10
206.7314481023
 20
21.9414380129
 30
0.0
 10
207.0099029074
 20
21.6813026029
 30
0.0
 10
207.3494659804
 20
21.6813026029
 30
0.0
 10
207.4654015807
 20
21.6813026029
 30
0.0
 10
207.5661582536
 20
21.7032858769
 30
0.0
 10
207.667307485
 20
21.7571972396
 30
0.0
 10
207.667307485
 20
21.7571972396
 30
0.0
 10
207.667307485
 20
22.039839335
 30
0.0
 10
207.667307485
 20
22.039839335
 30
0.0
 10
207.5834308261
 20
21.9466721258
 30
0.0
 10
207.4799262439
 20
21.8875266503
 30
0.0
 10
207.3518213312
 20
21.8875266503
 30
0.0
 10
207.1181181912
 20
21.8875266503
 30
0.0
 10
206.952851077
 20
22.059728964
 30
0.0
 10
206.952851077
 20
22.2963108661
 30
0.0
 10
206.952851077
 20
22.5082924377
 30
0.0
 10
207.1206043948
 20
22.7003843803
 30
0.0
 10
207.3374275208
 20
22.7003843803
 30
0.0
 10
207.4702431351
 20
22.7003843803
 30
0.0
 10
207.5788509773
 20
22.6464730177
 30
0.0
 10
207.667307485
 20
22.5454546391
 30
0.0
 10
207.667307485
 20
22.5454546391
 30
0.0
 10
207.667307485
 20
22.8312372023
 30
0.0
 10
207.667307485
 20
22.8312372023
 30
0.0
  0
SPLINE
  5
242
100
AcDbEntity
  8
0
100
AcDbSpline
 62
7
  6
CONTINUOUS
 70
2
 71
3
 72
32
 73
28
 74
0
 42
0.0000001
 43
0.0000001
 44
0.0000000001
 40
0.0
 40
0.0
 40
0.0
 40
0.0
 40
1.0
 40
1.0
 40
1.0
 40
2.0
 40
2.0
 40
2.0
 40
3.0
 40
3.0
 40
3.0
 40
4.0
 40
4.0
 40
4.0
 40
5.0
 40
5.0
 40
5.0
 40
6.0
 40
6.0
 40
6.0
 40
7.0
 40
7.0
 40
7.0
 40
8.0
 40
8.0
 40
8.0
 40
9.0
 40
9.0
 40
9.0
 40
9.0
 10
210.1991787372
 20
22.259672076
 30
0.0
 10
210.1991787372
 20
22.259672076
 30
0.0
 10
210.1991787372
 20
22.2936938097
 30
0.0
 10
210.1991787372
 20
22.2936938097
 30
0.0
 10
210.1991787372
 20
22.6360047919
 30
0.0
 10
210.0263221594
 20
22.9076552503
 30
0.0
 10
209.6596725522
 20
22.9076552503
 30
0.0
 10
209.2880505379
 20
22.9076552503
 30
0.0
 10
209.098313946
 20
22.6412389048
 30
0.0
 10
209.098313946
 20
22.2863660516
 30
0.0
 10
209.098313946
 20
21.9466721258
 30
0.0
 10
209.3123891627
 20
21.6807791916
 30
0.0
 10
209.6645141067
 20
21.6807791916
 30
0.0
 10
209.8885341379
 20
21.6807791916
 30
0.0
 10
210.0907017478
 20
21.7964530862
 30
0.0
 10
210.1991787372
 20
21.9958727869
 30
0.0
 10
210.1991787372
 20
21.9958727869
 30
0.0
 10
210.0115357905
 20
22.1026486896
 30
0.0
 10
210.0115357905
 20
22.1026486896
 30
0.0
 10
209.9280516901
 20
21.9639446983
 30
0.0
 10
209.8368472732
 20
21.8781052471
 30
0.0
 10
209.6672620159
 20
21.8781052471
 30
0.0
 10
209.4552804443
 20
21.8781052471
 30
0.0
 10
209.3223339772
 20
22.0628694317
 30
0.0
 10
209.3199786264
 20
22.259672076
 30
0.0
 10
209.3199786264
 20
22.259672076
 30
0.0
 10
210.1991787372
 20
22.259672076
 30
0.0
 10
210.1991787372
 20
22.259672076
 30
0.0
  0
SPLINE
  5
243
100
AcDbEntity
  8
0
100
AcDbSpline
 62
7
  6
CONTINUOUS
 70
2
 71
3
 72
14
 73
10
 74
0
 42
0.0000001
 43
0.0000001
 44
0.0000000001
 40
0.0
 40
0.0
 40
0.0
 40
0.0
 40
1.0
 40
1.0
 40
1.0
 40
2.0
 40
2.0
 40
2.0
 40
3.0
 40
3.0
 40
3.0
 40
3.0
 10
209.332017086
 20
22.4271636881
 30
0.0
 10
209.3596270315
 20
22.5920382438
 30
0.0
 10
209.4874702385
 20
22.7150398964
 30
0.0
 10
209.6596725522
 20
22.7150398964
 30
0.0
 10
209.8368472732
 20
22.7150398964
 30
0.0
 10
209.9502966698
 20
22.5993660018
 30
0.0
 10
209.9775140568
 20
22.4271636881
 30
0.0
 10
209.9775140568
 20
22.4271636881
 30
0.0
 10
209.332017086
 20
22.4271636881
 30
0.0
 10
209.332017086
 20
22.4271636881
 30
0.0
  0
SPLINE
  5
244
100
AcDbEntity
  8
0
100
AcDbSpline
 62
7
  6
CONTINUOUS
 70
2
 71
3
 72
20
 73
16
 74
0
 42
0.0000001
 43
0.0000001
 44
0.0000000001
 40
0.0
 40
0.0
 40
0.0
 40
0.0
 40
1.0
 40
1.0
 40
1.0
 40
2.0
 40
2.0
 40
2.0
 40
3.0
 40
3.0
 40
3.0
 40
4.0
 40
4.0
 40
4.0
 40
5.0
 40
5.0
 40
5.0
 40
5.0
 10
212.2232101874
 20
22.6365282032
 30
0.0
 10
212.2232101874
 20
22.6365282032
 30
0.0
 10
212.634349754
 20
22.1340533669
 30
0.0
 10
212.634349754
 20
22.1340533669
 30
0.0
 10
212.5182833009
 20
22.0183794722
 30
0.0
 10
212.3804952794
 20
21.8880500616
 30
0.0
 10
212.2085546713
 20
21.8880500616
 30
0.0
 10
212.0311182448
 20
21.8880500616
 30
0.0
 10
211.8636266326
 20
22.052401206
 30
0.0
 10
211.8636266326
 20
22.2293142213
 30
0.0
 10
211.8636266326
 20
22.4072740591
 30
0.0
 10
212.0733837063
 20
22.5334161795
 30
0.0
 10
212.2009652077
 20
22.6213492759
 30
0.0
 10
212.2009652077
 20
22.6213492759
 30
0.0
 10
212.2232101874
 20
22.6365282032
 30
0.0
 10
212.2232101874
 20
22.6365282032
 30
0.0
  0
SPLINE
  5
245
100
AcDbEntity
  8
0
100
AcDbSpline
 62
7
  6
CONTINUOUS
 70
2
 71
3
 72
23
 73
19
 74
0
 42
0.0000001
 43
0.0000001
 44
0.0000000001
 40
0.0
 40
0.0
 40
0.0
 40
0.0
 40
1.0
 40
1.0
 40
1.0
 40
2.0
 40
2.0
 40
2.0
 40
3.0
 40
3.0
 40
3.0
 40
4.0
 40
4.0
 40
4.0
 40
5.0
 40
5.0
 40
5.0
 40
6.0
 40
6.0
 40
6.0
 40
6.0
 10
212.2725417013
 20
22.9275448793
 30
0.0
 10
212.2725417013
 20
22.9275448793
 30
0.0
 10
212.2109100221
 20
23.0060565725
 30
0.0
 10
212.2109100221
 20
23.0060565725
 30
0.0
 10
212.1569986595
 20
23.0746234512
 30
0.0
 10
212.1002085348
 20
23.1437137412
 30
0.0
 10
212.1002085348
 20
23.2374043617
 30
0.0
 10
212.1002085348
 20
23.356218724
 30
0.0
 10
212.1961236533
 20
23.4336835946
 30
0.0
 10
212.3070868463
 20
23.4336835946
 30
0.0
 10
212.4303502046
 20
23.4336835946
 30
0.0
 10
212.5236482666
 20
23.3624996595
 30
0.0
 10
212.5236482666
 20
23.2321702488
 30
0.0
 10
212.5236482666
 20
23.0971301365
 30
0.0
 10
212.3955433539
 20
23.0207120885
 30
0.0
 10
212.3019835862
 20
22.9469110969
 30
0.0
 10
212.3019835862
 20
22.9469110969
 30
0.0
 10
212.2725417013
 20
22.9275448793
 30
0.0
 10
212.2725417013
 20
22.9275448793
 30
0.0
  0
SPLINE
  5
246
100
AcDbEntity
  8
0
100
AcDbSpline
 62
7
  6
CONTINUOUS
 70
2
 71
3
 72
50
 73
46
 74
0
 42
0.0000001
 43
0.0000001
 44
0.0000000001
 40
0.0
 40
0.0
 40
0.0
 40
0.0
 40
1.0
 40
1.0
 40
1.0
 40
2.0
 40
2.0
 40
2.0
 40
3.0
 40
3.0
 40
3.0
 40
4.0
 40
4.0
 40
4.0
 40
5.0
 40
5.0
 40
5.0
 40
6.0
 40
6.0
 40
6.0
 40
7.0
 40
7.0
 40
7.0
 40
8.0
 40
8.0
 40
8.0
 40
9.0
 40
9.0
 40
9.0
 40
10.0
 40
10.0
 40
10.0
 40
11.0
 40
11.0
 40
11.0
 40
12.0
 40
12.0
 40
12.0
 40
13.0
 40
13.0
 40
13.0
 40
14.0
 40
14.0
 40
14.0
 40
15.0
 40
15.0
 40
15.0
 40
15.0
 10
212.974697944
 20
21.7205584494
 30
0.0
 10
212.974697944
 20
21.7205584494
 30
0.0
 10
213.2600879487
 20
21.7205584494
 30
0.0
 10
213.2600879487
 20
21.7205584494
 30
0.0
 10
213.2600879487
 20
21.7205584494
 30
0.0
 10
212.9277217809
 20
22.1314363104
 30
0.0
 10
212.9277217809
 20
22.1314363104
 30
0.0
 10
212.9277217809
 20
22.1314363104
 30
0.0
 10
213.1542280157
 20
22.3973292447
 30
0.0
 10
213.1542280157
 20
22.3973292447
 30
0.0
 10
213.1542280157
 20
22.3973292447
 30
0.0
 10
213.0059717684
 20
22.5501653407
 30
0.0
 10
213.0059717684
 20
22.5501653407
 30
0.0
 10
213.0059717684
 20
22.5501653407
 30
0.0
 10
212.7900646122
 20
22.2989279225
 30
0.0
 10
212.7900646122
 20
22.2989279225
 30
0.0
 10
212.7900646122
 20
22.2989279225
 30
0.0
 10
212.4030019648
 20
22.7668576139
 30
0.0
 10
212.4030019648
 20
22.7668576139
 30
0.0
 10
212.5584551173
 20
22.8809612747
 30
0.0
 10
212.7407330983
 20
23.0207120885
 30
0.0
 10
212.7407330983
 20
23.2300766037
 30
0.0
 10
212.7407330983
 20
23.4739862638
 30
0.0
 10
212.5386963412
 20
23.6174009567
 30
0.0
 10
212.3121901063
 20
23.6174009567
 30
0.0
 10
212.0680187406
 20
23.6174009567
 30
0.0
 10
211.8836471144
 20
23.4666585058
 30
0.0
 10
211.8836471144
 20
23.2101869747
 30
0.0
 10
211.8836471144
 20
23.0526401771
 30
0.0
 10
211.9823101422
 20
22.9149830084
 30
0.0
 10
212.0876466638
 20
22.8040198153
 30
0.0
 10
212.0876466638
 20
22.8040198153
 30
0.0
 10
211.9721036221
 20
22.7202740093
 30
0.0
 10
211.9721036221
 20
22.7202740093
 30
0.0
 10
211.7944054898
 20
22.5920382438
 30
0.0
 10
211.6470652123
 20
22.4643258895
 30
0.0
 10
211.6470652123
 20
22.2272205761
 30
0.0
 10
211.6470652123
 20
21.9068928679
 30
0.0
 10
211.9056303885
 20
21.6807791916
 30
0.0
 10
212.2160132822
 20
21.6807791916
 30
0.0
 10
212.4349300534
 20
21.6807791916
 30
0.0
 10
212.6321252561
 20
21.8058744894
 30
0.0
 10
212.7723994812
 20
21.9717958676
 30
0.0
 10
212.7723994812
 20
21.9717958676
 30
0.0
 10
212.974697944
 20
21.7205584494
 30
0.0
 10
212.974697944
 20
21.7205584494
 30
0.0
  0
LWPOLYLINE
  5
247
100
AcDbEntity
  8
0
100
AcDbPolyline
 62
7
  6
CONTINUOUS
 90
2
 70
0
 43
0.2
 10
214.9101420337
 20
23.5770982875
 10
214.6787942444
 20
23.5770982875
  0
LWPOLYLINE
  5
248
100
AcDbEntity
  8
0
100
AcDbPolyline
 62
7
  6
CONTINUOUS
 90
2
 70
0
 43
0.2
 10
214.6787942444
 20
23.5770982875
 10
214.6787942444
 20
21.7200350382
  0
LWPOLYLINE
  5
249
100
AcDbEntity
  8
0
100
AcDbPolyline
 62
7
  6
CONTINUOUS
 90
2
 70
0
 43
0.2
 10
214.6787942444
 20
21.7200350382
 10
215.4741176964
 20
21.7200350382
  0
LWPOLYLINE
  5
24A
100
AcDbEntity
  8
0
100
AcDbPolyline
 62
7
  6
CONTINUOUS
 90
2
 70
0
 43
0.2
 10
215.4741176964
 20
21.7200350382
 10
215.4741176964
 20
21.9320166097
  0
LWPOLYLINE
  5
24B
100
AcDbEntity
  8
0
100
AcDbPolyline
 62
7
  6
CONTINUOUS
 90
2
 70
0
 43
0.2
 10
215.4741176964
 20
21.9320166097
 10
214.9101420337
 20
21.9320166097
  0
LWPOLYLINE
  5
24C
100
AcDbEntity
  8
0
100
AcDbPolyline
 62
7
  6
CONTINUOUS
 90
2
 70
0
 43
0.2
 10
214.9101420337
 20
21.9320166097
 10
214.9101420337
 20
23.5770982875
  0
LWPOLYLINE
  5
24D
100
AcDbEntity
  8
0
100
AcDbPolyline
 62
7
  6
CONTINUOUS
 90
2
 70
0
 43
0.2
 10
217.1532211079
 20
22.8725866941
 10
216.9320798387
 20
22.8725866941
  0
LWPOLYLINE
  5
24E
100
AcDbEntity
  8
0
100
AcDbPolyline
 62
7
  6
CONTINUOUS
 90
2
 70
0
 43
0.2
 10
216.9320798387
 20
22.8725866941
 10
216.9320798387
 20
21.7205584494
  0
LWPOLYLINE
  5
24F
100
AcDbEntity
  8
0
100
AcDbPolyline
 62
7
  6
CONTINUOUS
 90
2
 70
0
 43
0.2
 10
216.9320798387
 20
21.7205584494
 10
217.1532211079
 20
21.7205584494
  0
LWPOLYLINE
  5
250
100
AcDbEntity
  8
0
100
AcDbPolyline
 62
7
  6
CONTINUOUS
 90
2
 70
0
 43
0.2
 10
217.1532211079
 20
21.7205584494
 10
217.1532211079
 20
22.8725866941
  0
LWPOLYLINE
  5
251
100
AcDbEntity
  8
0
100
AcDbPolyline
 62
7
  6
CONTINUOUS
 90
2
 70
1
 43
0.2
 10
216.8901978307
 20
23.402540623
 42
1.0
 10
217.1953648216
 20
23.402540623
 42
1.0
  0
SPLINE
  5
252
100
AcDbEntity
  8
0
100
AcDbSpline
 62
7
  6
CONTINUOUS
 70
2
 71
3
 72
17
 73
13
 74
0
 42
0.0000001
 43
0.0000001
 44
0.0000000001
 40
0.0
 40
0.0
 40
0.0
 40
0.0
 40
1.0
 40
1.0
 40
1.0
 40
2.0
 40
2.0
 40
2.0
 40
3.0
 40
3.0
 40
3.0
 40
4.0
 40
4.0
 40
4.0
 40
4.0
 10
219.2835050495
 20
21.8781052471
 30
0.0
 10
219.0495402038
 20
21.8781052471
 30
0.0
 10
218.9192107931
 20
22.0801420042
 30
0.0
 10
218.9192107931
 20
22.2963108661
 30
0.0
 10
218.9192107931
 20
22.5109094941
 30
0.0
 10
219.0550360223
 20
22.7098057835
 30
0.0
 10
219.2835050495
 20
22.7098057835
 30
0.0
 10
219.5229657137
 20
22.7098057835
 30
0.0
 10
219.6585292372
 20
22.5208543086
 30
0.0
 10
219.6585292372
 20
22.2963108661
 30
0.0
 10
219.6585292372
 20
22.0701971897
 30
0.0
 10
219.5253210645
 20
21.8781052471
 30
0.0
 10
219.2835050495
 20
21.8781052471
 30
0.0
  0
SPLINE
  5
253
100
AcDbEntity
  8
0
100
AcDbSpline
 62
7
  6
CONTINUOUS
 70
2
 71
3
 72
50
 73
46
 74
0
 42
0.0000001
 43
0.0000001
 44
0.0000000001
 40
0.0
 40
0.0
 40
0.0
 40
0.0
 40
1.0
 40
1.0
 40
1.0
 40
2.0
 40
2.0
 40
2.0
 40
3.0
 40
3.0
 40
3.0
 40
4.0
 40
4.0
 40
4.0
 40
5.0
 40
5.0
 40
5.0
 40
6.0
 40
6.0
 40
6.0
 40
7.0
 40
7.0
 40
7.0
 40
8.0
 40
8.0
 40
8.0
 40
9.0
 40
9.0
 40
9.0
 40
10.0
 40
10.0
 40
10.0
 40
11.0
 40
11.0
 40
11.0
 40
12.0
 40
12.0
 40
12.0
 40
13.0
 40
13.0
 40
13.0
 40
14.0
 40
14.0
 40
14.0
 40
15.0
 40
15.0
 40
15.0
 40
15.0
 10
219.8676320467
 20
22.8731101053
 30
0.0
 10
219.8676320467
 20
22.8731101053
 30
0.0
 10
219.6459673663
 20
22.8731101053
 30
0.0
 10
219.6459673663
 20
22.8731101053
 30
0.0
 10
219.6459673663
 20
22.8731101053
 30
0.0
 10
219.6459673663
 20
22.6757840498
 30
0.0
 10
219.6459673663
 20
22.6757840498
 30
0.0
 10
219.6459673663
 20
22.6757840498
 30
0.0
 10
219.6412566647
 20
22.6757840498
 30
0.0
 10
219.6412566647
 20
22.6757840498
 30
0.0
 10
219.549921395
 20
22.8186753314
 30
0.0
 10
219.4120025207
 20
22.907131839
 30
0.0
 10
219.2392767957
 20
22.907131839
 30
0.0
 10
218.9069106279
 20
22.907131839
 30
0.0
 10
218.6978078184
 20
22.6192556307
 30
0.0
 10
218.6978078184
 20
22.3036386241
 30
0.0
 10
218.6978078184
 20
21.9738895128
 30
0.0
 10
218.8948721682
 20
21.6807791916
 30
0.0
 10
219.2497450214
 20
21.6807791916
 30
0.0
 10
219.4120025207
 20
21.6807791916
 30
0.0
 10
219.5520150402
 20
21.7692356992
 30
0.0
 10
219.6412566647
 20
21.9000885212
 30
0.0
 10
219.6412566647
 20
21.9000885212
 30
0.0
 10
219.6459673663
 20
21.9000885212
 30
0.0
 10
219.6459673663
 20
21.9000885212
 30
0.0
 10
219.6459673663
 20
21.9000885212
 30
0.0
 10
219.6459673663
 20
21.6807791916
 30
0.0
 10
219.6459673663
 20
21.6807791916
 30
0.0
 10
219.6459673663
 20
21.4441972895
 30
0.0
 10
219.5894389472
 20
21.2573394597
 30
0.0
 10
219.316218255
 20
21.2573394597
 30
0.0
 10
219.1139197922
 20
21.2573394597
 30
0.0
 10
218.9712902163
 20
21.3756304107
 30
0.0
 10
218.9712902163
 20
21.5818544582
 30
0.0
 10
218.9712902163
 20
21.5818544582
 30
0.0
 10
218.7496255359
 20
21.5818544582
 30
0.0
 10
218.7496255359
 20
21.5818544582
 30
0.0
 10
218.7545979431
 20
21.2573394597
 30
0.0
 10
218.9856840267
 20
21.0605368154
 30
0.0
 10
219.3060117349
 20
21.0605368154
 30
0.0
 10
219.7540517973
 20
21.0605368154
 30
0.0
 10
219.8676320467
 20
21.3457959673
 30
0.0
 10
219.8676320467
 20
21.7425417235
 30
0.0
 10
219.8676320467
 20
21.7425417235
 30
0.0
 10
219.8676320467
 20
22.8731101053
 30
0.0
 10
219.8676320467
 20
22.8731101053
 30
0.0
  0
SPLINE
  5
254
100
AcDbEntity
  8
0
100
AcDbSpline
 62
7
  6
CONTINUOUS
 70
2
 71
3
 72
44
 73
40
 74
0
 42
0.0000001
 43
0.0000001
 44
0.0000000001
 40
0.0
 40
0.0
 40
0.0
 40
0.0
 40
1.0
 40
1.0
 40
1.0
 40
2.0
 40
2.0
 40
2.0
 40
3.0
 40
3.0
 40
3.0
 40
4.0
 40
4.0
 40
4.0
 40
5.0
 40
5.0
 40
5.0
 40
6.0
 40
6.0
 40
6.0
 40
7.0
 40
7.0
 40
7.0
 40
8.0
 40
8.0
 40
8.0
 40
9.0
 40
9.0
 40
9.0
 40
10.0
 40
10.0
 40
10.0
 40
11.0
 40
11.0
 40
11.0
 40
12.0
 40
12.0
 40
12.0
 40
13.0
 40
13.0
 40
13.0
 40
13.0
 10
221.4365573821
 20
23.8581701491
 30
0.0
 10
221.4365573821
 20
23.8581701491
 30
0.0
 10
221.4365573821
 20
21.7200350382
 30
0.0
 10
221.4365573821
 20
21.7200350382
 30
0.0
 10
221.4365573821
 20
21.7200350382
 30
0.0
 10
221.6579603569
 20
21.7200350382
 30
0.0
 10
221.6579603569
 20
21.7200350382
 30
0.0
 10
221.6579603569
 20
21.7200350382
 30
0.0
 10
221.6579603569
 20
22.2497272615
 30
0.0
 10
221.6579603569
 20
22.2497272615
 30
0.0
 10
221.6579603569
 20
22.4596151879
 30
0.0
 10
221.6579603569
 20
22.7103291948
 30
0.0
 10
221.9432195088
 20
22.7103291948
 30
0.0
 10
222.1701183021
 20
22.7103291948
 30
0.0
 10
222.1970739834
 20
22.5773827277
 30
0.0
 10
222.1970739834
 20
22.3811034947
 30
0.0
 10
222.1970739834
 20
22.3811034947
 30
0.0
 10
222.1970739834
 20
21.7200350382
 30
0.0
 10
222.1970739834
 20
21.7200350382
 30
0.0
 10
222.1970739834
 20
21.7200350382
 30
0.0
 10
222.4190003695
 20
21.7200350382
 30
0.0
 10
222.4190003695
 20
21.7200350382
 30
0.0
 10
222.4190003695
 20
21.7200350382
 30
0.0
 10
222.4190003695
 20
22.4072740591
 30
0.0
 10
222.4190003695
 20
22.4072740591
 30
0.0
 10
222.4190003695
 20
22.6878225094
 30
0.0
 10
222.3349928578
 20
22.9076552503
 30
0.0
 10
222.009954448
 20
22.9076552503
 30
0.0
 10
221.8702036341
 20
22.9076552503
 30
0.0
 10
221.7320230541
 20
22.8411820168
 30
0.0
 10
221.6626710585
 20
22.7181803641
 30
0.0
 10
221.6626710585
 20
22.7181803641
 30
0.0
 10
221.6579603569
 20
22.7181803641
 30
0.0
 10
221.6579603569
 20
22.7181803641
 30
0.0
 10
221.6579603569
 20
22.7181803641
 30
0.0
 10
221.6579603569
 20
23.8581701491
 30
0.0
 10
221.6579603569
 20
23.8581701491
 30
0.0
 10
221.6579603569
 20
23.8581701491
 30
0.0
 10
221.4365573821
 20
23.8581701491
 30
0.0
 10
221.4365573821
 20
23.8581701491
 30
0.0
  0
LWPOLYLINE
  5
255
100
AcDbEntity
  8
0
100
AcDbPolyline
 62
7
  6
CONTINUOUS
 90
2
 70
0
 43
0.2
 10
224.2587910463
 20
22.6658392353
 10
224.4752216139
 20
22.6658392353
  0
LWPOLYLINE
  5
256
100
AcDbEntity
  8
0
100
AcDbPolyline
 62
7
  6
CONTINUOUS
 90
2
 70
0
 43
0.2
 10
224.4752216139
 20
22.6658392353
 10
224.4752216139
 20
22.8725866941
  0
LWPOLYLINE
  5
257
100
AcDbEntity
  8
0
100
AcDbPolyline
 62
7
  6
CONTINUOUS
 90
2
 70
0
 43
0.2
 10
224.4752216139
 20
22.8725866941
 10
224.2587910463
 20
22.8725866941
  0
LWPOLYLINE
  5
258
100
AcDbEntity
  8
0
100
AcDbPolyline
 62
7
  6
CONTINUOUS
 90
2
 70
0
 43
0.2
 10
224.2587910463
 20
22.8725866941
 10
224.2587910463
 20
23.3132989984
  0
LWPOLYLINE
  5
259
100
AcDbEntity
  8
0
100
AcDbPolyline
 62
7
  6
CONTINUOUS
 90
2
 70
0
 43
0.2
 10
224.2587910463
 20
23.3132989984
 10
224.0371263659
 20
23.3132989984
  0
LWPOLYLINE
  5
25A
100
AcDbEntity
  8
0
100
AcDbPolyline
 62
7
  6
CONTINUOUS
 90
2
 70
0
 43
0.2
 10
224.0371263659
 20
23.3132989984
 10
224.0371263659
 20
22.8725866941
  0
LWPOLYLINE
  5
25B
100
AcDbEntity
  8
0
100
AcDbPolyline
 62
7
  6
CONTINUOUS
 90
2
 70
0
 43
0.2
 10
224.0371263659
 20
22.8725866941
 10
223.9164800641
 20
22.8725866941
  0
LWPOLYLINE
  5
25C
100
AcDbEntity
  8
0
100
AcDbPolyline
 62
7
  6
CONTINUOUS
 90
2
 70
0
 43
0.2
 10
223.9164800641
 20
22.8725866941
 10
223.9164800641
 20
22.6658392353
  0
LWPOLYLINE
  5
25D
100
AcDbEntity
  8
0
100
AcDbPolyline
 62
7
  6
CONTINUOUS
 90
2
 70
0
 43
0.2
 10
223.9164800641
 20
22.6658392353
 10
224.0371263659
 20
22.6658392353
  0
LWPOLYLINE
  5
25E
100
AcDbEntity
  8
0
100
AcDbPolyline
 62
7
  6
CONTINUOUS
 90
2
 70
0
 43
0.2
 10
224.0371263659
 20
22.6658392353
 10
224.0371263659
 20
21.7200350382
  0
LWPOLYLINE
  5
25F
100
AcDbEntity
  8
0
100
AcDbPolyline
 62
7
  6
CONTINUOUS
 90
2
 70
0
 43
0.2
 10
224.0371263659
 20
21.7200350382
 10
224.2587910463
 20
21.7200350382
  0
LWPOLYLINE
  5
260
100
AcDbEntity
  8
0
100
AcDbPolyline
 62
7
  6
CONTINUOUS
 90
2
 70
0
 43
0.2
 10
224.2587910463
 20
21.7200350382
 10
224.2587910463
 20
22.6658392353
  0
SPLINE
  5
261
100
AcDbEntity
  8
0
100
AcDbSpline
 62
7
  6
CONTINUOUS
 70
2
 71
3
 72
20
 73
16
 74
0
 42
0.0000001
 43
0.0000001
 44
0.0000000001
 40
0.0
 40
0.0
 40
0.0
 40
0.0
 40
1.0
 40
1.0
 40
1.0
 40
2.0
 40
2.0
 40
2.0
 40
3.0
 40
3.0
 40
3.0
 40
4.0
 40
4.0
 40
4.0
 40
5.0
 40
5.0
 40
5.0
 40
5.0
 10
212.0408013536
 20
32.0809614815
 30
0.0
 10
212.0408013536
 20
32.0809614815
 30
0.0
 10
214.3571580081
 20
29.2514000593
 30
0.0
 10
214.3571580081
 20
29.2514000593
 30
0.0
 10
213.7055109547
 20
28.5992295946
 30
0.0
 10
212.9286377506
 20
27.8633133239
 30
0.0
 10
211.957448106
 20
27.8633133239
 30
0.0
 10
210.9589102216
 20
27.8633133239
 30
0.0
 10
210.015592228
 20
28.7928917711
 30
0.0
 10
210.015592228
 20
29.7920839197
 30
0.0
 10
210.015592228
 20
30.7912760682
 30
0.0
 10
211.1944453011
 20
31.4978813069
 30
0.0
 10
211.9159677614
 20
31.9977390868
 30
0.0
 10
211.9159677614
 20
31.9977390868
 30
0.0
 10
212.0408013536
 20
32.0809614815
 30
0.0
 10
212.0408013536
 20
32.0809614815
 30
0.0
  0
SPLINE
  5
262
100
AcDbEntity
  8
0
100
AcDbSpline
 62
7
  6
CONTINUOUS
 70
2
 71
3
 72
23
 73
19
 74
0
 42
0.0000001
 43
0.0000001
 44
0.0000000001
 40
0.0
 40
0.0
 40
0.0
 40
0.0
 40
1.0
 40
1.0
 40
1.0
 40
2.0
 40
2.0
 40
2.0
 40
3.0
 40
3.0
 40
3.0
 40
4.0
 40
4.0
 40
4.0
 40
5.0
 40
5.0
 40
5.0
 40
6.0
 40
6.0
 40
6.0
 40
6.0
 10
212.3182093362
 20
33.7187154013
 30
0.0
 10
212.3182093362
 20
33.7187154013
 30
0.0
 10
211.9717110636
 20
34.1620447621
 30
0.0
 10
211.9717110636
 20
34.1620447621
 30
0.0
 10
211.6659080186
 20
34.5501542321
 30
0.0
 10
211.3470196915
 20
34.9386562605
 30
0.0
 10
211.3470196915
 20
35.4656005746
 30
0.0
 10
211.3470196915
 20
36.1317722912
 30
0.0
 10
211.888357816
 20
36.5754942105
 30
0.0
 10
212.5122640711
 20
36.5754942105
 30
0.0
 10
213.2060457332
 20
36.5754942105
 30
0.0
 10
213.7332517529
 20
36.1732526358
 30
0.0
 10
213.7332517529
 20
35.4382523348
 30
0.0
 10
213.7332517529
 20
34.6749878242
 30
0.0
 10
213.0119909982
 20
34.2448745984
 30
0.0
 10
212.4849158313
 20
33.829155183
 30
0.0
 10
212.4849158313
 20
33.829155183
 30
0.0
 10
212.3182093362
 20
33.7187154013
 30
0.0
 10
212.3182093362
 20
33.7187154013
 30
0.0
  0
SPLINE
  5
263
100
AcDbEntity
  8
0
100
AcDbSpline
 62
7
  6
CONTINUOUS
 70
2
 71
3
 72
50
 73
46
 74
0
 42
0.0000001
 43
0.0000001
 44
0.0000000001
 40
0.0
 40
0.0
 40
0.0
 40
0.0
 40
1.0
 40
1.0
 40
1.0
 40
2.0
 40
2.0
 40
2.0
 40
3.0
 40
3.0
 40
3.0
 40
4.0
 40
4.0
 40
4.0
 40
5.0
 40
5.0
 40
5.0
 40
6.0
 40
6.0
 40
6.0
 40
7.0
 40
7.0
 40
7.0
 40
8.0
 40
8.0
 40
8.0
 40
9.0
 40
9.0
 40
9.0
 40
10.0
 40
10.0
 40
10.0
 40
11.0
 40
11.0
 40
11.0
 40
12.0
 40
12.0
 40
12.0
 40
13.0
 40
13.0
 40
13.0
 40
14.0
 40
14.0
 40
14.0
 40
15.0
 40
15.0
 40
15.0
 40
15.0
 10
216.2717964991
 20
26.9201261831
 30
0.0
 10
216.2717964991
 20
26.9201261831
 30
0.0
 10
217.8810245036
 20
26.9201261831
 30
0.0
 10
217.8810245036
 20
26.9201261831
 30
0.0
 10
217.8810245036
 20
26.9201261831
 30
0.0
 10
216.00799721
 20
29.2372679546
 30
0.0
 10
216.00799721
 20
29.2372679546
 30
0.0
 10
216.00799721
 20
29.2372679546
 30
0.0
 10
217.2843356355
 20
30.7347476491
 30
0.0
 10
217.2843356355
 20
30.7347476491
 30
0.0
 10
217.2843356355
 20
30.7347476491
 30
0.0
 10
216.4521116878
 20
31.5957592177
 30
0.0
 10
216.4521116878
 20
31.5957592177
 30
0.0
 10
216.4521116878
 20
31.5957592177
 30
0.0
 10
215.2315165644
 20
30.1804550953
 30
0.0
 10
215.2315165644
 20
30.1804550953
 30
0.0
 10
215.2315165644
 20
30.1804550953
 30
0.0
 10
213.0536021956
 20
32.8158309297
 30
0.0
 10
213.0536021956
 20
32.8158309297
 30
0.0
 10
213.9271756351
 20
33.4538692896
 30
0.0
 10
214.9538468762
 20
34.2448745984
 30
0.0
 10
214.9538468762
 20
35.4237276715
 30
0.0
 10
214.9538468762
 20
36.7974205965
 30
0.0
 10
213.8159507364
 20
37.601903746
 30
0.0
 10
212.5406591335
 20
37.601903746
 30
0.0
 10
211.1672279141
 20
37.601903746
 30
0.0
 10
210.1262937154
 20
36.7556785463
 30
0.0
 10
210.1262937154
 20
35.3130261841
 30
0.0
 10
210.1262937154
 20
34.4254514927
 30
0.0
 10
210.6816330918
 20
33.6485782887
 30
0.0
 10
211.2777985487
 20
33.0241486223
 30
0.0
 10
211.2777985487
 20
33.0241486223
 30
0.0
 10
210.6258897896
 20
32.5525550519
 30
0.0
 10
210.6258897896
 20
32.5525550519
 30
0.0
 10
209.6273519052
 20
31.8312942972
 30
0.0
 10
208.7944736934
 20
31.1100335425
 30
0.0
 10
208.7944736934
 20
29.7784752262
 30
0.0
 10
208.7944736934
 20
27.9747999282
 30
0.0
 10
210.251519866
 20
26.6981997971
 30
0.0
 10
211.9990593034
 20
26.6981997971
 30
0.0
 10
213.2339173843
 20
26.6981997971
 30
0.0
 10
214.3432876089
 20
27.4063752696
 30
0.0
 10
215.1341620649
 20
28.3349068943
 30
0.0
 10
215.1341620649
 20
28.3349068943
 30
0.0
 10
216.2717964991
 20
26.9201261831
 30
0.0
 10
216.2717964991
 20
26.9201261831
 30
0.0
  0
LINE
  5
264
100
AcDbEntity
  8
0
100
AcDbLine
 62
7
  6
CONTINUOUS
 10
202.0746578741
 20
24.8940010878
 11
224.4885686017
 21
24.8940010878
  0
LINE
  5
265
100
AcDbEntity
  8
0
100
AcDbLine
 62
7
  6
CONTINUOUS
 10
224.4885686017
 20
24.8940010878
 11
224.4885686017
 21
47.3079118154
  0
LINE
  5
266
100
AcDbEntity
  8
0
100
AcDbLine
 62
7
  6
CONTINUOUS
 10
224.4885686017
 20
47.3079118154
 11
202.0746578741
 21
47.3079118154
  0
LINE
  5
267
100
AcDbEntity
  8
0
100
AcDbLine
 62
7
  6
CONTINUOUS
 10
202.0746578741
 20
47.3079118154
 11
202.0746578741
 21
24.8940010878
  0
ENDBLK
  5
268
100
AcDbEntity
  8
0
  6
BYBLOCK
 62
0
100
AcDbBlockEnd
  0
BLOCK
  5
269
100
AcDbEntity
  8
0
100
AcDbBlockBegin
  2
_CLOSED
 70
64
 10
0.0
 20
0.0
  3
_CLOSED
  1

  0
LINE
  5
26A
100
AcDbEntity
  8
0
  6
BYBLOCK
 62
0
100
AcDbLine
 10
0.0
 20
0.0
 11
-1.0
 21
0.2
  0
LINE
  5
26B
100
AcDbEntity
  8
0
  6
BYBLOCK
 62
0
100
AcDbLine
 10
-1.0
 20
0.2
 11
-1.0
 21
-0.2
  0
LINE
  5
26C
100
AcDbEntity
  8
0
  6
BYBLOCK
 62
0
100
AcDbLine
 10
-1.0
 20
-0.2
 11
0.0
 21
0.0
  0
LINE
  5
26D
100
AcDbEntity
  8
0
  6
BYBLOCK
 62
0
100
AcDbLine
 10
-1.0
 20
0.0
 11
0.0
 21
0.0
  0
ENDBLK
  5
26E
100
AcDbEntity
  8
0
  6
BYBLOCK
 62
0
100
AcDbBlockEnd
  0
BLOCK
  5
26F
100
AcDbEntity
  8
0
100
AcDbBlockBegin
 62
2
  6
CONTINUOUS
  2
*D0
 70
65
 10
0.0
 20
0.0
  3
*D0
  1

  0
MTEXT
  5
270
100
AcDbEntity
  8
0
100
AcDbMText
 62
2
  6
CONTINUOUS
  7
STANDARD
 71
2
 72
1
 10
114.3481874751
 20
330.6215239155
 30
0.0
 11
0.0
 21
1.0
 31
0.0
  1
82
 40
3.0
 41
4.6617100372
  0
LINE
  5
271
100
AcDbEntity
  8
0
100
AcDbLine
 62
2
  6
CONTINUOUS
 10
109.1564992214
 20
289.6215239155
 11
118.8481874751
 21
289.6215239155
  0
LINE
  5
272
100
AcDbEntity
  8
0
100
AcDbLine
 62
2
  6
CONTINUOUS
 10
109.6603515017
 20
371.6215239155
 11
118.8481874751
 21
371.6215239155
  0
LINE
  5
273
100
AcDbEntity
  8
0
100
AcDbLine
 62
2
  6
CONTINUOUS
 10
118.0981874751
 20
289.6215239155
 11
118.0981874751
 21
330.6215239155
  0
LINE
  5
274
100
AcDbEntity
  8
0
100
AcDbLine
 62
2
  6
CONTINUOUS
 10
118.0981874751
 20
371.6215239155
 11
118.0981874751
 21
330.6215239155
  0
INSERT
  5
275
100
AcDbEntity
  8
0
100
AcDbBlockReference
 62
2
  6
CONTINUOUS
  2
_CLOSED
 10
118.0981874751
 20
289.6215239155
 41
2.5
 42
2.5
 43
2.5
 50
270.0
  0
INSERT
  5
276
100
AcDbEntity
  8
0
100
AcDbBlockReference
 62
2
  6
CONTINUOUS
  2
_CLOSED
 10
118.0981874751
 20
371.6215239155
 41
2.5
 42
2.5
 43
2.5
 50
90.0
  0
ENDBLK
  5
277
100
AcDbEntity
  8
0
  6
BYBLOCK
 62
0
100
AcDbBlockEnd
  0
BLOCK
  5
278
100
AcDbEntity
  8
0
100
AcDbBlockBegin
 62
2
  6
CONTINUOUS
  2
*D1
 70
65
 10
0.0
 20
0.0
  3
*D1
  1

  0
MTEXT
  5
279
100
AcDbEntity
  8
0
100
AcDbMText
 62
2
  6
CONTINUOUS
  7
STANDARD
 71
2
 72
1
 10
238.6267380423
 20
392.3822706585
 30
0.0
 11
1.0
 21
0.0
 31
0.0
  1
58,2
 40
3.0
 41
8.1524163569
  0
LINE
  5
27A
100
AcDbEntity
  8
0
100
AcDbLine
 62
2
  6
CONTINUOUS
 10
209.5267380423
 20
383.1583539897
 11
209.5267380423
 21
389.3822706585
  0
LINE
  5
27B
100
AcDbEntity
  8
0
100
AcDbLine
 62
2
  6
CONTINUOUS
 10
267.7267380423
 20
382.9664501678
 11
267.7267380423
 21
389.3822706585
  0
LINE
  5
27C
100
AcDbEntity
  8
0
100
AcDbLine
 62
2
  6
CONTINUOUS
 10
209.5267380423
 20
388.6322706585
 11
238.6267380423
 21
388.6322706585
  0
LINE
  5
27D
100
AcDbEntity
  8
0
100
AcDbLine
 62
2
  6
CONTINUOUS
 10
267.7267380423
 20
388.6322706585
 11
238.6267380423
 21
388.6322706585
  0
INSERT
  5
27E
100
AcDbEntity
  8
0
100
AcDbBlockReference
 62
2
  6
CONTINUOUS
  2
_CLOSED
 10
209.5267380423
 20
388.6322706585
 41
2.5
 42
2.5
 43
2.5
 50
180.0
  0
INSERT
  5
27F
100
AcDbEntity
  8
0
100
AcDbBlockReference
 62
2
  6
CONTINUOUS
  2
_CLOSED
 10
267.7267380423
 20
388.6322706585
 41
2.5
 42
2.5
 43
2.5
  0
ENDBLK
  5
280
100
AcDbEntity
  8
0
  6
BYBLOCK
 62
0
100
AcDbBlockEnd
  0
BLOCK
  5
281
100
AcDbEntity
  8
0
100
AcDbBlockBegin
 62
2
  6
CONTINUOUS
  2
*D2
 70
65
 10
0.0
 20
0.0
  3
*D2
  1

  0
MTEXT
  5
282
100
AcDbEntity
  8
0
100
AcDbMText
 62
2
  6
CONTINUOUS
  7
STANDARD
 71
2
 72
1
 10
194.5267380423
 20
277.4157474693
 30
0.0
 11
1.0
 21
0.0
 31
0.0
  1
25
 40
3.0
 41
4.6617100372
  0
LINE
  5
283
100
AcDbEntity
  8
0
100
AcDbLine
 62
2
  6
CONTINUOUS
 10
182.0267380423
 20
280.2809921367
 11
182.0267380423
 21
272.9157474693
  0
LINE
  5
284
100
AcDbEntity
  8
0
100
AcDbLine
 62
2
  6
CONTINUOUS
 10
207.0267380423
 20
280.4691059713
 11
207.0267380423
 21
272.9157474693
  0
LINE
  5
285
100
AcDbEntity
  8
0
100
AcDbLine
 62
2
  6
CONTINUOUS
 10
182.0267380423
 20
273.6657474693
 11
194.5267380423
 21
273.6657474693
  0
LINE
  5
286
100
AcDbEntity
  8
0
100
AcDbLine
 62
2
  6
CONTINUOUS
 10
207.0267380423
 20
273.6657474693
 11
194.5267380423
 21
273.6657474693
  0
INSERT
  5
287
100
AcDbEntity
  8
0
100
AcDbBlockReference
 62
2
  6
CONTINUOUS
  2
_CLOSED
 10
182.0267380423
 20
273.6657474693
 41
2.5
 42
2.5
 43
2.5
 50
180.0
  0
INSERT
  5
288
100
AcDbEntity
  8
0
100
AcDbBlockReference
 62
2
  6
CONTINUOUS
  2
_CLOSED
 10
207.0267380423
 20
273.6657474693
 41
2.5
 42
2.5
 43
2.5
  0
ENDBLK
  5
289
100
AcDbEntity
  8
0
  6
BYBLOCK
 62
0
100
AcDbBlockEnd
  0
BLOCK
  5
28A
100
AcDbEntity
  8
0
100
AcDbBlockBegin
 62
2
  6
CONTINUOUS
  2
*D3
 70
65
 10
0.0
 20
0.0
  3
*D3
  1

  0
MTEXT
  5
28B
100
AcDbEntity
  8
0
100
AcDbMText
 62
2
  6
CONTINUOUS
  7
STANDARD
 71
2
 72
1
 10
114.3481874751
 20
145.5357862903
 30
0.0
 11
0.0
 21
1.0
 31
0.0
  1
58,2
 40
3.0
 41
8.1524163569
  0
LINE
  5
28C
100
AcDbEntity
  8
0
100
AcDbLine
 62
2
  6
CONTINUOUS
 10
108.7066380601
 20
116.4357862903
 11
118.8481874751
 21
116.4357862903
  0
LINE
  5
28D
100
AcDbEntity
  8
0
100
AcDbLine
 62
2
  6
CONTINUOUS
 10
108.975003337
 20
174.6357862903
 11
118.8481874751
 21
174.6357862903
  0
LINE
  5
28E
100
AcDbEntity
  8
0
100
AcDbLine
 62
2
  6
CONTINUOUS
 10
118.0981874751
 20
116.4357862903
 11
118.0981874751
 21
145.5357862903
  0
LINE
  5
28F
100
AcDbEntity
  8
0
100
AcDbLine
 62
2
  6
CONTINUOUS
 10
118.0981874751
 20
174.6357862903
 11
118.0981874751
 21
145.5357862903
  0
INSERT
  5
290
100
AcDbEntity
  8
0
100
AcDbBlockReference
 62
2
  6
CONTINUOUS
  2
_CLOSED
 10
118.0981874751
 20
116.4357862903
 41
2.5
 42
2.5
 43
2.5
 50
270.0
  0
INSERT
  5
291
100
AcDbEntity
  8
0
100
AcDbBlockReference
 62
2
  6
CONTINUOUS
  2
_CLOSED
 10
118.0981874751
 20
174.6357862903
 41
2.5
 42
2.5
 43
2.5
 50
90.0
  0
ENDBLK
  5
292
100
AcDbEntity
  8
0
  6
BYBLOCK
 62
0
100
AcDbBlockEnd
  0
ENDSEC
  0
SECTION
  2
ENTITIES
  0
DIMENSION
  5
293
100
AcDbEntity
  8
0
100
AcDbDimension
 62
2
  6
CONTINUOUS
  2
*D0
 10
118.0981874751
 20
371.6215239155
 11
118.0981874751
 21
330.591171743
 70
160
  3
DIMSTYLE_1
100
AcDbAlignedDimension
 13
108.4064992214
 23
289.6215239155
 14
108.9103515017
 24
371.6215239155
 50
90.0
100
AcDbRotatedDimension
  0
DIMENSION
  5
294
100
AcDbEntity
  8
0
100
AcDbDimension
 62
2
  6
CONTINUOUS
  2
*D1
 10
267.7267380423
 20
388.6322706585
 11
238.6005425347
 21
388.6322706585
 70
160
  3
DIMSTYLE_1
100
AcDbAlignedDimension
 13
209.5267380423
 23
382.4083539897
 14
267.7267380423
 24
382.2164501678
100
AcDbRotatedDimension
  0
DIMENSION
  5
295
100
AcDbEntity
  8
0
100
AcDbDimension
 62
2
  6
CONTINUOUS
  2
*D2
 10
207.0267380423
 20
273.6657474693
 11
194.5019704861
 21
273.6657474693
 70
160
  3
DIMSTYLE_2
100
AcDbAlignedDimension
 13
182.0267380423
 23
281.0309921367
 14
207.0267380423
 24
281.2191059713
100
AcDbRotatedDimension
  0
DIMENSION
  5
296
100
AcDbEntity
  8
0
100
AcDbDimension
 62
2
  6
CONTINUOUS
  2
*D3
 10
118.0981874751
 20
174.6357862903
 11
118.0981874751
 21
145.5095872514
 70
160
  3
DIMSTYLE_1
100
AcDbAlignedDimension
 13
107.9566380601
 23
116.4357862903
 14
108.225003337
 24
174.6357862903
 50
90.0
100
AcDbRotatedDimension
  0
LINE
  5
297
100
AcDbEntity
  8
0
100
AcDbLine
 62
2
  6
CONTINUOUS
 10
199.4555007667
 20
47.6842243154
 11
289.4555007667
 21
47.6842243154
  0
LINE
  5
298
100
AcDbEntity
  8
0
100
AcDbLine
 62
2
  6
CONTINUOUS
 10
199.4555007667
 20
47.6842243154
 11
199.4555007667
 21
7.6842243154
  0
LINE
  5
299
100
AcDbEntity
  8
0
100
AcDbLine
 62
2
  6
CONTINUOUS
 10
229.4555007667
 20
41.6842243154
 11
289.4555007667
 21
41.6842243154
  0
LINE
  5
29A
100
AcDbEntity
  8
0
100
AcDbLine
 62
2
  6
CONTINUOUS
 10
229.4555007667
 20
35.6842243154
 11
289.4555007667
 21
35.6842243154
  0
LINE
  5
29B
100
AcDbEntity
  8
0
100
AcDbLine
 62
2
  6
CONTINUOUS
 10
229.4555007667
 20
25.6842243154
 11
289.4555007667
 21
25.6842243154
  0
LINE
  5
29C
100
AcDbEntity
  8
0
100
AcDbLine
 62
2
  6
CONTINUOUS
 10
199.4555007667
 20
20.6842243154
 11
289.4555007667
 21
20.6842243154
  0
LINE
  5
29D
100
AcDbEntity
  8
0
100
AcDbLine
 62
2
  6
CONTINUOUS
 10
199.4555007667
 20
7.6842243154
 11
289.4555007667
 21
7.6842243154
  0
LINE
  5
29E
100
AcDbEntity
  8
0
100
AcDbLine
 62
2
  6
CONTINUOUS
 10
229.4555007667
 20
47.6842243154
 11
229.4555007667
 21
20.6842243154
  0
LINE
  5
29F
100
AcDbEntity
  8
0
100
AcDbLine
 62
2
  6
CONTINUOUS
 10
269.4555007667
 20
47.6842243154
 11
269.4555007667
 21
35.6842243154
  0
LINE
  5
2A0
100
AcDbEntity
  8
0
100
AcDbLine
 62
2
  6
CONTINUOUS
 10
289.4555007667
 20
47.6842243154
 11
289.4555007667
 21
7.6842243154
  0
INSERT
  5
2A1
100
AcDbEntity
  8
0
100
AcDbBlockReference
 62
2
  6
CONTINUOUS
  2
LOGO2_BL0
 10
213.2815478115
 20
34.1842243154
  0
MTEXT
  5
2A2
100
AcDbEntity
  8
9_SOLID
100
AcDbMText
 62
2
  6
CONTINUOUS
  7
TEXTSTYLE_2
 71
1
 72
1
 10
230.9430007667
 20
46.1842243154
 30
0.0
 11
1.0
 21
0.0
 31
0.0
  1
452_C_020
 40
3.0
 41
32.5714285714
  0
MTEXT
  5
2A3
100
AcDbEntity
  8
0
100
AcDbMText
 62
2
  6
CONTINUOUS
  7
TEXTSTYLE_2
 71
1
 72
1
 10
270.9430007667
 20
45.9342243154
 30
0.0
 11
1.0
 21
0.0
 31
0.0
  1
Rev:00
 40
3.5
 41
22.75
  0
MTEXT
  5
2A4
100
AcDbEntity
  8
9_SOLID
100
AcDbMText
 62
2
  6
CONTINUOUS
  7
TEXTSTYLE_2
 71
1
 72
1
 10
230.9430007667
 20
39.9342243154
 30
0.0
 11
1.0
 21
0.0
 31
0.0
  1
Scale:1:1
 40
3.5
 41
28.375
  0
MTEXT
  5
2A5
100
AcDbEntity
  8
9_SOLID
100
AcDbMText
 62
2
  6
CONTINUOUS
  7
TEXTSTYLE_2
 71
1
 72
1
 10
270.9430007667
 20
40.4342243154
 30
0.0
 11
1.0
 21
0.0
 31
0.0
  1
A3
 40
3.5
 41
9.25
  0
MTEXT
  5
2A6
100
AcDbEntity
  8
0
100
AcDbMText
 62
2
  6
CONTINUOUS
  7
TEXTSTYLE_2
 71
1
 72
1
 10
230.9430007667
 20
32.4342243154
 30
0.0
 11
1.0
 21
0.0
 31
0.0
  1
Ginko 2.0 - 2.2
 40
3.5
 41
57.75
  0
MTEXT
  5
2A7
100
AcDbEntity
  8
0
100
AcDbMText
 62
2
  6
CONTINUOUS
  7
TEXTSTYLE_2
 71
1
 72
1
 10
230.9430007667
 20
24.4342243154
 30
0.0
 11
1.0
 21
0.0
 31
0.0
  1
DATE:12/06/2018
 40
2.5
 41
42.2321428571
  0
MTEXT
  5
2A8
100
AcDbEntity
  8
9_SOLID
100
AcDbMText
 62
2
  6
CONTINUOUS
  7
TEXTSTYLE_2
 71
1
 72
1
 10
200.9430007667
 20
20.3717243154
 30
0.0
 11
1.0
 21
0.0
 31
0.0
  1
Any integral or partial reproductions are prohibited \Pwithout prior authorisation of L {\Ftxt.shx;\W0.190476;\H2.250000; }& L Luce & Light s.r.l., \Pin accordance with the law in force. \PAll rights reserved.
 40
2.25
 41
134.5982142857
  0
LINE
  5
2A9
100
AcDbEntity
  8
0
100
AcDbLine
 62
7
  6
CONTINUOUS
 10
0.0
 20
0.0
 11
297.0
 21
0.0
  0
LINE
  5
2AA
100
AcDbEntity
  8
0
100
AcDbLine
 62
7
  6
CONTINUOUS
 10
0.0
 20
0.0
 11
0.0
 21
420.0
  0
LINE
  5
2AB
100
AcDbEntity
  8
0
100
AcDbLine
 62
7
  6
CONTINUOUS
 10
297.0
 20
0.0
 11
297.0
 21
420.0
  0
LINE
  5
2AC
100
AcDbEntity
  8
0
100
AcDbLine
 62
7
  6
CONTINUOUS
 10
0.0
 20
420.0
 11
297.0
 21
420.0
  0
LINE
  5
2AD
100
AcDbEntity
  8
7_ALL_FEATURES
100
AcDbLine
 62
7
  6
CONTINUOUS
 10
47.1076195773
 20
289.6215239155
 11
91.1076195773
 21
289.6215239155
  0
LINE
  5
2AE
100
AcDbEntity
  8
7_ALL_FEATURES
100
AcDbLine
 62
3
  6
CONTINUOUS
 10
47.1076195773
 20
291.6215239155
 11
91.1076195773
 21
291.6215239155
  0
LINE
  5
2AF
100
AcDbEntity
  8
7_ALL_FEATURES
100
AcDbLine
 62
7
  6
CONTINUOUS
 10
38.7436102342
 20
347.9712141761
 11
40.1716664035
 21
351.6433586113
  0
LINE
  5
2B0
100
AcDbEntity
  8
7_ALL_FEATURES
100
AcDbLine
 62
9
  6
CONTINUOUS
 10
96.1076195773
 20
294.6215239155
 11
94.1076195773
 21
294.6215239155
  0
LINE
  5
2B1
100
AcDbEntity
  8
7_ALL_FEATURES
100
AcDbLine
 62
9
  6
CONTINUOUS
 10
42.1076195773
 20
294.6215239155
 11
44.1076195773
 21
294.6215239155
  0
LINE
  5
2B2
100
AcDbEntity
  8
7_ALL_FEATURES
100
AcDbLine
 62
9
  6
CONTINUOUS
 10
96.1076195773
 20
295.552477927
 11
94.1076195773
 21
295.552477927
  0
LINE
  5
2B3
100
AcDbEntity
  8
7_ALL_FEATURES
100
AcDbLine
 62
9
  6
CONTINUOUS
 10
42.1076195773
 20
295.552477927
 11
44.1076195773
 21
295.552477927
  0
LINE
  5
2B4
100
AcDbEntity
  8
7_ALL_FEATURES
100
AcDbLine
 62
7
  6
CONTINUOUS
 10
38.6076195773
 20
347.2463216538
 11
38.6076195773
 21
341.9967261771
  0
LINE
  5
2B5
100
AcDbEntity
  8
7_ALL_FEATURES
100
AcDbLine
 62
9
  6
CONTINUOUS
 10
38.7436102342
 20
341.2718336548
 11
38.7436102342
 21
347.9712141761
  0
LINE
  5
2B6
100
AcDbEntity
  8
7_ALL_FEATURES
100
AcDbLine
 62
9
  6
CONTINUOUS
 10
40.1716664035
 20
351.6433586113
 11
40.1716664035
 21
337.5996892196
  0
LINE
  5
2B7
100
AcDbEntity
  8
7_ALL_FEATURES
100
AcDbLine
 62
9
  6
CONTINUOUS
 10
40.8706699071
 20
352.1215239155
 11
40.8706699071
 21
337.1215239155
  0
LINE
  5
2B8
100
AcDbEntity
  8
7_ALL_FEATURES
100
AcDbLine
 62
9
  6
CONTINUOUS
 10
41.5076195773
 20
352.1215239155
 11
41.5076195773
 21
337.1215239155
  0
LINE
  5
2B9
100
AcDbEntity
  8
7_ALL_FEATURES
100
AcDbLine
 62
7
  6
CONTINUOUS
 10
41.6076195773
 20
352.0215239078
 11
41.6076195773
 21
337.2215239232
  0
LINE
  5
2BA
100
AcDbEntity
  8
7_ALL_FEATURES
100
AcDbLine
 62
7
  6
CONTINUOUS
 10
42.1076195773
 20
294.6215239155
 11
42.1076195773
 21
344.4715239155
  0
LINE
  5
2BB
100
AcDbEntity
  8
7_ALL_FEATURES
100
AcDbLine
 62
7
  6
CONTINUOUS
 10
42.1076195773
 20
344.7715239155
 11
42.1076195773
 21
355.0985051553
  0
LINE
  5
2BC
100
AcDbEntity
  8
7_ALL_FEATURES
100
AcDbLine
 62
9
  6
CONTINUOUS
 10
96.1076195773
 20
303.3671004968
 11
94.1076195773
 21
303.3671004968
  0
LINE
  5
2BD
100
AcDbEntity
  8
7_ALL_FEATURES
100
AcDbLine
 62
9
  6
CONTINUOUS
 10
42.1076195773
 20
303.3671004968
 11
44.1076195773
 21
303.3671004968
  0
LINE
  5
2BE
100
AcDbEntity
  8
7_ALL_FEATURES
100
AcDbLine
 62
3
  6
CONTINUOUS
 10
44.1076195773
 20
294.6215239155
 11
44.1076195773
 21
334.4243199983
  0
LINE
  5
2BF
100
AcDbEntity
  8
7_ALL_FEATURES
100
AcDbLine
 62
3
  6
CONTINUOUS
 10
44.1076195773
 20
354.8187278326
 11
44.1076195773
 21
355.0985051553
  0
LINE
  5
2C0
100
AcDbEntity
  8
7_ALL_FEATURES
100
AcDbLine
 62
7
  6
CONTINUOUS
 10
38.7436102342
 20
341.2718336548
 11
40.1716664035
 21
337.5996892196
  0
LINE
  5
2C1
100
AcDbEntity
  8
7_ALL_FEATURES
100
AcDbLine
 62
9
  6
CONTINUOUS
 10
47.1076195773
 20
289.6215239155
 11
47.1076195773
 21
291.6215239155
  0
LINE
  5
2C2
100
AcDbEntity
  8
7_ALL_FEATURES
100
AcDbLine
 62
7
  6
CONTINUOUS
 10
61.6076195773
 20
317.6215239155
 11
76.6076195773
 21
317.6215239155
  0
LINE
  5
2C3
100
AcDbEntity
  8
7_ALL_FEATURES
100
AcDbLine
 62
9
  6
CONTINUOUS
 10
61.1076195773
 20
318.1215239155
 11
63.9384660268
 21
318.1215239155
  0
LINE
  5
2C4
100
AcDbEntity
  8
7_ALL_FEATURES
100
AcDbLine
 62
9
  6
CONTINUOUS
 10
74.2767731278
 20
318.1215239155
 11
77.1076195773
 21
318.1215239155
  0
LINE
  5
2C5
100
AcDbEntity
  8
7_ALL_FEATURES
100
AcDbLine
 62
7
  6
CONTINUOUS
 10
61.1076195773
 20
318.1215239155
 11
61.1076195773
 21
318.8345445987
  0
LINE
  5
2C6
100
AcDbEntity
  8
7_ALL_FEATURES
100
AcDbLine
 62
7
  6
CONTINUOUS
 10
96.1076195773
 20
334.1871651165
 11
94.1076195773
 21
334.1871651165
  0
LINE
  5
2C7
100
AcDbEntity
  8
7_ALL_FEATURES
100
AcDbLine
 62
7
  6
CONTINUOUS
 10
42.1076195773
 20
334.1871651165
 11
44.1076195773
 21
334.1871651165
  0
LINE
  5
2C8
100
AcDbEntity
  8
7_ALL_FEATURES
100
AcDbLine
 62
7
  6
CONTINUOUS
 10
43.4395389056
 20
336.2479461702
 11
42.1076195773
 21
336.2479461702
  0
LINE
  5
2C9
100
AcDbEntity
  8
7_ALL_FEATURES
100
AcDbLine
 62
7
  6
CONTINUOUS
 10
94.775700249
 20
336.2479461702
 11
96.1076195773
 21
336.2479461702
  0
LINE
  5
2CA
100
AcDbEntity
  8
7_ALL_FEATURES
100
AcDbLine
 62
7
  6
CONTINUOUS
 10
43.2273826087
 20
336.9286348311
 11
42.1076195773
 21
336.9286348311
  0
LINE
  5
2CB
100
AcDbEntity
  8
7_ALL_FEATURES
100
AcDbLine
 62
7
  6
CONTINUOUS
 10
94.987856546
 20
336.9286348311
 11
96.1076195773
 21
336.9286348311
  0
LINE
  5
2CC
100
AcDbEntity
  8
02___PRT_ALL_AXES
100
AcDbLine
 62
7
  6
CONTINUOUS
 10
41.5076195773
 20
337.1215239155
 11
40.8706699071
 21
337.1215239155
  0
LINE
  5
2CD
100
AcDbEntity
  8
02___PRT_ALL_AXES
100
AcDbLine
 62
7
  6
CONTINUOUS
 10
96.7076195773
 20
337.1215239155
 11
97.3445692475
 21
337.1215239155
  0
LINE
  5
2CE
100
AcDbEntity
  8
7_ALL_FEATURES
100
AcDbLine
 62
7
  6
CONTINUOUS
 10
43.0706350695
 20
337.4752341414
 11
42.1076195773
 21
337.4752341414
  0
LINE
  5
2CF
100
AcDbEntity
  8
7_ALL_FEATURES
100
AcDbLine
 62
7
  6
CONTINUOUS
 10
95.1446040851
 20
337.4752341414
 11
96.1076195773
 21
337.4752341414
  0
LINE
  5
2D0
100
AcDbEntity
  8
7_ALL_FEATURES
100
AcDbLine
 62
7
  6
CONTINUOUS
 10
77.1076195773
 20
318.1215239155
 11
77.1076195773
 21
318.8345445987
  0
LINE
  5
2D1
100
AcDbEntity
  8
7_ALL_FEATURES
100
AcDbLine
 62
7
  6
CONTINUOUS
 10
42.8808689084
 20
338.2072986741
 11
42.1076195773
 21
338.2072986741
  0
LINE
  5
2D2
100
AcDbEntity
  8
7_ALL_FEATURES
100
AcDbLine
 62
7
  6
CONTINUOUS
 10
95.3343702462
 20
338.2072986741
 11
96.1076195773
 21
338.2072986741
  0
LINE
  5
2D3
100
AcDbEntity
  8
7_ALL_FEATURES
100
AcDbLine
 62
7
  6
CONTINUOUS
 10
42.8619231899
 20
338.2864472984
 11
42.1076195773
 21
338.2864472984
  0
LINE
  5
2D4
100
AcDbEntity
  8
7_ALL_FEATURES
100
AcDbLine
 62
7
  6
CONTINUOUS
 10
95.3533159647
 20
338.2864472984
 11
96.1076195773
 21
338.2864472984
  0
LINE
  5
2D5
100
AcDbEntity
  8
3_ALL_AXES
100
AcDbLine
 62
7
  6
CONTINUOUS
 10
42.1076195773
 20
338.6215239155
 11
41.6076195773
 21
338.6215239155
  0
LINE
  5
2D6
100
AcDbEntity
  8
3_ALL_AXES
100
AcDbLine
 62
7
  6
CONTINUOUS
 10
96.1076195773
 20
338.6215239155
 11
96.6076195773
 21
338.6215239155
  0
LINE
  5
2D7
100
AcDbEntity
  8
7_ALL_FEATURES
100
AcDbLine
 62
7
  6
CONTINUOUS
 10
42.7168654969
 20
338.9196585112
 11
42.1076195773
 21
338.9196585112
  0
LINE
  5
2D8
100
AcDbEntity
  8
7_ALL_FEATURES
100
AcDbLine
 62
7
  6
CONTINUOUS
 10
95.4983736578
 20
338.9196585112
 11
96.1076195773
 21
338.9196585112
  0
LINE
  5
2D9
100
AcDbEntity
  8
7_ALL_FEATURES
100
AcDbLine
 62
7
  6
CONTINUOUS
 10
42.5803746686
 20
339.5916201049
 11
42.1076195773
 21
339.5916201049
  0
LINE
  5
2DA
100
AcDbEntity
  8
7_ALL_FEATURES
100
AcDbLine
 62
7
  6
CONTINUOUS
 10
95.634864486
 20
339.5916201049
 11
96.1076195773
 21
339.5916201049
  0
LINE
  5
2DB
100
AcDbEntity
  8
7_ALL_FEATURES
100
AcDbLine
 62
9
  6
CONTINUOUS
 10
42.5565689131
 20
339.7215239155
 11
42.1076195773
 21
339.7215239155
  0
LINE
  5
2DC
100
AcDbEntity
  8
7_ALL_FEATURES
100
AcDbLine
 62
9
  6
CONTINUOUS
 10
95.6586702415
 20
339.7215239155
 11
96.1076195773
 21
339.7215239155
  0
LINE
  5
2DD
100
AcDbEntity
  8
7_ALL_FEATURES
100
AcDbLine
 62
7
  6
CONTINUOUS
 10
42.5354533421
 20
339.8367478631
 11
42.1076195773
 21
339.8367478631
  0
LINE
  5
2DE
100
AcDbEntity
  8
7_ALL_FEATURES
100
AcDbLine
 62
7
  6
CONTINUOUS
 10
95.6797858125
 20
339.8367478631
 11
96.1076195773
 21
339.8367478631
  0
LINE
  5
2DF
100
AcDbEntity
  8
7_ALL_FEATURES
100
AcDbLine
 62
9
  6
CONTINUOUS
 10
96.1076195773
 20
340.1840321672
 11
95.7399532409
 21
340.1840321672
  0
LINE
  5
2E0
100
AcDbEntity
  8
7_ALL_FEATURES
100
AcDbLine
 62
9
  6
CONTINUOUS
 10
42.1076195773
 20
340.1840321672
 11
42.4752859137
 21
340.1840321672
  0
LINE
  5
2E1
100
AcDbEntity
  8
7_ALL_FEATURES
100
AcDbLine
 62
7
  6
CONTINUOUS
 10
42.4188348252
 20
340.537331176
 11
42.1076195773
 21
340.537331176
  0
LINE
  5
2E2
100
AcDbEntity
  8
7_ALL_FEATURES
100
AcDbLine
 62
7
  6
CONTINUOUS
 10
95.7964043294
 20
340.537331176
 11
96.1076195773
 21
340.537331176
  0
LINE
  5
2E3
100
AcDbEntity
  8
7_ALL_FEATURES
100
AcDbLine
 62
7
  6
CONTINUOUS
 10
42.3350344187
 20
341.1287726178
 11
42.1076195773
 21
341.1287726178
  0
LINE
  5
2E4
100
AcDbEntity
  8
7_ALL_FEATURES
100
AcDbLine
 62
7
  6
CONTINUOUS
 10
95.8802047359
 20
341.1287726178
 11
96.1076195773
 21
341.1287726178
  0
LINE
  5
2E5
100
AcDbEntity
  8
7_ALL_FEATURES
100
AcDbLine
 62
9
  6
CONTINUOUS
 10
42.3169585752
 20
341.2697265109
 11
42.1076195773
 21
341.2697265109
  0
LINE
  5
2E6
100
AcDbEntity
  8
7_ALL_FEATURES
100
AcDbLine
 62
9
  6
CONTINUOUS
 10
95.8982805794
 20
341.2697265109
 11
96.1076195773
 21
341.2697265109
  0
LINE
  5
2E7
100
AcDbEntity
  8
7_ALL_FEATURES
100
AcDbLine
 62
7
  6
CONTINUOUS
 10
42.2994773623
 20
341.410680404
 11
42.1076195773
 21
341.410680404
  0
LINE
  5
2E8
100
AcDbEntity
  8
7_ALL_FEATURES
100
AcDbLine
 62
7
  6
CONTINUOUS
 10
95.9157617923
 20
341.410680404
 11
96.1076195773
 21
341.410680404
  0
LINE
  5
2E9
100
AcDbEntity
  8
7_ALL_FEATURES
100
AcDbLine
 62
7
  6
CONTINUOUS
 10
42.2855227904
 20
341.5324314269
 11
42.1076195773
 21
341.5324314269
  0
LINE
  5
2EA
100
AcDbEntity
  8
7_ALL_FEATURES
100
AcDbLine
 62
7
  6
CONTINUOUS
 10
95.9297163643
 20
341.5324314269
 11
96.1076195773
 21
341.5324314269
  0
LINE
  5
2EB
100
AcDbEntity
  8
7_ALL_FEATURES
100
AcDbLine
 62
7
  6
CONTINUOUS
 10
42.2100301591
 20
342.2790999705
 11
42.1076195773
 21
342.2790999705
  0
LINE
  5
2EC
100
AcDbEntity
  8
7_ALL_FEATURES
100
AcDbLine
 62
7
  6
CONTINUOUS
 10
96.0052089955
 20
342.2790999705
 11
96.1076195773
 21
342.2790999705
  0
LINE
  5
2ED
100
AcDbEntity
  8
7_ALL_FEATURES
100
AcDbLine
 62
7
  6
CONTINUOUS
 10
42.1712690438
 20
342.7720506114
 11
42.1076195773
 21
342.7720506114
  0
LINE
  5
2EE
100
AcDbEntity
  8
7_ALL_FEATURES
100
AcDbLine
 62
7
  6
CONTINUOUS
 10
96.0439701109
 20
342.7720506114
 11
96.1076195773
 21
342.7720506114
  0
LINE
  5
2EF
100
AcDbEntity
  8
7_ALL_FEATURES
100
AcDbLine
 62
9
  6
CONTINUOUS
 10
42.1618159876
 20
342.9197717743
 11
42.1076195773
 21
342.9197717743
  0
LINE
  5
2F0
100
AcDbEntity
  8
7_ALL_FEATURES
100
AcDbLine
 62
9
  6
CONTINUOUS
 10
96.053423167
 20
342.9197717743
 11
96.1076195773
 21
342.9197717743
  0
LINE
  5
2F1
100
AcDbEntity
  8
7_ALL_FEATURES
100
AcDbLine
 62
7
  6
CONTINUOUS
 10
42.1528805048
 20
343.0674929373
 11
42.1076195773
 21
343.0674929373
  0
LINE
  5
2F2
100
AcDbEntity
  8
7_ALL_FEATURES
100
AcDbLine
 62
7
  6
CONTINUOUS
 10
96.0623586499
 20
343.0674929373
 11
96.1076195773
 21
343.0674929373
  0
LINE
  5
2F3
100
AcDbEntity
  8
7_ALL_FEATURES
100
AcDbLine
 62
7
  6
CONTINUOUS
 10
42.1395030734
 20
343.3219755028
 11
42.1076195773
 21
343.3219755028
  0
LINE
  5
2F4
100
AcDbEntity
  8
7_ALL_FEATURES
100
AcDbLine
 62
7
  6
CONTINUOUS
 10
96.0757360812
 20
343.3219755028
 11
96.1076195773
 21
343.3219755028
  0
LINE
  5
2F5
100
AcDbEntity
  8
7_ALL_FEATURES
100
AcDbLine
 62
7
  6
CONTINUOUS
 10
42.1167478623
 20
343.9266396804
 11
42.1076195773
 21
343.9266396804
  0
LINE
  5
2F6
100
AcDbEntity
  8
7_ALL_FEATURES
100
AcDbLine
 62
7
  6
CONTINUOUS
 10
96.0984912924
 20
343.9266396804
 11
96.1076195773
 21
343.9266396804
  0
LINE
  5
2F7
100
AcDbEntity
  8
7_ALL_FEATURES
100
AcDbLine
 62
7
  6
CONTINUOUS
 10
42.1167478623
 20
345.3164081505
 11
42.1076195773
 21
345.3164081505
  0
LINE
  5
2F8
100
AcDbEntity
  8
7_ALL_FEATURES
100
AcDbLine
 62
7
  6
CONTINUOUS
 10
96.0984912924
 20
345.3164081505
 11
96.1076195773
 21
345.3164081505
  0
LINE
  5
2F9
100
AcDbEntity
  8
7_ALL_FEATURES
100
AcDbLine
 62
7
  6
CONTINUOUS
 10
42.1395030734
 20
345.9210723281
 11
42.1076195773
 21
345.9210723281
  0
LINE
  5
2FA
100
AcDbEntity
  8
7_ALL_FEATURES
100
AcDbLine
 62
7
  6
CONTINUOUS
 10
96.0757360812
 20
345.9210723281
 11
96.1076195773
 21
345.9210723281
  0
LINE
  5
2FB
100
AcDbEntity
  8
7_ALL_FEATURES
100
AcDbLine
 62
7
  6
CONTINUOUS
 10
42.1528805048
 20
346.1755548936
 11
42.1076195773
 21
346.1755548936
  0
LINE
  5
2FC
100
AcDbEntity
  8
7_ALL_FEATURES
100
AcDbLine
 62
7
  6
CONTINUOUS
 10
96.0623586499
 20
346.1755548936
 11
96.1076195773
 21
346.1755548936
  0
LINE
  5
2FD
100
AcDbEntity
  8
7_ALL_FEATURES
100
AcDbLine
 62
9
  6
CONTINUOUS
 10
42.1618159876
 20
346.3232760566
 11
42.1076195773
 21
346.3232760566
  0
LINE
  5
2FE
100
AcDbEntity
  8
7_ALL_FEATURES
100
AcDbLine
 62
9
  6
CONTINUOUS
 10
96.053423167
 20
346.3232760566
 11
96.1076195773
 21
346.3232760566
  0
LINE
  5
2FF
100
AcDbEntity
  8
7_ALL_FEATURES
100
AcDbLine
 62
7
  6
CONTINUOUS
 10
42.1712690438
 20
346.4709972195
 11
42.1076195773
 21
346.4709972195
  0
LINE
  5
300
100
AcDbEntity
  8
7_ALL_FEATURES
100
AcDbLine
 62
7
  6
CONTINUOUS
 10
96.0439701109
 20
346.4709972195
 11
96.1076195773
 21
346.4709972195
  0
LINE
  5
301
100
AcDbEntity
  8
7_ALL_FEATURES
100
AcDbLine
 62
7
  6
CONTINUOUS
 10
42.2100301591
 20
346.9639478604
 11
42.1076195773
 21
346.9639478604
  0
LINE
  5
302
100
AcDbEntity
  8
7_ALL_FEATURES
100
AcDbLine
 62
7
  6
CONTINUOUS
 10
96.0052089955
 20
346.9639478604
 11
96.1076195773
 21
346.9639478604
  0
LINE
  5
303
100
AcDbEntity
  8
7_ALL_FEATURES
100
AcDbLine
 62
7
  6
CONTINUOUS
 10
42.2855227904
 20
347.710616404
 11
42.1076195773
 21
347.710616404
  0
LINE
  5
304
100
AcDbEntity
  8
7_ALL_FEATURES
100
AcDbLine
 62
7
  6
CONTINUOUS
 10
95.9297163643
 20
347.710616404
 11
96.1076195773
 21
347.710616404
  0
LINE
  5
305
100
AcDbEntity
  8
7_ALL_FEATURES
100
AcDbLine
 62
7
  6
CONTINUOUS
 10
42.2994773623
 20
347.8323674269
 11
42.1076195773
 21
347.8323674269
  0
LINE
  5
306
100
AcDbEntity
  8
7_ALL_FEATURES
100
AcDbLine
 62
7
  6
CONTINUOUS
 10
95.9157617923
 20
347.8323674269
 11
96.1076195773
 21
347.8323674269
  0
LINE
  5
307
100
AcDbEntity
  8
7_ALL_FEATURES
100
AcDbLine
 62
9
  6
CONTINUOUS
 10
42.3169585752
 20
347.9733213201
 11
42.1076195773
 21
347.9733213201
  0
LINE
  5
308
100
AcDbEntity
  8
7_ALL_FEATURES
100
AcDbLine
 62
9
  6
CONTINUOUS
 10
95.8982805794
 20
347.9733213201
 11
96.1076195773
 21
347.9733213201
  0
LINE
  5
309
100
AcDbEntity
  8
7_ALL_FEATURES
100
AcDbLine
 62
7
  6
CONTINUOUS
 10
42.3350344187
 20
348.1142752132
 11
42.1076195773
 21
348.1142752132
  0
LINE
  5
30A
100
AcDbEntity
  8
7_ALL_FEATURES
100
AcDbLine
 62
7
  6
CONTINUOUS
 10
95.8802047359
 20
348.1142752132
 11
96.1076195773
 21
348.1142752132
  0
LINE
  5
30B
100
AcDbEntity
  8
7_ALL_FEATURES
100
AcDbLine
 62
7
  6
CONTINUOUS
 10
42.4188348252
 20
348.7057166549
 11
42.1076195773
 21
348.7057166549
  0
LINE
  5
30C
100
AcDbEntity
  8
7_ALL_FEATURES
100
AcDbLine
 62
7
  6
CONTINUOUS
 10
95.7964043294
 20
348.7057166549
 11
96.1076195773
 21
348.7057166549
  0
LINE
  5
30D
100
AcDbEntity
  8
7_ALL_FEATURES
100
AcDbLine
 62
7
  6
CONTINUOUS
 10
42.5354533421
 20
349.4062999678
 11
42.1076195773
 21
349.4062999678
  0
LINE
  5
30E
100
AcDbEntity
  8
7_ALL_FEATURES
100
AcDbLine
 62
7
  6
CONTINUOUS
 10
95.6797858125
 20
349.4062999678
 11
96.1076195773
 21
349.4062999678
  0
LINE
  5
30F
100
AcDbEntity
  8
7_ALL_FEATURES
100
AcDbLine
 62
9
  6
CONTINUOUS
 10
42.5565689131
 20
349.5215239155
 11
42.1076195773
 21
349.5215239155
  0
LINE
  5
310
100
AcDbEntity
  8
7_ALL_FEATURES
100
AcDbLine
 62
9
  6
CONTINUOUS
 10
95.6586702415
 20
349.5215239155
 11
96.1076195773
 21
349.5215239155
  0
LINE
  5
311
100
AcDbEntity
  8
7_ALL_FEATURES
100
AcDbLine
 62
7
  6
CONTINUOUS
 10
42.5803746686
 20
349.651427726
 11
42.1076195773
 21
349.651427726
  0
LINE
  5
312
100
AcDbEntity
  8
7_ALL_FEATURES
100
AcDbLine
 62
7
  6
CONTINUOUS
 10
95.634864486
 20
349.651427726
 11
96.1076195773
 21
349.651427726
  0
LINE
  5
313
100
AcDbEntity
  8
7_ALL_FEATURES
100
AcDbLine
 62
7
  6
CONTINUOUS
 10
42.7168654969
 20
350.3233893197
 11
42.1076195773
 21
350.3233893197
  0
LINE
  5
314
100
AcDbEntity
  8
7_ALL_FEATURES
100
AcDbLine
 62
7
  6
CONTINUOUS
 10
95.4983736578
 20
350.3233893197
 11
96.1076195773
 21
350.3233893197
  0
LINE
  5
315
100
AcDbEntity
  8
3_ALL_AXES
100
AcDbLine
 62
7
  6
CONTINUOUS
 10
42.1076195773
 20
350.6215239155
 11
41.6076195773
 21
350.6215239155
  0
LINE
  5
316
100
AcDbEntity
  8
3_ALL_AXES
100
AcDbLine
 62
7
  6
CONTINUOUS
 10
96.1076195773
 20
350.6215239155
 11
96.6076195773
 21
350.6215239155
  0
LINE
  5
317
100
AcDbEntity
  8
7_ALL_FEATURES
100
AcDbLine
 62
7
  6
CONTINUOUS
 10
42.8619231899
 20
350.9566005325
 11
42.1076195773
 21
350.9566005325
  0
LINE
  5
318
100
AcDbEntity
  8
7_ALL_FEATURES
100
AcDbLine
 62
7
  6
CONTINUOUS
 10
95.3533159647
 20
350.9566005325
 11
96.1076195773
 21
350.9566005325
  0
LINE
  5
319
100
AcDbEntity
  8
7_ALL_FEATURES
100
AcDbLine
 62
7
  6
CONTINUOUS
 10
42.8808689084
 20
351.0357491569
 11
42.1076195773
 21
351.0357491569
  0
LINE
  5
31A
100
AcDbEntity
  8
7_ALL_FEATURES
100
AcDbLine
 62
7
  6
CONTINUOUS
 10
95.3343702462
 20
351.0357491569
 11
96.1076195773
 21
351.0357491569
  0
LINE
  5
31B
100
AcDbEntity
  8
7_ALL_FEATURES
100
AcDbLine
 62
9
  6
CONTINUOUS
 10
91.1076195773
 20
289.6215239155
 11
91.1076195773
 21
291.6215239155
  0
LINE
  5
31C
100
AcDbEntity
  8
7_ALL_FEATURES
100
AcDbLine
 62
7
  6
CONTINUOUS
 10
43.0706350695
 20
351.7678136895
 11
42.1076195773
 21
351.7678136895
  0
LINE
  5
31D
100
AcDbEntity
  8
7_ALL_FEATURES
100
AcDbLine
 62
7
  6
CONTINUOUS
 10
95.1446040851
 20
351.7678136895
 11
96.1076195773
 21
351.7678136895
  0
LINE
  5
31E
100
AcDbEntity
  8
02___PRT_ALL_AXES
100
AcDbLine
 62
7
  6
CONTINUOUS
 10
41.5076195773
 20
352.1215239155
 11
40.8706699071
 21
352.1215239155
  0
LINE
  5
31F
100
AcDbEntity
  8
02___PRT_ALL_AXES
100
AcDbLine
 62
7
  6
CONTINUOUS
 10
96.7076195773
 20
352.1215239155
 11
97.3445692475
 21
352.1215239155
  0
LINE
  5
320
100
AcDbEntity
  8
7_ALL_FEATURES
100
AcDbLine
 62
7
  6
CONTINUOUS
 10
43.2273826087
 20
352.3144129999
 11
42.1076195773
 21
352.3144129999
  0
LINE
  5
321
100
AcDbEntity
  8
7_ALL_FEATURES
100
AcDbLine
 62
7
  6
CONTINUOUS
 10
94.987856546
 20
352.3144129999
 11
96.1076195773
 21
352.3144129999
  0
LINE
  5
322
100
AcDbEntity
  8
7_ALL_FEATURES
100
AcDbLine
 62
7
  6
CONTINUOUS
 10
43.4395389056
 20
352.9951016607
 11
42.1076195773
 21
352.9951016607
  0
LINE
  5
323
100
AcDbEntity
  8
7_ALL_FEATURES
100
AcDbLine
 62
7
  6
CONTINUOUS
 10
94.775700249
 20
352.9951016607
 11
96.1076195773
 21
352.9951016607
  0
LINE
  5
324
100
AcDbEntity
  8
7_ALL_FEATURES
100
AcDbLine
 62
7
  6
CONTINUOUS
 10
43.5882430235
 20
353.4384809252
 11
42.1076195773
 21
353.4384809252
  0
LINE
  5
325
100
AcDbEntity
  8
7_ALL_FEATURES
100
AcDbLine
 62
7
  6
CONTINUOUS
 10
94.6269961311
 20
353.4384809252
 11
96.1076195773
 21
353.4384809252
  0
LINE
  5
326
100
AcDbEntity
  8
7_ALL_FEATURES
100
AcDbLine
 62
7
  6
CONTINUOUS
 10
43.7774979687
 20
353.9679627094
 11
42.1076195773
 21
353.9679627094
  0
LINE
  5
327
100
AcDbEntity
  8
7_ALL_FEATURES
100
AcDbLine
 62
7
  6
CONTINUOUS
 10
94.4377411859
 20
353.9679627094
 11
96.1076195773
 21
353.9679627094
  0
LINE
  5
328
100
AcDbEntity
  8
7_ALL_FEATURES
100
AcDbLine
 62
7
  6
CONTINUOUS
 10
43.9004092466
 20
354.2946500734
 11
42.1076195773
 21
354.2946500734
  0
LINE
  5
329
100
AcDbEntity
  8
7_ALL_FEATURES
100
AcDbLine
 62
7
  6
CONTINUOUS
 10
94.314829908
 20
354.2946500734
 11
96.1076195773
 21
354.2946500734
  0
LINE
  5
32A
100
AcDbEntity
  8
7_ALL_FEATURES
100
AcDbLine
 62
7
  6
CONTINUOUS
 10
44.0424641053
 20
354.6568369448
 11
42.1076195773
 21
354.6568369448
  0
LINE
  5
32B
100
AcDbEntity
  8
7_ALL_FEATURES
100
AcDbLine
 62
7
  6
CONTINUOUS
 10
94.1727750494
 20
354.6568369448
 11
96.1076195773
 21
354.6568369448
  0
LINE
  5
32C
100
AcDbEntity
  8
7_ALL_FEATURES
100
AcDbLine
 62
7
  6
CONTINUOUS
 10
44.1076195773
 20
354.8569061781
 11
42.1076195773
 21
354.8569061781
  0
LINE
  5
32D
100
AcDbEntity
  8
7_ALL_FEATURES
100
AcDbLine
 62
7
  6
CONTINUOUS
 10
94.1076195773
 20
354.8569061781
 11
96.1076195773
 21
354.8569061781
  0
LINE
  5
32E
100
AcDbEntity
  8
7_ALL_FEATURES
100
AcDbLine
 62
3
  6
CONTINUOUS
 10
94.1076195773
 20
355.0985051553
 11
94.1076195773
 21
354.8187278326
  0
LINE
  5
32F
100
AcDbEntity
  8
7_ALL_FEATURES
100
AcDbLine
 62
3
  6
CONTINUOUS
 10
94.1076195773
 20
294.6215239155
 11
94.1076195773
 21
334.4243199983
  0
LINE
  5
330
100
AcDbEntity
  8
7_ALL_FEATURES
100
AcDbLine
 62
7
  6
CONTINUOUS
 10
96.1076195773
 20
355.0985051553
 11
96.1076195773
 21
344.7715239155
  0
LINE
  5
331
100
AcDbEntity
  8
7_ALL_FEATURES
100
AcDbLine
 62
7
  6
CONTINUOUS
 10
96.1076195773
 20
344.4715239155
 11
96.1076195773
 21
294.6215239155
  0
LINE
  5
332
100
AcDbEntity
  8
7_ALL_FEATURES
100
AcDbLine
 62
7
  6
CONTINUOUS
 10
96.6076195773
 20
337.2215239155
 11
96.6076195773
 21
352.0215239078
  0
LINE
  5
333
100
AcDbEntity
  8
7_ALL_FEATURES
100
AcDbLine
 62
9
  6
CONTINUOUS
 10
96.7076195773
 20
337.1215239155
 11
96.7076195773
 21
352.1215239155
  0
LINE
  5
334
100
AcDbEntity
  8
7_ALL_FEATURES
100
AcDbLine
 62
7
  6
CONTINUOUS
 10
99.4716289204
 20
341.2718336548
 11
98.0435727511
 21
337.5996892196
  0
LINE
  5
335
100
AcDbEntity
  8
7_ALL_FEATURES
100
AcDbLine
 62
7
  6
CONTINUOUS
 10
44.1076195773
 20
355.040793272
 11
42.1076195773
 21
355.040793272
  0
LINE
  5
336
100
AcDbEntity
  8
7_ALL_FEATURES
100
AcDbLine
 62
7
  6
CONTINUOUS
 10
94.1076195773
 20
355.040793272
 11
96.1076195773
 21
355.040793272
  0
LINE
  5
337
100
AcDbEntity
  8
7_ALL_FEATURES
100
AcDbLine
 62
7
  6
CONTINUOUS
 10
44.1076195773
 20
355.0985051553
 11
42.1076195773
 21
355.0985051553
  0
LINE
  5
338
100
AcDbEntity
  8
7_ALL_FEATURES
100
AcDbLine
 62
7
  6
CONTINUOUS
 10
94.1076195773
 20
355.0985051553
 11
96.1076195773
 21
355.0985051553
  0
LINE
  5
339
100
AcDbEntity
  8
7_ALL_FEATURES
100
AcDbLine
 62
9
  6
CONTINUOUS
 10
97.3445692475
 20
337.1215239155
 11
97.3445692475
 21
352.1215239155
  0
LINE
  5
33A
100
AcDbEntity
  8
7_ALL_FEATURES
100
AcDbLine
 62
9
  6
CONTINUOUS
 10
98.0435727511
 20
337.5996892196
 11
98.0435727511
 21
351.6433586113
  0
LINE
  5
33B
100
AcDbEntity
  8
7_ALL_FEATURES
100
AcDbLine
 62
9
  6
CONTINUOUS
 10
99.4716289204
 20
347.9712141761
 11
99.4716289204
 21
341.2718336548
  0
LINE
  5
33C
100
AcDbEntity
  8
7_ALL_FEATURES
100
AcDbLine
 62
7
  6
CONTINUOUS
 10
99.6076195773
 20
341.9967261771
 11
99.6076195773
 21
347.2463216538
  0
LINE
  5
33D
100
AcDbEntity
  8
7_ALL_FEATURES
100
AcDbLine
 62
7
  6
CONTINUOUS
 10
99.4716289204
 20
347.9712141761
 11
98.0435727511
 21
351.6433586113
  0
LINE
  5
33E
100
AcDbEntity
  8
7_ALL_FEATURES
100
AcDbLine
 62
7
  6
CONTINUOUS
 10
42.1076195773
 20
116.7357862903
 11
42.4076195773
 21
116.4357862903
  0
LINE
  5
33F
100
AcDbEntity
  8
7_ALL_FEATURES
100
AcDbLine
 62
7
  6
CONTINUOUS
 10
42.4076195773
 20
116.4357862903
 11
95.8076195773
 21
116.4357862903
  0
LINE
  5
340
100
AcDbEntity
  8
7_ALL_FEATURES
100
AcDbLine
 62
7
  6
CONTINUOUS
 10
42.1076195773
 20
116.7357862903
 11
96.1076195773
 21
116.7357862903
  0
LINE
  5
341
100
AcDbEntity
  8
7_ALL_FEATURES
100
AcDbLine
 62
7
  6
CONTINUOUS
 10
40.1716664035
 20
170.6576209862
 11
38.7436102342
 21
166.985476551
  0
LINE
  5
342
100
AcDbEntity
  8
7_ALL_FEATURES
100
AcDbLine
 62
7
  6
CONTINUOUS
 10
38.6076195773
 20
161.010988552
 11
38.6076195773
 21
166.2605840287
  0
LINE
  5
343
100
AcDbEntity
  8
7_ALL_FEATURES
100
AcDbLine
 62
9
  6
CONTINUOUS
 10
38.7436102342
 20
160.2860960297
 11
38.7436102342
 21
166.985476551
  0
LINE
  5
344
100
AcDbEntity
  8
7_ALL_FEATURES
100
AcDbLine
 62
9
  6
CONTINUOUS
 10
40.1716664035
 20
170.6576209862
 11
40.1716664035
 21
156.6139515945
  0
LINE
  5
345
100
AcDbEntity
  8
7_ALL_FEATURES
100
AcDbLine
 62
9
  6
CONTINUOUS
 10
40.8706699071
 20
171.1357862903
 11
40.8706699071
 21
156.1357862903
  0
LINE
  5
346
100
AcDbEntity
  8
7_ALL_FEATURES
100
AcDbLine
 62
9
  6
CONTINUOUS
 10
41.5076195773
 20
171.1357862903
 11
41.5076195773
 21
156.1357862903
  0
LINE
  5
347
100
AcDbEntity
  8
7_ALL_FEATURES
100
AcDbLine
 62
7
  6
CONTINUOUS
 10
40.1716664035
 20
156.6139515945
 11
38.7436102342
 21
160.2860960297
  0
LINE
  5
348
100
AcDbEntity
  8
7_ALL_FEATURES
100
AcDbLine
 62
7
  6
CONTINUOUS
 10
41.6076195773
 20
171.0357862903
 11
41.6076195773
 21
156.2357862903
  0
LINE
  5
349
100
AcDbEntity
  8
7_ALL_FEATURES
100
AcDbLine
 62
7
  6
CONTINUOUS
 10
42.1076195773
 20
116.7357862903
 11
42.1076195773
 21
147.3357862903
  0
LINE
  5
34A
100
AcDbEntity
  8
7_ALL_FEATURES
100
AcDbLine
 62
7
  6
CONTINUOUS
 10
42.1076195773
 20
153.1588050505
 11
42.1076195773
 21
202.1313346553
  0
LINE
  5
34B
100
AcDbEntity
  8
7_ALL_FEATURES
100
AcDbLine
 62
7
  6
CONTINUOUS
 10
42.109275275
 20
152.6357862903
 11
42.109275275
 21
147.9357862903
  0
LINE
  5
34C
100
AcDbEntity
  8
7_ALL_FEATURES
100
AcDbLine
 62
3
  6
CONTINUOUS
 10
44.1076195773
 20
153.1588050505
 11
44.1076195773
 21
202.1313346553
  0
LINE
  5
34D
100
AcDbEntity
  8
7_ALL_FEATURES
100
AcDbLine
 62
7
  6
CONTINUOUS
 10
45.1076195773
 20
152.6357862903
 11
45.1076195773
 21
174.6357862903
  0
LINE
  5
34E
100
AcDbEntity
  8
7_ALL_FEATURES
100
AcDbLine
 62
9
  6
CONTINUOUS
 10
47.1076195773
 20
202.1357862903
 11
47.1076195773
 21
177.1357862903
  0
LINE
  5
34F
100
AcDbEntity
  8
7_ALL_FEATURES
100
AcDbLine
 62
7
  6
CONTINUOUS
 10
42.4076195773
 20
147.6357862903
 11
42.1076195773
 21
147.3357862903
  0
LINE
  5
350
100
AcDbEntity
  8
7_ALL_FEATURES
100
AcDbLine
 62
7
  6
CONTINUOUS
 10
42.1076195773
 20
147.3357862903
 11
96.1076195773
 21
147.3357862903
  0
LINE
  5
351
100
AcDbEntity
  8
7_ALL_FEATURES
100
AcDbLine
 62
7
  6
CONTINUOUS
 10
42.4076195773
 20
147.6357862903
 11
95.8076195773
 21
147.6357862903
  0
LINE
  5
352
100
AcDbEntity
  8
7_ALL_FEATURES
100
AcDbLine
 62
7
  6
CONTINUOUS
 10
42.109275275
 20
147.9357862903
 11
96.1059638796
 21
147.9357862903
  0
LINE
  5
353
100
AcDbEntity
  8
7_ALL_FEATURES
100
AcDbLine
 62
7
  6
CONTINUOUS
 10
96.1059638796
 20
152.6357862903
 11
93.1076195773
 21
152.6357862903
  0
LINE
  5
354
100
AcDbEntity
  8
7_ALL_FEATURES
100
AcDbLine
 62
7
  6
CONTINUOUS
 10
42.109275275
 20
152.6357862903
 11
45.1076195773
 21
152.6357862903
  0
LINE
  5
355
100
AcDbEntity
  8
7_ALL_FEATURES
100
AcDbLine
 62
7
  6
CONTINUOUS
 10
44.1076195773
 20
153.1588050505
 11
42.1076195773
 21
153.1588050505
  0
LINE
  5
356
100
AcDbEntity
  8
7_ALL_FEATURES
100
AcDbLine
 62
7
  6
CONTINUOUS
 10
94.1076195773
 20
153.1588050505
 11
96.1076195773
 21
153.1588050505
  0
LINE
  5
357
100
AcDbEntity
  8
7_ALL_FEATURES
100
AcDbLine
 62
7
  6
CONTINUOUS
 10
44.1076195773
 20
153.2165169338
 11
42.1076195773
 21
153.2165169338
  0
LINE
  5
358
100
AcDbEntity
  8
7_ALL_FEATURES
100
AcDbLine
 62
7
  6
CONTINUOUS
 10
94.1076195773
 20
153.2165169338
 11
96.1076195773
 21
153.2165169338
  0
LINE
  5
359
100
AcDbEntity
  8
7_ALL_FEATURES
100
AcDbLine
 62
7
  6
CONTINUOUS
 10
44.1076195773
 20
153.4004040277
 11
42.1076195773
 21
153.4004040277
  0
LINE
  5
35A
100
AcDbEntity
  8
7_ALL_FEATURES
100
AcDbLine
 62
7
  6
CONTINUOUS
 10
94.1076195773
 20
153.4004040277
 11
96.1076195773
 21
153.4004040277
  0
LINE
  5
35B
100
AcDbEntity
  8
7_ALL_FEATURES
100
AcDbLine
 62
7
  6
CONTINUOUS
 10
44.1076195773
 20
153.600473261
 11
42.1076195773
 21
153.600473261
  0
LINE
  5
35C
100
AcDbEntity
  8
7_ALL_FEATURES
100
AcDbLine
 62
7
  6
CONTINUOUS
 10
94.1076195773
 20
153.600473261
 11
96.1076195773
 21
153.600473261
  0
LINE
  5
35D
100
AcDbEntity
  8
7_ALL_FEATURES
100
AcDbLine
 62
7
  6
CONTINUOUS
 10
44.1076195773
 20
153.9626601324
 11
42.1076195773
 21
153.9626601324
  0
LINE
  5
35E
100
AcDbEntity
  8
7_ALL_FEATURES
100
AcDbLine
 62
7
  6
CONTINUOUS
 10
94.1076195773
 20
153.9626601324
 11
96.1076195773
 21
153.9626601324
  0
LINE
  5
35F
100
AcDbEntity
  8
7_ALL_FEATURES
100
AcDbLine
 62
7
  6
CONTINUOUS
 10
44.1076195773
 20
154.2893474964
 11
42.1076195773
 21
154.2893474964
  0
LINE
  5
360
100
AcDbEntity
  8
7_ALL_FEATURES
100
AcDbLine
 62
7
  6
CONTINUOUS
 10
94.1076195773
 20
154.2893474964
 11
96.1076195773
 21
154.2893474964
  0
LINE
  5
361
100
AcDbEntity
  8
7_ALL_FEATURES
100
AcDbLine
 62
7
  6
CONTINUOUS
 10
44.1076195773
 20
154.8188292806
 11
42.1076195773
 21
154.8188292806
  0
LINE
  5
362
100
AcDbEntity
  8
7_ALL_FEATURES
100
AcDbLine
 62
7
  6
CONTINUOUS
 10
94.1076195773
 20
154.8188292806
 11
96.1076195773
 21
154.8188292806
  0
LINE
  5
363
100
AcDbEntity
  8
7_ALL_FEATURES
100
AcDbLine
 62
7
  6
CONTINUOUS
 10
44.1076195773
 20
155.262208545
 11
42.1076195773
 21
155.262208545
  0
LINE
  5
364
100
AcDbEntity
  8
7_ALL_FEATURES
100
AcDbLine
 62
7
  6
CONTINUOUS
 10
94.1076195773
 20
155.262208545
 11
96.1076195773
 21
155.262208545
  0
LINE
  5
365
100
AcDbEntity
  8
3_ALL_AXES
100
AcDbLine
 62
7
  6
CONTINUOUS
 10
45.1076195773
 20
155.8357862903
 11
45.0360833506
 21
155.8357862903
  0
LINE
  5
366
100
AcDbEntity
  8
7_ALL_FEATURES
100
AcDbLine
 62
7
  6
CONTINUOUS
 10
44.1076195773
 20
155.9428972059
 11
42.1076195773
 21
155.9428972059
  0
LINE
  5
367
100
AcDbEntity
  8
7_ALL_FEATURES
100
AcDbLine
 62
7
  6
CONTINUOUS
 10
94.1076195773
 20
155.9428972059
 11
96.1076195773
 21
155.9428972059
  0
LINE
  5
368
100
AcDbEntity
  8
7_ALL_FEATURES
100
AcDbLine
 62
7
  6
CONTINUOUS
 10
97.3445692475
 20
156.1357862903
 11
96.7076195773
 21
156.1357862903
  0
LINE
  5
369
100
AcDbEntity
  8
7_ALL_FEATURES
100
AcDbLine
 62
7
  6
CONTINUOUS
 10
40.8706699071
 20
156.1357862903
 11
41.5076195773
 21
156.1357862903
  0
LINE
  5
36A
100
AcDbEntity
  8
3_ALL_AXES
100
AcDbLine
 62
7
  6
CONTINUOUS
 10
45.0360833506
 20
156.4357862903
 11
45.1076195773
 21
156.4357862903
  0
LINE
  5
36B
100
AcDbEntity
  8
7_ALL_FEATURES
100
AcDbLine
 62
7
  6
CONTINUOUS
 10
44.1076195773
 20
156.4894965162
 11
42.1076195773
 21
156.4894965162
  0
LINE
  5
36C
100
AcDbEntity
  8
7_ALL_FEATURES
100
AcDbLine
 62
7
  6
CONTINUOUS
 10
94.1076195773
 20
156.4894965162
 11
96.1076195773
 21
156.4894965162
  0
LINE
  5
36D
100
AcDbEntity
  8
7_ALL_FEATURES
100
AcDbLine
 62
7
  6
CONTINUOUS
 10
44.1076195773
 20
157.2215610489
 11
42.1076195773
 21
157.2215610489
  0
LINE
  5
36E
100
AcDbEntity
  8
7_ALL_FEATURES
100
AcDbLine
 62
7
  6
CONTINUOUS
 10
94.1076195773
 20
157.2215610489
 11
96.1076195773
 21
157.2215610489
  0
LINE
  5
36F
100
AcDbEntity
  8
7_ALL_FEATURES
100
AcDbLine
 62
7
  6
CONTINUOUS
 10
44.1076195773
 20
157.3007096733
 11
42.1076195773
 21
157.3007096733
  0
LINE
  5
370
100
AcDbEntity
  8
7_ALL_FEATURES
100
AcDbLine
 62
7
  6
CONTINUOUS
 10
94.1076195773
 20
157.3007096733
 11
96.1076195773
 21
157.3007096733
  0
LINE
  5
371
100
AcDbEntity
  8
3_ALL_AXES
100
AcDbLine
 62
7
  6
CONTINUOUS
 10
45.1076195773
 20
157.6357862903
 11
44.1076195773
 21
157.6357862903
  0
LINE
  5
372
100
AcDbEntity
  8
3_ALL_AXES
100
AcDbLine
 62
7
  6
CONTINUOUS
 10
42.1076195773
 20
157.6357862903
 11
41.6076195773
 21
157.6357862903
  0
LINE
  5
373
100
AcDbEntity
  8
3_ALL_AXES
100
AcDbLine
 62
7
  6
CONTINUOUS
 10
93.1076195773
 20
157.6357862903
 11
94.1076195773
 21
157.6357862903
  0
LINE
  5
374
100
AcDbEntity
  8
3_ALL_AXES
100
AcDbLine
 62
7
  6
CONTINUOUS
 10
96.1076195773
 20
157.6357862903
 11
96.6076195773
 21
157.6357862903
  0
LINE
  5
375
100
AcDbEntity
  8
7_ALL_FEATURES
100
AcDbLine
 62
7
  6
CONTINUOUS
 10
44.1076195773
 20
157.933920886
 11
42.1076195773
 21
157.933920886
  0
LINE
  5
376
100
AcDbEntity
  8
7_ALL_FEATURES
100
AcDbLine
 62
7
  6
CONTINUOUS
 10
94.1076195773
 20
157.933920886
 11
96.1076195773
 21
157.933920886
  0
LINE
  5
377
100
AcDbEntity
  8
7_ALL_FEATURES
100
AcDbLine
 62
7
  6
CONTINUOUS
 10
44.1076195773
 20
158.6058824798
 11
42.1076195773
 21
158.6058824798
  0
LINE
  5
378
100
AcDbEntity
  8
7_ALL_FEATURES
100
AcDbLine
 62
7
  6
CONTINUOUS
 10
94.1076195773
 20
158.6058824798
 11
96.1076195773
 21
158.6058824798
  0
LINE
  5
379
100
AcDbEntity
  8
7_ALL_FEATURES
100
AcDbLine
 62
9
  6
CONTINUOUS
 10
44.1076195773
 20
158.7357862903
 11
42.1076195773
 21
158.7357862903
  0
LINE
  5
37A
100
AcDbEntity
  8
7_ALL_FEATURES
100
AcDbLine
 62
9
  6
CONTINUOUS
 10
94.1076195773
 20
158.7357862903
 11
96.1076195773
 21
158.7357862903
  0
LINE
  5
37B
100
AcDbEntity
  8
7_ALL_FEATURES
100
AcDbLine
 62
7
  6
CONTINUOUS
 10
44.1076195773
 20
158.851010238
 11
42.1076195773
 21
158.851010238
  0
LINE
  5
37C
100
AcDbEntity
  8
7_ALL_FEATURES
100
AcDbLine
 62
7
  6
CONTINUOUS
 10
94.1076195773
 20
158.851010238
 11
96.1076195773
 21
158.851010238
  0
LINE
  5
37D
100
AcDbEntity
  8
7_ALL_FEATURES
100
AcDbLine
 62
7
  6
CONTINUOUS
 10
44.1076195773
 20
159.5515935509
 11
42.1076195773
 21
159.5515935509
  0
LINE
  5
37E
100
AcDbEntity
  8
7_ALL_FEATURES
100
AcDbLine
 62
7
  6
CONTINUOUS
 10
94.1076195773
 20
159.5515935509
 11
96.1076195773
 21
159.5515935509
  0
LINE
  5
37F
100
AcDbEntity
  8
7_ALL_FEATURES
100
AcDbLine
 62
7
  6
CONTINUOUS
 10
44.1076195773
 20
160.1430349926
 11
42.1076195773
 21
160.1430349926
  0
LINE
  5
380
100
AcDbEntity
  8
7_ALL_FEATURES
100
AcDbLine
 62
7
  6
CONTINUOUS
 10
94.1076195773
 20
160.1430349926
 11
96.1076195773
 21
160.1430349926
  0
LINE
  5
381
100
AcDbEntity
  8
7_ALL_FEATURES
100
AcDbLine
 62
9
  6
CONTINUOUS
 10
44.1076195773
 20
160.2839888857
 11
42.1076195773
 21
160.2839888857
  0
LINE
  5
382
100
AcDbEntity
  8
7_ALL_FEATURES
100
AcDbLine
 62
9
  6
CONTINUOUS
 10
94.1076195773
 20
160.2839888857
 11
96.1076195773
 21
160.2839888857
  0
LINE
  5
383
100
AcDbEntity
  8
7_ALL_FEATURES
100
AcDbLine
 62
7
  6
CONTINUOUS
 10
44.1076195773
 20
160.4249427788
 11
42.1076195773
 21
160.4249427788
  0
LINE
  5
384
100
AcDbEntity
  8
7_ALL_FEATURES
100
AcDbLine
 62
7
  6
CONTINUOUS
 10
94.1076195773
 20
160.4249427788
 11
96.1076195773
 21
160.4249427788
  0
LINE
  5
385
100
AcDbEntity
  8
7_ALL_FEATURES
100
AcDbLine
 62
7
  6
CONTINUOUS
 10
44.1076195773
 20
160.5466938018
 11
42.1076195773
 21
160.5466938018
  0
LINE
  5
386
100
AcDbEntity
  8
7_ALL_FEATURES
100
AcDbLine
 62
7
  6
CONTINUOUS
 10
94.1076195773
 20
160.5466938018
 11
96.1076195773
 21
160.5466938018
  0
LINE
  5
387
100
AcDbEntity
  8
7_ALL_FEATURES
100
AcDbLine
 62
7
  6
CONTINUOUS
 10
44.1076195773
 20
161.2933623454
 11
42.1076195773
 21
161.2933623454
  0
LINE
  5
388
100
AcDbEntity
  8
7_ALL_FEATURES
100
AcDbLine
 62
7
  6
CONTINUOUS
 10
94.1076195773
 20
161.2933623454
 11
96.1076195773
 21
161.2933623454
  0
LINE
  5
389
100
AcDbEntity
  8
7_ALL_FEATURES
100
AcDbLine
 62
7
  6
CONTINUOUS
 10
44.1076195773
 20
161.7863129862
 11
42.1076195773
 21
161.7863129862
  0
LINE
  5
38A
100
AcDbEntity
  8
7_ALL_FEATURES
100
AcDbLine
 62
7
  6
CONTINUOUS
 10
94.1076195773
 20
161.7863129862
 11
96.1076195773
 21
161.7863129862
  0
LINE
  5
38B
100
AcDbEntity
  8
7_ALL_FEATURES
100
AcDbLine
 62
9
  6
CONTINUOUS
 10
44.1076195773
 20
161.9340341492
 11
42.1076195773
 21
161.9340341492
  0
LINE
  5
38C
100
AcDbEntity
  8
7_ALL_FEATURES
100
AcDbLine
 62
9
  6
CONTINUOUS
 10
94.1076195773
 20
161.9340341492
 11
96.1076195773
 21
161.9340341492
  0
LINE
  5
38D
100
AcDbEntity
  8
7_ALL_FEATURES
100
AcDbLine
 62
7
  6
CONTINUOUS
 10
44.1076195773
 20
162.0817553121
 11
42.1076195773
 21
162.0817553121
  0
LINE
  5
38E
100
AcDbEntity
  8
7_ALL_FEATURES
100
AcDbLine
 62
7
  6
CONTINUOUS
 10
94.1076195773
 20
162.0817553121
 11
96.1076195773
 21
162.0817553121
  0
LINE
  5
38F
100
AcDbEntity
  8
7_ALL_FEATURES
100
AcDbLine
 62
7
  6
CONTINUOUS
 10
44.1076195773
 20
162.3362378777
 11
42.1076195773
 21
162.3362378777
  0
LINE
  5
390
100
AcDbEntity
  8
7_ALL_FEATURES
100
AcDbLine
 62
7
  6
CONTINUOUS
 10
94.1076195773
 20
162.3362378777
 11
96.1076195773
 21
162.3362378777
  0
LINE
  5
391
100
AcDbEntity
  8
7_ALL_FEATURES
100
AcDbLine
 62
7
  6
CONTINUOUS
 10
44.1076195773
 20
162.9409020553
 11
42.1076195773
 21
162.9409020553
  0
LINE
  5
392
100
AcDbEntity
  8
7_ALL_FEATURES
100
AcDbLine
 62
7
  6
CONTINUOUS
 10
94.1076195773
 20
162.9409020553
 11
96.1076195773
 21
162.9409020553
  0
LINE
  5
393
100
AcDbEntity
  8
7_ALL_FEATURES
100
AcDbLine
 62
7
  6
CONTINUOUS
 10
44.1076195773
 20
163.4857862903
 11
42.1076195773
 21
163.4857862903
  0
LINE
  5
394
100
AcDbEntity
  8
7_ALL_FEATURES
100
AcDbLine
 62
7
  6
CONTINUOUS
 10
94.1076195773
 20
163.4857862903
 11
96.1076195773
 21
163.4857862903
  0
LINE
  5
395
100
AcDbEntity
  8
7_ALL_FEATURES
100
AcDbLine
 62
7
  6
CONTINUOUS
 10
44.1076195773
 20
163.7857862903
 11
42.1076195773
 21
163.7857862903
  0
LINE
  5
396
100
AcDbEntity
  8
7_ALL_FEATURES
100
AcDbLine
 62
7
  6
CONTINUOUS
 10
94.1076195773
 20
163.7857862903
 11
96.1076195773
 21
163.7857862903
  0
LINE
  5
397
100
AcDbEntity
  8
7_ALL_FEATURES
100
AcDbLine
 62
7
  6
CONTINUOUS
 10
44.1076195773
 20
164.3306705254
 11
42.1076195773
 21
164.3306705254
  0
LINE
  5
398
100
AcDbEntity
  8
7_ALL_FEATURES
100
AcDbLine
 62
7
  6
CONTINUOUS
 10
94.1076195773
 20
164.3306705254
 11
96.1076195773
 21
164.3306705254
  0
LINE
  5
399
100
AcDbEntity
  8
7_ALL_FEATURES
100
AcDbLine
 62
7
  6
CONTINUOUS
 10
44.1076195773
 20
164.935334703
 11
42.1076195773
 21
164.935334703
  0
LINE
  5
39A
100
AcDbEntity
  8
7_ALL_FEATURES
100
AcDbLine
 62
7
  6
CONTINUOUS
 10
94.1076195773
 20
164.935334703
 11
96.1076195773
 21
164.935334703
  0
LINE
  5
39B
100
AcDbEntity
  8
7_ALL_FEATURES
100
AcDbLine
 62
7
  6
CONTINUOUS
 10
44.1076195773
 20
165.1898172685
 11
42.1076195773
 21
165.1898172685
  0
LINE
  5
39C
100
AcDbEntity
  8
7_ALL_FEATURES
100
AcDbLine
 62
7
  6
CONTINUOUS
 10
94.1076195773
 20
165.1898172685
 11
96.1076195773
 21
165.1898172685
  0
LINE
  5
39D
100
AcDbEntity
  8
7_ALL_FEATURES
100
AcDbLine
 62
9
  6
CONTINUOUS
 10
44.1076195773
 20
165.3375384315
 11
42.1076195773
 21
165.3375384315
  0
LINE
  5
39E
100
AcDbEntity
  8
7_ALL_FEATURES
100
AcDbLine
 62
9
  6
CONTINUOUS
 10
94.1076195773
 20
165.3375384315
 11
96.1076195773
 21
165.3375384315
  0
LINE
  5
39F
100
AcDbEntity
  8
7_ALL_FEATURES
100
AcDbLine
 62
7
  6
CONTINUOUS
 10
44.1076195773
 20
165.4852595944
 11
42.1076195773
 21
165.4852595944
  0
LINE
  5
3A0
100
AcDbEntity
  8
7_ALL_FEATURES
100
AcDbLine
 62
7
  6
CONTINUOUS
 10
94.1076195773
 20
165.4852595944
 11
96.1076195773
 21
165.4852595944
  0
LINE
  5
3A1
100
AcDbEntity
  8
7_ALL_FEATURES
100
AcDbLine
 62
7
  6
CONTINUOUS
 10
44.1076195773
 20
165.9782102353
 11
42.1076195773
 21
165.9782102353
  0
LINE
  5
3A2
100
AcDbEntity
  8
7_ALL_FEATURES
100
AcDbLine
 62
7
  6
CONTINUOUS
 10
94.1076195773
 20
165.9782102353
 11
96.1076195773
 21
165.9782102353
  0
LINE
  5
3A3
100
AcDbEntity
  8
7_ALL_FEATURES
100
AcDbLine
 62
7
  6
CONTINUOUS
 10
44.1076195773
 20
166.7248787789
 11
42.1076195773
 21
166.7248787789
  0
LINE
  5
3A4
100
AcDbEntity
  8
7_ALL_FEATURES
100
AcDbLine
 62
7
  6
CONTINUOUS
 10
94.1076195773
 20
166.7248787789
 11
96.1076195773
 21
166.7248787789
  0
LINE
  5
3A5
100
AcDbEntity
  8
7_ALL_FEATURES
100
AcDbLine
 62
7
  6
CONTINUOUS
 10
44.1076195773
 20
166.8466298018
 11
42.1076195773
 21
166.8466298018
  0
LINE
  5
3A6
100
AcDbEntity
  8
7_ALL_FEATURES
100
AcDbLine
 62
7
  6
CONTINUOUS
 10
94.1076195773
 20
166.8466298018
 11
96.1076195773
 21
166.8466298018
  0
LINE
  5
3A7
100
AcDbEntity
  8
7_ALL_FEATURES
100
AcDbLine
 62
9
  6
CONTINUOUS
 10
44.1076195773
 20
166.9875836949
 11
42.1076195773
 21
166.9875836949
  0
LINE
  5
3A8
100
AcDbEntity
  8
7_ALL_FEATURES
100
AcDbLine
 62
9
  6
CONTINUOUS
 10
94.1076195773
 20
166.9875836949
 11
96.1076195773
 21
166.9875836949
  0
LINE
  5
3A9
100
AcDbEntity
  8
7_ALL_FEATURES
100
AcDbLine
 62
7
  6
CONTINUOUS
 10
44.1076195773
 20
167.128537588
 11
42.1076195773
 21
167.128537588
  0
LINE
  5
3AA
100
AcDbEntity
  8
7_ALL_FEATURES
100
AcDbLine
 62
7
  6
CONTINUOUS
 10
94.1076195773
 20
167.128537588
 11
96.1076195773
 21
167.128537588
  0
LINE
  5
3AB
100
AcDbEntity
  8
7_ALL_FEATURES
100
AcDbLine
 62
7
  6
CONTINUOUS
 10
44.1076195773
 20
167.7199790298
 11
42.1076195773
 21
167.7199790298
  0
LINE
  5
3AC
100
AcDbEntity
  8
7_ALL_FEATURES
100
AcDbLine
 62
7
  6
CONTINUOUS
 10
94.1076195773
 20
167.7199790298
 11
96.1076195773
 21
167.7199790298
  0
LINE
  5
3AD
100
AcDbEntity
  8
7_ALL_FEATURES
100
AcDbLine
 62
7
  6
CONTINUOUS
 10
44.1076195773
 20
168.4205623427
 11
42.1076195773
 21
168.4205623427
  0
LINE
  5
3AE
100
AcDbEntity
  8
7_ALL_FEATURES
100
AcDbLine
 62
7
  6
CONTINUOUS
 10
94.1076195773
 20
168.4205623427
 11
96.1076195773
 21
168.4205623427
  0
LINE
  5
3AF
100
AcDbEntity
  8
7_ALL_FEATURES
100
AcDbLine
 62
9
  6
CONTINUOUS
 10
44.1076195773
 20
168.5357862903
 11
42.1076195773
 21
168.5357862903
  0
LINE
  5
3B0
100
AcDbEntity
  8
7_ALL_FEATURES
100
AcDbLine
 62
9
  6
CONTINUOUS
 10
94.1076195773
 20
168.5357862903
 11
96.1076195773
 21
168.5357862903
  0
LINE
  5
3B1
100
AcDbEntity
  8
7_ALL_FEATURES
100
AcDbLine
 62
7
  6
CONTINUOUS
 10
44.1076195773
 20
168.6656901009
 11
42.1076195773
 21
168.6656901009
  0
LINE
  5
3B2
100
AcDbEntity
  8
7_ALL_FEATURES
100
AcDbLine
 62
7
  6
CONTINUOUS
 10
94.1076195773
 20
168.6656901009
 11
96.1076195773
 21
168.6656901009
  0
LINE
  5
3B3
100
AcDbEntity
  8
7_ALL_FEATURES
100
AcDbLine
 62
7
  6
CONTINUOUS
 10
44.1076195773
 20
169.3376516946
 11
42.1076195773
 21
169.3376516946
  0
LINE
  5
3B4
100
AcDbEntity
  8
7_ALL_FEATURES
100
AcDbLine
 62
7
  6
CONTINUOUS
 10
94.1076195773
 20
169.3376516946
 11
96.1076195773
 21
169.3376516946
  0
LINE
  5
3B5
100
AcDbEntity
  8
3_ALL_AXES
100
AcDbLine
 62
7
  6
CONTINUOUS
 10
45.1076195773
 20
169.6357862903
 11
44.1076195773
 21
169.6357862903
  0
LINE
  5
3B6
100
AcDbEntity
  8
3_ALL_AXES
100
AcDbLine
 62
7
  6
CONTINUOUS
 10
42.1076195773
 20
169.6357862903
 11
41.6076195773
 21
169.6357862903
  0
LINE
  5
3B7
100
AcDbEntity
  8
3_ALL_AXES
100
AcDbLine
 62
7
  6
CONTINUOUS
 10
93.1076195773
 20
169.6357862903
 11
94.1076195773
 21
169.6357862903
  0
LINE
  5
3B8
100
AcDbEntity
  8
3_ALL_AXES
100
AcDbLine
 62
7
  6
CONTINUOUS
 10
96.1076195773
 20
169.6357862903
 11
96.6076195773
 21
169.6357862903
  0
LINE
  5
3B9
100
AcDbEntity
  8
7_ALL_FEATURES
100
AcDbLine
 62
7
  6
CONTINUOUS
 10
44.1076195773
 20
169.9708629074
 11
42.1076195773
 21
169.9708629074
  0
LINE
  5
3BA
100
AcDbEntity
  8
7_ALL_FEATURES
100
AcDbLine
 62
7
  6
CONTINUOUS
 10
94.1076195773
 20
169.9708629074
 11
96.1076195773
 21
169.9708629074
  0
LINE
  5
3BB
100
AcDbEntity
  8
7_ALL_FEATURES
100
AcDbLine
 62
7
  6
CONTINUOUS
 10
44.1076195773
 20
170.0500115317
 11
42.1076195773
 21
170.0500115317
  0
LINE
  5
3BC
100
AcDbEntity
  8
7_ALL_FEATURES
100
AcDbLine
 62
7
  6
CONTINUOUS
 10
94.1076195773
 20
170.0500115317
 11
96.1076195773
 21
170.0500115317
  0
LINE
  5
3BD
100
AcDbEntity
  8
7_ALL_FEATURES
100
AcDbLine
 62
7
  6
CONTINUOUS
 10
95.8076195773
 20
147.6357862903
 11
96.1076195773
 21
147.3357862903
  0
LINE
  5
3BE
100
AcDbEntity
  8
7_ALL_FEATURES
100
AcDbLine
 62
7
  6
CONTINUOUS
 10
44.1076195773
 20
170.7820760644
 11
42.1076195773
 21
170.7820760644
  0
LINE
  5
3BF
100
AcDbEntity
  8
7_ALL_FEATURES
100
AcDbLine
 62
7
  6
CONTINUOUS
 10
94.1076195773
 20
170.7820760644
 11
96.1076195773
 21
170.7820760644
  0
LINE
  5
3C0
100
AcDbEntity
  8
7_ALL_FEATURES
100
AcDbLine
 62
7
  6
CONTINUOUS
 10
97.3445692475
 20
171.1357862903
 11
96.7076195773
 21
171.1357862903
  0
LINE
  5
3C1
100
AcDbEntity
  8
7_ALL_FEATURES
100
AcDbLine
 62
7
  6
CONTINUOUS
 10
40.8706699071
 20
171.1357862903
 11
41.5076195773
 21
171.1357862903
  0
LINE
  5
3C2
100
AcDbEntity
  8
7_ALL_FEATURES
100
AcDbLine
 62
7
  6
CONTINUOUS
 10
44.1076195773
 20
171.3286753747
 11
42.1076195773
 21
171.3286753747
  0
LINE
  5
3C3
100
AcDbEntity
  8
7_ALL_FEATURES
100
AcDbLine
 62
7
  6
CONTINUOUS
 10
94.1076195773
 20
171.3286753747
 11
96.1076195773
 21
171.3286753747
  0
LINE
  5
3C4
100
AcDbEntity
  8
7_ALL_FEATURES
100
AcDbLine
 62
7
  6
CONTINUOUS
 10
44.1076195773
 20
172.0093640356
 11
42.1076195773
 21
172.0093640356
  0
LINE
  5
3C5
100
AcDbEntity
  8
7_ALL_FEATURES
100
AcDbLine
 62
7
  6
CONTINUOUS
 10
94.1076195773
 20
172.0093640356
 11
96.1076195773
 21
172.0093640356
  0
LINE
  5
3C6
100
AcDbEntity
  8
7_ALL_FEATURES
100
AcDbLine
 62
9
  6
CONTINUOUS
 10
96.1076195773
 20
172.6980758501
 11
94.1076195773
 21
172.6980758501
  0
LINE
  5
3C7
100
AcDbEntity
  8
7_ALL_FEATURES
100
AcDbLine
 62
9
  6
CONTINUOUS
 10
42.1076195773
 20
172.6980758501
 11
44.1076195773
 21
172.6980758501
  0
LINE
  5
3C8
100
AcDbEntity
  8
7_ALL_FEATURES
100
AcDbLine
 62
7
  6
CONTINUOUS
 10
45.1076195773
 20
174.1357862903
 11
93.1076195773
 21
174.1357862903
  0
LINE
  5
3C9
100
AcDbEntity
  8
7_ALL_FEATURES
100
AcDbLine
 62
7
  6
CONTINUOUS
 10
45.1076195773
 20
174.6357862903
 11
93.1076195773
 21
174.6357862903
  0
LINE
  5
3CA
100
AcDbEntity
  8
7_ALL_FEATURES
100
AcDbLine
 62
3
  6
CONTINUOUS
 10
44.1076195773
 20
177.1357862903
 11
94.1076195773
 21
177.1357862903
  0
LINE
  5
3CB
100
AcDbEntity
  8
7_ALL_FEATURES
100
AcDbLine
 62
9
  6
CONTINUOUS
 10
91.1076195773
 20
177.1357862903
 11
91.1076195773
 21
202.1357862903
  0
LINE
  5
3CC
100
AcDbEntity
  8
7_ALL_FEATURES
100
AcDbLine
 62
7
  6
CONTINUOUS
 10
93.1076195773
 20
174.6357862903
 11
93.1076195773
 21
152.6357862903
  0
LINE
  5
3CD
100
AcDbEntity
  8
7_ALL_FEATURES
100
AcDbLine
 62
3
  6
CONTINUOUS
 10
94.1076195773
 20
153.1588050505
 11
94.1076195773
 21
202.1313346553
  0
LINE
  5
3CE
100
AcDbEntity
  8
7_ALL_FEATURES
100
AcDbLine
 62
7
  6
CONTINUOUS
 10
96.1059638796
 20
152.6357862903
 11
96.1059638796
 21
147.9357862903
  0
LINE
  5
3CF
100
AcDbEntity
  8
7_ALL_FEATURES
100
AcDbLine
 62
7
  6
CONTINUOUS
 10
96.1076195773
 20
202.1313346553
 11
96.1076195773
 21
153.1588050505
  0
LINE
  5
3D0
100
AcDbEntity
  8
7_ALL_FEATURES
100
AcDbLine
 62
7
  6
CONTINUOUS
 10
96.1076195773
 20
147.3357862903
 11
96.1076195773
 21
116.7357862903
  0
LINE
  5
3D1
100
AcDbEntity
  8
7_ALL_FEATURES
100
AcDbLine
 62
7
  6
CONTINUOUS
 10
96.6076195773
 20
156.2357862903
 11
96.6076195773
 21
171.0357862903
  0
LINE
  5
3D2
100
AcDbEntity
  8
7_ALL_FEATURES
100
AcDbLine
 62
9
  6
CONTINUOUS
 10
96.7076195773
 20
156.1357862903
 11
96.7076195773
 21
171.1357862903
  0
LINE
  5
3D3
100
AcDbEntity
  8
7_ALL_FEATURES
100
AcDbLine
 62
9
  6
CONTINUOUS
 10
97.3445692475
 20
156.1357862903
 11
97.3445692475
 21
171.1357862903
  0
LINE
  5
3D4
100
AcDbEntity
  8
7_ALL_FEATURES
100
AcDbLine
 62
7
  6
CONTINUOUS
 10
98.0435727511
 20
156.6139515945
 11
99.4716289204
 21
160.2860960297
  0
LINE
  5
3D5
100
AcDbEntity
  8
7_ALL_FEATURES
100
AcDbLine
 62
9
  6
CONTINUOUS
 10
98.0435727511
 20
156.6139515945
 11
98.0435727511
 21
170.6576209862
  0
LINE
  5
3D6
100
AcDbEntity
  8
7_ALL_FEATURES
100
AcDbLine
 62
9
  6
CONTINUOUS
 10
99.4716289204
 20
166.985476551
 11
99.4716289204
 21
160.2860960297
  0
LINE
  5
3D7
100
AcDbEntity
  8
7_ALL_FEATURES
100
AcDbLine
 62
7
  6
CONTINUOUS
 10
99.6076195773
 20
166.2605840287
 11
99.6076195773
 21
161.010988552
  0
LINE
  5
3D8
100
AcDbEntity
  8
7_ALL_FEATURES
100
AcDbLine
 62
7
  6
CONTINUOUS
 10
98.0435727511
 20
170.6576209862
 11
99.4716289204
 21
166.985476551
  0
LINE
  5
3D9
100
AcDbEntity
  8
7_ALL_FEATURES
100
AcDbLine
 62
9
  6
CONTINUOUS
 10
44.1076195773
 20
199.3972902137
 11
42.1076195773
 21
199.3972902137
  0
LINE
  5
3DA
100
AcDbEntity
  8
7_ALL_FEATURES
100
AcDbLine
 62
9
  6
CONTINUOUS
 10
94.1076195773
 20
199.3972902137
 11
96.1076195773
 21
199.3972902137
  0
LINE
  5
3DB
100
AcDbEntity
  8
7_ALL_FEATURES
100
AcDbLine
 62
7
  6
CONTINUOUS
 10
44.1076195773
 20
202.1357862903
 11
42.1254559495
 21
202.1357862903
  0
LINE
  5
3DC
100
AcDbEntity
  8
7_ALL_FEATURES
100
AcDbLine
 62
3
  6
CONTINUOUS
 10
44.1374420718
 20
202.1357862903
 11
94.0777970828
 21
202.1357862903
  0
LINE
  5
3DD
100
AcDbEntity
  8
7_ALL_FEATURES
100
AcDbLine
 62
7
  6
CONTINUOUS
 10
94.1076195773
 20
202.1357862903
 11
96.0897832051
 21
202.1357862903
  0
LINE
  5
3DE
100
AcDbEntity
  8
7_ALL_FEATURES
100
AcDbLine
 62
7
  6
CONTINUOUS
 10
96.1076195773
 20
116.7357862903
 11
95.8076195773
 21
116.4357862903
  0
LINE
  5
3DF
100
AcDbEntity
  8
7_ALL_FEATURES
100
AcDbLine
 62
7
  6
CONTINUOUS
 10
182.0267380423
 20
294.1995694324
 11
182.0267380423
 21
289.6215239155
  0
LINE
  5
3E0
100
AcDbEntity
  8
7_ALL_FEATURES
100
AcDbLine
 62
7
  6
CONTINUOUS
 10
209.5267380423
 20
371.1215239155
 11
210.0267380423
 21
371.6215239155
  0
LINE
  5
3E1
100
AcDbEntity
  8
7_ALL_FEATURES
100
AcDbLine
 62
7
  6
CONTINUOUS
 10
182.0267380423
 20
289.6215239155
 11
207.0267380423
 21
289.6215239155
  0
LINE
  5
3E2
100
AcDbEntity
  8
7_ALL_FEATURES
100
AcDbLine
 62
9
  6
CONTINUOUS
 10
182.0311896773
 20
294.6215239155
 11
207.0267380423
 21
294.6215239155
  0
LINE
  5
3E3
100
AcDbEntity
  8
7_ALL_FEATURES
100
AcDbLine
 62
7
  6
CONTINUOUS
 10
214.1125128009
 20
352.0323413166
 11
214.3423261338
 21
352.2251775995
  0
LINE
  5
3E4
100
AcDbEntity
  8
7_ALL_FEATURES
100
AcDbLine
 62
7
  6
CONTINUOUS
 10
215.4968342317
 20
353.0335728725
 11
215.7566418528
 21
353.1835728725
  0
LINE
  5
3E5
100
AcDbEntity
  8
7_ALL_FEATURES
100
AcDbLine
 62
7
  6
CONTINUOUS
 10
217.0339867446
 20
353.7792085777
 11
217.3158945308
 21
353.8818146207
  0
LINE
  5
3E6
100
AcDbEntity
  8
7_ALL_FEATURES
100
AcDbLine
 62
7
  6
CONTINUOUS
 10
211.4644484825
 20
349.9248160944
 11
184.7652341189
 21
304.3010783446
  0
LINE
  5
3E7
100
AcDbEntity
  8
7_ALL_FEATURES
100
AcDbLine
 62
7
  6
CONTINUOUS
 10
212.9230843583
 20
350.8059358239
 11
213.1159206412
 21
351.0357491569
  0
LINE
  5
3E8
100
AcDbEntity
  8
7_ALL_FEATURES
100
AcDbLine
 62
7
  6
CONTINUOUS
 10
236.5267380423
 20
371.3215239155
 11
236.8267380423
 21
371.6215239155
  0
LINE
  5
3E9
100
AcDbEntity
  8
5_ALL_CURVES
100
AcDbLine
 62
40
  6
CONTINUOUS
 10
219.9829880467
 20
353.1683324444
 11
219.9267380467
 21
353.1172686207
  0
LINE
  5
3EA
100
AcDbEntity
  8
5_ALL_CURVES
100
AcDbLine
 62
40
  6
CONTINUOUS
 10
220.2267380423
 20
352.7087579595
 11
220.2829880423
 21
352.7598217832
  0
LINE
  5
3EB
100
AcDbEntity
  8
5_ALL_CURVES
100
AcDbLine
 62
40
  6
CONTINUOUS
 10
220.8454880423
 20
353.1683324444
 11
220.7892380423
 21
353.1172686207
  0
LINE
  5
3EC
100
AcDbEntity
  8
5_ALL_CURVES
100
AcDbLine
 62
40
  6
CONTINUOUS
 10
220.2454880244
 20
352.5810984003
 11
220.3579880244
 21
352.6832260477
  0
LINE
  5
3ED
100
AcDbEntity
  8
5_ALL_CURVES
100
AcDbLine
 62
40
  6
CONTINUOUS
 10
219.9642380378
 20
353.2959920036
 11
219.87048804
 21
353.2193962681
  0
LINE
  5
3EE
100
AcDbEntity
  8
5_ALL_CURVES
100
AcDbLine
 62
40
  6
CONTINUOUS
 10
220.8267380065
 20
353.2959920036
 11
220.7329880423
 21
353.2193962681
  0
LINE
  5
3EF
100
AcDbEntity
  8
5_ALL_CURVES
100
AcDbLine
 62
40
  6
CONTINUOUS
 10
220.2454880244
 20
352.1470558295
 11
220.3392380423
 21
352.2236515718
  0
LINE
  5
3F0
100
AcDbEntity
  8
5_ALL_CURVES
100
AcDbLine
 62
40
  6
CONTINUOUS
 10
220.0392380333
 20
353.1938643562
 11
219.9829880467
 21
353.1683324444
  0
LINE
  5
3F1
100
AcDbEntity
  8
5_ALL_CURVES
100
AcDbLine
 62
40
  6
CONTINUOUS
 10
220.1704880423
 20
352.6832260477
 11
220.2267380423
 21
352.7087579595
  0
LINE
  5
3F2
100
AcDbEntity
  8
5_ALL_CURVES
100
AcDbLine
 62
40
  6
CONTINUOUS
 10
220.2267380423
 20
352.2747154044
 11
220.1704880423
 21
352.2491834926
  0
LINE
  5
3F3
100
AcDbEntity
  8
7_ALL_FEATURES
100
AcDbLine
 62
7
  6
CONTINUOUS
 10
207.0267380423
 20
289.6215239155
 11
207.0267380423
 21
295.552477927
  0
LINE
  5
3F4
100
AcDbEntity
  8
7_ALL_FEATURES
100
AcDbLine
 62
7
  6
CONTINUOUS
 10
209.5267380423
 20
346.6136477672
 11
209.5267380423
 21
371.1215221266
  0
LINE
  5
3F5
100
AcDbEntity
  8
5_ALL_CURVES
100
AcDbLine
 62
40
  6
CONTINUOUS
 10
219.87048804
 20
353.2193962681
 11
219.8142380434
 21
353.1172686207
  0
LINE
  5
3F6
100
AcDbEntity
  8
5_ALL_CURVES
100
AcDbLine
 62
40
  6
CONTINUOUS
 10
220.7329880423
 20
353.2193962681
 11
220.6767380423
 21
353.1428005325
  0
LINE
  5
3F7
100
AcDbEntity
  8
5_ALL_CURVES
100
AcDbLine
 62
40
  6
CONTINUOUS
 10
221.145488078
 20
352.2236515718
 11
221.201738078
 21
352.3002473163
  0
LINE
  5
3F8
100
AcDbEntity
  8
7_ALL_FEATURES
100
AcDbLine
 62
7
  6
CONTINUOUS
 10
222.3762113464
 20
354.2465926683
 11
222.8691619872
 21
354.8569061781
  0
LINE
  5
3F9
100
AcDbEntity
  8
5_ALL_CURVES
100
AcDbLine
 62
40
  6
CONTINUOUS
 10
220.2829880423
 20
352.3257792281
 11
220.2267380423
 21
352.2747154044
  0
LINE
  5
3FA
100
AcDbEntity
  8
5_ALL_CURVES
100
AcDbLine
 62
40
  6
CONTINUOUS
 10
221.032988078
 20
352.2747154044
 11
221.089238078
 21
352.3257792281
  0
LINE
  5
3FB
100
AcDbEntity
  8
7_ALL_FEATURES
100
AcDbLine
 62
7
  6
CONTINUOUS
 10
224.01948934
 20
353.7792085777
 11
224.6109307817
 21
354.2946500734
  0
LINE
  5
3FC
100
AcDbEntity
  8
5_ALL_CURVES
100
AcDbLine
 62
40
  6
CONTINUOUS
 10
221.0517380065
 20
352.1470558295
 11
221.145488078
 21
352.2236515718
  0
LINE
  5
3FD
100
AcDbEntity
  8
7_ALL_FEATURES
100
AcDbLine
 62
7
  6
CONTINUOUS
 10
225.5566418528
 20
353.0335728725
 11
226.2286034465
 21
353.4384809252
  0
LINE
  5
3FE
100
AcDbEntity
  8
7_ALL_FEATURES
100
AcDbLine
 62
7
  6
CONTINUOUS
 10
220.5267380423
 20
346.353574723
 11
219.0267380423
 21
345.4875493192
  0
LINE
  5
3FF
100
AcDbEntity
  8
7_ALL_FEATURES
100
AcDbLine
 62
7
  6
CONTINUOUS
 10
226.9409632837
 20
352.0323413166
 11
227.6730278163
 21
352.3144129999
  0
LINE
  5
400
100
AcDbEntity
  8
7_ALL_FEATURES
100
AcDbLine
 62
7
  6
CONTINUOUS
 10
210.0267380423
 20
356.9908407923
 11
210.0267380423
 21
371.6215239155
  0
LINE
  5
401
100
AcDbEntity
  8
7_ALL_FEATURES
100
AcDbLine
 62
7
  6
CONTINUOUS
 10
218.9727070641
 20
354.2986871216
 11
219.2271896296
 21
355.040793272
  0
LINE
  5
402
100
AcDbEntity
  8
5_ALL_CURVES
100
AcDbLine
 62
40
  6
CONTINUOUS
 10
220.6767380423
 20
353.1428005325
 11
220.6392380244
 21
353.0406728851
  0
LINE
  5
403
100
AcDbEntity
  8
5_ALL_CURVES
100
AcDbLine
 62
40
  6
CONTINUOUS
 10
219.9267380467
 20
353.1172686207
 11
219.8892380423
 21
353.0406728851
  0
LINE
  5
404
100
AcDbEntity
  8
5_ALL_CURVES
100
AcDbLine
 62
40
  6
CONTINUOUS
 10
220.2829880423
 20
352.7598217832
 11
220.3204880602
 21
352.8364175188
  0
LINE
  5
405
100
AcDbEntity
  8
5_ALL_CURVES
100
AcDbLine
 62
40
  6
CONTINUOUS
 10
220.3204880602
 20
352.4023749816
 11
220.2829880423
 21
352.3257792281
  0
LINE
  5
406
100
AcDbEntity
  8
5_ALL_CURVES
100
AcDbLine
 62
40
  6
CONTINUOUS
 10
220.7892380423
 20
353.1172686207
 11
220.7142380065
 21
352.964077078
  0
LINE
  5
407
100
AcDbEntity
  8
5_ALL_CURVES
100
AcDbLine
 62
40
  6
CONTINUOUS
 10
221.089238078
 20
352.3257792281
 11
221.1642380065
 21
352.4789707171
  0
LINE
  5
408
100
AcDbEntity
  8
5_ALL_CURVES
100
AcDbLine
 62
40
  6
CONTINUOUS
 10
220.3392380423
 20
352.2236515718
 11
220.3954880423
 21
352.3257792281
  0
LINE
  5
409
100
AcDbEntity
  8
5_ALL_CURVES
100
AcDbLine
 62
40
  6
CONTINUOUS
 10
225.6867315915
 20
350.0643601772
 11
227.3130771882
 21
351.6907057739
  0
LINE
  5
40A
100
AcDbEntity
  8
5_ALL_CURVES
100
AcDbLine
 62
40
  6
CONTINUOUS
 10
225.969574304
 20
349.7815174647
 11
227.5959199007
 21
351.4078630614
  0
LINE
  5
40B
100
AcDbEntity
  8
7_ALL_FEATURES
100
AcDbLine
 62
7
  6
CONTINUOUS
 10
220.5267380423
 20
342.8894731079
 11
222.0267380423
 21
343.7554985117
  0
LINE
  5
40C
100
AcDbEntity
  8
5_ALL_CURVES
100
AcDbLine
 62
40
  6
CONTINUOUS
 10
228.3075891084
 20
344.9215233332
 11
228.2054614431
 21
344.8840233321
  0
LINE
  5
40D
100
AcDbEntity
  8
5_ALL_CURVES
100
AcDbLine
 62
40
  6
CONTINUOUS
 10
228.9458870119
 20
344.3215233522
 11
229.0480146593
 21
344.3590233164
  0
LINE
  5
40E
100
AcDbEntity
  8
7_ALL_FEATURES
100
AcDbLine
 62
7
  6
CONTINUOUS
 10
231.0037192821
 20
345.3164081505
 11
229.3267380423
 21
344.7715239155
  0
LINE
  5
40F
100
AcDbEntity
  8
7_ALL_FEATURES
100
AcDbLine
 62
7
  6
CONTINUOUS
 10
233.0267380423
 20
317.6215239155
 11
218.0267380423
 21
317.6215239155
  0
LINE
  5
410
100
AcDbEntity
  8
02___PRT_ALL_AXES
100
AcDbLine
 62
7
  6
CONTINUOUS
 10
214.667284734
 20
317.6215239155
 11
217.8767377806
 21
317.6215239155
  0
LINE
  5
411
100
AcDbEntity
  8
02___PRT_ALL_AXES
100
AcDbLine
 62
7
  6
CONTINUOUS
 10
233.1767383035
 20
317.6215239155
 11
236.2267374675
 21
317.6215239155
  0
LINE
  5
412
100
AcDbEntity
  8
02___PRT_ALL_AXES
100
AcDbLine
 62
7
  6
CONTINUOUS
 10
236.8267380423
 20
317.6215239155
 11
267.4267380423
 21
317.6215239155
  0
LINE
  5
413
100
AcDbEntity
  8
7_ALL_FEATURES
100
AcDbLine
 62
9
  6
CONTINUOUS
 10
225.5267380423
 20
318.1215239155
 11
233.5267380423
 21
318.1215239155
  0
LINE
  5
414
100
AcDbEntity
  8
7_ALL_FEATURES
100
AcDbLine
 62
7
  6
CONTINUOUS
 10
215.7566418528
 20
353.1835728725
 11
215.7419619899
 21
353.9679627094
  0
LINE
  5
415
100
AcDbEntity
  8
5_ALL_CURVES
100
AcDbLine
 62
40
  6
CONTINUOUS
 10
220.6204880423
 20
352.964077078
 11
220.6017380602
 21
352.8364175188
  0
LINE
  5
416
100
AcDbEntity
  8
7_ALL_FEATURES
100
AcDbLine
 62
7
  6
CONTINUOUS
 10
217.3158945308
 20
353.8818146207
 11
217.4376455537
 21
354.6568369448
  0
LINE
  5
417
100
AcDbEntity
  8
5_ALL_CURVES
100
AcDbLine
 62
40
  6
CONTINUOUS
 10
219.8892380423
 20
353.0406728851
 11
219.87048804
 21
352.964077078
  0
LINE
  5
418
100
AcDbEntity
  8
5_ALL_CURVES
100
AcDbLine
 62
40
  6
CONTINUOUS
 10
220.3204880602
 20
352.8364175188
 11
220.3392380423
 21
352.9130132543
  0
LINE
  5
419
100
AcDbEntity
  8
5_ALL_CURVES
100
AcDbLine
 62
40
  6
CONTINUOUS
 10
220.3392380423
 20
352.4789707171
 11
220.3204880602
 21
352.4023749816
  0
LINE
  5
41A
100
AcDbEntity
  8
5_ALL_CURVES
100
AcDbLine
 62
40
  6
CONTINUOUS
 10
220.6392380244
 20
353.0406728851
 11
220.6204880423
 21
352.964077078
  0
LINE
  5
41B
100
AcDbEntity
  8
5_ALL_CURVES
100
AcDbLine
 62
40
  6
CONTINUOUS
 10
221.2392380423
 20
352.4023749816
 11
221.257988078
 21
352.4789707171
  0
LINE
  5
41C
100
AcDbEntity
  8
5_ALL_CURVES
100
AcDbLine
 62
40
  6
CONTINUOUS
 10
219.8142380434
 20
353.1172686207
 11
219.7767380423
 21
352.9896089899
  0
LINE
  5
41D
100
AcDbEntity
  8
5_ALL_CURVES
100
AcDbLine
 62
40
  6
CONTINUOUS
 10
220.3954880423
 20
352.3257792281
 11
220.4329880602
 21
352.4534388053
  0
LINE
  5
41E
100
AcDbEntity
  8
7_ALL_FEATURES
100
AcDbLine
 62
7
  6
CONTINUOUS
 10
220.6767380423
 20
353.4215239155
 11
221.2216222773
 21
355.0985051553
  0
LINE
  5
41F
100
AcDbEntity
  8
5_ALL_CURVES
100
AcDbLine
 62
40
  6
CONTINUOUS
 10
221.201738078
 20
352.3002473163
 11
221.2392380423
 21
352.4023749816
  0
LINE
  5
420
100
AcDbEntity
  8
7_ALL_FEATURES
100
AcDbLine
 62
7
  6
CONTINUOUS
 10
230.1998642002
 20
348.7057166549
 11
229.6844227045
 21
348.1142752132
  0
LINE
  5
421
100
AcDbEntity
  8
7_ALL_FEATURES
100
AcDbLine
 62
7
  6
CONTINUOUS
 10
230.7621203049
 20
346.9639478604
 11
230.1518067951
 21
346.4709972195
  0
LINE
  5
422
100
AcDbEntity
  8
5_ALL_CURVES
100
AcDbLine
 62
40
  6
CONTINUOUS
 10
228.2054614431
 20
344.8840233321
 11
228.1288656986
 21
344.8277733388
  0
LINE
  5
423
100
AcDbEntity
  8
5_ALL_CURVES
100
AcDbLine
 62
40
  6
CONTINUOUS
 10
229.0480146593
 20
344.3590233164
 11
229.1246103949
 21
344.4152733164
  0
LINE
  5
424
100
AcDbEntity
  8
5_ALL_CURVES
100
AcDbLine
 62
40
  6
CONTINUOUS
 10
228.3841848439
 20
344.8465233343
 11
228.230993355
 21
344.7715233388
  0
LINE
  5
425
100
AcDbEntity
  8
5_ALL_CURVES
100
AcDbLine
 62
40
  6
CONTINUOUS
 10
228.8692912048
 20
344.3965233343
 11
229.0224827475
 21
344.4715233164
  0
LINE
  5
426
100
AcDbEntity
  8
7_ALL_FEATURES
100
AcDbLine
 62
7
  6
CONTINUOUS
 10
230.9460073988
 20
343.3219755028
 11
230.2039012484
 21
343.0674929373
  0
LWPOLYLINE
  5
427
100
AcDbEntity
  8
7_ALL_FEATURES
100
AcDbPolyline
 62
7
  6
CONTINUOUS
 90
3
 70
0
 10
233.0381305414
 20
317.6613480919
 10
233.1056308156
 20
317.6420382936
 10
233.1511647769
 20
317.6289220438
  0
LINE
  5
428
100
AcDbEntity
  8
7_ALL_FEATURES
100
AcDbLine
 62
7
  6
CONTINUOUS
 10
233.0382657203
 20
317.6613105587
 11
233.1767382102
 21
317.6215240087
  0
LINE
  5
429
100
AcDbEntity
  8
7_ALL_FEATURES
100
AcDbLine
 62
7
  6
CONTINUOUS
 10
219.0267380423
 20
345.4875493192
 11
219.0267380423
 21
343.7554985117
  0
LINE
  5
42A
100
AcDbEntity
  8
5_ALL_CURVES
100
AcDbLine
 62
40
  6
CONTINUOUS
 10
219.7767380423
 20
352.9896089899
 11
219.7767380423
 21
352.8874813425
  0
LINE
  5
42B
100
AcDbEntity
  8
5_ALL_CURVES
100
AcDbLine
 62
40
  6
CONTINUOUS
 10
219.87048804
 20
352.964077078
 11
219.87048804
 21
352.9130132543
  0
LINE
  5
42C
100
AcDbEntity
  8
5_ALL_CURVES
100
AcDbLine
 62
40
  6
CONTINUOUS
 10
220.3392380423
 20
352.9130132543
 11
220.3392380423
 21
352.964077078
  0
LINE
  5
42D
100
AcDbEntity
  8
5_ALL_CURVES
100
AcDbLine
 62
40
  6
CONTINUOUS
 10
220.3579880244
 20
352.6832260477
 11
220.3579880244
 21
352.632162224
  0
LINE
  5
42E
100
AcDbEntity
  8
5_ALL_CURVES
100
AcDbLine
 62
40
  6
CONTINUOUS
 10
220.4517380423
 20
352.632162224
 11
220.4517380423
 21
352.8108856069
  0
LINE
  5
42F
100
AcDbEntity
  8
5_ALL_CURVES
100
AcDbLine
 62
40
  6
CONTINUOUS
 10
220.6017380602
 20
352.8364175188
 11
220.6017380602
 21
352.6066303121
  0
LINE
  5
430
100
AcDbEntity
  8
5_ALL_CURVES
100
AcDbLine
 62
40
  6
CONTINUOUS
 10
220.695488078
 20
352.8108856069
 11
220.695488078
 21
352.632162224
  0
LINE
  5
431
100
AcDbEntity
  8
5_ALL_CURVES
100
AcDbLine
 62
40
  6
CONTINUOUS
 10
221.1829880423
 20
352.632162224
 11
221.1829880423
 21
352.8108856069
  0
LINE
  5
432
100
AcDbEntity
  8
5_ALL_CURVES
100
AcDbLine
 62
40
  6
CONTINUOUS
 10
221.2767380065
 20
352.6066303121
 11
221.2767380065
 21
352.8364175188
  0
LINE
  5
433
100
AcDbEntity
  8
5_ALL_CURVES
100
AcDbLine
 62
40
  6
CONTINUOUS
 10
220.4329880602
 20
352.4534388053
 11
220.4517380423
 21
352.632162224
  0
LINE
  5
434
100
AcDbEntity
  8
5_ALL_CURVES
100
AcDbLine
 62
40
  6
CONTINUOUS
 10
220.3579880244
 20
352.632162224
 11
220.3392380423
 21
352.4789707171
  0
LINE
  5
435
100
AcDbEntity
  8
5_ALL_CURVES
100
AcDbLine
 62
40
  6
CONTINUOUS
 10
220.7142380065
 20
352.964077078
 11
220.695488078
 21
352.8108856069
  0
LINE
  5
436
100
AcDbEntity
  8
5_ALL_CURVES
100
AcDbLine
 62
40
  6
CONTINUOUS
 10
221.1642380065
 20
352.4789707171
 11
221.1829880423
 21
352.632162224
  0
LINE
  5
437
100
AcDbEntity
  8
5_ALL_CURVES
100
AcDbLine
 62
40
  6
CONTINUOUS
 10
221.257988078
 20
352.4789707171
 11
221.2767380065
 21
352.6066303121
  0
LINE
  5
438
100
AcDbEntity
  8
7_ALL_FEATURES
100
AcDbLine
 62
7
  6
CONTINUOUS
 10
228.2196271267
 20
351.7678136895
 11
227.9375554434
 21
351.0357491569
  0
LINE
  5
439
100
AcDbEntity
  8
7_ALL_FEATURES
100
AcDbLine
 62
7
  6
CONTINUOUS
 10
208.6166409732
 20
303.3671004968
 11
221.6989822383
 21
334.1871651165
  0
LINE
  5
43A
100
AcDbEntity
  8
7_ALL_FEATURES
100
AcDbLine
 62
7
  6
CONTINUOUS
 10
229.343695052
 20
350.3233893197
 11
228.9387869994
 21
349.651427726
  0
LINE
  5
43B
100
AcDbEntity
  8
5_ALL_CURVES
100
AcDbLine
 62
40
  6
CONTINUOUS
 10
228.1288656986
 20
344.8277733388
 11
228.0522699564
 21
344.7340233343
  0
LINE
  5
43C
100
AcDbEntity
  8
5_ALL_CURVES
100
AcDbLine
 62
40
  6
CONTINUOUS
 10
229.1246103949
 20
344.4152733164
 11
229.2012061304
 21
344.5090233343
  0
LINE
  5
43D
100
AcDbEntity
  8
5_ALL_CURVES
100
AcDbLine
 62
40
  6
CONTINUOUS
 10
228.230993355
 20
344.7715233388
 11
228.1799295313
 21
344.7152733254
  0
LINE
  5
43E
100
AcDbEntity
  8
5_ALL_CURVES
100
AcDbLine
 62
40
  6
CONTINUOUS
 10
229.0224827475
 20
344.4715233164
 11
229.0735465712
 21
344.5277733433
  0
LINE
  5
43F
100
AcDbEntity
  8
7_ALL_FEATURES
100
AcDbLine
 62
7
  6
CONTINUOUS
 10
226.9409632837
 20
337.2107065143
 11
226.7111499507
 21
337.0178702314
  0
LINE
  5
440
100
AcDbEntity
  8
7_ALL_FEATURES
100
AcDbLine
 62
7
  6
CONTINUOUS
 10
213.1159206412
 20
351.0357491569
 11
212.8338489579
 21
351.7678136895
  0
LINE
  5
441
100
AcDbEntity
  8
7_ALL_FEATURES
100
AcDbLine
 62
7
  6
CONTINUOUS
 10
214.3423261338
 20
352.2251775995
 11
214.1916614252
 21
352.9951016607
  0
LINE
  5
442
100
AcDbEntity
  8
5_ALL_CURVES
100
AcDbLine
 62
40
  6
CONTINUOUS
 10
220.4517380423
 20
352.8108856069
 11
220.4329880602
 21
352.9896089899
  0
LINE
  5
443
100
AcDbEntity
  8
7_ALL_FEATURES
100
AcDbLine
 62
7
  6
CONTINUOUS
 10
222.0267380423
 20
343.7554985117
 11
222.0267380423
 21
345.4875493192
  0
LINE
  5
444
100
AcDbEntity
  8
7_ALL_FEATURES
100
AcDbLine
 62
7
  6
CONTINUOUS
 10
225.3115140946
 20
353.9679627094
 11
225.2968342317
 21
353.1835728725
  0
LINE
  5
445
100
AcDbEntity
  8
7_ALL_FEATURES
100
AcDbLine
 62
7
  6
CONTINUOUS
 10
226.8618146593
 20
352.9951016607
 11
226.7111499507
 21
352.2251775995
  0
LINE
  5
446
100
AcDbEntity
  8
5_ALL_CURVES
100
AcDbLine
 62
40
  6
CONTINUOUS
 10
228.0522699564
 20
344.7340233343
 11
228.0267380423
 21
344.6215233343
  0
LINE
  5
447
100
AcDbEntity
  8
5_ALL_CURVES
100
AcDbLine
 62
40
  6
CONTINUOUS
 10
228.1799295313
 20
344.7152733254
 11
228.1543976194
 21
344.6215233343
  0
LINE
  5
448
100
AcDbEntity
  8
5_ALL_CURVES
100
AcDbLine
 62
40
  6
CONTINUOUS
 10
229.0735465712
 20
344.5277733433
 11
229.099078483
 21
344.6215233343
  0
LINE
  5
449
100
AcDbEntity
  8
7_ALL_FEATURES
100
AcDbLine
 62
7
  6
CONTINUOUS
 10
229.0887869994
 20
339.851427726
 11
228.9387869994
 21
339.5916201049
  0
LINE
  5
44A
100
AcDbEntity
  8
7_ALL_FEATURES
100
AcDbLine
 62
7
  6
CONTINUOUS
 10
228.1303917263
 20
338.437112007
 11
227.9375554434
 21
338.2072986741
  0
LINE
  5
44B
100
AcDbEntity
  8
7_ALL_FEATURES
100
AcDbLine
 62
7
  6
CONTINUOUS
 10
236.5267380423
 20
317.9215239155
 11
236.8267380423
 21
317.6215239155
  0
LINE
  5
44C
100
AcDbEntity
  8
5_ALL_CURVES
100
AcDbLine
 62
40
  6
CONTINUOUS
 10
219.8142380434
 20
352.4023749816
 11
219.8329880423
 21
352.3257792281
  0
LINE
  5
44D
100
AcDbEntity
  8
5_ALL_CURVES
100
AcDbLine
 62
40
  6
CONTINUOUS
 10
219.87048804
 20
352.9130132543
 11
219.8892380423
 21
352.8364175188
  0
LINE
  5
44E
100
AcDbEntity
  8
5_ALL_CURVES
100
AcDbLine
 62
40
  6
CONTINUOUS
 10
220.6017380602
 20
352.6066303121
 11
220.6204880423
 21
352.4789707171
  0
LINE
  5
44F
100
AcDbEntity
  8
5_ALL_CURVES
100
AcDbLine
 62
40
  6
CONTINUOUS
 10
221.2767380065
 20
352.8364175188
 11
221.257988078
 21
352.964077078
  0
LINE
  5
450
100
AcDbEntity
  8
5_ALL_CURVES
100
AcDbLine
 62
40
  6
CONTINUOUS
 10
220.695488078
 20
352.632162224
 11
220.7142380065
 21
352.4789707171
  0
LINE
  5
451
100
AcDbEntity
  8
5_ALL_CURVES
100
AcDbLine
 62
40
  6
CONTINUOUS
 10
221.1829880423
 20
352.8108856069
 11
221.1642380065
 21
352.964077078
  0
LINE
  5
452
100
AcDbEntity
  8
7_ALL_FEATURES
100
AcDbLine
 62
7
  6
CONTINUOUS
 10
229.3267380423
 20
344.7715239155
 11
229.3267380423
 21
344.4715239155
  0
LINE
  5
453
100
AcDbEntity
  8
7_ALL_FEATURES
100
AcDbLine
 62
7
  6
CONTINUOUS
 10
230.2039012484
 20
343.0674929373
 11
230.1518067951
 21
342.7720506114
  0
LINE
  5
454
100
AcDbEntity
  8
5_ALL_CURVES
100
AcDbLine
 62
40
  6
CONTINUOUS
 10
229.2012061304
 20
344.5090233343
 11
229.2267380423
 21
344.6215233343
  0
LINE
  5
455
100
AcDbEntity
  8
7_ALL_FEATURES
100
AcDbLine
 62
7
  6
CONTINUOUS
 10
229.7870287475
 20
341.410680404
 11
229.6844227045
 21
341.1287726178
  0
LINE
  5
456
100
AcDbEntity
  8
7_ALL_FEATURES
100
AcDbLine
 62
7
  6
CONTINUOUS
 10
220.8776412638
 20
332.2522070386
 11
231.5267380423
 21
332.2522070386
  0
LINE
  5
457
100
AcDbEntity
  8
5_ALL_CURVES
100
AcDbLine
 62
40
  6
CONTINUOUS
 10
220.6392380244
 20
352.4023749816
 11
220.6767380423
 21
352.3002473163
  0
LINE
  5
458
100
AcDbEntity
  8
5_ALL_CURVES
100
AcDbLine
 62
40
  6
CONTINUOUS
 10
221.2392380423
 20
353.0406728851
 11
221.201738078
 21
353.1428005325
  0
LINE
  5
459
100
AcDbEntity
  8
7_ALL_FEATURES
100
AcDbLine
 62
7
  6
CONTINUOUS
 10
219.8318538072
 20
355.0985051553
 11
220.3767380423
 21
353.4215239155
  0
LINE
  5
45A
100
AcDbEntity
  8
5_ALL_CURVES
100
AcDbLine
 62
40
  6
CONTINUOUS
 10
219.7767380423
 20
352.8874813425
 11
219.8142380434
 21
352.7598217832
  0
LINE
  5
45B
100
AcDbEntity
  8
5_ALL_CURVES
100
AcDbLine
 62
40
  6
CONTINUOUS
 10
220.4329880602
 20
352.9896089899
 11
220.3954880423
 21
353.1172686207
  0
LINE
  5
45C
100
AcDbEntity
  8
5_ALL_CURVES
100
AcDbLine
 62
40
  6
CONTINUOUS
 10
220.3392380423
 20
352.964077078
 11
220.3204880602
 21
353.0406728851
  0
LINE
  5
45D
100
AcDbEntity
  8
5_ALL_CURVES
100
AcDbLine
 62
40
  6
CONTINUOUS
 10
220.6204880423
 20
352.4789707171
 11
220.6392380244
 21
352.4023749816
  0
LINE
  5
45E
100
AcDbEntity
  8
5_ALL_CURVES
100
AcDbLine
 62
40
  6
CONTINUOUS
 10
221.257988078
 20
352.964077078
 11
221.2392380423
 21
353.0406728851
  0
LINE
  5
45F
100
AcDbEntity
  8
7_ALL_FEATURES
100
AcDbLine
 62
7
  6
CONTINUOUS
 10
226.7111499507
 20
337.0178702314
 11
226.8618146593
 21
336.2479461702
  0
LINE
  5
460
100
AcDbEntity
  8
7_ALL_FEATURES
100
AcDbLine
 62
7
  6
CONTINUOUS
 10
223.6158305308
 20
354.6568369448
 11
223.7375815537
 21
353.8818146207
  0
LINE
  5
461
100
AcDbEntity
  8
7_ALL_FEATURES
100
AcDbLine
 62
7
  6
CONTINUOUS
 10
231.5267380423
 20
332.2522070386
 11
231.5267380423
 21
356.9908407923
  0
LINE
  5
462
100
AcDbEntity
  8
7_ALL_FEATURES
100
AcDbLine
 62
7
  6
CONTINUOUS
 10
228.9003157875
 20
338.2864472984
 11
228.1303917263
 21
338.437112007
  0
LINE
  5
463
100
AcDbEntity
  8
7_ALL_FEATURES
100
AcDbLine
 62
7
  6
CONTINUOUS
 10
227.6730278163
 20
336.9286348311
 11
226.9409632837
 21
337.2107065143
  0
LINE
  5
464
100
AcDbEntity
  8
7_ALL_FEATURES
100
AcDbLine
 62
7
  6
CONTINUOUS
 10
228.9387869994
 20
339.5916201049
 11
229.343695052
 21
338.9196585112
  0
LINE
  5
465
100
AcDbEntity
  8
5_ALL_CURVES
100
AcDbLine
 62
40
  6
CONTINUOUS
 10
219.8329880423
 20
352.3257792281
 11
219.8892380423
 21
352.2236515718
  0
LINE
  5
466
100
AcDbEntity
  8
5_ALL_CURVES
100
AcDbLine
 62
40
  6
CONTINUOUS
 10
219.8142380434
 20
352.7598217832
 11
219.87048804
 21
352.6576941358
  0
LINE
  5
467
100
AcDbEntity
  8
5_ALL_CURVES
100
AcDbLine
 62
40
  6
CONTINUOUS
 10
220.3954880423
 20
353.1172686207
 11
220.3392380423
 21
353.2193962681
  0
LINE
  5
468
100
AcDbEntity
  8
5_ALL_CURVES
100
AcDbLine
 62
40
  6
CONTINUOUS
 10
219.9454880423
 20
352.3257792281
 11
219.9079880378
 21
352.4023749816
  0
LINE
  5
469
100
AcDbEntity
  8
5_ALL_CURVES
100
AcDbLine
 62
40
  6
CONTINUOUS
 10
219.8892380423
 20
352.8364175188
 11
219.9267380467
 21
352.7598217832
  0
LINE
  5
46A
100
AcDbEntity
  8
5_ALL_CURVES
100
AcDbLine
 62
40
  6
CONTINUOUS
 10
220.3204880602
 20
353.0406728851
 11
220.2829880423
 21
353.1172686207
  0
LINE
  5
46B
100
AcDbEntity
  8
5_ALL_CURVES
100
AcDbLine
 62
40
  6
CONTINUOUS
 10
220.7142380065
 20
352.4789707171
 11
220.7892380423
 21
352.3257792281
  0
LINE
  5
46C
100
AcDbEntity
  8
5_ALL_CURVES
100
AcDbLine
 62
40
  6
CONTINUOUS
 10
221.1642380065
 20
352.964077078
 11
221.089238078
 21
353.1172686207
  0
LINE
  5
46D
100
AcDbEntity
  8
7_ALL_FEATURES
100
AcDbLine
 62
7
  6
CONTINUOUS
 10
227.9375554434
 20
338.2072986741
 11
228.2196271267
 21
337.4752341414
  0
LINE
  5
46E
100
AcDbEntity
  8
7_ALL_FEATURES
100
AcDbLine
 62
7
  6
CONTINUOUS
 10
221.8262864549
 20
355.040793272
 11
222.0807690205
 21
354.2986871216
  0
LINE
  5
46F
100
AcDbEntity
  8
5_ALL_CURVES
100
AcDbLine
 62
40
  6
CONTINUOUS
 10
228.1543976194
 20
344.6215233343
 11
228.1799295313
 21
344.5277733433
  0
LINE
  5
470
100
AcDbEntity
  8
5_ALL_CURVES
100
AcDbLine
 62
40
  6
CONTINUOUS
 10
229.099078483
 20
344.6215233343
 11
229.0735465712
 21
344.7152733254
  0
LINE
  5
471
100
AcDbEntity
  8
5_ALL_CURVES
100
AcDbLine
 62
40
  6
CONTINUOUS
 10
228.0267380423
 20
344.6215233343
 11
228.0522699564
 21
344.5090233343
  0
LINE
  5
472
100
AcDbEntity
  8
5_ALL_CURVES
100
AcDbLine
 62
40
  6
CONTINUOUS
 10
229.2267380423
 20
344.6215233343
 11
229.2012061304
 21
344.7340233343
  0
LINE
  5
473
100
AcDbEntity
  8
7_ALL_FEATURES
100
AcDbLine
 62
7
  6
CONTINUOUS
 10
230.1518067951
 20
346.4709972195
 11
230.2039012484
 21
346.1755548936
  0
LINE
  5
474
100
AcDbEntity
  8
7_ALL_FEATURES
100
AcDbLine
 62
7
  6
CONTINUOUS
 10
236.2267374675
 20
317.6215239155
 11
236.2267380423
 21
344.3225173341
  0
LINE
  5
475
100
AcDbEntity
  8
7_ALL_FEATURES
100
AcDbLine
 62
7
  6
CONTINUOUS
 10
236.2267380423
 20
344.9205304968
 11
236.2267375692
 21
371.6215239155
  0
LINE
  5
476
100
AcDbEntity
  8
7_ALL_FEATURES
100
AcDbLine
 62
7
  6
CONTINUOUS
 10
236.5267380423
 20
317.9215245078
 11
236.5267380423
 21
371.3215234245
  0
LINE
  5
477
100
AcDbEntity
  8
7_ALL_FEATURES
100
AcDbLine
 62
7
  6
CONTINUOUS
 10
236.8267380423
 20
317.6215239155
 11
236.8267380423
 21
371.6215239155
  0
LWPOLYLINE
  5
478
100
AcDbEntity
  8
7_ALL_FEATURES
100
AcDbPolyline
 62
7
  6
CONTINUOUS
 90
3
 70
0
 10
217.8767381104
 20
317.6215239155
 10
217.9478485848
 20
317.6420392447
 10
218.0153455497
 20
317.6613480874
  0
LINE
  5
479
100
AcDbEntity
  8
7_ALL_FEATURES
100
AcDbLine
 62
7
  6
CONTINUOUS
 10
217.8767378736
 20
317.6215240085
 11
218.0152095657
 21
317.6613103302
  0
LINE
  5
47A
100
AcDbEntity
  8
5_ALL_CURVES
100
AcDbLine
 62
40
  6
CONTINUOUS
 10
228.8692912048
 20
344.3027733164
 11
228.9458870119
 21
344.3215233522
  0
LINE
  5
47B
100
AcDbEntity
  8
7_ALL_FEATURES
100
AcDbLine
 62
7
  6
CONTINUOUS
 10
230.5620510716
 20
341.5324314269
 11
229.7870287475
 21
341.410680404
  0
LINE
  5
47C
100
AcDbEntity
  8
7_ALL_FEATURES
100
AcDbLine
 62
7
  6
CONTINUOUS
 10
229.8731768362
 20
339.8367478631
 11
229.0887869994
 21
339.851427726
  0
LINE
  5
47D
100
AcDbEntity
  8
7_ALL_FEATURES
100
AcDbLine
 62
7
  6
CONTINUOUS
 10
219.0267380423
 20
343.7554985117
 11
220.5267380423
 21
342.8894731079
  0
LINE
  5
47E
100
AcDbEntity
  8
7_ALL_FEATURES
100
AcDbLine
 62
7
  6
CONTINUOUS
 10
222.0267380423
 20
345.4875493192
 11
220.5267380423
 21
346.353574723
  0
LINE
  5
47F
100
AcDbEntity
  8
7_ALL_FEATURES
100
AcDbLine
 62
7
  6
CONTINUOUS
 10
216.4425453028
 20
354.2946500734
 11
217.0339867446
 21
353.7792085777
  0
LINE
  5
480
100
AcDbEntity
  8
5_ALL_CURVES
100
AcDbLine
 62
40
  6
CONTINUOUS
 10
228.1799295313
 20
344.5277733433
 11
228.230993355
 21
344.4715233164
  0
LINE
  5
481
100
AcDbEntity
  8
7_ALL_FEATURES
100
AcDbLine
 62
7
  6
CONTINUOUS
 10
229.6844227045
 20
341.1287726178
 11
230.1998642002
 21
340.537331176
  0
LINE
  5
482
100
AcDbEntity
  8
5_ALL_CURVES
100
AcDbLine
 62
40
  6
CONTINUOUS
 10
228.0522699564
 20
344.5090233343
 11
228.1288656986
 21
344.4152733164
  0
LINE
  5
483
100
AcDbEntity
  8
5_ALL_CURVES
100
AcDbLine
 62
40
  6
CONTINUOUS
 10
229.2012061304
 20
344.7340233343
 11
229.1246103949
 21
344.8277733388
  0
LINE
  5
484
100
AcDbEntity
  8
7_ALL_FEATURES
100
AcDbLine
 62
7
  6
CONTINUOUS
 10
218.1843140973
 20
354.8569061781
 11
218.6772647382
 21
354.2465926683
  0
LINE
  5
485
100
AcDbEntity
  8
5_ALL_CURVES
100
AcDbLine
 62
40
  6
CONTINUOUS
 10
220.6767380423
 20
352.3002473163
 11
220.7329880423
 21
352.2236515718
  0
LINE
  5
486
100
AcDbEntity
  8
5_ALL_CURVES
100
AcDbLine
 62
40
  6
CONTINUOUS
 10
221.201738078
 20
353.1428005325
 11
221.145488078
 21
353.2193962681
  0
LINE
  5
487
100
AcDbEntity
  8
7_ALL_FEATURES
100
AcDbLine
 62
7
  6
CONTINUOUS
 10
229.6844227045
 20
348.1142752132
 11
229.7870287475
 21
347.8323674269
  0
LINE
  5
488
100
AcDbEntity
  8
5_ALL_CURVES
100
AcDbLine
 62
40
  6
CONTINUOUS
 10
228.3841848439
 20
344.9402733338
 11
228.3075891084
 21
344.9215233332
  0
LINE
  5
489
100
AcDbEntity
  8
5_ALL_CURVES
100
AcDbLine
 62
40
  6
CONTINUOUS
 10
228.7416316456
 20
344.2840233343
 11
228.8692912048
 21
344.3027733164
  0
LINE
  5
48A
100
AcDbEntity
  8
5_ALL_CURVES
100
AcDbLine
 62
40
  6
CONTINUOUS
 10
228.5118444389
 20
344.9590233343
 11
228.3841848439
 21
344.9402733338
  0
LINE
  5
48B
100
AcDbEntity
  8
5_ALL_CURVES
100
AcDbLine
 62
40
  6
CONTINUOUS
 10
228.7160997337
 20
344.3777733522
 11
228.8692912048
 21
344.3965233343
  0
LINE
  5
48C
100
AcDbEntity
  8
5_ALL_CURVES
100
AcDbLine
 62
40
  6
CONTINUOUS
 10
228.5373763508
 20
344.8652733366
 11
228.3841848439
 21
344.8465233343
  0
LINE
  5
48D
100
AcDbEntity
  8
5_ALL_CURVES
100
AcDbLine
 62
40
  6
CONTINUOUS
 10
228.5118444389
 20
344.2840233343
 11
228.7416316456
 21
344.2840233343
  0
LINE
  5
48E
100
AcDbEntity
  8
7_ALL_FEATURES
100
AcDbLine
 62
7
  6
CONTINUOUS
 10
231.5267380423
 20
344.3225173341
 11
236.2267380423
 21
344.3225173341
  0
LINE
  5
48F
100
AcDbEntity
  8
5_ALL_CURVES
100
AcDbLine
 62
40
  6
CONTINUOUS
 10
228.5373763508
 20
344.3777733522
 11
228.7160997337
 21
344.3777733522
  0
LINE
  5
490
100
AcDbEntity
  8
7_ALL_FEATURES
100
AcDbLine
 62
7
  6
CONTINUOUS
 10
231.5267380423
 20
344.6215239155
 11
236.5267380423
 21
344.6215239155
  0
LINE
  5
491
100
AcDbEntity
  8
5_ALL_CURVES
100
AcDbLine
 62
40
  6
CONTINUOUS
 10
228.7160997337
 20
344.8652733366
 11
228.5373763508
 21
344.8652733366
  0
LINE
  5
492
100
AcDbEntity
  8
7_ALL_FEATURES
100
AcDbLine
 62
7
  6
CONTINUOUS
 10
231.5267380423
 20
344.9205304968
 11
236.2267380423
 21
344.9205304968
  0
LINE
  5
493
100
AcDbEntity
  8
5_ALL_CURVES
100
AcDbLine
 62
40
  6
CONTINUOUS
 10
228.7416316456
 20
344.9590233343
 11
228.5118444389
 21
344.9590233343
  0
LINE
  5
494
100
AcDbEntity
  8
5_ALL_CURVES
100
AcDbLine
 62
40
  6
CONTINUOUS
 10
228.3841848439
 20
344.3965233343
 11
228.5373763508
 21
344.3777733522
  0
LINE
  5
495
100
AcDbEntity
  8
5_ALL_CURVES
100
AcDbLine
 62
40
  6
CONTINUOUS
 10
228.8692912048
 20
344.8465233343
 11
228.7160997337
 21
344.8652733366
  0
LINE
  5
496
100
AcDbEntity
  8
5_ALL_CURVES
100
AcDbLine
 62
40
  6
CONTINUOUS
 10
228.3841848439
 20
344.3027733164
 11
228.5118444389
 21
344.2840233343
  0
LINE
  5
497
100
AcDbEntity
  8
5_ALL_CURVES
100
AcDbLine
 62
40
  6
CONTINUOUS
 10
228.8692912048
 20
344.9402733338
 11
228.7416316456
 21
344.9590233343
  0
LINE
  5
498
100
AcDbEntity
  8
5_ALL_CURVES
100
AcDbLine
 62
40
  6
CONTINUOUS
 10
228.3075891084
 20
344.3215233522
 11
228.3841848439
 21
344.3027733164
  0
LINE
  5
499
100
AcDbEntity
  8
5_ALL_CURVES
100
AcDbLine
 62
40
  6
CONTINUOUS
 10
228.9458870119
 20
344.9215233332
 11
228.8692912048
 21
344.9402733338
  0
LINE
  5
49A
100
AcDbEntity
  8
7_ALL_FEATURES
100
AcDbLine
 62
7
  6
CONTINUOUS
 10
229.3267380423
 20
344.4715239155
 11
231.0037192821
 21
343.9266396804
  0
LINE
  5
49B
100
AcDbEntity
  8
5_ALL_CURVES
100
AcDbLine
 62
40
  6
CONTINUOUS
 10
228.2054614431
 20
344.3590233164
 11
228.3075891084
 21
344.3215233522
  0
LINE
  5
49C
100
AcDbEntity
  8
5_ALL_CURVES
100
AcDbLine
 62
40
  6
CONTINUOUS
 10
229.0480146593
 20
344.8840233321
 11
228.9458870119
 21
344.9215233332
  0
LINE
  5
49D
100
AcDbEntity
  8
7_ALL_FEATURES
100
AcDbLine
 62
7
  6
CONTINUOUS
 10
213.3804482682
 20
352.3144129999
 11
214.1125128009
 21
352.0323413166
  0
LINE
  5
49E
100
AcDbEntity
  8
5_ALL_CURVES
100
AcDbLine
 62
40
  6
CONTINUOUS
 10
228.230993355
 20
344.4715233164
 11
228.3841848439
 21
344.3965233343
  0
LINE
  5
49F
100
AcDbEntity
  8
5_ALL_CURVES
100
AcDbLine
 62
40
  6
CONTINUOUS
 10
229.0224827475
 20
344.7715233388
 11
228.8692912048
 21
344.8465233343
  0
LINE
  5
4A0
100
AcDbEntity
  8
7_ALL_FEATURES
100
AcDbLine
 62
7
  6
CONTINUOUS
 10
214.824872638
 20
353.4384809252
 11
215.4968342317
 21
353.0335728725
  0
LINE
  5
4A1
100
AcDbEntity
  8
5_ALL_CURVES
100
AcDbLine
 62
40
  6
CONTINUOUS
 10
228.1288656986
 20
344.4152733164
 11
228.2054614431
 21
344.3590233164
  0
LINE
  5
4A2
100
AcDbEntity
  8
5_ALL_CURVES
100
AcDbLine
 62
40
  6
CONTINUOUS
 10
229.1246103949
 20
344.8277733388
 11
229.0480146593
 21
344.8840233321
  0
LINE
  5
4A3
100
AcDbEntity
  8
7_ALL_FEATURES
100
AcDbLine
 62
7
  6
CONTINUOUS
 10
230.1518067951
 20
342.7720506114
 11
230.7621203049
 21
342.2790999705
  0
LINE
  5
4A4
100
AcDbEntity
  8
5_ALL_CURVES
100
AcDbLine
 62
40
  6
CONTINUOUS
 10
219.8892380423
 20
352.2236515718
 11
219.9829880467
 21
352.1470558295
  0
LINE
  5
4A5
100
AcDbEntity
  8
5_ALL_CURVES
100
AcDbLine
 62
40
  6
CONTINUOUS
 10
219.87048804
 20
352.6576941358
 11
219.9642380378
 21
352.5810984003
  0
LINE
  5
4A6
100
AcDbEntity
  8
5_ALL_CURVES
100
AcDbLine
 62
40
  6
CONTINUOUS
 10
220.7329880423
 20
352.2236515718
 11
220.8267380065
 21
352.1470558295
  0
LINE
  5
4A7
100
AcDbEntity
  8
5_ALL_CURVES
100
AcDbLine
 62
40
  6
CONTINUOUS
 10
220.3392380423
 20
353.2193962681
 11
220.2454880244
 21
353.2959920036
  0
LINE
  5
4A8
100
AcDbEntity
  8
5_ALL_CURVES
100
AcDbLine
 62
40
  6
CONTINUOUS
 10
221.145488078
 20
353.2193962681
 11
221.0517380065
 21
353.2959920036
  0
LINE
  5
4A9
100
AcDbEntity
  8
5_ALL_CURVES
100
AcDbLine
 62
40
  6
CONTINUOUS
 10
220.0017380423
 20
352.2747154044
 11
219.9454880423
 21
352.3257792281
  0
LINE
  5
4AA
100
AcDbEntity
  8
5_ALL_CURVES
100
AcDbLine
 62
40
  6
CONTINUOUS
 10
219.9267380467
 20
352.7598217832
 11
219.9829880467
 21
352.7087579595
  0
LINE
  5
4AB
100
AcDbEntity
  8
5_ALL_CURVES
100
AcDbLine
 62
40
  6
CONTINUOUS
 10
220.7892380423
 20
352.3257792281
 11
220.8454880423
 21
352.2747154044
  0
LINE
  5
4AC
100
AcDbEntity
  8
5_ALL_CURVES
100
AcDbLine
 62
40
  6
CONTINUOUS
 10
220.2829880423
 20
353.1172686207
 11
220.2267380423
 21
353.1683324444
  0
LINE
  5
4AD
100
AcDbEntity
  8
5_ALL_CURVES
100
AcDbLine
 62
40
  6
CONTINUOUS
 10
221.089238078
 20
353.1172686207
 11
221.032988078
 21
353.1683324444
  0
LINE
  5
4AE
100
AcDbEntity
  8
5_ALL_CURVES
100
AcDbLine
 62
40
  6
CONTINUOUS
 10
229.0735465712
 20
344.7152733254
 11
229.0224827475
 21
344.7715233388
  0
LINE
  5
4AF
100
AcDbEntity
  8
7_ALL_FEATURES
100
AcDbLine
 62
7
  6
CONTINUOUS
 10
227.9375554434
 20
351.0357491569
 11
228.1303917263
 21
350.8059358239
  0
LINE
  5
4B0
100
AcDbEntity
  8
7_ALL_FEATURES
100
AcDbLine
 62
7
  6
CONTINUOUS
 10
228.9387869994
 20
349.651427726
 11
229.0887869994
 21
349.3916201049
  0
LINE
  5
4B1
100
AcDbEntity
  8
7_ALL_FEATURES
100
AcDbLine
 62
7
  6
CONTINUOUS
 10
236.5267380423
 20
317.9215245078
 11
236.2267374675
 21
317.6215239155
  0
LINE
  5
4B2
100
AcDbEntity
  8
7_ALL_FEATURES
100
AcDbLine
 62
7
  6
CONTINUOUS
 10
228.1303917263
 20
350.8059358239
 11
228.9003157875
 21
350.9566005325
  0
LINE
  5
4B3
100
AcDbEntity
  8
7_ALL_FEATURES
100
AcDbLine
 62
7
  6
CONTINUOUS
 10
229.0887869994
 20
349.3916201049
 11
229.8731768362
 21
349.4062999678
  0
LINE
  5
4B4
100
AcDbEntity
  8
7_ALL_FEATURES
100
AcDbLine
 62
7
  6
CONTINUOUS
 10
229.7870287475
 20
347.8323674269
 11
230.5620510716
 21
347.710616404
  0
LINE
  5
4B5
100
AcDbEntity
  8
7_ALL_FEATURES
100
AcDbLine
 62
7
  6
CONTINUOUS
 10
212.153160297
 20
350.9566005325
 11
212.9230843583
 21
350.8059358239
  0
LINE
  5
4B6
100
AcDbEntity
  8
5_ALL_CURVES
100
AcDbLine
 62
40
  6
CONTINUOUS
 10
220.8267380065
 20
352.1470558295
 11
220.9392380065
 21
352.1215239155
  0
LINE
  5
4B7
100
AcDbEntity
  8
5_ALL_CURVES
100
AcDbLine
 62
40
  6
CONTINUOUS
 10
219.9829880467
 20
352.1470558295
 11
220.0767380512
 21
352.1215239155
  0
LINE
  5
4B8
100
AcDbEntity
  8
5_ALL_CURVES
100
AcDbLine
 62
40
  6
CONTINUOUS
 10
220.8454880423
 20
352.2747154044
 11
220.9392380065
 21
352.2491834926
  0
LINE
  5
4B9
100
AcDbEntity
  8
5_ALL_CURVES
100
AcDbLine
 62
40
  6
CONTINUOUS
 10
219.9642380378
 20
352.5810984003
 11
220.0579880423
 21
352.5555664527
  0
LINE
  5
4BA
100
AcDbEntity
  8
7_ALL_FEATURES
100
AcDbLine
 62
7
  6
CONTINUOUS
 10
230.2039012484
 20
346.1755548936
 11
230.9460073988
 21
345.9210723281
  0
LINE
  5
4BB
100
AcDbEntity
  8
5_ALL_CURVES
100
AcDbLine
 62
40
  6
CONTINUOUS
 10
220.0579880423
 20
352.2491834926
 11
220.0017380423
 21
352.2747154044
  0
LINE
  5
4BC
100
AcDbEntity
  8
5_ALL_CURVES
100
AcDbLine
 62
40
  6
CONTINUOUS
 10
219.9829880467
 20
352.7087579595
 11
220.0392380333
 21
352.6832260477
  0
LINE
  5
4BD
100
AcDbEntity
  8
5_ALL_CURVES
100
AcDbLine
 62
40
  6
CONTINUOUS
 10
220.2267380423
 20
353.1683324444
 11
220.1704880423
 21
353.1938643562
  0
LINE
  5
4BE
100
AcDbEntity
  8
7_ALL_FEATURES
100
AcDbLine
 62
7
  6
CONTINUOUS
 10
225.2968342317
 20
353.1835728725
 11
225.5566418528
 21
353.0335728725
  0
LINE
  5
4BF
100
AcDbEntity
  8
7_ALL_FEATURES
100
AcDbLine
 62
7
  6
CONTINUOUS
 10
226.7111499507
 20
352.2251775995
 11
226.9409632837
 21
352.0323413166
  0
LINE
  5
4C0
100
AcDbEntity
  8
5_ALL_CURVES
100
AcDbLine
 62
40
  6
CONTINUOUS
 10
220.9392380065
 20
352.2491834926
 11
221.032988078
 21
352.2747154044
  0
LINE
  5
4C1
100
AcDbEntity
  8
5_ALL_CURVES
100
AcDbLine
 62
40
  6
CONTINUOUS
 10
220.1517380333
 20
352.1215239155
 11
220.2454880244
 21
352.1470558295
  0
LINE
  5
4C2
100
AcDbEntity
  8
5_ALL_CURVES
100
AcDbLine
 62
40
  6
CONTINUOUS
 10
220.1517380333
 20
352.5555664527
 11
220.2454880244
 21
352.5810984003
  0
LINE
  5
4C3
100
AcDbEntity
  8
5_ALL_CURVES
100
AcDbLine
 62
40
  6
CONTINUOUS
 10
220.9392380065
 20
353.1938643562
 11
220.8454880423
 21
353.1683324444
  0
LINE
  5
4C4
100
AcDbEntity
  8
5_ALL_CURVES
100
AcDbLine
 62
40
  6
CONTINUOUS
 10
220.0579880423
 20
353.3215239155
 11
219.9642380378
 21
353.2959920036
  0
LINE
  5
4C5
100
AcDbEntity
  8
5_ALL_CURVES
100
AcDbLine
 62
40
  6
CONTINUOUS
 10
220.9392380065
 20
352.1215239155
 11
221.0517380065
 21
352.1470558295
  0
LINE
  5
4C6
100
AcDbEntity
  8
5_ALL_CURVES
100
AcDbLine
 62
40
  6
CONTINUOUS
 10
220.9392380065
 20
353.3215239155
 11
220.8267380065
 21
353.2959920036
  0
LINE
  5
4C7
100
AcDbEntity
  8
5_ALL_CURVES
100
AcDbLine
 62
40
  6
CONTINUOUS
 10
220.0767380512
 20
352.1215239155
 11
220.1517380333
 21
352.1215239155
  0
LINE
  5
4C8
100
AcDbEntity
  8
5_ALL_CURVES
100
AcDbLine
 62
40
  6
CONTINUOUS
 10
220.1704880423
 20
352.2491834926
 11
220.0579880423
 21
352.2491834926
  0
LINE
  5
4C9
100
AcDbEntity
  8
5_ALL_CURVES
100
AcDbLine
 62
40
  6
CONTINUOUS
 10
219.9079880378
 20
352.4023749816
 11
219.8142380434
 21
352.4023749816
  0
LINE
  5
4CA
100
AcDbEntity
  8
5_ALL_CURVES
100
AcDbLine
 62
40
  6
CONTINUOUS
 10
220.0579880423
 20
352.5555664527
 11
220.1517380333
 21
352.5555664527
  0
LINE
  5
4CB
100
AcDbEntity
  8
5_ALL_CURVES
100
AcDbLine
 62
40
  6
CONTINUOUS
 10
220.0392380333
 20
352.6832260477
 11
220.1704880423
 21
352.6832260477
  0
LINE
  5
4CC
100
AcDbEntity
  8
5_ALL_CURVES
100
AcDbLine
 62
40
  6
CONTINUOUS
 10
220.1704880423
 20
353.1938643562
 11
220.0392380333
 21
353.1938643562
  0
LINE
  5
4CD
100
AcDbEntity
  8
5_ALL_CURVES
100
AcDbLine
 62
40
  6
CONTINUOUS
 10
220.1517380333
 20
353.3215239155
 11
220.0579880423
 21
353.3215239155
  0
LINE
  5
4CE
100
AcDbEntity
  8
7_ALL_FEATURES
100
AcDbLine
 62
7
  6
CONTINUOUS
 10
220.3767380423
 20
353.4215239155
 11
220.6767380423
 21
353.4215239155
  0
LINE
  5
4CF
100
AcDbEntity
  8
7_ALL_FEATURES
100
AcDbLine
 62
7
  6
CONTINUOUS
 10
222.0807690205
 20
354.2986871216
 11
222.3762113464
 21
354.2465926683
  0
LINE
  5
4D0
100
AcDbEntity
  8
5_ALL_CURVES
100
AcDbLine
 62
40
  6
CONTINUOUS
 10
221.0517380065
 20
353.2959920036
 11
220.9392380065
 21
353.3215239155
  0
LINE
  5
4D1
100
AcDbEntity
  8
5_ALL_CURVES
100
AcDbLine
 62
40
  6
CONTINUOUS
 10
220.2454880244
 20
353.2959920036
 11
220.1517380333
 21
353.3215239155
  0
LINE
  5
4D2
100
AcDbEntity
  8
5_ALL_CURVES
100
AcDbLine
 62
40
  6
CONTINUOUS
 10
221.032988078
 20
353.1683324444
 11
220.9392380065
 21
353.1938643562
  0
LINE
  5
4D3
100
AcDbEntity
  8
7_ALL_FEATURES
100
AcDbLine
 62
7
  6
CONTINUOUS
 10
223.7375815537
 20
353.8818146207
 11
224.01948934
 21
353.7792085777
  0
LINE
  5
4D4
100
AcDbEntity
  8
7_ALL_FEATURES
100
AcDbLine
 62
7
  6
CONTINUOUS
 10
218.6772647382
 20
354.2465926683
 11
218.9727070641
 21
354.2986871216
  0
LINE
  5
4D5
100
AcDbEntity
  8
7_ALL_FEATURES
100
AcDbLine
 62
7
  6
CONTINUOUS
 10
210.0267380423
 20
356.9908407923
 11
231.5267380423
 21
356.9908407923
  0
LINE
  5
4D6
100
AcDbEntity
  8
7_ALL_FEATURES
100
AcDbLine
 62
7
  6
CONTINUOUS
 10
267.7267380423
 20
317.9215239155
 11
267.4267380423
 21
317.6215239155
  0
LINE
  5
4D7
100
AcDbEntity
  8
7_ALL_FEATURES
100
AcDbLine
 62
7
  6
CONTINUOUS
 10
236.5267380423
 20
371.3215234245
 11
236.2267375692
 21
371.6215239155
  0
LINE
  5
4D8
100
AcDbEntity
  8
7_ALL_FEATURES
100
AcDbLine
 62
7
  6
CONTINUOUS
 10
267.4267380423
 20
317.6215239155
 11
267.4267380423
 21
371.6215239155
  0
LINE
  5
4D9
100
AcDbEntity
  8
7_ALL_FEATURES
100
AcDbLine
 62
7
  6
CONTINUOUS
 10
267.7267380423
 20
317.9215239155
 11
267.7267380423
 21
371.3215239155
  0
LINE
  5
4DA
100
AcDbEntity
  8
02___PRT_ALL_AXES
100
AcDbLine
 62
7
  6
CONTINUOUS
 10
210.0267380423
 20
371.6215239155
 11
236.2267375692
 21
371.6215239155
  0
LINE
  5
4DB
100
AcDbEntity
  8
02___PRT_ALL_AXES
100
AcDbLine
 62
7
  6
CONTINUOUS
 10
236.8267380423
 20
371.6215239155
 11
267.4267380423
 21
371.6215239155
  0
LINE
  5
4DC
100
AcDbEntity
  8
7_ALL_FEATURES
100
AcDbLine
 62
7
  6
CONTINUOUS
 10
267.7267380423
 20
371.3215239155
 11
267.4267380423
 21
371.6215239155
  0
CIRCLE
  5
4DD
100
AcDbEntity
  8
7_ALL_FEATURES
100
AcDbCircle
 62
7
  6
CONTINUOUS
 10
69.1076195773
 20
344.6215239155
 40
27.0
  0
CIRCLE
  5
4DE
100
AcDbEntity
  8
7_ALL_FEATURES
100
AcDbCircle
 62
7
  6
CONTINUOUS
 10
69.1076195773
 20
344.6215239155
 40
26.7
  0
CIRCLE
  5
4DF
100
AcDbEntity
  8
7_ALL_FEATURES
100
AcDbCircle
 62
7
  6
CONTINUOUS
 10
69.1076195773
 20
344.6215239155
 40
26.3
  0
CIRCLE
  5
4E0
100
AcDbEntity
  8
7_ALL_FEATURES
100
AcDbCircle
 62
7
  6
CONTINUOUS
 10
69.1076195773
 20
344.6215239155
 40
26.0
  0
CIRCLE
  5
4E1
100
AcDbEntity
  8
7_ALL_FEATURES
100
AcDbCircle
 62
7
  6
CONTINUOUS
 10
69.1076195773
 20
344.6215239155
 40
25.45
  0
CIRCLE
  5
4E2
100
AcDbEntity
  8
7_ALL_FEATURES
100
AcDbCircle
 62
7
  6
CONTINUOUS
 10
69.1076195773
 20
344.6215239155
 40
24.95
  0
ARC
  5
4E3
100
AcDbEntity
  8
7_ALL_FEATURES
100
AcDbCircle
 62
7
  6
CONTINUOUS
 10
91.1076195773
 20
294.6215239155
 40
5.0
100
AcDbArc
 50
270.0
 51
360.0
  0
ARC
  5
4E4
100
AcDbEntity
  8
7_ALL_FEATURES
100
AcDbCircle
 62
7
  6
CONTINUOUS
 10
47.1076195773
 20
294.6215239155
 40
5.0
100
AcDbArc
 50
180.0
 51
270.0
  0
ARC
  5
4E5
100
AcDbEntity
  8
7_ALL_FEATURES
100
AcDbCircle
 62
3
  6
CONTINUOUS
 10
91.1076195773
 20
294.6215239155
 40
3.0
100
AcDbArc
 50
270.0
 51
360.0
  0
ARC
  5
4E6
100
AcDbEntity
  8
7_ALL_FEATURES
100
AcDbCircle
 62
3
  6
CONTINUOUS
 10
47.1076195773
 20
294.6215239155
 40
3.0
100
AcDbArc
 50
180.0
 51
270.0
  0
ARC
  5
4E7
100
AcDbEntity
  8
7_ALL_FEATURES
100
AcDbCircle
 62
7
  6
CONTINUOUS
 10
97.6076195773
 20
341.9967261771
 40
2.0
100
AcDbArc
 50
338.7494944929
 51
360.0
  0
ARC
  5
4E8
100
AcDbEntity
  8
7_ALL_FEATURES
100
AcDbCircle
 62
7
  6
CONTINUOUS
 10
97.6076195773
 20
347.2463216538
 40
2.0
100
AcDbArc
 50
0.0
 51
21.2505055071
  0
ARC
  5
4E9
100
AcDbEntity
  8
7_ALL_FEATURES
100
AcDbCircle
 62
7
  6
CONTINUOUS
 10
40.6076195773
 20
341.9967261771
 40
2.0
100
AcDbArc
 50
180.0
 51
201.2505055071
  0
ARC
  5
4EA
100
AcDbEntity
  8
7_ALL_FEATURES
100
AcDbCircle
 62
7
  6
CONTINUOUS
 10
40.6076195773
 20
347.2463216538
 40
2.0
100
AcDbArc
 50
158.7494944929
 51
180.0
  0
ARC
  5
4EB
100
AcDbEntity
  8
7_ALL_FEATURES
100
AcDbCircle
 62
7
  6
CONTINUOUS
 10
97.3445692475
 20
337.8715239155
 40
0.75
100
AcDbArc
 50
270.0
 51
338.7494944929
  0
ARC
  5
4EC
100
AcDbEntity
  8
7_ALL_FEATURES
100
AcDbCircle
 62
7
  6
CONTINUOUS
 10
97.3445692475
 20
351.3715239155
 40
0.75
100
AcDbArc
 50
21.2505055071
 51
90.0
  0
ARC
  5
4ED
100
AcDbEntity
  8
7_ALL_FEATURES
100
AcDbCircle
 62
7
  6
CONTINUOUS
 10
40.8706699071
 20
337.8715239155
 40
0.75
100
AcDbArc
 50
201.2505055071
 51
270.0
  0
ARC
  5
4EE
100
AcDbEntity
  8
7_ALL_FEATURES
100
AcDbCircle
 62
7
  6
CONTINUOUS
 10
40.8706699071
 20
351.3715239155
 40
0.75
100
AcDbArc
 50
90.0
 51
158.7494944929
  0
ARC
  5
4EF
100
AcDbEntity
  8
7_ALL_FEATURES
100
AcDbCircle
 62
7
  6
CONTINUOUS
 10
76.6076195773
 20
318.1215239155
 40
0.5
100
AcDbArc
 50
270.0
 51
360.0
  0
ARC
  5
4F0
100
AcDbEntity
  8
7_ALL_FEATURES
100
AcDbCircle
 62
7
  6
CONTINUOUS
 10
61.6076195773
 20
318.1215239155
 40
0.5
100
AcDbArc
 50
180.0
 51
270.0
  0
ARC
  5
4F1
100
AcDbEntity
  8
7_ALL_FEATURES
100
AcDbCircle
 62
7
  6
CONTINUOUS
 10
96.7076195773
 20
337.2215239155
 40
0.1
100
AcDbArc
 50
180.0
 51
270.0
  0
ARC
  5
4F2
100
AcDbEntity
  8
7_ALL_FEATURES
100
AcDbCircle
 62
7
  6
CONTINUOUS
 10
96.7076195773
 20
352.0215239155
 40
0.1
100
AcDbArc
 50
90.0
 51
180.0
  0
ARC
  5
4F3
100
AcDbEntity
  8
7_ALL_FEATURES
100
AcDbCircle
 62
7
  6
CONTINUOUS
 10
41.5076195773
 20
337.2215239155
 40
0.1
100
AcDbArc
 50
270.0
 51
360.0
  0
ARC
  5
4F4
100
AcDbEntity
  8
7_ALL_FEATURES
100
AcDbCircle
 62
7
  6
CONTINUOUS
 10
41.5076195773
 20
352.0215239155
 40
0.1
100
AcDbArc
 50
0.0
 51
90.0
  0
ARC
  5
4F5
100
AcDbEntity
  8
3_ALL_AXES
100
AcDbCircle
 62
3
  6
CONTINUOUS
 10
69.1076195773
 20
189.6357862903
 40
17.75
100
AcDbArc
 50
330.0
 51
30.0
  0
ARC
  5
4F6
100
AcDbEntity
  8
3_ALL_AXES
100
AcDbCircle
 62
3
  6
CONTINUOUS
 10
69.1076195773
 20
189.6357862903
 40
17.75
100
AcDbArc
 50
150.0
 51
210.0
  0
ARC
  5
4F7
100
AcDbEntity
  8
3_ALL_AXES
100
AcDbCircle
 62
3
  6
CONTINUOUS
 10
69.1076195773
 20
189.6357862903
 40
12.25
100
AcDbArc
 50
330.0
 51
30.0
  0
ARC
  5
4F8
100
AcDbEntity
  8
3_ALL_AXES
100
AcDbCircle
 62
3
  6
CONTINUOUS
 10
69.1076195773
 20
189.6357862903
 40
12.25
100
AcDbArc
 50
150.0
 51
210.0
  0
CIRCLE
  5
4F9
100
AcDbEntity
  8
3_ALL_AXES
100
AcDbCircle
 62
3
  6
CONTINUOUS
 10
69.1076195773
 20
189.6357862903
 40
8.6
  0
ARC
  5
4FA
100
AcDbEntity
  8
3_ALL_AXES
100
AcDbCircle
 62
7
  6
CONTINUOUS
 10
49.0076195773
 20
156.1357862903
 40
3.988734135
100
AcDbArc
 50
185.3224803468
 51
192.082276636
  0
ARC
  5
4FB
100
AcDbEntity
  8
3_ALL_AXES
100
AcDbCircle
 62
7
  6
CONTINUOUS
 10
49.0076195773
 20
156.1357862903
 40
3.988734135
100
AcDbArc
 50
167.9181109414
 51
174.6775196532
  0
ARC
  5
4FC
100
AcDbEntity
  8
3_ALL_AXES
100
AcDbCircle
 62
3
  6
CONTINUOUS
 10
82.0980006341
 20
182.1357862903
 40
2.75
100
AcDbArc
 50
150.0
 51
330.0
  0
ARC
  5
4FD
100
AcDbEntity
  8
3_ALL_AXES
100
AcDbCircle
 62
3
  6
CONTINUOUS
 10
82.0980006341
 20
197.1357862903
 40
2.75
100
AcDbArc
 50
30.0
 51
210.0
  0
ARC
  5
4FE
100
AcDbEntity
  8
3_ALL_AXES
100
AcDbCircle
 62
3
  6
CONTINUOUS
 10
56.1172385206
 20
182.1357862903
 40
2.75
100
AcDbArc
 50
210.0
 51
30.0
  0
ARC
  5
4FF
100
AcDbEntity
  8
3_ALL_AXES
100
AcDbCircle
 62
3
  6
CONTINUOUS
 10
56.1172385206
 20
197.1357862903
 40
2.75
100
AcDbArc
 50
330.0
 51
150.0
  0
ARC
  5
500
100
AcDbEntity
  8
7_ALL_FEATURES
100
AcDbCircle
 62
7
  6
CONTINUOUS
 10
97.6076195773
 20
161.010988552
 40
2.0
100
AcDbArc
 50
338.7494944929
 51
360.0
  0
ARC
  5
501
100
AcDbEntity
  8
7_ALL_FEATURES
100
AcDbCircle
 62
7
  6
CONTINUOUS
 10
97.6076195773
 20
166.2605840287
 40
2.0
100
AcDbArc
 50
0.0
 51
21.2505055071
  0
ARC
  5
502
100
AcDbEntity
  8
7_ALL_FEATURES
100
AcDbCircle
 62
7
  6
CONTINUOUS
 10
40.6076195773
 20
166.2605840287
 40
2.0
100
AcDbArc
 50
158.7494944929
 51
180.0
  0
ARC
  5
503
100
AcDbEntity
  8
7_ALL_FEATURES
100
AcDbCircle
 62
7
  6
CONTINUOUS
 10
40.6076195773
 20
161.010988552
 40
2.0
100
AcDbArc
 50
180.0
 51
201.2505055071
  0
ARC
  5
504
100
AcDbEntity
  8
7_ALL_FEATURES
100
AcDbCircle
 62
7
  6
CONTINUOUS
 10
97.3445692475
 20
170.3857862903
 40
0.75
100
AcDbArc
 50
21.2505055071
 51
90.0
  0
ARC
  5
505
100
AcDbEntity
  8
7_ALL_FEATURES
100
AcDbCircle
 62
7
  6
CONTINUOUS
 10
97.3445692475
 20
156.8857862903
 40
0.75
100
AcDbArc
 50
270.0
 51
338.7494944929
  0
ARC
  5
506
100
AcDbEntity
  8
7_ALL_FEATURES
100
AcDbCircle
 62
7
  6
CONTINUOUS
 10
40.8706699071
 20
156.8857862903
 40
0.75
100
AcDbArc
 50
201.2505055071
 51
270.0
  0
ARC
  5
507
100
AcDbEntity
  8
7_ALL_FEATURES
100
AcDbCircle
 62
7
  6
CONTINUOUS
 10
40.8706699071
 20
170.3857862903
 40
0.75
100
AcDbArc
 50
90.0
 51
158.7494944929
  0
ARC
  5
508
100
AcDbEntity
  8
7_ALL_FEATURES
100
AcDbCircle
 62
7
  6
CONTINUOUS
 10
96.7076195773
 20
171.0357862903
 40
0.1
100
AcDbArc
 50
90.0
 51
180.0
  0
ARC
  5
509
100
AcDbEntity
  8
7_ALL_FEATURES
100
AcDbCircle
 62
7
  6
CONTINUOUS
 10
96.7076195773
 20
156.2357862903
 40
0.1
100
AcDbArc
 50
180.0
 51
270.0
  0
ARC
  5
50A
100
AcDbEntity
  8
7_ALL_FEATURES
100
AcDbCircle
 62
7
  6
CONTINUOUS
 10
41.5076195773
 20
156.2357862903
 40
0.1
100
AcDbArc
 50
270.0
 51
360.0
  0
ARC
  5
50B
100
AcDbEntity
  8
7_ALL_FEATURES
100
AcDbCircle
 62
7
  6
CONTINUOUS
 10
41.5076195773
 20
171.0357862903
 40
0.1
100
AcDbArc
 50
0.0
 51
90.0
  0
ARC
  5
50C
100
AcDbEntity
  8
7_ALL_FEATURES
100
AcDbCircle
 62
7
  6
CONTINUOUS
 10
202.0267380423
 20
294.1995694324
 40
20.0
100
AcDbArc
 50
149.6636392614
 51
180.0
  0
ARC
  5
50D
100
AcDbEntity
  8
7_ALL_FEATURES
100
AcDbCircle
 62
7
  6
CONTINUOUS
 10
218.0267380423
 20
318.1215239155
 40
0.5
100
AcDbArc
 50
258.058400258
 51
270.0
  0
ARC
  5
50E
100
AcDbEntity
  8
7_ALL_FEATURES
100
AcDbCircle
 62
7
  6
CONTINUOUS
 10
220.5267380423
 20
344.6215239155
 40
10.5
100
AcDbArc
 50
93.7945765388
 51
97.1095291922
  0
ARC
  5
50F
100
AcDbEntity
  8
7_ALL_FEATURES
100
AcDbCircle
 62
7
  6
CONTINUOUS
 10
220.5267380423
 20
344.6215239155
 40
10.5
100
AcDbArc
 50
102.8904708078
 51
107.1095291922
  0
ARC
  5
510
100
AcDbEntity
  8
7_ALL_FEATURES
100
AcDbCircle
 62
7
  6
CONTINUOUS
 10
220.5267380423
 20
344.6215239155
 40
10.5
100
AcDbArc
 50
112.8904708078
 51
117.1095291922
  0
ARC
  5
511
100
AcDbEntity
  8
7_ALL_FEATURES
100
AcDbCircle
 62
7
  6
CONTINUOUS
 10
220.5267380423
 20
344.6215239155
 40
10.5
100
AcDbArc
 50
122.8904708078
 51
127.1095291922
  0
ARC
  5
512
100
AcDbEntity
  8
7_ALL_FEATURES
100
AcDbCircle
 62
7
  6
CONTINUOUS
 10
220.5267380423
 20
344.6215239155
 40
10.5
100
AcDbArc
 50
132.8904708078
 51
137.1095291922
  0
ARC
  5
513
100
AcDbEntity
  8
7_ALL_FEATURES
100
AcDbCircle
 62
7
  6
CONTINUOUS
 10
220.5267380423
 20
344.6215239155
 40
10.5
100
AcDbArc
 50
142.8904708078
 51
149.6636392614
  0
ARC
  5
514
100
AcDbEntity
  8
7_ALL_FEATURES
100
AcDbCircle
 62
7
  6
CONTINUOUS
 10
220.5267380423
 20
344.6215239155
 40
10.5
100
AcDbArc
 50
276.4099958862
 51
307.1095291922
  0
ARC
  5
515
100
AcDbEntity
  8
7_ALL_FEATURES
100
AcDbCircle
 62
7
  6
CONTINUOUS
 10
220.5267380423
 20
344.6215239155
 40
10.5
100
AcDbArc
 50
312.8904708078
 51
317.1095291922
  0
ARC
  5
516
100
AcDbEntity
  8
7_ALL_FEATURES
100
AcDbCircle
 62
7
  6
CONTINUOUS
 10
220.5267380423
 20
344.6215239155
 40
10.5
100
AcDbArc
 50
322.8904708078
 51
327.1095291922
  0
ARC
  5
517
100
AcDbEntity
  8
7_ALL_FEATURES
100
AcDbCircle
 62
7
  6
CONTINUOUS
 10
220.5267380423
 20
344.6215239155
 40
10.5
100
AcDbArc
 50
332.8904708078
 51
337.1095291922
  0
ARC
  5
518
100
AcDbEntity
  8
7_ALL_FEATURES
100
AcDbCircle
 62
7
  6
CONTINUOUS
 10
220.5267380423
 20
344.6215239155
 40
10.5
100
AcDbArc
 50
342.8904708078
 51
347.1095291922
  0
ARC
  5
519
100
AcDbEntity
  8
7_ALL_FEATURES
100
AcDbCircle
 62
7
  6
CONTINUOUS
 10
220.5267380423
 20
344.6215239155
 40
10.5
100
AcDbArc
 50
352.8904708078
 51
356.2054234612
  0
ARC
  5
51A
100
AcDbEntity
  8
7_ALL_FEATURES
100
AcDbCircle
 62
7
  6
CONTINUOUS
 10
220.5267380423
 20
344.6215239155
 40
10.5
100
AcDbArc
 50
3.7945765388
 51
7.1095291922
  0
ARC
  5
51B
100
AcDbEntity
  8
7_ALL_FEATURES
100
AcDbCircle
 62
7
  6
CONTINUOUS
 10
220.5267380423
 20
344.6215239155
 40
10.5
100
AcDbArc
 50
12.8904708078
 51
17.1095291922
  0
ARC
  5
51C
100
AcDbEntity
  8
7_ALL_FEATURES
100
AcDbCircle
 62
7
  6
CONTINUOUS
 10
220.5267380423
 20
344.6215239155
 40
10.5
100
AcDbArc
 50
22.8904708078
 51
27.1095291922
  0
ARC
  5
51D
100
AcDbEntity
  8
7_ALL_FEATURES
100
AcDbCircle
 62
7
  6
CONTINUOUS
 10
220.5267380423
 20
344.6215239155
 40
10.5
100
AcDbArc
 50
32.8904708078
 51
37.1095291922
  0
ARC
  5
51E
100
AcDbEntity
  8
7_ALL_FEATURES
100
AcDbCircle
 62
7
  6
CONTINUOUS
 10
220.5267380423
 20
344.6215239155
 40
10.5
100
AcDbArc
 50
42.8904708078
 51
47.1095291922
  0
ARC
  5
51F
100
AcDbEntity
  8
7_ALL_FEATURES
100
AcDbCircle
 62
7
  6
CONTINUOUS
 10
220.5267380423
 20
344.6215239155
 40
10.5
100
AcDbArc
 50
52.8904708078
 51
57.1095291922
  0
ARC
  5
520
100
AcDbEntity
  8
7_ALL_FEATURES
100
AcDbCircle
 62
7
  6
CONTINUOUS
 10
220.5267380423
 20
344.6215239155
 40
10.5
100
AcDbArc
 50
62.8904708078
 51
67.1095291922
  0
ARC
  5
521
100
AcDbEntity
  8
7_ALL_FEATURES
100
AcDbCircle
 62
7
  6
CONTINUOUS
 10
220.5267380423
 20
344.6215239155
 40
10.5
100
AcDbArc
 50
72.8904708078
 51
77.1095291922
  0
ARC
  5
522
100
AcDbEntity
  8
7_ALL_FEATURES
100
AcDbCircle
 62
7
  6
CONTINUOUS
 10
220.5267380423
 20
344.6215239155
 40
10.5
100
AcDbArc
 50
82.8904708078
 51
86.2054234612
  0
CIRCLE
  5
523
100
AcDbEntity
  8
7_ALL_FEATURES
100
AcDbCircle
 62
7
  6
CONTINUOUS
 10
220.5267380423
 20
344.6215239155
 40
7.5
  0
CIRCLE
  5
524
100
AcDbEntity
  8
7_ALL_FEATURES
100
AcDbCircle
 62
9
  6
CONTINUOUS
 10
220.5267380423
 20
344.6215239155
 40
7.0218346959
  0
CIRCLE
  5
525
100
AcDbEntity
  8
7_ALL_FEATURES
100
AcDbCircle
 62
9
  6
CONTINUOUS
 10
220.5267380423
 20
344.6215239155
 40
3.3496902606
  0
CIRCLE
  5
526
100
AcDbEntity
  8
7_ALL_FEATURES
100
AcDbCircle
 62
9
  6
CONTINUOUS
 10
220.5267380423
 20
344.6215239155
 40
2.6247977383
  0
ARC
  5
527
100
AcDbEntity
  8
7_ALL_FEATURES
100
AcDbCircle
 62
7
  6
CONTINUOUS
 10
227.0267380423
 20
295.552477927
 40
20.0
100
AcDbArc
 50
157.0
 51
180.0
  0
ARC
  5
528
100
AcDbEntity
  8
7_ALL_FEATURES
100
AcDbCircle
 62
7
  6
CONTINUOUS
 10
233.0267380423
 20
318.1215239155
 40
0.5
100
AcDbArc
 50
270.0
 51
281.9416000796
  0
ARC
  5
529
100
AcDbEntity
  8
7_ALL_FEATURES
100
AcDbCircle
 62
7
  6
CONTINUOUS
 10
249.4520673218
 20
338.9185740355
 40
43.370075104
100
AcDbArc
 50
155.3736439861
 51
157.0100257679
  0
ARC
  5
52A
100
AcDbEntity
  8
02___PRT_ALL_AXES
100
AcDbCircle
 62
7
  6
CONTINUOUS
 10
228.0267380423
 20
344.6215239155
 40
3.0
100
AcDbArc
 50
27.5885218098
 51
40.9059212788
  0
ARC
  5
52B
100
AcDbEntity
  8
02___PRT_ALL_AXES
100
AcDbCircle
 62
7
  6
CONTINUOUS
 10
228.0267380423
 20
344.6215239155
 40
3.0
100
AcDbArc
 50
319.0940787212
 51
332.4114781902
  0
ARC
  5
52C
100
AcDbEntity
  8
02___PRT_ALL_AXES
100
AcDbCircle
 62
7
  6
CONTINUOUS
 10
228.0267380423
 20
344.6215239155
 40
3.0
100
AcDbArc
 50
346.9562557359
 51
13.0437442641
  0
ARC
  5
52D
100
AcDbEntity
  8
3_ALL_AXES
100
AcDbCircle
 62
7
  6
CONTINUOUS
 10
228.0267380423
 20
344.6215239155
 40
2.75
100
AcDbArc
 50
33.4591771451
 51
38.5162911609
  0
ARC
  5
52E
100
AcDbEntity
  8
3_ALL_AXES
100
AcDbCircle
 62
7
  6
CONTINUOUS
 10
228.0267380423
 20
344.6215239155
 40
2.75
100
AcDbArc
 50
321.4837088391
 51
326.5408228549
  0
ARC
  5
52F
100
AcDbEntity
  8
3_ALL_AXES
100
AcDbCircle
 62
7
  6
CONTINUOUS
 10
228.0267380423
 20
344.6215239155
 40
2.75
100
AcDbArc
 50
347.4109669959
 51
12.5890330041
  0
ARC
  5
530
100
AcDbEntity
  8
3_ALL_AXES
100
AcDbCircle
 62
7
  6
CONTINUOUS
 10
228.0267380423
 20
344.6215239155
 40
2.1
100
AcDbArc
 50
349.0973658936
 51
10.9026341064
  0
ARC
  5
531
100
AcDbEntity
  8
5_ALL_CURVES
100
AcDbCircle
 62
40
  6
CONTINUOUS
 10
227.4544985445
 20
351.5492844177
 40
0.2
100
AcDbArc
 50
315.0
 51
135.0
  0
SPLINE
  5
532
100
AcDbEntity
  8
3_ALL_AXES
100
AcDbSpline
 62
7
  6
CONTINUOUS
 70
0
 71
3
 72
14
 73
10
 74
0
 42
0.0000001
 43
0.0000001
 44
0.0000000001
 40
0.0
 40
0.0
 40
0.0
 40
0.0
 40
0.0249596442
 40
0.0825554873
 40
0.1744553911
 40
0.2978949108
 40
0.4483507035
 40
0.6200020634
 40
1.0
 40
1.0
 40
1.0
 40
1.0
 10
45.0360833506
 20
155.8357862903
 30
0.0
 10
45.0354957768
 20
155.8357862903
 30
0.0
 10
45.0344507107
 20
155.8334827854
 30
0.0
 10
45.0339775372
 20
155.8298214682
 30
0.0
 10
45.0334274042
 20
155.8231957508
 30
0.0
 10
45.0333404779
 20
155.8146711253
 30
0.0
 10
45.033523846
 20
155.8041512751
 30
0.0
 10
45.0342681141
 20
155.7876517144
 30
0.0
 10
45.0352535535
 20
155.7746932344
 30
0.0
 10
45.0360833506
 20
155.7657862903
 30
0.0
  0
SPLINE
  5
533
100
AcDbEntity
  8
3_ALL_AXES
100
AcDbSpline
 62
7
  6
CONTINUOUS
 70
0
 71
3
 72
14
 73
10
 74
0
 42
0.0000001
 43
0.0000001
 44
0.0000000001
 40
0.0
 40
0.0
 40
0.0
 40
0.0
 40
0.3799996975
 40
0.5516495599
 40
0.7021098482
 40
0.8255457635
 40
0.9174434921
 40
0.9750406164
 40
1.0
 40
1.0
 40
1.0
 40
1.0
 10
45.0360833506
 20
156.5057862903
 30
0.0
 10
45.0352535496
 20
156.4968793045
 30
0.0
 10
45.0342680884
 20
156.4839208192
 30
0.0
 10
45.0335238508
 20
156.467421143
 30
0.0
 10
45.033340485
 20
156.4569013085
 30
0.0
 10
45.0334273822
 20
156.448376704
 30
0.0
 10
45.0339775745
 20
156.4417511134
 30
0.0
 10
45.0344506797
 20
156.4380898011
 30
0.0
 10
45.0354957829
 20
156.4357862903
 30
0.0
 10
45.0360833506
 20
156.4357862903
 30
0.0
  0
SPLINE
  5
534
100
AcDbEntity
  8
7_ALL_FEATURES
100
AcDbSpline
 62
7
  6
CONTINUOUS
 70
0
 71
3
 72
10
 73
6
 74
0
 42
0.0000001
 43
0.0000001
 44
0.0000000001
 40
0.0
 40
0.0
 40
0.0
 40
0.0
 40
0.4105017683
 40
0.7069306722
 40
1.0
 40
1.0
 40
1.0
 40
1.0
 10
96.0897832051
 20
202.1357862903
 30
0.0
 10
96.09238518
 20
202.1357862903
 30
0.0
 10
96.0970357073
 20
202.1356024978
 30
0.0
 10
96.1027670434
 20
202.1350742365
 30
0.0
 10
96.1076195773
 20
202.1331922819
 30
0.0
 10
96.1076195773
 20
202.1313346553
 30
0.0
  0
SPLINE
  5
535
100
AcDbEntity
  8
7_ALL_FEATURES
100
AcDbSpline
 62
7
  6
CONTINUOUS
 70
0
 71
3
 72
10
 73
6
 74
0
 42
0.0000001
 43
0.0000001
 44
0.0000000001
 40
0.0
 40
0.0
 40
0.0
 40
0.0
 40
0.2930693276
 40
0.5894982317
 40
1.0
 40
1.0
 40
1.0
 40
1.0
 10
42.1076195773
 20
202.1313346553
 30
0.0
 10
42.1076195773
 20
202.1331922819
 30
0.0
 10
42.1124721112
 20
202.1350742365
 30
0.0
 10
42.1182034474
 20
202.1356024978
 30
0.0
 10
42.1228539746
 20
202.1357862903
 30
0.0
 10
42.1254559495
 20
202.1357862903
 30
0.0
  0
LINE
  5
536
100
AcDbEntity
  8
7_ALL_FEATURES
100
AcDbLine
 62
7
  6
CONTINUOUS
 10
42.4078885169
 20
147.6357862903
 11
42.109275275
 21
147.9357862903
  0
LINE
  5
537
100
AcDbEntity
  8
7_ALL_FEATURES
100
AcDbLine
 62
7
  6
CONTINUOUS
 10
96.1059638796
 20
147.9357862903
 11
95.8073506378
 21
147.6357862903
  0
SPLINE
  5
538
100
AcDbEntity
  8
7_ALL_FEATURES
100
AcDbSpline
 62
3
  6
CONTINUOUS
 70
0
 71
3
 72
13
 73
9
 74
0
 42
0.0000001
 43
0.0000001
 44
0.0000000001
 40
0.0
 40
0.0
 40
0.0
 40
0.0
 40
0.0874657477
 40
0.1669671502
 40
0.2746188247
 40
0.41142681
 40
0.5778190779
 40
1.0
 40
1.0
 40
1.0
 40
1.0
 10
94.1076195773
 20
202.1313346553
 30
0.0
 10
94.1076195773
 20
202.1322350181
 30
0.0
 10
94.1057608778
 20
202.1334443491
 30
0.0
 10
94.1031886637
 20
202.1341454262
 30
0.0
 10
94.099849275
 20
202.1347766398
 30
0.0
 10
94.0956634154
 20
202.1352223866
 30
0.0
 10
94.0882002318
 20
202.1357057456
 30
0.0
 10
94.0821429673
 20
202.1357862903
 30
0.0
 10
94.0777970828
 20
202.1357862903
 30
0.0
  0
SPLINE
  5
539
100
AcDbEntity
  8
7_ALL_FEATURES
100
AcDbSpline
 62
3
  6
CONTINUOUS
 70
0
 71
3
 72
13
 73
9
 74
0
 42
0.0000001
 43
0.0000001
 44
0.0000000001
 40
0.0
 40
0.0
 40
0.0
 40
0.0
 40
0.4221809221
 40
0.5885731902
 40
0.725381176
 40
0.8330328505
 40
0.9125342528
 40
1.0
 40
1.0
 40
1.0
 40
1.0
 10
44.1374420718
 20
202.1357862903
 30
0.0
 10
44.1330961873
 20
202.1357862903
 30
0.0
 10
44.1270389228
 20
202.1357057456
 30
0.0
 10
44.1195757392
 20
202.1352223866
 30
0.0
 10
44.1153898797
 20
202.1347766398
 30
0.0
 10
44.1120504909
 20
202.1341454262
 30
0.0
 10
44.1094782769
 20
202.1334443491
 30
0.0
 10
44.1076195773
 20
202.1322350181
 30
0.0
 10
44.1076195773
 20
202.1313346553
 30
0.0
  0
SPLINE
  5
53A
100
AcDbEntity
  8
0
100
AcDbSpline
 62
2
  6
CONTINUOUS
 70
0
 71
3
 72
36
 73
32
 74
0
 42
0.0000001
 43
0.0000001
 44
0.0000000001
 40
0.0
 40
0.0
 40
0.0
 40
0.0
 40
0.0344820235
 40
0.0689648084
 40
0.1034475932
 40
0.1379303781
 40
0.172413163
 40
0.2068959479
 40
0.2413787327
 40
0.2758615176
 40
0.3103443025
 40
0.3448270874
 40
0.3793098722
 40
0.4137926571
 40
0.448275442
 40
0.4827582269
 40
0.5172410117
 40
0.5517237966
 40
0.5862065815
 40
0.6206893664
 40
0.6551721512
 40
0.6896549361
 40
0.724137721
 40
0.7586205059
 40
0.7931032907
 40
0.8275860756
 40
0.8620688605
 40
0.8965516454
 40
0.9310344302
 40
0.9655172151
 40
1.0
 40
1.0
 40
1.0
 40
1.0
 10
217.5267380423
 20
317.6215239155
 30
0.0
 10
217.5267381867
 20
317.6215239582
 30
0.0
 10
217.534292315
 20
317.6237636743
 30
0.0
 10
217.5683176454
 20
317.6338256746
 30
0.0
 10
217.6249863065
 20
317.6504969619
 30
0.0
 10
217.7044048571
 20
317.6736777414
 30
0.0
 10
217.8063918385
 20
317.7031317312
 30
0.0
 10
217.9311479178
 20
317.7386790288
 30
0.0
 10
218.0782781859
 20
317.7799171577
 30
0.0
 10
218.2480097371
 20
317.8265648712
 30
0.0
 10
218.439672513
 20
317.8780428446
 30
0.0
 10
218.6534054931
 20
317.933941332
 30
0.0
 10
218.8882088069
 20
317.9935074049
 30
0.0
 10
219.144021476
 20
318.0561910169
 30
0.0
 10
219.4194742681
 20
318.1210898974
 30
0.0
 10
219.7142419087
 20
318.1875331678
 30
0.0
 10
220.0265907717
 20
318.25452239
 30
0.0
 10
220.355943866
 20
318.3213200857
 30
0.0
 10
220.7002785279
 20
318.3869115261
 30
0.0
 10
221.058855553
 20
318.4505685346
 30
0.0
 10
221.4295047948
 20
318.5113490956
 30
0.0
 10
221.8114540578
 20
318.5686067287
 30
0.0
 10
222.2025543325
 20
318.621545066
 30
0.0
 10
222.6021094517
 20
318.6696453207
 30
0.0
 10
223.0081455077
 20
318.7122971804
 30
0.0
 10
223.4200811392
 20
318.749121908
 30
0.0
 10
223.8362151749
 20
318.7797003412
 30
0.0
 10
224.2560258293
 20
318.8037835683
 30
0.0
 10
224.6781838506
 20
318.8211275327
 30
0.0
 10
225.1021043152
 20
318.8316005592
 30
0.0
 10
225.3852471153
 20
318.8339254561
 30
0.0
 10
225.5267380423
 20
318.833929999
 30
0.0
  0
SPLINE
  5
53B
100
AcDbEntity
  8
0
100
AcDbSpline
 62
2
  6
CONTINUOUS
 70
0
 71
3
 72
36
 73
32
 74
0
 42
0.0000001
 43
0.0000001
 44
0.0000000001
 40
0.0
 40
0.0
 40
0.0
 40
0.0
 40
0.0344827324
 40
0.0689654647
 40
0.1034481971
 40
0.1379309295
 40
0.1724136618
 40
0.2068963942
 40
0.2413791266
 40
0.2758618589
 40
0.3103445913
 40
0.3448273237
 40
0.379310056
 40
0.4137927884
 40
0.4482755208
 40
0.4827582531
 40
0.5172409855
 40
0.5517237179
 40
0.5862064502
 40
0.6206891826
 40
0.655171915
 40
0.6896546473
 40
0.7241373797
 40
0.7586201121
 40
0.7931028444
 40
0.8275855768
 40
0.8620683092
 40
0.8965510415
 40
0.9310337739
 40
0.9655165063
 40
1.0
 40
1.0
 40
1.0
 40
1.0
 10
225.5267380423
 20
318.833929999
 30
0.0
 10
225.6682288203
 20
318.8339254463
 30
0.0
 10
225.9513712095
 20
318.8316005455
 30
0.0
 10
226.3752863128
 20
318.8211277287
 30
0.0
 10
226.7974475491
 20
318.8037836839
 30
0.0
 10
227.2172507561
 20
318.7797010065
 30
0.0
 10
227.6333909565
 20
318.7491222249
 30
0.0
 10
228.0453182748
 20
318.7122983743
 30
0.0
 10
228.451361586
 20
318.6696458879
 30
0.0
 10
228.8509086097
 20
318.6215467439
 30
0.0
 10
229.2420164957
 20
318.56860752
 30
0.0
 10
229.6239583246
 20
318.5113511276
 30
0.0
 10
229.9946149379
 20
318.4505694942
 30
0.0
 10
230.3531853847
 20
318.3869137629
 30
0.0
 10
230.6975268281
 20
318.3213211513
 30
0.0
 10
231.0268743525
 20
318.2545246736
 30
0.0
 10
231.3392290694
 20
318.187534297
 30
0.0
 10
231.6339923728
 20
318.1210920708
 30
0.0
 10
231.9094497467
 20
318.0561921912
 30
0.0
 10
232.1652596024
 20
317.9935093155
 30
0.0
 10
232.4000658928
 20
317.9339425475
 30
0.0
 10
232.613797842
 20
317.8780443607
 30
0.0
 10
232.8054617758
 20
317.826566117
 30
0.0
 10
232.9751941398
 20
317.7799181997
 30
0.0
 10
233.1223238343
 20
317.7386802549
 30
0.0
 10
233.2470822392
 20
317.7031323071
 30
0.0
 10
233.3490675163
 20
317.673678819
 30
0.0
 10
233.4284890335
 20
317.6504971811
 30
0.0
 10
233.4851560877
 20
317.6338263676
 30
0.0
 10
233.5191841363
 20
317.6237635666
 30
0.0
 10
233.5267381867
 20
317.6215238727
 30
0.0
 10
233.5267380423
 20
317.6215239155
 30
0.0
  0
LINE
  5
53C
100
AcDbEntity
  8
7_ALL_FEATURES
100
AcDbLine
 62
7
  6
CONTINUOUS
 10
236.5267380423
 20
344.7413625517
 11
236.2267380423
 21
344.9205304968
  0
LINE
  5
53D
100
AcDbEntity
  8
7_ALL_FEATURES
100
AcDbLine
 62
7
  6
CONTINUOUS
 10
236.2267380423
 20
344.3225173341
 11
236.5267380423
 21
344.5016852792
  0
ENDSEC
  0
SECTION
  2
OBJECTS
  0
DICTIONARY
  5
53E
100
AcDbDictionary
  3
ACAD_GROUP
350
53F
  3
ACAD_MLINESTYLE
350
540
  0
DICTIONARY
  5
53F
102
{ACAD_REACTORS
330
53E
102
}
100
AcDbDictionary
  0
DICTIONARY
  5
540
102
{ACAD_REACTORS
330
53E
102
}
100
AcDbDictionary
  3
STANDARD
350
541
  0
MLINESTYLE
  5
541
102
{ACAD_REACTORS
330
540
102
}
100
AcDbMlineStyle
  2
STANDARD
 70
0
  3

 62
256
 51
90.0
 52
90.0
 71
2
 49
0.5
 62
256
  6
BYLAYER
 49
-0.5
 62
256
  6
BYLAYER
  0
ENDSEC
  0
EOF
