999
DXF file: 451_c_210.dxf
999
Pro/ENGINEER 2016360 by Parametric Technology Corporation
  0
SECTION
  2
HEADER
  9
$ACADVER
  1
AC1014
  9
$DWGCODEPAGE
  3
ANSI_1252
  9
$EXTMAX
 10
297.0
 20
210.0
 30
0.0
  9
$EXTMIN
 10
0.0
 20
0.0
 30
0.0
  9
$LIMMIN
 10
0.0
 20
0.0
  9
$LIMMAX
 10
297.0
 20
210.0
  9
$VIEWCTR
 10
148.5
 20
105.0
  9
$VIEWSIZE
 40
210.0
  9
$CLAYER
  8
0
  9
$LTSCALE
 40
16.335
  9
$CELTYPE
  6
BYLAYER
  9
$DIMSCALE
 40
1.0
  9
$DIMASZ
 40
2.5
  9
$DIMEXO
 40
0.75
  9
$DIMDLI
 40
11.286
  9
$DIMEXE
 40
0.75
  9
$DIMCEN
 40
2.673
  9
$DIMLFAC
 40
1.0
  9
$DIMBLK
  1
_CLOSED
  9
$DIMALT
 70
0
  9
$DIMALTF
 40
25.4
  9
$DIMTXT
 40
3.0
  9
$DIMTOL
 70
1
  9
$DIMLIM
 70
0
  9
$DIMTFAC
 40
1.0
  9
$DIMTP
 40
0.01
  9
$DIMTM
 40
0.01
  9
$DIMGAP
 40
0.625
  9
$AUNITS
 70
0
  9
$PDMODE
 70
3
  9
$PDSIZE
 40
0.3125
  9
$HANDSEED
  5
6C6
  9
$TILEMODE
 70
1
  9
$MEASUREMENT
 70
1
  0
ENDSEC
  0
SECTION
  2
CLASSES
  0
ENDSEC
  0
SECTION
  2
TABLES
  0
TABLE
  2
VPORT
  5
8
100
AcDbSymbolTable
 70
2
  0
VPORT
  5
1F4
100
AcDbSymbolTableRecord
100
AcDbViewportTableRecord
  2
*ACTIVE
 70
0
 10
0.0
 20
0.0
 11
1.0
 21
1.0
 12
148.5
 22
105.0
 13
0.0
 23
0.0
 14
1.0
 24
1.0
 15
0.0
 25
0.0
 16
0.0
 26
0.0
 36
1.0
 17
0.0
 27
0.0
 37
0.0
 40
210.0
 41
1.4142857143
 42
50.0
 43
0.0
 44
0.0
 50
0.0
 51
0.0
 71
0
 72
100
 73
1
 74
1
 75
0
 76
0
 77
0
 78
0
  0
ENDTAB
  0
TABLE
  2
LTYPE
  5
5
100
AcDbSymbolTable
 70
6
  0
LTYPE
  5
14
100
AcDbSymbolTableRecord
100
AcDbLinetypeTableRecord
  2
BYBLOCK
 70
0
  3

 72
65
 73
0
 40
0.0
  0
LTYPE
  5
15
100
AcDbSymbolTableRecord
100
AcDbLinetypeTableRecord
  2
BYLAYER
 70
0
  3

 72
65
 73
0
 40
0.0
  0
LTYPE
  5
16
100
AcDbSymbolTableRecord
100
AcDbLinetypeTableRecord
  2
CONTINUOUS
 70
64
  3
Solid line
 72
65
 73
0
 40
0.0
  0
LTYPE
  5
1F5
100
AcDbSymbolTableRecord
100
AcDbLinetypeTableRecord
  2
CENTER
 70
64
  3
____ _ ____ _ ____ _ ____ _ ____ _ ____ _ ____
 72
65
 73
4
 40
0.6
 49
0.375
 74
0
 49
-0.075
 74
0
 49
0.075
 74
0
 49
-0.075
 74
0
  0
LTYPE
  5
1F6
100
AcDbSymbolTableRecord
100
AcDbLinetypeTableRecord
  2
HIDDEN
 70
64
  3
- - - - - - - - - - - - - - - - - - - -
 72
65
 73
2
 40
0.2
 49
0.1
 74
0
 49
-0.1
 74
0
  0
LTYPE
  5
1F7
100
AcDbSymbolTableRecord
100
AcDbLinetypeTableRecord
  2
PHANTOM
 70
64
  3
_____ _ _ _____ _ _ _____ _ _ _____
 72
65
 73
6
 40
0.8
 49
0.45
 74
0
 49
-0.05
 74
0
 49
0.1
 74
0
 49
-0.05
 74
0
 49
0.1
 74
0
 49
-0.05
 74
0
  0
LTYPE
  5
1F8
100
AcDbSymbolTableRecord
100
AcDbLinetypeTableRecord
  2
DOT
 70
64
  3
. . . . . . . . . . . . . . . . . . . .
 72
65
 73
2
 40
0.2
 49
0.1
 74
0
 49
-0.1
 74
0
  0
LTYPE
  5
1F9
100
AcDbSymbolTableRecord
100
AcDbLinetypeTableRecord
  2
DASHED
 70
64
  3
- - - - - - - - - - - - - - - - - - - -
 72
65
 73
2
 40
0.2
 49
0.1
 74
0
 49
-0.1
 74
0
  0
ENDTAB
  0
TABLE
  2
LAYER
  5
2
100
AcDbSymbolTable
 70
36
  0
LAYER
  5
10
100
AcDbSymbolTableRecord
100
AcDbLayerTableRecord
  2
0
 70
0
 62
7
  6
CONTINUOUS
  0
LAYER
  5
1FA
100
AcDbSymbolTableRecord
100
AcDbLayerTableRecord
  2
DEFAULT_1
 70
0
 62
7
  6
CENTER
  0
LAYER
  5
1FB
100
AcDbSymbolTableRecord
100
AcDbLayerTableRecord
  2
DEFAULT_2
 70
0
 62
8
  6
HIDDEN
  0
LAYER
  5
1FC
100
AcDbSymbolTableRecord
100
AcDbLayerTableRecord
  2
DEFAULT_3
 70
0
 62
7
  6
PHANTOM
  0
LAYER
  5
1FD
100
AcDbSymbolTableRecord
100
AcDbLayerTableRecord
  2
01_ALL_DTM_PLN
 70
0
 62
7
  6
CONTINUOUS
  0
LAYER
  5
1FE
100
AcDbSymbolTableRecord
100
AcDbLayerTableRecord
  2
01__ASM_ALL_DTM_PLN
 70
0
 62
7
  6
CONTINUOUS
  0
LAYER
  5
1FF
100
AcDbSymbolTableRecord
100
AcDbLayerTableRecord
  2
01__ASM_DEF_DTM_PLN
 70
0
 62
7
  6
CONTINUOUS
  0
LAYER
  5
200
100
AcDbSymbolTableRecord
100
AcDbLayerTableRecord
  2
01___PRT_ALL_DTM_PLN
 70
0
 62
7
  6
CONTINUOUS
  0
LAYER
  5
201
100
AcDbSymbolTableRecord
100
AcDbLayerTableRecord
  2
01___PRT_DEF_DTM_PLN
 70
0
 62
7
  6
CONTINUOUS
  0
LAYER
  5
202
100
AcDbSymbolTableRecord
100
AcDbLayerTableRecord
  2
02_ALL_AXES
 70
0
 62
7
  6
CONTINUOUS
  0
LAYER
  5
203
100
AcDbSymbolTableRecord
100
AcDbLayerTableRecord
  2
02__ASM_ALL_AXES
 70
0
 62
7
  6
CONTINUOUS
  0
LAYER
  5
204
100
AcDbSymbolTableRecord
100
AcDbLayerTableRecord
  2
02___PRT_ALL_AXES
 70
0
 62
7
  6
CONTINUOUS
  0
LAYER
  5
205
100
AcDbSymbolTableRecord
100
AcDbLayerTableRecord
  2
03_ALL_CURVES
 70
0
 62
7
  6
CONTINUOUS
  0
LAYER
  5
206
100
AcDbSymbolTableRecord
100
AcDbLayerTableRecord
  2
03__ASM_ALL_CURVES
 70
0
 62
7
  6
CONTINUOUS
  0
LAYER
  5
207
100
AcDbSymbolTableRecord
100
AcDbLayerTableRecord
  2
03___PRT_ALL_CURVES
 70
0
 62
7
  6
CONTINUOUS
  0
LAYER
  5
208
100
AcDbSymbolTableRecord
100
AcDbLayerTableRecord
  2
04_ALL_DTM_PNT
 70
0
 62
7
  6
CONTINUOUS
  0
LAYER
  5
209
100
AcDbSymbolTableRecord
100
AcDbLayerTableRecord
  2
04__ASM_ALL_DTM_PNT
 70
0
 62
7
  6
CONTINUOUS
  0
LAYER
  5
20A
100
AcDbSymbolTableRecord
100
AcDbLayerTableRecord
  2
04___PRT_ALL_DTM_PNT
 70
0
 62
7
  6
CONTINUOUS
  0
LAYER
  5
20B
100
AcDbSymbolTableRecord
100
AcDbLayerTableRecord
  2
05_ALL_DTM_CSYS
 70
0
 62
7
  6
CONTINUOUS
  0
LAYER
  5
20C
100
AcDbSymbolTableRecord
100
AcDbLayerTableRecord
  2
05__ASM_ALL_DTM_CSYS
 70
0
 62
7
  6
CONTINUOUS
  0
LAYER
  5
20D
100
AcDbSymbolTableRecord
100
AcDbLayerTableRecord
  2
05__ASM_DEF_DTM_CSYS
 70
0
 62
7
  6
CONTINUOUS
  0
LAYER
  5
20E
100
AcDbSymbolTableRecord
100
AcDbLayerTableRecord
  2
05___PRT_ALL_DTM_CSYS
 70
0
 62
7
  6
CONTINUOUS
  0
LAYER
  5
20F
100
AcDbSymbolTableRecord
100
AcDbLayerTableRecord
  2
05___PRT_DEF_DTM_CSYS
 70
0
 62
7
  6
CONTINUOUS
  0
LAYER
  5
210
100
AcDbSymbolTableRecord
100
AcDbLayerTableRecord
  2
06_ALL_SURFS
 70
0
 62
7
  6
CONTINUOUS
  0
LAYER
  5
211
100
AcDbSymbolTableRecord
100
AcDbLayerTableRecord
  2
06__ASM_ALL_SURFS
 70
0
 62
7
  6
CONTINUOUS
  0
LAYER
  5
212
100
AcDbSymbolTableRecord
100
AcDbLayerTableRecord
  2
06___PRT_ALL_SURFS
 70
0
 62
7
  6
CONTINUOUS
  0
LAYER
  5
213
100
AcDbSymbolTableRecord
100
AcDbLayerTableRecord
  2
07__ASM_ALL_SKELETONS
 70
0
 62
7
  6
CONTINUOUS
  0
LAYER
  5
214
100
AcDbSymbolTableRecord
100
AcDbLayerTableRecord
  2
1_ALL_PLANES
 70
0
 62
7
  6
CONTINUOUS
  0
LAYER
  5
215
100
AcDbSymbolTableRecord
100
AcDbLayerTableRecord
  2
2_ALL_CSYS
 70
0
 62
7
  6
CONTINUOUS
  0
LAYER
  5
216
100
AcDbSymbolTableRecord
100
AcDbLayerTableRecord
  2
3_ALL_AXES
 70
0
 62
7
  6
CONTINUOUS
  0
LAYER
  5
217
100
AcDbSymbolTableRecord
100
AcDbLayerTableRecord
  2
4_ALL_POINTS
 70
0
 62
7
  6
CONTINUOUS
  0
LAYER
  5
218
100
AcDbSymbolTableRecord
100
AcDbLayerTableRecord
  2
5_ALL_CURVES
 70
0
 62
7
  6
CONTINUOUS
  0
LAYER
  5
219
100
AcDbSymbolTableRecord
100
AcDbLayerTableRecord
  2
5__COSTRUZIONE
 70
0
 62
7
  6
CONTINUOUS
  0
LAYER
  5
21A
100
AcDbSymbolTableRecord
100
AcDbLayerTableRecord
  2
6_ALL_SURFS
 70
0
 62
7
  6
CONTINUOUS
  0
LAYER
  5
21B
100
AcDbSymbolTableRecord
100
AcDbLayerTableRecord
  2
7_ALL_FEATURES
 70
0
 62
7
  6
CONTINUOUS
  0
LAYER
  5
21C
100
AcDbSymbolTableRecord
100
AcDbLayerTableRecord
  2
9_SOLID
 70
0
 62
7
  6
CONTINUOUS
  0
LAYER
  5
21D
100
AcDbSymbolTableRecord
100
AcDbLayerTableRecord
  2
NUMERI
 70
0
 62
7
  6
CONTINUOUS
  0
LAYER
  5
21E
100
AcDbSymbolTableRecord
100
AcDbLayerTableRecord
  2
WHITE
 70
0
 62
7
  6
CONTINUOUS
  0
LAYER
  5
21F
100
AcDbSymbolTableRecord
100
AcDbLayerTableRecord
  2
XSEC_DATUMS
 70
0
 62
7
  6
CONTINUOUS
  0
LAYER
  5
220
100
AcDbSymbolTableRecord
100
AcDbLayerTableRecord
  2
XXX_SOLIDO
 70
0
 62
7
  6
CONTINUOUS
  0
ENDTAB
  0
TABLE
  2
STYLE
  5
3
100
AcDbSymbolTable
 70
1
  0
STYLE
  5
11
100
AcDbSymbolTableRecord
100
AcDbTextStyleTableRecord
  2
STANDARD
 70
0
 40
0.0
 41
1.0
 50
0.0
 71
0
 42
0.2
  3
arial.ttf
  4

  0
STYLE
  5
221
100
AcDbSymbolTableRecord
100
AcDbTextStyleTableRecord
  2
TEXTSTYLE_1
 70
0
 40
0.0
 41
0.8
 50
0.0
 71
0
 42
0.2
  3
gdt
  4

  0
STYLE
  5
222
100
AcDbSymbolTableRecord
100
AcDbTextStyleTableRecord
  2
TEXTSTYLE_2
 70
0
 40
0.0
 41
0.85
 50
0.0
 71
0
 42
0.2
  3
gdt
  4

  0
STYLE
  5
223
100
AcDbSymbolTableRecord
100
AcDbTextStyleTableRecord
  2
TEXTSTYLE_3
 70
0
 40
0.0
 41
0.85
 50
0.0
 71
0
 42
0.2
  3
txt
  4

  0
ENDTAB
  0
TABLE
  2
VIEW
  5
6
100
AcDbSymbolTable
 70
0
  0
ENDTAB
  0
TABLE
  2
UCS
  5
7
100
AcDbSymbolTable
 70
0
  0
ENDTAB
  0
TABLE
  2
APPID
  5
9
100
AcDbSymbolTable
 70
1
  0
APPID
  5
224
100
AcDbSymbolTableRecord
100
AcDbRegAppTableRecord
  2
ACAD
 70
0
  0
ENDTAB
  0
TABLE
  2
BLOCK_RECORD
  5
1
100
AcDbSymbolTable
 70
0
  0
BLOCK_RECORD
  5
1F
100
AcDbSymbolTableRecord
100
AcDbBlockTableRecord
  2
*MODEL_SPACE
  0
BLOCK_RECORD
  5
1B
100
AcDbSymbolTableRecord
100
AcDbBlockTableRecord
  2
*PAPER_SPACE
  0
BLOCK_RECORD
  5
225
100
AcDbSymbolTableRecord
100
AcDbBlockTableRecord
  2
_CLOSED
  0
BLOCK_RECORD
  5
226
100
AcDbSymbolTableRecord
100
AcDbBlockTableRecord
  2
*D0
  0
BLOCK_RECORD
  5
227
100
AcDbSymbolTableRecord
100
AcDbBlockTableRecord
  2
*D1
  0
BLOCK_RECORD
  5
228
100
AcDbSymbolTableRecord
100
AcDbBlockTableRecord
  2
*D2
  0
BLOCK_RECORD
  5
229
100
AcDbSymbolTableRecord
100
AcDbBlockTableRecord
  2
*D3
  0
BLOCK_RECORD
  5
22A
100
AcDbSymbolTableRecord
100
AcDbBlockTableRecord
  2
*D4
  0
BLOCK_RECORD
  5
22B
100
AcDbSymbolTableRecord
100
AcDbBlockTableRecord
  2
*D5
  0
BLOCK_RECORD
  5
22C
100
AcDbSymbolTableRecord
100
AcDbBlockTableRecord
  2
*D6
  0
BLOCK_RECORD
  5
22D
100
AcDbSymbolTableRecord
100
AcDbBlockTableRecord
  2
LOGO2_BL0
  0
ENDTAB
  0
TABLE
  2
DIMSTYLE
  5
A
100
AcDbSymbolTable
 70
1
  0
DIMSTYLE
105
22E
100
AcDbSymbolTableRecord
100
AcDbDimStyleTableRecord
  2
STANDARD
 70
0
  3

  4

  5
_CLOSED
  6
_CLOSED
  7
_CLOSED
 40
1.0
 41
2.5
 42
0.75
 43
0.38
 44
0.75
 45
0.0
 46
0.0
 47
0.01
 48
0.01
140
3.0
141
0.09
142
0.0
143
25.4
144
1.0
145
0.0
146
1.0
147
0.625
 71
1.0
 72
0.0
 73
0
 74
0
 75
0
 76
0
 77
1
 78
8
 79
2
170
0
171
1
172
0
173
0
174
0
175
0
176
0
177
0
178
0
270
2
179
2
271
2
272
2
273
2
274
2
275
0
280
0
281
0
282
0
283
1
284
8
285
0
286
0
287
3
288
0
340
11
  0
DIMSTYLE
105
22F
100
AcDbSymbolTableRecord
100
AcDbDimStyleTableRecord
  2
DIMSTYLE_1
 70
0
  3

  4

  5
_CLOSED
  6
_CLOSED
  7
_CLOSED
 40
1.0
 41
2.5
 42
0.75
 43
0.38
 44
0.75
 45
0.0
 46
0.0
 47
0.3
 48
0.3
140
3.0
141
0.09
142
0.0
143
25.4
144
1.0
145
0.0
146
1.0
147
0.75
 71
0.0
 72
0.0
 73
0
 74
0
 75
0
 76
0
 77
1
 78
8
 79
2
170
0
171
1
172
0
173
0
174
0
175
0
176
0
177
0
178
0
270
2
179
2
271
2
272
2
273
2
274
2
275
0
280
0
281
0
282
0
283
1
284
8
285
0
286
0
287
3
288
0
340
11
  0
DIMSTYLE
105
230
100
AcDbSymbolTableRecord
100
AcDbDimStyleTableRecord
  2
DIMSTYLE_2
 70
0
  3

  4

  5
_CLOSED
  6
_CLOSED
  7
_CLOSED
 40
1.0
 41
2.5
 42
0.75
 43
0.38
 44
0.75
 45
0.0
 46
0.0
 47
0.2
 48
0.2
140
3.0
141
0.09
142
0.0
143
25.4
144
1.0
145
0.0
146
1.0
147
0.75
 71
0.0
 72
0.0
 73
0
 74
0
 75
0
 76
0
 77
1
 78
8
 79
2
170
0
171
1
172
0
173
0
174
0
175
0
176
0
177
0
178
0
270
2
179
2
271
2
272
2
273
2
274
2
275
0
280
0
281
0
282
0
283
1
284
8
285
0
286
0
287
3
288
0
340
11
  0
DIMSTYLE
105
231
100
AcDbSymbolTableRecord
100
AcDbDimStyleTableRecord
  2
DIMSTYLE_3
 70
0
  3
<>
  4

  5
_CLOSED
  6
_CLOSED
  7
_CLOSED
 40
1.0
 41
2.5
 42
0.75
 43
0.38
 44
0.75
 45
0.0
 46
0.0
 47
0.3
 48
0.3
140
3.0
141
0.09
142
0.0
143
25.4
144
1.0
145
0.0
146
1.0
147
0.625
 71
0.0
 72
0.0
 73
0
 74
0
 75
0
 76
0
 77
1
 78
8
 79
2
170
0
171
1
172
1
173
0
174
0
175
0
176
0
177
0
178
0
270
2
179
2
271
2
272
2
273
2
274
2
275
0
280
0
281
0
282
0
283
1
284
8
285
0
286
0
287
3
288
1
340
11
  0
ENDTAB
  0
ENDSEC
  0
SECTION
  2
BLOCKS
  0
BLOCK
  5
20
100
AcDbEntity
  8
0
100
AcDbBlockBegin
  2
*MODEL_SPACE
 70
0
 10
0.0
 20
0.0
 30
0.0
  3
*MODEL_SPACE
  1

  0
ENDBLK
  5
21
100
AcDbEntity
  8
0
100
AcDbBlockEnd
  0
BLOCK
  5
1C
100
AcDbEntity
  8
0
100
AcDbBlockBegin
  2
*PAPER_SPACE
 70
0
 10
0.0
 20
0.0
 30
0.0
  3
*PAPER_SPACE
  1

  0
ENDBLK
  5
1D
100
AcDbEntity
  8
0
100
AcDbBlockEnd
  0
BLOCK
  5
232
100
AcDbEntity
  8
0
100
AcDbBlockBegin
 62
2
  6
CONTINUOUS
  2
LOGO2_BL0
 70
64
 10
207.6164605391
 20
39.6725198453
  3
LOGO2_BL0
  1

  0
LINE
  5
233
100
AcDbEntity
  8
0
100
AcDbLine
 62
7
  6
CONTINUOUS
 10
199.3593857673
 20
42.8680111841
 11
198.055044838
 21
42.8680111841
  0
LINE
  5
234
100
AcDbEntity
  8
0
100
AcDbLine
 62
7
  6
CONTINUOUS
 10
198.055044838
 20
42.8680111841
 11
198.055044838
 21
32.4089451242
  0
LINE
  5
235
100
AcDbEntity
  8
0
100
AcDbLine
 62
7
  6
CONTINUOUS
 10
198.055044838
 20
32.4089451242
 11
202.5360997262
 21
32.4089451242
  0
LINE
  5
236
100
AcDbEntity
  8
0
100
AcDbLine
 62
7
  6
CONTINUOUS
 10
202.5360997262
 20
32.4089451242
 11
202.5360997262
 21
33.6017994493
  0
LINE
  5
237
100
AcDbEntity
  8
0
100
AcDbLine
 62
7
  6
CONTINUOUS
 10
202.5360997262
 20
33.6017994493
 11
199.3593857673
 21
33.6017994493
  0
LINE
  5
238
100
AcDbEntity
  8
0
100
AcDbLine
 62
7
  6
CONTINUOUS
 10
199.3593857673
 20
33.6017994493
 11
199.3593857673
 21
42.8680111841
  0
LINE
  5
239
100
AcDbEntity
  8
0
100
AcDbLine
 62
7
  6
CONTINUOUS
 10
214.2957119836
 20
42.8680111841
 11
212.9918944656
 21
42.8680111841
  0
LINE
  5
23A
100
AcDbEntity
  8
0
100
AcDbLine
 62
7
  6
CONTINUOUS
 10
212.9918944656
 20
42.8680111841
 11
212.9918944656
 21
32.4089451242
  0
LINE
  5
23B
100
AcDbEntity
  8
0
100
AcDbLine
 62
7
  6
CONTINUOUS
 10
212.9918944656
 20
32.4089451242
 11
217.4730802067
 21
32.4089451242
  0
LINE
  5
23C
100
AcDbEntity
  8
0
100
AcDbLine
 62
7
  6
CONTINUOUS
 10
217.4730802067
 20
32.4089451242
 11
217.4730802067
 21
33.6017994493
  0
LINE
  5
23D
100
AcDbEntity
  8
0
100
AcDbLine
 62
7
  6
CONTINUOUS
 10
217.4730802067
 20
33.6017994493
 11
214.2957119836
 21
33.6017994493
  0
LINE
  5
23E
100
AcDbEntity
  8
0
100
AcDbLine
 62
7
  6
CONTINUOUS
 10
214.2957119836
 20
33.6017994493
 11
214.2957119836
 21
42.8680111841
  0
LWPOLYLINE
  5
23F
100
AcDbEntity
  8
0
100
AcDbPolyline
 62
7
  6
CONTINUOUS
 90
2
 70
0
 43
0.2
 10
196.4094397489
 20
29.0653938173
 10
196.4094397489
 20
27.208330568
  0
LWPOLYLINE
  5
240
100
AcDbEntity
  8
0
100
AcDbPolyline
 62
7
  6
CONTINUOUS
 90
2
 70
0
 43
0.2
 10
196.4094397489
 20
27.208330568
 10
197.2051557593
 20
27.208330568
  0
LWPOLYLINE
  5
241
100
AcDbEntity
  8
0
100
AcDbPolyline
 62
7
  6
CONTINUOUS
 90
2
 70
0
 43
0.2
 10
197.2051557593
 20
27.208330568
 10
197.2051557593
 20
27.4203121396
  0
LWPOLYLINE
  5
242
100
AcDbEntity
  8
0
100
AcDbPolyline
 62
7
  6
CONTINUOUS
 90
2
 70
0
 43
0.2
 10
197.2051557593
 20
27.4203121396
 10
196.6410492438
 20
27.4203121396
  0
LWPOLYLINE
  5
243
100
AcDbEntity
  8
0
100
AcDbPolyline
 62
7
  6
CONTINUOUS
 90
2
 70
0
 43
0.2
 10
196.6410492438
 20
27.4203121396
 10
196.6410492438
 20
29.0653938173
  0
LWPOLYLINE
  5
244
100
AcDbEntity
  8
0
100
AcDbPolyline
 62
7
  6
CONTINUOUS
 90
2
 70
0
 43
0.2
 10
196.6410492438
 20
29.0653938173
 10
196.4094397489
 20
29.0653938173
  0
SPLINE
  5
245
100
AcDbEntity
  8
0
100
AcDbSpline
 62
7
  6
CONTINUOUS
 70
2
 71
3
 72
35
 73
31
 74
0
 42
0.0000001
 43
0.0000001
 44
0.0000000001
 40
0.0
 40
0.0
 40
0.0
 40
0.0
 40
1.0
 40
1.0
 40
1.0
 40
2.0
 40
2.0
 40
2.0
 40
3.0
 40
3.0
 40
3.0
 40
4.0
 40
4.0
 40
4.0
 40
5.0
 40
5.0
 40
5.0
 40
6.0
 40
6.0
 40
6.0
 40
7.0
 40
7.0
 40
7.0
 40
8.0
 40
8.0
 40
8.0
 40
9.0
 40
9.0
 40
9.0
 40
10.0
 40
10.0
 40
10.0
 40
10.0
 10
198.6034490148
 20
28.3608822239
 30
0.0
 10
198.6034490148
 20
28.3608822239
 30
0.0
 10
198.6034490148
 20
27.6987669447
 30
0.0
 10
198.6034490148
 20
27.6987669447
 30
0.0
 10
198.6034490148
 20
27.3836733494
 30
0.0
 10
198.7513127037
 20
27.1690747214
 30
0.0
 10
199.0913991879
 20
27.1690747214
 30
0.0
 10
199.430962261
 20
27.1690747214
 30
0.0
 10
199.5790876554
 20
27.3836733494
 30
0.0
 10
199.5790876554
 20
27.6987669447
 30
0.0
 10
199.5790876554
 20
27.6987669447
 30
0.0
 10
199.5790876554
 20
28.3608822239
 30
0.0
 10
199.5790876554
 20
28.3608822239
 30
0.0
 10
199.5790876554
 20
28.3608822239
 30
0.0
 10
199.3570304165
 20
28.3608822239
 30
0.0
 10
199.3570304165
 20
28.3608822239
 30
0.0
 10
199.3570304165
 20
28.3608822239
 30
0.0
 10
199.3570304165
 20
27.7238906865
 30
0.0
 10
199.3570304165
 20
27.7238906865
 30
0.0
 10
199.3570304165
 20
27.5380796793
 30
0.0
 10
199.3103159591
 20
27.3752987688
 30
0.0
 10
199.0913991879
 20
27.3752987688
 30
0.0
 10
198.8719590055
 20
27.3752987688
 30
0.0
 10
198.8252445481
 20
27.5380796793
 30
0.0
 10
198.8252445481
 20
27.7238906865
 30
0.0
 10
198.8252445481
 20
27.7238906865
 30
0.0
 10
198.8252445481
 20
28.3608822239
 30
0.0
 10
198.8252445481
 20
28.3608822239
 30
0.0
 10
198.8252445481
 20
28.3608822239
 30
0.0
 10
198.6034490148
 20
28.3608822239
 30
0.0
 10
198.6034490148
 20
28.3608822239
 30
0.0
  0
SPLINE
  5
246
100
AcDbEntity
  8
0
100
AcDbSpline
 62
7
  6
CONTINUOUS
 70
2
 71
3
 72
35
 73
31
 74
0
 42
0.0000001
 43
0.0000001
 44
0.0000000001
 40
0.0
 40
0.0
 40
0.0
 40
0.0
 40
1.0
 40
1.0
 40
1.0
 40
2.0
 40
2.0
 40
2.0
 40
3.0
 40
3.0
 40
3.0
 40
4.0
 40
4.0
 40
4.0
 40
5.0
 40
5.0
 40
5.0
 40
6.0
 40
6.0
 40
6.0
 40
7.0
 40
7.0
 40
7.0
 40
8.0
 40
8.0
 40
8.0
 40
9.0
 40
9.0
 40
9.0
 40
10.0
 40
10.0
 40
10.0
 40
10.0
 10
202.0022202126
 20
28.3195327321
 30
0.0
 10
201.913763705
 20
28.3708270383
 30
0.0
 10
201.8003143083
 20
28.3959507801
 30
0.0
 10
201.6966788733
 20
28.3959507801
 30
0.0
 10
201.3418060201
 20
28.3959507801
 30
0.0
 10
201.0663608299
 20
28.1321514911
 30
0.0
 10
201.0663608299
 20
27.7746615814
 30
0.0
 10
201.0663608299
 20
27.4297335427
 30
0.0
 10
201.344815635
 20
27.1695981327
 30
0.0
 10
201.6843787081
 20
27.1695981327
 30
0.0
 10
201.8003143083
 20
27.1695981327
 30
0.0
 10
201.9010709812
 20
27.1915814068
 30
0.0
 10
202.0022202126
 20
27.2454927694
 30
0.0
 10
202.0022202126
 20
27.2454927694
 30
0.0
 10
202.0022202126
 20
27.5281348649
 30
0.0
 10
202.0022202126
 20
27.5281348649
 30
0.0
 10
201.9183435537
 20
27.4349676556
 30
0.0
 10
201.8148389716
 20
27.3758221801
 30
0.0
 10
201.6867340588
 20
27.3758221801
 30
0.0
 10
201.4530309188
 20
27.3758221801
 30
0.0
 10
201.2877638047
 20
27.5480244938
 30
0.0
 10
201.2877638047
 20
27.7846063959
 30
0.0
 10
201.2877638047
 20
27.9965879675
 30
0.0
 10
201.4555171224
 20
28.1886799102
 30
0.0
 10
201.6723402484
 20
28.1886799102
 30
0.0
 10
201.8051558627
 20
28.1886799102
 30
0.0
 10
201.913763705
 20
28.1347685475
 30
0.0
 10
202.0022202126
 20
28.0337501689
 30
0.0
 10
202.0022202126
 20
28.0337501689
 30
0.0
 10
202.0022202126
 20
28.3195327321
 30
0.0
 10
202.0022202126
 20
28.3195327321
 30
0.0
  0
SPLINE
  5
247
100
AcDbEntity
  8
0
100
AcDbSpline
 62
7
  6
CONTINUOUS
 70
2
 71
3
 72
32
 73
28
 74
0
 42
0.0000001
 43
0.0000001
 44
0.0000000001
 40
0.0
 40
0.0
 40
0.0
 40
0.0
 40
1.0
 40
1.0
 40
1.0
 40
2.0
 40
2.0
 40
2.0
 40
3.0
 40
3.0
 40
3.0
 40
4.0
 40
4.0
 40
4.0
 40
5.0
 40
5.0
 40
5.0
 40
6.0
 40
6.0
 40
6.0
 40
7.0
 40
7.0
 40
7.0
 40
8.0
 40
8.0
 40
8.0
 40
9.0
 40
9.0
 40
9.0
 40
9.0
 10
204.5340914649
 20
27.7479676058
 30
0.0
 10
204.5340914649
 20
27.7479676058
 30
0.0
 10
204.5340914649
 20
27.7819893395
 30
0.0
 10
204.5340914649
 20
27.7819893395
 30
0.0
 10
204.5340914649
 20
28.1243003217
 30
0.0
 10
204.361234887
 20
28.3959507801
 30
0.0
 10
203.9945852799
 20
28.3959507801
 30
0.0
 10
203.6229632655
 20
28.3959507801
 30
0.0
 10
203.4332266736
 20
28.1295344346
 30
0.0
 10
203.4332266736
 20
27.7746615814
 30
0.0
 10
203.4332266736
 20
27.4349676556
 30
0.0
 10
203.6473018904
 20
27.1690747214
 30
0.0
 10
203.9994268343
 20
27.1690747214
 30
0.0
 10
204.2234468655
 20
27.1690747214
 30
0.0
 10
204.4256144755
 20
27.284748616
 30
0.0
 10
204.5340914649
 20
27.4841683167
 30
0.0
 10
204.5340914649
 20
27.4841683167
 30
0.0
 10
204.3464485182
 20
27.5909442194
 30
0.0
 10
204.3464485182
 20
27.5909442194
 30
0.0
 10
204.2629644177
 20
27.4522402281
 30
0.0
 10
204.1717600008
 20
27.3664007769
 30
0.0
 10
204.0021747436
 20
27.3664007769
 30
0.0
 10
203.790193172
 20
27.3664007769
 30
0.0
 10
203.6572467049
 20
27.5511649615
 30
0.0
 10
203.6548913541
 20
27.7479676058
 30
0.0
 10
203.6548913541
 20
27.7479676058
 30
0.0
 10
204.5340914649
 20
27.7479676058
 30
0.0
 10
204.5340914649
 20
27.7479676058
 30
0.0
  0
SPLINE
  5
248
100
AcDbEntity
  8
0
100
AcDbSpline
 62
7
  6
CONTINUOUS
 70
2
 71
3
 72
14
 73
10
 74
0
 42
0.0000001
 43
0.0000001
 44
0.0000000001
 40
0.0
 40
0.0
 40
0.0
 40
0.0
 40
1.0
 40
1.0
 40
1.0
 40
2.0
 40
2.0
 40
2.0
 40
3.0
 40
3.0
 40
3.0
 40
3.0
 10
203.6669298137
 20
27.9154592179
 30
0.0
 10
203.6945397591
 20
28.0803337736
 30
0.0
 10
203.8223829662
 20
28.2033354262
 30
0.0
 10
203.9945852799
 20
28.2033354262
 30
0.0
 10
204.1717600008
 20
28.2033354262
 30
0.0
 10
204.2852093975
 20
28.0876615316
 30
0.0
 10
204.3124267844
 20
27.9154592179
 30
0.0
 10
204.3124267844
 20
27.9154592179
 30
0.0
 10
203.6669298137
 20
27.9154592179
 30
0.0
 10
203.6669298137
 20
27.9154592179
 30
0.0
  0
SPLINE
  5
249
100
AcDbEntity
  8
0
100
AcDbSpline
 62
7
  6
CONTINUOUS
 70
2
 71
3
 72
20
 73
16
 74
0
 42
0.0000001
 43
0.0000001
 44
0.0000000001
 40
0.0
 40
0.0
 40
0.0
 40
0.0
 40
1.0
 40
1.0
 40
1.0
 40
2.0
 40
2.0
 40
2.0
 40
3.0
 40
3.0
 40
3.0
 40
4.0
 40
4.0
 40
4.0
 40
5.0
 40
5.0
 40
5.0
 40
5.0
 10
206.5581229151
 20
28.124823733
 30
0.0
 10
206.5581229151
 20
28.124823733
 30
0.0
 10
206.9692624817
 20
27.6223488967
 30
0.0
 10
206.9692624817
 20
27.6223488967
 30
0.0
 10
206.8531960286
 20
27.5066750021
 30
0.0
 10
206.7154080071
 20
27.3763455914
 30
0.0
 10
206.543467399
 20
27.3763455914
 30
0.0
 10
206.3660309724
 20
27.3763455914
 30
0.0
 10
206.1985393603
 20
27.5406967358
 30
0.0
 10
206.1985393603
 20
27.7176097511
 30
0.0
 10
206.1985393603
 20
27.8955695889
 30
0.0
 10
206.4082964339
 20
28.0217117093
 30
0.0
 10
206.5358779353
 20
28.1096448057
 30
0.0
 10
206.5358779353
 20
28.1096448057
 30
0.0
 10
206.5581229151
 20
28.124823733
 30
0.0
 10
206.5581229151
 20
28.124823733
 30
0.0
  0
SPLINE
  5
24A
100
AcDbEntity
  8
0
100
AcDbSpline
 62
7
  6
CONTINUOUS
 70
2
 71
3
 72
23
 73
19
 74
0
 42
0.0000001
 43
0.0000001
 44
0.0000000001
 40
0.0
 40
0.0
 40
0.0
 40
0.0
 40
1.0
 40
1.0
 40
1.0
 40
2.0
 40
2.0
 40
2.0
 40
3.0
 40
3.0
 40
3.0
 40
4.0
 40
4.0
 40
4.0
 40
5.0
 40
5.0
 40
5.0
 40
6.0
 40
6.0
 40
6.0
 40
6.0
 10
206.6074544289
 20
28.4158404091
 30
0.0
 10
206.6074544289
 20
28.4158404091
 30
0.0
 10
206.5458227498
 20
28.4943521023
 30
0.0
 10
206.5458227498
 20
28.4943521023
 30
0.0
 10
206.4919113871
 20
28.562918981
 30
0.0
 10
206.4351212624
 20
28.632009271
 30
0.0
 10
206.4351212624
 20
28.7256998915
 30
0.0
 10
206.4351212624
 20
28.8445142539
 30
0.0
 10
206.5310363809
 20
28.9219791245
 30
0.0
 10
206.6419995739
 20
28.9219791245
 30
0.0
 10
206.7652629322
 20
28.9219791245
 30
0.0
 10
206.8585609943
 20
28.8507951893
 30
0.0
 10
206.8585609943
 20
28.7204657786
 30
0.0
 10
206.8585609943
 20
28.5854256664
 30
0.0
 10
206.7304560816
 20
28.5090076183
 30
0.0
 10
206.6368963139
 20
28.4352066267
 30
0.0
 10
206.6368963139
 20
28.4352066267
 30
0.0
 10
206.6074544289
 20
28.4158404091
 30
0.0
 10
206.6074544289
 20
28.4158404091
 30
0.0
  0
SPLINE
  5
24B
100
AcDbEntity
  8
0
100
AcDbSpline
 62
7
  6
CONTINUOUS
 70
2
 71
3
 72
50
 73
46
 74
0
 42
0.0000001
 43
0.0000001
 44
0.0000000001
 40
0.0
 40
0.0
 40
0.0
 40
0.0
 40
1.0
 40
1.0
 40
1.0
 40
2.0
 40
2.0
 40
2.0
 40
3.0
 40
3.0
 40
3.0
 40
4.0
 40
4.0
 40
4.0
 40
5.0
 40
5.0
 40
5.0
 40
6.0
 40
6.0
 40
6.0
 40
7.0
 40
7.0
 40
7.0
 40
8.0
 40
8.0
 40
8.0
 40
9.0
 40
9.0
 40
9.0
 40
10.0
 40
10.0
 40
10.0
 40
11.0
 40
11.0
 40
11.0
 40
12.0
 40
12.0
 40
12.0
 40
13.0
 40
13.0
 40
13.0
 40
14.0
 40
14.0
 40
14.0
 40
15.0
 40
15.0
 40
15.0
 40
15.0
 10
207.3096106716
 20
27.2088539793
 30
0.0
 10
207.3096106716
 20
27.2088539793
 30
0.0
 10
207.5950006763
 20
27.2088539793
 30
0.0
 10
207.5950006763
 20
27.2088539793
 30
0.0
 10
207.5950006763
 20
27.2088539793
 30
0.0
 10
207.2626345085
 20
27.6197318402
 30
0.0
 10
207.2626345085
 20
27.6197318402
 30
0.0
 10
207.2626345085
 20
27.6197318402
 30
0.0
 10
207.4891407434
 20
27.8856247745
 30
0.0
 10
207.4891407434
 20
27.8856247745
 30
0.0
 10
207.4891407434
 20
27.8856247745
 30
0.0
 10
207.3408844961
 20
28.0384608705
 30
0.0
 10
207.3408844961
 20
28.0384608705
 30
0.0
 10
207.3408844961
 20
28.0384608705
 30
0.0
 10
207.1249773398
 20
27.7872234524
 30
0.0
 10
207.1249773398
 20
27.7872234524
 30
0.0
 10
207.1249773398
 20
27.7872234524
 30
0.0
 10
206.7379146924
 20
28.2551531437
 30
0.0
 10
206.7379146924
 20
28.2551531437
 30
0.0
 10
206.8933678449
 20
28.3692568045
 30
0.0
 10
207.0756458259
 20
28.5090076183
 30
0.0
 10
207.0756458259
 20
28.7183721335
 30
0.0
 10
207.0756458259
 20
28.9622817936
 30
0.0
 10
206.8736090688
 20
29.1056964865
 30
0.0
 10
206.647102834
 20
29.1056964865
 30
0.0
 10
206.4029314682
 20
29.1056964865
 30
0.0
 10
206.2185598421
 20
28.9549540356
 30
0.0
 10
206.2185598421
 20
28.6984825045
 30
0.0
 10
206.2185598421
 20
28.5409357069
 30
0.0
 10
206.3172228698
 20
28.4032785382
 30
0.0
 10
206.4225593915
 20
28.2923153452
 30
0.0
 10
206.4225593915
 20
28.2923153452
 30
0.0
 10
206.3070163497
 20
28.2085695391
 30
0.0
 10
206.3070163497
 20
28.2085695391
 30
0.0
 10
206.1293182175
 20
28.0803337736
 30
0.0
 10
205.9819779399
 20
27.9526214193
 30
0.0
 10
205.9819779399
 20
27.7155161059
 30
0.0
 10
205.9819779399
 20
27.3951883977
 30
0.0
 10
206.2405431161
 20
27.1690747214
 30
0.0
 10
206.5509260098
 20
27.1690747214
 30
0.0
 10
206.769842781
 20
27.1690747214
 30
0.0
 10
206.9670379837
 20
27.2941700192
 30
0.0
 10
207.1073122089
 20
27.4600913974
 30
0.0
 10
207.1073122089
 20
27.4600913974
 30
0.0
 10
207.3096106716
 20
27.2088539793
 30
0.0
 10
207.3096106716
 20
27.2088539793
 30
0.0
  0
LWPOLYLINE
  5
24C
100
AcDbEntity
  8
0
100
AcDbPolyline
 62
7
  6
CONTINUOUS
 90
2
 70
0
 43
0.2
 10
209.2450547613
 20
29.0653938173
 10
209.0137069721
 20
29.0653938173
  0
LWPOLYLINE
  5
24D
100
AcDbEntity
  8
0
100
AcDbPolyline
 62
7
  6
CONTINUOUS
 90
2
 70
0
 43
0.2
 10
209.0137069721
 20
29.0653938173
 10
209.0137069721
 20
27.208330568
  0
LWPOLYLINE
  5
24E
100
AcDbEntity
  8
0
100
AcDbPolyline
 62
7
  6
CONTINUOUS
 90
2
 70
0
 43
0.2
 10
209.0137069721
 20
27.208330568
 10
209.809030424
 20
27.208330568
  0
LWPOLYLINE
  5
24F
100
AcDbEntity
  8
0
100
AcDbPolyline
 62
7
  6
CONTINUOUS
 90
2
 70
0
 43
0.2
 10
209.809030424
 20
27.208330568
 10
209.809030424
 20
27.4203121396
  0
LWPOLYLINE
  5
250
100
AcDbEntity
  8
0
100
AcDbPolyline
 62
7
  6
CONTINUOUS
 90
2
 70
0
 43
0.2
 10
209.809030424
 20
27.4203121396
 10
209.2450547613
 20
27.4203121396
  0
LWPOLYLINE
  5
251
100
AcDbEntity
  8
0
100
AcDbPolyline
 62
7
  6
CONTINUOUS
 90
2
 70
0
 43
0.2
 10
209.2450547613
 20
27.4203121396
 10
209.2450547613
 20
29.0653938173
  0
LWPOLYLINE
  5
252
100
AcDbEntity
  8
0
100
AcDbPolyline
 62
7
  6
CONTINUOUS
 90
2
 70
0
 43
0.2
 10
211.4881338355
 20
28.3608822239
 10
211.2669925664
 20
28.3608822239
  0
LWPOLYLINE
  5
253
100
AcDbEntity
  8
0
100
AcDbPolyline
 62
7
  6
CONTINUOUS
 90
2
 70
0
 43
0.2
 10
211.2669925664
 20
28.3608822239
 10
211.2669925664
 20
27.2088539793
  0
LWPOLYLINE
  5
254
100
AcDbEntity
  8
0
100
AcDbPolyline
 62
7
  6
CONTINUOUS
 90
2
 70
0
 43
0.2
 10
211.2669925664
 20
27.2088539793
 10
211.4881338355
 20
27.2088539793
  0
LWPOLYLINE
  5
255
100
AcDbEntity
  8
0
100
AcDbPolyline
 62
7
  6
CONTINUOUS
 90
2
 70
0
 43
0.2
 10
211.4881338355
 20
27.2088539793
 10
211.4881338355
 20
28.3608822239
  0
SPLINE
  5
256
100
AcDbEntity
  8
0
100
AcDbSpline
 62
7
  6
CONTINUOUS
 70
2
 71
3
 72
17
 73
13
 74
0
 42
0.0000001
 43
0.0000001
 44
0.0000000001
 40
0.0
 40
0.0
 40
0.0
 40
0.0
 40
1.0
 40
1.0
 40
1.0
 40
2.0
 40
2.0
 40
2.0
 40
3.0
 40
3.0
 40
3.0
 40
4.0
 40
4.0
 40
4.0
 40
4.0
 10
211.3776940538
 20
29.0434105432
 30
0.0
 10
211.2936865421
 20
29.0434105432
 30
0.0
 10
211.2251196633
 20
28.9743202532
 30
0.0
 10
211.2251196633
 20
28.888480802
 30
0.0
 10
211.2251196633
 20
28.8042115847
 30
0.0
 10
211.2936865421
 20
28.7382617624
 30
0.0
 10
211.3776940538
 20
28.7382617624
 30
0.0
 10
211.4614398598
 20
28.7382617624
 30
0.0
 10
211.5302684442
 20
28.8042115847
 30
0.0
 10
211.5302684442
 20
28.888480802
 30
0.0
 10
211.5302684442
 20
28.9743202532
 30
0.0
 10
211.4614398598
 20
29.0434105432
 30
0.0
 10
211.3776940538
 20
29.0434105432
 30
0.0
  0
SPLINE
  5
257
100
AcDbEntity
  8
0
100
AcDbSpline
 62
7
  6
CONTINUOUS
 70
2
 71
3
 72
17
 73
13
 74
0
 42
0.0000001
 43
0.0000001
 44
0.0000000001
 40
0.0
 40
0.0
 40
0.0
 40
0.0
 40
1.0
 40
1.0
 40
1.0
 40
2.0
 40
2.0
 40
2.0
 40
3.0
 40
3.0
 40
3.0
 40
4.0
 40
4.0
 40
4.0
 40
4.0
 10
213.6184177771
 20
27.3664007769
 30
0.0
 10
213.3844529315
 20
27.3664007769
 30
0.0
 10
213.2541235208
 20
27.568437534
 30
0.0
 10
213.2541235208
 20
27.7846063959
 30
0.0
 10
213.2541235208
 20
27.9992050239
 30
0.0
 10
213.38994875
 20
28.1981013133
 30
0.0
 10
213.6184177771
 20
28.1981013133
 30
0.0
 10
213.8578784413
 20
28.1981013133
 30
0.0
 10
213.9934419649
 20
28.0091498384
 30
0.0
 10
213.9934419649
 20
27.7846063959
 30
0.0
 10
213.9934419649
 20
27.5584927196
 30
0.0
 10
213.8602337921
 20
27.3664007769
 30
0.0
 10
213.6184177771
 20
27.3664007769
 30
0.0
  0
SPLINE
  5
258
100
AcDbEntity
  8
0
100
AcDbSpline
 62
7
  6
CONTINUOUS
 70
2
 71
3
 72
50
 73
46
 74
0
 42
0.0000001
 43
0.0000001
 44
0.0000000001
 40
0.0
 40
0.0
 40
0.0
 40
0.0
 40
1.0
 40
1.0
 40
1.0
 40
2.0
 40
2.0
 40
2.0
 40
3.0
 40
3.0
 40
3.0
 40
4.0
 40
4.0
 40
4.0
 40
5.0
 40
5.0
 40
5.0
 40
6.0
 40
6.0
 40
6.0
 40
7.0
 40
7.0
 40
7.0
 40
8.0
 40
8.0
 40
8.0
 40
9.0
 40
9.0
 40
9.0
 40
10.0
 40
10.0
 40
10.0
 40
11.0
 40
11.0
 40
11.0
 40
12.0
 40
12.0
 40
12.0
 40
13.0
 40
13.0
 40
13.0
 40
14.0
 40
14.0
 40
14.0
 40
15.0
 40
15.0
 40
15.0
 40
15.0
 10
214.2025447744
 20
28.3614056352
 30
0.0
 10
214.2025447744
 20
28.3614056352
 30
0.0
 10
213.980880094
 20
28.3614056352
 30
0.0
 10
213.980880094
 20
28.3614056352
 30
0.0
 10
213.980880094
 20
28.3614056352
 30
0.0
 10
213.980880094
 20
28.1640795796
 30
0.0
 10
213.980880094
 20
28.1640795796
 30
0.0
 10
213.980880094
 20
28.1640795796
 30
0.0
 10
213.9761693924
 20
28.1640795796
 30
0.0
 10
213.9761693924
 20
28.1640795796
 30
0.0
 10
213.8848341227
 20
28.3069708612
 30
0.0
 10
213.7469152483
 20
28.3954273689
 30
0.0
 10
213.5741895233
 20
28.3954273689
 30
0.0
 10
213.2418233555
 20
28.3954273689
 30
0.0
 10
213.032720546
 20
28.1075511605
 30
0.0
 10
213.032720546
 20
27.7919341539
 30
0.0
 10
213.032720546
 20
27.4621850426
 30
0.0
 10
213.2297848959
 20
27.1690747214
 30
0.0
 10
213.5846577491
 20
27.1690747214
 30
0.0
 10
213.7469152483
 20
27.1690747214
 30
0.0
 10
213.8869277678
 20
27.257531229
 30
0.0
 10
213.9761693924
 20
27.388384051
 30
0.0
 10
213.9761693924
 20
27.388384051
 30
0.0
 10
213.980880094
 20
27.388384051
 30
0.0
 10
213.980880094
 20
27.388384051
 30
0.0
 10
213.980880094
 20
27.388384051
 30
0.0
 10
213.980880094
 20
27.1690747214
 30
0.0
 10
213.980880094
 20
27.1690747214
 30
0.0
 10
213.980880094
 20
26.9324928193
 30
0.0
 10
213.9243516749
 20
26.7456349895
 30
0.0
 10
213.6511309826
 20
26.7456349895
 30
0.0
 10
213.4488325199
 20
26.7456349895
 30
0.0
 10
213.3062029439
 20
26.8639259406
 30
0.0
 10
213.3062029439
 20
27.070149988
 30
0.0
 10
213.3062029439
 20
27.070149988
 30
0.0
 10
213.0845382635
 20
27.070149988
 30
0.0
 10
213.0845382635
 20
27.070149988
 30
0.0
 10
213.0895106707
 20
26.7456349895
 30
0.0
 10
213.3205967543
 20
26.5488323453
 30
0.0
 10
213.6409244625
 20
26.5488323453
 30
0.0
 10
214.0889645249
 20
26.5488323453
 30
0.0
 10
214.2025447744
 20
26.8340914971
 30
0.0
 10
214.2025447744
 20
27.2308372534
 30
0.0
 10
214.2025447744
 20
27.2308372534
 30
0.0
 10
214.2025447744
 20
28.3614056352
 30
0.0
 10
214.2025447744
 20
28.3614056352
 30
0.0
  0
SPLINE
  5
259
100
AcDbEntity
  8
0
100
AcDbSpline
 62
7
  6
CONTINUOUS
 70
2
 71
3
 72
44
 73
40
 74
0
 42
0.0000001
 43
0.0000001
 44
0.0000000001
 40
0.0
 40
0.0
 40
0.0
 40
0.0
 40
1.0
 40
1.0
 40
1.0
 40
2.0
 40
2.0
 40
2.0
 40
3.0
 40
3.0
 40
3.0
 40
4.0
 40
4.0
 40
4.0
 40
5.0
 40
5.0
 40
5.0
 40
6.0
 40
6.0
 40
6.0
 40
7.0
 40
7.0
 40
7.0
 40
8.0
 40
8.0
 40
8.0
 40
9.0
 40
9.0
 40
9.0
 40
10.0
 40
10.0
 40
10.0
 40
11.0
 40
11.0
 40
11.0
 40
12.0
 40
12.0
 40
12.0
 40
13.0
 40
13.0
 40
13.0
 40
13.0
 10
215.7714701098
 20
29.3464656789
 30
0.0
 10
215.7714701098
 20
29.3464656789
 30
0.0
 10
215.7714701098
 20
27.208330568
 30
0.0
 10
215.7714701098
 20
27.208330568
 30
0.0
 10
215.7714701098
 20
27.208330568
 30
0.0
 10
215.9928730846
 20
27.208330568
 30
0.0
 10
215.9928730846
 20
27.208330568
 30
0.0
 10
215.9928730846
 20
27.208330568
 30
0.0
 10
215.9928730846
 20
27.7380227913
 30
0.0
 10
215.9928730846
 20
27.7380227913
 30
0.0
 10
215.9928730846
 20
27.9479107177
 30
0.0
 10
215.9928730846
 20
28.1986247246
 30
0.0
 10
216.2781322364
 20
28.1986247246
 30
0.0
 10
216.5050310297
 20
28.1986247246
 30
0.0
 10
216.5319867111
 20
28.0656782575
 30
0.0
 10
216.5319867111
 20
27.8693990246
 30
0.0
 10
216.5319867111
 20
27.8693990246
 30
0.0
 10
216.5319867111
 20
27.208330568
 30
0.0
 10
216.5319867111
 20
27.208330568
 30
0.0
 10
216.5319867111
 20
27.208330568
 30
0.0
 10
216.7539130971
 20
27.208330568
 30
0.0
 10
216.7539130971
 20
27.208330568
 30
0.0
 10
216.7539130971
 20
27.208330568
 30
0.0
 10
216.7539130971
 20
27.8955695889
 30
0.0
 10
216.7539130971
 20
27.8955695889
 30
0.0
 10
216.7539130971
 20
28.1761180392
 30
0.0
 10
216.6699055854
 20
28.3959507801
 30
0.0
 10
216.3448671757
 20
28.3959507801
 30
0.0
 10
216.2051163618
 20
28.3959507801
 30
0.0
 10
216.0669357818
 20
28.3294775466
 30
0.0
 10
215.9975837861
 20
28.2064758939
 30
0.0
 10
215.9975837861
 20
28.2064758939
 30
0.0
 10
215.9928730846
 20
28.2064758939
 30
0.0
 10
215.9928730846
 20
28.2064758939
 30
0.0
 10
215.9928730846
 20
28.2064758939
 30
0.0
 10
215.9928730846
 20
29.3464656789
 30
0.0
 10
215.9928730846
 20
29.3464656789
 30
0.0
 10
215.9928730846
 20
29.3464656789
 30
0.0
 10
215.7714701098
 20
29.3464656789
 30
0.0
 10
215.7714701098
 20
29.3464656789
 30
0.0
  0
LWPOLYLINE
  5
25A
100
AcDbEntity
  8
0
100
AcDbPolyline
 62
7
  6
CONTINUOUS
 90
2
 70
0
 43
0.2
 10
218.593703774
 20
28.1541347652
 10
218.8101343415
 20
28.1541347652
  0
LWPOLYLINE
  5
25B
100
AcDbEntity
  8
0
100
AcDbPolyline
 62
7
  6
CONTINUOUS
 90
2
 70
0
 43
0.2
 10
218.8101343415
 20
28.1541347652
 10
218.8101343415
 20
28.3608822239
  0
LWPOLYLINE
  5
25C
100
AcDbEntity
  8
0
100
AcDbPolyline
 62
7
  6
CONTINUOUS
 90
2
 70
0
 43
0.2
 10
218.8101343415
 20
28.3608822239
 10
218.593703774
 20
28.3608822239
  0
LWPOLYLINE
  5
25D
100
AcDbEntity
  8
0
100
AcDbPolyline
 62
7
  6
CONTINUOUS
 90
2
 70
0
 43
0.2
 10
218.593703774
 20
28.3608822239
 10
218.593703774
 20
28.8015945282
  0
LWPOLYLINE
  5
25E
100
AcDbEntity
  8
0
100
AcDbPolyline
 62
7
  6
CONTINUOUS
 90
2
 70
0
 43
0.2
 10
218.593703774
 20
28.8015945282
 10
218.3720390936
 20
28.8015945282
  0
LWPOLYLINE
  5
25F
100
AcDbEntity
  8
0
100
AcDbPolyline
 62
7
  6
CONTINUOUS
 90
2
 70
0
 43
0.2
 10
218.3720390936
 20
28.8015945282
 10
218.3720390936
 20
28.3608822239
  0
LWPOLYLINE
  5
260
100
AcDbEntity
  8
0
100
AcDbPolyline
 62
7
  6
CONTINUOUS
 90
2
 70
0
 43
0.2
 10
218.3720390936
 20
28.3608822239
 10
218.2513927917
 20
28.3608822239
  0
LWPOLYLINE
  5
261
100
AcDbEntity
  8
0
100
AcDbPolyline
 62
7
  6
CONTINUOUS
 90
2
 70
0
 43
0.2
 10
218.2513927917
 20
28.3608822239
 10
218.2513927917
 20
28.1541347652
  0
LWPOLYLINE
  5
262
100
AcDbEntity
  8
0
100
AcDbPolyline
 62
7
  6
CONTINUOUS
 90
2
 70
0
 43
0.2
 10
218.2513927917
 20
28.1541347652
 10
218.3720390936
 20
28.1541347652
  0
LWPOLYLINE
  5
263
100
AcDbEntity
  8
0
100
AcDbPolyline
 62
7
  6
CONTINUOUS
 90
2
 70
0
 43
0.2
 10
218.3720390936
 20
28.1541347652
 10
218.3720390936
 20
27.208330568
  0
LWPOLYLINE
  5
264
100
AcDbEntity
  8
0
100
AcDbPolyline
 62
7
  6
CONTINUOUS
 90
2
 70
0
 43
0.2
 10
218.3720390936
 20
27.208330568
 10
218.593703774
 20
27.208330568
  0
LWPOLYLINE
  5
265
100
AcDbEntity
  8
0
100
AcDbPolyline
 62
7
  6
CONTINUOUS
 90
2
 70
0
 43
0.2
 10
218.593703774
 20
27.208330568
 10
218.593703774
 20
28.1541347652
  0
SPLINE
  5
266
100
AcDbEntity
  8
0
100
AcDbSpline
 62
7
  6
CONTINUOUS
 70
2
 71
3
 72
20
 73
16
 74
0
 42
0.0000001
 43
0.0000001
 44
0.0000000001
 40
0.0
 40
0.0
 40
0.0
 40
0.0
 40
1.0
 40
1.0
 40
1.0
 40
2.0
 40
2.0
 40
2.0
 40
3.0
 40
3.0
 40
3.0
 40
4.0
 40
4.0
 40
4.0
 40
5.0
 40
5.0
 40
5.0
 40
5.0
 10
206.3757140812
 20
37.5692570114
 30
0.0
 10
206.3757140812
 20
37.5692570114
 30
0.0
 10
208.6920707357
 20
34.7396955891
 30
0.0
 10
208.6920707357
 20
34.7396955891
 30
0.0
 10
208.0404236823
 20
34.0875251244
 30
0.0
 10
207.2635504783
 20
33.3516088537
 30
0.0
 10
206.2923608336
 20
33.3516088537
 30
0.0
 10
205.2938229492
 20
33.3516088537
 30
0.0
 10
204.3505049556
 20
34.281187301
 30
0.0
 10
204.3505049556
 20
35.2803794495
 30
0.0
 10
204.3505049556
 20
36.279571598
 30
0.0
 10
205.5293580287
 20
36.9861768367
 30
0.0
 10
206.2508804891
 20
37.4860346166
 30
0.0
 10
206.2508804891
 20
37.4860346166
 30
0.0
 10
206.3757140812
 20
37.5692570114
 30
0.0
 10
206.3757140812
 20
37.5692570114
 30
0.0
  0
SPLINE
  5
267
100
AcDbEntity
  8
0
100
AcDbSpline
 62
7
  6
CONTINUOUS
 70
2
 71
3
 72
23
 73
19
 74
0
 42
0.0000001
 43
0.0000001
 44
0.0000000001
 40
0.0
 40
0.0
 40
0.0
 40
0.0
 40
1.0
 40
1.0
 40
1.0
 40
2.0
 40
2.0
 40
2.0
 40
3.0
 40
3.0
 40
3.0
 40
4.0
 40
4.0
 40
4.0
 40
5.0
 40
5.0
 40
5.0
 40
6.0
 40
6.0
 40
6.0
 40
6.0
 10
206.6531220638
 20
39.2070109311
 30
0.0
 10
206.6531220638
 20
39.2070109311
 30
0.0
 10
206.3066237912
 20
39.6503402919
 30
0.0
 10
206.3066237912
 20
39.6503402919
 30
0.0
 10
206.0008207463
 20
40.0384497619
 30
0.0
 10
205.6819324192
 20
40.4269517903
 30
0.0
 10
205.6819324192
 20
40.9538961044
 30
0.0
 10
205.6819324192
 20
41.620067821
 30
0.0
 10
206.2232705436
 20
42.0637897403
 30
0.0
 10
206.8471767988
 20
42.0637897403
 30
0.0
 10
207.5409584609
 20
42.0637897403
 30
0.0
 10
208.0681644806
 20
41.6615481656
 30
0.0
 10
208.0681644806
 20
40.9265478646
 30
0.0
 10
208.0681644806
 20
40.163283354
 30
0.0
 10
207.3469037259
 20
39.7331701282
 30
0.0
 10
206.819828559
 20
39.3174507128
 30
0.0
 10
206.819828559
 20
39.3174507128
 30
0.0
 10
206.6531220638
 20
39.2070109311
 30
0.0
 10
206.6531220638
 20
39.2070109311
 30
0.0
  0
SPLINE
  5
268
100
AcDbEntity
  8
0
100
AcDbSpline
 62
7
  6
CONTINUOUS
 70
2
 71
3
 72
50
 73
46
 74
0
 42
0.0000001
 43
0.0000001
 44
0.0000000001
 40
0.0
 40
0.0
 40
0.0
 40
0.0
 40
1.0
 40
1.0
 40
1.0
 40
2.0
 40
2.0
 40
2.0
 40
3.0
 40
3.0
 40
3.0
 40
4.0
 40
4.0
 40
4.0
 40
5.0
 40
5.0
 40
5.0
 40
6.0
 40
6.0
 40
6.0
 40
7.0
 40
7.0
 40
7.0
 40
8.0
 40
8.0
 40
8.0
 40
9.0
 40
9.0
 40
9.0
 40
10.0
 40
10.0
 40
10.0
 40
11.0
 40
11.0
 40
11.0
 40
12.0
 40
12.0
 40
12.0
 40
13.0
 40
13.0
 40
13.0
 40
14.0
 40
14.0
 40
14.0
 40
15.0
 40
15.0
 40
15.0
 40
15.0
 10
210.6067092267
 20
32.408421713
 30
0.0
 10
210.6067092267
 20
32.408421713
 30
0.0
 10
212.2159372313
 20
32.408421713
 30
0.0
 10
212.2159372313
 20
32.408421713
 30
0.0
 10
212.2159372313
 20
32.408421713
 30
0.0
 10
210.3429099376
 20
34.7255634844
 30
0.0
 10
210.3429099376
 20
34.7255634844
 30
0.0
 10
210.3429099376
 20
34.7255634844
 30
0.0
 10
211.6192483631
 20
36.223043179
 30
0.0
 10
211.6192483631
 20
36.223043179
 30
0.0
 10
211.6192483631
 20
36.223043179
 30
0.0
 10
210.7870244154
 20
37.0840547475
 30
0.0
 10
210.7870244154
 20
37.0840547475
 30
0.0
 10
210.7870244154
 20
37.0840547475
 30
0.0
 10
209.5664292921
 20
35.6687506251
 30
0.0
 10
209.5664292921
 20
35.6687506251
 30
0.0
 10
209.5664292921
 20
35.6687506251
 30
0.0
 10
207.3885149233
 20
38.3041264595
 30
0.0
 10
207.3885149233
 20
38.3041264595
 30
0.0
 10
208.2620883627
 20
38.9421648194
 30
0.0
 10
209.2887596039
 20
39.7331701282
 30
0.0
 10
209.2887596039
 20
40.9120232013
 30
0.0
 10
209.2887596039
 20
42.2857161264
 30
0.0
 10
208.150863464
 20
43.0901992758
 30
0.0
 10
206.8755718611
 20
43.0901992758
 30
0.0
 10
205.5021406418
 20
43.0901992758
 30
0.0
 10
204.461206443
 20
42.2439740762
 30
0.0
 10
204.461206443
 20
40.801321714
 30
0.0
 10
204.461206443
 20
39.9137470226
 30
0.0
 10
205.0165458195
 20
39.1368738185
 30
0.0
 10
205.6127112763
 20
38.5124441521
 30
0.0
 10
205.6127112763
 20
38.5124441521
 30
0.0
 10
204.9608025173
 20
38.0408505817
 30
0.0
 10
204.9608025173
 20
38.0408505817
 30
0.0
 10
203.9622646329
 20
37.319589827
 30
0.0
 10
203.129386421
 20
36.5983290724
 30
0.0
 10
203.129386421
 20
35.266770756
 30
0.0
 10
203.129386421
 20
33.463095458
 30
0.0
 10
204.5864325936
 20
32.1864953269
 30
0.0
 10
206.333972031
 20
32.1864953269
 30
0.0
 10
207.5688301119
 20
32.1864953269
 30
0.0
 10
208.6782003366
 20
32.8946707994
 30
0.0
 10
209.4690747925
 20
33.8232024241
 30
0.0
 10
209.4690747925
 20
33.8232024241
 30
0.0
 10
210.6067092267
 20
32.408421713
 30
0.0
 10
210.6067092267
 20
32.408421713
 30
0.0
  0
LINE
  5
269
100
AcDbEntity
  8
0
100
AcDbLine
 62
7
  6
CONTINUOUS
 10
196.4095706017
 20
30.3822966176
 11
218.8234813294
 21
30.3822966176
  0
LINE
  5
26A
100
AcDbEntity
  8
0
100
AcDbLine
 62
7
  6
CONTINUOUS
 10
218.8234813294
 20
30.3822966176
 11
218.8234813294
 21
52.7962073453
  0
LINE
  5
26B
100
AcDbEntity
  8
0
100
AcDbLine
 62
7
  6
CONTINUOUS
 10
218.8234813294
 20
52.7962073453
 11
196.4095706017
 21
52.7962073453
  0
LINE
  5
26C
100
AcDbEntity
  8
0
100
AcDbLine
 62
7
  6
CONTINUOUS
 10
196.4095706017
 20
52.7962073453
 11
196.4095706017
 21
30.3822966176
  0
ENDBLK
  5
26D
100
AcDbEntity
  8
0
  6
BYBLOCK
 62
0
100
AcDbBlockEnd
  0
BLOCK
  5
26E
100
AcDbEntity
  8
0
100
AcDbBlockBegin
  2
_CLOSED
 70
64
 10
0.0
 20
0.0
  3
_CLOSED
  1

  0
LINE
  5
26F
100
AcDbEntity
  8
0
  6
BYBLOCK
 62
0
100
AcDbLine
 10
0.0
 20
0.0
 11
-1.0
 21
0.2
  0
LINE
  5
270
100
AcDbEntity
  8
0
  6
BYBLOCK
 62
0
100
AcDbLine
 10
-1.0
 20
0.2
 11
-1.0
 21
-0.2
  0
LINE
  5
271
100
AcDbEntity
  8
0
  6
BYBLOCK
 62
0
100
AcDbLine
 10
-1.0
 20
-0.2
 11
0.0
 21
0.0
  0
LINE
  5
272
100
AcDbEntity
  8
0
  6
BYBLOCK
 62
0
100
AcDbLine
 10
-1.0
 20
0.0
 11
0.0
 21
0.0
  0
ENDBLK
  5
273
100
AcDbEntity
  8
0
  6
BYBLOCK
 62
0
100
AcDbBlockEnd
  0
BLOCK
  5
274
100
AcDbEntity
  8
0
100
AcDbBlockBegin
 62
2
  6
CONTINUOUS
  2
*D0
 70
65
 10
0.0
 20
0.0
  3
*D0
  1

  0
MTEXT
  5
275
100
AcDbEntity
  8
0
100
AcDbMText
 62
2
  6
CONTINUOUS
  7
STANDARD
 71
2
 72
1
 10
64.8044702447
 20
189.038585883
 30
0.0
 11
1.0
 21
0.0
 31
0.0
  1
69
 40
3.0
 41
4.6617100372
  0
LINE
  5
276
100
AcDbEntity
  8
0
100
AcDbLine
 62
2
  6
CONTINUOUS
 10
30.3044702447
 20
180.9395700184
 11
30.3044702447
 21
186.038585883
  0
LINE
  5
277
100
AcDbEntity
  8
0
100
AcDbLine
 62
2
  6
CONTINUOUS
 10
99.3044702447
 20
181.2072273174
 11
99.3044702447
 21
186.038585883
  0
LINE
  5
278
100
AcDbEntity
  8
0
100
AcDbLine
 62
2
  6
CONTINUOUS
 10
30.3044702447
 20
185.288585883
 11
64.8044702447
 21
185.288585883
  0
LINE
  5
279
100
AcDbEntity
  8
0
100
AcDbLine
 62
2
  6
CONTINUOUS
 10
99.3044702447
 20
185.288585883
 11
64.8044702447
 21
185.288585883
  0
INSERT
  5
27A
100
AcDbEntity
  8
0
100
AcDbBlockReference
 62
2
  6
CONTINUOUS
  2
_CLOSED
 10
30.3044702447
 20
185.288585883
 41
2.5
 42
2.5
 43
2.5
 50
180.0
  0
INSERT
  5
27B
100
AcDbEntity
  8
0
100
AcDbBlockReference
 62
2
  6
CONTINUOUS
  2
_CLOSED
 10
99.3044702447
 20
185.288585883
 41
2.5
 42
2.5
 43
2.5
  0
ENDBLK
  5
27C
100
AcDbEntity
  8
0
  6
BYBLOCK
 62
0
100
AcDbBlockEnd
  0
BLOCK
  5
27D
100
AcDbEntity
  8
0
100
AcDbBlockBegin
 62
2
  6
CONTINUOUS
  2
*D1
 70
65
 10
0.0
 20
0.0
  3
*D1
  1

  0
MTEXT
  5
27E
100
AcDbEntity
  8
0
100
AcDbMText
 62
2
  6
CONTINUOUS
  7
STANDARD
 71
2
 72
1
 10
112.3044702447
 20
103.3957713306
 30
0.0
 11
1.0
 21
0.0
 31
0.0
  1
20
 40
3.0
 41
4.6617100372
  0
LINE
  5
27F
100
AcDbEntity
  8
0
100
AcDbLine
 62
2
  6
CONTINUOUS
 10
102.3044702447
 20
105.4050314396
 11
102.3044702447
 21
98.8957713306
  0
LINE
  5
280
100
AcDbEntity
  8
0
100
AcDbLine
 62
2
  6
CONTINUOUS
 10
122.3044702447
 20
105.1127437955
 11
122.3044702447
 21
98.8957713306
  0
LINE
  5
281
100
AcDbEntity
  8
0
100
AcDbLine
 62
2
  6
CONTINUOUS
 10
102.3044702447
 20
99.6457713306
 11
112.3044702447
 21
99.6457713306
  0
LINE
  5
282
100
AcDbEntity
  8
0
100
AcDbLine
 62
2
  6
CONTINUOUS
 10
122.3044702447
 20
99.6457713306
 11
112.3044702447
 21
99.6457713306
  0
INSERT
  5
283
100
AcDbEntity
  8
0
100
AcDbBlockReference
 62
2
  6
CONTINUOUS
  2
_CLOSED
 10
102.3044702447
 20
99.6457713306
 41
2.5
 42
2.5
 43
2.5
 50
180.0
  0
INSERT
  5
284
100
AcDbEntity
  8
0
100
AcDbBlockReference
 62
2
  6
CONTINUOUS
  2
_CLOSED
 10
122.3044702447
 20
99.6457713306
 41
2.5
 42
2.5
 43
2.5
  0
ENDBLK
  5
285
100
AcDbEntity
  8
0
  6
BYBLOCK
 62
0
100
AcDbBlockEnd
  0
BLOCK
  5
286
100
AcDbEntity
  8
0
100
AcDbBlockBegin
 62
2
  6
CONTINUOUS
  2
*D2
 70
65
 10
0.0
 20
0.0
  3
*D2
  1

  0
MTEXT
  5
287
100
AcDbEntity
  8
0
100
AcDbMText
 62
2
  6
CONTINUOUS
  7
TEXTSTYLE_2
 71
3
 72
1
 10
182.6164263754
 20
150.8839522583
 30
0.0
 11
0.9045243085
 21
0.4264220623
 31
0.0
  1
{\Fgdt;n}\Farial.ttf;34
 40
3.0
 41
8.6617100372
  0
LINE
  5
288
100
AcDbEntity
  8
0
100
AcDbLine
 62
2
  6
CONTINUOUS
 10
188.2646113798
 20
149.4008640878
 11
176.380781827
 21
143.7984418438
  0
INSERT
  5
289
100
AcDbEntity
  8
0
100
AcDbBlockReference
 62
2
  6
CONTINUOUS
  2
_CLOSED
 10
188.2646113798
 20
149.4008640878
 41
2.5
 42
2.5
 43
2.5
 50
25.2407085678
  0
ENDBLK
  5
28A
100
AcDbEntity
  8
0
  6
BYBLOCK
 62
0
100
AcDbBlockEnd
  0
BLOCK
  5
28B
100
AcDbEntity
  8
0
100
AcDbBlockBegin
 62
2
  6
CONTINUOUS
  2
*D3
 70
65
 10
0.0
 20
0.0
  3
*D3
  1

  0
MTEXT
  5
28C
100
AcDbEntity
  8
0
100
AcDbMText
 62
2
  6
CONTINUOUS
  7
STANDARD
 71
2
 72
1
 10
132.6527273681
 20
134.1500391477
 30
0.0
 11
0.0
 21
1.0
 31
0.0
  1
45
 40
3.0
 41
4.6617100372
  0
LINE
  5
28D
100
AcDbEntity
  8
0
100
AcDbLine
 62
2
  6
CONTINUOUS
 10
130.8463492214
 20
156.6500391477
 11
137.1527273681
 21
156.6500391477
  0
LINE
  5
28E
100
AcDbEntity
  8
0
100
AcDbLine
 62
2
  6
CONTINUOUS
 10
130.9325356507
 20
111.6500391477
 11
137.1527273681
 21
111.6500391477
  0
LINE
  5
28F
100
AcDbEntity
  8
0
100
AcDbLine
 62
2
  6
CONTINUOUS
 10
136.4027273681
 20
156.6500391477
 11
136.4027273681
 21
134.1500391477
  0
LINE
  5
290
100
AcDbEntity
  8
0
100
AcDbLine
 62
2
  6
CONTINUOUS
 10
136.4027273681
 20
111.6500391477
 11
136.4027273681
 21
134.1500391477
  0
INSERT
  5
291
100
AcDbEntity
  8
0
100
AcDbBlockReference
 62
2
  6
CONTINUOUS
  2
_CLOSED
 10
136.4027273681
 20
156.6500391477
 41
2.5
 42
2.5
 43
2.5
 50
90.0
  0
INSERT
  5
292
100
AcDbEntity
  8
0
100
AcDbBlockReference
 62
2
  6
CONTINUOUS
  2
_CLOSED
 10
136.4027273681
 20
111.6500391477
 41
2.5
 42
2.5
 43
2.5
 50
270.0
  0
ENDBLK
  5
293
100
AcDbEntity
  8
0
  6
BYBLOCK
 62
0
100
AcDbBlockEnd
  0
BLOCK
  5
294
100
AcDbEntity
  8
0
100
AcDbBlockBegin
 62
2
  6
CONTINUOUS
  2
*D4
 70
65
 10
0.0
 20
0.0
  3
*D4
  1

  0
MTEXT
  5
295
100
AcDbEntity
  8
0
100
AcDbMText
 62
2
  6
CONTINUOUS
  7
STANDARD
 71
2
 72
1
 10
140.160181341
 20
142.6500391477
 30
0.0
 11
0.0
 21
1.0
 31
0.0
  1
62
 40
3.0
 41
4.6617100372
  0
LINE
  5
296
100
AcDbEntity
  8
0
100
AcDbLine
 62
2
  6
CONTINUOUS
 10
131.1809037094
 20
173.6500391477
 11
144.660181341
 21
173.6500391477
  0
LINE
  5
297
100
AcDbEntity
  8
0
100
AcDbLine
 62
2
  6
CONTINUOUS
 10
130.9325356507
 20
111.6500391477
 11
144.660181341
 21
111.6500391477
  0
LINE
  5
298
100
AcDbEntity
  8
0
100
AcDbLine
 62
2
  6
CONTINUOUS
 10
143.910181341
 20
173.6500391477
 11
143.910181341
 21
142.6500391477
  0
LINE
  5
299
100
AcDbEntity
  8
0
100
AcDbLine
 62
2
  6
CONTINUOUS
 10
143.910181341
 20
111.6500391477
 11
143.910181341
 21
142.6500391477
  0
INSERT
  5
29A
100
AcDbEntity
  8
0
100
AcDbBlockReference
 62
2
  6
CONTINUOUS
  2
_CLOSED
 10
143.910181341
 20
173.6500391477
 41
2.5
 42
2.5
 43
2.5
 50
90.0
  0
INSERT
  5
29B
100
AcDbEntity
  8
0
100
AcDbBlockReference
 62
2
  6
CONTINUOUS
  2
_CLOSED
 10
143.910181341
 20
111.6500391477
 41
2.5
 42
2.5
 43
2.5
 50
270.0
  0
ENDBLK
  5
29C
100
AcDbEntity
  8
0
  6
BYBLOCK
 62
0
100
AcDbBlockEnd
  0
BLOCK
  5
29D
100
AcDbEntity
  8
0
100
AcDbBlockBegin
 62
2
  6
CONTINUOUS
  2
*D5
 70
65
 10
0.0
 20
0.0
  3
*D5
  1

  0
MTEXT
  5
29E
100
AcDbEntity
  8
0
100
AcDbMText
 62
2
  6
CONTINUOUS
  7
STANDARD
 71
2
 72
1
 10
207.616524625
 20
103.3957713306
 30
0.0
 11
1.0
 21
0.0
 31
0.0
  1
27,25
 40
3.0
 41
10.4832713755
  0
LINE
  5
29F
100
AcDbEntity
  8
0
100
AcDbLine
 62
2
  6
CONTINUOUS
 10
193.991524625
 20
105.5109857105
 11
193.991524625
 21
98.8957713306
  0
LINE
  5
2A0
100
AcDbEntity
  8
0
100
AcDbLine
 62
2
  6
CONTINUOUS
 10
221.241524625
 20
105.7495143745
 11
221.241524625
 21
98.8957713306
  0
LINE
  5
2A1
100
AcDbEntity
  8
0
100
AcDbLine
 62
2
  6
CONTINUOUS
 10
193.991524625
 20
99.6457713306
 11
207.616524625
 21
99.6457713306
  0
LINE
  5
2A2
100
AcDbEntity
  8
0
100
AcDbLine
 62
2
  6
CONTINUOUS
 10
221.241524625
 20
99.6457713306
 11
207.616524625
 21
99.6457713306
  0
INSERT
  5
2A3
100
AcDbEntity
  8
0
100
AcDbBlockReference
 62
2
  6
CONTINUOUS
  2
_CLOSED
 10
193.991524625
 20
99.6457713306
 41
2.5
 42
2.5
 43
2.5
 50
180.0
  0
INSERT
  5
2A4
100
AcDbEntity
  8
0
100
AcDbBlockReference
 62
2
  6
CONTINUOUS
  2
_CLOSED
 10
221.241524625
 20
99.6457713306
 41
2.5
 42
2.5
 43
2.5
  0
ENDBLK
  5
2A5
100
AcDbEntity
  8
0
  6
BYBLOCK
 62
0
100
AcDbBlockEnd
  0
BLOCK
  5
2A6
100
AcDbEntity
  8
0
100
AcDbBlockBegin
 62
2
  6
CONTINUOUS
  2
*D6
 70
65
 10
0.0
 20
0.0
  3
*D6
  1

  0
MTEXT
  5
2A7
100
AcDbEntity
  8
0
100
AcDbMText
 62
2
  6
CONTINUOUS
  7
STANDARD
 71
2
 72
1
 10
76.3044702447
 20
27.0600503519
 30
0.0
 11
1.0
 21
0.0
 31
0.0
  1
92
 40
3.0
 41
4.6617100372
  0
LINE
  5
2A8
100
AcDbEntity
  8
0
100
AcDbLine
 62
2
  6
CONTINUOUS
 10
30.3044702447
 20
27.7741701732
 11
30.3044702447
 21
22.5600503519
  0
LINE
  5
2A9
100
AcDbEntity
  8
0
100
AcDbLine
 62
2
  6
CONTINUOUS
 10
122.3044702447
 20
27.9793043611
 11
122.3044702447
 21
22.5600503519
  0
LINE
  5
2AA
100
AcDbEntity
  8
0
100
AcDbLine
 62
2
  6
CONTINUOUS
 10
30.3044702447
 20
23.3100503519
 11
76.3044702447
 21
23.3100503519
  0
LINE
  5
2AB
100
AcDbEntity
  8
0
100
AcDbLine
 62
2
  6
CONTINUOUS
 10
122.3044702447
 20
23.3100503519
 11
76.3044702447
 21
23.3100503519
  0
INSERT
  5
2AC
100
AcDbEntity
  8
0
100
AcDbBlockReference
 62
2
  6
CONTINUOUS
  2
_CLOSED
 10
30.3044702447
 20
23.3100503519
 41
2.5
 42
2.5
 43
2.5
 50
180.0
  0
INSERT
  5
2AD
100
AcDbEntity
  8
0
100
AcDbBlockReference
 62
2
  6
CONTINUOUS
  2
_CLOSED
 10
122.3044702447
 20
23.3100503519
 41
2.5
 42
2.5
 43
2.5
  0
ENDBLK
  5
2AE
100
AcDbEntity
  8
0
  6
BYBLOCK
 62
0
100
AcDbBlockEnd
  0
ENDSEC
  0
SECTION
  2
ENTITIES
  0
DIMENSION
  5
2AF
100
AcDbEntity
  8
0
100
AcDbDimension
 62
2
  6
CONTINUOUS
  2
*D0
 10
99.3044702447
 20
185.288585883
 11
64.7852708359
 21
185.288585883
 70
160
  3
DIMSTYLE_1
100
AcDbAlignedDimension
 13
30.3044702447
 23
180.1895700184
 14
99.3044702447
 24
180.4572273174
100
AcDbRotatedDimension
  0
DIMENSION
  5
2B0
100
AcDbEntity
  8
0
100
AcDbDimension
 62
2
  6
CONTINUOUS
  2
*D1
 10
122.3044702447
 20
99.6457713306
 11
112.2685423737
 21
99.6457713306
 70
160
  3
DIMSTYLE_2
100
AcDbAlignedDimension
 13
102.3044702447
 23
106.1550314396
 14
122.3044702447
 24
105.8627437955
100
AcDbRotatedDimension
  0
DIMENSION
  5
2B1
100
AcDbEntity
  8
0
100
AcDbDimension
 62
2
  6
CONTINUOUS
  2
*D2
 10
188.2646113798
 20
149.4008640878
 11
179.3386958278
 21
147.6803936668
 70
163
  1
%%c<>
  3
DIMSTYLE_3
100
AcDbDiametricDimension
 15
219.0184378702
 25
163.8992142075
  0
DIMENSION
  5
2B2
100
AcDbEntity
  8
0
100
AcDbDimension
 62
2
  6
CONTINUOUS
  2
*D3
 10
136.4027273681
 20
111.6500391477
 11
136.4027273681
 21
134.0862350966
 70
160
  3
DIMSTYLE_1
100
AcDbAlignedDimension
 13
130.0963492214
 23
156.6500391477
 14
130.1825356507
 24
111.6500391477
 50
270.0
100
AcDbRotatedDimension
  0
DIMENSION
  5
2B3
100
AcDbEntity
  8
0
100
AcDbDimension
 62
2
  6
CONTINUOUS
  2
*D4
 10
143.910181341
 20
111.6500391477
 11
143.910181341
 21
142.6141092639
 70
160
  3
DIMSTYLE_1
100
AcDbAlignedDimension
 13
130.4309037094
 23
173.6500391477
 14
130.1825356507
 24
111.6500391477
 50
270.0
100
AcDbRotatedDimension
  0
DIMENSION
  5
2B4
100
AcDbEntity
  8
0
100
AcDbDimension
 62
2
  6
CONTINUOUS
  2
*D5
 10
221.241524625
 20
99.6457713306
 11
207.5878545227
 21
99.6457713306
 70
160
  3
DIMSTYLE_2
100
AcDbAlignedDimension
 13
193.991524625
 23
106.2609857105
 14
221.241524625
 24
106.4995143745
100
AcDbRotatedDimension
  0
DIMENSION
  5
2B5
100
AcDbEntity
  8
0
100
AcDbDimension
 62
2
  6
CONTINUOUS
  2
*D6
 10
122.3044702447
 20
23.3100503519
 11
76.2796956253
 21
23.3100503519
 70
160
  3
DIMSTYLE_1
100
AcDbAlignedDimension
 13
30.3044702447
 23
28.5241701732
 14
122.3044702447
 24
28.7293043611
100
AcDbRotatedDimension
  0
LINE
  5
2B6
100
AcDbEntity
  8
0
100
AcDbLine
 62
2
  6
CONTINUOUS
 10
193.7904134944
 20
53.1725198453
 11
283.7904134944
 21
53.1725198453
  0
LINE
  5
2B7
100
AcDbEntity
  8
0
100
AcDbLine
 62
2
  6
CONTINUOUS
 10
193.7904134944
 20
53.1725198453
 11
193.7904134944
 21
13.1725198453
  0
LINE
  5
2B8
100
AcDbEntity
  8
0
100
AcDbLine
 62
2
  6
CONTINUOUS
 10
223.7904134944
 20
47.1725198453
 11
283.7904134944
 21
47.1725198453
  0
LINE
  5
2B9
100
AcDbEntity
  8
0
100
AcDbLine
 62
2
  6
CONTINUOUS
 10
223.7904134944
 20
41.1725198453
 11
283.7904134944
 21
41.1725198453
  0
LINE
  5
2BA
100
AcDbEntity
  8
0
100
AcDbLine
 62
2
  6
CONTINUOUS
 10
223.7904134944
 20
31.1725198453
 11
283.7904134944
 21
31.1725198453
  0
LINE
  5
2BB
100
AcDbEntity
  8
0
100
AcDbLine
 62
2
  6
CONTINUOUS
 10
193.7904134944
 20
26.1725198453
 11
283.7904134944
 21
26.1725198453
  0
LINE
  5
2BC
100
AcDbEntity
  8
0
100
AcDbLine
 62
2
  6
CONTINUOUS
 10
193.7904134944
 20
13.1725198453
 11
283.7904134944
 21
13.1725198453
  0
LINE
  5
2BD
100
AcDbEntity
  8
0
100
AcDbLine
 62
2
  6
CONTINUOUS
 10
223.7904134944
 20
53.1725198453
 11
223.7904134944
 21
26.1725198453
  0
LINE
  5
2BE
100
AcDbEntity
  8
0
100
AcDbLine
 62
2
  6
CONTINUOUS
 10
263.7904134944
 20
53.1725198453
 11
263.7904134944
 21
41.1725198453
  0
LINE
  5
2BF
100
AcDbEntity
  8
0
100
AcDbLine
 62
2
  6
CONTINUOUS
 10
283.7904134944
 20
53.1725198453
 11
283.7904134944
 21
13.1725198453
  0
INSERT
  5
2C0
100
AcDbEntity
  8
0
100
AcDbBlockReference
 62
2
  6
CONTINUOUS
  2
LOGO2_BL0
 10
207.6164605391
 20
39.6725198453
  0
MTEXT
  5
2C1
100
AcDbEntity
  8
9_SOLID
100
AcDbMText
 62
2
  6
CONTINUOUS
  7
TEXTSTYLE_3
 71
1
 72
1
 10
225.2779134944
 20
51.6725198453
 30
0.0
 11
1.0
 21
0.0
 31
0.0
  1
451_C_210
 40
3.0
 41
30.6428571429
  0
MTEXT
  5
2C2
100
AcDbEntity
  8
0
100
AcDbMText
 62
2
  6
CONTINUOUS
  7
TEXTSTYLE_3
 71
1
 72
1
 10
265.2779134944
 20
51.9225198453
 30
0.0
 11
1.0
 21
0.0
 31
0.0
  1
Rev:00
 40
3.5
 41
22.75
  0
MTEXT
  5
2C3
100
AcDbEntity
  8
9_SOLID
100
AcDbMText
 62
2
  6
CONTINUOUS
  7
TEXTSTYLE_3
 71
1
 72
1
 10
225.2779134944
 20
45.4225198453
 30
0.0
 11
1.0
 21
0.0
 31
0.0
  1
Scale:1:1
 40
3.5
 41
28.375
  0
MTEXT
  5
2C4
100
AcDbEntity
  8
9_SOLID
100
AcDbMText
 62
2
  6
CONTINUOUS
  7
TEXTSTYLE_3
 71
1
 72
1
 10
265.2779134944
 20
45.9225198453
 30
0.0
 11
1.0
 21
0.0
 31
0.0
  1
A4
 40
3.5
 41
9.625
  0
MTEXT
  5
2C5
100
AcDbEntity
  8
0
100
AcDbMText
 62
2
  6
CONTINUOUS
  7
TEXTSTYLE_3
 71
1
 72
1
 10
225.2779134944
 20
37.9225198453
 30
0.0
 11
1.0
 21
0.0
 31
0.0
  1
GINKO 1.4
 40
3.5
 41
35.125
  0
MTEXT
  5
2C6
100
AcDbEntity
  8
0
100
AcDbMText
 62
2
  6
CONTINUOUS
  7
TEXTSTYLE_3
 71
1
 72
1
 10
225.2779134944
 20
29.9225198453
 30
0.0
 11
1.0
 21
0.0
 31
0.0
  1
DATE:03/07/2018
 40
2.5
 41
42.7678571429
  0
MTEXT
  5
2C7
100
AcDbEntity
  8
9_SOLID
100
AcDbMText
 62
2
  6
CONTINUOUS
  7
TEXTSTYLE_3
 71
1
 72
1
 10
195.2779134944
 20
25.8600198453
 30
0.0
 11
1.0
 21
0.0
 31
0.0
  1
Any integral or partial reproductions are prohibited \Pwithout prior authorisation of L {\Ftxt.shx;\W0.190476;\H2.250000; }& L Luce & Light s.r.l., \Pin accordance with the law in force. \PAll rights reserved.
 40
2.25
 41
134.5982142857
  0
LWPOLYLINE
  5
2C8
100
AcDbEntity
  8
0
100
AcDbPolyline
 62
7
  6
CONTINUOUS
 90
2
 70
0
 43
0.100000004
 10
10.0
 20
10.0
 10
10.0
 20
200.0
  0
LWPOLYLINE
  5
2C9
100
AcDbEntity
  8
0
100
AcDbPolyline
 62
7
  6
CONTINUOUS
 90
2
 70
0
 43
0.100000004
 10
10.0
 20
10.0
 10
287.0
 20
10.0
  0
LWPOLYLINE
  5
2CA
100
AcDbEntity
  8
0
100
AcDbPolyline
 62
7
  6
CONTINUOUS
 90
2
 70
0
 43
0.100000004
 10
10.0
 20
200.0
 10
287.0
 20
200.0
  0
LWPOLYLINE
  5
2CB
100
AcDbEntity
  8
0
100
AcDbPolyline
 62
7
  6
CONTINUOUS
 90
2
 70
0
 43
0.100000004
 10
287.0
 20
10.0
 10
287.0
 20
200.0
  0
LINE
  5
2CC
100
AcDbEntity
  8
7_ALL_FEATURES
100
AcDbLine
 62
7
  6
CONTINUOUS
 10
30.3044702447
 20
173.3500391477
 11
30.6044702447
 21
173.6500391477
  0
LINE
  5
2CD
100
AcDbEntity
  8
7_ALL_FEATURES
100
AcDbLine
 62
7
  6
CONTINUOUS
 10
30.3044702447
 20
139.9500396165
 11
30.3044702447
 21
173.3500386788
  0
LINE
  5
2CE
100
AcDbEntity
  8
7_ALL_FEATURES
100
AcDbLine
 62
7
  6
CONTINUOUS
 10
30.6044702447
 20
173.6500391477
 11
30.6044702447
 21
149.736162693
  0
LINE
  5
2CF
100
AcDbEntity
  8
7_ALL_FEATURES
100
AcDbLine
 62
7
  6
CONTINUOUS
 10
30.6044702447
 20
149.1970936259
 11
30.6044702447
 21
147.1443464664
  0
LINE
  5
2D0
100
AcDbEntity
  8
7_ALL_FEATURES
100
AcDbLine
 62
7
  6
CONTINUOUS
 10
30.6044702447
 20
146.6571173654
 11
30.6044702447
 21
144.8312047548
  0
LINE
  5
2D1
100
AcDbEntity
  8
7_ALL_FEATURES
100
AcDbLine
 62
7
  6
CONTINUOUS
 10
30.6044702447
 20
144.4305811566
 11
30.6044702447
 21
142.8971662022
  0
LINE
  5
2D2
100
AcDbEntity
  8
7_ALL_FEATURES
100
AcDbLine
 62
7
  6
CONTINUOUS
 10
30.6044702447
 20
142.5560047129
 11
30.6044702447
 21
141.3708505877
  0
LINE
  5
2D3
100
AcDbEntity
  8
7_ALL_FEATURES
100
AcDbLine
 62
7
  6
CONTINUOUS
 10
30.6044702447
 20
141.1194785535
 11
30.6044702447
 21
139.6500391477
  0
LINE
  5
2D4
100
AcDbEntity
  8
03___PRT_ALL_CURVES
100
AcDbLine
 62
40
  6
CONTINUOUS
 10
32.5044702447
 20
172.0284820641
 11
32.5044702447
 21
171.9881578264
  0
LINE
  5
2D5
100
AcDbEntity
  8
03___PRT_ALL_CURVES
100
AcDbLine
 62
40
  6
CONTINUOUS
 10
32.5044702447
 20
166.2936204857
 11
32.5044702447
 21
166.2160387423
  0
LINE
  5
2D6
100
AcDbEntity
  8
03___PRT_ALL_CURVES
100
AcDbLine
 62
40
  6
CONTINUOUS
 10
32.5044702447
 20
158.3766014808
 11
32.5044702447
 21
158.2828514826
  0
LINE
  5
2D7
100
AcDbEntity
  8
03___PRT_ALL_CURVES
100
AcDbLine
 62
40
  6
CONTINUOUS
 10
32.5044702447
 20
156.8297266596
 11
32.5044702447
 21
156.7047266018
  0
LINE
  5
2D8
100
AcDbEntity
  8
03___PRT_ALL_CURVES
100
AcDbLine
 62
40
  6
CONTINUOUS
 10
32.5044702447
 20
155.3609765851
 11
32.5044702447
 21
155.4859765962
  0
LINE
  5
2D9
100
AcDbEntity
  8
03___PRT_ALL_CURVES
100
AcDbLine
 62
40
  6
CONTINUOUS
 10
32.5044702447
 20
164.3461419373
 11
32.5044702447
 21
164.4575298294
  0
LINE
  5
2DA
100
AcDbEntity
  8
03___PRT_ALL_CURVES
100
AcDbLine
 62
40
  6
CONTINUOUS
 10
32.5044702447
 20
165.2513244502
 11
32.5044702447
 21
165.4125408547
  0
LINE
  5
2DB
100
AcDbEntity
  8
03___PRT_ALL_CURVES
100
AcDbLine
 62
40
  6
CONTINUOUS
 10
32.5044702447
 20
170.6678453575
 11
32.5044702447
 21
170.7733419704
  0
LINE
  5
2DC
100
AcDbEntity
  8
03___PRT_ALL_CURVES
100
AcDbLine
 62
40
  6
CONTINUOUS
 10
32.5044702447
 20
171.3056155015
 11
32.5044702447
 21
171.3997385754
  0
LINE
  5
2DD
100
AcDbEntity
  8
03___PRT_ALL_CURVES
100
AcDbLine
 62
40
  6
CONTINUOUS
 10
32.5044702447
 20
173.6122540911
 11
32.5044702447
 21
173.6500373525
  0
LINE
  5
2DE
100
AcDbEntity
  8
03___PRT_ALL_CURVES
100
AcDbLine
 62
40
  6
CONTINUOUS
 10
32.7704276598
 20
173.6489171406
 11
32.7704276598
 21
173.6122540926
  0
LINE
  5
2DF
100
AcDbEntity
  8
03___PRT_ALL_CURVES
100
AcDbLine
 62
40
  6
CONTINUOUS
 10
32.7704276598
 20
164.4297260873
 11
32.7704276598
 21
164.3182228935
  0
LINE
  5
2E0
100
AcDbEntity
  8
03___PRT_ALL_CURVES
100
AcDbLine
 62
40
  6
CONTINUOUS
 10
32.7704276598
 20
156.8297266596
 11
32.7704276598
 21
156.7047266018
  0
LINE
  5
2E1
100
AcDbEntity
  8
03___PRT_ALL_CURVES
100
AcDbLine
 62
40
  6
CONTINUOUS
 10
32.7704276598
 20
155.4547265851
 11
32.7704276598
 21
155.3297266142
  0
LINE
  5
2E2
100
AcDbEntity
  8
03___PRT_ALL_CURVES
100
AcDbLine
 62
40
  6
CONTINUOUS
 10
33.0895765579
 20
164.0374435342
 11
33.0895765579
 21
163.8959685375
  0
LINE
  5
2E3
100
AcDbEntity
  8
03___PRT_ALL_CURVES
100
AcDbLine
 62
40
  6
CONTINUOUS
 10
33.0895765579
 20
155.0172266
 11
33.0895765579
 21
154.8609765941
  0
LINE
  5
2E4
100
AcDbEntity
  8
03___PRT_ALL_CURVES
100
AcDbLine
 62
40
  6
CONTINUOUS
 10
33.1294702447
 20
158.2828514808
 11
33.1294702447
 21
158.376601479
  0
LINE
  5
2E5
100
AcDbEntity
  8
03___PRT_ALL_CURVES
100
AcDbLine
 62
40
  6
CONTINUOUS
 10
33.1294702447
 20
166.2160387435
 11
33.1294702447
 21
166.293620487
  0
LINE
  5
2E6
100
AcDbEntity
  8
03___PRT_ALL_CURVES
100
AcDbLine
 62
40
  6
CONTINUOUS
 10
33.1294702447
 20
171.9881578253
 11
33.1294702447
 21
172.0284820629
  0
LINE
  5
2E7
100
AcDbEntity
  8
03___PRT_ALL_CURVES
100
AcDbLine
 62
40
  6
CONTINUOUS
 10
33.6214915372
 20
156.7047266
 11
33.6214915372
 21
156.8297266578
  0
LINE
  5
2E8
100
AcDbEntity
  8
03___PRT_ALL_CURVES
100
AcDbLine
 62
40
  6
CONTINUOUS
 10
32.5044702447
 20
155.4859766
 11
32.5576617277
 21
155.6734766
  0
LINE
  5
2E9
100
AcDbEntity
  8
03___PRT_ALL_CURVES
100
AcDbLine
 62
40
  6
CONTINUOUS
 10
32.5576617277
 20
156.9859766
 11
32.5044702447
 21
156.8297266596
  0
LINE
  5
2EA
100
AcDbEntity
  8
03___PRT_ALL_CURVES
100
AcDbLine
 62
40
  6
CONTINUOUS
 10
32.8236191428
 20
155.6109765702
 11
32.7704276598
 21
155.4547265851
  0
LINE
  5
2EB
100
AcDbEntity
  8
03___PRT_ALL_CURVES
100
AcDbLine
 62
40
  6
CONTINUOUS
 10
32.8236191428
 20
156.9547265404
 11
32.7704276598
 21
156.8297266596
  0
LINE
  5
2EC
100
AcDbEntity
  8
03___PRT_ALL_CURVES
100
AcDbLine
 62
40
  6
CONTINUOUS
 10
33.5683000541
 20
156.5797265404
 11
33.6214915372
 21
156.7047266
  0
LINE
  5
2ED
100
AcDbEntity
  8
03___PRT_ALL_CURVES
100
AcDbLine
 62
40
  6
CONTINUOUS
 10
33.8874489523
 20
156.9547265404
 11
33.8342574692
 21
156.8297266596
  0
LINE
  5
2EE
100
AcDbEntity
  8
7_ALL_FEATURES
100
AcDbLine
 62
7
  6
CONTINUOUS
 10
39.5044702447
 20
173.3500391477
 11
39.8044702447
 21
173.6500391477
  0
LINE
  5
2EF
100
AcDbEntity
  8
03___PRT_ALL_CURVES
100
AcDbLine
 62
40
  6
CONTINUOUS
 10
33.8342574692
 20
156.8297266596
 11
33.8342574692
 21
156.7047266018
  0
LINE
  5
2F0
100
AcDbEntity
  8
03___PRT_ALL_CURVES
100
AcDbLine
 62
40
  6
CONTINUOUS
 10
33.9406404353
 20
171.3056155015
 11
33.9406404353
 21
171.029203163
  0
LINE
  5
2F1
100
AcDbEntity
  8
03___PRT_ALL_CURVES
100
AcDbLine
 62
40
  6
CONTINUOUS
 10
33.9406404353
 20
171.3997385782
 11
33.9406404353
 21
171.5526301643
  0
LINE
  5
2F2
100
AcDbEntity
  8
03___PRT_ALL_CURVES
100
AcDbLine
 62
40
  6
CONTINUOUS
 10
34.2597894079
 20
171.3056155015
 11
34.2597894079
 21
170.9112000941
  0
LINE
  5
2F3
100
AcDbEntity
  8
03___PRT_ALL_CURVES
100
AcDbLine
 62
40
  6
CONTINUOUS
 10
34.2597894079
 20
171.5526301692
 11
34.2597894079
 21
171.3997385833
  0
LINE
  5
2F4
100
AcDbEntity
  8
03___PRT_ALL_CURVES
100
AcDbLine
 62
40
  6
CONTINUOUS
 10
34.7385127924
 20
155.0797266074
 11
34.7385127924
 21
155.9547266127
  0
LINE
  5
2F5
100
AcDbEntity
  8
03___PRT_ALL_CURVES
100
AcDbLine
 62
40
  6
CONTINUOUS
 10
34.7385127924
 20
156.7047266
 11
34.7385127924
 21
156.8297266578
  0
LINE
  5
2F6
100
AcDbEntity
  8
03___PRT_ALL_CURVES
100
AcDbLine
 62
40
  6
CONTINUOUS
 10
34.7385127924
 20
164.0938307348
 11
34.7385127924
 21
164.8711313799
  0
LINE
  5
2F7
100
AcDbEntity
  8
03___PRT_ALL_CURVES
100
AcDbLine
 62
40
  6
CONTINUOUS
 10
35.0044702447
 20
173.6382570745
 11
35.0044702447
 21
173.6302360647
  0
LINE
  5
2F8
100
AcDbEntity
  8
03___PRT_ALL_CURVES
100
AcDbLine
 62
40
  6
CONTINUOUS
 10
35.0044702447
 20
171.3997385782
 11
35.0044702447
 21
171.3056155043
  0
LINE
  5
2F9
100
AcDbEntity
  8
03___PRT_ALL_CURVES
100
AcDbLine
 62
40
  6
CONTINUOUS
 10
35.0044702447
 20
170.7733419711
 11
35.0044702447
 21
170.6678453581
  0
LINE
  5
2FA
100
AcDbEntity
  8
03___PRT_ALL_CURVES
100
AcDbLine
 62
40
  6
CONTINUOUS
 10
35.0044702447
 20
165.4125408484
 11
35.0044702447
 21
165.2513244439
  0
LINE
  5
2FB
100
AcDbEntity
  8
03___PRT_ALL_CURVES
100
AcDbLine
 62
40
  6
CONTINUOUS
 10
35.0044702447
 20
164.8711313849
 11
35.0044702447
 21
163.8675865676
  0
LINE
  5
2FC
100
AcDbEntity
  8
03___PRT_ALL_CURVES
100
AcDbLine
 62
40
  6
CONTINUOUS
 10
35.0044702447
 20
155.9547266
 11
35.0044702447
 21
154.8297265487
  0
LINE
  5
2FD
100
AcDbEntity
  8
03___PRT_ALL_CURVES
100
AcDbLine
 62
40
  6
CONTINUOUS
 10
35.0044702447
 20
156.6734765404
 11
35.0044702447
 21
156.8609765383
  0
LINE
  5
2FE
100
AcDbEntity
  8
03___PRT_ALL_CURVES
100
AcDbLine
 62
40
  6
CONTINUOUS
 10
34.951278757
 20
156.5172266
 11
35.0044702447
 21
156.6734765404
  0
LINE
  5
2FF
100
AcDbEntity
  8
03___PRT_ALL_CURVES
100
AcDbLine
 62
40
  6
CONTINUOUS
 10
34.6853213093
 20
156.5797265404
 11
34.7385127924
 21
156.7047266
  0
LINE
  5
300
100
AcDbEntity
  8
03___PRT_ALL_CURVES
100
AcDbLine
 62
40
  6
CONTINUOUS
 10
32.7704276598
 20
155.3297266149
 11
32.8236191428
 21
155.1734766074
  0
LINE
  5
301
100
AcDbEntity
  8
03___PRT_ALL_CURVES
100
AcDbLine
 62
40
  6
CONTINUOUS
 10
32.5044702447
 20
156.7047266
 11
32.5576617277
 21
156.5484766596
  0
LINE
  5
302
100
AcDbEntity
  8
03___PRT_ALL_CURVES
100
AcDbLine
 62
40
  6
CONTINUOUS
 10
32.5576617277
 20
155.1422265925
 11
32.5044702447
 21
155.3609765851
  0
LINE
  5
303
100
AcDbEntity
  8
7_ALL_FEATURES
100
AcDbLine
 62
7
  6
CONTINUOUS
 10
39.2044702447
 20
149.1970936259
 11
39.2044702447
 21
147.1443464664
  0
LINE
  5
304
100
AcDbEntity
  8
7_ALL_FEATURES
100
AcDbLine
 62
7
  6
CONTINUOUS
 10
39.2044702447
 20
146.6571173654
 11
39.2044702447
 21
144.8312047548
  0
LINE
  5
305
100
AcDbEntity
  8
7_ALL_FEATURES
100
AcDbLine
 62
7
  6
CONTINUOUS
 10
39.2044702447
 20
144.4305811566
 11
39.2044702447
 21
142.8971662022
  0
LINE
  5
306
100
AcDbEntity
  8
7_ALL_FEATURES
100
AcDbLine
 62
7
  6
CONTINUOUS
 10
39.2044702447
 20
142.5560047129
 11
39.2044702447
 21
141.3708505877
  0
LINE
  5
307
100
AcDbEntity
  8
7_ALL_FEATURES
100
AcDbLine
 62
7
  6
CONTINUOUS
 10
39.2044702447
 20
139.6500391477
 11
39.2044702447
 21
141.1194785535
  0
LINE
  5
308
100
AcDbEntity
  8
7_ALL_FEATURES
100
AcDbLine
 62
7
  6
CONTINUOUS
 10
39.2044702447
 20
149.736162693
 11
39.2044702447
 21
173.6500391477
  0
LINE
  5
309
100
AcDbEntity
  8
7_ALL_FEATURES
100
AcDbLine
 62
7
  6
CONTINUOUS
 10
39.5044702447
 20
173.3500386788
 11
39.5044702447
 21
139.9500396165
  0
LINE
  5
30A
100
AcDbEntity
  8
7_ALL_FEATURES
100
AcDbLine
 62
7
  6
CONTINUOUS
 10
39.8044702447
 20
173.6500391477
 11
39.8044702447
 21
157.1428933727
  0
LINE
  5
30B
100
AcDbEntity
  8
7_ALL_FEATURES
100
AcDbLine
 62
7
  6
CONTINUOUS
 10
39.8044702447
 20
156.1571849227
 11
39.8044702447
 21
139.6500391477
  0
LINE
  5
30C
100
AcDbEntity
  8
7_ALL_FEATURES
100
AcDbLine
 62
7
  6
CONTINUOUS
 10
41.1384448409
 20
156.6500391477
 11
41.5714575428
 21
157.4000391477
  0
LINE
  5
30D
100
AcDbEntity
  8
03___PRT_ALL_CURVES
100
AcDbLine
 62
40
  6
CONTINUOUS
 10
33.7810659862
 20
157.1422265404
 11
33.7278745032
 21
157.0797266
  0
LINE
  5
30E
100
AcDbEntity
  8
03___PRT_ALL_CURVES
100
AcDbLine
 62
40
  6
CONTINUOUS
 10
32.5576617277
 20
155.6734766
 11
32.6640446938
 21
155.7984765702
  0
LINE
  5
30F
100
AcDbEntity
  8
03___PRT_ALL_CURVES
100
AcDbLine
 62
40
  6
CONTINUOUS
 10
33.9938319183
 20
157.0797266
 11
33.8874489523
 21
156.9547265404
  0
LINE
  5
310
100
AcDbEntity
  8
03___PRT_ALL_CURVES
100
AcDbLine
 62
40
  6
CONTINUOUS
 10
33.6746830202
 20
156.3922265404
 11
33.7278745032
 21
156.4547266596
  0
LINE
  5
311
100
AcDbEntity
  8
03___PRT_ALL_CURVES
100
AcDbLine
 62
40
  6
CONTINUOUS
 10
34.5789383433
 20
156.4547266596
 11
34.6853213093
 21
156.5797265404
  0
LINE
  5
312
100
AcDbEntity
  8
03___PRT_ALL_CURVES
100
AcDbLine
 62
40
  6
CONTINUOUS
 10
32.7172361768
 20
157.1422265404
 11
32.5576617277
 21
156.9859766
  0
LINE
  5
313
100
AcDbEntity
  8
03___PRT_ALL_CURVES
100
AcDbLine
 62
40
  6
CONTINUOUS
 10
34.791704294
 20
156.3609766596
 11
34.951278757
 21
156.5172266
  0
LINE
  5
314
100
AcDbEntity
  8
7_ALL_FEATURES
100
AcDbLine
 62
7
  6
CONTINUOUS
 10
102.3044702447
 20
111.6500391477
 11
122.3044702447
 21
111.6500391477
  0
LINE
  5
315
100
AcDbEntity
  8
7_ALL_FEATURES
100
AcDbLine
 62
7
  6
CONTINUOUS
 10
30.3044702447
 20
139.9500391477
 11
30.6044702447
 21
139.6500391477
  0
LINE
  5
316
100
AcDbEntity
  8
03___PRT_ALL_CURVES
100
AcDbLine
 62
40
  6
CONTINUOUS
 10
32.7704276598
 20
156.7047266
 11
32.8236191428
 21
156.5797265404
  0
LINE
  5
317
100
AcDbEntity
  8
03___PRT_ALL_CURVES
100
AcDbLine
 62
40
  6
CONTINUOUS
 10
33.6214915372
 20
156.8297266596
 11
33.5683000541
 21
156.9547265404
  0
LINE
  5
318
100
AcDbEntity
  8
03___PRT_ALL_CURVES
100
AcDbLine
 62
40
  6
CONTINUOUS
 10
33.8342574692
 20
156.7047266
 11
33.8874489523
 21
156.5797265404
  0
LINE
  5
319
100
AcDbEntity
  8
03___PRT_ALL_CURVES
100
AcDbLine
 62
40
  6
CONTINUOUS
 10
34.7385127924
 20
156.8297266596
 11
34.6853213093
 21
156.9547265404
  0
LINE
  5
31A
100
AcDbEntity
  8
03___PRT_ALL_CURVES
100
AcDbLine
 62
40
  6
CONTINUOUS
 10
35.0044702447
 20
156.8609765404
 11
34.951278757
 21
157.0172266596
  0
LINE
  5
31B
100
AcDbEntity
  8
7_ALL_FEATURES
100
AcDbLine
 62
7
  6
CONTINUOUS
 10
42.8704956485
 20
156.6500391477
 11
42.4374829466
 21
155.9000391477
  0
LINE
  5
31C
100
AcDbEntity
  8
03___PRT_ALL_CURVES
100
AcDbLine
 62
40
  6
CONTINUOUS
 10
32.9300021089
 20
155.7047265702
 11
32.8236191428
 21
155.6109765702
  0
LINE
  5
31D
100
AcDbEntity
  8
03___PRT_ALL_CURVES
100
AcDbLine
 62
40
  6
CONTINUOUS
 10
32.9831935919
 20
157.0797266
 11
32.8236191428
 21
156.9547265404
  0
LINE
  5
31E
100
AcDbEntity
  8
03___PRT_ALL_CURVES
100
AcDbLine
 62
40
  6
CONTINUOUS
 10
33.9406404353
 20
157.2672266
 11
33.7810659862
 21
157.1422265404
  0
LINE
  5
31F
100
AcDbEntity
  8
03___PRT_ALL_CURVES
100
AcDbLine
 62
40
  6
CONTINUOUS
 10
33.4087256051
 20
156.4547266596
 11
33.5683000541
 21
156.5797265404
  0
LINE
  5
320
100
AcDbEntity
  8
7_ALL_FEATURES
100
AcDbLine
 62
9
  6
CONTINUOUS
 10
102.3044702447
 20
114.6500391477
 11
122.299042185
 21
114.6500391477
  0
LINE
  5
321
100
AcDbEntity
  8
7_ALL_FEATURES
100
AcDbLine
 62
7
  6
CONTINUOUS
 10
39.5044702447
 20
139.9500391477
 11
39.8044702447
 21
139.6500391477
  0
LINE
  5
322
100
AcDbEntity
  8
03___PRT_ALL_CURVES
100
AcDbLine
 62
40
  6
CONTINUOUS
 10
32.8768106259
 20
157.2359765404
 11
32.7172361768
 21
157.1422265404
  0
LINE
  5
323
100
AcDbEntity
  8
03___PRT_ALL_CURVES
100
AcDbLine
 62
40
  6
CONTINUOUS
 10
32.6640446938
 20
155.7984765702
 11
32.8768106259
 21
155.9234766298
  0
LINE
  5
324
100
AcDbEntity
  8
03___PRT_ALL_CURVES
100
AcDbLine
 62
40
  6
CONTINUOUS
 10
33.5151085711
 20
156.2984766298
 11
33.6746830202
 21
156.3922265404
  0
LINE
  5
325
100
AcDbEntity
  8
03___PRT_ALL_CURVES
100
AcDbLine
 62
40
  6
CONTINUOUS
 10
34.6321298263
 20
156.2672265702
 11
34.791704294
 21
156.3609766596
  0
LINE
  5
326
100
AcDbEntity
  8
03___PRT_ALL_CURVES
100
AcDbLine
 62
40
  6
CONTINUOUS
 10
32.7128035284
 20
158.4703514808
 11
32.5044702447
 21
158.3766014808
  0
LINE
  5
327
100
AcDbEntity
  8
03___PRT_ALL_CURVES
100
AcDbLine
 62
40
  6
CONTINUOUS
 10
32.9211369611
 20
158.1891014808
 11
33.1294702447
 21
158.2828514808
  0
LINE
  5
328
100
AcDbEntity
  8
03___PRT_ALL_CURVES
100
AcDbLine
 62
40
  6
CONTINUOUS
 10
32.6640446938
 20
155.0172266
 11
32.5576617277
 21
155.1422265925
  0
LINE
  5
329
100
AcDbEntity
  8
03___PRT_ALL_CURVES
100
AcDbLine
 62
40
  6
CONTINUOUS
 10
33.7278745032
 20
156.4547266596
 11
33.7810659862
 21
156.3922265404
  0
LINE
  5
32A
100
AcDbEntity
  8
03___PRT_ALL_CURVES
100
AcDbLine
 62
40
  6
CONTINUOUS
 10
34.2065979249
 20
157.1734766
 11
33.9938319183
 21
157.0797266
  0
LINE
  5
32B
100
AcDbEntity
  8
03___PRT_ALL_CURVES
100
AcDbLine
 62
40
  6
CONTINUOUS
 10
34.366172374
 20
156.3609766596
 11
34.5789383433
 21
156.4547266596
  0
LINE
  5
32C
100
AcDbEntity
  8
03___PRT_ALL_CURVES
100
AcDbLine
 62
40
  6
CONTINUOUS
 10
33.14276819
 20
157.1422265404
 11
32.9831935919
 21
157.0797266
  0
LINE
  5
32D
100
AcDbEntity
  8
03___PRT_ALL_CURVES
100
AcDbLine
 62
40
  6
CONTINUOUS
 10
33.249151156
 20
156.3922265404
 11
33.4087256051
 21
156.4547266596
  0
LINE
  5
32E
100
AcDbEntity
  8
03___PRT_ALL_CURVES
100
AcDbLine
 62
40
  6
CONTINUOUS
 10
32.8236191428
 20
155.1734766074
 11
32.9300021089
 21
155.0797266074
  0
LINE
  5
32F
100
AcDbEntity
  8
03___PRT_ALL_CURVES
100
AcDbLine
 62
40
  6
CONTINUOUS
 10
32.5576617277
 20
156.5484766596
 11
32.7172361768
 21
156.3922265404
  0
LINE
  5
330
100
AcDbEntity
  8
03___PRT_ALL_CURVES
100
AcDbLine
 62
40
  6
CONTINUOUS
 10
33.8874489523
 20
156.5797265404
 11
33.9938319183
 21
156.4547266596
  0
LINE
  5
331
100
AcDbEntity
  8
03___PRT_ALL_CURVES
100
AcDbLine
 62
40
  6
CONTINUOUS
 10
33.7278745032
 20
157.0797266
 11
33.6746830202
 21
157.1422265404
  0
LINE
  5
332
100
AcDbEntity
  8
03___PRT_ALL_CURVES
100
AcDbLine
 62
40
  6
CONTINUOUS
 10
34.6853213093
 20
156.9547265404
 11
34.5789383433
 21
157.0797266
  0
LINE
  5
333
100
AcDbEntity
  8
7_ALL_FEATURES
100
AcDbLine
 62
7
  6
CONTINUOUS
 10
41.5714575428
 20
155.9000391477
 11
41.1384448409
 21
156.6500391477
  0
LINE
  5
334
100
AcDbEntity
  8
7_ALL_FEATURES
100
AcDbLine
 62
7
  6
CONTINUOUS
 10
42.4374829466
 20
157.4000391477
 11
42.8704956485
 21
156.6500391477
  0
LINE
  5
335
100
AcDbEntity
  8
7_ALL_FEATURES
100
AcDbLine
 62
7
  6
CONTINUOUS
 10
39.5044702447
 20
139.9500391477
 11
39.2044702447
 21
139.6500391477
  0
LINE
  5
336
100
AcDbEntity
  8
03___PRT_ALL_CURVES
100
AcDbLine
 62
40
  6
CONTINUOUS
 10
33.0895765579
 20
155.7672266
 11
32.9300021089
 21
155.7047265702
  0
LINE
  5
337
100
AcDbEntity
  8
03___PRT_ALL_CURVES
100
AcDbLine
 62
40
  6
CONTINUOUS
 10
33.302342639
 20
156.2359766
 11
33.5151085711
 21
156.2984766298
  0
LINE
  5
338
100
AcDbEntity
  8
03___PRT_ALL_CURVES
100
AcDbLine
 62
40
  6
CONTINUOUS
 10
32.8236191428
 20
156.5797265404
 11
32.9831935919
 21
156.4547266596
  0
LINE
  5
339
100
AcDbEntity
  8
03___PRT_ALL_CURVES
100
AcDbLine
 62
40
  6
CONTINUOUS
 10
33.7810659862
 20
156.3922265404
 11
33.9406404353
 21
156.2672265702
  0
LINE
  5
33A
100
AcDbEntity
  8
03___PRT_ALL_CURVES
100
AcDbLine
 62
40
  6
CONTINUOUS
 10
33.5683000541
 20
156.9547265404
 11
33.4087256051
 21
157.0797266
  0
LINE
  5
33B
100
AcDbEntity
  8
03___PRT_ALL_CURVES
100
AcDbLine
 62
40
  6
CONTINUOUS
 10
34.951278757
 20
157.0172266596
 11
34.791704294
 21
157.1734766
  0
LINE
  5
33C
100
AcDbEntity
  8
7_ALL_FEATURES
100
AcDbLine
 62
7
  6
CONTINUOUS
 10
78.8044702447
 20
173.1500393486
 11
79.3044700432
 21
173.6500391477
  0
LINE
  5
33D
100
AcDbEntity
  8
03___PRT_ALL_CURVES
100
AcDbLine
 62
40
  6
CONTINUOUS
 10
32.8768106259
 20
154.8922266019
 11
32.6640446938
 21
155.0172266
  0
LINE
  5
33E
100
AcDbEntity
  8
03___PRT_ALL_CURVES
100
AcDbLine
 62
40
  6
CONTINUOUS
 10
34.7385127924
 20
154.8297266
 11
33.4087256051
 21
155.7047265702
  0
LINE
  5
33F
100
AcDbEntity
  8
03___PRT_ALL_CURVES
100
AcDbLine
 62
40
  6
CONTINUOUS
 10
33.5683000541
 20
155.8609766
 11
34.7385127924
 21
155.0797266074
  0
LINE
  5
340
100
AcDbEntity
  8
03___PRT_ALL_CURVES
100
AcDbLine
 62
40
  6
CONTINUOUS
 10
32.7172361768
 20
156.3922265404
 11
32.8768106259
 21
156.2984766298
  0
LINE
  5
341
100
AcDbEntity
  8
03___PRT_ALL_CURVES
100
AcDbLine
 62
40
  6
CONTINUOUS
 10
33.6746830202
 20
157.1422265404
 11
33.5151085711
 21
157.2359765404
  0
LINE
  5
342
100
AcDbEntity
  8
03___PRT_ALL_CURVES
100
AcDbLine
 62
40
  6
CONTINUOUS
 10
34.791704294
 20
157.1734766
 11
34.6321298263
 21
157.2672266
  0
LINE
  5
343
100
AcDbEntity
  8
03___PRT_ALL_CURVES
100
AcDbLine
 62
40
  6
CONTINUOUS
 10
91.7888452447
 20
163.3000391477
 11
91.6857202398
 21
163.2649327689
  0
LINE
  5
344
100
AcDbEntity
  8
03___PRT_ALL_CURVES
100
AcDbLine
 62
40
  6
CONTINUOUS
 10
92.7582202054
 20
163.1245072537
 11
92.6550952447
 21
163.0894008749
  0
LINE
  5
345
100
AcDbEntity
  8
03___PRT_ALL_CURVES
100
AcDbLine
 62
40
  6
CONTINUOUS
 10
91.8919702349
 20
162.2468476363
 11
91.995095225
 21
162.2819540643
  0
LINE
  5
346
100
AcDbEntity
  8
03___PRT_ALL_CURVES
100
AcDbLine
 62
40
  6
CONTINUOUS
 10
91.8919702349
 20
161.6500391477
 11
91.995095225
 21
161.6851455295
  0
LINE
  5
347
100
AcDbEntity
  8
03___PRT_ALL_CURVES
100
AcDbLine
 62
40
  6
CONTINUOUS
 10
92.7582202054
 20
161.8255710662
 11
92.8613452841
 21
161.860677445
  0
LINE
  5
348
100
AcDbEntity
  8
02___PRT_ALL_AXES
100
AcDbLine
 62
7
  6
CONTINUOUS
 10
94.9669338897
 20
139.6500391477
 11
79.3044704459
 21
139.6500391477
  0
LINE
  5
349
100
AcDbEntity
  8
02___PRT_ALL_AXES
100
AcDbLine
 62
7
  6
CONTINUOUS
 10
78.5044702447
 20
139.6500391477
 11
39.8044702447
 21
139.6500391477
  0
LINE
  5
34A
100
AcDbEntity
  8
02___PRT_ALL_AXES
100
AcDbLine
 62
7
  6
CONTINUOUS
 10
39.2044702447
 20
139.6500391477
 11
30.6044702447
 21
139.6500391477
  0
LINE
  5
34B
100
AcDbEntity
  8
03___PRT_ALL_CURVES
100
AcDbLine
 62
40
  6
CONTINUOUS
 10
32.9300021089
 20
155.0797266074
 11
33.0895765579
 21
155.0172266
  0
LINE
  5
34C
100
AcDbEntity
  8
03___PRT_ALL_CURVES
100
AcDbLine
 62
40
  6
CONTINUOUS
 10
33.4087256051
 20
155.9234766298
 11
33.5683000541
 21
155.8609766
  0
LINE
  5
34D
100
AcDbEntity
  8
03___PRT_ALL_CURVES
100
AcDbLine
 62
40
  6
CONTINUOUS
 10
32.9831935919
 20
156.4547266596
 11
33.14276819
 21
156.3922265404
  0
LINE
  5
34E
100
AcDbEntity
  8
03___PRT_ALL_CURVES
100
AcDbLine
 62
40
  6
CONTINUOUS
 10
33.9938319183
 20
156.4547266596
 11
34.2065979249
 21
156.3609766596
  0
LINE
  5
34F
100
AcDbEntity
  8
03___PRT_ALL_CURVES
100
AcDbLine
 62
40
  6
CONTINUOUS
 10
34.5789383433
 20
157.0797266
 11
34.366172374
 21
157.1734766
  0
LINE
  5
350
100
AcDbEntity
  8
03___PRT_ALL_CURVES
100
AcDbLine
 62
40
  6
CONTINUOUS
 10
32.5044702447
 20
158.2828514808
 11
32.7128035284
 21
158.1891014808
  0
LINE
  5
351
100
AcDbEntity
  8
03___PRT_ALL_CURVES
100
AcDbLine
 62
40
  6
CONTINUOUS
 10
33.1294702447
 20
158.3766014808
 11
32.9211369611
 21
158.4703514808
  0
LINE
  5
352
100
AcDbEntity
  8
7_ALL_FEATURES
100
AcDbLine
 62
7
  6
CONTINUOUS
 10
39.5044702447
 20
173.3500391477
 11
39.2044702447
 21
173.6500391477
  0
LINE
  5
353
100
AcDbEntity
  8
03___PRT_ALL_CURVES
100
AcDbLine
 62
40
  6
CONTINUOUS
 10
91.7682202349
 20
163.1245072537
 11
91.7063452496
 21
163.0894008749
  0
LINE
  5
354
100
AcDbEntity
  8
03___PRT_ALL_CURVES
100
AcDbLine
 62
40
  6
CONTINUOUS
 10
91.9125952447
 20
162.4223795795
 11
91.9744702447
 21
162.4574859583
  0
LINE
  5
355
100
AcDbEntity
  8
03___PRT_ALL_CURVES
100
AcDbLine
 62
40
  6
CONTINUOUS
 10
91.9744702447
 20
161.860677445
 11
91.9125952447
 21
161.8255710662
  0
LINE
  5
356
100
AcDbEntity
  8
03___PRT_ALL_CURVES
100
AcDbLine
 62
40
  6
CONTINUOUS
 10
86.1459596462
 20
156.897539162
 11
85.9353212751
 21
156.8150391816
  0
LINE
  5
357
100
AcDbEntity
  8
03___PRT_ALL_CURVES
100
AcDbLine
 62
40
  6
CONTINUOUS
 10
86.8129808924
 20
156.402539162
 11
87.0236191898
 21
156.4850391571
  0
LINE
  5
358
100
AcDbEntity
  8
7_ALL_FEATURES
100
AcDbLine
 62
7
  6
CONTINUOUS
 10
97.423501397
 20
162.1314185418
 11
96.6754259906
 21
161.8591413609
  0
LINE
  5
359
100
AcDbEntity
  8
7_ALL_FEATURES
100
AcDbLine
 62
7
  6
CONTINUOUS
 10
85.6077775242
 20
157.8308467558
 11
84.8597021178
 21
157.5585695749
  0
LINE
  5
35A
100
AcDbEntity
  8
03___PRT_ALL_CURVES
100
AcDbLine
 62
40
  6
CONTINUOUS
 10
86.0406404114
 20
156.9800391423
 11
85.9002148963
 21
156.9387891816
  0
LINE
  5
35B
100
AcDbEntity
  8
03___PRT_ALL_CURVES
100
AcDbLine
 62
40
  6
CONTINUOUS
 10
86.9183000288
 20
156.3200391632
 11
87.0587255686
 21
156.3612891644
  0
LINE
  5
35C
100
AcDbEntity
  8
7_ALL_FEATURES
100
AcDbLine
 62
7
  6
CONTINUOUS
 10
39.2044702447
 20
141.1194785535
 11
30.6044702447
 21
141.1194785535
  0
LINE
  5
35D
100
AcDbEntity
  8
7_ALL_FEATURES
100
AcDbLine
 62
7
  6
CONTINUOUS
 10
39.2044702447
 20
141.3708505877
 11
30.6044702447
 21
141.3708505877
  0
LINE
  5
35E
100
AcDbEntity
  8
7_ALL_FEATURES
100
AcDbLine
 62
7
  6
CONTINUOUS
 10
39.2044702447
 20
142.5560047129
 11
30.6044702447
 21
142.5560047129
  0
LINE
  5
35F
100
AcDbEntity
  8
7_ALL_FEATURES
100
AcDbLine
 62
7
  6
CONTINUOUS
 10
39.2044702447
 20
142.8971662022
 11
30.6044702447
 21
142.8971662022
  0
LINE
  5
360
100
AcDbEntity
  8
7_ALL_FEATURES
100
AcDbLine
 62
7
  6
CONTINUOUS
 10
39.2044702447
 20
144.4305811566
 11
30.6044702447
 21
144.4305811566
  0
LINE
  5
361
100
AcDbEntity
  8
03___PRT_ALL_CURVES
100
AcDbLine
 62
40
  6
CONTINUOUS
 10
33.4087256051
 20
155.7047265702
 11
33.195959673
 21
155.7672266
  0
LINE
  5
362
100
AcDbEntity
  8
03___PRT_ALL_CURVES
100
AcDbLine
 62
40
  6
CONTINUOUS
 10
33.4087256051
 20
157.0797266
 11
33.249151156
 21
157.1422265404
  0
LINE
  5
363
100
AcDbEntity
  8
7_ALL_FEATURES
100
AcDbLine
 62
7
  6
CONTINUOUS
 10
78.8044702447
 20
140.1500393494
 11
79.3044704459
 21
139.6500391477
  0
LINE
  5
364
100
AcDbEntity
  8
03___PRT_ALL_CURVES
100
AcDbLine
 62
40
  6
CONTINUOUS
 10
91.6857202398
 20
163.2649327689
 11
91.5825952423
 21
163.1596136325
  0
LINE
  5
365
100
AcDbEntity
  8
03___PRT_ALL_CURVES
100
AcDbLine
 62
40
  6
CONTINUOUS
 10
85.7948957599
 20
156.8769141816
 11
85.6895766235
 21
156.773789162
  0
LINE
  5
366
100
AcDbEntity
  8
03___PRT_ALL_CURVES
100
AcDbLine
 62
40
  6
CONTINUOUS
 10
85.9353212751
 20
156.8150391816
 11
85.8651085175
 21
156.7531641521
  0
LINE
  5
367
100
AcDbEntity
  8
7_ALL_FEATURES
100
AcDbLine
 62
7
  6
CONTINUOUS
 10
95.2400438781
 20
163.5516626844
 11
94.6302072193
 21
163.039948969
  0
LINE
  5
368
100
AcDbEntity
  8
7_ALL_FEATURES
100
AcDbLine
 62
7
  6
CONTINUOUS
 10
85.6077775242
 20
155.4692315395
 11
84.9979408655
 21
154.9575178241
  0
LINE
  5
369
100
AcDbEntity
  8
03___PRT_ALL_CURVES
100
AcDbLine
 62
40
  6
CONTINUOUS
 10
85.9002148963
 20
156.9387891816
 11
85.7948957599
 21
156.8769141816
  0
LINE
  5
36A
100
AcDbEntity
  8
03___PRT_ALL_CURVES
100
AcDbLine
 62
40
  6
CONTINUOUS
 10
87.0587255686
 20
156.3612891644
 11
87.1640447172
 21
156.4231641571
  0
LINE
  5
36B
100
AcDbEntity
  8
7_ALL_FEATURES
100
AcDbLine
 62
7
  6
CONTINUOUS
 10
96.3939002685
 20
162.9370545032
 11
95.7044702447
 21
162.5390118934
  0
LINE
  5
36C
100
AcDbEntity
  8
7_ALL_FEATURES
100
AcDbLine
 62
7
  6
CONTINUOUS
 10
85.5044702447
 20
156.6500391477
 11
84.815040221
 21
156.2519965379
  0
LINE
  5
36D
100
AcDbEntity
  8
7_ALL_FEATURES
100
AcDbLine
 62
7
  6
CONTINUOUS
 10
92.3044702447
 20
158.3820899552
 11
90.8044702447
 21
157.5160645515
  0
LINE
  5
36E
100
AcDbEntity
  8
7_ALL_FEATURES
100
AcDbLine
 62
7
  6
CONTINUOUS
 10
39.4901143549
 20
144.8312047548
 11
30.3188261345
 21
144.8312047548
  0
LINE
  5
36F
100
AcDbEntity
  8
7_ALL_FEATURES
100
AcDbLine
 62
7
  6
CONTINUOUS
 10
39.2044702447
 20
146.6571173654
 11
30.6044702447
 21
146.6571173654
  0
LINE
  5
370
100
AcDbEntity
  8
7_ALL_FEATURES
100
AcDbLine
 62
7
  6
CONTINUOUS
 10
30.3044702447
 20
147.0713126606
 11
39.5044702447
 21
147.0713126606
  0
LINE
  5
371
100
AcDbEntity
  8
7_ALL_FEATURES
100
AcDbLine
 62
7
  6
CONTINUOUS
 10
39.2044702447
 20
147.1443464664
 11
30.6044702447
 21
147.1443464664
  0
LINE
  5
372
100
AcDbEntity
  8
03___PRT_ALL_CURVES
100
AcDbLine
 62
40
  6
CONTINUOUS
 10
33.0895765579
 20
154.8609766009
 11
32.8768106259
 21
154.8922266019
  0
LINE
  5
373
100
AcDbEntity
  8
03___PRT_ALL_CURVES
100
AcDbLine
 62
40
  6
CONTINUOUS
 10
32.8768106259
 20
156.2984766298
 11
33.14276819
 21
156.2359766
  0
LINE
  5
374
100
AcDbEntity
  8
03___PRT_ALL_CURVES
100
AcDbLine
 62
40
  6
CONTINUOUS
 10
33.9406404353
 20
156.2672265702
 11
34.2065979249
 21
156.2047266298
  0
LINE
  5
375
100
AcDbEntity
  8
03___PRT_ALL_CURVES
100
AcDbLine
 62
40
  6
CONTINUOUS
 10
34.6321298263
 20
157.2672266
 11
34.366172374
 21
157.3297265404
  0
LINE
  5
376
100
AcDbEntity
  8
03___PRT_ALL_CURVES
100
AcDbLine
 62
40
  6
CONTINUOUS
 10
33.5151085711
 20
157.2359765404
 11
33.302342639
 21
157.2984766596
  0
LINE
  5
377
100
AcDbEntity
  8
7_ALL_FEATURES
100
AcDbLine
 62
7
  6
CONTINUOUS
 10
78.5044702447
 20
173.6500391477
 11
78.5044702447
 21
139.6500391477
  0
LINE
  5
378
100
AcDbEntity
  8
7_ALL_FEATURES
100
AcDbLine
 62
7
  6
CONTINUOUS
 10
78.8044702447
 20
173.3500391477
 11
78.8044702447
 21
139.9500391477
  0
LINE
  5
379
100
AcDbEntity
  8
7_ALL_FEATURES
100
AcDbLine
 62
7
  6
CONTINUOUS
 10
79.3044700432
 20
173.6500391477
 11
79.3044702447
 21
156.9582211099
  0
LINE
  5
37A
100
AcDbEntity
  8
7_ALL_FEATURES
100
AcDbLine
 62
7
  6
CONTINUOUS
 10
79.3044702447
 20
156.3418571854
 11
79.3044704459
 21
139.6500391477
  0
LINE
  5
37B
100
AcDbEntity
  8
7_ALL_FEATURES
100
AcDbLine
 62
7
  6
CONTINUOUS
 10
93.9969915683
 20
163.9565685269
 11
93.4852778528
 21
163.3467318682
  0
LINE
  5
37C
100
AcDbEntity
  8
7_ALL_FEATURES
100
AcDbLine
 62
7
  6
CONTINUOUS
 10
85.9145604234
 20
154.3243021731
 11
85.402846708
 21
153.7144655143
  0
LINE
  5
37D
100
AcDbEntity
  8
03___PRT_ALL_CURVES
100
AcDbLine
 62
40
  6
CONTINUOUS
 10
91.7063452496
 20
163.0894008749
 11
91.6444702496
 21
163.0191881173
  0
LINE
  5
37E
100
AcDbEntity
  8
03___PRT_ALL_CURVES
100
AcDbLine
 62
40
  6
CONTINUOUS
 10
91.9744702447
 20
162.4574859583
 11
92.0363452447
 21
162.5276987159
  0
LINE
  5
37F
100
AcDbEntity
  8
03___PRT_ALL_CURVES
100
AcDbLine
 62
40
  6
CONTINUOUS
 10
92.6550952447
 20
163.0894008749
 11
92.5932202447
 21
163.0191881173
  0
LINE
  5
380
100
AcDbEntity
  8
03___PRT_ALL_CURVES
100
AcDbLine
 62
40
  6
CONTINUOUS
 10
91.995095225
 20
162.2819540643
 11
92.118845225
 21
162.4223795795
  0
LINE
  5
381
100
AcDbEntity
  8
03___PRT_ALL_CURVES
100
AcDbLine
 62
40
  6
CONTINUOUS
 10
92.0363452447
 20
161.9308902026
 11
91.9744702447
 21
161.860677445
  0
LINE
  5
382
100
AcDbEntity
  8
03___PRT_ALL_CURVES
100
AcDbLine
 62
40
  6
CONTINUOUS
 10
92.8613452841
 20
161.860677445
 11
92.9232202841
 21
161.9308902026
  0
LINE
  5
383
100
AcDbEntity
  8
03___PRT_ALL_CURVES
100
AcDbLine
 62
40
  6
CONTINUOUS
 10
92.6344702054
 20
163.2649327689
 11
92.5313452447
 21
163.1596136325
  0
LINE
  5
384
100
AcDbEntity
  8
03___PRT_ALL_CURVES
100
AcDbLine
 62
40
  6
CONTINUOUS
 10
91.995095225
 20
161.6851455295
 11
92.0982202447
 21
161.7904646751
  0
LINE
  5
385
100
AcDbEntity
  8
03___PRT_ALL_CURVES
100
AcDbLine
 62
40
  6
CONTINUOUS
 10
92.8819702054
 20
161.6851455295
 11
92.9850952841
 21
161.7904646751
  0
LINE
  5
386
100
AcDbEntity
  8
03___PRT_ALL_CURVES
100
AcDbLine
 62
40
  6
CONTINUOUS
 10
87.1640447172
 20
156.4231641571
 11
87.2693638628
 21
156.526289162
  0
LINE
  5
387
100
AcDbEntity
  8
03___PRT_ALL_CURVES
100
AcDbLine
 62
40
  6
CONTINUOUS
 10
87.0236191898
 20
156.4850391571
 11
87.0938319474
 21
156.5469141718
  0
LINE
  5
388
100
AcDbEntity
  8
7_ALL_FEATURES
100
AcDbLine
 62
7
  6
CONTINUOUS
 10
92.3044702447
 20
154.9179883401
 11
93.8044702447
 21
155.7840137439
  0
LINE
  5
389
100
AcDbEntity
  8
7_ALL_FEATURES
100
AcDbLine
 62
7
  6
CONTINUOUS
 10
87.1854390925
 20
151.1686597536
 11
87.9335144988
 21
151.4409369345
  0
LINE
  5
38A
100
AcDbEntity
  8
7_ALL_FEATURES
100
AcDbLine
 62
7
  6
CONTINUOUS
 10
86.3113771352
 20
152.1408446542
 11
87.0953680315
 21
152.2790834018
  0
LINE
  5
38B
100
AcDbEntity
  8
7_ALL_FEATURES
100
AcDbLine
 62
7
  6
CONTINUOUS
 10
92.2153577566
 20
148.6500391477
 11
84.3044702447
 21
148.6500391477
  0
LINE
  5
38C
100
AcDbEntity
  8
7_ALL_FEATURES
100
AcDbLine
 62
7
  6
CONTINUOUS
 10
39.2044702447
 20
149.1970936259
 11
30.6044702447
 21
149.1970936259
  0
LINE
  5
38D
100
AcDbEntity
  8
7_ALL_FEATURES
100
AcDbLine
 62
7
  6
CONTINUOUS
 10
30.3044702447
 20
149.5923141766
 11
39.5044702447
 21
149.5923141766
  0
LINE
  5
38E
100
AcDbEntity
  8
7_ALL_FEATURES
100
AcDbLine
 62
7
  6
CONTINUOUS
 10
39.2044702447
 20
149.736162693
 11
30.6044702447
 21
149.736162693
  0
LINE
  5
38F
100
AcDbEntity
  8
03___PRT_ALL_CURVES
100
AcDbLine
 62
40
  6
CONTINUOUS
 10
33.195959673
 20
155.9547266
 11
33.4087256051
 21
155.9234766298
  0
LINE
  5
390
100
AcDbEntity
  8
7_ALL_FEATURES
100
AcDbLine
 62
7
  6
CONTINUOUS
 10
84.3044702447
 20
148.6500391465
 11
84.3044702447
 21
164.6500391489
  0
LINE
  5
391
100
AcDbEntity
  8
03___PRT_ALL_CURVES
100
AcDbLine
 62
40
  6
CONTINUOUS
 10
85.6895766235
 20
156.773789162
 11
85.6544702447
 21
156.650039162
  0
LINE
  5
392
100
AcDbEntity
  8
03___PRT_ALL_CURVES
100
AcDbLine
 62
40
  6
CONTINUOUS
 10
87.2693638628
 20
156.526289162
 11
87.3044702447
 21
156.650039162
  0
LINE
  5
393
100
AcDbEntity
  8
03___PRT_ALL_CURVES
100
AcDbLine
 62
40
  6
CONTINUOUS
 10
85.8651085175
 20
156.7531641521
 11
85.8300021387
 21
156.650039162
  0
LINE
  5
394
100
AcDbEntity
  8
03___PRT_ALL_CURVES
100
AcDbLine
 62
40
  6
CONTINUOUS
 10
87.0938319474
 20
156.5469141718
 11
87.1289383262
 21
156.650039162
  0
LINE
  5
395
100
AcDbEntity
  8
03___PRT_ALL_CURVES
100
AcDbLine
 62
40
  6
CONTINUOUS
 10
91.5825952423
 20
163.1596136325
 11
91.5207202459
 21
163.0191881173
  0
LINE
  5
396
100
AcDbEntity
  8
7_ALL_FEATURES
100
AcDbLine
 62
7
  6
CONTINUOUS
 10
92.7025128545
 20
164.1394691714
 11
92.3044702447
 21
163.4500391477
  0
LINE
  5
397
100
AcDbEntity
  8
7_ALL_FEATURES
100
AcDbLine
 62
7
  6
CONTINUOUS
 10
86.415497499
 20
153.2500391477
 11
86.0174548892
 21
152.5606091239
  0
LINE
  5
398
100
AcDbEntity
  8
03___PRT_ALL_CURVES
100
AcDbLine
 62
40
  6
CONTINUOUS
 10
92.5313452447
 20
163.1596136325
 11
92.4694702447
 21
163.0542944961
  0
LINE
  5
399
100
AcDbEntity
  8
03___PRT_ALL_CURVES
100
AcDbLine
 62
40
  6
CONTINUOUS
 10
92.9850952841
 20
161.7904646751
 11
93.0469702841
 21
161.8957838238
  0
LINE
  5
39A
100
AcDbEntity
  8
7_ALL_FEATURES
100
AcDbLine
 62
7
  6
CONTINUOUS
 10
78.8044702447
 20
139.9500391477
 11
78.5044702447
 21
139.6500391477
  0
LINE
  5
39B
100
AcDbEntity
  8
03___PRT_ALL_CURVES
100
AcDbLine
 62
40
  6
CONTINUOUS
 10
86.8129808924
 20
156.2994141626
 11
86.9183000288
 21
156.3200391632
  0
LINE
  5
39C
100
AcDbEntity
  8
03___PRT_ALL_CURVES
100
AcDbLine
 62
40
  6
CONTINUOUS
 10
86.1459596462
 20
157.0006641816
 11
86.0406404114
 21
156.9800391423
  0
LINE
  5
39D
100
AcDbEntity
  8
03___PRT_ALL_CURVES
100
AcDbLine
 62
40
  6
CONTINUOUS
 10
86.6374489493
 20
156.278789162
 11
86.8129808924
 21
156.2994141626
  0
LINE
  5
39E
100
AcDbEntity
  8
03___PRT_ALL_CURVES
100
AcDbLine
 62
40
  6
CONTINUOUS
 10
86.3214915401
 20
157.021289162
 11
86.1459596462
 21
157.0006641816
  0
LINE
  5
39F
100
AcDbEntity
  8
03___PRT_ALL_CURVES
100
AcDbLine
 62
40
  6
CONTINUOUS
 10
86.6023425705
 20
156.3819141595
 11
86.8129808924
 21
156.402539162
  0
LINE
  5
3A0
100
AcDbEntity
  8
03___PRT_ALL_CURVES
100
AcDbLine
 62
40
  6
CONTINUOUS
 10
86.3565979189
 20
156.9181641423
 11
86.1459596462
 21
156.897539162
  0
LINE
  5
3A1
100
AcDbEntity
  8
7_ALL_FEATURES
100
AcDbLine
 62
7
  6
CONTINUOUS
 10
85.6194122794
 20
153.2500391477
 11
86.415497499
 21
153.2500391477
  0
LINE
  5
3A2
100
AcDbEntity
  8
03___PRT_ALL_CURVES
100
AcDbLine
 62
40
  6
CONTINUOUS
 10
35.0044702447
 20
154.8297266
 11
34.7385127924
 21
154.8297266
  0
LINE
  5
3A3
100
AcDbEntity
  8
03___PRT_ALL_CURVES
100
AcDbLine
 62
40
  6
CONTINUOUS
 10
33.195959673
 20
155.7672266
 11
33.0895765579
 21
155.7672266
  0
LINE
  5
3A4
100
AcDbEntity
  8
7_ALL_FEATURES
100
AcDbLine
 62
7
  6
CONTINUOUS
 10
41.5714575428
 20
155.9000391477
 11
42.4374829466
 21
155.9000391477
  0
LINE
  5
3A5
100
AcDbEntity
  8
03___PRT_ALL_CURVES
100
AcDbLine
 62
40
  6
CONTINUOUS
 10
33.0895765579
 20
155.9547266
 11
33.195959673
 21
155.9547266
  0
LINE
  5
3A6
100
AcDbEntity
  8
03___PRT_ALL_CURVES
100
AcDbLine
 62
40
  6
CONTINUOUS
 10
34.7385127924
 20
155.9547266
 11
35.0044702447
 21
155.9547266
  0
LINE
  5
3A7
100
AcDbEntity
  8
7_ALL_FEATURES
100
AcDbLine
 62
7
  6
CONTINUOUS
 10
40.8557341075
 20
156.1571849227
 11
39.8044702447
 21
156.1571849227
  0
LINE
  5
3A8
100
AcDbEntity
  8
03___PRT_ALL_CURVES
100
AcDbLine
 62
40
  6
CONTINUOUS
 10
34.2065979249
 20
156.2047266298
 11
34.366172374
 21
156.2047266298
  0
LINE
  5
3A9
100
AcDbEntity
  8
03___PRT_ALL_CURVES
100
AcDbLine
 62
40
  6
CONTINUOUS
 10
33.14276819
 20
156.2359766
 11
33.302342639
 21
156.2359766
  0
LINE
  5
3AA
100
AcDbEntity
  8
03___PRT_ALL_CURVES
100
AcDbLine
 62
40
  6
CONTINUOUS
 10
86.3214915401
 20
156.278789162
 11
86.6374489493
 21
156.278789162
  0
LINE
  5
3AB
100
AcDbEntity
  8
7_ALL_FEATURES
100
AcDbLine
 62
7
  6
CONTINUOUS
 10
84.3044702447
 20
156.3418571854
 11
79.3044702447
 21
156.3418571854
  0
LINE
  5
3AC
100
AcDbEntity
  8
03___PRT_ALL_CURVES
100
AcDbLine
 62
40
  6
CONTINUOUS
 10
34.2065979249
 20
156.3609766596
 11
34.366172374
 21
156.3609766596
  0
LINE
  5
3AD
100
AcDbEntity
  8
03___PRT_ALL_CURVES
100
AcDbLine
 62
40
  6
CONTINUOUS
 10
86.3565979189
 20
156.3819141595
 11
86.6023425705
 21
156.3819141595
  0
LINE
  5
3AE
100
AcDbEntity
  8
03___PRT_ALL_CURVES
100
AcDbLine
 62
40
  6
CONTINUOUS
 10
33.14276819
 20
156.3922265404
 11
33.249151156
 21
156.3922265404
  0
LINE
  5
3AF
100
AcDbEntity
  8
7_ALL_FEATURES
100
AcDbLine
 62
7
  6
CONTINUOUS
 10
85.130569527
 20
154.4625409207
 11
85.9145604234
 21
154.3243021731
  0
LINE
  5
3B0
100
AcDbEntity
  8
7_ALL_FEATURES
100
AcDbLine
 62
7
  6
CONTINUOUS
 10
90.1169720178
 20
163.8239398653
 11
89.9787332701
 21
163.039948969
  0
LINE
  5
3B1
100
AcDbEntity
  8
7_ALL_FEATURES
100
AcDbLine
 62
7
  6
CONTINUOUS
 10
87.9335144988
 20
151.4409369345
 11
87.7952757512
 21
150.6569460381
  0
LINE
  5
3B2
100
AcDbEntity
  8
03___PRT_ALL_CURVES
100
AcDbLine
 62
40
  6
CONTINUOUS
 10
91.6032202447
 20
162.9138689809
 11
91.5825952423
 21
162.8085497462
  0
LINE
  5
3B3
100
AcDbEntity
  8
03___PRT_ALL_CURVES
100
AcDbLine
 62
40
  6
CONTINUOUS
 10
91.5207202459
 20
163.0191881173
 11
91.4794702447
 21
162.843656125
  0
LINE
  5
3B4
100
AcDbEntity
  8
03___PRT_ALL_CURVES
100
AcDbLine
 62
40
  6
CONTINUOUS
 10
92.4694702447
 20
163.0542944961
 11
92.428220225
 21
162.9138689809
  0
LINE
  5
3B5
100
AcDbEntity
  8
03___PRT_ALL_CURVES
100
AcDbLine
 62
40
  6
CONTINUOUS
 10
93.0469702841
 20
161.8957838238
 11
93.0882202447
 21
162.0362093636
  0
LINE
  5
3B6
100
AcDbEntity
  8
7_ALL_FEATURES
100
AcDbLine
 62
7
  6
CONTINUOUS
 10
91.3959398175
 20
164.0948072745
 11
91.1236626366
 21
163.3467318682
  0
LINE
  5
3B7
100
AcDbEntity
  8
7_ALL_FEATURES
100
AcDbLine
 62
7
  6
CONTINUOUS
 10
87.0953680315
 20
152.2790834018
 11
86.8230908506
 21
151.5310079954
  0
LINE
  5
3B8
100
AcDbEntity
  8
03___PRT_ALL_CURVES
100
AcDbLine
 62
40
  6
CONTINUOUS
 10
91.6444702496
 20
163.0191881173
 11
91.6032202447
 21
162.9138689809
  0
LINE
  5
3B9
100
AcDbEntity
  8
03___PRT_ALL_CURVES
100
AcDbLine
 62
40
  6
CONTINUOUS
 10
92.0363452447
 20
162.5276987159
 11
92.0775952644
 21
162.6330178522
  0
LINE
  5
3BA
100
AcDbEntity
  8
03___PRT_ALL_CURVES
100
AcDbLine
 62
40
  6
CONTINUOUS
 10
92.0775952644
 20
162.0362093636
 11
92.0363452447
 21
161.9308902026
  0
LINE
  5
3BB
100
AcDbEntity
  8
03___PRT_ALL_CURVES
100
AcDbLine
 62
40
  6
CONTINUOUS
 10
92.5932202447
 20
163.0191881173
 11
92.5107202054
 21
162.8085497462
  0
LINE
  5
3BC
100
AcDbEntity
  8
03___PRT_ALL_CURVES
100
AcDbLine
 62
40
  6
CONTINUOUS
 10
92.9232202841
 20
161.9308902026
 11
93.0057202054
 21
162.1415285
  0
LINE
  5
3BD
100
AcDbEntity
  8
03___PRT_ALL_CURVES
100
AcDbLine
 62
40
  6
CONTINUOUS
 10
92.0982202447
 20
161.7904646751
 11
92.1600952447
 21
161.9308902026
  0
LINE
  5
3BE
100
AcDbEntity
  8
03___PRT_ALL_CURVES
100
AcDbLine
 62
40
  6
CONTINUOUS
 10
92.7582202054
 20
161.6500391477
 11
92.8819702054
 21
161.6851455295
  0
LINE
  5
3BF
100
AcDbEntity
  8
03___PRT_ALL_CURVES
100
AcDbLine
 62
40
  6
CONTINUOUS
 10
92.7582202054
 20
163.3000391477
 11
92.6344702054
 21
163.2649327689
  0
LINE
  5
3C0
100
AcDbEntity
  8
7_ALL_FEATURES
100
AcDbLine
 62
7
  6
CONTINUOUS
 10
98.2975633543
 20
161.1592336412
 11
97.5135724579
 21
161.0209948935
  0
LINE
  5
3C1
100
AcDbEntity
  8
7_ALL_FEATURES
100
AcDbLine
 62
7
  6
CONTINUOUS
 10
85.9145604234
 20
158.9757761223
 11
85.130569527
 21
158.8375373746
  0
LINE
  5
3C2
100
AcDbEntity
  8
03___PRT_ALL_CURVES
100
AcDbLine
 62
40
  6
CONTINUOUS
 10
38.8544702447
 20
156.5000391477
 11
36.1544702447
 21
156.5000391477
  0
LINE
  5
3C3
100
AcDbEntity
  8
7_ALL_FEATURES
100
AcDbLine
 62
7
  6
CONTINUOUS
 10
84.3044702447
 20
156.6500391477
 11
78.8044702447
 21
156.6500391477
  0
LINE
  5
3C4
100
AcDbEntity
  8
7_ALL_FEATURES
100
AcDbLine
 62
7
  6
CONTINUOUS
 10
39.5044702447
 20
156.6500391477
 11
40.5044702447
 21
156.6500391477
  0
LINE
  5
3C5
100
AcDbEntity
  8
03___PRT_ALL_CURVES
100
AcDbLine
 62
40
  6
CONTINUOUS
 10
36.1544702447
 20
156.8000391477
 11
38.8544702447
 21
156.8000391477
  0
LINE
  5
3C6
100
AcDbEntity
  8
03___PRT_ALL_CURVES
100
AcDbLine
 62
40
  6
CONTINUOUS
 10
86.6023425705
 20
156.9181641423
 11
86.3565979189
 21
156.9181641423
  0
LINE
  5
3C7
100
AcDbEntity
  8
7_ALL_FEATURES
100
AcDbLine
 62
7
  6
CONTINUOUS
 10
84.3044702447
 20
156.9582211099
 11
79.3044702447
 21
156.9582211099
  0
LINE
  5
3C8
100
AcDbEntity
  8
03___PRT_ALL_CURVES
100
AcDbLine
 62
40
  6
CONTINUOUS
 10
86.6374489493
 20
157.021289162
 11
86.3214915401
 21
157.021289162
  0
LINE
  5
3C9
100
AcDbEntity
  8
03___PRT_ALL_CURVES
100
AcDbLine
 62
40
  6
CONTINUOUS
 10
33.249151156
 20
157.1422265404
 11
33.14276819
 21
157.1422265404
  0
LINE
  5
3CA
100
AcDbEntity
  8
7_ALL_FEATURES
100
AcDbLine
 62
7
  6
CONTINUOUS
 10
40.8557341075
 20
157.1428933727
 11
39.8044702447
 21
157.1428933727
  0
LINE
  5
3CB
100
AcDbEntity
  8
03___PRT_ALL_CURVES
100
AcDbLine
 62
40
  6
CONTINUOUS
 10
34.366172374
 20
157.1734766
 11
34.2065979249
 21
157.1734766
  0
LINE
  5
3CC
100
AcDbEntity
  8
03___PRT_ALL_CURVES
100
AcDbLine
 62
40
  6
CONTINUOUS
 10
33.302342639
 20
157.2984766596
 11
33.14276819
 21
157.2984766596
  0
LINE
  5
3CD
100
AcDbEntity
  8
03___PRT_ALL_CURVES
100
AcDbLine
 62
40
  6
CONTINUOUS
 10
34.366172374
 20
157.3297265404
 11
34.2065979249
 21
157.3297265404
  0
LINE
  5
3CE
100
AcDbEntity
  8
7_ALL_FEATURES
100
AcDbLine
 62
7
  6
CONTINUOUS
 10
42.4374829466
 20
157.4000391477
 11
41.5714575428
 21
157.4000391477
  0
LINE
  5
3CF
100
AcDbEntity
  8
03___PRT_ALL_CURVES
100
AcDbLine
 62
40
  6
CONTINUOUS
 10
32.7128035284
 20
158.1891014808
 11
32.9211369611
 21
158.1891014808
  0
LINE
  5
3D0
100
AcDbEntity
  8
03___PRT_ALL_CURVES
100
AcDbLine
 62
40
  6
CONTINUOUS
 10
38.8544702447
 20
158.2777755643
 11
37.4044702447
 21
158.2777755643
  0
LINE
  5
3D1
100
AcDbEntity
  8
03___PRT_ALL_CURVES
100
AcDbLine
 62
40
  6
CONTINUOUS
 10
32.9211369611
 20
158.4703514808
 11
32.7128035284
 21
158.4703514808
  0
LINE
  5
3D2
100
AcDbEntity
  8
03___PRT_ALL_CURVES
100
AcDbLine
 62
40
  6
CONTINUOUS
 10
37.4044702447
 20
158.5761321329
 11
38.8544702447
 21
158.5761321329
  0
LINE
  5
3D3
100
AcDbEntity
  8
03___PRT_ALL_CURVES
100
AcDbLine
 62
40
  6
CONTINUOUS
 10
38.8544702447
 20
160.0376781602
 11
37.4044702447
 21
160.0376781602
  0
LINE
  5
3D4
100
AcDbEntity
  8
7_ALL_FEATURES
100
AcDbLine
 62
7
  6
CONTINUOUS
 10
86.415497499
 20
160.0500391477
 11
85.6194122794
 21
160.0500391477
  0
LINE
  5
3D5
100
AcDbEntity
  8
03___PRT_ALL_CURVES
100
AcDbLine
 62
40
  6
CONTINUOUS
 10
86.1459596462
 20
156.402539162
 11
86.3565979189
 21
156.3819141595
  0
LINE
  5
3D6
100
AcDbEntity
  8
03___PRT_ALL_CURVES
100
AcDbLine
 62
40
  6
CONTINUOUS
 10
86.8129808924
 20
156.897539162
 11
86.6023425705
 21
156.9181641423
  0
LINE
  5
3D7
100
AcDbEntity
  8
03___PRT_ALL_CURVES
100
AcDbLine
 62
40
  6
CONTINUOUS
 10
86.1459596462
 20
156.2994141626
 11
86.3214915401
 21
156.278789162
  0
LINE
  5
3D8
100
AcDbEntity
  8
03___PRT_ALL_CURVES
100
AcDbLine
 62
40
  6
CONTINUOUS
 10
86.8129808924
 20
157.0006641816
 11
86.6374489493
 21
157.021289162
  0
LINE
  5
3D9
100
AcDbEntity
  8
03___PRT_ALL_CURVES
100
AcDbLine
 62
40
  6
CONTINUOUS
 10
86.0406404114
 20
156.3200391632
 11
86.1459596462
 21
156.2994141626
  0
LINE
  5
3DA
100
AcDbEntity
  8
03___PRT_ALL_CURVES
100
AcDbLine
 62
40
  6
CONTINUOUS
 10
86.9183000288
 20
156.9800391423
 11
86.8129808924
 21
157.0006641816
  0
LINE
  5
3DB
100
AcDbEntity
  8
03___PRT_ALL_CURVES
100
AcDbLine
 62
40
  6
CONTINUOUS
 10
85.9002148963
 20
156.3612891644
 11
86.0406404114
 21
156.3200391632
  0
LINE
  5
3DC
100
AcDbEntity
  8
03___PRT_ALL_CURVES
100
AcDbLine
 62
40
  6
CONTINUOUS
 10
87.0587255686
 20
156.9387891816
 11
86.9183000288
 21
156.9800391423
  0
LINE
  5
3DD
100
AcDbEntity
  8
7_ALL_FEATURES
100
AcDbLine
 62
7
  6
CONTINUOUS
 10
84.8597021178
 20
155.7415087204
 11
85.6077775242
 21
155.4692315395
  0
LINE
  5
3DE
100
AcDbEntity
  8
03___PRT_ALL_CURVES
100
AcDbLine
 62
40
  6
CONTINUOUS
 10
85.9353212751
 20
156.4850391571
 11
86.1459596462
 21
156.402539162
  0
LINE
  5
3DF
100
AcDbEntity
  8
03___PRT_ALL_CURVES
100
AcDbLine
 62
40
  6
CONTINUOUS
 10
87.0236191898
 20
156.8150391816
 11
86.8129808924
 21
156.897539162
  0
LINE
  5
3E0
100
AcDbEntity
  8
7_ALL_FEATURES
100
AcDbLine
 62
7
  6
CONTINUOUS
 10
84.815040221
 20
157.0480817575
 11
85.5044702447
 21
156.6500391477
  0
LINE
  5
3E1
100
AcDbEntity
  8
03___PRT_ALL_CURVES
100
AcDbLine
 62
40
  6
CONTINUOUS
 10
85.7948957599
 20
156.4231641571
 11
85.9002148963
 21
156.3612891644
  0
LINE
  5
3E2
100
AcDbEntity
  8
03___PRT_ALL_CURVES
100
AcDbLine
 62
40
  6
CONTINUOUS
 10
85.8300021387
 20
156.650039162
 11
85.8651085175
 21
156.5469141718
  0
LINE
  5
3E3
100
AcDbEntity
  8
03___PRT_ALL_CURVES
100
AcDbLine
 62
40
  6
CONTINUOUS
 10
85.6544702447
 20
156.650039162
 11
85.6895766235
 21
156.526289162
  0
LINE
  5
3E4
100
AcDbEntity
  8
7_ALL_FEATURES
100
AcDbLine
 62
7
  6
CONTINUOUS
 10
88.9044702447
 20
163.335097113
 11
88.9044702447
 21
162.5390118934
  0
LINE
  5
3E5
100
AcDbEntity
  8
7_ALL_FEATURES
100
AcDbLine
 62
7
  6
CONTINUOUS
 10
90.8044702447
 20
157.5160645515
 11
90.8044702447
 21
155.7840137439
  0
LINE
  5
3E6
100
AcDbEntity
  8
03___PRT_ALL_CURVES
100
AcDbLine
 62
40
  6
CONTINUOUS
 10
91.4794702447
 20
162.843656125
 11
91.4794702447
 21
162.7032306098
  0
LINE
  5
3E7
100
AcDbEntity
  8
03___PRT_ALL_CURVES
100
AcDbLine
 62
40
  6
CONTINUOUS
 10
91.5825952423
 20
162.8085497462
 11
91.5825952423
 21
162.7383369886
  0
LINE
  5
3E8
100
AcDbEntity
  8
03___PRT_ALL_CURVES
100
AcDbLine
 62
40
  6
CONTINUOUS
 10
92.0982202447
 20
162.7383369886
 11
92.0982202447
 21
162.8085497462
  0
LINE
  5
3E9
100
AcDbEntity
  8
03___PRT_ALL_CURVES
100
AcDbLine
 62
40
  6
CONTINUOUS
 10
92.118845225
 20
162.4223795795
 11
92.118845225
 21
162.3521668219
  0
LINE
  5
3EA
100
AcDbEntity
  8
03___PRT_ALL_CURVES
100
AcDbLine
 62
40
  6
CONTINUOUS
 10
92.2219702447
 20
162.3521668219
 11
92.2219702447
 21
162.5979114735
  0
LINE
  5
3EB
100
AcDbEntity
  8
03___PRT_ALL_CURVES
100
AcDbLine
 62
40
  6
CONTINUOUS
 10
92.3869702644
 20
162.6330178522
 11
92.3869702644
 21
162.3170604431
  0
LINE
  5
3EC
100
AcDbEntity
  8
03___PRT_ALL_CURVES
100
AcDbLine
 62
40
  6
CONTINUOUS
 10
92.2013452644
 20
162.1064221212
 11
92.2219702447
 21
162.3521668219
  0
LINE
  5
3ED
100
AcDbEntity
  8
03___PRT_ALL_CURVES
100
AcDbLine
 62
40
  6
CONTINUOUS
 10
92.118845225
 20
162.3521668219
 11
92.0982202447
 21
162.1415285
  0
LINE
  5
3EE
100
AcDbEntity
  8
03___PRT_ALL_CURVES
100
AcDbLine
 62
40
  6
CONTINUOUS
 10
92.5107202054
 20
162.8085497462
 11
92.4900952841
 21
162.5979114735
  0
LINE
  5
3EF
100
AcDbEntity
  8
03___PRT_ALL_CURVES
100
AcDbLine
 62
40
  6
CONTINUOUS
 10
93.0057202054
 20
162.1415285
 11
93.0263452447
 21
162.3521668219
  0
LINE
  5
3F0
100
AcDbEntity
  8
03___PRT_ALL_CURVES
100
AcDbLine
 62
40
  6
CONTINUOUS
 10
92.4075952447
 20
162.8085497462
 11
92.3869702644
 21
162.6330178522
  0
LINE
  5
3F1
100
AcDbEntity
  8
03___PRT_ALL_CURVES
100
AcDbLine
 62
40
  6
CONTINUOUS
 10
93.1088452841
 20
162.1415285
 11
93.1294702054
 21
162.3170604431
  0
LINE
  5
3F2
100
AcDbEntity
  8
03___PRT_ALL_CURVES
100
AcDbLine
 62
40
  6
CONTINUOUS
 10
92.0775952644
 20
162.6330178522
 11
92.0982202447
 21
162.7383369886
  0
LINE
  5
3F3
100
AcDbEntity
  8
03___PRT_ALL_CURVES
100
AcDbLine
 62
40
  6
CONTINUOUS
 10
92.0982202447
 20
162.1415285
 11
92.0775952644
 21
162.0362093636
  0
LINE
  5
3F4
100
AcDbEntity
  8
03___PRT_ALL_CURVES
100
AcDbLine
 62
40
  6
CONTINUOUS
 10
92.428220225
 20
162.9138689809
 11
92.4075952447
 21
162.8085497462
  0
LINE
  5
3F5
100
AcDbEntity
  8
03___PRT_ALL_CURVES
100
AcDbLine
 62
40
  6
CONTINUOUS
 10
93.0882202447
 20
162.0362093636
 11
93.1088452841
 21
162.1415285
  0
LINE
  5
3F6
100
AcDbEntity
  8
03___PRT_ALL_CURVES
100
AcDbLine
 62
40
  6
CONTINUOUS
 10
92.1600952447
 20
161.9308902026
 11
92.2013452644
 21
162.1064221212
  0
LINE
  5
3F7
100
AcDbEntity
  8
7_ALL_FEATURES
100
AcDbLine
 62
7
  6
CONTINUOUS
 10
97.5135724579
 20
161.0209948935
 11
97.7858496388
 21
161.7690702999
  0
LINE
  5
3F8
100
AcDbEntity
  8
03___PRT_ALL_CURVES
100
AcDbLine
 62
40
  6
CONTINUOUS
 10
32.8768106259
 20
155.9234766298
 11
33.0895765579
 21
155.9547266
  0
LINE
  5
3F9
100
AcDbEntity
  8
03___PRT_ALL_CURVES
100
AcDbLine
 62
40
  6
CONTINUOUS
 10
37.4044702447
 20
160.3311224404
 11
38.8544702447
 21
160.3311224404
  0
LINE
  5
3FA
100
AcDbEntity
  8
03___PRT_ALL_CURVES
100
AcDbLine
 62
40
  6
CONTINUOUS
 10
91.8094702545
 20
161.6500391477
 11
91.8919702349
 21
161.6500391477
  0
LINE
  5
3FB
100
AcDbEntity
  8
03___PRT_ALL_CURVES
100
AcDbLine
 62
40
  6
CONTINUOUS
 10
38.8544702447
 20
161.7604650741
 11
37.4044702447
 21
161.7604650741
  0
LINE
  5
3FC
100
AcDbEntity
  8
03___PRT_ALL_CURVES
100
AcDbLine
 62
40
  6
CONTINUOUS
 10
91.9125952447
 20
161.8255710662
 11
91.7888452447
 21
161.8255710662
  0
LINE
  5
3FD
100
AcDbEntity
  8
03___PRT_ALL_CURVES
100
AcDbLine
 62
40
  6
CONTINUOUS
 10
91.6238452398
 20
162.0362093636
 11
91.5207202459
 21
162.0362093636
  0
LINE
  5
3FE
100
AcDbEntity
  8
03___PRT_ALL_CURVES
100
AcDbLine
 62
40
  6
CONTINUOUS
 10
37.4044702447
 20
162.045782029
 11
38.8544702447
 21
162.045782029
  0
LINE
  5
3FF
100
AcDbEntity
  8
03___PRT_ALL_CURVES
100
AcDbLine
 62
40
  6
CONTINUOUS
 10
91.7888452447
 20
162.2468476363
 11
91.8919702349
 21
162.2468476363
  0
LINE
  5
400
100
AcDbEntity
  8
03___PRT_ALL_CURVES
100
AcDbLine
 62
40
  6
CONTINUOUS
 10
91.7682202349
 20
162.4223795795
 11
91.9125952447
 21
162.4223795795
  0
LINE
  5
401
100
AcDbEntity
  8
03___PRT_ALL_CURVES
100
AcDbLine
 62
40
  6
CONTINUOUS
 10
91.9125952447
 20
163.1245072537
 11
91.7682202349
 21
163.1245072537
  0
LINE
  5
402
100
AcDbEntity
  8
03___PRT_ALL_CURVES
100
AcDbLine
 62
40
  6
CONTINUOUS
 10
91.8919702349
 20
163.3000391477
 11
91.7888452447
 21
163.3000391477
  0
LINE
  5
403
100
AcDbEntity
  8
03___PRT_ALL_CURVES
100
AcDbLine
 62
40
  6
CONTINUOUS
 10
38.8544702447
 20
163.4272610921
 11
37.4044702447
 21
163.4272610921
  0
LINE
  5
404
100
AcDbEntity
  8
03___PRT_ALL_CURVES
100
AcDbLine
 62
40
  6
CONTINUOUS
 10
37.4044702447
 20
163.7013247294
 11
38.8544702447
 21
163.7013247294
  0
LINE
  5
405
100
AcDbEntity
  8
03___PRT_ALL_CURVES
100
AcDbLine
 62
40
  6
CONTINUOUS
 10
35.0044702447
 20
163.8675865176
 11
34.7385127924
 21
163.8675865176
  0
LINE
  5
406
100
AcDbEntity
  8
7_ALL_FEATURES
100
AcDbLine
 62
7
  6
CONTINUOUS
 10
87.0953680315
 20
161.0209948935
 11
86.3113771352
 21
161.1592336412
  0
LINE
  5
407
100
AcDbEntity
  8
7_ALL_FEATURES
100
AcDbLine
 62
7
  6
CONTINUOUS
 10
90.8044702447
 20
155.7840137439
 11
92.3044702447
 21
154.9179883401
  0
LINE
  5
408
100
AcDbEntity
  8
03___PRT_ALL_CURVES
100
AcDbLine
 62
40
  6
CONTINUOUS
 10
87.1640447172
 20
156.8769141816
 11
87.0587255686
 21
156.9387891816
  0
LINE
  5
409
100
AcDbEntity
  8
7_ALL_FEATURES
100
AcDbLine
 62
7
  6
CONTINUOUS
 10
84.9979408655
 20
158.3425604712
 11
85.6077775242
 21
157.8308467558
  0
LINE
  5
40A
100
AcDbEntity
  8
03___PRT_ALL_CURVES
100
AcDbLine
 62
40
  6
CONTINUOUS
 10
85.8651085175
 20
156.5469141718
 11
85.9353212751
 21
156.4850391571
  0
LINE
  5
40B
100
AcDbEntity
  8
03___PRT_ALL_CURVES
100
AcDbLine
 62
40
  6
CONTINUOUS
 10
87.0938319474
 20
156.7531641521
 11
87.0236191898
 21
156.8150391816
  0
LINE
  5
40C
100
AcDbEntity
  8
03___PRT_ALL_CURVES
100
AcDbLine
 62
40
  6
CONTINUOUS
 10
85.6895766235
 20
156.526289162
 11
85.7948957599
 21
156.4231641571
  0
LINE
  5
40D
100
AcDbEntity
  8
03___PRT_ALL_CURVES
100
AcDbLine
 62
40
  6
CONTINUOUS
 10
87.2693638628
 20
156.773789162
 11
87.1640447172
 21
156.8769141816
  0
LINE
  5
40E
100
AcDbEntity
  8
7_ALL_FEATURES
100
AcDbLine
 62
7
  6
CONTINUOUS
 10
85.402846708
 20
159.585612781
 11
85.9145604234
 21
158.9757761223
  0
LINE
  5
40F
100
AcDbEntity
  8
7_ALL_FEATURES
100
AcDbLine
 62
7
  6
CONTINUOUS
 10
86.0174548892
 20
160.7394691714
 11
86.415497499
 21
160.0500391477
  0
LINE
  5
410
100
AcDbEntity
  8
7_ALL_FEATURES
100
AcDbLine
 62
7
  6
CONTINUOUS
 10
86.8230908506
 20
161.7690702999
 11
87.0953680315
 21
161.0209948935
  0
LINE
  5
411
100
AcDbEntity
  8
03___PRT_ALL_CURVES
100
AcDbLine
 62
40
  6
CONTINUOUS
 10
87.1289383262
 20
156.650039162
 11
87.0938319474
 21
156.7531641521
  0
LINE
  5
412
100
AcDbEntity
  8
7_ALL_FEATURES
100
AcDbLine
 62
7
  6
CONTINUOUS
 10
92.0612867411
 20
149.1539827322
 11
102.0859940245
 21
116.3646426645
  0
LINE
  5
413
100
AcDbEntity
  8
03___PRT_ALL_CURVES
100
AcDbLine
 62
40
  6
CONTINUOUS
 10
87.3044702447
 20
156.650039162
 11
87.2693638628
 21
156.773789162
  0
LINE
  5
414
100
AcDbEntity
  8
7_ALL_FEATURES
100
AcDbLine
 62
7
  6
CONTINUOUS
 10
87.7952757512
 20
162.6431322572
 11
87.9335144988
 21
161.8591413609
  0
LINE
  5
415
100
AcDbEntity
  8
03___PRT_ALL_CURVES
100
AcDbLine
 62
40
  6
CONTINUOUS
 10
92.4900952841
 20
162.3521668219
 11
92.5107202054
 21
162.1415285
  0
LINE
  5
416
100
AcDbEntity
  8
03___PRT_ALL_CURVES
100
AcDbLine
 62
40
  6
CONTINUOUS
 10
93.0263452447
 20
162.5979114735
 11
93.0057202054
 21
162.8085497462
  0
LINE
  5
417
100
AcDbEntity
  8
03___PRT_ALL_CURVES
100
AcDbLine
 62
40
  6
CONTINUOUS
 10
92.2219702447
 20
162.5979114735
 11
92.2013452644
 21
162.843656125
  0
LINE
  5
418
100
AcDbEntity
  8
03___PRT_ALL_CURVES
100
AcDbLine
 62
40
  6
CONTINUOUS
 10
92.4900952841
 20
162.5979114735
 11
92.4900952841
 21
162.3521668219
  0
LINE
  5
419
100
AcDbEntity
  8
03___PRT_ALL_CURVES
100
AcDbLine
 62
40
  6
CONTINUOUS
 10
93.0263452447
 20
162.3521668219
 11
93.0263452447
 21
162.5979114735
  0
LINE
  5
41A
100
AcDbEntity
  8
03___PRT_ALL_CURVES
100
AcDbLine
 62
40
  6
CONTINUOUS
 10
93.1294702054
 20
162.3170604431
 11
93.1294702054
 21
162.6330178522
  0
LINE
  5
41B
100
AcDbEntity
  8
7_ALL_FEATURES
100
AcDbLine
 62
7
  6
CONTINUOUS
 10
93.8044702447
 20
155.7840137439
 11
93.8044702447
 21
157.5160645515
  0
LINE
  5
41C
100
AcDbEntity
  8
7_ALL_FEATURES
100
AcDbLine
 62
7
  6
CONTINUOUS
 10
95.7044702447
 20
162.5390118934
 11
95.7044702447
 21
163.335097113
  0
LINE
  5
41D
100
AcDbEntity
  8
7_ALL_FEATURES
100
AcDbLine
 62
7
  6
CONTINUOUS
 10
96.6754259906
 20
161.8591413609
 11
96.8136647382
 21
162.6431322572
  0
LINE
  5
41E
100
AcDbEntity
  8
03___PRT_ALL_CURVES
100
AcDbLine
 62
40
  6
CONTINUOUS
 10
34.366172374
 20
156.2047266298
 11
34.6321298263
 21
156.2672265702
  0
LINE
  5
41F
100
AcDbEntity
  8
03___PRT_ALL_CURVES
100
AcDbLine
 62
40
  6
CONTINUOUS
 10
34.2065979249
 20
157.3297265404
 11
33.9406404353
 21
157.2672266
  0
LINE
  5
420
100
AcDbEntity
  8
03___PRT_ALL_CURVES
100
AcDbLine
 62
40
  6
CONTINUOUS
 10
33.14276819
 20
157.2984766596
 11
32.8768106259
 21
157.2359765404
  0
LINE
  5
421
100
AcDbEntity
  8
7_ALL_FEATURES
100
AcDbLine
 62
7
  6
CONTINUOUS
 10
98.8044672244
 20
164.6500391477
 11
84.3044702447
 21
164.6500391477
  0
LINE
  5
422
100
AcDbEntity
  8
03___PRT_ALL_CURVES
100
AcDbLine
 62
40
  6
CONTINUOUS
 10
33.195959673
 20
164.7064674761
 11
33.0895765579
 21
164.7064674761
  0
LINE
  5
423
100
AcDbEntity
  8
03___PRT_ALL_CURVES
100
AcDbLine
 62
40
  6
CONTINUOUS
 10
33.0895765579
 20
164.8711313849
 11
33.195959673
 21
164.8711313849
  0
LINE
  5
424
100
AcDbEntity
  8
03___PRT_ALL_CURVES
100
AcDbLine
 62
40
  6
CONTINUOUS
 10
34.7385127924
 20
164.8711313849
 11
35.0044702447
 21
164.8711313849
  0
LINE
  5
425
100
AcDbEntity
  8
03___PRT_ALL_CURVES
100
AcDbLine
 62
40
  6
CONTINUOUS
 10
38.8544702447
 20
165.0198044483
 11
36.1544702447
 21
165.0198044483
  0
LINE
  5
426
100
AcDbEntity
  8
03___PRT_ALL_CURVES
100
AcDbLine
 62
40
  6
CONTINUOUS
 10
33.302342639
 20
165.089074017
 11
32.8768106259
 21
165.089074017
  0
LINE
  5
427
100
AcDbEntity
  8
03___PRT_ALL_CURVES
100
AcDbLine
 62
40
  6
CONTINUOUS
 10
35.0044702447
 20
165.2513244502
 11
32.9300021089
 21
165.2513244502
  0
LINE
  5
428
100
AcDbEntity
  8
03___PRT_ALL_CURVES
100
AcDbLine
 62
40
  6
CONTINUOUS
 10
36.1544702447
 20
165.2796120694
 11
38.8544702447
 21
165.2796120694
  0
LINE
  5
429
100
AcDbEntity
  8
03___PRT_ALL_CURVES
100
AcDbLine
 62
40
  6
CONTINUOUS
 10
32.5044702447
 20
165.4125408484
 11
35.0044702447
 21
165.4125408484
  0
LINE
  5
42A
100
AcDbEntity
  8
03___PRT_ALL_CURVES
100
AcDbLine
 62
40
  6
CONTINUOUS
 10
32.7128035284
 20
166.1381963602
 11
32.9211369611
 21
166.1381963602
  0
LINE
  5
42B
100
AcDbEntity
  8
03___PRT_ALL_CURVES
100
AcDbLine
 62
40
  6
CONTINUOUS
 10
32.9211369611
 20
166.3709412535
 11
32.7128035284
 21
166.3709412535
  0
LINE
  5
42C
100
AcDbEntity
  8
03___PRT_ALL_CURVES
100
AcDbLine
 62
40
  6
CONTINUOUS
 10
38.8544702447
 20
166.5206469044
 11
37.4044702447
 21
166.5206469044
  0
LINE
  5
42D
100
AcDbEntity
  8
03___PRT_ALL_CURVES
100
AcDbLine
 62
40
  6
CONTINUOUS
 10
37.4044702447
 20
166.7633520027
 11
38.8544702447
 21
166.7633520027
  0
LINE
  5
42E
100
AcDbEntity
  8
03___PRT_ALL_CURVES
100
AcDbLine
 62
40
  6
CONTINUOUS
 10
38.8544702447
 20
167.9133449163
 11
37.4044702447
 21
167.9133449163
  0
LINE
  5
42F
100
AcDbEntity
  8
03___PRT_ALL_CURVES
100
AcDbLine
 62
40
  6
CONTINUOUS
 10
37.4044702447
 20
168.136288364
 11
38.8544702447
 21
168.136288364
  0
LINE
  5
430
100
AcDbEntity
  8
03___PRT_ALL_CURVES
100
AcDbLine
 62
40
  6
CONTINUOUS
 10
92.6344702054
 20
161.6851455295
 11
92.7582202054
 21
161.6500391477
  0
LINE
  5
431
100
AcDbEntity
  8
03___PRT_ALL_CURVES
100
AcDbLine
 62
40
  6
CONTINUOUS
 10
92.8819702054
 20
163.2649327689
 11
92.7582202054
 21
163.3000391477
  0
LINE
  5
432
100
AcDbEntity
  8
03___PRT_ALL_CURVES
100
AcDbLine
 62
40
  6
CONTINUOUS
 10
91.7063452496
 20
161.6851455295
 11
91.8094702545
 21
161.6500391477
  0
LINE
  5
433
100
AcDbEntity
  8
03___PRT_ALL_CURVES
100
AcDbLine
 62
40
  6
CONTINUOUS
 10
92.6550952447
 20
161.860677445
 11
92.7582202054
 21
161.8255710662
  0
LINE
  5
434
100
AcDbEntity
  8
03___PRT_ALL_CURVES
100
AcDbLine
 62
40
  6
CONTINUOUS
 10
91.6857202398
 20
162.2819540643
 11
91.7888452447
 21
162.2468476363
  0
LINE
  5
435
100
AcDbEntity
  8
03___PRT_ALL_CURVES
100
AcDbLine
 62
40
  6
CONTINUOUS
 10
91.995095225
 20
163.2649327689
 11
91.8919702349
 21
163.3000391477
  0
LINE
  5
436
100
AcDbEntity
  8
03___PRT_ALL_CURVES
100
AcDbLine
 62
40
  6
CONTINUOUS
 10
92.8613452841
 20
163.0894008749
 11
92.7582202054
 21
163.1245072537
  0
LINE
  5
437
100
AcDbEntity
  8
7_ALL_FEATURES
100
AcDbLine
 62
7
  6
CONTINUOUS
 10
87.9335144988
 20
161.8591413609
 11
87.1854390925
 21
162.1314185418
  0
LINE
  5
438
100
AcDbEntity
  8
03___PRT_ALL_CURVES
100
AcDbLine
 62
40
  6
CONTINUOUS
 10
91.7888452447
 20
161.8255710662
 11
91.7269702447
 21
161.860677445
  0
LINE
  5
439
100
AcDbEntity
  8
7_ALL_FEATURES
100
AcDbLine
 62
7
  6
CONTINUOUS
 10
93.8044702447
 20
157.5160645515
 11
92.3044702447
 21
158.3820899552
  0
LINE
  5
43A
100
AcDbEntity
  8
7_ALL_FEATURES
100
AcDbLine
 62
7
  6
CONTINUOUS
 10
88.9044702447
 20
162.5390118934
 11
88.215040221
 21
162.9370545032
  0
LINE
  5
43B
100
AcDbEntity
  8
03___PRT_ALL_CURVES
100
AcDbLine
 62
40
  6
CONTINUOUS
 10
87.2363319202
 20
161.4353347597
 11
88.6303445419
 21
160.041322138
  0
LINE
  5
43C
100
AcDbEntity
  8
03___PRT_ALL_CURVES
100
AcDbLine
 62
40
  6
CONTINUOUS
 10
88.9131872544
 20
160.3241648504
 11
87.5191746327
 21
161.7181774722
  0
LINE
  5
43D
100
AcDbEntity
  8
7_ALL_FEATURES
100
AcDbLine
 62
7
  6
CONTINUOUS
 10
78.8044702447
 20
173.3500391477
 11
78.5044702447
 21
173.6500391477
  0
LINE
  5
43E
100
AcDbEntity
  8
03___PRT_ALL_CURVES
100
AcDbLine
 62
40
  6
CONTINUOUS
 10
91.5413452447
 20
161.9308902026
 11
91.6032202447
 21
161.7904646751
  0
LINE
  5
43F
100
AcDbEntity
  8
03___PRT_ALL_CURVES
100
AcDbLine
 62
40
  6
CONTINUOUS
 10
91.5207202459
 20
162.5276987159
 11
91.5825952423
 21
162.3872732007
  0
LINE
  5
440
100
AcDbEntity
  8
03___PRT_ALL_CURVES
100
AcDbLine
 62
40
  6
CONTINUOUS
 10
91.6650952447
 20
161.9308902026
 11
91.6238452398
 21
162.0362093636
  0
LINE
  5
441
100
AcDbEntity
  8
03___PRT_ALL_CURVES
100
AcDbLine
 62
40
  6
CONTINUOUS
 10
91.6032202447
 20
162.6330178522
 11
91.6444702496
 21
162.5276987159
  0
LINE
  5
442
100
AcDbEntity
  8
03___PRT_ALL_CURVES
100
AcDbLine
 62
40
  6
CONTINUOUS
 10
92.428220225
 20
162.0362093636
 11
92.4694702447
 21
161.8957838238
  0
LINE
  5
443
100
AcDbEntity
  8
03___PRT_ALL_CURVES
100
AcDbLine
 62
40
  6
CONTINUOUS
 10
91.4794702447
 20
162.7032306098
 11
91.5207202459
 21
162.5276987159
  0
LINE
  5
444
100
AcDbEntity
  8
03___PRT_ALL_CURVES
100
AcDbLine
 62
40
  6
CONTINUOUS
 10
92.2013452644
 20
162.843656125
 11
92.1600952447
 21
163.0191881173
  0
LINE
  5
445
100
AcDbEntity
  8
03___PRT_ALL_CURVES
100
AcDbLine
 62
40
  6
CONTINUOUS
 10
91.5207202459
 20
162.0362093636
 11
91.5413452447
 21
161.9308902026
  0
LINE
  5
446
100
AcDbEntity
  8
03___PRT_ALL_CURVES
100
AcDbLine
 62
40
  6
CONTINUOUS
 10
91.5825952423
 20
162.7383369886
 11
91.6032202447
 21
162.6330178522
  0
LINE
  5
447
100
AcDbEntity
  8
03___PRT_ALL_CURVES
100
AcDbLine
 62
40
  6
CONTINUOUS
 10
92.0982202447
 20
162.8085497462
 11
92.0775952644
 21
162.9138689809
  0
LINE
  5
448
100
AcDbEntity
  8
03___PRT_ALL_CURVES
100
AcDbLine
 62
40
  6
CONTINUOUS
 10
92.4075952447
 20
162.1415285
 11
92.428220225
 21
162.0362093636
  0
LINE
  5
449
100
AcDbEntity
  8
03___PRT_ALL_CURVES
100
AcDbLine
 62
40
  6
CONTINUOUS
 10
93.1088452841
 20
162.8085497462
 11
93.0882202447
 21
162.9138689809
  0
LINE
  5
44A
100
AcDbEntity
  8
03___PRT_ALL_CURVES
100
AcDbLine
 62
40
  6
CONTINUOUS
 10
92.3869702644
 20
162.3170604431
 11
92.4075952447
 21
162.1415285
  0
LINE
  5
44B
100
AcDbEntity
  8
03___PRT_ALL_CURVES
100
AcDbLine
 62
40
  6
CONTINUOUS
 10
93.1294702054
 20
162.6330178522
 11
93.1088452841
 21
162.8085497462
  0
LINE
  5
44C
100
AcDbEntity
  8
7_ALL_FEATURES
100
AcDbLine
 62
7
  6
CONTINUOUS
 10
98.8044672244
 20
173.6500391477
 11
98.8044672244
 21
164.6500391477
  0
LINE
  5
44D
100
AcDbEntity
  8
7_ALL_FEATURES
100
AcDbLine
 62
7
  6
CONTINUOUS
 10
99.3044702447
 20
159.4516256399
 11
99.3044702447
 21
173.150036156
  0
LINE
  5
44E
100
AcDbEntity
  8
03___PRT_ALL_CURVES
100
AcDbLine
 62
40
  6
CONTINUOUS
 10
38.8544702447
 20
169.1826397932
 11
37.4044702447
 21
169.1826397932
  0
LINE
  5
44F
100
AcDbEntity
  8
03___PRT_ALL_CURVES
100
AcDbLine
 62
40
  6
CONTINUOUS
 10
37.4044702447
 20
169.3833789752
 11
38.8544702447
 21
169.3833789752
  0
LINE
  5
450
100
AcDbEntity
  8
03___PRT_ALL_CURVES
100
AcDbLine
 62
40
  6
CONTINUOUS
 10
38.8544702447
 20
170.3146248749
 11
37.4044702447
 21
170.3146248749
  0
LINE
  5
451
100
AcDbEntity
  8
03___PRT_ALL_CURVES
100
AcDbLine
 62
40
  6
CONTINUOUS
 10
37.4044702447
 20
170.4909604506
 11
38.8544702447
 21
170.4909604506
  0
LINE
  5
452
100
AcDbEntity
  8
03___PRT_ALL_CURVES
100
AcDbLine
 62
40
  6
CONTINUOUS
 10
33.302342639
 20
170.5605414062
 11
32.8768106259
 21
170.5605414062
  0
LINE
  5
453
100
AcDbEntity
  8
03___PRT_ALL_CURVES
100
AcDbLine
 62
40
  6
CONTINUOUS
 10
35.0044702447
 20
170.6678453575
 11
32.9300021089
 21
170.6678453575
  0
LINE
  5
454
100
AcDbEntity
  8
03___PRT_ALL_CURVES
100
AcDbLine
 62
40
  6
CONTINUOUS
 10
32.5044702447
 20
170.7733419711
 11
35.0044702447
 21
170.7733419711
  0
LINE
  5
455
100
AcDbEntity
  8
03___PRT_ALL_CURVES
100
AcDbLine
 62
40
  6
CONTINUOUS
 10
34.2597894079
 20
170.9112000916
 11
33.9406404353
 21
170.9112000916
  0
LINE
  5
456
100
AcDbEntity
  8
03___PRT_ALL_CURVES
100
AcDbLine
 62
40
  6
CONTINUOUS
 10
38.8544702447
 20
171.2968978958
 11
36.1544702447
 21
171.2968978958
  0
LINE
  5
457
100
AcDbEntity
  8
03___PRT_ALL_CURVES
100
AcDbLine
 62
40
  6
CONTINUOUS
 10
35.0044702447
 20
171.3056155015
 11
34.2597894079
 21
171.3056155015
  0
LINE
  5
458
100
AcDbEntity
  8
03___PRT_ALL_CURVES
100
AcDbLine
 62
40
  6
CONTINUOUS
 10
32.9300021089
 20
171.3056155015
 11
33.9406404353
 21
171.3056155015
  0
LINE
  5
459
100
AcDbEntity
  8
03___PRT_ALL_CURVES
100
AcDbLine
 62
40
  6
CONTINUOUS
 10
32.5044702447
 20
171.3997385782
 11
33.9406404353
 21
171.3997385782
  0
LINE
  5
45A
100
AcDbEntity
  8
03___PRT_ALL_CURVES
100
AcDbLine
 62
40
  6
CONTINUOUS
 10
34.2597894079
 20
171.3997385782
 11
35.0044702447
 21
171.3997385782
  0
LINE
  5
45B
100
AcDbEntity
  8
03___PRT_ALL_CURVES
100
AcDbLine
 62
40
  6
CONTINUOUS
 10
36.1544702447
 20
171.4468978958
 11
38.8544702447
 21
171.4468978958
  0
LINE
  5
45C
100
AcDbEntity
  8
03___PRT_ALL_CURVES
100
AcDbLine
 62
40
  6
CONTINUOUS
 10
33.9406404353
 20
171.5526301692
 11
34.2597894079
 21
171.5526301692
  0
LINE
  5
45D
100
AcDbEntity
  8
03___PRT_ALL_CURVES
100
AcDbLine
 62
40
  6
CONTINUOUS
 10
32.7128035284
 20
171.9473817627
 11
32.9211369611
 21
171.9473817627
  0
LINE
  5
45E
100
AcDbEntity
  8
03___PRT_ALL_CURVES
100
AcDbLine
 62
40
  6
CONTINUOUS
 10
91.7063452496
 20
162.4574859583
 11
91.7682202349
 21
162.4223795795
  0
LINE
  5
45F
100
AcDbEntity
  8
03___PRT_ALL_CURVES
100
AcDbLine
 62
40
  6
CONTINUOUS
 10
91.9744702447
 20
163.0894008749
 11
91.9125952447
 21
163.1245072537
  0
LINE
  5
460
100
AcDbEntity
  8
7_ALL_FEATURES
100
AcDbLine
 62
7
  6
CONTINUOUS
 10
89.9787332701
 20
163.039948969
 11
89.3688966114
 21
163.5516626844
  0
LINE
  5
461
100
AcDbEntity
  8
03___PRT_ALL_CURVES
100
AcDbLine
 62
40
  6
CONTINUOUS
 10
91.6032202447
 20
161.7904646751
 11
91.7063452496
 21
161.6851455295
  0
LINE
  5
462
100
AcDbEntity
  8
03___PRT_ALL_CURVES
100
AcDbLine
 62
40
  6
CONTINUOUS
 10
91.5825952423
 20
162.3872732007
 11
91.6857202398
 21
162.2819540643
  0
LINE
  5
463
100
AcDbEntity
  8
03___PRT_ALL_CURVES
100
AcDbLine
 62
40
  6
CONTINUOUS
 10
92.5313452447
 20
161.7904646751
 11
92.6344702054
 21
161.6851455295
  0
LINE
  5
464
100
AcDbEntity
  8
03___PRT_ALL_CURVES
100
AcDbLine
 62
40
  6
CONTINUOUS
 10
92.0982202447
 20
163.1596136325
 11
91.995095225
 21
163.2649327689
  0
LINE
  5
465
100
AcDbEntity
  8
03___PRT_ALL_CURVES
100
AcDbLine
 62
40
  6
CONTINUOUS
 10
92.9850952841
 20
163.1596136325
 11
92.8819702054
 21
163.2649327689
  0
LINE
  5
466
100
AcDbEntity
  8
03___PRT_ALL_CURVES
100
AcDbLine
 62
40
  6
CONTINUOUS
 10
91.7269702447
 20
161.860677445
 11
91.6650952447
 21
161.9308902026
  0
LINE
  5
467
100
AcDbEntity
  8
03___PRT_ALL_CURVES
100
AcDbLine
 62
40
  6
CONTINUOUS
 10
91.6444702496
 20
162.5276987159
 11
91.7063452496
 21
162.4574859583
  0
LINE
  5
468
100
AcDbEntity
  8
03___PRT_ALL_CURVES
100
AcDbLine
 62
40
  6
CONTINUOUS
 10
92.5932202447
 20
161.9308902026
 11
92.6550952447
 21
161.860677445
  0
LINE
  5
469
100
AcDbEntity
  8
03___PRT_ALL_CURVES
100
AcDbLine
 62
40
  6
CONTINUOUS
 10
92.0363452447
 20
163.0191881173
 11
91.9744702447
 21
163.0894008749
  0
LINE
  5
46A
100
AcDbEntity
  8
03___PRT_ALL_CURVES
100
AcDbLine
 62
40
  6
CONTINUOUS
 10
92.9232202841
 20
163.0191881173
 11
92.8613452841
 21
163.0894008749
  0
LINE
  5
46B
100
AcDbEntity
  8
7_ALL_FEATURES
100
AcDbLine
 62
7
  6
CONTINUOUS
 10
91.1236626366
 20
163.3467318682
 11
90.6119489212
 21
163.9565685269
  0
LINE
  5
46C
100
AcDbEntity
  8
03___PRT_ALL_CURVES
100
AcDbLine
 62
40
  6
CONTINUOUS
 10
92.4694702447
 20
161.8957838238
 11
92.5313452447
 21
161.7904646751
  0
LINE
  5
46D
100
AcDbEntity
  8
03___PRT_ALL_CURVES
100
AcDbLine
 62
40
  6
CONTINUOUS
 10
93.0469702841
 20
163.0542944961
 11
92.9850952841
 21
163.1596136325
  0
LINE
  5
46E
100
AcDbEntity
  8
7_ALL_FEATURES
100
AcDbLine
 62
7
  6
CONTINUOUS
 10
92.3044702447
 20
163.4500391477
 11
91.9064276349
 21
164.1394691714
  0
LINE
  5
46F
100
AcDbEntity
  8
03___PRT_ALL_CURVES
100
AcDbLine
 62
40
  6
CONTINUOUS
 10
92.1600952447
 20
163.0191881173
 11
92.0982202447
 21
163.1596136325
  0
LINE
  5
470
100
AcDbEntity
  8
03___PRT_ALL_CURVES
100
AcDbLine
 62
40
  6
CONTINUOUS
 10
92.0775952644
 20
162.9138689809
 11
92.0363452447
 21
163.0191881173
  0
LINE
  5
471
100
AcDbEntity
  8
03___PRT_ALL_CURVES
100
AcDbLine
 62
40
  6
CONTINUOUS
 10
92.5107202054
 20
162.1415285
 11
92.5932202447
 21
161.9308902026
  0
LINE
  5
472
100
AcDbEntity
  8
03___PRT_ALL_CURVES
100
AcDbLine
 62
40
  6
CONTINUOUS
 10
93.0057202054
 20
162.8085497462
 11
92.9232202841
 21
163.0191881173
  0
LINE
  5
473
100
AcDbEntity
  8
7_ALL_FEATURES
100
AcDbLine
 62
7
  6
CONTINUOUS
 10
93.4852778528
 20
163.3467318682
 11
93.2130006719
 21
164.0948072745
  0
LINE
  5
474
100
AcDbEntity
  8
03___PRT_ALL_CURVES
100
AcDbLine
 62
40
  6
CONTINUOUS
 10
93.0882202447
 20
162.9138689809
 11
93.0469702841
 21
163.0542944961
  0
LINE
  5
475
100
AcDbEntity
  8
7_ALL_FEATURES
100
AcDbLine
 62
7
  6
CONTINUOUS
 10
94.6302072193
 20
163.039948969
 11
94.4919684717
 21
163.8239398653
  0
LINE
  5
476
100
AcDbEntity
  8
7_ALL_FEATURES
100
AcDbLine
 62
7
  6
CONTINUOUS
 10
102.3044702447
 20
114.9027841409
 11
102.3044702447
 21
111.6500391477
  0
LINE
  5
477
100
AcDbEntity
  8
03___PRT_ALL_CURVES
100
AcDbLine
 62
40
  6
CONTINUOUS
 10
32.9211369611
 20
172.0683539493
 11
32.7128035284
 21
172.0683539493
  0
LINE
  5
478
100
AcDbEntity
  8
03___PRT_ALL_CURVES
100
AcDbLine
 62
40
  6
CONTINUOUS
 10
38.8544702447
 20
172.1186968672
 11
37.4044702447
 21
172.1186968672
  0
LINE
  5
479
100
AcDbEntity
  8
03___PRT_ALL_CURVES
100
AcDbLine
 62
40
  6
CONTINUOUS
 10
37.4044702447
 20
172.2407178602
 11
38.8544702447
 21
172.2407178602
  0
LINE
  5
47A
100
AcDbEntity
  8
03___PRT_ALL_CURVES
100
AcDbLine
 62
40
  6
CONTINUOUS
 10
38.8544702447
 20
172.7710179876
 11
37.4044702447
 21
172.7710179876
  0
LINE
  5
47B
100
AcDbEntity
  8
03___PRT_ALL_CURVES
100
AcDbLine
 62
40
  6
CONTINUOUS
 10
37.4044702447
 20
172.863723086
 11
38.8544702447
 21
172.863723086
  0
LINE
  5
47C
100
AcDbEntity
  8
03___PRT_ALL_CURVES
100
AcDbLine
 62
40
  6
CONTINUOUS
 10
38.8544702447
 20
173.2467142904
 11
37.4044702447
 21
173.2467142904
  0
LINE
  5
47D
100
AcDbEntity
  8
03___PRT_ALL_CURVES
100
AcDbLine
 62
40
  6
CONTINUOUS
 10
37.4044702447
 20
173.3090877976
 11
38.8544702447
 21
173.3090877976
  0
LINE
  5
47E
100
AcDbEntity
  8
03___PRT_ALL_CURVES
100
AcDbLine
 62
40
  6
CONTINUOUS
 10
38.8544702447
 20
173.5405739471
 11
37.4044702447
 21
173.5405739471
  0
LINE
  5
47F
100
AcDbEntity
  8
03___PRT_ALL_CURVES
100
AcDbLine
 62
40
  6
CONTINUOUS
 10
37.4044702447
 20
173.5719324861
 11
38.8544702447
 21
173.5719324861
  0
LINE
  5
480
100
AcDbEntity
  8
03___PRT_ALL_CURVES
100
AcDbLine
 62
40
  6
CONTINUOUS
 10
32.7704276598
 20
173.6122540911
 11
32.5044702447
 21
173.6122540911
  0
LINE
  5
481
100
AcDbEntity
  8
03___PRT_ALL_CURVES
100
AcDbLine
 62
40
  6
CONTINUOUS
 10
38.8544702447
 20
173.6493773701
 11
36.1544702447
 21
173.6493773701
  0
LINE
  5
482
100
AcDbEntity
  8
03___PRT_ALL_CURVES
100
AcDbLine
 62
40
  6
CONTINUOUS
 10
32.5044702447
 20
173.6500373525
 11
32.7704276598
 21
173.6500373525
  0
LINE
  5
483
100
AcDbEntity
  8
02___PRT_ALL_AXES
100
AcDbLine
 62
7
  6
CONTINUOUS
 10
98.8044672244
 20
173.6500391477
 11
79.3044700432
 21
173.6500391477
  0
LINE
  5
484
100
AcDbEntity
  8
02___PRT_ALL_AXES
100
AcDbLine
 62
7
  6
CONTINUOUS
 10
78.5044702447
 20
173.6500391477
 11
39.8044702447
 21
173.6500391477
  0
LINE
  5
485
100
AcDbEntity
  8
02___PRT_ALL_AXES
100
AcDbLine
 62
7
  6
CONTINUOUS
 10
39.2044702447
 20
173.6500391477
 11
30.6044702447
 21
173.6500391477
  0
LINE
  5
486
100
AcDbEntity
  8
7_ALL_FEATURES
100
AcDbLine
 62
7
  6
CONTINUOUS
 10
121.7312864177
 20
116.7416200596
 11
98.9446945042
 21
160.1367886058
  0
LINE
  5
487
100
AcDbEntity
  8
7_ALL_FEATURES
100
AcDbLine
 62
7
  6
CONTINUOUS
 10
99.3044702447
 20
173.1500362162
 11
98.8044672244
 21
173.6500391477
  0
LINE
  5
488
100
AcDbEntity
  8
7_ALL_FEATURES
100
AcDbLine
 62
7
  6
CONTINUOUS
 10
122.3044702447
 20
114.4171204209
 11
122.3044702447
 21
111.6500391477
  0
LINE
  5
489
100
AcDbEntity
  8
7_ALL_FEATURES
100
AcDbLine
 62
7
  6
CONTINUOUS
 10
30.3044702447
 20
36.1236493737
 11
30.3044702447
 21
69.5236484633
  0
LINE
  5
48A
100
AcDbEntity
  8
7_ALL_FEATURES
100
AcDbLine
 62
7
  6
CONTINUOUS
 10
30.6044702447
 20
69.8236489185
 11
30.6044702447
 21
68.3542095127
  0
LINE
  5
48B
100
AcDbEntity
  8
7_ALL_FEATURES
100
AcDbLine
 62
7
  6
CONTINUOUS
 10
30.6044702447
 20
68.1028374784
 11
30.6044702447
 21
66.9176833533
  0
LINE
  5
48C
100
AcDbEntity
  8
7_ALL_FEATURES
100
AcDbLine
 62
7
  6
CONTINUOUS
 10
30.6044702447
 20
66.576521864
 11
30.6044702447
 21
65.0431069095
  0
LINE
  5
48D
100
AcDbEntity
  8
7_ALL_FEATURES
100
AcDbLine
 62
7
  6
CONTINUOUS
 10
30.6044702447
 20
64.6424833113
 11
30.6044702447
 21
62.8165707008
  0
LINE
  5
48E
100
AcDbEntity
  8
7_ALL_FEATURES
100
AcDbLine
 62
7
  6
CONTINUOUS
 10
30.6044702447
 20
62.3293415997
 11
30.6044702447
 21
60.2765944403
  0
LINE
  5
48F
100
AcDbEntity
  8
7_ALL_FEATURES
100
AcDbLine
 62
7
  6
CONTINUOUS
 10
30.6044702447
 20
59.7375253732
 11
30.6044702447
 21
35.8236489185
  0
LINE
  5
490
100
AcDbEntity
  8
03___PRT_ALL_CURVES
100
AcDbLine
 62
40
  6
CONTINUOUS
 10
32.5044702447
 20
53.8627113351
 11
32.5044702447
 21
53.7689613342
  0
LINE
  5
491
100
AcDbEntity
  8
03___PRT_ALL_CURVES
100
AcDbLine
 62
40
  6
CONTINUOUS
 10
32.5044702447
 20
45.5777194773
 11
32.5044702447
 21
45.4927475144
  0
LINE
  5
492
100
AcDbEntity
  8
03___PRT_ALL_CURVES
100
AcDbLine
 62
40
  6
CONTINUOUS
 10
32.5044702447
 20
38.823601098
 11
32.5044702447
 21
38.7704766163
  0
LINE
  5
493
100
AcDbEntity
  8
03___PRT_ALL_CURVES
100
AcDbLine
 62
40
  6
CONTINUOUS
 10
32.5044702447
 20
35.9115531729
 11
32.5044702447
 21
35.9022446068
  0
LINE
  5
494
100
AcDbEntity
  8
03___PRT_ALL_CURVES
100
AcDbLine
 62
40
  6
CONTINUOUS
 10
32.5044702447
 20
35.8245985804
 11
32.5044702447
 21
35.823736881
  0
LINE
  5
495
100
AcDbEntity
  8
03___PRT_ALL_CURVES
100
AcDbLine
 62
40
  6
CONTINUOUS
 10
32.5044702447
 20
37.6654827414
 11
32.5044702447
 21
37.7225532876
  0
LINE
  5
496
100
AcDbEntity
  8
03___PRT_ALL_CURVES
100
AcDbLine
 62
40
  6
CONTINUOUS
 10
32.5044702447
 20
38.1601605496
 11
32.5044702447
 21
38.2559255606
  0
LINE
  5
497
100
AcDbEntity
  8
03___PRT_ALL_CURVES
100
AcDbLine
 62
40
  6
CONTINUOUS
 10
32.5044702447
 20
43.2058992303
 11
32.5044702447
 21
43.361497082
  0
LINE
  5
498
100
AcDbEntity
  8
03___PRT_ALL_CURVES
100
AcDbLine
 62
40
  6
CONTINUOUS
 10
32.5044702447
 20
44.2088893897
 11
32.5044702447
 21
44.3710536489
  0
LINE
  5
499
100
AcDbEntity
  8
03___PRT_ALL_CURVES
100
AcDbLine
 62
40
  6
CONTINUOUS
 10
32.5044702447
 20
51.6908363947
 11
32.5044702447
 21
52.8158364339
  0
LINE
  5
49A
100
AcDbEntity
  8
03___PRT_ALL_CURVES
100
AcDbLine
 62
40
  6
CONTINUOUS
 10
32.7704276598
 20
52.6283363947
 11
32.7704276598
 21
51.6908364173
  0
LINE
  5
49B
100
AcDbEntity
  8
03___PRT_ALL_CURVES
100
AcDbLine
 62
40
  6
CONTINUOUS
 10
32.7704276598
 20
37.7082107469
 11
32.7704276598
 21
37.651339996
  0
LINE
  5
49C
100
AcDbEntity
  8
03___PRT_ALL_CURVES
100
AcDbLine
 62
40
  6
CONTINUOUS
 10
32.7704276598
 20
35.8245985804
 11
32.7704276598
 21
35.823736881
  0
LINE
  5
49D
100
AcDbEntity
  8
03___PRT_ALL_CURVES
100
AcDbLine
 62
40
  6
CONTINUOUS
 10
33.0895765579
 20
37.5126640896
 11
33.0895765579
 21
37.4452059779
  0
LINE
  5
49E
100
AcDbEntity
  8
03___PRT_ALL_CURVES
100
AcDbLine
 62
40
  6
CONTINUOUS
 10
33.1294702447
 20
35.9022446067
 11
33.1294702447
 21
35.9115531727
  0
LINE
  5
49F
100
AcDbEntity
  8
03___PRT_ALL_CURVES
100
AcDbLine
 62
40
  6
CONTINUOUS
 10
33.1294702447
 20
38.7704766171
 11
33.1294702447
 21
38.8236010989
  0
LINE
  5
4A0
100
AcDbEntity
  8
03___PRT_ALL_CURVES
100
AcDbLine
 62
40
  6
CONTINUOUS
 10
33.1294702447
 20
45.492747512
 11
33.1294702447
 21
45.5777194749
  0
LINE
  5
4A1
100
AcDbEntity
  8
03___PRT_ALL_CURVES
100
AcDbLine
 62
40
  6
CONTINUOUS
 10
33.1294702447
 20
53.7689613351
 11
33.1294702447
 21
53.8627113359
  0
LINE
  5
4A2
100
AcDbEntity
  8
03___PRT_ALL_CURVES
100
AcDbLine
 62
40
  6
CONTINUOUS
 10
33.6214915372
 20
35.823736881
 11
33.6214915372
 21
35.8245985804
  0
LINE
  5
4A3
100
AcDbEntity
  8
7_ALL_FEATURES
100
AcDbLine
 62
7
  6
CONTINUOUS
 10
30.3044702447
 20
69.5236489185
 11
30.6044702447
 21
69.8236489185
  0
LINE
  5
4A4
100
AcDbEntity
  8
7_ALL_FEATURES
100
AcDbLine
 62
7
  6
CONTINUOUS
 10
30.3044702447
 20
36.1236489185
 11
30.6044702447
 21
35.8236489185
  0
LINE
  5
4A5
100
AcDbEntity
  8
03___PRT_ALL_CURVES
100
AcDbLine
 62
40
  6
CONTINUOUS
 10
33.8342574692
 20
35.8245985804
 11
33.8342574692
 21
35.823736881
  0
LINE
  5
4A6
100
AcDbEntity
  8
03___PRT_ALL_CURVES
100
AcDbLine
 62
40
  6
CONTINUOUS
 10
33.9406404353
 20
44.2088893897
 11
33.9406404353
 21
43.7550414057
  0
LINE
  5
4A7
100
AcDbEntity
  8
03___PRT_ALL_CURVES
100
AcDbLine
 62
40
  6
CONTINUOUS
 10
33.9406404353
 20
44.3710536538
 11
33.9406404353
 21
44.6436256305
  0
LINE
  5
4A8
100
AcDbEntity
  8
03___PRT_ALL_CURVES
100
AcDbLine
 62
40
  6
CONTINUOUS
 10
34.2597894079
 20
44.6436256396
 11
34.2597894079
 21
44.3710536627
  0
LINE
  5
4A9
100
AcDbEntity
  8
03___PRT_ALL_CURVES
100
AcDbLine
 62
40
  6
CONTINUOUS
 10
34.2597894079
 20
44.2088893897
 11
34.2597894079
 21
43.5705797811
  0
LINE
  5
4AA
100
AcDbEntity
  8
03___PRT_ALL_CURVES
100
AcDbLine
 62
40
  6
CONTINUOUS
 10
34.7385127924
 20
35.823736881
 11
34.7385127924
 21
35.8245985804
  0
LINE
  5
4AB
100
AcDbEntity
  8
03___PRT_ALL_CURVES
100
AcDbLine
 62
40
  6
CONTINUOUS
 10
34.7385127924
 20
37.5399986082
 11
34.7385127924
 21
37.9436743718
  0
LINE
  5
4AC
100
AcDbEntity
  8
03___PRT_ALL_CURVES
100
AcDbLine
 62
40
  6
CONTINUOUS
 10
35.0044702447
 20
52.1908364096
 11
35.0044702447
 21
52.0033363805
  0
LINE
  5
4AD
100
AcDbEntity
  8
03___PRT_ALL_CURVES
100
AcDbLine
 62
40
  6
CONTINUOUS
 10
35.0044702447
 20
44.3710536538
 11
35.0044702447
 21
44.2088893945
  0
LINE
  5
4AE
100
AcDbEntity
  8
03___PRT_ALL_CURVES
100
AcDbLine
 62
40
  6
CONTINUOUS
 10
35.0044702447
 20
43.361497083
 11
35.0044702447
 21
43.2058992313
  0
LINE
  5
4AF
100
AcDbEntity
  8
03___PRT_ALL_CURVES
100
AcDbLine
 62
40
  6
CONTINUOUS
 10
35.0044702447
 20
38.2559255568
 11
35.0044702447
 21
38.1601605459
  0
LINE
  5
4B0
100
AcDbEntity
  8
03___PRT_ALL_CURVES
100
AcDbLine
 62
40
  6
CONTINUOUS
 10
35.0044702447
 20
37.9436743746
 11
35.0044702447
 21
37.4318650959
  0
LINE
  5
4B1
100
AcDbEntity
  8
03___PRT_ALL_CURVES
100
AcDbLine
 62
40
  6
CONTINUOUS
 10
35.0044702447
 20
35.8236650747
 11
35.0044702447
 21
35.8249576331
  0
LINE
  5
4B2
100
AcDbEntity
  8
7_ALL_FEATURES
100
AcDbLine
 62
7
  6
CONTINUOUS
 10
39.2044702447
 20
68.1028374784
 11
39.2044702447
 21
66.9176833533
  0
LINE
  5
4B3
100
AcDbEntity
  8
7_ALL_FEATURES
100
AcDbLine
 62
7
  6
CONTINUOUS
 10
39.2044702447
 20
66.576521864
 11
39.2044702447
 21
65.0431069095
  0
LINE
  5
4B4
100
AcDbEntity
  8
7_ALL_FEATURES
100
AcDbLine
 62
7
  6
CONTINUOUS
 10
39.2044702447
 20
64.6424833113
 11
39.2044702447
 21
62.8165707008
  0
LINE
  5
4B5
100
AcDbEntity
  8
7_ALL_FEATURES
100
AcDbLine
 62
7
  6
CONTINUOUS
 10
39.2044702447
 20
62.3293415997
 11
39.2044702447
 21
60.2765944403
  0
LINE
  5
4B6
100
AcDbEntity
  8
7_ALL_FEATURES
100
AcDbLine
 62
7
  6
CONTINUOUS
 10
39.2044702447
 20
35.8236489185
 11
39.2044702447
 21
59.7375253732
  0
LINE
  5
4B7
100
AcDbEntity
  8
7_ALL_FEATURES
100
AcDbLine
 62
7
  6
CONTINUOUS
 10
39.2044702447
 20
68.3542095127
 11
39.2044702447
 21
69.8236489185
  0
LINE
  5
4B8
100
AcDbEntity
  8
7_ALL_FEATURES
100
AcDbLine
 62
7
  6
CONTINUOUS
 10
39.5044702447
 20
69.5236484633
 11
39.5044702447
 21
36.1236493737
  0
LINE
  5
4B9
100
AcDbEntity
  8
7_ALL_FEATURES
100
AcDbLine
 62
7
  6
CONTINUOUS
 10
39.8044702447
 20
69.8165031435
 11
39.8044702447
 21
35.8307946935
  0
LINE
  5
4BA
100
AcDbEntity
  8
7_ALL_FEATURES
100
AcDbLine
 62
7
  6
CONTINUOUS
 10
40.7973244716
 20
69.8165031435
 11
40.8044702456
 21
69.8236489176
  0
LINE
  5
4BB
100
AcDbEntity
  8
7_ALL_FEATURES
100
AcDbLine
 62
7
  6
CONTINUOUS
 10
39.5044702447
 20
69.5224654037
 11
39.5050613761
 21
69.5230496114
  0
LINE
  5
4BC
100
AcDbEntity
  8
7_ALL_FEATURES
100
AcDbLine
 62
7
  6
CONTINUOUS
 10
39.505061727
 20
36.1242484031
 11
39.5044702447
 21
36.1248324333
  0
LINE
  5
4BD
100
AcDbEntity
  8
0
100
AcDbLine
 62
2
  6
CONTINUOUS
 10
40.5044702447
 20
35.8307946935
 11
40.5044702447
 21
35.8236489185
  0
LINE
  5
4BE
100
AcDbEntity
  8
0
100
AcDbLine
 62
2
  6
CONTINUOUS
 10
40.5044702447
 20
69.8165031435
 11
40.5044702447
 21
69.8236489185
  0
LINE
  5
4BF
100
AcDbEntity
  8
7_ALL_FEATURES
100
AcDbLine
 62
7
  6
CONTINUOUS
 10
40.7973244716
 20
35.8307946935
 11
40.8044702456
 21
35.8236489194
  0
LINE
  5
4C0
100
AcDbEntity
  8
03___PRT_ALL_CURVES
100
AcDbLine
 62
40
  6
CONTINUOUS
 10
32.7128035284
 20
53.9564613351
 11
32.5044702447
 21
53.8627113351
  0
LINE
  5
4C1
100
AcDbEntity
  8
03___PRT_ALL_CURVES
100
AcDbLine
 62
40
  6
CONTINUOUS
 10
32.9211369611
 20
53.6752113351
 11
33.1294702447
 21
53.7689613351
  0
LINE
  5
4C2
100
AcDbEntity
  8
3_ALL_AXES
100
AcDbLine
 62
7
  6
CONTINUOUS
 10
90.0545095716
 20
31.9736489185
 11
94.5544309178
 21
31.9736489185
  0
LINE
  5
4C3
100
AcDbEntity
  8
3_ALL_AXES
100
AcDbLine
 62
7
  6
CONTINUOUS
 10
87.3044702447
 20
34.1236489185
 11
97.3044702447
 21
34.1236489185
  0
LINE
  5
4C4
100
AcDbEntity
  8
7_ALL_FEATURES
100
AcDbLine
 62
7
  6
CONTINUOUS
 10
43.2098582594
 20
35.8268709999
 11
43.2544702447
 21
35.8236489185
  0
LINE
  5
4C5
100
AcDbEntity
  8
7_ALL_FEATURES
100
AcDbLine
 62
7
  6
CONTINUOUS
 10
39.5044702447
 20
36.1236489185
 11
39.2044702447
 21
35.8236489185
  0
LINE
  5
4C6
100
AcDbEntity
  8
3_ALL_AXES
100
AcDbLine
 62
7
  6
CONTINUOUS
 10
87.3044702447
 20
35.1236489185
 11
97.3044702447
 21
35.1236489185
  0
LINE
  5
4C7
100
AcDbEntity
  8
7_ALL_FEATURES
100
AcDbLine
 62
7
  6
CONTINUOUS
 10
122.299042185
 20
35.2236489185
 11
84.815040221
 21
35.2236489185
  0
LINE
  5
4C8
100
AcDbEntity
  8
02___PRT_ALL_AXES
100
AcDbLine
 62
7
  6
CONTINUOUS
 10
39.2044702447
 20
35.8236489185
 11
30.6044702447
 21
35.8236489185
  0
LINE
  5
4C9
100
AcDbEntity
  8
7_ALL_FEATURES
100
AcDbLine
 62
7
  6
CONTINUOUS
 10
40.8044702447
 20
35.8236489185
 11
43.2044702447
 21
35.8236489185
  0
LINE
  5
4CA
100
AcDbEntity
  8
7_ALL_FEATURES
100
AcDbLine
 62
7
  6
CONTINUOUS
 10
43.2544702447
 20
35.8236489185
 11
78.5044702447
 21
35.8236489185
  0
LINE
  5
4CB
100
AcDbEntity
  8
03___PRT_ALL_CURVES
100
AcDbLine
 62
40
  6
CONTINUOUS
 10
36.1544702447
 20
35.8243106961
 11
38.8544702447
 21
35.8243106961
  0
LINE
  5
4CC
100
AcDbEntity
  8
7_ALL_FEATURES
100
AcDbLine
 62
7
  6
CONTINUOUS
 10
84.3044702447
 20
35.8264425634
 11
79.3044702447
 21
35.8264425634
  0
LINE
  5
4CD
100
AcDbEntity
  8
03___PRT_ALL_CURVES
100
AcDbLine
 62
40
  6
CONTINUOUS
 10
33.249151156
 20
35.830775366
 11
33.14276819
 21
35.830775366
  0
LINE
  5
4CE
100
AcDbEntity
  8
7_ALL_FEATURES
100
AcDbLine
 62
7
  6
CONTINUOUS
 10
40.8557341075
 20
35.8307946935
 11
39.8044702447
 21
35.8307946935
  0
LINE
  5
4CF
100
AcDbEntity
  8
03___PRT_ALL_CURVES
100
AcDbLine
 62
40
  6
CONTINUOUS
 10
34.366172374
 20
35.8317092637
 11
34.2065979249
 21
35.8317092637
  0
LINE
  5
4D0
100
AcDbEntity
  8
03___PRT_ALL_CURVES
100
AcDbLine
 62
40
  6
CONTINUOUS
 10
33.302342639
 20
35.8360202202
 11
33.14276819
 21
35.8360202202
  0
LINE
  5
4D1
100
AcDbEntity
  8
03___PRT_ALL_CURVES
100
AcDbLine
 62
40
  6
CONTINUOUS
 10
34.366172374
 20
35.8372418514
 11
34.2065979249
 21
35.8372418514
  0
LINE
  5
4D2
100
AcDbEntity
  8
03___PRT_ALL_CURVES
100
AcDbLine
 62
40
  6
CONTINUOUS
 10
32.7128035284
 20
35.8934602859
 11
32.9211369611
 21
35.8934602859
  0
LINE
  5
4D3
100
AcDbEntity
  8
03___PRT_ALL_CURVES
100
AcDbLine
 62
40
  6
CONTINUOUS
 10
38.8544702447
 20
35.9017555801
 11
37.4044702447
 21
35.9017555801
  0
LINE
  5
4D4
100
AcDbEntity
  8
03___PRT_ALL_CURVES
100
AcDbLine
 62
40
  6
CONTINUOUS
 10
32.9211369611
 20
35.9213868507
 11
32.7128035284
 21
35.9213868507
  0
LINE
  5
4D5
100
AcDbEntity
  8
03___PRT_ALL_CURVES
100
AcDbLine
 62
40
  6
CONTINUOUS
 10
37.4044702447
 20
35.933114119
 11
38.8544702447
 21
35.933114119
  0
LINE
  5
4D6
100
AcDbEntity
  8
03___PRT_ALL_CURVES
100
AcDbLine
 62
40
  6
CONTINUOUS
 10
38.8544702447
 20
36.1646002686
 11
37.4044702447
 21
36.1646002686
  0
LINE
  5
4D7
100
AcDbEntity
  8
03___PRT_ALL_CURVES
100
AcDbLine
 62
40
  6
CONTINUOUS
 10
37.4044702447
 20
36.2269737758
 11
38.8544702447
 21
36.2269737758
  0
LINE
  5
4D8
100
AcDbEntity
  8
03___PRT_ALL_CURVES
100
AcDbLine
 62
40
  6
CONTINUOUS
 10
38.8544702447
 20
36.6099649802
 11
37.4044702447
 21
36.6099649802
  0
LINE
  5
4D9
100
AcDbEntity
  8
03___PRT_ALL_CURVES
100
AcDbLine
 62
40
  6
CONTINUOUS
 10
37.4044702447
 20
36.7026700785
 11
38.8544702447
 21
36.7026700785
  0
LINE
  5
4DA
100
AcDbEntity
  8
7_ALL_FEATURES
100
AcDbLine
 62
3
  6
CONTINUOUS
 10
84.815040221
 20
36.7236489185
 11
122.299042185
 21
36.7236489185
  0
LINE
  5
4DB
100
AcDbEntity
  8
03___PRT_ALL_CURVES
100
AcDbLine
 62
40
  6
CONTINUOUS
 10
38.8544702447
 20
37.232970206
 11
37.4044702447
 21
37.232970206
  0
LINE
  5
4DC
100
AcDbEntity
  8
03___PRT_ALL_CURVES
100
AcDbLine
 62
40
  6
CONTINUOUS
 10
37.4044702447
 20
37.354991199
 11
38.8544702447
 21
37.354991199
  0
LINE
  5
4DD
100
AcDbEntity
  8
03___PRT_ALL_CURVES
100
AcDbLine
 62
40
  6
CONTINUOUS
 10
35.0044702447
 20
37.4318650725
 11
34.7385127924
 21
37.4318650725
  0
LINE
  5
4DE
100
AcDbEntity
  8
3_ALL_AXES
100
AcDbLine
 62
7
  6
CONTINUOUS
 10
97.3044702447
 20
37.7236489185
 11
87.3044702447
 21
37.7236489185
  0
LINE
  5
4DF
100
AcDbEntity
  8
7_ALL_FEATURES
100
AcDbLine
 62
7
  6
CONTINUOUS
 10
99.3044702447
 20
37.8236489185
 11
84.3044702447
 21
37.8236489185
  0
LINE
  5
4E0
100
AcDbEntity
  8
03___PRT_ALL_CURVES
100
AcDbLine
 62
40
  6
CONTINUOUS
 10
33.195959673
 20
37.8538806308
 11
33.0895765579
 21
37.8538806308
  0
LINE
  5
4E1
100
AcDbEntity
  8
03___PRT_ALL_CURVES
100
AcDbLine
 62
40
  6
CONTINUOUS
 10
33.0895765579
 20
37.9436743746
 11
33.195959673
 21
37.9436743746
  0
LINE
  5
4E2
100
AcDbEntity
  8
03___PRT_ALL_CURVES
100
AcDbLine
 62
40
  6
CONTINUOUS
 10
34.7385127924
 20
37.9436743746
 11
35.0044702447
 21
37.9436743746
  0
LINE
  5
4E3
100
AcDbEntity
  8
03___PRT_ALL_CURVES
100
AcDbLine
 62
40
  6
CONTINUOUS
 10
38.8544702447
 20
38.0267901704
 11
36.1544702447
 21
38.0267901704
  0
LINE
  5
4E4
100
AcDbEntity
  8
03___PRT_ALL_CURVES
100
AcDbLine
 62
40
  6
CONTINUOUS
 10
33.302342639
 20
38.0661867222
 11
32.8768106259
 21
38.0661867222
  0
LINE
  5
4E5
100
AcDbEntity
  8
03___PRT_ALL_CURVES
100
AcDbLine
 62
40
  6
CONTINUOUS
 10
32.5044702447
 20
53.7689613351
 11
32.7128035284
 21
53.6752113351
  0
LINE
  5
4E6
100
AcDbEntity
  8
03___PRT_ALL_CURVES
100
AcDbLine
 62
40
  6
CONTINUOUS
 10
33.1294702447
 20
53.8627113351
 11
32.9211369611
 21
53.9564613351
  0
LINE
  5
4E7
100
AcDbEntity
  8
7_ALL_FEATURES
100
AcDbLine
 62
7
  6
CONTINUOUS
 10
39.5044702447
 20
69.5236489185
 11
39.2044702447
 21
69.8236489185
  0
LINE
  5
4E8
100
AcDbEntity
  8
7_ALL_FEATURES
100
AcDbLine
 62
7
  6
CONTINUOUS
 10
43.2078350885
 20
35.8270137641
 11
43.2044702438
 21
35.8236489194
  0
LINE
  5
4E9
100
AcDbEntity
  8
7_ALL_FEATURES
100
AcDbLine
 62
7
  6
CONTINUOUS
 10
79.3044702527
 20
69.8236489097
 11
78.8044702524
 21
69.3236489089
  0
LINE
  5
4EA
100
AcDbEntity
  8
0
100
AcDbLine
 62
2
  6
CONTINUOUS
 10
40.5875904886
 20
35.8307814045
 11
40.5044702447
 21
35.8236489185
  0
LINE
  5
4EB
100
AcDbEntity
  8
0
100
AcDbLine
 62
2
  6
CONTINUOUS
 10
40.5044702447
 20
35.8236489185
 11
40.5875704069
 21
35.8307797184
  0
LINE
  5
4EC
100
AcDbEntity
  8
03___PRT_ALL_CURVES
100
AcDbLine
 62
40
  6
CONTINUOUS
 10
35.0044702447
 20
38.1601605496
 11
32.9300021089
 21
38.1601605496
  0
LINE
  5
4ED
100
AcDbEntity
  8
03___PRT_ALL_CURVES
100
AcDbLine
 62
40
  6
CONTINUOUS
 10
36.1544702447
 20
38.1767901704
 11
38.8544702447
 21
38.1767901704
  0
LINE
  5
4EE
100
AcDbEntity
  8
7_ALL_FEATURES
100
AcDbLine
 62
9
  6
CONTINUOUS
 10
102.3044702447
 20
38.2236489185
 11
122.3044702447
 21
38.2236489185
  0
LINE
  5
4EF
100
AcDbEntity
  8
03___PRT_ALL_CURVES
100
AcDbLine
 62
40
  6
CONTINUOUS
 10
32.5044702447
 20
38.2559255568
 11
35.0044702447
 21
38.2559255568
  0
LINE
  5
4F0
100
AcDbEntity
  8
03___PRT_ALL_CURVES
100
AcDbLine
 62
40
  6
CONTINUOUS
 10
32.7128035284
 20
38.7178035801
 11
32.9211369611
 21
38.7178035801
  0
LINE
  5
4F1
100
AcDbEntity
  8
03___PRT_ALL_CURVES
100
AcDbLine
 62
40
  6
CONTINUOUS
 10
32.9211369611
 20
38.8771775996
 11
32.7128035284
 21
38.8771775996
  0
LINE
  5
4F2
100
AcDbEntity
  8
03___PRT_ALL_CURVES
100
AcDbLine
 62
40
  6
CONTINUOUS
 10
38.8544702447
 20
38.9827276156
 11
37.4044702447
 21
38.9827276156
  0
LINE
  5
4F3
100
AcDbEntity
  8
03___PRT_ALL_CURVES
100
AcDbLine
 62
40
  6
CONTINUOUS
 10
37.4044702447
 20
39.1590631913
 11
38.8544702447
 21
39.1590631913
  0
LINE
  5
4F4
100
AcDbEntity
  8
03___PRT_ALL_CURVES
100
AcDbLine
 62
40
  6
CONTINUOUS
 10
38.8544702447
 20
40.090309091
 11
37.4044702447
 21
40.090309091
  0
LINE
  5
4F5
100
AcDbEntity
  8
03___PRT_ALL_CURVES
100
AcDbLine
 62
40
  6
CONTINUOUS
 10
37.4044702447
 20
40.2910482729
 11
38.8544702447
 21
40.2910482729
  0
LINE
  5
4F6
100
AcDbEntity
  8
03___PRT_ALL_CURVES
100
AcDbLine
 62
40
  6
CONTINUOUS
 10
38.8544702447
 20
41.3373997022
 11
37.4044702447
 21
41.3373997022
  0
LINE
  5
4F7
100
AcDbEntity
  8
03___PRT_ALL_CURVES
100
AcDbLine
 62
40
  6
CONTINUOUS
 10
35.0044702447
 20
52.0033363872
 11
32.7704276598
 21
52.6283363947
  0
LINE
  5
4F8
100
AcDbEntity
  8
03___PRT_ALL_CURVES
100
AcDbLine
 62
40
  6
CONTINUOUS
 10
32.7704276598
 20
52.8158363947
 11
35.0044702447
 21
52.1908364096
  0
LINE
  5
4F9
100
AcDbEntity
  8
7_ALL_FEATURES
100
AcDbLine
 62
7
  6
CONTINUOUS
 10
43.2078350945
 20
69.8202840669
 11
43.2044702438
 21
69.8236489176
  0
LINE
  5
4FA
100
AcDbEntity
  8
03___PRT_ALL_CURVES
100
AcDbLine
 62
40
  6
CONTINUOUS
 10
37.4044702447
 20
41.5603431499
 11
38.8544702447
 21
41.5603431499
  0
LINE
  5
4FB
100
AcDbEntity
  8
03___PRT_ALL_CURVES
100
AcDbLine
 62
40
  6
CONTINUOUS
 10
38.8544702447
 20
42.7103360635
 11
37.4044702447
 21
42.7103360635
  0
LINE
  5
4FC
100
AcDbEntity
  8
03___PRT_ALL_CURVES
100
AcDbLine
 62
40
  6
CONTINUOUS
 10
37.4044702447
 20
42.9530411618
 11
38.8544702447
 21
42.9530411618
  0
LINE
  5
4FD
100
AcDbEntity
  8
03___PRT_ALL_CURVES
100
AcDbLine
 62
40
  6
CONTINUOUS
 10
33.302342639
 20
43.0513448445
 11
32.8768106259
 21
43.0513448445
  0
LINE
  5
4FE
100
AcDbEntity
  8
03___PRT_ALL_CURVES
100
AcDbLine
 62
40
  6
CONTINUOUS
 10
35.0044702447
 20
43.2058992303
 11
32.9300021089
 21
43.2058992303
  0
LINE
  5
4FF
100
AcDbEntity
  8
03___PRT_ALL_CURVES
100
AcDbLine
 62
40
  6
CONTINUOUS
 10
32.5044702447
 20
43.361497083
 11
35.0044702447
 21
43.361497083
  0
LINE
  5
500
100
AcDbEntity
  8
03___PRT_ALL_CURVES
100
AcDbLine
 62
40
  6
CONTINUOUS
 10
34.2597894079
 20
43.5705797774
 11
33.9406404353
 21
43.5705797774
  0
LINE
  5
501
100
AcDbEntity
  8
03___PRT_ALL_CURVES
100
AcDbLine
 62
40
  6
CONTINUOUS
 10
38.8544702447
 20
44.1940759967
 11
36.1544702447
 21
44.1940759967
  0
LINE
  5
502
100
AcDbEntity
  8
03___PRT_ALL_CURVES
100
AcDbLine
 62
40
  6
CONTINUOUS
 10
35.0044702447
 20
44.2088893897
 11
34.2597894079
 21
44.2088893897
  0
LINE
  5
503
100
AcDbEntity
  8
03___PRT_ALL_CURVES
100
AcDbLine
 62
40
  6
CONTINUOUS
 10
32.9300021089
 20
44.2088893897
 11
33.9406404353
 21
44.2088893897
  0
LINE
  5
504
100
AcDbEntity
  8
03___PRT_ALL_CURVES
100
AcDbLine
 62
40
  6
CONTINUOUS
 10
32.5044702447
 20
44.3710536538
 11
33.9406404353
 21
44.3710536538
  0
LINE
  5
505
100
AcDbEntity
  8
03___PRT_ALL_CURVES
100
AcDbLine
 62
40
  6
CONTINUOUS
 10
34.2597894079
 20
44.3710536538
 11
35.0044702447
 21
44.3710536538
  0
LINE
  5
506
100
AcDbEntity
  8
03___PRT_ALL_CURVES
100
AcDbLine
 62
40
  6
CONTINUOUS
 10
36.1544702447
 20
44.4538836179
 11
38.8544702447
 21
44.4538836179
  0
LINE
  5
507
100
AcDbEntity
  8
03___PRT_ALL_CURVES
100
AcDbLine
 62
40
  6
CONTINUOUS
 10
33.9406404353
 20
44.6436256396
 11
34.2597894079
 21
44.6436256396
  0
LINE
  5
508
100
AcDbEntity
  8
03___PRT_ALL_CURVES
100
AcDbLine
 62
40
  6
CONTINUOUS
 10
32.7128035284
 20
45.4080364072
 11
32.9211369611
 21
45.4080364072
  0
LINE
  5
509
100
AcDbEntity
  8
03___PRT_ALL_CURVES
100
AcDbLine
 62
40
  6
CONTINUOUS
 10
32.9211369611
 20
45.6629528156
 11
32.7128035284
 21
45.6629528156
  0
LINE
  5
50A
100
AcDbEntity
  8
03___PRT_ALL_CURVES
100
AcDbLine
 62
40
  6
CONTINUOUS
 10
38.8544702447
 20
45.7723633368
 11
37.4044702447
 21
45.7723633368
  0
LINE
  5
50B
100
AcDbEntity
  8
03___PRT_ALL_CURVES
100
AcDbLine
 62
40
  6
CONTINUOUS
 10
37.4044702447
 20
46.0464269741
 11
38.8544702447
 21
46.0464269741
  0
LINE
  5
50C
100
AcDbEntity
  8
03___PRT_ALL_CURVES
100
AcDbLine
 62
40
  6
CONTINUOUS
 10
38.8544702447
 20
47.4279060372
 11
37.4044702447
 21
47.4279060372
  0
LINE
  5
50D
100
AcDbEntity
  8
03___PRT_ALL_CURVES
100
AcDbLine
 62
40
  6
CONTINUOUS
 10
37.4044702447
 20
47.7132229921
 11
38.8544702447
 21
47.7132229921
  0
LINE
  5
50E
100
AcDbEntity
  8
03___PRT_ALL_CURVES
100
AcDbLine
 62
40
  6
CONTINUOUS
 10
38.8544702447
 20
49.1425656258
 11
37.4044702447
 21
49.1425656258
  0
LINE
  5
50F
100
AcDbEntity
  8
03___PRT_ALL_CURVES
100
AcDbLine
 62
40
  6
CONTINUOUS
 10
37.4044702447
 20
49.436009906
 11
38.8544702447
 21
49.436009906
  0
LINE
  5
510
100
AcDbEntity
  8
03___PRT_ALL_CURVES
100
AcDbLine
 62
40
  6
CONTINUOUS
 10
38.8544702447
 20
50.8975559333
 11
37.4044702447
 21
50.8975559333
  0
LINE
  5
511
100
AcDbEntity
  8
03___PRT_ALL_CURVES
100
AcDbLine
 62
40
  6
CONTINUOUS
 10
37.4044702447
 20
51.1959125019
 11
38.8544702447
 21
51.1959125019
  0
LINE
  5
512
100
AcDbEntity
  8
7_ALL_FEATURES
100
AcDbLine
 62
7
  6
CONTINUOUS
 10
78.5044702447
 20
69.8236489185
 11
78.5044702447
 21
35.8236489185
  0
LINE
  5
513
100
AcDbEntity
  8
7_ALL_FEATURES
100
AcDbLine
 62
7
  6
CONTINUOUS
 10
78.8044702447
 20
69.5236489185
 11
78.8044702447
 21
36.1236489185
  0
LINE
  5
514
100
AcDbEntity
  8
7_ALL_FEATURES
100
AcDbLine
 62
7
  6
CONTINUOUS
 10
79.3044702447
 20
69.8236489177
 11
79.3044702447
 21
35.8264425634
  0
LINE
  5
515
100
AcDbEntity
  8
03___PRT_ALL_CURVES
100
AcDbLine
 62
40
  6
CONTINUOUS
 10
32.7704276598
 20
51.6908363947
 11
32.5044702447
 21
51.6908363947
  0
LINE
  5
516
100
AcDbEntity
  8
03___PRT_ALL_CURVES
100
AcDbLine
 62
40
  6
CONTINUOUS
 10
38.8544702447
 20
52.6736489185
 11
36.1544702447
 21
52.6736489185
  0
LINE
  5
517
100
AcDbEntity
  8
03___PRT_ALL_CURVES
100
AcDbLine
 62
40
  6
CONTINUOUS
 10
32.5044702447
 20
52.8158363947
 11
32.7704276598
 21
52.8158363947
  0
LINE
  5
518
100
AcDbEntity
  8
03___PRT_ALL_CURVES
100
AcDbLine
 62
40
  6
CONTINUOUS
 10
36.1544702447
 20
52.9736489185
 11
38.8544702447
 21
52.9736489185
  0
LINE
  5
519
100
AcDbEntity
  8
03___PRT_ALL_CURVES
100
AcDbLine
 62
40
  6
CONTINUOUS
 10
32.7128035284
 20
53.6752113351
 11
32.9211369611
 21
53.6752113351
  0
LINE
  5
51A
100
AcDbEntity
  8
03___PRT_ALL_CURVES
100
AcDbLine
 62
40
  6
CONTINUOUS
 10
32.9211369611
 20
53.9564613351
 11
32.7128035284
 21
53.9564613351
  0
LINE
  5
51B
100
AcDbEntity
  8
7_ALL_FEATURES
100
AcDbLine
 62
7
  6
CONTINUOUS
 10
84.3044702447
 20
35.8264425634
 11
84.3044702447
 21
37.8236489185
  0
LINE
  5
51C
100
AcDbEntity
  8
7_ALL_FEATURES
100
AcDbLine
 62
7
  6
CONTINUOUS
 10
84.815040221
 20
36.7236489185
 11
84.815040221
 21
35.2236489185
  0
LINE
  5
51D
100
AcDbEntity
  8
7_ALL_FEATURES
100
AcDbLine
 62
7
  6
CONTINUOUS
 10
84.8597021178
 20
36.7236489185
 11
84.8597021178
 21
35.2236489185
  0
LINE
  5
51E
100
AcDbEntity
  8
7_ALL_FEATURES
100
AcDbLine
 62
7
  6
CONTINUOUS
 10
84.9979408655
 20
36.7236489185
 11
84.9979408655
 21
35.2236489185
  0
LINE
  5
51F
100
AcDbEntity
  8
7_ALL_FEATURES
100
AcDbLine
 62
7
  6
CONTINUOUS
 10
85.130569527
 20
36.7236489185
 11
85.130569527
 21
35.2236489185
  0
LINE
  5
520
100
AcDbEntity
  8
7_ALL_FEATURES
100
AcDbLine
 62
7
  6
CONTINUOUS
 10
85.402846708
 20
36.7236489185
 11
85.402846708
 21
35.2236489185
  0
LINE
  5
521
100
AcDbEntity
  8
7_ALL_FEATURES
100
AcDbLine
 62
7
  6
CONTINUOUS
 10
85.6194122794
 20
36.7236489185
 11
85.6194122794
 21
35.2236489185
  0
LINE
  5
522
100
AcDbEntity
  8
7_ALL_FEATURES
100
AcDbLine
 62
7
  6
CONTINUOUS
 10
86.0174548892
 20
36.7236489185
 11
86.0174548892
 21
35.2236489185
  0
LINE
  5
523
100
AcDbEntity
  8
7_ALL_FEATURES
100
AcDbLine
 62
7
  6
CONTINUOUS
 10
86.3113771352
 20
36.7236489185
 11
86.3113771352
 21
35.2236489185
  0
LINE
  5
524
100
AcDbEntity
  8
7_ALL_FEATURES
100
AcDbLine
 62
7
  6
CONTINUOUS
 10
39.2044702447
 20
59.7375253732
 11
30.6044702447
 21
59.7375253732
  0
LINE
  5
525
100
AcDbEntity
  8
7_ALL_FEATURES
100
AcDbLine
 62
7
  6
CONTINUOUS
 10
30.3044702447
 20
59.8813738896
 11
39.5044702447
 21
59.8813738896
  0
LINE
  5
526
100
AcDbEntity
  8
7_ALL_FEATURES
100
AcDbLine
 62
7
  6
CONTINUOUS
 10
39.2044702447
 20
60.2765944403
 11
30.6044702447
 21
60.2765944403
  0
LINE
  5
527
100
AcDbEntity
  8
7_ALL_FEATURES
100
AcDbLine
 62
7
  6
CONTINUOUS
 10
86.8230908506
 20
36.7236489185
 11
86.8230908506
 21
35.2236489185
  0
LINE
  5
528
100
AcDbEntity
  8
7_ALL_FEATURES
100
AcDbLine
 62
7
  6
CONTINUOUS
 10
87.1854390925
 20
36.7236489185
 11
87.1854390925
 21
35.2236489185
  0
LINE
  5
529
100
AcDbEntity
  8
3_ALL_AXES
100
AcDbLine
 62
7
  6
CONTINUOUS
 10
87.3044702447
 20
37.7236489185
 11
87.3044702447
 21
36.7236489185
  0
LINE
  5
52A
100
AcDbEntity
  8
3_ALL_AXES
100
AcDbLine
 62
7
  6
CONTINUOUS
 10
87.3044702447
 20
34.1236489185
 11
87.3044702447
 21
35.1236489185
  0
LINE
  5
52B
100
AcDbEntity
  8
7_ALL_FEATURES
100
AcDbLine
 62
7
  6
CONTINUOUS
 10
87.7952757512
 20
36.7236489185
 11
87.7952757512
 21
35.2236489185
  0
LINE
  5
52C
100
AcDbEntity
  8
7_ALL_FEATURES
100
AcDbLine
 62
7
  6
CONTINUOUS
 10
88.215040221
 20
36.7236489185
 11
88.215040221
 21
35.2236489185
  0
LINE
  5
52D
100
AcDbEntity
  8
7_ALL_FEATURES
100
AcDbLine
 62
7
  6
CONTINUOUS
 10
88.9044702447
 20
36.7236489185
 11
88.9044702447
 21
35.2236489185
  0
LINE
  5
52E
100
AcDbEntity
  8
7_ALL_FEATURES
100
AcDbLine
 62
7
  6
CONTINUOUS
 10
89.3688966114
 20
36.7236489185
 11
89.3688966114
 21
35.2236489185
  0
LINE
  5
52F
100
AcDbEntity
  8
3_ALL_AXES
100
AcDbLine
 62
7
  6
CONTINUOUS
 10
89.8044702447
 20
37.8236489185
 11
89.8044702447
 21
37.7236489185
  0
LINE
  5
530
100
AcDbEntity
  8
3_ALL_AXES
100
AcDbLine
 62
7
  6
CONTINUOUS
 10
89.8044702447
 20
35.2236489185
 11
89.8044702447
 21
35.1236489185
  0
LINE
  5
531
100
AcDbEntity
  8
7_ALL_FEATURES
100
AcDbLine
 62
7
  6
CONTINUOUS
 10
89.9787332701
 20
36.7236489185
 11
89.9787332701
 21
35.2236489185
  0
LINE
  5
532
100
AcDbEntity
  8
7_ALL_FEATURES
100
AcDbLine
 62
7
  6
CONTINUOUS
 10
78.8044702447
 20
36.1236489185
 11
78.5044702447
 21
35.8236489185
  0
LINE
  5
533
100
AcDbEntity
  8
7_ALL_FEATURES
100
AcDbLine
 62
7
  6
CONTINUOUS
 10
39.2044702447
 20
62.3293415997
 11
30.6044702447
 21
62.3293415997
  0
LINE
  5
534
100
AcDbEntity
  8
7_ALL_FEATURES
100
AcDbLine
 62
7
  6
CONTINUOUS
 10
30.3044702447
 20
62.4023754056
 11
39.5044702447
 21
62.4023754056
  0
LINE
  5
535
100
AcDbEntity
  8
7_ALL_FEATURES
100
AcDbLine
 62
3
  6
CONTINUOUS
 10
117.3044702447
 20
62.4736489185
 11
107.3044702447
 21
62.4736489185
  0
LINE
  5
536
100
AcDbEntity
  8
7_ALL_FEATURES
100
AcDbLine
 62
7
  6
CONTINUOUS
 10
39.2044702447
 20
62.8165707008
 11
30.6044702447
 21
62.8165707008
  0
LINE
  5
537
100
AcDbEntity
  8
7_ALL_FEATURES
100
AcDbLine
 62
7
  6
CONTINUOUS
 10
90.1169720178
 20
36.7236489185
 11
90.1169720178
 21
35.2236489185
  0
LINE
  5
538
100
AcDbEntity
  8
7_ALL_FEATURES
100
AcDbLine
 62
7
  6
CONTINUOUS
 10
90.6119489212
 20
36.7236489185
 11
90.6119489212
 21
35.2236489185
  0
LINE
  5
539
100
AcDbEntity
  8
7_ALL_FEATURES
100
AcDbLine
 62
7
  6
CONTINUOUS
 10
91.1236626366
 20
36.7236489185
 11
91.1236626366
 21
35.2236489185
  0
LINE
  5
53A
100
AcDbEntity
  8
7_ALL_FEATURES
100
AcDbLine
 62
7
  6
CONTINUOUS
 10
91.3959398175
 20
36.7236489185
 11
91.3959398175
 21
35.2236489185
  0
LINE
  5
53B
100
AcDbEntity
  8
7_ALL_FEATURES
100
AcDbLine
 62
7
  6
CONTINUOUS
 10
91.9064276349
 20
36.7236489185
 11
91.9064276349
 21
35.2236489185
  0
LINE
  5
53C
100
AcDbEntity
  8
7_ALL_FEATURES
100
AcDbLine
 62
7
  6
CONTINUOUS
 10
92.3044702447
 20
36.7236489185
 11
92.3044702447
 21
35.2236489185
  0
LINE
  5
53D
100
AcDbEntity
  8
7_ALL_FEATURES
100
AcDbLine
 62
7
  6
CONTINUOUS
 10
92.7025128545
 20
36.7236489185
 11
92.7025128545
 21
35.2236489185
  0
LINE
  5
53E
100
AcDbEntity
  8
7_ALL_FEATURES
100
AcDbLine
 62
7
  6
CONTINUOUS
 10
93.2130006719
 20
36.7236489185
 11
93.2130006719
 21
35.2236489185
  0
LINE
  5
53F
100
AcDbEntity
  8
7_ALL_FEATURES
100
AcDbLine
 62
7
  6
CONTINUOUS
 10
30.3188261345
 20
64.6424833113
 11
39.4901143549
 21
64.6424833113
  0
LINE
  5
540
100
AcDbEntity
  8
7_ALL_FEATURES
100
AcDbLine
 62
7
  6
CONTINUOUS
 10
39.2044702447
 20
65.0431069095
 11
30.6044702447
 21
65.0431069095
  0
LINE
  5
541
100
AcDbEntity
  8
7_ALL_FEATURES
100
AcDbLine
 62
7
  6
CONTINUOUS
 10
39.2044702447
 20
66.576521864
 11
30.6044702447
 21
66.576521864
  0
LINE
  5
542
100
AcDbEntity
  8
7_ALL_FEATURES
100
AcDbLine
 62
7
  6
CONTINUOUS
 10
39.2044702447
 20
66.9176833533
 11
30.6044702447
 21
66.9176833533
  0
LINE
  5
543
100
AcDbEntity
  8
0
100
AcDbLine
 62
2
  6
CONTINUOUS
 10
40.5044702447
 20
69.8236489185
 11
40.5875704069
 21
69.8165181186
  0
LINE
  5
544
100
AcDbEntity
  8
7_ALL_FEATURES
100
AcDbLine
 62
7
  6
CONTINUOUS
 10
78.8044702447
 20
69.5236489185
 11
78.5044702447
 21
69.8236489185
  0
LINE
  5
545
100
AcDbEntity
  8
7_ALL_FEATURES
100
AcDbLine
 62
7
  6
CONTINUOUS
 10
93.4852778528
 20
36.7236489185
 11
93.4852778528
 21
35.2236489185
  0
LINE
  5
546
100
AcDbEntity
  8
7_ALL_FEATURES
100
AcDbLine
 62
7
  6
CONTINUOUS
 10
93.9969915683
 20
36.7236489185
 11
93.9969915683
 21
35.2236489185
  0
LINE
  5
547
100
AcDbEntity
  8
7_ALL_FEATURES
100
AcDbLine
 62
7
  6
CONTINUOUS
 10
94.4919684717
 20
36.7236489185
 11
94.4919684717
 21
35.2236489185
  0
LINE
  5
548
100
AcDbEntity
  8
7_ALL_FEATURES
100
AcDbLine
 62
7
  6
CONTINUOUS
 10
94.6302072193
 20
36.7236489185
 11
94.6302072193
 21
35.2236489185
  0
LINE
  5
549
100
AcDbEntity
  8
3_ALL_AXES
100
AcDbLine
 62
7
  6
CONTINUOUS
 10
94.8044702447
 20
37.8236489185
 11
94.8044702447
 21
37.7236489185
  0
LINE
  5
54A
100
AcDbEntity
  8
3_ALL_AXES
100
AcDbLine
 62
7
  6
CONTINUOUS
 10
94.8044702447
 20
35.2236489185
 11
94.8044702447
 21
35.1236489185
  0
LINE
  5
54B
100
AcDbEntity
  8
7_ALL_FEATURES
100
AcDbLine
 62
7
  6
CONTINUOUS
 10
95.2400438781
 20
36.7236489185
 11
95.2400438781
 21
35.2236489185
  0
LINE
  5
54C
100
AcDbEntity
  8
7_ALL_FEATURES
100
AcDbLine
 62
7
  6
CONTINUOUS
 10
95.7044702447
 20
36.7236489185
 11
95.7044702447
 21
35.2236489185
  0
LINE
  5
54D
100
AcDbEntity
  8
7_ALL_FEATURES
100
AcDbLine
 62
7
  6
CONTINUOUS
 10
96.3939002685
 20
36.7236489185
 11
96.3939002685
 21
35.2236489185
  0
LINE
  5
54E
100
AcDbEntity
  8
7_ALL_FEATURES
100
AcDbLine
 62
7
  6
CONTINUOUS
 10
39.2044702447
 20
68.1028374784
 11
30.6044702447
 21
68.1028374784
  0
LINE
  5
54F
100
AcDbEntity
  8
7_ALL_FEATURES
100
AcDbLine
 62
7
  6
CONTINUOUS
 10
39.2044702447
 20
68.3542095127
 11
30.6044702447
 21
68.3542095127
  0
LINE
  5
550
100
AcDbEntity
  8
7_ALL_FEATURES
100
AcDbLine
 62
7
  6
CONTINUOUS
 10
40.8557341075
 20
69.8165031435
 11
39.8044702447
 21
69.8165031435
  0
LINE
  5
551
100
AcDbEntity
  8
02___PRT_ALL_AXES
100
AcDbLine
 62
7
  6
CONTINUOUS
 10
98.8044672244
 20
69.8236489185
 11
79.3044702607
 21
69.8236489185
  0
LINE
  5
552
100
AcDbEntity
  8
7_ALL_FEATURES
100
AcDbLine
 62
7
  6
CONTINUOUS
 10
43.2044702447
 20
69.8236489185
 11
40.8044702447
 21
69.8236489185
  0
LINE
  5
553
100
AcDbEntity
  8
02___PRT_ALL_AXES
100
AcDbLine
 62
7
  6
CONTINUOUS
 10
39.2044702447
 20
69.8236489185
 11
30.6044702447
 21
69.8236489185
  0
LINE
  5
554
100
AcDbEntity
  8
7_ALL_FEATURES
100
AcDbLine
 62
7
  6
CONTINUOUS
 10
43.2544702447
 20
69.8236489185
 11
78.5044702447
 21
69.8236489185
  0
LINE
  5
555
100
AcDbEntity
  8
7_ALL_FEATURES
100
AcDbLine
 62
7
  6
CONTINUOUS
 10
96.8136647382
 20
36.7236489185
 11
96.8136647382
 21
35.2236489185
  0
LINE
  5
556
100
AcDbEntity
  8
3_ALL_AXES
100
AcDbLine
 62
7
  6
CONTINUOUS
 10
97.3044702447
 20
37.7236489185
 11
97.3044702447
 21
36.7236489185
  0
LINE
  5
557
100
AcDbEntity
  8
3_ALL_AXES
100
AcDbLine
 62
7
  6
CONTINUOUS
 10
97.3044702447
 20
34.1236489185
 11
97.3044702447
 21
35.1236489185
  0
LINE
  5
558
100
AcDbEntity
  8
7_ALL_FEATURES
100
AcDbLine
 62
7
  6
CONTINUOUS
 10
97.423501397
 20
36.7236489185
 11
97.423501397
 21
35.2236489185
  0
LINE
  5
559
100
AcDbEntity
  8
7_ALL_FEATURES
100
AcDbLine
 62
7
  6
CONTINUOUS
 10
97.7858496388
 20
36.7236489185
 11
97.7858496388
 21
35.2236489185
  0
LINE
  5
55A
100
AcDbEntity
  8
7_ALL_FEATURES
100
AcDbLine
 62
7
  6
CONTINUOUS
 10
98.2975633543
 20
36.7236489185
 11
98.2975633543
 21
35.2236489185
  0
LINE
  5
55B
100
AcDbEntity
  8
7_ALL_FEATURES
100
AcDbLine
 62
7
  6
CONTINUOUS
 10
98.8044672244
 20
69.8236489185
 11
98.8044672244
 21
37.8236489185
  0
LINE
  5
55C
100
AcDbEntity
  8
7_ALL_FEATURES
100
AcDbLine
 62
9
  6
CONTINUOUS
 10
98.9446945042
 20
35.2236489185
 11
98.9446945042
 21
36.7236489185
  0
LINE
  5
55D
100
AcDbEntity
  8
7_ALL_FEATURES
100
AcDbLine
 62
7
  6
CONTINUOUS
 10
99.3044702447
 20
69.3236459869
 11
99.3044702447
 21
37.8236489185
  0
LINE
  5
55E
100
AcDbEntity
  8
0
100
AcDbLine
 62
2
  6
CONTINUOUS
 10
43.5002621411
 20
69.8232791356
 11
43.5044702447
 21
69.8236489185
  0
LINE
  5
55F
100
AcDbEntity
  8
7_ALL_FEATURES
100
AcDbLine
 62
7
  6
CONTINUOUS
 10
43.2544702447
 20
69.8236489185
 11
43.2098580905
 21
69.8204269854
  0
LINE
  5
560
100
AcDbEntity
  8
7_ALL_FEATURES
100
AcDbLine
 62
3
  6
CONTINUOUS
 10
102.3044702447
 20
36.7236489185
 11
102.3044702447
 21
57.4736489185
  0
LINE
  5
561
100
AcDbEntity
  8
7_ALL_FEATURES
100
AcDbLine
 62
7
  6
CONTINUOUS
 10
99.3044702447
 20
69.323645987
 11
98.8044672244
 21
69.8236489185
  0
LINE
  5
562
100
AcDbEntity
  8
7_ALL_FEATURES
100
AcDbLine
 62
9
  6
CONTINUOUS
 10
121.7312864177
 20
36.7236489185
 11
121.7312864177
 21
35.2236489185
  0
LINE
  5
563
100
AcDbEntity
  8
7_ALL_FEATURES
100
AcDbLine
 62
7
  6
CONTINUOUS
 10
122.3044702447
 20
36.7236489185
 11
122.3044702447
 21
35.2327044411
  0
LINE
  5
564
100
AcDbEntity
  8
7_ALL_FEATURES
100
AcDbLine
 62
3
  6
CONTINUOUS
 10
122.3044702447
 20
36.7418429708
 11
122.3044702447
 21
57.4736489185
  0
LINE
  5
565
100
AcDbEntity
  8
7_ALL_FEATURES
100
AcDbLine
 62
7
  6
CONTINUOUS
 10
193.991524625
 20
111.6500391477
 11
218.241524625
 21
111.6500391477
  0
LINE
  5
566
100
AcDbEntity
  8
7_ALL_FEATURES
100
AcDbLine
 62
3
  6
CONTINUOUS
 10
193.991524625
 20
113.1500391477
 11
218.241524625
 21
113.1500391477
  0
LINE
  5
567
100
AcDbEntity
  8
7_ALL_FEATURES
100
AcDbLine
 62
9
  6
CONTINUOUS
 10
221.241524625
 20
114.6500391477
 11
219.741524625
 21
114.6500391477
  0
LINE
  5
568
100
AcDbEntity
  8
7_ALL_FEATURES
100
AcDbLine
 62
9
  6
CONTINUOUS
 10
221.241524625
 20
114.9027841409
 11
219.741524625
 21
114.9027841409
  0
LINE
  5
569
100
AcDbEntity
  8
7_ALL_FEATURES
100
AcDbLine
 62
9
  6
CONTINUOUS
 10
221.241524625
 20
116.3646426645
 11
219.741524625
 21
116.3646426645
  0
LINE
  5
56A
100
AcDbEntity
  8
7_ALL_FEATURES
100
AcDbLine
 62
7
  6
CONTINUOUS
 10
186.641524625
 20
157.8500391476
 11
186.641524625
 21
155.4500391477
  0
LINE
  5
56B
100
AcDbEntity
  8
7_ALL_FEATURES
100
AcDbLine
 62
7
  6
CONTINUOUS
 10
186.641524625
 20
157.8500391458
 11
186.687394892
 21
157.8959094127
  0
LINE
  5
56C
100
AcDbEntity
  8
7_ALL_FEATURES
100
AcDbLine
 62
7
  6
CONTINUOUS
 10
188.1109640308
 20
163.5639156023
 11
188.5061845815
 21
163.7077641187
  0
LINE
  5
56D
100
AcDbEntity
  8
7_ALL_FEATURES
100
AcDbLine
 62
7
  6
CONTINUOUS
 10
196.5837996539
 20
171.7853791912
 11
196.7276481704
 21
172.1805997419
  0
LINE
  5
56E
100
AcDbEntity
  8
7_ALL_FEATURES
100
AcDbLine
 62
7
  6
CONTINUOUS
 10
191.8226902322
 20
168.4688735405
 11
191.8226902322
 21
168.8694971387
  0
LINE
  5
56F
100
AcDbEntity
  8
7_ALL_FEATURES
100
AcDbLine
 62
7
  6
CONTINUOUS
 10
194.0627981379
 20
170.3298782873
 11
194.1358319438
 21
170.7440735825
  0
LINE
  5
570
100
AcDbEntity
  8
7_ALL_FEATURES
100
AcDbLine
 62
7
  6
CONTINUOUS
 10
193.991524625
 20
111.6500391477
 11
193.991524625
 21
113.1500391477
  0
LINE
  5
571
100
AcDbEntity
  8
7_ALL_FEATURES
100
AcDbLine
 62
7
  6
CONTINUOUS
 10
188.5061845815
 20
163.7077641187
 11
188.3623360651
 21
164.1029846694
  0
LINE
  5
572
100
AcDbEntity
  8
7_ALL_FEATURES
100
AcDbLine
 62
7
  6
CONTINUOUS
 10
189.9616854854
 20
166.2287656347
 11
189.8886516796
 21
166.6429609299
  0
LINE
  5
573
100
AcDbEntity
  8
7_ALL_FEATURES
100
AcDbLine
 62
7
  6
CONTINUOUS
 10
186.641524625
 20
155.4500391495
 11
186.6876465297
 21
155.4039172449
  0
LINE
  5
574
100
AcDbEntity
  8
7_ALL_FEATURES
100
AcDbLine
 62
9
  6
CONTINUOUS
 10
198.991524625
 20
111.6500391477
 11
198.991524625
 21
113.1500391477
  0
LINE
  5
575
100
AcDbEntity
  8
7_ALL_FEATURES
100
AcDbLine
 62
7
  6
CONTINUOUS
 10
217.7355590598
 20
147.1443464664
 11
217.3213637646
 21
147.0713126606
  0
LINE
  5
576
100
AcDbEntity
  8
7_ALL_FEATURES
100
AcDbLine
 62
7
  6
CONTINUOUS
 10
215.860982616
 20
144.8312047548
 11
215.4603590178
 21
144.8312047548
  0
LINE
  5
577
100
AcDbEntity
  8
7_ALL_FEATURES
100
AcDbLine
 62
7
  6
CONTINUOUS
 10
213.6344464073
 20
142.8971662022
 11
213.2202511121
 21
142.970200008
  0
LINE
  5
578
100
AcDbEntity
  8
7_ALL_FEATURES
100
AcDbLine
 62
7
  6
CONTINUOUS
 10
211.0944701468
 20
141.3708505877
 11
210.6992495961
 21
141.5146991042
  0
LINE
  5
579
100
AcDbEntity
  8
7_ALL_FEATURES
100
AcDbLine
 62
7
  6
CONTINUOUS
 10
219.1720852192
 20
149.736162693
 11
218.7768646685
 21
149.5923141766
  0
LINE
  5
57A
100
AcDbEntity
  8
7_ALL_FEATURES
100
AcDbLine
 62
7
  6
CONTINUOUS
 10
221.241524625
 20
149.1539827322
 11
219.741524625
 21
149.1539827322
  0
LINE
  5
57B
100
AcDbEntity
  8
7_ALL_FEATURES
100
AcDbLine
 62
7
  6
CONTINUOUS
 10
219.741524625
 20
150.6569460381
 11
221.241524625
 21
150.6569460381
  0
LINE
  5
57C
100
AcDbEntity
  8
7_ALL_FEATURES
100
AcDbLine
 62
7
  6
CONTINUOUS
 10
219.741524625
 20
151.1686597536
 11
221.241524625
 21
151.1686597536
  0
LINE
  5
57D
100
AcDbEntity
  8
7_ALL_FEATURES
100
AcDbLine
 62
7
  6
CONTINUOUS
 10
220.641524625
 20
155.4500391495
 11
220.595654358
 21
155.4041688826
  0
LINE
  5
57E
100
AcDbEntity
  8
7_ALL_FEATURES
100
AcDbLine
 62
7
  6
CONTINUOUS
 10
219.8523002001
 20
151.5310079954
 11
221.241524625
 21
151.5310079954
  0
LINE
  5
57F
100
AcDbEntity
  8
3_ALL_AXES
100
AcDbLine
 62
7
  6
CONTINUOUS
 10
222.341524625
 20
151.6500391477
 11
221.341524625
 21
151.6500391477
  0
LINE
  5
580
100
AcDbEntity
  8
7_ALL_FEATURES
100
AcDbLine
 62
7
  6
CONTINUOUS
 10
220.0321415569
 20
152.1408446542
 11
221.241524625
 21
152.1408446542
  0
LINE
  5
581
100
AcDbEntity
  8
7_ALL_FEATURES
100
AcDbLine
 62
7
  6
CONTINUOUS
 10
220.1419752955
 20
152.5606091239
 11
221.241524625
 21
152.5606091239
  0
LINE
  5
582
100
AcDbEntity
  8
7_ALL_FEATURES
100
AcDbLine
 62
7
  6
CONTINUOUS
 10
220.2978034887
 20
153.2500391477
 11
221.241524625
 21
153.2500391477
  0
LINE
  5
583
100
AcDbEntity
  8
7_ALL_FEATURES
100
AcDbLine
 62
7
  6
CONTINUOUS
 10
220.3859748106
 20
153.7144655143
 11
221.241524625
 21
153.7144655143
  0
LINE
  5
584
100
AcDbEntity
  8
7_ALL_FEATURES
100
AcDbLine
 62
7
  6
CONTINUOUS
 10
213.2202511121
 20
142.970200008
 11
213.1472173062
 21
142.5560047129
  0
LINE
  5
585
100
AcDbEntity
  8
7_ALL_FEATURES
100
AcDbLine
 62
7
  6
CONTINUOUS
 10
210.6992495961
 20
141.5146991042
 11
210.5554010797
 21
141.1194785535
  0
LINE
  5
586
100
AcDbEntity
  8
7_ALL_FEATURES
100
AcDbLine
 62
7
  6
CONTINUOUS
 10
221.341524625
 20
154.1500391477
 11
221.241524625
 21
154.1500391477
  0
LINE
  5
587
100
AcDbEntity
  8
7_ALL_FEATURES
100
AcDbLine
 62
7
  6
CONTINUOUS
 10
220.4812782707
 20
154.3243021731
 11
221.241524625
 21
154.3243021731
  0
LINE
  5
588
100
AcDbEntity
  8
7_ALL_FEATURES
100
AcDbLine
 62
7
  6
CONTINUOUS
 10
220.4999004522
 20
154.4625409207
 11
221.241524625
 21
154.4625409207
  0
LINE
  5
589
100
AcDbEntity
  8
7_ALL_FEATURES
100
AcDbLine
 62
7
  6
CONTINUOUS
 10
220.5567239306
 20
154.9575178241
 11
221.241524625
 21
154.9575178241
  0
LINE
  5
58A
100
AcDbEntity
  8
7_ALL_FEATURES
100
AcDbLine
 62
7
  6
CONTINUOUS
 10
220.641524625
 20
155.4692315395
 11
221.241524625
 21
155.4692315395
  0
LINE
  5
58B
100
AcDbEntity
  8
7_ALL_FEATURES
100
AcDbLine
 62
7
  6
CONTINUOUS
 10
220.641524625
 20
155.7415087204
 11
221.241524625
 21
155.7415087204
  0
LINE
  5
58C
100
AcDbEntity
  8
7_ALL_FEATURES
100
AcDbLine
 62
7
  6
CONTINUOUS
 10
220.6364389653
 20
156.2519965379
 11
221.241524625
 21
156.2519965379
  0
LINE
  5
58D
100
AcDbEntity
  8
7_ALL_FEATURES
100
AcDbLine
 62
7
  6
CONTINUOUS
 10
215.4603590178
 20
144.8312047548
 11
215.4603590178
 21
144.4305811566
  0
LINE
  5
58E
100
AcDbEntity
  8
7_ALL_FEATURES
100
AcDbLine
 62
7
  6
CONTINUOUS
 10
220.6412292649
 20
156.6500391477
 11
221.241524625
 21
156.6500391477
  0
LINE
  5
58F
100
AcDbEntity
  8
7_ALL_FEATURES
100
AcDbLine
 62
7
  6
CONTINUOUS
 10
220.6366399303
 20
157.0480817575
 11
221.241524625
 21
157.0480817575
  0
LINE
  5
590
100
AcDbEntity
  8
7_ALL_FEATURES
100
AcDbLine
 62
7
  6
CONTINUOUS
 10
220.641524625
 20
157.5585695749
 11
221.241524625
 21
157.5585695749
  0
LINE
  5
591
100
AcDbEntity
  8
7_ALL_FEATURES
100
AcDbLine
 62
7
  6
CONTINUOUS
 10
220.641524625
 20
157.8308467558
 11
221.241524625
 21
157.8308467558
  0
LINE
  5
592
100
AcDbEntity
  8
7_ALL_FEATURES
100
AcDbLine
 62
7
  6
CONTINUOUS
 10
220.5568111759
 20
158.3425604712
 11
221.241524625
 21
158.3425604712
  0
LINE
  5
593
100
AcDbEntity
  8
7_ALL_FEATURES
100
AcDbLine
 62
7
  6
CONTINUOUS
 10
220.499898905
 20
158.8375373746
 11
221.241524625
 21
158.8375373746
  0
LINE
  5
594
100
AcDbEntity
  8
7_ALL_FEATURES
100
AcDbLine
 62
7
  6
CONTINUOUS
 10
220.4813893737
 20
158.9757761223
 11
221.241524625
 21
158.9757761223
  0
LINE
  5
595
100
AcDbEntity
  8
7_ALL_FEATURES
100
AcDbLine
 62
7
  6
CONTINUOUS
 10
221.341524625
 20
159.1500391477
 11
221.241524625
 21
159.1500391477
  0
LINE
  5
596
100
AcDbEntity
  8
7_ALL_FEATURES
100
AcDbLine
 62
9
  6
CONTINUOUS
 10
218.241524625
 20
111.6500391477
 11
218.241524625
 21
113.1500391477
  0
LINE
  5
597
100
AcDbEntity
  8
7_ALL_FEATURES
100
AcDbLine
 62
7
  6
CONTINUOUS
 10
220.3857609101
 20
159.585612781
 11
221.241524625
 21
159.585612781
  0
LINE
  5
598
100
AcDbEntity
  8
7_ALL_FEATURES
100
AcDbLine
 62
7
  6
CONTINUOUS
 10
220.2977107479
 20
160.0500391477
 11
221.241524625
 21
160.0500391477
  0
LINE
  5
599
100
AcDbEntity
  8
7_ALL_FEATURES
100
AcDbLine
 62
7
  6
CONTINUOUS
 10
220.1420857386
 20
160.7394691714
 11
221.241524625
 21
160.7394691714
  0
LINE
  5
59A
100
AcDbEntity
  8
7_ALL_FEATURES
100
AcDbLine
 62
7
  6
CONTINUOUS
 10
220.0324948221
 20
161.1592336412
 11
221.241524625
 21
161.1592336412
  0
LINE
  5
59B
100
AcDbEntity
  8
3_ALL_AXES
100
AcDbLine
 62
7
  6
CONTINUOUS
 10
222.341524625
 20
161.6500391477
 11
221.341524625
 21
161.6500391477
  0
LINE
  5
59C
100
AcDbEntity
  8
7_ALL_FEATURES
100
AcDbLine
 62
7
  6
CONTINUOUS
 10
219.8520405959
 20
161.7690702999
 11
221.241524625
 21
161.7690702999
  0
LINE
  5
59D
100
AcDbEntity
  8
7_ALL_FEATURES
100
AcDbLine
 62
7
  6
CONTINUOUS
 10
218.7768646685
 20
149.5923141766
 11
218.9207131849
 21
149.1970936259
  0
LINE
  5
59E
100
AcDbEntity
  8
7_ALL_FEATURES
100
AcDbLine
 62
7
  6
CONTINUOUS
 10
217.3213637646
 20
147.0713126606
 11
217.3943975705
 21
146.6571173654
  0
LINE
  5
59F
100
AcDbEntity
  8
7_ALL_FEATURES
100
AcDbLine
 62
3
  6
CONTINUOUS
 10
219.741524625
 20
164.1394691714
 11
219.741524625
 21
162.1314185418
  0
LINE
  5
5A0
100
AcDbEntity
  8
7_ALL_FEATURES
100
AcDbLine
 62
3
  6
CONTINUOUS
 10
219.741524625
 20
114.6500391477
 11
219.741524625
 21
151.1686597536
  0
LINE
  5
5A1
100
AcDbEntity
  8
7_ALL_FEATURES
100
AcDbLine
 62
7
  6
CONTINUOUS
 10
220.641524625
 20
155.4500391477
 11
220.641524625
 21
157.8500391476
  0
LINE
  5
5A2
100
AcDbEntity
  8
7_ALL_FEATURES
100
AcDbLine
 62
7
  6
CONTINUOUS
 10
221.241524625
 20
164.1394691714
 11
221.241524625
 21
114.6500391477
  0
LINE
  5
5A3
100
AcDbEntity
  8
3_ALL_AXES
100
AcDbLine
 62
7
  6
CONTINUOUS
 10
221.341524625
 20
151.6500391477
 11
221.341524625
 21
161.6500391477
  0
LINE
  5
5A4
100
AcDbEntity
  8
3_ALL_AXES
100
AcDbLine
 62
7
  6
CONTINUOUS
 10
222.341524625
 20
151.6500391477
 11
222.341524625
 21
161.6500391477
  0
LINE
  5
5A5
100
AcDbEntity
  8
7_ALL_FEATURES
100
AcDbLine
 62
7
  6
CONTINUOUS
 10
219.741524625
 20
162.1314185418
 11
221.241524625
 21
162.1314185418
  0
LINE
  5
5A6
100
AcDbEntity
  8
7_ALL_FEATURES
100
AcDbLine
 62
7
  6
CONTINUOUS
 10
219.741524625
 20
162.6431322572
 11
221.241524625
 21
162.6431322572
  0
LINE
  5
5A7
100
AcDbEntity
  8
7_ALL_FEATURES
100
AcDbLine
 62
7
  6
CONTINUOUS
 10
219.741524625
 20
162.9370545032
 11
221.241524625
 21
162.9370545032
  0
LINE
  5
5A8
100
AcDbEntity
  8
7_ALL_FEATURES
100
AcDbLine
 62
7
  6
CONTINUOUS
 10
219.741524625
 20
163.335097113
 11
221.241524625
 21
163.335097113
  0
LINE
  5
5A9
100
AcDbEntity
  8
7_ALL_FEATURES
100
AcDbLine
 62
7
  6
CONTINUOUS
 10
219.741524625
 20
163.5516626844
 11
221.241524625
 21
163.5516626844
  0
LINE
  5
5AA
100
AcDbEntity
  8
7_ALL_FEATURES
100
AcDbLine
 62
7
  6
CONTINUOUS
 10
219.741524625
 20
163.8239398653
 11
221.241524625
 21
163.8239398653
  0
LINE
  5
5AB
100
AcDbEntity
  8
7_ALL_FEATURES
100
AcDbLine
 62
7
  6
CONTINUOUS
 10
219.741524625
 20
163.9565685269
 11
221.241524625
 21
163.9565685269
  0
LINE
  5
5AC
100
AcDbEntity
  8
7_ALL_FEATURES
100
AcDbLine
 62
7
  6
CONTINUOUS
 10
219.741524625
 20
164.0948072745
 11
221.241524625
 21
164.0948072745
  0
LINE
  5
5AD
100
AcDbEntity
  8
7_ALL_FEATURES
100
AcDbLine
 62
7
  6
CONTINUOUS
 10
219.741524625
 20
164.1394691714
 11
221.241524625
 21
164.1394691714
  0
LINE
  5
5AE
100
AcDbEntity
  8
3_ALL_AXES
100
AcDbLine
 62
7
  6
CONTINUOUS
 10
224.491524625
 20
158.9000391477
 11
224.491524625
 21
154.4000391477
  0
LINE
  5
5AF
100
AcDbEntity
  8
7_ALL_FEATURES
100
AcDbLine
 62
7
  6
CONTINUOUS
 10
196.1885791033
 20
171.9292277076
 11
196.5837996539
 21
171.7853791912
  0
LINE
  5
5B0
100
AcDbEntity
  8
7_ALL_FEATURES
100
AcDbLine
 62
7
  6
CONTINUOUS
 10
220.641524625
 20
157.8500391458
 11
220.5954027203
 21
157.8961610505
  0
LINE
  5
5B1
100
AcDbEntity
  8
7_ALL_FEATURES
100
AcDbLine
 62
7
  6
CONTINUOUS
 10
189.5474901902
 20
166.1557318289
 11
189.9616854854
 21
166.2287656347
  0
LINE
  5
5B2
100
AcDbEntity
  8
7_ALL_FEATURES
100
AcDbLine
 62
7
  6
CONTINUOUS
 10
191.422066634
 20
168.4688735405
 11
191.8226902322
 21
168.4688735405
  0
LINE
  5
5B3
100
AcDbEntity
  8
7_ALL_FEATURES
100
AcDbLine
 62
7
  6
CONTINUOUS
 10
193.6486028428
 20
170.4029120931
 11
194.0627981379
 21
170.3298782873
  0
ARC
  5
5B4
100
AcDbEntity
  8
7_ALL_FEATURES
100
AcDbCircle
 62
7
  6
CONTINUOUS
 10
49.0986891992
 20
70.5232175039
 40
78.8215296618
100
AcDbArc
 50
103.5700554206
 51
103.7944962242
  0
ARC
  5
5B5
100
AcDbEntity
  8
7_ALL_FEATURES
100
AcDbCircle
 62
7
  6
CONTINUOUS
 10
21.024824185
 20
71.8153844307
 40
77.491625691
100
AcDbArc
 50
76.2035778573
 51
76.4318704978
  0
ARC
  5
5B6
100
AcDbEntity
  8
7_ALL_FEATURES
100
AcDbCircle
 62
7
  6
CONTINUOUS
 10
52.090234437
 20
104.5422627666
 40
50.0412495196
100
AcDbArc
 50
115.427018563
 51
115.8079564604
  0
ARC
  5
5B7
100
AcDbEntity
  8
7_ALL_FEATURES
100
AcDbCircle
 62
7
  6
CONTINUOUS
 10
18.0597917214
 20
105.2536062217
 40
49.2523629898
100
AcDbArc
 50
64.1889927428
 51
64.5760322339
  0
ARC
  5
5B8
100
AcDbEntity
  8
7_ALL_FEATURES
100
AcDbCircle
 62
7
  6
CONTINUOUS
 10
42.0044702447
 20
156.6500391477
 40
1.5
100
AcDbArc
 50
175.707524206
 51
180.0
  0
ARC
  5
5B9
100
AcDbEntity
  8
0
100
AcDbCircle
 62
2
  6
CONTINUOUS
 10
42.0044704461
 20
156.6500390385
 40
1.499999791
100
AcDbArc
 50
255.0169173599
 51
180.0
  0
ARC
  5
5BA
100
AcDbEntity
  8
0
100
AcDbCircle
 62
2
  6
CONTINUOUS
 10
42.0043012942
 20
156.6500225818
 40
1.4998307304
100
AcDbArc
 50
179.9993671578
 51
194.9806917679
  0
ARC
  5
5BB
100
AcDbEntity
  8
7_ALL_FEATURES
100
AcDbCircle
 62
7
  6
CONTINUOUS
 10
42.0044702447
 20
156.6500391477
 40
1.25
100
AcDbArc
 50
203.2212878037
 51
156.7787121963
  0
CIRCLE
  5
5BC
100
AcDbEntity
  8
7_ALL_FEATURES
100
AcDbCircle
 62
7
  6
CONTINUOUS
 10
42.0044702447
 20
156.6500391477
 40
1.1999999675
  0
CIRCLE
  5
5BD
100
AcDbEntity
  8
7_ALL_FEATURES
100
AcDbCircle
 62
7
  6
CONTINUOUS
 10
42.0044702447
 20
156.6500391477
 40
1.05
  0
ARC
  5
5BE
100
AcDbEntity
  8
03___PRT_ALL_CURVES
100
AcDbCircle
 62
40
  6
CONTINUOUS
 10
37.4044702447
 20
156.6500391477
 40
0.15
100
AcDbArc
 50
90.0
 51
270.0
  0
ARC
  5
5BF
100
AcDbEntity
  8
03___PRT_ALL_CURVES
100
AcDbCircle
 62
40
  6
CONTINUOUS
 10
36.1544702447
 20
156.6500391477
 40
0.15
100
AcDbArc
 50
90.0
 51
270.0
  0
ARC
  5
5C0
100
AcDbEntity
  8
03___PRT_ALL_CURVES
100
AcDbCircle
 62
40
  6
CONTINUOUS
 10
38.8544702447
 20
156.6500391477
 40
0.15
100
AcDbArc
 50
270.0
 51
90.0
  0
ARC
  5
5C1
100
AcDbEntity
  8
7_ALL_FEATURES
100
AcDbCircle
 62
7
  6
CONTINUOUS
 10
49.0986891966
 20
219.5182951538
 40
78.8215296506
100
AcDbArc
 50
256.2055037757
 51
256.4299445794
  0
ARC
  5
5C2
100
AcDbEntity
  8
7_ALL_FEATURES
100
AcDbCircle
 62
7
  6
CONTINUOUS
 10
21.0248241879
 20
218.2261282258
 40
77.4916256786
100
AcDbArc
 50
283.5681295022
 51
283.7964221428
  0
ARC
  5
5C3
100
AcDbEntity
  8
7_ALL_FEATURES
100
AcDbCircle
 62
7
  6
CONTINUOUS
 10
-12.3654869762
 20
181.5020380633
 40
63.511836731
100
AcDbArc
 50
324.2892428814
 51
324.7331162695
  0
ARC
  5
5C4
100
AcDbEntity
  8
7_ALL_FEATURES
100
AcDbCircle
 62
7
  6
CONTINUOUS
 10
-11.3597813452
 20
179.4952324776
 40
62.6198857129
100
AcDbArc
 50
323.8503629244
 51
324.3183085146
  0
ARC
  5
5C5
100
AcDbEntity
  8
7_ALL_FEATURES
100
AcDbCircle
 62
7
  6
CONTINUOUS
 10
-11.3597813448
 20
183.59634513
 40
62.6198857126
100
AcDbArc
 50
323.8503629244
 51
324.3183085146
  0
ARC
  5
5C6
100
AcDbEntity
  8
7_ALL_FEATURES
100
AcDbCircle
 62
7
  6
CONTINUOUS
 10
-8.6755428127
 20
177.7752231351
 40
60.3004084664
100
AcDbArc
 50
322.5632318577
 51
323.0346941855
  0
ARC
  5
5C7
100
AcDbEntity
  8
7_ALL_FEATURES
100
AcDbCircle
 62
7
  6
CONTINUOUS
 10
-8.6755428114
 20
185.8528382066
 40
60.3004084648
100
AcDbArc
 50
322.5632318577
 51
323.0346941855
  0
ARC
  5
5C8
100
AcDbEntity
  8
7_ALL_FEATURES
100
AcDbCircle
 62
7
  6
CONTINUOUS
 10
52.0902344386
 20
186.5647505177
 40
50.0412495235
100
AcDbArc
 50
244.1920435396
 51
244.572981437
  0
ARC
  5
5C9
100
AcDbEntity
  8
7_ALL_FEATURES
100
AcDbCircle
 62
7
  6
CONTINUOUS
 10
18.0597917229
 20
185.853407056
 40
49.2523629864
100
AcDbArc
 50
295.4239677661
 51
295.8110072573
  0
ARC
  5
5CA
100
AcDbEntity
  8
7_ALL_FEATURES
100
AcDbCircle
 62
7
  6
CONTINUOUS
 10
148.9462119635
 20
35.0817697023
 40
140.370372933
100
AcDbArc
 50
119.7441920681
 51
119.9795257012
  0
ARC
  5
5CB
100
AcDbEntity
  8
7_ALL_FEATURES
100
AcDbCircle
 62
7
  6
CONTINUOUS
 10
75.7480745114
 20
120.1703932388
 40
51.5646046609
100
AcDbArc
 50
134.1915712027
 51
134.6583305824
  0
ARC
  5
5CC
100
AcDbEntity
  8
7_ALL_FEATURES
100
AcDbCircle
 62
7
  6
CONTINUOUS
 10
74.0913891049
 20
153.0034640331
 40
27.3199367137
100
AcDbArc
 50
22.6488668095
 51
25.2331765543
  0
ARC
  5
5CD
100
AcDbEntity
  8
7_ALL_FEATURES
100
AcDbCircle
 62
7
  6
CONTINUOUS
 10
92.3044702447
 20
156.6500391477
 40
7.5
100
AcDbArc
 50
27.7037457384
 51
36.9577491393
  0
ARC
  5
5CE
100
AcDbEntity
  8
7_ALL_FEATURES
100
AcDbCircle
 62
7
  6
CONTINUOUS
 10
92.3044702447
 20
156.6500391477
 40
7.5
100
AcDbArc
 50
233.0422508607
 51
268.1418891958
  0
ARC
  5
5CF
100
AcDbEntity
  8
7_ALL_FEATURES
100
AcDbCircle
 62
7
  6
CONTINUOUS
 10
92.3044702447
 20
156.6500391477
 40
7.5
100
AcDbArc
 50
223.0422508607
 51
226.9577491393
  0
ARC
  5
5D0
100
AcDbEntity
  8
7_ALL_FEATURES
100
AcDbCircle
 62
7
  6
CONTINUOUS
 10
92.3044702447
 20
156.6500391477
 40
7.5
100
AcDbArc
 50
213.0422508607
 51
216.9577491393
  0
ARC
  5
5D1
100
AcDbEntity
  8
7_ALL_FEATURES
100
AcDbCircle
 62
7
  6
CONTINUOUS
 10
92.3044702447
 20
156.6500391477
 40
7.5
100
AcDbArc
 50
203.0422508607
 51
206.9577491393
  0
ARC
  5
5D2
100
AcDbEntity
  8
7_ALL_FEATURES
100
AcDbCircle
 62
7
  6
CONTINUOUS
 10
92.3044702447
 20
156.6500391477
 40
7.5
100
AcDbArc
 50
193.0422508607
 51
196.9577491393
  0
ARC
  5
5D3
100
AcDbEntity
  8
7_ALL_FEATURES
100
AcDbCircle
 62
7
  6
CONTINUOUS
 10
92.3044702447
 20
156.6500391477
 40
7.5
100
AcDbArc
 50
183.0422508607
 51
186.9577491393
  0
ARC
  5
5D4
100
AcDbEntity
  8
7_ALL_FEATURES
100
AcDbCircle
 62
7
  6
CONTINUOUS
 10
92.3044702447
 20
156.6500391477
 40
7.5
100
AcDbArc
 50
173.0422508607
 51
176.9577491393
  0
ARC
  5
5D5
100
AcDbEntity
  8
7_ALL_FEATURES
100
AcDbCircle
 62
7
  6
CONTINUOUS
 10
92.3044702447
 20
156.6500391477
 40
7.5
100
AcDbArc
 50
163.0422508607
 51
166.9577491393
  0
ARC
  5
5D6
100
AcDbEntity
  8
7_ALL_FEATURES
100
AcDbCircle
 62
7
  6
CONTINUOUS
 10
92.3044702447
 20
156.6500391477
 40
7.5
100
AcDbArc
 50
153.0422508607
 51
156.9577491393
  0
ARC
  5
5D7
100
AcDbEntity
  8
7_ALL_FEATURES
100
AcDbCircle
 62
7
  6
CONTINUOUS
 10
92.3044702447
 20
156.6500391477
 40
7.5
100
AcDbArc
 50
143.0422508607
 51
146.9577491393
  0
ARC
  5
5D8
100
AcDbEntity
  8
7_ALL_FEATURES
100
AcDbCircle
 62
7
  6
CONTINUOUS
 10
92.3044702447
 20
156.6500391477
 40
7.5
100
AcDbArc
 50
133.0422508607
 51
136.9577491393
  0
ARC
  5
5D9
100
AcDbEntity
  8
7_ALL_FEATURES
100
AcDbCircle
 62
7
  6
CONTINUOUS
 10
92.3044702447
 20
156.6500391477
 40
7.5
100
AcDbArc
 50
123.0422508607
 51
126.9577491393
  0
ARC
  5
5DA
100
AcDbEntity
  8
7_ALL_FEATURES
100
AcDbCircle
 62
7
  6
CONTINUOUS
 10
92.3044702447
 20
156.6500391477
 40
7.5
100
AcDbArc
 50
113.0422508607
 51
116.9577491393
  0
ARC
  5
5DB
100
AcDbEntity
  8
7_ALL_FEATURES
100
AcDbCircle
 62
7
  6
CONTINUOUS
 10
92.3044702447
 20
156.6500391477
 40
7.5
100
AcDbArc
 50
103.0422508607
 51
106.9577491393
  0
ARC
  5
5DC
100
AcDbEntity
  8
7_ALL_FEATURES
100
AcDbCircle
 62
7
  6
CONTINUOUS
 10
92.3044702447
 20
156.6500391477
 40
7.5
100
AcDbArc
 50
93.0422508607
 51
96.9577491393
  0
ARC
  5
5DD
100
AcDbEntity
  8
7_ALL_FEATURES
100
AcDbCircle
 62
7
  6
CONTINUOUS
 10
92.3044702447
 20
156.6500391477
 40
7.5
100
AcDbArc
 50
83.0422508607
 51
86.9577491393
  0
ARC
  5
5DE
100
AcDbEntity
  8
7_ALL_FEATURES
100
AcDbCircle
 62
7
  6
CONTINUOUS
 10
92.3044702447
 20
156.6500391477
 40
7.5
100
AcDbArc
 50
73.0422508607
 51
76.9577491393
  0
ARC
  5
5DF
100
AcDbEntity
  8
7_ALL_FEATURES
100
AcDbCircle
 62
7
  6
CONTINUOUS
 10
92.3044702447
 20
156.6500391477
 40
7.5
100
AcDbArc
 50
63.0422508607
 51
66.9577491393
  0
ARC
  5
5E0
100
AcDbEntity
  8
7_ALL_FEATURES
100
AcDbCircle
 62
7
  6
CONTINUOUS
 10
92.3044702447
 20
156.6500391477
 40
7.5
100
AcDbArc
 50
53.0422508607
 51
56.9577491393
  0
ARC
  5
5E1
100
AcDbEntity
  8
7_ALL_FEATURES
100
AcDbCircle
 62
7
  6
CONTINUOUS
 10
92.3044702447
 20
156.6500391477
 40
7.5
100
AcDbArc
 50
43.0422508607
 51
46.9577491393
  0
CIRCLE
  5
5E2
100
AcDbEntity
  8
3_ALL_AXES
100
AcDbCircle
 62
7
  6
CONTINUOUS
 10
92.3044702447
 20
156.6500391477
 40
5.0
  0
ARC
  5
5E3
100
AcDbEntity
  8
7_ALL_FEATURES
100
AcDbCircle
 62
7
  6
CONTINUOUS
 10
97.3044702447
 20
114.9027841409
 40
5.0
100
AcDbArc
 50
0.0
 51
17.0
  0
ARC
  5
5E4
100
AcDbEntity
  8
7_ALL_FEATURES
100
AcDbCircle
 62
7
  6
CONTINUOUS
 10
117.3044702447
 20
114.4171204209
 40
5.0
100
AcDbArc
 50
0.0
 51
27.7037457384
  0
CIRCLE
  5
5E5
100
AcDbEntity
  8
3_ALL_AXES
100
AcDbCircle
 62
7
  6
CONTINUOUS
 10
92.3044702447
 20
156.6500391477
 40
2.25
  0
ARC
  5
5E6
100
AcDbEntity
  8
7_ALL_FEATURES
100
AcDbCircle
 62
7
  6
CONTINUOUS
 10
148.9462194317
 20
278.2183216006
 40
140.3703879319
100
AcDbArc
 50
240.0204743114
 51
240.2558079193
  0
ARC
  5
5E7
100
AcDbEntity
  8
7_ALL_FEATURES
100
AcDbCircle
 62
7
  6
CONTINUOUS
 10
82.1744274678
 20
181.5020380648
 40
63.5118367336
100
AcDbArc
 50
215.2668837305
 51
215.7107571186
  0
ARC
  5
5E8
100
AcDbEntity
  8
7_ALL_FEATURES
100
AcDbCircle
 62
7
  6
CONTINUOUS
 10
81.1687218347
 20
179.4952324778
 40
62.6198857132
100
AcDbArc
 50
215.6816914854
 51
216.1496370756
  0
ARC
  5
5E9
100
AcDbEntity
  8
7_ALL_FEATURES
100
AcDbCircle
 62
7
  6
CONTINUOUS
 10
81.1687218334
 20
183.5963451294
 40
62.6198857115
100
AcDbArc
 50
215.6816914854
 51
216.1496370756
  0
ARC
  5
5EA
100
AcDbEntity
  8
7_ALL_FEATURES
100
AcDbCircle
 62
7
  6
CONTINUOUS
 10
77.9094768208
 20
185.41636813
 40
59.5785153622
100
AcDbArc
 50
216.9624495218
 51
217.439624435
  0
ARC
  5
5EB
100
AcDbEntity
  8
7_ALL_FEATURES
100
AcDbCircle
 62
7
  6
CONTINUOUS
 10
77.9094768202
 20
177.3387530571
 40
59.5785153614
100
AcDbArc
 50
216.9624495218
 51
217.439624435
  0
ARC
  5
5EC
100
AcDbEntity
  8
7_ALL_FEATURES
100
AcDbCircle
 62
7
  6
CONTINUOUS
 10
75.2788556693
 20
192.6509517731
 40
50.8942731571
100
AcDbArc
 50
225.3385955424
 51
225.8115026724
  0
ARC
  5
5ED
100
AcDbEntity
  8
03___PRT_ALL_CURVES
100
AcDbCircle
 62
40
  6
CONTINUOUS
 10
87.3777532765
 20
161.5767561159
 40
0.2
100
AcDbArc
 50
45.0
 51
225.0
  0
ARC
  5
5EE
100
AcDbEntity
  8
7_ALL_FEATURES
100
AcDbCircle
 62
7
  6
CONTINUOUS
 10
183.6050997979
 20
141.2102629186
 40
148.2712747562
100
AcDbArc
 50
225.0234910432
 51
225.2959766895
  0
ARC
  5
5EF
100
AcDbEntity
  8
7_ALL_FEATURES
100
AcDbCircle
 62
7
  6
CONTINUOUS
 10
20.7102512943
 20
138.9504705455
 40
78.8215296446
100
AcDbArc
 50
283.5700554206
 51
283.7944962243
  0
ARC
  5
5F0
100
AcDbEntity
  8
7_ALL_FEATURES
100
AcDbCircle
 62
7
  6
CONTINUOUS
 10
20.7102512948
 20
-10.0446070797
 40
78.8215296424
100
AcDbArc
 50
76.2055037757
 51
76.4299445794
  0
ARC
  5
5F1
100
AcDbEntity
  8
7_ALL_FEATURES
100
AcDbCircle
 62
7
  6
CONTINUOUS
 10
48.784116298
 20
137.6583036089
 40
77.4916256637
100
AcDbArc
 50
256.2035778572
 51
256.4318704979
  0
ARC
  5
5F2
100
AcDbEntity
  8
7_ALL_FEATURES
100
AcDbCircle
 62
7
  6
CONTINUOUS
 10
48.7841162961
 20
-8.7524401373
 40
77.4916256556
100
AcDbArc
 50
103.5681295021
 51
103.7964221428
  0
ARC
  5
5F3
100
AcDbEntity
  8
7_ALL_FEATURES
100
AcDbCircle
 62
7
  6
CONTINUOUS
 10
-12.3654869783
 20
27.9716500014
 40
63.5118367336
100
AcDbArc
 50
35.2668837305
 51
35.7107571186
  0
ARC
  5
5F4
100
AcDbEntity
  8
7_ALL_FEATURES
100
AcDbCircle
 62
7
  6
CONTINUOUS
 10
82.1744274678
 20
27.9716500014
 40
63.5118367336
100
AcDbArc
 50
144.2892428814
 51
144.7331162695
  0
ARC
  5
5F5
100
AcDbEntity
  8
7_ALL_FEATURES
100
AcDbCircle
 62
7
  6
CONTINUOUS
 10
81.1687218336
 20
25.8773429367
 40
62.6198857118
100
AcDbArc
 50
143.8503629244
 51
144.3183085146
  0
ARC
  5
5F6
100
AcDbEntity
  8
7_ALL_FEATURES
100
AcDbCircle
 62
7
  6
CONTINUOUS
 10
81.1687218332
 20
29.9784555896
 40
62.6198857112
100
AcDbArc
 50
143.8503629244
 51
144.3183085146
  0
ARC
  5
5F7
100
AcDbEntity
  8
7_ALL_FEATURES
100
AcDbCircle
 62
7
  6
CONTINUOUS
 10
-11.3597813434
 20
25.8773429373
 40
62.6198857107
100
AcDbArc
 50
35.6816914854
 51
36.1496370756
  0
ARC
  5
5F8
100
AcDbEntity
  8
7_ALL_FEATURES
100
AcDbCircle
 62
7
  6
CONTINUOUS
 10
-11.3597813429
 20
29.9784555902
 40
62.6198857102
100
AcDbArc
 50
35.6816914854
 51
36.1496370756
  0
ARC
  5
5F9
100
AcDbEntity
  8
7_ALL_FEATURES
100
AcDbCircle
 62
7
  6
CONTINUOUS
 10
78.4844833038
 20
31.6984649298
 40
60.3004084685
100
AcDbArc
 50
142.5632318577
 51
143.0346941855
  0
ARC
  5
5FA
100
AcDbEntity
  8
7_ALL_FEATURES
100
AcDbCircle
 62
7
  6
CONTINUOUS
 10
78.4844833028
 20
23.6208498581
 40
60.3004084672
100
AcDbArc
 50
142.5632318577
 51
143.0346941855
  0
ARC
  5
5FB
100
AcDbEntity
  8
7_ALL_FEATURES
100
AcDbCircle
 62
7
  6
CONTINUOUS
 10
-8.1005363303
 20
24.0573199369
 40
59.5785153609
100
AcDbArc
 50
36.9624495218
 51
37.439624435
  0
ARC
  5
5FC
100
AcDbEntity
  8
7_ALL_FEATURES
100
AcDbCircle
 62
7
  6
CONTINUOUS
 10
-8.1005363291
 20
32.1349350103
 40
59.5785153594
100
AcDbArc
 50
36.9624495218
 51
37.439624435
  0
ARC
  5
5FD
100
AcDbEntity
  8
7_ALL_FEATURES
100
AcDbCircle
 62
7
  6
CONTINUOUS
 10
75.7504268937
 20
72.8057067193
 40
51.5679737699
100
AcDbArc
 50
225.3426172678
 51
225.8084227347
  0
ARC
  5
5FE
100
AcDbEntity
  8
7_ALL_FEATURES
100
AcDbCircle
 62
7
  6
CONTINUOUS
 10
75.2821173109
 20
33.31940456
 40
50.8989356114
100
AcDbArc
 50
134.1885158714
 51
134.6604441263
  0
ARC
  5
5FF
100
AcDbEntity
  8
7_ALL_FEATURES
100
AcDbCircle
 62
7
  6
CONTINUOUS
 10
17.7187060534
 20
104.9314252977
 40
50.0412495175
100
AcDbArc
 50
295.427018563
 51
295.8079564604
  0
ARC
  5
600
100
AcDbEntity
  8
7_ALL_FEATURES
100
AcDbCircle
 62
7
  6
CONTINUOUS
 10
17.7187060542
 20
22.9089375555
 40
50.0412495157
100
AcDbArc
 50
64.1920435396
 51
64.572981437
  0
ARC
  5
601
100
AcDbEntity
  8
7_ALL_FEATURES
100
AcDbCircle
 62
7
  6
CONTINUOUS
 10
51.7491487697
 20
23.6202810037
 40
49.2523629936
100
AcDbArc
 50
115.4239677661
 51
115.8110072572
  0
ARC
  5
602
100
AcDbEntity
  8
7_ALL_FEATURES
100
AcDbCircle
 62
7
  6
CONTINUOUS
 10
51.7491487694
 20
104.2200818473
 40
49.252362993
100
AcDbArc
 50
244.1889927428
 51
244.5760322338
  0
ARC
  5
603
100
AcDbEntity
  8
7_ALL_FEATURES
100
AcDbCircle
 62
7
  6
CONTINUOUS
 10
42.0045264151
 20
86.7723971068
 40
16.9947657783
100
AcDbArc
 50
266.1240312893
 51
274.0355661149
  0
ARC
  5
604
100
AcDbEntity
  8
7_ALL_FEATURES
100
AcDbCircle
 62
7
  6
CONTINUOUS
 10
42.0045264122
 20
18.8749008429
 40
16.9947656657
100
AcDbArc
 50
85.9644420015
 51
93.8759687267
  0
ARC
  5
605
100
AcDbEntity
  8
3_ALL_AXES
100
AcDbCircle
 62
7
  6
CONTINUOUS
 10
92.5127915726
 20
36.7560696653
 40
5.2
100
AcDbArc
 50
293.1182769911
 51
329.5785444402
  0
ARC
  5
606
100
AcDbEntity
  8
3_ALL_AXES
100
AcDbCircle
 62
7
  6
CONTINUOUS
 10
92.0961489169
 20
36.7560696653
 40
5.2
100
AcDbArc
 50
210.4214555598
 51
246.8817230089
  0
ARC
  5
607
100
AcDbEntity
  8
7_ALL_FEATURES
100
AcDbCircle
 62
3
  6
CONTINUOUS
 10
117.3044702447
 20
57.4736489185
 40
5.0
100
AcDbArc
 50
0.0
 51
90.0
  0
ARC
  5
608
100
AcDbEntity
  8
7_ALL_FEATURES
100
AcDbCircle
 62
3
  6
CONTINUOUS
 10
107.3044702447
 20
57.4736489185
 40
5.0
100
AcDbArc
 50
90.0
 51
180.0
  0
CIRCLE
  5
609
100
AcDbEntity
  8
7_ALL_FEATURES
100
AcDbCircle
 62
3
  6
CONTINUOUS
 10
112.3044702447
 20
52.2236489185
 40
2.75
  0
ARC
  5
60A
100
AcDbEntity
  8
03___PRT_ALL_CURVES
100
AcDbCircle
 62
40
  6
CONTINUOUS
 10
36.1544702447
 20
52.8236489185
 40
0.15
100
AcDbArc
 50
90.0
 51
270.0
  0
ARC
  5
60B
100
AcDbEntity
  8
03___PRT_ALL_CURVES
100
AcDbCircle
 62
40
  6
CONTINUOUS
 10
38.8544702447
 20
52.8236489185
 40
0.15
100
AcDbArc
 50
270.0
 51
90.0
  0
CIRCLE
  5
60C
100
AcDbEntity
  8
7_ALL_FEATURES
100
AcDbCircle
 62
7
  6
CONTINUOUS
 10
203.641524625
 20
156.6500391477
 40
17.0
  0
CIRCLE
  5
60D
100
AcDbEntity
  8
7_ALL_FEATURES
100
AcDbCircle
 62
7
  6
CONTINUOUS
 10
203.641524625
 20
156.6500391477
 40
16.7
  0
CIRCLE
  5
60E
100
AcDbEntity
  8
7_ALL_FEATURES
100
AcDbCircle
 62
7
  6
CONTINUOUS
 10
203.641524625
 20
156.6500391477
 40
16.1
  0
CIRCLE
  5
60F
100
AcDbEntity
  8
7_ALL_FEATURES
100
AcDbCircle
 62
7
  6
CONTINUOUS
 10
203.641524625
 20
156.6500391477
 40
15.8
  0
CIRCLE
  5
610
100
AcDbEntity
  8
7_ALL_FEATURES
100
AcDbCircle
 62
7
  6
CONTINUOUS
 10
203.641524625
 20
156.6500391477
 40
15.5
  0
CIRCLE
  5
611
100
AcDbEntity
  8
7_ALL_FEATURES
100
AcDbCircle
 62
7
  6
CONTINUOUS
 10
203.641524625
 20
156.6500391477
 40
15.2
  0
ARC
  5
612
100
AcDbEntity
  8
7_ALL_FEATURES
100
AcDbCircle
 62
7
  6
CONTINUOUS
 10
218.241524625
 20
114.6500391477
 40
3.0
100
AcDbArc
 50
270.0
 51
360.0
  0
ARC
  5
613
100
AcDbEntity
  8
7_ALL_FEATURES
100
AcDbCircle
 62
3
  6
CONTINUOUS
 10
218.241524625
 20
114.6500391477
 40
1.5
100
AcDbArc
 50
270.0
 51
360.0
  0
ARC
  5
614
100
AcDbEntity
  8
3_ALL_AXES
100
AcDbCircle
 62
7
  6
CONTINUOUS
 10
219.7091038782
 20
156.8583604755
 40
5.2
100
AcDbArc
 50
23.1182769911
 51
59.5785444402
  0
ARC
  5
615
100
AcDbEntity
  8
3_ALL_AXES
100
AcDbCircle
 62
7
  6
CONTINUOUS
 10
219.7091038782
 20
156.4417178198
 40
5.2
100
AcDbArc
 50
300.4214555598
 51
336.8817230089
  0
SPLINE
  5
616
100
AcDbEntity
  8
03___PRT_ALL_CURVES
100
AcDbSpline
 62
40
  6
CONTINUOUS
 70
0
 71
3
 72
30
 73
26
 74
0
 42
0.0000001
 43
0.0000001
 44
0.0000000001
 40
0.0
 40
0.0
 40
0.0
 40
0.0
 40
0.0434782609
 40
0.0869565217
 40
0.1304347826
 40
0.1739130435
 40
0.2173913043
 40
0.2608695652
 40
0.3043478261
 40
0.347826087
 40
0.3913043478
 40
0.4347826087
 40
0.4782608696
 40
0.5217391304
 40
0.5652173913
 40
0.6086956522
 40
0.652173913
 40
0.6956521739
 40
0.7391304348
 40
0.7826086957
 40
0.8260869565
 40
0.8695652174
 40
0.9130434783
 40
0.9565217391
 40
1.0
 40
1.0
 40
1.0
 40
1.0
 10
37.4044702447
 20
172.7710179876
 30
0.0
 10
37.3976005666
 20
172.7710179876
 30
0.0
 10
37.3840071918
 20
172.7713140466
 30
0.0
 10
37.363856729
 20
172.7726416905
 30
0.0
 10
37.3445408596
 20
172.7748178846
 30
0.0
 10
37.3262689847
 20
172.7778149585
 30
0.0
 10
37.3095320848
 20
172.781546941
 30
0.0
 10
37.2944812222
 20
172.785978048
 30
0.0
 10
37.2815614668
 20
172.7909697284
 30
0.0
 10
37.2708552082
 20
172.796488131
 30
0.0
 10
37.262703157
 20
172.8023506297
 30
0.0
 10
37.2571420902
 20
172.8085298395
 30
0.0
 10
37.2543565908
 20
172.8148154601
 30
0.0
 10
37.2543565911
 20
172.8211862879
 30
0.0
 10
37.2571420914
 20
172.8274252623
 30
0.0
 10
37.2627031589
 20
172.8335139812
 30
0.0
 10
37.2708552134
 20
172.8392500911
 30
0.0
 10
37.2815614694
 20
172.8446139001
 30
0.0
 10
37.294481231
 20
172.8494361803
 30
0.0
 10
37.3095320879
 20
172.8536936632
 30
0.0
 10
37.3262690013
 20
172.8572625099
 30
0.0
 10
37.3445408618
 20
172.8601175028
 30
0.0
 10
37.3638567504
 20
172.8621843503
 30
0.0
 10
37.3840071922
 20
172.8634427548
 30
0.0
 10
37.3976005667
 20
172.863723086
 30
0.0
 10
37.4044702447
 20
172.863723086
 30
0.0
  0
SPLINE
  5
617
100
AcDbEntity
  8
03___PRT_ALL_CURVES
100
AcDbSpline
 62
40
  6
CONTINUOUS
 70
0
 71
3
 72
30
 73
26
 74
0
 42
0.0000001
 43
0.0000001
 44
0.0000000001
 40
0.0
 40
0.0
 40
0.0
 40
0.0
 40
0.0434782609
 40
0.0869565217
 40
0.1304347826
 40
0.1739130435
 40
0.2173913043
 40
0.2608695652
 40
0.3043478261
 40
0.347826087
 40
0.3913043478
 40
0.4347826087
 40
0.4782608696
 40
0.5217391304
 40
0.5652173913
 40
0.6086956522
 40
0.652173913
 40
0.6956521739
 40
0.7391304348
 40
0.7826086957
 40
0.8260869565
 40
0.8695652174
 40
0.9130434783
 40
0.9565217391
 40
1.0
 40
1.0
 40
1.0
 40
1.0
 10
38.8544702447
 20
172.2407178602
 30
0.0
 10
38.8613399228
 20
172.2407178602
 30
0.0
 10
38.8749332976
 20
172.2403460839
 30
0.0
 10
38.8950837601
 20
172.2386774219
 30
0.0
 10
38.9143996298
 20
172.2359375367
 30
0.0
 10
38.9326715044
 20
172.2321544468
 30
0.0
 10
38.9494084046
 20
172.2274280241
 30
0.0
 10
38.9644592668
 20
172.2217933301
 30
0.0
 10
38.9773790225
 20
172.2154159891
 30
0.0
 10
38.988085281
 20
172.2083285026
 30
0.0
 10
38.9962373323
 20
172.2007560023
 30
0.0
 10
39.0017983993
 20
172.192725771
 30
0.0
 10
39.0045838986
 20
172.1845055668
 30
0.0
 10
39.0045838983
 20
172.1761201083
 30
0.0
 10
39.0017983979
 20
172.1678550971
 30
0.0
 10
38.9962373304
 20
172.1597379441
 30
0.0
 10
38.9880852757
 20
172.1520440374
 30
0.0
 10
38.9773790199
 20
172.1448080589
 30
0.0
 10
38.9644592581
 20
172.1382679953
 30
0.0
 10
38.9494084015
 20
172.1324665295
 30
0.0
 10
38.9326714877
 20
172.1275834004
 30
0.0
 10
38.9143996276
 20
172.1236638397
 30
0.0
 10
38.8950837387
 20
172.1208189171
 30
0.0
 10
38.8749332973
 20
172.1190837515
 30
0.0
 10
38.8613399227
 20
172.1186968672
 30
0.0
 10
38.8544702447
 20
172.1186968672
 30
0.0
  0
SPLINE
  5
618
100
AcDbEntity
  8
03___PRT_ALL_CURVES
100
AcDbSpline
 62
40
  6
CONTINUOUS
 70
0
 71
3
 72
30
 73
26
 74
0
 42
0.0000001
 43
0.0000001
 44
0.0000000001
 40
0.0
 40
0.0
 40
0.0
 40
0.0
 40
0.0434782609
 40
0.0869565217
 40
0.1304347826
 40
0.1739130435
 40
0.2173913043
 40
0.2608695652
 40
0.3043478261
 40
0.347826087
 40
0.3913043478
 40
0.4347826087
 40
0.4782608696
 40
0.5217391304
 40
0.5652173913
 40
0.6086956522
 40
0.652173913
 40
0.6956521739
 40
0.7391304348
 40
0.7826086957
 40
0.8260869565
 40
0.8695652174
 40
0.9130434783
 40
0.9565217391
 40
1.0
 40
1.0
 40
1.0
 40
1.0
 10
38.8544702447
 20
168.136288364
 30
0.0
 10
38.8613399228
 20
168.136288364
 30
0.0
 10
38.8749332976
 20
168.1356008263
 30
0.0
 10
38.8950837601
 20
168.1325156289
 30
0.0
 10
38.9143996298
 20
168.1274521218
 30
0.0
 10
38.9326715044
 20
168.1204653776
 30
0.0
 10
38.9494084046
 20
168.111744007
 30
0.0
 10
38.9644592668
 20
168.10135763
 30
0.0
 10
38.9773790225
 20
168.0896165885
 30
0.0
 10
38.988085281
 20
168.0765858326
 30
0.0
 10
38.9962373323
 20
168.062683739
 30
0.0
 10
39.0017983993
 20
168.0479642024
 30
0.0
 10
39.0045838986
 20
168.0329206185
 30
0.0
 10
39.0045838983
 20
168.0175996235
 30
0.0
 10
39.0017983979
 20
168.0025232202
 30
0.0
 10
38.9962373304
 20
167.9877400175
 30
0.0
 10
38.9880852757
 20
167.9737489976
 30
0.0
 10
38.9773790199
 20
167.9606094807
 30
0.0
 10
38.9644592581
 20
167.9487492498
 30
0.0
 10
38.9494084015
 20
167.938240723
 30
0.0
 10
38.9326714877
 20
167.9294045689
 30
0.0
 10
38.9143996276
 20
167.92231787
 30
0.0
 10
38.8950837387
 20
167.9171774255
 30
0.0
 10
38.8749332973
 20
167.9140435203
 30
0.0
 10
38.8613399227
 20
167.9133449163
 30
0.0
 10
38.8544702447
 20
167.9133449163
 30
0.0
  0
SPLINE
  5
619
100
AcDbEntity
  8
03___PRT_ALL_CURVES
100
AcDbSpline
 62
40
  6
CONTINUOUS
 70
0
 71
3
 72
30
 73
26
 74
0
 42
0.0000001
 43
0.0000001
 44
0.0000000001
 40
0.0
 40
0.0
 40
0.0
 40
0.0
 40
0.0434782609
 40
0.0869565217
 40
0.1304347826
 40
0.1739130435
 40
0.2173913043
 40
0.2608695652
 40
0.3043478261
 40
0.347826087
 40
0.3913043478
 40
0.4347826087
 40
0.4782608696
 40
0.5217391304
 40
0.5652173913
 40
0.6086956522
 40
0.652173913
 40
0.6956521739
 40
0.7391304348
 40
0.7826086957
 40
0.8260869565
 40
0.8695652174
 40
0.9130434783
 40
0.9565217391
 40
1.0
 40
1.0
 40
1.0
 40
1.0
 10
37.4044702447
 20
167.9133449163
 30
0.0
 10
37.3976005666
 20
167.9133449163
 30
0.0
 10
37.3840071918
 20
167.9140435196
 30
0.0
 10
37.363856729
 20
167.9171774302
 30
0.0
 10
37.3445408596
 20
167.9223178708
 30
0.0
 10
37.3262689847
 20
167.9294045765
 30
0.0
 10
37.3095320848
 20
167.9382407252
 30
0.0
 10
37.2944812222
 20
167.948749257
 30
0.0
 10
37.2815614668
 20
167.9606094837
 30
0.0
 10
37.2708552082
 20
167.9737490052
 30
0.0
 10
37.262703157
 20
167.9877400223
 30
0.0
 10
37.2571420902
 20
168.0025232249
 30
0.0
 10
37.2543565908
 20
168.0175996277
 30
0.0
 10
37.2543565911
 20
168.0329206224
 30
0.0
 10
37.2571420914
 20
168.0479642068
 30
0.0
 10
37.2627031589
 20
168.0626837433
 30
0.0
 10
37.2708552134
 20
168.0765858395
 30
0.0
 10
37.2815614694
 20
168.0896165912
 30
0.0
 10
37.294481231
 20
168.1013576365
 30
0.0
 10
37.3095320879
 20
168.1117440091
 30
0.0
 10
37.3262690013
 20
168.1204653848
 30
0.0
 10
37.3445408618
 20
168.1274521225
 30
0.0
 10
37.3638567504
 20
168.1325156333
 30
0.0
 10
37.3840071922
 20
168.1356008257
 30
0.0
 10
37.3976005667
 20
168.136288364
 30
0.0
 10
37.4044702447
 20
168.136288364
 30
0.0
  0
SPLINE
  5
61A
100
AcDbEntity
  8
03___PRT_ALL_CURVES
100
AcDbSpline
 62
40
  6
CONTINUOUS
 70
0
 71
3
 72
30
 73
26
 74
0
 42
0.0000001
 43
0.0000001
 44
0.0000000001
 40
0.0
 40
0.0
 40
0.0
 40
0.0
 40
0.0434782609
 40
0.0869565217
 40
0.1304347826
 40
0.1739130435
 40
0.2173913043
 40
0.2608695652
 40
0.3043478261
 40
0.347826087
 40
0.3913043478
 40
0.4347826087
 40
0.4782608696
 40
0.5217391304
 40
0.5652173913
 40
0.6086956522
 40
0.652173913
 40
0.6956521739
 40
0.7391304348
 40
0.7826086957
 40
0.8260869565
 40
0.8695652174
 40
0.9130434783
 40
0.9565217391
 40
1.0
 40
1.0
 40
1.0
 40
1.0
 10
38.8544702447
 20
166.7633520027
 30
0.0
 10
38.8613399228
 20
166.7633520027
 30
0.0
 10
38.8749332976
 20
166.7626023588
 30
0.0
 10
38.8950837601
 20
166.7592385703
 30
0.0
 10
38.9143996298
 20
166.7537181492
 30
0.0
 10
38.9326715044
 20
166.7461015954
 30
0.0
 10
38.9494084046
 20
166.7365951011
 30
0.0
 10
38.9644592668
 20
166.7252752393
 30
0.0
 10
38.9773790225
 20
166.712480948
 30
0.0
 10
38.988085281
 20
166.6982837175
 30
0.0
 10
38.9962373323
 20
166.6831399996
 30
0.0
 10
39.0017983993
 20
166.6671090353
 30
0.0
 10
39.0045838986
 20
166.6507285427
 30
0.0
 10
39.0045838983
 20
166.6340494985
 30
0.0
 10
39.0017983979
 20
166.617640176
 30
0.0
 10
38.9962373304
 20
166.6015532856
 30
0.0
 10
38.9880852757
 20
166.5863314515
 30
0.0
 10
38.9773790199
 20
166.5720386828
 30
0.0
 10
38.9644592581
 20
166.559139691
 30
0.0
 10
38.9494084015
 20
166.5477125299
 30
0.0
 10
38.9326714877
 20
166.5381052051
 30
0.0
 10
38.9143996276
 20
166.5304008494
 30
0.0
 10
38.8950837387
 20
166.5248128433
 30
0.0
 10
38.8749332973
 20
166.5214062694
 30
0.0
 10
38.8613399227
 20
166.5206469044
 30
0.0
 10
38.8544702447
 20
166.5206469044
 30
0.0
  0
SPLINE
  5
61B
100
AcDbEntity
  8
03___PRT_ALL_CURVES
100
AcDbSpline
 62
40
  6
CONTINUOUS
 70
0
 71
3
 72
30
 73
26
 74
0
 42
0.0000001
 43
0.0000001
 44
0.0000000001
 40
0.0
 40
0.0
 40
0.0
 40
0.0
 40
0.0434782609
 40
0.0869565217
 40
0.1304347826
 40
0.1739130435
 40
0.2173913043
 40
0.2608695652
 40
0.3043478261
 40
0.347826087
 40
0.3913043478
 40
0.4347826087
 40
0.4782608696
 40
0.5217391304
 40
0.5652173913
 40
0.6086956522
 40
0.652173913
 40
0.6956521739
 40
0.7391304348
 40
0.7826086957
 40
0.8260869565
 40
0.8695652174
 40
0.9130434783
 40
0.9565217391
 40
1.0
 40
1.0
 40
1.0
 40
1.0
 10
37.4044702447
 20
166.5206469044
 30
0.0
 10
37.3976005666
 20
166.5206469044
 30
0.0
 10
37.3840071918
 20
166.5214062687
 30
0.0
 10
37.363856729
 20
166.5248128483
 30
0.0
 10
37.3445408596
 20
166.5304008502
 30
0.0
 10
37.3262689847
 20
166.5381052134
 30
0.0
 10
37.3095320848
 20
166.5477125324
 30
0.0
 10
37.2944812222
 20
166.5591396988
 30
0.0
 10
37.2815614668
 20
166.5720386861
 30
0.0
 10
37.2708552082
 20
166.5863314598
 30
0.0
 10
37.262703157
 20
166.6015532908
 30
0.0
 10
37.2571420902
 20
166.6176401811
 30
0.0
 10
37.2543565908
 20
166.6340495031
 30
0.0
 10
37.2543565911
 20
166.6507285468
 30
0.0
 10
37.2571420914
 20
166.6671090401
 30
0.0
 10
37.2627031589
 20
166.6831400042
 30
0.0
 10
37.2708552134
 20
166.698283725
 30
0.0
 10
37.2815614694
 20
166.712480951
 30
0.0
 10
37.294481231
 20
166.7252752464
 30
0.0
 10
37.3095320879
 20
166.7365951034
 30
0.0
 10
37.3262690013
 20
166.7461016032
 30
0.0
 10
37.3445408618
 20
166.75371815
 30
0.0
 10
37.3638567504
 20
166.7592385752
 30
0.0
 10
37.3840071922
 20
166.7626023582
 30
0.0
 10
37.3976005667
 20
166.7633520027
 30
0.0
 10
37.4044702447
 20
166.7633520027
 30
0.0
  0
SPLINE
  5
61C
100
AcDbEntity
  8
03___PRT_ALL_CURVES
100
AcDbSpline
 62
40
  6
CONTINUOUS
 70
0
 71
3
 72
30
 73
26
 74
0
 42
0.0000001
 43
0.0000001
 44
0.0000000001
 40
0.0
 40
0.0
 40
0.0
 40
0.0
 40
0.0434782609
 40
0.0869565217
 40
0.1304347826
 40
0.1739130435
 40
0.2173913043
 40
0.2608695652
 40
0.3043478261
 40
0.347826087
 40
0.3913043478
 40
0.4347826087
 40
0.4782608696
 40
0.5217391304
 40
0.5652173913
 40
0.6086956522
 40
0.652173913
 40
0.6956521739
 40
0.7391304348
 40
0.7826086957
 40
0.8260869565
 40
0.8695652174
 40
0.9130434783
 40
0.9565217391
 40
1.0
 40
1.0
 40
1.0
 40
1.0
 10
38.8544702447
 20
163.7013247294
 30
0.0
 10
38.8613399228
 20
163.7013247294
 30
0.0
 10
38.8749332976
 20
163.7004761034
 30
0.0
 10
38.8950837601
 20
163.6966683443
 30
0.0
 10
38.9143996298
 20
163.6904198872
 30
0.0
 10
38.9326715044
 20
163.681800046
 30
0.0
 10
38.9494084046
 20
163.6710432304
 30
0.0
 10
38.9644592668
 20
163.658237336
 30
0.0
 10
38.9773790225
 20
163.6437670796
 30
0.0
 10
38.988085281
 20
163.6277146193
 30
0.0
 10
38.9962373323
 20
163.6105971918
 30
0.0
 10
39.0017983993
 20
163.592482732
 30
0.0
 10
39.0045838986
 20
163.5739795071
 30
0.0
 10
39.0045838983
 20
163.5551454589
 30
0.0
 10
39.0017983979
 20
163.536622284
 30
0.0
 10
38.9962373304
 20
163.5184691246
 30
0.0
 10
38.9880852757
 20
163.5012976407
 30
0.0
 10
38.9773790199
 20
163.4851790718
 30
0.0
 10
38.9644592581
 20
163.4706363628
 30
0.0
 10
38.9494084015
 20
163.4577562214
 30
0.0
 10
38.9326714877
 20
163.4469296305
 30
0.0
 10
38.9143996276
 20
163.4382490351
 30
0.0
 10
38.8950837387
 20
163.4319538086
 30
0.0
 10
38.8749332973
 20
163.4281164453
 30
0.0
 10
38.8613399227
 20
163.4272610921
 30
0.0
 10
38.8544702447
 20
163.4272610921
 30
0.0
  0
SPLINE
  5
61D
100
AcDbEntity
  8
03___PRT_ALL_CURVES
100
AcDbSpline
 62
40
  6
CONTINUOUS
 70
0
 71
3
 72
30
 73
26
 74
0
 42
0.0000001
 43
0.0000001
 44
0.0000000001
 40
0.0
 40
0.0
 40
0.0
 40
0.0
 40
0.0434782609
 40
0.0869565217
 40
0.1304347826
 40
0.1739130435
 40
0.2173913043
 40
0.2608695652
 40
0.3043478261
 40
0.347826087
 40
0.3913043478
 40
0.4347826087
 40
0.4782608696
 40
0.5217391304
 40
0.5652173913
 40
0.6086956522
 40
0.652173913
 40
0.6956521739
 40
0.7391304348
 40
0.7826086957
 40
0.8260869565
 40
0.8695652174
 40
0.9130434783
 40
0.9565217391
 40
1.0
 40
1.0
 40
1.0
 40
1.0
 10
37.4044702447
 20
163.4272610921
 30
0.0
 10
37.3976005666
 20
163.4272610921
 30
0.0
 10
37.3840071918
 20
163.4281164445
 30
0.0
 10
37.363856729
 20
163.4319538143
 30
0.0
 10
37.3445408596
 20
163.438249036
 30
0.0
 10
37.3262689847
 20
163.4469296399
 30
0.0
 10
37.3095320848
 20
163.4577562242
 30
0.0
 10
37.2944812222
 20
163.4706363716
 30
0.0
 10
37.2815614668
 20
163.4851790755
 30
0.0
 10
37.2708552082
 20
163.5012976501
 30
0.0
 10
37.262703157
 20
163.5184691304
 30
0.0
 10
37.2571420902
 20
163.5366222898
 30
0.0
 10
37.2543565908
 20
163.5551454641
 30
0.0
 10
37.2543565911
 20
163.5739795118
 30
0.0
 10
37.2571420914
 20
163.5924827374
 30
0.0
 10
37.2627031589
 20
163.610597197
 30
0.0
 10
37.2708552134
 20
163.6277146278
 30
0.0
 10
37.2815614694
 20
163.643767083
 30
0.0
 10
37.294481231
 20
163.658237344
 30
0.0
 10
37.3095320879
 20
163.671043233
 30
0.0
 10
37.3262690013
 20
163.6818000548
 30
0.0
 10
37.3445408618
 20
163.6904198882
 30
0.0
 10
37.3638567504
 20
163.6966683498
 30
0.0
 10
37.3840071922
 20
163.7004761026
 30
0.0
 10
37.3976005667
 20
163.7013247294
 30
0.0
 10
37.4044702447
 20
163.7013247294
 30
0.0
  0
SPLINE
  5
61E
100
AcDbEntity
  8
03___PRT_ALL_CURVES
100
AcDbSpline
 62
40
  6
CONTINUOUS
 70
0
 71
3
 72
30
 73
26
 74
0
 42
0.0000001
 43
0.0000001
 44
0.0000000001
 40
0.0
 40
0.0
 40
0.0
 40
0.0
 40
0.0434782609
 40
0.0869565217
 40
0.1304347826
 40
0.1739130435
 40
0.2173913043
 40
0.2608695652
 40
0.3043478261
 40
0.347826087
 40
0.3913043478
 40
0.4347826087
 40
0.4782608696
 40
0.5217391304
 40
0.5652173913
 40
0.6086956522
 40
0.652173913
 40
0.6956521739
 40
0.7391304348
 40
0.7826086957
 40
0.8260869565
 40
0.8695652174
 40
0.9130434783
 40
0.9565217391
 40
1.0
 40
1.0
 40
1.0
 40
1.0
 10
38.8544702447
 20
162.045782029
 30
0.0
 10
38.8613399228
 20
162.045782029
 30
0.0
 10
38.8749332976
 20
162.0448976114
 30
0.0
 10
38.8950837601
 20
162.0409293372
 30
0.0
 10
38.9143996298
 20
162.0344177346
 30
0.0
 10
38.9326715044
 20
162.0254354077
 30
0.0
 10
38.9494084046
 20
162.0142270934
 30
0.0
 10
38.9644592668
 20
162.0008849325
 30
0.0
 10
38.9773790225
 20
161.9858103231
 30
0.0
 10
38.988085281
 20
161.9690894339
 30
0.0
 10
38.9962373323
 20
161.9512615453
 30
0.0
 10
39.0017983993
 20
161.9323978449
 30
0.0
 10
39.0045838986
 20
161.9131320537
 30
0.0
 10
39.0045838983
 20
161.8935246613
 30
0.0
 10
39.0017983979
 20
161.874243713
 30
0.0
 10
38.9962373304
 20
161.8553506108
 30
0.0
 10
38.9880852757
 20
161.837481652
 30
0.0
 10
38.9773790199
 20
161.8207105386
 30
0.0
 10
38.9644592581
 20
161.8055808821
 30
0.0
 10
38.9494084015
 20
161.7921823139
 30
0.0
 10
38.9326714877
 20
161.7809209862
 30
0.0
 10
38.9143996276
 20
161.7718925037
 30
0.0
 10
38.8950837387
 20
161.765345367
 30
0.0
 10
38.8749332973
 20
161.7613546028
 30
0.0
 10
38.8613399227
 20
161.7604650741
 30
0.0
 10
38.8544702447
 20
161.7604650741
 30
0.0
  0
SPLINE
  5
61F
100
AcDbEntity
  8
03___PRT_ALL_CURVES
100
AcDbSpline
 62
40
  6
CONTINUOUS
 70
0
 71
3
 72
30
 73
26
 74
0
 42
0.0000001
 43
0.0000001
 44
0.0000000001
 40
0.0
 40
0.0
 40
0.0
 40
0.0
 40
0.0434782609
 40
0.0869565217
 40
0.1304347826
 40
0.1739130435
 40
0.2173913043
 40
0.2608695652
 40
0.3043478261
 40
0.347826087
 40
0.3913043478
 40
0.4347826087
 40
0.4782608696
 40
0.5217391304
 40
0.5652173913
 40
0.6086956522
 40
0.652173913
 40
0.6956521739
 40
0.7391304348
 40
0.7826086957
 40
0.8260869565
 40
0.8695652174
 40
0.9130434783
 40
0.9565217391
 40
1.0
 40
1.0
 40
1.0
 40
1.0
 10
37.4044702447
 20
172.1186968672
 30
0.0
 10
37.3976005666
 20
172.1186968672
 30
0.0
 10
37.3840071918
 20
172.1190837511
 30
0.0
 10
37.363856729
 20
172.1208189197
 30
0.0
 10
37.3445408596
 20
172.1236638402
 30
0.0
 10
37.3262689847
 20
172.1275834047
 30
0.0
 10
37.3095320848
 20
172.1324665308
 30
0.0
 10
37.2944812222
 20
172.1382679993
 30
0.0
 10
37.2815614668
 20
172.1448080605
 30
0.0
 10
37.2708552082
 20
172.1520440416
 30
0.0
 10
37.262703157
 20
172.1597379467
 30
0.0
 10
37.2571420902
 20
172.1678550997
 30
0.0
 10
37.2543565908
 20
172.1761201106
 30
0.0
 10
37.2543565911
 20
172.1845055689
 30
0.0
 10
37.2571420914
 20
172.1927257734
 30
0.0
 10
37.2627031589
 20
172.2007560046
 30
0.0
 10
37.2708552134
 20
172.2083285064
 30
0.0
 10
37.2815614694
 20
172.2154159906
 30
0.0
 10
37.294481231
 20
172.2217933336
 30
0.0
 10
37.3095320879
 20
172.2274280253
 30
0.0
 10
37.3262690013
 20
172.2321544507
 30
0.0
 10
37.3445408618
 20
172.2359375371
 30
0.0
 10
37.3638567504
 20
172.2386774243
 30
0.0
 10
37.3840071922
 20
172.2403460836
 30
0.0
 10
37.3976005667
 20
172.2407178602
 30
0.0
 10
37.4044702447
 20
172.2407178602
 30
0.0
  0
SPLINE
  5
620
100
AcDbEntity
  8
03___PRT_ALL_CURVES
100
AcDbSpline
 62
40
  6
CONTINUOUS
 70
0
 71
3
 72
30
 73
26
 74
0
 42
0.0000001
 43
0.0000001
 44
0.0000000001
 40
0.0
 40
0.0
 40
0.0
 40
0.0
 40
0.0434782609
 40
0.0869565217
 40
0.1304347826
 40
0.1739130435
 40
0.2173913043
 40
0.2608695652
 40
0.3043478261
 40
0.347826087
 40
0.3913043478
 40
0.4347826087
 40
0.4782608696
 40
0.5217391304
 40
0.5652173913
 40
0.6086956522
 40
0.652173913
 40
0.6956521739
 40
0.7391304348
 40
0.7826086957
 40
0.8260869565
 40
0.8695652174
 40
0.9130434783
 40
0.9565217391
 40
1.0
 40
1.0
 40
1.0
 40
1.0
 10
37.4044702447
 20
161.7604650741
 30
0.0
 10
37.3976005666
 20
161.7604650741
 30
0.0
 10
37.3840071918
 20
161.761354602
 30
0.0
 10
37.363856729
 20
161.7653453729
 30
0.0
 10
37.3445408596
 20
161.7718925048
 30
0.0
 10
37.3262689847
 20
161.7809209959
 30
0.0
 10
37.3095320848
 20
161.7921823168
 30
0.0
 10
37.2944812222
 20
161.8055808913
 30
0.0
 10
37.2815614668
 20
161.8207105424
 30
0.0
 10
37.2708552082
 20
161.8374816618
 30
0.0
 10
37.262703157
 20
161.8553506168
 30
0.0
 10
37.2571420902
 20
161.874243719
 30
0.0
 10
37.2543565908
 20
161.8935246667
 30
0.0
 10
37.2543565911
 20
161.9131320586
 30
0.0
 10
37.2571420914
 20
161.9323978506
 30
0.0
 10
37.2627031589
 20
161.9512615507
 30
0.0
 10
37.2708552134
 20
161.9690894427
 30
0.0
 10
37.2815614694
 20
161.9858103266
 30
0.0
 10
37.294481231
 20
162.0008849408
 30
0.0
 10
37.3095320879
 20
162.0142270961
 30
0.0
 10
37.3262690013
 20
162.0254354169
 30
0.0
 10
37.3445408618
 20
162.0344177356
 30
0.0
 10
37.3638567504
 20
162.0409293429
 30
0.0
 10
37.3840071922
 20
162.0448976106
 30
0.0
 10
37.3976005667
 20
162.045782029
 30
0.0
 10
37.4044702447
 20
162.045782029
 30
0.0
  0
SPLINE
  5
621
100
AcDbEntity
  8
03___PRT_ALL_CURVES
100
AcDbSpline
 62
40
  6
CONTINUOUS
 70
0
 71
3
 72
30
 73
26
 74
0
 42
0.0000001
 43
0.0000001
 44
0.0000000001
 40
0.0
 40
0.0
 40
0.0
 40
0.0
 40
0.0434782609
 40
0.0869565217
 40
0.1304347826
 40
0.1739130435
 40
0.2173913043
 40
0.2608695652
 40
0.3043478261
 40
0.347826087
 40
0.3913043478
 40
0.4347826087
 40
0.4782608696
 40
0.5217391304
 40
0.5652173913
 40
0.6086956522
 40
0.652173913
 40
0.6956521739
 40
0.7391304348
 40
0.7826086957
 40
0.8260869565
 40
0.8695652174
 40
0.9130434783
 40
0.9565217391
 40
1.0
 40
1.0
 40
1.0
 40
1.0
 10
38.8544702447
 20
160.3311224404
 30
0.0
 10
38.8613399228
 20
160.3311224404
 30
0.0
 10
38.8749332976
 20
160.3302119212
 30
0.0
 10
38.8950837601
 20
160.326126609
 30
0.0
 10
38.9143996298
 20
160.3194232034
 30
0.0
 10
38.9326715044
 20
160.3101768031
 30
0.0
 10
38.9494084046
 20
160.2986397907
 30
0.0
 10
38.9644592668
 20
160.2849075428
 30
0.0
 10
38.9773790225
 20
160.269393741
 30
0.0
 10
38.988085281
 20
160.2521876204
 30
0.0
 10
38.9962373323
 20
160.2338445969
 30
0.0
 10
39.0017983993
 20
160.2144383305
 30
0.0
 10
39.0045838986
 20
160.1946210531
 30
0.0
 10
39.0045838983
 20
160.1744551392
 30
0.0
 10
39.0017983979
 20
160.1546276635
 30
0.0
 10
38.9962373304
 20
160.1352016153
 30
0.0
 10
38.9880852757
 20
160.1168309578
 30
0.0
 10
38.9773790199
 20
160.0995910475
 30
0.0
 10
38.9644592581
 20
160.0840402074
 30
0.0
 10
38.9494084015
 20
160.0702700098
 30
0.0
 10
38.9326714877
 20
160.0586973267
 30
0.0
 10
38.9143996276
 20
160.0494198752
 30
0.0
 10
38.8950837387
 20
160.04269256
 30
0.0
 10
38.8749332973
 20
160.0385921186
 30
0.0
 10
38.8613399227
 20
160.0376781602
 30
0.0
 10
38.8544702447
 20
160.0376781602
 30
0.0
  0
SPLINE
  5
622
100
AcDbEntity
  8
03___PRT_ALL_CURVES
100
AcDbSpline
 62
40
  6
CONTINUOUS
 70
0
 71
3
 72
30
 73
26
 74
0
 42
0.0000001
 43
0.0000001
 44
0.0000000001
 40
0.0
 40
0.0
 40
0.0
 40
0.0
 40
0.0434782609
 40
0.0869565217
 40
0.1304347826
 40
0.1739130435
 40
0.2173913043
 40
0.2608695652
 40
0.3043478261
 40
0.347826087
 40
0.3913043478
 40
0.4347826087
 40
0.4782608696
 40
0.5217391304
 40
0.5652173913
 40
0.6086956522
 40
0.652173913
 40
0.6956521739
 40
0.7391304348
 40
0.7826086957
 40
0.8260869565
 40
0.8695652174
 40
0.9130434783
 40
0.9565217391
 40
1.0
 40
1.0
 40
1.0
 40
1.0
 10
37.4044702447
 20
160.0376781602
 30
0.0
 10
37.3976005666
 20
160.0376781602
 30
0.0
 10
37.3840071918
 20
160.0385921177
 30
0.0
 10
37.363856729
 20
160.042692566
 30
0.0
 10
37.3445408596
 20
160.0494198763
 30
0.0
 10
37.3262689847
 20
160.0586973367
 30
0.0
 10
37.3095320848
 20
160.0702700127
 30
0.0
 10
37.2944812222
 20
160.0840402168
 30
0.0
 10
37.2815614668
 20
160.0995910515
 30
0.0
 10
37.2708552082
 20
160.1168309678
 30
0.0
 10
37.262703157
 20
160.1352016215
 30
0.0
 10
37.2571420902
 20
160.1546276697
 30
0.0
 10
37.2543565908
 20
160.1744551447
 30
0.0
 10
37.2543565911
 20
160.1946210581
 30
0.0
 10
37.2571420914
 20
160.2144383363
 30
0.0
 10
37.2627031589
 20
160.2338446025
 30
0.0
 10
37.2708552134
 20
160.2521876295
 30
0.0
 10
37.2815614694
 20
160.2693937446
 30
0.0
 10
37.294481231
 20
160.2849075514
 30
0.0
 10
37.3095320879
 20
160.2986397935
 30
0.0
 10
37.3262690013
 20
160.3101768126
 30
0.0
 10
37.3445408618
 20
160.3194232044
 30
0.0
 10
37.3638567504
 20
160.3261266149
 30
0.0
 10
37.3840071922
 20
160.3302119203
 30
0.0
 10
37.3976005667
 20
160.3311224404
 30
0.0
 10
37.4044702447
 20
160.3311224404
 30
0.0
  0
SPLINE
  5
623
100
AcDbEntity
  8
03___PRT_ALL_CURVES
100
AcDbSpline
 62
40
  6
CONTINUOUS
 70
0
 71
3
 72
30
 73
26
 74
0
 42
0.0000001
 43
0.0000001
 44
0.0000000001
 40
0.0
 40
0.0
 40
0.0
 40
0.0
 40
0.0434782609
 40
0.0869565217
 40
0.1304347826
 40
0.1739130435
 40
0.2173913043
 40
0.2608695652
 40
0.3043478261
 40
0.347826087
 40
0.3913043478
 40
0.4347826087
 40
0.4782608696
 40
0.5217391304
 40
0.5652173913
 40
0.6086956522
 40
0.652173913
 40
0.6956521739
 40
0.7391304348
 40
0.7826086957
 40
0.8260869565
 40
0.8695652174
 40
0.9130434783
 40
0.9565217391
 40
1.0
 40
1.0
 40
1.0
 40
1.0
 10
38.8544702447
 20
158.5761321329
 30
0.0
 10
38.8613399228
 20
158.5761321329
 30
0.0
 10
38.8749332976
 20
158.5752054879
 30
0.0
 10
38.8950837601
 20
158.5710478973
 30
0.0
 10
38.9143996298
 20
158.5642261326
 30
0.0
 10
38.9326715044
 20
158.5548169645
 30
0.0
 10
38.9494084046
 20
158.5430776559
 30
0.0
 10
38.9644592668
 20
158.5291057743
 30
0.0
 10
38.9773790225
 20
158.5133227526
 30
0.0
 10
38.988085281
 20
158.4958199145
 30
0.0
 10
38.9962373323
 20
158.4771627261
 30
0.0
 10
39.0017983993
 20
158.4574265128
 30
0.0
 10
39.0045838986
 20
158.4372748713
 30
0.0
 10
39.0045838983
 20
158.4167713779
 30
0.0
 10
39.0017983979
 20
158.3966146088
 30
0.0
 10
38.9962373304
 20
158.3768684504
 30
0.0
 10
38.9880852757
 20
158.358197367
 30
0.0
 10
38.9773790199
 20
158.340677544
 30
0.0
 10
38.9644592581
 20
158.3248758984
 30
0.0
 10
38.9494084015
 20
158.3108849406
 30
0.0
 10
38.9326714877
 20
158.2991276949
 30
0.0
 10
38.9143996276
 20
158.2897029201
 30
0.0
 10
38.8950837387
 20
158.2828691322
 30
0.0
 10
38.8749332973
 20
158.2787039388
 30
0.0
 10
38.8613399227
 20
158.2777755643
 30
0.0
 10
38.8544702447
 20
158.2777755643
 30
0.0
  0
SPLINE
  5
624
100
AcDbEntity
  8
03___PRT_ALL_CURVES
100
AcDbSpline
 62
40
  6
CONTINUOUS
 70
0
 71
3
 72
30
 73
26
 74
0
 42
0.0000001
 43
0.0000001
 44
0.0000000001
 40
0.0
 40
0.0
 40
0.0
 40
0.0
 40
0.0434782609
 40
0.0869565217
 40
0.1304347826
 40
0.1739130435
 40
0.2173913043
 40
0.2608695652
 40
0.3043478261
 40
0.347826087
 40
0.3913043478
 40
0.4347826087
 40
0.4782608696
 40
0.5217391304
 40
0.5652173913
 40
0.6086956522
 40
0.652173913
 40
0.6956521739
 40
0.7391304348
 40
0.7826086957
 40
0.8260869565
 40
0.8695652174
 40
0.9130434783
 40
0.9565217391
 40
1.0
 40
1.0
 40
1.0
 40
1.0
 10
37.4044702447
 20
158.2777755643
 30
0.0
 10
37.3976005666
 20
158.2777755643
 30
0.0
 10
37.3840071918
 20
158.278703938
 30
0.0
 10
37.363856729
 20
158.2828691384
 30
0.0
 10
37.3445408596
 20
158.2897029212
 30
0.0
 10
37.3262689847
 20
158.2991277051
 30
0.0
 10
37.3095320848
 20
158.3108849436
 30
0.0
 10
37.2944812222
 20
158.324875908
 30
0.0
 10
37.2815614668
 20
158.340677548
 30
0.0
 10
37.2708552082
 20
158.3581973772
 30
0.0
 10
37.262703157
 20
158.3768684567
 30
0.0
 10
37.2571420902
 20
158.3966146151
 30
0.0
 10
37.2543565908
 20
158.4167713835
 30
0.0
 10
37.2543565911
 20
158.4372748765
 30
0.0
 10
37.2571420914
 20
158.4574265187
 30
0.0
 10
37.2627031589
 20
158.4771627318
 30
0.0
 10
37.2708552134
 20
158.4958199237
 30
0.0
 10
37.2815614694
 20
158.5133227563
 30
0.0
 10
37.294481231
 20
158.529105783
 30
0.0
 10
37.3095320879
 20
158.5430776588
 30
0.0
 10
37.3262690013
 20
158.5548169741
 30
0.0
 10
37.3445408618
 20
158.5642261337
 30
0.0
 10
37.3638567504
 20
158.5710479033
 30
0.0
 10
37.3840071922
 20
158.5752054871
 30
0.0
 10
37.3976005667
 20
158.5761321329
 30
0.0
 10
37.4044702447
 20
158.5761321329
 30
0.0
  0
SPLINE
  5
625
100
AcDbEntity
  8
03___PRT_ALL_CURVES
100
AcDbSpline
 62
40
  6
CONTINUOUS
 70
0
 71
3
 72
30
 73
26
 74
0
 42
0.0000001
 43
0.0000001
 44
0.0000000001
 40
0.0
 40
0.0
 40
0.0
 40
0.0
 40
0.0434782609
 40
0.0869565217
 40
0.1304347826
 40
0.1739130435
 40
0.2173913043
 40
0.2608695652
 40
0.3043478261
 40
0.347826087
 40
0.3913043478
 40
0.4347826087
 40
0.4782608696
 40
0.5217391304
 40
0.5652173913
 40
0.6086956522
 40
0.652173913
 40
0.6956521739
 40
0.7391304348
 40
0.7826086957
 40
0.8260869565
 40
0.8695652174
 40
0.9130434783
 40
0.9565217391
 40
1.0
 40
1.0
 40
1.0
 40
1.0
 10
38.8544702447
 20
170.4909604506
 30
0.0
 10
38.8613399228
 20
170.4909604506
 30
0.0
 10
38.8749332976
 20
170.4904189608
 30
0.0
 10
38.8950837601
 20
170.487988929
 30
0.0
 10
38.9143996298
 20
170.4840000667
 30
0.0
 10
38.9326715044
 20
170.4784948474
 30
0.0
 10
38.9494084046
 20
170.4716207349
 30
0.0
 10
38.9644592668
 20
170.4634312393
 30
0.0
 10
38.9773790225
 20
170.4541696603
 30
0.0
 10
38.988085281
 20
170.4438858124
 30
0.0
 10
38.9962373323
 20
170.4329086378
 30
0.0
 10
39.0017983993
 20
170.4212796321
 30
0.0
 10
39.0045838986
 20
170.4093878747
 30
0.0
 10
39.0045838983
 20
170.3972698398
 30
0.0
 10
39.0017983979
 20
170.385338402
 30
0.0
 10
38.9962373304
 20
170.3736324204
 30
0.0
 10
38.9880852757
 20
170.36254773
 30
0.0
 10
38.9773790199
 20
170.3521323819
 30
0.0
 10
38.9644592581
 20
170.342726698
 30
0.0
 10
38.9494084015
 20
170.3343895142
 30
0.0
 10
38.9326714877
 20
170.3273766241
 30
0.0
 10
38.9143996276
 20
170.3217505511
 30
0.0
 10
38.8950837387
 20
170.3176686687
 30
0.0
 10
38.8749332973
 20
170.3151797442
 30
0.0
 10
38.8613399227
 20
170.3146248749
 30
0.0
 10
38.8544702447
 20
170.3146248749
 30
0.0
  0
SPLINE
  5
626
100
AcDbEntity
  8
03___PRT_ALL_CURVES
100
AcDbSpline
 62
40
  6
CONTINUOUS
 70
0
 71
3
 72
30
 73
26
 74
0
 42
0.0000001
 43
0.0000001
 44
0.0000000001
 40
0.0
 40
0.0
 40
0.0
 40
0.0
 40
0.0434782609
 40
0.0869565217
 40
0.1304347826
 40
0.1739130435
 40
0.2173913043
 40
0.2608695652
 40
0.3043478261
 40
0.347826087
 40
0.3913043478
 40
0.4347826087
 40
0.4782608696
 40
0.5217391304
 40
0.5652173913
 40
0.6086956522
 40
0.652173913
 40
0.6956521739
 40
0.7391304348
 40
0.7826086957
 40
0.8260869565
 40
0.8695652174
 40
0.9130434783
 40
0.9565217391
 40
1.0
 40
1.0
 40
1.0
 40
1.0
 10
37.4044702447
 20
170.3146248749
 30
0.0
 10
37.3976005666
 20
170.3146248749
 30
0.0
 10
37.3840071918
 20
170.3151797437
 30
0.0
 10
37.363856729
 20
170.3176686723
 30
0.0
 10
37.3445408596
 20
170.3217505517
 30
0.0
 10
37.3262689847
 20
170.3273766302
 30
0.0
 10
37.3095320848
 20
170.3343895159
 30
0.0
 10
37.2944812222
 20
170.3427267037
 30
0.0
 10
37.2815614668
 20
170.3521323843
 30
0.0
 10
37.2708552082
 20
170.362547736
 30
0.0
 10
37.262703157
 20
170.3736324241
 30
0.0
 10
37.2571420902
 20
170.3853384057
 30
0.0
 10
37.2543565908
 20
170.3972698431
 30
0.0
 10
37.2543565911
 20
170.4093878777
 30
0.0
 10
37.2571420914
 20
170.4212796356
 30
0.0
 10
37.2627031589
 20
170.4329086412
 30
0.0
 10
37.2708552134
 20
170.4438858178
 30
0.0
 10
37.2815614694
 20
170.4541696624
 30
0.0
 10
37.294481231
 20
170.4634312444
 30
0.0
 10
37.3095320879
 20
170.4716207366
 30
0.0
 10
37.3262690013
 20
170.478494853
 30
0.0
 10
37.3445408618
 20
170.4840000673
 30
0.0
 10
37.3638567504
 20
170.4879889325
 30
0.0
 10
37.3840071922
 20
170.4904189603
 30
0.0
 10
37.3976005667
 20
170.4909604506
 30
0.0
 10
37.4044702447
 20
170.4909604506
 30
0.0
  0
SPLINE
  5
627
100
AcDbEntity
  8
03___PRT_ALL_CURVES
100
AcDbSpline
 62
40
  6
CONTINUOUS
 70
0
 71
3
 72
30
 73
26
 74
0
 42
0.0000001
 43
0.0000001
 44
0.0000000001
 40
0.0
 40
0.0
 40
0.0
 40
0.0
 40
0.0434782609
 40
0.0869565217
 40
0.1304347826
 40
0.1739130435
 40
0.2173913043
 40
0.2608695652
 40
0.3043478261
 40
0.347826087
 40
0.3913043478
 40
0.4347826087
 40
0.4782608696
 40
0.5217391304
 40
0.5652173913
 40
0.6086956522
 40
0.652173913
 40
0.6956521739
 40
0.7391304348
 40
0.7826086957
 40
0.8260869565
 40
0.8695652174
 40
0.9130434783
 40
0.9565217391
 40
1.0
 40
1.0
 40
1.0
 40
1.0
 10
38.8544702447
 20
169.3833789752
 30
0.0
 10
38.8613399228
 20
169.3833789752
 30
0.0
 10
38.8749332976
 20
169.3827610765
 30
0.0
 10
38.8950837601
 20
169.3799882722
 30
0.0
 10
38.9143996298
 20
169.375437156
 30
0.0
 10
38.9326715044
 20
169.3691567697
 30
0.0
 10
38.9494084046
 20
169.361316076
 30
0.0
 10
38.9644592668
 20
169.3519769791
 30
0.0
 10
38.9773790225
 20
169.3414178247
 30
0.0
 10
38.988085281
 20
169.3296963111
 30
0.0
 10
38.9962373323
 20
169.3171881561
 30
0.0
 10
39.0017983993
 20
169.3039413173
 30
0.0
 10
39.0045838986
 20
169.290399463
 30
0.0
 10
39.0045838983
 20
169.2766043771
 30
0.0
 10
39.0017983979
 20
169.2630260732
 30
0.0
 10
38.9962373304
 20
169.2497085261
 30
0.0
 10
38.9880852757
 20
169.237101609
 30
0.0
 10
38.9773790199
 20
169.2252593031
 30
0.0
 10
38.9644592581
 20
169.2145677764
 30
0.0
 10
38.9494084015
 20
169.2050930173
 30
0.0
 10
38.9326714877
 20
169.1971248448
 30
0.0
 10
38.9143996276
 20
169.1907334461
 30
0.0
 10
38.8950837387
 20
169.186096883
 30
0.0
 10
38.8749332973
 20
169.1832699821
 30
0.0
 10
38.8613399227
 20
169.1826397932
 30
0.0
 10
38.8544702447
 20
169.1826397932
 30
0.0
  0
SPLINE
  5
628
100
AcDbEntity
  8
03___PRT_ALL_CURVES
100
AcDbSpline
 62
40
  6
CONTINUOUS
 70
0
 71
3
 72
30
 73
26
 74
0
 42
0.0000001
 43
0.0000001
 44
0.0000000001
 40
0.0
 40
0.0
 40
0.0
 40
0.0
 40
0.0434782609
 40
0.0869565217
 40
0.1304347826
 40
0.1739130435
 40
0.2173913043
 40
0.2608695652
 40
0.3043478261
 40
0.347826087
 40
0.3913043478
 40
0.4347826087
 40
0.4782608696
 40
0.5217391304
 40
0.5652173913
 40
0.6086956522
 40
0.652173913
 40
0.6956521739
 40
0.7391304348
 40
0.7826086957
 40
0.8260869565
 40
0.8695652174
 40
0.9130434783
 40
0.9565217391
 40
1.0
 40
1.0
 40
1.0
 40
1.0
 10
38.8544702447
 20
173.5719324861
 30
0.0
 10
38.8613399228
 20
173.5719324861
 30
0.0
 10
38.8749332976
 20
173.5718432244
 30
0.0
 10
38.8950837601
 20
173.5714420449
 30
0.0
 10
38.9143996298
 20
173.5707815898
 30
0.0
 10
38.9326715044
 20
173.5698661115
 30
0.0
 10
38.9494084046
 20
173.568716615
 30
0.0
 10
38.9644592668
 20
173.5673378868
 30
0.0
 10
38.9773790225
 20
173.5657666179
 30
0.0
 10
38.988085281
 20
173.5640069311
 30
0.0
 10
38.9962373323
 20
173.5621113346
 30
0.0
 10
39.0017983993
 20
173.5600837657
 30
0.0
 10
39.0045838986
 20
173.5579898625
 30
0.0
 10
39.0045838983
 20
173.5558348585
 30
0.0
 10
39.0017983979
 20
173.553692177
 30
0.0
 10
38.9962373304
 20
173.5515699814
 30
0.0
 10
38.9880852757
 20
173.5495422184
 30
0.0
 10
38.9773790199
 20
173.5476208753
 30
0.0
 10
38.9644592581
 20
173.5458724618
 30
0.0
 10
38.9494084015
 20
173.5443121772
 30
0.0
 10
38.9326714877
 20
173.5429920863
 30
0.0
 10
38.9143996276
 20
173.5419280374
 30
0.0
 10
38.8950837387
 20
173.5411532361
 30
0.0
 10
38.8749332973
 20
173.5406796558
 30
0.0
 10
38.8613399227
 20
173.5405739471
 30
0.0
 10
38.8544702447
 20
173.5405739471
 30
0.0
  0
SPLINE
  5
629
100
AcDbEntity
  8
03___PRT_ALL_CURVES
100
AcDbSpline
 62
40
  6
CONTINUOUS
 70
0
 71
3
 72
30
 73
26
 74
0
 42
0.0000001
 43
0.0000001
 44
0.0000000001
 40
0.0
 40
0.0
 40
0.0
 40
0.0
 40
0.0434782609
 40
0.0869565217
 40
0.1304347826
 40
0.1739130435
 40
0.2173913043
 40
0.2608695652
 40
0.3043478261
 40
0.347826087
 40
0.3913043478
 40
0.4347826087
 40
0.4782608696
 40
0.5217391304
 40
0.5652173913
 40
0.6086956522
 40
0.652173913
 40
0.6956521739
 40
0.7391304348
 40
0.7826086957
 40
0.8260869565
 40
0.8695652174
 40
0.9130434783
 40
0.9565217391
 40
1.0
 40
1.0
 40
1.0
 40
1.0
 10
37.4044702447
 20
173.5405739471
 30
0.0
 10
37.3976005666
 20
173.5405739471
 30
0.0
 10
37.3840071918
 20
173.5406796557
 30
0.0
 10
37.363856729
 20
173.5411532368
 30
0.0
 10
37.3445408596
 20
173.5419280376
 30
0.0
 10
37.3262689847
 20
173.5429920874
 30
0.0
 10
37.3095320848
 20
173.5443121775
 30
0.0
 10
37.2944812222
 20
173.5458724629
 30
0.0
 10
37.2815614668
 20
173.5476208757
 30
0.0
 10
37.2708552082
 20
173.5495422195
 30
0.0
 10
37.262703157
 20
173.5515699821
 30
0.0
 10
37.2571420902
 20
173.5536921777
 30
0.0
 10
37.2543565908
 20
173.5558348591
 30
0.0
 10
37.2543565911
 20
173.5579898631
 30
0.0
 10
37.2571420914
 20
173.5600837663
 30
0.0
 10
37.2627031589
 20
173.5621113352
 30
0.0
 10
37.2708552134
 20
173.564006932
 30
0.0
 10
37.2815614694
 20
173.5657666183
 30
0.0
 10
37.294481231
 20
173.5673378877
 30
0.0
 10
37.3095320879
 20
173.5687166153
 30
0.0
 10
37.3262690013
 20
173.5698661124
 30
0.0
 10
37.3445408618
 20
173.5707815899
 30
0.0
 10
37.3638567504
 20
173.5714420455
 30
0.0
 10
37.3840071922
 20
173.5718432243
 30
0.0
 10
37.3976005667
 20
173.5719324861
 30
0.0
 10
37.4044702447
 20
173.5719324861
 30
0.0
  0
SPLINE
  5
62A
100
AcDbEntity
  8
03___PRT_ALL_CURVES
100
AcDbSpline
 62
40
  6
CONTINUOUS
 70
0
 71
3
 72
30
 73
26
 74
0
 42
0.0000001
 43
0.0000001
 44
0.0000000001
 40
0.0
 40
0.0
 40
0.0
 40
0.0
 40
0.0434782609
 40
0.0869565217
 40
0.1304347826
 40
0.1739130435
 40
0.2173913043
 40
0.2608695652
 40
0.3043478261
 40
0.347826087
 40
0.3913043478
 40
0.4347826087
 40
0.4782608696
 40
0.5217391304
 40
0.5652173913
 40
0.6086956522
 40
0.652173913
 40
0.6956521739
 40
0.7391304348
 40
0.7826086957
 40
0.8260869565
 40
0.8695652174
 40
0.9130434783
 40
0.9565217391
 40
1.0
 40
1.0
 40
1.0
 40
1.0
 10
38.8544702447
 20
173.3090877976
 30
0.0
 10
38.8613399228
 20
173.3090877976
 30
0.0
 10
38.8749332976
 20
173.3089019834
 30
0.0
 10
38.8950837601
 20
173.3080676196
 30
0.0
 10
38.9143996298
 20
173.3066964577
 30
0.0
 10
38.9326715044
 20
173.3048008364
 30
0.0
 10
38.9494084046
 20
173.3024286708
 30
0.0
 10
38.9644592668
 20
173.2995950415
 30
0.0
 10
38.9773790225
 20
173.296380659
 30
0.0
 10
38.988085281
 20
173.2927992911
 30
0.0
 10
38.9962373323
 20
173.2889624196
 30
0.0
 10
39.0017983993
 20
173.2848819223
 30
0.0
 10
39.0045838986
 20
173.2806925338
 30
0.0
 10
39.0045838983
 20
173.2764061365
 30
0.0
 10
39.0017983979
 20
173.2721687725
 30
0.0
 10
38.9962373304
 20
173.2679952066
 30
0.0
 10
38.9880852757
 20
173.2640283443
 30
0.0
 10
38.9773790199
 20
173.2602879823
 30
0.0
 10
38.9644592581
 20
173.2568993713
 30
0.0
 10
38.9494084015
 20
173.2538871754
 30
0.0
 10
38.9326714877
 20
173.2513472235
 30
0.0
 10
38.9143996276
 20
173.2493054786
 30
0.0
 10
38.8950837387
 20
173.2478218527
 30
0.0
 10
38.8749332973
 20
173.2469162808
 30
0.0
 10
38.8613399227
 20
173.2467142904
 30
0.0
 10
38.8544702447
 20
173.2467142904
 30
0.0
  0
SPLINE
  5
62B
100
AcDbEntity
  8
03___PRT_ALL_CURVES
100
AcDbSpline
 62
40
  6
CONTINUOUS
 70
0
 71
3
 72
30
 73
26
 74
0
 42
0.0000001
 43
0.0000001
 44
0.0000000001
 40
0.0
 40
0.0
 40
0.0
 40
0.0
 40
0.0434782609
 40
0.0869565217
 40
0.1304347826
 40
0.1739130435
 40
0.2173913043
 40
0.2608695652
 40
0.3043478261
 40
0.347826087
 40
0.3913043478
 40
0.4347826087
 40
0.4782608696
 40
0.5217391304
 40
0.5652173913
 40
0.6086956522
 40
0.652173913
 40
0.6956521739
 40
0.7391304348
 40
0.7826086957
 40
0.8260869565
 40
0.8695652174
 40
0.9130434783
 40
0.9565217391
 40
1.0
 40
1.0
 40
1.0
 40
1.0
 10
37.4044702447
 20
169.1826397932
 30
0.0
 10
37.3976005666
 20
169.1826397932
 30
0.0
 10
37.3840071918
 20
169.1832699816
 30
0.0
 10
37.363856729
 20
169.1860968872
 30
0.0
 10
37.3445408596
 20
169.1907334468
 30
0.0
 10
37.3262689847
 20
169.1971248517
 30
0.0
 10
37.3095320848
 20
169.2050930193
 30
0.0
 10
37.2944812222
 20
169.2145677829
 30
0.0
 10
37.2815614668
 20
169.2252593058
 30
0.0
 10
37.2708552082
 20
169.2371016159
 30
0.0
 10
37.262703157
 20
169.2497085304
 30
0.0
 10
37.2571420902
 20
169.2630260774
 30
0.0
 10
37.2543565908
 20
169.2766043809
 30
0.0
 10
37.2543565911
 20
169.2903994665
 30
0.0
 10
37.2571420914
 20
169.3039413213
 30
0.0
 10
37.2627031589
 20
169.3171881599
 30
0.0
 10
37.2708552134
 20
169.3296963173
 30
0.0
 10
37.2815614694
 20
169.3414178272
 30
0.0
 10
37.294481231
 20
169.351976985
 30
0.0
 10
37.3095320879
 20
169.3613160779
 30
0.0
 10
37.3262690013
 20
169.3691567761
 30
0.0
 10
37.3445408618
 20
169.3754371567
 30
0.0
 10
37.3638567504
 20
169.3799882762
 30
0.0
 10
37.3840071922
 20
169.382761076
 30
0.0
 10
37.3976005667
 20
169.3833789752
 30
0.0
 10
37.4044702447
 20
169.3833789752
 30
0.0
  0
SPLINE
  5
62C
100
AcDbEntity
  8
03___PRT_ALL_CURVES
100
AcDbSpline
 62
40
  6
CONTINUOUS
 70
0
 71
3
 72
30
 73
26
 74
0
 42
0.0000001
 43
0.0000001
 44
0.0000000001
 40
0.0
 40
0.0
 40
0.0
 40
0.0
 40
0.0434782609
 40
0.0869565217
 40
0.1304347826
 40
0.1739130435
 40
0.2173913043
 40
0.2608695652
 40
0.3043478261
 40
0.347826087
 40
0.3913043478
 40
0.4347826087
 40
0.4782608696
 40
0.5217391304
 40
0.5652173913
 40
0.6086956522
 40
0.652173913
 40
0.6956521739
 40
0.7391304348
 40
0.7826086957
 40
0.8260869565
 40
0.8695652174
 40
0.9130434783
 40
0.9565217391
 40
1.0
 40
1.0
 40
1.0
 40
1.0
 10
37.4044702447
 20
173.2467142904
 30
0.0
 10
37.3976005666
 20
173.2467142904
 30
0.0
 10
37.3840071918
 20
173.2469162806
 30
0.0
 10
37.363856729
 20
173.247821854
 30
0.0
 10
37.3445408596
 20
173.2493054789
 30
0.0
 10
37.3262689847
 20
173.2513472257
 30
0.0
 10
37.3095320848
 20
173.253887176
 30
0.0
 10
37.2944812222
 20
173.2568993734
 30
0.0
 10
37.2815614668
 20
173.2602879831
 30
0.0
 10
37.2708552082
 20
173.2640283465
 30
0.0
 10
37.262703157
 20
173.267995208
 30
0.0
 10
37.2571420902
 20
173.2721687739
 30
0.0
 10
37.2543565908
 20
173.2764061377
 30
0.0
 10
37.2543565911
 20
173.2806925349
 30
0.0
 10
37.2571420914
 20
173.2848819235
 30
0.0
 10
37.2627031589
 20
173.2889624208
 30
0.0
 10
37.2708552134
 20
173.292799293
 30
0.0
 10
37.2815614694
 20
173.2963806597
 30
0.0
 10
37.294481231
 20
173.2995950433
 30
0.0
 10
37.3095320879
 20
173.3024286714
 30
0.0
 10
37.3262690013
 20
173.3048008383
 30
0.0
 10
37.3445408618
 20
173.3066964579
 30
0.0
 10
37.3638567504
 20
173.3080676208
 30
0.0
 10
37.3840071922
 20
173.3089019832
 30
0.0
 10
37.3976005667
 20
173.3090877976
 30
0.0
 10
37.4044702447
 20
173.3090877976
 30
0.0
  0
SPLINE
  5
62D
100
AcDbEntity
  8
03___PRT_ALL_CURVES
100
AcDbSpline
 62
40
  6
CONTINUOUS
 70
0
 71
3
 72
30
 73
26
 74
0
 42
0.0000001
 43
0.0000001
 44
0.0000000001
 40
0.0
 40
0.0
 40
0.0
 40
0.0
 40
0.0434782609
 40
0.0869565217
 40
0.1304347826
 40
0.1739130435
 40
0.2173913043
 40
0.2608695652
 40
0.3043478261
 40
0.347826087
 40
0.3913043478
 40
0.4347826087
 40
0.4782608696
 40
0.5217391304
 40
0.5652173913
 40
0.6086956522
 40
0.652173913
 40
0.6956521739
 40
0.7391304348
 40
0.7826086957
 40
0.8260869565
 40
0.8695652174
 40
0.9130434783
 40
0.9565217391
 40
1.0
 40
1.0
 40
1.0
 40
1.0
 10
38.8544702447
 20
172.863723086
 30
0.0
 10
38.8613399228
 20
172.863723086
 30
0.0
 10
38.8749332976
 20
172.863442755
 30
0.0
 10
38.8950837601
 20
172.8621843485
 30
0.0
 10
38.9143996298
 20
172.8601175025
 30
0.0
 10
38.9326715044
 20
172.8572625069
 30
0.0
 10
38.9494084046
 20
172.8536936623
 30
0.0
 10
38.9644592668
 20
172.8494361777
 30
0.0
 10
38.9773790225
 20
172.844613899
 30
0.0
 10
38.988085281
 20
172.8392500883
 30
0.0
 10
38.9962373323
 20
172.8335139794
 30
0.0
 10
39.0017983993
 20
172.8274252604
 30
0.0
 10
39.0045838986
 20
172.8211862864
 30
0.0
 10
39.0045838983
 20
172.8148154584
 30
0.0
 10
39.0017983979
 20
172.8085298375
 30
0.0
 10
38.9962373304
 20
172.8023506277
 30
0.0
 10
38.9880852757
 20
172.7964881278
 30
0.0
 10
38.9773790199
 20
172.7909697271
 30
0.0
 10
38.9644592581
 20
172.7859780449
 30
0.0
 10
38.9494084015
 20
172.78154694
 30
0.0
 10
38.9326714877
 20
172.7778149553
 30
0.0
 10
38.9143996276
 20
172.7748178843
 30
0.0
 10
38.8950837387
 20
172.7726416886
 30
0.0
 10
38.8749332973
 20
172.7713140468
 30
0.0
 10
38.8613399227
 20
172.7710179876
 30
0.0
 10
38.8544702447
 20
172.7710179876
 30
0.0
  0
SPLINE
  5
62E
100
AcDbEntity
  8
03___PRT_ALL_CURVES
100
AcDbSpline
 62
40
  6
CONTINUOUS
 70
0
 71
3
 72
30
 73
26
 74
0
 42
0.0000001
 43
0.0000001
 44
0.0000000001
 40
0.0
 40
0.0
 40
0.0
 40
0.0
 40
0.0434782609
 40
0.0869565217
 40
0.1304347826
 40
0.1739130435
 40
0.2173913043
 40
0.2608695652
 40
0.3043478261
 40
0.347826087
 40
0.3913043478
 40
0.4347826087
 40
0.4782608696
 40
0.5217391304
 40
0.5652173913
 40
0.6086956522
 40
0.652173913
 40
0.6956521739
 40
0.7391304348
 40
0.7826086957
 40
0.8260869565
 40
0.8695652174
 40
0.9130434783
 40
0.9565217391
 40
1.0
 40
1.0
 40
1.0
 40
1.0
 10
36.1544702447
 20
165.0198044483
 30
0.0
 10
36.1476005666
 20
165.0198044483
 30
0.0
 10
36.1340071919
 20
165.0206162539
 30
0.0
 10
36.1138567308
 20
165.0242581789
 30
0.0
 10
36.0945408598
 20
165.0302325191
 30
0.0
 10
36.0762689851
 20
165.038470129
 30
0.0
 10
36.0595320848
 20
165.0487433586
 30
0.0
 10
36.0444812221
 20
165.0609639615
 30
0.0
 10
36.0315614668
 20
165.0747603853
 30
0.0
 10
36.0208552087
 20
165.0900498158
 30
0.0
 10
36.0127031572
 20
165.1063356873
 30
0.0
 10
36.0071420898
 20
165.1235500159
 30
0.0
 10
36.0043565908
 20
165.1411124728
 30
0.0
 10
36.0043565912
 20
165.1589668252
 30
0.0
 10
36.0071420913
 20
165.1765047593
 30
0.0
 10
36.0127031591
 20
165.1936715132
 30
0.0
 10
36.0208552139
 20
165.2098909409
 30
0.0
 10
36.0315614696
 20
165.2250990928
 30
0.0
 10
36.0444812316
 20
165.2388064618
 30
0.0
 10
36.0595320879
 20
165.2509357799
 30
0.0
 10
36.0762690014
 20
165.2611232487
 30
0.0
 10
36.0945408621
 20
165.2692861563
 30
0.0
 10
36.1138567538
 20
165.2752030134
 30
0.0
 10
36.1340071922
 20
165.2788085318
 30
0.0
 10
36.1476005667
 20
165.2796120694
 30
0.0
 10
36.1544702447
 20
165.2796120694
 30
0.0
  0
SPLINE
  5
62F
100
AcDbEntity
  8
03___PRT_ALL_CURVES
100
AcDbSpline
 62
40
  6
CONTINUOUS
 70
0
 71
3
 72
30
 73
26
 74
0
 42
0.0000001
 43
0.0000001
 44
0.0000000001
 40
0.0
 40
0.0
 40
0.0
 40
0.0
 40
0.0434782609
 40
0.0869565217
 40
0.1304347826
 40
0.1739130435
 40
0.2173913043
 40
0.2608695652
 40
0.3043478261
 40
0.347826087
 40
0.3913043478
 40
0.4347826087
 40
0.4782608696
 40
0.5217391304
 40
0.5652173913
 40
0.6086956522
 40
0.652173913
 40
0.6956521739
 40
0.7391304348
 40
0.7826086957
 40
0.8260869565
 40
0.8695652174
 40
0.9130434783
 40
0.9565217391
 40
1.0
 40
1.0
 40
1.0
 40
1.0
 10
38.8544702447
 20
165.2796120694
 30
0.0
 10
38.8613399228
 20
165.2796120694
 30
0.0
 10
38.8749332976
 20
165.2788085326
 30
0.0
 10
38.8950837583
 20
165.2752030079
 30
0.0
 10
38.9143996296
 20
165.2692861553
 30
0.0
 10
38.932671504
 20
165.2611232405
 30
0.0
 10
38.9494084045
 20
165.2509357775
 30
0.0
 10
38.964459267
 20
165.2388064535
 30
0.0
 10
38.9773790225
 20
165.2250990893
 30
0.0
 10
38.9880852805
 20
165.2098909327
 30
0.0
 10
38.9962373322
 20
165.1936715082
 30
0.0
 10
39.0017983997
 20
165.1765047531
 30
0.0
 10
39.0045838986
 20
165.1589668199
 30
0.0
 10
39.0045838982
 20
165.1411124671
 30
0.0
 10
39.001798398
 20
165.1235500094
 30
0.0
 10
38.9962373302
 20
165.1063356818
 30
0.0
 10
38.9880852752
 20
165.0900498068
 30
0.0
 10
38.9773790198
 20
165.0747603815
 30
0.0
 10
38.9644592575
 20
165.0609639525
 30
0.0
 10
38.9494084014
 20
165.0487433561
 30
0.0
 10
38.9326714876
 20
165.0384701204
 30
0.0
 10
38.9143996273
 20
165.0302325181
 30
0.0
 10
38.8950837353
 20
165.0242581731
 30
0.0
 10
38.8749332972
 20
165.0206162547
 30
0.0
 10
38.8613399227
 20
165.0198044483
 30
0.0
 10
38.8544702447
 20
165.0198044483
 30
0.0
  0
SPLINE
  5
630
100
AcDbEntity
  8
03___PRT_ALL_CURVES
100
AcDbSpline
 62
40
  6
CONTINUOUS
 70
0
 71
3
 72
30
 73
26
 74
0
 42
0.0000001
 43
0.0000001
 44
0.0000000001
 40
0.0
 40
0.0
 40
0.0
 40
0.0
 40
0.0434782609
 40
0.0869565217
 40
0.1304347826
 40
0.1739130435
 40
0.2173913043
 40
0.2608695652
 40
0.3043478261
 40
0.347826087
 40
0.3913043478
 40
0.4347826087
 40
0.4782608696
 40
0.5217391304
 40
0.5652173913
 40
0.6086956522
 40
0.652173913
 40
0.6956521739
 40
0.7391304348
 40
0.7826086957
 40
0.8260869565
 40
0.8695652174
 40
0.9130434783
 40
0.9565217391
 40
1.0
 40
1.0
 40
1.0
 40
1.0
 10
36.1544702447
 20
171.2968978958
 30
0.0
 10
36.1476005666
 20
171.2968978958
 30
0.0
 10
36.1340071919
 20
171.2973713659
 30
0.0
 10
36.1138567308
 20
171.299495048
 30
0.0
 10
36.0945408598
 20
171.3029775255
 30
0.0
 10
36.0762689851
 20
171.3077766369
 30
0.0
 10
36.0595320848
 20
171.3137574062
 30
0.0
 10
36.0444812221
 20
171.3208656743
 30
0.0
 10
36.0315614668
 20
171.328882462
 30
0.0
 10
36.0208552087
 20
171.3377567422
 30
0.0
 10
36.0127031572
 20
171.3471977577
 30
0.0
 10
36.0071420898
 20
171.3571639218
 30
0.0
 10
36.0043565908
 20
171.3673177697
 30
0.0
 10
36.0043565912
 20
171.3776259848
 30
0.0
 10
36.0071420913
 20
171.3877373572
 30
0.0
 10
36.0127031591
 20
171.3976211203
 30
0.0
 10
36.0208552139
 20
171.406947048
 30
0.0
 10
36.0315614696
 20
171.4156805552
 30
0.0
 10
36.0444812316
 20
171.4235430897
 30
0.0
 10
36.0595320879
 20
171.430493255
 30
0.0
 10
36.0762690014
 20
171.4363254755
 30
0.0
 10
36.0945408621
 20
171.4409952072
 30
0.0
 10
36.1138567538
 20
171.4443781157
 30
0.0
 10
36.1340071922
 20
171.4464387471
 30
0.0
 10
36.1476005667
 20
171.4468978958
 30
0.0
 10
36.1544702447
 20
171.4468978958
 30
0.0
  0
SPLINE
  5
631
100
AcDbEntity
  8
03___PRT_ALL_CURVES
100
AcDbSpline
 62
40
  6
CONTINUOUS
 70
0
 71
3
 72
30
 73
26
 74
0
 42
0.0000001
 43
0.0000001
 44
0.0000000001
 40
0.0
 40
0.0
 40
0.0
 40
0.0
 40
0.0434782609
 40
0.0869565217
 40
0.1304347826
 40
0.1739130435
 40
0.2173913043
 40
0.2608695652
 40
0.3043478261
 40
0.347826087
 40
0.3913043478
 40
0.4347826087
 40
0.4782608696
 40
0.5217391304
 40
0.5652173913
 40
0.6086956522
 40
0.652173913
 40
0.6956521739
 40
0.7391304348
 40
0.7826086957
 40
0.8260869565
 40
0.8695652174
 40
0.9130434783
 40
0.9565217391
 40
1.0
 40
1.0
 40
1.0
 40
1.0
 10
38.8544702447
 20
171.4468978958
 30
0.0
 10
38.8613399228
 20
171.4468978958
 30
0.0
 10
38.8749332976
 20
171.4464387475
 30
0.0
 10
38.8950837583
 20
171.4443781125
 30
0.0
 10
38.9143996296
 20
171.4409952067
 30
0.0
 10
38.932671504
 20
171.4363254708
 30
0.0
 10
38.9494084045
 20
171.4304932536
 30
0.0
 10
38.964459267
 20
171.4235430849
 30
0.0
 10
38.9773790225
 20
171.4156805532
 30
0.0
 10
38.9880852805
 20
171.4069470433
 30
0.0
 10
38.9962373322
 20
171.3976211174
 30
0.0
 10
39.0017983997
 20
171.3877373536
 30
0.0
 10
39.0045838986
 20
171.3776259818
 30
0.0
 10
39.0045838982
 20
171.3673177664
 30
0.0
 10
39.001798398
 20
171.3571639181
 30
0.0
 10
38.9962373302
 20
171.3471977546
 30
0.0
 10
38.9880852752
 20
171.337756737
 30
0.0
 10
38.9773790198
 20
171.3288824598
 30
0.0
 10
38.9644592575
 20
171.320865669
 30
0.0
 10
38.9494084014
 20
171.3137574047
 30
0.0
 10
38.9326714876
 20
171.3077766319
 30
0.0
 10
38.9143996273
 20
171.3029775249
 30
0.0
 10
38.8950837353
 20
171.2994950446
 30
0.0
 10
38.8749332972
 20
171.2973713664
 30
0.0
 10
38.8613399227
 20
171.2968978958
 30
0.0
 10
38.8544702447
 20
171.2968978958
 30
0.0
  0
SPLINE
  5
632
100
AcDbEntity
  8
03___PRT_ALL_CURVES
100
AcDbSpline
 62
40
  6
CONTINUOUS
 70
0
 71
3
 72
19
 73
15
 74
0
 42
0.0000001
 43
0.0000001
 44
0.0000000001
 40
0.0
 40
0.0
 40
0.0
 40
0.0
 40
0.0869565229
 40
0.1739130457
 40
0.2608695686
 40
0.3478260914
 40
0.4347826143
 40
0.5217391372
 40
0.60869566
 40
0.6956521829
 40
0.7826087057
 40
0.8695652286
 40
0.9565217514
 40
1.0
 40
1.0
 40
1.0
 40
1.0
 10
36.1544702447
 20
173.6493773701
 30
0.0
 10
36.1476005666
 20
173.6493773701
 30
0.0
 10
36.1340071919
 20
173.6493856388
 30
0.0
 10
36.1138567308
 20
173.649422039
 30
0.0
 10
36.0945408598
 20
173.6494795267
 30
0.0
 10
36.0762689851
 20
173.6495542217
 30
0.0
 10
36.0595320848
 20
173.6496399884
 30
0.0
 10
36.0444812221
 20
173.649731267
 30
0.0
 10
36.0315614668
 20
173.6498203268
 30
0.0
 10
36.0208552087
 20
173.6499016005
 30
0.0
 10
36.0127031572
 20
173.6499680476
 30
0.0
 10
36.0071420898
 20
173.6500156215
 30
0.0
 10
36.0048208408
 20
173.6500360578
 30
0.0
 10
36.0044726535
 20
173.6500391232
 30
0.0
 10
36.0044726535
 20
173.6500391232
 30
0.0
  0
SPLINE
  5
633
100
AcDbEntity
  8
03___PRT_ALL_CURVES
100
AcDbSpline
 62
40
  6
CONTINUOUS
 70
0
 71
3
 72
19
 73
15
 74
0
 42
0.0000001
 43
0.0000001
 44
0.0000000001
 40
0.0
 40
0.0
 40
0.0
 40
0.0
 40
0.0434782743
 40
0.1304347948
 40
0.2173913153
 40
0.3043478358
 40
0.3913043564
 40
0.4782608769
 40
0.5652173974
 40
0.6521739179
 40
0.7391304384
 40
0.826086959
 40
0.9130434795
 40
1.0
 40
1.0
 40
1.0
 40
1.0
 10
39.0044678359
 20
173.6500391232
 30
0.0
 10
39.0044678359
 20
173.6500391232
 30
0.0
 10
39.0041196484
 20
173.6500360578
 30
0.0
 10
39.001798398
 20
173.6500156215
 30
0.0
 10
38.9962373302
 20
173.6499680476
 30
0.0
 10
38.9880852752
 20
173.6499016005
 30
0.0
 10
38.9773790198
 20
173.6498203268
 30
0.0
 10
38.9644592575
 20
173.6497312669
 30
0.0
 10
38.9494084014
 20
173.6496399884
 30
0.0
 10
38.9326714876
 20
173.6495542216
 30
0.0
 10
38.9143996273
 20
173.6494795267
 30
0.0
 10
38.8950837353
 20
173.649422039
 30
0.0
 10
38.8749332972
 20
173.6493856388
 30
0.0
 10
38.8613399227
 20
173.6493773701
 30
0.0
 10
38.8544702447
 20
173.6493773701
 30
0.0
  0
SPLINE
  5
634
100
AcDbEntity
  8
0
100
AcDbSpline
 62
2
  6
CONTINUOUS
 70
0
 71
3
 72
43
 73
39
 74
0
 42
0.0000001
 43
0.0000001
 44
0.0000000001
 40
0.0
 40
0.0
 40
0.0
 40
0.0
 40
0.0177588884
 40
0.0458229202
 40
0.0738869519
 40
0.1019509837
 40
0.1300150154
 40
0.1580790472
 40
0.186143079
 40
0.2142071107
 40
0.2422711425
 40
0.2703351742
 40
0.298399206
 40
0.3264632378
 40
0.3545272695
 40
0.3825913013
 40
0.410655333
 40
0.4387193648
 40
0.4667833966
 40
0.4948474283
 40
0.5229114601
 40
0.5509754918
 40
0.5790395236
 40
0.6071035554
 40
0.6351675871
 40
0.6632316189
 40
0.6912956506
 40
0.7193596824
 40
0.7474237142
 40
0.7754877459
 40
0.8035517777
 40
0.8316158094
 40
0.8596798412
 40
0.887743873
 40
0.9158079047
 40
0.9438719365
 40
0.9719359682
 40
1.0
 40
1.0
 40
1.0
 40
1.0
 10
40.5875704069
 20
69.8165181186
 30
0.0
 10
40.5955226616
 20
69.8158550245
 30
0.0
 10
40.6174736899
 20
69.8140390482
 30
0.0
 10
40.6588286317
 20
69.8106995806
 30
0.0
 10
40.7137793272
 20
69.806426642
 30
0.0
 10
40.7764243231
 20
69.8017712851
 30
0.0
 10
40.8463171754
 20
69.7968495113
 30
0.0
 10
40.9229680421
 20
69.7917814771
 30
0.0
 10
41.0061562853
 20
69.7866725922
 30
0.0
 10
41.0949876196
 20
69.7816665723
 30
0.0
 10
41.1894234025
 20
69.7768547475
 30
0.0
 10
41.2883441383
 20
69.7723783544
 30
0.0
 10
41.3916770819
 20
69.7683187026
 30
0.0
 10
41.4983919039
 20
69.7647885769
 30
0.0
 10
41.6080833917
 20
69.7618606168
 30
0.0
 10
41.7201260654
 20
69.7596050682
 30
0.0
 10
41.8335923382
 20
69.7580768511
 30
0.0
 10
41.9483240526
 20
69.7573064638
 30
0.0
 10
42.0630375885
 20
69.7573146781
 30
0.0
 10
42.1777562278
 20
69.75810137
 30
0.0
 10
42.2911935754
 20
69.7596452556
 30
0.0
 10
42.403196796
 20
69.7619156377
 30
0.0
 10
42.5128314657
 20
69.7648570601
 30
0.0
 10
42.6194792609
 20
69.7683991365
 30
0.0
 10
42.7227298805
 20
69.7724688136
 30
0.0
 10
42.8215562082
 20
69.7769530937
 30
0.0
 10
42.9158860075
 20
69.7817705639
 30
0.0
 10
43.0045977716
 20
69.7867796309
 30
0.0
 10
43.0876581461
 20
69.7918892139
 30
0.0
 10
43.1641679195
 20
69.7969551842
 30
0.0
 10
43.2339133736
 20
69.8018726017
 30
0.0
 10
43.2964003454
 20
69.8065210514
 30
0.0
 10
43.3511871534
 20
69.8107849587
 30
0.0
 10
43.398139643
 20
69.8145791717
 30
0.0
 10
43.436767976
 20
69.8177975005
 30
0.0
 10
43.4670794351
 20
69.8203841873
 30
0.0
 10
43.4887306572
 20
69.8222641034
 30
0.0
 10
43.4973952795
 20
69.8230268814
 30
0.0
 10
43.5002621411
 20
69.8232791356
 30
0.0
  0
SPLINE
  5
635
100
AcDbEntity
  8
0
100
AcDbSpline
 62
2
  6
CONTINUOUS
 70
0
 71
3
 72
44
 73
40
 74
0
 42
0.0000001
 43
0.0000001
 44
0.0000000001
 40
0.0
 40
0.0
 40
0.0
 40
0.0
 40
0.0273141194
 40
0.0546282389
 40
0.0819423583
 40
0.1092564778
 40
0.1365705972
 40
0.1638847167
 40
0.1911988361
 40
0.2185129556
 40
0.245827075
 40
0.2731411944
 40
0.3004553139
 40
0.3277694333
 40
0.3550835528
 40
0.3823976722
 40
0.4097117917
 40
0.4370259111
 40
0.4643400306
 40
0.49165415
 40
0.5189682695
 40
0.5462823889
 40
0.5735965083
 40
0.6009106278
 40
0.6282247472
 40
0.6555388667
 40
0.6828529861
 40
0.7101671056
 40
0.737481225
 40
0.7647953445
 40
0.7921094639
 40
0.8194235833
 40
0.8467377028
 40
0.8740518222
 40
0.9013659417
 40
0.9286800611
 40
0.9559941806
 40
0.9833083
 40
1.0
 40
1.0
 40
1.0
 40
1.0
 10
43.5044702447
 20
35.8236489185
 30
0.0
 10
43.5044702447
 20
35.8236489185
 30
0.0
 10
43.501544341
 20
35.823907469
 30
0.0
 10
43.4883631844
 20
35.8250654144
 30
0.0
 10
43.466529292
 20
35.8269611985
 30
0.0
 10
43.4360389507
 20
35.8295618506
 30
0.0
 10
43.3972351335
 20
35.8327929879
 30
0.0
 10
43.3501117088
 20
35.8365982678
 30
0.0
 10
43.2951618483
 20
35.8408711434
 30
0.0
 10
43.2325156481
 20
35.8455265894
 30
0.0
 10
43.1626237777
 20
35.8504482941
 30
0.0
 10
43.085971678
 20
35.8555164101
 30
0.0
 10
43.0027837455
 20
35.8606252713
 30
0.0
 10
42.9139519964
 20
35.8656313132
 30
0.0
 10
42.8195156561
 20
35.8704431576
 30
0.0
 10
42.7205953933
 20
35.8749195247
 30
0.0
 10
42.6172610905
 20
35.8789792178
 30
0.0
 10
42.5105475223
 20
35.8825092927
 30
0.0
 10
42.4008541903
 20
35.8854372898
 30
0.0
 10
42.288812388
 20
35.8876928026
 30
0.0
 10
42.1753449536
 20
35.8892210203
 30
0.0
 10
42.060613318
 20
35.8899913829
 30
0.0
 10
41.94589956
 20
35.8899831491
 30
0.0
 10
41.8311802946
 20
35.8891964259
 30
0.0
 10
41.7177434943
 20
35.8876525245
 30
0.0
 10
41.6057391847
 20
35.8853820932
 30
0.0
 10
41.4961054096
 20
35.8824406684
 30
0.0
 10
41.3894565401
 20
35.8788985314
 30
0.0
 10
41.2862064254
 20
35.8748288455
 30
0.0
 10
41.1873797264
 20
35.8703445245
 30
0.0
 10
41.0930500512
 20
35.8655270344
 30
0.0
 10
41.0043384548
 20
35.8605179549
 30
0.0
 10
40.9212780045
 20
35.8554083457
 30
0.0
 10
40.8447687347
 20
35.8503423904
 30
0.0
 10
40.7750232017
 20
35.8454249517
 30
0.0
 10
40.7125367675
 20
35.8407765283
 30
0.0
 10
40.6577501232
 20
35.8365126234
 30
0.0
 10
40.6168846479
 20
35.8332102924
 30
0.0
 10
40.5952708996
 20
35.8314218195
 30
0.0
 10
40.5875904886
 20
35.8307814045
 30
0.0
  0
SPLINE
  5
636
100
AcDbEntity
  8
7_ALL_FEATURES
100
AcDbSpline
 62
7
  6
CONTINUOUS
 70
0
 71
3
 72
9
 73
5
 74
0
 42
0.0000001
 43
0.0000001
 44
0.0000000001
 40
0.0
 40
0.0
 40
0.0
 40
0.0
 40
0.597806097
 40
1.0
 40
1.0
 40
1.0
 40
1.0
 10
122.3044702447
 20
35.2327044411
 30
0.0
 10
122.3044702447
 20
35.2303958122
 30
0.0
 10
122.3045318317
 20
35.2260864477
 30
0.0
 10
122.3005953918
 20
35.2236489185
 30
0.0
 10
122.299042185
 20
35.2236489185
 30
0.0
  0
SPLINE
  5
637
100
AcDbEntity
  8
03___PRT_ALL_CURVES
100
AcDbSpline
 62
40
  6
CONTINUOUS
 70
0
 71
3
 72
30
 73
26
 74
0
 42
0.0000001
 43
0.0000001
 44
0.0000000001
 40
0.0
 40
0.0
 40
0.0
 40
0.0
 40
0.0434782609
 40
0.0869565217
 40
0.1304347826
 40
0.1739130435
 40
0.2173913043
 40
0.2608695652
 40
0.3043478261
 40
0.347826087
 40
0.3913043478
 40
0.4347826087
 40
0.4782608696
 40
0.5217391304
 40
0.5652173913
 40
0.6086956522
 40
0.652173913
 40
0.6956521739
 40
0.7391304348
 40
0.7826086957
 40
0.8260869565
 40
0.8695652174
 40
0.9130434783
 40
0.9565217391
 40
1.0
 40
1.0
 40
1.0
 40
1.0
 10
37.4044702447
 20
37.232970206
 30
0.0
 10
37.3976005666
 20
37.232970206
 30
0.0
 10
37.3840071918
 20
37.2333419822
 30
0.0
 10
37.363856729
 20
37.2350106443
 30
0.0
 10
37.3445408596
 20
37.2377505295
 30
0.0
 10
37.3262689847
 20
37.2415336195
 30
0.0
 10
37.3095320848
 20
37.2462600421
 30
0.0
 10
37.2944812222
 20
37.2518947363
 30
0.0
 10
37.2815614668
 20
37.2582720771
 30
0.0
 10
37.2708552082
 20
37.2653595637
 30
0.0
 10
37.262703157
 20
37.272932064
 30
0.0
 10
37.2571420902
 20
37.2809622951
 30
0.0
 10
37.2543565908
 20
37.2891824993
 30
0.0
 10
37.2543565911
 20
37.2975679576
 30
0.0
 10
37.2571420914
 20
37.3058329688
 30
0.0
 10
37.2627031589
 20
37.313950122
 30
0.0
 10
37.2708552134
 20
37.3216440286
 30
0.0
 10
37.2815614694
 20
37.3288800072
 30
0.0
 10
37.294481231
 20
37.3354200707
 30
0.0
 10
37.3095320879
 20
37.3412215366
 30
0.0
 10
37.3262690013
 20
37.3461046656
 30
0.0
 10
37.3445408618
 20
37.3500242265
 30
0.0
 10
37.3638567504
 20
37.352869149
 30
0.0
 10
37.3840071922
 20
37.3546043147
 30
0.0
 10
37.3976005667
 20
37.354991199
 30
0.0
 10
37.4044702447
 20
37.354991199
 30
0.0
  0
SPLINE
  5
638
100
AcDbEntity
  8
03___PRT_ALL_CURVES
100
AcDbSpline
 62
40
  6
CONTINUOUS
 70
0
 71
3
 72
30
 73
26
 74
0
 42
0.0000001
 43
0.0000001
 44
0.0000000001
 40
0.0
 40
0.0
 40
0.0
 40
0.0
 40
0.0434782609
 40
0.0869565217
 40
0.1304347826
 40
0.1739130435
 40
0.2173913043
 40
0.2608695652
 40
0.3043478261
 40
0.347826087
 40
0.3913043478
 40
0.4347826087
 40
0.4782608696
 40
0.5217391304
 40
0.5652173913
 40
0.6086956522
 40
0.652173913
 40
0.6956521739
 40
0.7391304348
 40
0.7826086957
 40
0.8260869565
 40
0.8695652174
 40
0.9130434783
 40
0.9565217391
 40
1.0
 40
1.0
 40
1.0
 40
1.0
 10
38.8544702447
 20
51.1959125019
 30
0.0
 10
38.8613399228
 20
51.1959125019
 30
0.0
 10
38.8749332976
 20
51.1949841282
 30
0.0
 10
38.8950837601
 20
51.1908189279
 30
0.0
 10
38.9143996298
 20
51.183985145
 30
0.0
 10
38.9326715044
 20
51.1745603613
 30
0.0
 10
38.9494084046
 20
51.1628031227
 30
0.0
 10
38.9644592668
 20
51.1488121586
 30
0.0
 10
38.9773790225
 20
51.1330105184
 30
0.0
 10
38.988085281
 20
51.1154906894
 30
0.0
 10
38.9962373323
 20
51.0968196098
 30
0.0
 10
39.0017983993
 20
51.0770734508
 30
0.0
 10
39.0045838986
 20
51.0569166826
 30
0.0
 10
39.0045838983
 20
51.0364131892
 30
0.0
 10
39.0017983979
 20
51.0162615469
 30
0.0
 10
38.9962373304
 20
50.9965253341
 30
0.0
 10
38.9880852757
 20
50.9778681419
 30
0.0
 10
38.9773790199
 20
50.9603653098
 30
0.0
 10
38.9644592581
 20
50.9445822827
 30
0.0
 10
38.9494084015
 20
50.9306104074
 30
0.0
 10
38.9326714877
 20
50.9188710918
 30
0.0
 10
38.9143996276
 20
50.9094619325
 30
0.0
 10
38.8950837387
 20
50.9026401628
 30
0.0
 10
38.8749332973
 20
50.8984825791
 30
0.0
 10
38.8613399227
 20
50.8975559333
 30
0.0
 10
38.8544702447
 20
50.8975559333
 30
0.0
  0
SPLINE
  5
639
100
AcDbEntity
  8
03___PRT_ALL_CURVES
100
AcDbSpline
 62
40
  6
CONTINUOUS
 70
0
 71
3
 72
30
 73
26
 74
0
 42
0.0000001
 43
0.0000001
 44
0.0000000001
 40
0.0
 40
0.0
 40
0.0
 40
0.0
 40
0.0434782609
 40
0.0869565217
 40
0.1304347826
 40
0.1739130435
 40
0.2173913043
 40
0.2608695652
 40
0.3043478261
 40
0.347826087
 40
0.3913043478
 40
0.4347826087
 40
0.4782608696
 40
0.5217391304
 40
0.5652173913
 40
0.6086956522
 40
0.652173913
 40
0.6956521739
 40
0.7391304348
 40
0.7826086957
 40
0.8260869565
 40
0.8695652174
 40
0.9130434783
 40
0.9565217391
 40
1.0
 40
1.0
 40
1.0
 40
1.0
 10
38.8544702447
 20
36.7026700785
 30
0.0
 10
38.8613399228
 20
36.7026700785
 30
0.0
 10
38.8749332976
 20
36.7023740196
 30
0.0
 10
38.8950837601
 20
36.7010463757
 30
0.0
 10
38.9143996298
 20
36.6988701816
 30
0.0
 10
38.9326715044
 20
36.6958731077
 30
0.0
 10
38.9494084046
 20
36.6921411252
 30
0.0
 10
38.9644592668
 20
36.6877100184
 30
0.0
 10
38.9773790225
 20
36.6827183378
 30
0.0
 10
38.988085281
 20
36.6771999353
 30
0.0
 10
38.9962373323
 20
36.6713374366
 30
0.0
 10
39.0017983993
 20
36.6651582266
 30
0.0
 10
39.0045838986
 20
36.658872606
 30
0.0
 10
39.0045838983
 20
36.6525017781
 30
0.0
 10
39.0017983979
 20
36.6462628037
 30
0.0
 10
38.9962373304
 20
36.6401740849
 30
0.0
 10
38.9880852757
 20
36.6344379749
 30
0.0
 10
38.9773790199
 20
36.629074166
 30
0.0
 10
38.9644592581
 20
36.6242518857
 30
0.0
 10
38.9494084015
 20
36.619994403
 30
0.0
 10
38.9326714877
 20
36.6164255563
 30
0.0
 10
38.9143996276
 20
36.6135705633
 30
0.0
 10
38.8950837387
 20
36.6115037158
 30
0.0
 10
38.8749332973
 20
36.6102453114
 30
0.0
 10
38.8613399227
 20
36.6099649802
 30
0.0
 10
38.8544702447
 20
36.6099649802
 30
0.0
  0
SPLINE
  5
63A
100
AcDbEntity
  8
03___PRT_ALL_CURVES
100
AcDbSpline
 62
40
  6
CONTINUOUS
 70
0
 71
3
 72
30
 73
26
 74
0
 42
0.0000001
 43
0.0000001
 44
0.0000000001
 40
0.0
 40
0.0
 40
0.0
 40
0.0
 40
0.0434782609
 40
0.0869565217
 40
0.1304347826
 40
0.1739130435
 40
0.2173913043
 40
0.2608695652
 40
0.3043478261
 40
0.347826087
 40
0.3913043478
 40
0.4347826087
 40
0.4782608696
 40
0.5217391304
 40
0.5652173913
 40
0.6086956522
 40
0.652173913
 40
0.6956521739
 40
0.7391304348
 40
0.7826086957
 40
0.8260869565
 40
0.8695652174
 40
0.9130434783
 40
0.9565217391
 40
1.0
 40
1.0
 40
1.0
 40
1.0
 10
37.4044702447
 20
36.6099649802
 30
0.0
 10
37.3976005666
 20
36.6099649802
 30
0.0
 10
37.3840071918
 20
36.6102453111
 30
0.0
 10
37.363856729
 20
36.6115037177
 30
0.0
 10
37.3445408596
 20
36.6135705637
 30
0.0
 10
37.3262689847
 20
36.6164255593
 30
0.0
 10
37.3095320848
 20
36.6199944039
 30
0.0
 10
37.2944812222
 20
36.6242518886
 30
0.0
 10
37.2815614668
 20
36.6290741672
 30
0.0
 10
37.2708552082
 20
36.634437978
 30
0.0
 10
37.262703157
 20
36.6401740869
 30
0.0
 10
37.2571420902
 20
36.6462628057
 30
0.0
 10
37.2543565908
 20
36.6525017798
 30
0.0
 10
37.2543565911
 20
36.6588726076
 30
0.0
 10
37.2571420914
 20
36.6651582285
 30
0.0
 10
37.2627031589
 20
36.6713374384
 30
0.0
 10
37.2708552134
 20
36.6771999382
 30
0.0
 10
37.2815614694
 20
36.682718339
 30
0.0
 10
37.294481231
 20
36.6877100211
 30
0.0
 10
37.3095320879
 20
36.6921411261
 30
0.0
 10
37.3262690013
 20
36.6958731108
 30
0.0
 10
37.3445408618
 20
36.6988701819
 30
0.0
 10
37.3638567504
 20
36.7010463776
 30
0.0
 10
37.3840071922
 20
36.7023740194
 30
0.0
 10
37.3976005667
 20
36.7026700785
 30
0.0
 10
37.4044702447
 20
36.7026700785
 30
0.0
  0
SPLINE
  5
63B
100
AcDbEntity
  8
03___PRT_ALL_CURVES
100
AcDbSpline
 62
40
  6
CONTINUOUS
 70
0
 71
3
 72
30
 73
26
 74
0
 42
0.0000001
 43
0.0000001
 44
0.0000000001
 40
0.0
 40
0.0
 40
0.0
 40
0.0
 40
0.0434782609
 40
0.0869565217
 40
0.1304347826
 40
0.1739130435
 40
0.2173913043
 40
0.2608695652
 40
0.3043478261
 40
0.347826087
 40
0.3913043478
 40
0.4347826087
 40
0.4782608696
 40
0.5217391304
 40
0.5652173913
 40
0.6086956522
 40
0.652173913
 40
0.6956521739
 40
0.7391304348
 40
0.7826086957
 40
0.8260869565
 40
0.8695652174
 40
0.9130434783
 40
0.9565217391
 40
1.0
 40
1.0
 40
1.0
 40
1.0
 10
37.4044702447
 20
50.8975559333
 30
0.0
 10
37.3976005666
 20
50.8975559333
 30
0.0
 10
37.3840071918
 20
50.8984825783
 30
0.0
 10
37.363856729
 20
50.902640169
 30
0.0
 10
37.3445408596
 20
50.9094619335
 30
0.0
 10
37.3262689847
 20
50.918871102
 30
0.0
 10
37.3095320848
 20
50.9306104103
 30
0.0
 10
37.2944812222
 20
50.9445822923
 30
0.0
 10
37.2815614668
 20
50.9603653137
 30
0.0
 10
37.2708552082
 20
50.9778681521
 30
0.0
 10
37.262703157
 20
50.9965253404
 30
0.0
 10
37.2571420902
 20
51.0162615532
 30
0.0
 10
37.2543565908
 20
51.0364131948
 30
0.0
 10
37.2543565911
 20
51.0569166877
 30
0.0
 10
37.2571420914
 20
51.0770734567
 30
0.0
 10
37.2627031589
 20
51.0968196155
 30
0.0
 10
37.2708552134
 20
51.1154906987
 30
0.0
 10
37.2815614694
 20
51.133010522
 30
0.0
 10
37.294481231
 20
51.1488121674
 30
0.0
 10
37.3095320879
 20
51.1628031255
 30
0.0
 10
37.3262690013
 20
51.174560371
 30
0.0
 10
37.3445408618
 20
51.1839851461
 30
0.0
 10
37.3638567504
 20
51.1908189339
 30
0.0
 10
37.3840071922
 20
51.1949841274
 30
0.0
 10
37.3976005667
 20
51.1959125019
 30
0.0
 10
37.4044702447
 20
51.1959125019
 30
0.0
  0
SPLINE
  5
63C
100
AcDbEntity
  8
03___PRT_ALL_CURVES
100
AcDbSpline
 62
40
  6
CONTINUOUS
 70
0
 71
3
 72
30
 73
26
 74
0
 42
0.0000001
 43
0.0000001
 44
0.0000000001
 40
0.0
 40
0.0
 40
0.0
 40
0.0
 40
0.0434782609
 40
0.0869565217
 40
0.1304347826
 40
0.1739130435
 40
0.2173913043
 40
0.2608695652
 40
0.3043478261
 40
0.347826087
 40
0.3913043478
 40
0.4347826087
 40
0.4782608696
 40
0.5217391304
 40
0.5652173913
 40
0.6086956522
 40
0.652173913
 40
0.6956521739
 40
0.7391304348
 40
0.7826086957
 40
0.8260869565
 40
0.8695652174
 40
0.9130434783
 40
0.9565217391
 40
1.0
 40
1.0
 40
1.0
 40
1.0
 10
38.8544702447
 20
36.2269737758
 30
0.0
 10
38.8613399228
 20
36.2269737758
 30
0.0
 10
38.8749332976
 20
36.2267717856
 30
0.0
 10
38.8950837601
 20
36.2258662122
 30
0.0
 10
38.9143996298
 20
36.2243825873
 30
0.0
 10
38.9326715044
 20
36.2223408406
 30
0.0
 10
38.9494084046
 20
36.2198008902
 30
0.0
 10
38.9644592668
 20
36.2167886929
 30
0.0
 10
38.9773790225
 20
36.2134000831
 30
0.0
 10
38.988085281
 20
36.2096597198
 30
0.0
 10
38.9962373323
 20
36.2056928583
 30
0.0
 10
39.0017983993
 20
36.2015192923
 30
0.0
 10
39.0045838986
 20
36.1972819285
 30
0.0
 10
39.0045838983
 20
36.1929955312
 30
0.0
 10
39.0017983979
 20
36.1888061425
 30
0.0
 10
38.9962373304
 20
36.1847256453
 30
0.0
 10
38.9880852757
 20
36.1808887731
 30
0.0
 10
38.9773790199
 20
36.1773074064
 30
0.0
 10
38.9644592581
 20
36.1740930228
 30
0.0
 10
38.9494084015
 20
36.1712593948
 30
0.0
 10
38.9326714877
 20
36.1688872278
 30
0.0
 10
38.9143996276
 20
36.1669916083
 30
0.0
 10
38.8950837387
 20
36.1656204453
 30
0.0
 10
38.8749332973
 20
36.164786083
 30
0.0
 10
38.8613399227
 20
36.1646002686
 30
0.0
 10
38.8544702447
 20
36.1646002686
 30
0.0
  0
SPLINE
  5
63D
100
AcDbEntity
  8
03___PRT_ALL_CURVES
100
AcDbSpline
 62
40
  6
CONTINUOUS
 70
0
 71
3
 72
30
 73
26
 74
0
 42
0.0000001
 43
0.0000001
 44
0.0000000001
 40
0.0
 40
0.0
 40
0.0
 40
0.0
 40
0.0434782609
 40
0.0869565217
 40
0.1304347826
 40
0.1739130435
 40
0.2173913043
 40
0.2608695652
 40
0.3043478261
 40
0.347826087
 40
0.3913043478
 40
0.4347826087
 40
0.4782608696
 40
0.5217391304
 40
0.5652173913
 40
0.6086956522
 40
0.652173913
 40
0.6956521739
 40
0.7391304348
 40
0.7826086957
 40
0.8260869565
 40
0.8695652174
 40
0.9130434783
 40
0.9565217391
 40
1.0
 40
1.0
 40
1.0
 40
1.0
 10
37.4044702447
 20
36.1646002686
 30
0.0
 10
37.3976005666
 20
36.1646002686
 30
0.0
 10
37.3840071918
 20
36.1647860828
 30
0.0
 10
37.363856729
 20
36.1656204466
 30
0.0
 10
37.3445408596
 20
36.1669916085
 30
0.0
 10
37.3262689847
 20
36.1688872299
 30
0.0
 10
37.3095320848
 20
36.1712593954
 30
0.0
 10
37.2944812222
 20
36.1740930248
 30
0.0
 10
37.2815614668
 20
36.1773074072
 30
0.0
 10
37.2708552082
 20
36.1808887752
 30
0.0
 10
37.262703157
 20
36.1847256466
 30
0.0
 10
37.2571420902
 20
36.1888061439
 30
0.0
 10
37.2543565908
 20
36.1929955324
 30
0.0
 10
37.2543565911
 20
36.1972819296
 30
0.0
 10
37.2571420914
 20
36.2015192935
 30
0.0
 10
37.2627031589
 20
36.2056928595
 30
0.0
 10
37.2708552134
 20
36.2096597218
 30
0.0
 10
37.2815614694
 20
36.2134000839
 30
0.0
 10
37.294481231
 20
36.2167886948
 30
0.0
 10
37.3095320879
 20
36.2198008908
 30
0.0
 10
37.3262690013
 20
36.2223408427
 30
0.0
 10
37.3445408618
 20
36.2243825876
 30
0.0
 10
37.3638567504
 20
36.2258662135
 30
0.0
 10
37.3840071922
 20
36.2267717854
 30
0.0
 10
37.3976005667
 20
36.2269737758
 30
0.0
 10
37.4044702447
 20
36.2269737758
 30
0.0
  0
SPLINE
  5
63E
100
AcDbEntity
  8
03___PRT_ALL_CURVES
100
AcDbSpline
 62
40
  6
CONTINUOUS
 70
0
 71
3
 72
30
 73
26
 74
0
 42
0.0000001
 43
0.0000001
 44
0.0000000001
 40
0.0
 40
0.0
 40
0.0
 40
0.0
 40
0.0434782609
 40
0.0869565217
 40
0.1304347826
 40
0.1739130435
 40
0.2173913043
 40
0.2608695652
 40
0.3043478261
 40
0.347826087
 40
0.3913043478
 40
0.4347826087
 40
0.4782608696
 40
0.5217391304
 40
0.5652173913
 40
0.6086956522
 40
0.652173913
 40
0.6956521739
 40
0.7391304348
 40
0.7826086957
 40
0.8260869565
 40
0.8695652174
 40
0.9130434783
 40
0.9565217391
 40
1.0
 40
1.0
 40
1.0
 40
1.0
 10
38.8544702447
 20
35.933114119
 30
0.0
 10
38.8613399228
 20
35.933114119
 30
0.0
 10
38.8749332976
 20
35.9330084105
 30
0.0
 10
38.8950837601
 20
35.9325348293
 30
0.0
 10
38.9143996298
 20
35.9317600286
 30
0.0
 10
38.9326715044
 20
35.9306959788
 30
0.0
 10
38.9494084046
 20
35.9293758887
 30
0.0
 10
38.9644592668
 20
35.9278156033
 30
0.0
 10
38.9773790225
 20
35.9260671905
 30
0.0
 10
38.988085281
 20
35.9241458467
 30
0.0
 10
38.9962373323
 20
35.9221180841
 30
0.0
 10
39.0017983993
 20
35.9199958885
 30
0.0
 10
39.0045838986
 20
35.917853207
 30
0.0
 10
39.0045838983
 20
35.915698203
 30
0.0
 10
39.0017983979
 20
35.9136042999
 30
0.0
 10
38.9962373304
 20
35.911576731
 30
0.0
 10
38.9880852757
 20
35.9096811341
 30
0.0
 10
38.9773790199
 20
35.9079214479
 30
0.0
 10
38.9644592581
 20
35.9063501785
 30
0.0
 10
38.9494084015
 20
35.9049714509
 30
0.0
 10
38.9326714877
 20
35.9038219537
 30
0.0
 10
38.9143996276
 20
35.9029064763
 30
0.0
 10
38.8950837387
 20
35.9022460207
 30
0.0
 10
38.8749332973
 20
35.9018448419
 30
0.0
 10
38.8613399227
 20
35.9017555801
 30
0.0
 10
38.8544702447
 20
35.9017555801
 30
0.0
  0
SPLINE
  5
63F
100
AcDbEntity
  8
03___PRT_ALL_CURVES
100
AcDbSpline
 62
40
  6
CONTINUOUS
 70
0
 71
3
 72
30
 73
26
 74
0
 42
0.0000001
 43
0.0000001
 44
0.0000000001
 40
0.0
 40
0.0
 40
0.0
 40
0.0
 40
0.0434782609
 40
0.0869565217
 40
0.1304347826
 40
0.1739130435
 40
0.2173913043
 40
0.2608695652
 40
0.3043478261
 40
0.347826087
 40
0.3913043478
 40
0.4347826087
 40
0.4782608696
 40
0.5217391304
 40
0.5652173913
 40
0.6086956522
 40
0.652173913
 40
0.6956521739
 40
0.7391304348
 40
0.7826086957
 40
0.8260869565
 40
0.8695652174
 40
0.9130434783
 40
0.9565217391
 40
1.0
 40
1.0
 40
1.0
 40
1.0
 10
38.8544702447
 20
49.436009906
 30
0.0
 10
38.8613399228
 20
49.436009906
 30
0.0
 10
38.8749332976
 20
49.4350959485
 30
0.0
 10
38.8950837601
 20
49.4309955002
 30
0.0
 10
38.9143996298
 20
49.4242681899
 30
0.0
 10
38.9326715044
 20
49.4149907297
 30
0.0
 10
38.9494084046
 20
49.4034180535
 30
0.0
 10
38.9644592668
 20
49.3896478498
 30
0.0
 10
38.9773790225
 20
49.3740970149
 30
0.0
 10
38.988085281
 20
49.3568570988
 30
0.0
 10
38.9962373323
 20
49.338486445
 30
0.0
 10
39.0017983993
 20
49.3190603963
 30
0.0
 10
39.0045838986
 20
49.2992329214
 30
0.0
 10
39.0045838983
 20
49.2790670075
 30
0.0
 10
39.0017983979
 20
49.2592497293
 30
0.0
 10
38.9962373304
 20
49.2398434634
 30
0.0
 10
38.9880852757
 20
49.2215004362
 30
0.0
 10
38.9773790199
 20
49.2042943214
 30
0.0
 10
38.9644592581
 20
49.1887805144
 30
0.0
 10
38.9494084015
 20
49.1750482726
 30
0.0
 10
38.9326714877
 20
49.1635112533
 30
0.0
 10
38.9143996276
 20
49.1542648617
 30
0.0
 10
38.8950837387
 20
49.1475614512
 30
0.0
 10
38.8749332973
 20
49.1434761459
 30
0.0
 10
38.8613399227
 20
49.1425656258
 30
0.0
 10
38.8544702447
 20
49.1425656258
 30
0.0
  0
SPLINE
  5
640
100
AcDbEntity
  8
03___PRT_ALL_CURVES
100
AcDbSpline
 62
40
  6
CONTINUOUS
 70
0
 71
3
 72
30
 73
26
 74
0
 42
0.0000001
 43
0.0000001
 44
0.0000000001
 40
0.0
 40
0.0
 40
0.0
 40
0.0
 40
0.0434782609
 40
0.0869565217
 40
0.1304347826
 40
0.1739130435
 40
0.2173913043
 40
0.2608695652
 40
0.3043478261
 40
0.347826087
 40
0.3913043478
 40
0.4347826087
 40
0.4782608696
 40
0.5217391304
 40
0.5652173913
 40
0.6086956522
 40
0.652173913
 40
0.6956521739
 40
0.7391304348
 40
0.7826086957
 40
0.8260869565
 40
0.8695652174
 40
0.9130434783
 40
0.9565217391
 40
1.0
 40
1.0
 40
1.0
 40
1.0
 10
37.4044702447
 20
35.9017555801
 30
0.0
 10
37.3976005666
 20
35.9017555801
 30
0.0
 10
37.3840071918
 20
35.9018448418
 30
0.0
 10
37.363856729
 20
35.9022460213
 30
0.0
 10
37.3445408596
 20
35.9029064764
 30
0.0
 10
37.3262689847
 20
35.9038219547
 30
0.0
 10
37.3095320848
 20
35.9049714512
 30
0.0
 10
37.2944812222
 20
35.9063501794
 30
0.0
 10
37.2815614668
 20
35.9079214483
 30
0.0
 10
37.2708552082
 20
35.9096811351
 30
0.0
 10
37.262703157
 20
35.9115767316
 30
0.0
 10
37.2571420902
 20
35.9136043005
 30
0.0
 10
37.2543565908
 20
35.9156982036
 30
0.0
 10
37.2543565911
 20
35.9178532076
 30
0.0
 10
37.2571420914
 20
35.9199958891
 30
0.0
 10
37.2627031589
 20
35.9221180847
 30
0.0
 10
37.2708552134
 20
35.9241458477
 30
0.0
 10
37.2815614694
 20
35.9260671909
 30
0.0
 10
37.294481231
 20
35.9278156043
 30
0.0
 10
37.3095320879
 20
35.929375889
 30
0.0
 10
37.3262690013
 20
35.9306959799
 30
0.0
 10
37.3445408618
 20
35.9317600287
 30
0.0
 10
37.3638567504
 20
35.93253483
 30
0.0
 10
37.3840071922
 20
35.9330084104
 30
0.0
 10
37.3976005667
 20
35.933114119
 30
0.0
 10
37.4044702447
 20
35.933114119
 30
0.0
  0
SPLINE
  5
641
100
AcDbEntity
  8
03___PRT_ALL_CURVES
100
AcDbSpline
 62
40
  6
CONTINUOUS
 70
0
 71
3
 72
19
 73
15
 74
0
 42
0.0000001
 43
0.0000001
 44
0.0000000001
 40
0.0
 40
0.0
 40
0.0
 40
0.0
 40
0.086956523
 40
0.1739130459
 40
0.2608695689
 40
0.3478260919
 40
0.4347826149
 40
0.5217391378
 40
0.6086956608
 40
0.6956521838
 40
0.7826087068
 40
0.8695652297
 40
0.9565217527
 40
1.0
 40
1.0
 40
1.0
 40
1.0
 10
38.8544702447
 20
35.8243106961
 30
0.0
 10
38.8613399228
 20
35.8243106961
 30
0.0
 10
38.8749332976
 20
35.8243024274
 30
0.0
 10
38.8950837591
 20
35.8242660272
 30
0.0
 10
38.9143996297
 20
35.8242085394
 30
0.0
 10
38.932671503
 20
35.8241338445
 30
0.0
 10
38.9494084043
 20
35.8240480778
 30
0.0
 10
38.9644592668
 20
35.8239567992
 30
0.0
 10
38.9773790225
 20
35.8238677394
 30
0.0
 10
38.9880852804
 20
35.8237864657
 30
0.0
 10
38.9962373322
 20
35.8237200186
 30
0.0
 10
39.0017983996
 20
35.8236724447
 30
0.0
 10
39.0041196486
 20
35.8236520084
 30
0.0
 10
39.0044678359
 20
35.823648943
 30
0.0
 10
39.0044678359
 20
35.823648943
 30
0.0
  0
SPLINE
  5
642
100
AcDbEntity
  8
03___PRT_ALL_CURVES
100
AcDbSpline
 62
40
  6
CONTINUOUS
 70
0
 71
3
 72
19
 73
15
 74
0
 42
0.0000001
 43
0.0000001
 44
0.0000000001
 40
0.0
 40
0.0
 40
0.0
 40
0.0
 40
0.0434782732
 40
0.1304347938
 40
0.2173913144
 40
0.3043478351
 40
0.3913043557
 40
0.4782608763
 40
0.5652173969
 40
0.6521739175
 40
0.7391304381
 40
0.8260869588
 40
0.9130434794
 40
1.0
 40
1.0
 40
1.0
 40
1.0
 10
37.2544726535
 20
35.823648943
 30
0.0
 10
37.2544726535
 20
35.823648943
 30
0.0
 10
37.2548208411
 20
35.8236520084
 30
0.0
 10
37.2571420914
 20
35.8236724447
 30
0.0
 10
37.2627031592
 20
35.8237200186
 30
0.0
 10
37.2708552142
 20
35.8237864657
 30
0.0
 10
37.2815614697
 20
35.8238677394
 30
0.0
 10
37.2944812319
 20
35.8239567993
 30
0.0
 10
37.3095320881
 20
35.8240480778
 30
0.0
 10
37.3262690027
 20
35.8241338446
 30
0.0
 10
37.3445408621
 20
35.8242085395
 30
0.0
 10
37.363856753
 20
35.8242660272
 30
0.0
 10
37.3840071922
 20
35.8243024274
 30
0.0
 10
37.3976005667
 20
35.8243106961
 30
0.0
 10
37.4044702447
 20
35.8243106961
 30
0.0
  0
SPLINE
  5
643
100
AcDbEntity
  8
03___PRT_ALL_CURVES
100
AcDbSpline
 62
40
  6
CONTINUOUS
 70
0
 71
3
 72
30
 73
26
 74
0
 42
0.0000001
 43
0.0000001
 44
0.0000000001
 40
0.0
 40
0.0
 40
0.0
 40
0.0
 40
0.0434782609
 40
0.0869565217
 40
0.1304347826
 40
0.1739130435
 40
0.2173913043
 40
0.2608695652
 40
0.3043478261
 40
0.347826087
 40
0.3913043478
 40
0.4347826087
 40
0.4782608696
 40
0.5217391304
 40
0.5652173913
 40
0.6086956522
 40
0.652173913
 40
0.6956521739
 40
0.7391304348
 40
0.7826086957
 40
0.8260869565
 40
0.8695652174
 40
0.9130434783
 40
0.9565217391
 40
1.0
 40
1.0
 40
1.0
 40
1.0
 10
37.4044702447
 20
49.1425656258
 30
0.0
 10
37.3976005666
 20
49.1425656258
 30
0.0
 10
37.3840071918
 20
49.143476145
 30
0.0
 10
37.363856729
 20
49.1475614573
 30
0.0
 10
37.3445408596
 20
49.1542648628
 30
0.0
 10
37.3262689847
 20
49.1635112633
 30
0.0
 10
37.3095320848
 20
49.1750482755
 30
0.0
 10
37.2944812222
 20
49.1887805238
 30
0.0
 10
37.2815614668
 20
49.2042943253
 30
0.0
 10
37.2708552082
 20
49.2215004462
 30
0.0
 10
37.262703157
 20
49.2398434696
 30
0.0
 10
37.2571420902
 20
49.2592497355
 30
0.0
 10
37.2543565908
 20
49.279067013
 30
0.0
 10
37.2543565911
 20
49.2992329264
 30
0.0
 10
37.2571420914
 20
49.3190604021
 30
0.0
 10
37.2627031589
 20
49.3384864506
 30
0.0
 10
37.2708552134
 20
49.3568571079
 30
0.0
 10
37.2815614694
 20
49.3740970185
 30
0.0
 10
37.294481231
 20
49.3896478584
 30
0.0
 10
37.3095320879
 20
49.4034180563
 30
0.0
 10
37.3262690013
 20
49.4149907392
 30
0.0
 10
37.3445408618
 20
49.4242681909
 30
0.0
 10
37.3638567504
 20
49.4309955061
 30
0.0
 10
37.3840071922
 20
49.4350959476
 30
0.0
 10
37.3976005667
 20
49.436009906
 30
0.0
 10
37.4044702447
 20
49.436009906
 30
0.0
  0
SPLINE
  5
644
100
AcDbEntity
  8
03___PRT_ALL_CURVES
100
AcDbSpline
 62
40
  6
CONTINUOUS
 70
0
 71
3
 72
30
 73
26
 74
0
 42
0.0000001
 43
0.0000001
 44
0.0000000001
 40
0.0
 40
0.0
 40
0.0
 40
0.0
 40
0.0434782609
 40
0.0869565217
 40
0.1304347826
 40
0.1739130435
 40
0.2173913043
 40
0.2608695652
 40
0.3043478261
 40
0.347826087
 40
0.3913043478
 40
0.4347826087
 40
0.4782608696
 40
0.5217391304
 40
0.5652173913
 40
0.6086956522
 40
0.652173913
 40
0.6956521739
 40
0.7391304348
 40
0.7826086957
 40
0.8260869565
 40
0.8695652174
 40
0.9130434783
 40
0.9565217391
 40
1.0
 40
1.0
 40
1.0
 40
1.0
 10
38.8544702447
 20
47.7132229921
 30
0.0
 10
38.8613399228
 20
47.7132229921
 30
0.0
 10
38.8749332976
 20
47.7123334642
 30
0.0
 10
38.8950837601
 20
47.7083426934
 30
0.0
 10
38.9143996298
 20
47.7017955614
 30
0.0
 10
38.9326715044
 20
47.6927670705
 30
0.0
 10
38.9494084046
 20
47.6815057495
 30
0.0
 10
38.9644592668
 20
47.6681071753
 30
0.0
 10
38.9773790225
 20
47.652977524
 30
0.0
 10
38.988085281
 20
47.6362064048
 30
0.0
 10
38.9962373323
 20
47.6183374497
 30
0.0
 10
39.0017983993
 20
47.599444347
 30
0.0
 10
39.0045838986
 20
47.5801633994
 30
0.0
 10
39.0045838983
 20
47.560556007
 30
0.0
 10
39.0017983979
 20
47.541290215
 30
0.0
 10
38.9962373304
 20
47.5224265152
 30
0.0
 10
38.9880852757
 20
47.504598623
 30
0.0
 10
38.9773790199
 20
47.4878777394
 30
0.0
 10
38.9644592581
 20
47.472803125
 30
0.0
 10
38.9494084015
 20
47.45946097
 30
0.0
 10
38.9326714877
 20
47.448252649
 30
0.0
 10
38.9143996276
 20
47.4392703306
 30
0.0
 10
38.8950837387
 20
47.4327587232
 30
0.0
 10
38.8749332973
 20
47.4287904556
 30
0.0
 10
38.8613399227
 20
47.4279060372
 30
0.0
 10
38.8544702447
 20
47.4279060372
 30
0.0
  0
SPLINE
  5
645
100
AcDbEntity
  8
03___PRT_ALL_CURVES
100
AcDbSpline
 62
40
  6
CONTINUOUS
 70
0
 71
3
 72
30
 73
26
 74
0
 42
0.0000001
 43
0.0000001
 44
0.0000000001
 40
0.0
 40
0.0
 40
0.0
 40
0.0
 40
0.0434782609
 40
0.0869565217
 40
0.1304347826
 40
0.1739130435
 40
0.2173913043
 40
0.2608695652
 40
0.3043478261
 40
0.347826087
 40
0.3913043478
 40
0.4347826087
 40
0.4782608696
 40
0.5217391304
 40
0.5652173913
 40
0.6086956522
 40
0.652173913
 40
0.6956521739
 40
0.7391304348
 40
0.7826086957
 40
0.8260869565
 40
0.8695652174
 40
0.9130434783
 40
0.9565217391
 40
1.0
 40
1.0
 40
1.0
 40
1.0
 10
37.4044702447
 20
47.4279060372
 30
0.0
 10
37.3976005666
 20
47.4279060372
 30
0.0
 10
37.3840071918
 20
47.4287904548
 30
0.0
 10
37.363856729
 20
47.4327587291
 30
0.0
 10
37.3445408596
 20
47.4392703316
 30
0.0
 10
37.3262689847
 20
47.4482526587
 30
0.0
 10
37.3095320848
 20
47.4594609729
 30
0.0
 10
37.2944812222
 20
47.4728031341
 30
0.0
 10
37.2815614668
 20
47.4878777432
 30
0.0
 10
37.2708552082
 20
47.5045986327
 30
0.0
 10
37.262703157
 20
47.5224265212
 30
0.0
 10
37.2571420902
 20
47.5412902211
 30
0.0
 10
37.2543565908
 20
47.5605560124
 30
0.0
 10
37.2543565911
 20
47.5801634043
 30
0.0
 10
37.2571420914
 20
47.5994443526
 30
0.0
 10
37.2627031589
 20
47.6183374551
 30
0.0
 10
37.2708552134
 20
47.6362064136
 30
0.0
 10
37.2815614694
 20
47.6529775274
 30
0.0
 10
37.294481231
 20
47.6681071837
 30
0.0
 10
37.3095320879
 20
47.6815057522
 30
0.0
 10
37.3262690013
 20
47.6927670798
 30
0.0
 10
37.3445408618
 20
47.7017955624
 30
0.0
 10
37.3638567504
 20
47.7083426991
 30
0.0
 10
37.3840071922
 20
47.7123334634
 30
0.0
 10
37.3976005667
 20
47.7132229921
 30
0.0
 10
37.4044702447
 20
47.7132229921
 30
0.0
  0
SPLINE
  5
646
100
AcDbEntity
  8
03___PRT_ALL_CURVES
100
AcDbSpline
 62
40
  6
CONTINUOUS
 70
0
 71
3
 72
30
 73
26
 74
0
 42
0.0000001
 43
0.0000001
 44
0.0000000001
 40
0.0
 40
0.0
 40
0.0
 40
0.0
 40
0.0434782609
 40
0.0869565217
 40
0.1304347826
 40
0.1739130435
 40
0.2173913043
 40
0.2608695652
 40
0.3043478261
 40
0.347826087
 40
0.3913043478
 40
0.4347826087
 40
0.4782608696
 40
0.5217391304
 40
0.5652173913
 40
0.6086956522
 40
0.652173913
 40
0.6956521739
 40
0.7391304348
 40
0.7826086957
 40
0.8260869565
 40
0.8695652174
 40
0.9130434783
 40
0.9565217391
 40
1.0
 40
1.0
 40
1.0
 40
1.0
 10
38.8544702447
 20
46.0464269741
 30
0.0
 10
38.8613399228
 20
46.0464269741
 30
0.0
 10
38.8749332976
 20
46.0455716216
 30
0.0
 10
38.8950837601
 20
46.041734252
 30
0.0
 10
38.9143996298
 20
46.0354390301
 30
0.0
 10
38.9326715044
 20
46.0267584266
 30
0.0
 10
38.9494084046
 20
46.0159318421
 30
0.0
 10
38.9644592668
 20
46.003051695
 30
0.0
 10
38.9773790225
 20
45.9885089908
 30
0.0
 10
38.988085281
 20
45.9723904165
 30
0.0
 10
38.9962373323
 20
45.955218936
 30
0.0
 10
39.0017983993
 20
45.9370657762
 30
0.0
 10
39.0045838986
 20
45.918542602
 30
0.0
 10
39.0045838983
 20
45.8997085539
 30
0.0
 10
39.0017983979
 20
45.8812053282
 30
0.0
 10
38.9962373304
 20
45.8630908689
 30
0.0
 10
38.9880852757
 20
45.8459734379
 30
0.0
 10
38.9773790199
 20
45.8299209831
 30
0.0
 10
38.9644592581
 20
45.8154507218
 30
0.0
 10
38.9494084015
 20
45.8026448332
 30
0.0
 10
38.9326714877
 20
45.7918880111
 30
0.0
 10
38.9143996276
 20
45.783268178
 30
0.0
 10
38.8950837387
 20
45.7770197163
 30
0.0
 10
38.8749332973
 20
45.7732119636
 30
0.0
 10
38.8613399227
 20
45.7723633368
 30
0.0
 10
38.8544702447
 20
45.7723633368
 30
0.0
  0
SPLINE
  5
647
100
AcDbEntity
  8
03___PRT_ALL_CURVES
100
AcDbSpline
 62
40
  6
CONTINUOUS
 70
0
 71
3
 72
30
 73
26
 74
0
 42
0.0000001
 43
0.0000001
 44
0.0000000001
 40
0.0
 40
0.0
 40
0.0
 40
0.0
 40
0.0434782609
 40
0.0869565217
 40
0.1304347826
 40
0.1739130435
 40
0.2173913043
 40
0.2608695652
 40
0.3043478261
 40
0.347826087
 40
0.3913043478
 40
0.4347826087
 40
0.4782608696
 40
0.5217391304
 40
0.5652173913
 40
0.6086956522
 40
0.652173913
 40
0.6956521739
 40
0.7391304348
 40
0.7826086957
 40
0.8260869565
 40
0.8695652174
 40
0.9130434783
 40
0.9565217391
 40
1.0
 40
1.0
 40
1.0
 40
1.0
 10
37.4044702447
 20
45.7723633368
 30
0.0
 10
37.3976005666
 20
45.7723633368
 30
0.0
 10
37.3840071918
 20
45.7732119628
 30
0.0
 10
37.363856729
 20
45.7770197219
 30
0.0
 10
37.3445408596
 20
45.783268179
 30
0.0
 10
37.3262689847
 20
45.7918880204
 30
0.0
 10
37.3095320848
 20
45.8026448359
 30
0.0
 10
37.2944812222
 20
45.8154507306
 30
0.0
 10
37.2815614668
 20
45.8299209867
 30
0.0
 10
37.2708552082
 20
45.8459734473
 30
0.0
 10
37.262703157
 20
45.8630908747
 30
0.0
 10
37.2571420902
 20
45.881205334
 30
0.0
 10
37.2543565908
 20
45.899708559
 30
0.0
 10
37.2543565911
 20
45.9185426067
 30
0.0
 10
37.2571420914
 20
45.9370657816
 30
0.0
 10
37.2627031589
 20
45.9552189413
 30
0.0
 10
37.2708552134
 20
45.972390425
 30
0.0
 10
37.2815614694
 20
45.9885089942
 30
0.0
 10
37.294481231
 20
46.003051703
 30
0.0
 10
37.3095320879
 20
46.0159318447
 30
0.0
 10
37.3262690013
 20
46.0267584354
 30
0.0
 10
37.3445408618
 20
46.0354390311
 30
0.0
 10
37.3638567504
 20
46.0417342575
 30
0.0
 10
37.3840071922
 20
46.0455716209
 30
0.0
 10
37.3976005667
 20
46.0464269741
 30
0.0
 10
37.4044702447
 20
46.0464269741
 30
0.0
  0
SPLINE
  5
648
100
AcDbEntity
  8
03___PRT_ALL_CURVES
100
AcDbSpline
 62
40
  6
CONTINUOUS
 70
0
 71
3
 72
30
 73
26
 74
0
 42
0.0000001
 43
0.0000001
 44
0.0000000001
 40
0.0
 40
0.0
 40
0.0
 40
0.0
 40
0.0434782609
 40
0.0869565217
 40
0.1304347826
 40
0.1739130435
 40
0.2173913043
 40
0.2608695652
 40
0.3043478261
 40
0.347826087
 40
0.3913043478
 40
0.4347826087
 40
0.4782608696
 40
0.5217391304
 40
0.5652173913
 40
0.6086956522
 40
0.652173913
 40
0.6956521739
 40
0.7391304348
 40
0.7826086957
 40
0.8260869565
 40
0.8695652174
 40
0.9130434783
 40
0.9565217391
 40
1.0
 40
1.0
 40
1.0
 40
1.0
 10
38.8544702447
 20
42.9530411618
 30
0.0
 10
38.8613399228
 20
42.9530411618
 30
0.0
 10
38.8749332976
 20
42.9522817975
 30
0.0
 10
38.8950837601
 20
42.9488752179
 30
0.0
 10
38.9143996298
 20
42.943287216
 30
0.0
 10
38.9326715044
 20
42.935582853
 30
0.0
 10
38.9494084046
 20
42.9259755339
 30
0.0
 10
38.9644592668
 20
42.9145483677
 30
0.0
 10
38.9773790225
 20
42.9016493803
 30
0.0
 10
38.988085281
 20
42.8873566067
 30
0.0
 10
38.9962373323
 20
42.8721347757
 30
0.0
 10
39.0017983993
 20
42.8560478849
 30
0.0
 10
39.0045838986
 20
42.8396385631
 30
0.0
 10
39.0045838983
 20
42.8229595189
 30
0.0
 10
39.0017983979
 20
42.8065790255
 30
0.0
 10
38.9962373304
 20
42.7905480617
 30
0.0
 10
38.9880852757
 20
42.7754043408
 30
0.0
 10
38.9773790199
 20
42.7612071151
 30
0.0
 10
38.9644592581
 20
42.7484128194
 30
0.0
 10
38.9494084015
 20
42.7370929628
 30
0.0
 10
38.9326714877
 20
42.7275864627
 30
0.0
 10
38.9143996276
 20
42.7199699161
 30
0.0
 10
38.8950837387
 20
42.7144494909
 30
0.0
 10
38.8749332973
 20
42.711085708
 30
0.0
 10
38.8613399227
 20
42.7103360635
 30
0.0
 10
38.8544702447
 20
42.7103360635
 30
0.0
  0
SPLINE
  5
649
100
AcDbEntity
  8
03___PRT_ALL_CURVES
100
AcDbSpline
 62
40
  6
CONTINUOUS
 70
0
 71
3
 72
30
 73
26
 74
0
 42
0.0000001
 43
0.0000001
 44
0.0000000001
 40
0.0
 40
0.0
 40
0.0
 40
0.0
 40
0.0434782609
 40
0.0869565217
 40
0.1304347826
 40
0.1739130435
 40
0.2173913043
 40
0.2608695652
 40
0.3043478261
 40
0.347826087
 40
0.3913043478
 40
0.4347826087
 40
0.4782608696
 40
0.5217391304
 40
0.5652173913
 40
0.6086956522
 40
0.652173913
 40
0.6956521739
 40
0.7391304348
 40
0.7826086957
 40
0.8260869565
 40
0.8695652174
 40
0.9130434783
 40
0.9565217391
 40
1.0
 40
1.0
 40
1.0
 40
1.0
 10
37.4044702447
 20
42.7103360635
 30
0.0
 10
37.3976005666
 20
42.7103360635
 30
0.0
 10
37.3840071918
 20
42.7110857073
 30
0.0
 10
37.363856729
 20
42.7144494959
 30
0.0
 10
37.3445408596
 20
42.719969917
 30
0.0
 10
37.3262689847
 20
42.727586471
 30
0.0
 10
37.3095320848
 20
42.7370929652
 30
0.0
 10
37.2944812222
 20
42.7484128272
 30
0.0
 10
37.2815614668
 20
42.7612071183
 30
0.0
 10
37.2708552082
 20
42.7754043491
 30
0.0
 10
37.262703157
 20
42.7905480668
 30
0.0
 10
37.2571420902
 20
42.8065790307
 30
0.0
 10
37.2543565908
 20
42.8229595235
 30
0.0
 10
37.2543565911
 20
42.8396385672
 30
0.0
 10
37.2571420914
 20
42.8560478897
 30
0.0
 10
37.2627031589
 20
42.8721347803
 30
0.0
 10
37.2708552134
 20
42.8873566143
 30
0.0
 10
37.2815614694
 20
42.9016493832
 30
0.0
 10
37.294481231
 20
42.9145483748
 30
0.0
 10
37.3095320879
 20
42.9259755362
 30
0.0
 10
37.3262690013
 20
42.9355828609
 30
0.0
 10
37.3445408618
 20
42.9432872168
 30
0.0
 10
37.3638567504
 20
42.9488752228
 30
0.0
 10
37.3840071922
 20
42.9522817968
 30
0.0
 10
37.3976005667
 20
42.9530411618
 30
0.0
 10
37.4044702447
 20
42.9530411618
 30
0.0
  0
SPLINE
  5
64A
100
AcDbEntity
  8
03___PRT_ALL_CURVES
100
AcDbSpline
 62
40
  6
CONTINUOUS
 70
0
 71
3
 72
30
 73
26
 74
0
 42
0.0000001
 43
0.0000001
 44
0.0000000001
 40
0.0
 40
0.0
 40
0.0
 40
0.0
 40
0.0434782609
 40
0.0869565217
 40
0.1304347826
 40
0.1739130435
 40
0.2173913043
 40
0.2608695652
 40
0.3043478261
 40
0.347826087
 40
0.3913043478
 40
0.4347826087
 40
0.4782608696
 40
0.5217391304
 40
0.5652173913
 40
0.6086956522
 40
0.652173913
 40
0.6956521739
 40
0.7391304348
 40
0.7826086957
 40
0.8260869565
 40
0.8695652174
 40
0.9130434783
 40
0.9565217391
 40
1.0
 40
1.0
 40
1.0
 40
1.0
 10
38.8544702447
 20
41.5603431499
 30
0.0
 10
38.8613399228
 20
41.5603431499
 30
0.0
 10
38.8749332976
 20
41.5596445465
 30
0.0
 10
38.8950837601
 20
41.5565106361
 30
0.0
 10
38.9143996298
 20
41.5513701954
 30
0.0
 10
38.9326715044
 20
41.5442834899
 30
0.0
 10
38.9494084046
 20
41.535447341
 30
0.0
 10
38.9644592668
 20
41.5249388095
 30
0.0
 10
38.9773790225
 20
41.5130785827
 30
0.0
 10
38.988085281
 20
41.4999390613
 30
0.0
 10
38.9962373323
 20
41.4859480442
 30
0.0
 10
39.0017983993
 20
41.4711648411
 30
0.0
 10
39.0045838986
 20
41.4560884384
 30
0.0
 10
39.0045838983
 20
41.4407674434
 30
0.0
 10
39.0017983979
 20
41.4257238589
 30
0.0
 10
38.9962373304
 20
41.4110043227
 30
0.0
 10
38.9880852757
 20
41.3971022263
 30
0.0
 10
38.9773790199
 20
41.3840714748
 30
0.0
 10
38.9644592581
 20
41.3723304293
 30
0.0
 10
38.9494084015
 20
41.361944057
 30
0.0
 10
38.9326714877
 20
41.3532226812
 30
0.0
 10
38.9143996276
 20
41.3462359436
 30
0.0
 10
38.8950837387
 20
41.3411724328
 30
0.0
 10
38.8749332973
 20
41.3380872405
 30
0.0
 10
38.8613399227
 20
41.3373997022
 30
0.0
 10
38.8544702447
 20
41.3373997022
 30
0.0
  0
SPLINE
  5
64B
100
AcDbEntity
  8
03___PRT_ALL_CURVES
100
AcDbSpline
 62
40
  6
CONTINUOUS
 70
0
 71
3
 72
30
 73
26
 74
0
 42
0.0000001
 43
0.0000001
 44
0.0000000001
 40
0.0
 40
0.0
 40
0.0
 40
0.0
 40
0.0434782609
 40
0.0869565217
 40
0.1304347826
 40
0.1739130435
 40
0.2173913043
 40
0.2608695652
 40
0.3043478261
 40
0.347826087
 40
0.3913043478
 40
0.4347826087
 40
0.4782608696
 40
0.5217391304
 40
0.5652173913
 40
0.6086956522
 40
0.652173913
 40
0.6956521739
 40
0.7391304348
 40
0.7826086957
 40
0.8260869565
 40
0.8695652174
 40
0.9130434783
 40
0.9565217391
 40
1.0
 40
1.0
 40
1.0
 40
1.0
 10
37.4044702447
 20
41.3373997022
 30
0.0
 10
37.3976005666
 20
41.3373997022
 30
0.0
 10
37.3840071918
 20
41.3380872399
 30
0.0
 10
37.363856729
 20
41.3411724374
 30
0.0
 10
37.3445408596
 20
41.3462359444
 30
0.0
 10
37.3262689847
 20
41.3532226888
 30
0.0
 10
37.3095320848
 20
41.3619440592
 30
0.0
 10
37.2944812222
 20
41.3723304364
 30
0.0
 10
37.2815614668
 20
41.3840714778
 30
0.0
 10
37.2708552082
 20
41.3971022339
 30
0.0
 10
37.262703157
 20
41.4110043274
 30
0.0
 10
37.2571420902
 20
41.4257238637
 30
0.0
 10
37.2543565908
 20
41.4407674476
 30
0.0
 10
37.2543565911
 20
41.4560884423
 30
0.0
 10
37.2571420914
 20
41.4711648456
 30
0.0
 10
37.2627031589
 20
41.4859480484
 30
0.0
 10
37.2708552134
 20
41.4999390682
 30
0.0
 10
37.2815614694
 20
41.5130785854
 30
0.0
 10
37.294481231
 20
41.524938816
 30
0.0
 10
37.3095320879
 20
41.5354473432
 30
0.0
 10
37.3262690013
 20
41.5442834971
 30
0.0
 10
37.3445408618
 20
41.5513701962
 30
0.0
 10
37.3638567504
 20
41.5565106406
 30
0.0
 10
37.3840071922
 20
41.5596445459
 30
0.0
 10
37.3976005667
 20
41.5603431499
 30
0.0
 10
37.4044702447
 20
41.5603431499
 30
0.0
  0
SPLINE
  5
64C
100
AcDbEntity
  8
03___PRT_ALL_CURVES
100
AcDbSpline
 62
40
  6
CONTINUOUS
 70
0
 71
3
 72
30
 73
26
 74
0
 42
0.0000001
 43
0.0000001
 44
0.0000000001
 40
0.0
 40
0.0
 40
0.0
 40
0.0
 40
0.0434782609
 40
0.0869565217
 40
0.1304347826
 40
0.1739130435
 40
0.2173913043
 40
0.2608695652
 40
0.3043478261
 40
0.347826087
 40
0.3913043478
 40
0.4347826087
 40
0.4782608696
 40
0.5217391304
 40
0.5652173913
 40
0.6086956522
 40
0.652173913
 40
0.6956521739
 40
0.7391304348
 40
0.7826086957
 40
0.8260869565
 40
0.8695652174
 40
0.9130434783
 40
0.9565217391
 40
1.0
 40
1.0
 40
1.0
 40
1.0
 10
38.8544702447
 20
40.2910482729
 30
0.0
 10
38.8613399228
 20
40.2910482729
 30
0.0
 10
38.8749332976
 20
40.2904180846
 30
0.0
 10
38.8950837601
 20
40.287591179
 30
0.0
 10
38.9143996298
 20
40.2829546194
 30
0.0
 10
38.9326715044
 20
40.2765632147
 30
0.0
 10
38.9494084046
 20
40.2685950469
 30
0.0
 10
38.9644592668
 20
40.2591202836
 30
0.0
 10
38.9773790225
 20
40.2484287605
 30
0.0
 10
38.988085281
 20
40.2365864506
 30
0.0
 10
38.9962373323
 20
40.223979536
 30
0.0
 10
39.0017983993
 20
40.2106619886
 30
0.0
 10
39.0045838986
 20
40.1970836852
 30
0.0
 10
39.0045838983
 20
40.1832885993
 30
0.0
 10
39.0017983979
 20
40.1697467445
 30
0.0
 10
38.9962373304
 20
40.1564999061
 30
0.0
 10
38.9880852757
 20
40.1439917485
 30
0.0
 10
38.9773790199
 20
40.1322702389
 30
0.0
 10
38.9644592581
 20
40.121711081
 30
0.0
 10
38.9494084015
 20
40.1123719883
 30
0.0
 10
38.9326714877
 20
40.1045312899
 30
0.0
 10
38.9143996276
 20
40.0982509095
 30
0.0
 10
38.8950837387
 20
40.0936997899
 30
0.0
 10
38.8749332973
 20
40.0909269902
 30
0.0
 10
38.8613399227
 20
40.090309091
 30
0.0
 10
38.8544702447
 20
40.090309091
 30
0.0
  0
SPLINE
  5
64D
100
AcDbEntity
  8
03___PRT_ALL_CURVES
100
AcDbSpline
 62
40
  6
CONTINUOUS
 70
0
 71
3
 72
30
 73
26
 74
0
 42
0.0000001
 43
0.0000001
 44
0.0000000001
 40
0.0
 40
0.0
 40
0.0
 40
0.0
 40
0.0434782609
 40
0.0869565217
 40
0.1304347826
 40
0.1739130435
 40
0.2173913043
 40
0.2608695652
 40
0.3043478261
 40
0.347826087
 40
0.3913043478
 40
0.4347826087
 40
0.4782608696
 40
0.5217391304
 40
0.5652173913
 40
0.6086956522
 40
0.652173913
 40
0.6956521739
 40
0.7391304348
 40
0.7826086957
 40
0.8260869565
 40
0.8695652174
 40
0.9130434783
 40
0.9565217391
 40
1.0
 40
1.0
 40
1.0
 40
1.0
 10
37.4044702447
 20
40.090309091
 30
0.0
 10
37.3976005666
 20
40.090309091
 30
0.0
 10
37.3840071918
 20
40.0909269897
 30
0.0
 10
37.363856729
 20
40.093699794
 30
0.0
 10
37.3445408596
 20
40.0982509102
 30
0.0
 10
37.3262689847
 20
40.1045312967
 30
0.0
 10
37.3095320848
 20
40.1123719903
 30
0.0
 10
37.2944812222
 20
40.1217110873
 30
0.0
 10
37.2815614668
 20
40.1322702416
 30
0.0
 10
37.2708552082
 20
40.1439917554
 30
0.0
 10
37.262703157
 20
40.1564999103
 30
0.0
 10
37.2571420902
 20
40.1697467487
 30
0.0
 10
37.2543565908
 20
40.1832886031
 30
0.0
 10
37.2543565911
 20
40.1970836887
 30
0.0
 10
37.2571420914
 20
40.2106619926
 30
0.0
 10
37.2627031589
 20
40.2239795399
 30
0.0
 10
37.2708552134
 20
40.2365864569
 30
0.0
 10
37.2815614694
 20
40.248428763
 30
0.0
 10
37.294481231
 20
40.2591202895
 30
0.0
 10
37.3095320879
 20
40.2685950488
 30
0.0
 10
37.3262690013
 20
40.2765632212
 30
0.0
 10
37.3445408618
 20
40.2829546201
 30
0.0
 10
37.3638567504
 20
40.2875911831
 30
0.0
 10
37.3840071922
 20
40.2904180841
 30
0.0
 10
37.3976005667
 20
40.2910482729
 30
0.0
 10
37.4044702447
 20
40.2910482729
 30
0.0
  0
SPLINE
  5
64E
100
AcDbEntity
  8
03___PRT_ALL_CURVES
100
AcDbSpline
 62
40
  6
CONTINUOUS
 70
0
 71
3
 72
30
 73
26
 74
0
 42
0.0000001
 43
0.0000001
 44
0.0000000001
 40
0.0
 40
0.0
 40
0.0
 40
0.0
 40
0.0434782609
 40
0.0869565217
 40
0.1304347826
 40
0.1739130435
 40
0.2173913043
 40
0.2608695652
 40
0.3043478261
 40
0.347826087
 40
0.3913043478
 40
0.4347826087
 40
0.4782608696
 40
0.5217391304
 40
0.5652173913
 40
0.6086956522
 40
0.652173913
 40
0.6956521739
 40
0.7391304348
 40
0.7826086957
 40
0.8260869565
 40
0.8695652174
 40
0.9130434783
 40
0.9565217391
 40
1.0
 40
1.0
 40
1.0
 40
1.0
 10
38.8544702447
 20
39.1590631913
 30
0.0
 10
38.8613399228
 20
39.1590631913
 30
0.0
 10
38.8749332976
 20
39.1585083225
 30
0.0
 10
38.8950837601
 20
39.1560193939
 30
0.0
 10
38.9143996298
 20
39.1519375145
 30
0.0
 10
38.9326715044
 20
39.1463114362
 30
0.0
 10
38.9494084046
 20
39.1392985503
 30
0.0
 10
38.9644592668
 20
39.1309613628
 30
0.0
 10
38.9773790225
 20
39.121555682
 30
0.0
 10
38.988085281
 20
39.1111403304
 30
0.0
 10
38.9962373323
 20
39.1000556423
 30
0.0
 10
39.0017983993
 20
39.0883496603
 30
0.0
 10
39.0045838986
 20
39.076418223
 30
0.0
 10
39.0045838983
 20
39.0643001881
 30
0.0
 10
39.0017983979
 20
39.0524084302
 30
0.0
 10
38.9962373304
 20
39.0407794248
 30
0.0
 10
38.9880852757
 20
39.0298022481
 30
0.0
 10
38.9773790199
 20
39.0195184036
 30
0.0
 10
38.9644592581
 20
39.0102568216
 30
0.0
 10
38.9494084015
 20
39.0020673296
 30
0.0
 10
38.9326714877
 20
38.995193213
 30
0.0
 10
38.9143996276
 20
38.9896879989
 30
0.0
 10
38.8950837387
 20
38.9856991336
 30
0.0
 10
38.8749332973
 20
38.9832691059
 30
0.0
 10
38.8613399227
 20
38.9827276156
 30
0.0
 10
38.8544702447
 20
38.9827276156
 30
0.0
  0
SPLINE
  5
64F
100
AcDbEntity
  8
03___PRT_ALL_CURVES
100
AcDbSpline
 62
40
  6
CONTINUOUS
 70
0
 71
3
 72
30
 73
26
 74
0
 42
0.0000001
 43
0.0000001
 44
0.0000000001
 40
0.0
 40
0.0
 40
0.0
 40
0.0
 40
0.0434782609
 40
0.0869565217
 40
0.1304347826
 40
0.1739130435
 40
0.2173913043
 40
0.2608695652
 40
0.3043478261
 40
0.347826087
 40
0.3913043478
 40
0.4347826087
 40
0.4782608696
 40
0.5217391304
 40
0.5652173913
 40
0.6086956522
 40
0.652173913
 40
0.6956521739
 40
0.7391304348
 40
0.7826086957
 40
0.8260869565
 40
0.8695652174
 40
0.9130434783
 40
0.9565217391
 40
1.0
 40
1.0
 40
1.0
 40
1.0
 10
37.4044702447
 20
38.9827276156
 30
0.0
 10
37.3976005666
 20
38.9827276156
 30
0.0
 10
37.3840071918
 20
38.9832691054
 30
0.0
 10
37.363856729
 20
38.9856991372
 30
0.0
 10
37.3445408596
 20
38.9896879995
 30
0.0
 10
37.3262689847
 20
38.9951932189
 30
0.0
 10
37.3095320848
 20
39.0020673313
 30
0.0
 10
37.2944812222
 20
39.0102568272
 30
0.0
 10
37.2815614668
 20
39.019518406
 30
0.0
 10
37.2708552082
 20
39.0298022541
 30
0.0
 10
37.262703157
 20
39.0407794286
 30
0.0
 10
37.2571420902
 20
39.0524084339
 30
0.0
 10
37.2543565908
 20
39.0643001914
 30
0.0
 10
37.2543565911
 20
39.0764182261
 30
0.0
 10
37.2571420914
 20
39.0883496638
 30
0.0
 10
37.2627031589
 20
39.1000556456
 30
0.0
 10
37.2708552134
 20
39.1111403359
 30
0.0
 10
37.2815614694
 20
39.1215556842
 30
0.0
 10
37.294481231
 20
39.130961368
 30
0.0
 10
37.3095320879
 20
39.139298552
 30
0.0
 10
37.3262690013
 20
39.1463114419
 30
0.0
 10
37.3445408618
 20
39.1519375151
 30
0.0
 10
37.3638567504
 20
39.1560193975
 30
0.0
 10
37.3840071922
 20
39.158508322
 30
0.0
 10
37.3976005667
 20
39.1590631913
 30
0.0
 10
37.4044702447
 20
39.1590631913
 30
0.0
  0
SPLINE
  5
650
100
AcDbEntity
  8
03___PRT_ALL_CURVES
100
AcDbSpline
 62
40
  6
CONTINUOUS
 70
0
 71
3
 72
30
 73
26
 74
0
 42
0.0000001
 43
0.0000001
 44
0.0000000001
 40
0.0
 40
0.0
 40
0.0
 40
0.0
 40
0.0434782609
 40
0.0869565217
 40
0.1304347826
 40
0.1739130435
 40
0.2173913043
 40
0.2608695652
 40
0.3043478261
 40
0.347826087
 40
0.3913043478
 40
0.4347826087
 40
0.4782608696
 40
0.5217391304
 40
0.5652173913
 40
0.6086956522
 40
0.652173913
 40
0.6956521739
 40
0.7391304348
 40
0.7826086957
 40
0.8260869565
 40
0.8695652174
 40
0.9130434783
 40
0.9565217391
 40
1.0
 40
1.0
 40
1.0
 40
1.0
 10
38.8544702447
 20
37.354991199
 30
0.0
 10
38.8613399228
 20
37.354991199
 30
0.0
 10
38.8749332976
 20
37.3546043151
 30
0.0
 10
38.8950837601
 20
37.3528691465
 30
0.0
 10
38.9143996298
 20
37.350024226
 30
0.0
 10
38.9326715044
 20
37.3461046616
 30
0.0
 10
38.9494084046
 20
37.3412215354
 30
0.0
 10
38.9644592668
 20
37.3354200671
 30
0.0
 10
38.9773790225
 20
37.3288800057
 30
0.0
 10
38.988085281
 20
37.3216440247
 30
0.0
 10
38.9962373323
 20
37.3139501196
 30
0.0
 10
39.0017983993
 20
37.3058329664
 30
0.0
 10
39.0045838986
 20
37.2975679555
 30
0.0
 10
39.0045838983
 20
37.289182497
 30
0.0
 10
39.0017983979
 20
37.2809622926
 30
0.0
 10
38.9962373304
 20
37.2729320614
 30
0.0
 10
38.9880852757
 20
37.2653595596
 30
0.0
 10
38.9773790199
 20
37.2582720755
 30
0.0
 10
38.9644592581
 20
37.2518947324
 30
0.0
 10
38.9494084015
 20
37.2462600409
 30
0.0
 10
38.9326714877
 20
37.2415336154
 30
0.0
 10
38.9143996276
 20
37.2377505291
 30
0.0
 10
38.8950837387
 20
37.2350106418
 30
0.0
 10
38.8749332973
 20
37.2333419826
 30
0.0
 10
38.8613399227
 20
37.232970206
 30
0.0
 10
38.8544702447
 20
37.232970206
 30
0.0
  0
SPLINE
  5
651
100
AcDbEntity
  8
03___PRT_ALL_CURVES
100
AcDbSpline
 62
40
  6
CONTINUOUS
 70
0
 71
3
 72
19
 73
15
 74
0
 42
0.0000001
 43
0.0000001
 44
0.0000000001
 40
0.0
 40
0.0
 40
0.0
 40
0.0
 40
0.0434782732
 40
0.1304347938
 40
0.2173913144
 40
0.304347835
 40
0.3913043557
 40
0.4782608763
 40
0.5652173969
 40
0.6521739175
 40
0.7391304381
 40
0.8260869588
 40
0.9130434794
 40
1.0
 40
1.0
 40
1.0
 40
1.0
 10
36.0044726535
 20
35.823648943
 30
0.0
 10
36.0044726535
 20
35.823648943
 30
0.0
 10
36.004820841
 20
35.8236520084
 30
0.0
 10
36.0071420913
 20
35.8236724447
 30
0.0
 10
36.0127031591
 20
35.8237200186
 30
0.0
 10
36.0208552139
 20
35.8237864657
 30
0.0
 10
36.0315614696
 20
35.8238677394
 30
0.0
 10
36.0444812316
 20
35.8239567993
 30
0.0
 10
36.0595320879
 20
35.8240480778
 30
0.0
 10
36.0762690014
 20
35.8241338446
 30
0.0
 10
36.0945408621
 20
35.8242085395
 30
0.0
 10
36.1138567538
 20
35.8242660272
 30
0.0
 10
36.1340071922
 20
35.8243024274
 30
0.0
 10
36.1476005667
 20
35.8243106961
 30
0.0
 10
36.1544702447
 20
35.8243106961
 30
0.0
  0
SPLINE
  5
652
100
AcDbEntity
  8
03___PRT_ALL_CURVES
100
AcDbSpline
 62
40
  6
CONTINUOUS
 70
0
 71
3
 72
19
 73
15
 74
0
 42
0.0000001
 43
0.0000001
 44
0.0000000001
 40
0.0
 40
0.0
 40
0.0
 40
0.0
 40
0.086956523
 40
0.1739130459
 40
0.2608695689
 40
0.3478260918
 40
0.4347826148
 40
0.5217391377
 40
0.6086956607
 40
0.6956521837
 40
0.7826087066
 40
0.8695652296
 40
0.9565217525
 40
1.0
 40
1.0
 40
1.0
 40
1.0
 10
38.8544702447
 20
35.8243106961
 30
0.0
 10
38.8613399228
 20
35.8243106961
 30
0.0
 10
38.8749332976
 20
35.8243024274
 30
0.0
 10
38.8950837583
 20
35.8242660272
 30
0.0
 10
38.9143996296
 20
35.8242085394
 30
0.0
 10
38.932671504
 20
35.8241338445
 30
0.0
 10
38.9494084045
 20
35.8240480778
 30
0.0
 10
38.964459267
 20
35.8239567992
 30
0.0
 10
38.9773790225
 20
35.8238677394
 30
0.0
 10
38.9880852805
 20
35.8237864657
 30
0.0
 10
38.9962373322
 20
35.8237200186
 30
0.0
 10
39.0017983997
 20
35.8236724447
 30
0.0
 10
39.0041196486
 20
35.8236520084
 30
0.0
 10
39.0044678359
 20
35.823648943
 30
0.0
 10
39.0044678359
 20
35.823648943
 30
0.0
  0
SPLINE
  5
653
100
AcDbEntity
  8
03___PRT_ALL_CURVES
100
AcDbSpline
 62
40
  6
CONTINUOUS
 70
0
 71
3
 72
30
 73
26
 74
0
 42
0.0000001
 43
0.0000001
 44
0.0000000001
 40
0.0
 40
0.0
 40
0.0
 40
0.0
 40
0.0434782609
 40
0.0869565217
 40
0.1304347826
 40
0.1739130435
 40
0.2173913043
 40
0.2608695652
 40
0.3043478261
 40
0.347826087
 40
0.3913043478
 40
0.4347826087
 40
0.4782608696
 40
0.5217391304
 40
0.5652173913
 40
0.6086956522
 40
0.652173913
 40
0.6956521739
 40
0.7391304348
 40
0.7826086957
 40
0.8260869565
 40
0.8695652174
 40
0.9130434783
 40
0.9565217391
 40
1.0
 40
1.0
 40
1.0
 40
1.0
 10
36.1544702447
 20
38.0267901704
 30
0.0
 10
36.1476005666
 20
38.0267901704
 30
0.0
 10
36.1340071919
 20
38.0272493187
 30
0.0
 10
36.1138567308
 20
38.0293099537
 30
0.0
 10
36.0945408598
 20
38.0326928595
 30
0.0
 10
36.0762689851
 20
38.0373625955
 30
0.0
 10
36.0595320848
 20
38.0431948126
 30
0.0
 10
36.0444812221
 20
38.0501449814
 30
0.0
 10
36.0315614668
 20
38.058007513
 30
0.0
 10
36.0208552087
 20
38.066741023
 30
0.0
 10
36.0127031572
 20
38.0760669489
 30
0.0
 10
36.0071420898
 20
38.0859507125
 30
0.0
 10
36.0043565908
 20
38.0960620844
 30
0.0
 10
36.0043565912
 20
38.1063702995
 30
0.0
 10
36.0071420913
 20
38.1165241478
 30
0.0
 10
36.0127031591
 20
38.1264903115
 30
0.0
 10
36.0208552139
 20
38.1359313289
 30
0.0
 10
36.0315614696
 20
38.1448056063
 30
0.0
 10
36.0444812316
 20
38.152822397
 30
0.0
 10
36.0595320879
 20
38.1599306614
 30
0.0
 10
36.0762690014
 20
38.1659114342
 30
0.0
 10
36.0945408621
 20
38.1707105413
 30
0.0
 10
36.1138567538
 20
38.1741930215
 30
0.0
 10
36.1340071922
 20
38.1763166998
 30
0.0
 10
36.1476005667
 20
38.1767901704
 30
0.0
 10
36.1544702447
 20
38.1767901704
 30
0.0
  0
SPLINE
  5
654
100
AcDbEntity
  8
03___PRT_ALL_CURVES
100
AcDbSpline
 62
40
  6
CONTINUOUS
 70
0
 71
3
 72
30
 73
26
 74
0
 42
0.0000001
 43
0.0000001
 44
0.0000000001
 40
0.0
 40
0.0
 40
0.0
 40
0.0
 40
0.0434782609
 40
0.0869565217
 40
0.1304347826
 40
0.1739130435
 40
0.2173913043
 40
0.2608695652
 40
0.3043478261
 40
0.347826087
 40
0.3913043478
 40
0.4347826087
 40
0.4782608696
 40
0.5217391304
 40
0.5652173913
 40
0.6086956522
 40
0.652173913
 40
0.6956521739
 40
0.7391304348
 40
0.7826086957
 40
0.8260869565
 40
0.8695652174
 40
0.9130434783
 40
0.9565217391
 40
1.0
 40
1.0
 40
1.0
 40
1.0
 10
38.8544702447
 20
38.1767901704
 30
0.0
 10
38.8613399228
 20
38.1767901704
 30
0.0
 10
38.8749332976
 20
38.1763167003
 30
0.0
 10
38.8950837583
 20
38.1741930182
 30
0.0
 10
38.9143996296
 20
38.1707105407
 30
0.0
 10
38.932671504
 20
38.1659114294
 30
0.0
 10
38.9494084045
 20
38.15993066
 30
0.0
 10
38.964459267
 20
38.1528223921
 30
0.0
 10
38.9773790225
 20
38.1448056043
 30
0.0
 10
38.9880852805
 20
38.1359313242
 30
0.0
 10
38.9962373322
 20
38.1264903086
 30
0.0
 10
39.0017983997
 20
38.1165241443
 30
0.0
 10
39.0045838986
 20
38.1063702965
 30
0.0
 10
39.0045838982
 20
38.0960620811
 30
0.0
 10
39.001798398
 20
38.0859507088
 30
0.0
 10
38.9962373302
 20
38.0760669457
 30
0.0
 10
38.9880852752
 20
38.0667410179
 30
0.0
 10
38.9773790198
 20
38.0580075109
 30
0.0
 10
38.9644592575
 20
38.0501449763
 30
0.0
 10
38.9494084014
 20
38.0431948111
 30
0.0
 10
38.9326714876
 20
38.0373625906
 30
0.0
 10
38.9143996273
 20
38.0326928589
 30
0.0
 10
38.8950837353
 20
38.0293099504
 30
0.0
 10
38.8749332972
 20
38.0272493191
 30
0.0
 10
38.8613399227
 20
38.0267901704
 30
0.0
 10
38.8544702447
 20
38.0267901704
 30
0.0
  0
SPLINE
  5
655
100
AcDbEntity
  8
03___PRT_ALL_CURVES
100
AcDbSpline
 62
40
  6
CONTINUOUS
 70
0
 71
3
 72
30
 73
26
 74
0
 42
0.0000001
 43
0.0000001
 44
0.0000000001
 40
0.0
 40
0.0
 40
0.0
 40
0.0
 40
0.0434782609
 40
0.0869565217
 40
0.1304347826
 40
0.1739130435
 40
0.2173913043
 40
0.2608695652
 40
0.3043478261
 40
0.347826087
 40
0.3913043478
 40
0.4347826087
 40
0.4782608696
 40
0.5217391304
 40
0.5652173913
 40
0.6086956522
 40
0.652173913
 40
0.6956521739
 40
0.7391304348
 40
0.7826086957
 40
0.8260869565
 40
0.8695652174
 40
0.9130434783
 40
0.9565217391
 40
1.0
 40
1.0
 40
1.0
 40
1.0
 10
36.1544702447
 20
44.1940759967
 30
0.0
 10
36.1476005666
 20
44.1940759967
 30
0.0
 10
36.1340071919
 20
44.1948795336
 30
0.0
 10
36.1138567308
 20
44.1984850584
 30
0.0
 10
36.0945408598
 20
44.2044019109
 30
0.0
 10
36.0762689851
 20
44.2125648258
 30
0.0
 10
36.0595320848
 20
44.2227522888
 30
0.0
 10
36.0444812221
 20
44.234881613
 30
0.0
 10
36.0315614668
 20
44.248588977
 30
0.0
 10
36.0208552087
 20
44.2637971338
 30
0.0
 10
36.0127031572
 20
44.2800165582
 30
0.0
 10
36.0071420898
 20
44.2971833129
 30
0.0
 10
36.0043565908
 20
44.3147212463
 30
0.0
 10
36.0043565912
 20
44.3325755986
 30
0.0
 10
36.0071420913
 20
44.3501380563
 30
0.0
 10
36.0127031591
 20
44.3673523841
 30
0.0
 10
36.0208552139
 20
44.3836382589
 30
0.0
 10
36.0315614696
 20
44.3989276845
 30
0.0
 10
36.0444812316
 20
44.4127241134
 30
0.0
 10
36.0595320879
 20
44.42494471
 30
0.0
 10
36.0762690014
 20
44.4352179456
 30
0.0
 10
36.0945408621
 20
44.4434555481
 30
0.0
 10
36.1138567538
 20
44.449429893
 30
0.0
 10
36.1340071922
 20
44.4530718115
 30
0.0
 10
36.1476005667
 20
44.4538836179
 30
0.0
 10
36.1544702447
 20
44.4538836179
 30
0.0
  0
SPLINE
  5
656
100
AcDbEntity
  8
03___PRT_ALL_CURVES
100
AcDbSpline
 62
40
  6
CONTINUOUS
 70
0
 71
3
 72
30
 73
26
 74
0
 42
0.0000001
 43
0.0000001
 44
0.0000000001
 40
0.0
 40
0.0
 40
0.0
 40
0.0
 40
0.0434782609
 40
0.0869565217
 40
0.1304347826
 40
0.1739130435
 40
0.2173913043
 40
0.2608695652
 40
0.3043478261
 40
0.347826087
 40
0.3913043478
 40
0.4347826087
 40
0.4782608696
 40
0.5217391304
 40
0.5652173913
 40
0.6086956522
 40
0.652173913
 40
0.6956521739
 40
0.7391304348
 40
0.7826086957
 40
0.8260869565
 40
0.8695652174
 40
0.9130434783
 40
0.9565217391
 40
1.0
 40
1.0
 40
1.0
 40
1.0
 10
38.8544702447
 20
44.4538836179
 30
0.0
 10
38.8613399228
 20
44.4538836179
 30
0.0
 10
38.8749332976
 20
44.4530718123
 30
0.0
 10
38.8950837583
 20
44.4494298873
 30
0.0
 10
38.9143996296
 20
44.443455547
 30
0.0
 10
38.932671504
 20
44.4352179373
 30
0.0
 10
38.9494084045
 20
44.4249447076
 30
0.0
 10
38.964459267
 20
44.412724105
 30
0.0
 10
38.9773790225
 20
44.398927681
 30
0.0
 10
38.9880852805
 20
44.3836382507
 30
0.0
 10
38.9962373322
 20
44.3673523791
 30
0.0
 10
39.0017983997
 20
44.3501380501
 30
0.0
 10
39.0045838986
 20
44.3325755934
 30
0.0
 10
39.0045838982
 20
44.3147212406
 30
0.0
 10
39.001798398
 20
44.2971833064
 30
0.0
 10
38.9962373302
 20
44.2800165528
 30
0.0
 10
38.9880852752
 20
44.2637971248
 30
0.0
 10
38.9773790198
 20
44.2485889733
 30
0.0
 10
38.9644592575
 20
44.2348816041
 30
0.0
 10
38.9494084014
 20
44.2227522863
 30
0.0
 10
38.9326714876
 20
44.2125648172
 30
0.0
 10
38.9143996273
 20
44.2044019099
 30
0.0
 10
38.8950837353
 20
44.1984850527
 30
0.0
 10
38.8749332972
 20
44.1948795344
 30
0.0
 10
38.8613399227
 20
44.1940759967
 30
0.0
 10
38.8544702447
 20
44.1940759967
 30
0.0
  0
LINE
  5
657
100
AcDbEntity
  8
7_ALL_FEATURES
100
AcDbLine
 62
7
  6
CONTINUOUS
 10
43.2098598566
 20
69.8204269504
 11
43.2005448505
 21
69.819768881
  0
LINE
  5
658
100
AcDbEntity
  8
7_ALL_FEATURES
100
AcDbLine
 62
7
  6
CONTINUOUS
 10
43.2005424383
 20
35.8275291258
 11
43.2098582594
 21
35.8268709999
  0
SPLINE
  5
659
100
AcDbEntity
  8
7_ALL_FEATURES
100
AcDbSpline
 62
3
  6
CONTINUOUS
 70
0
 71
3
 72
10
 73
6
 74
0
 42
0.0000001
 43
0.0000001
 44
0.0000000001
 40
0.0
 40
0.0
 40
0.0
 40
0.0
 40
0.3079482088
 40
0.5990442991
 40
1.0
 40
1.0
 40
1.0
 40
1.0
 10
122.299042185
 20
36.7236489185
 30
0.0
 10
122.301079845
 20
36.7236489185
 30
0.0
 10
122.3036265815
 20
36.7283336622
 30
0.0
 10
122.3042335217
 20
36.7344890032
 30
0.0
 10
122.3044702447
 20
36.7391898903
 30
0.0
 10
122.3044702447
 20
36.7418429708
 30
0.0
  0
ELLIPSE
  5
65A
100
AcDbEntity
  8
03___PRT_ALL_CURVES
100
AcDbEllipse
 62
40
  6
CONTINUOUS
 10
36.2718245866
 20
156.6500391477
 30
0.0
 11
37.6024696897
 21
-9.8769322528
 31
0.0
 40
0.3679654273
 41
1.7504258203
 42
1.7559610212
  0
ELLIPSE
  5
65B
100
AcDbEntity
  8
03___PRT_ALL_CURVES
100
AcDbEllipse
 62
40
  6
CONTINUOUS
 10
30.195443193
 20
156.6500391477
 30
0.0
 11
37.6025428606
 21
9.8769267333
 31
0.0
 40
0.3679648161
 41
1.3966998664
 42
1.4022301169
  0
ELLIPSE
  5
65C
100
AcDbEntity
  8
03___PRT_ALL_CURVES
100
AcDbEllipse
 62
40
  6
CONTINUOUS
 10
35.4384972965
 20
156.6500391477
 30
0.0
 11
37.6025428606
 21
-9.8769267333
 31
0.0
 40
0.3679648161
 41
1.7393625366
 42
1.7448927872
  0
ELLIPSE
  5
65D
100
AcDbEntity
  8
03___PRT_ALL_CURVES
100
AcDbEllipse
 62
40
  6
CONTINUOUS
 10
29.3621159029
 20
156.6500391477
 30
0.0
 11
37.6024696897
 21
9.8769322528
 31
0.0
 40
0.3679654273
 41
1.3856316324
 42
1.3911668333
  0
ELLIPSE
  5
65E
100
AcDbEntity
  8
03___PRT_ALL_CURVES
100
AcDbEllipse
 62
40
  6
CONTINUOUS
 10
32.6773426889
 20
156.6500391477
 30
0.0
 11
32.044349321
 21
-10.4097715358
 31
0.0
 40
0.4194222693
 41
1.6671414915
 42
1.6984013547
  0
ELLIPSE
  5
65F
100
AcDbEntity
  8
03___PRT_ALL_CURVES
100
AcDbEllipse
 62
40
  6
CONTINUOUS
 10
32.2501486037
 20
156.6500391477
 30
0.0
 11
32.2636596446
 21
-10.3835895217
 31
0.0
 40
0.4171985409
 41
1.6523138319
 42
1.6964547709
  0
ELLIPSE
  5
660
100
AcDbEntity
  8
03___PRT_ALL_CURVES
100
AcDbEllipse
 62
40
  6
CONTINUOUS
 10
29.8825734888
 20
156.6500391477
 30
0.0
 11
33.5030090484
 21
-10.2447143017
 31
0.0
 40
0.4049292742
 41
1.6051789917
 42
1.6162468162
  0
ELLIPSE
  5
661
100
AcDbEntity
  8
03___PRT_ALL_CURVES
100
AcDbEllipse
 62
40
  6
CONTINUOUS
 10
30.3081043037
 20
156.6500391477
 30
0.0
 11
33.5030229061
 21
-10.244712831
 31
0.0
 40
0.4049291398
 41
1.6051788833
 42
1.6162467078
  0
ELLIPSE
  5
662
100
AcDbEntity
  8
03___PRT_ALL_CURVES
100
AcDbEllipse
 62
40
  6
CONTINUOUS
 10
36.1329417773
 20
156.6500391477
 30
0.0
 11
37.6600630273
 21
-15.3470254816
 31
0.0
 40
0.1941642243
 41
1.7293442454
 42
1.7348777124
  0
ELLIPSE
  5
663
100
AcDbEntity
  8
03___PRT_ALL_CURVES
100
AcDbEllipse
 62
40
  6
CONTINUOUS
 10
30.3343319957
 20
156.6500391477
 30
0.0
 11
37.6600630273
 21
15.3470254816
 31
0.0
 40
0.1941642243
 41
1.4177794341
 42
1.4233081913
  0
ELLIPSE
  5
664
100
AcDbEntity
  8
03___PRT_ALL_CURVES
100
AcDbEllipse
 62
40
  6
CONTINUOUS
 10
35.2996084937
 20
156.6500391477
 30
0.0
 11
37.6600630273
 21
-15.3470254816
 31
0.0
 40
0.1941642243
 41
1.7182844623
 42
1.7238132194
  0
ELLIPSE
  5
665
100
AcDbEntity
  8
03___PRT_ALL_CURVES
100
AcDbEllipse
 62
40
  6
CONTINUOUS
 10
29.5009987121
 20
156.6500391477
 30
0.0
 11
37.6600630273
 21
15.3470254816
 31
0.0
 40
0.1941642243
 41
1.4067149412
 42
1.4122484082
  0
ELLIPSE
  5
666
100
AcDbEntity
  8
03___PRT_ALL_CURVES
100
AcDbEllipse
 62
40
  6
CONTINUOUS
 10
32.7371828808
 20
156.6500391477
 30
0.0
 11
33.6026491973
 21
-15.4711013701
 31
0.0
 40
0.2096835387
 41
1.6629030815
 42
1.6739325544
  0
ELLIPSE
  5
667
100
AcDbEntity
  8
03___PRT_ALL_CURVES
100
AcDbEllipse
 62
40
  6
CONTINUOUS
 10
33.1627148381
 20
156.6500391477
 30
0.0
 11
33.6026628615
 21
-15.4711009002
 31
0.0
 40
0.2096834842
 41
1.6629030148
 42
1.6739324877
  0
ELLIPSE
  5
668
100
AcDbEntity
  8
03___PRT_ALL_CURVES
100
AcDbEllipse
 62
40
  6
CONTINUOUS
 10
32.9480872255
 20
156.6500391477
 30
0.0
 11
25.1668491076
 21
-15.8451189323
 31
0.0
 40
0.2447232351
 41
1.653301992
 42
1.69931353
  0
ELLIPSE
  5
669
100
AcDbEntity
  8
03___PRT_ALL_CURVES
100
AcDbEllipse
 62
40
  6
CONTINUOUS
 10
32.5111197115
 20
156.6500391477
 30
0.0
 11
43.322483782
 21
-15.2161338749
 31
0.0
 40
0.1749864788
 41
1.6078204976
 42
1.6114979045
  0
ELLIPSE
  5
66A
100
AcDbEntity
  8
03___PRT_ALL_CURVES
100
AcDbEllipse
 62
40
  6
CONTINUOUS
 10
31.0151064647
 20
156.6500391477
 30
0.0
 11
115.7398361245
 21
-14.8003449349
 31
0.0
 40
0.072262061
 41
1.5593550232
 42
1.561193616
  0
ELLIPSE
  5
66B
100
AcDbEntity
  8
03___PRT_ALL_CURVES
100
AcDbEllipse
 62
40
  6
CONTINUOUS
 10
35.2704297663
 20
156.6500391477
 30
0.0
 11
115.7398361245
 21
14.8003449349
 31
0.0
 40
0.072262061
 41
1.5803990376
 42
1.5822376304
  0
ELLIPSE
  5
66C
100
AcDbEntity
  8
03___PRT_ALL_CURVES
100
AcDbEllipse
 62
40
  6
CONTINUOUS
 10
33.4752145549
 20
156.6500391477
 30
0.0
 11
28.7110963502
 21
15.6659926255
 31
0.0
 40
0.229920274
 41
1.4666757093
 42
1.4740308526
  0
ELLIPSE
  5
66D
100
AcDbEntity
  8
03___PRT_ALL_CURVES
100
AcDbEllipse
 62
40
  6
CONTINUOUS
 10
33.0696299145
 20
156.6500391477
 30
0.0
 11
13.7880179293
 21
16.6057822254
 31
0.0
 40
0.2639813624
 41
1.2910094917
 42
1.2983661473
  0
ELLIPSE
  5
66E
100
AcDbEntity
  8
03___PRT_ALL_CURVES
100
AcDbEllipse
 62
40
  6
CONTINUOUS
 10
32.7283177493
 20
156.6500391477
 30
0.0
 11
4.2548848139
 21
16.9904900289
 31
0.0
 40
0.1336227802
 41
1.1160413007
 42
1.1270800058
  0
ELLIPSE
  5
66F
100
AcDbEntity
  8
03___PRT_ALL_CURVES
100
AcDbEllipse
 62
40
  6
CONTINUOUS
 10
32.2822058107
 20
156.6500391477
 30
0.0
 11
-3.6301679702
 21
16.9947525025
 31
0.0
 40
0.1163470407
 41
-1.1387302187
 42
-1.1258391001
  0
ELLIPSE
  5
670
100
AcDbEntity
  8
03___PRT_ALL_CURVES
100
AcDbEllipse
 62
40
  6
CONTINUOUS
 10
31.5935659936
 20
156.6500391477
 30
0.0
 11
-13.7880152451
 21
16.605782407
 31
0.0
 40
0.2639813537
 41
-1.3370293235
 42
-1.3296581223
  0
ELLIPSE
  5
671
100
AcDbEntity
  8
03___PRT_ALL_CURVES
100
AcDbEllipse
 62
40
  6
CONTINUOUS
 10
30.5230873891
 20
156.6500391477
 30
0.0
 11
28.7111108301
 21
-15.6659919628
 31
0.0
 40
0.2299202129
 41
1.6141665838
 42
1.6215418189
  0
ELLIPSE
  5
672
100
AcDbEntity
  8
03___PRT_ALL_CURVES
100
AcDbEllipse
 62
40
  6
CONTINUOUS
 10
32.7425020416
 20
156.6500391477
 30
0.0
 11
60.7659597579
 21
-0.0
 31
0.0
 40
0.2797618941
 41
1.5335634596
 42
1.5703367666
  0
ELLIPSE
  5
673
100
AcDbEntity
  8
03___PRT_ALL_CURVES
100
AcDbEllipse
 62
40
  6
CONTINUOUS
 10
32.0722892751
 20
156.6500391477
 30
0.0
 11
60.7659575848
 21
-0.0
 31
0.0
 40
0.2797619041
 41
1.5225239031
 42
1.559307102
  0
ELLIPSE
  5
674
100
AcDbEntity
  8
03___PRT_ALL_CURVES
100
AcDbEllipse
 62
40
  6
CONTINUOUS
 10
32.5419891661
 20
156.6500391477
 30
0.0
 11
25.5477014162
 21
-15.8242075006
 31
0.0
 40
0.2431703588
 41
1.6351708016
 42
1.6867378473
  0
ELLIPSE
  5
675
100
AcDbEntity
  8
03___PRT_ALL_CURVES
100
AcDbEllipse
 62
40
  6
CONTINUOUS
 10
31.4672371368
 20
156.6500391477
 30
0.0
 11
57.8353114665
 21
-15.0168974128
 31
0.0
 40
0.1377745921
 41
1.5730000588
 42
1.576678383
  0
ELLIPSE
  5
676
100
AcDbEntity
  8
03___PRT_ALL_CURVES
100
AcDbEllipse
 62
40
  6
CONTINUOUS
 10
34.3861184601
 20
156.6500391477
 30
0.0
 11
43.322483782
 21
15.2161338749
 31
0.0
 40
0.1749864788
 41
1.5392888972
 42
1.5429672213
  0
ELLIPSE
  5
677
100
AcDbEntity
  8
03___PRT_ALL_CURVES
100
AcDbEllipse
 62
40
  6
CONTINUOUS
 10
33.5771652402
 20
156.6500391477
 30
0.0
 11
18.802107935
 21
16.2505598892
 31
0.0
 40
0.2654980933
 41
1.3787868296
 42
1.3843051805
  0
ELLIPSE
  5
678
100
AcDbEntity
  8
03___PRT_ALL_CURVES
100
AcDbEllipse
 62
40
  6
CONTINUOUS
 10
33.0496829936
 20
156.6500391477
 30
0.0
 11
5.1430808852
 21
16.9809933239
 31
0.0
 40
0.1562599809
 41
1.1335616062
 42
1.1427615863
  0
ELLIPSE
  5
679
100
AcDbEntity
  8
03___PRT_ALL_CURVES
100
AcDbEllipse
 62
40
  6
CONTINUOUS
 10
32.4486191917
 20
156.6500391477
 30
0.0
 11
-5.1430801158
 21
16.9809933341
 31
0.0
 40
0.1562599623
 41
-1.1593323754
 42
-1.1501244644
  0
ELLIPSE
  5
67A
100
AcDbEntity
  8
03___PRT_ALL_CURVES
100
AcDbEllipse
 62
40
  6
CONTINUOUS
 10
31.5736192462
 20
156.6500391477
 30
0.0
 11
18.802107935
 21
-16.2505598892
 31
0.0
 40
0.2654980933
 41
1.7259893512
 42
1.7315166912
  0
ELLIPSE
  5
67B
100
AcDbEntity
  8
03___PRT_ALL_CURVES
100
AcDbEllipse
 62
40
  6
CONTINUOUS
 10
29.8781410317
 20
156.6500391477
 30
0.0
 11
43.3224993828
 21
-15.2161335689
 31
0.0
 40
0.17498643
 41
1.5581228391
 42
1.5618089192
  0
ELLIPSE
  5
67C
100
AcDbEntity
  8
03___PRT_ALL_CURVES
100
AcDbEllipse
 62
40
  6
CONTINUOUS
 10
23.4619180998
 20
156.6500391477
 30
0.0
 11
115.7397222779
 21
-14.8003450853
 31
0.0
 40
0.0722621297
 41
1.4967602942
 42
1.4986047811
  0
ELLIPSE
  5
67D
100
AcDbEntity
  8
03___PRT_ALL_CURVES
100
AcDbEllipse
 62
40
  6
CONTINUOUS
 10
36.2718245866
 20
52.8236489185
 30
0.0
 11
37.659990395
 21
-15.3470274485
 31
0.0
 40
0.1941644892
 41
-1.5806473773
 42
-1.5751121764
  0
ELLIPSE
  5
67E
100
AcDbEntity
  8
03___PRT_ALL_CURVES
100
AcDbEllipse
 62
40
  6
CONTINUOUS
 10
30.195443193
 20
52.8236489185
 30
0.0
 11
37.6600630273
 21
15.3470254816
 31
0.0
 40
0.1941642243
 41
-1.577543093
 42
-1.5720128424
  0
ELLIPSE
  5
67F
100
AcDbEntity
  8
03___PRT_ALL_CURVES
100
AcDbEllipse
 62
40
  6
CONTINUOUS
 10
35.4384972965
 20
52.8236489185
 30
0.0
 11
37.6600630273
 21
-15.3470254816
 31
0.0
 40
0.1941642243
 41
-1.5695798112
 42
-1.5640495606
  0
ELLIPSE
  5
680
100
AcDbEntity
  8
03___PRT_ALL_CURVES
100
AcDbEllipse
 62
40
  6
CONTINUOUS
 10
29.3621159029
 20
52.8236489185
 30
0.0
 11
37.659990395
 21
15.3470274485
 31
0.0
 40
0.1941644892
 41
-1.5664804772
 42
-1.5609452763
  0
ELLIPSE
  5
681
100
AcDbEntity
  8
03___PRT_ALL_CURVES
100
AcDbEllipse
 62
40
  6
CONTINUOUS
 10
32.6773426889
 20
52.8236489185
 30
0.0
 11
32.1669738922
 21
-15.522627557
 31
0.0
 40
0.2154902392
 41
-1.4593683036
 42
-1.4281084404
  0
ELLIPSE
  5
682
100
AcDbEntity
  8
03___PRT_ALL_CURVES
100
AcDbEllipse
 62
40
  6
CONTINUOUS
 10
32.2501486037
 20
52.8236489185
 30
0.0
 11
32.3824639756
 21
-15.5146121336
 31
0.0
 40
0.2146096932
 41
-1.4605231588
 42
-1.4163822199
  0
ELLIPSE
  5
683
100
AcDbEntity
  8
03___PRT_ALL_CURVES
100
AcDbEllipse
 62
40
  6
CONTINUOUS
 10
29.8825734888
 20
52.8236489185
 30
0.0
 11
33.6026329165
 21
-15.47110193
 31
0.0
 40
0.2096836038
 41
-1.3968097207
 42
-1.3857418962
  0
ELLIPSE
  5
684
100
AcDbEntity
  8
03___PRT_ALL_CURVES
100
AcDbEllipse
 62
40
  6
CONTINUOUS
 10
30.3081043037
 20
52.8236489185
 30
0.0
 11
33.6026465807
 21
-15.4711014601
 31
0.0
 40
0.2096835492
 41
-1.3968097874
 42
-1.3857419629
  0
ELLIPSE
  5
685
100
AcDbEntity
  8
03___PRT_ALL_CURVES
100
AcDbEllipse
 62
40
  6
CONTINUOUS
 10
36.1329417773
 20
52.8236489185
 30
0.0
 11
37.6025428606
 21
-9.8769267333
 31
0.0
 40
0.3679648161
 41
-1.5595647364
 42
-1.5540312694
  0
ELLIPSE
  5
686
100
AcDbEntity
  8
03___PRT_ALL_CURVES
100
AcDbEllipse
 62
40
  6
CONTINUOUS
 10
30.3343319957
 20
52.8236489185
 30
0.0
 11
37.6025428606
 21
9.8769267333
 31
0.0
 40
0.3679648161
 41
-1.5986211673
 42
-1.5930924102
  0
ELLIPSE
  5
687
100
AcDbEntity
  8
03___PRT_ALL_CURVES
100
AcDbEllipse
 62
40
  6
CONTINUOUS
 10
35.2996084937
 20
52.8236489185
 30
0.0
 11
37.6025428606
 21
-9.8769267333
 31
0.0
 40
0.3679648161
 41
-1.5485002434
 42
-1.5429714863
  0
ELLIPSE
  5
688
100
AcDbEntity
  8
03___PRT_ALL_CURVES
100
AcDbEllipse
 62
40
  6
CONTINUOUS
 10
29.5009987121
 20
52.8236489185
 30
0.0
 11
37.6025428606
 21
9.8769267333
 31
0.0
 40
0.3679648161
 41
-1.5875613842
 42
-1.5820279172
  0
ELLIPSE
  5
689
100
AcDbEntity
  8
03___PRT_ALL_CURVES
100
AcDbEllipse
 62
40
  6
CONTINUOUS
 10
32.7371828808
 20
52.8236489185
 30
0.0
 11
33.5030255597
 21
-10.2447125493
 31
0.0
 40
0.4049291141
 41
-1.4544956675
 42
-1.4434661946
  0
ELLIPSE
  5
68A
100
AcDbEntity
  8
03___PRT_ALL_CURVES
100
AcDbEllipse
 62
40
  6
CONTINUOUS
 10
33.1627148381
 20
52.8236489185
 30
0.0
 11
33.5030394174
 21
-10.2447110786
 31
0.0
 40
0.4049289797
 41
-1.4544957759
 42
-1.443466303
  0
ELLIPSE
  5
68B
100
AcDbEntity
  8
03___PRT_ALL_CURVES
100
AcDbEllipse
 62
40
  6
CONTINUOUS
 10
32.9480872255
 20
52.8236489185
 30
0.0
 11
24.7903993106
 21
-11.6386810264
 31
0.0
 40
0.4998374672
 41
-1.3159424542
 42
-1.2699309162
  0
ELLIPSE
  5
68C
100
AcDbEntity
  8
03___PRT_ALL_CURVES
100
AcDbEllipse
 62
40
  6
CONTINUOUS
 10
32.5111197115
 20
52.8236489185
 30
0.0
 11
43.2934751561
 21
-9.5293804706
 31
0.0
 40
0.3251766972
 41
-1.4786615102
 42
-1.4749841033
  0
ELLIPSE
  5
68D
100
AcDbEntity
  8
03___PRT_ALL_CURVES
100
AcDbEllipse
 62
40
  6
CONTINUOUS
 10
31.0151064647
 20
52.8236489185
 30
0.0
 11
115.7396183133
 21
-8.6386250131
 31
0.0
 40
0.1265039744
 41
-1.542511518
 42
-1.5406729251
  0
ELLIPSE
  5
68E
100
AcDbEntity
  8
03___PRT_ALL_CURVES
100
AcDbEllipse
 62
40
  6
CONTINUOUS
 10
35.2704297663
 20
52.8236489185
 30
0.0
 11
115.7396183133
 21
8.6386250131
 31
0.0
 40
0.1265039744
 41
-1.6009197284
 42
-1.5990811356
  0
ELLIPSE
  5
68F
100
AcDbEntity
  8
03___PRT_ALL_CURVES
100
AcDbEllipse
 62
40
  6
CONTINUOUS
 10
33.4752145549
 20
52.8236489185
 30
0.0
 11
28.5025449093
 21
10.9117855571
 31
0.0
 40
0.4573568013
 41
-1.7721684236
 42
-1.7648132803
  0
ELLIPSE
  5
690
100
AcDbEntity
  8
03___PRT_ALL_CURVES
100
AcDbEllipse
 62
40
  6
CONTINUOUS
 10
33.0696299145
 20
52.8236489185
 30
0.0
 11
11.4413967987
 21
15.733002593
 31
0.0
 40
0.5628617516
 41
-2.2648673394
 42
-2.2575106839
  0
ELLIPSE
  5
691
100
AcDbEntity
  8
03___PRT_ALL_CURVES
100
AcDbEllipse
 62
40
  6
CONTINUOUS
 10
32.7283177493
 20
52.8236489185
 30
0.0
 11
2.5611136349
 21
16.9888342788
 31
0.0
 40
0.2405374359
 41
-2.6281802034
 42
-2.6171414983
  0
ELLIPSE
  5
692
100
AcDbEntity
  8
03___PRT_ALL_CURVES
100
AcDbEllipse
 62
40
  6
CONTINUOUS
 10
32.2822058107
 20
52.8236489185
 30
0.0
 11
-2.160501286
 21
16.9940948354
 31
0.0
 40
0.2073782556
 41
-3.6377555059
 42
-3.6248643873
  0
ELLIPSE
  5
693
100
AcDbEntity
  8
03___PRT_ALL_CURVES
100
AcDbEllipse
 62
40
  6
CONTINUOUS
 10
31.5935659936
 20
52.8236489185
 30
0.0
 11
-11.4413935117
 21
15.7330034956
 31
0.0
 40
0.5628617206
 41
-3.9870258027
 42
-3.9796546015
  0
ELLIPSE
  5
694
100
AcDbEntity
  8
03___PRT_ALL_CURVES
100
AcDbEllipse
 62
40
  6
CONTINUOUS
 10
30.5230873891
 20
52.8236489185
 30
0.0
 11
28.5025598729
 21
-10.9117830814
 31
0.0
 40
0.4573566339
 41
-1.3234045382
 42
-1.3160293031
  0
ELLIPSE
  5
695
100
AcDbEntity
  8
03___PRT_ALL_CURVES
100
AcDbEllipse
 62
40
  6
CONTINUOUS
 10
23.4619180998
 20
52.8236489185
 30
0.0
 11
115.7395044655
 21
-8.638625288
 31
0.0
 40
0.1265040974
 41
-1.4799226463
 42
-1.4780781594
  0
ELLIPSE
  5
696
100
AcDbEntity
  8
03___PRT_ALL_CURVES
100
AcDbEllipse
 62
40
  6
CONTINUOUS
 10
29.8781410317
 20
52.8236489185
 30
0.0
 11
43.2934908082
 21
-9.5293797019
 31
0.0
 40
0.3251765916
 41
-1.4289726199
 42
-1.4252865399
  0
ELLIPSE
  5
697
100
AcDbEntity
  8
03___PRT_ALL_CURVES
100
AcDbEllipse
 62
40
  6
CONTINUOUS
 10
31.5736192462
 20
52.8236489185
 30
0.0
 11
17.6425933662
 21
-13.7282261121
 31
0.0
 40
0.5683265715
 41
-1.0895779652
 42
-1.0840506252
  0
ELLIPSE
  5
698
100
AcDbEntity
  8
03___PRT_ALL_CURVES
100
AcDbEllipse
 62
40
  6
CONTINUOUS
 10
32.4486191917
 20
52.8236489185
 30
0.0
 11
-3.1553895268
 21
16.9760677452
 31
0.0
 40
0.2857757587
 41
-3.6626241847
 42
-3.6534162737
  0
ELLIPSE
  5
699
100
AcDbEntity
  8
03___PRT_ALL_CURVES
100
AcDbEllipse
 62
40
  6
CONTINUOUS
 10
33.0496829936
 20
52.8236489185
 30
0.0
 11
3.1553900558
 21
16.9760677308
 31
0.0
 40
0.2857757968
 41
-2.6131982157
 42
-2.6039982356
  0
ELLIPSE
  5
69A
100
AcDbEntity
  8
03___PRT_ALL_CURVES
100
AcDbEllipse
 62
40
  6
CONTINUOUS
 10
33.5771652402
 20
52.8236489185
 30
0.0
 11
17.6425933662
 21
13.7282261121
 31
0.0
 40
0.5683265715
 41
-2.0262439066
 42
-2.0207255557
  0
ELLIPSE
  5
69B
100
AcDbEntity
  8
03___PRT_ALL_CURVES
100
AcDbEllipse
 62
40
  6
CONTINUOUS
 10
34.3861184601
 20
52.8236489185
 30
0.0
 11
43.2934751561
 21
9.5293804706
 31
0.0
 40
0.3251766972
 41
-1.6758036155
 42
-1.6721252914
  0
ELLIPSE
  5
69C
100
AcDbEntity
  8
03___PRT_ALL_CURVES
100
AcDbEllipse
 62
40
  6
CONTINUOUS
 10
31.4672371368
 20
52.8236489185
 30
0.0
 11
57.8283673816
 21
-9.0671338737
 31
0.0
 40
0.2486684987
 41
-1.5019505979
 42
-1.4982722737
  0
ELLIPSE
  5
69D
100
AcDbEntity
  8
03___PRT_ALL_CURVES
100
AcDbEllipse
 62
40
  6
CONTINUOUS
 10
32.5419891661
 20
52.8236489185
 30
0.0
 11
25.1951383008
 21
-11.5476456467
 31
0.0
 40
0.4951769707
 41
-1.3140690729
 42
-1.2625020272
  0
ELLIPSE
  5
69E
100
AcDbEntity
  8
03___PRT_ALL_CURVES
100
AcDbEllipse
 62
40
  6
CONTINUOUS
 10
36.9662745146
 20
52.8236489185
 30
0.0
 11
37.7777687709
 21
0.0
 31
0.0
 40
0.4500001073
 41
-1.6780792019
 42
-1.6725342343
  0
ELLIPSE
  5
69F
100
AcDbEntity
  8
03___PRT_ALL_CURVES
100
AcDbEllipse
 62
40
  6
CONTINUOUS
 10
29.5009992585
 20
52.8236489185
 30
0.0
 11
37.7777687709
 21
-0.0
 31
0.0
 40
0.4500001073
 41
-1.4801391182
 42
-1.4746002498
  0
ELLIPSE
  5
6A0
100
AcDbEntity
  8
03___PRT_ALL_CURVES
100
AcDbEllipse
 62
40
  6
CONTINUOUS
 10
36.132941231
 20
52.8236489185
 30
0.0
 11
37.7777687709
 21
0.0
 31
0.0
 40
0.4500001073
 41
-1.6669924038
 42
-1.6614535354
  0
ELLIPSE
  5
6A1
100
AcDbEntity
  8
03___PRT_ALL_CURVES
100
AcDbEllipse
 62
40
  6
CONTINUOUS
 10
28.6676659748
 20
52.8236489185
 30
0.0
 11
37.7777687709
 21
-0.0
 31
0.0
 40
0.4500001073
 41
-1.4690584193
 42
-1.4635134517
  0
ELLIPSE
  5
6A2
100
AcDbEntity
  8
03___PRT_ALL_CURVES
100
AcDbEllipse
 62
40
  6
CONTINUOUS
 10
32.4346567457
 20
52.8236489185
 30
0.0
 11
21.7021147241
 21
-0.0
 31
0.0
 40
0.7833338002
 41
-1.5528725793
 42
-1.5455179022
  0
ELLIPSE
  5
6A3
100
AcDbEntity
  8
03___PRT_ALL_CURVES
100
AcDbEllipse
 62
40
  6
CONTINUOUS
 10
31.8861173056
 20
52.8236489185
 30
0.0
 11
43.4043320697
 21
-0.0
 31
0.0
 40
0.3916659741
 41
-1.5455179022
 42
-1.5418400809
  0
ELLIPSE
  5
6A4
100
AcDbEntity
  8
03___PRT_ALL_CURVES
100
AcDbEllipse
 62
40
  6
CONTINUOUS
 10
34.5058008669
 20
52.8236489185
 30
0.0
 11
43.4042915385
 21
0.0
 31
0.0
 40
0.3916663398
 41
-1.5997525727
 42
-1.5960747513
  0
ELLIPSE
  5
6A5
100
AcDbEntity
  8
03___PRT_ALL_CURVES
100
AcDbEllipse
 62
40
  6
CONTINUOUS
 10
33.9572624513
 20
52.8236489185
 30
0.0
 11
21.7021147241
 21
0.0
 31
0.0
 40
0.7833338002
 41
-1.5960747513
 42
-1.5887200743
  0
ELLIPSE
  5
6A6
100
AcDbEntity
  8
03___PRT_ALL_CURVES
100
AcDbEllipse
 62
40
  6
CONTINUOUS
 10
33.697954372
 20
52.8236489185
 30
0.0
 11
0.0
 21
17.0
 31
0.0
 40
0.42553227
 41
-3.1595164011
 42
-3.1521627041
  0
ELLIPSE
  5
6A7
100
AcDbEntity
  8
03___PRT_ALL_CURVES
100
AcDbEllipse
 62
40
  6
CONTINUOUS
 10
33.5982202947
 20
52.8236489185
 30
0.0
 11
-0.0
 21
17.0
 31
0.0
 40
0.4255316613
 41
-3.1415926536
 42
-3.1383757391
  0
ELLIPSE
  5
6A8
100
AcDbEntity
  8
03___PRT_ALL_CURVES
100
AcDbEllipse
 62
40
  6
CONTINUOUS
 10
34.996491555
 20
52.8236489185
 30
0.0
 11
-0.0
 21
17.0
 31
0.0
 40
0.340425651
 41
-3.1415926536
 42
-3.140213983
  0
ELLIPSE
  5
6A9
100
AcDbEntity
  8
03___PRT_ALL_CURVES
100
AcDbEllipse
 62
40
  6
CONTINUOUS
 10
35.0762786618
 20
52.8236489185
 30
0.0
 11
0.0
 21
17.0
 31
0.0
 40
0.3404252614
 41
-3.1631935988
 42
-3.1540010539
  0
ELLIPSE
  5
6AA
100
AcDbEntity
  8
03___PRT_ALL_CURVES
100
AcDbEllipse
 62
40
  6
CONTINUOUS
 10
35.3262789004
 20
52.8236489185
 30
0.0
 11
17.3617082009
 21
0.0
 31
0.0
 40
0.9791663241
 41
-1.6015916324
 42
-1.592397272
  0
ELLIPSE
  5
6AB
100
AcDbEntity
  8
03___PRT_ALL_CURVES
100
AcDbEllipse
 62
40
  6
CONTINUOUS
 10
35.6826616574
 20
52.8236489185
 30
0.0
 11
28.9361701409
 21
0.0
 31
0.0
 40
0.5875000015
 41
-1.6071094512
 42
-1.6015916324
  0
ELLIPSE
  5
6AC
100
AcDbEntity
  8
03___PRT_ALL_CURVES
100
AcDbEllipse
 62
40
  6
CONTINUOUS
 10
37.2584619701
 20
52.8236489185
 30
0.0
 11
72.3404960303
 21
0.0
 31
0.0
 40
0.234999771
 41
-1.6107885978
 42
-1.6071094512
  0
ELLIPSE
  5
6AD
100
AcDbEntity
  8
03___PRT_ALL_CURVES
100
AcDbEllipse
 62
40
  6
CONTINUOUS
 10
31.3143079236
 20
52.8236489185
 30
0.0
 11
72.3405061631
 21
-0.0
 31
0.0
 40
0.2349997381
 41
-1.5344832024
 42
-1.5308040558
  0
ELLIPSE
  5
6AE
100
AcDbEntity
  8
03___PRT_ALL_CURVES
100
AcDbEllipse
 62
40
  6
CONTINUOUS
 10
33.1527420296
 20
52.8236489185
 30
0.0
 11
21.7021147241
 21
-0.0
 31
0.0
 40
0.7833338002
 41
-1.5418400809
 42
-1.5344832024
  0
ELLIPSE
  5
6AF
100
AcDbEntity
  8
03___PRT_ALL_CURVES
100
AcDbEllipse
 62
40
  6
CONTINUOUS
 10
33.3621827493
 20
52.8236489185
 30
0.0
 11
-0.0
 21
17.0
 31
0.0
 40
0.85106454
 41
-3.116314229
 42
-3.1126364077
  0
ELLIPSE
  5
6B0
100
AcDbEntity
  8
03___PRT_ALL_CURVES
100
AcDbEllipse
 62
40
  6
CONTINUOUS
 10
34.0935662571
 20
52.8236489185
 30
0.0
 11
0.0
 21
17.0
 31
0.0
 40
0.85106454
 41
-3.1705488995
 42
-3.1668710781
  0
ELLIPSE
  5
6B1
100
AcDbEntity
  8
03___PRT_ALL_CURVES
100
AcDbEllipse
 62
40
  6
CONTINUOUS
 10
34.5124486951
 20
52.8236489185
 30
0.0
 11
28.9361667633
 21
0.0
 31
0.0
 40
0.58750007
 41
-1.6052700602
 42
-1.5997525727
  0
ELLIPSE
  5
6B2
100
AcDbEntity
  8
03___PRT_ALL_CURVES
100
AcDbEllipse
 62
40
  6
CONTINUOUS
 10
35.5097850146
 20
52.8236489185
 30
0.0
 11
57.8722231441
 21
0.0
 31
0.0
 40
0.2937505953
 41
-1.6089489652
 42
-1.6052700602
  0
ELLIPSE
  5
6B3
100
AcDbEntity
  8
03___PRT_ALL_CURVES
100
AcDbEllipse
 62
40
  6
CONTINUOUS
 10
30.3834636745
 20
52.8236489185
 30
0.0
 11
72.3403194612
 21
-0.0
 31
0.0
 40
0.2350003446
 41
-1.5363225934
 42
-1.5326436884
  0
ELLIPSE
  5
6B4
100
AcDbEntity
  8
03___PRT_ALL_CURVES
100
AcDbEllipse
 62
40
  6
CONTINUOUS
 10
31.8794705018
 20
52.8236489185
 30
0.0
 11
28.9361667633
 21
-0.0
 31
0.0
 40
0.58750007
 41
-1.5418400809
 42
-1.5363225934
  0
ELLIPSE
  5
6B5
100
AcDbEntity
  8
03___PRT_ALL_CURVES
100
AcDbEllipse
 62
40
  6
CONTINUOUS
 10
32.2145765801
 20
52.8236489185
 30
0.0
 11
17.3617066809
 21
-0.0
 31
0.0
 40
0.9791664099
 41
-1.5510340139
 42
-1.5418400809
  0
ELLIPSE
  5
6B6
100
AcDbEntity
  8
03___PRT_ALL_CURVES
100
AcDbEllipse
 62
40
  6
CONTINUOUS
 10
32.4433000118
 20
52.8236489185
 30
0.0
 11
-0.0
 21
17.0
 31
0.0
 40
0.3404256212
 41
-3.1310226031
 42
-3.1218303406
  0
ELLIPSE
  5
6B7
100
AcDbEntity
  8
03___PRT_ALL_CURVES
100
AcDbEllipse
 62
40
  6
CONTINUOUS
 10
32.5230872546
 20
52.8236489185
 30
0.0
 11
0.0
 21
17.0
 31
0.0
 40
0.3404256212
 41
-3.1448095681
 42
-3.1415926536
  0
ELLIPSE
  5
6B8
100
AcDbEntity
  8
03___PRT_ALL_CURVES
100
AcDbEllipse
 62
40
  6
CONTINUOUS
 10
34.7152415499
 20
52.8236489185
 30
0.0
 11
-0.0
 21
17.0
 31
0.0
 40
0.4255316613
 41
-3.1415926536
 42
-3.1383757391
  0
ELLIPSE
  5
6B9
100
AcDbEntity
  8
03___PRT_ALL_CURVES
100
AcDbEllipse
 62
40
  6
CONTINUOUS
 10
34.8149756272
 20
52.8236489185
 30
0.0
 11
0.0
 21
17.0
 31
0.0
 40
0.42553227
 41
-3.1595164011
 42
-3.1521627041
  0
ELLIPSE
  5
6BA
100
AcDbEntity
  8
03___PRT_ALL_CURVES
100
AcDbEllipse
 62
40
  6
CONTINUOUS
 10
34.9446295741
 20
52.8236489185
 30
0.0
 11
0.0
 21
17.0
 31
0.0
 40
0.8510633225
 41
-3.1668710781
 42
-3.1595164011
  0
ELLIPSE
  5
6BB
100
AcDbEntity
  8
03___PRT_ALL_CURVES
100
AcDbEllipse
 62
40
  6
CONTINUOUS
 10
35.5541155945
 20
52.8236489185
 30
0.0
 11
38.5815624396
 21
0.0
 31
0.0
 40
0.4406249754
 41
-1.6015916324
 42
-1.5960747513
  0
ELLIPSE
  5
6BC
100
AcDbEntity
  8
03___PRT_ALL_CURVES
100
AcDbEllipse
 62
40
  6
CONTINUOUS
 10
33.0186544963
 20
52.8236489185
 30
0.0
 11
38.5815691948
 21
-0.0
 31
0.0
 40
0.4406248982
 41
-1.5455179022
 42
-1.5400010212
  0
ELLIPSE
  5
6BD
100
AcDbEntity
  8
03___PRT_ALL_CURVES
100
AcDbEllipse
 62
40
  6
CONTINUOUS
 10
33.6281406875
 20
52.8236489185
 30
0.0
 11
-0.0
 21
17.0
 31
0.0
 40
0.8510633225
 41
-3.1236689061
 42
-3.116314229
  0
ELLIPSE
  5
6BE
100
AcDbEntity
  8
03___PRT_ALL_CURVES
100
AcDbEllipse
 62
40
  6
CONTINUOUS
 10
33.7577946344
 20
52.8236489185
 30
0.0
 11
-0.0
 21
17.0
 31
0.0
 40
0.42553227
 41
-3.1310226031
 42
-3.1236689061
  0
ELLIPSE
  5
6BF
100
AcDbEntity
  8
03___PRT_ALL_CURVES
100
AcDbEllipse
 62
40
  6
CONTINUOUS
 10
33.8575287117
 20
52.8236489185
 30
0.0
 11
0.0
 21
17.0
 31
0.0
 40
0.4255316613
 41
-3.1448095681
 42
-3.1415926536
  0
ELLIPSE
  5
6C0
100
AcDbEntity
  8
03___PRT_ALL_CURVES
100
AcDbEllipse
 62
40
  6
CONTINUOUS
 10
32.693964825
 20
52.8236489185
 30
0.0
 11
-0.0
 21
17.0
 31
0.0
 40
0.42553227
 41
-3.1310226031
 42
-3.1236689061
  0
ELLIPSE
  5
6C1
100
AcDbEntity
  8
03___PRT_ALL_CURVES
100
AcDbEllipse
 62
40
  6
CONTINUOUS
 10
32.7936989023
 20
52.8236489185
 30
0.0
 11
0.0
 21
17.0
 31
0.0
 40
0.4255316613
 41
-3.1448095681
 42
-3.1415926536
  0
ENDSEC
  0
SECTION
  2
OBJECTS
  0
DICTIONARY
  5
6C2
100
AcDbDictionary
  3
ACAD_GROUP
350
6C3
  3
ACAD_MLINESTYLE
350
6C4
  0
DICTIONARY
  5
6C3
102
{ACAD_REACTORS
330
6C2
102
}
100
AcDbDictionary
  0
DICTIONARY
  5
6C4
102
{ACAD_REACTORS
330
6C2
102
}
100
AcDbDictionary
  3
STANDARD
350
6C5
  0
MLINESTYLE
  5
6C5
102
{ACAD_REACTORS
330
6C4
102
}
100
AcDbMlineStyle
  2
STANDARD
 70
0
  3

 62
256
 51
90.0
 52
90.0
 71
2
 49
0.5
 62
256
  6
BYLAYER
 49
-0.5
 62
256
  6
BYLAYER
  0
ENDSEC
  0
EOF
