999
DXF file: 451_c_100.dxf
999
Pro/ENGINEER 2016360 by Parametric Technology Corporation
  0
SECTION
  2
HEADER
  9
$ACADVER
  1
AC1014
  9
$DWGCODEPAGE
  3
ANSI_1252
  9
$EXTMAX
 10
297.0
 20
210.0
 30
0.0
  9
$EXTMIN
 10
0.0
 20
0.0
 30
0.0
  9
$LIMMIN
 10
0.0
 20
0.0
  9
$LIMMAX
 10
297.0
 20
210.0
  9
$VIEWCTR
 10
148.5
 20
105.0
  9
$VIEWSIZE
 40
210.0
  9
$CLAYER
  8
0
  9
$LTSCALE
 40
16.335
  9
$CELTYPE
  6
BYLAYER
  9
$DIMSCALE
 40
1.0
  9
$DIMASZ
 40
2.5
  9
$DIMEXO
 40
0.75
  9
$DIMDLI
 40
11.286
  9
$DIMEXE
 40
0.75
  9
$DIMCEN
 40
2.673
  9
$DIMLFAC
 40
1.0
  9
$DIMBLK
  1
_CLOSED
  9
$DIMALT
 70
0
  9
$DIMALTF
 40
25.4
  9
$DIMTXT
 40
3.0
  9
$DIMTOL
 70
1
  9
$DIMLIM
 70
0
  9
$DIMTFAC
 40
1.0
  9
$DIMTP
 40
0.01
  9
$DIMTM
 40
0.01
  9
$DIMGAP
 40
0.625
  9
$AUNITS
 70
0
  9
$PDMODE
 70
3
  9
$PDSIZE
 40
0.3125
  9
$HANDSEED
  5
364
  9
$TILEMODE
 70
1
  9
$MEASUREMENT
 70
1
  0
ENDSEC
  0
SECTION
  2
CLASSES
  0
ENDSEC
  0
SECTION
  2
TABLES
  0
TABLE
  2
VPORT
  5
8
100
AcDbSymbolTable
 70
2
  0
VPORT
  5
1F4
100
AcDbSymbolTableRecord
100
AcDbViewportTableRecord
  2
*ACTIVE
 70
0
 10
0.0
 20
0.0
 11
1.0
 21
1.0
 12
148.5
 22
105.0
 13
0.0
 23
0.0
 14
1.0
 24
1.0
 15
0.0
 25
0.0
 16
0.0
 26
0.0
 36
1.0
 17
0.0
 27
0.0
 37
0.0
 40
210.0
 41
1.4142857143
 42
50.0
 43
0.0
 44
0.0
 50
0.0
 51
0.0
 71
0
 72
100
 73
1
 74
1
 75
0
 76
0
 77
0
 78
0
  0
ENDTAB
  0
TABLE
  2
LTYPE
  5
5
100
AcDbSymbolTable
 70
6
  0
LTYPE
  5
14
100
AcDbSymbolTableRecord
100
AcDbLinetypeTableRecord
  2
BYBLOCK
 70
0
  3

 72
65
 73
0
 40
0.0
  0
LTYPE
  5
15
100
AcDbSymbolTableRecord
100
AcDbLinetypeTableRecord
  2
BYLAYER
 70
0
  3

 72
65
 73
0
 40
0.0
  0
LTYPE
  5
16
100
AcDbSymbolTableRecord
100
AcDbLinetypeTableRecord
  2
CONTINUOUS
 70
64
  3
Solid line
 72
65
 73
0
 40
0.0
  0
LTYPE
  5
1F5
100
AcDbSymbolTableRecord
100
AcDbLinetypeTableRecord
  2
CENTER
 70
64
  3
____ _ ____ _ ____ _ ____ _ ____ _ ____ _ ____
 72
65
 73
4
 40
0.6
 49
0.375
 74
0
 49
-0.075
 74
0
 49
0.075
 74
0
 49
-0.075
 74
0
  0
LTYPE
  5
1F6
100
AcDbSymbolTableRecord
100
AcDbLinetypeTableRecord
  2
HIDDEN
 70
64
  3
- - - - - - - - - - - - - - - - - - - -
 72
65
 73
2
 40
0.2
 49
0.1
 74
0
 49
-0.1
 74
0
  0
LTYPE
  5
1F7
100
AcDbSymbolTableRecord
100
AcDbLinetypeTableRecord
  2
PHANTOM
 70
64
  3
_____ _ _ _____ _ _ _____ _ _ _____
 72
65
 73
6
 40
0.8
 49
0.45
 74
0
 49
-0.05
 74
0
 49
0.1
 74
0
 49
-0.05
 74
0
 49
0.1
 74
0
 49
-0.05
 74
0
  0
LTYPE
  5
1F8
100
AcDbSymbolTableRecord
100
AcDbLinetypeTableRecord
  2
DOT
 70
64
  3
. . . . . . . . . . . . . . . . . . . .
 72
65
 73
2
 40
0.2
 49
0.1
 74
0
 49
-0.1
 74
0
  0
LTYPE
  5
1F9
100
AcDbSymbolTableRecord
100
AcDbLinetypeTableRecord
  2
DASHED
 70
64
  3
- - - - - - - - - - - - - - - - - - - -
 72
65
 73
2
 40
0.2
 49
0.1
 74
0
 49
-0.1
 74
0
  0
ENDTAB
  0
TABLE
  2
LAYER
  5
2
100
AcDbSymbolTable
 70
36
  0
LAYER
  5
10
100
AcDbSymbolTableRecord
100
AcDbLayerTableRecord
  2
0
 70
0
 62
7
  6
CONTINUOUS
  0
LAYER
  5
1FA
100
AcDbSymbolTableRecord
100
AcDbLayerTableRecord
  2
DEFAULT_1
 70
0
 62
7
  6
CENTER
  0
LAYER
  5
1FB
100
AcDbSymbolTableRecord
100
AcDbLayerTableRecord
  2
DEFAULT_2
 70
0
 62
8
  6
HIDDEN
  0
LAYER
  5
1FC
100
AcDbSymbolTableRecord
100
AcDbLayerTableRecord
  2
DEFAULT_3
 70
0
 62
7
  6
PHANTOM
  0
LAYER
  5
1FD
100
AcDbSymbolTableRecord
100
AcDbLayerTableRecord
  2
01_ALL_DTM_PLN
 70
0
 62
7
  6
CONTINUOUS
  0
LAYER
  5
1FE
100
AcDbSymbolTableRecord
100
AcDbLayerTableRecord
  2
01__ASM_ALL_DTM_PLN
 70
0
 62
7
  6
CONTINUOUS
  0
LAYER
  5
1FF
100
AcDbSymbolTableRecord
100
AcDbLayerTableRecord
  2
01__ASM_DEF_DTM_PLN
 70
0
 62
7
  6
CONTINUOUS
  0
LAYER
  5
200
100
AcDbSymbolTableRecord
100
AcDbLayerTableRecord
  2
01___PRT_ALL_DTM_PLN
 70
0
 62
7
  6
CONTINUOUS
  0
LAYER
  5
201
100
AcDbSymbolTableRecord
100
AcDbLayerTableRecord
  2
01___PRT_DEF_DTM_PLN
 70
0
 62
7
  6
CONTINUOUS
  0
LAYER
  5
202
100
AcDbSymbolTableRecord
100
AcDbLayerTableRecord
  2
02_ALL_AXES
 70
0
 62
7
  6
CONTINUOUS
  0
LAYER
  5
203
100
AcDbSymbolTableRecord
100
AcDbLayerTableRecord
  2
02__ASM_ALL_AXES
 70
0
 62
7
  6
CONTINUOUS
  0
LAYER
  5
204
100
AcDbSymbolTableRecord
100
AcDbLayerTableRecord
  2
02___PRT_ALL_AXES
 70
0
 62
7
  6
CONTINUOUS
  0
LAYER
  5
205
100
AcDbSymbolTableRecord
100
AcDbLayerTableRecord
  2
03_ALL_CURVES
 70
0
 62
7
  6
CONTINUOUS
  0
LAYER
  5
206
100
AcDbSymbolTableRecord
100
AcDbLayerTableRecord
  2
03__ASM_ALL_CURVES
 70
0
 62
7
  6
CONTINUOUS
  0
LAYER
  5
207
100
AcDbSymbolTableRecord
100
AcDbLayerTableRecord
  2
03___PRT_ALL_CURVES
 70
0
 62
7
  6
CONTINUOUS
  0
LAYER
  5
208
100
AcDbSymbolTableRecord
100
AcDbLayerTableRecord
  2
04_ALL_DTM_PNT
 70
0
 62
7
  6
CONTINUOUS
  0
LAYER
  5
209
100
AcDbSymbolTableRecord
100
AcDbLayerTableRecord
  2
04__ASM_ALL_DTM_PNT
 70
0
 62
7
  6
CONTINUOUS
  0
LAYER
  5
20A
100
AcDbSymbolTableRecord
100
AcDbLayerTableRecord
  2
04___PRT_ALL_DTM_PNT
 70
0
 62
7
  6
CONTINUOUS
  0
LAYER
  5
20B
100
AcDbSymbolTableRecord
100
AcDbLayerTableRecord
  2
05_ALL_DTM_CSYS
 70
0
 62
7
  6
CONTINUOUS
  0
LAYER
  5
20C
100
AcDbSymbolTableRecord
100
AcDbLayerTableRecord
  2
05__ASM_ALL_DTM_CSYS
 70
0
 62
7
  6
CONTINUOUS
  0
LAYER
  5
20D
100
AcDbSymbolTableRecord
100
AcDbLayerTableRecord
  2
05__ASM_DEF_DTM_CSYS
 70
0
 62
7
  6
CONTINUOUS
  0
LAYER
  5
20E
100
AcDbSymbolTableRecord
100
AcDbLayerTableRecord
  2
05___PRT_ALL_DTM_CSYS
 70
0
 62
7
  6
CONTINUOUS
  0
LAYER
  5
20F
100
AcDbSymbolTableRecord
100
AcDbLayerTableRecord
  2
05___PRT_DEF_DTM_CSYS
 70
0
 62
7
  6
CONTINUOUS
  0
LAYER
  5
210
100
AcDbSymbolTableRecord
100
AcDbLayerTableRecord
  2
06_ALL_SURFS
 70
0
 62
7
  6
CONTINUOUS
  0
LAYER
  5
211
100
AcDbSymbolTableRecord
100
AcDbLayerTableRecord
  2
06__ASM_ALL_SURFS
 70
0
 62
7
  6
CONTINUOUS
  0
LAYER
  5
212
100
AcDbSymbolTableRecord
100
AcDbLayerTableRecord
  2
06___PRT_ALL_SURFS
 70
0
 62
7
  6
CONTINUOUS
  0
LAYER
  5
213
100
AcDbSymbolTableRecord
100
AcDbLayerTableRecord
  2
07__ASM_ALL_SKELETONS
 70
0
 62
7
  6
CONTINUOUS
  0
LAYER
  5
214
100
AcDbSymbolTableRecord
100
AcDbLayerTableRecord
  2
1_ALL_PLANES
 70
0
 62
7
  6
CONTINUOUS
  0
LAYER
  5
215
100
AcDbSymbolTableRecord
100
AcDbLayerTableRecord
  2
2_ALL_CSYS
 70
0
 62
7
  6
CONTINUOUS
  0
LAYER
  5
216
100
AcDbSymbolTableRecord
100
AcDbLayerTableRecord
  2
3_ALL_AXES
 70
0
 62
7
  6
CONTINUOUS
  0
LAYER
  5
217
100
AcDbSymbolTableRecord
100
AcDbLayerTableRecord
  2
4_ALL_POINTS
 70
0
 62
7
  6
CONTINUOUS
  0
LAYER
  5
218
100
AcDbSymbolTableRecord
100
AcDbLayerTableRecord
  2
5_ALL_CURVES
 70
0
 62
7
  6
CONTINUOUS
  0
LAYER
  5
219
100
AcDbSymbolTableRecord
100
AcDbLayerTableRecord
  2
5__COSTRUZIONE
 70
0
 62
7
  6
CONTINUOUS
  0
LAYER
  5
21A
100
AcDbSymbolTableRecord
100
AcDbLayerTableRecord
  2
6_ALL_SURFS
 70
0
 62
7
  6
CONTINUOUS
  0
LAYER
  5
21B
100
AcDbSymbolTableRecord
100
AcDbLayerTableRecord
  2
7_ALL_FEATURES
 70
0
 62
7
  6
CONTINUOUS
  0
LAYER
  5
21C
100
AcDbSymbolTableRecord
100
AcDbLayerTableRecord
  2
9_SOLID
 70
0
 62
7
  6
CONTINUOUS
  0
LAYER
  5
21D
100
AcDbSymbolTableRecord
100
AcDbLayerTableRecord
  2
CLOSED_SHELL
 70
0
 62
7
  6
CONTINUOUS
  0
LAYER
  5
21E
100
AcDbSymbolTableRecord
100
AcDbLayerTableRecord
  2
WHITE
 70
0
 62
7
  6
CONTINUOUS
  0
LAYER
  5
21F
100
AcDbSymbolTableRecord
100
AcDbLayerTableRecord
  2
XXX_SOLIDO
 70
0
 62
7
  6
CONTINUOUS
  0
ENDTAB
  0
TABLE
  2
STYLE
  5
3
100
AcDbSymbolTable
 70
1
  0
STYLE
  5
11
100
AcDbSymbolTableRecord
100
AcDbTextStyleTableRecord
  2
STANDARD
 70
0
 40
0.0
 41
1.0
 50
0.0
 71
0
 42
0.2
  3
arial.ttf
  4

  0
STYLE
  5
220
100
AcDbSymbolTableRecord
100
AcDbTextStyleTableRecord
  2
TEXTSTYLE_1
 70
0
 40
0.0
 41
0.8
 50
0.0
 71
0
 42
0.2
  3
gdt
  4

  0
STYLE
  5
221
100
AcDbSymbolTableRecord
100
AcDbTextStyleTableRecord
  2
TEXTSTYLE_2
 70
0
 40
0.0
 41
0.85
 50
0.0
 71
0
 42
0.2
  3
txt
  4

  0
ENDTAB
  0
TABLE
  2
VIEW
  5
6
100
AcDbSymbolTable
 70
0
  0
ENDTAB
  0
TABLE
  2
UCS
  5
7
100
AcDbSymbolTable
 70
0
  0
ENDTAB
  0
TABLE
  2
APPID
  5
9
100
AcDbSymbolTable
 70
1
  0
APPID
  5
222
100
AcDbSymbolTableRecord
100
AcDbRegAppTableRecord
  2
ACAD
 70
0
  0
ENDTAB
  0
TABLE
  2
BLOCK_RECORD
  5
1
100
AcDbSymbolTable
 70
0
  0
BLOCK_RECORD
  5
1F
100
AcDbSymbolTableRecord
100
AcDbBlockTableRecord
  2
*MODEL_SPACE
  0
BLOCK_RECORD
  5
1B
100
AcDbSymbolTableRecord
100
AcDbBlockTableRecord
  2
*PAPER_SPACE
  0
BLOCK_RECORD
  5
223
100
AcDbSymbolTableRecord
100
AcDbBlockTableRecord
  2
_CLOSED
  0
BLOCK_RECORD
  5
224
100
AcDbSymbolTableRecord
100
AcDbBlockTableRecord
  2
*D0
  0
BLOCK_RECORD
  5
225
100
AcDbSymbolTableRecord
100
AcDbBlockTableRecord
  2
*D1
  0
BLOCK_RECORD
  5
226
100
AcDbSymbolTableRecord
100
AcDbBlockTableRecord
  2
*D2
  0
BLOCK_RECORD
  5
227
100
AcDbSymbolTableRecord
100
AcDbBlockTableRecord
  2
*D3
  0
BLOCK_RECORD
  5
228
100
AcDbSymbolTableRecord
100
AcDbBlockTableRecord
  2
LOGO2_BL0
  0
ENDTAB
  0
TABLE
  2
DIMSTYLE
  5
A
100
AcDbSymbolTable
 70
1
  0
DIMSTYLE
105
229
100
AcDbSymbolTableRecord
100
AcDbDimStyleTableRecord
  2
STANDARD
 70
0
  3

  4

  5
_CLOSED
  6
_CLOSED
  7
_CLOSED
 40
1.0
 41
2.5
 42
0.75
 43
0.38
 44
0.75
 45
0.0
 46
0.0
 47
0.01
 48
0.01
140
3.0
141
0.09
142
0.0
143
25.4
144
1.0
145
0.0
146
1.0
147
0.625
 71
1.0
 72
0.0
 73
0
 74
0
 75
0
 76
0
 77
1
 78
8
 79
2
170
0
171
1
172
0
173
0
174
0
175
0
176
0
177
0
178
0
270
2
179
2
271
2
272
2
273
2
274
2
275
0
280
0
281
0
282
0
283
1
284
8
285
0
286
0
287
3
288
0
340
11
  0
DIMSTYLE
105
22A
100
AcDbSymbolTableRecord
100
AcDbDimStyleTableRecord
  2
DIMSTYLE_1
 70
0
  3

  4

  5
_CLOSED
  6
_CLOSED
  7
_CLOSED
 40
1.0
 41
2.5
 42
0.75
 43
0.38
 44
0.75
 45
0.0
 46
0.0
 47
0.3
 48
0.3
140
3.0
141
0.09
142
0.0
143
25.4
144
1.0
145
0.0
146
1.0
147
0.75
 71
0.0
 72
0.0
 73
0
 74
0
 75
0
 76
0
 77
1
 78
8
 79
2
170
0
171
1
172
0
173
0
174
0
175
0
176
0
177
0
178
0
270
2
179
2
271
2
272
2
273
2
274
2
275
0
280
0
281
0
282
0
283
1
284
8
285
0
286
0
287
3
288
0
340
11
  0
DIMSTYLE
105
22B
100
AcDbSymbolTableRecord
100
AcDbDimStyleTableRecord
  2
DIMSTYLE_2
 70
0
  3

  4

  5
_CLOSED
  6
_CLOSED
  7
_CLOSED
 40
1.0
 41
2.5
 42
0.75
 43
0.38
 44
0.75
 45
0.0
 46
0.0
 47
0.2
 48
0.2
140
3.0
141
0.09
142
0.0
143
25.4
144
1.0
145
0.0
146
1.0
147
0.75
 71
0.0
 72
0.0
 73
0
 74
0
 75
0
 76
0
 77
1
 78
8
 79
2
170
0
171
1
172
0
173
0
174
0
175
0
176
0
177
0
178
0
270
2
179
2
271
2
272
2
273
2
274
2
275
0
280
0
281
0
282
0
283
1
284
8
285
0
286
0
287
3
288
0
340
11
  0
ENDTAB
  0
ENDSEC
  0
SECTION
  2
BLOCKS
  0
BLOCK
  5
20
100
AcDbEntity
  8
0
100
AcDbBlockBegin
  2
*MODEL_SPACE
 70
0
 10
0.0
 20
0.0
 30
0.0
  3
*MODEL_SPACE
  1

  0
ENDBLK
  5
21
100
AcDbEntity
  8
0
100
AcDbBlockEnd
  0
BLOCK
  5
1C
100
AcDbEntity
  8
0
100
AcDbBlockBegin
  2
*PAPER_SPACE
 70
0
 10
0.0
 20
0.0
 30
0.0
  3
*PAPER_SPACE
  1

  0
ENDBLK
  5
1D
100
AcDbEntity
  8
0
100
AcDbBlockEnd
  0
BLOCK
  5
22C
100
AcDbEntity
  8
0
100
AcDbBlockBegin
 62
2
  6
CONTINUOUS
  2
LOGO2_BL0
 70
64
 10
207.6164605391
 20
39.6725198453
  3
LOGO2_BL0
  1

  0
LINE
  5
22D
100
AcDbEntity
  8
0
100
AcDbLine
 62
7
  6
CONTINUOUS
 10
199.3593857673
 20
42.8680111841
 11
198.055044838
 21
42.8680111841
  0
LINE
  5
22E
100
AcDbEntity
  8
0
100
AcDbLine
 62
7
  6
CONTINUOUS
 10
198.055044838
 20
42.8680111841
 11
198.055044838
 21
32.4089451242
  0
LINE
  5
22F
100
AcDbEntity
  8
0
100
AcDbLine
 62
7
  6
CONTINUOUS
 10
198.055044838
 20
32.4089451242
 11
202.5360997262
 21
32.4089451242
  0
LINE
  5
230
100
AcDbEntity
  8
0
100
AcDbLine
 62
7
  6
CONTINUOUS
 10
202.5360997262
 20
32.4089451242
 11
202.5360997262
 21
33.6017994493
  0
LINE
  5
231
100
AcDbEntity
  8
0
100
AcDbLine
 62
7
  6
CONTINUOUS
 10
202.5360997262
 20
33.6017994493
 11
199.3593857673
 21
33.6017994493
  0
LINE
  5
232
100
AcDbEntity
  8
0
100
AcDbLine
 62
7
  6
CONTINUOUS
 10
199.3593857673
 20
33.6017994493
 11
199.3593857673
 21
42.8680111841
  0
LINE
  5
233
100
AcDbEntity
  8
0
100
AcDbLine
 62
7
  6
CONTINUOUS
 10
214.2957119836
 20
42.8680111841
 11
212.9918944656
 21
42.8680111841
  0
LINE
  5
234
100
AcDbEntity
  8
0
100
AcDbLine
 62
7
  6
CONTINUOUS
 10
212.9918944656
 20
42.8680111841
 11
212.9918944656
 21
32.4089451242
  0
LINE
  5
235
100
AcDbEntity
  8
0
100
AcDbLine
 62
7
  6
CONTINUOUS
 10
212.9918944656
 20
32.4089451242
 11
217.4730802067
 21
32.4089451242
  0
LINE
  5
236
100
AcDbEntity
  8
0
100
AcDbLine
 62
7
  6
CONTINUOUS
 10
217.4730802067
 20
32.4089451242
 11
217.4730802067
 21
33.6017994493
  0
LINE
  5
237
100
AcDbEntity
  8
0
100
AcDbLine
 62
7
  6
CONTINUOUS
 10
217.4730802067
 20
33.6017994493
 11
214.2957119836
 21
33.6017994493
  0
LINE
  5
238
100
AcDbEntity
  8
0
100
AcDbLine
 62
7
  6
CONTINUOUS
 10
214.2957119836
 20
33.6017994493
 11
214.2957119836
 21
42.8680111841
  0
LWPOLYLINE
  5
239
100
AcDbEntity
  8
0
100
AcDbPolyline
 62
7
  6
CONTINUOUS
 90
2
 70
0
 43
0.2
 10
196.4094397489
 20
29.0653938173
 10
196.4094397489
 20
27.208330568
  0
LWPOLYLINE
  5
23A
100
AcDbEntity
  8
0
100
AcDbPolyline
 62
7
  6
CONTINUOUS
 90
2
 70
0
 43
0.2
 10
196.4094397489
 20
27.208330568
 10
197.2051557593
 20
27.208330568
  0
LWPOLYLINE
  5
23B
100
AcDbEntity
  8
0
100
AcDbPolyline
 62
7
  6
CONTINUOUS
 90
2
 70
0
 43
0.2
 10
197.2051557593
 20
27.208330568
 10
197.2051557593
 20
27.4203121396
  0
LWPOLYLINE
  5
23C
100
AcDbEntity
  8
0
100
AcDbPolyline
 62
7
  6
CONTINUOUS
 90
2
 70
0
 43
0.2
 10
197.2051557593
 20
27.4203121396
 10
196.6410492438
 20
27.4203121396
  0
LWPOLYLINE
  5
23D
100
AcDbEntity
  8
0
100
AcDbPolyline
 62
7
  6
CONTINUOUS
 90
2
 70
0
 43
0.2
 10
196.6410492438
 20
27.4203121396
 10
196.6410492438
 20
29.0653938173
  0
LWPOLYLINE
  5
23E
100
AcDbEntity
  8
0
100
AcDbPolyline
 62
7
  6
CONTINUOUS
 90
2
 70
0
 43
0.2
 10
196.6410492438
 20
29.0653938173
 10
196.4094397489
 20
29.0653938173
  0
SPLINE
  5
23F
100
AcDbEntity
  8
0
100
AcDbSpline
 62
7
  6
CONTINUOUS
 70
2
 71
3
 72
35
 73
31
 74
0
 42
0.0000001
 43
0.0000001
 44
0.0000000001
 40
0.0
 40
0.0
 40
0.0
 40
0.0
 40
1.0
 40
1.0
 40
1.0
 40
2.0
 40
2.0
 40
2.0
 40
3.0
 40
3.0
 40
3.0
 40
4.0
 40
4.0
 40
4.0
 40
5.0
 40
5.0
 40
5.0
 40
6.0
 40
6.0
 40
6.0
 40
7.0
 40
7.0
 40
7.0
 40
8.0
 40
8.0
 40
8.0
 40
9.0
 40
9.0
 40
9.0
 40
10.0
 40
10.0
 40
10.0
 40
10.0
 10
198.6034490148
 20
28.3608822239
 30
0.0
 10
198.6034490148
 20
28.3608822239
 30
0.0
 10
198.6034490148
 20
27.6987669447
 30
0.0
 10
198.6034490148
 20
27.6987669447
 30
0.0
 10
198.6034490148
 20
27.3836733494
 30
0.0
 10
198.7513127037
 20
27.1690747214
 30
0.0
 10
199.0913991879
 20
27.1690747214
 30
0.0
 10
199.430962261
 20
27.1690747214
 30
0.0
 10
199.5790876554
 20
27.3836733494
 30
0.0
 10
199.5790876554
 20
27.6987669447
 30
0.0
 10
199.5790876554
 20
27.6987669447
 30
0.0
 10
199.5790876554
 20
28.3608822239
 30
0.0
 10
199.5790876554
 20
28.3608822239
 30
0.0
 10
199.5790876554
 20
28.3608822239
 30
0.0
 10
199.3570304165
 20
28.3608822239
 30
0.0
 10
199.3570304165
 20
28.3608822239
 30
0.0
 10
199.3570304165
 20
28.3608822239
 30
0.0
 10
199.3570304165
 20
27.7238906865
 30
0.0
 10
199.3570304165
 20
27.7238906865
 30
0.0
 10
199.3570304165
 20
27.5380796793
 30
0.0
 10
199.3103159591
 20
27.3752987688
 30
0.0
 10
199.0913991879
 20
27.3752987688
 30
0.0
 10
198.8719590055
 20
27.3752987688
 30
0.0
 10
198.8252445481
 20
27.5380796793
 30
0.0
 10
198.8252445481
 20
27.7238906865
 30
0.0
 10
198.8252445481
 20
27.7238906865
 30
0.0
 10
198.8252445481
 20
28.3608822239
 30
0.0
 10
198.8252445481
 20
28.3608822239
 30
0.0
 10
198.8252445481
 20
28.3608822239
 30
0.0
 10
198.6034490148
 20
28.3608822239
 30
0.0
 10
198.6034490148
 20
28.3608822239
 30
0.0
  0
SPLINE
  5
240
100
AcDbEntity
  8
0
100
AcDbSpline
 62
7
  6
CONTINUOUS
 70
2
 71
3
 72
35
 73
31
 74
0
 42
0.0000001
 43
0.0000001
 44
0.0000000001
 40
0.0
 40
0.0
 40
0.0
 40
0.0
 40
1.0
 40
1.0
 40
1.0
 40
2.0
 40
2.0
 40
2.0
 40
3.0
 40
3.0
 40
3.0
 40
4.0
 40
4.0
 40
4.0
 40
5.0
 40
5.0
 40
5.0
 40
6.0
 40
6.0
 40
6.0
 40
7.0
 40
7.0
 40
7.0
 40
8.0
 40
8.0
 40
8.0
 40
9.0
 40
9.0
 40
9.0
 40
10.0
 40
10.0
 40
10.0
 40
10.0
 10
202.0022202126
 20
28.3195327321
 30
0.0
 10
201.913763705
 20
28.3708270383
 30
0.0
 10
201.8003143083
 20
28.3959507801
 30
0.0
 10
201.6966788733
 20
28.3959507801
 30
0.0
 10
201.3418060201
 20
28.3959507801
 30
0.0
 10
201.0663608299
 20
28.1321514911
 30
0.0
 10
201.0663608299
 20
27.7746615814
 30
0.0
 10
201.0663608299
 20
27.4297335427
 30
0.0
 10
201.344815635
 20
27.1695981327
 30
0.0
 10
201.6843787081
 20
27.1695981327
 30
0.0
 10
201.8003143083
 20
27.1695981327
 30
0.0
 10
201.9010709812
 20
27.1915814068
 30
0.0
 10
202.0022202126
 20
27.2454927694
 30
0.0
 10
202.0022202126
 20
27.2454927694
 30
0.0
 10
202.0022202126
 20
27.5281348649
 30
0.0
 10
202.0022202126
 20
27.5281348649
 30
0.0
 10
201.9183435537
 20
27.4349676556
 30
0.0
 10
201.8148389716
 20
27.3758221801
 30
0.0
 10
201.6867340588
 20
27.3758221801
 30
0.0
 10
201.4530309188
 20
27.3758221801
 30
0.0
 10
201.2877638047
 20
27.5480244938
 30
0.0
 10
201.2877638047
 20
27.7846063959
 30
0.0
 10
201.2877638047
 20
27.9965879675
 30
0.0
 10
201.4555171224
 20
28.1886799102
 30
0.0
 10
201.6723402484
 20
28.1886799102
 30
0.0
 10
201.8051558627
 20
28.1886799102
 30
0.0
 10
201.913763705
 20
28.1347685475
 30
0.0
 10
202.0022202126
 20
28.0337501689
 30
0.0
 10
202.0022202126
 20
28.0337501689
 30
0.0
 10
202.0022202126
 20
28.3195327321
 30
0.0
 10
202.0022202126
 20
28.3195327321
 30
0.0
  0
SPLINE
  5
241
100
AcDbEntity
  8
0
100
AcDbSpline
 62
7
  6
CONTINUOUS
 70
2
 71
3
 72
32
 73
28
 74
0
 42
0.0000001
 43
0.0000001
 44
0.0000000001
 40
0.0
 40
0.0
 40
0.0
 40
0.0
 40
1.0
 40
1.0
 40
1.0
 40
2.0
 40
2.0
 40
2.0
 40
3.0
 40
3.0
 40
3.0
 40
4.0
 40
4.0
 40
4.0
 40
5.0
 40
5.0
 40
5.0
 40
6.0
 40
6.0
 40
6.0
 40
7.0
 40
7.0
 40
7.0
 40
8.0
 40
8.0
 40
8.0
 40
9.0
 40
9.0
 40
9.0
 40
9.0
 10
204.5340914649
 20
27.7479676058
 30
0.0
 10
204.5340914649
 20
27.7479676058
 30
0.0
 10
204.5340914649
 20
27.7819893395
 30
0.0
 10
204.5340914649
 20
27.7819893395
 30
0.0
 10
204.5340914649
 20
28.1243003217
 30
0.0
 10
204.361234887
 20
28.3959507801
 30
0.0
 10
203.9945852799
 20
28.3959507801
 30
0.0
 10
203.6229632655
 20
28.3959507801
 30
0.0
 10
203.4332266736
 20
28.1295344346
 30
0.0
 10
203.4332266736
 20
27.7746615814
 30
0.0
 10
203.4332266736
 20
27.4349676556
 30
0.0
 10
203.6473018904
 20
27.1690747214
 30
0.0
 10
203.9994268343
 20
27.1690747214
 30
0.0
 10
204.2234468655
 20
27.1690747214
 30
0.0
 10
204.4256144755
 20
27.284748616
 30
0.0
 10
204.5340914649
 20
27.4841683167
 30
0.0
 10
204.5340914649
 20
27.4841683167
 30
0.0
 10
204.3464485182
 20
27.5909442194
 30
0.0
 10
204.3464485182
 20
27.5909442194
 30
0.0
 10
204.2629644177
 20
27.4522402281
 30
0.0
 10
204.1717600008
 20
27.3664007769
 30
0.0
 10
204.0021747436
 20
27.3664007769
 30
0.0
 10
203.790193172
 20
27.3664007769
 30
0.0
 10
203.6572467049
 20
27.5511649615
 30
0.0
 10
203.6548913541
 20
27.7479676058
 30
0.0
 10
203.6548913541
 20
27.7479676058
 30
0.0
 10
204.5340914649
 20
27.7479676058
 30
0.0
 10
204.5340914649
 20
27.7479676058
 30
0.0
  0
SPLINE
  5
242
100
AcDbEntity
  8
0
100
AcDbSpline
 62
7
  6
CONTINUOUS
 70
2
 71
3
 72
14
 73
10
 74
0
 42
0.0000001
 43
0.0000001
 44
0.0000000001
 40
0.0
 40
0.0
 40
0.0
 40
0.0
 40
1.0
 40
1.0
 40
1.0
 40
2.0
 40
2.0
 40
2.0
 40
3.0
 40
3.0
 40
3.0
 40
3.0
 10
203.6669298137
 20
27.9154592179
 30
0.0
 10
203.6945397591
 20
28.0803337736
 30
0.0
 10
203.8223829662
 20
28.2033354262
 30
0.0
 10
203.9945852799
 20
28.2033354262
 30
0.0
 10
204.1717600008
 20
28.2033354262
 30
0.0
 10
204.2852093975
 20
28.0876615316
 30
0.0
 10
204.3124267844
 20
27.9154592179
 30
0.0
 10
204.3124267844
 20
27.9154592179
 30
0.0
 10
203.6669298137
 20
27.9154592179
 30
0.0
 10
203.6669298137
 20
27.9154592179
 30
0.0
  0
SPLINE
  5
243
100
AcDbEntity
  8
0
100
AcDbSpline
 62
7
  6
CONTINUOUS
 70
2
 71
3
 72
20
 73
16
 74
0
 42
0.0000001
 43
0.0000001
 44
0.0000000001
 40
0.0
 40
0.0
 40
0.0
 40
0.0
 40
1.0
 40
1.0
 40
1.0
 40
2.0
 40
2.0
 40
2.0
 40
3.0
 40
3.0
 40
3.0
 40
4.0
 40
4.0
 40
4.0
 40
5.0
 40
5.0
 40
5.0
 40
5.0
 10
206.5581229151
 20
28.124823733
 30
0.0
 10
206.5581229151
 20
28.124823733
 30
0.0
 10
206.9692624817
 20
27.6223488967
 30
0.0
 10
206.9692624817
 20
27.6223488967
 30
0.0
 10
206.8531960286
 20
27.5066750021
 30
0.0
 10
206.7154080071
 20
27.3763455914
 30
0.0
 10
206.543467399
 20
27.3763455914
 30
0.0
 10
206.3660309724
 20
27.3763455914
 30
0.0
 10
206.1985393603
 20
27.5406967358
 30
0.0
 10
206.1985393603
 20
27.7176097511
 30
0.0
 10
206.1985393603
 20
27.8955695889
 30
0.0
 10
206.4082964339
 20
28.0217117093
 30
0.0
 10
206.5358779353
 20
28.1096448057
 30
0.0
 10
206.5358779353
 20
28.1096448057
 30
0.0
 10
206.5581229151
 20
28.124823733
 30
0.0
 10
206.5581229151
 20
28.124823733
 30
0.0
  0
SPLINE
  5
244
100
AcDbEntity
  8
0
100
AcDbSpline
 62
7
  6
CONTINUOUS
 70
2
 71
3
 72
23
 73
19
 74
0
 42
0.0000001
 43
0.0000001
 44
0.0000000001
 40
0.0
 40
0.0
 40
0.0
 40
0.0
 40
1.0
 40
1.0
 40
1.0
 40
2.0
 40
2.0
 40
2.0
 40
3.0
 40
3.0
 40
3.0
 40
4.0
 40
4.0
 40
4.0
 40
5.0
 40
5.0
 40
5.0
 40
6.0
 40
6.0
 40
6.0
 40
6.0
 10
206.6074544289
 20
28.4158404091
 30
0.0
 10
206.6074544289
 20
28.4158404091
 30
0.0
 10
206.5458227498
 20
28.4943521023
 30
0.0
 10
206.5458227498
 20
28.4943521023
 30
0.0
 10
206.4919113871
 20
28.562918981
 30
0.0
 10
206.4351212624
 20
28.632009271
 30
0.0
 10
206.4351212624
 20
28.7256998915
 30
0.0
 10
206.4351212624
 20
28.8445142539
 30
0.0
 10
206.5310363809
 20
28.9219791245
 30
0.0
 10
206.6419995739
 20
28.9219791245
 30
0.0
 10
206.7652629322
 20
28.9219791245
 30
0.0
 10
206.8585609943
 20
28.8507951893
 30
0.0
 10
206.8585609943
 20
28.7204657786
 30
0.0
 10
206.8585609943
 20
28.5854256664
 30
0.0
 10
206.7304560816
 20
28.5090076183
 30
0.0
 10
206.6368963139
 20
28.4352066267
 30
0.0
 10
206.6368963139
 20
28.4352066267
 30
0.0
 10
206.6074544289
 20
28.4158404091
 30
0.0
 10
206.6074544289
 20
28.4158404091
 30
0.0
  0
SPLINE
  5
245
100
AcDbEntity
  8
0
100
AcDbSpline
 62
7
  6
CONTINUOUS
 70
2
 71
3
 72
50
 73
46
 74
0
 42
0.0000001
 43
0.0000001
 44
0.0000000001
 40
0.0
 40
0.0
 40
0.0
 40
0.0
 40
1.0
 40
1.0
 40
1.0
 40
2.0
 40
2.0
 40
2.0
 40
3.0
 40
3.0
 40
3.0
 40
4.0
 40
4.0
 40
4.0
 40
5.0
 40
5.0
 40
5.0
 40
6.0
 40
6.0
 40
6.0
 40
7.0
 40
7.0
 40
7.0
 40
8.0
 40
8.0
 40
8.0
 40
9.0
 40
9.0
 40
9.0
 40
10.0
 40
10.0
 40
10.0
 40
11.0
 40
11.0
 40
11.0
 40
12.0
 40
12.0
 40
12.0
 40
13.0
 40
13.0
 40
13.0
 40
14.0
 40
14.0
 40
14.0
 40
15.0
 40
15.0
 40
15.0
 40
15.0
 10
207.3096106716
 20
27.2088539793
 30
0.0
 10
207.3096106716
 20
27.2088539793
 30
0.0
 10
207.5950006763
 20
27.2088539793
 30
0.0
 10
207.5950006763
 20
27.2088539793
 30
0.0
 10
207.5950006763
 20
27.2088539793
 30
0.0
 10
207.2626345085
 20
27.6197318402
 30
0.0
 10
207.2626345085
 20
27.6197318402
 30
0.0
 10
207.2626345085
 20
27.6197318402
 30
0.0
 10
207.4891407434
 20
27.8856247745
 30
0.0
 10
207.4891407434
 20
27.8856247745
 30
0.0
 10
207.4891407434
 20
27.8856247745
 30
0.0
 10
207.3408844961
 20
28.0384608705
 30
0.0
 10
207.3408844961
 20
28.0384608705
 30
0.0
 10
207.3408844961
 20
28.0384608705
 30
0.0
 10
207.1249773398
 20
27.7872234524
 30
0.0
 10
207.1249773398
 20
27.7872234524
 30
0.0
 10
207.1249773398
 20
27.7872234524
 30
0.0
 10
206.7379146924
 20
28.2551531437
 30
0.0
 10
206.7379146924
 20
28.2551531437
 30
0.0
 10
206.8933678449
 20
28.3692568045
 30
0.0
 10
207.0756458259
 20
28.5090076183
 30
0.0
 10
207.0756458259
 20
28.7183721335
 30
0.0
 10
207.0756458259
 20
28.9622817936
 30
0.0
 10
206.8736090688
 20
29.1056964865
 30
0.0
 10
206.647102834
 20
29.1056964865
 30
0.0
 10
206.4029314682
 20
29.1056964865
 30
0.0
 10
206.2185598421
 20
28.9549540356
 30
0.0
 10
206.2185598421
 20
28.6984825045
 30
0.0
 10
206.2185598421
 20
28.5409357069
 30
0.0
 10
206.3172228698
 20
28.4032785382
 30
0.0
 10
206.4225593915
 20
28.2923153452
 30
0.0
 10
206.4225593915
 20
28.2923153452
 30
0.0
 10
206.3070163497
 20
28.2085695391
 30
0.0
 10
206.3070163497
 20
28.2085695391
 30
0.0
 10
206.1293182175
 20
28.0803337736
 30
0.0
 10
205.9819779399
 20
27.9526214193
 30
0.0
 10
205.9819779399
 20
27.7155161059
 30
0.0
 10
205.9819779399
 20
27.3951883977
 30
0.0
 10
206.2405431161
 20
27.1690747214
 30
0.0
 10
206.5509260098
 20
27.1690747214
 30
0.0
 10
206.769842781
 20
27.1690747214
 30
0.0
 10
206.9670379837
 20
27.2941700192
 30
0.0
 10
207.1073122089
 20
27.4600913974
 30
0.0
 10
207.1073122089
 20
27.4600913974
 30
0.0
 10
207.3096106716
 20
27.2088539793
 30
0.0
 10
207.3096106716
 20
27.2088539793
 30
0.0
  0
LWPOLYLINE
  5
246
100
AcDbEntity
  8
0
100
AcDbPolyline
 62
7
  6
CONTINUOUS
 90
2
 70
0
 43
0.2
 10
209.2450547613
 20
29.0653938173
 10
209.0137069721
 20
29.0653938173
  0
LWPOLYLINE
  5
247
100
AcDbEntity
  8
0
100
AcDbPolyline
 62
7
  6
CONTINUOUS
 90
2
 70
0
 43
0.2
 10
209.0137069721
 20
29.0653938173
 10
209.0137069721
 20
27.208330568
  0
LWPOLYLINE
  5
248
100
AcDbEntity
  8
0
100
AcDbPolyline
 62
7
  6
CONTINUOUS
 90
2
 70
0
 43
0.2
 10
209.0137069721
 20
27.208330568
 10
209.809030424
 20
27.208330568
  0
LWPOLYLINE
  5
249
100
AcDbEntity
  8
0
100
AcDbPolyline
 62
7
  6
CONTINUOUS
 90
2
 70
0
 43
0.2
 10
209.809030424
 20
27.208330568
 10
209.809030424
 20
27.4203121396
  0
LWPOLYLINE
  5
24A
100
AcDbEntity
  8
0
100
AcDbPolyline
 62
7
  6
CONTINUOUS
 90
2
 70
0
 43
0.2
 10
209.809030424
 20
27.4203121396
 10
209.2450547613
 20
27.4203121396
  0
LWPOLYLINE
  5
24B
100
AcDbEntity
  8
0
100
AcDbPolyline
 62
7
  6
CONTINUOUS
 90
2
 70
0
 43
0.2
 10
209.2450547613
 20
27.4203121396
 10
209.2450547613
 20
29.0653938173
  0
LWPOLYLINE
  5
24C
100
AcDbEntity
  8
0
100
AcDbPolyline
 62
7
  6
CONTINUOUS
 90
2
 70
0
 43
0.2
 10
211.4881338355
 20
28.3608822239
 10
211.2669925664
 20
28.3608822239
  0
LWPOLYLINE
  5
24D
100
AcDbEntity
  8
0
100
AcDbPolyline
 62
7
  6
CONTINUOUS
 90
2
 70
0
 43
0.2
 10
211.2669925664
 20
28.3608822239
 10
211.2669925664
 20
27.2088539793
  0
LWPOLYLINE
  5
24E
100
AcDbEntity
  8
0
100
AcDbPolyline
 62
7
  6
CONTINUOUS
 90
2
 70
0
 43
0.2
 10
211.2669925664
 20
27.2088539793
 10
211.4881338355
 20
27.2088539793
  0
LWPOLYLINE
  5
24F
100
AcDbEntity
  8
0
100
AcDbPolyline
 62
7
  6
CONTINUOUS
 90
2
 70
0
 43
0.2
 10
211.4881338355
 20
27.2088539793
 10
211.4881338355
 20
28.3608822239
  0
SPLINE
  5
250
100
AcDbEntity
  8
0
100
AcDbSpline
 62
7
  6
CONTINUOUS
 70
2
 71
3
 72
17
 73
13
 74
0
 42
0.0000001
 43
0.0000001
 44
0.0000000001
 40
0.0
 40
0.0
 40
0.0
 40
0.0
 40
1.0
 40
1.0
 40
1.0
 40
2.0
 40
2.0
 40
2.0
 40
3.0
 40
3.0
 40
3.0
 40
4.0
 40
4.0
 40
4.0
 40
4.0
 10
211.3776940538
 20
29.0434105432
 30
0.0
 10
211.2936865421
 20
29.0434105432
 30
0.0
 10
211.2251196633
 20
28.9743202532
 30
0.0
 10
211.2251196633
 20
28.888480802
 30
0.0
 10
211.2251196633
 20
28.8042115847
 30
0.0
 10
211.2936865421
 20
28.7382617624
 30
0.0
 10
211.3776940538
 20
28.7382617624
 30
0.0
 10
211.4614398598
 20
28.7382617624
 30
0.0
 10
211.5302684442
 20
28.8042115847
 30
0.0
 10
211.5302684442
 20
28.888480802
 30
0.0
 10
211.5302684442
 20
28.9743202532
 30
0.0
 10
211.4614398598
 20
29.0434105432
 30
0.0
 10
211.3776940538
 20
29.0434105432
 30
0.0
  0
SPLINE
  5
251
100
AcDbEntity
  8
0
100
AcDbSpline
 62
7
  6
CONTINUOUS
 70
2
 71
3
 72
17
 73
13
 74
0
 42
0.0000001
 43
0.0000001
 44
0.0000000001
 40
0.0
 40
0.0
 40
0.0
 40
0.0
 40
1.0
 40
1.0
 40
1.0
 40
2.0
 40
2.0
 40
2.0
 40
3.0
 40
3.0
 40
3.0
 40
4.0
 40
4.0
 40
4.0
 40
4.0
 10
213.6184177771
 20
27.3664007769
 30
0.0
 10
213.3844529315
 20
27.3664007769
 30
0.0
 10
213.2541235208
 20
27.568437534
 30
0.0
 10
213.2541235208
 20
27.7846063959
 30
0.0
 10
213.2541235208
 20
27.9992050239
 30
0.0
 10
213.38994875
 20
28.1981013133
 30
0.0
 10
213.6184177771
 20
28.1981013133
 30
0.0
 10
213.8578784413
 20
28.1981013133
 30
0.0
 10
213.9934419649
 20
28.0091498384
 30
0.0
 10
213.9934419649
 20
27.7846063959
 30
0.0
 10
213.9934419649
 20
27.5584927196
 30
0.0
 10
213.8602337921
 20
27.3664007769
 30
0.0
 10
213.6184177771
 20
27.3664007769
 30
0.0
  0
SPLINE
  5
252
100
AcDbEntity
  8
0
100
AcDbSpline
 62
7
  6
CONTINUOUS
 70
2
 71
3
 72
50
 73
46
 74
0
 42
0.0000001
 43
0.0000001
 44
0.0000000001
 40
0.0
 40
0.0
 40
0.0
 40
0.0
 40
1.0
 40
1.0
 40
1.0
 40
2.0
 40
2.0
 40
2.0
 40
3.0
 40
3.0
 40
3.0
 40
4.0
 40
4.0
 40
4.0
 40
5.0
 40
5.0
 40
5.0
 40
6.0
 40
6.0
 40
6.0
 40
7.0
 40
7.0
 40
7.0
 40
8.0
 40
8.0
 40
8.0
 40
9.0
 40
9.0
 40
9.0
 40
10.0
 40
10.0
 40
10.0
 40
11.0
 40
11.0
 40
11.0
 40
12.0
 40
12.0
 40
12.0
 40
13.0
 40
13.0
 40
13.0
 40
14.0
 40
14.0
 40
14.0
 40
15.0
 40
15.0
 40
15.0
 40
15.0
 10
214.2025447744
 20
28.3614056352
 30
0.0
 10
214.2025447744
 20
28.3614056352
 30
0.0
 10
213.980880094
 20
28.3614056352
 30
0.0
 10
213.980880094
 20
28.3614056352
 30
0.0
 10
213.980880094
 20
28.3614056352
 30
0.0
 10
213.980880094
 20
28.1640795796
 30
0.0
 10
213.980880094
 20
28.1640795796
 30
0.0
 10
213.980880094
 20
28.1640795796
 30
0.0
 10
213.9761693924
 20
28.1640795796
 30
0.0
 10
213.9761693924
 20
28.1640795796
 30
0.0
 10
213.8848341227
 20
28.3069708612
 30
0.0
 10
213.7469152483
 20
28.3954273689
 30
0.0
 10
213.5741895233
 20
28.3954273689
 30
0.0
 10
213.2418233555
 20
28.3954273689
 30
0.0
 10
213.032720546
 20
28.1075511605
 30
0.0
 10
213.032720546
 20
27.7919341539
 30
0.0
 10
213.032720546
 20
27.4621850426
 30
0.0
 10
213.2297848959
 20
27.1690747214
 30
0.0
 10
213.5846577491
 20
27.1690747214
 30
0.0
 10
213.7469152483
 20
27.1690747214
 30
0.0
 10
213.8869277678
 20
27.257531229
 30
0.0
 10
213.9761693924
 20
27.388384051
 30
0.0
 10
213.9761693924
 20
27.388384051
 30
0.0
 10
213.980880094
 20
27.388384051
 30
0.0
 10
213.980880094
 20
27.388384051
 30
0.0
 10
213.980880094
 20
27.388384051
 30
0.0
 10
213.980880094
 20
27.1690747214
 30
0.0
 10
213.980880094
 20
27.1690747214
 30
0.0
 10
213.980880094
 20
26.9324928193
 30
0.0
 10
213.9243516749
 20
26.7456349895
 30
0.0
 10
213.6511309826
 20
26.7456349895
 30
0.0
 10
213.4488325199
 20
26.7456349895
 30
0.0
 10
213.3062029439
 20
26.8639259406
 30
0.0
 10
213.3062029439
 20
27.070149988
 30
0.0
 10
213.3062029439
 20
27.070149988
 30
0.0
 10
213.0845382635
 20
27.070149988
 30
0.0
 10
213.0845382635
 20
27.070149988
 30
0.0
 10
213.0895106707
 20
26.7456349895
 30
0.0
 10
213.3205967543
 20
26.5488323453
 30
0.0
 10
213.6409244625
 20
26.5488323453
 30
0.0
 10
214.0889645249
 20
26.5488323453
 30
0.0
 10
214.2025447744
 20
26.8340914971
 30
0.0
 10
214.2025447744
 20
27.2308372534
 30
0.0
 10
214.2025447744
 20
27.2308372534
 30
0.0
 10
214.2025447744
 20
28.3614056352
 30
0.0
 10
214.2025447744
 20
28.3614056352
 30
0.0
  0
SPLINE
  5
253
100
AcDbEntity
  8
0
100
AcDbSpline
 62
7
  6
CONTINUOUS
 70
2
 71
3
 72
44
 73
40
 74
0
 42
0.0000001
 43
0.0000001
 44
0.0000000001
 40
0.0
 40
0.0
 40
0.0
 40
0.0
 40
1.0
 40
1.0
 40
1.0
 40
2.0
 40
2.0
 40
2.0
 40
3.0
 40
3.0
 40
3.0
 40
4.0
 40
4.0
 40
4.0
 40
5.0
 40
5.0
 40
5.0
 40
6.0
 40
6.0
 40
6.0
 40
7.0
 40
7.0
 40
7.0
 40
8.0
 40
8.0
 40
8.0
 40
9.0
 40
9.0
 40
9.0
 40
10.0
 40
10.0
 40
10.0
 40
11.0
 40
11.0
 40
11.0
 40
12.0
 40
12.0
 40
12.0
 40
13.0
 40
13.0
 40
13.0
 40
13.0
 10
215.7714701098
 20
29.3464656789
 30
0.0
 10
215.7714701098
 20
29.3464656789
 30
0.0
 10
215.7714701098
 20
27.208330568
 30
0.0
 10
215.7714701098
 20
27.208330568
 30
0.0
 10
215.7714701098
 20
27.208330568
 30
0.0
 10
215.9928730846
 20
27.208330568
 30
0.0
 10
215.9928730846
 20
27.208330568
 30
0.0
 10
215.9928730846
 20
27.208330568
 30
0.0
 10
215.9928730846
 20
27.7380227913
 30
0.0
 10
215.9928730846
 20
27.7380227913
 30
0.0
 10
215.9928730846
 20
27.9479107177
 30
0.0
 10
215.9928730846
 20
28.1986247246
 30
0.0
 10
216.2781322364
 20
28.1986247246
 30
0.0
 10
216.5050310297
 20
28.1986247246
 30
0.0
 10
216.5319867111
 20
28.0656782575
 30
0.0
 10
216.5319867111
 20
27.8693990246
 30
0.0
 10
216.5319867111
 20
27.8693990246
 30
0.0
 10
216.5319867111
 20
27.208330568
 30
0.0
 10
216.5319867111
 20
27.208330568
 30
0.0
 10
216.5319867111
 20
27.208330568
 30
0.0
 10
216.7539130971
 20
27.208330568
 30
0.0
 10
216.7539130971
 20
27.208330568
 30
0.0
 10
216.7539130971
 20
27.208330568
 30
0.0
 10
216.7539130971
 20
27.8955695889
 30
0.0
 10
216.7539130971
 20
27.8955695889
 30
0.0
 10
216.7539130971
 20
28.1761180392
 30
0.0
 10
216.6699055854
 20
28.3959507801
 30
0.0
 10
216.3448671757
 20
28.3959507801
 30
0.0
 10
216.2051163618
 20
28.3959507801
 30
0.0
 10
216.0669357818
 20
28.3294775466
 30
0.0
 10
215.9975837861
 20
28.2064758939
 30
0.0
 10
215.9975837861
 20
28.2064758939
 30
0.0
 10
215.9928730846
 20
28.2064758939
 30
0.0
 10
215.9928730846
 20
28.2064758939
 30
0.0
 10
215.9928730846
 20
28.2064758939
 30
0.0
 10
215.9928730846
 20
29.3464656789
 30
0.0
 10
215.9928730846
 20
29.3464656789
 30
0.0
 10
215.9928730846
 20
29.3464656789
 30
0.0
 10
215.7714701098
 20
29.3464656789
 30
0.0
 10
215.7714701098
 20
29.3464656789
 30
0.0
  0
LWPOLYLINE
  5
254
100
AcDbEntity
  8
0
100
AcDbPolyline
 62
7
  6
CONTINUOUS
 90
2
 70
0
 43
0.2
 10
218.593703774
 20
28.1541347652
 10
218.8101343415
 20
28.1541347652
  0
LWPOLYLINE
  5
255
100
AcDbEntity
  8
0
100
AcDbPolyline
 62
7
  6
CONTINUOUS
 90
2
 70
0
 43
0.2
 10
218.8101343415
 20
28.1541347652
 10
218.8101343415
 20
28.3608822239
  0
LWPOLYLINE
  5
256
100
AcDbEntity
  8
0
100
AcDbPolyline
 62
7
  6
CONTINUOUS
 90
2
 70
0
 43
0.2
 10
218.8101343415
 20
28.3608822239
 10
218.593703774
 20
28.3608822239
  0
LWPOLYLINE
  5
257
100
AcDbEntity
  8
0
100
AcDbPolyline
 62
7
  6
CONTINUOUS
 90
2
 70
0
 43
0.2
 10
218.593703774
 20
28.3608822239
 10
218.593703774
 20
28.8015945282
  0
LWPOLYLINE
  5
258
100
AcDbEntity
  8
0
100
AcDbPolyline
 62
7
  6
CONTINUOUS
 90
2
 70
0
 43
0.2
 10
218.593703774
 20
28.8015945282
 10
218.3720390936
 20
28.8015945282
  0
LWPOLYLINE
  5
259
100
AcDbEntity
  8
0
100
AcDbPolyline
 62
7
  6
CONTINUOUS
 90
2
 70
0
 43
0.2
 10
218.3720390936
 20
28.8015945282
 10
218.3720390936
 20
28.3608822239
  0
LWPOLYLINE
  5
25A
100
AcDbEntity
  8
0
100
AcDbPolyline
 62
7
  6
CONTINUOUS
 90
2
 70
0
 43
0.2
 10
218.3720390936
 20
28.3608822239
 10
218.2513927917
 20
28.3608822239
  0
LWPOLYLINE
  5
25B
100
AcDbEntity
  8
0
100
AcDbPolyline
 62
7
  6
CONTINUOUS
 90
2
 70
0
 43
0.2
 10
218.2513927917
 20
28.3608822239
 10
218.2513927917
 20
28.1541347652
  0
LWPOLYLINE
  5
25C
100
AcDbEntity
  8
0
100
AcDbPolyline
 62
7
  6
CONTINUOUS
 90
2
 70
0
 43
0.2
 10
218.2513927917
 20
28.1541347652
 10
218.3720390936
 20
28.1541347652
  0
LWPOLYLINE
  5
25D
100
AcDbEntity
  8
0
100
AcDbPolyline
 62
7
  6
CONTINUOUS
 90
2
 70
0
 43
0.2
 10
218.3720390936
 20
28.1541347652
 10
218.3720390936
 20
27.208330568
  0
LWPOLYLINE
  5
25E
100
AcDbEntity
  8
0
100
AcDbPolyline
 62
7
  6
CONTINUOUS
 90
2
 70
0
 43
0.2
 10
218.3720390936
 20
27.208330568
 10
218.593703774
 20
27.208330568
  0
LWPOLYLINE
  5
25F
100
AcDbEntity
  8
0
100
AcDbPolyline
 62
7
  6
CONTINUOUS
 90
2
 70
0
 43
0.2
 10
218.593703774
 20
27.208330568
 10
218.593703774
 20
28.1541347652
  0
SPLINE
  5
260
100
AcDbEntity
  8
0
100
AcDbSpline
 62
7
  6
CONTINUOUS
 70
2
 71
3
 72
20
 73
16
 74
0
 42
0.0000001
 43
0.0000001
 44
0.0000000001
 40
0.0
 40
0.0
 40
0.0
 40
0.0
 40
1.0
 40
1.0
 40
1.0
 40
2.0
 40
2.0
 40
2.0
 40
3.0
 40
3.0
 40
3.0
 40
4.0
 40
4.0
 40
4.0
 40
5.0
 40
5.0
 40
5.0
 40
5.0
 10
206.3757140812
 20
37.5692570114
 30
0.0
 10
206.3757140812
 20
37.5692570114
 30
0.0
 10
208.6920707357
 20
34.7396955891
 30
0.0
 10
208.6920707357
 20
34.7396955891
 30
0.0
 10
208.0404236823
 20
34.0875251244
 30
0.0
 10
207.2635504783
 20
33.3516088537
 30
0.0
 10
206.2923608336
 20
33.3516088537
 30
0.0
 10
205.2938229492
 20
33.3516088537
 30
0.0
 10
204.3505049556
 20
34.281187301
 30
0.0
 10
204.3505049556
 20
35.2803794495
 30
0.0
 10
204.3505049556
 20
36.279571598
 30
0.0
 10
205.5293580287
 20
36.9861768367
 30
0.0
 10
206.2508804891
 20
37.4860346166
 30
0.0
 10
206.2508804891
 20
37.4860346166
 30
0.0
 10
206.3757140812
 20
37.5692570114
 30
0.0
 10
206.3757140812
 20
37.5692570114
 30
0.0
  0
SPLINE
  5
261
100
AcDbEntity
  8
0
100
AcDbSpline
 62
7
  6
CONTINUOUS
 70
2
 71
3
 72
23
 73
19
 74
0
 42
0.0000001
 43
0.0000001
 44
0.0000000001
 40
0.0
 40
0.0
 40
0.0
 40
0.0
 40
1.0
 40
1.0
 40
1.0
 40
2.0
 40
2.0
 40
2.0
 40
3.0
 40
3.0
 40
3.0
 40
4.0
 40
4.0
 40
4.0
 40
5.0
 40
5.0
 40
5.0
 40
6.0
 40
6.0
 40
6.0
 40
6.0
 10
206.6531220638
 20
39.2070109311
 30
0.0
 10
206.6531220638
 20
39.2070109311
 30
0.0
 10
206.3066237912
 20
39.6503402919
 30
0.0
 10
206.3066237912
 20
39.6503402919
 30
0.0
 10
206.0008207463
 20
40.0384497619
 30
0.0
 10
205.6819324192
 20
40.4269517903
 30
0.0
 10
205.6819324192
 20
40.9538961044
 30
0.0
 10
205.6819324192
 20
41.620067821
 30
0.0
 10
206.2232705436
 20
42.0637897403
 30
0.0
 10
206.8471767988
 20
42.0637897403
 30
0.0
 10
207.5409584609
 20
42.0637897403
 30
0.0
 10
208.0681644806
 20
41.6615481656
 30
0.0
 10
208.0681644806
 20
40.9265478646
 30
0.0
 10
208.0681644806
 20
40.163283354
 30
0.0
 10
207.3469037259
 20
39.7331701282
 30
0.0
 10
206.819828559
 20
39.3174507128
 30
0.0
 10
206.819828559
 20
39.3174507128
 30
0.0
 10
206.6531220638
 20
39.2070109311
 30
0.0
 10
206.6531220638
 20
39.2070109311
 30
0.0
  0
SPLINE
  5
262
100
AcDbEntity
  8
0
100
AcDbSpline
 62
7
  6
CONTINUOUS
 70
2
 71
3
 72
50
 73
46
 74
0
 42
0.0000001
 43
0.0000001
 44
0.0000000001
 40
0.0
 40
0.0
 40
0.0
 40
0.0
 40
1.0
 40
1.0
 40
1.0
 40
2.0
 40
2.0
 40
2.0
 40
3.0
 40
3.0
 40
3.0
 40
4.0
 40
4.0
 40
4.0
 40
5.0
 40
5.0
 40
5.0
 40
6.0
 40
6.0
 40
6.0
 40
7.0
 40
7.0
 40
7.0
 40
8.0
 40
8.0
 40
8.0
 40
9.0
 40
9.0
 40
9.0
 40
10.0
 40
10.0
 40
10.0
 40
11.0
 40
11.0
 40
11.0
 40
12.0
 40
12.0
 40
12.0
 40
13.0
 40
13.0
 40
13.0
 40
14.0
 40
14.0
 40
14.0
 40
15.0
 40
15.0
 40
15.0
 40
15.0
 10
210.6067092267
 20
32.408421713
 30
0.0
 10
210.6067092267
 20
32.408421713
 30
0.0
 10
212.2159372313
 20
32.408421713
 30
0.0
 10
212.2159372313
 20
32.408421713
 30
0.0
 10
212.2159372313
 20
32.408421713
 30
0.0
 10
210.3429099376
 20
34.7255634844
 30
0.0
 10
210.3429099376
 20
34.7255634844
 30
0.0
 10
210.3429099376
 20
34.7255634844
 30
0.0
 10
211.6192483631
 20
36.223043179
 30
0.0
 10
211.6192483631
 20
36.223043179
 30
0.0
 10
211.6192483631
 20
36.223043179
 30
0.0
 10
210.7870244154
 20
37.0840547475
 30
0.0
 10
210.7870244154
 20
37.0840547475
 30
0.0
 10
210.7870244154
 20
37.0840547475
 30
0.0
 10
209.5664292921
 20
35.6687506251
 30
0.0
 10
209.5664292921
 20
35.6687506251
 30
0.0
 10
209.5664292921
 20
35.6687506251
 30
0.0
 10
207.3885149233
 20
38.3041264595
 30
0.0
 10
207.3885149233
 20
38.3041264595
 30
0.0
 10
208.2620883627
 20
38.9421648194
 30
0.0
 10
209.2887596039
 20
39.7331701282
 30
0.0
 10
209.2887596039
 20
40.9120232013
 30
0.0
 10
209.2887596039
 20
42.2857161264
 30
0.0
 10
208.150863464
 20
43.0901992758
 30
0.0
 10
206.8755718611
 20
43.0901992758
 30
0.0
 10
205.5021406418
 20
43.0901992758
 30
0.0
 10
204.461206443
 20
42.2439740762
 30
0.0
 10
204.461206443
 20
40.801321714
 30
0.0
 10
204.461206443
 20
39.9137470226
 30
0.0
 10
205.0165458195
 20
39.1368738185
 30
0.0
 10
205.6127112763
 20
38.5124441521
 30
0.0
 10
205.6127112763
 20
38.5124441521
 30
0.0
 10
204.9608025173
 20
38.0408505817
 30
0.0
 10
204.9608025173
 20
38.0408505817
 30
0.0
 10
203.9622646329
 20
37.319589827
 30
0.0
 10
203.129386421
 20
36.5983290724
 30
0.0
 10
203.129386421
 20
35.266770756
 30
0.0
 10
203.129386421
 20
33.463095458
 30
0.0
 10
204.5864325936
 20
32.1864953269
 30
0.0
 10
206.333972031
 20
32.1864953269
 30
0.0
 10
207.5688301119
 20
32.1864953269
 30
0.0
 10
208.6782003366
 20
32.8946707994
 30
0.0
 10
209.4690747925
 20
33.8232024241
 30
0.0
 10
209.4690747925
 20
33.8232024241
 30
0.0
 10
210.6067092267
 20
32.408421713
 30
0.0
 10
210.6067092267
 20
32.408421713
 30
0.0
  0
LINE
  5
263
100
AcDbEntity
  8
0
100
AcDbLine
 62
7
  6
CONTINUOUS
 10
196.4095706017
 20
30.3822966176
 11
218.8234813294
 21
30.3822966176
  0
LINE
  5
264
100
AcDbEntity
  8
0
100
AcDbLine
 62
7
  6
CONTINUOUS
 10
218.8234813294
 20
30.3822966176
 11
218.8234813294
 21
52.7962073453
  0
LINE
  5
265
100
AcDbEntity
  8
0
100
AcDbLine
 62
7
  6
CONTINUOUS
 10
218.8234813294
 20
52.7962073453
 11
196.4095706017
 21
52.7962073453
  0
LINE
  5
266
100
AcDbEntity
  8
0
100
AcDbLine
 62
7
  6
CONTINUOUS
 10
196.4095706017
 20
52.7962073453
 11
196.4095706017
 21
30.3822966176
  0
ENDBLK
  5
267
100
AcDbEntity
  8
0
  6
BYBLOCK
 62
0
100
AcDbBlockEnd
  0
BLOCK
  5
268
100
AcDbEntity
  8
0
100
AcDbBlockBegin
  2
_CLOSED
 70
64
 10
0.0
 20
0.0
  3
_CLOSED
  1

  0
LINE
  5
269
100
AcDbEntity
  8
0
  6
BYBLOCK
 62
0
100
AcDbLine
 10
0.0
 20
0.0
 11
-1.0
 21
0.2
  0
LINE
  5
26A
100
AcDbEntity
  8
0
  6
BYBLOCK
 62
0
100
AcDbLine
 10
-1.0
 20
0.2
 11
-1.0
 21
-0.2
  0
LINE
  5
26B
100
AcDbEntity
  8
0
  6
BYBLOCK
 62
0
100
AcDbLine
 10
-1.0
 20
-0.2
 11
0.0
 21
0.0
  0
LINE
  5
26C
100
AcDbEntity
  8
0
  6
BYBLOCK
 62
0
100
AcDbLine
 10
-1.0
 20
0.0
 11
0.0
 21
0.0
  0
ENDBLK
  5
26D
100
AcDbEntity
  8
0
  6
BYBLOCK
 62
0
100
AcDbBlockEnd
  0
BLOCK
  5
26E
100
AcDbEntity
  8
0
100
AcDbBlockBegin
 62
2
  6
CONTINUOUS
  2
*D0
 70
65
 10
0.0
 20
0.0
  3
*D0
  1

  0
MTEXT
  5
26F
100
AcDbEntity
  8
0
100
AcDbMText
 62
2
  6
CONTINUOUS
  7
STANDARD
 71
2
 72
1
 10
55.782153782
 20
24.4676311058
 30
0.0
 11
1.0
 21
0.0
 31
0.0
  1
34
 40
3.0
 41
4.6617100372
  0
LINE
  5
270
100
AcDbEntity
  8
0
100
AcDbLine
 62
2
  6
CONTINUOUS
 10
38.782153782
 20
26.2230490108
 11
38.782153782
 21
19.9676311058
  0
LINE
  5
271
100
AcDbEntity
  8
0
100
AcDbLine
 62
2
  6
CONTINUOUS
 10
72.782153782
 20
26.2230490108
 11
72.782153782
 21
19.9676311058
  0
LINE
  5
272
100
AcDbEntity
  8
0
100
AcDbLine
 62
2
  6
CONTINUOUS
 10
38.782153782
 20
20.7176311058
 11
55.782153782
 21
20.7176311058
  0
LINE
  5
273
100
AcDbEntity
  8
0
100
AcDbLine
 62
2
  6
CONTINUOUS
 10
72.782153782
 20
20.7176311058
 11
55.782153782
 21
20.7176311058
  0
INSERT
  5
274
100
AcDbEntity
  8
0
100
AcDbBlockReference
 62
2
  6
CONTINUOUS
  2
_CLOSED
 10
38.782153782
 20
20.7176311058
 41
2.5
 42
2.5
 43
2.5
 50
180.0
  0
INSERT
  5
275
100
AcDbEntity
  8
0
100
AcDbBlockReference
 62
2
  6
CONTINUOUS
  2
_CLOSED
 10
72.782153782
 20
20.7176311058
 41
2.5
 42
2.5
 43
2.5
  0
ENDBLK
  5
276
100
AcDbEntity
  8
0
  6
BYBLOCK
 62
0
100
AcDbBlockEnd
  0
BLOCK
  5
277
100
AcDbEntity
  8
0
100
AcDbBlockBegin
 62
2
  6
CONTINUOUS
  2
*D1
 70
65
 10
0.0
 20
0.0
  3
*D1
  1

  0
MTEXT
  5
278
100
AcDbEntity
  8
0
100
AcDbMText
 62
2
  6
CONTINUOUS
  7
STANDARD
 71
2
 72
1
 10
88.3091151455
 20
153.3478907813
 30
0.0
 11
0.0
 21
1.0
 31
0.0
  1
62
 40
3.0
 41
4.6617100372
  0
LINE
  5
279
100
AcDbEntity
  8
0
100
AcDbLine
 62
2
  6
CONTINUOUS
 10
85.3899443002
 20
184.3478908034
 11
92.8091151455
 21
184.3478908034
  0
LINE
  5
27A
100
AcDbEntity
  8
0
100
AcDbLine
 62
2
  6
CONTINUOUS
 10
85.0649617203
 20
122.3478907593
 11
92.8091151455
 21
122.3478907593
  0
LINE
  5
27B
100
AcDbEntity
  8
0
100
AcDbLine
 62
2
  6
CONTINUOUS
 10
92.0591151455
 20
184.3478908034
 11
92.0591151455
 21
153.3478907813
  0
LINE
  5
27C
100
AcDbEntity
  8
0
100
AcDbLine
 62
2
  6
CONTINUOUS
 10
92.0591151455
 20
122.3478907593
 11
92.0591151455
 21
153.3478907813
  0
INSERT
  5
27D
100
AcDbEntity
  8
0
100
AcDbBlockReference
 62
2
  6
CONTINUOUS
  2
_CLOSED
 10
92.0591151455
 20
184.3478908034
 41
2.5
 42
2.5
 43
2.5
 50
90.0
  0
INSERT
  5
27E
100
AcDbEntity
  8
0
100
AcDbBlockReference
 62
2
  6
CONTINUOUS
  2
_CLOSED
 10
92.0591151455
 20
122.3478907593
 41
2.5
 42
2.5
 43
2.5
 50
270.0
  0
ENDBLK
  5
27F
100
AcDbEntity
  8
0
  6
BYBLOCK
 62
0
100
AcDbBlockEnd
  0
BLOCK
  5
280
100
AcDbEntity
  8
0
100
AcDbBlockBegin
 62
2
  6
CONTINUOUS
  2
*D2
 70
65
 10
0.0
 20
0.0
  3
*D2
  1

  0
MTEXT
  5
281
100
AcDbEntity
  8
0
100
AcDbMText
 62
2
  6
CONTINUOUS
  7
STANDARD
 71
2
 72
1
 10
194.2597140792
 20
114.6513681701
 30
0.0
 11
1.0
 21
0.0
 31
0.0
  1
20
 40
3.0
 41
4.6617100372
  0
LINE
  5
282
100
AcDbEntity
  8
0
100
AcDbLine
 62
2
  6
CONTINUOUS
 10
184.2597140792
 20
116.8698302725
 11
184.2597140792
 21
110.1513681701
  0
LINE
  5
283
100
AcDbEntity
  8
0
100
AcDbLine
 62
2
  6
CONTINUOUS
 10
204.2597140792
 20
117.1015980274
 11
204.2597140792
 21
110.1513681701
  0
LINE
  5
284
100
AcDbEntity
  8
0
100
AcDbLine
 62
2
  6
CONTINUOUS
 10
184.2597140792
 20
110.9013681701
 11
194.2597140792
 21
110.9013681701
  0
LINE
  5
285
100
AcDbEntity
  8
0
100
AcDbLine
 62
2
  6
CONTINUOUS
 10
204.2597140792
 20
110.9013681701
 11
194.2597140792
 21
110.9013681701
  0
INSERT
  5
286
100
AcDbEntity
  8
0
100
AcDbBlockReference
 62
2
  6
CONTINUOUS
  2
_CLOSED
 10
184.2597140792
 20
110.9013681701
 41
2.5
 42
2.5
 43
2.5
 50
180.0
  0
INSERT
  5
287
100
AcDbEntity
  8
0
100
AcDbBlockReference
 62
2
  6
CONTINUOUS
  2
_CLOSED
 10
204.2597140792
 20
110.9013681701
 41
2.5
 42
2.5
 43
2.5
  0
ENDBLK
  5
288
100
AcDbEntity
  8
0
  6
BYBLOCK
 62
0
100
AcDbBlockEnd
  0
BLOCK
  5
289
100
AcDbEntity
  8
0
100
AcDbBlockBegin
 62
2
  6
CONTINUOUS
  2
*D3
 70
65
 10
0.0
 20
0.0
  3
*D3
  1

  0
MTEXT
  5
28A
100
AcDbEntity
  8
0
100
AcDbMText
 62
2
  6
CONTINUOUS
  7
STANDARD
 71
2
 72
1
 10
231.9097138806
 20
197.0770244414
 30
0.0
 11
1.0
 21
0.0
 31
0.0
  1
49,3
 40
3.0
 41
8.1524163569
  0
LINE
  5
28B
100
AcDbEntity
  8
0
100
AcDbLine
 62
2
  6
CONTINUOUS
 10
207.2597138806
 20
189.5953781828
 11
207.2597138806
 21
194.0770244414
  0
LINE
  5
28C
100
AcDbEntity
  8
0
100
AcDbLine
 62
2
  6
CONTINUOUS
 10
256.5597138806
 20
189.4332441353
 11
256.5597138806
 21
194.0770244414
  0
LINE
  5
28D
100
AcDbEntity
  8
0
100
AcDbLine
 62
2
  6
CONTINUOUS
 10
207.2597138806
 20
193.3270244414
 11
231.9097138806
 21
193.3270244414
  0
LINE
  5
28E
100
AcDbEntity
  8
0
100
AcDbLine
 62
2
  6
CONTINUOUS
 10
256.5597138806
 20
193.3270244414
 11
231.9097138806
 21
193.3270244414
  0
INSERT
  5
28F
100
AcDbEntity
  8
0
100
AcDbBlockReference
 62
2
  6
CONTINUOUS
  2
_CLOSED
 10
207.2597138806
 20
193.3270244414
 41
2.5
 42
2.5
 43
2.5
 50
180.0
  0
INSERT
  5
290
100
AcDbEntity
  8
0
100
AcDbBlockReference
 62
2
  6
CONTINUOUS
  2
_CLOSED
 10
256.5597138806
 20
193.3270244414
 41
2.5
 42
2.5
 43
2.5
  0
ENDBLK
  5
291
100
AcDbEntity
  8
0
  6
BYBLOCK
 62
0
100
AcDbBlockEnd
  0
ENDSEC
  0
SECTION
  2
ENTITIES
  0
DIMENSION
  5
292
100
AcDbEntity
  8
0
100
AcDbDimension
 62
2
  6
CONTINUOUS
  2
*D0
 10
72.782153782
 20
20.7176311058
 11
55.7796848373
 21
20.7176311058
 70
160
  3
DIMSTYLE_1
100
AcDbAlignedDimension
 13
38.782153782
 23
26.9730490108
 14
72.782153782
 24
26.9730490108
100
AcDbRotatedDimension
  0
DIMENSION
  5
293
100
AcDbEntity
  8
0
100
AcDbDimension
 62
2
  6
CONTINUOUS
  2
*D1
 10
92.0591151455
 20
122.3478907593
 11
92.0591151455
 21
153.31196441
 70
160
  3
DIMSTYLE_1
100
AcDbAlignedDimension
 13
84.6399443002
 23
184.3478908034
 14
84.3149617203
 24
122.3478907593
 50
270.0
100
AcDbRotatedDimension
  0
DIMENSION
  5
294
100
AcDbEntity
  8
0
100
AcDbDimension
 62
2
  6
CONTINUOUS
  2
*D2
 10
204.2597140792
 20
110.9013681701
 11
194.2237880859
 21
110.9013681701
 70
160
  3
DIMSTYLE_2
100
AcDbAlignedDimension
 13
184.2597140792
 23
117.6198302725
 14
204.2597140792
 24
117.8515980274
100
AcDbRotatedDimension
  0
DIMENSION
  5
295
100
AcDbEntity
  8
0
100
AcDbDimension
 62
2
  6
CONTINUOUS
  2
*D3
 10
256.5597138806
 20
193.3270244414
 11
231.833325531
 21
193.3270244414
 70
160
  3
DIMSTYLE_1
100
AcDbAlignedDimension
 13
207.2597138806
 23
188.8453781828
 14
256.5597138806
 24
188.6832441353
100
AcDbRotatedDimension
  0
LINE
  5
296
100
AcDbEntity
  8
0
100
AcDbLine
 62
2
  6
CONTINUOUS
 10
193.7904134944
 20
53.1725198453
 11
283.7904134944
 21
53.1725198453
  0
LINE
  5
297
100
AcDbEntity
  8
0
100
AcDbLine
 62
2
  6
CONTINUOUS
 10
193.7904134944
 20
53.1725198453
 11
193.7904134944
 21
13.1725198453
  0
LINE
  5
298
100
AcDbEntity
  8
0
100
AcDbLine
 62
2
  6
CONTINUOUS
 10
223.7904134944
 20
47.1725198453
 11
283.7904134944
 21
47.1725198453
  0
LINE
  5
299
100
AcDbEntity
  8
0
100
AcDbLine
 62
2
  6
CONTINUOUS
 10
223.7904134944
 20
41.1725198453
 11
283.7904134944
 21
41.1725198453
  0
LINE
  5
29A
100
AcDbEntity
  8
0
100
AcDbLine
 62
2
  6
CONTINUOUS
 10
223.7904134944
 20
31.1725198453
 11
283.7904134944
 21
31.1725198453
  0
LINE
  5
29B
100
AcDbEntity
  8
0
100
AcDbLine
 62
2
  6
CONTINUOUS
 10
193.7904134944
 20
26.1725198453
 11
283.7904134944
 21
26.1725198453
  0
LINE
  5
29C
100
AcDbEntity
  8
0
100
AcDbLine
 62
2
  6
CONTINUOUS
 10
193.7904134944
 20
13.1725198453
 11
283.7904134944
 21
13.1725198453
  0
LINE
  5
29D
100
AcDbEntity
  8
0
100
AcDbLine
 62
2
  6
CONTINUOUS
 10
223.7904134944
 20
53.1725198453
 11
223.7904134944
 21
26.1725198453
  0
LINE
  5
29E
100
AcDbEntity
  8
0
100
AcDbLine
 62
2
  6
CONTINUOUS
 10
263.7904134944
 20
53.1725198453
 11
263.7904134944
 21
41.1725198453
  0
LINE
  5
29F
100
AcDbEntity
  8
0
100
AcDbLine
 62
2
  6
CONTINUOUS
 10
283.7904134944
 20
53.1725198453
 11
283.7904134944
 21
13.1725198453
  0
INSERT
  5
2A0
100
AcDbEntity
  8
0
100
AcDbBlockReference
 62
2
  6
CONTINUOUS
  2
LOGO2_BL0
 10
207.6164605391
 20
39.6725198453
  0
MTEXT
  5
2A1
100
AcDbEntity
  8
9_SOLID
100
AcDbMText
 62
2
  6
CONTINUOUS
  7
TEXTSTYLE_2
 71
1
 72
1
 10
225.2779134944
 20
51.6725198453
 30
0.0
 11
1.0
 21
0.0
 31
0.0
  1
451_C_100
 40
3.0
 41
30.6428571429
  0
MTEXT
  5
2A2
100
AcDbEntity
  8
0
100
AcDbMText
 62
2
  6
CONTINUOUS
  7
TEXTSTYLE_2
 71
1
 72
1
 10
265.2779134944
 20
51.9225198453
 30
0.0
 11
1.0
 21
0.0
 31
0.0
  1
Rev:00
 40
3.5
 41
22.75
  0
MTEXT
  5
2A3
100
AcDbEntity
  8
9_SOLID
100
AcDbMText
 62
2
  6
CONTINUOUS
  7
TEXTSTYLE_2
 71
1
 72
1
 10
225.2779134944
 20
45.4225198453
 30
0.0
 11
1.0
 21
0.0
 31
0.0
  1
Scale:1:1
 40
3.5
 41
28.375
  0
MTEXT
  5
2A4
100
AcDbEntity
  8
9_SOLID
100
AcDbMText
 62
2
  6
CONTINUOUS
  7
TEXTSTYLE_2
 71
1
 72
1
 10
265.2779134944
 20
45.9225198453
 30
0.0
 11
1.0
 21
0.0
 31
0.0
  1
A4
 40
3.5
 41
9.625
  0
MTEXT
  5
2A5
100
AcDbEntity
  8
0
100
AcDbMText
 62
2
  6
CONTINUOUS
  7
TEXTSTYLE_2
 71
1
 72
1
 10
225.2779134944
 20
37.9225198453
 30
0.0
 11
1.0
 21
0.0
 31
0.0
  1
Ginko 1.0
 40
3.5
 41
33.375
  0
MTEXT
  5
2A6
100
AcDbEntity
  8
0
100
AcDbMText
 62
2
  6
CONTINUOUS
  7
TEXTSTYLE_2
 71
1
 72
1
 10
225.2779134944
 20
29.9225198453
 30
0.0
 11
1.0
 21
0.0
 31
0.0
  1
DATE:12/06/2018
 40
2.5
 41
42.2321428571
  0
MTEXT
  5
2A7
100
AcDbEntity
  8
9_SOLID
100
AcDbMText
 62
2
  6
CONTINUOUS
  7
TEXTSTYLE_2
 71
1
 72
1
 10
195.2779134944
 20
25.8600198453
 30
0.0
 11
1.0
 21
0.0
 31
0.0
  1
Any integral or partial reproductions are prohibited \Pwithout prior authorisation of L {\Ftxt.shx;\W0.190476;\H2.250000; }& L Luce & Light s.r.l., \Pin accordance with the law in force. \PAll rights reserved.
 40
2.25
 41
134.5982142857
  0
LWPOLYLINE
  5
2A8
100
AcDbEntity
  8
0
100
AcDbPolyline
 62
7
  6
CONTINUOUS
 90
2
 70
0
 43
0.100000004
 10
10.0
 20
10.0
 10
10.0
 20
200.0
  0
LWPOLYLINE
  5
2A9
100
AcDbEntity
  8
0
100
AcDbPolyline
 62
7
  6
CONTINUOUS
 90
2
 70
0
 43
0.100000004
 10
10.0
 20
10.0
 10
287.0
 20
10.0
  0
LWPOLYLINE
  5
2AA
100
AcDbEntity
  8
0
100
AcDbPolyline
 62
7
  6
CONTINUOUS
 90
2
 70
0
 43
0.100000004
 10
10.0
 20
200.0
 10
287.0
 20
200.0
  0
LWPOLYLINE
  5
2AB
100
AcDbEntity
  8
0
100
AcDbPolyline
 62
7
  6
CONTINUOUS
 90
2
 70
0
 43
0.100000004
 10
287.0
 20
10.0
 10
287.0
 20
200.0
  0
LINE
  5
2AC
100
AcDbEntity
  8
7_ALL_FEATURES
100
AcDbLine
 62
7
  6
CONTINUOUS
 10
46.032153782
 20
122.3478907372
 11
70.282153782
 21
122.3478907593
  0
LINE
  5
2AD
100
AcDbEntity
  8
7_ALL_FEATURES
100
AcDbLine
 62
3
  6
CONTINUOUS
 10
46.032153782
 20
123.8478907372
 11
70.282153782
 21
123.8478907593
  0
LINE
  5
2AE
100
AcDbEntity
  8
7_ALL_FEATURES
100
AcDbLine
 62
9
  6
CONTINUOUS
 10
73.282153782
 20
125.3478907593
 11
71.782153782
 21
125.3478907593
  0
LINE
  5
2AF
100
AcDbEntity
  8
7_ALL_FEATURES
100
AcDbLine
 62
9
  6
CONTINUOUS
 10
73.282153782
 20
125.6006357525
 11
71.782153782
 21
125.6006357525
  0
LINE
  5
2B0
100
AcDbEntity
  8
7_ALL_FEATURES
100
AcDbLine
 62
9
  6
CONTINUOUS
 10
73.282153782
 20
127.0624942771
 11
71.782153782
 21
127.0624942771
  0
LINE
  5
2B1
100
AcDbEntity
  8
7_ALL_FEATURES
100
AcDbLine
 62
7
  6
CONTINUOUS
 10
46.032153782
 20
122.3478907372
 11
46.032153782
 21
123.8478907372
  0
LINE
  5
2B2
100
AcDbEntity
  8
7_ALL_FEATURES
100
AcDbLine
 62
9
  6
CONTINUOUS
 10
51.032153782
 20
122.3478907593
 11
51.032153782
 21
123.8478907593
  0
LINE
  5
2B3
100
AcDbEntity
  8
7_ALL_FEATURES
100
AcDbLine
 62
7
  6
CONTINUOUS
 10
73.282153782
 20
159.851834389
 11
71.782153782
 21
159.851834389
  0
LINE
  5
2B4
100
AcDbEntity
  8
7_ALL_FEATURES
100
AcDbLine
 62
7
  6
CONTINUOUS
 10
71.782153782
 20
161.3547977137
 11
73.282153782
 21
161.3547977137
  0
LINE
  5
2B5
100
AcDbEntity
  8
7_ALL_FEATURES
100
AcDbLine
 62
7
  6
CONTINUOUS
 10
71.8739720428
 20
161.8665114318
 11
73.282153782
 21
161.8665114318
  0
LINE
  5
2B6
100
AcDbEntity
  8
7_ALL_FEATURES
100
AcDbLine
 62
7
  6
CONTINUOUS
 10
71.9928536737
 20
162.2288596753
 11
73.282153782
 21
162.2288596753
  0
LINE
  5
2B7
100
AcDbEntity
  8
3_ALL_AXES
100
AcDbLine
 62
7
  6
CONTINUOUS
 10
74.382153782
 20
162.3478908034
 11
73.382153782
 21
162.3478908034
  0
LINE
  5
2B8
100
AcDbEntity
  8
3_ALL_AXES
100
AcDbLine
 62
7
  6
CONTINUOUS
 10
74.782153782
 20
162.5978908034
 11
74.382153782
 21
162.5978908034
  0
LINE
  5
2B9
100
AcDbEntity
  8
7_ALL_FEATURES
100
AcDbLine
 62
7
  6
CONTINUOUS
 10
72.1728054623
 20
162.8386963363
 11
73.282153782
 21
162.8386963363
  0
LINE
  5
2BA
100
AcDbEntity
  8
7_ALL_FEATURES
100
AcDbLine
 62
7
  6
CONTINUOUS
 10
72.2825717718
 20
163.2584608074
 11
73.282153782
 21
163.2584608074
  0
LINE
  5
2BB
100
AcDbEntity
  8
7_ALL_FEATURES
100
AcDbLine
 62
9
  6
CONTINUOUS
 10
70.282153782
 20
122.3478907593
 11
70.282153782
 21
123.8478907593
  0
LINE
  5
2BC
100
AcDbEntity
  8
7_ALL_FEATURES
100
AcDbLine
 62
7
  6
CONTINUOUS
 10
72.438293607
 20
163.9478908329
 11
73.282153782
 21
163.9478908329
  0
LINE
  5
2BD
100
AcDbEntity
  8
7_ALL_FEATURES
100
AcDbLine
 62
7
  6
CONTINUOUS
 10
72.5263824229
 20
164.4123172005
 11
73.282153782
 21
164.4123172005
  0
LINE
  5
2BE
100
AcDbEntity
  8
7_ALL_FEATURES
100
AcDbLine
 62
7
  6
CONTINUOUS
 10
73.382153782
 20
164.8478908034
 11
73.282153782
 21
164.8478908034
  0
LINE
  5
2BF
100
AcDbEntity
  8
7_ALL_FEATURES
100
AcDbLine
 62
7
  6
CONTINUOUS
 10
72.6222501051
 20
165.022153857
 11
73.282153782
 21
165.022153857
  0
LINE
  5
2C0
100
AcDbEntity
  8
7_ALL_FEATURES
100
AcDbLine
 62
7
  6
CONTINUOUS
 10
72.6404495819
 20
165.1603926081
 11
73.282153782
 21
165.1603926081
  0
LINE
  5
2C1
100
AcDbEntity
  8
7_ALL_FEATURES
100
AcDbLine
 62
7
  6
CONTINUOUS
 10
72.6973963425
 20
165.6553695121
 11
73.282153782
 21
165.6553695121
  0
LINE
  5
2C2
100
AcDbEntity
  8
7_ALL_FEATURES
100
AcDbLine
 62
3
  6
CONTINUOUS
 10
71.782153782
 20
174.8373208289
 11
71.782153782
 21
173.0923770487
  0
LINE
  5
2C3
100
AcDbEntity
  8
7_ALL_FEATURES
100
AcDbLine
 62
3
  6
CONTINUOUS
 10
71.782153782
 20
125.3478907593
 11
71.782153782
 21
161.6034045581
  0
LINE
  5
2C4
100
AcDbEntity
  8
7_ALL_FEATURES
100
AcDbLine
 62
7
  6
CONTINUOUS
 10
72.7410255656
 20
166.1670832248
 11
73.282153782
 21
166.1670832248
  0
LINE
  5
2C5
100
AcDbEntity
  8
7_ALL_FEATURES
100
AcDbLine
 62
7
  6
CONTINUOUS
 10
72.7576890862
 20
166.439360409
 11
73.282153782
 21
166.439360409
  0
LINE
  5
2C6
100
AcDbEntity
  8
7_ALL_FEATURES
100
AcDbLine
 62
7
  6
CONTINUOUS
 10
72.7771538743
 20
166.9498482266
 11
73.282153782
 21
166.9498482266
  0
LINE
  5
2C7
100
AcDbEntity
  8
7_ALL_FEATURES
100
AcDbLine
 62
7
  6
CONTINUOUS
 10
72.7821537818
 20
167.3478908334
 11
73.282153782
 21
167.3478908334
  0
LINE
  5
2C8
100
AcDbEntity
  8
7_ALL_FEATURES
100
AcDbLine
 62
7
  6
CONTINUOUS
 10
72.777153873
 20
167.7459334462
 11
73.282153782
 21
167.7459334462
  0
LINE
  5
2C9
100
AcDbEntity
  8
7_ALL_FEATURES
100
AcDbLine
 62
7
  6
CONTINUOUS
 10
73.282153782
 20
174.8373208289
 11
73.282153782
 21
125.3478907593
  0
LINE
  5
2CA
100
AcDbEntity
  8
3_ALL_AXES
100
AcDbLine
 62
7
  6
CONTINUOUS
 10
73.382153782
 20
162.3478908034
 11
73.382153782
 21
172.3478908034
  0
LINE
  5
2CB
100
AcDbEntity
  8
3_ALL_AXES
100
AcDbLine
 62
7
  6
CONTINUOUS
 10
74.382153782
 20
162.3478908034
 11
74.382153782
 21
172.3478908034
  0
LINE
  5
2CC
100
AcDbEntity
  8
3_ALL_AXES
100
AcDbLine
 62
7
  6
CONTINUOUS
 10
74.782153782
 20
172.0978908034
 11
74.782153782
 21
162.5978908034
  0
LINE
  5
2CD
100
AcDbEntity
  8
7_ALL_FEATURES
100
AcDbLine
 62
7
  6
CONTINUOUS
 10
72.7576890831
 20
168.2564212635
 11
73.282153782
 21
168.2564212635
  0
LINE
  5
2CE
100
AcDbEntity
  8
7_ALL_FEATURES
100
AcDbLine
 62
7
  6
CONTINUOUS
 10
72.7410255612
 20
168.5286984411
 11
73.282153782
 21
168.5286984411
  0
LINE
  5
2CF
100
AcDbEntity
  8
7_ALL_FEATURES
100
AcDbLine
 62
7
  6
CONTINUOUS
 10
72.6973963358
 20
169.0404121592
 11
73.282153782
 21
169.0404121592
  0
LINE
  5
2D0
100
AcDbEntity
  8
7_ALL_FEATURES
100
AcDbLine
 62
7
  6
CONTINUOUS
 10
72.6404495736
 20
169.535389062
 11
73.282153782
 21
169.535389062
  0
LINE
  5
2D1
100
AcDbEntity
  8
7_ALL_FEATURES
100
AcDbLine
 62
7
  6
CONTINUOUS
 10
72.6222500976
 20
169.6736278062
 11
73.282153782
 21
169.6736278062
  0
LINE
  5
2D2
100
AcDbEntity
  8
7_ALL_FEATURES
100
AcDbLine
 62
7
  6
CONTINUOUS
 10
73.382153782
 20
169.8478908034
 11
73.282153782
 21
169.8478908034
  0
LINE
  5
2D3
100
AcDbEntity
  8
7_ALL_FEATURES
100
AcDbLine
 62
7
  6
CONTINUOUS
 10
72.5263824123
 20
170.2834644672
 11
73.282153782
 21
170.2834644672
  0
LINE
  5
2D4
100
AcDbEntity
  8
3_ALL_AXES
100
AcDbLine
 62
7
  6
CONTINUOUS
 10
77.032153782
 20
169.5978908034
 11
77.032153782
 21
165.0978908034
  0
LINE
  5
2D5
100
AcDbEntity
  8
7_ALL_FEATURES
100
AcDbLine
 62
7
  6
CONTINUOUS
 10
72.4382935951
 20
170.7478908329
 11
73.282153782
 21
170.7478908329
  0
LINE
  5
2D6
100
AcDbEntity
  8
7_ALL_FEATURES
100
AcDbLine
 62
7
  6
CONTINUOUS
 10
72.2825717581
 20
171.4373208549
 11
73.282153782
 21
171.4373208549
  0
LINE
  5
2D7
100
AcDbEntity
  8
7_ALL_FEATURES
100
AcDbLine
 62
7
  6
CONTINUOUS
 10
72.1728054478
 20
171.8570853233
 11
73.282153782
 21
171.8570853233
  0
LINE
  5
2D8
100
AcDbEntity
  8
3_ALL_AXES
100
AcDbLine
 62
7
  6
CONTINUOUS
 10
74.782153782
 20
172.0978908034
 11
74.382153782
 21
172.0978908034
  0
LINE
  5
2D9
100
AcDbEntity
  8
3_ALL_AXES
100
AcDbLine
 62
7
  6
CONTINUOUS
 10
74.382153782
 20
172.3478908034
 11
73.382153782
 21
172.3478908034
  0
LINE
  5
2DA
100
AcDbEntity
  8
7_ALL_FEATURES
100
AcDbLine
 62
7
  6
CONTINUOUS
 10
71.9928536582
 20
172.4669219798
 11
73.282153782
 21
172.4669219798
  0
LINE
  5
2DB
100
AcDbEntity
  8
7_ALL_FEATURES
100
AcDbLine
 62
7
  6
CONTINUOUS
 10
71.8739720277
 20
172.8292702201
 11
73.282153782
 21
172.8292702201
  0
LINE
  5
2DC
100
AcDbEntity
  8
7_ALL_FEATURES
100
AcDbLine
 62
7
  6
CONTINUOUS
 10
71.782153782
 20
173.3409839328
 11
73.282153782
 21
173.3409839328
  0
LINE
  5
2DD
100
AcDbEntity
  8
7_ALL_FEATURES
100
AcDbLine
 62
7
  6
CONTINUOUS
 10
71.782153782
 20
173.634906177
 11
73.282153782
 21
173.634906177
  0
LINE
  5
2DE
100
AcDbEntity
  8
7_ALL_FEATURES
100
AcDbLine
 62
7
  6
CONTINUOUS
 10
71.782153782
 20
174.0329487837
 11
73.282153782
 21
174.0329487837
  0
LINE
  5
2DF
100
AcDbEntity
  8
7_ALL_FEATURES
100
AcDbLine
 62
7
  6
CONTINUOUS
 10
71.782153782
 20
174.2495143531
 11
73.282153782
 21
174.2495143531
  0
LINE
  5
2E0
100
AcDbEntity
  8
7_ALL_FEATURES
100
AcDbLine
 62
7
  6
CONTINUOUS
 10
71.782153782
 20
174.5217915307
 11
73.282153782
 21
174.5217915307
  0
LINE
  5
2E1
100
AcDbEntity
  8
7_ALL_FEATURES
100
AcDbLine
 62
7
  6
CONTINUOUS
 10
71.782153782
 20
174.6544201901
 11
73.282153782
 21
174.6544201901
  0
LINE
  5
2E2
100
AcDbEntity
  8
7_ALL_FEATURES
100
AcDbLine
 62
7
  6
CONTINUOUS
 10
71.782153782
 20
174.7926589343
 11
73.282153782
 21
174.7926589343
  0
LINE
  5
2E3
100
AcDbEntity
  8
7_ALL_FEATURES
100
AcDbLine
 62
7
  6
CONTINUOUS
 10
71.782153782
 20
174.8373208289
 11
73.282153782
 21
174.8373208289
  0
LINE
  5
2E4
100
AcDbEntity
  8
7_ALL_FEATURES
100
AcDbLine
 62
7
  6
CONTINUOUS
 10
39.082153782
 20
31.9602489049
 11
38.782153782
 21
32.2602489049
  0
LINE
  5
2E5
100
AcDbEntity
  8
7_ALL_FEATURES
100
AcDbLine
 62
7
  6
CONTINUOUS
 10
39.082153782
 20
31.9602489049
 11
72.482153782
 21
31.9602489049
  0
LINE
  5
2E6
100
AcDbEntity
  8
7_ALL_FEATURES
100
AcDbLine
 62
7
  6
CONTINUOUS
 10
38.782153782
 20
32.2602489049
 11
72.782153782
 21
32.2602489049
  0
LINE
  5
2E7
100
AcDbEntity
  8
7_ALL_FEATURES
100
AcDbLine
 62
7
  6
CONTINUOUS
 10
39.2821567135
 20
81.2602489049
 11
38.782153782
 21
80.7602458846
  0
LINE
  5
2E8
100
AcDbEntity
  8
02___PRT_ALL_AXES
100
AcDbLine
 62
7
  6
CONTINUOUS
 10
38.782153782
 20
80.7602458846
 11
38.782153782
 21
61.260248921
  0
LINE
  5
2E9
100
AcDbEntity
  8
02___PRT_ALL_AXES
100
AcDbLine
 62
7
  6
CONTINUOUS
 10
38.782153782
 20
60.4602489049
 11
38.782153782
 21
32.2602489049
  0
LINE
  5
2EA
100
AcDbEntity
  8
7_ALL_FEATURES
100
AcDbLine
 62
7
  6
CONTINUOUS
 10
38.7821537908
 20
61.2602489129
 11
39.2821537916
 21
60.7602489127
  0
LINE
  5
2EB
100
AcDbEntity
  8
7_ALL_FEATURES
100
AcDbLine
 62
3
  6
CONTINUOUS
 10
46.032153782
 20
99.260248713
 11
46.032153782
 21
89.260248713
  0
LINE
  5
2EC
100
AcDbEntity
  8
7_ALL_FEATURES
100
AcDbLine
 62
7
  6
CONTINUOUS
 10
39.082153782
 20
60.7602489049
 11
38.782153782
 21
60.4602489049
  0
LINE
  5
2ED
100
AcDbEntity
  8
7_ALL_FEATURES
100
AcDbLine
 62
7
  6
CONTINUOUS
 10
38.782153782
 20
60.4602489049
 11
72.782153782
 21
60.4602489049
  0
LINE
  5
2EE
100
AcDbEntity
  8
7_ALL_FEATURES
100
AcDbLine
 62
7
  6
CONTINUOUS
 10
39.082153782
 20
60.7602489049
 11
72.482153782
 21
60.7602489049
  0
LINE
  5
2EF
100
AcDbEntity
  8
7_ALL_FEATURES
100
AcDbLine
 62
7
  6
CONTINUOUS
 10
38.7821537828
 20
61.2602489049
 11
72.7793601371
 21
61.2602489049
  0
LINE
  5
2F0
100
AcDbEntity
  8
7_ALL_FEATURES
100
AcDbLine
 62
7
  6
CONTINUOUS
 10
72.7793601371
 20
66.2602489049
 11
70.782153782
 21
66.2602489049
  0
LINE
  5
2F1
100
AcDbEntity
  8
7_ALL_FEATURES
100
AcDbLine
 62
7
  6
CONTINUOUS
 10
71.782153782
 20
66.7708188829
 11
73.282153782
 21
66.7708188829
  0
LINE
  5
2F2
100
AcDbEntity
  8
7_ALL_FEATURES
100
AcDbLine
 62
7
  6
CONTINUOUS
 10
71.782153782
 20
66.8154807821
 11
73.282153782
 21
66.8154807821
  0
LINE
  5
2F3
100
AcDbEntity
  8
7_ALL_FEATURES
100
AcDbLine
 62
7
  6
CONTINUOUS
 10
71.782153782
 20
66.9537195332
 11
73.282153782
 21
66.9537195332
  0
LINE
  5
2F4
100
AcDbEntity
  8
7_ALL_FEATURES
100
AcDbLine
 62
7
  6
CONTINUOUS
 10
71.782153782
 20
67.0863481969
 11
73.282153782
 21
67.0863481969
  0
LINE
  5
2F5
100
AcDbEntity
  8
7_ALL_FEATURES
100
AcDbLine
 62
7
  6
CONTINUOUS
 10
71.782153782
 20
67.3586253811
 11
73.282153782
 21
67.3586253811
  0
LINE
  5
2F6
100
AcDbEntity
  8
7_ALL_FEATURES
100
AcDbLine
 62
7
  6
CONTINUOUS
 10
71.782153782
 20
67.5751909546
 11
73.282153782
 21
67.5751909546
  0
LINE
  5
2F7
100
AcDbEntity
  8
7_ALL_FEATURES
100
AcDbLine
 62
7
  6
CONTINUOUS
 10
71.782153782
 20
67.9732335674
 11
73.282153782
 21
67.9732335674
  0
LINE
  5
2F8
100
AcDbEntity
  8
7_ALL_FEATURES
100
AcDbLine
 62
7
  6
CONTINUOUS
 10
71.782153782
 20
68.2671558153
 11
73.282153782
 21
68.2671558153
  0
LINE
  5
2F9
100
AcDbEntity
  8
7_ALL_FEATURES
100
AcDbLine
 62
7
  6
CONTINUOUS
 10
71.782153782
 20
68.7788695334
 11
73.282153782
 21
68.7788695334
  0
LINE
  5
2FA
100
AcDbEntity
  8
7_ALL_FEATURES
100
AcDbLine
 62
7
  6
CONTINUOUS
 10
71.782153782
 20
69.1412177769
 11
73.282153782
 21
69.1412177769
  0
LINE
  5
2FB
100
AcDbEntity
  8
3_ALL_AXES
100
AcDbLine
 62
7
  6
CONTINUOUS
 10
74.382153782
 20
69.2602489049
 11
73.382153782
 21
69.2602489049
  0
LINE
  5
2FC
100
AcDbEntity
  8
3_ALL_AXES
100
AcDbLine
 62
7
  6
CONTINUOUS
 10
71.782153782
 20
69.2602489049
 11
70.782153782
 21
69.2602489049
  0
LINE
  5
2FD
100
AcDbEntity
  8
3_ALL_AXES
100
AcDbLine
 62
7
  6
CONTINUOUS
 10
74.382153782
 20
69.5102489049
 11
74.782153782
 21
69.5102489049
  0
LINE
  5
2FE
100
AcDbEntity
  8
7_ALL_FEATURES
100
AcDbLine
 62
7
  6
CONTINUOUS
 10
71.782153782
 20
69.7510544379
 11
73.282153782
 21
69.7510544379
  0
LINE
  5
2FF
100
AcDbEntity
  8
7_ALL_FEATURES
100
AcDbLine
 62
7
  6
CONTINUOUS
 10
71.782153782
 20
70.1708189089
 11
73.282153782
 21
70.1708189089
  0
LINE
  5
300
100
AcDbEntity
  8
7_ALL_FEATURES
100
AcDbLine
 62
7
  6
CONTINUOUS
 10
71.782153782
 20
70.8602489344
 11
73.282153782
 21
70.8602489344
  0
LINE
  5
301
100
AcDbEntity
  8
7_ALL_FEATURES
100
AcDbLine
 62
7
  6
CONTINUOUS
 10
71.782153782
 20
71.324675302
 11
73.282153782
 21
71.324675302
  0
LINE
  5
302
100
AcDbEntity
  8
3_ALL_AXES
100
AcDbLine
 62
7
  6
CONTINUOUS
 10
73.282153782
 20
71.7602489049
 11
73.382153782
 21
71.7602489049
  0
LINE
  5
303
100
AcDbEntity
  8
7_ALL_FEATURES
100
AcDbLine
 62
7
  6
CONTINUOUS
 10
71.782153782
 20
71.9345119585
 11
73.282153782
 21
71.9345119585
  0
LINE
  5
304
100
AcDbEntity
  8
7_ALL_FEATURES
100
AcDbLine
 62
7
  6
CONTINUOUS
 10
71.782153782
 20
72.0727507096
 11
73.282153782
 21
72.0727507096
  0
LINE
  5
305
100
AcDbEntity
  8
7_ALL_FEATURES
100
AcDbLine
 62
7
  6
CONTINUOUS
 10
71.782153782
 20
72.5677276136
 11
73.282153782
 21
72.5677276136
  0
LINE
  5
306
100
AcDbEntity
  8
7_ALL_FEATURES
100
AcDbLine
 62
7
  6
CONTINUOUS
 10
71.782153782
 20
73.0794413263
 11
73.282153782
 21
73.0794413263
  0
LINE
  5
307
100
AcDbEntity
  8
7_ALL_FEATURES
100
AcDbLine
 62
7
  6
CONTINUOUS
 10
71.782153782
 20
73.3517185106
 11
73.282153782
 21
73.3517185106
  0
LINE
  5
308
100
AcDbEntity
  8
7_ALL_FEATURES
100
AcDbLine
 62
7
  6
CONTINUOUS
 10
71.782153782
 20
73.8622063282
 11
73.282153782
 21
73.8622063282
  0
LINE
  5
309
100
AcDbEntity
  8
7_ALL_FEATURES
100
AcDbLine
 62
7
  6
CONTINUOUS
 10
72.482153782
 20
60.7602489049
 11
72.782153782
 21
60.4602489049
  0
LINE
  5
30A
100
AcDbEntity
  8
7_ALL_FEATURES
100
AcDbLine
 62
7
  6
CONTINUOUS
 10
71.782153782
 20
74.2602489349
 11
73.282153782
 21
74.2602489349
  0
LINE
  5
30B
100
AcDbEntity
  8
7_ALL_FEATURES
100
AcDbLine
 62
7
  6
CONTINUOUS
 10
71.782153782
 20
74.6582915478
 11
73.282153782
 21
74.6582915478
  0
LINE
  5
30C
100
AcDbEntity
  8
7_ALL_FEATURES
100
AcDbLine
 62
7
  6
CONTINUOUS
 10
71.782153782
 20
75.168779365
 11
73.282153782
 21
75.168779365
  0
LINE
  5
30D
100
AcDbEntity
  8
7_ALL_FEATURES
100
AcDbLine
 62
7
  6
CONTINUOUS
 10
71.782153782
 20
75.4410565426
 11
73.282153782
 21
75.4410565426
  0
LINE
  5
30E
100
AcDbEntity
  8
7_ALL_FEATURES
100
AcDbLine
 62
7
  6
CONTINUOUS
 10
71.782153782
 20
75.9527702607
 11
73.282153782
 21
75.9527702607
  0
LINE
  5
30F
100
AcDbEntity
  8
7_ALL_FEATURES
100
AcDbLine
 62
7
  6
CONTINUOUS
 10
71.782153782
 20
76.4477471636
 11
73.282153782
 21
76.4477471636
  0
LINE
  5
310
100
AcDbEntity
  8
7_ALL_FEATURES
100
AcDbLine
 62
7
  6
CONTINUOUS
 10
71.782153782
 20
76.5859859077
 11
73.282153782
 21
76.5859859077
  0
LINE
  5
311
100
AcDbEntity
  8
3_ALL_AXES
100
AcDbLine
 62
7
  6
CONTINUOUS
 10
73.282153782
 20
76.7602489049
 11
73.382153782
 21
76.7602489049
  0
LINE
  5
312
100
AcDbEntity
  8
7_ALL_FEATURES
100
AcDbLine
 62
7
  6
CONTINUOUS
 10
71.782153782
 20
77.1958225687
 11
73.282153782
 21
77.1958225687
  0
LINE
  5
313
100
AcDbEntity
  8
7_ALL_FEATURES
100
AcDbLine
 62
7
  6
CONTINUOUS
 10
71.782153782
 20
77.6602489344
 11
73.282153782
 21
77.6602489344
  0
LINE
  5
314
100
AcDbEntity
  8
7_ALL_FEATURES
100
AcDbLine
 62
7
  6
CONTINUOUS
 10
71.782153782
 20
78.3496789564
 11
73.282153782
 21
78.3496789564
  0
LINE
  5
315
100
AcDbEntity
  8
7_ALL_FEATURES
100
AcDbLine
 62
7
  6
CONTINUOUS
 10
71.782153782
 20
78.7694434249
 11
73.282153782
 21
78.7694434249
  0
LINE
  5
316
100
AcDbEntity
  8
3_ALL_AXES
100
AcDbLine
 62
7
  6
CONTINUOUS
 10
74.382153782
 20
79.0102489049
 11
74.782153782
 21
79.0102489049
  0
LINE
  5
317
100
AcDbEntity
  8
3_ALL_AXES
100
AcDbLine
 62
7
  6
CONTINUOUS
 10
74.382153782
 20
79.2602489049
 11
73.382153782
 21
79.2602489049
  0
LINE
  5
318
100
AcDbEntity
  8
3_ALL_AXES
100
AcDbLine
 62
7
  6
CONTINUOUS
 10
71.782153782
 20
79.2602489049
 11
70.782153782
 21
79.2602489049
  0
LINE
  5
319
100
AcDbEntity
  8
7_ALL_FEATURES
100
AcDbLine
 62
7
  6
CONTINUOUS
 10
71.782153782
 20
79.3792800814
 11
73.282153782
 21
79.3792800814
  0
LINE
  5
31A
100
AcDbEntity
  8
7_ALL_FEATURES
100
AcDbLine
 62
9
  6
CONTINUOUS
 10
70.282153782
 20
84.260248713
 11
70.282153782
 21
104.260248713
  0
LINE
  5
31B
100
AcDbEntity
  8
7_ALL_FEATURES
100
AcDbLine
 62
7
  6
CONTINUOUS
 10
70.782153782
 20
81.2602489049
 11
70.782153782
 21
66.2602489049
  0
LINE
  5
31C
100
AcDbEntity
  8
7_ALL_FEATURES
100
AcDbLine
 62
3
  6
CONTINUOUS
 10
71.782153782
 20
66.7708188829
 11
71.782153782
 21
104.2548206599
  0
LINE
  5
31D
100
AcDbEntity
  8
7_ALL_FEATURES
100
AcDbLine
 62
7
  6
CONTINUOUS
 10
71.782153782
 20
79.7416283216
 11
73.282153782
 21
79.7416283216
  0
LINE
  5
31E
100
AcDbEntity
  8
7_ALL_FEATURES
100
AcDbLine
 62
7
  6
CONTINUOUS
 10
71.782153782
 20
80.2533420344
 11
73.282153782
 21
80.2533420344
  0
LINE
  5
31F
100
AcDbEntity
  8
7_ALL_FEATURES
100
AcDbLine
 62
7
  6
CONTINUOUS
 10
38.782153782
 20
80.7602458846
 11
70.782153782
 21
80.7602458846
  0
LINE
  5
320
100
AcDbEntity
  8
7_ALL_FEATURES
100
AcDbLine
 62
9
  6
CONTINUOUS
 10
73.282153782
 20
80.9004731798
 11
71.782153782
 21
80.9004731798
  0
LINE
  5
321
100
AcDbEntity
  8
7_ALL_FEATURES
100
AcDbLine
 62
7
  6
CONTINUOUS
 10
39.2821567136
 20
81.2602489049
 11
70.782153782
 21
81.2602489049
  0
LINE
  5
322
100
AcDbEntity
  8
7_ALL_FEATURES
100
AcDbLine
 62
7
  6
CONTINUOUS
 10
72.7793601371
 20
66.2602489049
 11
72.7793601371
 21
61.2602489049
  0
LINE
  5
323
100
AcDbEntity
  8
02___PRT_ALL_AXES
100
AcDbLine
 62
7
  6
CONTINUOUS
 10
72.782153782
 20
60.4602489049
 11
72.782153782
 21
32.2602489049
  0
LINE
  5
324
100
AcDbEntity
  8
7_ALL_FEATURES
100
AcDbLine
 62
7
  6
CONTINUOUS
 10
73.282153782
 20
104.2548206599
 11
73.282153782
 21
66.7708188829
  0
LINE
  5
325
100
AcDbEntity
  8
3_ALL_AXES
100
AcDbLine
 62
7
  6
CONTINUOUS
 10
73.382153782
 20
69.2602489049
 11
73.382153782
 21
79.2602489049
  0
LINE
  5
326
100
AcDbEntity
  8
3_ALL_AXES
100
AcDbLine
 62
7
  6
CONTINUOUS
 10
74.382153782
 20
69.2602489049
 11
74.382153782
 21
79.2602489049
  0
LINE
  5
327
100
AcDbEntity
  8
7_ALL_FEATURES
100
AcDbLine
 62
3
  6
CONTINUOUS
 10
51.032153782
 20
84.260248713
 11
71.782153782
 21
84.2602487196
  0
LINE
  5
328
100
AcDbEntity
  8
3_ALL_AXES
100
AcDbLine
 62
7
  6
CONTINUOUS
 10
74.782153782
 20
69.5102489049
 11
74.782153782
 21
79.0102489049
  0
LINE
  5
329
100
AcDbEntity
  8
3_ALL_AXES
100
AcDbLine
 62
7
  6
CONTINUOUS
 10
77.032153782
 20
72.0102882318
 11
77.032153782
 21
76.5102095781
  0
LINE
  5
32A
100
AcDbEntity
  8
7_ALL_FEATURES
100
AcDbLine
 62
9
  6
CONTINUOUS
 10
71.782153782
 20
103.6870649018
 11
73.282153782
 21
103.6870649018
  0
LINE
  5
32B
100
AcDbEntity
  8
7_ALL_FEATURES
100
AcDbLine
 62
7
  6
CONTINUOUS
 10
72.482153782
 20
31.9602489049
 11
72.782153782
 21
32.2602489049
  0
LINE
  5
32C
100
AcDbEntity
  8
7_ALL_FEATURES
100
AcDbLine
 62
3
  6
CONTINUOUS
 10
71.7639597297
 20
104.2602487186
 11
51.032153782
 21
104.260248713
  0
LINE
  5
32D
100
AcDbEntity
  8
7_ALL_FEATURES
100
AcDbLine
 62
7
  6
CONTINUOUS
 10
71.782153782
 20
104.2602487186
 11
73.2730982593
 21
104.2602487186
  0
LINE
  5
32E
100
AcDbEntity
  8
7_ALL_FEATURES
100
AcDbLine
 62
3
  6
CONTINUOUS
 10
184.259714067
 20
125.1149719442
 11
184.2597140726
 21
123.847890671
  0
LINE
  5
32F
100
AcDbEntity
  8
7_ALL_FEATURES
100
AcDbLine
 62
7
  6
CONTINUOUS
 10
184.2597140792
 20
122.347890671
 11
184.2597140726
 21
123.847890671
  0
LINE
  5
330
100
AcDbEntity
  8
7_ALL_FEATURES
100
AcDbLine
 62
9
  6
CONTINUOUS
 10
189.2597140792
 20
122.3478906931
 11
189.2597140726
 21
123.8478906931
  0
LINE
  5
331
100
AcDbEntity
  8
7_ALL_FEATURES
100
AcDbLine
 62
7
  6
CONTINUOUS
 10
207.2597138806
 20
183.8478878719
 11
207.759716901
 21
184.3478908034
  0
LINE
  5
332
100
AcDbEntity
  8
7_ALL_FEATURES
100
AcDbLine
 62
7
  6
CONTINUOUS
 10
184.2597140792
 20
122.347890671
 11
204.2597140792
 21
122.3478907593
  0
LINE
  5
333
100
AcDbEntity
  8
7_ALL_FEATURES
100
AcDbLine
 62
3
  6
CONTINUOUS
 10
184.2597140726
 20
123.847890671
 11
204.2597140726
 21
123.8478907593
  0
LINE
  5
334
100
AcDbEntity
  8
7_ALL_FEATURES
100
AcDbLine
 62
9
  6
CONTINUOUS
 10
204.259714066
 20
125.3478907593
 11
184.2651421257
 21
125.347890671
  0
LINE
  5
335
100
AcDbEntity
  8
7_ALL_FEATURES
100
AcDbLine
 62
9
  6
CONTINUOUS
 10
199.2597140792
 20
122.3478907372
 11
199.2597140726
 21
123.8478907372
  0
LINE
  5
336
100
AcDbEntity
  8
7_ALL_FEATURES
100
AcDbLine
 62
3
  6
CONTINUOUS
 10
184.8328978837
 20
127.4394715855
 11
207.2597138806
 21
170.1494772882
  0
LINE
  5
337
100
AcDbEntity
  8
7_ALL_FEATURES
100
AcDbLine
 62
3
  6
CONTINUOUS
 10
204.2597140648
 20
125.6006357525
 11
204.2597140726
 21
123.8478907593
  0
LINE
  5
338
100
AcDbEntity
  8
7_ALL_FEATURES
100
AcDbLine
 62
7
  6
CONTINUOUS
 10
204.2597140792
 20
122.3478907593
 11
204.2597140726
 21
123.8478907593
  0
LINE
  5
339
100
AcDbEntity
  8
7_ALL_FEATURES
100
AcDbLine
 62
7
  6
CONTINUOUS
 10
227.7597138806
 20
184.0478908034
 11
228.0597138806
 21
184.3478908034
  0
LINE
  5
33A
100
AcDbEntity
  8
7_ALL_FEATURES
100
AcDbLine
 62
7
  6
CONTINUOUS
 10
207.2597138806
 20
150.847893806
 11
207.2597138806
 21
183.8478878117
  0
LINE
  5
33B
100
AcDbEntity
  8
7_ALL_FEATURES
100
AcDbLine
 62
7
  6
CONTINUOUS
 10
207.759716901
 20
150.3478908034
 11
207.759716901
 21
184.3478908034
  0
LINE
  5
33C
100
AcDbEntity
  8
7_ALL_FEATURES
100
AcDbLine
 62
7
  6
CONTINUOUS
 10
207.2597138806
 20
150.8478937349
 11
207.759716901
 21
150.3478908034
  0
LINE
  5
33D
100
AcDbEntity
  8
7_ALL_FEATURES
100
AcDbLine
 62
3
  6
CONTINUOUS
 10
211.5972503143
 20
150.3478908034
 11
204.4781902786
 21
127.0624942771
  0
LINE
  5
33E
100
AcDbEntity
  8
7_ALL_FEATURES
100
AcDbLine
 62
7
  6
CONTINUOUS
 10
256.2597138806
 20
150.3478908034
 11
228.0597138806
 21
150.3478908034
  0
LINE
  5
33F
100
AcDbEntity
  8
02___PRT_ALL_AXES
100
AcDbLine
 62
7
  6
CONTINUOUS
 10
207.759716901
 20
150.3478908034
 11
227.2597136795
 21
150.3478908034
  0
LINE
  5
340
100
AcDbEntity
  8
7_ALL_FEATURES
100
AcDbLine
 62
7
  6
CONTINUOUS
 10
227.7597138806
 20
150.6478908034
 11
228.0597138806
 21
150.3478908034
  0
LINE
  5
341
100
AcDbEntity
  8
7_ALL_FEATURES
100
AcDbLine
 62
7
  6
CONTINUOUS
 10
227.2597136795
 20
150.3478908034
 11
227.2597140822
 21
184.3478908034
  0
LINE
  5
342
100
AcDbEntity
  8
7_ALL_FEATURES
100
AcDbLine
 62
7
  6
CONTINUOUS
 10
227.7597138806
 20
150.6478908034
 11
227.7597138806
 21
184.0478908034
  0
LINE
  5
343
100
AcDbEntity
  8
7_ALL_FEATURES
100
AcDbLine
 62
7
  6
CONTINUOUS
 10
228.0597138806
 20
150.3478908034
 11
228.0597138806
 21
184.3478908034
  0
LINE
  5
344
100
AcDbEntity
  8
7_ALL_FEATURES
100
AcDbLine
 62
7
  6
CONTINUOUS
 10
227.7597138806
 20
150.8478910051
 11
227.2597136795
 21
150.3478908034
  0
LINE
  5
345
100
AcDbEntity
  8
7_ALL_FEATURES
100
AcDbLine
 62
7
  6
CONTINUOUS
 10
256.2597138806
 20
150.3478908034
 11
256.5597138806
 21
150.6478908034
  0
LINE
  5
346
100
AcDbEntity
  8
7_ALL_FEATURES
100
AcDbLine
 62
7
  6
CONTINUOUS
 10
227.7597138806
 20
183.8478910043
 11
227.2597140822
 21
184.3478908034
  0
LINE
  5
347
100
AcDbEntity
  8
7_ALL_FEATURES
100
AcDbLine
 62
7
  6
CONTINUOUS
 10
256.2597138806
 20
184.3478908034
 11
228.0597138806
 21
184.3478908034
  0
LINE
  5
348
100
AcDbEntity
  8
02___PRT_ALL_AXES
100
AcDbLine
 62
7
  6
CONTINUOUS
 10
207.759716901
 20
184.3478908034
 11
227.2597140822
 21
184.3478908034
  0
LINE
  5
349
100
AcDbEntity
  8
7_ALL_FEATURES
100
AcDbLine
 62
7
  6
CONTINUOUS
 10
256.2597138806
 20
150.3478908034
 11
256.2597138806
 21
184.3478908034
  0
LINE
  5
34A
100
AcDbEntity
  8
7_ALL_FEATURES
100
AcDbLine
 62
7
  6
CONTINUOUS
 10
256.5597138806
 20
150.6478908034
 11
256.5597138806
 21
184.0478908034
  0
LINE
  5
34B
100
AcDbEntity
  8
7_ALL_FEATURES
100
AcDbLine
 62
7
  6
CONTINUOUS
 10
256.2597138806
 20
184.3478908034
 11
256.5597138806
 21
184.0478908034
  0
CIRCLE
  5
34C
100
AcDbEntity
  8
7_ALL_FEATURES
100
AcDbCircle
 62
7
  6
CONTINUOUS
 10
55.782153782
 20
167.3478908034
 40
17.0
  0
CIRCLE
  5
34D
100
AcDbEntity
  8
7_ALL_FEATURES
100
AcDbCircle
 62
7
  6
CONTINUOUS
 10
55.782153782
 20
167.3478908034
 40
16.7
  0
CIRCLE
  5
34E
100
AcDbEntity
  8
7_ALL_FEATURES
100
AcDbCircle
 62
7
  6
CONTINUOUS
 10
55.782153782
 20
167.3478908034
 40
16.1
  0
CIRCLE
  5
34F
100
AcDbEntity
  8
7_ALL_FEATURES
100
AcDbCircle
 62
7
  6
CONTINUOUS
 10
55.782153782
 20
167.3478908034
 40
15.8
  0
CIRCLE
  5
350
100
AcDbEntity
  8
7_ALL_FEATURES
100
AcDbCircle
 62
7
  6
CONTINUOUS
 10
55.782153782
 20
167.3478908034
 40
15.5
  0
CIRCLE
  5
351
100
AcDbEntity
  8
7_ALL_FEATURES
100
AcDbCircle
 62
7
  6
CONTINUOUS
 10
55.782153782
 20
167.3478908034
 40
15.2
  0
ARC
  5
352
100
AcDbEntity
  8
3_ALL_AXES
100
AcDbCircle
 62
7
  6
CONTINUOUS
 10
72.2497330352
 20
167.5562121312
 40
5.2
100
AcDbArc
 50
23.1182769911
 51
60.8561480005
  0
ARC
  5
353
100
AcDbEntity
  8
3_ALL_AXES
100
AcDbCircle
 62
7
  6
CONTINUOUS
 10
72.2497330352
 20
167.1395694755
 40
5.2
100
AcDbArc
 50
299.1438519995
 51
336.8817230089
  0
ARC
  5
354
100
AcDbEntity
  8
7_ALL_FEATURES
100
AcDbCircle
 62
7
  6
CONTINUOUS
 10
70.282153782
 20
125.3478907593
 40
3.0
100
AcDbArc
 50
270.0
 51
360.0
  0
ARC
  5
355
100
AcDbEntity
  8
7_ALL_FEATURES
100
AcDbCircle
 62
3
  6
CONTINUOUS
 10
70.282153782
 20
125.3478907593
 40
1.5
100
AcDbArc
 50
270.0
 51
360.0
  0
ARC
  5
356
100
AcDbEntity
  8
7_ALL_FEATURES
100
AcDbCircle
 62
7
  6
CONTINUOUS
 10
-32.6044602173
 20
165.5608784573
 40
148.2712747552
100
AcDbArc
 50
315.0234910432
 51
315.2959766895
  0
ARC
  5
357
100
AcDbEntity
  8
3_ALL_AXES
100
AcDbCircle
 62
7
  6
CONTINUOUS
 10
72.2497330352
 20
74.4685702328
 40
5.2
100
AcDbArc
 50
23.1182769911
 51
60.8561480005
  0
ARC
  5
358
100
AcDbEntity
  8
3_ALL_AXES
100
AcDbCircle
 62
7
  6
CONTINUOUS
 10
72.2497330352
 20
74.0519275771
 40
5.2
100
AcDbArc
 50
299.1438519995
 51
336.8817230089
  0
ARC
  5
359
100
AcDbEntity
  8
7_ALL_FEATURES
100
AcDbCircle
 62
3
  6
CONTINUOUS
 10
51.032153782
 20
99.260248713
 40
5.0
100
AcDbArc
 50
90.0
 51
180.0
  0
ARC
  5
35A
100
AcDbEntity
  8
7_ALL_FEATURES
100
AcDbCircle
 62
3
  6
CONTINUOUS
 10
51.032153782
 20
89.260248713
 40
5.0
100
AcDbArc
 50
180.0
 51
270.0
  0
CIRCLE
  5
35B
100
AcDbEntity
  8
7_ALL_FEATURES
100
AcDbCircle
 62
3
  6
CONTINUOUS
 10
56.282153782
 20
94.260248713
 40
2.75
  0
ARC
  5
35C
100
AcDbEntity
  8
7_ALL_FEATURES
100
AcDbCircle
 62
3
  6
CONTINUOUS
 10
189.259714067
 20
125.1149719663
 40
5.0
100
AcDbArc
 50
152.2962545144
 51
180.0000002528
  0
ARC
  5
35D
100
AcDbEntity
  8
7_ALL_FEATURES
100
AcDbCircle
 62
3
  6
CONTINUOUS
 10
209.2597140648
 20
125.6006357746
 40
5.0
100
AcDbArc
 50
163.0000002528
 51
180.0000002528
  0
SPLINE
  5
35E
100
AcDbEntity
  8
7_ALL_FEATURES
100
AcDbSpline
 62
7
  6
CONTINUOUS
 70
0
 71
3
 72
9
 73
5
 74
0
 42
0.0000001
 43
0.0000001
 44
0.0000000001
 40
0.0
 40
0.0
 40
0.0
 40
0.0
 40
0.5978061167
 40
1.0
 40
1.0
 40
1.0
 40
1.0
 10
73.2730982593
 20
104.2602487186
 30
0.0
 10
73.2754068883
 20
104.2602487187
 30
0.0
 10
73.2797162525
 20
104.2603103061
 30
0.0
 10
73.282153782
 20
104.2563738666
 30
0.0
 10
73.282153782
 20
104.2548206599
 30
0.0
  0
SPLINE
  5
35F
100
AcDbEntity
  8
7_ALL_FEATURES
100
AcDbSpline
 62
3
  6
CONTINUOUS
 70
0
 71
3
 72
10
 73
6
 74
0
 42
0.0000001
 43
0.0000001
 44
0.0000000001
 40
0.0
 40
0.0
 40
0.0
 40
0.0
 40
0.3079481976
 40
0.5990442916
 40
1.0
 40
1.0
 40
1.0
 40
1.0
 10
71.782153782
 20
104.2548206599
 30
0.0
 10
71.782153782
 20
104.2568583197
 30
0.0
 10
71.7774690381
 20
104.2594050559
 30
0.0
 10
71.7713136973
 20
104.2600119958
 30
0.0
 10
71.7666128101
 20
104.2602487187
 30
0.0
 10
71.7639597297
 20
104.2602487186
 30
0.0
  0
ENDSEC
  0
SECTION
  2
OBJECTS
  0
DICTIONARY
  5
360
100
AcDbDictionary
  3
ACAD_GROUP
350
361
  3
ACAD_MLINESTYLE
350
362
  0
DICTIONARY
  5
361
102
{ACAD_REACTORS
330
360
102
}
100
AcDbDictionary
  0
DICTIONARY
  5
362
102
{ACAD_REACTORS
330
360
102
}
100
AcDbDictionary
  3
STANDARD
350
363
  0
MLINESTYLE
  5
363
102
{ACAD_REACTORS
330
362
102
}
100
AcDbMlineStyle
  2
STANDARD
 70
0
  3

 62
256
 51
90.0
 52
90.0
 71
2
 49
0.5
 62
256
  6
BYLAYER
 49
-0.5
 62
256
  6
BYLAYER
  0
ENDSEC
  0
EOF
