999
DXF file: 1h5_c_010.dxf
999
Pro/ENGINEER 2016360 by Parametric Technology Corporation
  0
SECTION
  2
HEADER
  9
$ACADVER
  1
AC1014
  9
$DWGCODEPAGE
  3
ANSI_1252
  9
$EXTMAX
 10
297.0
 20
210.0
 30
0.0
  9
$EXTMIN
 10
0.0
 20
0.0
 30
0.0
  9
$LIMMIN
 10
0.0
 20
0.0
  9
$LIMMAX
 10
297.0
 20
210.0
  9
$VIEWCTR
 10
148.5
 20
105.0
  9
$VIEWSIZE
 40
210.0
  9
$CLAYER
  8
0
  9
$LTSCALE
 40
16.335
  9
$CELTYPE
  6
BYLAYER
  9
$DIMSCALE
 40
1.0
  9
$DIMASZ
 40
2.5
  9
$DIMEXO
 40
0.75
  9
$DIMDLI
 40
11.286
  9
$DIMEXE
 40
0.75
  9
$DIMCEN
 40
2.673
  9
$DIMLFAC
 40
1.0
  9
$DIMBLK
  1
_CLOSED
  9
$DIMALT
 70
0
  9
$DIMALTF
 40
25.4
  9
$DIMTXT
 40
3.0
  9
$DIMTOL
 70
1
  9
$DIMLIM
 70
0
  9
$DIMTFAC
 40
1.0
  9
$DIMTP
 40
0.01
  9
$DIMTM
 40
0.01
  9
$DIMGAP
 40
0.625
  9
$AUNITS
 70
0
  9
$PDMODE
 70
3
  9
$PDSIZE
 40
0.3125
  9
$HANDSEED
  5
425
  9
$TILEMODE
 70
1
  9
$MEASUREMENT
 70
1
  0
ENDSEC
  0
SECTION
  2
CLASSES
  0
ENDSEC
  0
SECTION
  2
TABLES
  0
TABLE
  2
VPORT
  5
8
100
AcDbSymbolTable
 70
2
  0
VPORT
  5
1F4
100
AcDbSymbolTableRecord
100
AcDbViewportTableRecord
  2
*ACTIVE
 70
0
 10
0.0
 20
0.0
 11
1.0
 21
1.0
 12
148.5
 22
105.0
 13
0.0
 23
0.0
 14
1.0
 24
1.0
 15
0.0
 25
0.0
 16
0.0
 26
0.0
 36
1.0
 17
0.0
 27
0.0
 37
0.0
 40
210.0
 41
1.4142857143
 42
50.0
 43
0.0
 44
0.0
 50
0.0
 51
0.0
 71
0
 72
100
 73
1
 74
1
 75
0
 76
0
 77
0
 78
0
  0
ENDTAB
  0
TABLE
  2
LTYPE
  5
5
100
AcDbSymbolTable
 70
6
  0
LTYPE
  5
14
100
AcDbSymbolTableRecord
100
AcDbLinetypeTableRecord
  2
BYBLOCK
 70
0
  3

 72
65
 73
0
 40
0.0
  0
LTYPE
  5
15
100
AcDbSymbolTableRecord
100
AcDbLinetypeTableRecord
  2
BYLAYER
 70
0
  3

 72
65
 73
0
 40
0.0
  0
LTYPE
  5
16
100
AcDbSymbolTableRecord
100
AcDbLinetypeTableRecord
  2
CONTINUOUS
 70
64
  3
Solid line
 72
65
 73
0
 40
0.0
  0
LTYPE
  5
1F5
100
AcDbSymbolTableRecord
100
AcDbLinetypeTableRecord
  2
CENTER
 70
64
  3
____ _ ____ _ ____ _ ____ _ ____ _ ____ _ ____
 72
65
 73
4
 40
0.6
 49
0.375
 74
0
 49
-0.075
 74
0
 49
0.075
 74
0
 49
-0.075
 74
0
  0
LTYPE
  5
1F6
100
AcDbSymbolTableRecord
100
AcDbLinetypeTableRecord
  2
HIDDEN
 70
64
  3
- - - - - - - - - - - - - - - - - - - -
 72
65
 73
2
 40
0.2
 49
0.1
 74
0
 49
-0.1
 74
0
  0
LTYPE
  5
1F7
100
AcDbSymbolTableRecord
100
AcDbLinetypeTableRecord
  2
PHANTOM
 70
64
  3
_____ _ _ _____ _ _ _____ _ _ _____
 72
65
 73
6
 40
0.8
 49
0.45
 74
0
 49
-0.05
 74
0
 49
0.1
 74
0
 49
-0.05
 74
0
 49
0.1
 74
0
 49
-0.05
 74
0
  0
LTYPE
  5
1F8
100
AcDbSymbolTableRecord
100
AcDbLinetypeTableRecord
  2
DOT
 70
64
  3
. . . . . . . . . . . . . . . . . . . .
 72
65
 73
2
 40
0.2
 49
0.1
 74
0
 49
-0.1
 74
0
  0
LTYPE
  5
1F9
100
AcDbSymbolTableRecord
100
AcDbLinetypeTableRecord
  2
DASHED
 70
64
  3
- - - - - - - - - - - - - - - - - - - -
 72
65
 73
2
 40
0.2
 49
0.1
 74
0
 49
-0.1
 74
0
  0
ENDTAB
  0
TABLE
  2
LAYER
  5
2
100
AcDbSymbolTable
 70
36
  0
LAYER
  5
10
100
AcDbSymbolTableRecord
100
AcDbLayerTableRecord
  2
0
 70
0
 62
7
  6
CONTINUOUS
  0
LAYER
  5
1FA
100
AcDbSymbolTableRecord
100
AcDbLayerTableRecord
  2
DEFAULT_1
 70
0
 62
7
  6
CENTER
  0
LAYER
  5
1FB
100
AcDbSymbolTableRecord
100
AcDbLayerTableRecord
  2
DEFAULT_2
 70
0
 62
8
  6
HIDDEN
  0
LAYER
  5
1FC
100
AcDbSymbolTableRecord
100
AcDbLayerTableRecord
  2
DEFAULT_3
 70
0
 62
7
  6
PHANTOM
  0
LAYER
  5
1FD
100
AcDbSymbolTableRecord
100
AcDbLayerTableRecord
  2
01_ALL_DTM_PLN
 70
0
 62
7
  6
CONTINUOUS
  0
LAYER
  5
1FE
100
AcDbSymbolTableRecord
100
AcDbLayerTableRecord
  2
01__ASM_ALL_DTM_PLN
 70
0
 62
7
  6
CONTINUOUS
  0
LAYER
  5
1FF
100
AcDbSymbolTableRecord
100
AcDbLayerTableRecord
  2
01__ASM_DEF_DTM_PLN
 70
0
 62
7
  6
CONTINUOUS
  0
LAYER
  5
200
100
AcDbSymbolTableRecord
100
AcDbLayerTableRecord
  2
01___PRT_ALL_DTM_PLN
 70
0
 62
7
  6
CONTINUOUS
  0
LAYER
  5
201
100
AcDbSymbolTableRecord
100
AcDbLayerTableRecord
  2
01___PRT_DEF_DTM_PLN
 70
0
 62
7
  6
CONTINUOUS
  0
LAYER
  5
202
100
AcDbSymbolTableRecord
100
AcDbLayerTableRecord
  2
02_ALL_AXES
 70
0
 62
7
  6
CONTINUOUS
  0
LAYER
  5
203
100
AcDbSymbolTableRecord
100
AcDbLayerTableRecord
  2
02__ASM_ALL_AXES
 70
0
 62
7
  6
CONTINUOUS
  0
LAYER
  5
204
100
AcDbSymbolTableRecord
100
AcDbLayerTableRecord
  2
02___PRT_ALL_AXES
 70
0
 62
7
  6
CONTINUOUS
  0
LAYER
  5
205
100
AcDbSymbolTableRecord
100
AcDbLayerTableRecord
  2
03_ALL_CURVES
 70
0
 62
7
  6
CONTINUOUS
  0
LAYER
  5
206
100
AcDbSymbolTableRecord
100
AcDbLayerTableRecord
  2
03__ASM_ALL_CURVES
 70
0
 62
7
  6
CONTINUOUS
  0
LAYER
  5
207
100
AcDbSymbolTableRecord
100
AcDbLayerTableRecord
  2
03___PRT_ALL_CURVES
 70
0
 62
7
  6
CONTINUOUS
  0
LAYER
  5
208
100
AcDbSymbolTableRecord
100
AcDbLayerTableRecord
  2
04_ALL_DTM_PNT
 70
0
 62
7
  6
CONTINUOUS
  0
LAYER
  5
209
100
AcDbSymbolTableRecord
100
AcDbLayerTableRecord
  2
04__ASM_ALL_DTM_PNT
 70
0
 62
7
  6
CONTINUOUS
  0
LAYER
  5
20A
100
AcDbSymbolTableRecord
100
AcDbLayerTableRecord
  2
04___PRT_ALL_DTM_PNT
 70
0
 62
7
  6
CONTINUOUS
  0
LAYER
  5
20B
100
AcDbSymbolTableRecord
100
AcDbLayerTableRecord
  2
05_ALL_DTM_CSYS
 70
0
 62
7
  6
CONTINUOUS
  0
LAYER
  5
20C
100
AcDbSymbolTableRecord
100
AcDbLayerTableRecord
  2
05__ASM_ALL_DTM_CSYS
 70
0
 62
7
  6
CONTINUOUS
  0
LAYER
  5
20D
100
AcDbSymbolTableRecord
100
AcDbLayerTableRecord
  2
05__ASM_DEF_DTM_CSYS
 70
0
 62
7
  6
CONTINUOUS
  0
LAYER
  5
20E
100
AcDbSymbolTableRecord
100
AcDbLayerTableRecord
  2
05___PRT_ALL_DTM_CSYS
 70
0
 62
7
  6
CONTINUOUS
  0
LAYER
  5
20F
100
AcDbSymbolTableRecord
100
AcDbLayerTableRecord
  2
05___PRT_DEF_DTM_CSYS
 70
0
 62
7
  6
CONTINUOUS
  0
LAYER
  5
210
100
AcDbSymbolTableRecord
100
AcDbLayerTableRecord
  2
06_ALL_SURFS
 70
0
 62
7
  6
CONTINUOUS
  0
LAYER
  5
211
100
AcDbSymbolTableRecord
100
AcDbLayerTableRecord
  2
06__ASM_ALL_SURFS
 70
0
 62
7
  6
CONTINUOUS
  0
LAYER
  5
212
100
AcDbSymbolTableRecord
100
AcDbLayerTableRecord
  2
06___PRT_ALL_SURFS
 70
0
 62
7
  6
CONTINUOUS
  0
LAYER
  5
213
100
AcDbSymbolTableRecord
100
AcDbLayerTableRecord
  2
07__ASM_ALL_SKELETONS
 70
0
 62
7
  6
CONTINUOUS
  0
LAYER
  5
214
100
AcDbSymbolTableRecord
100
AcDbLayerTableRecord
  2
1_ALL_PLANES
 70
0
 62
7
  6
CONTINUOUS
  0
LAYER
  5
215
100
AcDbSymbolTableRecord
100
AcDbLayerTableRecord
  2
1__APPOGGIO
 70
0
 62
7
  6
CONTINUOUS
  0
LAYER
  5
216
100
AcDbSymbolTableRecord
100
AcDbLayerTableRecord
  2
2_ALL_CSYS
 70
0
 62
7
  6
CONTINUOUS
  0
LAYER
  5
217
100
AcDbSymbolTableRecord
100
AcDbLayerTableRecord
  2
3_ALL_AXES
 70
0
 62
7
  6
CONTINUOUS
  0
LAYER
  5
218
100
AcDbSymbolTableRecord
100
AcDbLayerTableRecord
  2
4_ALL_POINTS
 70
0
 62
7
  6
CONTINUOUS
  0
LAYER
  5
219
100
AcDbSymbolTableRecord
100
AcDbLayerTableRecord
  2
5_ALL_CURVES
 70
0
 62
7
  6
CONTINUOUS
  0
LAYER
  5
21A
100
AcDbSymbolTableRecord
100
AcDbLayerTableRecord
  2
5__COSTRUZIONE
 70
0
 62
7
  6
CONTINUOUS
  0
LAYER
  5
21B
100
AcDbSymbolTableRecord
100
AcDbLayerTableRecord
  2
6_ALL_SURFS
 70
0
 62
7
  6
CONTINUOUS
  0
LAYER
  5
21C
100
AcDbSymbolTableRecord
100
AcDbLayerTableRecord
  2
7_ALL_FEATURES
 70
0
 62
7
  6
CONTINUOUS
  0
LAYER
  5
21D
100
AcDbSymbolTableRecord
100
AcDbLayerTableRecord
  2
9_SOLID
 70
0
 62
7
  6
CONTINUOUS
  0
LAYER
  5
21E
100
AcDbSymbolTableRecord
100
AcDbLayerTableRecord
  2
CLOSED_SHELL
 70
0
 62
7
  6
CONTINUOUS
  0
LAYER
  5
21F
100
AcDbSymbolTableRecord
100
AcDbLayerTableRecord
  2
INTFCLR_2
 70
0
 62
7
  6
CONTINUOUS
  0
LAYER
  5
220
100
AcDbSymbolTableRecord
100
AcDbLayerTableRecord
  2
XXX_SOLIDO
 70
0
 62
7
  6
CONTINUOUS
  0
ENDTAB
  0
TABLE
  2
STYLE
  5
3
100
AcDbSymbolTable
 70
1
  0
STYLE
  5
11
100
AcDbSymbolTableRecord
100
AcDbTextStyleTableRecord
  2
STANDARD
 70
0
 40
0.0
 41
1.0
 50
0.0
 71
0
 42
0.2
  3
arial.ttf
  4

  0
STYLE
  5
221
100
AcDbSymbolTableRecord
100
AcDbTextStyleTableRecord
  2
TEXTSTYLE_1
 70
0
 40
0.0
 41
0.8
 50
0.0
 71
0
 42
0.2
  3
gdt
  4

  0
STYLE
  5
222
100
AcDbSymbolTableRecord
100
AcDbTextStyleTableRecord
  2
TEXTSTYLE_2
 70
0
 40
0.0
 41
0.85
 50
0.0
 71
0
 42
0.2
  3
gdt
  4

  0
STYLE
  5
223
100
AcDbSymbolTableRecord
100
AcDbTextStyleTableRecord
  2
TEXTSTYLE_3
 70
0
 40
0.0
 41
0.85
 50
0.0
 71
0
 42
0.2
  3
txt
  4

  0
ENDTAB
  0
TABLE
  2
VIEW
  5
6
100
AcDbSymbolTable
 70
0
  0
ENDTAB
  0
TABLE
  2
UCS
  5
7
100
AcDbSymbolTable
 70
0
  0
ENDTAB
  0
TABLE
  2
APPID
  5
9
100
AcDbSymbolTable
 70
1
  0
APPID
  5
224
100
AcDbSymbolTableRecord
100
AcDbRegAppTableRecord
  2
ACAD
 70
0
  0
ENDTAB
  0
TABLE
  2
BLOCK_RECORD
  5
1
100
AcDbSymbolTable
 70
0
  0
BLOCK_RECORD
  5
1F
100
AcDbSymbolTableRecord
100
AcDbBlockTableRecord
  2
*MODEL_SPACE
  0
BLOCK_RECORD
  5
1B
100
AcDbSymbolTableRecord
100
AcDbBlockTableRecord
  2
*PAPER_SPACE
  0
BLOCK_RECORD
  5
225
100
AcDbSymbolTableRecord
100
AcDbBlockTableRecord
  2
_CLOSED
  0
BLOCK_RECORD
  5
226
100
AcDbSymbolTableRecord
100
AcDbBlockTableRecord
  2
*D0
  0
BLOCK_RECORD
  5
227
100
AcDbSymbolTableRecord
100
AcDbBlockTableRecord
  2
*D1
  0
BLOCK_RECORD
  5
228
100
AcDbSymbolTableRecord
100
AcDbBlockTableRecord
  2
*D2
  0
BLOCK_RECORD
  5
229
100
AcDbSymbolTableRecord
100
AcDbBlockTableRecord
  2
*D3
  0
BLOCK_RECORD
  5
22A
100
AcDbSymbolTableRecord
100
AcDbBlockTableRecord
  2
*D4
  0
BLOCK_RECORD
  5
22B
100
AcDbSymbolTableRecord
100
AcDbBlockTableRecord
  2
*D5
  0
BLOCK_RECORD
  5
22C
100
AcDbSymbolTableRecord
100
AcDbBlockTableRecord
  2
*D6
  0
BLOCK_RECORD
  5
22D
100
AcDbSymbolTableRecord
100
AcDbBlockTableRecord
  2
*D7
  0
BLOCK_RECORD
  5
22E
100
AcDbSymbolTableRecord
100
AcDbBlockTableRecord
  2
LOGO2_BL0
  0
ENDTAB
  0
TABLE
  2
DIMSTYLE
  5
A
100
AcDbSymbolTable
 70
1
  0
DIMSTYLE
105
22F
100
AcDbSymbolTableRecord
100
AcDbDimStyleTableRecord
  2
STANDARD
 70
0
  3

  4

  5
_CLOSED
  6
_CLOSED
  7
_CLOSED
 40
1.0
 41
2.5
 42
0.75
 43
0.38
 44
0.75
 45
0.0
 46
0.0
 47
0.01
 48
0.01
140
3.0
141
0.09
142
0.0
143
25.4
144
1.0
145
0.0
146
1.0
147
0.625
 71
1.0
 72
0.0
 73
0
 74
0
 75
0
 76
0
 77
1
 78
8
 79
2
170
0
171
1
172
0
173
0
174
0
175
0
176
0
177
0
178
0
270
2
179
2
271
2
272
2
273
2
274
2
275
0
280
0
281
0
282
0
283
1
284
8
285
0
286
0
287
3
288
0
340
11
  0
DIMSTYLE
105
230
100
AcDbSymbolTableRecord
100
AcDbDimStyleTableRecord
  2
DIMSTYLE_1
 70
0
  3
<>
  4

  5
_CLOSED
  6
_CLOSED
  7
_CLOSED
 40
1.0
 41
2.5
 42
0.75
 43
0.38
 44
0.75
 45
0.0
 46
0.0
 47
0.3
 48
0.3
140
3.0
141
0.09
142
0.0
143
25.4
144
1.0
145
0.0
146
1.0
147
0.625
 71
0.0
 72
0.0
 73
0
 74
0
 75
0
 76
0
 77
1
 78
8
 79
2
170
0
171
1
172
1
173
0
174
0
175
0
176
0
177
0
178
0
270
2
179
2
271
2
272
2
273
2
274
2
275
0
280
0
281
0
282
0
283
1
284
8
285
0
286
0
287
3
288
1
340
11
  0
DIMSTYLE
105
231
100
AcDbSymbolTableRecord
100
AcDbDimStyleTableRecord
  2
DIMSTYLE_2
 70
0
  3

  4

  5
_CLOSED
  6
_CLOSED
  7
_CLOSED
 40
1.0
 41
2.5
 42
0.75
 43
0.38
 44
0.75
 45
0.0
 46
0.0
 47
0.1
 48
0.1
140
3.0
141
0.09
142
0.0
143
25.4
144
1.0
145
0.0
146
1.0
147
0.75
 71
0.0
 72
0.0
 73
0
 74
0
 75
0
 76
0
 77
1
 78
8
 79
2
170
0
171
1
172
0
173
0
174
0
175
0
176
0
177
0
178
0
270
2
179
2
271
2
272
2
273
2
274
2
275
0
280
0
281
0
282
0
283
1
284
8
285
0
286
0
287
3
288
0
340
11
  0
DIMSTYLE
105
232
100
AcDbSymbolTableRecord
100
AcDbDimStyleTableRecord
  2
DIMSTYLE_3
 70
0
  3

  4

  5
_CLOSED
  6
_CLOSED
  7
_CLOSED
 40
1.0
 41
2.5
 42
0.75
 43
0.38
 44
0.75
 45
0.0
 46
0.0
 47
0.2
 48
0.2
140
3.0
141
0.09
142
0.0
143
25.4
144
1.0
145
0.0
146
1.0
147
0.75
 71
0.0
 72
0.0
 73
0
 74
0
 75
0
 76
0
 77
1
 78
8
 79
2
170
0
171
1
172
0
173
0
174
0
175
0
176
0
177
0
178
0
270
2
179
2
271
2
272
2
273
2
274
2
275
0
280
0
281
0
282
0
283
1
284
8
285
0
286
0
287
3
288
0
340
11
  0
DIMSTYLE
105
233
100
AcDbSymbolTableRecord
100
AcDbDimStyleTableRecord
  2
DIMSTYLE_4
 70
0
  3

  4

  5
_CLOSED
  6
_CLOSED
  7
_CLOSED
 40
1.0
 41
2.5
 42
0.75
 43
0.38
 44
0.75
 45
0.0
 46
0.0
 47
0.3
 48
0.3
140
3.0
141
0.09
142
0.0
143
25.4
144
1.0
145
0.0
146
1.0
147
0.75
 71
0.0
 72
0.0
 73
0
 74
0
 75
0
 76
0
 77
1
 78
8
 79
2
170
0
171
1
172
0
173
0
174
0
175
0
176
0
177
0
178
0
270
2
179
2
271
2
272
2
273
2
274
2
275
0
280
0
281
0
282
0
283
1
284
8
285
0
286
0
287
3
288
0
340
11
  0
ENDTAB
  0
ENDSEC
  0
SECTION
  2
BLOCKS
  0
BLOCK
  5
20
100
AcDbEntity
  8
0
100
AcDbBlockBegin
  2
*MODEL_SPACE
 70
0
 10
0.0
 20
0.0
 30
0.0
  3
*MODEL_SPACE
  1

  0
ENDBLK
  5
21
100
AcDbEntity
  8
0
100
AcDbBlockEnd
  0
BLOCK
  5
1C
100
AcDbEntity
  8
0
100
AcDbBlockBegin
  2
*PAPER_SPACE
 70
0
 10
0.0
 20
0.0
 30
0.0
  3
*PAPER_SPACE
  1

  0
ENDBLK
  5
1D
100
AcDbEntity
  8
0
100
AcDbBlockEnd
  0
BLOCK
  5
234
100
AcDbEntity
  8
0
100
AcDbBlockBegin
 62
2
  6
CONTINUOUS
  2
LOGO2_BL0
 70
64
 10
207.6164605391
 20
39.6725198453
  3
LOGO2_BL0
  1

  0
LINE
  5
235
100
AcDbEntity
  8
0
100
AcDbLine
 62
7
  6
CONTINUOUS
 10
199.3593857673
 20
42.8680111841
 11
198.055044838
 21
42.8680111841
  0
LINE
  5
236
100
AcDbEntity
  8
0
100
AcDbLine
 62
7
  6
CONTINUOUS
 10
198.055044838
 20
42.8680111841
 11
198.055044838
 21
32.4089451242
  0
LINE
  5
237
100
AcDbEntity
  8
0
100
AcDbLine
 62
7
  6
CONTINUOUS
 10
198.055044838
 20
32.4089451242
 11
202.5360997262
 21
32.4089451242
  0
LINE
  5
238
100
AcDbEntity
  8
0
100
AcDbLine
 62
7
  6
CONTINUOUS
 10
202.5360997262
 20
32.4089451242
 11
202.5360997262
 21
33.6017994493
  0
LINE
  5
239
100
AcDbEntity
  8
0
100
AcDbLine
 62
7
  6
CONTINUOUS
 10
202.5360997262
 20
33.6017994493
 11
199.3593857673
 21
33.6017994493
  0
LINE
  5
23A
100
AcDbEntity
  8
0
100
AcDbLine
 62
7
  6
CONTINUOUS
 10
199.3593857673
 20
33.6017994493
 11
199.3593857673
 21
42.8680111841
  0
LINE
  5
23B
100
AcDbEntity
  8
0
100
AcDbLine
 62
7
  6
CONTINUOUS
 10
214.2957119836
 20
42.8680111841
 11
212.9918944656
 21
42.8680111841
  0
LINE
  5
23C
100
AcDbEntity
  8
0
100
AcDbLine
 62
7
  6
CONTINUOUS
 10
212.9918944656
 20
42.8680111841
 11
212.9918944656
 21
32.4089451242
  0
LINE
  5
23D
100
AcDbEntity
  8
0
100
AcDbLine
 62
7
  6
CONTINUOUS
 10
212.9918944656
 20
32.4089451242
 11
217.4730802067
 21
32.4089451242
  0
LINE
  5
23E
100
AcDbEntity
  8
0
100
AcDbLine
 62
7
  6
CONTINUOUS
 10
217.4730802067
 20
32.4089451242
 11
217.4730802067
 21
33.6017994493
  0
LINE
  5
23F
100
AcDbEntity
  8
0
100
AcDbLine
 62
7
  6
CONTINUOUS
 10
217.4730802067
 20
33.6017994493
 11
214.2957119836
 21
33.6017994493
  0
LINE
  5
240
100
AcDbEntity
  8
0
100
AcDbLine
 62
7
  6
CONTINUOUS
 10
214.2957119836
 20
33.6017994493
 11
214.2957119836
 21
42.8680111841
  0
LWPOLYLINE
  5
241
100
AcDbEntity
  8
0
100
AcDbPolyline
 62
7
  6
CONTINUOUS
 90
2
 70
0
 43
0.2
 10
196.4094397489
 20
29.0653938173
 10
196.4094397489
 20
27.208330568
  0
LWPOLYLINE
  5
242
100
AcDbEntity
  8
0
100
AcDbPolyline
 62
7
  6
CONTINUOUS
 90
2
 70
0
 43
0.2
 10
196.4094397489
 20
27.208330568
 10
197.2051557593
 20
27.208330568
  0
LWPOLYLINE
  5
243
100
AcDbEntity
  8
0
100
AcDbPolyline
 62
7
  6
CONTINUOUS
 90
2
 70
0
 43
0.2
 10
197.2051557593
 20
27.208330568
 10
197.2051557593
 20
27.4203121396
  0
LWPOLYLINE
  5
244
100
AcDbEntity
  8
0
100
AcDbPolyline
 62
7
  6
CONTINUOUS
 90
2
 70
0
 43
0.2
 10
197.2051557593
 20
27.4203121396
 10
196.6410492438
 20
27.4203121396
  0
LWPOLYLINE
  5
245
100
AcDbEntity
  8
0
100
AcDbPolyline
 62
7
  6
CONTINUOUS
 90
2
 70
0
 43
0.2
 10
196.6410492438
 20
27.4203121396
 10
196.6410492438
 20
29.0653938173
  0
LWPOLYLINE
  5
246
100
AcDbEntity
  8
0
100
AcDbPolyline
 62
7
  6
CONTINUOUS
 90
2
 70
0
 43
0.2
 10
196.6410492438
 20
29.0653938173
 10
196.4094397489
 20
29.0653938173
  0
SPLINE
  5
247
100
AcDbEntity
  8
0
100
AcDbSpline
 62
7
  6
CONTINUOUS
 70
2
 71
3
 72
35
 73
31
 74
0
 42
0.0000001
 43
0.0000001
 44
0.0000000001
 40
0.0
 40
0.0
 40
0.0
 40
0.0
 40
1.0
 40
1.0
 40
1.0
 40
2.0
 40
2.0
 40
2.0
 40
3.0
 40
3.0
 40
3.0
 40
4.0
 40
4.0
 40
4.0
 40
5.0
 40
5.0
 40
5.0
 40
6.0
 40
6.0
 40
6.0
 40
7.0
 40
7.0
 40
7.0
 40
8.0
 40
8.0
 40
8.0
 40
9.0
 40
9.0
 40
9.0
 40
10.0
 40
10.0
 40
10.0
 40
10.0
 10
198.6034490148
 20
28.3608822239
 30
0.0
 10
198.6034490148
 20
28.3608822239
 30
0.0
 10
198.6034490148
 20
27.6987669447
 30
0.0
 10
198.6034490148
 20
27.6987669447
 30
0.0
 10
198.6034490148
 20
27.3836733494
 30
0.0
 10
198.7513127037
 20
27.1690747214
 30
0.0
 10
199.0913991879
 20
27.1690747214
 30
0.0
 10
199.430962261
 20
27.1690747214
 30
0.0
 10
199.5790876554
 20
27.3836733494
 30
0.0
 10
199.5790876554
 20
27.6987669447
 30
0.0
 10
199.5790876554
 20
27.6987669447
 30
0.0
 10
199.5790876554
 20
28.3608822239
 30
0.0
 10
199.5790876554
 20
28.3608822239
 30
0.0
 10
199.5790876554
 20
28.3608822239
 30
0.0
 10
199.3570304165
 20
28.3608822239
 30
0.0
 10
199.3570304165
 20
28.3608822239
 30
0.0
 10
199.3570304165
 20
28.3608822239
 30
0.0
 10
199.3570304165
 20
27.7238906865
 30
0.0
 10
199.3570304165
 20
27.7238906865
 30
0.0
 10
199.3570304165
 20
27.5380796793
 30
0.0
 10
199.3103159591
 20
27.3752987688
 30
0.0
 10
199.0913991879
 20
27.3752987688
 30
0.0
 10
198.8719590055
 20
27.3752987688
 30
0.0
 10
198.8252445481
 20
27.5380796793
 30
0.0
 10
198.8252445481
 20
27.7238906865
 30
0.0
 10
198.8252445481
 20
27.7238906865
 30
0.0
 10
198.8252445481
 20
28.3608822239
 30
0.0
 10
198.8252445481
 20
28.3608822239
 30
0.0
 10
198.8252445481
 20
28.3608822239
 30
0.0
 10
198.6034490148
 20
28.3608822239
 30
0.0
 10
198.6034490148
 20
28.3608822239
 30
0.0
  0
SPLINE
  5
248
100
AcDbEntity
  8
0
100
AcDbSpline
 62
7
  6
CONTINUOUS
 70
2
 71
3
 72
35
 73
31
 74
0
 42
0.0000001
 43
0.0000001
 44
0.0000000001
 40
0.0
 40
0.0
 40
0.0
 40
0.0
 40
1.0
 40
1.0
 40
1.0
 40
2.0
 40
2.0
 40
2.0
 40
3.0
 40
3.0
 40
3.0
 40
4.0
 40
4.0
 40
4.0
 40
5.0
 40
5.0
 40
5.0
 40
6.0
 40
6.0
 40
6.0
 40
7.0
 40
7.0
 40
7.0
 40
8.0
 40
8.0
 40
8.0
 40
9.0
 40
9.0
 40
9.0
 40
10.0
 40
10.0
 40
10.0
 40
10.0
 10
202.0022202126
 20
28.3195327321
 30
0.0
 10
201.913763705
 20
28.3708270383
 30
0.0
 10
201.8003143083
 20
28.3959507801
 30
0.0
 10
201.6966788733
 20
28.3959507801
 30
0.0
 10
201.3418060201
 20
28.3959507801
 30
0.0
 10
201.0663608299
 20
28.1321514911
 30
0.0
 10
201.0663608299
 20
27.7746615814
 30
0.0
 10
201.0663608299
 20
27.4297335427
 30
0.0
 10
201.344815635
 20
27.1695981327
 30
0.0
 10
201.6843787081
 20
27.1695981327
 30
0.0
 10
201.8003143083
 20
27.1695981327
 30
0.0
 10
201.9010709812
 20
27.1915814068
 30
0.0
 10
202.0022202126
 20
27.2454927694
 30
0.0
 10
202.0022202126
 20
27.2454927694
 30
0.0
 10
202.0022202126
 20
27.5281348649
 30
0.0
 10
202.0022202126
 20
27.5281348649
 30
0.0
 10
201.9183435537
 20
27.4349676556
 30
0.0
 10
201.8148389716
 20
27.3758221801
 30
0.0
 10
201.6867340588
 20
27.3758221801
 30
0.0
 10
201.4530309188
 20
27.3758221801
 30
0.0
 10
201.2877638047
 20
27.5480244938
 30
0.0
 10
201.2877638047
 20
27.7846063959
 30
0.0
 10
201.2877638047
 20
27.9965879675
 30
0.0
 10
201.4555171224
 20
28.1886799102
 30
0.0
 10
201.6723402484
 20
28.1886799102
 30
0.0
 10
201.8051558627
 20
28.1886799102
 30
0.0
 10
201.913763705
 20
28.1347685475
 30
0.0
 10
202.0022202126
 20
28.0337501689
 30
0.0
 10
202.0022202126
 20
28.0337501689
 30
0.0
 10
202.0022202126
 20
28.3195327321
 30
0.0
 10
202.0022202126
 20
28.3195327321
 30
0.0
  0
SPLINE
  5
249
100
AcDbEntity
  8
0
100
AcDbSpline
 62
7
  6
CONTINUOUS
 70
2
 71
3
 72
32
 73
28
 74
0
 42
0.0000001
 43
0.0000001
 44
0.0000000001
 40
0.0
 40
0.0
 40
0.0
 40
0.0
 40
1.0
 40
1.0
 40
1.0
 40
2.0
 40
2.0
 40
2.0
 40
3.0
 40
3.0
 40
3.0
 40
4.0
 40
4.0
 40
4.0
 40
5.0
 40
5.0
 40
5.0
 40
6.0
 40
6.0
 40
6.0
 40
7.0
 40
7.0
 40
7.0
 40
8.0
 40
8.0
 40
8.0
 40
9.0
 40
9.0
 40
9.0
 40
9.0
 10
204.5340914649
 20
27.7479676058
 30
0.0
 10
204.5340914649
 20
27.7479676058
 30
0.0
 10
204.5340914649
 20
27.7819893395
 30
0.0
 10
204.5340914649
 20
27.7819893395
 30
0.0
 10
204.5340914649
 20
28.1243003217
 30
0.0
 10
204.361234887
 20
28.3959507801
 30
0.0
 10
203.9945852799
 20
28.3959507801
 30
0.0
 10
203.6229632655
 20
28.3959507801
 30
0.0
 10
203.4332266736
 20
28.1295344346
 30
0.0
 10
203.4332266736
 20
27.7746615814
 30
0.0
 10
203.4332266736
 20
27.4349676556
 30
0.0
 10
203.6473018904
 20
27.1690747214
 30
0.0
 10
203.9994268343
 20
27.1690747214
 30
0.0
 10
204.2234468655
 20
27.1690747214
 30
0.0
 10
204.4256144755
 20
27.284748616
 30
0.0
 10
204.5340914649
 20
27.4841683167
 30
0.0
 10
204.5340914649
 20
27.4841683167
 30
0.0
 10
204.3464485182
 20
27.5909442194
 30
0.0
 10
204.3464485182
 20
27.5909442194
 30
0.0
 10
204.2629644177
 20
27.4522402281
 30
0.0
 10
204.1717600008
 20
27.3664007769
 30
0.0
 10
204.0021747436
 20
27.3664007769
 30
0.0
 10
203.790193172
 20
27.3664007769
 30
0.0
 10
203.6572467049
 20
27.5511649615
 30
0.0
 10
203.6548913541
 20
27.7479676058
 30
0.0
 10
203.6548913541
 20
27.7479676058
 30
0.0
 10
204.5340914649
 20
27.7479676058
 30
0.0
 10
204.5340914649
 20
27.7479676058
 30
0.0
  0
SPLINE
  5
24A
100
AcDbEntity
  8
0
100
AcDbSpline
 62
7
  6
CONTINUOUS
 70
2
 71
3
 72
14
 73
10
 74
0
 42
0.0000001
 43
0.0000001
 44
0.0000000001
 40
0.0
 40
0.0
 40
0.0
 40
0.0
 40
1.0
 40
1.0
 40
1.0
 40
2.0
 40
2.0
 40
2.0
 40
3.0
 40
3.0
 40
3.0
 40
3.0
 10
203.6669298137
 20
27.9154592179
 30
0.0
 10
203.6945397591
 20
28.0803337736
 30
0.0
 10
203.8223829662
 20
28.2033354262
 30
0.0
 10
203.9945852799
 20
28.2033354262
 30
0.0
 10
204.1717600008
 20
28.2033354262
 30
0.0
 10
204.2852093975
 20
28.0876615316
 30
0.0
 10
204.3124267844
 20
27.9154592179
 30
0.0
 10
204.3124267844
 20
27.9154592179
 30
0.0
 10
203.6669298137
 20
27.9154592179
 30
0.0
 10
203.6669298137
 20
27.9154592179
 30
0.0
  0
SPLINE
  5
24B
100
AcDbEntity
  8
0
100
AcDbSpline
 62
7
  6
CONTINUOUS
 70
2
 71
3
 72
20
 73
16
 74
0
 42
0.0000001
 43
0.0000001
 44
0.0000000001
 40
0.0
 40
0.0
 40
0.0
 40
0.0
 40
1.0
 40
1.0
 40
1.0
 40
2.0
 40
2.0
 40
2.0
 40
3.0
 40
3.0
 40
3.0
 40
4.0
 40
4.0
 40
4.0
 40
5.0
 40
5.0
 40
5.0
 40
5.0
 10
206.5581229151
 20
28.124823733
 30
0.0
 10
206.5581229151
 20
28.124823733
 30
0.0
 10
206.9692624817
 20
27.6223488967
 30
0.0
 10
206.9692624817
 20
27.6223488967
 30
0.0
 10
206.8531960286
 20
27.5066750021
 30
0.0
 10
206.7154080071
 20
27.3763455914
 30
0.0
 10
206.543467399
 20
27.3763455914
 30
0.0
 10
206.3660309724
 20
27.3763455914
 30
0.0
 10
206.1985393603
 20
27.5406967358
 30
0.0
 10
206.1985393603
 20
27.7176097511
 30
0.0
 10
206.1985393603
 20
27.8955695889
 30
0.0
 10
206.4082964339
 20
28.0217117093
 30
0.0
 10
206.5358779353
 20
28.1096448057
 30
0.0
 10
206.5358779353
 20
28.1096448057
 30
0.0
 10
206.5581229151
 20
28.124823733
 30
0.0
 10
206.5581229151
 20
28.124823733
 30
0.0
  0
SPLINE
  5
24C
100
AcDbEntity
  8
0
100
AcDbSpline
 62
7
  6
CONTINUOUS
 70
2
 71
3
 72
23
 73
19
 74
0
 42
0.0000001
 43
0.0000001
 44
0.0000000001
 40
0.0
 40
0.0
 40
0.0
 40
0.0
 40
1.0
 40
1.0
 40
1.0
 40
2.0
 40
2.0
 40
2.0
 40
3.0
 40
3.0
 40
3.0
 40
4.0
 40
4.0
 40
4.0
 40
5.0
 40
5.0
 40
5.0
 40
6.0
 40
6.0
 40
6.0
 40
6.0
 10
206.6074544289
 20
28.4158404091
 30
0.0
 10
206.6074544289
 20
28.4158404091
 30
0.0
 10
206.5458227498
 20
28.4943521023
 30
0.0
 10
206.5458227498
 20
28.4943521023
 30
0.0
 10
206.4919113871
 20
28.562918981
 30
0.0
 10
206.4351212624
 20
28.632009271
 30
0.0
 10
206.4351212624
 20
28.7256998915
 30
0.0
 10
206.4351212624
 20
28.8445142539
 30
0.0
 10
206.5310363809
 20
28.9219791245
 30
0.0
 10
206.6419995739
 20
28.9219791245
 30
0.0
 10
206.7652629322
 20
28.9219791245
 30
0.0
 10
206.8585609943
 20
28.8507951893
 30
0.0
 10
206.8585609943
 20
28.7204657786
 30
0.0
 10
206.8585609943
 20
28.5854256664
 30
0.0
 10
206.7304560816
 20
28.5090076183
 30
0.0
 10
206.6368963139
 20
28.4352066267
 30
0.0
 10
206.6368963139
 20
28.4352066267
 30
0.0
 10
206.6074544289
 20
28.4158404091
 30
0.0
 10
206.6074544289
 20
28.4158404091
 30
0.0
  0
SPLINE
  5
24D
100
AcDbEntity
  8
0
100
AcDbSpline
 62
7
  6
CONTINUOUS
 70
2
 71
3
 72
50
 73
46
 74
0
 42
0.0000001
 43
0.0000001
 44
0.0000000001
 40
0.0
 40
0.0
 40
0.0
 40
0.0
 40
1.0
 40
1.0
 40
1.0
 40
2.0
 40
2.0
 40
2.0
 40
3.0
 40
3.0
 40
3.0
 40
4.0
 40
4.0
 40
4.0
 40
5.0
 40
5.0
 40
5.0
 40
6.0
 40
6.0
 40
6.0
 40
7.0
 40
7.0
 40
7.0
 40
8.0
 40
8.0
 40
8.0
 40
9.0
 40
9.0
 40
9.0
 40
10.0
 40
10.0
 40
10.0
 40
11.0
 40
11.0
 40
11.0
 40
12.0
 40
12.0
 40
12.0
 40
13.0
 40
13.0
 40
13.0
 40
14.0
 40
14.0
 40
14.0
 40
15.0
 40
15.0
 40
15.0
 40
15.0
 10
207.3096106716
 20
27.2088539793
 30
0.0
 10
207.3096106716
 20
27.2088539793
 30
0.0
 10
207.5950006763
 20
27.2088539793
 30
0.0
 10
207.5950006763
 20
27.2088539793
 30
0.0
 10
207.5950006763
 20
27.2088539793
 30
0.0
 10
207.2626345085
 20
27.6197318402
 30
0.0
 10
207.2626345085
 20
27.6197318402
 30
0.0
 10
207.2626345085
 20
27.6197318402
 30
0.0
 10
207.4891407434
 20
27.8856247745
 30
0.0
 10
207.4891407434
 20
27.8856247745
 30
0.0
 10
207.4891407434
 20
27.8856247745
 30
0.0
 10
207.3408844961
 20
28.0384608705
 30
0.0
 10
207.3408844961
 20
28.0384608705
 30
0.0
 10
207.3408844961
 20
28.0384608705
 30
0.0
 10
207.1249773398
 20
27.7872234524
 30
0.0
 10
207.1249773398
 20
27.7872234524
 30
0.0
 10
207.1249773398
 20
27.7872234524
 30
0.0
 10
206.7379146924
 20
28.2551531437
 30
0.0
 10
206.7379146924
 20
28.2551531437
 30
0.0
 10
206.8933678449
 20
28.3692568045
 30
0.0
 10
207.0756458259
 20
28.5090076183
 30
0.0
 10
207.0756458259
 20
28.7183721335
 30
0.0
 10
207.0756458259
 20
28.9622817936
 30
0.0
 10
206.8736090688
 20
29.1056964865
 30
0.0
 10
206.647102834
 20
29.1056964865
 30
0.0
 10
206.4029314682
 20
29.1056964865
 30
0.0
 10
206.2185598421
 20
28.9549540356
 30
0.0
 10
206.2185598421
 20
28.6984825045
 30
0.0
 10
206.2185598421
 20
28.5409357069
 30
0.0
 10
206.3172228698
 20
28.4032785382
 30
0.0
 10
206.4225593915
 20
28.2923153452
 30
0.0
 10
206.4225593915
 20
28.2923153452
 30
0.0
 10
206.3070163497
 20
28.2085695391
 30
0.0
 10
206.3070163497
 20
28.2085695391
 30
0.0
 10
206.1293182175
 20
28.0803337736
 30
0.0
 10
205.9819779399
 20
27.9526214193
 30
0.0
 10
205.9819779399
 20
27.7155161059
 30
0.0
 10
205.9819779399
 20
27.3951883977
 30
0.0
 10
206.2405431161
 20
27.1690747214
 30
0.0
 10
206.5509260098
 20
27.1690747214
 30
0.0
 10
206.769842781
 20
27.1690747214
 30
0.0
 10
206.9670379837
 20
27.2941700192
 30
0.0
 10
207.1073122089
 20
27.4600913974
 30
0.0
 10
207.1073122089
 20
27.4600913974
 30
0.0
 10
207.3096106716
 20
27.2088539793
 30
0.0
 10
207.3096106716
 20
27.2088539793
 30
0.0
  0
LWPOLYLINE
  5
24E
100
AcDbEntity
  8
0
100
AcDbPolyline
 62
7
  6
CONTINUOUS
 90
2
 70
0
 43
0.2
 10
209.2450547613
 20
29.0653938173
 10
209.0137069721
 20
29.0653938173
  0
LWPOLYLINE
  5
24F
100
AcDbEntity
  8
0
100
AcDbPolyline
 62
7
  6
CONTINUOUS
 90
2
 70
0
 43
0.2
 10
209.0137069721
 20
29.0653938173
 10
209.0137069721
 20
27.208330568
  0
LWPOLYLINE
  5
250
100
AcDbEntity
  8
0
100
AcDbPolyline
 62
7
  6
CONTINUOUS
 90
2
 70
0
 43
0.2
 10
209.0137069721
 20
27.208330568
 10
209.809030424
 20
27.208330568
  0
LWPOLYLINE
  5
251
100
AcDbEntity
  8
0
100
AcDbPolyline
 62
7
  6
CONTINUOUS
 90
2
 70
0
 43
0.2
 10
209.809030424
 20
27.208330568
 10
209.809030424
 20
27.4203121396
  0
LWPOLYLINE
  5
252
100
AcDbEntity
  8
0
100
AcDbPolyline
 62
7
  6
CONTINUOUS
 90
2
 70
0
 43
0.2
 10
209.809030424
 20
27.4203121396
 10
209.2450547613
 20
27.4203121396
  0
LWPOLYLINE
  5
253
100
AcDbEntity
  8
0
100
AcDbPolyline
 62
7
  6
CONTINUOUS
 90
2
 70
0
 43
0.2
 10
209.2450547613
 20
27.4203121396
 10
209.2450547613
 20
29.0653938173
  0
LWPOLYLINE
  5
254
100
AcDbEntity
  8
0
100
AcDbPolyline
 62
7
  6
CONTINUOUS
 90
2
 70
0
 43
0.2
 10
211.4881338355
 20
28.3608822239
 10
211.2669925664
 20
28.3608822239
  0
LWPOLYLINE
  5
255
100
AcDbEntity
  8
0
100
AcDbPolyline
 62
7
  6
CONTINUOUS
 90
2
 70
0
 43
0.2
 10
211.2669925664
 20
28.3608822239
 10
211.2669925664
 20
27.2088539793
  0
LWPOLYLINE
  5
256
100
AcDbEntity
  8
0
100
AcDbPolyline
 62
7
  6
CONTINUOUS
 90
2
 70
0
 43
0.2
 10
211.2669925664
 20
27.2088539793
 10
211.4881338355
 20
27.2088539793
  0
LWPOLYLINE
  5
257
100
AcDbEntity
  8
0
100
AcDbPolyline
 62
7
  6
CONTINUOUS
 90
2
 70
0
 43
0.2
 10
211.4881338355
 20
27.2088539793
 10
211.4881338355
 20
28.3608822239
  0
SPLINE
  5
258
100
AcDbEntity
  8
0
100
AcDbSpline
 62
7
  6
CONTINUOUS
 70
2
 71
3
 72
17
 73
13
 74
0
 42
0.0000001
 43
0.0000001
 44
0.0000000001
 40
0.0
 40
0.0
 40
0.0
 40
0.0
 40
1.0
 40
1.0
 40
1.0
 40
2.0
 40
2.0
 40
2.0
 40
3.0
 40
3.0
 40
3.0
 40
4.0
 40
4.0
 40
4.0
 40
4.0
 10
211.3776940538
 20
29.0434105432
 30
0.0
 10
211.2936865421
 20
29.0434105432
 30
0.0
 10
211.2251196633
 20
28.9743202532
 30
0.0
 10
211.2251196633
 20
28.888480802
 30
0.0
 10
211.2251196633
 20
28.8042115847
 30
0.0
 10
211.2936865421
 20
28.7382617624
 30
0.0
 10
211.3776940538
 20
28.7382617624
 30
0.0
 10
211.4614398598
 20
28.7382617624
 30
0.0
 10
211.5302684442
 20
28.8042115847
 30
0.0
 10
211.5302684442
 20
28.888480802
 30
0.0
 10
211.5302684442
 20
28.9743202532
 30
0.0
 10
211.4614398598
 20
29.0434105432
 30
0.0
 10
211.3776940538
 20
29.0434105432
 30
0.0
  0
SPLINE
  5
259
100
AcDbEntity
  8
0
100
AcDbSpline
 62
7
  6
CONTINUOUS
 70
2
 71
3
 72
17
 73
13
 74
0
 42
0.0000001
 43
0.0000001
 44
0.0000000001
 40
0.0
 40
0.0
 40
0.0
 40
0.0
 40
1.0
 40
1.0
 40
1.0
 40
2.0
 40
2.0
 40
2.0
 40
3.0
 40
3.0
 40
3.0
 40
4.0
 40
4.0
 40
4.0
 40
4.0
 10
213.6184177771
 20
27.3664007769
 30
0.0
 10
213.3844529315
 20
27.3664007769
 30
0.0
 10
213.2541235208
 20
27.568437534
 30
0.0
 10
213.2541235208
 20
27.7846063959
 30
0.0
 10
213.2541235208
 20
27.9992050239
 30
0.0
 10
213.38994875
 20
28.1981013133
 30
0.0
 10
213.6184177771
 20
28.1981013133
 30
0.0
 10
213.8578784413
 20
28.1981013133
 30
0.0
 10
213.9934419649
 20
28.0091498384
 30
0.0
 10
213.9934419649
 20
27.7846063959
 30
0.0
 10
213.9934419649
 20
27.5584927196
 30
0.0
 10
213.8602337921
 20
27.3664007769
 30
0.0
 10
213.6184177771
 20
27.3664007769
 30
0.0
  0
SPLINE
  5
25A
100
AcDbEntity
  8
0
100
AcDbSpline
 62
7
  6
CONTINUOUS
 70
2
 71
3
 72
50
 73
46
 74
0
 42
0.0000001
 43
0.0000001
 44
0.0000000001
 40
0.0
 40
0.0
 40
0.0
 40
0.0
 40
1.0
 40
1.0
 40
1.0
 40
2.0
 40
2.0
 40
2.0
 40
3.0
 40
3.0
 40
3.0
 40
4.0
 40
4.0
 40
4.0
 40
5.0
 40
5.0
 40
5.0
 40
6.0
 40
6.0
 40
6.0
 40
7.0
 40
7.0
 40
7.0
 40
8.0
 40
8.0
 40
8.0
 40
9.0
 40
9.0
 40
9.0
 40
10.0
 40
10.0
 40
10.0
 40
11.0
 40
11.0
 40
11.0
 40
12.0
 40
12.0
 40
12.0
 40
13.0
 40
13.0
 40
13.0
 40
14.0
 40
14.0
 40
14.0
 40
15.0
 40
15.0
 40
15.0
 40
15.0
 10
214.2025447744
 20
28.3614056352
 30
0.0
 10
214.2025447744
 20
28.3614056352
 30
0.0
 10
213.980880094
 20
28.3614056352
 30
0.0
 10
213.980880094
 20
28.3614056352
 30
0.0
 10
213.980880094
 20
28.3614056352
 30
0.0
 10
213.980880094
 20
28.1640795796
 30
0.0
 10
213.980880094
 20
28.1640795796
 30
0.0
 10
213.980880094
 20
28.1640795796
 30
0.0
 10
213.9761693924
 20
28.1640795796
 30
0.0
 10
213.9761693924
 20
28.1640795796
 30
0.0
 10
213.8848341227
 20
28.3069708612
 30
0.0
 10
213.7469152483
 20
28.3954273689
 30
0.0
 10
213.5741895233
 20
28.3954273689
 30
0.0
 10
213.2418233555
 20
28.3954273689
 30
0.0
 10
213.032720546
 20
28.1075511605
 30
0.0
 10
213.032720546
 20
27.7919341539
 30
0.0
 10
213.032720546
 20
27.4621850426
 30
0.0
 10
213.2297848959
 20
27.1690747214
 30
0.0
 10
213.5846577491
 20
27.1690747214
 30
0.0
 10
213.7469152483
 20
27.1690747214
 30
0.0
 10
213.8869277678
 20
27.257531229
 30
0.0
 10
213.9761693924
 20
27.388384051
 30
0.0
 10
213.9761693924
 20
27.388384051
 30
0.0
 10
213.980880094
 20
27.388384051
 30
0.0
 10
213.980880094
 20
27.388384051
 30
0.0
 10
213.980880094
 20
27.388384051
 30
0.0
 10
213.980880094
 20
27.1690747214
 30
0.0
 10
213.980880094
 20
27.1690747214
 30
0.0
 10
213.980880094
 20
26.9324928193
 30
0.0
 10
213.9243516749
 20
26.7456349895
 30
0.0
 10
213.6511309826
 20
26.7456349895
 30
0.0
 10
213.4488325199
 20
26.7456349895
 30
0.0
 10
213.3062029439
 20
26.8639259406
 30
0.0
 10
213.3062029439
 20
27.070149988
 30
0.0
 10
213.3062029439
 20
27.070149988
 30
0.0
 10
213.0845382635
 20
27.070149988
 30
0.0
 10
213.0845382635
 20
27.070149988
 30
0.0
 10
213.0895106707
 20
26.7456349895
 30
0.0
 10
213.3205967543
 20
26.5488323453
 30
0.0
 10
213.6409244625
 20
26.5488323453
 30
0.0
 10
214.0889645249
 20
26.5488323453
 30
0.0
 10
214.2025447744
 20
26.8340914971
 30
0.0
 10
214.2025447744
 20
27.2308372534
 30
0.0
 10
214.2025447744
 20
27.2308372534
 30
0.0
 10
214.2025447744
 20
28.3614056352
 30
0.0
 10
214.2025447744
 20
28.3614056352
 30
0.0
  0
SPLINE
  5
25B
100
AcDbEntity
  8
0
100
AcDbSpline
 62
7
  6
CONTINUOUS
 70
2
 71
3
 72
44
 73
40
 74
0
 42
0.0000001
 43
0.0000001
 44
0.0000000001
 40
0.0
 40
0.0
 40
0.0
 40
0.0
 40
1.0
 40
1.0
 40
1.0
 40
2.0
 40
2.0
 40
2.0
 40
3.0
 40
3.0
 40
3.0
 40
4.0
 40
4.0
 40
4.0
 40
5.0
 40
5.0
 40
5.0
 40
6.0
 40
6.0
 40
6.0
 40
7.0
 40
7.0
 40
7.0
 40
8.0
 40
8.0
 40
8.0
 40
9.0
 40
9.0
 40
9.0
 40
10.0
 40
10.0
 40
10.0
 40
11.0
 40
11.0
 40
11.0
 40
12.0
 40
12.0
 40
12.0
 40
13.0
 40
13.0
 40
13.0
 40
13.0
 10
215.7714701098
 20
29.3464656789
 30
0.0
 10
215.7714701098
 20
29.3464656789
 30
0.0
 10
215.7714701098
 20
27.208330568
 30
0.0
 10
215.7714701098
 20
27.208330568
 30
0.0
 10
215.7714701098
 20
27.208330568
 30
0.0
 10
215.9928730846
 20
27.208330568
 30
0.0
 10
215.9928730846
 20
27.208330568
 30
0.0
 10
215.9928730846
 20
27.208330568
 30
0.0
 10
215.9928730846
 20
27.7380227913
 30
0.0
 10
215.9928730846
 20
27.7380227913
 30
0.0
 10
215.9928730846
 20
27.9479107177
 30
0.0
 10
215.9928730846
 20
28.1986247246
 30
0.0
 10
216.2781322364
 20
28.1986247246
 30
0.0
 10
216.5050310297
 20
28.1986247246
 30
0.0
 10
216.5319867111
 20
28.0656782575
 30
0.0
 10
216.5319867111
 20
27.8693990246
 30
0.0
 10
216.5319867111
 20
27.8693990246
 30
0.0
 10
216.5319867111
 20
27.208330568
 30
0.0
 10
216.5319867111
 20
27.208330568
 30
0.0
 10
216.5319867111
 20
27.208330568
 30
0.0
 10
216.7539130971
 20
27.208330568
 30
0.0
 10
216.7539130971
 20
27.208330568
 30
0.0
 10
216.7539130971
 20
27.208330568
 30
0.0
 10
216.7539130971
 20
27.8955695889
 30
0.0
 10
216.7539130971
 20
27.8955695889
 30
0.0
 10
216.7539130971
 20
28.1761180392
 30
0.0
 10
216.6699055854
 20
28.3959507801
 30
0.0
 10
216.3448671757
 20
28.3959507801
 30
0.0
 10
216.2051163618
 20
28.3959507801
 30
0.0
 10
216.0669357818
 20
28.3294775466
 30
0.0
 10
215.9975837861
 20
28.2064758939
 30
0.0
 10
215.9975837861
 20
28.2064758939
 30
0.0
 10
215.9928730846
 20
28.2064758939
 30
0.0
 10
215.9928730846
 20
28.2064758939
 30
0.0
 10
215.9928730846
 20
28.2064758939
 30
0.0
 10
215.9928730846
 20
29.3464656789
 30
0.0
 10
215.9928730846
 20
29.3464656789
 30
0.0
 10
215.9928730846
 20
29.3464656789
 30
0.0
 10
215.7714701098
 20
29.3464656789
 30
0.0
 10
215.7714701098
 20
29.3464656789
 30
0.0
  0
LWPOLYLINE
  5
25C
100
AcDbEntity
  8
0
100
AcDbPolyline
 62
7
  6
CONTINUOUS
 90
2
 70
0
 43
0.2
 10
218.593703774
 20
28.1541347652
 10
218.8101343415
 20
28.1541347652
  0
LWPOLYLINE
  5
25D
100
AcDbEntity
  8
0
100
AcDbPolyline
 62
7
  6
CONTINUOUS
 90
2
 70
0
 43
0.2
 10
218.8101343415
 20
28.1541347652
 10
218.8101343415
 20
28.3608822239
  0
LWPOLYLINE
  5
25E
100
AcDbEntity
  8
0
100
AcDbPolyline
 62
7
  6
CONTINUOUS
 90
2
 70
0
 43
0.2
 10
218.8101343415
 20
28.3608822239
 10
218.593703774
 20
28.3608822239
  0
LWPOLYLINE
  5
25F
100
AcDbEntity
  8
0
100
AcDbPolyline
 62
7
  6
CONTINUOUS
 90
2
 70
0
 43
0.2
 10
218.593703774
 20
28.3608822239
 10
218.593703774
 20
28.8015945282
  0
LWPOLYLINE
  5
260
100
AcDbEntity
  8
0
100
AcDbPolyline
 62
7
  6
CONTINUOUS
 90
2
 70
0
 43
0.2
 10
218.593703774
 20
28.8015945282
 10
218.3720390936
 20
28.8015945282
  0
LWPOLYLINE
  5
261
100
AcDbEntity
  8
0
100
AcDbPolyline
 62
7
  6
CONTINUOUS
 90
2
 70
0
 43
0.2
 10
218.3720390936
 20
28.8015945282
 10
218.3720390936
 20
28.3608822239
  0
LWPOLYLINE
  5
262
100
AcDbEntity
  8
0
100
AcDbPolyline
 62
7
  6
CONTINUOUS
 90
2
 70
0
 43
0.2
 10
218.3720390936
 20
28.3608822239
 10
218.2513927917
 20
28.3608822239
  0
LWPOLYLINE
  5
263
100
AcDbEntity
  8
0
100
AcDbPolyline
 62
7
  6
CONTINUOUS
 90
2
 70
0
 43
0.2
 10
218.2513927917
 20
28.3608822239
 10
218.2513927917
 20
28.1541347652
  0
LWPOLYLINE
  5
264
100
AcDbEntity
  8
0
100
AcDbPolyline
 62
7
  6
CONTINUOUS
 90
2
 70
0
 43
0.2
 10
218.2513927917
 20
28.1541347652
 10
218.3720390936
 20
28.1541347652
  0
LWPOLYLINE
  5
265
100
AcDbEntity
  8
0
100
AcDbPolyline
 62
7
  6
CONTINUOUS
 90
2
 70
0
 43
0.2
 10
218.3720390936
 20
28.1541347652
 10
218.3720390936
 20
27.208330568
  0
LWPOLYLINE
  5
266
100
AcDbEntity
  8
0
100
AcDbPolyline
 62
7
  6
CONTINUOUS
 90
2
 70
0
 43
0.2
 10
218.3720390936
 20
27.208330568
 10
218.593703774
 20
27.208330568
  0
LWPOLYLINE
  5
267
100
AcDbEntity
  8
0
100
AcDbPolyline
 62
7
  6
CONTINUOUS
 90
2
 70
0
 43
0.2
 10
218.593703774
 20
27.208330568
 10
218.593703774
 20
28.1541347652
  0
SPLINE
  5
268
100
AcDbEntity
  8
0
100
AcDbSpline
 62
7
  6
CONTINUOUS
 70
2
 71
3
 72
20
 73
16
 74
0
 42
0.0000001
 43
0.0000001
 44
0.0000000001
 40
0.0
 40
0.0
 40
0.0
 40
0.0
 40
1.0
 40
1.0
 40
1.0
 40
2.0
 40
2.0
 40
2.0
 40
3.0
 40
3.0
 40
3.0
 40
4.0
 40
4.0
 40
4.0
 40
5.0
 40
5.0
 40
5.0
 40
5.0
 10
206.3757140812
 20
37.5692570114
 30
0.0
 10
206.3757140812
 20
37.5692570114
 30
0.0
 10
208.6920707357
 20
34.7396955891
 30
0.0
 10
208.6920707357
 20
34.7396955891
 30
0.0
 10
208.0404236823
 20
34.0875251244
 30
0.0
 10
207.2635504783
 20
33.3516088537
 30
0.0
 10
206.2923608336
 20
33.3516088537
 30
0.0
 10
205.2938229492
 20
33.3516088537
 30
0.0
 10
204.3505049556
 20
34.281187301
 30
0.0
 10
204.3505049556
 20
35.2803794495
 30
0.0
 10
204.3505049556
 20
36.279571598
 30
0.0
 10
205.5293580287
 20
36.9861768367
 30
0.0
 10
206.2508804891
 20
37.4860346166
 30
0.0
 10
206.2508804891
 20
37.4860346166
 30
0.0
 10
206.3757140812
 20
37.5692570114
 30
0.0
 10
206.3757140812
 20
37.5692570114
 30
0.0
  0
SPLINE
  5
269
100
AcDbEntity
  8
0
100
AcDbSpline
 62
7
  6
CONTINUOUS
 70
2
 71
3
 72
23
 73
19
 74
0
 42
0.0000001
 43
0.0000001
 44
0.0000000001
 40
0.0
 40
0.0
 40
0.0
 40
0.0
 40
1.0
 40
1.0
 40
1.0
 40
2.0
 40
2.0
 40
2.0
 40
3.0
 40
3.0
 40
3.0
 40
4.0
 40
4.0
 40
4.0
 40
5.0
 40
5.0
 40
5.0
 40
6.0
 40
6.0
 40
6.0
 40
6.0
 10
206.6531220638
 20
39.2070109311
 30
0.0
 10
206.6531220638
 20
39.2070109311
 30
0.0
 10
206.3066237912
 20
39.6503402919
 30
0.0
 10
206.3066237912
 20
39.6503402919
 30
0.0
 10
206.0008207463
 20
40.0384497619
 30
0.0
 10
205.6819324192
 20
40.4269517903
 30
0.0
 10
205.6819324192
 20
40.9538961044
 30
0.0
 10
205.6819324192
 20
41.620067821
 30
0.0
 10
206.2232705436
 20
42.0637897403
 30
0.0
 10
206.8471767988
 20
42.0637897403
 30
0.0
 10
207.5409584609
 20
42.0637897403
 30
0.0
 10
208.0681644806
 20
41.6615481656
 30
0.0
 10
208.0681644806
 20
40.9265478646
 30
0.0
 10
208.0681644806
 20
40.163283354
 30
0.0
 10
207.3469037259
 20
39.7331701282
 30
0.0
 10
206.819828559
 20
39.3174507128
 30
0.0
 10
206.819828559
 20
39.3174507128
 30
0.0
 10
206.6531220638
 20
39.2070109311
 30
0.0
 10
206.6531220638
 20
39.2070109311
 30
0.0
  0
SPLINE
  5
26A
100
AcDbEntity
  8
0
100
AcDbSpline
 62
7
  6
CONTINUOUS
 70
2
 71
3
 72
50
 73
46
 74
0
 42
0.0000001
 43
0.0000001
 44
0.0000000001
 40
0.0
 40
0.0
 40
0.0
 40
0.0
 40
1.0
 40
1.0
 40
1.0
 40
2.0
 40
2.0
 40
2.0
 40
3.0
 40
3.0
 40
3.0
 40
4.0
 40
4.0
 40
4.0
 40
5.0
 40
5.0
 40
5.0
 40
6.0
 40
6.0
 40
6.0
 40
7.0
 40
7.0
 40
7.0
 40
8.0
 40
8.0
 40
8.0
 40
9.0
 40
9.0
 40
9.0
 40
10.0
 40
10.0
 40
10.0
 40
11.0
 40
11.0
 40
11.0
 40
12.0
 40
12.0
 40
12.0
 40
13.0
 40
13.0
 40
13.0
 40
14.0
 40
14.0
 40
14.0
 40
15.0
 40
15.0
 40
15.0
 40
15.0
 10
210.6067092267
 20
32.408421713
 30
0.0
 10
210.6067092267
 20
32.408421713
 30
0.0
 10
212.2159372313
 20
32.408421713
 30
0.0
 10
212.2159372313
 20
32.408421713
 30
0.0
 10
212.2159372313
 20
32.408421713
 30
0.0
 10
210.3429099376
 20
34.7255634844
 30
0.0
 10
210.3429099376
 20
34.7255634844
 30
0.0
 10
210.3429099376
 20
34.7255634844
 30
0.0
 10
211.6192483631
 20
36.223043179
 30
0.0
 10
211.6192483631
 20
36.223043179
 30
0.0
 10
211.6192483631
 20
36.223043179
 30
0.0
 10
210.7870244154
 20
37.0840547475
 30
0.0
 10
210.7870244154
 20
37.0840547475
 30
0.0
 10
210.7870244154
 20
37.0840547475
 30
0.0
 10
209.5664292921
 20
35.6687506251
 30
0.0
 10
209.5664292921
 20
35.6687506251
 30
0.0
 10
209.5664292921
 20
35.6687506251
 30
0.0
 10
207.3885149233
 20
38.3041264595
 30
0.0
 10
207.3885149233
 20
38.3041264595
 30
0.0
 10
208.2620883627
 20
38.9421648194
 30
0.0
 10
209.2887596039
 20
39.7331701282
 30
0.0
 10
209.2887596039
 20
40.9120232013
 30
0.0
 10
209.2887596039
 20
42.2857161264
 30
0.0
 10
208.150863464
 20
43.0901992758
 30
0.0
 10
206.8755718611
 20
43.0901992758
 30
0.0
 10
205.5021406418
 20
43.0901992758
 30
0.0
 10
204.461206443
 20
42.2439740762
 30
0.0
 10
204.461206443
 20
40.801321714
 30
0.0
 10
204.461206443
 20
39.9137470226
 30
0.0
 10
205.0165458195
 20
39.1368738185
 30
0.0
 10
205.6127112763
 20
38.5124441521
 30
0.0
 10
205.6127112763
 20
38.5124441521
 30
0.0
 10
204.9608025173
 20
38.0408505817
 30
0.0
 10
204.9608025173
 20
38.0408505817
 30
0.0
 10
203.9622646329
 20
37.319589827
 30
0.0
 10
203.129386421
 20
36.5983290724
 30
0.0
 10
203.129386421
 20
35.266770756
 30
0.0
 10
203.129386421
 20
33.463095458
 30
0.0
 10
204.5864325936
 20
32.1864953269
 30
0.0
 10
206.333972031
 20
32.1864953269
 30
0.0
 10
207.5688301119
 20
32.1864953269
 30
0.0
 10
208.6782003366
 20
32.8946707994
 30
0.0
 10
209.4690747925
 20
33.8232024241
 30
0.0
 10
209.4690747925
 20
33.8232024241
 30
0.0
 10
210.6067092267
 20
32.408421713
 30
0.0
 10
210.6067092267
 20
32.408421713
 30
0.0
  0
LINE
  5
26B
100
AcDbEntity
  8
0
100
AcDbLine
 62
7
  6
CONTINUOUS
 10
196.4095706017
 20
30.3822966176
 11
218.8234813294
 21
30.3822966176
  0
LINE
  5
26C
100
AcDbEntity
  8
0
100
AcDbLine
 62
7
  6
CONTINUOUS
 10
218.8234813294
 20
30.3822966176
 11
218.8234813294
 21
52.7962073453
  0
LINE
  5
26D
100
AcDbEntity
  8
0
100
AcDbLine
 62
7
  6
CONTINUOUS
 10
218.8234813294
 20
52.7962073453
 11
196.4095706017
 21
52.7962073453
  0
LINE
  5
26E
100
AcDbEntity
  8
0
100
AcDbLine
 62
7
  6
CONTINUOUS
 10
196.4095706017
 20
52.7962073453
 11
196.4095706017
 21
30.3822966176
  0
ENDBLK
  5
26F
100
AcDbEntity
  8
0
  6
BYBLOCK
 62
0
100
AcDbBlockEnd
  0
BLOCK
  5
270
100
AcDbEntity
  8
0
100
AcDbBlockBegin
  2
_CLOSED
 70
64
 10
0.0
 20
0.0
  3
_CLOSED
  1

  0
LINE
  5
271
100
AcDbEntity
  8
0
  6
BYBLOCK
 62
0
100
AcDbLine
 10
0.0
 20
0.0
 11
-1.0
 21
0.2
  0
LINE
  5
272
100
AcDbEntity
  8
0
  6
BYBLOCK
 62
0
100
AcDbLine
 10
-1.0
 20
0.2
 11
-1.0
 21
-0.2
  0
LINE
  5
273
100
AcDbEntity
  8
0
  6
BYBLOCK
 62
0
100
AcDbLine
 10
-1.0
 20
-0.2
 11
0.0
 21
0.0
  0
LINE
  5
274
100
AcDbEntity
  8
0
  6
BYBLOCK
 62
0
100
AcDbLine
 10
-1.0
 20
0.0
 11
0.0
 21
0.0
  0
ENDBLK
  5
275
100
AcDbEntity
  8
0
  6
BYBLOCK
 62
0
100
AcDbBlockEnd
  0
BLOCK
  5
276
100
AcDbEntity
  8
0
100
AcDbBlockBegin
 62
2
  6
CONTINUOUS
  2
*D0
 70
65
 10
0.0
 20
0.0
  3
*D0
  1

  0
MTEXT
  5
277
100
AcDbEntity
  8
0
100
AcDbMText
 62
2
  6
CONTINUOUS
  7
TEXTSTYLE_2
 71
1
 72
1
 10
88.0293383064
 20
177.0614278777
 30
0.0
 11
0.6540668721
 21
0.7564367303
 31
0.0
  1
{\Fgdt;n}\Farial.ttf;69,6
 40
3.0
 41
12.1524163569
  0
LINE
  5
278
100
AcDbEntity
  8
0
100
AcDbLine
 62
2
  6
CONTINUOUS
 10
86.3345946362
 20
169.3680763636
 11
98.8144689994
 21
183.8012112012
  0
INSERT
  5
279
100
AcDbEntity
  8
0
100
AcDbBlockReference
 62
2
  6
CONTINUOUS
  2
_CLOSED
 10
86.3345946362
 20
169.3680763636
 41
2.5
 42
2.5
 43
2.5
 50
229.1510669317
  0
ENDBLK
  5
27A
100
AcDbEntity
  8
0
  6
BYBLOCK
 62
0
100
AcDbBlockEnd
  0
BLOCK
  5
27B
100
AcDbEntity
  8
0
100
AcDbBlockBegin
 62
2
  6
CONTINUOUS
  2
*D1
 70
65
 10
0.0
 20
0.0
  3
*D1
  1

  0
MTEXT
  5
27C
100
AcDbEntity
  8
0
100
AcDbMText
 62
2
  6
CONTINUOUS
  7
STANDARD
 71
3
 72
1
 10
107.3141107886
 20
32.7119697017
 30
0.0
 11
0.0
 21
1.0
 31
0.0
  1
3
 40
3.0
 41
2.3308550186
  0
LINE
  5
27D
100
AcDbEntity
  8
0
100
AcDbLine
 62
2
  6
CONTINUOUS
 10
99.1230674886
 20
40.0869994017
 11
111.8141107886
 21
40.0869994017
  0
LINE
  5
27E
100
AcDbEntity
  8
0
100
AcDbLine
 62
2
  6
CONTINUOUS
 10
92.5363243199
 20
37.0869994017
 11
111.8141107886
 21
37.0869994017
  0
LINE
  5
27F
100
AcDbEntity
  8
0
100
AcDbLine
 62
2
  6
CONTINUOUS
 10
111.0641107886
 20
40.0869994017
 11
111.0641107886
 21
41.0869994017
  0
LINE
  5
280
100
AcDbEntity
  8
0
100
AcDbLine
 62
2
  6
CONTINUOUS
 10
111.0641107886
 20
41.0869994017
 11
111.0641107886
 21
38.5869994017
  0
LINE
  5
281
100
AcDbEntity
  8
0
100
AcDbLine
 62
2
  6
CONTINUOUS
 10
111.0641107886
 20
37.0869994017
 11
111.0641107886
 21
30.3811146831
  0
LINE
  5
282
100
AcDbEntity
  8
0
100
AcDbLine
 62
2
  6
CONTINUOUS
 10
111.0641107886
 20
30.3811146831
 11
111.0641107886
 21
38.5869994017
  0
INSERT
  5
283
100
AcDbEntity
  8
0
100
AcDbBlockReference
 62
2
  6
CONTINUOUS
  2
_CLOSED
 10
111.0641107886
 20
40.0869994017
 41
2.5
 42
2.5
 43
2.5
 50
270.0
  0
INSERT
  5
284
100
AcDbEntity
  8
0
100
AcDbBlockReference
 62
2
  6
CONTINUOUS
  2
_CLOSED
 10
111.0641107886
 20
37.0869994017
 41
2.5
 42
2.5
 43
2.5
 50
90.0
  0
ENDBLK
  5
285
100
AcDbEntity
  8
0
  6
BYBLOCK
 62
0
100
AcDbBlockEnd
  0
BLOCK
  5
286
100
AcDbEntity
  8
0
100
AcDbBlockBegin
 62
2
  6
CONTINUOUS
  2
*D2
 70
65
 10
0.0
 20
0.0
  3
*D2
  1

  0
MTEXT
  5
287
100
AcDbEntity
  8
0
100
AcDbMText
 62
2
  6
CONTINUOUS
  7
STANDARD
 71
2
 72
1
 10
107.3141107886
 20
53.5869994017
 30
0.0
 11
0.0
 21
1.0
 31
0.0
  1
27
 40
3.0
 41
4.6617100372
  0
LINE
  5
288
100
AcDbEntity
  8
0
100
AcDbLine
 62
2
  6
CONTINUOUS
 10
99.1230674886
 20
40.0869994017
 11
111.8141107886
 21
40.0869994017
  0
LINE
  5
289
100
AcDbEntity
  8
0
100
AcDbLine
 62
2
  6
CONTINUOUS
 10
93.0730674886
 20
67.0869994017
 11
111.8141107886
 21
67.0869994017
  0
LINE
  5
28A
100
AcDbEntity
  8
0
100
AcDbLine
 62
2
  6
CONTINUOUS
 10
111.0641107886
 20
40.0869994017
 11
111.0641107886
 21
53.5869994017
  0
LINE
  5
28B
100
AcDbEntity
  8
0
100
AcDbLine
 62
2
  6
CONTINUOUS
 10
111.0641107886
 20
67.0869994017
 11
111.0641107886
 21
53.5869994017
  0
INSERT
  5
28C
100
AcDbEntity
  8
0
100
AcDbBlockReference
 62
2
  6
CONTINUOUS
  2
_CLOSED
 10
111.0641107886
 20
40.0869994017
 41
2.5
 42
2.5
 43
2.5
 50
270.0
  0
INSERT
  5
28D
100
AcDbEntity
  8
0
100
AcDbBlockReference
 62
2
  6
CONTINUOUS
  2
_CLOSED
 10
111.0641107886
 20
67.0869994017
 41
2.5
 42
2.5
 43
2.5
 50
90.0
  0
ENDBLK
  5
28E
100
AcDbEntity
  8
0
  6
BYBLOCK
 62
0
100
AcDbBlockEnd
  0
BLOCK
  5
28F
100
AcDbEntity
  8
0
100
AcDbBlockBegin
 62
2
  6
CONTINUOUS
  2
*D3
 70
65
 10
0.0
 20
0.0
  3
*D3
  1

  0
MTEXT
  5
290
100
AcDbEntity
  8
0
100
AcDbMText
 62
2
  6
CONTINUOUS
  7
STANDARD
 71
2
 72
1
 10
114.529864234
 20
52.0869994017
 30
0.0
 11
0.0
 21
1.0
 31
0.0
  1
30
 40
3.0
 41
4.6617100372
  0
LINE
  5
291
100
AcDbEntity
  8
0
100
AcDbLine
 62
2
  6
CONTINUOUS
 10
93.0730674886
 20
67.0869994017
 11
119.029864234
 21
67.0869994017
  0
LINE
  5
292
100
AcDbEntity
  8
0
100
AcDbLine
 62
2
  6
CONTINUOUS
 10
92.5363243199
 20
37.0869994017
 11
119.029864234
 21
37.0869994017
  0
LINE
  5
293
100
AcDbEntity
  8
0
100
AcDbLine
 62
2
  6
CONTINUOUS
 10
118.279864234
 20
67.0869994017
 11
118.279864234
 21
52.0869994017
  0
LINE
  5
294
100
AcDbEntity
  8
0
100
AcDbLine
 62
2
  6
CONTINUOUS
 10
118.279864234
 20
37.0869994017
 11
118.279864234
 21
52.0869994017
  0
INSERT
  5
295
100
AcDbEntity
  8
0
100
AcDbBlockReference
 62
2
  6
CONTINUOUS
  2
_CLOSED
 10
118.279864234
 20
67.0869994017
 41
2.5
 42
2.5
 43
2.5
 50
90.0
  0
INSERT
  5
296
100
AcDbEntity
  8
0
100
AcDbBlockReference
 62
2
  6
CONTINUOUS
  2
_CLOSED
 10
118.279864234
 20
37.0869994017
 41
2.5
 42
2.5
 43
2.5
 50
270.0
  0
ENDBLK
  5
297
100
AcDbEntity
  8
0
  6
BYBLOCK
 62
0
100
AcDbBlockEnd
  0
BLOCK
  5
298
100
AcDbEntity
  8
0
100
AcDbBlockBegin
 62
2
  6
CONTINUOUS
  2
*D4
 70
65
 10
0.0
 20
0.0
  3
*D4
  1

  0
MTEXT
  5
299
100
AcDbEntity
  8
0
100
AcDbMText
 62
2
  6
CONTINUOUS
  7
STANDARD
 71
2
 72
1
 10
145.7282494837
 20
186.9712047378
 30
0.0
 11
1.0
 21
0.0
 31
0.0
  1
30
 40
3.0
 41
4.6617100372
  0
LINE
  5
29A
100
AcDbEntity
  8
0
100
AcDbLine
 62
2
  6
CONTINUOUS
 10
130.7282494837
 20
172.5440781508
 11
130.7282494837
 21
183.9712047378
  0
LINE
  5
29B
100
AcDbEntity
  8
0
100
AcDbLine
 62
2
  6
CONTINUOUS
 10
160.7282494837
 20
172.0073349821
 11
160.7282494837
 21
183.9712047378
  0
LINE
  5
29C
100
AcDbEntity
  8
0
100
AcDbLine
 62
2
  6
CONTINUOUS
 10
130.7282494837
 20
183.2212047378
 11
145.7282494837
 21
183.2212047378
  0
LINE
  5
29D
100
AcDbEntity
  8
0
100
AcDbLine
 62
2
  6
CONTINUOUS
 10
160.7282494837
 20
183.2212047378
 11
145.7282494837
 21
183.2212047378
  0
INSERT
  5
29E
100
AcDbEntity
  8
0
100
AcDbBlockReference
 62
2
  6
CONTINUOUS
  2
_CLOSED
 10
130.7282494837
 20
183.2212047378
 41
2.5
 42
2.5
 43
2.5
 50
180.0
  0
INSERT
  5
29F
100
AcDbEntity
  8
0
100
AcDbBlockReference
 62
2
  6
CONTINUOUS
  2
_CLOSED
 10
160.7282494837
 20
183.2212047378
 41
2.5
 42
2.5
 43
2.5
  0
ENDBLK
  5
2A0
100
AcDbEntity
  8
0
  6
BYBLOCK
 62
0
100
AcDbBlockEnd
  0
BLOCK
  5
2A1
100
AcDbEntity
  8
0
100
AcDbBlockBegin
 62
2
  6
CONTINUOUS
  2
*D5
 70
65
 10
0.0
 20
0.0
  3
*D5
  1

  0
MTEXT
  5
2A2
100
AcDbEntity
  8
0
100
AcDbMText
 62
2
  6
CONTINUOUS
  7
STANDARD
 71
1
 72
1
 10
166.0646168019
 20
186.9712047378
 30
0.0
 11
1.0
 21
0.0
 31
0.0
  1
2
 40
3.0
 41
2.3308550186
  0
LINE
  5
2A3
100
AcDbEntity
  8
0
100
AcDbLine
 62
2
  6
CONTINUOUS
 10
160.7282494837
 20
172.0073349821
 11
160.7282494837
 21
183.9712047378
  0
LINE
  5
2A4
100
AcDbEntity
  8
0
100
AcDbLine
 62
2
  6
CONTINUOUS
 10
162.7282494837
 20
145.4440781508
 11
162.7282494837
 21
183.9712047378
  0
LINE
  5
2A5
100
AcDbEntity
  8
0
100
AcDbLine
 62
2
  6
CONTINUOUS
 10
160.7282494837
 20
183.2212047378
 11
159.7282494837
 21
183.2212047378
  0
LINE
  5
2A6
100
AcDbEntity
  8
0
100
AcDbLine
 62
2
  6
CONTINUOUS
 10
159.7282494837
 20
183.2212047378
 11
161.7282494837
 21
183.2212047378
  0
LINE
  5
2A7
100
AcDbEntity
  8
0
100
AcDbLine
 62
2
  6
CONTINUOUS
 10
162.7282494837
 20
183.2212047378
 11
168.3954718205
 21
183.2212047378
  0
LINE
  5
2A8
100
AcDbEntity
  8
0
100
AcDbLine
 62
2
  6
CONTINUOUS
 10
168.3954718205
 20
183.2212047378
 11
161.7282494837
 21
183.2212047378
  0
INSERT
  5
2A9
100
AcDbEntity
  8
0
100
AcDbBlockReference
 62
2
  6
CONTINUOUS
  2
_CLOSED
 10
160.7282494837
 20
183.2212047378
 41
2.5
 42
2.5
 43
2.5
  0
INSERT
  5
2AA
100
AcDbEntity
  8
0
100
AcDbBlockReference
 62
2
  6
CONTINUOUS
  2
_CLOSED
 10
162.7282494837
 20
183.2212047378
 41
2.5
 42
2.5
 43
2.5
 50
180.0
  0
ENDBLK
  5
2AB
100
AcDbEntity
  8
0
  6
BYBLOCK
 62
0
100
AcDbBlockEnd
  0
BLOCK
  5
2AC
100
AcDbEntity
  8
0
100
AcDbBlockBegin
 62
2
  6
CONTINUOUS
  2
*D6
 70
65
 10
0.0
 20
0.0
  3
*D6
  1

  0
MTEXT
  5
2AD
100
AcDbEntity
  8
0
100
AcDbMText
 62
2
  6
CONTINUOUS
  7
STANDARD
 71
2
 72
1
 10
146.7282494837
 20
193.0732114795
 30
0.0
 11
1.0
 21
0.0
 31
0.0
  1
32
 40
3.0
 41
4.6617100372
  0
LINE
  5
2AE
100
AcDbEntity
  8
0
100
AcDbLine
 62
2
  6
CONTINUOUS
 10
130.7282494837
 20
172.5440781508
 11
130.7282494837
 21
190.0732114795
  0
LINE
  5
2AF
100
AcDbEntity
  8
0
100
AcDbLine
 62
2
  6
CONTINUOUS
 10
162.7282494837
 20
145.4440781508
 11
162.7282494837
 21
190.0732114795
  0
LINE
  5
2B0
100
AcDbEntity
  8
0
100
AcDbLine
 62
2
  6
CONTINUOUS
 10
130.7282494837
 20
189.3232114795
 11
146.7282494837
 21
189.3232114795
  0
LINE
  5
2B1
100
AcDbEntity
  8
0
100
AcDbLine
 62
2
  6
CONTINUOUS
 10
162.7282494837
 20
189.3232114795
 11
146.7282494837
 21
189.3232114795
  0
INSERT
  5
2B2
100
AcDbEntity
  8
0
100
AcDbBlockReference
 62
2
  6
CONTINUOUS
  2
_CLOSED
 10
130.7282494837
 20
189.3232114795
 41
2.5
 42
2.5
 43
2.5
 50
180.0
  0
INSERT
  5
2B3
100
AcDbEntity
  8
0
100
AcDbBlockReference
 62
2
  6
CONTINUOUS
  2
_CLOSED
 10
162.7282494837
 20
189.3232114795
 41
2.5
 42
2.5
 43
2.5
  0
ENDBLK
  5
2B4
100
AcDbEntity
  8
0
  6
BYBLOCK
 62
0
100
AcDbBlockEnd
  0
BLOCK
  5
2B5
100
AcDbEntity
  8
0
100
AcDbBlockBegin
 62
2
  6
CONTINUOUS
  2
*D7
 70
65
 10
0.0
 20
0.0
  3
*D7
  1

  0
MTEXT
  5
2B6
100
AcDbEntity
  8
0
100
AcDbMText
 62
2
  6
CONTINUOUS
  7
STANDARD
 71
3
 72
1
 10
76.1302630011
 20
26.6750866868
 30
0.0
 11
1.0
 21
0.0
 31
0.0
  1
Ø3,5
 40
3.0
 41
9.0780669145
  0
LINE
  5
2B7
100
AcDbEntity
  8
0
100
AcDbLine
 62
2
  6
CONTINUOUS
 10
80.5052927011
 20
34.4369994017
 11
80.5052927011
 21
22.1750866868
  0
LINE
  5
2B8
100
AcDbEntity
  8
0
100
AcDbLine
 62
2
  6
CONTINUOUS
 10
84.0052927011
 20
34.4369994017
 11
84.0052927011
 21
22.1750866868
  0
LINE
  5
2B9
100
AcDbEntity
  8
0
100
AcDbLine
 62
2
  6
CONTINUOUS
 10
80.5052927011
 20
22.9250866868
 11
67.0521960866
 21
22.9250866868
  0
LINE
  5
2BA
100
AcDbEntity
  8
0
100
AcDbLine
 62
2
  6
CONTINUOUS
 10
67.0521960866
 20
22.9250866868
 11
82.2552927011
 21
22.9250866868
  0
LINE
  5
2BB
100
AcDbEntity
  8
0
100
AcDbLine
 62
2
  6
CONTINUOUS
 10
84.0052927011
 20
22.9250866868
 11
85.0052927011
 21
22.9250866868
  0
LINE
  5
2BC
100
AcDbEntity
  8
0
100
AcDbLine
 62
2
  6
CONTINUOUS
 10
85.0052927011
 20
22.9250866868
 11
82.2552927011
 21
22.9250866868
  0
INSERT
  5
2BD
100
AcDbEntity
  8
0
100
AcDbBlockReference
 62
2
  6
CONTINUOUS
  2
_CLOSED
 10
80.5052927011
 20
22.9250866868
 41
2.5
 42
2.5
 43
2.5
  0
INSERT
  5
2BE
100
AcDbEntity
  8
0
100
AcDbBlockReference
 62
2
  6
CONTINUOUS
  2
_CLOSED
 10
84.0052927011
 20
22.9250866868
 41
2.5
 42
2.5
 43
2.5
 50
180.0
  0
ENDBLK
  5
2BF
100
AcDbEntity
  8
0
  6
BYBLOCK
 62
0
100
AcDbBlockEnd
  0
ENDSEC
  0
SECTION
  2
ENTITIES
  0
DIMENSION
  5
2C0
100
AcDbEntity
  8
0
100
AcDbDimension
 62
2
  6
CONTINUOUS
  2
*D0
 10
86.3345946362
 20
169.3680763636
 11
93.138239879
 21
180.6765946165
 70
163
  1
%%c<>
  3
DIMSTYLE_1
100
AcDbDiametricDimension
 15
40.811540341
 25
116.720079938
  0
DIMENSION
  5
2C1
100
AcDbEntity
  8
0
100
AcDbDimension
 62
2
  6
CONTINUOUS
  2
*D1
 10
111.0641107886
 20
37.0869994017
 11
111.0641107886
 21
31.546544849
 70
160
  3
DIMSTYLE_2
100
AcDbAlignedDimension
 13
98.3730674886
 23
40.0869994017
 14
91.7863243199
 24
37.0869994017
 50
270.0
100
AcDbRotatedDimension
  0
DIMENSION
  5
2C2
100
AcDbEntity
  8
0
100
AcDbDimension
 62
2
  6
CONTINUOUS
  2
*D2
 10
111.0641107886
 20
67.0869994017
 11
111.0641107886
 21
53.5510727638
 70
160
  3
DIMSTYLE_3
100
AcDbAlignedDimension
 13
98.3730674886
 23
40.0869994017
 14
92.3230674886
 24
67.0869994017
 50
90.0
100
AcDbRotatedDimension
  0
DIMENSION
  5
2C3
100
AcDbEntity
  8
0
100
AcDbDimension
 62
2
  6
CONTINUOUS
  2
*D3
 10
118.279864234
 20
37.0869994017
 11
118.279864234
 21
52.0845329872
 70
160
  3
DIMSTYLE_3
100
AcDbAlignedDimension
 13
92.3230674886
 23
67.0869994017
 14
91.7863243199
 24
37.0869994017
 50
270.0
100
AcDbRotatedDimension
  0
DIMENSION
  5
2C4
100
AcDbEntity
  8
0
100
AcDbDimension
 62
2
  6
CONTINUOUS
  2
*D4
 10
160.7282494837
 20
183.2212047378
 11
145.725780899
 21
183.2212047378
 70
160
  3
DIMSTYLE_3
100
AcDbAlignedDimension
 13
130.7282494837
 23
171.7940781508
 14
160.7282494837
 24
171.2573349821
 50
360.0
100
AcDbRotatedDimension
  0
DIMENSION
  5
2C5
100
AcDbEntity
  8
0
100
AcDbDimension
 62
2
  6
CONTINUOUS
  2
*D5
 10
162.7282494837
 20
183.2212047378
 11
167.1798570557
 21
183.2212047378
 70
160
  3
DIMSTYLE_2
100
AcDbAlignedDimension
 13
160.7282494837
 23
171.2573349821
 14
162.7282494837
 24
144.6940781508
100
AcDbRotatedDimension
  0
DIMENSION
  5
2C6
100
AcDbEntity
  8
0
100
AcDbDimension
 62
2
  6
CONTINUOUS
  2
*D6
 10
162.7282494837
 20
189.3232114795
 11
146.7090495758
 21
189.3232114795
 70
160
  3
DIMSTYLE_4
100
AcDbAlignedDimension
 13
130.7282494837
 23
171.7940781508
 14
162.7282494837
 24
144.6940781508
100
AcDbRotatedDimension
  0
DIMENSION
  5
2C7
100
AcDbEntity
  8
0
100
AcDbDimension
 62
2
  6
CONTINUOUS
  2
*D7
 10
84.0052927011
 20
22.9250866868
 11
71.5912295439
 21
22.9250866868
 70
160
  1
Ø<>
  3
DIMSTYLE_2
100
AcDbAlignedDimension
 13
80.5052927011
 23
35.1869994017
 14
84.0052927011
 24
35.1869994017
100
AcDbRotatedDimension
  0
LINE
  5
2C8
100
AcDbEntity
  8
0
100
AcDbLine
 62
2
  6
CONTINUOUS
 10
193.7904134944
 20
53.1725198453
 11
283.7904134944
 21
53.1725198453
  0
LINE
  5
2C9
100
AcDbEntity
  8
0
100
AcDbLine
 62
2
  6
CONTINUOUS
 10
193.7904134944
 20
53.1725198453
 11
193.7904134944
 21
13.1725198453
  0
LINE
  5
2CA
100
AcDbEntity
  8
0
100
AcDbLine
 62
2
  6
CONTINUOUS
 10
223.7904134944
 20
47.1725198453
 11
283.7904134944
 21
47.1725198453
  0
LINE
  5
2CB
100
AcDbEntity
  8
0
100
AcDbLine
 62
2
  6
CONTINUOUS
 10
223.7904134944
 20
41.1725198453
 11
283.7904134944
 21
41.1725198453
  0
LINE
  5
2CC
100
AcDbEntity
  8
0
100
AcDbLine
 62
2
  6
CONTINUOUS
 10
223.7904134944
 20
31.1725198453
 11
283.7904134944
 21
31.1725198453
  0
LINE
  5
2CD
100
AcDbEntity
  8
0
100
AcDbLine
 62
2
  6
CONTINUOUS
 10
193.7904134944
 20
26.1725198453
 11
283.7904134944
 21
26.1725198453
  0
LINE
  5
2CE
100
AcDbEntity
  8
0
100
AcDbLine
 62
2
  6
CONTINUOUS
 10
193.7904134944
 20
13.1725198453
 11
283.7904134944
 21
13.1725198453
  0
LINE
  5
2CF
100
AcDbEntity
  8
0
100
AcDbLine
 62
2
  6
CONTINUOUS
 10
223.7904134944
 20
53.1725198453
 11
223.7904134944
 21
26.1725198453
  0
LINE
  5
2D0
100
AcDbEntity
  8
0
100
AcDbLine
 62
2
  6
CONTINUOUS
 10
263.7904134944
 20
53.1725198453
 11
263.7904134944
 21
41.1725198453
  0
LINE
  5
2D1
100
AcDbEntity
  8
0
100
AcDbLine
 62
2
  6
CONTINUOUS
 10
283.7904134944
 20
53.1725198453
 11
283.7904134944
 21
13.1725198453
  0
INSERT
  5
2D2
100
AcDbEntity
  8
0
100
AcDbBlockReference
 62
2
  6
CONTINUOUS
  2
LOGO2_BL0
 10
207.6164605391
 20
39.6725198453
  0
MTEXT
  5
2D3
100
AcDbEntity
  8
9_SOLID
100
AcDbMText
 62
2
  6
CONTINUOUS
  7
TEXTSTYLE_3
 71
1
 72
1
 10
225.2779134944
 20
51.6725198453
 30
0.0
 11
1.0
 21
0.0
 31
0.0
  1
1H5_C_010
 40
3.0
 41
30.6428571429
  0
MTEXT
  5
2D4
100
AcDbEntity
  8
0
100
AcDbMText
 62
2
  6
CONTINUOUS
  7
TEXTSTYLE_3
 71
1
 72
1
 10
265.2779134944
 20
51.9225198453
 30
0.0
 11
1.0
 21
0.0
 31
0.0
  1
Rev:01
 40
3.5
 41
21.625
  0
MTEXT
  5
2D5
100
AcDbEntity
  8
9_SOLID
100
AcDbMText
 62
2
  6
CONTINUOUS
  7
TEXTSTYLE_3
 71
1
 72
1
 10
225.2779134944
 20
45.4225198453
 30
0.0
 11
1.0
 21
0.0
 31
0.0
  1
Scale:1:1
 40
3.5
 41
28.375
  0
MTEXT
  5
2D6
100
AcDbEntity
  8
9_SOLID
100
AcDbMText
 62
2
  6
CONTINUOUS
  7
TEXTSTYLE_3
 71
1
 72
1
 10
265.2779134944
 20
45.9225198453
 30
0.0
 11
1.0
 21
0.0
 31
0.0
  1
A4
 40
3.5
 41
9.625
  0
MTEXT
  5
2D7
100
AcDbEntity
  8
0
100
AcDbMText
 62
2
  6
CONTINUOUS
  7
TEXTSTYLE_3
 71
1
 72
1
 10
225.2779134944
 20
37.9225198453
 30
0.0
 11
1.0
 21
0.0
 31
0.0
  1
Ciak 2.7
 40
3.5
 41
31.0
  0
MTEXT
  5
2D8
100
AcDbEntity
  8
0
100
AcDbMText
 62
2
  6
CONTINUOUS
  7
TEXTSTYLE_3
 71
1
 72
1
 10
225.2779134944
 20
29.9225198453
 30
0.0
 11
1.0
 21
0.0
 31
0.0
  1
DATE:27/04/2018
 40
2.5
 41
43.0357142857
  0
MTEXT
  5
2D9
100
AcDbEntity
  8
9_SOLID
100
AcDbMText
 62
2
  6
CONTINUOUS
  7
TEXTSTYLE_3
 71
1
 72
1
 10
195.2779134944
 20
25.8600198453
 30
0.0
 11
1.0
 21
0.0
 31
0.0
  1
Any integral or partial reproductions are prohibited \Pwithout prior authorisation of L {\Ftxt.shx;\W0.190476;\H2.250000; }& L Luce & Light s.r.l., \Pin accordance with the law in force. \PAll rights reserved.
 40
2.25
 41
134.5982142857
  0
LWPOLYLINE
  5
2DA
100
AcDbEntity
  8
0
100
AcDbPolyline
 62
7
  6
CONTINUOUS
 90
2
 70
0
 43
0.100000004
 10
10.0
 20
10.0
 10
10.0
 20
200.0
  0
LWPOLYLINE
  5
2DB
100
AcDbEntity
  8
0
100
AcDbPolyline
 62
7
  6
CONTINUOUS
 90
2
 70
0
 43
0.100000004
 10
10.0
 20
10.0
 10
287.0
 20
10.0
  0
LWPOLYLINE
  5
2DC
100
AcDbEntity
  8
0
100
AcDbPolyline
 62
7
  6
CONTINUOUS
 90
2
 70
0
 43
0.100000004
 10
10.0
 20
200.0
 10
287.0
 20
200.0
  0
LWPOLYLINE
  5
2DD
100
AcDbEntity
  8
0
100
AcDbPolyline
 62
7
  6
CONTINUOUS
 90
2
 70
0
 43
0.100000004
 10
287.0
 20
10.0
 10
287.0
 20
200.0
  0
LINE
  5
2DE
100
AcDbEntity
  8
02___PRT_ALL_AXES
100
AcDbLine
 62
7
  6
CONTINUOUS
 10
28.7730674886
 20
39.5869994017
 11
28.7730674886
 21
40.0869994017
  0
LINE
  5
2DF
100
AcDbEntity
  8
7_ALL_FEATURES
100
AcDbLine
 62
7
  6
CONTINUOUS
 10
34.8230674886
 20
67.0869994017
 11
33.3230674886
 21
65.5869994017
  0
LINE
  5
2E0
100
AcDbEntity
  8
7_ALL_FEATURES
100
AcDbLine
 62
7
  6
CONTINUOUS
 10
33.3230674886
 20
40.0869994017
 11
33.3230674886
 21
51.3949601119
  0
LINE
  5
2E1
100
AcDbEntity
  8
7_ALL_FEATURES
100
AcDbLine
 62
7
  6
CONTINUOUS
 10
33.3230674886
 20
59.8445057328
 11
33.3230674886
 21
65.5869994017
  0
LINE
  5
2E2
100
AcDbEntity
  8
7_ALL_FEATURES
100
AcDbLine
 62
7
  6
CONTINUOUS
 10
34.8065423768
 20
37.1927633349
 11
28.7730674886
 21
39.5869994017
  0
LINE
  5
2E3
100
AcDbEntity
  8
7_ALL_FEATURES
100
AcDbLine
 62
7
  6
CONTINUOUS
 10
80.6052927011
 20
35.0869994017
 11
83.9052927011
 21
35.0869994017
  0
LINE
  5
2E4
100
AcDbEntity
  8
7_ALL_FEATURES
100
AcDbLine
 62
7
  6
CONTINUOUS
 10
80.5052927011
 20
35.1869994017
 11
84.0052927011
 21
35.1869994017
  0
LINE
  5
2E5
100
AcDbEntity
  8
7_ALL_FEATURES
100
AcDbLine
 62
7
  6
CONTINUOUS
 10
80.5052927011
 20
35.5869994017
 11
84.0052927011
 21
35.5869994017
  0
LINE
  5
2E6
100
AcDbEntity
  8
7_ALL_FEATURES
100
AcDbLine
 62
7
  6
CONTINUOUS
 10
80.6052927011
 20
35.6869994017
 11
83.9052927011
 21
35.6869994017
  0
LINE
  5
2E7
100
AcDbEntity
  8
7_ALL_FEATURES
100
AcDbLine
 62
7
  6
CONTINUOUS
 10
35.3598106573
 20
37.0869994017
 11
91.7863243199
 21
37.0869994017
  0
LINE
  5
2E8
100
AcDbEntity
  8
7_ALL_FEATURES
100
AcDbLine
 62
9
  6
CONTINUOUS
 10
34.8065423768
 20
37.1927633349
 11
92.3395926004
 21
37.1927633349
  0
LINE
  5
2E9
100
AcDbEntity
  8
02___PRT_ALL_AXES
100
AcDbLine
 62
7
  6
CONTINUOUS
 10
98.3730674886
 20
39.5869994017
 11
28.7730674886
 21
39.5869994017
  0
LINE
  5
2EA
100
AcDbEntity
  8
02___PRT_ALL_AXES
100
AcDbLine
 62
7
  6
CONTINUOUS
 10
98.3730674886
 20
40.0869994017
 11
28.7730674886
 21
40.0869994017
  0
LINE
  5
2EB
100
AcDbEntity
  8
7_ALL_FEATURES
100
AcDbLine
 62
3
  6
CONTINUOUS
 10
25.7278309651
 20
54.9366770683
 11
55.5638314976
 21
41.0239215313
  0
LINE
  5
2EC
100
AcDbEntity
  8
7_ALL_FEATURES
100
AcDbLine
 62
7
  6
CONTINUOUS
 10
62.9957172194
 20
45.0369994017
 11
64.1504177578
 21
45.0369994017
  0
LINE
  5
2ED
100
AcDbEntity
  8
7_ALL_FEATURES
100
AcDbLine
 62
7
  6
CONTINUOUS
 10
64.1504177578
 20
47.0369994017
 11
62.9957172194
 21
47.0369994017
  0
LINE
  5
2EE
100
AcDbEntity
  8
7_ALL_FEATURES
100
AcDbLine
 62
7
  6
CONTINUOUS
 10
62.4183669502
 20
46.0369994017
 11
62.9957172194
 21
45.0369994017
  0
LINE
  5
2EF
100
AcDbEntity
  8
7_ALL_FEATURES
100
AcDbLine
 62
7
  6
CONTINUOUS
 10
64.727768027
 20
46.0369994017
 11
64.1504177578
 21
47.0369994017
  0
LINE
  5
2F0
100
AcDbEntity
  8
7_ALL_FEATURES
100
AcDbLine
 62
7
  6
CONTINUOUS
 10
62.9957172194
 20
47.0369994017
 11
62.4183669502
 21
46.0369994017
  0
LINE
  5
2F1
100
AcDbEntity
  8
7_ALL_FEATURES
100
AcDbLine
 62
7
  6
CONTINUOUS
 10
80.6052927011
 20
35.0869994017
 11
80.5052927011
 21
35.1869994017
  0
LINE
  5
2F2
100
AcDbEntity
  8
7_ALL_FEATURES
100
AcDbLine
 62
7
  6
CONTINUOUS
 10
64.1504177578
 20
45.0369994017
 11
64.727768027
 21
46.0369994017
  0
LINE
  5
2F3
100
AcDbEntity
  8
7_ALL_FEATURES
100
AcDbLine
 62
7
  6
CONTINUOUS
 10
83.9052927011
 20
35.6869994017
 11
84.0052927011
 21
35.5869994017
  0
LINE
  5
2F4
100
AcDbEntity
  8
7_ALL_FEATURES
100
AcDbLine
 62
3
  6
CONTINUOUS
 10
69.5730674886
 20
42.0869994017
 11
69.5730674886
 21
54.7147213478
  0
LINE
  5
2F5
100
AcDbEntity
  8
7_ALL_FEATURES
100
AcDbLine
 62
7
  6
CONTINUOUS
 10
101.4183040121
 20
54.9366770683
 11
93.8230674886
 21
51.3949601119
  0
LINE
  5
2F6
100
AcDbEntity
  8
3_ALL_AXES
100
AcDbLine
 62
7
  6
CONTINUOUS
 10
80.5052927011
 20
35.1869994017
 11
80.5052927011
 21
35.5869994017
  0
LINE
  5
2F7
100
AcDbEntity
  8
7_ALL_FEATURES
100
AcDbLine
 62
7
  6
CONTINUOUS
 10
33.3230674886
 20
65.5869994017
 11
93.8230674886
 21
65.5869994017
  0
LINE
  5
2F8
100
AcDbEntity
  8
7_ALL_FEATURES
100
AcDbLine
 62
7
  6
CONTINUOUS
 10
34.8230674886
 20
67.0869994017
 11
92.3230674886
 21
67.0869994017
  0
LINE
  5
2F9
100
AcDbEntity
  8
3_ALL_AXES
100
AcDbLine
 62
7
  6
CONTINUOUS
 10
81.0052927011
 20
35.6869994017
 11
81.0052927011
 21
37.0869994017
  0
LINE
  5
2FA
100
AcDbEntity
  8
3_ALL_AXES
100
AcDbLine
 62
7
  6
CONTINUOUS
 10
83.5052927011
 20
35.6869994017
 11
83.5052927011
 21
37.0869994017
  0
LINE
  5
2FB
100
AcDbEntity
  8
3_ALL_AXES
100
AcDbLine
 62
7
  6
CONTINUOUS
 10
84.0052927011
 20
35.1869994017
 11
84.0052927011
 21
35.5869994017
  0
LINE
  5
2FC
100
AcDbEntity
  8
7_ALL_FEATURES
100
AcDbLine
 62
7
  6
CONTINUOUS
 10
80.6052927011
 20
35.6869994017
 11
80.5052927011
 21
35.5869994017
  0
LINE
  5
2FD
100
AcDbEntity
  8
7_ALL_FEATURES
100
AcDbLine
 62
7
  6
CONTINUOUS
 10
92.3395926004
 20
37.1927633349
 11
98.3730674886
 21
39.5869994017
  0
LINE
  5
2FE
100
AcDbEntity
  8
7_ALL_FEATURES
100
AcDbLine
 62
7
  6
CONTINUOUS
 10
83.9052927011
 20
35.0869994017
 11
84.0052927011
 21
35.1869994017
  0
LINE
  5
2FF
100
AcDbEntity
  8
7_ALL_FEATURES
100
AcDbLine
 62
7
  6
CONTINUOUS
 10
93.8230674886
 20
40.0869994017
 11
93.8230674886
 21
65.5869994017
  0
LINE
  5
300
100
AcDbEntity
  8
7_ALL_FEATURES
100
AcDbLine
 62
7
  6
CONTINUOUS
 10
92.3230674886
 20
67.0869994017
 11
93.8230674886
 21
65.5869994017
  0
LINE
  5
301
100
AcDbEntity
  8
02___PRT_ALL_AXES
100
AcDbLine
 62
7
  6
CONTINUOUS
 10
98.3730674886
 20
39.5869994017
 11
98.3730674886
 21
40.0869994017
  0
LINE
  5
302
100
AcDbEntity
  8
7_ALL_FEATURES
100
AcDbLine
 62
7
  6
CONTINUOUS
 10
24.5730674886
 20
173.2940781508
 11
24.5730674886
 21
173.5940781508
  0
LINE
  5
303
100
AcDbEntity
  8
7_ALL_FEATURES
100
AcDbLine
 62
9
  6
CONTINUOUS
 10
25.7278309651
 20
173.5940781508
 11
25.7278309651
 21
173.2940781508
  0
LINE
  5
304
100
AcDbEntity
  8
7_ALL_FEATURES
100
AcDbLine
 62
3
  6
CONTINUOUS
 10
102.5730664248
 20
112.4940781508
 11
80.2376372127
 21
112.4940781508
  0
LINE
  5
305
100
AcDbEntity
  8
7_ALL_FEATURES
100
AcDbLine
 62
7
  6
CONTINUOUS
 10
102.5730664248
 20
112.7940781508
 11
80.7762487777
 21
112.7940781508
  0
LINE
  5
306
100
AcDbEntity
  8
7_ALL_FEATURES
100
AcDbLine
 62
9
  6
CONTINUOUS
 10
43.0230674886
 20
147.4440781508
 11
43.0230674886
 21
138.6440781508
  0
LINE
  5
307
100
AcDbEntity
  8
7_ALL_FEATURES
100
AcDbLine
 62
7
  6
CONTINUOUS
 10
43.9730674886
 20
147.5440781508
 11
43.9730674886
 21
147.4440781508
  0
LINE
  5
308
100
AcDbEntity
  8
7_ALL_FEATURES
100
AcDbLine
 62
7
  6
CONTINUOUS
 10
43.9730674886
 20
138.5440781508
 11
43.9730674886
 21
138.6440781508
  0
LINE
  5
309
100
AcDbEntity
  8
7_ALL_FEATURES
100
AcDbLine
 62
7
  6
CONTINUOUS
 10
46.4730674886
 20
147.5440781508
 11
46.4730674886
 21
147.4440781508
  0
LINE
  5
30A
100
AcDbEntity
  8
7_ALL_FEATURES
100
AcDbLine
 62
7
  6
CONTINUOUS
 10
46.4730674886
 20
138.5440781508
 11
46.4730674886
 21
138.6440781508
  0
LINE
  5
30B
100
AcDbEntity
  8
7_ALL_FEATURES
100
AcDbLine
 62
7
  6
CONTINUOUS
 10
64.6517480046
 20
170.3727586668
 11
64.7957237096
 21
170.5167343718
  0
LINE
  5
30C
100
AcDbEntity
  8
7_ALL_FEATURES
100
AcDbLine
 62
7
  6
CONTINUOUS
 10
47.0230674886
 20
147.4440781508
 11
47.0230674886
 21
138.6440781508
  0
LINE
  5
30D
100
AcDbEntity
  8
7_ALL_FEATURES
100
AcDbLine
 62
7
  6
CONTINUOUS
 10
47.4552927011
 20
138.5440781508
 11
47.4552927011
 21
147.5440781508
  0
LINE
  5
30E
100
AcDbEntity
  8
7_ALL_FEATURES
100
AcDbLine
 62
7
  6
CONTINUOUS
 10
41.2098850161
 20
138.5440781508
 11
47.4552927011
 21
138.5440781508
  0
LINE
  5
30F
100
AcDbEntity
  8
7_ALL_FEATURES
100
AcDbLine
 62
7
  6
CONTINUOUS
 10
47.0230674886
 20
138.6440781508
 11
40.5459096093
 21
138.6440781508
  0
LINE
  5
310
100
AcDbEntity
  8
7_ALL_FEATURES
100
AcDbLine
 62
7
  6
CONTINUOUS
 10
62.0730674886
 20
115.5853098461
 11
62.0730674886
 21
115.7355557164
  0
LINE
  5
311
100
AcDbEntity
  8
02___PRT_ALL_AXES
100
AcDbLine
 62
9
  6
CONTINUOUS
 10
47.0230674886
 20
141.0440781508
 11
47.4552927011
 21
141.0440781508
  0
LINE
  5
312
100
AcDbEntity
  8
7_ALL_FEATURES
100
AcDbLine
 62
7
  6
CONTINUOUS
 10
65.0730674886
 20
115.5853098461
 11
65.0730674886
 21
115.7355557164
  0
LINE
  5
313
100
AcDbEntity
  8
02___PRT_ALL_AXES
100
AcDbLine
 62
9
  6
CONTINUOUS
 10
47.0230674886
 20
145.0440781508
 11
47.4552927011
 21
145.0440781508
  0
LINE
  5
314
100
AcDbEntity
  8
7_ALL_FEATURES
100
AcDbLine
 62
7
  6
CONTINUOUS
 10
40.5459096093
 20
147.4440781508
 11
47.0230674886
 21
147.4440781508
  0
LINE
  5
315
100
AcDbEntity
  8
7_ALL_FEATURES
100
AcDbLine
 62
7
  6
CONTINUOUS
 10
47.4552927011
 20
147.5440781508
 11
41.2098850161
 21
147.5440781508
  0
LINE
  5
316
100
AcDbEntity
  8
7_ALL_FEATURES
100
AcDbLine
 62
7
  6
CONTINUOUS
 10
62.4943869727
 20
170.3727586668
 11
62.3504112676
 21
170.5167343718
  0
LINE
  5
317
100
AcDbEntity
  8
7_ALL_FEATURES
100
AcDbLine
 62
7
  6
CONTINUOUS
 10
24.5730685525
 20
173.2940781508
 11
46.3698861995
 21
173.2940781508
  0
LINE
  5
318
100
AcDbEntity
  8
7_ALL_FEATURES
100
AcDbLine
 62
3
  6
CONTINUOUS
 10
24.5730685525
 20
173.5940781508
 11
46.9084977646
 21
173.5940781508
  0
LINE
  5
319
100
AcDbEntity
  8
7_ALL_FEATURES
100
AcDbLine
 62
9
  6
CONTINUOUS
 10
101.4183040121
 20
112.4940781508
 11
101.4183040121
 21
112.7940781508
  0
LINE
  5
31A
100
AcDbEntity
  8
7_ALL_FEATURES
100
AcDbLine
 62
7
  6
CONTINUOUS
 10
102.5730674886
 20
112.7940781508
 11
102.5730674886
 21
112.4940781508
  0
LINE
  5
31B
100
AcDbEntity
  8
02___PRT_ALL_AXES
100
AcDbLine
 62
7
  6
CONTINUOUS
 10
158.2282494837
 20
108.2440781508
 11
157.7282494837
 21
108.2440781508
  0
LINE
  5
31C
100
AcDbEntity
  8
7_ALL_FEATURES
100
AcDbLine
 62
7
  6
CONTINUOUS
 10
130.7282494837
 20
171.7940781508
 11
132.2282494837
 21
173.2940781508
  0
LINE
  5
31D
100
AcDbEntity
  8
3_ALL_AXES
100
AcDbLine
 62
7
  6
CONTINUOUS
 10
148.7782669943
 20
111.7940781508
 11
154.7782319731
 21
111.7940781508
  0
LINE
  5
31E
100
AcDbEntity
  8
3_ALL_AXES
100
AcDbLine
 62
7
  6
CONTINUOUS
 10
148.7782494837
 20
111.9940781508
 11
154.7782494837
 21
111.9940781508
  0
LINE
  5
31F
100
AcDbEntity
  8
7_ALL_FEATURES
100
AcDbLine
 62
3
  6
CONTINUOUS
 10
157.7282494837
 20
112.4940781508
 11
135.1005280245
 21
112.4940781508
  0
LINE
  5
320
100
AcDbEntity
  8
7_ALL_FEATURES
100
AcDbLine
 62
7
  6
CONTINUOUS
 10
130.7282494837
 20
114.2940781508
 11
132.2282494837
 21
112.7940781508
  0
LINE
  5
321
100
AcDbEntity
  8
02___PRT_ALL_AXES
100
AcDbLine
 62
7
  6
CONTINUOUS
 10
135.3548253482
 20
112.7940781508
 11
132.2282494837
 21
112.7940781508
  0
LINE
  5
322
100
AcDbEntity
  8
7_ALL_FEATURES
100
AcDbLine
 62
7
  6
CONTINUOUS
 10
135.3548253482
 20
112.7940781508
 11
157.7282494837
 21
112.7940781508
  0
LINE
  5
323
100
AcDbEntity
  8
7_ALL_FEATURES
100
AcDbLine
 62
7
  6
CONTINUOUS
 10
130.7282494837
 20
114.294080225
 11
130.7282494837
 21
171.7940760766
  0
LINE
  5
324
100
AcDbEntity
  8
3_ALL_AXES
100
AcDbLine
 62
7
  6
CONTINUOUS
 10
153.9739850784
 20
173.2898137455
 11
153.9782494837
 21
173.2940781508
  0
LINE
  5
325
100
AcDbEntity
  8
3_ALL_AXES
100
AcDbLine
 62
7
  6
CONTINUOUS
 10
154.2782494837
 20
173.5940781508
 11
154.7782494837
 21
174.0940781508
  0
LINE
  5
326
100
AcDbEntity
  8
3_ALL_AXES
100
AcDbLine
 62
7
  6
CONTINUOUS
 10
153.9739850916
 20
112.7983425429
 11
153.9782494837
 21
112.7940781508
  0
LINE
  5
327
100
AcDbEntity
  8
3_ALL_AXES
100
AcDbLine
 62
7
  6
CONTINUOUS
 10
154.2782494837
 20
112.4940781508
 11
154.7782494837
 21
111.9940781508
  0
LINE
  5
328
100
AcDbEntity
  8
7_ALL_FEATURES
100
AcDbLine
 62
7
  6
CONTINUOUS
 10
132.2282494837
 20
112.7940781508
 11
132.2282494837
 21
173.2940781508
  0
LINE
  5
329
100
AcDbEntity
  8
7_ALL_FEATURES
100
AcDbLine
 62
7
  6
CONTINUOUS
 10
135.1005275375
 20
112.7940781508
 11
135.1005275375
 21
112.4940781508
  0
LINE
  5
32A
100
AcDbEntity
  8
7_ALL_FEATURES
100
AcDbLine
 62
7
  6
CONTINUOUS
 10
135.1005275375
 20
173.2940781508
 11
135.1005275375
 21
173.5940781508
  0
LINE
  5
32B
100
AcDbEntity
  8
7_ALL_FEATURES
100
AcDbLine
 62
9
  6
CONTINUOUS
 10
135.1143539627
 20
173.2940781508
 11
135.1143539627
 21
173.5940781508
  0
LINE
  5
32C
100
AcDbEntity
  8
7_ALL_FEATURES
100
AcDbLine
 62
9
  6
CONTINUOUS
 10
139.0942874334
 20
173.5940781508
 11
139.0942874334
 21
173.2940781508
  0
LINE
  5
32D
100
AcDbEntity
  8
7_ALL_FEATURES
100
AcDbLine
 62
9
  6
CONTINUOUS
 10
142.878571817
 20
173.5940781508
 11
142.878571817
 21
173.2940781508
  0
LINE
  5
32E
100
AcDbEntity
  8
7_ALL_FEATURES
100
AcDbLine
 62
9
  6
CONTINUOUS
 10
143.1005275375
 20
112.7940781508
 11
143.1005275375
 21
112.4940781508
  0
LINE
  5
32F
100
AcDbEntity
  8
3_ALL_AXES
100
AcDbLine
 62
7
  6
CONTINUOUS
 10
162.6282494837
 20
141.2940781508
 11
162.2282494837
 21
141.2940781508
  0
LINE
  5
330
100
AcDbEntity
  8
3_ALL_AXES
100
AcDbLine
 62
7
  6
CONTINUOUS
 10
162.1282494837
 20
141.7940781508
 11
160.7282494837
 21
141.7940781508
  0
LINE
  5
331
100
AcDbEntity
  8
3_ALL_AXES
100
AcDbLine
 62
7
  6
CONTINUOUS
 10
148.7782494837
 20
111.9940781508
 11
148.7782494837
 21
111.7940781508
  0
LINE
  5
332
100
AcDbEntity
  8
3_ALL_AXES
100
AcDbLine
 62
7
  6
CONTINUOUS
 10
148.7782494837
 20
174.0940781508
 11
148.7782494837
 21
174.2940781508
  0
LINE
  5
333
100
AcDbEntity
  8
3_ALL_AXES
100
AcDbLine
 62
7
  6
CONTINUOUS
 10
162.1282494837
 20
144.2940781508
 11
160.7282494837
 21
144.2940781508
  0
LINE
  5
334
100
AcDbEntity
  8
3_ALL_AXES
100
AcDbLine
 62
7
  6
CONTINUOUS
 10
162.6282494837
 20
144.7940781508
 11
162.2282494837
 21
144.7940781508
  0
LINE
  5
335
100
AcDbEntity
  8
3_ALL_AXES
100
AcDbLine
 62
7
  6
CONTINUOUS
 10
154.7782494837
 20
111.9940781508
 11
154.7782494837
 21
111.7940781508
  0
LINE
  5
336
100
AcDbEntity
  8
3_ALL_AXES
100
AcDbLine
 62
7
  6
CONTINUOUS
 10
154.7782494837
 20
174.0940781508
 11
154.7782494837
 21
174.2940781508
  0
LINE
  5
337
100
AcDbEntity
  8
7_ALL_FEATURES
100
AcDbLine
 62
9
  6
CONTINUOUS
 10
155.7282494837
 20
112.7940781508
 11
155.7282494837
 21
112.4940781508
  0
LINE
  5
338
100
AcDbEntity
  8
7_ALL_FEATURES
100
AcDbLine
 62
9
  6
CONTINUOUS
 10
156.7913273541
 20
173.2940781508
 11
156.7913273541
 21
173.5940781508
  0
LINE
  5
339
100
AcDbEntity
  8
7_ALL_FEATURES
100
AcDbLine
 62
7
  6
CONTINUOUS
 10
162.1282494837
 20
144.6940781508
 11
162.2282494837
 21
144.7940781508
  0
LINE
  5
33A
100
AcDbEntity
  8
7_ALL_FEATURES
100
AcDbLine
 62
7
  6
CONTINUOUS
 10
162.1282494837
 20
141.3940781508
 11
162.2282494837
 21
141.2940781508
  0
LINE
  5
33B
100
AcDbEntity
  8
02___PRT_ALL_AXES
100
AcDbLine
 62
7
  6
CONTINUOUS
 10
157.7282494837
 20
108.2440781508
 11
157.7282494837
 21
177.8440781508
  0
LINE
  5
33C
100
AcDbEntity
  8
02___PRT_ALL_AXES
100
AcDbLine
 62
7
  6
CONTINUOUS
 10
158.2282494837
 20
108.2440781508
 11
158.2282494837
 21
177.8440781508
  0
LINE
  5
33D
100
AcDbEntity
  8
7_ALL_FEATURES
100
AcDbLine
 62
7
  6
CONTINUOUS
 10
162.7282494837
 20
141.3940781508
 11
162.6282494837
 21
141.2940781508
  0
LINE
  5
33E
100
AcDbEntity
  8
7_ALL_FEATURES
100
AcDbLine
 62
7
  6
CONTINUOUS
 10
162.7282494837
 20
144.6940781508
 11
162.6282494837
 21
144.7940781508
  0
LINE
  5
33F
100
AcDbEntity
  8
7_ALL_FEATURES
100
AcDbLine
 62
9
  6
CONTINUOUS
 10
160.6224855504
 20
114.277553039
 11
160.6224855504
 21
171.8106032626
  0
LINE
  5
340
100
AcDbEntity
  8
7_ALL_FEATURES
100
AcDbLine
 62
7
  6
CONTINUOUS
 10
160.7282494837
 20
114.830823355
 11
160.7282494837
 21
171.2573329466
  0
LINE
  5
341
100
AcDbEntity
  8
7_ALL_FEATURES
100
AcDbLine
 62
7
  6
CONTINUOUS
 10
162.1282494837
 20
141.3940781508
 11
162.1282494837
 21
144.6940781508
  0
LINE
  5
342
100
AcDbEntity
  8
7_ALL_FEATURES
100
AcDbLine
 62
7
  6
CONTINUOUS
 10
162.2282494837
 20
141.2940781508
 11
162.2282494837
 21
144.7940781508
  0
LINE
  5
343
100
AcDbEntity
  8
7_ALL_FEATURES
100
AcDbLine
 62
7
  6
CONTINUOUS
 10
162.6282494837
 20
141.2940781508
 11
162.6282494837
 21
144.7940781508
  0
LINE
  5
344
100
AcDbEntity
  8
7_ALL_FEATURES
100
AcDbLine
 62
7
  6
CONTINUOUS
 10
162.7282494837
 20
141.3940781508
 11
162.7282494837
 21
144.6940781508
  0
LINE
  5
345
100
AcDbEntity
  8
02___PRT_ALL_AXES
100
AcDbLine
 62
7
  6
CONTINUOUS
 10
160.6224855504
 20
114.277553039
 11
158.2282494837
 21
108.2440781508
  0
LINE
  5
346
100
AcDbEntity
  8
3_ALL_AXES
100
AcDbLine
 62
7
  6
CONTINUOUS
 10
149.5825138882
 20
112.7983425553
 11
149.5782494837
 21
112.7940781508
  0
LINE
  5
347
100
AcDbEntity
  8
3_ALL_AXES
100
AcDbLine
 62
7
  6
CONTINUOUS
 10
149.2782494837
 20
112.4940781508
 11
148.7782494837
 21
111.9940781508
  0
LINE
  5
348
100
AcDbEntity
  8
3_ALL_AXES
100
AcDbLine
 62
7
  6
CONTINUOUS
 10
149.5825138751
 20
173.2898137594
 11
149.5782494837
 21
173.2940781508
  0
LINE
  5
349
100
AcDbEntity
  8
3_ALL_AXES
100
AcDbLine
 62
7
  6
CONTINUOUS
 10
149.2782494837
 20
173.5940781508
 11
148.7782494837
 21
174.0940781508
  0
LINE
  5
34A
100
AcDbEntity
  8
02___PRT_ALL_AXES
100
AcDbLine
 62
7
  6
CONTINUOUS
 10
160.6224855504
 20
171.8106032626
 11
158.2282494837
 21
177.8440781508
  0
LINE
  5
34B
100
AcDbEntity
  8
02___PRT_ALL_AXES
100
AcDbLine
 62
7
  6
CONTINUOUS
 10
135.1005275375
 20
173.2940781508
 11
132.2282494837
 21
173.2940781508
  0
LINE
  5
34C
100
AcDbEntity
  8
7_ALL_FEATURES
100
AcDbLine
 62
7
  6
CONTINUOUS
 10
135.1005280245
 20
173.2940781508
 11
157.7282494837
 21
173.2940781508
  0
LINE
  5
34D
100
AcDbEntity
  8
7_ALL_FEATURES
100
AcDbLine
 62
3
  6
CONTINUOUS
 10
135.1005280245
 20
173.5940781508
 11
157.7282494837
 21
173.5940781508
  0
LINE
  5
34E
100
AcDbEntity
  8
3_ALL_AXES
100
AcDbLine
 62
7
  6
CONTINUOUS
 10
148.7782494837
 20
174.0940781508
 11
154.7782494837
 21
174.0940781508
  0
LINE
  5
34F
100
AcDbEntity
  8
3_ALL_AXES
100
AcDbLine
 62
7
  6
CONTINUOUS
 10
148.7782623569
 20
174.2940781508
 11
154.7782366105
 21
174.2940781508
  0
LINE
  5
350
100
AcDbEntity
  8
02___PRT_ALL_AXES
100
AcDbLine
 62
7
  6
CONTINUOUS
 10
158.2282494837
 20
177.8440781508
 11
157.7282494837
 21
177.8440781508
  0
LINE
  5
351
100
AcDbEntity
  8
7_ALL_FEATURES
100
AcDbLine
 62
7
  6
CONTINUOUS
 10
204.3205482708
 20
128.0848565879
 11
203.0958033994
 21
127.2188311841
  0
LINE
  5
352
100
AcDbEntity
  8
02___PRT_ALL_AXES
100
AcDbLine
 62
7
  6
CONTINUOUS
 10
192.9948249724
 20
95.9697478643
 11
192.9948249724
 21
96.4027605661
  0
LINE
  5
353
100
AcDbEntity
  8
02___PRT_ALL_AXES
100
AcDbLine
 62
7
  6
CONTINUOUS
 10
238.9565307927
 20
64.0734734891
 11
228.1922297976
 21
63.4897327417
  0
LINE
  5
354
100
AcDbEntity
  8
02___PRT_ALL_AXES
100
AcDbLine
 62
7
  6
CONTINUOUS
 10
227.793551983
 20
63.468112714
 11
226.9961963537
 21
63.4248726587
  0
LINE
  5
355
100
AcDbEntity
  8
3_ALL_AXES
100
AcDbLine
 62
7
  6
CONTINUOUS
 10
235.4970470992
 20
67.1558619183
 11
235.2312618895
 21
67.1414485665
  0
LINE
  5
356
100
AcDbEntity
  8
3_ALL_AXES
100
AcDbLine
 62
7
  6
CONTINUOUS
 10
233.7694432358
 20
67.0621751317
 11
233.5701043285
 21
67.0513651179
  0
LINE
  5
357
100
AcDbEntity
  8
02___PRT_ALL_AXES
100
AcDbLine
 62
7
  6
CONTINUOUS
 10
197.5448249724
 20
105.0043510407
 11
197.5448249724
 21
105.3047624843
  0
LINE
  5
358
100
AcDbEntity
  8
3_ALL_AXES
100
AcDbLine
 62
7
  6
CONTINUOUS
 10
234.2915916442
 20
67.5912255511
 11
233.8088146591
 21
67.5650448824
  0
LINE
  5
359
100
AcDbEntity
  8
3_ALL_AXES
100
AcDbLine
 62
7
  6
CONTINUOUS
 10
234.1565782675
 20
70.0875771928
 11
233.6734402631
 21
70.0613769462
  0
LINE
  5
35A
100
AcDbEntity
  8
3_ALL_AXES
100
AcDbLine
 62
7
  6
CONTINUOUS
 10
235.3075229449
 20
70.6507268077
 11
235.0417377352
 21
70.6363134559
  0
LINE
  5
35B
100
AcDbEntity
  8
3_ALL_AXES
100
AcDbLine
 62
7
  6
CONTINUOUS
 10
233.5799190815
 20
70.5570400211
 11
233.3805801742
 21
70.5462300072
  0
LINE
  5
35C
100
AcDbEntity
  8
02___PRT_ALL_AXES
100
AcDbLine
 62
7
  6
CONTINUOUS
 10
214.8889752852
 20
69.2336404997
 11
213.8037508585
 21
70.5128291685
  0
LINE
  5
35D
100
AcDbEntity
  8
02___PRT_ALL_AXES
100
AcDbLine
 62
7
  6
CONTINUOUS
 10
200.4448249724
 20
93.8046843548
 11
200.4448249724
 21
95.2376456674
  0
LINE
  5
35E
100
AcDbEntity
  8
7_ALL_FEATURES
100
AcDbLine
 62
7
  6
CONTINUOUS
 10
205.2894897699
 20
113.2660564333
 11
204.8812414794
 21
112.1959068842
  0
LINE
  5
35F
100
AcDbEntity
  8
7_ALL_FEATURES
100
AcDbLine
 62
7
  6
CONTINUOUS
 10
206.3501499417
 20
112.7357263474
 11
206.0336533607
 21
111.9060874211
  0
LINE
  5
360
100
AcDbEntity
  8
7_ALL_FEATURES
100
AcDbLine
 62
7
  6
CONTINUOUS
 10
206.1059863508
 20
111.9422539162
 11
206.5142346413
 21
113.0124034652
  0
LINE
  5
361
100
AcDbEntity
  8
7_ALL_FEATURES
100
AcDbLine
 62
7
  6
CONTINUOUS
 10
206.1059863508
 20
113.6743047237
 11
205.2894897699
 21
113.2660564333
  0
LINE
  5
362
100
AcDbEntity
  8
7_ALL_FEATURES
100
AcDbLine
 62
7
  6
CONTINUOUS
 10
206.4224829317
 20
112.7718928424
 11
206.3501499417
 21
112.7357263474
  0
LINE
  5
363
100
AcDbEntity
  8
7_ALL_FEATURES
100
AcDbLine
 62
7
  6
CONTINUOUS
 10
205.2894897699
 20
111.5340056257
 11
206.1059863508
 21
111.9422539162
  0
LINE
  5
364
100
AcDbEntity
  8
7_ALL_FEATURES
100
AcDbLine
 62
3
  6
CONTINUOUS
 10
210.4353534943
 20
111.4831662936
 11
210.4353534943
 21
121.9931157972
  0
LINE
  5
365
100
AcDbEntity
  8
7_ALL_FEATURES
100
AcDbLine
 62
7
  6
CONTINUOUS
 10
210.6474855287
 20
111.5436937857
 11
210.6474855287
 21
121.88704978
  0
LINE
  5
366
100
AcDbEntity
  8
02___PRT_ALL_AXES
100
AcDbLine
 62
7
  6
CONTINUOUS
 10
214.6695256796
 20
103.2393377949
 11
214.6695256796
 21
105.5160820129
  0
LINE
  5
367
100
AcDbEntity
  8
02___PRT_ALL_AXES
100
AcDbLine
 62
7
  6
CONTINUOUS
 10
213.1514014271
 20
101.2748644397
 11
212.2108734414
 21
99.8858205905
  0
LINE
  5
368
100
AcDbEntity
  8
7_ALL_FEATURES
100
AcDbLine
 62
7
  6
CONTINUOUS
 10
179.3474667466
 20
106.6573900294
 11
179.1353347123
 21
106.7634560466
  0
LINE
  5
369
100
AcDbEntity
  8
7_ALL_FEATURES
100
AcDbLine
 62
9
  6
CONTINUOUS
 10
179.4320894258
 20
106.6837030554
 11
179.6442214602
 21
106.5776370382
  0
LINE
  5
36A
100
AcDbEntity
  8
7_ALL_FEATURES
100
AcDbLine
 62
7
  6
CONTINUOUS
 10
204.8812414794
 20
112.1959068842
 11
205.2894897699
 21
111.5340056257
  0
LINE
  5
36B
100
AcDbEntity
  8
7_ALL_FEATURES
100
AcDbLine
 62
7
  6
CONTINUOUS
 10
206.5142346413
 20
113.0124034652
 11
206.1059863508
 21
113.6743047237
  0
LINE
  5
36C
100
AcDbEntity
  8
3_ALL_AXES
100
AcDbLine
 62
7
  6
CONTINUOUS
 10
204.4975186301
 20
109.8501629236
 11
204.3560972739
 21
109.9208736017
  0
LINE
  5
36D
100
AcDbEntity
  8
7_ALL_FEATURES
100
AcDbLine
 62
7
  6
CONTINUOUS
 10
239.2145994886
 20
103.4918668539
 11
240.9662146231
 21
104.3676744212
  0
LINE
  5
36E
100
AcDbEntity
  8
7_ALL_FEATURES
100
AcDbLine
 62
7
  6
CONTINUOUS
 10
179.6442214602
 20
106.5776370382
 11
197.8670983816
 21
105.2818462949
  0
LINE
  5
36F
100
AcDbEntity
  8
7_ALL_FEATURES
100
AcDbLine
 62
3
  6
CONTINUOUS
 10
179.4320894258
 20
106.6837030554
 11
197.967332084
 21
105.3657006365
  0
LINE
  5
370
100
AcDbEntity
  8
7_ALL_FEATURES
100
AcDbLine
 62
7
  6
CONTINUOUS
 10
204.8812414794
 20
112.1959068842
 11
205.7472668832
 21
111.7628941823
  0
LINE
  5
371
100
AcDbEntity
  8
7_ALL_FEATURES
100
AcDbLine
 62
7
  6
CONTINUOUS
 10
205.2894897699
 20
113.2660564333
 11
206.3501499417
 21
112.7357263474
  0
LINE
  5
372
100
AcDbEntity
  8
7_ALL_FEATURES
100
AcDbLine
 62
7
  6
CONTINUOUS
 10
247.1887542976
 20
101.2564045839
 11
245.437139163
 21
100.3805970167
  0
LINE
  5
373
100
AcDbEntity
  8
3_ALL_AXES
100
AcDbLine
 62
7
  6
CONTINUOUS
 10
207.1808002031
 20
115.2167260696
 11
207.0393788469
 21
115.2874367477
  0
LINE
  5
374
100
AcDbEntity
  8
7_ALL_FEATURES
100
AcDbLine
 62
7
  6
CONTINUOUS
 10
238.7095594762
 20
102.9180460012
 11
245.0735205068
 21
99.7360654859
  0
LINE
  5
375
100
AcDbEntity
  8
7_ALL_FEATURES
100
AcDbLine
 62
7
  6
CONTINUOUS
 10
239.4789328642
 20
105.8916425084
 11
238.7095594762
 21
102.9180460012
  0
LINE
  5
376
100
AcDbEntity
  8
7_ALL_FEATURES
100
AcDbLine
 62
9
  6
CONTINUOUS
 10
245.437139163
 20
100.3805970167
 11
239.2145994886
 21
103.4918668539
  0
LINE
  5
377
100
AcDbEntity
  8
7_ALL_FEATURES
100
AcDbLine
 62
9
  6
CONTINUOUS
 10
240.9662146231
 20
104.3676744212
 11
240.9662146231
 21
105.5030379722
  0
LINE
  5
378
100
AcDbEntity
  8
7_ALL_FEATURES
100
AcDbLine
 62
7
  6
CONTINUOUS
 10
245.0735205068
 20
99.7360654859
 11
245.2142740167
 21
100.2800720134
  0
LINE
  5
379
100
AcDbEntity
  8
7_ALL_FEATURES
100
AcDbLine
 62
9
  6
CONTINUOUS
 10
210.6474855287
 20
121.88704978
 11
210.4353534943
 21
121.9931157972
  0
LINE
  5
37A
100
AcDbEntity
  8
7_ALL_FEATURES
100
AcDbLine
 62
7
  6
CONTINUOUS
 10
208.5683400432
 20
126.2140401833
 11
208.3562080088
 21
126.3201062005
  0
LINE
  5
37B
100
AcDbEntity
  8
02___PRT_ALL_AXES
100
AcDbLine
 62
7
  6
CONTINUOUS
 10
255.1448249724
 20
93.8046843548
 11
255.1448249724
 21
95.2376456674
  0
LINE
  5
37C
100
AcDbEntity
  8
7_ALL_FEATURES
100
AcDbLine
 62
7
  6
CONTINUOUS
 10
275.9454284847
 20
111.9482802887
 11
262.5167366654
 21
97.5647022223
  0
LINE
  5
37D
100
AcDbEntity
  8
7_ALL_FEATURES
100
AcDbLine
 62
3
  6
CONTINUOUS
 10
276.157560519
 20
111.8422142715
 11
262.5516041449
 21
97.2687667377
  0
LINE
  5
37E
100
AcDbEntity
  8
02___PRT_ALL_AXES
100
AcDbLine
 62
7
  6
CONTINUOUS
 10
258.0448249724
 20
105.0043510407
 11
258.0448249724
 21
118.4864083626
  0
LINE
  5
37F
100
AcDbEntity
  8
02___PRT_ALL_AXES
100
AcDbLine
 62
7
  6
CONTINUOUS
 10
262.5948249724
 20
95.9697478643
 11
262.5948249724
 21
96.4027605661
  0
LINE
  5
380
100
AcDbEntity
  8
7_ALL_FEATURES
100
AcDbLine
 62
9
  6
CONTINUOUS
 10
276.157560519
 20
111.8422142715
 11
275.9454284847
 21
111.9482802887
  0
LINE
  5
381
100
AcDbEntity
  8
7_ALL_FEATURES
100
AcDbLine
 62
7
  6
CONTINUOUS
 10
276.2421831982
 20
115.0080695664
 11
276.4543152326
 21
114.9020035493
  0
LINE
  5
382
100
AcDbEntity
  8
7_ALL_FEATURES
100
AcDbLine
 62
7
  6
CONTINUOUS
 10
251.2691016741
 20
128.0848565879
 11
252.4938465455
 21
127.2188311841
  0
ARC
  5
383
100
AcDbEntity
  8
7_ALL_FEATURES
100
AcDbCircle
 62
7
  6
CONTINUOUS
 10
47.2376069463
 20
-256.7460480706
 40
320.0
100
AcDbArc
 50
80.3446271054
 51
81.629148801
  0
ARC
  5
384
100
AcDbEntity
  8
7_ALL_FEATURES
100
AcDbCircle
 62
3
  6
CONTINUOUS
 10
79.9085280309
 20
-256.7460480706
 40
320.0
100
AcDbArc
 50
93.3690709712
 51
99.6553728946
  0
ARC
  5
385
100
AcDbEntity
  8
7_ALL_FEATURES
100
AcDbCircle
 62
3
  6
CONTINUOUS
 10
59.7900141151
 20
50.0869994017
 40
10.0
100
AcDbArc
 50
245.0
 51
270.0
  0
ARC
  5
386
100
AcDbEntity
  8
7_ALL_FEATURES
100
AcDbCircle
 62
3
  6
CONTINUOUS
 10
61.5730674886
 20
54.7147213478
 40
8.0
100
AcDbArc
 50
0.0
 51
93.3690709712
  0
CIRCLE
  5
387
100
AcDbEntity
  8
3_ALL_AXES
100
AcDbCircle
 62
7
  6
CONTINUOUS
 10
63.5730674886
 20
46.0369994017
 40
3.0
  0
ARC
  5
388
100
AcDbEntity
  8
7_ALL_FEATURES
100
AcDbCircle
 62
7
  6
CONTINUOUS
 10
100.5730674886
 20
56.7492926424
 40
2.0
100
AcDbArc
 50
295.0
 51
80.3446271054
  0
ARC
  5
389
100
AcDbEntity
  8
7_ALL_FEATURES
100
AcDbCircle
 62
3
  6
CONTINUOUS
 10
26.5730674886
 20
56.7492926424
 40
2.0
100
AcDbArc
 50
99.6553728946
 51
245.0
  0
ARC
  5
38A
100
AcDbEntity
  8
7_ALL_FEATURES
100
AcDbCircle
 62
3
  6
CONTINUOUS
 10
67.5730674886
 20
42.0869994017
 40
2.0
100
AcDbArc
 50
270.0
 51
360.0
  0
ARC
  5
38B
100
AcDbEntity
  8
7_ALL_FEATURES
100
AcDbCircle
 62
7
  6
CONTINUOUS
 10
35.3598106573
 20
38.5869994017
 40
1.5
100
AcDbArc
 50
248.3555648593
 51
270.0
  0
ARC
  5
38C
100
AcDbEntity
  8
7_ALL_FEATURES
100
AcDbCircle
 62
7
  6
CONTINUOUS
 10
91.7863243199
 20
38.5869994017
 40
1.5
100
AcDbArc
 50
270.0
 51
291.6444351407
  0
ARC
  5
38D
100
AcDbEntity
  8
7_ALL_FEATURES
100
AcDbCircle
 62
7
  6
CONTINUOUS
 10
40.5459096093
 20
136.6440781508
 40
2.0
100
AcDbArc
 50
90.0
 51
195.5323508366
  0
ARC
  5
38E
100
AcDbEntity
  8
7_ALL_FEATURES
100
AcDbCircle
 62
7
  6
CONTINUOUS
 10
40.5459096093
 20
149.4440781508
 40
2.0
100
AcDbArc
 50
164.4676491634
 51
270.0
  0
CIRCLE
  5
38F
100
AcDbEntity
  8
02___PRT_ALL_AXES
100
AcDbCircle
 62
7
  6
CONTINUOUS
 10
63.5730674886
 20
143.0440781508
 40
34.8
  0
CIRCLE
  5
390
100
AcDbEntity
  8
7_ALL_FEATURES
100
AcDbCircle
 62
9
  6
CONTINUOUS
 10
63.5730674886
 20
143.0440781508
 40
28.7665251118
  0
CIRCLE
  5
391
100
AcDbEntity
  8
7_ALL_FEATURES
100
AcDbCircle
 62
9
  6
CONTINUOUS
 10
63.5730674886
 20
143.0440781508
 40
28.2132568313
  0
CIRCLE
  5
392
100
AcDbEntity
  8
02___PRT_ALL_AXES
100
AcDbCircle
 62
7
  6
CONTINUOUS
 10
63.5730674886
 20
143.0440781508
 40
27.5
  0
CIRCLE
  5
393
100
AcDbEntity
  8
02___PRT_ALL_AXES
100
AcDbCircle
 62
7
  6
CONTINUOUS
 10
63.5730674886
 20
143.0440781508
 40
27.35
  0
CIRCLE
  5
394
100
AcDbEntity
  8
7_ALL_FEATURES
100
AcDbCircle
 62
7
  6
CONTINUOUS
 10
63.5730674886
 20
143.0440781508
 40
26.85
  0
ARC
  5
395
100
AcDbEntity
  8
7_ALL_FEATURES
100
AcDbCircle
 62
7
  6
CONTINUOUS
 10
63.5730674886
 20
143.0440781508
 40
25.9
100
AcDbArc
 50
195.5323508366
 51
164.4676491634
  0
ARC
  5
396
100
AcDbEntity
  8
7_ALL_FEATURES
100
AcDbCircle
 62
7
  6
CONTINUOUS
 10
63.5730674886
 20
143.0440781508
 40
25.6582464074
100
AcDbArc
 50
166.6731950829
 51
193.3268049171
  0
ARC
  5
397
100
AcDbEntity
  8
7_ALL_FEATURES
100
AcDbCircle
 62
7
  6
CONTINUOUS
 10
63.2552927011
 20
143.0440781508
 40
22.5
100
AcDbArc
 50
191.5369595824
 51
204.1407768328
  0
ARC
  5
398
100
AcDbEntity
  8
7_ALL_FEATURES
100
AcDbCircle
 62
7
  6
CONTINUOUS
 10
63.2552927011
 20
143.0440781508
 40
22.5
100
AcDbArc
 50
155.8592237154
 51
168.4630412943
  0
ARC
  5
399
100
AcDbEntity
  8
7_ALL_FEATURES
100
AcDbCircle
 62
7
  6
CONTINUOUS
 10
63.2552927011
 20
143.0440781508
 40
22.5
100
AcDbArc
 50
226.3444673438
 51
133.655534727
  0
ARC
  5
39A
100
AcDbEntity
  8
02___PRT_ALL_AXES
100
AcDbCircle
 62
7
  6
CONTINUOUS
 10
63.2552927011
 20
143.0440781508
 40
22.5
100
AcDbArc
 50
191.27757125
 51
168.7224279798
  0
ARC
  5
39B
100
AcDbEntity
  8
7_ALL_FEATURES
100
AcDbCircle
 62
9
  6
CONTINUOUS
 10
63.2552927011
 20
143.0440781508
 40
22.0
100
AcDbArc
 50
191.8028916903
 51
168.1971083097
  0
CIRCLE
  5
39C
100
AcDbEntity
  8
7_ALL_FEATURES
100
AcDbCircle
 62
9
  6
CONTINUOUS
 10
63.2552927011
 20
143.0440781508
 40
12.05
  0
CIRCLE
  5
39D
100
AcDbEntity
  8
7_ALL_FEATURES
100
AcDbCircle
 62
7
  6
CONTINUOUS
 10
63.2552927011
 20
143.0440781508
 40
11.75
  0
CIRCLE
  5
39E
100
AcDbEntity
  8
7_ALL_FEATURES
100
AcDbCircle
 62
7
  6
CONTINUOUS
 10
82.2552927011
 20
143.0440781508
 40
1.75
  0
CIRCLE
  5
39F
100
AcDbEntity
  8
7_ALL_FEATURES
100
AcDbCircle
 62
7
  6
CONTINUOUS
 10
82.2552927011
 20
143.0440781508
 40
1.65
  0
ARC
  5
3A0
100
AcDbEntity
  8
7_ALL_FEATURES
100
AcDbCircle
 62
7
  6
CONTINUOUS
 10
159.2282494837
 20
171.2573349821
 40
1.5
100
AcDbArc
 50
0.0
 51
21.6444351407
  0
ARC
  5
3A1
100
AcDbEntity
  8
7_ALL_FEATURES
100
AcDbCircle
 62
7
  6
CONTINUOUS
 10
159.2282494837
 20
114.8308213195
 40
1.5
100
AcDbArc
 50
338.3555648593
 51
360.0
  0
ARC
  5
3A2
100
AcDbEntity
  8
7_ALL_FEATURES
100
AcDbCircle
 62
7
  6
CONTINUOUS
 10
335.2284075812
 20
-88.8039356179
 40
212.3955369114
100
AcDbArc
 50
106.308741375
 51
111.3088642668
  0
ARC
  5
3A3
100
AcDbEntity
  8
7_ALL_FEATURES
100
AcDbCircle
 62
9
  6
CONTINUOUS
 10
220.8676505226
 20
110.5857128593
 40
30.0231086186
100
AcDbArc
 50
243.4624947538
 51
245.8047913954
  0
ARC
  5
3A4
100
AcDbEntity
  8
7_ALL_FEATURES
100
AcDbCircle
 62
9
  6
CONTINUOUS
 10
220.7529058971
 20
109.6583707496
 40
28.8743571714
100
AcDbArc
 50
243.4463491462
 51
244.9535122949
  0
ARC
  5
3A5
100
AcDbEntity
  8
02___PRT_ALL_AXES
100
AcDbCircle
 62
7
  6
CONTINUOUS
 10
220.5615594323
 20
108.5064696144
 40
27.307388934
100
AcDbArc
 50
243.4351004726
 51
243.7370150494
  0
ARC
  5
3A6
100
AcDbEntity
  8
7_ALL_FEATURES
100
AcDbCircle
 62
7
  6
CONTINUOUS
 10
235.2466779192
 20
80.2221877987
 40
25.7974155438
100
AcDbArc
 50
62.1989950577
 51
63.4423752406
  0
ARC
  5
3A7
100
AcDbEntity
  8
7_ALL_FEATURES
100
AcDbCircle
 62
7
  6
CONTINUOUS
 10
219.78826079
 20
82.918929822
 40
23.1531742267
100
AcDbArc
 50
118.7081578878
 51
119.6991745002
  0
ARC
  5
3A8
100
AcDbEntity
  8
7_ALL_FEATURES
100
AcDbCircle
 62
7
  6
CONTINUOUS
 10
235.8895134567
 20
83.4935513981
 40
22.6036862067
100
AcDbArc
 50
59.7738540931
 51
61.0216382724
  0
ARC
  5
3A9
100
AcDbEntity
  8
7_ALL_FEATURES
100
AcDbCircle
 62
7
  6
CONTINUOUS
 10
217.3062964953
 20
117.0785294422
 40
18.7457380273
100
AcDbArc
 50
235.0230748583
 51
235.3493845418
  0
ARC
  5
3AA
100
AcDbEntity
  8
7_ALL_FEATURES
100
AcDbCircle
 62
7
  6
CONTINUOUS
 10
217.0282823569
 20
116.3390160362
 40
17.981414077
100
AcDbArc
 50
233.8792746164
 51
234.738948805
  0
ARC
  5
3AB
100
AcDbEntity
  8
7_ALL_FEATURES
100
AcDbCircle
 62
7
  6
CONTINUOUS
 10
226.810232707
 20
93.9610624854
 40
14.6232072684
100
AcDbArc
 50
120.5683510405
 51
121.4849234066
  0
ARC
  5
3AC
100
AcDbEntity
  8
7_ALL_FEATURES
100
AcDbCircle
 62
7
  6
CONTINUOUS
 10
227.1941003294
 20
94.0070831687
 40
14.5946639547
100
AcDbArc
 50
120.1109506991
 51
121.4853710737
  0
ARC
  5
3AD
100
AcDbEntity
  8
7_ALL_FEATURES
100
AcDbCircle
 62
7
  6
CONTINUOUS
 10
227.1145830688
 20
75.9882447202
 40
12.5385286661
100
AcDbArc
 50
273.1041193898
 51
274.0651841603
  0
ARC
  5
3AE
100
AcDbEntity
  8
02___PRT_ALL_AXES
100
AcDbCircle
 62
7
  6
CONTINUOUS
 10
201.7002273321
 20
95.9697132636
 40
8.7054023597
100
AcDbArc
 50
177.1523409621
 51
179.9997722712
  0
ARC
  5
3AF
100
AcDbEntity
  8
02___PRT_ALL_AXES
100
AcDbCircle
 62
7
  6
CONTINUOUS
 10
253.8894226128
 20
95.9697132636
 40
8.7054023597
100
AcDbArc
 50
0.0002277288
 51
2.8476590379
  0
ARC
  5
3B0
100
AcDbEntity
  8
02___PRT_ALL_AXES
100
AcDbCircle
 62
7
  6
CONTINUOUS
 10
248.3159055221
 20
93.7999001736
 40
6.9789210901
100
AcDbArc
 50
0.0392773334
 51
12.2323917112
  0
ARC
  5
3B1
100
AcDbEntity
  8
7_ALL_FEATURES
100
AcDbCircle
 62
7
  6
CONTINUOUS
 10
247.1829533671
 20
94.4960743059
 40
6.5118716668
100
AcDbArc
 50
352.4676343428
 51
359.990827972
  0
ARC
  5
3B2
100
AcDbEntity
  8
7_ALL_FEATURES
100
AcDbCircle
 62
3
  6
CONTINUOUS
 10
207.0114549628
 20
123.6309307379
 40
3.0066633936
100
AcDbArc
 50
58.92183932
 51
63.4321311247
  0
ARC
  5
3B3
100
AcDbEntity
  8
3_ALL_AXES
100
AcDbCircle
 62
7
  6
CONTINUOUS
 10
206.5244434895
 20
114.2623235373
 40
1.1472873279
100
AcDbArc
 50
55.0314473116
 51
55.4696472828
  0
ARC
  5
3B4
100
AcDbEntity
  8
3_ALL_AXES
100
AcDbCircle
 62
7
  6
CONTINUOUS
 10
204.8612545714
 20
110.9314203916
 40
1.12977367
100
AcDbArc
 50
243.4402150365
 51
251.3934141018
  0
ARC
  5
3B5
100
AcDbEntity
  8
3_ALL_AXES
100
AcDbCircle
 62
7
  6
CONTINUOUS
 10
206.5342151465
 20
114.2772909306
 40
1.1294178905
100
AcDbArc
 50
55.4476296431
 51
63.430829177
  0
ARC
  5
3B6
100
AcDbEntity
  8
7_ALL_FEATURES
100
AcDbCircle
 62
7
  6
CONTINUOUS
 10
233.6337765336
 20
69.5736342982
 40
0.9848754289
100
AcDbArc
 50
93.1347440425
 51
104.5937043215
  0
SPLINE
  5
3B7
100
AcDbEntity
  8
7_ALL_FEATURES
100
AcDbSpline
 62
7
  6
CONTINUOUS
 70
0
 71
3
 72
36
 73
32
 74
0
 42
0.0000001
 43
0.0000001
 44
0.0000000001
 40
0.0
 40
0.0
 40
0.0
 40
0.0
 40
0.0000785294
 40
0.0003140517
 40
0.0007064677
 40
0.0012556781
 40
0.0019615836
 40
0.0028240848
 40
0.0050183456
 40
0.0078365442
 40
0.0112763144
 40
0.0153352336
 40
0.0200100512
 40
0.0252968709
 40
0.0311917648
 40
0.0447867919
 40
0.0607525023
 40
0.0790391329
 40
0.0995904528
 40
0.1223429783
 40
0.147227527
 40
0.174169079
 40
0.2338963763
 40
0.3008278856
 40
0.3742082482
 40
0.4532418933
 40
0.5371116771
 40
0.6249893753
 40
0.7160539408
 40
0.8095017286
 40
1.0
 40
1.0
 40
1.0
 40
1.0
 10
154.0282494837
 20
173.2940781508
 30
0.0
 10
154.0282912521
 20
173.2941197629
 30
0.0
 10
154.0278114238
 20
173.2939883346
 30
0.0
 10
154.0275191138
 20
173.2940551194
 30
0.0
 10
154.0265033359
 20
173.2939230025
 30
0.0
 10
154.025329826
 20
173.2938524349
 30
0.0
 10
154.0237218674
 20
173.2937159606
 30
0.0
 10
154.0209167407
 20
173.2934975654
 30
0.0
 10
154.0165124686
 20
173.2931457513
 30
0.0
 10
154.0101894947
 20
173.29264712
 30
0.0
 10
154.0024664748
 20
173.2920382004
 30
0.0
 10
153.9933551519
 20
173.2913230625
 30
0.0
 10
153.9828605387
 20
173.2905027194
 30
0.0
 10
153.9709914842
 20
173.2895798039
 30
0.0
 10
153.9524447
 20
173.2881457039
 30
0.0
 10
153.9259026345
 20
173.286113787
 30
0.0
 10
153.8900809418
 20
173.283413319
 30
0.0
 10
153.8490471804
 20
173.280375549
 30
0.0
 10
153.8029266954
 20
173.2770318658
 30
0.0
 10
153.7518592787
 20
173.2734171182
 30
0.0
 10
153.6959987897
 20
173.2695683245
 30
0.0
 10
153.6124320751
 20
173.2639820286
 30
0.0
 10
153.4973411931
 20
173.256683475
 30
0.0
 10
153.3474085001
 20
173.2479284252
 30
0.0
 10
153.1829544214
 20
173.2392415688
 30
0.0
 10
153.0057474193
 20
173.2309546105
 30
0.0
 10
152.817614628
 20
173.2233762456
 30
0.0
 10
152.6204066465
 20
173.2167815178
 30
0.0
 10
152.4159676801
 20
173.2114032315
 30
0.0
 10
152.1344622607
 20
173.2060717156
 30
0.0
 10
151.9212736768
 20
173.2044432509
 30
0.0
 10
151.7782494837
 20
173.2044483242
 30
0.0
  0
SPLINE
  5
3B8
100
AcDbEntity
  8
7_ALL_FEATURES
100
AcDbSpline
 62
7
  6
CONTINUOUS
 70
0
 71
3
 72
36
 73
32
 74
0
 42
0.0000001
 43
0.0000001
 44
0.0000000001
 40
0.0
 40
0.0
 40
0.0
 40
0.0
 40
0.0000785272
 40
0.0003140432
 40
0.0007064485
 40
0.0012556441
 40
0.0019615306
 40
0.0028240087
 40
0.0050182108
 40
0.0078363339
 40
0.0112760122
 40
0.0153348233
 40
0.0200095165
 40
0.0252961958
 40
0.0311909338
 40
0.0447856025
 40
0.0607508951
 40
0.0790370505
 40
0.0995878407
 40
0.1223397846
 40
0.1472237024
 40
0.1741645781
 40
0.2338904064
 40
0.30082033
 40
0.3741990236
 40
0.4532309213
 40
0.5370990288
 40
0.6249748216
 40
0.716038247
 40
0.8094821201
 40
1.0
 40
1.0
 40
1.0
 40
1.0
 10
149.5282494837
 20
112.7940781508
 30
0.0
 10
149.5282077164
 20
112.7940365399
 30
0.0
 10
149.5286875316
 20
112.7941679647
 30
0.0
 10
149.5289798338
 20
112.7941011816
 30
0.0
 10
149.5299955841
 20
112.794233295
 30
0.0
 10
149.5311690624
 20
112.7943038606
 30
0.0
 10
149.5327769777
 20
112.7944403312
 30
0.0
 10
149.5355820292
 20
112.7946587206
 30
0.0
 10
149.5399861834
 20
112.7950105254
 30
0.0
 10
149.5463089882
 20
112.7955091433
 30
0.0
 10
149.5540318019
 20
112.7961180468
 30
0.0
 10
149.563142882
 20
112.7968331661
 30
0.0
 10
149.5736372161
 20
112.7976534877
 30
0.0
 10
149.5855059556
 20
112.7985763791
 30
0.0
 10
149.6040522496
 20
112.8000104425
 30
0.0
 10
149.6305936171
 20
112.802042308
 30
0.0
 10
149.6664143726
 20
112.8047427093
 30
0.0
 10
149.7074470682
 20
112.8077804064
 30
0.0
 10
149.7535663647
 20
112.811124012
 30
0.0
 10
149.8046324758
 20
112.8147386789
 30
0.0
 10
149.860491549
 20
112.8185873905
 30
0.0
 10
149.9440561819
 20
112.8241735749
 30
0.0
 10
150.0591442653
 20
112.8314719987
 30
0.0
 10
150.209073413
 20
112.840226922
 30
0.0
 10
150.3735237355
 20
112.8489136892
 30
0.0
 10
150.5507269113
 20
112.8572006121
 30
0.0
 10
150.7388556976
 20
112.8647789906
 30
0.0
 10
150.9360601286
 20
112.8713738165
 30
0.0
 10
151.1404938649
 20
112.8767522034
 30
0.0
 10
151.4220102005
 20
112.882084339
 30
0.0
 10
151.6352105688
 20
112.8837131097
 30
0.0
 10
151.7782494837
 20
112.8837079775
 30
0.0
  0
SPLINE
  5
3B9
100
AcDbEntity
  8
7_ALL_FEATURES
100
AcDbSpline
 62
7
  6
CONTINUOUS
 70
0
 71
3
 72
30
 73
26
 74
0
 42
0.0000001
 43
0.0000001
 44
0.0000000001
 40
0.0
 40
0.0
 40
0.0
 40
0.0
 40
0.190721952
 40
0.3751812958
 40
0.463039816
 40
0.5468881336
 40
0.6259014235
 40
0.6992618654
 40
0.7661745339
 40
0.8258844708
 40
0.877695065
 40
0.9004406761
 40
0.9209856868
 40
0.9392666536
 40
0.955227383
 40
0.9688181376
 40
0.9799963196
 40
0.988727286
 40
0.9921659608
 40
0.9949832594
 40
0.9971768215
 40
0.9987447266
 40
0.99929376
 40
0.9996860491
 40
1.0
 40
1.0
 40
1.0
 40
1.0
 10
151.7782494837
 20
112.8837079775
 30
0.0
 10
151.9214414307
 20
112.8837129633
 30
0.0
 10
152.2031279235
 20
112.881560007
 30
0.0
 10
152.5506973525
 20
112.8737084134
 30
0.0
 10
152.8179553468
 20
112.864767363
 30
0.0
 10
153.0060420998
 20
112.8571887701
 30
0.0
 10
153.1832024801
 20
112.8489022987
 30
0.0
 10
153.3476119546
 20
112.8402164895
 30
0.0
 10
153.4975023491
 20
112.8314629473
 30
0.0
 10
153.6311999185
 20
112.8229837896
 30
0.0
 10
153.7317746071
 20
112.8161609862
 30
0.0
 10
153.802997369
 20
112.8111193629
 30
0.0
 10
153.8491036461
 20
112.8077766145
 30
0.0
 10
153.8901246535
 20
112.804739697
 30
0.0
 10
153.9259351341
 20
112.8020400889
 30
0.0
 10
153.9564252816
 20
112.7997057146
 30
0.0
 10
153.9815014629
 20
112.7977620106
 30
0.0
 10
153.9989770774
 20
112.7963923231
 30
0.0
 10
154.010194574
 20
112.7955098436
 30
0.0
 10
154.0165181812
 20
112.795007152
 30
0.0
 10
154.021443254
 20
112.7946240755
 30
0.0
 10
154.0246667933
 20
112.7943531269
 30
0.0
 10
154.0265482582
 20
112.7942239116
 30
0.0
 10
154.0274816249
 20
112.7941140769
 30
0.0
 10
154.0280220099
 20
112.7941399191
 30
0.0
 10
154.0282494837
 20
112.7940781508
 30
0.0
  0
SPLINE
  5
3BA
100
AcDbEntity
  8
7_ALL_FEATURES
100
AcDbSpline
 62
7
  6
CONTINUOUS
 70
0
 71
3
 72
30
 73
26
 74
0
 42
0.0000001
 43
0.0000001
 44
0.0000000001
 40
0.0
 40
0.0
 40
0.0
 40
0.0
 40
0.1907277135
 40
0.3751862503
 40
0.4630442303
 40
0.5468919198
 40
0.625904618
 40
0.6992644823
 40
0.7661766012
 40
0.8258860263
 40
0.8776961659
 40
0.9004415761
 40
0.9209864042
 40
0.9392672072
 40
0.9552277926
 40
0.9688184236
 40
0.9799965035
 40
0.9887273898
 40
0.992166033
 40
0.9949833056
 40
0.9971768476
 40
0.9987447382
 40
0.9992937665
 40
0.999686052
 40
1.0
 40
1.0
 40
1.0
 40
1.0
 10
151.7782494837
 20
173.2044483242
 30
0.0
 10
151.635053211
 20
173.2044434817
 30
0.0
 10
151.3533629981
 20
173.2065963325
 30
0.0
 10
151.005790259
 20
173.2144482115
 30
0.0
 10
150.7385337503
 20
173.2233893039
 30
0.0
 10
150.5504483202
 20
173.2309679069
 30
0.0
 10
150.3732892903
 20
173.2392543636
 30
0.0
 10
150.2088811066
 20
173.2479401427
 30
0.0
 10
150.0589919421
 20
173.2566936409
 30
0.0
 10
149.9252955098
 20
173.2651727457
 30
0.0
 10
149.8247216964
 20
173.2719955003
 30
0.0
 10
149.7534995626
 20
173.2770370848
 30
0.0
 10
149.7073936957
 20
173.2803798064
 30
0.0
 10
149.6663730557
 20
173.2834166988
 30
0.0
 10
149.6305628981
 20
173.286116284
 30
0.0
 10
149.6000730274
 20
173.2884506377
 30
0.0
 10
149.5749970751
 20
173.2903943247
 30
0.0
 10
149.5575216203
 20
173.2917639992
 30
0.0
 10
149.5463042271
 20
173.2926464718
 30
0.0
 10
149.5399806775
 20
173.2931491564
 30
0.0
 10
149.5350556517
 20
173.2935322355
 30
0.0
 10
149.5318321387
 20
173.2938031691
 30
0.0
 10
149.5299506958
 20
173.2939324
 30
0.0
 10
149.5290173297
 20
173.294042204
 30
0.0
 10
149.5284769652
 20
173.2940164194
 30
0.0
 10
149.5282494837
 20
173.2940781508
 30
0.0
  0
SPLINE
  5
3BB
100
AcDbEntity
  8
7_ALL_FEATURES
100
AcDbSpline
 62
7
  6
CONTINUOUS
 70
0
 71
3
 72
11
 73
7
 74
0
 42
0.0000001
 43
0.0000001
 44
0.0000000001
 40
0.0
 40
0.0
 40
0.0
 40
0.0
 40
0.2557942228
 40
0.5068008258
 40
0.7542862661
 40
1.0
 40
1.0
 40
1.0
 40
1.0
 10
235.9780173967
 20
67.3091372971
 30
0.0
 10
235.940954487
 20
67.2864388484
 30
0.0
 10
235.8648630357
 20
67.2456301842
 30
0.0
 10
235.7451573301
 20
67.1989838434
 30
0.0
 10
235.6222142116
 20
67.1680627309
 30
0.0
 10
235.5387341456
 20
67.1581260787
 30
0.0
 10
235.497046884
 20
67.1558658879
 30
0.0
  0
SPLINE
  5
3BC
100
AcDbEntity
  8
3_ALL_AXES
100
AcDbSpline
 62
7
  6
CONTINUOUS
 70
0
 71
3
 72
11
 73
7
 74
0
 42
0.0000001
 43
0.0000001
 44
0.0000000001
 40
0.0
 40
0.0
 40
0.0
 40
0.0
 40
0.2457137089
 40
0.4931991463
 40
0.7442057786
 40
1.0
 40
1.0
 40
1.0
 40
1.0
 10
233.3805803881
 20
70.5462260375
 30
0.0
 10
233.3388931307
 20
70.5439658482
 30
0.0
 10
233.25541307
 20
70.5340291946
 30
0.0
 10
233.1324699502
 20
70.5031080876
 30
0.0
 10
233.0127642436
 20
70.4564617385
 30
0.0
 10
232.9366727861
 20
70.4156530769
 30
0.0
 10
232.8996098768
 20
70.3929546285
 30
0.0
  0
SPLINE
  5
3BD
100
AcDbEntity
  8
7_ALL_FEATURES
100
AcDbSpline
 62
7
  6
CONTINUOUS
 70
0
 71
3
 72
11
 73
7
 74
0
 42
0.0000001
 43
0.0000001
 44
0.0000000001
 40
0.0
 40
0.0
 40
0.0
 40
0.0
 40
0.2405434998
 40
0.4851787158
 40
0.7374621483
 40
1.0
 40
1.0
 40
1.0
 40
1.0
 10
233.5799192968
 20
70.5570360515
 30
0.0
 10
233.6446505057
 20
70.5605456341
 30
0.0
 10
233.7762868294
 20
70.5544848936
 30
0.0
 10
233.9703251716
 20
70.5063124404
 30
0.0
 10
234.1573246083
 20
70.420467896
 30
0.0
 10
234.2721172433
 20
70.3412184279
 30
0.0
 10
234.327039455
 20
70.29661302
 30
0.0
  0
SPLINE
  5
3BE
100
AcDbEntity
  8
7_ALL_FEATURES
100
AcDbSpline
 62
7
  6
CONTINUOUS
 70
0
 71
3
 72
9
 73
5
 74
0
 42
0.0000001
 43
0.0000001
 44
0.0000000001
 40
0.0
 40
0.0
 40
0.0
 40
0.0
 40
0.2559020681
 40
1.0
 40
1.0
 40
1.0
 40
1.0
 10
234.4843834074
 20
67.4022344657
 30
0.0
 10
234.4663996042
 20
67.3840545861
 30
0.0
 10
234.3941511892
 20
67.3150069731
 30
0.0
 10
234.3138235399
 20
67.2542847193
 30
0.0
 10
234.2504135332
 20
67.2154505104
 30
0.0
  0
SPLINE
  5
3BF
100
AcDbEntity
  8
7_ALL_FEATURES
100
AcDbSpline
 62
7
  6
CONTINUOUS
 70
0
 71
3
 72
11
 73
7
 74
0
 42
0.0000001
 43
0.0000001
 44
0.0000000001
 40
0.0
 40
0.0
 40
0.0
 40
0.0
 40
0.2557942228
 40
0.5068008258
 40
0.7542862661
 40
1.0
 40
1.0
 40
1.0
 40
1.0
 10
234.2504135332
 20
67.2154505104
 30
0.0
 10
234.2133506236
 20
67.1927520618
 30
0.0
 10
234.1372591723
 20
67.1519433976
 30
0.0
 10
234.0175534667
 20
67.1052970567
 30
0.0
 10
233.8946103482
 20
67.0743759443
 30
0.0
 10
233.8111302822
 20
67.0644392921
 30
0.0
 10
233.7694430206
 20
67.0621791012
 30
0.0
  0
SPLINE
  5
3C0
100
AcDbEntity
  8
7_ALL_FEATURES
100
AcDbSpline
 62
7
  6
CONTINUOUS
 70
0
 71
3
 72
24
 73
20
 74
0
 42
0.0000001
 43
0.0000001
 44
0.0000000001
 40
0.0
 40
0.0
 40
0.0
 40
0.0
 40
0.0261328228
 40
0.0524179908
 40
0.0790010297
 40
0.106014752
 40
0.1616933599
 40
0.2201665692
 40
0.2816764773
 40
0.3460991208
 40
0.4130047533
 40
0.4817313432
 40
0.5514604667
 40
0.6212920388
 40
0.7573844304
 40
0.8224087464
 40
0.8845931992
 40
0.9437365681
 40
1.0
 40
1.0
 40
1.0
 40
1.0
 10
235.3075231602
 20
70.6507228381
 30
0.0
 10
235.3450170699
 20
70.6527556748
 30
0.0
 10
235.4205319388
 20
70.6524848682
 30
0.0
 10
235.5334756
 20
70.6389977303
 30
0.0
 10
235.645425431
 20
70.6125709422
 30
0.0
 10
235.793611144
 20
70.5598626849
 30
0.0
 10
235.9727361063
 20
70.4614443437
 30
0.0
 10
236.1674587903
 20
70.2987101271
 30
0.0
 10
236.3390579645
 20
70.0952188333
 30
0.0
 10
236.4827364828
 20
69.8570796026
 30
0.0
 10
236.5945482922
 20
69.5912465318
 30
0.0
 10
236.6713650208
 20
69.3054726155
 30
0.0
 10
236.7110085371
 20
69.0079218398
 30
0.0
 10
236.7128391031
 20
68.6111447531
 30
0.0
 10
236.6397011447
 20
68.2229602521
 30
0.0
 10
236.4915099861
 20
67.8736220487
 30
0.0
 10
236.3496182704
 20
67.6450949924
 30
0.0
 10
236.1794216596
 20
67.4532702364
 30
0.0
 10
236.0469580615
 20
67.3513586485
 30
0.0
 10
235.9780173967
 20
67.3091372971
 30
0.0
  0
SPLINE
  5
3C1
100
AcDbEntity
  8
3_ALL_AXES
100
AcDbSpline
 62
7
  6
CONTINUOUS
 70
0
 71
3
 72
24
 73
20
 74
0
 42
0.0000001
 43
0.0000001
 44
0.0000000001
 40
0.0
 40
0.0
 40
0.0
 40
0.0
 40
0.0261328235
 40
0.0524179917
 40
0.0790010305
 40
0.1060147526
 40
0.1616933597
 40
0.2201665676
 40
0.2816764735
 40
0.3460991143
 40
0.4130047438
 40
0.4817313308
 40
0.5514604516
 40
0.6212920216
 40
0.7573844118
 40
0.8224087284
 40
0.8845931833
 40
0.9437365581
 40
1.0
 40
1.0
 40
1.0
 40
1.0
 10
233.5701041146
 20
67.0513690875
 30
0.0
 10
233.5326102039
 20
67.0493362521
 30
0.0
 10
233.4570953338
 20
67.0496070574
 30
0.0
 10
233.3441516715
 20
67.0630941958
 30
0.0
 10
233.2322018401
 20
67.0895209826
 30
0.0
 10
233.0840161296
 20
67.1422292426
 30
0.0
 10
232.9048911698
 20
67.2406475807
 30
0.0
 10
232.7101684903
 20
67.4033817928
 30
0.0
 10
232.53856932
 20
67.6068730778
 30
0.0
 10
232.3948908043
 20
67.845012297
 30
0.0
 10
232.2830789951
 20
68.1108453545
 30
0.0
 10
232.2062622637
 20
68.3966192574
 30
0.0
 10
232.1666187414
 20
68.694170021
 30
0.0
 10
232.1647881635
 20
69.0909470989
 30
0.0
 10
232.2379261073
 20
69.4791315983
 30
0.0
 10
232.3861172516
 20
69.8284698098
 30
0.0
 10
232.5280089634
 20
70.0569968834
 30
0.0
 10
232.6982055851
 20
70.2488216648
 30
0.0
 10
232.8306691997
 20
70.3507332695
 30
0.0
 10
232.8996098768
 20
70.3929546285
 30
0.0
  0
SPLINE
  5
3C2
100
AcDbEntity
  8
7_ALL_FEATURES
100
AcDbSpline
 62
7
  6
CONTINUOUS
 70
0
 71
3
 72
11
 73
7
 74
0
 42
0.0000001
 43
0.0000001
 44
0.0000000001
 40
0.0
 40
0.0
 40
0.0
 40
0.0
 40
0.2557942228
 40
0.5068008257
 40
0.7542862661
 40
1.0
 40
1.0
 40
1.0
 40
1.0
 10
234.5607674377
 20
70.4830380772
 30
0.0
 10
234.5978303474
 20
70.5057365258
 30
0.0
 10
234.6739217987
 20
70.54654519
 30
0.0
 10
234.7936275043
 20
70.5931915308
 30
0.0
 10
234.9165706227
 20
70.6241126433
 30
0.0
 10
235.0000506887
 20
70.6340492955
 30
0.0
 10
235.0417379504
 20
70.6363094864
 30
0.0
  0
SPLINE
  5
3C3
100
AcDbEntity
  8
7_ALL_FEATURES
100
AcDbSpline
 62
7
  6
CONTINUOUS
 70
0
 71
3
 72
24
 73
20
 74
0
 42
0.0000001
 43
0.0000001
 44
0.0000000001
 40
0.0
 40
0.0
 40
0.0
 40
0.0
 40
0.0261328228
 40
0.0524179908
 40
0.0790010297
 40
0.106014752
 40
0.1616933599
 40
0.2201665692
 40
0.2816764773
 40
0.3460991208
 40
0.4130047533
 40
0.4817313432
 40
0.5514604666
 40
0.6212920388
 40
0.7573844303
 40
0.8224087463
 40
0.8845931991
 40
0.943736568
 40
1.0
 40
1.0
 40
1.0
 40
1.0
 10
235.2312616742
 20
67.1414525361
 30
0.0
 10
235.1937677645
 20
67.1394196994
 30
0.0
 10
235.1182528956
 20
67.139690506
 30
0.0
 10
235.0053092344
 20
67.1531776439
 30
0.0
 10
234.8933594035
 20
67.179604432
 30
0.0
 10
234.7451736905
 20
67.2323126893
 30
0.0
 10
234.5660487281
 20
67.3307310305
 30
0.0
 10
234.3713260441
 20
67.493465247
 30
0.0
 10
234.1997268699
 20
67.6969565408
 30
0.0
 10
234.0560483517
 20
67.9350957715
 30
0.0
 10
233.9442365422
 20
68.2009288423
 30
0.0
 10
233.8674198136
 20
68.4867027586
 30
0.0
 10
233.8277762973
 20
68.7842535342
 30
0.0
 10
233.8259457313
 20
69.1810306208
 30
0.0
 10
233.8990836896
 20
69.5692151218
 30
0.0
 10
234.0472748481
 20
69.9185533252
 30
0.0
 10
234.1891665638
 20
70.1470803816
 30
0.0
 10
234.3593631746
 20
70.3389051377
 30
0.0
 10
234.4918267728
 20
70.4408167257
 30
0.0
 10
234.5607674377
 20
70.4830380772
 30
0.0
  0
SPLINE
  5
3C4
100
AcDbEntity
  8
7_ALL_FEATURES
100
AcDbSpline
 62
7
  6
CONTINUOUS
 70
0
 71
3
 72
11
 73
7
 74
0
 42
0.0000001
 43
0.0000001
 44
0.0000000001
 40
0.0
 40
0.0
 40
0.0
 40
0.0
 40
0.2557942231
 40
0.5068008257
 40
0.7542862661
 40
1.0
 40
1.0
 40
1.0
 40
1.0
 10
234.8265526475
 20
70.4974514289
 30
0.0
 10
234.8636155572
 20
70.5201498776
 30
0.0
 10
234.9397070085
 20
70.5609585417
 30
0.0
 10
235.0594127141
 20
70.6076048827
 30
0.0
 10
235.1823558325
 20
70.6385259951
 30
0.0
 10
235.2658358985
 20
70.6484626473
 30
0.0
 10
235.3075231602
 20
70.6507228381
 30
0.0
  0
SPLINE
  5
3C5
100
AcDbEntity
  8
3_ALL_AXES
100
AcDbSpline
 62
7
  6
CONTINUOUS
 70
0
 71
3
 72
9
 73
5
 74
0
 42
0.0000001
 43
0.0000001
 44
0.0000000001
 40
0.0
 40
0.0
 40
0.0
 40
0.0
 40
0.4931489205
 40
1.0
 40
1.0
 40
1.0
 40
1.0
 10
233.6734403802
 20
70.0613747381
 30
0.0
 10
233.6137930694
 20
70.058144792
 30
0.0
 10
233.4932138562
 20
70.0357324341
 30
0.0
 10
233.3822460468
 20
69.9839589309
 30
0.0
 10
233.3298900507
 20
69.9518945329
 30
0.0
  0
SPLINE
  5
3C6
100
AcDbEntity
  8
7_ALL_FEATURES
100
AcDbSpline
 62
7
  6
CONTINUOUS
 70
0
 71
3
 72
26
 73
22
 74
0
 42
0.0000001
 43
0.0000001
 44
0.0000000001
 40
0.0
 40
0.0
 40
0.0
 40
0.0
 40
0.0277122779
 40
0.0548958122
 40
0.0816973858
 40
0.1083169699
 40
0.1349573724
 40
0.1618172993
 40
0.1890844336
 40
0.2169229412
 40
0.2747209394
 40
0.3359436681
 40
0.4006430233
 40
0.4683729251
 40
0.5383094795
 40
0.6093803905
 40
0.7497695235
 40
0.8172406732
 40
0.8816209256
 40
0.9425034988
 40
1.0
 40
1.0
 40
1.0
 40
1.0
 10
234.9258979427
 20
70.4099600774
 30
0.0
 10
234.9616873589
 20
70.4318786002
 30
0.0
 10
235.0352161778
 20
70.4711822168
 30
0.0
 10
235.1509901836
 20
70.5157020704
 30
0.0
 10
235.2699374825
 20
70.5446416552
 30
0.0
 10
235.3908316288
 20
70.5576881922
 30
0.0
 10
235.5124814233
 20
70.5547307947
 30
0.0
 10
235.6336644361
 20
70.5357828724
 30
0.0
 10
235.7531854204
 20
70.5010570881
 30
0.0
 10
235.9106366856
 20
70.4334536057
 30
0.0
 10
236.097896295
 20
70.309708373
 30
0.0
 10
236.2941564334
 20
70.1100491008
 30
0.0
 10
236.4583663751
 20
69.8652033683
 30
0.0
 10
236.5846712341
 20
69.5845526688
 30
0.0
 10
236.668622449
 20
69.2784473207
 30
0.0
 10
236.7198029496
 20
68.854329845
 30
0.0
 10
236.6789379447
 20
68.4262568798
 30
0.0
 10
236.5448861716
 20
68.0348212612
 30
0.0
 10
236.4043475635
 20
67.7771410669
 30
0.0
 10
236.2276564229
 20
67.5618939734
 30
0.0
 10
236.0858193821
 20
67.449311137
 30
0.0
 10
236.0115647063
 20
67.4038353245
 30
0.0
  0
SPLINE
  5
3C7
100
AcDbEntity
  8
7_ALL_FEATURES
100
AcDbSpline
 62
7
  6
CONTINUOUS
 70
0
 71
3
 72
9
 73
5
 74
0
 42
0.0000001
 43
0.0000001
 44
0.0000000001
 40
0.0
 40
0.0
 40
0.0
 40
0.0
 40
0.5054783678
 40
1.0
 40
1.0
 40
1.0
 40
1.0
 10
233.0989487841
 20
70.4037646423
 30
0.0
 10
233.1438927318
 20
70.4312896774
 30
0.0
 10
233.2367212485
 20
70.4796410392
 30
0.0
 10
233.3357232679
 20
70.5137591899
 30
0.0
 10
233.3856243417
 20
70.5267345553
 30
0.0
  0
SPLINE
  5
3C8
100
AcDbEntity
  8
7_ALL_FEATURES
100
AcDbSpline
 62
7
  6
CONTINUOUS
 70
0
 71
3
 72
26
 73
22
 74
0
 42
0.0000001
 43
0.0000001
 44
0.0000000001
 40
0.0
 40
0.0
 40
0.0
 40
0.0
 40
0.0277122779
 40
0.0548958122
 40
0.0816973858
 40
0.1083169699
 40
0.1349573724
 40
0.1618172993
 40
0.1890844336
 40
0.2169229412
 40
0.2747209394
 40
0.3359436681
 40
0.4006430233
 40
0.4683729251
 40
0.5383094795
 40
0.6093803905
 40
0.7497695235
 40
0.8172406732
 40
0.8816209256
 40
0.9425034988
 40
1.0
 40
1.0
 40
1.0
 40
1.0
 10
234.2839608429
 20
67.3101485379
 30
0.0
 10
234.2481714267
 20
67.2882300151
 30
0.0
 10
234.1746426078
 20
67.2489263985
 30
0.0
 10
234.058868602
 20
67.2044065449
 30
0.0
 10
233.9399213031
 20
67.17546696
 30
0.0
 10
233.8190271568
 20
67.1624204231
 30
0.0
 10
233.6973773623
 20
67.1653778206
 30
0.0
 10
233.5761943495
 20
67.1843257429
 30
0.0
 10
233.4566733652
 20
67.2190515272
 30
0.0
 10
233.2992221
 20
67.2866550096
 30
0.0
 10
233.1119624906
 20
67.4104002423
 30
0.0
 10
232.9157023522
 20
67.6100595145
 30
0.0
 10
232.7514924105
 20
67.854905247
 30
0.0
 10
232.6251875516
 20
68.1355559464
 30
0.0
 10
232.5412363366
 20
68.4416612946
 30
0.0
 10
232.490055836
 20
68.8657787703
 30
0.0
 10
232.5309208409
 20
69.2938517355
 30
0.0
 10
232.664972614
 20
69.6852873541
 30
0.0
 10
232.8055112221
 20
69.9429675484
 30
0.0
 10
232.9822023627
 20
70.1582146419
 30
0.0
 10
233.1240394035
 20
70.2707974783
 30
0.0
 10
233.1982940793
 20
70.3162732908
 30
0.0
  0
SPLINE
  5
3C9
100
AcDbEntity
  8
3_ALL_AXES
100
AcDbSpline
 62
7
  6
CONTINUOUS
 70
0
 71
3
 72
22
 73
18
 74
0
 42
0.0000001
 43
0.0000001
 44
0.0000000001
 40
0.0
 40
0.0
 40
0.0
 40
0.0
 40
0.0523404745
 40
0.1058654529
 40
0.1615533868
 40
0.2200363785
 40
0.2815565588
 40
0.345989925
 40
0.4129066747
 40
0.4816447067
 40
0.5513854804
 40
0.6212287516
 40
0.7573439239
 40
0.8223793407
 40
0.8845734115
 40
0.9437285356
 40
1.0
 40
1.0
 40
1.0
 40
1.0
 10
233.808814542
 20
67.5650470906
 30
0.0
 10
233.7551838707
 20
67.56214295
 30
0.0
 10
233.6456216265
 20
67.5689676674
 30
0.0
 10
233.4855415806
 20
67.6167704371
 30
0.0
 10
233.3336873609
 20
67.7002402686
 30
0.0
 10
233.1945675732
 20
67.8164872815
 30
0.0
 10
233.0720063221
 20
67.9618361935
 30
0.0
 10
232.9693761886
 20
68.1319362794
 30
0.0
 10
232.8895110414
 20
68.3218166462
 30
0.0
 10
232.8346412596
 20
68.525940777
 30
0.0
 10
232.8063240203
 20
68.7384770738
 30
0.0
 10
232.8050161262
 20
69.0218894101
 30
0.0
 10
232.8572566641
 20
69.2991650185
 30
0.0
 10
232.9631094874
 20
69.5486908341
 30
0.0
 10
233.0644594104
 20
69.7119271353
 30
0.0
 10
233.186031592
 20
69.8489418287
 30
0.0
 10
233.2806478941
 20
69.9217371445
 30
0.0
 10
233.3298900507
 20
69.9518945329
 30
0.0
  0
SPLINE
  5
3CA
100
AcDbEntity
  8
7_ALL_FEATURES
100
AcDbSpline
 62
7
  6
CONTINUOUS
 70
0
 71
3
 72
15
 73
11
 74
0
 42
0.0000001
 43
0.0000001
 44
0.0000000001
 40
0.0
 40
0.0
 40
0.0
 40
0.0
 40
0.1264439934
 40
0.2501689326
 40
0.3722061324
 40
0.4938349796
 40
0.616315571
 40
0.7408485908
 40
0.8684737947
 40
1.0
 40
1.0
 40
1.0
 40
1.0
 10
233.1982940793
 20
70.3162732908
 30
0.0
 10
233.2401960603
 20
70.3419353335
 30
0.0
 10
233.3267276357
 20
70.3870860699
 30
0.0
 10
233.4638393596
 20
70.4347375103
 30
0.0
 10
233.6048000052
 20
70.4607250158
 30
0.0
 10
233.7475973221
 20
70.4646650914
 30
0.0
 10
233.8902550114
 20
70.4464962615
 30
0.0
 10
234.0307958085
 20
70.4065179543
 30
0.0
 10
234.1672916194
 20
70.345364898
 30
0.0
 10
234.2530372376
 20
70.2919009669
 30
0.0
 10
234.2946290406
 20
70.2621954487
 30
0.0
  0
SPLINE
  5
3CB
100
AcDbEntity
  8
7_ALL_FEATURES
100
AcDbSpline
 62
7
  6
CONTINUOUS
 70
0
 71
3
 72
9
 73
5
 74
0
 42
0.0000001
 43
0.0000001
 44
0.0000000001
 40
0.0
 40
0.0
 40
0.0
 40
0.0
 40
0.2542342261
 40
1.0
 40
1.0
 40
1.0
 40
1.0
 10
234.4481717162
 20
67.4326637001
 30
0.0
 10
234.4352083052
 20
67.4210943224
 30
0.0
 10
234.3832551086
 20
67.3766833366
 30
0.0
 10
234.3274256569
 20
67.3367677064
 30
0.0
 10
234.2839608429
 20
67.3101485379
 30
0.0
  0
SPLINE
  5
3CC
100
AcDbEntity
  8
7_ALL_FEATURES
100
AcDbSpline
 62
7
  6
CONTINUOUS
 70
0
 71
3
 72
24
 73
20
 74
0
 42
0.0000001
 43
0.0000001
 44
0.0000000001
 40
0.0
 40
0.0
 40
0.0
 40
0.0
 40
0.0261328228
 40
0.0524179908
 40
0.0790010297
 40
0.106014752
 40
0.1616933599
 40
0.2201665692
 40
0.2816764773
 40
0.3460991208
 40
0.4130047533
 40
0.4817313433
 40
0.5514604667
 40
0.6212920388
 40
0.7573844304
 40
0.8224087464
 40
0.8845931992
 40
0.9437365681
 40
1.0
 40
1.0
 40
1.0
 40
1.0
 10
235.497046884
 20
67.1558658879
 30
0.0
 10
235.4595529743
 20
67.1538330512
 30
0.0
 10
235.3840381054
 20
67.1541038578
 30
0.0
 10
235.2710944442
 20
67.1675909957
 30
0.0
 10
235.1591446132
 20
67.1940177838
 30
0.0
 10
235.0109589002
 20
67.2467260411
 30
0.0
 10
234.8318339378
 20
67.3451443823
 30
0.0
 10
234.6371112538
 20
67.5078785989
 30
0.0
 10
234.4655120796
 20
67.7113698927
 30
0.0
 10
234.3218335614
 20
67.9495091234
 30
0.0
 10
234.2100217519
 20
68.2153421942
 30
0.0
 10
234.1332050233
 20
68.5011161105
 30
0.0
 10
234.0935615071
 20
68.7986668862
 30
0.0
 10
234.0917309411
 20
69.1954439729
 30
0.0
 10
234.1648688995
 20
69.5836284739
 30
0.0
 10
234.313060058
 20
69.9329666774
 30
0.0
 10
234.4549517738
 20
70.1614937336
 30
0.0
 10
234.6251483845
 20
70.3533184897
 30
0.0
 10
234.7576119827
 20
70.4552300773
 30
0.0
 10
234.8265526475
 20
70.4974514289
 30
0.0
  0
SPLINE
  5
3CD
100
AcDbEntity
  8
7_ALL_FEATURES
100
AcDbSpline
 62
7
  6
CONTINUOUS
 70
0
 71
3
 72
26
 73
22
 74
0
 42
0.0000001
 43
0.0000001
 44
0.0000000001
 40
0.0
 40
0.0
 40
0.0
 40
0.0
 40
0.0277122779
 40
0.0548958122
 40
0.0816973858
 40
0.1083169699
 40
0.1349573724
 40
0.1618172993
 40
0.1890844336
 40
0.2169229412
 40
0.2747209394
 40
0.3359436681
 40
0.4006430233
 40
0.4683729251
 40
0.5383094795
 40
0.6093803905
 40
0.7497695235
 40
0.8172406732
 40
0.8816209256
 40
0.9425034988
 40
1.0
 40
1.0
 40
1.0
 40
1.0
 10
236.0115647063
 20
67.4038353245
 30
0.0
 10
235.9757752901
 20
67.3819168017
 30
0.0
 10
235.9022464712
 20
67.3426131851
 30
0.0
 10
235.7864724654
 20
67.2980933315
 30
0.0
 10
235.6675251665
 20
67.2691537467
 30
0.0
 10
235.5466310202
 20
67.2561072097
 30
0.0
 10
235.4249812257
 20
67.2590646072
 30
0.0
 10
235.3037982129
 20
67.2780125295
 30
0.0
 10
235.1842772286
 20
67.3127383138
 30
0.0
 10
235.0268259635
 20
67.3803417962
 30
0.0
 10
234.839566354
 20
67.5040870289
 30
0.0
 10
234.6433062156
 20
67.7037463011
 30
0.0
 10
234.4790962739
 20
67.9485920336
 30
0.0
 10
234.352791415
 20
68.2292427331
 30
0.0
 10
234.2688402001
 20
68.5353480812
 30
0.0
 10
234.2176596994
 20
68.9594655569
 30
0.0
 10
234.2585247043
 20
69.3875385221
 30
0.0
 10
234.3925764775
 20
69.7789741407
 30
0.0
 10
234.5331150855
 20
70.036654335
 30
0.0
 10
234.7098062261
 20
70.2519014285
 30
0.0
 10
234.8516432669
 20
70.3644842649
 30
0.0
 10
234.9258979427
 20
70.4099600774
 30
0.0
  0
SPLINE
  5
3CE
100
AcDbEntity
  8
7_ALL_FEATURES
100
AcDbSpline
 62
7
  6
CONTINUOUS
 70
0
 71
3
 72
24
 73
20
 74
0
 42
0.0000001
 43
0.0000001
 44
0.0000000001
 40
0.0
 40
0.0
 40
0.0
 40
0.0
 40
0.0261328228
 40
0.0524179908
 40
0.0790010297
 40
0.106014752
 40
0.1616933599
 40
0.2201665692
 40
0.2816764773
 40
0.3460991208
 40
0.4130047533
 40
0.4817313433
 40
0.5514604667
 40
0.6212920388
 40
0.7573844304
 40
0.8224087464
 40
0.8845931992
 40
0.9437365681
 40
1.0
 40
1.0
 40
1.0
 40
1.0
 10
233.7694430206
 20
67.0621791012
 30
0.0
 10
233.7319491109
 20
67.0601462646
 30
0.0
 10
233.656434242
 20
67.0604170711
 30
0.0
 10
233.5434905808
 20
67.0739042091
 30
0.0
 10
233.4315407498
 20
67.1003309972
 30
0.0
 10
233.2833550368
 20
67.1530392545
 30
0.0
 10
233.1042300744
 20
67.2514575957
 30
0.0
 10
232.9095073904
 20
67.4141918123
 30
0.0
 10
232.7379082162
 20
67.6176831061
 30
0.0
 10
232.594229698
 20
67.8558223368
 30
0.0
 10
232.4824178885
 20
68.1216554076
 30
0.0
 10
232.4056011599
 20
68.4074293239
 30
0.0
 10
232.3659576437
 20
68.7049800995
 30
0.0
 10
232.3641270777
 20
69.1017571863
 30
0.0
 10
232.4372650361
 20
69.4899416873
 30
0.0
 10
232.5854561946
 20
69.8392798907
 30
0.0
 10
232.7273479104
 20
70.067806947
 30
0.0
 10
232.897544521
 20
70.2596317031
 30
0.0
 10
233.0300081193
 20
70.3615432907
 30
0.0
 10
233.0989487841
 20
70.4037646423
 30
0.0
  0
SPLINE
  5
3CF
100
AcDbEntity
  8
3_ALL_AXES
100
AcDbSpline
 62
7
  6
CONTINUOUS
 70
0
 71
3
 72
15
 73
11
 74
0
 42
0.0000001
 43
0.0000001
 44
0.0000000001
 40
0.0
 40
0.0
 40
0.0
 40
0.0
 40
0.1483694764
 40
0.2894092765
 40
0.4229250977
 40
0.549126526
 40
0.6686279221
 40
0.7825153389
 40
0.892330927
 40
1.0
 40
1.0
 40
1.0
 40
1.0
 10
203.5764177168
 20
111.5434950029
 30
0.0
 10
203.5764177168
 20
111.4498391686
 30
0.0
 10
203.5844667761
 20
111.2670138244
 30
0.0
 10
203.6226170811
 20
111.0023172866
 30
0.0
 10
203.6861897124
 20
110.7568688646
 30
0.0
 10
203.7745339749
 20
110.533660204
 30
0.0
 10
203.8867676952
 20
110.3354400112
 30
0.0
 10
204.0217418764
 20
110.1647656271
 30
0.0
 10
204.1778633433
 20
110.0240502978
 30
0.0
 10
204.2953077759
 20
109.9512675402
 30
0.0
 10
204.3560973064
 20
109.9208736668
 30
0.0
  0
SPLINE
  5
3D0
100
AcDbEntity
  8
3_ALL_AXES
100
AcDbSpline
 62
7
  6
CONTINUOUS
 70
0
 71
3
 72
25
 73
21
 74
0
 42
0.0000001
 43
0.0000001
 44
0.0000000001
 40
0.0
 40
0.0
 40
0.0
 40
0.0
 40
0.0647428805
 40
0.1325856444
 40
0.2028558578
 40
0.274759062
 40
0.3474313942
 40
0.4199749545
 40
0.491497572
 40
0.5611511506
 40
0.6281721273
 40
0.6919253374
 40
0.751953253
 40
0.8080323026
 40
0.8602357719
 40
0.9089955318
 40
0.9323593816
 40
0.9552056596
 40
0.9776942048
 40
1.0
 40
1.0
 40
1.0
 40
1.0
 10
203.5764177168
 20
111.5434950029
 30
0.0
 10
203.5764177168
 20
111.6688798221
 30
0.0
 10
203.5915405848
 20
111.9258152242
 30
0.0
 10
203.6549358381
 20
112.3141288577
 30
0.0
 10
203.758355084
 20
112.7080960972
 30
0.0
 10
203.8997748693
 20
113.0999746743
 30
0.0
 10
204.0764208038
 20
113.4821290211
 30
0.0
 10
204.2848389097
 20
113.8470796608
 30
0.0
 10
204.5209547117
 20
114.1876897144
 30
0.0
 10
204.7801657833
 20
114.4973029843
 30
0.0
 10
205.0574433087
 20
114.7698793108
 30
0.0
 10
205.3474556486
 20
115.0001050817
 30
0.0
 10
205.6446835615
 20
115.1834754765
 30
0.0
 10
205.9436001863
 20
115.3163117714
 30
0.0
 10
206.2385768088
 20
115.3957640317
 30
0.0
 10
206.4801755153
 20
115.4159152219
 30
0.0
 10
206.663921209
 20
115.402619501
 30
0.0
 10
206.7951000034
 20
115.3788049846
 30
0.0
 10
206.9208292895
 20
115.3410975152
 30
0.0
 10
207.0007404981
 20
115.3067552738
 30
0.0
 10
207.0393788143
 20
115.2874366826
 30
0.0
  0
SPLINE
  5
3D1
100
AcDbEntity
  8
3_ALL_AXES
100
AcDbSpline
 62
7
  6
CONTINUOUS
 70
0
 71
3
 72
15
 73
11
 74
0
 42
0.0000001
 43
0.0000001
 44
0.0000000001
 40
0.0
 40
0.0
 40
0.0
 40
0.0
 40
0.107669073
 40
0.2174846611
 40
0.3313720779
 40
0.450873474
 40
0.5770749023
 40
0.7105907235
 40
0.8516305236
 40
1.0
 40
1.0
 40
1.0
 40
1.0
 10
207.1808001705
 20
115.2167260045
 30
0.0
 10
207.241589701
 20
115.1863321311
 30
0.0
 10
207.3590341337
 20
115.1135493735
 30
0.0
 10
207.5151556005
 20
114.9728340442
 30
0.0
 10
207.6501297817
 20
114.8021596601
 30
0.0
 10
207.762363502
 20
114.6039394673
 30
0.0
 10
207.8507077645
 20
114.3807308067
 30
0.0
 10
207.9142803958
 20
114.1352823847
 30
0.0
 10
207.9524307009
 20
113.8705858469
 30
0.0
 10
207.9604797602
 20
113.6877605026
 30
0.0
 10
207.9604797602
 20
113.5941046684
 30
0.0
  0
SPLINE
  5
3D2
100
AcDbEntity
  8
3_ALL_AXES
100
AcDbSpline
 62
7
  6
CONTINUOUS
 70
0
 71
3
 72
15
 73
11
 74
0
 42
0.0000001
 43
0.0000001
 44
0.0000000001
 40
0.0
 40
0.0
 40
0.0
 40
0.0
 40
0.1076690559
 40
0.2174846734
 40
0.3313720339
 40
0.4508738652
 40
0.5770741192
 40
0.7105932458
 40
0.8516264447
 40
1.0
 40
1.0
 40
1.0
 40
1.0
 10
204.4975186627
 20
109.8501629887
 30
0.0
 10
204.5583081911
 20
109.8197691164
 30
0.0
 10
204.6869997671
 20
109.7694804259
 30
0.0
 10
204.8932454157
 20
109.7290135925
 30
0.0
 10
205.1107696423
 20
109.723438232
 30
0.0
 10
205.3366853082
 20
109.7525850226
 30
0.0
 10
205.5682610178
 20
109.8158330734
 30
0.0
 10
205.8027592124
 20
109.9122468414
 30
0.0
 10
206.0374087313
 20
110.0405412604
 30
0.0
 10
206.1884972677
 20
110.1437965298
 30
0.0
 10
206.263423448
 20
110.199992324
 30
0.0
  0
SPLINE
  5
3D3
100
AcDbEntity
  8
3_ALL_AXES
100
AcDbSpline
 62
7
  6
CONTINUOUS
 70
0
 71
3
 72
14
 73
10
 74
0
 42
0.0000001
 43
0.0000001
 44
0.0000000001
 40
0.0
 40
0.0
 40
0.0
 40
0.0
 40
0.1074580975
 40
0.2180607222
 40
0.333147583
 40
0.4537441313
 40
0.7135238147
 40
0.8535414439
 40
1.0
 40
1.0
 40
1.0
 40
1.0
 10
207.1819845482
 20
115.2024873364
 30
0.0
 10
207.2326882122
 20
115.1670257994
 30
0.0
 10
207.3298806647
 20
115.0865611004
 30
0.0
 10
207.4575455561
 20
114.9424944081
 30
0.0
 10
207.5674692679
 20
114.7753625135
 30
0.0
 10
207.6920019301
 20
114.5179588591
 30
0.0
 10
207.7723874736
 20
114.2263980158
 30
0.0
 10
207.8125020472
 20
113.9142388674
 30
0.0
 10
207.8190584039
 20
113.7491455682
 30
0.0
 10
207.8190584039
 20
113.6648153465
 30
0.0
  0
SPLINE
  5
3D4
100
AcDbEntity
  8
3_ALL_AXES
100
AcDbSpline
 62
7
  6
CONTINUOUS
 70
0
 71
3
 72
15
 73
11
 74
0
 42
0.0000001
 43
0.0000001
 44
0.0000000001
 40
0.0
 40
0.0
 40
0.0
 40
0.0
 40
0.1172511086
 40
0.2409890691
 40
0.3693106595
 40
0.4999999712
 40
0.630689325
 40
0.7590112053
 40
0.8827464182
 40
1.0
 40
1.0
 40
1.0
 40
1.0
 10
206.263423448
 20
110.199992324
 30
0.0
 10
206.3858545131
 20
110.2918175166
 30
0.0
 10
206.6241580808
 20
110.4987651528
 30
0.0
 10
206.9474949244
 20
110.8576317306
 30
0.0
 10
207.2389995754
 20
111.2645748773
 30
0.0
 10
207.4902711644
 20
111.7078886464
 30
0.0
 10
207.6941603219
 20
112.1748943032
 30
0.0
 10
207.8448082296
 20
112.652261705
 30
0.0
 10
207.9379038749
 20
113.1262500685
 30
0.0
 10
207.9604797602
 20
113.4410614725
 30
0.0
 10
207.9604797602
 20
113.5941046684
 30
0.0
  0
SPLINE
  5
3D5
100
AcDbEntity
  8
3_ALL_AXES
100
AcDbSpline
 62
7
  6
CONTINUOUS
 70
0
 71
3
 72
23
 73
19
 74
0
 42
0.0000001
 43
0.0000001
 44
0.0000000001
 40
0.0
 40
0.0
 40
0.0
 40
0.0
 40
0.0448933166
 40
0.0918223937
 40
0.141705983
 40
0.1951156268
 40
0.2522850931
 40
0.3131557149
 40
0.3774308034
 40
0.4446271312
 40
0.5141204283
 40
0.5851854505
 40
0.6570321035
 40
0.7288392799
 40
0.7997871451
 40
0.8690910549
 40
0.9360318249
 40
1.0
 40
1.0
 40
1.0
 40
1.0
 10
204.5007796648
 20
109.8606980247
 30
0.0
 10
204.5809415897
 20
109.8336778913
 30
0.0
 10
204.7515737062
 20
109.7966843412
 30
0.0
 10
205.0202005866
 20
109.7949206284
 30
0.0
 10
205.3002145916
 20
109.8452042224
 30
0.0
 10
205.5864566997
 20
109.9460481042
 30
0.0
 10
205.8740402737
 20
110.0952523634
 30
0.0
 10
206.1579873478
 20
110.2899711057
 30
0.0
 10
206.43333348
 20
110.5266367175
 30
0.0
 10
206.6951951506
 20
110.800965734
 30
0.0
 10
206.9388837555
 20
111.1079999144
 30
0.0
 10
207.1600075207
 20
111.4421835799
 30
0.0
 10
207.3545667132
 20
111.7974609075
 30
0.0
 10
207.519034107
 20
112.1673910497
 30
0.0
 10
207.6504283931
 20
112.5452632121
 30
0.0
 10
207.7463602427
 20
112.9242535886
 30
0.0
 10
207.8050883161
 20
113.2974580294
 30
0.0
 10
207.8190584039
 20
113.5442789793
 30
0.0
 10
207.8190584039
 20
113.6648153465
 30
0.0
  0
SPLINE
  5
3D6
100
AcDbEntity
  8
7_ALL_FEATURES
100
AcDbSpline
 62
7
  6
CONTINUOUS
 70
0
 71
3
 72
18
 73
14
 74
0
 42
0.0000001
 43
0.0000001
 44
0.0000000001
 40
0.0
 40
0.0
 40
0.0
 40
0.0
 40
0.0537361433
 40
0.1077452165
 40
0.1622927508
 40
0.2176300567
 40
0.2739884452
 40
0.3315747909
 40
0.4510402746
 40
0.5772022313
 40
0.7106809304
 40
0.8516715027
 40
1.0
 40
1.0
 40
1.0
 40
1.0
 10
208.568339994
 20
126.214040085
 30
0.0
 10
208.6492687117
 20
126.1735757359
 30
0.0
 10
208.8079518026
 20
126.085033433
 30
0.0
 10
209.0339111944
 20
125.9307340112
 30
0.0
 10
209.2473916037
 20
125.7552871229
 30
0.0
 10
209.4477014178
 20
125.5592775466
 30
0.0
 10
209.6342398795
 20
125.343319151
 30
0.0
 10
209.8666253475
 20
125.0259214057
 30
0.0
 10
210.1192158986
 20
124.5799014225
 30
0.0
 10
210.3547570508
 20
123.9847336258
 30
0.0
 10
210.5242852987
 20
123.3301908467
 30
0.0
 10
210.6260255374
 20
122.6243380616
 30
0.0
 10
210.6474855287
 20
122.1368056752
 30
0.0
 10
210.6474855287
 20
121.88704978
 30
0.0
  0
SPLINE
  5
3D7
100
AcDbEntity
  8
7_ALL_FEATURES
100
AcDbSpline
 62
7
  6
CONTINUOUS
 70
0
 71
3
 72
9
 73
5
 74
0
 42
0.0000001
 43
0.0000001
 44
0.0000000001
 40
0.0
 40
0.0
 40
0.0
 40
0.0
 40
0.4938485556
 40
1.0
 40
1.0
 40
1.0
 40
1.0
 10
179.347466797
 20
106.6573901302
 30
0.0
 10
179.3929317111
 20
106.6346575649
 30
0.0
 10
179.4899642781
 20
106.5979860363
 30
0.0
 10
179.592254982
 20
106.581332266
 30
0.0
 10
179.6442214602
 20
106.5776370382
 30
0.0
  0
SPLINE
  5
3D8
100
AcDbEntity
  8
7_ALL_FEATURES
100
AcDbSpline
 62
7
  6
CONTINUOUS
 70
0
 71
3
 72
13
 73
9
 74
0
 42
0.0000001
 43
0.0000001
 44
0.0000000001
 40
0.0
 40
0.0
 40
0.0
 40
0.0
 40
0.2691389017
 40
0.5224958826
 40
0.6445975125
 40
0.7643914256
 40
0.8825995347
 40
1.0
 40
1.0
 40
1.0
 40
1.0
 10
275.5849501319
 20
115.0453275237
 30
0.0
 10
275.6429645827
 20
115.0622464061
 30
0.0
 10
275.7582106305
 20
115.0870082056
 30
0.0
 10
275.9036755407
 20
115.0929660555
 30
0.0
 10
276.0144378184
 20
115.0814382286
 30
0.0
 10
276.0937724041
 20
115.0651024251
 30
0.0
 10
276.169998754
 20
115.0410319584
 30
0.0
 10
276.2186056538
 20
115.0198584328
 30
0.0
 10
276.2421831865
 20
115.0080695429
 30
0.0
  0
SPLINE
  5
3D9
100
AcDbEntity
  8
7_ALL_FEATURES
100
AcDbSpline
 62
7
  6
CONTINUOUS
 70
0
 71
3
 72
25
 73
21
 74
0
 42
0.0000001
 43
0.0000001
 44
0.0000000001
 40
0.0
 40
0.0
 40
0.0
 40
0.0
 40
0.0224377552
 40
0.0450233783
 40
0.0678995517
 40
0.0911991061
 40
0.1394813886
 40
0.1906763954
 40
0.2452476363
 40
0.3033836161
 40
0.3650338365
 40
0.429950598
 40
0.4977286816
 40
0.5678407444
 40
0.6396687659
 40
0.7125323827
 40
0.7857151487
 40
0.8584896979
 40
0.9301425284
 40
1.0
 40
1.0
 40
1.0
 40
1.0
 10
276.2421831865
 20
115.0080695429
 30
0.0
 10
276.2652546071
 20
114.9965337117
 30
0.0
 10
276.3103865716
 20
114.9709720649
 30
0.0
 10
276.3741082189
 20
114.9256671516
 30
0.0
 10
276.4337038109
 20
114.8735285637
 30
0.0
 10
276.5081863415
 20
114.7943078378
 30
0.0
 10
276.5898057618
 20
114.6781388729
 30
0.0
 10
276.6662100755
 20
114.5175897997
 30
0.0
 10
276.7214148099
 20
114.3367981524
 30
0.0
 10
276.7547112246
 20
114.1386394856
 30
0.0
 10
276.7657116809
 20
113.926172157
 30
0.0
 10
276.7543068004
 20
113.7026864467
 30
0.0
 10
276.7207088132
 20
113.4716550187
 30
0.0
 10
276.6654597707
 20
113.2366860843
 30
0.0
 10
276.5894345729
 20
113.0014630735
 30
0.0
 10
276.4938314861
 20
112.7696824974
 30
0.0
 10
276.380157767
 20
112.5449939507
 30
0.0
 10
276.2501989123
 20
112.3309306506
 30
0.0
 10
276.1060165696
 20
112.1308812556
 30
0.0
 10
276.0002334825
 20
112.0069823555
 30
0.0
 10
275.9454284847
 20
111.9482802887
 30
0.0
  0
SPLINE
  5
3DA
100
AcDbEntity
  8
02___PRT_ALL_AXES
100
AcDbSpline
 62
7
  6
CONTINUOUS
 70
0
 71
3
 72
21
 73
17
 74
0
 42
0.0000001
 43
0.0000001
 44
0.0000000001
 40
0.0
 40
0.0
 40
0.0
 40
0.0
 40
0.0585941018
 40
0.1172976298
 40
0.1762183747
 40
0.2354609089
 40
0.2951251095
 40
0.3553048304
 40
0.4160867466
 40
0.4775494016
 40
0.5397624607
 40
0.6027861593
 40
0.6666709545
 40
0.7314573454
 40
0.8638041312
 40
1.0
 40
1.0
 40
1.0
 40
1.0
 10
226.9961963536
 20
63.4248726614
 30
0.0
 10
226.7247130878
 20
63.4101502655
 30
0.0
 10
226.180114279
 20
63.3983692775
 30
0.0
 10
225.3626685758
 20
63.4338343948
 30
0.0
 10
224.5461981672
 20
63.5223328901
 30
0.0
 10
223.7326896926
 20
63.663649511
 30
0.0
 10
222.9240624225
 20
63.8574380719
 30
0.0
 10
222.1222365235
 20
64.1032277929
 30
0.0
 10
221.329108229
 20
64.4004235409
 30
0.0
 10
220.5465512111
 20
64.7483083735
 30
0.0
 10
219.7764094414
 20
65.1460478761
 30
0.0
 10
219.0204999018
 20
65.5926861025
 30
0.0
 10
218.280583705
 20
66.0871712848
 30
0.0
 10
217.31094614
 20
66.8137397115
 30
0.0
 10
216.1482874435
 20
67.8380655612
 30
0.0
 10
215.2978077967
 20
68.7517364036
 30
0.0
 10
214.8889752907
 20
69.2336405082
 30
0.0
  0
SPLINE
  5
3DB
100
AcDbEntity
  8
7_ALL_FEATURES
100
AcDbSpline
 62
7
  6
CONTINUOUS
 70
0
 71
3
 72
23
 73
19
 74
0
 42
0.0000001
 43
0.0000001
 44
0.0000000001
 40
0.0
 40
0.0
 40
0.0
 40
0.0
 40
0.0582618412
 40
0.1180804198
 40
0.1793325363
 40
0.2418489875
 40
0.3054223582
 40
0.3698148242
 40
0.4347658878
 40
0.5
 40
0.5652341121
 40
0.6301851754
 40
0.694577642
 40
0.7581510119
 40
0.8206674641
 40
0.8819195797
 40
0.9417381588
 40
1.0
 40
1.0
 40
1.0
 40
1.0
 10
213.8037509283
 20
70.5128292753
 30
0.0
 10
213.4099196238
 20
70.9770509615
 30
0.0
 10
212.656896952
 20
71.95709045
 30
0.0
 10
211.652758998
 20
73.5418624559
 30
0.0
 10
210.7677909827
 20
75.2464033377
 30
0.0
 10
210.0106687994
 20
77.0538650123
 30
0.0
 10
209.3886594979
 20
78.9466339231
 30
0.0
 10
208.907789899
 20
80.9062073311
 30
0.0
 10
208.572716861
 20
82.9134490144
 30
0.0
 10
208.3866921694
 20
84.9487517891
 30
0.0
 10
208.3515269571
 20
86.9922355821
 30
0.0
 10
208.4675708523
 20
89.0239409996
 30
0.0
 10
208.7337106338
 20
91.0240242804
 30
0.0
 10
209.147387371
 20
92.9729576568
 30
0.0
 10
209.7046091307
 20
94.8516954152
 30
0.0
 10
210.4000574512
 20
96.6419411348
 30
0.0
 10
211.2269285373
 20
98.3260074639
 30
0.0
 10
211.8695527414
 20
99.381732218
 30
0.0
 10
212.2108735111
 20
99.8858205056
 30
0.0
  0
SPLINE
  5
3DC
100
AcDbEntity
  8
02___PRT_ALL_AXES
100
AcDbSpline
 62
7
  6
CONTINUOUS
 70
0
 71
3
 72
12
 73
8
 74
0
 42
0.0000001
 43
0.0000001
 44
0.0000000001
 40
0.0
 40
0.0
 40
0.0
 40
0.0
 40
0.2607966046
 40
0.5141603401
 40
0.7603418039
 40
0.8809503813
 40
1.0
 40
1.0
 40
1.0
 40
1.0
 10
213.1514014436
 20
101.2748644195
 30
0.0
 10
213.5086842025
 20
101.8025272051
 30
0.0
 10
214.2620115032
 20
102.8108573858
 30
0.0
 10
215.5187757924
 20
104.1832373396
 30
0.0
 10
216.6570122592
 20
105.1886142825
 30
0.0
 10
217.6103742052
 20
105.8968346197
 30
0.0
 10
218.1000900699
 20
106.218666465
 30
0.0
 10
218.3478198437
 20
106.3711392222
 30
0.0
  0
SPLINE
  5
3DD
100
AcDbEntity
  8
7_ALL_FEATURES
100
AcDbSpline
 62
7
  6
CONTINUOUS
 70
0
 71
3
 72
43
 73
39
 74
0
 42
0.0000001
 43
0.0000001
 44
0.0000000001
 40
0.0
 40
0.0
 40
0.0
 40
0.0
 40
0.0130484018
 40
0.0261160137
 40
0.0392218193
 40
0.0523843549
 40
0.0656215006
 40
0.0789502878
 40
0.0923867264
 40
0.1059456563
 40
0.1334745275
 40
0.1616379813
 40
0.1905031202
 40
0.2201122544
 40
0.250483362
 40
0.2816113457
 40
0.3134698216
 40
0.3460132316
 40
0.3791791304
 40
0.4128905502
 40
0.4470583847
 40
0.4815837618
 40
0.5163603911
 40
0.5512768857
 40
0.5862190614
 40
0.6210722233
 40
0.65572345
 40
0.6900638867
 40
0.7239910558
 40
0.7574111921
 40
0.7902416054
 40
0.8224130611
 40
0.8538721601
 40
0.8845836704
 40
0.914532732
 40
0.9437268123
 40
0.9721972343
 40
1.0
 40
1.0
 40
1.0
 40
1.0
 10
227.7935519762
 20
63.4681128385
 30
0.0
 10
227.5526014324
 20
63.4550461448
 30
0.0
 10
227.0694741221
 20
63.4428239753
 30
0.0
 10
226.3441431966
 20
63.4663324107
 30
0.0
 10
225.6192338594
 20
63.531625858
 30
0.0
 10
224.896133897
 20
63.6385800011
 30
0.0
 10
224.1761845014
 20
63.786990575
 30
0.0
 10
223.4607370832
 20
63.9765714183
 30
0.0
 10
222.7511047062
 20
64.2069745806
 30
0.0
 10
221.8098757739
 20
64.5697633925
 30
0.0
 10
220.6531667856
 20
65.1252951463
 30
0.0
 10
219.3173120611
 20
65.9429148456
 30
0.0
 10
218.0359683001
 20
66.9087637961
 30
0.0
 10
216.8186278668
 20
68.0154739279
 30
0.0
 10
215.6741361418
 20
69.2547407825
 30
0.0
 10
214.6108407825
 20
70.6173144221
 30
0.0
 10
213.6364875781
 20
72.0930746414
 30
0.0
 10
212.7581841954
 20
73.6710901287
 30
0.0
 10
211.9823451342
 20
75.3396914378
 30
0.0
 10
211.314644732
 20
77.0865498814
 30
0.0
 10
210.759972964
 20
78.8987639004
 30
0.0
 10
210.3223968747
 20
80.7629512852
 30
0.0
 10
210.0051284955
 20
82.6653464938
 30
0.0
 10
209.8104993967
 20
84.5919016876
 30
0.0
 10
209.7399422935
 20
86.5283904797
 30
0.0
 10
209.7939799468
 20
88.4605133519
 30
0.0
 10
209.972221479
 20
90.3740037065
 30
0.0
 10
210.2733659158
 20
92.25473356
 30
0.0
 10
210.6952134981
 20
94.0888177496
 30
0.0
 10
211.2346841092
 20
95.862715589
 30
0.0
 10
211.8878424282
 20
97.5633287203
 30
0.0
 10
212.6499301552
 20
99.1780945018
 30
0.0
 10
213.5154013396
 20
100.6950719133
 30
0.0
 10
214.4779705497
 20
102.1030258608
 30
0.0
 10
215.530632074
 20
103.3914847714
 30
0.0
 10
216.6657933259
 20
104.5508593817
 30
0.0
 10
217.8749951731
 20
105.5723103228
 30
0.0
 10
218.7344452608
 20
106.1628779262
 30
0.0
 10
219.1729090321
 20
106.4314064222
 30
0.0
  0
SPLINE
  5
3DE
100
AcDbEntity
  8
02___PRT_ALL_AXES
100
AcDbSpline
 62
7
  6
CONTINUOUS
 70
0
 71
3
 72
23
 73
19
 74
0
 42
0.0000001
 43
0.0000001
 44
0.0000000001
 40
0.0
 40
0.0
 40
0.0
 40
0.0
 40
0.0582618423
 40
0.1180804201
 40
0.1793325366
 40
0.2418489882
 40
0.3054223582
 40
0.3698148247
 40
0.4347658879
 40
0.5000000001
 40
0.5652341122
 40
0.6301851754
 40
0.694577642
 40
0.758151012
 40
0.8206674634
 40
0.8819195801
 40
0.9417381579
 40
1.0
 40
1.0
 40
1.0
 40
1.0
 10
214.8889752907
 20
69.2336405082
 30
0.0
 10
214.4593684847
 20
69.7400319526
 30
0.0
 10
213.6379416549
 20
70.8090980261
 30
0.0
 10
212.5425879524
 20
72.537830057
 30
0.0
 10
211.5772297833
 20
74.3972108897
 30
0.0
 10
210.7513310125
 20
76.3688618152
 30
0.0
 10
210.072818332
 20
78.4335691377
 30
0.0
 10
209.5482670222
 20
80.5711496047
 30
0.0
 10
209.1827557709
 20
82.7607283948
 30
0.0
 10
208.9798328835
 20
84.9809174084
 30
0.0
 10
208.9414731087
 20
87.2100305699
 30
0.0
 10
209.0680584912
 20
89.4262954218
 30
0.0
 10
209.3583743091
 20
91.6080655863
 30
0.0
 10
209.8096291837
 20
93.7340394408
 30
0.0
 10
210.4174690451
 20
95.7834410247
 30
0.0
 10
211.1760913285
 20
97.7363121681
 30
0.0
 10
212.0780752988
 20
99.5733584642
 30
0.0
 10
212.7790755076
 20
100.7249847078
 30
0.0
 10
213.1514014436
 20
101.2748644195
 30
0.0
  0
SPLINE
  5
3DF
100
AcDbEntity
  8
02___PRT_ALL_AXES
100
AcDbSpline
 62
7
  6
CONTINUOUS
 70
0
 71
3
 72
14
 73
10
 74
0
 42
0.0000001
 43
0.0000001
 44
0.0000000001
 40
0.0
 40
0.0
 40
0.0
 40
0.0
 40
0.0983635077
 40
0.2084644254
 40
0.3282759467
 40
0.4555714872
 40
0.5881823548
 40
0.7241655547
 40
1.0
 40
1.0
 40
1.0
 40
1.0
 10
228.3225269907
 20
106.7240931379
 30
0.0
 10
228.3827388456
 20
106.727358386
 30
0.0
 10
228.5100587812
 20
106.7398591462
 30
0.0
 10
228.7088211401
 20
106.7719125072
 30
0.0
 10
228.9231328136
 20
106.817241291
 30
0.0
 10
229.1488931301
 20
106.8741595647
 30
0.0
 10
229.3823103535
 20
106.9407357619
 30
0.0
 10
229.700908839
 20
107.0402496576
 30
0.0
 10
229.9395823467
 20
107.1227188405
 30
0.0
 10
230.0987010846
 20
107.1799446391
 30
0.0
  0
SPLINE
  5
3E0
100
AcDbEntity
  8
02___PRT_ALL_AXES
100
AcDbSpline
 62
7
  6
CONTINUOUS
 70
0
 71
3
 72
11
 73
7
 74
0
 42
0.0000001
 43
0.0000001
 44
0.0000000001
 40
0.0
 40
0.0
 40
0.0
 40
0.0
 40
0.3126322442
 40
0.5828817041
 40
0.8110051963
 40
1.0
 40
1.0
 40
1.0
 40
1.0
 10
228.3225269907
 20
106.7240931379
 30
0.0
 10
228.2782225074
 20
106.7216905358
 30
0.0
 10
228.1954265103
 20
106.7198681115
 30
0.0
 10
228.0803766272
 20
106.7275303312
 30
0.0
 10
227.9842128638
 20
106.7453316625
 30
0.0
 10
227.9280353082
 20
106.7653598934
 30
0.0
 10
227.9040445204
 20
106.7773555509
 30
0.0
  0
SPLINE
  5
3E1
100
AcDbEntity
  8
7_ALL_FEATURES
100
AcDbSpline
 62
7
  6
CONTINUOUS
 70
0
 71
3
 72
36
 73
32
 74
0
 42
0.0000001
 43
0.0000001
 44
0.0000000001
 40
0.0
 40
0.0
 40
0.0
 40
0.0
 40
0.0257291072
 40
0.0516269828
 40
0.077853855
 40
0.1045534933
 40
0.1318475293
 40
0.1598317825
 40
0.1885745931
 40
0.2181168432
 40
0.2484731193
 40
0.2796336565
 40
0.3115666608
 40
0.3442208548
 40
0.4113643489
 40
0.445717831
 40
0.480443212
 40
0.550523491
 40
0.5856799709
 40
0.6207429835
 40
0.6555949893
 40
0.6901223929
 40
0.7242178014
 40
0.7577823177
 40
0.7907279152
 40
0.8229798663
 40
0.8851342221
 40
0.9150278767
 40
0.9441126585
 40
0.9724178786
 40
1.0
 40
1.0
 40
1.0
 40
1.0
 10
238.5073134951
 20
74.8149080395
 30
0.0
 10
238.259704099
 20
74.8014803497
 30
0.0
 10
237.7608165086
 20
74.8034331856
 30
0.0
 10
237.0142690438
 20
74.8930556676
 30
0.0
 10
236.2735191645
 20
75.0687787708
 30
0.0
 10
235.544035245
 20
75.3294546361
 30
0.0
 10
234.8311158846
 20
75.6733198104
 30
0.0
 10
234.1400634184
 20
76.0979924056
 30
0.0
 10
233.476072536
 20
76.6004648826
 30
0.0
 10
232.8441893025
 20
77.177113384
 30
0.0
 10
232.2492447586
 20
77.8237270648
 30
0.0
 10
231.6958146552
 20
78.5355181378
 30
0.0
 10
231.1881229397
 20
79.3072586637
 30
0.0
 10
230.5719083988
 20
80.418360643
 30
0.0
 10
230.0702351915
 20
81.615492961
 30
0.0
 10
229.687141275
 20
82.8720023514
 30
0.0
 10
229.3816417384
 20
84.1787796055
 30
0.0
 10
229.2037370411
 20
85.5204349865
 30
0.0
 10
229.1550829278
 20
86.8724314493
 30
0.0
 10
229.1837054301
 20
87.8854402003
 30
0.0
 10
229.2772790575
 20
88.8883861154
 30
0.0
 10
229.4350745224
 20
89.8738420481
 30
0.0
 10
229.6558843237
 20
90.8344216254
 30
0.0
 10
229.9379877765
 20
91.7629034245
 30
0.0
 10
230.2792865212
 20
92.6524580068
 30
0.0
 10
230.8029186073
 20
93.763380743
 30
0.0
 10
231.4375634084
 20
94.7869281953
 30
0.0
 10
232.1764930978
 20
95.6923747251
 30
0.0
 10
232.7655916656
 20
96.2946584342
 30
0.0
 10
233.3919214461
 20
96.8241479489
 30
0.0
 10
233.8367091599
 20
97.1299086327
 30
0.0
 10
234.0634058531
 20
97.268744555
 30
0.0
  0
SPLINE
  5
3E2
100
AcDbEntity
  8
7_ALL_FEATURES
100
AcDbSpline
 62
7
  6
CONTINUOUS
 70
0
 71
3
 72
11
 73
7
 74
0
 42
0.0000001
 43
0.0000001
 44
0.0000000001
 40
0.0
 40
0.0
 40
0.0
 40
0.0
 40
0.2564762757
 40
0.5075188716
 40
0.7547446226
 40
1.0
 40
1.0
 40
1.0
 40
1.0
 10
234.0634058531
 20
97.268744555
 30
0.0
 10
234.3084644669
 20
97.4188258736
 30
0.0
 10
234.8108914622
 20
97.6884291455
 30
0.0
 10
235.6007526632
 20
97.9962334643
 30
0.0
 10
236.4107108974
 20
98.2000641565
 30
0.0
 10
236.9604054884
 20
98.2655495271
 30
0.0
 10
237.2347941735
 20
98.2804294395
 30
0.0
  0
SPLINE
  5
3E3
100
AcDbEntity
  8
02___PRT_ALL_AXES
100
AcDbSpline
 62
7
  6
CONTINUOUS
 70
0
 71
3
 72
11
 73
7
 74
0
 42
0.0000001
 43
0.0000001
 44
0.0000000001
 40
0.0
 40
0.0
 40
0.0
 40
0.0
 40
0.255546545
 40
0.5066300456
 40
0.7543629092
 40
1.0
 40
1.0
 40
1.0
 40
1.0
 10
240.939329863
 20
75.8008026699
 30
0.0
 10
240.7198422081
 20
75.6663817811
 30
0.0
 10
240.2708918411
 20
75.4216168323
 30
0.0
 10
239.5677850634
 20
75.1299594962
 30
0.0
 10
238.8466033193
 20
74.9195014108
 30
0.0
 10
238.3558165437
 20
74.8341963558
 30
0.0
 10
238.1100657844
 20
74.8056929635
 30
0.0
  0
SPLINE
  5
3E4
100
AcDbEntity
  8
02___PRT_ALL_AXES
100
AcDbSpline
 62
7
  6
CONTINUOUS
 70
0
 71
3
 72
35
 73
31
 74
0
 42
0.0000001
 43
0.0000001
 44
0.0000000001
 40
0.0
 40
0.0
 40
0.0
 40
0.0
 40
0.0277260095
 40
0.0561058279
 40
0.0851940724
 40
0.1150219323
 40
0.1768593489
 40
0.2088736838
 40
0.2415413236
 40
0.3085241649
 40
0.3427115915
 40
0.3772227488
 40
0.4119536288
 40
0.4467959309
 40
0.5163379254
 40
0.5508538456
 40
0.585047809
 40
0.6520485107
 40
0.6847270631
 40
0.7167533254
 40
0.7480772779
 40
0.7786663125
 40
0.8085072776
 40
0.837608285
 40
0.866000113
 40
0.8937369848
 40
0.9208964612
 40
0.9475781779
 40
0.9739012126
 40
1.0
 40
1.0
 40
1.0
 40
1.0
 10
240.939329863
 20
75.8008026699
 30
0.0
 10
241.1644674499
 20
75.9386837482
 30
0.0
 10
241.6059133093
 20
76.2414504012
 30
0.0
 10
242.2277797392
 20
76.7641467575
 30
0.0
 10
242.8124394135
 20
77.3566926605
 30
0.0
 10
243.5452311229
 20
78.2442649226
 30
0.0
 10
244.1765511133
 20
79.2455930401
 30
0.0
 10
244.6999528132
 20
80.3315148538
 30
0.0
 10
245.16046366
 20
81.4986182009
 30
0.0
 10
245.5006473513
 20
82.7316803759
 30
0.0
 10
245.7198175364
 20
84.0055527051
 30
0.0
 10
245.8234842776
 20
84.9856587907
 30
0.0
 10
245.8644926395
 20
85.9765897585
 30
0.0
 10
245.8353118534
 20
87.3015677217
 30
0.0
 10
245.681008792
 20
88.6193952675
 30
0.0
 10
245.4030708431
 20
89.9069251069
 30
0.0
 10
245.0487784474
 20
91.1503443149
 30
0.0
 10
244.5785155539
 20
92.3402738089
 30
0.0
 10
243.995779091
 20
93.451729599
 30
0.0
 10
243.512542585
 20
94.2290335962
 30
0.0
 10
242.9830629541
 20
94.9510865359
 30
0.0
 10
242.4110472865
 20
95.6127655751
 30
0.0
 10
241.8005357175
 20
96.2092908912
 30
0.0
 10
241.1558324515
 20
96.7363465708
 30
0.0
 10
240.4814951473
 20
97.1900834051
 30
0.0
 10
239.7823058964
 20
97.5671508721
 30
0.0
 10
239.0632667853
 20
97.8647228182
 30
0.0
 10
238.3295203974
 20
98.0805290836
 30
0.0
 10
237.5865278057
 20
98.2128888656
 30
0.0
 10
237.0871380268
 20
98.2448746092
 30
0.0
 10
236.8386344584
 20
98.2466336617
 30
0.0
  0
SPLINE
  5
3E5
100
AcDbEntity
  8
7_ALL_FEATURES
100
AcDbSpline
 62
7
  6
CONTINUOUS
 70
0
 71
3
 72
35
 73
31
 74
0
 42
0.0000001
 43
0.0000001
 44
0.0000000001
 40
0.0
 40
0.0
 40
0.0
 40
0.0
 40
0.0643081217
 40
0.0971709636
 40
0.1304344037
 40
0.1640438355
 40
0.1979396258
 40
0.2320580782
 40
0.2663323963
 40
0.3006936369
 40
0.3350716702
 40
0.4035742619
 40
0.4713141481
 40
0.5047497447
 40
0.5378101016
 40
0.6025776073
 40
0.634229519
 40
0.6653423895
 40
0.6958960233
 40
0.7258801812
 40
0.7552952644
 40
0.7841528369
 40
0.8124759547
 40
0.8402992258
 40
0.8676685831
 40
0.8946406848
 40
0.9212819443
 40
0.9476671662
 40
0.9738778185
 40
1.0
 40
1.0
 40
1.0
 40
1.0
 10
250.6148326009
 20
100.6195007572
 30
0.0
 10
251.1277880219
 20
99.8021404868
 30
0.0
 10
251.8269945537
 20
98.517489989
 30
0.0
 10
252.612842753
 20
96.7242404767
 30
0.0
 10
253.136353085
 20
95.3212810917
 30
0.0
 10
253.5870589216
 20
93.8771624602
 30
0.0
 10
253.9629669842
 20
92.3985412363
 30
0.0
 10
254.2623359792
 20
90.8923910407
 30
0.0
 10
254.4837934573
 20
89.3657904308
 30
0.0
 10
254.626319171
 20
87.8258627788
 30
0.0
 10
254.7101056182
 20
85.7674014652
 30
0.0
 10
254.6162225588
 20
83.203964257
 30
0.0
 10
254.2571155392
 20
80.6781182665
 30
0.0
 10
253.8122306858
 20
78.7125966791
 30
0.0
 10
253.2717832693
 20
76.8177260509
 30
0.0
 10
252.5815564928
 20
74.9958724899
 30
0.0
 10
251.7435805724
 20
73.2743158347
 30
0.0
 10
251.053053305
 20
72.0549756167
 30
0.0
 10
250.2989157249
 20
70.9037237397
 30
0.0
 10
249.484495187
 20
69.825969147
 30
0.0
 10
248.6134288257
 20
68.8269020348
 30
0.0
 10
247.6896143052
 20
67.9113722917
 30
0.0
 10
246.7172202872
 20
67.0839023177
 30
0.0
 10
245.7006850413
 20
66.3486619444
 30
0.0
 10
244.6447238521
 20
65.7094450876
 30
0.0
 10
243.5543273135
 20
65.1696362386
 30
0.0
 10
242.4347734001
 20
64.7321711313
 30
0.0
 10
241.2915554702
 20
64.3994841083
 30
0.0
 10
240.1305635567
 20
64.1734667872
 30
0.0
 10
239.3479123696
 20
64.0946969196
 30
0.0
 10
238.9565061212
 20
64.0734721616
 30
0.0
  0
SPLINE
  5
3E6
100
AcDbEntity
  8
7_ALL_FEATURES
100
AcDbSpline
 62
7
  6
CONTINUOUS
 70
0
 71
3
 72
43
 73
39
 74
0
 42
0.0000001
 43
0.0000001
 44
0.0000000001
 40
0.0
 40
0.0
 40
0.0
 40
0.0
 40
0.0130484018
 40
0.0261160137
 40
0.0392218193
 40
0.0523843549
 40
0.0656215006
 40
0.0789502878
 40
0.0923867264
 40
0.1059456563
 40
0.1334745275
 40
0.1616379813
 40
0.1905031202
 40
0.2201122544
 40
0.250483362
 40
0.2816113457
 40
0.3134698216
 40
0.3460132316
 40
0.3791791304
 40
0.4128905502
 40
0.4470583847
 40
0.4815837618
 40
0.5163603911
 40
0.5512768857
 40
0.5862190614
 40
0.6210722233
 40
0.65572345
 40
0.6900638867
 40
0.7239910558
 40
0.7574111921
 40
0.7902416054
 40
0.8224130611
 40
0.8538721601
 40
0.8845836704
 40
0.914532732
 40
0.9437268123
 40
0.9721972343
 40
1.0
 40
1.0
 40
1.0
 40
1.0
 10
228.1922297909
 20
63.4897328662
 30
0.0
 10
227.951279247
 20
63.4766661725
 30
0.0
 10
227.4681519367
 20
63.464444003
 30
0.0
 10
226.7428210112
 20
63.4879524384
 30
0.0
 10
226.0179116741
 20
63.5532458857
 30
0.0
 10
225.2948117116
 20
63.6602000288
 30
0.0
 10
224.574862316
 20
63.8086106026
 30
0.0
 10
223.8594148978
 20
63.998191446
 30
0.0
 10
223.1497825208
 20
64.2285946083
 30
0.0
 10
222.2085535886
 20
64.5913834202
 30
0.0
 10
221.0518446002
 20
65.146915174
 30
0.0
 10
219.7159898757
 20
65.9645348733
 30
0.0
 10
218.4346461147
 20
66.9303838238
 30
0.0
 10
217.2173056815
 20
68.0370939555
 30
0.0
 10
216.0728139564
 20
69.2763608102
 30
0.0
 10
215.0095185971
 20
70.6389344498
 30
0.0
 10
214.0351653928
 20
72.1146946691
 30
0.0
 10
213.15686201
 20
73.6927101564
 30
0.0
 10
212.3810229489
 20
75.3613114654
 30
0.0
 10
211.7133225466
 20
77.108169909
 30
0.0
 10
211.1586507787
 20
78.9203839281
 30
0.0
 10
210.7210746893
 20
80.7845713129
 30
0.0
 10
210.4038063101
 20
82.6869665215
 30
0.0
 10
210.2091772114
 20
84.6135217153
 30
0.0
 10
210.1386201081
 20
86.5500105074
 30
0.0
 10
210.1926577615
 20
88.4821333796
 30
0.0
 10
210.3708992936
 20
90.3956237342
 30
0.0
 10
210.6720437305
 20
92.2763535877
 30
0.0
 10
211.0938913128
 20
94.1104377772
 30
0.0
 10
211.6333619238
 20
95.8843356167
 30
0.0
 10
212.2865202429
 20
97.584948748
 30
0.0
 10
213.0486079698
 20
99.1997145295
 30
0.0
 10
213.9140791543
 20
100.716691941
 30
0.0
 10
214.8766483643
 20
102.1246458885
 30
0.0
 10
215.9293098886
 20
103.413104799
 30
0.0
 10
217.0644711405
 20
104.5724794094
 30
0.0
 10
218.2736729878
 20
105.5939303505
 30
0.0
 10
219.1331230755
 20
106.1844979539
 30
0.0
 10
219.5715868468
 20
106.4530264498
 30
0.0
  0
SPLINE
  5
3E7
100
AcDbEntity
  8
7_ALL_FEATURES
100
AcDbSpline
 62
9
  6
CONTINUOUS
 70
0
 71
3
 72
38
 73
34
 74
0
 42
0.0000001
 43
0.0000001
 44
0.0000000001
 40
0.0
 40
0.0
 40
0.0
 40
0.0
 40
0.0276877661
 40
0.0548339072
 40
0.0816073473
 40
0.108198661
 40
0.1348093532
 40
0.1616397533
 40
0.1888770631
 40
0.2166850742
 40
0.2451965885
 40
0.2745088952
 40
0.3046820729
 40
0.3357395434
 40
0.3676702186
 40
0.4004316529
 40
0.4339537627
 40
0.4681428131
 40
0.5028854976
 40
0.5380530127
 40
0.57350509
 40
0.6090939769
 40
0.6446683763
 40
0.6800773645
 40
0.7151743127
 40
0.7498208325
 40
0.783890766
 40
0.8172742273
 40
0.8815833772
 40
0.9124718673
 40
0.9424777884
 40
0.9716314377
 40
1.0
 40
1.0
 40
1.0
 40
1.0
 10
242.0347213781
 20
75.5815686707
 30
0.0
 10
241.7732942899
 20
75.4214628024
 30
0.0
 10
241.2363560165
 20
75.1343752485
 30
0.0
 10
240.3908179275
 20
74.8093454294
 30
0.0
 10
239.5222098903
 20
74.5979962952
 30
0.0
 10
238.6392976198
 20
74.502659634
 30
0.0
 10
237.7508839906
 20
74.5243132598
 30
0.0
 10
236.8658723034
 20
74.662680553
 30
0.0
 10
235.9930457646
 20
74.916222298
 30
0.0
 10
235.1409532977
 20
75.2822201235
 30
0.0
 10
234.3178182922
 20
75.7568664757
 30
0.0
 10
233.5314869993
 20
76.3353517084
 30
0.0
 10
232.7893915245
 20
77.0119343786
 30
0.0
 10
232.0985143455
 20
77.7799990181
 30
0.0
 10
231.4653468387
 20
78.6321095099
 30
0.0
 10
230.895841598
 20
79.5600658354
 30
0.0
 10
230.39536144
 20
80.5549687429
 30
0.0
 10
229.9686287444
 20
81.6072939838
 30
0.0
 10
229.619678215
 20
82.7069758695
 30
0.0
 10
229.3518152308
 20
83.843498881
 30
0.0
 10
229.1675813487
 20
85.0059959619
 30
0.0
 10
229.0687274343
 20
86.1833511399
 30
0.0
 10
229.0561963263
 20
87.3643075808
 30
0.0
 10
229.1301101726
 20
88.5375695912
 30
0.0
 10
229.2897816803
 20
89.6919341075
 30
0.0
 10
229.5336788154
 20
90.8163136998
 30
0.0
 10
229.8596010787
 20
91.900149823
 30
0.0
 10
230.3922887944
 20
93.2594304743
 30
0.0
 10
231.0783993476
 20
94.5173075099
 30
0.0
 10
231.9103181556
 20
95.6284580509
 30
0.0
 10
232.5858758971
 20
96.3642347062
 30
0.0
 10
233.3146004103
 20
97.0058190441
 30
0.0
 10
233.8382089581
 20
97.3713462298
 30
0.0
 10
234.1060641052
 20
97.535388836
 30
0.0
  0
SPLINE
  5
3E8
100
AcDbEntity
  8
7_ALL_FEATURES
100
AcDbSpline
 62
9
  6
CONTINUOUS
 70
0
 71
3
 72
11
 73
7
 74
0
 42
0.0000001
 43
0.0000001
 44
0.0000000001
 40
0.0
 40
0.0
 40
0.0
 40
0.0
 40
0.2558506512
 40
0.506783195
 40
0.7542766544
 40
1.0
 40
1.0
 40
1.0
 40
1.0
 10
241.7366854923
 20
75.8440427253
 30
0.0
 10
241.4877792229
 20
75.6916049858
 30
0.0
 10
240.9769255901
 20
75.4175524403
 30
0.0
 10
240.173155666
 20
75.104458028
 30
0.0
 10
239.3477527099
 20
74.8968392765
 30
0.0
 10
238.7872249215
 20
74.8300873005
 30
0.0
 10
238.5073134948
 20
74.8149080459
 30
0.0
  0
SPLINE
  5
3E9
100
AcDbEntity
  8
02___PRT_ALL_AXES
100
AcDbSpline
 62
7
  6
CONTINUOUS
 70
0
 71
3
 72
14
 73
10
 74
0
 42
0.0000001
 43
0.0000001
 44
0.0000000001
 40
0.0
 40
0.0
 40
0.0
 40
0.0
 40
0.0951024556
 40
0.1954785365
 40
0.3037998168
 40
0.4217225661
 40
0.5501223238
 40
0.6893523975
 40
1.0
 40
1.0
 40
1.0
 40
1.0
 10
227.7967971778
 20
106.8990740314
 30
0.0
 10
227.7941384668
 20
106.9108284848
 30
0.0
 10
227.7915218055
 20
106.9357001084
 30
0.0
 10
227.7954271505
 20
106.9742104945
 30
0.0
 10
227.8065461227
 20
107.0142485536
 30
0.0
 10
227.8244383714
 20
107.0555949583
 30
0.0
 10
227.8487249706
 20
107.0980835314
 30
0.0
 10
227.8907373081
 20
107.1582111158
 30
0.0
 10
227.9286625926
 20
107.2010584805
 30
0.0
 10
227.9561483355
 20
107.2292393045
 30
0.0
  0
SPLINE
  5
3EA
100
AcDbEntity
  8
02___PRT_ALL_AXES
100
AcDbSpline
 62
9
  6
CONTINUOUS
 70
0
 71
3
 72
43
 73
39
 74
0
 42
0.0000001
 43
0.0000001
 44
0.0000000001
 40
0.0
 40
0.0
 40
0.0
 40
0.0
 40
0.0277229856
 40
0.0561065609
 40
0.0852110635
 40
0.1150716995
 40
0.1456992888
 40
0.1770817404
 40
0.2091860003
 40
0.2419602757
 40
0.2753364033
 40
0.3092322738
 40
0.3435542623
 40
0.3781996419
 40
0.4130589687
 40
0.4480184418
 40
0.4829622438
 40
0.517774872
 40
0.552343471
 40
0.5865601773
 40
0.6203244852
 40
0.6535456409
 40
0.6861450609
 40
0.7180587649
 40
0.7492397916
 40
0.7796605373
 40
0.8093149218
 40
0.8382202301
 40
0.8664184188
 40
0.8939766165
 40
0.907548344
 40
0.9209964215
 40
0.9343358031
 40
0.9475826354
 40
0.9607541053
 40
0.9738682654
 40
0.9869438376
 40
1.0
 40
1.0
 40
1.0
 40
1.0
 10
230.539912399
 20
107.1594474466
 30
0.0
 10
230.0965099095
 20
106.8977309662
 30
0.0
 10
229.2267157971
 20
106.319936557
 30
0.0
 10
228.0012430988
 20
105.3147842339
 30
0.0
 10
226.8492677356
 20
104.1691531018
 30
0.0
 10
225.779462177
 20
102.8918748253
 30
0.0
 10
224.7996173515
 20
101.4925577488
 30
0.0
 10
223.9169328227
 20
99.9817168207
 30
0.0
 10
223.1378794786
 20
98.3706546139
 30
0.0
 10
222.4681801483
 20
96.6714029042
 30
0.0
 10
221.9127596714
 20
94.896637512
 30
0.0
 10
221.4757081033
 20
93.0595911289
 30
0.0
 10
221.1602469718
 20
91.1739583306
 30
0.0
 10
220.9687027296
 20
89.2537958266
 30
0.0
 10
220.9024871027
 20
87.3134186522
 30
0.0
 10
220.9620849373
 20
85.3672936368
 30
0.0
 10
221.1470495088
 20
83.4299312319
 30
0.0
 10
221.4560057121
 20
81.5157768195
 30
0.0
 10
221.88666081
 20
79.6391026
 30
0.0
 10
222.4358226863
 20
77.8139011137
 30
0.0
 10
223.0994254154
 20
76.0537814921
 30
0.0
 10
223.87256184
 20
74.3718695449
 30
0.0
 10
224.749522515
 20
72.7807128914
 30
0.0
 10
225.7238406408
 20
71.2921920529
 30
0.0
 10
226.7883400231
 20
69.9174392207
 30
0.0
 10
227.9351913893
 20
68.666763216
 30
0.0
 10
229.1559496444
 20
67.5495886313
 30
0.0
 10
230.4416601226
 20
66.5743788862
 30
0.0
 10
231.7827074812
 20
65.7486451325
 30
0.0
 10
232.9443991324
 20
65.1874401571
 30
0.0
 10
233.8898808673
 20
64.8208803415
 30
0.0
 10
234.6027752573
 20
64.5880524856
 30
0.0
 10
235.3215814483
 20
64.3964351597
 30
0.0
 10
236.0449672145
 20
64.2463835868
 30
0.0
 10
236.7715613967
 20
64.1381899364
 30
0.0
 10
237.5000030704
 20
64.0720629609
 30
0.0
 10
238.228883966
 20
64.0481297099
 30
0.0
 10
238.7143791784
 20
64.0603424427
 30
0.0
 10
238.9565065315
 20
64.0734723292
 30
0.0
  0
SPLINE
  5
3EB
100
AcDbEntity
  8
7_ALL_FEATURES
100
AcDbSpline
 62
9
  6
CONTINUOUS
 70
0
 71
3
 72
36
 73
32
 74
0
 42
0.0000001
 43
0.0000001
 44
0.0000000001
 40
0.0
 40
0.0
 40
0.0
 40
0.0
 40
0.0261096237
 40
0.0523717887
 40
0.0789319505
 40
0.1059221052
 40
0.1334556756
 40
0.1616239377
 40
0.1904940056
 40
0.2201081953
 40
0.2504844872
 40
0.281617784
 40
0.3134816986
 40
0.3460306653
 40
0.412878146
 40
0.4470518131
 40
0.4815830842
 40
0.5512516629
 40
0.5861998037
 40
0.6210589156
 40
0.6557160583
 40
0.6900623581
 40
0.7239953189
 40
0.7574211603
 40
0.7902571781
 40
0.8224341266
 40
0.8845639661
 40
0.9145181398
 40
0.9437172001
 40
0.9721924561
 40
1.0
 40
1.0
 40
1.0
 40
1.0
 10
237.2347941739
 20
98.2804294331
 30
0.0
 10
237.4865342945
 20
98.2940809923
 30
0.0
 10
237.9935533812
 20
98.2922150473
 30
0.0
 10
238.7519013744
 20
98.2017030327
 30
0.0
 10
239.5035187417
 20
98.024262919
 30
0.0
 10
240.2425932931
 20
97.7613355804
 30
0.0
 10
240.9636323925
 20
97.4150216518
 30
0.0
 10
241.6612832758
 20
96.988030182
 30
0.0
 10
242.3304189519
 20
96.4836455307
 30
0.0
 10
242.9661437167
 20
95.9056965423
 30
0.0
 10
243.5638232293
 20
95.2585216216
 30
0.0
 10
244.1190950044
 20
94.5469652499
 30
0.0
 10
244.6279432094
 20
93.7762525107
 30
0.0
 10
245.2447972355
 20
92.6679904332
 30
0.0
 10
245.7468369855
 20
91.4744715711
 30
0.0
 10
246.1300968932
 20
90.2222135078
 30
0.0
 10
246.4356258036
 20
88.9206642169
 30
0.0
 10
246.613734272
 20
87.5844240544
 30
0.0
 10
246.6627874011
 20
86.2378783865
 30
0.0
 10
246.6345713996
 20
85.2288323067
 30
0.0
 10
246.5414886081
 20
84.2295776243
 30
0.0
 10
246.3842255236
 20
83.247416846
 30
0.0
 10
246.163923693
 20
82.2896124739
 30
0.0
 10
245.8822129419
 20
81.3632644582
 30
0.0
 10
245.5410725725
 20
80.4750900426
 30
0.0
 10
245.0168179392
 20
79.3641559934
 30
0.0
 10
244.3805198893
 20
78.3394311322
 30
0.0
 10
243.6387843462
 20
77.4315896594
 30
0.0
 10
243.0459518075
 20
76.826098152
 30
0.0
 10
242.414486802
 20
76.2926842133
 30
0.0
 10
241.9656612771
 20
75.9842744323
 30
0.0
 10
241.7366854923
 20
75.8440427253
 30
0.0
  0
SPLINE
  5
3EC
100
AcDbEntity
  8
7_ALL_FEATURES
100
AcDbSpline
 62
9
  6
CONTINUOUS
 70
0
 71
3
 72
38
 73
34
 74
0
 42
0.0000001
 43
0.0000001
 44
0.0000000001
 40
0.0
 40
0.0
 40
0.0
 40
0.0
 40
0.0276877661
 40
0.0548339072
 40
0.0816073473
 40
0.108198661
 40
0.1348093532
 40
0.1616397533
 40
0.1888770631
 40
0.2166850742
 40
0.2451965885
 40
0.2745088952
 40
0.3046820729
 40
0.3357395434
 40
0.3676702186
 40
0.4004316529
 40
0.4339537627
 40
0.4681428131
 40
0.5028854976
 40
0.5380530127
 40
0.57350509
 40
0.6090939769
 40
0.6446683763
 40
0.6800773645
 40
0.7151743127
 40
0.7498208325
 40
0.783890766
 40
0.8172742273
 40
0.8815833772
 40
0.9124718673
 40
0.9424777884
 40
0.9716314377
 40
1.0
 40
1.0
 40
1.0
 40
1.0
 10
234.1060641052
 20
97.535388836
 30
0.0
 10
234.3674911934
 20
97.6954947042
 30
0.0
 10
234.9044294668
 20
97.9825822582
 30
0.0
 10
235.7499675558
 20
98.3076120773
 30
0.0
 10
236.618575593
 20
98.5189612115
 30
0.0
 10
237.5014878635
 20
98.6142978727
 30
0.0
 10
238.3899014927
 20
98.5926442469
 30
0.0
 10
239.2749131799
 20
98.4542769537
 30
0.0
 10
240.1477397187
 20
98.2007352087
 30
0.0
 10
240.9998321856
 20
97.8347373831
 30
0.0
 10
241.8229671911
 20
97.360091031
 30
0.0
 10
242.609298484
 20
96.7816057983
 30
0.0
 10
243.3513939588
 20
96.1050231281
 30
0.0
 10
244.0422711378
 20
95.3369584885
 30
0.0
 10
244.6754386446
 20
94.4848479967
 30
0.0
 10
245.2449438853
 20
93.5568916712
 30
0.0
 10
245.7454240433
 20
92.5619887638
 30
0.0
 10
246.1721567389
 20
91.5096635228
 30
0.0
 10
246.5211072683
 20
90.4099816372
 30
0.0
 10
246.7889702525
 20
89.2734586257
 30
0.0
 10
246.9732041346
 20
88.1109615448
 30
0.0
 10
247.072058049
 20
86.9336063668
 30
0.0
 10
247.084589157
 20
85.7526499258
 30
0.0
 10
247.0106753107
 20
84.5793879155
 30
0.0
 10
246.851003803
 20
83.4250233992
 30
0.0
 10
246.6071066679
 20
82.3006438069
 30
0.0
 10
246.2811844046
 20
81.2168076837
 30
0.0
 10
245.7484966889
 20
79.8575270324
 30
0.0
 10
245.0623861357
 20
78.5996499967
 30
0.0
 10
244.2304673277
 20
77.4884994558
 30
0.0
 10
243.5549095862
 20
76.7527228005
 30
0.0
 10
242.826185073
 20
76.1111384626
 30
0.0
 10
242.3025765252
 20
75.7456112769
 30
0.0
 10
242.0347213781
 20
75.5815686707
 30
0.0
  0
SPLINE
  5
3ED
100
AcDbEntity
  8
7_ALL_FEATURES
100
AcDbSpline
 62
9
  6
CONTINUOUS
 70
0
 71
3
 72
39
 73
35
 74
0
 42
0.0000001
 43
0.0000001
 44
0.0000000001
 40
0.0
 40
0.0
 40
0.0
 40
0.0
 40
0.0271494735
 40
0.0548774927
 40
0.0832509415
 40
0.1123154839
 40
0.1420956682
 40
0.1725957339
 40
0.2038009124
 40
0.2356790454
 40
0.2681823931
 40
0.3012495393
 40
0.3348073346
 40
0.3687728447
 40
0.4030552845
 40
0.4375579316
 40
0.4721800198
 40
0.5068186166
 40
0.5413704914
 40
0.5757339829
 40
0.6098108727
 40
0.643508273
 40
0.6767405335
 40
0.7094311696
 40
0.7415148065
 40
0.7729391281
 40
0.8036667985
 40
0.8336773095
 40
0.8629686721
 40
0.8915588348
 40
0.9194866704
 40
0.9468123284
 40
0.9736167307
 40
1.0
 40
1.0
 40
1.0
 40
1.0
 10
231.6956388535
 20
107.0871550224
 30
0.0
 10
231.2768604117
 20
106.8696676002
 30
0.0
 10
230.452446824
 20
106.3862115712
 30
0.0
 10
229.2800858752
 20
105.5345112812
 30
0.0
 10
228.1674396815
 20
104.5550061862
 30
0.0
 10
227.1220748472
 20
103.4545172315
 30
0.0
 10
226.1508611649
 20
102.2405184245
 30
0.0
 10
225.2602316084
 20
100.9212396172
 30
0.0
 10
224.4560679273
 20
99.505578242
 30
0.0
 10
223.7436886444
 20
98.0030592995
 30
0.0
 10
223.1278088679
 20
96.423775564
 30
0.0
 10
222.6125100528
 20
94.7783264521
 30
0.0
 10
222.2012107225
 20
93.0777507628
 30
0.0
 10
221.8966418343
 20
91.3334553758
 30
0.0
 10
221.7008266027
 20
89.5571402835
 30
0.0
 10
221.6150653712
 20
87.7607208595
 30
0.0
 10
221.6399257025
 20
85.9562481153
 30
0.0
 10
221.7752378273
 20
84.1558277029
 30
0.0
 10
222.0200954965
 20
82.3715383871
 30
0.0
 10
222.3728622354
 20
80.6153506983
 30
0.0
 10
222.8311829411
 20
78.8990464699
 30
0.0
 10
223.3920007175
 20
77.234139973
 30
0.0
 10
224.051578766
 20
75.6318013748
 30
0.0
 10
224.8055270674
 20
74.1027832669
 30
0.0
 10
225.6488334256
 20
72.6573510185
 30
0.0
 10
226.5758983464
 20
71.3052176685
 30
0.0
 10
227.5805726561
 20
70.0554840216
 30
0.0
 10
228.6561976368
 20
68.9165841393
 30
0.0
 10
229.7956430228
 20
67.8962367488
 30
0.0
 10
230.9913532341
 20
67.0013994372
 30
0.0
 10
232.2353582162
 20
66.2382318856
 30
0.0
 10
233.5194025288
 20
65.6120359906
 30
0.0
 10
234.8346401251
 20
65.1272755922
 30
0.0
 10
235.732619083
 20
64.899145365
 30
0.0
 10
236.1825088262
 20
64.8103527076
 30
0.0
  0
SPLINE
  5
3EE
100
AcDbEntity
  8
02___PRT_ALL_AXES
100
AcDbSpline
 62
7
  6
CONTINUOUS
 70
0
 71
3
 72
11
 73
7
 74
0
 42
0.0000001
 43
0.0000001
 44
0.0000000001
 40
0.0
 40
0.0
 40
0.0
 40
0.0
 40
0.2875379519
 40
0.5422996261
 40
0.7755168027
 40
1.0
 40
1.0
 40
1.0
 40
1.0
 10
227.9040445204
 20
106.7773555509
 30
0.0
 10
227.8896798981
 20
106.7845380198
 30
0.0
 10
227.8634998965
 20
106.800128808
 30
0.0
 10
227.8310913153
 20
106.8293677507
 30
0.0
 10
227.808329095
 20
106.8624893158
 30
0.0
 10
227.7995633162
 20
106.8868446297
 30
0.0
 10
227.7967971778
 20
106.8990740314
 30
0.0
  0
SPLINE
  5
3EF
100
AcDbEntity
  8
7_ALL_FEATURES
100
AcDbSpline
 62
9
  6
CONTINUOUS
 70
0
 71
3
 72
36
 73
32
 74
0
 42
0.0000001
 43
0.0000001
 44
0.0000000001
 40
0.0
 40
0.0
 40
0.0
 40
0.0
 40
0.0263483426
 40
0.0525229717
 40
0.0786423209
 40
0.1048268571
 40
0.1311946509
 40
0.1578571418
 40
0.1849154184
 40
0.2124572432
 40
0.2405549325
 40
0.2692640883
 40
0.2986230941
 40
0.3286532441
 40
0.3593593561
 40
0.390730732
 40
0.4227423517
 40
0.4553562119
 40
0.4885227447
 40
0.522182274
 40
0.5562664819
 40
0.5906998697
 40
0.6254012064
 40
0.6602849617
 40
0.7302162452
 40
0.7651123302
 40
0.7998340017
 40
0.8683847338
 40
0.9020861525
 40
0.9353004993
 40
1.0
 40
1.0
 40
1.0
 40
1.0
 10
236.1825088262
 20
64.8103527076
 30
0.0
 10
236.5957635439
 20
64.7287905357
 30
0.0
 10
237.428239251
 20
64.6069461433
 30
0.0
 10
238.6863480759
 20
64.5516790914
 30
0.0
 10
239.9410490283
 20
64.6250330282
 30
0.0
 10
241.1847022317
 20
64.8265992543
 30
0.0
 10
242.409950368
 20
65.1551238199
 30
0.0
 10
243.6095277376
 20
65.6085770608
 30
0.0
 10
244.7763833872
 20
66.1841725709
 30
0.0
 10
245.9037055359
 20
66.8784086891
 30
0.0
 10
246.9849594923
 20
67.6871060683
 30
0.0
 10
248.0139125078
 20
68.6054441578
 30
0.0
 10
248.9846573035
 20
69.6279945139
 30
0.0
 10
249.8916345871
 20
70.7487524757
 30
0.0
 10
250.7296564009
 20
71.9611688135
 30
0.0
 10
251.4939302628
 20
73.2581829427
 30
0.0
 10
252.180083669
 20
74.6322588622
 30
0.0
 10
252.7841880219
 20
76.0754241467
 30
0.0
 10
253.3027813268
 20
77.5793131913
 30
0.0
 10
253.7328889267
 20
79.135210108
 30
0.0
 10
254.0720417864
 20
80.7341079628
 30
0.0
 10
254.318291853
 20
82.366719152
 30
0.0
 10
254.470224607
 20
84.0236820656
 30
0.0
 10
254.5459353177
 20
86.2537398802
 30
0.0
 10
254.430490819
 20
88.4900700456
 30
0.0
 10
254.1255597629
 20
90.7010873739
 30
0.0
 10
253.6984800171
 20
92.8692564088
 30
0.0
 10
253.0890195335
 20
94.9788327466
 30
0.0
 10
252.3005068576
 20
96.9971742888
 30
0.0
 10
251.41420587
 20
98.9064913603
 30
0.0
 10
250.6199359978
 20
100.262363913
 30
0.0
 10
250.0357666767
 20
101.1159480736
 30
0.0
  0
SPLINE
  5
3F0
100
AcDbEntity
  8
7_ALL_FEATURES
100
AcDbSpline
 62
7
  6
CONTINUOUS
 70
0
 71
3
 72
29
 73
25
 74
0
 42
0.0000001
 43
0.0000001
 44
0.0000000001
 40
0.0
 40
0.0
 40
0.0
 40
0.0
 40
0.0271102463
 40
0.0549934587
 40
0.0836178842
 40
0.1129467526
 40
0.1429392321
 40
0.1735507169
 40
0.2364294765
 40
0.3011733231
 40
0.3673290377
 40
0.4344172942
 40
0.5019420618
 40
0.5693996351
 40
0.6362874845
 40
0.7021131338
 40
0.7664032684
 40
0.8287132909
 40
0.8590008509
 40
0.8886452082
 40
0.9176037033
 40
0.9458376591
 40
0.973312846
 40
1.0
 40
1.0
 40
1.0
 40
1.0
 10
246.7806420473
 20
103.2975928922
 30
0.0
 10
246.4600677462
 20
103.4578800428
 30
0.0
 10
245.803136929
 20
103.7698927778
 30
0.0
 10
244.7872192048
 20
104.2063578977
 30
0.0
 10
243.7290499416
 20
104.6169603139
 30
0.0
 10
242.6312754712
 20
105.0006707731
 30
0.0
 10
241.4966060101
 20
105.3565470009
 30
0.0
 10
239.9243100946
 20
105.7966472354
 30
0.0
 10
237.8852087423
 20
106.2695656517
 30
0.0
 10
235.3600760271
 20
106.7089129329
 30
0.0
 10
232.7600089725
 20
107.0207408055
 30
0.0
 10
230.1107971729
 20
107.2019414607
 30
0.0
 10
227.4386470066
 20
107.2507146291
 30
0.0
 10
224.7700240963
 20
107.1665730512
 30
0.0
 10
222.1313580684
 20
106.9503561157
 30
0.0
 10
219.5487457005
 20
106.6042118011
 30
0.0
 10
217.0477994209
 20
106.1315885298
 30
0.0
 10
215.0334654249
 20
105.6315910922
 30
0.0
 10
213.484288172
 20
105.1705265655
 30
0.0
 10
212.368920041
 20
104.7997078073
 30
0.0
 10
211.2919100721
 20
104.4015537405
 30
0.0
 10
210.2559147091
 20
103.977040997
 30
0.0
 10
209.2635274561
 20
103.5272332396
 30
0.0
 10
208.6230886505
 20
103.2064497018
 30
0.0
 10
208.3110015984
 20
103.0418798677
 30
0.0
  0
SPLINE
  5
3F1
100
AcDbEntity
  8
02___PRT_ALL_AXES
100
AcDbSpline
 62
7
  6
CONTINUOUS
 70
0
 71
3
 72
23
 73
19
 74
0
 42
0.0000001
 43
0.0000001
 44
0.0000000001
 40
0.0
 40
0.0
 40
0.0
 40
0.0
 40
0.0792022967
 40
0.1559760058
 40
0.2302783608
 40
0.3020872667
 40
0.3714035929
 40
0.438253697
 40
0.502692112
 40
0.5648043128
 40
0.6247094482
 40
0.6825627734
 40
0.738557431
 40
0.7929251623
 40
0.8459354014
 40
0.8978922411
 40
0.9491289494
 40
1.0
 40
1.0
 40
1.0
 40
1.0
 10
208.4687657858
 20
84.1283480978
 30
0.0
 10
208.156563028
 20
84.2842348176
 30
0.0
 10
207.5475805753
 20
84.6031488333
 30
0.0
 10
206.6689105643
 20
85.1110133548
 30
0.0
 10
205.8410644292
 20
85.6398755459
 30
0.0
 10
205.0660456741
 20
86.1884730781
 30
0.0
 10
204.3457100883
 20
86.7555132916
 30
0.0
 10
203.681791429
 20
87.3396627109
 30
0.0
 10
203.0758926351
 20
87.9395540604
 30
0.0
 10
202.5294876465
 20
88.5537884062
 30
0.0
 10
202.0439212428
 20
89.1809362572
 30
0.0
 10
201.6204098748
 20
89.8195368075
 30
0.0
 10
201.2600421967
 20
90.4680939438
 30
0.0
 10
200.9637763197
 20
91.1250728779
 30
0.0
 10
200.7324324774
 20
91.7888820553
 30
0.0
 10
200.5666805711
 20
92.4579060724
 30
0.0
 10
200.4670215883
 20
93.1303656824
 30
0.0
 10
200.4448249136
 20
93.5805516252
 30
0.0
 10
200.4448250022
 20
93.8046843548
 30
0.0
  0
SPLINE
  5
3F2
100
AcDbEntity
  8
02___PRT_ALL_AXES
100
AcDbSpline
 62
7
  6
CONTINUOUS
 70
0
 71
3
 72
11
 73
7
 74
0
 42
0.0000001
 43
0.0000001
 44
0.0000000001
 40
0.0
 40
0.0
 40
0.0
 40
0.0
 40
0.2591491209
 40
0.5105787584
 40
0.7566591747
 40
1.0
 40
1.0
 40
1.0
 40
1.0
 10
254.3183223991
 20
90.4682722914
 30
0.0
 10
254.4529365555
 20
90.7358082156
 30
0.0
 10
254.6912868439
 20
91.2770673867
 30
0.0
 10
254.9524441201
 20
92.1135996248
 30
0.0
 10
255.1097420184
 20
92.9572422559
 30
0.0
 10
255.1448248314
 20
93.5234600547
 30
0.0
 10
255.1448249427
 20
93.8046843548
 30
0.0
  0
SPLINE
  5
3F3
100
AcDbEntity
  8
7_ALL_FEATURES
100
AcDbSpline
 62
7
  6
CONTINUOUS
 70
0
 71
3
 72
11
 73
7
 74
0
 42
0.0000001
 43
0.0000001
 44
0.0000000001
 40
0.0
 40
0.0
 40
0.0
 40
0.0
 40
0.2338303732
 40
0.4786770477
 40
0.7342244714
 40
1.0
 40
1.0
 40
1.0
 40
1.0
 10
206.6480193409
 20
101.6576402886
 30
0.0
 10
207.0118989118
 20
101.4061372257
 30
0.0
 10
207.7750295452
 20
100.9172791442
 30
0.0
 10
208.9895669753
 20
100.241874672
 30
0.0
 10
210.2949018457
 20
99.610364264
 30
0.0
 10
211.2044020204
 20
99.2278241683
 30
0.0
 10
211.6723707447
 20
99.0440287973
 30
0.0
  0
SPLINE
  5
3F4
100
AcDbEntity
  8
7_ALL_FEATURES
100
AcDbSpline
 62
7
  6
CONTINUOUS
 70
0
 71
3
 72
11
 73
7
 74
0
 42
0.0000001
 43
0.0000001
 44
0.0000000001
 40
0.0
 40
0.0
 40
0.0
 40
0.0
 40
0.2689896911
 40
0.5247010326
 40
0.7678985264
 40
1.0
 40
1.0
 40
1.0
 40
1.0
 10
245.437139163
 20
100.3805970167
 30
0.0
 10
245.3454933222
 20
100.3347740962
 30
0.0
 10
245.1623155135
 20
100.2538091693
 30
0.0
 10
244.8830303542
 20
100.1648124671
 30
0.0
 10
244.6088718526
 20
100.1122906675
 30
0.0
 10
244.4274360745
 20
100.1018612494
 30
0.0
 10
244.3390355849
 20
100.1032728056
 30
0.0
  0
SPLINE
  5
3F5
100
AcDbEntity
  8
7_ALL_FEATURES
100
AcDbSpline
 62
7
  6
CONTINUOUS
 70
0
 71
3
 72
15
 73
11
 74
0
 42
0.0000001
 43
0.0000001
 44
0.0000000001
 40
0.0
 40
0.0
 40
0.0
 40
0.0
 40
0.1098430398
 40
0.2286718533
 40
0.3545019046
 40
0.4849547789
 40
0.617414585
 40
0.7491671095
 40
0.8775326015
 40
1.0
 40
1.0
 40
1.0
 40
1.0
 10
247.1887542976
 20
101.2564045839
 30
0.0
 10
247.2705412703
 20
101.2972980703
 30
0.0
 10
247.4467455333
 20
101.370790052
 30
0.0
 10
247.7303309692
 20
101.4541088303
 30
0.0
 10
248.0374095038
 20
101.5131970403
 30
0.0
 10
248.3597005397
 20
101.5464293939
 30
0.0
 10
248.6885520646
 20
101.5529098876
 30
0.0
 10
249.0151047705
 20
101.5324558037
 30
0.0
 10
249.3305149929
 20
101.4856379539
 30
0.0
 10
249.5337955632
 20
101.4362201531
 30
0.0
 10
249.6314513324
 20
101.4069430888
 30
0.0
  0
SPLINE
  5
3F6
100
AcDbEntity
  8
7_ALL_FEATURES
100
AcDbSpline
 62
7
  6
CONTINUOUS
 70
0
 71
3
 72
11
 73
7
 74
0
 42
0.0000001
 43
0.0000001
 44
0.0000000001
 40
0.0
 40
0.0
 40
0.0
 40
0.0
 40
0.2813961831
 40
0.5466638869
 40
0.7885647373
 40
1.0
 40
1.0
 40
1.0
 40
1.0
 10
249.6314513324
 20
101.4069430888
 30
0.0
 10
249.7006076325
 20
101.3592623875
 30
0.0
 10
249.83415957
 20
101.2654687016
 30
0.0
 10
250.0238461133
 20
101.1260346028
 30
0.0
 10
250.1931668569
 20
100.9942851369
 30
0.0
 10
250.2969683094
 20
100.9073788944
 30
0.0
 10
250.3442350472
 20
100.8655519699
 30
0.0
  0
SPLINE
  5
3F7
100
AcDbEntity
  8
7_ALL_FEATURES
100
AcDbSpline
 62
7
  6
CONTINUOUS
 70
0
 71
3
 72
11
 73
7
 74
0
 42
0.0000001
 43
0.0000001
 44
0.0000000001
 40
0.0
 40
0.0
 40
0.0
 40
0.0
 40
0.262055581
 40
0.513993464
 40
0.7588301728
 40
1.0
 40
1.0
 40
1.0
 40
1.0
 10
241.4701887279
 20
105.3578693452
 30
0.0
 10
241.4834229971
 20
105.3354506095
 30
0.0
 10
241.5069226044
 20
105.2899538037
 30
0.0
 10
241.5328568531
 20
105.2189444831
 30
0.0
 10
241.5485051552
 20
105.1470908342
 30
0.0
 10
241.5520010569
 20
105.0987398837
 30
0.0
 10
241.5520009394
 20
105.0747812024
 30
0.0
  0
SPLINE
  5
3F8
100
AcDbEntity
  8
7_ALL_FEATURES
100
AcDbSpline
 62
7
  6
CONTINUOUS
 70
0
 71
3
 72
21
 73
17
 74
0
 42
0.0000001
 43
0.0000001
 44
0.0000000001
 40
0.0
 40
0.0
 40
0.0
 40
0.0
 40
0.1534219705
 40
0.2266455553
 40
0.2975319787
 40
0.3661051477
 40
0.4324111471
 40
0.4965202431
 40
0.5585288608
 40
0.6766995612
 40
0.7332716661
 40
0.7884198955
 40
0.8423874294
 40
0.895443508
 40
0.9478789388
 40
1.0
 40
1.0
 40
1.0
 40
1.0
 10
208.3171096801
 20
103.0306718895
 30
0.0
 10
207.8203617983
 20
102.7472858906
 30
0.0
 10
207.1017246637
 20
102.3006047097
 30
0.0
 10
206.2008046028
 20
101.6532542545
 30
0.0
 10
205.5791441725
 20
101.160724084
 30
0.0
 10
205.0023160961
 20
100.6546557631
 30
0.0
 10
204.471482042
 20
100.1360499114
 30
0.0
 10
203.9876804669
 20
99.6058572805
 30
0.0
 10
203.4160166907
 20
98.896576619
 30
0.0
 10
202.9292897106
 20
98.1562793513
 30
0.0
 10
202.5418328247
 20
97.3911380462
 30
0.0
 10
202.3065172947
 20
96.8193597695
 30
0.0
 10
202.1229127503
 20
96.242668394
 30
0.0
 10
201.991436093
 20
95.6622124237
 30
0.0
 10
201.9124175738
 20
95.0792895701
 30
0.0
 10
201.8948249204
 20
94.68931874
 30
0.0
 10
201.8948250928
 20
94.4950318719
 30
0.0
  0
SPLINE
  5
3F9
100
AcDbEntity
  8
7_ALL_FEATURES
100
AcDbSpline
 62
7
  6
CONTINUOUS
 70
0
 71
3
 72
17
 73
13
 74
0
 42
0.0000001
 43
0.0000001
 44
0.0000000001
 40
0.0
 40
0.0
 40
0.0
 40
0.0
 40
0.0561297376
 40
0.1124329118
 40
0.1690806536
 40
0.2262395921
 40
0.3426715078
 40
0.4629597939
 40
0.5881111634
 40
0.7189449176
 40
0.8560909359
 40
1.0
 40
1.0
 40
1.0
 40
1.0
 10
253.6948249504
 20
94.4950318719
 30
0.0
 10
253.694824845
 20
94.6338355225
 30
0.0
 10
253.6858712473
 20
94.9119547636
 30
0.0
 10
253.6456184916
 20
95.3284028556
 30
0.0
 10
253.5785752509
 20
95.7439892022
 30
0.0
 10
253.4528533418
 20
96.2996126676
 30
0.0
 10
253.2269663866
 20
96.9923629565
 30
0.0
 10
252.8520378582
 20
97.8069070752
 30
0.0
 10
252.3734615743
 20
98.6068334908
 30
0.0
 10
251.7935020741
 20
99.3888816515
 30
0.0
 10
251.1147920062
 20
100.1499873772
 30
0.0
 10
250.6107440134
 20
100.629714869
 30
0.0
 10
250.3442350472
 20
100.8655519699
 30
0.0
  0
SPLINE
  5
3FA
100
AcDbEntity
  8
02___PRT_ALL_AXES
100
AcDbSpline
 62
7
  6
CONTINUOUS
 70
0
 71
3
 72
18
 73
14
 74
0
 42
0.0000001
 43
0.0000001
 44
0.0000000001
 40
0.0
 40
0.0
 40
0.0
 40
0.0
 40
0.2192070538
 40
0.4123426892
 40
0.5782015178
 40
0.7156377981
 40
0.823775164
 40
0.8668416714
 40
0.9027823642
 40
0.932156846
 40
0.9562396298
 40
0.9775838126
 40
1.0
 40
1.0
 40
1.0
 40
1.0
 10
253.6863958829
 20
94.8187283466
 30
0.0
 10
253.6848656401
 20
94.7965775569
 30
0.0
 10
253.6814669031
 20
94.7549421487
 30
0.0
 10
253.6747727847
 20
94.6967485812
 30
0.0
 10
253.6668835197
 20
94.647060837
 30
0.0
 10
253.6578843395
 20
94.6063503678
 30
0.0
 10
253.6490767443
 20
94.5783768978
 30
0.0
 10
253.6411327898
 20
94.5611352148
 30
0.0
 10
253.6353958274
 20
94.5517333072
 30
0.0
 10
253.6293971645
 20
94.5448710307
 30
0.0
 10
253.6229653934
 20
94.5405926021
 30
0.0
 10
253.6159661809
 20
94.5393687979
 30
0.0
 10
253.61158227
 20
94.5407317726
 30
0.0
 10
253.6095514388
 20
94.5417472054
 30
0.0
  0
SPLINE
  5
3FB
100
AcDbEntity
  8
7_ALL_FEATURES
100
AcDbSpline
 62
7
  6
CONTINUOUS
 70
0
 71
3
 72
9
 73
5
 74
0
 42
0.0000001
 43
0.0000001
 44
0.0000000001
 40
0.0
 40
0.0
 40
0.0
 40
0.0
 40
0.2434012084
 40
1.0
 40
1.0
 40
1.0
 40
1.0
 10
238.8153749585
 20
103.3269351574
 30
0.0
 10
238.8487187259
 20
103.3377845339
 30
0.0
 10
238.9848036061
 20
103.3851211724
 30
0.0
 10
239.1171106352
 20
103.4431224272
 30
0.0
 10
239.2145994886
 20
103.4918668539
 30
0.0
  0
SPLINE
  5
3FC
100
AcDbEntity
  8
7_ALL_FEATURES
100
AcDbSpline
 62
7
  6
CONTINUOUS
 70
0
 71
3
 72
9
 73
5
 74
0
 42
0.0000001
 43
0.0000001
 44
0.0000000001
 40
0.0
 40
0.0
 40
0.0
 40
0.0
 40
0.5136438965
 40
1.0
 40
1.0
 40
1.0
 40
1.0
 10
247.2685321141
 20
103.0241572393
 30
0.0
 10
247.6924047187
 20
102.7771222833
 30
0.0
 10
248.5018869905
 20
102.2684371965
 30
0.0
 10
249.2705460114
 20
101.6994268205
 30
0.0
 10
249.6314513324
 20
101.4069430888
 30
0.0
  0
SPLINE
  5
3FD
100
AcDbEntity
  8
7_ALL_FEATURES
100
AcDbSpline
 62
7
  6
CONTINUOUS
 70
0
 71
3
 72
39
 73
35
 74
0
 42
0.0000001
 43
0.0000001
 44
0.0000000001
 40
0.0
 40
0.0
 40
0.0
 40
0.0
 40
0.0392882046
 40
0.0773764296
 40
0.1142492536
 40
0.149901269
 40
0.1843381569
 40
0.2175778511
 40
0.2496517558
 40
0.2806059826
 40
0.3105025343
 40
0.339420317
 40
0.3674558245
 40
0.3947232829
 40
0.4213540396
 40
0.4474949983
 40
0.473305972
 40
0.4989559764
 40
0.5246186717
 40
0.5504673477
 40
0.5766699463
 40
0.6033846099
 40
0.6307561166
 40
0.6589133923
 40
0.6879680959
 40
0.7180141365
 40
0.749127912
 40
0.7813690438
 40
0.8147814231
 40
0.8493944114
 40
0.8852240867
 40
0.9222744523
 40
0.9605385036
 40
1.0
 40
1.0
 40
1.0
 40
1.0
 10
208.3110015984
 20
103.0418798677
 30
0.0
 10
208.0219909966
 20
102.889478714
 30
0.0
 10
207.4585349587
 20
102.5782655979
 30
0.0
 10
206.6465040166
 20
102.0844203918
 30
0.0
 10
205.8823216194
 20
101.5717605191
 30
0.0
 10
205.1677292339
 20
101.0414363981
 30
0.0
 10
204.504337269
 20
100.4946224238
 30
0.0
 10
203.8936494654
 20
99.9325278046
 30
0.0
 10
203.3370552796
 20
99.3563901582
 30
0.0
 10
202.8358315761
 20
98.7674744343
 30
0.0
 10
202.3911426152
 20
98.1670721146
 30
0.0
 10
202.0040407042
 20
97.5565023668
 30
0.0
 10
201.6754652714
 20
96.9371155229
 30
0.0
 10
201.4062401695
 20
96.3102979511
 30
0.0
 10
201.1970671251
 20
95.6774776317
 30
0.0
 10
201.0485143016
 20
95.0401279852
 30
0.0
 10
200.9610011952
 20
94.3997667151
 30
0.0
 10
200.9347821383
 20
93.757947301
 30
0.0
 10
200.9699343838
 20
93.1162426088
 30
0.0
 10
201.0663542318
 20
92.4762238993
 30
0.0
 10
201.223762421
 20
91.8394402375
 30
0.0
 10
201.4417172138
 20
91.2074033085
 30
0.0
 10
201.7196300691
 20
90.5815798631
 30
0.0
 10
202.0567806718
 20
89.963391462
 30
0.0
 10
202.4523278787
 20
89.354218809
 30
0.0
 10
202.9053157493
 20
88.7554073734
 30
0.0
 10
203.4146760067
 20
88.1682723299
 30
0.0
 10
203.9792280227
 20
87.5941012596
 30
0.0
 10
204.5976783383
 20
87.0341551515
 30
0.0
 10
205.2686209133
 20
86.4896674452
 30
0.0
 10
205.9905356628
 20
85.961842794
 30
0.0
 10
206.761795785
 20
85.451851411
 30
0.0
 10
207.5806473437
 20
84.9608356074
 30
0.0
 10
208.1484680088
 20
84.6515481742
 30
0.0
 10
208.4396223801
 20
84.5001342397
 30
0.0
  0
SPLINE
  5
3FE
100
AcDbEntity
  8
7_ALL_FEATURES
100
AcDbSpline
 62
7
  6
CONTINUOUS
 70
0
 71
3
 72
22
 73
18
 74
0
 42
0.0000001
 43
0.0000001
 44
0.0000000001
 40
0.0
 40
0.0
 40
0.0
 40
0.0
 40
0.0520538009
 40
0.1044245618
 40
0.1574210062
 40
0.2113361209
 40
0.2664409684
 40
0.3229801421
 40
0.4411194844
 40
0.5031308071
 40
0.5672546533
 40
0.6335870061
 40
0.7021974443
 40
0.7731311564
 40
0.8464109702
 40
0.9220393824
 40
1.0
 40
1.0
 40
1.0
 40
1.0
 10
201.8948250928
 20
94.4950318719
 30
0.0
 10
201.894825266
 20
94.299813181
 30
0.0
 10
201.9125877079
 20
93.9079586184
 30
0.0
 10
201.9923691984
 20
93.3222403208
 30
0.0
 10
202.1251122555
 20
92.7390259468
 30
0.0
 10
202.3104802146
 20
92.1596320811
 30
0.0
 10
202.5480474948
 20
91.5852237895
 30
0.0
 10
202.9392381312
 20
90.81656344
 30
0.0
 10
203.4305859776
 20
90.0731000053
 30
0.0
 10
204.0075465211
 20
89.3610277929
 30
0.0
 10
204.4958499178
 20
88.8287995029
 30
0.0
 10
205.0315845655
 20
88.308321385
 30
0.0
 10
205.6136978643
 20
87.8005520412
 30
0.0
 10
206.2409865884
 20
87.3065237783
 30
0.0
 10
206.912180938
 20
86.8272151419
 30
0.0
 10
207.625900051
 20
86.3635971842
 30
0.0
 10
208.1216758194
 20
86.0699948059
 30
0.0
 10
208.3760657301
 20
85.9258751239
 30
0.0
  0
SPLINE
  5
3FF
100
AcDbEntity
  8
02___PRT_ALL_AXES
100
AcDbSpline
 62
7
  6
CONTINUOUS
 70
0
 71
3
 72
23
 73
19
 74
0
 42
0.0000001
 43
0.0000001
 44
0.0000000001
 40
0.0
 40
0.0
 40
0.0
 40
0.0
 40
0.0508837149
 40
0.102132544
 40
0.1541004504
 40
0.2071202603
 40
0.2614957133
 40
0.317495978
 40
0.3753526351
 40
0.4352587613
 40
0.4973696142
 40
0.5618044251
 40
0.6286488161
 40
0.6979575004
 40
0.7697570662
 40
0.8440486484
 40
0.9208103982
 40
1.0
 40
1.0
 40
1.0
 40
1.0
 10
200.4448250022
 20
93.8046843548
 30
0.0
 10
200.4448250908
 20
94.0286205865
 30
0.0
 10
200.4669822287
 20
94.4784085302
 30
0.0
 10
200.5664660552
 20
95.1502787268
 30
0.0
 10
200.7319267747
 20
95.81872278
 30
0.0
 10
200.9628657197
 20
96.4819661482
 30
0.0
 10
201.2586156283
 20
97.1383974283
 30
0.0
 10
201.6183587464
 20
97.7864292324
 30
0.0
 10
202.0411404484
 20
98.4245304976
 30
0.0
 10
202.5258760137
 20
99.0512085586
 30
0.0
 10
203.0713527603
 20
99.6650063896
 30
0.0
 10
203.6762305527
 20
100.2644978812
 30
0.0
 10
204.3390406072
 20
100.8482872081
 30
0.0
 10
205.0581851314
 20
101.4150105744
 30
0.0
 10
205.8319362375
 20
101.9633375301
 30
0.0
 10
206.6584443834
 20
102.4919779872
 30
0.0
 10
207.5357128964
 20
102.999672899
 30
0.0
 10
208.1437387844
 20
103.3185117262
 30
0.0
 10
208.455454507
 20
103.4743695875
 30
0.0
  0
SPLINE
  5
400
100
AcDbEntity
  8
7_ALL_FEATURES
100
AcDbSpline
 62
7
  6
CONTINUOUS
 70
0
 71
3
 72
23
 73
19
 74
0
 42
0.0000001
 43
0.0000001
 44
0.0000000001
 40
0.0
 40
0.0
 40
0.0
 40
0.0
 40
0.054997093
 40
0.1088311038
 40
0.1620231285
 40
0.2151222
 40
0.2686814997
 40
0.3232339337
 40
0.3792706926
 40
0.4372254907
 40
0.4974652748
 40
0.56028699
 40
0.6259187274
 40
0.6945238624
 40
0.7662065397
 40
0.8410177842
 40
0.9189614522
 40
1.0
 40
1.0
 40
1.0
 40
1.0
 10
254.1752921469
 20
91.3050122569
 30
0.0
 10
254.2724693486
 20
91.5614037361
 30
0.0
 10
254.4380734915
 20
92.0794505804
 30
0.0
 10
254.5959343794
 20
92.873397544
 30
0.0
 10
254.6592590292
 20
93.6710754233
 30
0.0
 10
254.6276840059
 20
94.4692554338
 30
0.0
 10
254.5013832038
 20
95.2648353522
 30
0.0
 10
254.2809785671
 20
96.0547482097
 30
0.0
 10
253.9675058432
 20
96.8360721232
 30
0.0
 10
253.5623317769
 20
97.6060327204
 30
0.0
 10
253.0671070642
 20
98.3619930718
 30
0.0
 10
252.4837306787
 20
99.101419641
 30
0.0
 10
251.8143479843
 20
99.8218598039
 30
0.0
 10
251.0613491747
 20
100.5209229008
 30
0.0
 10
250.227382969
 20
101.1962779964
 30
0.0
 10
249.3153451846
 20
101.8456604538
 30
0.0
 10
248.3284299551
 20
102.4668580081
 30
0.0
 10
247.6360250829
 20
102.8534280915
 30
0.0
 10
247.2786481332
 20
103.0418797666
 30
0.0
  0
SPLINE
  5
401
100
AcDbEntity
  8
02___PRT_ALL_AXES
100
AcDbSpline
 62
7
  6
CONTINUOUS
 70
0
 71
3
 72
20
 73
16
 74
0
 42
0.0000001
 43
0.0000001
 44
0.0000000001
 40
0.0
 40
0.0
 40
0.0
 40
0.0
 40
0.0121867019
 40
0.0201265871
 40
0.0294801322
 40
0.0527727605
 40
0.0826041424
 40
0.1193197237
 40
0.1631725124
 40
0.2143477341
 40
0.2729679216
 40
0.4126894625
 40
0.5818906614
 40
0.7787487898
 40
1.0
 40
1.0
 40
1.0
 40
1.0
 10
253.6095514388
 20
94.5417472054
 30
0.0
 10
253.6055314089
 20
94.5437572543
 30
0.0
 10
253.5999442279
 20
94.5490303856
 30
0.0
 10
253.5935324584
 20
94.5577733582
 30
0.0
 10
253.5859369837
 20
94.5707163935
 30
0.0
 10
253.5766945251
 20
94.5918821021
 30
0.0
 10
253.5662028813
 20
94.6233380649
 30
0.0
 10
253.5558029868
 20
94.6627257182
 30
0.0
 10
253.5456207358
 20
94.7102481769
 30
0.0
 10
253.5358040223
 20
94.7660688154
 30
0.0
 10
253.5226169656
 20
94.8571539956
 30
0.0
 10
253.5085216039
 20
94.9920228243
 30
0.0
 10
253.4961005639
 20
95.1781754523
 30
0.0
 10
253.4883202286
 20
95.3946690602
 30
0.0
 10
253.4867261512
 20
95.5488787905
 30
0.0
 10
253.4867261512
 20
95.6304778624
 30
0.0
  0
SPLINE
  5
402
100
AcDbEntity
  8
02___PRT_ALL_AXES
100
AcDbSpline
 62
7
  6
CONTINUOUS
 70
0
 71
3
 72
9
 73
5
 74
0
 42
0.0000001
 43
0.0000001
 44
0.0000000001
 40
0.0
 40
0.0
 40
0.0
 40
0.0
 40
0.2395131917
 40
1.0
 40
1.0
 40
1.0
 40
1.0
 10
253.4867261512
 20
95.6304778624
 30
0.0
 10
253.4867261512
 20
95.6678880635
 30
0.0
 10
253.4874750112
 20
95.8240805741
 30
0.0
 10
253.4910016255
 20
95.9802534383
 30
0.0
 10
253.4948574184
 20
96.0989732934
 30
0.0
  0
SPLINE
  5
403
100
AcDbEntity
  8
02___PRT_ALL_AXES
100
AcDbSpline
 62
7
  6
CONTINUOUS
 70
0
 71
3
 72
42
 73
38
 74
0
 42
0.0000001
 43
0.0000001
 44
0.0000000001
 40
0.0
 40
0.0
 40
0.0
 40
0.0
 40
0.0094976267
 40
0.0190337117
 40
0.0286460451
 40
0.0383711214
 40
0.0482435869
 40
0.0582957858
 40
0.0790454536
 40
0.1008337355
 40
0.1238148903
 40
0.148096683
 40
0.1737445763
 40
0.2007868386
 40
0.2292196285
 40
0.2590116317
 40
0.2901081018
 40
0.322434334
 40
0.3558986357
 40
0.3903949019
 40
0.4258048676
 40
0.4620001273
 40
0.4988439664
 40
0.5361930667
 40
0.5738991102
 40
0.6118103202
 40
0.6497729578
 40
0.6876327946
 40
0.7252365815
 40
0.7624335264
 40
0.7990768046
 40
0.8350251156
 40
0.8701443209
 40
0.9043091821
 40
0.9374052546
 40
0.969330976
 40
1.0
 40
1.0
 40
1.0
 40
1.0
 10
255.1448249427
 20
93.8046843548
 30
0.0
 10
255.1448250091
 20
93.9725776356
 30
0.0
 10
255.1324082679
 20
94.3091747921
 30
0.0
 10
255.0766008035
 20
94.8129086564
 30
0.0
 10
254.9836862679
 20
95.3152427473
 30
0.0
 10
254.8538136607
 20
95.8154315604
 30
0.0
 10
254.6871716079
 20
96.3128059672
 30
0.0
 10
254.4134860544
 20
96.9781876694
 30
0.0
 10
253.9764545248
 20
97.8016820174
 30
0.0
 10
253.3158358116
 20
98.7558302671
 30
0.0
 10
252.5174618222
 20
99.681908902
 30
0.0
 10
251.5859355572
 20
100.5751550012
 30
0.0
 10
250.5263578253
 20
101.431126476
 30
0.0
 10
249.3444420653
 20
102.2454537759
 30
0.0
 10
248.0465112838
 20
103.0139345537
 30
0.0
 10
246.639500759
 20
103.7325481457
 30
0.0
 10
245.1309358362
 20
104.3974989562
 30
0.0
 10
243.5288994179
 20
105.0052478696
 30
0.0
 10
241.8419912465
 20
105.55254301
 30
0.0
 10
240.0792814321
 20
106.0364440011
 30
0.0
 10
238.2502605813
 20
106.4543441191
 30
0.0
 10
236.3647867785
 20
106.8039872341
 30
0.0
 10
234.4330307929
 20
107.0834834515
 30
0.0
 10
232.4654193636
 20
107.2913201059
 30
0.0
 10
230.4725774376
 20
107.4263720299
 30
0.0
 10
228.4652692716
 20
107.4879073601
 30
0.0
 10
226.4543389947
 20
107.4755929322
 30
0.0
 10
224.4506507235
 20
107.3894952044
 30
0.0
 10
222.4650285851
 20
107.2300809455
 30
0.0
 10
220.5081970341
 20
106.9982133626
 30
0.0
 10
218.5907212907
 20
106.6951479924
 30
0.0
 10
216.7229496322
 20
106.3225242278
 30
0.0
 10
214.9149531446
 20
105.8823551179
 30
0.0
 10
213.1764792981
 20
105.3770178456
 30
0.0
 10
211.5168634427
 20
104.8092228474
 30
0.0
 10
209.9450978457
 20
104.1820520781
 30
0.0
 10
208.9403667702
 20
103.7168257191
 30
0.0
 10
208.455454507
 20
103.4743695875
 30
0.0
  0
SPLINE
  5
404
100
AcDbEntity
  8
7_ALL_FEATURES
100
AcDbSpline
 62
7
  6
CONTINUOUS
 70
0
 71
3
 72
11
 73
7
 74
0
 42
0.0000001
 43
0.0000001
 44
0.0000000001
 40
0.0
 40
0.0
 40
0.0
 40
0.0
 40
0.233465929
 40
0.4781835408
 40
0.7338512466
 40
1.0
 40
1.0
 40
1.0
 40
1.0
 10
206.647563588
 20
101.6566480375
 30
0.0
 10
207.0080398915
 20
101.4017525126
 30
0.0
 10
207.7653839458
 20
100.9061856844
 30
0.0
 10
208.9734318049
 20
100.2215879826
 30
0.0
 10
210.2747056681
 20
99.5812742824
 30
0.0
 10
211.1826374253
 20
99.1934812675
 30
0.0
 10
211.6501634838
 20
99.0071315916
 30
0.0
  0
SPLINE
  5
405
100
AcDbEntity
  8
7_ALL_FEATURES
100
AcDbSpline
 62
7
  6
CONTINUOUS
 70
0
 71
3
 72
15
 73
11
 74
0
 42
0.0000001
 43
0.0000001
 44
0.0000000001
 40
0.0
 40
0.0
 40
0.0
 40
0.0
 40
0.1020723935
 40
0.207011286
 40
0.3173570539
 40
0.4351112383
 40
0.5616688626
 40
0.6978525274
 40
0.8439882389
 40
1.0
 40
1.0
 40
1.0
 40
1.0
 10
241.5520009394
 20
105.0747812024
 30
0.0
 10
241.5520007784
 20
105.0419514964
 30
0.0
 10
241.5453518017
 20
104.9751954392
 30
0.0
 10
241.515778561
 20
104.8769179664
 30
0.0
 10
241.467094595
 20
104.7809366358
 30
0.0
 10
241.3999963298
 20
104.6881911392
 30
0.0
 10
241.315259551
 20
104.5994455589
 30
0.0
 10
241.2137409478
 20
104.5154408341
 30
0.0
 10
241.0964223792
 20
104.4368975676
 30
0.0
 10
241.0110954684
 20
104.3901148438
 30
0.0
 10
240.9662146231
 20
104.3676744212
 30
0.0
  0
SPLINE
  5
406
100
AcDbEntity
  8
02___PRT_ALL_AXES
100
AcDbSpline
 62
7
  6
CONTINUOUS
 70
0
 71
3
 72
23
 73
19
 74
0
 42
0.0000001
 43
0.0000001
 44
0.0000000001
 40
0.0
 40
0.0
 40
0.0
 40
0.0
 40
0.0791896137
 40
0.1559513519
 40
0.2302429331
 40
0.3020424989
 40
0.3713511853
 40
0.4381955738
 40
0.5026303853
 40
0.5647412404
 40
0.6246473635
 40
0.682504022
 40
0.7385042878
 40
0.7928797387
 40
0.8458995499
 40
0.8978674564
 40
0.9491162849
 40
1.0
 40
1.0
 40
1.0
 40
1.0
 10
203.1875089871
 20
83.6660898716
 30
0.0
 10
202.7908834382
 20
83.8644026461
 30
0.0
 10
202.0172344132
 20
84.2700915462
 30
0.0
 10
200.9010024433
 20
84.9160799356
 30
0.0
 10
199.8493577807
 20
85.5887193298
 30
0.0
 10
198.8648408528
 20
86.2864077729
 30
0.0
 10
197.9498049687
 20
87.0075035899
 30
0.0
 10
197.1064489302
 20
87.7503142397
 30
0.0
 10
196.3368055157
 20
88.5131041304
 30
0.0
 10
195.6427435796
 20
89.29409725
 30
0.0
 10
195.0259687018
 20
90.0914793464
 30
0.0
 10
194.4880233405
 20
90.9033960569
 30
0.0
 10
194.030287947
 20
91.7279483704
 30
0.0
 10
193.6539774978
 20
92.5631882686
 30
0.0
 10
193.3601317839
 20
93.4070956577
 30
0.0
 10
193.1496003999
 20
94.2576204691
 30
0.0
 10
193.023017938
 20
95.1125046837
 30
0.0
 10
192.9948249724
 20
95.6848125483
 30
0.0
 10
192.9948249724
 20
95.9697478643
 30
0.0
  0
SPLINE
  5
407
100
AcDbEntity
  8
7_ALL_FEATURES
100
AcDbSpline
 62
7
  6
CONTINUOUS
 70
0
 71
3
 72
9
 73
5
 74
0
 42
0.0000001
 43
0.0000001
 44
0.0000000001
 40
0.0
 40
0.0
 40
0.0
 40
0.0
 40
0.5139670057
 40
1.0
 40
1.0
 40
1.0
 40
1.0
 10
248.1241449315
 20
129.9501064479
 30
0.0
 10
248.6848496723
 20
129.6697540775
 30
0.0
 10
249.7582028158
 20
129.0881077784
 30
0.0
 10
250.7850697319
 20
128.4271190926
 30
0.0
 10
251.2691016623
 20
128.0848565838
 30
0.0
  0
SPLINE
  5
408
100
AcDbEntity
  8
02___PRT_ALL_AXES
100
AcDbSpline
 62
7
  6
CONTINUOUS
 70
0
 71
3
 72
11
 73
7
 74
0
 42
0.0000001
 43
0.0000001
 44
0.0000000001
 40
0.0
 40
0.0
 40
0.0
 40
0.0
 40
0.2396040105
 40
0.4863558355
 40
0.7399416551
 40
1.0
 40
1.0
 40
1.0
 40
1.0
 10
203.1875089871
 20
83.6660898716
 30
0.0
 10
203.6236143082
 20
83.4480372111
 30
0.0
 10
204.5183263921
 20
83.0241864142
 30
0.0
 10
205.9037262274
 20
82.4334518056
 30
0.0
 10
207.3489798569
 20
81.8797424857
 30
0.0
 10
208.337848007
 20
81.5403834148
 30
0.0
 10
208.8411820806
 20
81.3769463786
 30
0.0
  0
SPLINE
  5
409
100
AcDbEntity
  8
02___PRT_ALL_AXES
100
AcDbSpline
 62
7
  6
CONTINUOUS
 70
0
 71
3
 72
21
 73
17
 74
0
 42
0.0000001
 43
0.0000001
 44
0.0000000001
 40
0.0
 40
0.0
 40
0.0
 40
0.0
 40
0.1521315425
 40
0.2248165671
 40
0.2952499985
 40
0.3634648055
 40
0.4295145402
 40
0.4934750132
 40
0.5554459353
 40
0.6738771047
 40
0.7307358488
 40
0.7862649079
 40
0.8406944454
 40
0.8942771479
 40
0.9472842043
 40
1.0
 40
1.0
 40
1.0
 40
1.0
 10
254.6652100183
 20
84.9128223731
 30
0.0
 10
255.2812383282
 20
85.2870883785
 30
0.0
 10
256.171512042
 20
85.8748965275
 30
0.0
 10
257.2853699794
 20
86.7218368201
 30
0.0
 10
258.0536418272
 20
87.3646377471
 30
0.0
 10
258.76599125
 20
88.0234501958
 30
0.0
 10
259.4211045428
 20
88.6970813223
 30
0.0
 10
260.0178040753
 20
89.3843998941
 30
0.0
 10
260.7231311662
 20
90.3031384794
 30
0.0
 10
261.3224380395
 20
91.2591571992
 30
0.0
 10
261.7989202611
 20
92.2444720288
 30
0.0
 10
262.0884788832
 20
92.9807969535
 30
0.0
 10
262.3143372042
 20
93.7228884024
 30
0.0
 10
262.4760323927
 20
94.4693946478
 30
0.0
 10
262.5731962269
 20
95.2187898726
 30
0.0
 10
262.5948249724
 20
95.7199769712
 30
0.0
 10
262.5948249724
 20
95.9697478643
 30
0.0
  0
SPLINE
  5
40A
100
AcDbEntity
  8
7_ALL_FEATURES
100
AcDbSpline
 62
7
  6
CONTINUOUS
 70
0
 71
3
 72
18
 73
14
 74
0
 42
0.0000001
 43
0.0000001
 44
0.0000000001
 40
0.0
 40
0.0
 40
0.0
 40
0.0
 40
0.1488758071
 40
0.2895400594
 40
0.4223295634
 40
0.5478474862
 40
0.6669940517
 40
0.7245783131
 40
0.7810509353
 40
0.8366100296
 40
0.8914691246
 40
0.9458542
 40
1.0
 40
1.0
 40
1.0
 40
1.0
 10
252.4938465107
 20
127.2188311718
 30
0.0
 10
252.9294541732
 20
126.910809718
 30
0.0
 10
253.7547869708
 20
126.2797986859
 30
0.0
 10
254.8754606252
 20
125.2596724555
 30
0.0
 10
255.8371234218
 20
124.1982635421
 30
0.0
 10
256.6336785057
 20
123.1015554604
 30
0.0
 10
257.1615689467
 20
122.1520604709
 30
0.0
 10
257.4921728993
 20
121.3839142124
 30
0.0
 10
257.6933634023
 20
120.8097912245
 30
0.0
 10
257.850194614
 20
120.2321079574
 30
0.0
 10
257.9624144792
 20
119.6517096374
 30
0.0
 10
258.0298249233
 20
119.0695382132
 30
0.0
 10
258.0448249724
 20
118.6804441945
 30
0.0
 10
258.0448249724
 20
118.4864083626
 30
0.0
  0
SPLINE
  5
40B
100
AcDbEntity
  8
02___PRT_ALL_AXES
100
AcDbSpline
 62
7
  6
CONTINUOUS
 70
0
 71
3
 72
42
 73
38
 74
0
 42
0.0000001
 43
0.0000001
 44
0.0000000001
 40
0.0
 40
0.0
 40
0.0
 40
0.0
 40
0.0094976268
 40
0.0190337117
 40
0.0286460451
 40
0.0383711215
 40
0.0482435872
 40
0.058295786
 40
0.0790454538
 40
0.1008337353
 40
0.1238148899
 40
0.1480966825
 40
0.1737445764
 40
0.2007868388
 40
0.2292196289
 40
0.2590116316
 40
0.2901081015
 40
0.3224343334
 40
0.3558986356
 40
0.3903949018
 40
0.4258048679
 40
0.4620001272
 40
0.4988439663
 40
0.5361930665
 40
0.57389911
 40
0.6118103201
 40
0.6497729576
 40
0.6876327944
 40
0.7252365813
 40
0.7624335264
 40
0.7990768045
 40
0.8350251156
 40
0.8701443204
 40
0.9043091818
 40
0.9374052546
 40
0.969330977
 40
1.0
 40
1.0
 40
1.0
 40
1.0
 10
200.2948249724
 20
93.8046843548
 30
0.0
 10
200.2948249724
 20
93.9734984401
 30
0.0
 10
200.3073097744
 20
94.3119416482
 30
0.0
 10
200.363423312
 20
94.8184382234
 30
0.0
 10
200.456847422
 20
95.3235273505
 30
0.0
 10
200.5874323686
 20
95.8264594223
 30
0.0
 10
200.7549884206
 20
96.3265616413
 30
0.0
 10
201.0301749279
 20
96.9955926285
 30
0.0
 10
201.4696033767
 20
97.8236033693
 30
0.0
 10
202.133845152
 20
98.7829846406
 30
0.0
 10
202.9365977821
 20
99.7141423125
 30
0.0
 10
203.8732329504
 20
100.612287409
 30
0.0
 10
204.9386219541
 20
101.4729533701
 30
0.0
 10
206.1270198868
 20
102.2917468381
 30
0.0
 10
207.4320691391
 20
103.0644422754
 30
0.0
 10
208.8467963169
 20
103.7869971336
 30
0.0
 10
210.3636348951
 20
104.4555948165
 30
0.0
 10
211.9744575956
 20
105.0666769653
 30
0.0
 10
213.6706175768
 20
105.6169736486
 30
0.0
 10
215.4429949084
 20
106.1035286076
 30
0.0
 10
217.2820469663
 20
106.5237206161
 30
0.0
 10
219.1778615604
 20
106.8752814032
 30
0.0
 10
221.1202121805
 20
107.1563104693
 30
0.0
 10
223.0986148857
 20
107.3652870805
 30
0.0
 10
225.1023864785
 20
107.5010796147
 30
0.0
 10
227.1207036463
 20
107.5629524729
 30
0.0
 10
229.1426627887
 20
107.5505704217
 30
0.0
 10
231.1573402094
 20
107.4640005669
 30
0.0
 10
233.1538524132
 20
107.3037119532
 30
0.0
 10
235.1214161426
 20
107.0705728036
 30
0.0
 10
237.0494081977
 20
106.7658452102
 30
0.0
 10
238.927423575
 20
106.3911778612
 30
0.0
 10
240.7453359171
 20
105.9485945568
 30
0.0
 10
242.4933443767
 20
105.4404858601
 30
0.0
 10
244.1620623285
 20
104.8695767264
 30
0.0
 10
245.7424482612
 20
104.2389663769
 30
0.0
 10
246.7526897263
 20
103.7711884605
 30
0.0
 10
247.2402614551
 20
103.5274025961
 30
0.0
  0
SPLINE
  5
40C
100
AcDbEntity
  8
02___PRT_ALL_AXES
100
AcDbSpline
 62
7
  6
CONTINUOUS
 70
0
 71
3
 72
42
 73
38
 74
0
 42
0.0000001
 43
0.0000001
 44
0.0000000001
 40
0.0
 40
0.0
 40
0.0
 40
0.0
 40
0.0094976268
 40
0.0190337117
 40
0.028646045
 40
0.0383711213
 40
0.0482435869
 40
0.0582957858
 40
0.0790454536
 40
0.1008337353
 40
0.1238148905
 40
0.1480966826
 40
0.1737445766
 40
0.2007868382
 40
0.2292196287
 40
0.2590116315
 40
0.2901081019
 40
0.3224343339
 40
0.3558986356
 40
0.3903949019
 40
0.4258048675
 40
0.4620001273
 40
0.4988439664
 40
0.5361930667
 40
0.5738991102
 40
0.6118103202
 40
0.6497729577
 40
0.6876327947
 40
0.7252365813
 40
0.7624335265
 40
0.7990768043
 40
0.8350251157
 40
0.8701443207
 40
0.9043091822
 40
0.9374052546
 40
0.9693309767
 40
1.0
 40
1.0
 40
1.0
 40
1.0
 10
192.9948249724
 20
96.4027605661
 30
0.0
 10
192.9948249724
 20
96.6163871179
 30
0.0
 10
193.0106239508
 20
97.044671614
 30
0.0
 10
193.0816331021
 20
97.6856200024
 30
0.0
 10
193.1998570226
 20
98.3247873347
 30
0.0
 10
193.3651062466
 20
98.9612250262
 30
0.0
 10
193.577140787
 20
99.5940816619
 30
0.0
 10
193.9253768773
 20
100.4407099386
 30
0.0
 10
194.4814535699
 20
101.4885199191
 30
0.0
 10
195.3220213846
 20
102.7025733149
 30
0.0
 10
196.3378684519
 20
103.880910937
 30
0.0
 10
197.5231375889
 20
105.0174728365
 30
0.0
 10
198.8713389864
 20
106.1066063975
 30
0.0
 10
200.375202447
 20
107.1427524542
 30
0.0
 10
202.0266830118
 20
108.1205633058
 30
0.0
 10
203.8169559459
 20
109.0349236864
 30
0.0
 10
205.7364462654
 20
109.8810036075
 30
0.0
 10
207.7748691873
 20
110.6543002585
 30
0.0
 10
209.921282512
 20
111.3506757871
 30
0.0
 10
212.1641454595
 20
111.9663889111
 30
0.0
 10
214.4913822214
 20
112.4981229169
 30
0.0
 10
216.8904494414
 20
112.943006995
 30
0.0
 10
219.3484058677
 20
113.2986365611
 30
0.0
 10
221.8519845773
 20
113.5630868769
 30
0.0
 10
224.387666445
 20
113.734926192
 30
0.0
 10
226.941755078
 20
113.8132235346
 30
0.0
 10
229.5004524674
 20
113.7975545777
 30
0.0
 10
232.0499351723
 20
113.6880044448
 30
0.0
 10
234.5764306058
 20
113.4851663644
 30
0.0
 10
237.0662930705
 20
113.1901394358
 30
0.0
 10
239.5060793698
 20
112.8045204243
 30
0.0
 10
241.8826224884
 20
112.3303960116
 30
0.0
 10
244.1831079425
 20
111.7703269653
 30
0.0
 10
246.3951331848
 20
111.1273384912
 30
0.0
 10
248.5068199101
 20
110.40487899
 30
0.0
 10
250.5067264116
 20
109.6068701252
 30
0.0
 10
251.7851410912
 20
109.0149184921
 30
0.0
 10
252.4021409577
 20
108.7064185588
 30
0.0
  0
SPLINE
  5
40D
100
AcDbEntity
  8
7_ALL_FEATURES
100
AcDbSpline
 62
7
  6
CONTINUOUS
 70
0
 71
3
 72
12
 73
8
 74
0
 42
0.0000001
 43
0.0000001
 44
0.0000000001
 40
0.0
 40
0.0
 40
0.0
 40
0.0
 40
0.2267135707
 40
0.345455804
 40
0.4680680205
 40
0.7254903662
 40
1.0
 40
1.0
 40
1.0
 40
1.0
 10
198.6251748802
 20
122.4924662629
 30
0.0
 10
198.8637987076
 20
122.9268441791
 30
0.0
 10
199.2768279787
 20
123.5626749731
 30
0.0
 10
199.912655177
 20
124.364808047
 30
0.0
 10
200.6402278735
 20
125.1777614271
 30
0.0
 10
201.6838710131
 20
126.160740004
 30
0.0
 10
202.6058316842
 20
126.8723684994
 30
0.0
 10
203.0958034285
 20
127.2188311739
 30
0.0
  0
SPLINE
  5
40E
100
AcDbEntity
  8
7_ALL_FEATURES
100
AcDbSpline
 62
7
  6
CONTINUOUS
 70
0
 71
3
 72
31
 73
27
 74
0
 42
0.0000001
 43
0.0000001
 44
0.0000000001
 40
0.0
 40
0.0
 40
0.0
 40
0.0
 40
0.0247534314
 40
0.0504353077
 40
0.0770305065
 40
0.1045151351
 40
0.1328575217
 40
0.1620190867
 40
0.1919551075
 40
0.2226154257
 40
0.253945085
 40
0.285884901
 40
0.351332965
 40
0.4184289817
 40
0.4865977129
 40
0.555241055
 40
0.6237509845
 40
0.6915222558
 40
0.7579651595
 40
0.8225187156
 40
0.8539271089
 40
0.8846732646
 40
0.9147016675
 40
0.9439615497
 40
0.9724073733
 40
1.0
 40
1.0
 40
1.0
 40
1.0
 10
204.3205484543
 20
128.084856523
 30
0.0
 10
204.6272735518
 20
128.3017438409
 30
0.0
 10
205.2645620935
 20
128.72642623
 30
0.0
 10
206.269139359
 20
129.3251246068
 30
0.0
 10
207.3372136037
 20
129.8956283278
 30
0.0
 10
208.4656091493
 20
130.4362482497
 30
0.0
 10
209.6510212743
 20
130.9454117006
 30
0.0
 10
210.8899609722
 20
131.4216234001
 30
0.0
 10
212.1787837486
 20
131.8634858916
 30
0.0
 10
213.5136905885
 20
132.2696969715
 30
0.0
 10
214.8907607088
 20
132.6390673772
 30
0.0
 10
216.792995241
 20
133.0845537826
 30
0.0
 10
219.2489421091
 20
133.5402425389
 30
0.0
 10
222.2726092742
 20
133.9215325561
 30
0.0
 10
225.3611907502
 20
134.1371726202
 30
0.0
 10
228.4783381577
 20
134.1846095013
 30
0.0
 10
231.587456648
 20
134.0632842655
 30
0.0
 10
234.6520527341
 20
133.7746291449
 30
0.0
 10
237.6360665392
 20
133.3220586585
 30
0.0
 10
240.0483178185
 20
132.8081451387
 30
0.0
 10
241.9078749701
 20
132.3173953601
 30
0.0
 10
243.2482203503
 20
131.9156710461
 30
0.0
 10
244.5429467019
 20
131.4781508867
 30
0.0
 10
245.7882599939
 20
131.0061096106
 30
0.0
 10
246.9804645914
 20
130.5009518137
 30
0.0
 10
247.749605525
 20
130.1373761512
 30
0.0
 10
248.1241449315
 20
129.9501064479
 30
0.0
  0
SPLINE
  5
40F
100
AcDbEntity
  8
02___PRT_ALL_AXES
100
AcDbSpline
 62
7
  6
CONTINUOUS
 70
0
 71
3
 72
17
 73
13
 74
0
 42
0.0000001
 43
0.0000001
 44
0.0000000001
 40
0.0
 40
0.0
 40
0.0
 40
0.0
 40
0.0506271107
 40
0.1021509528
 40
0.1547920609
 40
0.2087495365
 40
0.3212327243
 40
0.4407898605
 40
0.5681689901
 40
0.703784999
 40
0.847766303
 40
1.0
 40
1.0
 40
1.0
 40
1.0
 10
255.1363790534
 20
95.2785753888
 30
0.0
 10
255.0944466871
 20
95.4730424303
 30
0.0
 10
254.9935818725
 20
95.8620967722
 30
0.0
 10
254.7944252947
 20
96.4374301795
 30
0.0
 10
254.5466743571
 20
97.0078897468
 30
0.0
 10
254.1467880012
 20
97.7709743548
 30
0.0
 10
253.5214310104
 20
98.709032587
 30
0.0
 10
252.5976728096
 20
99.7813218432
 30
0.0
 10
251.4972535697
 20
100.8092356672
 30
0.0
 10
250.2282439963
 20
101.7859010453
 30
0.0
 10
248.7997127704
 20
102.7048498569
 30
0.0
 10
247.775302675
 20
103.2598819861
 30
0.0
 10
247.2402614551
 20
103.5274025961
 30
0.0
  0
SPLINE
  5
410
100
AcDbEntity
  8
02___PRT_ALL_AXES
100
AcDbSpline
 62
7
  6
CONTINUOUS
 70
0
 71
3
 72
23
 73
19
 74
0
 42
0.0000001
 43
0.0000001
 44
0.0000000001
 40
0.0
 40
0.0
 40
0.0
 40
0.0
 40
0.0508837151
 40
0.1021325436
 40
0.1541004501
 40
0.2071202613
 40
0.2614957122
 40
0.317495978
 40
0.3753526365
 40
0.4352587596
 40
0.4973696147
 40
0.5618044262
 40
0.6286488147
 40
0.6979575011
 40
0.7697570669
 40
0.8440486481
 40
0.9208103863
 40
1.0
 40
1.0
 40
1.0
 40
1.0
 10
262.5948249724
 20
96.4027605661
 30
0.0
 10
262.5948249724
 20
96.6876958821
 30
0.0
 10
262.5666320069
 20
97.2600037467
 30
0.0
 10
262.440049545
 20
98.1148879613
 30
0.0
 10
262.229518161
 20
98.9654127727
 30
0.0
 10
261.9356724471
 20
99.8093201618
 30
0.0
 10
261.5593619979
 20
100.64456006
 30
0.0
 10
261.1016266043
 20
101.4691123735
 30
0.0
 10
260.5636812431
 20
102.281029084
 30
0.0
 10
259.9469063653
 20
103.0784111804
 30
0.0
 10
259.2528444292
 20
103.8594043
 30
0.0
 10
258.4832010146
 20
104.6221941907
 30
0.0
 10
257.6398449761
 20
105.3650048405
 30
0.0
 10
256.724809092
 20
106.0861006575
 30
0.0
 10
255.7402921642
 20
106.7837891006
 30
0.0
 10
254.6886475016
 20
107.4564284948
 30
0.0
 10
253.5724155316
 20
108.1024168842
 30
0.0
 10
252.7987665067
 20
108.5081057843
 30
0.0
 10
252.4021409577
 20
108.7064185588
 30
0.0
  0
SPLINE
  5
411
100
AcDbEntity
  8
7_ALL_FEATURES
100
AcDbSpline
 62
9
  6
CONTINUOUS
 70
0
 71
3
 72
57
 73
53
 74
0
 42
0.0000001
 43
0.0000001
 44
0.0000000001
 40
0.0
 40
0.0
 40
0.0
 40
0.0
 40
0.0157852133
 40
0.031086413
 40
0.0458952765
 40
0.0602073778
 40
0.0740229656
 40
0.0873473342
 40
0.1001913909
 40
0.1125722032
 40
0.1245135383
 40
0.1360463454
 40
0.1472091102
 40
0.1580479938
 40
0.1686166512
 40
0.1789756285
 40
0.1891912692
 40
0.1993341304
 40
0.2094769914
 40
0.2196926322
 40
0.23005161
 40
0.2406202681
 40
0.2514591516
 40
0.2626219152
 40
0.2741547213
 40
0.2860960569
 40
0.2984768706
 40
0.3113209284
 40
0.3246452964
 40
0.338460882
 40
0.3527729858
 40
0.367581835
 40
0.3828830818
 40
0.3986682625
 40
0.4149252148
 40
0.4316384513
 40
0.4487894983
 40
0.4663571992
 40
0.5026419037
 40
0.5402842988
 40
0.5790439152
 40
0.6186592295
 40
0.6588533638
 40
0.699339394
 40
0.7398254241
 40
0.780019559
 40
0.8196348726
 40
0.8583944886
 40
0.8960368854
 40
0.9323215888
 40
0.967035492
 40
1.0
 40
1.0
 40
1.0
 40
1.0
 10
207.4538199947
 20
83.7257761189
 30
0.0
 10
207.1259592609
 20
83.8897064858
 30
0.0
 10
206.4864424118
 20
84.2250585034
 30
0.0
 10
205.5637381616
 20
84.7590486038
 30
0.0
 10
204.6944234619
 20
85.3150682088
 30
0.0
 10
203.8805975963
 20
85.8917946076
 30
0.0
 10
203.1242067012
 20
86.4878698518
 30
0.0
 10
202.4270680483
 20
87.1018951263
 30
0.0
 10
201.7908621636
 20
87.7324357967
 30
0.0
 10
201.2171338909
 20
88.3780237776
 30
0.0
 10
200.7072927486
 20
89.0371591452
 30
0.0
 10
200.2626140087
 20
89.7083091227
 30
0.0
 10
199.8842387377
 20
90.3899043926
 30
0.0
 10
199.5731712427
 20
91.0803327606
 30
0.0
 10
199.3302714739
 20
91.777931366
 30
0.0
 10
199.1562411827
 20
92.4809806305
 30
0.0
 10
199.0516050038
 20
93.1877042395
 30
0.0
 10
199.0166892011
 20
93.8962786042
 30
0.0
 10
199.0516047596
 20
94.6048529874
 30
0.0
 10
199.1562409608
 20
95.3115766145
 30
0.0
 10
199.3302715029
 20
96.0146258502
 30
0.0
 10
199.5731714857
 20
96.7122243996
 30
0.0
 10
199.8842389229
 20
97.4026527688
 30
0.0
 10
200.2626139592
 20
98.0842481068
 30
0.0
 10
200.7072925245
 20
98.7553981595
 30
0.0
 10
201.2171337427
 20
99.4145335007
 30
0.0
 10
201.7908622271
 20
100.06012139
 30
0.0
 10
202.4270682356
 20
100.6906619767
 30
0.0
 10
203.1242068538
 20
101.3046873054
 30
0.0
 10
203.8805973969
 20
101.9007626383
 30
0.0
 10
204.6944237843
 20
102.4774892308
 30
0.0
 10
205.5637360006
 20
103.0335079174
 30
0.0
 10
206.4864526135
 20
103.5675034582
 30
0.0
 10
207.4603643156
 20
104.078208187
 30
0.0
 10
208.4831393311
 20
104.5644068672
 30
0.0
 10
209.5523247313
 20
105.0249371145
 30
0.0
 10
210.6653665888
 20
105.4587059988
 30
0.0
 10
212.2210308688
 20
106.005842473
 30
0.0
 10
214.2584308816
 20
106.6136662017
 30
0.0
 10
216.8068416407
 20
107.2138115432
 30
0.0
 10
219.4604558892
 20
107.6866826203
 30
0.0
 10
222.1938354361
 20
108.0277307969
 30
0.0
 10
224.9808550785
 20
108.2336822777
 30
0.0
 10
227.7948249174
 20
108.3025535199
 30
0.0
 10
230.6087950692
 20
108.2336820646
 30
0.0
 10
233.3958138107
 20
108.0277310782
 30
0.0
 10
236.1291966572
 20
107.68668235
 30
0.0
 10
238.7827988756
 20
107.2138121974
 30
0.0
 10
241.3312525911
 20
106.6136634757
 30
0.0
 10
243.7503117725
 20
105.8919461504
 30
0.0
 10
246.0167822188
 20
105.0556127632
 30
0.0
 10
247.4511532457
 20
104.4091194489
 30
0.0
 10
248.1358299501
 20
104.0667810966
 30
0.0
  0
SPLINE
  5
412
100
AcDbEntity
  8
7_ALL_FEATURES
100
AcDbSpline
 62
7
  6
CONTINUOUS
 70
0
 71
3
 72
9
 73
5
 74
0
 42
0.0000001
 43
0.0000001
 44
0.0000000001
 40
0.0
 40
0.0
 40
0.0
 40
0.0
 40
0.5139669794
 40
1.0
 40
1.0
 40
1.0
 40
1.0
 10
249.1848051033
 20
129.1813984281
 30
0.0
 10
249.7747639719
 20
128.8864189938
 30
0.0
 10
250.9041181096
 20
128.2744258817
 30
0.0
 10
251.9845607689
 20
127.5789509495
 30
0.0
 10
252.4938465107
 20
127.2188311718
 30
0.0
  0
SPLINE
  5
413
100
AcDbEntity
  8
02___PRT_ALL_AXES
100
AcDbSpline
 62
7
  6
CONTINUOUS
 70
0
 71
3
 72
22
 73
18
 74
0
 42
0.0000001
 43
0.0000001
 44
0.0000000001
 40
0.0
 40
0.0
 40
0.0
 40
0.0
 40
0.0791959211
 40
0.1559636505
 40
0.2302611046
 40
0.3020663432
 40
0.3713804994
 40
0.4382301637
 40
0.5026700653
 40
0.5647858185
 40
0.6824789576
 40
0.7384836448
 40
0.7928633889
 40
0.8458873844
 40
0.8978593942
 40
0.949112268
 40
1.0
 40
1.0
 40
1.0
 40
1.0
 10
208.3493884898
 20
84.0819661135
 30
0.0
 10
208.0359629059
 20
84.2386789054
 30
0.0
 10
207.4246023604
 20
84.5592664031
 30
0.0
 10
206.542522594
 20
85.0697456214
 30
0.0
 10
205.7114815366
 20
85.6012856802
 30
0.0
 10
204.9334876963
 20
86.1526185763
 30
0.0
 10
204.2103956054
 20
86.7224546894
 30
0.0
 10
203.543962543
 20
87.3094296238
 30
0.0
 10
202.9357246713
 20
87.9122664166
 30
0.0
 10
202.2174936244
 20
88.720411232
 30
0.0
 10
201.6033560778
 20
89.5694908311
 30
0.0
 10
201.11309176
 20
90.452668604
 30
0.0
 10
200.8157036183
 20
91.1127240356
 30
0.0
 10
200.5835023123
 20
91.7795987544
 30
0.0
 10
200.417132841
 20
92.4517104354
 30
0.0
 10
200.3171040524
 20
93.1272650906
 30
0.0
 10
200.2948249724
 20
93.5795199526
 30
0.0
 10
200.2948249724
 20
93.8046843548
 30
0.0
  0
SPLINE
  5
414
100
AcDbEntity
  8
02___PRT_ALL_AXES
100
AcDbSpline
 62
7
  6
CONTINUOUS
 70
0
 71
3
 72
11
 73
7
 74
0
 42
0.0000001
 43
0.0000001
 44
0.0000000001
 40
0.0
 40
0.0
 40
0.0
 40
0.0
 40
0.2602591706
 40
0.5118796491
 40
0.7574849513
 40
1.0
 40
1.0
 40
1.0
 40
1.0
 10
254.3534148271
 20
90.2377773986
 30
0.0
 10
254.5063414041
 20
90.5224440984
 30
0.0
 10
254.7774221603
 20
91.0990571638
 30
0.0
 10
255.0752588245
 20
91.9935571836
 30
0.0
 10
255.2547653899
 20
92.896781024
 30
0.0
 10
255.2948249724
 20
93.5035724235
 30
0.0
 10
255.2948249724
 20
93.8046843548
 30
0.0
  0
SPLINE
  5
415
100
AcDbEntity
  8
7_ALL_FEATURES
100
AcDbSpline
 62
9
  6
CONTINUOUS
 70
0
 71
3
 72
56
 73
52
 74
0
 42
0.0000001
 43
0.0000001
 44
0.0000000001
 40
0.0
 40
0.0
 40
0.0
 40
0.0
 40
0.0157852892
 40
0.0310865634
 40
0.0458954988
 40
0.0602076696
 40
0.0740233246
 40
0.0873477579
 40
0.100191877
 40
0.1125727494
 40
0.1245141426
 40
0.1360470057
 40
0.1472098247
 40
0.158048761
 40
0.1686174698
 40
0.1789764974
 40
0.1891921877
 40
0.1993350981
 40
0.2094780085
 40
0.2196936988
 40
0.230052727
 40
0.2406214364
 40
0.2514603725
 40
0.2626231904
 40
0.2741560525
 40
0.2860974461
 40
0.2984783199
 40
0.3113224401
 40
0.3246468728
 40
0.3384625255
 40
0.3527746988
 40
0.36758362
 40
0.382884941
 40
0.3986701985
 40
0.4149272297
 40
0.4316405474
 40
0.466354608
 40
0.5026394887
 40
0.5402820666
 40
0.5790418713
 40
0.618657378
 40
0.6588517075
 40
0.6993379344
 40
0.7398241612
 40
0.7800184913
 40
0.8196339973
 40
0.8583938016
 40
0.8960363812
 40
0.9323212608
 40
0.9670353325
 40
1.0
 40
1.0
 40
1.0
 40
1.0
 10
207.8450397477
 20
83.8297917424
 30
0.0
 10
207.5234847926
 20
83.9905692199
 30
0.0
 10
206.8962678202
 20
84.3194713862
 30
0.0
 10
205.9913100056
 20
84.8431912145
 30
0.0
 10
205.1387148835
 20
85.3885168624
 30
0.0
 10
204.3405413762
 20
85.9541510472
 30
0.0
 10
203.5986981887
 20
86.5387619413
 30
0.0
 10
202.9149676419
 20
87.1409776316
 30
0.0
 10
202.2909979399
 20
87.7593910764
 30
0.0
 10
201.7283042141
 20
88.3925624258
 30
0.0
 10
201.2282688739
 20
89.0390206043
 30
0.0
 10
200.7921426638
 20
89.697262315
 30
0.0
 10
200.4210447045
 20
90.3657484233
 30
0.0
 10
200.115959987
 20
91.0428977425
 30
0.0
 10
199.8777319218
 20
91.7270793934
 30
0.0
 10
199.7070487635
 20
92.4166068705
 30
0.0
 10
199.6044250566
 20
93.1097380234
 30
0.0
 10
199.5701807899
 20
93.8046843363
 30
0.0
 10
199.6044248141
 20
94.4996306674
 30
0.0
 10
199.70704854
 20
95.1927618381
 30
0.0
 10
199.8777319414
 20
95.8822892872
 30
0.0
 10
200.1159602135
 20
96.5664708835
 30
0.0
 10
200.4210448716
 20
97.2436202041
 30
0.0
 10
200.792142598
 20
97.9121063796
 30
0.0
 10
201.228268634
 20
98.5703481647
 30
0.0
 10
201.7283040458
 20
99.2168063177
 30
0.0
 10
202.2909979765
 20
99.8499775781
 30
0.0
 10
202.9149677972
 20
100.4683909409
 30
0.0
 10
203.5986983089
 20
101.0706066867
 30
0.0
 10
204.3405411429
 20
101.6552176619
 30
0.0
 10
205.1387151823
 20
102.220852064
 30
0.0
 10
205.991307779
 20
102.7661767108
 30
0.0
 10
206.8962780718
 20
103.2899022777
 30
0.0
 10
207.8514571365
 20
103.7907830553
 30
0.0
 10
208.8545662758
 20
104.2676366451
 30
0.0
 10
210.2706052357
 20
104.8775474314
 30
0.0
 10
212.146283951
 20
105.5696611771
 30
0.0
 10
214.5187237025
 20
106.2774683831
 30
0.0
 10
217.0181892036
 20
106.8660830059
 30
0.0
 10
219.6207471501
 20
107.3298559878
 30
0.0
 10
222.3015607673
 20
107.664345689
 30
0.0
 10
225.0349760425
 20
107.8663358382
 30
0.0
 10
227.7948250319
 20
107.9338825434
 30
0.0
 10
230.5546738268
 20
107.8663356766
 30
0.0
 10
233.2880897031
 20
107.6643457607
 30
0.0
 10
235.9689012308
 20
107.3298564395
 30
0.0
 10
238.5714665647
 20
106.8660810239
 30
0.0
 10
241.0709057198
 20
106.2774749954
 30
0.0
 10
243.4434389926
 20
105.5696384996
 30
0.0
 10
245.6663182637
 20
104.7493903641
 30
0.0
 10
247.0731019333
 20
104.1153310991
 30
0.0
 10
247.7446101972
 20
103.7795769672
 30
0.0
  0
SPLINE
  5
416
100
AcDbEntity
  8
02___PRT_ALL_AXES
100
AcDbSpline
 62
7
  6
CONTINUOUS
 70
0
 71
3
 72
42
 73
38
 74
0
 42
0.0000001
 43
0.0000001
 44
0.0000000001
 40
0.0
 40
0.0
 40
0.0
 40
0.0
 40
0.0094794628
 40
0.0190216803
 40
0.0286627282
 40
0.0384370736
 40
0.0483771063
 40
0.0585127737
 40
0.0794679243
 40
0.1014963216
 40
0.1247348897
 40
0.1492766809
 40
0.1751752533
 40
0.2024496058
 40
0.2310889446
 40
0.2610569777
 40
0.292295633
 40
0.3247282612
 40
0.3582623806
 40
0.3927920624
 40
0.4282000378
 40
0.4643595805
 40
0.5011362382
 40
0.5383894366
 40
0.5759740025
 40
0.6137416262
 40
0.6515422858
 40
0.6892256518
 40
0.7266424887
 40
0.7636460682
 40
0.8000936127
 40
0.8358477891
 40
0.8707782724
 40
0.9047634189
 40
0.9376920736
 40
0.9694655788
 40
1.0
 40
1.0
 40
1.0
 40
1.0
 10
193.0055747669
 20
96.4022025876
 30
0.0
 10
193.016095578
 20
96.613793706
 30
0.0
 10
193.0527091085
 20
97.0377643925
 30
0.0
 10
193.153777638
 20
97.670838566
 30
0.0
 10
193.3009575303
 20
98.3015950281
 30
0.0
 10
193.4940198367
 20
98.929123291
 30
0.0
 10
193.7326912437
 20
99.5526065447
 30
0.0
 10
194.1154131197
 20
100.3864941057
 30
0.0
 10
194.7114057306
 20
101.4167636775
 30
0.0
 10
195.5938109287
 20
102.6082922251
 30
0.0
 10
196.6462917321
 20
103.7632245924
 30
0.0
 10
197.8629854527
 20
104.8757387235
 30
0.0
 10
199.2374153187
 20
105.9403889895
 30
0.0
 10
200.7623429859
 20
106.9518278173
 30
0.0
 10
202.4297850676
 20
107.9049230915
 30
0.0
 10
204.2310153843
 20
108.7947765827
 30
0.0
 10
206.156596134
 20
109.616775912
 30
0.0
 10
208.1964200013
 20
110.3666307125
 30
0.0
 10
210.3397610685
 20
111.0404080226
 30
0.0
 10
212.5753316964
 20
111.6345615309
 30
0.0
 10
214.8913438582
 20
112.145955426
 30
0.0
 10
217.2755731291
 20
112.5718863956
 30
0.0
 10
219.7154255823
 20
112.9100994318
 30
0.0
 10
222.1980061705
 20
113.1588025726
 30
0.0
 10
224.7101887847
 20
113.3166773663
 30
0.0
 10
227.2386873513
 20
113.382886193
 30
0.0
 10
229.7701276434
 20
113.3570781642
 30
0.0
 10
232.2911195478
 20
113.2393898893
 30
0.0
 10
234.7883294044
 20
113.0304458109
 30
0.0
 10
237.2485519997
 20
112.7313539482
 30
0.0
 10
239.6587822457
 20
112.3436992635
 30
0.0
 10
242.0062848991
 20
111.8695353852
 30
0.0
 10
244.2786668637
 20
111.3113693991
 30
0.0
 10
246.4639332834
 20
110.6721531929
 30
0.0
 10
248.5505945373
 20
109.9552430367
 30
0.0
 10
250.5275802521
 20
109.1644492629
 30
0.0
 10
251.791783034
 20
108.5785848188
 30
0.0
 10
252.4021409577
 20
108.2734058569
 30
0.0
  0
SPLINE
  5
417
100
AcDbEntity
  8
7_ALL_FEATURES
100
AcDbSpline
 62
7
  6
CONTINUOUS
 70
0
 71
3
 72
31
 73
27
 74
0
 42
0.0000001
 43
0.0000001
 44
0.0000000001
 40
0.0
 40
0.0
 40
0.0
 40
0.0
 40
0.0247534329
 40
0.050435312
 40
0.0770305072
 40
0.1045151355
 40
0.1328575255
 40
0.1620190883
 40
0.1919551074
 40
0.2226154283
 40
0.2539450872
 40
0.2858849011
 40
0.3513329671
 40
0.4184289826
 40
0.4865977139
 40
0.5552410558
 40
0.6237509854
 40
0.6915222562
 40
0.7579651599
 40
0.8225187164
 40
0.8539271093
 40
0.8846732644
 40
0.9147016684
 40
0.9439615483
 40
0.972407375
 40
1.0
 40
1.0
 40
1.0
 40
1.0
 10
203.0958034285
 20
127.2188311739
 30
0.0
 10
203.4185314534
 20
127.4470345671
 30
0.0
 10
204.0890701463
 20
127.8938739806
 30
0.0
 10
205.1460602312
 20
128.5238086303
 30
0.0
 10
206.2698598925
 20
129.124078098
 30
0.0
 10
207.4571282492
 20
129.6929042848
 30
0.0
 10
208.7043881319
 20
130.2286324304
 30
0.0
 10
210.0079680549
 20
130.7296902047
 30
0.0
 10
211.3640336934
 20
131.1946065577
 30
0.0
 10
212.7685879645
 20
131.6220109191
 30
0.0
 10
214.2175052024
 20
132.0106528942
 30
0.0
 10
216.2189866758
 20
132.4793824134
 30
0.0
 10
218.8030699871
 20
132.9588457217
 30
0.0
 10
221.9844936667
 20
133.3600294475
 30
0.0
 10
225.2342185207
 20
133.5869203295
 30
0.0
 10
228.5139997106
 20
133.6368319086
 30
0.0
 10
231.7853330903
 20
133.5091769888
 30
0.0
 10
235.0098211272
 20
133.2054613516
 30
0.0
 10
238.1495226207
 20
132.7292785771
 30
0.0
 10
240.687630509
 20
132.188552233
 30
0.0
 10
242.6442080222
 20
131.6721980853
 30
0.0
 10
244.0544844494
 20
131.2495141762
 30
0.0
 10
245.4167617381
 20
130.7891669494
 30
0.0
 10
246.7270479334
 20
130.2924974325
 30
0.0
 10
247.9814544805
 20
129.7609835369
 30
0.0
 10
248.7907245333
 20
129.3784387131
 30
0.0
 10
249.1848051033
 20
129.1813984281
 30
0.0
  0
SPLINE
  5
418
100
AcDbEntity
  8
7_ALL_FEATURES
100
AcDbSpline
 62
9
  6
CONTINUOUS
 70
0
 71
3
 72
28
 73
24
 74
0
 42
0.0000001
 43
0.0000001
 44
0.0000000001
 40
0.0
 40
0.0
 40
0.0
 40
0.0
 40
0.0822174434
 40
0.1608032983
 40
0.2356956736
 40
0.3068998931
 40
0.3744996541
 40
0.4386684746
 40
0.4996811197
 40
0.5579229819
 40
0.6138940768
 40
0.6412294225
 40
0.668233778
 40
0.6949971255
 40
0.7216130731
 40
0.7481775068
 40
0.7747871197
 40
0.8015378974
 40
0.8285236407
 40
0.8558346059
 40
0.8835563263
 40
0.940518874
 40
1.0
 40
1.0
 40
1.0
 40
1.0
 10
247.7446101972
 20
103.7795769672
 30
0.0
 10
248.1983051603
 20
103.5527294856
 30
0.0
 10
249.0738283644
 20
103.0847642958
 30
0.0
 10
250.3131567219
 20
102.3223185339
 30
0.0
 10
251.4437892928
 20
101.518354775
 30
0.0
 10
252.4602403462
 20
100.6766296004
 30
0.0
 10
253.3576025708
 20
99.8009933163
 30
0.0
 10
254.1314503602
 20
98.8954277528
 30
0.0
 10
254.7778433374
 20
97.9639767366
 30
0.0
 10
255.2932604556
 20
97.0110174289
 30
0.0
 10
255.6136745107
 20
96.1958914012
 30
0.0
 10
255.7993892906
 20
95.5407076015
 30
0.0
 10
255.9035235397
 20
95.0508903836
 30
0.0
 10
255.9733973665
 20
94.5595131751
 30
0.0
 10
256.0089252079
 20
94.0671764035
 30
0.0
 10
256.0100537413
 20
93.5745078366
 30
0.0
 10
255.976782262
 20
93.0821309825
 30
0.0
 10
255.9091566557
 20
92.59066845
 30
0.0
 10
255.8072741942
 20
92.1007428338
 30
0.0
 10
255.6712662873
 20
91.6129531798
 30
0.0
 10
255.442670991
 20
90.9604536931
 30
0.0
 10
255.0689933334
 20
90.1507423791
 30
0.0
 10
254.6932735773
 20
89.5364603742
 30
0.0
 10
254.4858831258
 20
89.2337089521
 30
0.0
  0
SPLINE
  5
419
100
AcDbEntity
  8
7_ALL_FEATURES
100
AcDbSpline
 62
9
  6
CONTINUOUS
 70
0
 71
3
 72
29
 73
25
 74
0
 42
0.0000001
 43
0.0000001
 44
0.0000000001
 40
0.0
 40
0.0
 40
0.0
 40
0.0
 40
0.0821720466
 40
0.1605572841
 40
0.2350927861
 40
0.3057926736
 40
0.3727611346
 40
0.4362060413
 40
0.4964520958
 40
0.5539507277
 40
0.5818613873
 40
0.6093132933
 40
0.6363972275
 40
0.6632096808
 40
0.6898515404
 40
0.7164265408
 40
0.7430395505
 40
0.7697947925
 40
0.7967941016
 40
0.8241353217
 40
0.851910922
 40
0.8802068857
 40
0.9386404584
 40
1.0
 40
1.0
 40
1.0
 40
1.0
 10
248.1358299501
 20
104.0667810966
 30
0.0
 10
248.6171151703
 20
103.8261384866
 30
0.0
 10
249.5444830213
 20
103.3291584692
 30
0.0
 10
250.8535254166
 20
102.516908048
 30
0.0
 10
252.0419348223
 20
101.6590635104
 30
0.0
 10
253.1034619626
 20
100.7599446259
 30
0.0
 10
254.0325358105
 20
99.8239956628
 30
0.0
 10
254.8241694202
 20
98.8557401226
 30
0.0
 10
255.4738738096
 20
97.8600344521
 30
0.0
 10
255.8980094544
 20
97.0026845954
 30
0.0
 10
256.1594989973
 20
96.310933809
 30
0.0
 10
256.3162905609
 20
95.7938625541
 30
0.0
 10
256.4354001253
 20
95.2742078466
 30
0.0
 10
256.5166607659
 20
94.7526566596
 30
0.0
 10
256.5599450075
 20
94.2299269158
 30
0.0
 10
256.5651868556
 20
93.7067366871
 30
0.0
 10
256.5323778078
 20
93.1838079726
 30
0.0
 10
256.4615688461
 20
92.6618612822
 30
0.0
 10
256.3528679798
 20
92.1416109664
 30
0.0
 10
256.2064421235
 20
91.623767767
 30
0.0
 10
256.0224995179
 20
91.1090151544
 30
0.0
 10
255.724459999
 20
90.4204685464
 30
0.0
 10
255.2551936179
 20
89.5689632943
 30
0.0
 10
254.7994691766
 20
88.9283353595
 30
0.0
 10
254.5504192206
 20
88.6130235704
 30
0.0
  0
SPLINE
  5
41A
100
AcDbEntity
  8
02___PRT_ALL_AXES
100
AcDbSpline
 62
7
  6
CONTINUOUS
 70
0
 71
3
 72
23
 73
19
 74
0
 42
0.0000001
 43
0.0000001
 44
0.0000000001
 40
0.0
 40
0.0
 40
0.0
 40
0.0
 40
0.0507081133
 40
0.1019313738
 40
0.1539917438
 40
0.2071886462
 40
0.2617929295
 40
0.3180429355
 40
0.3761425874
 40
0.436261111
 40
0.4985339695
 40
0.563064628
 40
0.6299267274
 40
0.6991665113
 40
0.7708052155
 40
0.8448414004
 40
0.9212530757
 40
1.0
 40
1.0
 40
1.0
 40
1.0
 10
262.584075178
 20
96.4022025876
 30
0.0
 10
262.5703366765
 20
96.6785068444
 30
0.0
 10
262.5162004646
 20
97.2329529014
 30
0.0
 10
262.3563311414
 20
98.058891103
 30
0.0
 10
262.1180017023
 20
98.8798614723
 30
0.0
 10
261.8018721672
 20
99.6938443387
 30
0.0
 10
261.4087743856
 20
100.4990049145
 30
0.0
 10
260.9397052529
 20
101.2935297165
 30
0.0
 10
260.3958120475
 20
102.0756640254
 30
0.0
 10
259.7783879769
 20
102.8436925552
 30
0.0
 10
259.0888707594
 20
103.5959382511
 30
0.0
 10
258.328841771
 20
104.3307576281
 30
0.0
 10
257.5000283271
 20
105.0465424491
 30
0.0
 10
256.6043018283
 20
105.741720092
 30
0.0
 10
255.6436802761
 20
106.4147570155
 30
0.0
 10
254.6203175213
 20
107.0641656988
 30
0.0
 10
253.5365321878
 20
107.6884935654
 30
0.0
 10
252.7864007213
 20
108.0812759751
 30
0.0
 10
252.4021409577
 20
108.2734058569
 30
0.0
  0
SPLINE
  5
41B
100
AcDbEntity
  8
7_ALL_FEATURES
100
AcDbSpline
 62
3
  6
CONTINUOUS
 70
0
 71
3
 72
25
 73
21
 74
0
 42
0.0000001
 43
0.0000001
 44
0.0000000001
 40
0.0
 40
0.0
 40
0.0
 40
0.0
 40
0.0639621493
 40
0.1312010352
 40
0.2010515398
 40
0.2727183499
 40
0.3453220443
 40
0.4179416238
 40
0.4896553944
 40
0.5595818241
 40
0.6269219935
 40
0.6910054788
 40
0.7513417981
 40
0.8076793609
 40
0.8600716884
 40
0.9089433189
 40
0.9323372629
 40
0.9551994303
 40
0.9776937836
 40
1.0
 40
1.0
 40
1.0
 40
1.0
 10
179.7925677786
 20
110.1412286431
 30
0.0
 10
179.7241986253
 20
110.092798137
 30
0.0
 10
179.5899737314
 20
109.9847650553
 30
0.0
 10
179.4032695025
 20
109.7984260323
 30
0.0
 10
179.2292196996
 20
109.5869794391
 30
0.0
 10
179.0713427041
 20
109.3547009139
 30
0.0
 10
178.9327936841
 20
109.1062518681
 30
0.0
 10
178.8163627128
 20
108.8466348447
 30
0.0
 10
178.7243930008
 20
108.5810728989
 30
0.0
 10
178.6587381214
 20
108.314900526
 30
0.0
 10
178.6207264956
 20
108.0534465332
 30
0.0
 10
178.6111493651
 20
107.801915451
 30
0.0
 10
178.6302610043
 20
107.5652847717
 30
0.0
 10
178.6778437311
 20
107.3481921502
 30
0.0
 10
178.7531693486
 20
107.1549826589
 30
0.0
 10
178.8395560253
 20
107.0150641639
 30
0.0
 10
178.9209504927
 20
106.9204353752
 30
0.0
 10
178.9868787653
 20
106.8588043355
 30
0.0
 10
179.0582008095
 20
106.805874601
 30
0.0
 10
179.109200424
 20
106.7765233789
 30
0.0
 10
179.1353347627
 20
106.7634561473
 30
0.0
  0
SPLINE
  5
41C
100
AcDbEntity
  8
7_ALL_FEATURES
100
AcDbSpline
 62
3
  6
CONTINUOUS
 70
0
 71
3
 72
10
 73
6
 74
0
 42
0.0000001
 43
0.0000001
 44
0.0000000001
 40
0.0
 40
0.0
 40
0.0
 40
0.0
 40
0.4938255651
 40
0.7453959944
 40
1.0
 40
1.0
 40
1.0
 40
1.0
 10
204.4460600529
 20
125.9146982713
 30
0.0
 10
200.2629598696
 20
123.5215474651
 30
0.0
 10
194.0403929684
 20
119.7461666089
 30
0.0
 10
185.8839228768
 20
114.3868981877
 30
0.0
 10
181.8201118768
 20
111.577475578
 30
0.0
 10
179.7925677786
 20
110.1412286431
 30
0.0
  0
SPLINE
  5
41D
100
AcDbEntity
  8
7_ALL_FEATURES
100
AcDbSpline
 62
3
  6
CONTINUOUS
 70
0
 71
3
 72
19
 73
15
 74
0
 42
0.0000001
 43
0.0000001
 44
0.0000000001
 40
0.0
 40
0.0
 40
0.0
 40
0.0
 40
0.0556213222
 40
0.1114419348
 40
0.1676573038
 40
0.2244554595
 40
0.3404258447
 40
0.4606780701
 40
0.5227567832
 40
0.5862500838
 40
0.6512358367
 40
0.7177742158
 40
0.8556231899
 40
1.0
 40
1.0
 40
1.0
 40
1.0
 10
208.3562079597
 20
126.3201061022
 30
0.0
 10
208.2883097112
 20
126.3540552183
 30
0.0
 10
208.1496267348
 20
126.4169299485
 30
0.0
 10
207.9344810364
 20
126.4954452486
 30
0.0
 10
207.7124991512
 20
126.5580768897
 30
0.0
 10
207.4060644665
 20
126.6206532268
 30
0.0
 10
207.0064562304
 20
126.6578234423
 30
0.0
 10
206.5985119511
 20
126.640491284
 30
0.0
 10
206.2658909823
 20
126.5953918739
 30
0.0
 10
206.0105553194
 20
126.5451557904
 30
0.0
 10
205.7526081875
 20
126.4789853199
 30
0.0
 10
205.4018226042
 20
126.3684175707
 30
0.0
 10
204.9596737444
 20
126.1899020477
 30
0.0
 10
204.6170952293
 20
126.0125474627
 30
0.0
 10
204.4460600529
 20
125.9146982713
 30
0.0
  0
SPLINE
  5
41E
100
AcDbEntity
  8
7_ALL_FEATURES
100
AcDbSpline
 62
3
  6
CONTINUOUS
 70
0
 71
3
 72
18
 73
14
 74
0
 42
0.0000001
 43
0.0000001
 44
0.0000000001
 40
0.0
 40
0.0
 40
0.0
 40
0.0
 40
0.1473278797
 40
0.2877899162
 40
0.4212070218
 40
0.5477041306
 40
0.6677556573
 40
0.7256550699
 40
0.7822986217
 40
0.8378547637
 40
0.8925142336
 40
0.9464873103
 40
1.0
 40
1.0
 40
1.0
 40
1.0
 10
210.4353534943
 20
121.9931157972
 30
0.0
 10
210.4353534943
 20
122.2295851273
 30
0.0
 10
210.4160831154
 20
122.6918184451
 30
0.0
 10
210.3249866512
 20
123.3627574838
 30
0.0
 10
210.1731653866
 20
123.9885164424
 30
0.0
 10
209.9620685685
 20
124.5622015358
 30
0.0
 10
209.7355191178
 20
124.9970227178
 30
0.0
 10
209.5266038623
 20
125.3106359751
 30
0.0
 10
209.3586837183
 20
125.5262474747
 30
0.0
 10
209.1781282695
 20
125.7244211179
 30
0.0
 10
208.9854171384
 20
125.9046072116
 30
0.0
 10
208.7811027116
 20
126.0662733685
 30
0.0
 10
208.6370789642
 20
126.1616940003
 30
0.0
 10
208.5635153817
 20
126.2060294192
 30
0.0
  0
SPLINE
  5
41F
100
AcDbEntity
  8
7_ALL_FEATURES
100
AcDbSpline
 62
3
  6
CONTINUOUS
 70
0
 71
3
 72
9
 73
5
 74
0
 42
0.0000001
 43
0.0000001
 44
0.0000000001
 40
0.0
 40
0.0
 40
0.0
 40
0.0
 40
0.4938485556
 40
1.0
 40
1.0
 40
1.0
 40
1.0
 10
179.1353347627
 20
106.7634561473
 30
0.0
 10
179.1807996768
 20
106.740723582
 30
0.0
 10
179.2778322438
 20
106.7040520535
 30
0.0
 10
179.3801229477
 20
106.6873982832
 30
0.0
 10
179.4320894258
 20
106.6837030554
 30
0.0
  0
SPLINE
  5
420
100
AcDbEntity
  8
7_ALL_FEATURES
100
AcDbSpline
 62
3
  6
CONTINUOUS
 70
0
 71
3
 72
25
 73
21
 74
0
 42
0.0000001
 43
0.0000001
 44
0.0000000001
 40
0.0
 40
0.0
 40
0.0
 40
0.0
 40
0.0224377552
 40
0.0450233783
 40
0.0678995517
 40
0.0911991061
 40
0.1394813886
 40
0.1906763954
 40
0.2452476363
 40
0.3033836161
 40
0.3650338365
 40
0.429950598
 40
0.4977286816
 40
0.5678407444
 40
0.6396687659
 40
0.7125323827
 40
0.7857151487
 40
0.8584896979
 40
0.9301425284
 40
1.0
 40
1.0
 40
1.0
 40
1.0
 10
276.4543152208
 20
114.9020035257
 30
0.0
 10
276.4773866414
 20
114.8904676945
 30
0.0
 10
276.5225186059
 20
114.8649060477
 30
0.0
 10
276.5862402533
 20
114.8196011344
 30
0.0
 10
276.6458358452
 20
114.7674625465
 30
0.0
 10
276.7203183758
 20
114.6882418206
 30
0.0
 10
276.8019377962
 20
114.5720728558
 30
0.0
 10
276.8783421098
 20
114.4115237825
 30
0.0
 10
276.9335468442
 20
114.2307321352
 30
0.0
 10
276.9668432589
 20
114.0325734684
 30
0.0
 10
276.9778437152
 20
113.8201061399
 30
0.0
 10
276.9664388348
 20
113.5966204295
 30
0.0
 10
276.9328408476
 20
113.3655890015
 30
0.0
 10
276.8775918051
 20
113.1306200671
 30
0.0
 10
276.8015666073
 20
112.8953970564
 30
0.0
 10
276.7059635205
 20
112.6636164803
 30
0.0
 10
276.5922898014
 20
112.4389279335
 30
0.0
 10
276.4623309467
 20
112.2248646334
 30
0.0
 10
276.318148604
 20
112.0248152384
 30
0.0
 10
276.2123655169
 20
111.9009163384
 30
0.0
 10
276.157560519
 20
111.8422142715
 30
0.0
  0
ENDSEC
  0
SECTION
  2
OBJECTS
  0
DICTIONARY
  5
421
100
AcDbDictionary
  3
ACAD_GROUP
350
422
  3
ACAD_MLINESTYLE
350
423
  0
DICTIONARY
  5
422
102
{ACAD_REACTORS
330
421
102
}
100
AcDbDictionary
  0
DICTIONARY
  5
423
102
{ACAD_REACTORS
330
421
102
}
100
AcDbDictionary
  3
STANDARD
350
424
  0
MLINESTYLE
  5
424
102
{ACAD_REACTORS
330
423
102
}
100
AcDbMlineStyle
  2
STANDARD
 70
0
  3

 62
256
 51
90.0
 52
90.0
 71
2
 49
0.5
 62
256
  6
BYLAYER
 49
-0.5
 62
256
  6
BYLAYER
  0
ENDSEC
  0
EOF
