999
DXF file: 1h6_c_005.dxf
999
Pro/ENGINEER 2016360 by Parametric Technology Corporation
  0
SECTION
  2
HEADER
  9
$ACADVER
  1
AC1014
  9
$DWGCODEPAGE
  3
ANSI_1252
  9
$EXTMAX
 10
297.0
 20
210.0
 30
0.0
  9
$EXTMIN
 10
0.0
 20
0.0
 30
0.0
  9
$LIMMIN
 10
0.0
 20
0.0
  9
$LIMMAX
 10
297.0
 20
210.0
  9
$VIEWCTR
 10
148.5
 20
105.0
  9
$VIEWSIZE
 40
210.0
  9
$CLAYER
  8
0
  9
$LTSCALE
 40
16.335
  9
$CELTYPE
  6
BYLAYER
  9
$DIMSCALE
 40
1.0
  9
$DIMASZ
 40
2.5
  9
$DIMEXO
 40
0.75
  9
$DIMDLI
 40
11.286
  9
$DIMEXE
 40
0.75
  9
$DIMCEN
 40
2.673
  9
$DIMLFAC
 40
1.0
  9
$DIMBLK
  1
_CLOSED
  9
$DIMALT
 70
0
  9
$DIMALTF
 40
25.4
  9
$DIMTXT
 40
3.0
  9
$DIMTOL
 70
1
  9
$DIMLIM
 70
0
  9
$DIMTFAC
 40
1.0
  9
$DIMTP
 40
0.01
  9
$DIMTM
 40
0.01
  9
$DIMGAP
 40
0.625
  9
$AUNITS
 70
0
  9
$PDMODE
 70
3
  9
$PDSIZE
 40
0.3125
  9
$HANDSEED
  5
41D
  9
$TILEMODE
 70
1
  9
$MEASUREMENT
 70
1
  0
ENDSEC
  0
SECTION
  2
CLASSES
  0
ENDSEC
  0
SECTION
  2
TABLES
  0
TABLE
  2
VPORT
  5
8
100
AcDbSymbolTable
 70
2
  0
VPORT
  5
1F4
100
AcDbSymbolTableRecord
100
AcDbViewportTableRecord
  2
*ACTIVE
 70
0
 10
0.0
 20
0.0
 11
1.0
 21
1.0
 12
148.5
 22
105.0
 13
0.0
 23
0.0
 14
1.0
 24
1.0
 15
0.0
 25
0.0
 16
0.0
 26
0.0
 36
1.0
 17
0.0
 27
0.0
 37
0.0
 40
210.0
 41
1.4142857143
 42
50.0
 43
0.0
 44
0.0
 50
0.0
 51
0.0
 71
0
 72
100
 73
1
 74
1
 75
0
 76
0
 77
0
 78
0
  0
ENDTAB
  0
TABLE
  2
LTYPE
  5
5
100
AcDbSymbolTable
 70
6
  0
LTYPE
  5
14
100
AcDbSymbolTableRecord
100
AcDbLinetypeTableRecord
  2
BYBLOCK
 70
0
  3

 72
65
 73
0
 40
0.0
  0
LTYPE
  5
15
100
AcDbSymbolTableRecord
100
AcDbLinetypeTableRecord
  2
BYLAYER
 70
0
  3

 72
65
 73
0
 40
0.0
  0
LTYPE
  5
16
100
AcDbSymbolTableRecord
100
AcDbLinetypeTableRecord
  2
CONTINUOUS
 70
64
  3
Solid line
 72
65
 73
0
 40
0.0
  0
LTYPE
  5
1F5
100
AcDbSymbolTableRecord
100
AcDbLinetypeTableRecord
  2
CENTER
 70
64
  3
____ _ ____ _ ____ _ ____ _ ____ _ ____ _ ____
 72
65
 73
4
 40
0.6
 49
0.375
 74
0
 49
-0.075
 74
0
 49
0.075
 74
0
 49
-0.075
 74
0
  0
LTYPE
  5
1F6
100
AcDbSymbolTableRecord
100
AcDbLinetypeTableRecord
  2
HIDDEN
 70
64
  3
- - - - - - - - - - - - - - - - - - - -
 72
65
 73
2
 40
0.2
 49
0.1
 74
0
 49
-0.1
 74
0
  0
LTYPE
  5
1F7
100
AcDbSymbolTableRecord
100
AcDbLinetypeTableRecord
  2
PHANTOM
 70
64
  3
_____ _ _ _____ _ _ _____ _ _ _____
 72
65
 73
6
 40
0.8
 49
0.45
 74
0
 49
-0.05
 74
0
 49
0.1
 74
0
 49
-0.05
 74
0
 49
0.1
 74
0
 49
-0.05
 74
0
  0
LTYPE
  5
1F8
100
AcDbSymbolTableRecord
100
AcDbLinetypeTableRecord
  2
DOT
 70
64
  3
. . . . . . . . . . . . . . . . . . . .
 72
65
 73
2
 40
0.2
 49
0.1
 74
0
 49
-0.1
 74
0
  0
LTYPE
  5
1F9
100
AcDbSymbolTableRecord
100
AcDbLinetypeTableRecord
  2
DASHED
 70
64
  3
- - - - - - - - - - - - - - - - - - - -
 72
65
 73
2
 40
0.2
 49
0.1
 74
0
 49
-0.1
 74
0
  0
ENDTAB
  0
TABLE
  2
LAYER
  5
2
100
AcDbSymbolTable
 70
36
  0
LAYER
  5
10
100
AcDbSymbolTableRecord
100
AcDbLayerTableRecord
  2
0
 70
0
 62
7
  6
CONTINUOUS
  0
LAYER
  5
1FA
100
AcDbSymbolTableRecord
100
AcDbLayerTableRecord
  2
DEFAULT_1
 70
0
 62
7
  6
CENTER
  0
LAYER
  5
1FB
100
AcDbSymbolTableRecord
100
AcDbLayerTableRecord
  2
DEFAULT_2
 70
0
 62
8
  6
HIDDEN
  0
LAYER
  5
1FC
100
AcDbSymbolTableRecord
100
AcDbLayerTableRecord
  2
DEFAULT_3
 70
0
 62
7
  6
PHANTOM
  0
LAYER
  5
1FD
100
AcDbSymbolTableRecord
100
AcDbLayerTableRecord
  2
01_ALL_DTM_PLN
 70
0
 62
7
  6
CONTINUOUS
  0
LAYER
  5
1FE
100
AcDbSymbolTableRecord
100
AcDbLayerTableRecord
  2
01__ASM_ALL_DTM_PLN
 70
0
 62
7
  6
CONTINUOUS
  0
LAYER
  5
1FF
100
AcDbSymbolTableRecord
100
AcDbLayerTableRecord
  2
01__ASM_DEF_DTM_PLN
 70
0
 62
7
  6
CONTINUOUS
  0
LAYER
  5
200
100
AcDbSymbolTableRecord
100
AcDbLayerTableRecord
  2
01___PRT_ALL_DTM_PLN
 70
0
 62
7
  6
CONTINUOUS
  0
LAYER
  5
201
100
AcDbSymbolTableRecord
100
AcDbLayerTableRecord
  2
01___PRT_DEF_DTM_PLN
 70
0
 62
7
  6
CONTINUOUS
  0
LAYER
  5
202
100
AcDbSymbolTableRecord
100
AcDbLayerTableRecord
  2
02_ALL_AXES
 70
0
 62
7
  6
CONTINUOUS
  0
LAYER
  5
203
100
AcDbSymbolTableRecord
100
AcDbLayerTableRecord
  2
02__ASM_ALL_AXES
 70
0
 62
7
  6
CONTINUOUS
  0
LAYER
  5
204
100
AcDbSymbolTableRecord
100
AcDbLayerTableRecord
  2
02___PRT_ALL_AXES
 70
0
 62
7
  6
CONTINUOUS
  0
LAYER
  5
205
100
AcDbSymbolTableRecord
100
AcDbLayerTableRecord
  2
03_ALL_CURVES
 70
0
 62
7
  6
CONTINUOUS
  0
LAYER
  5
206
100
AcDbSymbolTableRecord
100
AcDbLayerTableRecord
  2
03__ASM_ALL_CURVES
 70
0
 62
7
  6
CONTINUOUS
  0
LAYER
  5
207
100
AcDbSymbolTableRecord
100
AcDbLayerTableRecord
  2
03___PRT_ALL_CURVES
 70
0
 62
7
  6
CONTINUOUS
  0
LAYER
  5
208
100
AcDbSymbolTableRecord
100
AcDbLayerTableRecord
  2
04_ALL_DTM_PNT
 70
0
 62
7
  6
CONTINUOUS
  0
LAYER
  5
209
100
AcDbSymbolTableRecord
100
AcDbLayerTableRecord
  2
04__ASM_ALL_DTM_PNT
 70
0
 62
7
  6
CONTINUOUS
  0
LAYER
  5
20A
100
AcDbSymbolTableRecord
100
AcDbLayerTableRecord
  2
04___PRT_ALL_DTM_PNT
 70
0
 62
7
  6
CONTINUOUS
  0
LAYER
  5
20B
100
AcDbSymbolTableRecord
100
AcDbLayerTableRecord
  2
05_ALL_DTM_CSYS
 70
0
 62
7
  6
CONTINUOUS
  0
LAYER
  5
20C
100
AcDbSymbolTableRecord
100
AcDbLayerTableRecord
  2
05__ASM_ALL_DTM_CSYS
 70
0
 62
7
  6
CONTINUOUS
  0
LAYER
  5
20D
100
AcDbSymbolTableRecord
100
AcDbLayerTableRecord
  2
05__ASM_DEF_DTM_CSYS
 70
0
 62
7
  6
CONTINUOUS
  0
LAYER
  5
20E
100
AcDbSymbolTableRecord
100
AcDbLayerTableRecord
  2
05___PRT_ALL_DTM_CSYS
 70
0
 62
7
  6
CONTINUOUS
  0
LAYER
  5
20F
100
AcDbSymbolTableRecord
100
AcDbLayerTableRecord
  2
05___PRT_DEF_DTM_CSYS
 70
0
 62
7
  6
CONTINUOUS
  0
LAYER
  5
210
100
AcDbSymbolTableRecord
100
AcDbLayerTableRecord
  2
06_ALL_SURFS
 70
0
 62
7
  6
CONTINUOUS
  0
LAYER
  5
211
100
AcDbSymbolTableRecord
100
AcDbLayerTableRecord
  2
06__ASM_ALL_SURFS
 70
0
 62
7
  6
CONTINUOUS
  0
LAYER
  5
212
100
AcDbSymbolTableRecord
100
AcDbLayerTableRecord
  2
06___PRT_ALL_SURFS
 70
0
 62
7
  6
CONTINUOUS
  0
LAYER
  5
213
100
AcDbSymbolTableRecord
100
AcDbLayerTableRecord
  2
07__ASM_ALL_SKELETONS
 70
0
 62
7
  6
CONTINUOUS
  0
LAYER
  5
214
100
AcDbSymbolTableRecord
100
AcDbLayerTableRecord
  2
1_ALL_PLANES
 70
0
 62
7
  6
CONTINUOUS
  0
LAYER
  5
215
100
AcDbSymbolTableRecord
100
AcDbLayerTableRecord
  2
2_ALL_CSYS
 70
0
 62
7
  6
CONTINUOUS
  0
LAYER
  5
216
100
AcDbSymbolTableRecord
100
AcDbLayerTableRecord
  2
3_ALL_AXES
 70
0
 62
7
  6
CONTINUOUS
  0
LAYER
  5
217
100
AcDbSymbolTableRecord
100
AcDbLayerTableRecord
  2
4_ALL_POINTS
 70
0
 62
7
  6
CONTINUOUS
  0
LAYER
  5
218
100
AcDbSymbolTableRecord
100
AcDbLayerTableRecord
  2
5_ALL_CURVES
 70
0
 62
7
  6
CONTINUOUS
  0
LAYER
  5
219
100
AcDbSymbolTableRecord
100
AcDbLayerTableRecord
  2
5__COSTRUZIONE
 70
0
 62
7
  6
CONTINUOUS
  0
LAYER
  5
21A
100
AcDbSymbolTableRecord
100
AcDbLayerTableRecord
  2
6_ALL_SURFS
 70
0
 62
7
  6
CONTINUOUS
  0
LAYER
  5
21B
100
AcDbSymbolTableRecord
100
AcDbLayerTableRecord
  2
7_ALL_FEATURES
 70
0
 62
7
  6
CONTINUOUS
  0
LAYER
  5
21C
100
AcDbSymbolTableRecord
100
AcDbLayerTableRecord
  2
9_SOLID
 70
0
 62
7
  6
CONTINUOUS
  0
LAYER
  5
21D
100
AcDbSymbolTableRecord
100
AcDbLayerTableRecord
  2
INTFCLR_2
 70
0
 62
7
  6
CONTINUOUS
  0
LAYER
  5
21E
100
AcDbSymbolTableRecord
100
AcDbLayerTableRecord
  2
WHITE
 70
0
 62
7
  6
CONTINUOUS
  0
LAYER
  5
21F
100
AcDbSymbolTableRecord
100
AcDbLayerTableRecord
  2
XXX_SOLIDO
 70
0
 62
7
  6
CONTINUOUS
  0
ENDTAB
  0
TABLE
  2
STYLE
  5
3
100
AcDbSymbolTable
 70
1
  0
STYLE
  5
11
100
AcDbSymbolTableRecord
100
AcDbTextStyleTableRecord
  2
STANDARD
 70
0
 40
0.0
 41
1.0
 50
0.0
 71
0
 42
0.2
  3
arial.ttf
  4

  0
STYLE
  5
220
100
AcDbSymbolTableRecord
100
AcDbTextStyleTableRecord
  2
TEXTSTYLE_1
 70
0
 40
0.0
 41
0.8
 50
0.0
 71
0
 42
0.2
  3
gdt
  4

  0
STYLE
  5
221
100
AcDbSymbolTableRecord
100
AcDbTextStyleTableRecord
  2
TEXTSTYLE_2
 70
0
 40
0.0
 41
0.85
 50
0.0
 71
0
 42
0.2
  3
gdt
  4

  0
STYLE
  5
222
100
AcDbSymbolTableRecord
100
AcDbTextStyleTableRecord
  2
TEXTSTYLE_3
 70
0
 40
0.0
 41
0.85
 50
0.0
 71
0
 42
0.2
  3
txt
  4

  0
ENDTAB
  0
TABLE
  2
VIEW
  5
6
100
AcDbSymbolTable
 70
0
  0
ENDTAB
  0
TABLE
  2
UCS
  5
7
100
AcDbSymbolTable
 70
0
  0
ENDTAB
  0
TABLE
  2
APPID
  5
9
100
AcDbSymbolTable
 70
1
  0
APPID
  5
223
100
AcDbSymbolTableRecord
100
AcDbRegAppTableRecord
  2
ACAD
 70
0
  0
ENDTAB
  0
TABLE
  2
BLOCK_RECORD
  5
1
100
AcDbSymbolTable
 70
0
  0
BLOCK_RECORD
  5
1F
100
AcDbSymbolTableRecord
100
AcDbBlockTableRecord
  2
*MODEL_SPACE
  0
BLOCK_RECORD
  5
1B
100
AcDbSymbolTableRecord
100
AcDbBlockTableRecord
  2
*PAPER_SPACE
  0
BLOCK_RECORD
  5
224
100
AcDbSymbolTableRecord
100
AcDbBlockTableRecord
  2
_CLOSED
  0
BLOCK_RECORD
  5
225
100
AcDbSymbolTableRecord
100
AcDbBlockTableRecord
  2
*D0
  0
BLOCK_RECORD
  5
226
100
AcDbSymbolTableRecord
100
AcDbBlockTableRecord
  2
*D1
  0
BLOCK_RECORD
  5
227
100
AcDbSymbolTableRecord
100
AcDbBlockTableRecord
  2
*D2
  0
BLOCK_RECORD
  5
228
100
AcDbSymbolTableRecord
100
AcDbBlockTableRecord
  2
*D3
  0
BLOCK_RECORD
  5
229
100
AcDbSymbolTableRecord
100
AcDbBlockTableRecord
  2
*D4
  0
BLOCK_RECORD
  5
22A
100
AcDbSymbolTableRecord
100
AcDbBlockTableRecord
  2
*D5
  0
BLOCK_RECORD
  5
22B
100
AcDbSymbolTableRecord
100
AcDbBlockTableRecord
  2
*D6
  0
BLOCK_RECORD
  5
22C
100
AcDbSymbolTableRecord
100
AcDbBlockTableRecord
  2
*D7
  0
BLOCK_RECORD
  5
22D
100
AcDbSymbolTableRecord
100
AcDbBlockTableRecord
  2
LOGO2_BL0
  0
ENDTAB
  0
TABLE
  2
DIMSTYLE
  5
A
100
AcDbSymbolTable
 70
1
  0
DIMSTYLE
105
22E
100
AcDbSymbolTableRecord
100
AcDbDimStyleTableRecord
  2
STANDARD
 70
0
  3

  4

  5
_CLOSED
  6
_CLOSED
  7
_CLOSED
 40
1.0
 41
2.5
 42
0.75
 43
0.38
 44
0.75
 45
0.0
 46
0.0
 47
0.01
 48
0.01
140
3.0
141
0.09
142
0.0
143
25.4
144
1.0
145
0.0
146
1.0
147
0.625
 71
1.0
 72
0.0
 73
0
 74
0
 75
0
 76
0
 77
1
 78
8
 79
2
170
0
171
1
172
0
173
0
174
0
175
0
176
0
177
0
178
0
270
2
179
2
271
2
272
2
273
2
274
2
275
0
280
0
281
0
282
0
283
1
284
8
285
0
286
0
287
3
288
0
340
11
  0
DIMSTYLE
105
22F
100
AcDbSymbolTableRecord
100
AcDbDimStyleTableRecord
  2
DIMSTYLE_1
 70
0
  3
<>
  4

  5
_CLOSED
  6
_CLOSED
  7
_CLOSED
 40
1.0
 41
2.5
 42
0.75
 43
0.38
 44
0.75
 45
0.0
 46
0.0
 47
0.3
 48
0.3
140
3.0
141
0.09
142
0.0
143
25.4
144
1.0
145
0.0
146
1.0
147
0.625
 71
0.0
 72
0.0
 73
0
 74
0
 75
0
 76
0
 77
1
 78
8
 79
2
170
0
171
1
172
1
173
0
174
0
175
0
176
0
177
0
178
0
270
2
179
2
271
2
272
2
273
2
274
2
275
0
280
0
281
0
282
0
283
1
284
8
285
0
286
0
287
3
288
1
340
11
  0
DIMSTYLE
105
230
100
AcDbSymbolTableRecord
100
AcDbDimStyleTableRecord
  2
DIMSTYLE_2
 70
0
  3

  4

  5
_CLOSED
  6
_CLOSED
  7
_CLOSED
 40
1.0
 41
2.5
 42
0.75
 43
0.38
 44
0.75
 45
0.0
 46
0.0
 47
0.2
 48
0.2
140
3.0
141
0.09
142
0.0
143
25.4
144
1.0
145
0.0
146
1.0
147
0.75
 71
0.0
 72
0.0
 73
0
 74
0
 75
0
 76
0
 77
1
 78
8
 79
2
170
0
171
1
172
0
173
0
174
0
175
0
176
0
177
0
178
0
270
2
179
2
271
2
272
2
273
2
274
2
275
0
280
0
281
0
282
0
283
1
284
8
285
0
286
0
287
3
288
0
340
11
  0
DIMSTYLE
105
231
100
AcDbSymbolTableRecord
100
AcDbDimStyleTableRecord
  2
DIMSTYLE_3
 70
0
  3

  4

  5
_CLOSED
  6
_CLOSED
  7
_CLOSED
 40
1.0
 41
2.5
 42
0.75
 43
0.38
 44
0.75
 45
0.0
 46
0.0
 47
0.1
 48
0.1
140
3.0
141
0.09
142
0.0
143
25.4
144
1.0
145
0.0
146
1.0
147
0.75
 71
0.0
 72
0.0
 73
0
 74
0
 75
0
 76
0
 77
1
 78
8
 79
2
170
0
171
1
172
0
173
0
174
0
175
0
176
0
177
0
178
0
270
2
179
2
271
2
272
2
273
2
274
2
275
0
280
0
281
0
282
0
283
1
284
8
285
0
286
0
287
3
288
0
340
11
  0
ENDTAB
  0
ENDSEC
  0
SECTION
  2
BLOCKS
  0
BLOCK
  5
20
100
AcDbEntity
  8
0
100
AcDbBlockBegin
  2
*MODEL_SPACE
 70
0
 10
0.0
 20
0.0
 30
0.0
  3
*MODEL_SPACE
  1

  0
ENDBLK
  5
21
100
AcDbEntity
  8
0
100
AcDbBlockEnd
  0
BLOCK
  5
1C
100
AcDbEntity
  8
0
100
AcDbBlockBegin
  2
*PAPER_SPACE
 70
0
 10
0.0
 20
0.0
 30
0.0
  3
*PAPER_SPACE
  1

  0
ENDBLK
  5
1D
100
AcDbEntity
  8
0
100
AcDbBlockEnd
  0
BLOCK
  5
232
100
AcDbEntity
  8
0
100
AcDbBlockBegin
 62
2
  6
CONTINUOUS
  2
LOGO2_BL0
 70
64
 10
207.6164605391
 20
39.6725198453
  3
LOGO2_BL0
  1

  0
LINE
  5
233
100
AcDbEntity
  8
0
100
AcDbLine
 62
7
  6
CONTINUOUS
 10
199.3593857673
 20
42.8680111841
 11
198.055044838
 21
42.8680111841
  0
LINE
  5
234
100
AcDbEntity
  8
0
100
AcDbLine
 62
7
  6
CONTINUOUS
 10
198.055044838
 20
42.8680111841
 11
198.055044838
 21
32.4089451242
  0
LINE
  5
235
100
AcDbEntity
  8
0
100
AcDbLine
 62
7
  6
CONTINUOUS
 10
198.055044838
 20
32.4089451242
 11
202.5360997262
 21
32.4089451242
  0
LINE
  5
236
100
AcDbEntity
  8
0
100
AcDbLine
 62
7
  6
CONTINUOUS
 10
202.5360997262
 20
32.4089451242
 11
202.5360997262
 21
33.6017994493
  0
LINE
  5
237
100
AcDbEntity
  8
0
100
AcDbLine
 62
7
  6
CONTINUOUS
 10
202.5360997262
 20
33.6017994493
 11
199.3593857673
 21
33.6017994493
  0
LINE
  5
238
100
AcDbEntity
  8
0
100
AcDbLine
 62
7
  6
CONTINUOUS
 10
199.3593857673
 20
33.6017994493
 11
199.3593857673
 21
42.8680111841
  0
LINE
  5
239
100
AcDbEntity
  8
0
100
AcDbLine
 62
7
  6
CONTINUOUS
 10
214.2957119836
 20
42.8680111841
 11
212.9918944656
 21
42.8680111841
  0
LINE
  5
23A
100
AcDbEntity
  8
0
100
AcDbLine
 62
7
  6
CONTINUOUS
 10
212.9918944656
 20
42.8680111841
 11
212.9918944656
 21
32.4089451242
  0
LINE
  5
23B
100
AcDbEntity
  8
0
100
AcDbLine
 62
7
  6
CONTINUOUS
 10
212.9918944656
 20
32.4089451242
 11
217.4730802067
 21
32.4089451242
  0
LINE
  5
23C
100
AcDbEntity
  8
0
100
AcDbLine
 62
7
  6
CONTINUOUS
 10
217.4730802067
 20
32.4089451242
 11
217.4730802067
 21
33.6017994493
  0
LINE
  5
23D
100
AcDbEntity
  8
0
100
AcDbLine
 62
7
  6
CONTINUOUS
 10
217.4730802067
 20
33.6017994493
 11
214.2957119836
 21
33.6017994493
  0
LINE
  5
23E
100
AcDbEntity
  8
0
100
AcDbLine
 62
7
  6
CONTINUOUS
 10
214.2957119836
 20
33.6017994493
 11
214.2957119836
 21
42.8680111841
  0
LWPOLYLINE
  5
23F
100
AcDbEntity
  8
0
100
AcDbPolyline
 62
7
  6
CONTINUOUS
 90
2
 70
0
 43
0.2
 10
196.4094397489
 20
29.0653938173
 10
196.4094397489
 20
27.208330568
  0
LWPOLYLINE
  5
240
100
AcDbEntity
  8
0
100
AcDbPolyline
 62
7
  6
CONTINUOUS
 90
2
 70
0
 43
0.2
 10
196.4094397489
 20
27.208330568
 10
197.2051557593
 20
27.208330568
  0
LWPOLYLINE
  5
241
100
AcDbEntity
  8
0
100
AcDbPolyline
 62
7
  6
CONTINUOUS
 90
2
 70
0
 43
0.2
 10
197.2051557593
 20
27.208330568
 10
197.2051557593
 20
27.4203121396
  0
LWPOLYLINE
  5
242
100
AcDbEntity
  8
0
100
AcDbPolyline
 62
7
  6
CONTINUOUS
 90
2
 70
0
 43
0.2
 10
197.2051557593
 20
27.4203121396
 10
196.6410492438
 20
27.4203121396
  0
LWPOLYLINE
  5
243
100
AcDbEntity
  8
0
100
AcDbPolyline
 62
7
  6
CONTINUOUS
 90
2
 70
0
 43
0.2
 10
196.6410492438
 20
27.4203121396
 10
196.6410492438
 20
29.0653938173
  0
LWPOLYLINE
  5
244
100
AcDbEntity
  8
0
100
AcDbPolyline
 62
7
  6
CONTINUOUS
 90
2
 70
0
 43
0.2
 10
196.6410492438
 20
29.0653938173
 10
196.4094397489
 20
29.0653938173
  0
SPLINE
  5
245
100
AcDbEntity
  8
0
100
AcDbSpline
 62
7
  6
CONTINUOUS
 70
2
 71
3
 72
35
 73
31
 74
0
 42
0.0000001
 43
0.0000001
 44
0.0000000001
 40
0.0
 40
0.0
 40
0.0
 40
0.0
 40
1.0
 40
1.0
 40
1.0
 40
2.0
 40
2.0
 40
2.0
 40
3.0
 40
3.0
 40
3.0
 40
4.0
 40
4.0
 40
4.0
 40
5.0
 40
5.0
 40
5.0
 40
6.0
 40
6.0
 40
6.0
 40
7.0
 40
7.0
 40
7.0
 40
8.0
 40
8.0
 40
8.0
 40
9.0
 40
9.0
 40
9.0
 40
10.0
 40
10.0
 40
10.0
 40
10.0
 10
198.6034490148
 20
28.3608822239
 30
0.0
 10
198.6034490148
 20
28.3608822239
 30
0.0
 10
198.6034490148
 20
27.6987669447
 30
0.0
 10
198.6034490148
 20
27.6987669447
 30
0.0
 10
198.6034490148
 20
27.3836733494
 30
0.0
 10
198.7513127037
 20
27.1690747214
 30
0.0
 10
199.0913991879
 20
27.1690747214
 30
0.0
 10
199.430962261
 20
27.1690747214
 30
0.0
 10
199.5790876554
 20
27.3836733494
 30
0.0
 10
199.5790876554
 20
27.6987669447
 30
0.0
 10
199.5790876554
 20
27.6987669447
 30
0.0
 10
199.5790876554
 20
28.3608822239
 30
0.0
 10
199.5790876554
 20
28.3608822239
 30
0.0
 10
199.5790876554
 20
28.3608822239
 30
0.0
 10
199.3570304165
 20
28.3608822239
 30
0.0
 10
199.3570304165
 20
28.3608822239
 30
0.0
 10
199.3570304165
 20
28.3608822239
 30
0.0
 10
199.3570304165
 20
27.7238906865
 30
0.0
 10
199.3570304165
 20
27.7238906865
 30
0.0
 10
199.3570304165
 20
27.5380796793
 30
0.0
 10
199.3103159591
 20
27.3752987688
 30
0.0
 10
199.0913991879
 20
27.3752987688
 30
0.0
 10
198.8719590055
 20
27.3752987688
 30
0.0
 10
198.8252445481
 20
27.5380796793
 30
0.0
 10
198.8252445481
 20
27.7238906865
 30
0.0
 10
198.8252445481
 20
27.7238906865
 30
0.0
 10
198.8252445481
 20
28.3608822239
 30
0.0
 10
198.8252445481
 20
28.3608822239
 30
0.0
 10
198.8252445481
 20
28.3608822239
 30
0.0
 10
198.6034490148
 20
28.3608822239
 30
0.0
 10
198.6034490148
 20
28.3608822239
 30
0.0
  0
SPLINE
  5
246
100
AcDbEntity
  8
0
100
AcDbSpline
 62
7
  6
CONTINUOUS
 70
2
 71
3
 72
35
 73
31
 74
0
 42
0.0000001
 43
0.0000001
 44
0.0000000001
 40
0.0
 40
0.0
 40
0.0
 40
0.0
 40
1.0
 40
1.0
 40
1.0
 40
2.0
 40
2.0
 40
2.0
 40
3.0
 40
3.0
 40
3.0
 40
4.0
 40
4.0
 40
4.0
 40
5.0
 40
5.0
 40
5.0
 40
6.0
 40
6.0
 40
6.0
 40
7.0
 40
7.0
 40
7.0
 40
8.0
 40
8.0
 40
8.0
 40
9.0
 40
9.0
 40
9.0
 40
10.0
 40
10.0
 40
10.0
 40
10.0
 10
202.0022202126
 20
28.3195327321
 30
0.0
 10
201.913763705
 20
28.3708270383
 30
0.0
 10
201.8003143083
 20
28.3959507801
 30
0.0
 10
201.6966788733
 20
28.3959507801
 30
0.0
 10
201.3418060201
 20
28.3959507801
 30
0.0
 10
201.0663608299
 20
28.1321514911
 30
0.0
 10
201.0663608299
 20
27.7746615814
 30
0.0
 10
201.0663608299
 20
27.4297335427
 30
0.0
 10
201.344815635
 20
27.1695981327
 30
0.0
 10
201.6843787081
 20
27.1695981327
 30
0.0
 10
201.8003143083
 20
27.1695981327
 30
0.0
 10
201.9010709812
 20
27.1915814068
 30
0.0
 10
202.0022202126
 20
27.2454927694
 30
0.0
 10
202.0022202126
 20
27.2454927694
 30
0.0
 10
202.0022202126
 20
27.5281348649
 30
0.0
 10
202.0022202126
 20
27.5281348649
 30
0.0
 10
201.9183435537
 20
27.4349676556
 30
0.0
 10
201.8148389716
 20
27.3758221801
 30
0.0
 10
201.6867340588
 20
27.3758221801
 30
0.0
 10
201.4530309188
 20
27.3758221801
 30
0.0
 10
201.2877638047
 20
27.5480244938
 30
0.0
 10
201.2877638047
 20
27.7846063959
 30
0.0
 10
201.2877638047
 20
27.9965879675
 30
0.0
 10
201.4555171224
 20
28.1886799102
 30
0.0
 10
201.6723402484
 20
28.1886799102
 30
0.0
 10
201.8051558627
 20
28.1886799102
 30
0.0
 10
201.913763705
 20
28.1347685475
 30
0.0
 10
202.0022202126
 20
28.0337501689
 30
0.0
 10
202.0022202126
 20
28.0337501689
 30
0.0
 10
202.0022202126
 20
28.3195327321
 30
0.0
 10
202.0022202126
 20
28.3195327321
 30
0.0
  0
SPLINE
  5
247
100
AcDbEntity
  8
0
100
AcDbSpline
 62
7
  6
CONTINUOUS
 70
2
 71
3
 72
32
 73
28
 74
0
 42
0.0000001
 43
0.0000001
 44
0.0000000001
 40
0.0
 40
0.0
 40
0.0
 40
0.0
 40
1.0
 40
1.0
 40
1.0
 40
2.0
 40
2.0
 40
2.0
 40
3.0
 40
3.0
 40
3.0
 40
4.0
 40
4.0
 40
4.0
 40
5.0
 40
5.0
 40
5.0
 40
6.0
 40
6.0
 40
6.0
 40
7.0
 40
7.0
 40
7.0
 40
8.0
 40
8.0
 40
8.0
 40
9.0
 40
9.0
 40
9.0
 40
9.0
 10
204.5340914649
 20
27.7479676058
 30
0.0
 10
204.5340914649
 20
27.7479676058
 30
0.0
 10
204.5340914649
 20
27.7819893395
 30
0.0
 10
204.5340914649
 20
27.7819893395
 30
0.0
 10
204.5340914649
 20
28.1243003217
 30
0.0
 10
204.361234887
 20
28.3959507801
 30
0.0
 10
203.9945852799
 20
28.3959507801
 30
0.0
 10
203.6229632655
 20
28.3959507801
 30
0.0
 10
203.4332266736
 20
28.1295344346
 30
0.0
 10
203.4332266736
 20
27.7746615814
 30
0.0
 10
203.4332266736
 20
27.4349676556
 30
0.0
 10
203.6473018904
 20
27.1690747214
 30
0.0
 10
203.9994268343
 20
27.1690747214
 30
0.0
 10
204.2234468655
 20
27.1690747214
 30
0.0
 10
204.4256144755
 20
27.284748616
 30
0.0
 10
204.5340914649
 20
27.4841683167
 30
0.0
 10
204.5340914649
 20
27.4841683167
 30
0.0
 10
204.3464485182
 20
27.5909442194
 30
0.0
 10
204.3464485182
 20
27.5909442194
 30
0.0
 10
204.2629644177
 20
27.4522402281
 30
0.0
 10
204.1717600008
 20
27.3664007769
 30
0.0
 10
204.0021747436
 20
27.3664007769
 30
0.0
 10
203.790193172
 20
27.3664007769
 30
0.0
 10
203.6572467049
 20
27.5511649615
 30
0.0
 10
203.6548913541
 20
27.7479676058
 30
0.0
 10
203.6548913541
 20
27.7479676058
 30
0.0
 10
204.5340914649
 20
27.7479676058
 30
0.0
 10
204.5340914649
 20
27.7479676058
 30
0.0
  0
SPLINE
  5
248
100
AcDbEntity
  8
0
100
AcDbSpline
 62
7
  6
CONTINUOUS
 70
2
 71
3
 72
14
 73
10
 74
0
 42
0.0000001
 43
0.0000001
 44
0.0000000001
 40
0.0
 40
0.0
 40
0.0
 40
0.0
 40
1.0
 40
1.0
 40
1.0
 40
2.0
 40
2.0
 40
2.0
 40
3.0
 40
3.0
 40
3.0
 40
3.0
 10
203.6669298137
 20
27.9154592179
 30
0.0
 10
203.6945397591
 20
28.0803337736
 30
0.0
 10
203.8223829662
 20
28.2033354262
 30
0.0
 10
203.9945852799
 20
28.2033354262
 30
0.0
 10
204.1717600008
 20
28.2033354262
 30
0.0
 10
204.2852093975
 20
28.0876615316
 30
0.0
 10
204.3124267844
 20
27.9154592179
 30
0.0
 10
204.3124267844
 20
27.9154592179
 30
0.0
 10
203.6669298137
 20
27.9154592179
 30
0.0
 10
203.6669298137
 20
27.9154592179
 30
0.0
  0
SPLINE
  5
249
100
AcDbEntity
  8
0
100
AcDbSpline
 62
7
  6
CONTINUOUS
 70
2
 71
3
 72
20
 73
16
 74
0
 42
0.0000001
 43
0.0000001
 44
0.0000000001
 40
0.0
 40
0.0
 40
0.0
 40
0.0
 40
1.0
 40
1.0
 40
1.0
 40
2.0
 40
2.0
 40
2.0
 40
3.0
 40
3.0
 40
3.0
 40
4.0
 40
4.0
 40
4.0
 40
5.0
 40
5.0
 40
5.0
 40
5.0
 10
206.5581229151
 20
28.124823733
 30
0.0
 10
206.5581229151
 20
28.124823733
 30
0.0
 10
206.9692624817
 20
27.6223488967
 30
0.0
 10
206.9692624817
 20
27.6223488967
 30
0.0
 10
206.8531960286
 20
27.5066750021
 30
0.0
 10
206.7154080071
 20
27.3763455914
 30
0.0
 10
206.543467399
 20
27.3763455914
 30
0.0
 10
206.3660309724
 20
27.3763455914
 30
0.0
 10
206.1985393603
 20
27.5406967358
 30
0.0
 10
206.1985393603
 20
27.7176097511
 30
0.0
 10
206.1985393603
 20
27.8955695889
 30
0.0
 10
206.4082964339
 20
28.0217117093
 30
0.0
 10
206.5358779353
 20
28.1096448057
 30
0.0
 10
206.5358779353
 20
28.1096448057
 30
0.0
 10
206.5581229151
 20
28.124823733
 30
0.0
 10
206.5581229151
 20
28.124823733
 30
0.0
  0
SPLINE
  5
24A
100
AcDbEntity
  8
0
100
AcDbSpline
 62
7
  6
CONTINUOUS
 70
2
 71
3
 72
23
 73
19
 74
0
 42
0.0000001
 43
0.0000001
 44
0.0000000001
 40
0.0
 40
0.0
 40
0.0
 40
0.0
 40
1.0
 40
1.0
 40
1.0
 40
2.0
 40
2.0
 40
2.0
 40
3.0
 40
3.0
 40
3.0
 40
4.0
 40
4.0
 40
4.0
 40
5.0
 40
5.0
 40
5.0
 40
6.0
 40
6.0
 40
6.0
 40
6.0
 10
206.6074544289
 20
28.4158404091
 30
0.0
 10
206.6074544289
 20
28.4158404091
 30
0.0
 10
206.5458227498
 20
28.4943521023
 30
0.0
 10
206.5458227498
 20
28.4943521023
 30
0.0
 10
206.4919113871
 20
28.562918981
 30
0.0
 10
206.4351212624
 20
28.632009271
 30
0.0
 10
206.4351212624
 20
28.7256998915
 30
0.0
 10
206.4351212624
 20
28.8445142539
 30
0.0
 10
206.5310363809
 20
28.9219791245
 30
0.0
 10
206.6419995739
 20
28.9219791245
 30
0.0
 10
206.7652629322
 20
28.9219791245
 30
0.0
 10
206.8585609943
 20
28.8507951893
 30
0.0
 10
206.8585609943
 20
28.7204657786
 30
0.0
 10
206.8585609943
 20
28.5854256664
 30
0.0
 10
206.7304560816
 20
28.5090076183
 30
0.0
 10
206.6368963139
 20
28.4352066267
 30
0.0
 10
206.6368963139
 20
28.4352066267
 30
0.0
 10
206.6074544289
 20
28.4158404091
 30
0.0
 10
206.6074544289
 20
28.4158404091
 30
0.0
  0
SPLINE
  5
24B
100
AcDbEntity
  8
0
100
AcDbSpline
 62
7
  6
CONTINUOUS
 70
2
 71
3
 72
50
 73
46
 74
0
 42
0.0000001
 43
0.0000001
 44
0.0000000001
 40
0.0
 40
0.0
 40
0.0
 40
0.0
 40
1.0
 40
1.0
 40
1.0
 40
2.0
 40
2.0
 40
2.0
 40
3.0
 40
3.0
 40
3.0
 40
4.0
 40
4.0
 40
4.0
 40
5.0
 40
5.0
 40
5.0
 40
6.0
 40
6.0
 40
6.0
 40
7.0
 40
7.0
 40
7.0
 40
8.0
 40
8.0
 40
8.0
 40
9.0
 40
9.0
 40
9.0
 40
10.0
 40
10.0
 40
10.0
 40
11.0
 40
11.0
 40
11.0
 40
12.0
 40
12.0
 40
12.0
 40
13.0
 40
13.0
 40
13.0
 40
14.0
 40
14.0
 40
14.0
 40
15.0
 40
15.0
 40
15.0
 40
15.0
 10
207.3096106716
 20
27.2088539793
 30
0.0
 10
207.3096106716
 20
27.2088539793
 30
0.0
 10
207.5950006763
 20
27.2088539793
 30
0.0
 10
207.5950006763
 20
27.2088539793
 30
0.0
 10
207.5950006763
 20
27.2088539793
 30
0.0
 10
207.2626345085
 20
27.6197318402
 30
0.0
 10
207.2626345085
 20
27.6197318402
 30
0.0
 10
207.2626345085
 20
27.6197318402
 30
0.0
 10
207.4891407434
 20
27.8856247745
 30
0.0
 10
207.4891407434
 20
27.8856247745
 30
0.0
 10
207.4891407434
 20
27.8856247745
 30
0.0
 10
207.3408844961
 20
28.0384608705
 30
0.0
 10
207.3408844961
 20
28.0384608705
 30
0.0
 10
207.3408844961
 20
28.0384608705
 30
0.0
 10
207.1249773398
 20
27.7872234524
 30
0.0
 10
207.1249773398
 20
27.7872234524
 30
0.0
 10
207.1249773398
 20
27.7872234524
 30
0.0
 10
206.7379146924
 20
28.2551531437
 30
0.0
 10
206.7379146924
 20
28.2551531437
 30
0.0
 10
206.8933678449
 20
28.3692568045
 30
0.0
 10
207.0756458259
 20
28.5090076183
 30
0.0
 10
207.0756458259
 20
28.7183721335
 30
0.0
 10
207.0756458259
 20
28.9622817936
 30
0.0
 10
206.8736090688
 20
29.1056964865
 30
0.0
 10
206.647102834
 20
29.1056964865
 30
0.0
 10
206.4029314682
 20
29.1056964865
 30
0.0
 10
206.2185598421
 20
28.9549540356
 30
0.0
 10
206.2185598421
 20
28.6984825045
 30
0.0
 10
206.2185598421
 20
28.5409357069
 30
0.0
 10
206.3172228698
 20
28.4032785382
 30
0.0
 10
206.4225593915
 20
28.2923153452
 30
0.0
 10
206.4225593915
 20
28.2923153452
 30
0.0
 10
206.3070163497
 20
28.2085695391
 30
0.0
 10
206.3070163497
 20
28.2085695391
 30
0.0
 10
206.1293182175
 20
28.0803337736
 30
0.0
 10
205.9819779399
 20
27.9526214193
 30
0.0
 10
205.9819779399
 20
27.7155161059
 30
0.0
 10
205.9819779399
 20
27.3951883977
 30
0.0
 10
206.2405431161
 20
27.1690747214
 30
0.0
 10
206.5509260098
 20
27.1690747214
 30
0.0
 10
206.769842781
 20
27.1690747214
 30
0.0
 10
206.9670379837
 20
27.2941700192
 30
0.0
 10
207.1073122089
 20
27.4600913974
 30
0.0
 10
207.1073122089
 20
27.4600913974
 30
0.0
 10
207.3096106716
 20
27.2088539793
 30
0.0
 10
207.3096106716
 20
27.2088539793
 30
0.0
  0
LWPOLYLINE
  5
24C
100
AcDbEntity
  8
0
100
AcDbPolyline
 62
7
  6
CONTINUOUS
 90
2
 70
0
 43
0.2
 10
209.2450547613
 20
29.0653938173
 10
209.0137069721
 20
29.0653938173
  0
LWPOLYLINE
  5
24D
100
AcDbEntity
  8
0
100
AcDbPolyline
 62
7
  6
CONTINUOUS
 90
2
 70
0
 43
0.2
 10
209.0137069721
 20
29.0653938173
 10
209.0137069721
 20
27.208330568
  0
LWPOLYLINE
  5
24E
100
AcDbEntity
  8
0
100
AcDbPolyline
 62
7
  6
CONTINUOUS
 90
2
 70
0
 43
0.2
 10
209.0137069721
 20
27.208330568
 10
209.809030424
 20
27.208330568
  0
LWPOLYLINE
  5
24F
100
AcDbEntity
  8
0
100
AcDbPolyline
 62
7
  6
CONTINUOUS
 90
2
 70
0
 43
0.2
 10
209.809030424
 20
27.208330568
 10
209.809030424
 20
27.4203121396
  0
LWPOLYLINE
  5
250
100
AcDbEntity
  8
0
100
AcDbPolyline
 62
7
  6
CONTINUOUS
 90
2
 70
0
 43
0.2
 10
209.809030424
 20
27.4203121396
 10
209.2450547613
 20
27.4203121396
  0
LWPOLYLINE
  5
251
100
AcDbEntity
  8
0
100
AcDbPolyline
 62
7
  6
CONTINUOUS
 90
2
 70
0
 43
0.2
 10
209.2450547613
 20
27.4203121396
 10
209.2450547613
 20
29.0653938173
  0
LWPOLYLINE
  5
252
100
AcDbEntity
  8
0
100
AcDbPolyline
 62
7
  6
CONTINUOUS
 90
2
 70
0
 43
0.2
 10
211.4881338355
 20
28.3608822239
 10
211.2669925664
 20
28.3608822239
  0
LWPOLYLINE
  5
253
100
AcDbEntity
  8
0
100
AcDbPolyline
 62
7
  6
CONTINUOUS
 90
2
 70
0
 43
0.2
 10
211.2669925664
 20
28.3608822239
 10
211.2669925664
 20
27.2088539793
  0
LWPOLYLINE
  5
254
100
AcDbEntity
  8
0
100
AcDbPolyline
 62
7
  6
CONTINUOUS
 90
2
 70
0
 43
0.2
 10
211.2669925664
 20
27.2088539793
 10
211.4881338355
 20
27.2088539793
  0
LWPOLYLINE
  5
255
100
AcDbEntity
  8
0
100
AcDbPolyline
 62
7
  6
CONTINUOUS
 90
2
 70
0
 43
0.2
 10
211.4881338355
 20
27.2088539793
 10
211.4881338355
 20
28.3608822239
  0
SPLINE
  5
256
100
AcDbEntity
  8
0
100
AcDbSpline
 62
7
  6
CONTINUOUS
 70
2
 71
3
 72
17
 73
13
 74
0
 42
0.0000001
 43
0.0000001
 44
0.0000000001
 40
0.0
 40
0.0
 40
0.0
 40
0.0
 40
1.0
 40
1.0
 40
1.0
 40
2.0
 40
2.0
 40
2.0
 40
3.0
 40
3.0
 40
3.0
 40
4.0
 40
4.0
 40
4.0
 40
4.0
 10
211.3776940538
 20
29.0434105432
 30
0.0
 10
211.2936865421
 20
29.0434105432
 30
0.0
 10
211.2251196633
 20
28.9743202532
 30
0.0
 10
211.2251196633
 20
28.888480802
 30
0.0
 10
211.2251196633
 20
28.8042115847
 30
0.0
 10
211.2936865421
 20
28.7382617624
 30
0.0
 10
211.3776940538
 20
28.7382617624
 30
0.0
 10
211.4614398598
 20
28.7382617624
 30
0.0
 10
211.5302684442
 20
28.8042115847
 30
0.0
 10
211.5302684442
 20
28.888480802
 30
0.0
 10
211.5302684442
 20
28.9743202532
 30
0.0
 10
211.4614398598
 20
29.0434105432
 30
0.0
 10
211.3776940538
 20
29.0434105432
 30
0.0
  0
SPLINE
  5
257
100
AcDbEntity
  8
0
100
AcDbSpline
 62
7
  6
CONTINUOUS
 70
2
 71
3
 72
17
 73
13
 74
0
 42
0.0000001
 43
0.0000001
 44
0.0000000001
 40
0.0
 40
0.0
 40
0.0
 40
0.0
 40
1.0
 40
1.0
 40
1.0
 40
2.0
 40
2.0
 40
2.0
 40
3.0
 40
3.0
 40
3.0
 40
4.0
 40
4.0
 40
4.0
 40
4.0
 10
213.6184177771
 20
27.3664007769
 30
0.0
 10
213.3844529315
 20
27.3664007769
 30
0.0
 10
213.2541235208
 20
27.568437534
 30
0.0
 10
213.2541235208
 20
27.7846063959
 30
0.0
 10
213.2541235208
 20
27.9992050239
 30
0.0
 10
213.38994875
 20
28.1981013133
 30
0.0
 10
213.6184177771
 20
28.1981013133
 30
0.0
 10
213.8578784413
 20
28.1981013133
 30
0.0
 10
213.9934419649
 20
28.0091498384
 30
0.0
 10
213.9934419649
 20
27.7846063959
 30
0.0
 10
213.9934419649
 20
27.5584927196
 30
0.0
 10
213.8602337921
 20
27.3664007769
 30
0.0
 10
213.6184177771
 20
27.3664007769
 30
0.0
  0
SPLINE
  5
258
100
AcDbEntity
  8
0
100
AcDbSpline
 62
7
  6
CONTINUOUS
 70
2
 71
3
 72
50
 73
46
 74
0
 42
0.0000001
 43
0.0000001
 44
0.0000000001
 40
0.0
 40
0.0
 40
0.0
 40
0.0
 40
1.0
 40
1.0
 40
1.0
 40
2.0
 40
2.0
 40
2.0
 40
3.0
 40
3.0
 40
3.0
 40
4.0
 40
4.0
 40
4.0
 40
5.0
 40
5.0
 40
5.0
 40
6.0
 40
6.0
 40
6.0
 40
7.0
 40
7.0
 40
7.0
 40
8.0
 40
8.0
 40
8.0
 40
9.0
 40
9.0
 40
9.0
 40
10.0
 40
10.0
 40
10.0
 40
11.0
 40
11.0
 40
11.0
 40
12.0
 40
12.0
 40
12.0
 40
13.0
 40
13.0
 40
13.0
 40
14.0
 40
14.0
 40
14.0
 40
15.0
 40
15.0
 40
15.0
 40
15.0
 10
214.2025447744
 20
28.3614056352
 30
0.0
 10
214.2025447744
 20
28.3614056352
 30
0.0
 10
213.980880094
 20
28.3614056352
 30
0.0
 10
213.980880094
 20
28.3614056352
 30
0.0
 10
213.980880094
 20
28.3614056352
 30
0.0
 10
213.980880094
 20
28.1640795796
 30
0.0
 10
213.980880094
 20
28.1640795796
 30
0.0
 10
213.980880094
 20
28.1640795796
 30
0.0
 10
213.9761693924
 20
28.1640795796
 30
0.0
 10
213.9761693924
 20
28.1640795796
 30
0.0
 10
213.8848341227
 20
28.3069708612
 30
0.0
 10
213.7469152483
 20
28.3954273689
 30
0.0
 10
213.5741895233
 20
28.3954273689
 30
0.0
 10
213.2418233555
 20
28.3954273689
 30
0.0
 10
213.032720546
 20
28.1075511605
 30
0.0
 10
213.032720546
 20
27.7919341539
 30
0.0
 10
213.032720546
 20
27.4621850426
 30
0.0
 10
213.2297848959
 20
27.1690747214
 30
0.0
 10
213.5846577491
 20
27.1690747214
 30
0.0
 10
213.7469152483
 20
27.1690747214
 30
0.0
 10
213.8869277678
 20
27.257531229
 30
0.0
 10
213.9761693924
 20
27.388384051
 30
0.0
 10
213.9761693924
 20
27.388384051
 30
0.0
 10
213.980880094
 20
27.388384051
 30
0.0
 10
213.980880094
 20
27.388384051
 30
0.0
 10
213.980880094
 20
27.388384051
 30
0.0
 10
213.980880094
 20
27.1690747214
 30
0.0
 10
213.980880094
 20
27.1690747214
 30
0.0
 10
213.980880094
 20
26.9324928193
 30
0.0
 10
213.9243516749
 20
26.7456349895
 30
0.0
 10
213.6511309826
 20
26.7456349895
 30
0.0
 10
213.4488325199
 20
26.7456349895
 30
0.0
 10
213.3062029439
 20
26.8639259406
 30
0.0
 10
213.3062029439
 20
27.070149988
 30
0.0
 10
213.3062029439
 20
27.070149988
 30
0.0
 10
213.0845382635
 20
27.070149988
 30
0.0
 10
213.0845382635
 20
27.070149988
 30
0.0
 10
213.0895106707
 20
26.7456349895
 30
0.0
 10
213.3205967543
 20
26.5488323453
 30
0.0
 10
213.6409244625
 20
26.5488323453
 30
0.0
 10
214.0889645249
 20
26.5488323453
 30
0.0
 10
214.2025447744
 20
26.8340914971
 30
0.0
 10
214.2025447744
 20
27.2308372534
 30
0.0
 10
214.2025447744
 20
27.2308372534
 30
0.0
 10
214.2025447744
 20
28.3614056352
 30
0.0
 10
214.2025447744
 20
28.3614056352
 30
0.0
  0
SPLINE
  5
259
100
AcDbEntity
  8
0
100
AcDbSpline
 62
7
  6
CONTINUOUS
 70
2
 71
3
 72
44
 73
40
 74
0
 42
0.0000001
 43
0.0000001
 44
0.0000000001
 40
0.0
 40
0.0
 40
0.0
 40
0.0
 40
1.0
 40
1.0
 40
1.0
 40
2.0
 40
2.0
 40
2.0
 40
3.0
 40
3.0
 40
3.0
 40
4.0
 40
4.0
 40
4.0
 40
5.0
 40
5.0
 40
5.0
 40
6.0
 40
6.0
 40
6.0
 40
7.0
 40
7.0
 40
7.0
 40
8.0
 40
8.0
 40
8.0
 40
9.0
 40
9.0
 40
9.0
 40
10.0
 40
10.0
 40
10.0
 40
11.0
 40
11.0
 40
11.0
 40
12.0
 40
12.0
 40
12.0
 40
13.0
 40
13.0
 40
13.0
 40
13.0
 10
215.7714701098
 20
29.3464656789
 30
0.0
 10
215.7714701098
 20
29.3464656789
 30
0.0
 10
215.7714701098
 20
27.208330568
 30
0.0
 10
215.7714701098
 20
27.208330568
 30
0.0
 10
215.7714701098
 20
27.208330568
 30
0.0
 10
215.9928730846
 20
27.208330568
 30
0.0
 10
215.9928730846
 20
27.208330568
 30
0.0
 10
215.9928730846
 20
27.208330568
 30
0.0
 10
215.9928730846
 20
27.7380227913
 30
0.0
 10
215.9928730846
 20
27.7380227913
 30
0.0
 10
215.9928730846
 20
27.9479107177
 30
0.0
 10
215.9928730846
 20
28.1986247246
 30
0.0
 10
216.2781322364
 20
28.1986247246
 30
0.0
 10
216.5050310297
 20
28.1986247246
 30
0.0
 10
216.5319867111
 20
28.0656782575
 30
0.0
 10
216.5319867111
 20
27.8693990246
 30
0.0
 10
216.5319867111
 20
27.8693990246
 30
0.0
 10
216.5319867111
 20
27.208330568
 30
0.0
 10
216.5319867111
 20
27.208330568
 30
0.0
 10
216.5319867111
 20
27.208330568
 30
0.0
 10
216.7539130971
 20
27.208330568
 30
0.0
 10
216.7539130971
 20
27.208330568
 30
0.0
 10
216.7539130971
 20
27.208330568
 30
0.0
 10
216.7539130971
 20
27.8955695889
 30
0.0
 10
216.7539130971
 20
27.8955695889
 30
0.0
 10
216.7539130971
 20
28.1761180392
 30
0.0
 10
216.6699055854
 20
28.3959507801
 30
0.0
 10
216.3448671757
 20
28.3959507801
 30
0.0
 10
216.2051163618
 20
28.3959507801
 30
0.0
 10
216.0669357818
 20
28.3294775466
 30
0.0
 10
215.9975837861
 20
28.2064758939
 30
0.0
 10
215.9975837861
 20
28.2064758939
 30
0.0
 10
215.9928730846
 20
28.2064758939
 30
0.0
 10
215.9928730846
 20
28.2064758939
 30
0.0
 10
215.9928730846
 20
28.2064758939
 30
0.0
 10
215.9928730846
 20
29.3464656789
 30
0.0
 10
215.9928730846
 20
29.3464656789
 30
0.0
 10
215.9928730846
 20
29.3464656789
 30
0.0
 10
215.7714701098
 20
29.3464656789
 30
0.0
 10
215.7714701098
 20
29.3464656789
 30
0.0
  0
LWPOLYLINE
  5
25A
100
AcDbEntity
  8
0
100
AcDbPolyline
 62
7
  6
CONTINUOUS
 90
2
 70
0
 43
0.2
 10
218.593703774
 20
28.1541347652
 10
218.8101343415
 20
28.1541347652
  0
LWPOLYLINE
  5
25B
100
AcDbEntity
  8
0
100
AcDbPolyline
 62
7
  6
CONTINUOUS
 90
2
 70
0
 43
0.2
 10
218.8101343415
 20
28.1541347652
 10
218.8101343415
 20
28.3608822239
  0
LWPOLYLINE
  5
25C
100
AcDbEntity
  8
0
100
AcDbPolyline
 62
7
  6
CONTINUOUS
 90
2
 70
0
 43
0.2
 10
218.8101343415
 20
28.3608822239
 10
218.593703774
 20
28.3608822239
  0
LWPOLYLINE
  5
25D
100
AcDbEntity
  8
0
100
AcDbPolyline
 62
7
  6
CONTINUOUS
 90
2
 70
0
 43
0.2
 10
218.593703774
 20
28.3608822239
 10
218.593703774
 20
28.8015945282
  0
LWPOLYLINE
  5
25E
100
AcDbEntity
  8
0
100
AcDbPolyline
 62
7
  6
CONTINUOUS
 90
2
 70
0
 43
0.2
 10
218.593703774
 20
28.8015945282
 10
218.3720390936
 20
28.8015945282
  0
LWPOLYLINE
  5
25F
100
AcDbEntity
  8
0
100
AcDbPolyline
 62
7
  6
CONTINUOUS
 90
2
 70
0
 43
0.2
 10
218.3720390936
 20
28.8015945282
 10
218.3720390936
 20
28.3608822239
  0
LWPOLYLINE
  5
260
100
AcDbEntity
  8
0
100
AcDbPolyline
 62
7
  6
CONTINUOUS
 90
2
 70
0
 43
0.2
 10
218.3720390936
 20
28.3608822239
 10
218.2513927917
 20
28.3608822239
  0
LWPOLYLINE
  5
261
100
AcDbEntity
  8
0
100
AcDbPolyline
 62
7
  6
CONTINUOUS
 90
2
 70
0
 43
0.2
 10
218.2513927917
 20
28.3608822239
 10
218.2513927917
 20
28.1541347652
  0
LWPOLYLINE
  5
262
100
AcDbEntity
  8
0
100
AcDbPolyline
 62
7
  6
CONTINUOUS
 90
2
 70
0
 43
0.2
 10
218.2513927917
 20
28.1541347652
 10
218.3720390936
 20
28.1541347652
  0
LWPOLYLINE
  5
263
100
AcDbEntity
  8
0
100
AcDbPolyline
 62
7
  6
CONTINUOUS
 90
2
 70
0
 43
0.2
 10
218.3720390936
 20
28.1541347652
 10
218.3720390936
 20
27.208330568
  0
LWPOLYLINE
  5
264
100
AcDbEntity
  8
0
100
AcDbPolyline
 62
7
  6
CONTINUOUS
 90
2
 70
0
 43
0.2
 10
218.3720390936
 20
27.208330568
 10
218.593703774
 20
27.208330568
  0
LWPOLYLINE
  5
265
100
AcDbEntity
  8
0
100
AcDbPolyline
 62
7
  6
CONTINUOUS
 90
2
 70
0
 43
0.2
 10
218.593703774
 20
27.208330568
 10
218.593703774
 20
28.1541347652
  0
SPLINE
  5
266
100
AcDbEntity
  8
0
100
AcDbSpline
 62
7
  6
CONTINUOUS
 70
2
 71
3
 72
20
 73
16
 74
0
 42
0.0000001
 43
0.0000001
 44
0.0000000001
 40
0.0
 40
0.0
 40
0.0
 40
0.0
 40
1.0
 40
1.0
 40
1.0
 40
2.0
 40
2.0
 40
2.0
 40
3.0
 40
3.0
 40
3.0
 40
4.0
 40
4.0
 40
4.0
 40
5.0
 40
5.0
 40
5.0
 40
5.0
 10
206.3757140812
 20
37.5692570114
 30
0.0
 10
206.3757140812
 20
37.5692570114
 30
0.0
 10
208.6920707357
 20
34.7396955891
 30
0.0
 10
208.6920707357
 20
34.7396955891
 30
0.0
 10
208.0404236823
 20
34.0875251244
 30
0.0
 10
207.2635504783
 20
33.3516088537
 30
0.0
 10
206.2923608336
 20
33.3516088537
 30
0.0
 10
205.2938229492
 20
33.3516088537
 30
0.0
 10
204.3505049556
 20
34.281187301
 30
0.0
 10
204.3505049556
 20
35.2803794495
 30
0.0
 10
204.3505049556
 20
36.279571598
 30
0.0
 10
205.5293580287
 20
36.9861768367
 30
0.0
 10
206.2508804891
 20
37.4860346166
 30
0.0
 10
206.2508804891
 20
37.4860346166
 30
0.0
 10
206.3757140812
 20
37.5692570114
 30
0.0
 10
206.3757140812
 20
37.5692570114
 30
0.0
  0
SPLINE
  5
267
100
AcDbEntity
  8
0
100
AcDbSpline
 62
7
  6
CONTINUOUS
 70
2
 71
3
 72
23
 73
19
 74
0
 42
0.0000001
 43
0.0000001
 44
0.0000000001
 40
0.0
 40
0.0
 40
0.0
 40
0.0
 40
1.0
 40
1.0
 40
1.0
 40
2.0
 40
2.0
 40
2.0
 40
3.0
 40
3.0
 40
3.0
 40
4.0
 40
4.0
 40
4.0
 40
5.0
 40
5.0
 40
5.0
 40
6.0
 40
6.0
 40
6.0
 40
6.0
 10
206.6531220638
 20
39.2070109311
 30
0.0
 10
206.6531220638
 20
39.2070109311
 30
0.0
 10
206.3066237912
 20
39.6503402919
 30
0.0
 10
206.3066237912
 20
39.6503402919
 30
0.0
 10
206.0008207463
 20
40.0384497619
 30
0.0
 10
205.6819324192
 20
40.4269517903
 30
0.0
 10
205.6819324192
 20
40.9538961044
 30
0.0
 10
205.6819324192
 20
41.620067821
 30
0.0
 10
206.2232705436
 20
42.0637897403
 30
0.0
 10
206.8471767988
 20
42.0637897403
 30
0.0
 10
207.5409584609
 20
42.0637897403
 30
0.0
 10
208.0681644806
 20
41.6615481656
 30
0.0
 10
208.0681644806
 20
40.9265478646
 30
0.0
 10
208.0681644806
 20
40.163283354
 30
0.0
 10
207.3469037259
 20
39.7331701282
 30
0.0
 10
206.819828559
 20
39.3174507128
 30
0.0
 10
206.819828559
 20
39.3174507128
 30
0.0
 10
206.6531220638
 20
39.2070109311
 30
0.0
 10
206.6531220638
 20
39.2070109311
 30
0.0
  0
SPLINE
  5
268
100
AcDbEntity
  8
0
100
AcDbSpline
 62
7
  6
CONTINUOUS
 70
2
 71
3
 72
50
 73
46
 74
0
 42
0.0000001
 43
0.0000001
 44
0.0000000001
 40
0.0
 40
0.0
 40
0.0
 40
0.0
 40
1.0
 40
1.0
 40
1.0
 40
2.0
 40
2.0
 40
2.0
 40
3.0
 40
3.0
 40
3.0
 40
4.0
 40
4.0
 40
4.0
 40
5.0
 40
5.0
 40
5.0
 40
6.0
 40
6.0
 40
6.0
 40
7.0
 40
7.0
 40
7.0
 40
8.0
 40
8.0
 40
8.0
 40
9.0
 40
9.0
 40
9.0
 40
10.0
 40
10.0
 40
10.0
 40
11.0
 40
11.0
 40
11.0
 40
12.0
 40
12.0
 40
12.0
 40
13.0
 40
13.0
 40
13.0
 40
14.0
 40
14.0
 40
14.0
 40
15.0
 40
15.0
 40
15.0
 40
15.0
 10
210.6067092267
 20
32.408421713
 30
0.0
 10
210.6067092267
 20
32.408421713
 30
0.0
 10
212.2159372313
 20
32.408421713
 30
0.0
 10
212.2159372313
 20
32.408421713
 30
0.0
 10
212.2159372313
 20
32.408421713
 30
0.0
 10
210.3429099376
 20
34.7255634844
 30
0.0
 10
210.3429099376
 20
34.7255634844
 30
0.0
 10
210.3429099376
 20
34.7255634844
 30
0.0
 10
211.6192483631
 20
36.223043179
 30
0.0
 10
211.6192483631
 20
36.223043179
 30
0.0
 10
211.6192483631
 20
36.223043179
 30
0.0
 10
210.7870244154
 20
37.0840547475
 30
0.0
 10
210.7870244154
 20
37.0840547475
 30
0.0
 10
210.7870244154
 20
37.0840547475
 30
0.0
 10
209.5664292921
 20
35.6687506251
 30
0.0
 10
209.5664292921
 20
35.6687506251
 30
0.0
 10
209.5664292921
 20
35.6687506251
 30
0.0
 10
207.3885149233
 20
38.3041264595
 30
0.0
 10
207.3885149233
 20
38.3041264595
 30
0.0
 10
208.2620883627
 20
38.9421648194
 30
0.0
 10
209.2887596039
 20
39.7331701282
 30
0.0
 10
209.2887596039
 20
40.9120232013
 30
0.0
 10
209.2887596039
 20
42.2857161264
 30
0.0
 10
208.150863464
 20
43.0901992758
 30
0.0
 10
206.8755718611
 20
43.0901992758
 30
0.0
 10
205.5021406418
 20
43.0901992758
 30
0.0
 10
204.461206443
 20
42.2439740762
 30
0.0
 10
204.461206443
 20
40.801321714
 30
0.0
 10
204.461206443
 20
39.9137470226
 30
0.0
 10
205.0165458195
 20
39.1368738185
 30
0.0
 10
205.6127112763
 20
38.5124441521
 30
0.0
 10
205.6127112763
 20
38.5124441521
 30
0.0
 10
204.9608025173
 20
38.0408505817
 30
0.0
 10
204.9608025173
 20
38.0408505817
 30
0.0
 10
203.9622646329
 20
37.319589827
 30
0.0
 10
203.129386421
 20
36.5983290724
 30
0.0
 10
203.129386421
 20
35.266770756
 30
0.0
 10
203.129386421
 20
33.463095458
 30
0.0
 10
204.5864325936
 20
32.1864953269
 30
0.0
 10
206.333972031
 20
32.1864953269
 30
0.0
 10
207.5688301119
 20
32.1864953269
 30
0.0
 10
208.6782003366
 20
32.8946707994
 30
0.0
 10
209.4690747925
 20
33.8232024241
 30
0.0
 10
209.4690747925
 20
33.8232024241
 30
0.0
 10
210.6067092267
 20
32.408421713
 30
0.0
 10
210.6067092267
 20
32.408421713
 30
0.0
  0
LINE
  5
269
100
AcDbEntity
  8
0
100
AcDbLine
 62
7
  6
CONTINUOUS
 10
196.4095706017
 20
30.3822966176
 11
218.8234813294
 21
30.3822966176
  0
LINE
  5
26A
100
AcDbEntity
  8
0
100
AcDbLine
 62
7
  6
CONTINUOUS
 10
218.8234813294
 20
30.3822966176
 11
218.8234813294
 21
52.7962073453
  0
LINE
  5
26B
100
AcDbEntity
  8
0
100
AcDbLine
 62
7
  6
CONTINUOUS
 10
218.8234813294
 20
52.7962073453
 11
196.4095706017
 21
52.7962073453
  0
LINE
  5
26C
100
AcDbEntity
  8
0
100
AcDbLine
 62
7
  6
CONTINUOUS
 10
196.4095706017
 20
52.7962073453
 11
196.4095706017
 21
30.3822966176
  0
ENDBLK
  5
26D
100
AcDbEntity
  8
0
  6
BYBLOCK
 62
0
100
AcDbBlockEnd
  0
BLOCK
  5
26E
100
AcDbEntity
  8
0
100
AcDbBlockBegin
  2
_CLOSED
 70
64
 10
0.0
 20
0.0
  3
_CLOSED
  1

  0
LINE
  5
26F
100
AcDbEntity
  8
0
  6
BYBLOCK
 62
0
100
AcDbLine
 10
0.0
 20
0.0
 11
-1.0
 21
0.2
  0
LINE
  5
270
100
AcDbEntity
  8
0
  6
BYBLOCK
 62
0
100
AcDbLine
 10
-1.0
 20
0.2
 11
-1.0
 21
-0.2
  0
LINE
  5
271
100
AcDbEntity
  8
0
  6
BYBLOCK
 62
0
100
AcDbLine
 10
-1.0
 20
-0.2
 11
0.0
 21
0.0
  0
LINE
  5
272
100
AcDbEntity
  8
0
  6
BYBLOCK
 62
0
100
AcDbLine
 10
-1.0
 20
0.0
 11
0.0
 21
0.0
  0
ENDBLK
  5
273
100
AcDbEntity
  8
0
  6
BYBLOCK
 62
0
100
AcDbBlockEnd
  0
BLOCK
  5
274
100
AcDbEntity
  8
0
100
AcDbBlockBegin
 62
2
  6
CONTINUOUS
  2
*D0
 70
65
 10
0.0
 20
0.0
  3
*D0
  1

  0
MTEXT
  5
275
100
AcDbEntity
  8
0
100
AcDbMText
 62
2
  6
CONTINUOUS
  7
TEXTSTYLE_2
 71
1
 72
1
 10
87.9649784231
 20
173.9878058156
 30
0.0
 11
0.5923165554
 21
0.8057053421
 31
0.0
  1
{\Fgdt;n}\Farial.ttf;54,6
 40
3.0
 41
12.1524163569
  0
LINE
  5
276
100
AcDbEntity
  8
0
100
AcDbLine
 62
2
  6
CONTINUOUS
 10
86.2042827556
 20
165.2617253808
 11
98.1844508518
 21
181.5578855106
  0
INSERT
  5
277
100
AcDbEntity
  8
0
100
AcDbBlockReference
 62
2
  6
CONTINUOUS
  2
_CLOSED
 10
86.2042827556
 20
165.2617253808
 41
2.5
 42
2.5
 43
2.5
 50
233.6784290958
  0
ENDBLK
  5
278
100
AcDbEntity
  8
0
  6
BYBLOCK
 62
0
100
AcDbBlockEnd
  0
BLOCK
  5
279
100
AcDbEntity
  8
0
100
AcDbBlockBegin
 62
2
  6
CONTINUOUS
  2
*D1
 70
65
 10
0.0
 20
0.0
  3
*D1
  1

  0
MTEXT
  5
27A
100
AcDbEntity
  8
0
100
AcDbMText
 62
2
  6
CONTINUOUS
  7
STANDARD
 71
2
 72
1
 10
109.6196652524
 20
64.2345472712
 30
0.0
 11
0.0
 21
1.0
 31
0.0
  1
19
 40
3.0
 41
4.6617100372
  0
LINE
  5
27B
100
AcDbEntity
  8
0
100
AcDbLine
 62
2
  6
CONTINUOUS
 10
107.5012876225
 20
73.7345472712
 11
114.1196652524
 21
73.7345472712
  0
LINE
  5
27C
100
AcDbEntity
  8
0
100
AcDbLine
 62
2
  6
CONTINUOUS
 10
107.0070959577
 20
54.7345472712
 11
114.1196652524
 21
54.7345472712
  0
LINE
  5
27D
100
AcDbEntity
  8
0
100
AcDbLine
 62
2
  6
CONTINUOUS
 10
113.3696652524
 20
73.7345472712
 11
113.3696652524
 21
64.2345472712
  0
LINE
  5
27E
100
AcDbEntity
  8
0
100
AcDbLine
 62
2
  6
CONTINUOUS
 10
113.3696652524
 20
54.7345472712
 11
113.3696652524
 21
64.2345472712
  0
INSERT
  5
27F
100
AcDbEntity
  8
0
100
AcDbBlockReference
 62
2
  6
CONTINUOUS
  2
_CLOSED
 10
113.3696652524
 20
73.7345472712
 41
2.5
 42
2.5
 43
2.5
 50
90.0
  0
INSERT
  5
280
100
AcDbEntity
  8
0
100
AcDbBlockReference
 62
2
  6
CONTINUOUS
  2
_CLOSED
 10
113.3696652524
 20
54.7345472712
 41
2.5
 42
2.5
 43
2.5
 50
270.0
  0
ENDBLK
  5
281
100
AcDbEntity
  8
0
  6
BYBLOCK
 62
0
100
AcDbBlockEnd
  0
BLOCK
  5
282
100
AcDbEntity
  8
0
100
AcDbBlockBegin
 62
2
  6
CONTINUOUS
  2
*D2
 70
65
 10
0.0
 20
0.0
  3
*D2
  1

  0
MTEXT
  5
283
100
AcDbEntity
  8
0
100
AcDbMText
 62
2
  6
CONTINUOUS
  7
STANDARD
 71
3
 72
1
 10
109.6196652524
 20
49.6462922914
 30
0.0
 11
0.0
 21
1.0
 31
0.0
  1
3
 40
3.0
 41
2.3308550186
  0
LINE
  5
284
100
AcDbEntity
  8
0
100
AcDbLine
 62
2
  6
CONTINUOUS
 10
107.3547474576
 20
54.7345472712
 11
114.1196652524
 21
54.7345472712
  0
LINE
  5
285
100
AcDbEntity
  8
0
100
AcDbLine
 62
2
  6
CONTINUOUS
 10
107.2647651995
 20
51.7345472712
 11
114.1196652524
 21
51.7345472712
  0
LINE
  5
286
100
AcDbEntity
  8
0
100
AcDbLine
 62
2
  6
CONTINUOUS
 10
113.3696652524
 20
54.7345472712
 11
113.3696652524
 21
55.7345472712
  0
LINE
  5
287
100
AcDbEntity
  8
0
100
AcDbLine
 62
2
  6
CONTINUOUS
 10
113.3696652524
 20
55.7345472712
 11
113.3696652524
 21
53.2345472712
  0
LINE
  5
288
100
AcDbEntity
  8
0
100
AcDbLine
 62
2
  6
CONTINUOUS
 10
113.3696652524
 20
51.7345472712
 11
113.3696652524
 21
47.3154372728
  0
LINE
  5
289
100
AcDbEntity
  8
0
100
AcDbLine
 62
2
  6
CONTINUOUS
 10
113.3696652524
 20
47.3154372728
 11
113.3696652524
 21
53.2345472712
  0
INSERT
  5
28A
100
AcDbEntity
  8
0
100
AcDbBlockReference
 62
2
  6
CONTINUOUS
  2
_CLOSED
 10
113.3696652524
 20
54.7345472712
 41
2.5
 42
2.5
 43
2.5
 50
270.0
  0
INSERT
  5
28B
100
AcDbEntity
  8
0
100
AcDbBlockReference
 62
2
  6
CONTINUOUS
  2
_CLOSED
 10
113.3696652524
 20
51.7345472712
 41
2.5
 42
2.5
 43
2.5
 50
90.0
  0
ENDBLK
  5
28C
100
AcDbEntity
  8
0
  6
BYBLOCK
 62
0
100
AcDbBlockEnd
  0
BLOCK
  5
28D
100
AcDbEntity
  8
0
100
AcDbBlockBegin
 62
2
  6
CONTINUOUS
  2
*D3
 70
65
 10
0.0
 20
0.0
  3
*D3
  1

  0
MTEXT
  5
28E
100
AcDbEntity
  8
0
100
AcDbMText
 62
2
  6
CONTINUOUS
  7
STANDARD
 71
2
 72
1
 10
115.9834325245
 20
62.7345472712
 30
0.0
 11
0.0
 21
1.0
 31
0.0
  1
22
 40
3.0
 41
4.6617100372
  0
LINE
  5
28F
100
AcDbEntity
  8
0
100
AcDbLine
 62
2
  6
CONTINUOUS
 10
107.3854037892
 20
73.7345472712
 11
120.4834325245
 21
73.7345472712
  0
LINE
  5
290
100
AcDbEntity
  8
0
100
AcDbLine
 62
2
  6
CONTINUOUS
 10
106.9171136996
 20
51.7345472712
 11
120.4834325245
 21
51.7345472712
  0
LINE
  5
291
100
AcDbEntity
  8
0
100
AcDbLine
 62
2
  6
CONTINUOUS
 10
119.7334325245
 20
73.7345472712
 11
119.7334325245
 21
62.7345472712
  0
LINE
  5
292
100
AcDbEntity
  8
0
100
AcDbLine
 62
2
  6
CONTINUOUS
 10
119.7334325245
 20
51.7345472712
 11
119.7334325245
 21
62.7345472712
  0
INSERT
  5
293
100
AcDbEntity
  8
0
100
AcDbBlockReference
 62
2
  6
CONTINUOUS
  2
_CLOSED
 10
119.7334325245
 20
73.7345472712
 41
2.5
 42
2.5
 43
2.5
 50
90.0
  0
INSERT
  5
294
100
AcDbEntity
  8
0
100
AcDbBlockReference
 62
2
  6
CONTINUOUS
  2
_CLOSED
 10
119.7334325245
 20
51.7345472712
 41
2.5
 42
2.5
 43
2.5
 50
270.0
  0
ENDBLK
  5
295
100
AcDbEntity
  8
0
  6
BYBLOCK
 62
0
100
AcDbBlockEnd
  0
BLOCK
  5
296
100
AcDbEntity
  8
0
100
AcDbBlockBegin
 62
2
  6
CONTINUOUS
  2
*D4
 70
65
 10
0.0
 20
0.0
  3
*D4
  1

  0
MTEXT
  5
297
100
AcDbEntity
  8
0
100
AcDbMText
 62
2
  6
CONTINUOUS
  7
STANDARD
 71
2
 72
1
 10
141.7933003721
 20
187.6404579113
 30
0.0
 11
1.0
 21
0.0
 31
0.0
  1
22
 40
3.0
 41
4.6617100372
  0
LINE
  5
298
100
AcDbEntity
  8
0
100
AcDbLine
 62
2
  6
CONTINUOUS
 10
130.7933003721
 20
176.2282323517
 11
130.7933003721
 21
184.6404579113
  0
LINE
  5
299
100
AcDbEntity
  8
0
100
AcDbLine
 62
2
  6
CONTINUOUS
 10
152.7933003721
 20
176.3393614286
 11
152.7933003721
 21
184.6404579113
  0
LINE
  5
29A
100
AcDbEntity
  8
0
100
AcDbLine
 62
2
  6
CONTINUOUS
 10
130.7933003721
 20
183.8904579113
 11
141.7933003721
 21
183.8904579113
  0
LINE
  5
29B
100
AcDbEntity
  8
0
100
AcDbLine
 62
2
  6
CONTINUOUS
 10
152.7933003721
 20
183.8904579113
 11
141.7933003721
 21
183.8904579113
  0
INSERT
  5
29C
100
AcDbEntity
  8
0
100
AcDbBlockReference
 62
2
  6
CONTINUOUS
  2
_CLOSED
 10
130.7933003721
 20
183.8904579113
 41
2.5
 42
2.5
 43
2.5
 50
180.0
  0
INSERT
  5
29D
100
AcDbEntity
  8
0
100
AcDbBlockReference
 62
2
  6
CONTINUOUS
  2
_CLOSED
 10
152.7933003721
 20
183.8904579113
 41
2.5
 42
2.5
 43
2.5
  0
ENDBLK
  5
29E
100
AcDbEntity
  8
0
  6
BYBLOCK
 62
0
100
AcDbBlockEnd
  0
BLOCK
  5
29F
100
AcDbEntity
  8
0
100
AcDbBlockBegin
 62
2
  6
CONTINUOUS
  2
*D5
 70
65
 10
0.0
 20
0.0
  3
*D5
  1

  0
MTEXT
  5
2A0
100
AcDbEntity
  8
0
100
AcDbMText
 62
2
  6
CONTINUOUS
  7
STANDARD
 71
1
 72
1
 10
156.8143746136
 20
187.6404579113
 30
0.0
 11
1.0
 21
0.0
 31
0.0
  1
2,5
 40
3.0
 41
5.8215613383
  0
LINE
  5
2A1
100
AcDbEntity
  8
0
100
AcDbLine
 62
2
  6
CONTINUOUS
 10
152.7933003721
 20
176.3393614286
 11
152.7933003721
 21
184.6404579113
  0
LINE
  5
2A2
100
AcDbEntity
  8
0
100
AcDbLine
 62
2
  6
CONTINUOUS
 10
155.2933003721
 20
176.3027579702
 11
155.2933003721
 21
184.6404579113
  0
LINE
  5
2A3
100
AcDbEntity
  8
0
100
AcDbLine
 62
2
  6
CONTINUOUS
 10
152.7933003721
 20
183.8904579113
 11
151.7933003721
 21
183.8904579113
  0
LINE
  5
2A4
100
AcDbEntity
  8
0
100
AcDbLine
 62
2
  6
CONTINUOUS
 10
151.7933003721
 20
183.8904579113
 11
154.0433003721
 21
183.8904579113
  0
LINE
  5
2A5
100
AcDbEntity
  8
0
100
AcDbLine
 62
2
  6
CONTINUOUS
 10
155.2933003721
 20
183.8904579113
 11
162.6359359519
 21
183.8904579113
  0
LINE
  5
2A6
100
AcDbEntity
  8
0
100
AcDbLine
 62
2
  6
CONTINUOUS
 10
162.6359359519
 20
183.8904579113
 11
154.0433003721
 21
183.8904579113
  0
INSERT
  5
2A7
100
AcDbEntity
  8
0
100
AcDbBlockReference
 62
2
  6
CONTINUOUS
  2
_CLOSED
 10
152.7933003721
 20
183.8904579113
 41
2.5
 42
2.5
 43
2.5
  0
INSERT
  5
2A8
100
AcDbEntity
  8
0
100
AcDbBlockReference
 62
2
  6
CONTINUOUS
  2
_CLOSED
 10
155.2933003721
 20
183.8904579113
 41
2.5
 42
2.5
 43
2.5
 50
180.0
  0
ENDBLK
  5
2A9
100
AcDbEntity
  8
0
  6
BYBLOCK
 62
0
100
AcDbBlockEnd
  0
BLOCK
  5
2AA
100
AcDbEntity
  8
0
100
AcDbBlockBegin
 62
2
  6
CONTINUOUS
  2
*D6
 70
65
 10
0.0
 20
0.0
  3
*D6
  1

  0
MTEXT
  5
2AB
100
AcDbEntity
  8
0
100
AcDbMText
 62
2
  6
CONTINUOUS
  7
STANDARD
 71
2
 72
1
 10
143.0433003721
 20
193.9458935827
 30
0.0
 11
1.0
 21
0.0
 31
0.0
  1
24,5
 40
3.0
 41
8.1524163569
  0
LINE
  5
2AC
100
AcDbEntity
  8
0
100
AcDbLine
 62
2
  6
CONTINUOUS
 10
130.7933003721
 20
176.2282323517
 11
130.7933003721
 21
190.9458935827
  0
LINE
  5
2AD
100
AcDbEntity
  8
0
100
AcDbLine
 62
2
  6
CONTINUOUS
 10
155.2933003721
 20
176.4476127619
 11
155.2933003721
 21
190.9458935827
  0
LINE
  5
2AE
100
AcDbEntity
  8
0
100
AcDbLine
 62
2
  6
CONTINUOUS
 10
130.7933003721
 20
190.1958935827
 11
143.0433003721
 21
190.1958935827
  0
LINE
  5
2AF
100
AcDbEntity
  8
0
100
AcDbLine
 62
2
  6
CONTINUOUS
 10
155.2933003721
 20
190.1958935827
 11
143.0433003721
 21
190.1958935827
  0
INSERT
  5
2B0
100
AcDbEntity
  8
0
100
AcDbBlockReference
 62
2
  6
CONTINUOUS
  2
_CLOSED
 10
130.7933003721
 20
190.1958935827
 41
2.5
 42
2.5
 43
2.5
 50
180.0
  0
INSERT
  5
2B1
100
AcDbEntity
  8
0
100
AcDbBlockReference
 62
2
  6
CONTINUOUS
  2
_CLOSED
 10
155.2933003721
 20
190.1958935827
 41
2.5
 42
2.5
 43
2.5
  0
ENDBLK
  5
2B2
100
AcDbEntity
  8
0
  6
BYBLOCK
 62
0
100
AcDbBlockEnd
  0
BLOCK
  5
2B3
100
AcDbEntity
  8
0
100
AcDbBlockBegin
 62
2
  6
CONTINUOUS
  2
*D7
 70
65
 10
0.0
 20
0.0
  3
*D7
  1

  0
MTEXT
  5
2B4
100
AcDbEntity
  8
0
100
AcDbMText
 62
2
  6
CONTINUOUS
  7
STANDARD
 71
3
 72
1
 10
52.2001139919
 20
40.8144007521
 30
0.0
 11
1.0
 21
0.0
 31
0.0
  1
Ø3,5
 40
3.0
 41
9.0780669145
  0
LINE
  5
2B5
100
AcDbEntity
  8
0
100
AcDbLine
 62
2
  6
CONTINUOUS
 10
56.0340407938
 20
42.4370142103
 11
56.0340407938
 21
36.3144007521
  0
LINE
  5
2B6
100
AcDbEntity
  8
0
100
AcDbLine
 62
2
  6
CONTINUOUS
 10
59.5340407938
 20
42.5187528721
 11
59.5340407938
 21
36.3144007521
  0
LINE
  5
2B7
100
AcDbEntity
  8
0
100
AcDbLine
 62
2
  6
CONTINUOUS
 10
56.0340407938
 20
37.0644007521
 11
43.1220470775
 21
37.0644007521
  0
LINE
  5
2B8
100
AcDbEntity
  8
0
100
AcDbLine
 62
2
  6
CONTINUOUS
 10
43.1220470775
 20
37.0644007521
 11
57.7840407938
 21
37.0644007521
  0
LINE
  5
2B9
100
AcDbEntity
  8
0
100
AcDbLine
 62
2
  6
CONTINUOUS
 10
59.5340407938
 20
37.0644007521
 11
60.5340407938
 21
37.0644007521
  0
LINE
  5
2BA
100
AcDbEntity
  8
0
100
AcDbLine
 62
2
  6
CONTINUOUS
 10
60.5340407938
 20
37.0644007521
 11
57.7840407938
 21
37.0644007521
  0
INSERT
  5
2BB
100
AcDbEntity
  8
0
100
AcDbBlockReference
 62
2
  6
CONTINUOUS
  2
_CLOSED
 10
56.0340407938
 20
37.0644007521
 41
2.5
 42
2.5
 43
2.5
  0
INSERT
  5
2BC
100
AcDbEntity
  8
0
100
AcDbBlockReference
 62
2
  6
CONTINUOUS
  2
_CLOSED
 10
59.5340407938
 20
37.0644007521
 41
2.5
 42
2.5
 43
2.5
 50
180.0
  0
ENDBLK
  5
2BD
100
AcDbEntity
  8
0
  6
BYBLOCK
 62
0
100
AcDbBlockEnd
  0
ENDSEC
  0
SECTION
  2
ENTITIES
  0
DIMENSION
  5
2BE
100
AcDbEntity
  8
0
100
AcDbDimension
 62
2
  6
CONTINUOUS
  2
*D0
 10
86.2042827556
 20
165.2617253808
 11
92.7725751342
 21
177.9949643714
 70
163
  1
%%c<>
  3
DIMSTYLE_1
100
AcDbDiametricDimension
 15
53.8637988321
 25
121.2702137041
  0
DIMENSION
  5
2BF
100
AcDbEntity
  8
0
100
AcDbDimension
 62
2
  6
CONTINUOUS
  2
*D1
 10
113.3696652524
 20
54.7345472712
 11
113.3696652524
 21
64.3659074934
 70
160
  3
DIMSTYLE_2
100
AcDbAlignedDimension
 13
106.7512876225
 23
73.7345472712
 14
106.2570959577
 24
54.7345472712
 50
270.0
100
AcDbRotatedDimension
  0
DIMENSION
  5
2C0
100
AcDbEntity
  8
0
100
AcDbDimension
 62
2
  6
CONTINUOUS
  2
*D2
 10
113.3696652524
 20
51.7345472712
 11
113.3696652524
 21
48.480860674
 70
160
  3
DIMSTYLE_3
100
AcDbAlignedDimension
 13
106.6047474576
 23
54.7345472712
 14
106.5147651995
 24
51.7345472712
 50
270.0
100
AcDbRotatedDimension
  0
DIMENSION
  5
2C1
100
AcDbEntity
  8
0
100
AcDbDimension
 62
2
  6
CONTINUOUS
  2
*D3
 10
119.7334325245
 20
51.7345472712
 11
119.7334325245
 21
62.6818937613
 70
160
  3
DIMSTYLE_2
100
AcDbAlignedDimension
 13
106.6354037892
 23
73.7345472712
 14
106.1671136996
 24
51.7345472712
 50
270.0
100
AcDbRotatedDimension
  0
DIMENSION
  5
2C2
100
AcDbEntity
  8
0
100
AcDbDimension
 62
2
  6
CONTINUOUS
  2
*D4
 10
152.7933003721
 20
183.8904579113
 11
141.7406441803
 21
183.8904579113
 70
160
  3
DIMSTYLE_2
100
AcDbAlignedDimension
 13
130.7933003721
 23
175.4782323517
 14
152.7933003721
 24
175.5893614286
100
AcDbRotatedDimension
  0
DIMENSION
  5
2C3
100
AcDbEntity
  8
0
100
AcDbDimension
 62
2
  6
CONTINUOUS
  2
*D5
 10
155.2933003721
 20
183.8904579113
 11
159.7014264221
 21
183.8904579113
 70
160
  3
DIMSTYLE_3
100
AcDbAlignedDimension
 13
152.7933003721
 23
175.5893614286
 14
155.2933003721
 24
175.5527579702
100
AcDbRotatedDimension
  0
DIMENSION
  5
2C4
100
AcDbEntity
  8
0
100
AcDbDimension
 62
2
  6
CONTINUOUS
  2
*D6
 10
155.2933003721
 20
190.1958935827
 11
143.0171015625
 21
190.1958935827
 70
160
  3
DIMSTYLE_2
100
AcDbAlignedDimension
 13
130.7933003721
 23
175.4782323517
 14
155.2933003721
 24
175.6976127619
100
AcDbRotatedDimension
  0
DIMENSION
  5
2C5
100
AcDbEntity
  8
0
100
AcDbDimension
 62
2
  6
CONTINUOUS
  2
*D7
 10
59.5340407938
 20
37.0644007521
 11
47.6610805347
 21
37.0644007521
 70
160
  1
Ø<>
  3
DIMSTYLE_3
100
AcDbAlignedDimension
 13
56.0340407938
 23
43.1870142103
 14
59.5340407938
 24
43.2687528721
100
AcDbRotatedDimension
  0
LINE
  5
2C6
100
AcDbEntity
  8
0
100
AcDbLine
 62
2
  6
CONTINUOUS
 10
193.7904134944
 20
53.1725198453
 11
283.7904134944
 21
53.1725198453
  0
LINE
  5
2C7
100
AcDbEntity
  8
0
100
AcDbLine
 62
2
  6
CONTINUOUS
 10
193.7904134944
 20
53.1725198453
 11
193.7904134944
 21
13.1725198453
  0
LINE
  5
2C8
100
AcDbEntity
  8
0
100
AcDbLine
 62
2
  6
CONTINUOUS
 10
223.7904134944
 20
47.1725198453
 11
283.7904134944
 21
47.1725198453
  0
LINE
  5
2C9
100
AcDbEntity
  8
0
100
AcDbLine
 62
2
  6
CONTINUOUS
 10
223.7904134944
 20
41.1725198453
 11
283.7904134944
 21
41.1725198453
  0
LINE
  5
2CA
100
AcDbEntity
  8
0
100
AcDbLine
 62
2
  6
CONTINUOUS
 10
223.7904134944
 20
31.1725198453
 11
283.7904134944
 21
31.1725198453
  0
LINE
  5
2CB
100
AcDbEntity
  8
0
100
AcDbLine
 62
2
  6
CONTINUOUS
 10
193.7904134944
 20
26.1725198453
 11
283.7904134944
 21
26.1725198453
  0
LINE
  5
2CC
100
AcDbEntity
  8
0
100
AcDbLine
 62
2
  6
CONTINUOUS
 10
193.7904134944
 20
13.1725198453
 11
283.7904134944
 21
13.1725198453
  0
LINE
  5
2CD
100
AcDbEntity
  8
0
100
AcDbLine
 62
2
  6
CONTINUOUS
 10
223.7904134944
 20
53.1725198453
 11
223.7904134944
 21
26.1725198453
  0
LINE
  5
2CE
100
AcDbEntity
  8
0
100
AcDbLine
 62
2
  6
CONTINUOUS
 10
263.7904134944
 20
53.1725198453
 11
263.7904134944
 21
41.1725198453
  0
LINE
  5
2CF
100
AcDbEntity
  8
0
100
AcDbLine
 62
2
  6
CONTINUOUS
 10
283.7904134944
 20
53.1725198453
 11
283.7904134944
 21
13.1725198453
  0
INSERT
  5
2D0
100
AcDbEntity
  8
0
100
AcDbBlockReference
 62
2
  6
CONTINUOUS
  2
LOGO2_BL0
 10
207.6164605391
 20
39.6725198453
  0
MTEXT
  5
2D1
100
AcDbEntity
  8
9_SOLID
100
AcDbMText
 62
2
  6
CONTINUOUS
  7
TEXTSTYLE_3
 71
1
 72
1
 10
225.2779134944
 20
51.6725198453
 30
0.0
 11
1.0
 21
0.0
 31
0.0
  1
1H6_C_005
 40
3.0
 41
31.6071428571
  0
MTEXT
  5
2D2
100
AcDbEntity
  8
0
100
AcDbMText
 62
2
  6
CONTINUOUS
  7
TEXTSTYLE_3
 71
1
 72
1
 10
265.2779134944
 20
51.9225198453
 30
0.0
 11
1.0
 21
0.0
 31
0.0
  1
Rev:01
 40
3.5
 41
21.625
  0
MTEXT
  5
2D3
100
AcDbEntity
  8
9_SOLID
100
AcDbMText
 62
2
  6
CONTINUOUS
  7
TEXTSTYLE_3
 71
1
 72
1
 10
225.2779134944
 20
45.4225198453
 30
0.0
 11
1.0
 21
0.0
 31
0.0
  1
Scale:1:1
 40
3.5
 41
28.375
  0
MTEXT
  5
2D4
100
AcDbEntity
  8
9_SOLID
100
AcDbMText
 62
2
  6
CONTINUOUS
  7
TEXTSTYLE_3
 71
1
 72
1
 10
265.2779134944
 20
45.9225198453
 30
0.0
 11
1.0
 21
0.0
 31
0.0
  1
A4
 40
3.5
 41
9.625
  0
MTEXT
  5
2D5
100
AcDbEntity
  8
0
100
AcDbMText
 62
2
  6
CONTINUOUS
  7
TEXTSTYLE_3
 71
1
 72
1
 10
225.2779134944
 20
37.9225198453
 30
0.0
 11
1.0
 21
0.0
 31
0.0
  1
Ciak 1.1 - Ciak 1.7
 40
3.5
 41
69.625
  0
MTEXT
  5
2D6
100
AcDbEntity
  8
0
100
AcDbMText
 62
2
  6
CONTINUOUS
  7
TEXTSTYLE_3
 71
1
 72
1
 10
225.2779134944
 20
29.9225198453
 30
0.0
 11
1.0
 21
0.0
 31
0.0
  1
DATE:27/04/2018
 40
2.5
 41
43.0357142857
  0
MTEXT
  5
2D7
100
AcDbEntity
  8
9_SOLID
100
AcDbMText
 62
2
  6
CONTINUOUS
  7
TEXTSTYLE_3
 71
1
 72
1
 10
195.2779134944
 20
25.8600198453
 30
0.0
 11
1.0
 21
0.0
 31
0.0
  1
Any integral or partial reproductions are prohibited \Pwithout prior authorisation of L {\Ftxt.shx;\W0.190476;\H2.250000; }& L Luce & Light s.r.l., \Pin accordance with the law in force. \PAll rights reserved.
 40
2.25
 41
134.5982142857
  0
LWPOLYLINE
  5
2D8
100
AcDbEntity
  8
0
100
AcDbPolyline
 62
7
  6
CONTINUOUS
 90
2
 70
0
 43
0.100000004
 10
10.0
 20
10.0
 10
10.0
 20
200.0
  0
LWPOLYLINE
  5
2D9
100
AcDbEntity
  8
0
100
AcDbPolyline
 62
7
  6
CONTINUOUS
 90
2
 70
0
 43
0.100000004
 10
10.0
 20
10.0
 10
287.0
 20
10.0
  0
LWPOLYLINE
  5
2DA
100
AcDbEntity
  8
0
100
AcDbPolyline
 62
7
  6
CONTINUOUS
 90
2
 70
0
 43
0.100000004
 10
10.0
 20
200.0
 10
287.0
 20
200.0
  0
LWPOLYLINE
  5
2DB
100
AcDbEntity
  8
0
100
AcDbPolyline
 62
7
  6
CONTINUOUS
 90
2
 70
0
 43
0.100000004
 10
287.0
 20
10.0
 10
287.0
 20
200.0
  0
LINE
  5
2DC
100
AcDbEntity
  8
02___PRT_ALL_AXES
100
AcDbLine
 62
7
  6
CONTINUOUS
 10
42.7340407938
 20
54.2345472712
 11
42.7340407938
 21
54.7345472712
  0
LINE
  5
2DD
100
AcDbEntity
  8
7_ALL_FEATURES
100
AcDbLine
 62
7
  6
CONTINUOUS
 10
48.0340407938
 20
73.7345472712
 11
47.0340407938
 21
72.7345472712
  0
LINE
  5
2DE
100
AcDbEntity
  8
7_ALL_FEATURES
100
AcDbLine
 62
7
  6
CONTINUOUS
 10
47.0340407938
 20
54.7345472712
 11
47.0340407938
 21
62.7821349826
  0
LINE
  5
2DF
100
AcDbEntity
  8
7_ALL_FEATURES
100
AcDbLine
 62
7
  6
CONTINUOUS
 10
47.0340407938
 20
72.3441175108
 11
47.0340407938
 21
72.7345472712
  0
LINE
  5
2E0
100
AcDbEntity
  8
7_ALL_FEATURES
100
AcDbLine
 62
7
  6
CONTINUOUS
 10
48.5088970576
 20
51.84824303
 11
42.7340407938
 21
54.2345472712
  0
LINE
  5
2E1
100
AcDbEntity
  8
7_ALL_FEATURES
100
AcDbLine
 62
7
  6
CONTINUOUS
 10
56.1340407938
 20
49.2345472712
 11
56.0340407938
 21
49.3345472712
  0
LINE
  5
2E2
100
AcDbEntity
  8
7_ALL_FEATURES
100
AcDbLine
 62
7
  6
CONTINUOUS
 10
59.4340407938
 20
49.8345472712
 11
59.5340407938
 21
49.7345472712
  0
LINE
  5
2E3
100
AcDbEntity
  8
3_ALL_AXES
100
AcDbLine
 62
7
  6
CONTINUOUS
 10
56.0340407938
 20
49.3345472712
 11
56.0340407938
 21
49.7345472712
  0
LINE
  5
2E4
100
AcDbEntity
  8
3_ALL_AXES
100
AcDbLine
 62
7
  6
CONTINUOUS
 10
56.5340407938
 20
49.8345472712
 11
56.5340407938
 21
51.7345472712
  0
LINE
  5
2E5
100
AcDbEntity
  8
7_ALL_FEATURES
100
AcDbLine
 62
7
  6
CONTINUOUS
 10
56.1340407938
 20
49.2345472712
 11
59.4340407938
 21
49.2345472712
  0
LINE
  5
2E6
100
AcDbEntity
  8
7_ALL_FEATURES
100
AcDbLine
 62
7
  6
CONTINUOUS
 10
56.0340407938
 20
49.3345472712
 11
59.5340407938
 21
49.3345472712
  0
LINE
  5
2E7
100
AcDbEntity
  8
3_ALL_AXES
100
AcDbLine
 62
7
  6
CONTINUOUS
 10
59.0340407938
 20
49.8345472712
 11
59.0340407938
 21
51.7345472712
  0
LINE
  5
2E8
100
AcDbEntity
  8
3_ALL_AXES
100
AcDbLine
 62
7
  6
CONTINUOUS
 10
59.5340407938
 20
49.3345472712
 11
59.5340407938
 21
49.7345472712
  0
LINE
  5
2E9
100
AcDbEntity
  8
7_ALL_FEATURES
100
AcDbLine
 62
7
  6
CONTINUOUS
 10
56.0340407938
 20
49.7345472712
 11
59.5340407938
 21
49.7345472712
  0
LINE
  5
2EA
100
AcDbEntity
  8
7_ALL_FEATURES
100
AcDbLine
 62
7
  6
CONTINUOUS
 10
56.1340407938
 20
49.8345472712
 11
59.4340407938
 21
49.8345472712
  0
LINE
  5
2EB
100
AcDbEntity
  8
7_ALL_FEATURES
100
AcDbLine
 62
7
  6
CONTINUOUS
 10
49.0817500499
 20
51.7345472712
 11
90.9863315378
 21
51.7345472712
  0
LINE
  5
2EC
100
AcDbEntity
  8
7_ALL_FEATURES
100
AcDbLine
 62
9
  6
CONTINUOUS
 10
48.5088970576
 20
51.84824303
 11
91.55918453
 21
51.84824303
  0
LINE
  5
2ED
100
AcDbEntity
  8
02___PRT_ALL_AXES
100
AcDbLine
 62
7
  6
CONTINUOUS
 10
97.3340407938
 20
54.2345472712
 11
42.7340407938
 21
54.2345472712
  0
LINE
  5
2EE
100
AcDbEntity
  8
7_ALL_FEATURES
100
AcDbLine
 62
3
  6
CONTINUOUS
 10
36.6572985002
 20
67.8432103623
 11
61.4590112372
 21
55.7466068082
  0
LINE
  5
2EF
100
AcDbEntity
  8
02___PRT_ALL_AXES
100
AcDbLine
 62
7
  6
CONTINUOUS
 10
97.3340407938
 20
54.7345472712
 11
42.7340407938
 21
54.7345472712
  0
LINE
  5
2F0
100
AcDbEntity
  8
7_ALL_FEATURES
100
AcDbLine
 62
7
  6
CONTINUOUS
 10
69.4566905246
 20
59.2345472712
 11
70.611391063
 21
59.2345472712
  0
LINE
  5
2F1
100
AcDbEntity
  8
7_ALL_FEATURES
100
AcDbLine
 62
7
  6
CONTINUOUS
 10
69.4566905246
 20
61.2345472712
 11
68.8793402554
 21
60.2345472712
  0
LINE
  5
2F2
100
AcDbEntity
  8
7_ALL_FEATURES
100
AcDbLine
 62
7
  6
CONTINUOUS
 10
56.1340407938
 20
49.8345472712
 11
56.0340407938
 21
49.7345472712
  0
LINE
  5
2F3
100
AcDbEntity
  8
7_ALL_FEATURES
100
AcDbLine
 62
7
  6
CONTINUOUS
 10
70.611391063
 20
61.2345472712
 11
69.4566905246
 21
61.2345472712
  0
LINE
  5
2F4
100
AcDbEntity
  8
7_ALL_FEATURES
100
AcDbLine
 62
7
  6
CONTINUOUS
 10
68.8793402554
 20
60.2345472712
 11
69.4566905246
 21
59.2345472712
  0
LINE
  5
2F5
100
AcDbEntity
  8
7_ALL_FEATURES
100
AcDbLine
 62
7
  6
CONTINUOUS
 10
70.611391063
 20
59.2345472712
 11
71.1887413322
 21
60.2345472712
  0
LINE
  5
2F6
100
AcDbEntity
  8
7_ALL_FEATURES
100
AcDbLine
 62
7
  6
CONTINUOUS
 10
59.4340407938
 20
49.2345472712
 11
59.5340407938
 21
49.3345472712
  0
LINE
  5
2F7
100
AcDbEntity
  8
7_ALL_FEATURES
100
AcDbLine
 62
7
  6
CONTINUOUS
 10
71.1887413322
 20
60.2345472712
 11
70.611391063
 21
61.2345472712
  0
LINE
  5
2F8
100
AcDbEntity
  8
7_ALL_FEATURES
100
AcDbLine
 62
3
  6
CONTINUOUS
 10
75.5340407938
 20
56.7345472712
 11
75.5340407938
 21
64.8813225958
  0
LINE
  5
2F9
100
AcDbEntity
  8
7_ALL_FEATURES
100
AcDbLine
 62
7
  6
CONTINUOUS
 10
103.4107830874
 20
67.8432103623
 11
93.0340407938
 21
62.7821349826
  0
LINE
  5
2FA
100
AcDbEntity
  8
7_ALL_FEATURES
100
AcDbLine
 62
7
  6
CONTINUOUS
 10
47.0340407938
 20
72.7345472712
 11
55.7947307048
 21
72.7345472712
  0
LINE
  5
2FB
100
AcDbEntity
  8
7_ALL_FEATURES
100
AcDbLine
 62
7
  6
CONTINUOUS
 10
69.0589624218
 20
72.7345472712
 11
93.0340407938
 21
72.7345472712
  0
LINE
  5
2FC
100
AcDbEntity
  8
7_ALL_FEATURES
100
AcDbLine
 62
7
  6
CONTINUOUS
 10
48.0340407938
 20
73.7345472712
 11
92.0340407938
 21
73.7345472712
  0
LINE
  5
2FD
100
AcDbEntity
  8
7_ALL_FEATURES
100
AcDbLine
 62
7
  6
CONTINUOUS
 10
91.55918453
 20
51.84824303
 11
97.3340407938
 21
54.2345472712
  0
LINE
  5
2FE
100
AcDbEntity
  8
7_ALL_FEATURES
100
AcDbLine
 62
7
  6
CONTINUOUS
 10
93.0340407938
 20
54.7345472712
 11
93.0340407938
 21
72.7345472712
  0
LINE
  5
2FF
100
AcDbEntity
  8
7_ALL_FEATURES
100
AcDbLine
 62
7
  6
CONTINUOUS
 10
92.0340407938
 20
73.7345472712
 11
93.0340407938
 21
72.7345472712
  0
LINE
  5
300
100
AcDbEntity
  8
02___PRT_ALL_AXES
100
AcDbLine
 62
7
  6
CONTINUOUS
 10
97.3340407938
 20
54.2345472712
 11
97.3340407938
 21
54.7345472712
  0
LINE
  5
301
100
AcDbEntity
  8
7_ALL_FEATURES
100
AcDbLine
 62
7
  6
CONTINUOUS
 10
35.5340407938
 20
166.2659695424
 11
35.5340407938
 21
166.5659695424
  0
LINE
  5
302
100
AcDbEntity
  8
7_ALL_FEATURES
100
AcDbLine
 62
9
  6
CONTINUOUS
 10
36.6572985002
 20
166.5659695424
 11
36.6572985002
 21
166.2659695424
  0
LINE
  5
303
100
AcDbEntity
  8
7_ALL_FEATURES
100
AcDbLine
 62
3
  6
CONTINUOUS
 10
104.5340399908
 20
119.9659695424
 11
84.2601286754
 21
119.9659695424
  0
LINE
  5
304
100
AcDbEntity
  8
7_ALL_FEATURES
100
AcDbLine
 62
7
  6
CONTINUOUS
 10
104.5340399908
 20
120.2659695424
 11
84.740216071
 21
120.2659695424
  0
LINE
  5
305
100
AcDbEntity
  8
7_ALL_FEATURES
100
AcDbLine
 62
7
  6
CONTINUOUS
 10
71.0340407938
 20
163.3659695424
 11
71.1528273744
 21
163.484756123
  0
LINE
  5
306
100
AcDbEntity
  8
3_ALL_AXES
100
AcDbLine
 62
7
  6
CONTINUOUS
 10
84.1340407938
 20
137.3659695424
 11
83.8246211753
 21
137.3659695424
  0
LINE
  5
307
100
AcDbEntity
  8
3_ALL_AXES
100
AcDbLine
 62
7
  6
CONTINUOUS
 10
84.1340407938
 20
137.6659695424
 11
83.9492770895
 21
137.6659695424
  0
LINE
  5
308
100
AcDbEntity
  8
7_ALL_FEATURES
100
AcDbLine
 62
7
  6
CONTINUOUS
 10
80.0340407938
 20
138.7659695424
 11
84.3431288151
 21
138.7659695424
  0
LINE
  5
309
100
AcDbEntity
  8
7_ALL_FEATURES
100
AcDbLine
 62
7
  6
CONTINUOUS
 10
85.1337096644
 20
138.8659695424
 11
80.5340407938
 21
138.8659695424
  0
LINE
  5
30A
100
AcDbEntity
  8
7_ALL_FEATURES
100
AcDbLine
 62
7
  6
CONTINUOUS
 10
68.5340407938
 20
123.0716745481
 11
68.5340407938
 21
123.222230338
  0
LINE
  5
30B
100
AcDbEntity
  8
7_ALL_FEATURES
100
AcDbLine
 62
9
  6
CONTINUOUS
 10
80.5340407938
 20
140.7659695424
 11
80.0340407938
 21
140.7659695424
  0
LINE
  5
30C
100
AcDbEntity
  8
7_ALL_FEATURES
100
AcDbLine
 62
7
  6
CONTINUOUS
 10
71.5340407938
 20
123.0716745481
 11
71.5340407938
 21
123.222230338
  0
LINE
  5
30D
100
AcDbEntity
  8
7_ALL_FEATURES
100
AcDbLine
 62
9
  6
CONTINUOUS
 10
80.0340407938
 20
145.7659695424
 11
80.5340407938
 21
145.7659695424
  0
LINE
  5
30E
100
AcDbEntity
  8
3_ALL_AXES
100
AcDbLine
 62
7
  6
CONTINUOUS
 10
84.1340407938
 20
148.8659695424
 11
84.0018238248
 21
148.7337525734
  0
LINE
  5
30F
100
AcDbEntity
  8
7_ALL_FEATURES
100
AcDbLine
 62
7
  6
CONTINUOUS
 10
80.5340407938
 20
147.6659695424
 11
85.1337096644
 21
147.6659695424
  0
LINE
  5
310
100
AcDbEntity
  8
7_ALL_FEATURES
100
AcDbLine
 62
7
  6
CONTINUOUS
 10
84.3431288151
 20
147.7659695424
 11
80.0340407938
 21
147.7659695424
  0
LINE
  5
311
100
AcDbEntity
  8
3_ALL_AXES
100
AcDbLine
 62
7
  6
CONTINUOUS
 10
83.9493015713
 20
148.8659695424
 11
84.1340407938
 21
148.8659695424
  0
LINE
  5
312
100
AcDbEntity
  8
3_ALL_AXES
100
AcDbLine
 62
7
  6
CONTINUOUS
 10
83.8246189118
 20
149.1659695424
 11
84.1340407938
 21
149.1659695424
  0
LINE
  5
313
100
AcDbEntity
  8
3_ALL_AXES
100
AcDbLine
 62
7
  6
CONTINUOUS
 10
84.1340407938
 20
137.6659695424
 11
84.0018399972
 21
137.7981703391
  0
LINE
  5
314
100
AcDbEntity
  8
7_ALL_FEATURES
100
AcDbLine
 62
7
  6
CONTINUOUS
 10
80.0340407938
 20
147.7659695424
 11
80.0340407938
 21
138.7659695424
  0
LINE
  5
315
100
AcDbEntity
  8
7_ALL_FEATURES
100
AcDbLine
 62
7
  6
CONTINUOUS
 10
80.5340407938
 20
138.8659695424
 11
80.5340407938
 21
147.6659695424
  0
LINE
  5
316
100
AcDbEntity
  8
7_ALL_FEATURES
100
AcDbLine
 62
7
  6
CONTINUOUS
 10
81.2340407938
 20
147.7659695424
 11
81.2340407938
 21
147.6659695424
  0
LINE
  5
317
100
AcDbEntity
  8
7_ALL_FEATURES
100
AcDbLine
 62
7
  6
CONTINUOUS
 10
81.2340407938
 20
138.7659695424
 11
81.2340407938
 21
138.8659695424
  0
LINE
  5
318
100
AcDbEntity
  8
7_ALL_FEATURES
100
AcDbLine
 62
7
  6
CONTINUOUS
 10
83.2340407938
 20
147.7659695424
 11
83.2340407938
 21
147.6659695424
  0
LINE
  5
319
100
AcDbEntity
  8
7_ALL_FEATURES
100
AcDbLine
 62
7
  6
CONTINUOUS
 10
83.2340407938
 20
138.7659695424
 11
83.2340407938
 21
138.8659695424
  0
LINE
  5
31A
100
AcDbEntity
  8
7_ALL_FEATURES
100
AcDbLine
 62
9
  6
CONTINUOUS
 10
84.0340407938
 20
138.8659695424
 11
84.0340407938
 21
147.6659695424
  0
LINE
  5
31B
100
AcDbEntity
  8
3_ALL_AXES
100
AcDbLine
 62
7
  6
CONTINUOUS
 10
84.1340407938
 20
149.1659695424
 11
84.1340407938
 21
148.8659695424
  0
LINE
  5
31C
100
AcDbEntity
  8
3_ALL_AXES
100
AcDbLine
 62
7
  6
CONTINUOUS
 10
84.1340407938
 20
137.3659695424
 11
84.1340407938
 21
137.6659695424
  0
LINE
  5
31D
100
AcDbEntity
  8
7_ALL_FEATURES
100
AcDbLine
 62
7
  6
CONTINUOUS
 10
69.0340407938
 20
163.3659695424
 11
68.9152542133
 21
163.484756123
  0
LINE
  5
31E
100
AcDbEntity
  8
7_ALL_FEATURES
100
AcDbLine
 62
7
  6
CONTINUOUS
 10
69.0340407938
 20
163.3659695424
 11
71.0340407938
 21
163.3659695424
  0
LINE
  5
31F
100
AcDbEntity
  8
7_ALL_FEATURES
100
AcDbLine
 62
7
  6
CONTINUOUS
 10
35.5340415969
 20
166.2659695424
 11
55.3278655166
 21
166.2659695424
  0
LINE
  5
320
100
AcDbEntity
  8
7_ALL_FEATURES
100
AcDbLine
 62
3
  6
CONTINUOUS
 10
35.5340415969
 20
166.5659695424
 11
55.8079529122
 21
166.5659695424
  0
LINE
  5
321
100
AcDbEntity
  8
7_ALL_FEATURES
100
AcDbLine
 62
9
  6
CONTINUOUS
 10
103.4107830874
 20
119.9659695424
 11
103.4107830874
 21
120.2659695424
  0
LINE
  5
322
100
AcDbEntity
  8
7_ALL_FEATURES
100
AcDbLine
 62
7
  6
CONTINUOUS
 10
104.5340407938
 20
120.2659695424
 11
104.5340407938
 21
119.9659695424
  0
LINE
  5
323
100
AcDbEntity
  8
02___PRT_ALL_AXES
100
AcDbLine
 62
7
  6
CONTINUOUS
 10
150.2933003721
 20
115.9659695424
 11
149.7933003721
 21
115.9659695424
  0
LINE
  5
324
100
AcDbEntity
  8
7_ALL_FEATURES
100
AcDbLine
 62
7
  6
CONTINUOUS
 10
130.7933003721
 20
165.2659695424
 11
131.7933003721
 21
166.2659695424
  0
LINE
  5
325
100
AcDbEntity
  8
3_ALL_AXES
100
AcDbLine
 62
7
  6
CONTINUOUS
 10
141.2933178827
 20
119.1659695424
 11
147.2932828615
 21
119.1659695424
  0
LINE
  5
326
100
AcDbEntity
  8
3_ALL_AXES
100
AcDbLine
 62
7
  6
CONTINUOUS
 10
141.2933003721
 20
119.3659695424
 11
147.2933003721
 21
119.3659695424
  0
LINE
  5
327
100
AcDbEntity
  8
7_ALL_FEATURES
100
AcDbLine
 62
7
  6
CONTINUOUS
 10
130.7933003721
 20
121.2659695424
 11
131.7933003721
 21
120.2659695424
  0
LINE
  5
328
100
AcDbEntity
  8
7_ALL_FEATURES
100
AcDbLine
 62
3
  6
CONTINUOUS
 10
149.7933003721
 20
119.9659695424
 11
131.6408898265
 21
119.9659695424
  0
LINE
  5
329
100
AcDbEntity
  8
02___PRT_ALL_AXES
100
AcDbLine
 62
7
  6
CONTINUOUS
 10
132.0474011405
 20
120.2659695424
 11
131.7933003721
 21
120.2659695424
  0
LINE
  5
32A
100
AcDbEntity
  8
7_ALL_FEATURES
100
AcDbLine
 62
7
  6
CONTINUOUS
 10
131.6408898265
 20
120.2659695424
 11
131.7933003721
 21
120.2659695424
  0
LINE
  5
32B
100
AcDbEntity
  8
7_ALL_FEATURES
100
AcDbLine
 62
7
  6
CONTINUOUS
 10
132.0474011405
 20
120.2659695424
 11
149.7933003721
 21
120.2659695424
  0
LINE
  5
32C
100
AcDbEntity
  8
3_ALL_AXES
100
AcDbLine
 62
7
  6
CONTINUOUS
 10
146.376079687
 20
166.2487488573
 11
146.3933003721
 21
166.2659695424
  0
LINE
  5
32D
100
AcDbEntity
  8
3_ALL_AXES
100
AcDbLine
 62
7
  6
CONTINUOUS
 10
146.6933003721
 20
166.5659695424
 11
147.2933003721
 21
167.1659695424
  0
LINE
  5
32E
100
AcDbEntity
  8
3_ALL_AXES
100
AcDbLine
 62
7
  6
CONTINUOUS
 10
146.3760797762
 20
120.2831901384
 11
146.3933003721
 21
120.2659695424
  0
LINE
  5
32F
100
AcDbEntity
  8
3_ALL_AXES
100
AcDbLine
 62
7
  6
CONTINUOUS
 10
146.6933003721
 20
119.9659695424
 11
147.2933003721
 21
119.3659695424
  0
LINE
  5
330
100
AcDbEntity
  8
7_ALL_FEATURES
100
AcDbLine
 62
7
  6
CONTINUOUS
 10
130.7933003721
 20
121.2659711296
 11
130.7933003721
 21
165.2659679553
  0
LINE
  5
331
100
AcDbEntity
  8
7_ALL_FEATURES
100
AcDbLine
 62
7
  6
CONTINUOUS
 10
131.6408897898
 20
120.2659695424
 11
131.6408897898
 21
119.9659695424
  0
LINE
  5
332
100
AcDbEntity
  8
7_ALL_FEATURES
100
AcDbLine
 62
7
  6
CONTINUOUS
 10
131.6408897898
 20
166.2659695424
 11
131.6408897898
 21
166.5659695424
  0
LINE
  5
333
100
AcDbEntity
  8
7_ALL_FEATURES
100
AcDbLine
 62
9
  6
CONTINUOUS
 10
131.6466695413
 20
120.2659695424
 11
131.6466695413
 21
119.9659695424
  0
LINE
  5
334
100
AcDbEntity
  8
7_ALL_FEATURES
100
AcDbLine
 62
7
  6
CONTINUOUS
 10
131.7933003721
 20
120.2659695424
 11
131.7933003721
 21
166.2659695424
  0
LINE
  5
335
100
AcDbEntity
  8
7_ALL_FEATURES
100
AcDbLine
 62
9
  6
CONTINUOUS
 10
132.8948866689
 20
166.5659695424
 11
132.8948866689
 21
166.2659695424
  0
LINE
  5
336
100
AcDbEntity
  8
7_ALL_FEATURES
100
AcDbLine
 62
9
  6
CONTINUOUS
 10
136.684637281
 20
166.5659695424
 11
136.684637281
 21
166.2659695424
  0
LINE
  5
337
100
AcDbEntity
  8
7_ALL_FEATURES
100
AcDbLine
 62
9
  6
CONTINUOUS
 10
139.6465250475
 20
120.2659695424
 11
139.6465250475
 21
119.9659695424
  0
LINE
  5
338
100
AcDbEntity
  8
3_ALL_AXES
100
AcDbLine
 62
7
  6
CONTINUOUS
 10
141.2933003721
 20
119.3659695424
 11
141.2933003721
 21
119.1659695424
  0
LINE
  5
339
100
AcDbEntity
  8
3_ALL_AXES
100
AcDbLine
 62
7
  6
CONTINUOUS
 10
141.2933003721
 20
167.1659695424
 11
141.2933003721
 21
167.3659695424
  0
LINE
  5
33A
100
AcDbEntity
  8
3_ALL_AXES
100
AcDbLine
 62
7
  6
CONTINUOUS
 10
155.1933003721
 20
141.5159695424
 11
154.7933003721
 21
141.5159695424
  0
LINE
  5
33B
100
AcDbEntity
  8
3_ALL_AXES
100
AcDbLine
 62
7
  6
CONTINUOUS
 10
154.6933003721
 20
142.0159695424
 11
152.7933003721
 21
142.0159695424
  0
LINE
  5
33C
100
AcDbEntity
  8
3_ALL_AXES
100
AcDbLine
 62
7
  6
CONTINUOUS
 10
154.6933003721
 20
144.5159695424
 11
152.7933003721
 21
144.5159695424
  0
LINE
  5
33D
100
AcDbEntity
  8
3_ALL_AXES
100
AcDbLine
 62
7
  6
CONTINUOUS
 10
155.1933003721
 20
145.0159695424
 11
154.7933003721
 21
145.0159695424
  0
LINE
  5
33E
100
AcDbEntity
  8
3_ALL_AXES
100
AcDbLine
 62
7
  6
CONTINUOUS
 10
147.2933003721
 20
119.3659695424
 11
147.2933003721
 21
119.1659695424
  0
LINE
  5
33F
100
AcDbEntity
  8
3_ALL_AXES
100
AcDbLine
 62
7
  6
CONTINUOUS
 10
147.2933003721
 20
167.1659695424
 11
147.2933003721
 21
167.3659695424
  0
LINE
  5
340
100
AcDbEntity
  8
7_ALL_FEATURES
100
AcDbLine
 62
9
  6
CONTINUOUS
 10
147.7933003721
 20
120.2659695424
 11
147.7933003721
 21
119.9659695424
  0
LINE
  5
341
100
AcDbEntity
  8
7_ALL_FEATURES
100
AcDbLine
 62
9
  6
CONTINUOUS
 10
148.7812408351
 20
166.2659695424
 11
148.7812408351
 21
166.5659695424
  0
LINE
  5
342
100
AcDbEntity
  8
02___PRT_ALL_AXES
100
AcDbLine
 62
7
  6
CONTINUOUS
 10
149.7933003721
 20
115.9659700552
 11
149.7933003721
 21
170.5659690297
  0
LINE
  5
343
100
AcDbEntity
  8
02___PRT_ALL_AXES
100
AcDbLine
 62
7
  6
CONTINUOUS
 10
150.2933003721
 20
115.9659695424
 11
150.2933003721
 21
170.5659695424
  0
LINE
  5
344
100
AcDbEntity
  8
7_ALL_FEATURES
100
AcDbLine
 62
7
  6
CONTINUOUS
 10
154.6933003721
 20
144.9159695424
 11
154.7933003721
 21
145.0159695424
  0
LINE
  5
345
100
AcDbEntity
  8
7_ALL_FEATURES
100
AcDbLine
 62
7
  6
CONTINUOUS
 10
154.6933003721
 20
141.6159695424
 11
154.7933003721
 21
141.5159695424
  0
LINE
  5
346
100
AcDbEntity
  8
7_ALL_FEATURES
100
AcDbLine
 62
9
  6
CONTINUOUS
 10
152.6796046133
 20
121.7408258062
 11
152.6796046133
 21
164.7911132787
  0
LINE
  5
347
100
AcDbEntity
  8
7_ALL_FEATURES
100
AcDbLine
 62
7
  6
CONTINUOUS
 10
152.7933003721
 20
122.3136787985
 11
152.7933003721
 21
164.2182602864
  0
LINE
  5
348
100
AcDbEntity
  8
7_ALL_FEATURES
100
AcDbLine
 62
7
  6
CONTINUOUS
 10
155.2933003721
 20
141.6159695424
 11
155.1933003721
 21
141.5159695424
  0
LINE
  5
349
100
AcDbEntity
  8
7_ALL_FEATURES
100
AcDbLine
 62
7
  6
CONTINUOUS
 10
155.2933003721
 20
144.9159695424
 11
155.1933003721
 21
145.0159695424
  0
LINE
  5
34A
100
AcDbEntity
  8
7_ALL_FEATURES
100
AcDbLine
 62
7
  6
CONTINUOUS
 10
154.6933003721
 20
141.6159695425
 11
154.6933003721
 21
144.9159695424
  0
LINE
  5
34B
100
AcDbEntity
  8
7_ALL_FEATURES
100
AcDbLine
 62
7
  6
CONTINUOUS
 10
154.7933003721
 20
141.5159695424
 11
154.7933003721
 21
145.0159695424
  0
LINE
  5
34C
100
AcDbEntity
  8
7_ALL_FEATURES
100
AcDbLine
 62
7
  6
CONTINUOUS
 10
155.1933003721
 20
141.5159695424
 11
155.1933003721
 21
145.0159695424
  0
LINE
  5
34D
100
AcDbEntity
  8
7_ALL_FEATURES
100
AcDbLine
 62
7
  6
CONTINUOUS
 10
155.2933003721
 20
141.6159695425
 11
155.2933003721
 21
144.9159695424
  0
LINE
  5
34E
100
AcDbEntity
  8
3_ALL_AXES
100
AcDbLine
 62
7
  6
CONTINUOUS
 10
142.2105210524
 20
120.2831902227
 11
142.1933003721
 21
120.2659695424
  0
LINE
  5
34F
100
AcDbEntity
  8
3_ALL_AXES
100
AcDbLine
 62
7
  6
CONTINUOUS
 10
141.8933003721
 20
119.9659695424
 11
141.2933003721
 21
119.3659695424
  0
LINE
  5
350
100
AcDbEntity
  8
3_ALL_AXES
100
AcDbLine
 62
7
  6
CONTINUOUS
 10
142.2105209642
 20
166.2487489504
 11
142.1933003721
 21
166.2659695424
  0
LINE
  5
351
100
AcDbEntity
  8
3_ALL_AXES
100
AcDbLine
 62
7
  6
CONTINUOUS
 10
141.8933003721
 20
166.5659695424
 11
141.2933003721
 21
167.1659695424
  0
LINE
  5
352
100
AcDbEntity
  8
02___PRT_ALL_AXES
100
AcDbLine
 62
7
  6
CONTINUOUS
 10
152.6796046133
 20
121.7408258062
 11
150.2933003721
 21
115.9659695424
  0
LINE
  5
353
100
AcDbEntity
  8
02___PRT_ALL_AXES
100
AcDbLine
 62
7
  6
CONTINUOUS
 10
152.6796046133
 20
164.7911132787
 11
150.2933003721
 21
170.5659695424
  0
LINE
  5
354
100
AcDbEntity
  8
7_ALL_FEATURES
100
AcDbLine
 62
7
  6
CONTINUOUS
 10
131.6408898265
 20
166.2659695424
 11
149.7933003721
 21
166.2659695424
  0
LINE
  5
355
100
AcDbEntity
  8
7_ALL_FEATURES
100
AcDbLine
 62
3
  6
CONTINUOUS
 10
131.6408898265
 20
166.5659695424
 11
149.7933003721
 21
166.5659695424
  0
LINE
  5
356
100
AcDbEntity
  8
3_ALL_AXES
100
AcDbLine
 62
7
  6
CONTINUOUS
 10
141.2933003721
 20
167.1659695424
 11
147.2933003721
 21
167.1659695424
  0
LINE
  5
357
100
AcDbEntity
  8
3_ALL_AXES
100
AcDbLine
 62
7
  6
CONTINUOUS
 10
141.2933132453
 20
167.3659695424
 11
147.2932874989
 21
167.3659695424
  0
LINE
  5
358
100
AcDbEntity
  8
02___PRT_ALL_AXES
100
AcDbLine
 62
7
  6
CONTINUOUS
 10
150.2933003721
 20
170.5659695424
 11
149.7933003721
 21
170.5659695424
  0
LINE
  5
359
100
AcDbEntity
  8
02___PRT_ALL_AXES
100
AcDbLine
 62
7
  6
CONTINUOUS
 10
199.1824541759
 20
92.3187318359
 11
199.1824541759
 21
92.7517445378
  0
LINE
  5
35A
100
AcDbEntity
  8
02___PRT_ALL_AXES
100
AcDbLine
 62
7
  6
CONTINUOUS
 10
234.4327158312
 20
70.7627921902
 11
225.1966797922
 21
70.2619282156
  0
LINE
  5
35B
100
AcDbEntity
  8
02___PRT_ALL_AXES
100
AcDbLine
 62
7
  6
CONTINUOUS
 10
224.86444828
 20
70.2439115259
 11
223.8677537434
 21
70.1898614567
  0
LINE
  5
35C
100
AcDbEntity
  8
3_ALL_AXES
100
AcDbLine
 62
7
  6
CONTINUOUS
 10
232.8789148684
 20
72.6583381751
 11
232.6131296587
 21
72.6439248233
  0
LINE
  5
35D
100
AcDbEntity
  8
3_ALL_AXES
100
AcDbLine
 62
7
  6
CONTINUOUS
 10
231.151311005
 20
72.5646513885
 11
230.9519720977
 21
72.5538413746
  0
LINE
  5
35E
100
AcDbEntity
  8
3_ALL_AXES
100
AcDbLine
 62
7
  6
CONTINUOUS
 10
231.6784657911
 20
73.0939733003
 11
231.1906824283
 21
73.0675211392
  0
LINE
  5
35F
100
AcDbEntity
  8
02___PRT_ALL_AXES
100
AcDbLine
 62
7
  6
CONTINUOUS
 10
206.3824541759
 20
90.1536683264
 11
206.3824541759
 21
91.3743827605
  0
LINE
  5
360
100
AcDbEntity
  8
7_ALL_FEATURES
100
AcDbLine
 62
7
  6
CONTINUOUS
 10
209.0329324588
 20
106.6974222304
 11
208.6246841683
 21
105.6272726814
  0
LINE
  5
361
100
AcDbEntity
  8
7_ALL_FEATURES
100
AcDbLine
 62
7
  6
CONTINUOUS
 10
210.0935926306
 20
106.1670921445
 11
209.7770960496
 21
105.3374532183
  0
LINE
  5
362
100
AcDbEntity
  8
7_ALL_FEATURES
100
AcDbLine
 62
7
  6
CONTINUOUS
 10
209.8494290397
 20
105.3736197133
 11
210.2576773302
 21
106.4437692623
  0
LINE
  5
363
100
AcDbEntity
  8
3_ALL_AXES
100
AcDbLine
 62
7
  6
CONTINUOUS
 10
231.5435485971
 20
75.5903301579
 11
231.0553080324
 21
75.563853203
  0
LINE
  5
364
100
AcDbEntity
  8
3_ALL_AXES
100
AcDbLine
 62
7
  6
CONTINUOUS
 10
232.6893907141
 20
76.1532030645
 11
232.4236055044
 21
76.1387897127
  0
LINE
  5
365
100
AcDbEntity
  8
3_ALL_AXES
100
AcDbLine
 62
7
  6
CONTINUOUS
 10
230.9617868507
 20
76.0595162778
 11
230.7624479434
 21
76.048706264
  0
LINE
  5
366
100
AcDbEntity
  8
3_ALL_AXES
100
AcDbLine
 62
7
  6
CONTINUOUS
 10
210.8553943116
 20
104.2677540189
 11
210.0166250176
 21
103.6386770484
  0
LINE
  5
367
100
AcDbEntity
  8
7_ALL_FEATURES
100
AcDbLine
 62
7
  6
CONTINUOUS
 10
209.8494290397
 20
107.1056705209
 11
209.0329324588
 21
106.6974222304
  0
LINE
  5
368
100
AcDbEntity
  8
7_ALL_FEATURES
100
AcDbLine
 62
7
  6
CONTINUOUS
 10
210.1659256207
 20
106.2032586396
 11
210.0935926306
 21
106.1670921445
  0
LINE
  5
369
100
AcDbEntity
  8
7_ALL_FEATURES
100
AcDbLine
 62
7
  6
CONTINUOUS
 10
209.0329324588
 20
104.9653714229
 11
209.8494290397
 21
105.3736197133
  0
LINE
  5
36A
100
AcDbEntity
  8
7_ALL_FEATURES
100
AcDbLine
 62
3
  6
CONTINUOUS
 10
213.8959534707
 20
104.8630981108
 11
213.8959534707
 21
111.7214473844
  0
LINE
  5
36B
100
AcDbEntity
  8
7_ALL_FEATURES
100
AcDbLine
 62
7
  6
CONTINUOUS
 10
214.1080855051
 20
104.918786778
 11
214.1080855051
 21
111.6153813672
  0
LINE
  5
36C
100
AcDbEntity
  8
7_ALL_FEATURES
100
AcDbLine
 62
7
  6
CONTINUOUS
 10
186.343600629
 20
100.5133251454
 11
186.1314685946
 21
100.6193911625
  0
LINE
  5
36D
100
AcDbEntity
  8
7_ALL_FEATURES
100
AcDbLine
 62
9
  6
CONTINUOUS
 10
186.4059453645
 20
100.5415133802
 11
186.6180773989
 21
100.4354473631
  0
LINE
  5
36E
100
AcDbEntity
  8
7_ALL_FEATURES
100
AcDbLine
 62
7
  6
CONTINUOUS
 10
208.6246841683
 20
105.6272726814
 11
209.0329324588
 21
104.9653714229
  0
LINE
  5
36F
100
AcDbEntity
  8
7_ALL_FEATURES
100
AcDbLine
 62
7
  6
CONTINUOUS
 10
210.2576773302
 20
106.4437692623
 11
209.8494290397
 21
107.1056705209
  0
LINE
  5
370
100
AcDbEntity
  8
3_ALL_AXES
100
AcDbLine
 62
7
  6
CONTINUOUS
 10
208.240961319
 20
103.2815287208
 11
208.0995399628
 21
103.3522393989
  0
LINE
  5
371
100
AcDbEntity
  8
7_ALL_FEATURES
100
AcDbLine
 62
7
  6
CONTINUOUS
 10
233.2706792752
 20
97.0920634152
 11
234.0482625907
 21
97.4808550729
  0
LINE
  5
372
100
AcDbEntity
  8
7_ALL_FEATURES
100
AcDbLine
 62
7
  6
CONTINUOUS
 10
186.6180773989
 20
100.4354473631
 11
202.1346388992
 21
98.9249413443
  0
LINE
  5
373
100
AcDbEntity
  8
7_ALL_FEATURES
100
AcDbLine
 62
3
  6
CONTINUOUS
 10
186.4059453645
 20
100.5415133802
 11
202.2148769493
 21
99.0025457224
  0
LINE
  5
374
100
AcDbEntity
  8
7_ALL_FEATURES
100
AcDbLine
 62
7
  6
CONTINUOUS
 10
208.6246841683
 20
105.6272726814
 11
209.4907095721
 21
105.1942599795
  0
LINE
  5
375
100
AcDbEntity
  8
7_ALL_FEATURES
100
AcDbLine
 62
7
  6
CONTINUOUS
 10
209.0329324588
 20
106.6974222304
 11
210.0935926306
 21
106.1670921445
  0
LINE
  5
376
100
AcDbEntity
  8
7_ALL_FEATURES
100
AcDbLine
 62
7
  6
CONTINUOUS
 10
233.6654466411
 20
99.044206982
 11
233.0562754741
 21
96.6897854715
  0
LINE
  5
377
100
AcDbEntity
  8
7_ALL_FEATURES
100
AcDbLine
 62
7
  6
CONTINUOUS
 10
233.0562754741
 20
96.6897854715
 11
239.4202365048
 21
93.5078049561
  0
LINE
  5
378
100
AcDbEntity
  8
7_ALL_FEATURES
100
AcDbLine
 62
9
  6
CONTINUOUS
 10
239.4932189497
 20
93.980793578
 11
233.2706792752
 21
97.0920634152
  0
LINE
  5
379
100
AcDbEntity
  8
3_ALL_AXES
100
AcDbLine
 62
7
  6
CONTINUOUS
 10
210.924242892
 20
108.6480918668
 11
210.7828215358
 21
108.7188025449
  0
LINE
  5
37A
100
AcDbEntity
  8
7_ALL_FEATURES
100
AcDbLine
 62
9
  6
CONTINUOUS
 10
234.0482625907
 20
97.4808550729
 11
234.0482625907
 21
98.8943328703
  0
LINE
  5
37B
100
AcDbEntity
  8
7_ALL_FEATURES
100
AcDbLine
 62
7
  6
CONTINUOUS
 10
240.2708022651
 20
94.3695852357
 11
239.4932189497
 21
93.980793578
  0
LINE
  5
37C
100
AcDbEntity
  8
7_ALL_FEATURES
100
AcDbLine
 62
9
  6
CONTINUOUS
 10
214.1080855051
 20
111.6153813672
 11
213.8959534707
 21
111.7214473844
  0
LINE
  5
37D
100
AcDbEntity
  8
7_ALL_FEATURES
100
AcDbLine
 62
7
  6
CONTINUOUS
 10
239.4202365048
 20
93.5078049561
 11
239.5499549992
 21
94.0091616028
  0
LINE
  5
37E
100
AcDbEntity
  8
7_ALL_FEATURES
100
AcDbLine
 62
7
  6
CONTINUOUS
 10
212.0289400196
 20
115.9423717705
 11
211.8168079852
 21
116.0484377877
  0
LINE
  5
37F
100
AcDbEntity
  8
02___PRT_ALL_AXES
100
AcDbLine
 62
7
  6
CONTINUOUS
 10
246.5824541759
 20
90.1536683264
 11
246.5824541759
 21
91.3744475748
  0
LINE
  5
380
100
AcDbEntity
  8
7_ALL_FEATURES
100
AcDbLine
 62
7
  6
CONTINUOUS
 10
266.3468309528
 20
107.7729122055
 11
253.686038221
 21
93.8796167943
  0
LINE
  5
381
100
AcDbEntity
  8
7_ALL_FEATURES
100
AcDbLine
 62
3
  6
CONTINUOUS
 10
266.5589629872
 20
107.6668461883
 11
253.7291944672
 21
93.5881255362
  0
LINE
  5
382
100
AcDbEntity
  8
02___PRT_ALL_AXES
100
AcDbLine
 62
7
  6
CONTINUOUS
 10
249.4824541759
 20
100.1030762924
 11
249.4824541759
 21
108.3402018059
  0
LINE
  5
383
100
AcDbEntity
  8
02___PRT_ALL_AXES
100
AcDbLine
 62
7
  6
CONTINUOUS
 10
253.7824541759
 20
92.3187318359
 11
253.7824541759
 21
92.7517445378
  0
LINE
  5
384
100
AcDbEntity
  8
7_ALL_FEATURES
100
AcDbLine
 62
9
  6
CONTINUOUS
 10
266.5589629872
 20
107.6668461883
 11
266.3468309528
 21
107.7729122055
  0
LINE
  5
385
100
AcDbEntity
  8
7_ALL_FEATURES
100
AcDbLine
 62
7
  6
CONTINUOUS
 10
244.4453789563
 20
115.5570801708
 11
245.2618755372
 21
114.9797299016
  0
LINE
  5
386
100
AcDbEntity
  8
7_ALL_FEATURES
100
AcDbLine
 62
7
  6
CONTINUOUS
 10
266.6213077227
 20
110.8085483306
 11
266.8334397571
 21
110.7024823135
  0
ARC
  5
387
100
AcDbEntity
  8
7_ALL_FEATURES
100
AcDbCircle
 62
7
  6
CONTINUOUS
 10
74.409239207
 20
-247.1130421465
 40
320.0
100
AcDbArc
 50
84.9259727548
 51
86.6633521318
  0
ARC
  5
388
100
AcDbEntity
  8
7_ALL_FEATURES
100
AcDbCircle
 62
3
  6
CONTINUOUS
 10
65.6588423807
 20
-247.1130421465
 40
320.0
100
AcDbArc
 50
89.655635892
 51
95.0740272452
  0
ARC
  5
389
100
AcDbEntity
  8
7_ALL_FEATURES
100
AcDbCircle
 62
3
  6
CONTINUOUS
 10
65.8427227051
 20
64.7345472712
 40
10.0
100
AcDbArc
 50
244.0
 51
270.0
  0
ARC
  5
38A
100
AcDbEntity
  8
7_ALL_FEATURES
100
AcDbCircle
 62
3
  6
CONTINUOUS
 10
67.5340407938
 20
64.8813225958
 40
8.0
100
AcDbArc
 50
0.0
 51
89.655635892
  0
CIRCLE
  5
38B
100
AcDbEntity
  8
3_ALL_AXES
100
AcDbCircle
 62
7
  6
CONTINUOUS
 10
70.0340407938
 20
60.2345472712
 40
3.0
  0
ARC
  5
38C
100
AcDbEntity
  8
7_ALL_FEATURES
100
AcDbCircle
 62
7
  6
CONTINUOUS
 10
102.5340407938
 20
69.6407984549
 40
2.0
100
AcDbArc
 50
296.0
 51
84.9259727548
  0
ARC
  5
38D
100
AcDbEntity
  8
7_ALL_FEATURES
100
AcDbCircle
 62
3
  6
CONTINUOUS
 10
37.5340407938
 20
69.6407984549
 40
2.0
100
AcDbArc
 50
95.0740272452
 51
244.0
  0
ARC
  5
38E
100
AcDbEntity
  8
7_ALL_FEATURES
100
AcDbCircle
 62
3
  6
CONTINUOUS
 10
73.5340407938
 20
56.7345472712
 40
2.0
100
AcDbArc
 50
270.0
 51
360.0
  0
ARC
  5
38F
100
AcDbEntity
  8
7_ALL_FEATURES
100
AcDbCircle
 62
7
  6
CONTINUOUS
 10
49.0817500499
 20
53.2345472712
 40
1.5
100
AcDbArc
 50
247.548453544
 51
270.0
  0
ARC
  5
390
100
AcDbEntity
  8
7_ALL_FEATURES
100
AcDbCircle
 62
7
  6
CONTINUOUS
 10
90.9863315378
 20
53.2345472712
 40
1.5
100
AcDbArc
 50
270.0
 51
292.451546456
  0
CIRCLE
  5
391
100
AcDbEntity
  8
02___PRT_ALL_AXES
100
AcDbCircle
 62
7
  6
CONTINUOUS
 10
70.0340407938
 20
143.2659695424
 40
27.3
  0
CIRCLE
  5
392
100
AcDbEntity
  8
7_ALL_FEATURES
100
AcDbCircle
 62
9
  6
CONTINUOUS
 10
70.0340407938
 20
143.2659695424
 40
21.5251437362
  0
CIRCLE
  5
393
100
AcDbEntity
  8
7_ALL_FEATURES
100
AcDbCircle
 62
9
  6
CONTINUOUS
 10
70.0340407938
 20
143.2659695424
 40
20.952290744
  0
CIRCLE
  5
394
100
AcDbEntity
  8
02___PRT_ALL_AXES
100
AcDbCircle
 62
7
  6
CONTINUOUS
 10
70.0340407938
 20
143.2659695424
 40
20.25
  0
CIRCLE
  5
395
100
AcDbEntity
  8
02___PRT_ALL_AXES
100
AcDbCircle
 62
7
  6
CONTINUOUS
 10
70.0340407938
 20
143.2659695424
 40
20.1
  0
CIRCLE
  5
396
100
AcDbEntity
  8
7_ALL_FEATURES
100
AcDbCircle
 62
7
  6
CONTINUOUS
 10
70.0340407938
 20
143.2659695424
 40
19.6
  0
CIRCLE
  5
397
100
AcDbEntity
  8
7_ALL_FEATURES
100
AcDbCircle
 62
7
  6
CONTINUOUS
 10
70.0340407938
 20
143.2659695424
 40
18.7339745962
  0
ARC
  5
398
100
AcDbEntity
  8
7_ALL_FEATURES
100
AcDbCircle
 62
7
  6
CONTINUOUS
 10
70.0340407938
 20
143.2659695424
 40
18.4
100
AcDbArc
 50
22.9696765723
 51
337.0303234277
  0
ARC
  5
399
100
AcDbEntity
  8
7_ALL_FEATURES
100
AcDbCircle
 62
7
  6
CONTINUOUS
 10
70.0340407938
 20
143.2659695424
 40
15.0
100
AcDbArc
 50
17.0577174908
 51
342.9422848068
  0
ARC
  5
39A
100
AcDbEntity
  8
7_ALL_FEATURES
100
AcDbCircle
 62
9
  6
CONTINUOUS
 10
70.0340407938
 20
143.2659695424
 40
14.7
100
AcDbArc
 50
17.8257058685
 51
342.1742941315
  0
CIRCLE
  5
39B
100
AcDbEntity
  8
7_ALL_FEATURES
100
AcDbCircle
 62
9
  6
CONTINUOUS
 10
70.0340407938
 20
143.2659695424
 40
7.8
  0
CIRCLE
  5
39C
100
AcDbEntity
  8
7_ALL_FEATURES
100
AcDbCircle
 62
7
  6
CONTINUOUS
 10
70.0340407938
 20
143.2659695424
 40
7.5
  0
ARC
  5
39D
100
AcDbEntity
  8
7_ALL_FEATURES
100
AcDbCircle
 62
7
  6
CONTINUOUS
 10
85.1337096644
 20
149.6659695424
 40
2.0
100
AcDbArc
 50
270.0
 51
22.9696765723
  0
ARC
  5
39E
100
AcDbEntity
  8
7_ALL_FEATURES
100
AcDbCircle
 62
7
  6
CONTINUOUS
 10
85.1337096644
 20
136.8659695424
 40
2.0
100
AcDbArc
 50
337.0303234277
 51
90.0
  0
CIRCLE
  5
39F
100
AcDbEntity
  8
7_ALL_FEATURES
100
AcDbCircle
 62
7
  6
CONTINUOUS
 10
57.7840407938
 20
143.2659695424
 40
1.75
  0
CIRCLE
  5
3A0
100
AcDbEntity
  8
7_ALL_FEATURES
100
AcDbCircle
 62
7
  6
CONTINUOUS
 10
57.7840407938
 20
143.2659695424
 40
1.65
  0
ARC
  5
3A1
100
AcDbEntity
  8
7_ALL_FEATURES
100
AcDbCircle
 62
7
  6
CONTINUOUS
 10
151.2933003721
 20
164.2182602864
 40
1.5
100
AcDbArc
 50
0.0
 51
22.451546456
  0
ARC
  5
3A2
100
AcDbEntity
  8
7_ALL_FEATURES
100
AcDbCircle
 62
7
  6
CONTINUOUS
 10
151.2933003721
 20
122.3136787985
 40
1.5
100
AcDbArc
 50
337.548453544
 51
360.0
  0
ARC
  5
3A3
100
AcDbEntity
  8
7_ALL_FEATURES
100
AcDbCircle
 62
3
  6
CONTINUOUS
 10
329.6482897465
 20
-129.9044869171
 40
274.0827522637
100
AcDbArc
 50
116.285315049
 51
121.3871961143
  0
ARC
  5
3A4
100
AcDbEntity
  8
7_ALL_FEATURES
100
AcDbCircle
 62
7
  6
CONTINUOUS
 10
353.8936928161
 20
-113.5379435579
 40
241.0025379754
100
AcDbArc
 50
111.4269423366
 51
115.6731606155
  0
ARC
  5
3A5
100
AcDbEntity
  8
7_ALL_FEATURES
100
AcDbCircle
 62
7
  6
CONTINUOUS
 10
223.416884868
 20
119.1167921326
 40
23.2010325084
100
AcDbArc
 50
247.8201127094
 51
251.3957122224
  0
ARC
  5
3A6
100
AcDbEntity
  8
7_ALL_FEATURES
100
AcDbCircle
 62
9
  6
CONTINUOUS
 10
221.3273355485
 20
102.7996184466
 40
22.5310735871
100
AcDbArc
 50
243.4654968312
 51
245.9311810062
  0
ARC
  5
3A7
100
AcDbEntity
  8
7_ALL_FEATURES
100
AcDbCircle
 62
7
  6
CONTINUOUS
 10
223.2575506939
 20
118.0836861805
 40
22.2455688875
100
AcDbArc
 50
247.041288654
 51
250.849970241
  0
ARC
  5
3A8
100
AcDbEntity
  8
7_ALL_FEATURES
100
AcDbCircle
 62
9
  6
CONTINUOUS
 10
221.1970454731
 20
101.8126662381
 40
21.3158105137
100
AcDbArc
 50
243.4428285221
 51
244.6956140036
  0
ARC
  5
3A9
100
AcDbEntity
  8
7_ALL_FEATURES
100
AcDbCircle
 62
7
  6
CONTINUOUS
 10
224.4888163175
 20
90.6774302446
 40
9.6474010949
100
AcDbArc
 50
118.1204547674
 51
121.4894034337
  0
ARC
  5
3AA
100
AcDbEntity
  8
7_ALL_FEATURES
100
AcDbCircle
 62
9
  6
CONTINUOUS
 10
233.7245873262
 20
91.1787387568
 40
9.6468835852
100
AcDbArc
 50
118.1079602057
 51
121.4894402518
  0
ARC
  5
3AB
100
AcDbEntity
  8
7_ALL_FEATURES
100
AcDbCircle
 62
7
  6
CONTINUOUS
 10
224.4118779842
 20
78.5894397121
 40
8.35779039
100
AcDbArc
 50
273.1040568606
 51
274.009142353
  0
ARC
  5
3AC
100
AcDbEntity
  8
02___PRT_ALL_AXES
100
AcDbCircle
 62
7
  6
CONTINUOUS
 10
246.9454929919
 20
92.3185157817
 40
6.8369611553
100
AcDbArc
 50
0.001810599
 51
3.6273971615
  0
ARC
  5
3AD
100
AcDbEntity
  8
02___PRT_ALL_AXES
100
AcDbCircle
 62
7
  6
CONTINUOUS
 10
206.0192032926
 20
92.3185220563
 40
6.8367490879
100
AcDbArc
 50
176.3767953531
 51
179.9982419302
  0
ARC
  5
3AE
100
AcDbEntity
  8
02___PRT_ALL_AXES
100
AcDbCircle
 62
7
  6
CONTINUOUS
 10
241.2741770292
 20
91.325301083
 40
3.6002463906
100
AcDbArc
 50
353.1556868894
 51
354.9093550928
  0
ARC
  5
3AF
100
AcDbEntity
  8
7_ALL_FEATURES
100
AcDbCircle
 62
3
  6
CONTINUOUS
 10
210.4719745962
 20
113.3591158445
 40
3.0068303971
100
AcDbArc
 50
58.9187695078
 51
63.4320102265
  0
ARC
  5
3B0
100
AcDbEntity
  8
7_ALL_FEATURES
100
AcDbCircle
 62
7
  6
CONTINUOUS
 10
232.060501843
 20
99.5095637219
 40
2.7034861106
100
AcDbArc
 50
293.6572282867
 51
296.5921064769
  0
ARC
  5
3B1
100
AcDbEntity
  8
7_ALL_FEATURES
100
AcDbCircle
 62
7
  6
CONTINUOUS
 10
231.9503278744
 20
74.3997419426
 40
2.1350245949
100
AcDbArc
 50
18.9066179716
 51
19.8562546441
  0
ARC
  5
3B2
100
AcDbEntity
  8
7_ALL_FEATURES
100
AcDbCircle
 62
7
  6
CONTINUOUS
 10
232.0840445613
 20
74.4107635473
 40
1.9921639016
100
AcDbArc
 50
19.8566010033
 51
20.8485947794
  0
ARC
  5
3B3
100
AcDbEntity
  8
3_ALL_AXES
100
AcDbCircle
 62
7
  6
CONTINUOUS
 10
210.2775711198
 20
107.7084784185
 40
1.1296149422
100
AcDbArc
 50
55.5189505721
 51
63.4309405699
  0
ARC
  5
3B4
100
AcDbEntity
  8
3_ALL_AXES
100
AcDbCircle
 62
7
  6
CONTINUOUS
 10
208.6044303646
 20
104.362124841
 40
1.129061566
100
AcDbArc
 50
243.4373235558
 51
251.3668198288
  0
SPLINE
  5
3B5
100
AcDbEntity
  8
7_ALL_FEATURES
100
AcDbSpline
 62
7
  6
CONTINUOUS
 70
0
 71
3
 72
38
 73
34
 74
0
 42
0.0000001
 43
0.0000001
 44
0.0000000001
 40
0.0
 40
0.0
 40
0.0
 40
0.0
 40
0.1891549719
 40
0.2819371472
 40
0.3725050251
 40
0.4600749149
 40
0.5438315634
 40
0.622940121
 40
0.696556375
 40
0.7638458191
 40
0.8240062587
 40
0.8511773308
 40
0.8762921034
 40
0.8992699472
 40
0.9200365392
 40
0.9385239042
 40
0.9546714493
 40
0.9684261956
 40
0.9743916092
 40
0.9797425347
 40
0.9844743524
 40
0.988583114
 40
0.9920656607
 40
0.9949189038
 40
0.9961087454
 40
0.99714046
 40
0.9980138524
 40
0.9987287273
 40
0.9992848895
 40
0.9996821734
 40
0.9998212226
 40
0.9999205434
 40
1.0
 40
1.0
 40
1.0
 40
1.0
 10
144.2933003721
 20
120.3865724128
 30
0.0
 10
144.4354368121
 20
120.3865777016
 30
0.0
 10
144.6473008407
 20
120.3844129107
 30
0.0
 10
144.9271248189
 20
120.377318328
 30
0.0
 10
145.1305791999
 20
120.3701535745
 30
0.0
 10
145.3271799462
 20
120.3613504171
 30
0.0
 10
145.5150931745
 20
120.3512105329
 30
0.0
 10
145.6924461929
 20
120.3400949818
 30
0.0
 10
145.8573597216
 20
120.3284142949
 30
0.0
 10
146.0079863357
 20
120.3166146129
 30
0.0
 10
146.1237551908
 20
120.3067610582
 30
0.0
 10
146.2079123797
 20
120.2992081525
 30
0.0
 10
146.2642272215
 20
120.293997934
 30
0.0
 10
146.3157378047
 20
120.2891010524
 30
0.0
 10
146.3622804251
 20
120.2845686433
 30
0.0
 10
146.4037063375
 20
120.2804485467
 30
0.0
 10
146.4398826396
 20
120.2767844637
 30
0.0
 10
146.4666931809
 20
120.2740264657
 30
0.0
 10
146.4854314407
 20
120.2720795534
 30
0.0
 10
146.4974251614
 20
120.2708261138
 30
0.0
 10
146.5080307296
 20
120.2697121362
 30
0.0
 10
146.5172395492
 20
120.2687406912
 30
0.0
 10
146.5250443214
 20
120.2679140586
 30
0.0
 10
146.5306674355
 20
120.2673167428
 30
0.0
 10
146.5344597172
 20
120.2669129811
 30
0.0
 10
146.5367714399
 20
120.2666669499
 30
0.0
 10
146.5387314568
 20
120.2664569854
 30
0.0
 10
146.5403271115
 20
120.2662890737
 30
0.0
 10
146.5415906317
 20
120.2661477867
 30
0.0
 10
146.542371699
 20
120.2660773708
 30
0.0
 10
146.5428939744
 20
120.2660040425
 30
0.0
 10
146.543048477
 20
120.2660182553
 30
0.0
 10
146.5433424185
 20
120.2659274715
 30
0.0
 10
146.5433001369
 20
120.2659696267
 30
0.0
  0
SPLINE
  5
3B6
100
AcDbEntity
  8
7_ALL_FEATURES
100
AcDbSpline
 62
7
  6
CONTINUOUS
 70
0
 71
3
 72
38
 73
34
 74
0
 42
0.0000001
 43
0.0000001
 44
0.0000000001
 40
0.0
 40
0.0
 40
0.0
 40
0.0
 40
0.1891593329
 40
0.2819413773
 40
0.3725087392
 40
0.4600782183
 40
0.543834415
 40
0.6229425254
 40
0.6965583484
 40
0.763847381
 40
0.8240074391
 40
0.8511783346
 40
0.8762929416
 40
0.8992706324
 40
0.9200370853
 40
0.9385243257
 40
0.9546717614
 40
0.9684264138
 40
0.9743917863
 40
0.9797426749
 40
0.9844744599
 40
0.9885831931
 40
0.9920657156
 40
0.994918939
 40
0.9961087724
 40
0.9971404798
 40
0.9980138661
 40
0.998728736
 40
0.9992848944
 40
0.9996821756
 40
0.9998212239
 40
0.999920544
 40
1.0
 40
1.0
 40
1.0
 40
1.0
 10
144.2933003721
 20
166.1453666721
 30
0.0
 10
144.1511606551
 20
166.1453615168
 30
0.0
 10
143.9392934475
 20
166.1475262336
 30
0.0
 10
143.6594666826
 20
166.1546210431
 30
0.0
 10
143.456013099
 20
166.1617858508
 30
0.0
 10
143.2594133909
 20
166.1705890361
 30
0.0
 10
143.0715011487
 20
166.1807289291
 30
0.0
 10
142.8941491309
 20
166.1918444674
 30
0.0
 10
142.7292365716
 20
166.2035251241
 30
0.0
 10
142.5786108768
 20
166.2153247625
 30
0.0
 10
142.4628427491
 20
166.225178272
 30
0.0
 10
142.3786861028
 20
166.2327311389
 30
0.0
 10
142.322371632
 20
166.2379413284
 30
0.0
 10
142.2708613916
 20
166.2428381817
 30
0.0
 10
142.2243190831
 20
166.2473705634
 30
0.0
 10
142.1828934499
 20
166.2514906343
 30
0.0
 10
142.1467173931
 20
166.2551546939
 30
0.0
 10
142.1199070346
 20
166.2579126739
 30
0.0
 10
142.1011689033
 20
166.2598595733
 30
0.0
 10
142.0891752653
 20
166.2611130043
 30
0.0
 10
142.0785697703
 20
166.2622269745
 30
0.0
 10
142.0693610144
 20
166.2631984128
 30
0.0
 10
142.0615562963
 20
166.2640250396
 30
0.0
 10
142.0559332212
 20
166.2646223515
 30
0.0
 10
142.0521409658
 20
166.2650261103
 30
0.0
 10
142.0498292591
 20
166.2652721398
 30
0.0
 10
142.047869256
 20
166.2654821028
 30
0.0
 10
142.0462736123
 20
166.2656500134
 30
0.0
 10
142.0450101008
 20
166.2657912994
 30
0.0
 10
142.0442290388
 20
166.2658617149
 30
0.0
 10
142.043706767
 20
166.2659350427
 30
0.0
 10
142.0435522654
 20
166.2659208299
 30
0.0
 10
142.0432583261
 20
166.2660116132
 30
0.0
 10
142.0433006073
 20
166.2659694582
 30
0.0
  0
SPLINE
  5
3B7
100
AcDbEntity
  8
7_ALL_FEATURES
100
AcDbSpline
 62
7
  6
CONTINUOUS
 70
0
 71
3
 72
32
 73
28
 74
0
 42
0.0000001
 43
0.0000001
 44
0.0000000001
 40
0.0
 40
0.0
 40
0.0
 40
0.0
 40
0.0000794792
 40
0.0003179156
 40
0.000715309
 40
0.0012716251
 40
0.0028603353
 40
0.0050825102
 40
0.0079365445
 40
0.0114200586
 40
0.0155299595
 40
0.0202630844
 40
0.0315825435
 40
0.0453410594
 40
0.0614930003
 40
0.0799853602
 40
0.1007575097
 40
0.1237414388
 40
0.1760408293
 40
0.236216469
 40
0.3035223478
 40
0.3771558741
 40
0.4562822367
 40
0.5400569841
 40
0.627642918
 40
0.8110271488
 40
1.0
 40
1.0
 40
1.0
 40
1.0
 10
146.5433001369
 20
166.2659694582
 30
0.0
 10
146.5432438989
 20
166.2659493559
 30
0.0
 10
146.5429986983
 20
166.2659574738
 30
0.0
 10
146.5424716369
 20
166.2658680221
 30
0.0
 10
146.5415767068
 20
166.2657911653
 30
0.0
 10
146.5396796245
 20
166.2655770648
 30
0.0
 10
146.5364146252
 20
166.2652371252
 30
0.0
 10
146.5314354949
 20
166.2647028269
 30
0.0
 10
146.5250391268
 20
166.2640248795
 30
0.0
 10
146.5172324233
 20
166.2631975
 30
0.0
 10
146.5080209987
 20
166.2622259712
 30
0.0
 10
146.4929532772
 20
166.2606432138
 30
0.0
 10
146.4706729964
 20
166.258321978
 30
0.0
 10
146.4398543523
 20
166.2551517392
 30
0.0
 10
146.4036682883
 20
166.2514867109
 30
0.0
 10
146.3622312846
 20
166.2473655985
 30
0.0
 10
146.3156763125
 20
166.2428321072
 30
0.0
 10
146.2438215422
 20
166.2360014205
 30
0.0
 10
146.142453054
 20
166.226769095
 30
0.0
 10
146.0078465893
 20
166.2153129838
 30
0.0
 10
145.8571835653
 20
166.2035115658
 30
0.0
 10
145.6922316933
 20
166.1918296948
 30
0.0
 10
145.5148390933
 20
166.1807136042
 30
0.0
 10
145.3268870841
 20
166.1705742128
 30
0.0
 10
145.0605856076
 20
166.1586534023
 30
0.0
 10
144.7151066822
 20
166.1482169804
 30
0.0
 10
144.4352996397
 20
166.1453613489
 30
0.0
 10
144.2933003721
 20
166.1453666721
 30
0.0
  0
SPLINE
  5
3B8
100
AcDbEntity
  8
7_ALL_FEATURES
100
AcDbSpline
 62
7
  6
CONTINUOUS
 70
0
 71
3
 72
32
 73
28
 74
0
 42
0.0000001
 43
0.0000001
 44
0.0000000001
 40
0.0
 40
0.0
 40
0.0
 40
0.0
 40
0.0000794776
 40
0.0003179094
 40
0.0007152951
 40
0.0012716004
 40
0.0028602795
 40
0.0050824112
 40
0.0079363901
 40
0.0114198366
 40
0.0155296579
 40
0.0202626913
 40
0.0315819323
 40
0.0453401848
 40
0.0614918187
 40
0.0799838297
 40
0.1007555903
 40
0.1237390931
 40
0.1760375307
 40
0.2362121068
 40
0.303516837
 40
0.3771491537
 40
0.4562742819
 40
0.5400477839
 40
0.6276324001
 40
0.8110134372
 40
1.0
 40
1.0
 40
1.0
 40
1.0
 10
142.0433006073
 20
120.2659696267
 30
0.0
 10
142.0433568407
 20
120.2659897383
 30
0.0
 10
142.043602045
 20
120.2659815968
 30
0.0
 10
142.0441290879
 20
120.2660710697
 30
0.0
 10
142.0450240052
 20
120.2661479121
 30
0.0
 10
142.0469210478
 20
120.2663620164
 30
0.0
 10
142.0501859857
 20
120.2667019435
 30
0.0
 10
142.0551650181
 20
120.2672362342
 30
0.0
 10
142.0615612623
 20
120.2679141675
 30
0.0
 10
142.0693678142
 20
120.2687415314
 30
0.0
 10
142.0785790603
 20
120.2697130414
 30
0.0
 10
142.0936464909
 20
120.2712957691
 30
0.0
 10
142.1159263434
 20
120.2736169612
 30
0.0
 10
142.1467443978
 20
120.2767871419
 30
0.0
 10
142.1829297742
 20
120.2804521045
 30
0.0
 10
142.2243659961
 20
120.284573145
 30
0.0
 10
142.2709200966
 20
120.28910656
 30
0.0
 10
142.3427735428
 20
120.295937137
 30
0.0
 10
142.4441402001
 20
120.3051693261
 30
0.0
 10
142.5787442903
 20
120.31662529
 30
0.0
 10
142.7294047447
 20
120.3284265858
 30
0.0
 10
142.8943539161
 20
120.3401083732
 30
0.0
 10
143.0717437405
 20
120.3512244291
 30
0.0
 10
143.2596928907
 20
120.3613638378
 30
0.0
 10
143.525990033
 20
120.3732847397
 30
0.0
 10
143.8714758534
 20
120.3837218038
 30
0.0
 10
144.1512908013
 20
120.3865777921
 30
0.0
 10
144.2933003721
 20
120.3865724128
 30
0.0
  0
SPLINE
  5
3B9
100
AcDbEntity
  8
7_ALL_FEATURES
100
AcDbSpline
 62
7
  6
CONTINUOUS
 70
0
 71
3
 72
19
 73
15
 74
0
 42
0.0000001
 43
0.0000001
 44
0.0000000001
 40
0.0
 40
0.0
 40
0.0
 40
0.0
 40
0.1366952809
 40
0.2754389311
 40
0.4126250571
 40
0.4796363896
 40
0.5450547465
 40
0.6698798729
 40
0.7292137516
 40
0.7864469975
 40
0.8417609593
 40
0.8954757268
 40
0.9480393962
 40
1.0
 40
1.0
 40
1.0
 40
1.0
 10
231.3440999561
 20
73.672200202
 30
0.0
 10
231.2965370215
 20
73.8038981769
 30
0.0
 10
231.2266278854
 20
74.0792892443
 30
0.0
 10
231.1983621262
 20
74.503121892
 30
0.0
 10
231.2387683075
 20
74.8543357676
 30
0.0
 10
231.3096036354
 20
75.1217143006
 30
0.0
 10
231.4022600412
 20
75.3687180697
 30
0.0
 10
231.5293104722
 20
75.59356107
 30
0.0
 10
231.6884824325
 20
75.7835095654
 30
0.0
 10
231.8184526041
 20
75.9030920105
 30
0.0
 10
231.9590624202
 20
76.0002180302
 30
0.0
 10
232.1082869204
 20
76.0733550142
 30
0.0
 10
232.2638224117
 20
76.1212762196
 30
0.0
 10
232.3704579674
 20
76.1359055269
 30
0.0
 10
232.4236056511
 20
76.1387870076
 30
0.0
  0
SPLINE
  5
3BA
100
AcDbEntity
  8
3_ALL_AXES
100
AcDbSpline
 62
7
  6
CONTINUOUS
 70
0
 71
3
 72
14
 73
10
 74
0
 42
0.0000001
 43
0.0000001
 44
0.0000000001
 40
0.0
 40
0.0
 40
0.0
 40
0.0
 40
0.2789824719
 40
0.4112422845
 40
0.5379422332
 40
0.6592340015
 40
0.775800191
 40
0.888843334
 40
1.0
 40
1.0
 40
1.0
 40
1.0
 10
229.6829423951
 20
73.5821167534
 30
0.0
 10
229.7381129022
 20
73.4293540158
 30
0.0
 10
229.8458679906
 20
73.2117891376
 30
0.0
 10
230.0391566457
 20
72.9643546589
 30
0.0
 10
230.1999123592
 20
72.8108561956
 30
0.0
 10
230.3754959177
 20
72.6899130504
 30
0.0
 10
230.5622450505
 20
72.6043493914
 30
0.0
 10
230.755947865
 20
72.5563717743
 30
0.0
 10
230.8873528974
 20
72.5503406605
 30
0.0
 10
230.9519719524
 20
72.5538440796
 30
0.0
  0
SPLINE
  5
3BB
100
AcDbEntity
  8
3_ALL_AXES
100
AcDbSpline
 62
7
  6
CONTINUOUS
 70
0
 71
3
 72
19
 73
15
 74
0
 42
0.0000001
 43
0.0000001
 44
0.0000000001
 40
0.0
 40
0.0
 40
0.0
 40
0.0
 40
0.1366953036
 40
0.2754389574
 40
0.4126250817
 40
0.4796364126
 40
0.5450547675
 40
0.6698798883
 40
0.7292137641
 40
0.7864470071
 40
0.8417609662
 40
0.8954757312
 40
0.9480393983
 40
1.0
 40
1.0
 40
1.0
 40
1.0
 10
229.6829423951
 20
73.5821167534
 30
0.0
 10
229.6353794529
 20
73.7138147502
 30
0.0
 10
229.5654703137
 20
73.9892058452
 30
0.0
 10
229.5372045657
 20
74.4130385192
 30
0.0
 10
229.5776107613
 20
74.7642523932
 30
0.0
 10
229.6484460953
 20
75.0316309187
 30
0.0
 10
229.7411025058
 20
75.278634676
 30
0.0
 10
229.8681529403
 20
75.5034776616
 30
0.0
 10
230.0273248975
 20
75.693426144
 30
0.0
 10
230.1572950657
 20
75.8130085799
 30
0.0
 10
230.2979048771
 20
75.9101345916
 30
0.0
 10
230.4471293712
 20
75.9832715699
 30
0.0
 10
230.6026648559
 20
76.0311927729
 30
0.0
 10
230.7093004073
 20
76.0458220776
 30
0.0
 10
230.7624480887
 20
76.048703559
 30
0.0
  0
SPLINE
  5
3BC
100
AcDbEntity
  8
7_ALL_FEATURES
100
AcDbSpline
 62
7
  6
CONTINUOUS
 70
0
 71
3
 72
14
 73
10
 74
0
 42
0.0000001
 43
0.0000001
 44
0.0000000001
 40
0.0
 40
0.0
 40
0.0
 40
0.0
 40
0.1111566728
 40
0.2241998222
 40
0.3407660176
 40
0.4620577916
 40
0.5887577441
 40
0.7210175599
 40
1.0
 40
1.0
 40
1.0
 40
1.0
 10
232.613129512
 20
72.6439275283
 30
0.0
 10
232.5485104529
 20
72.6404241099
 30
0.0
 10
232.4171054129
 20
72.6464552235
 30
0.0
 10
232.2234025883
 20
72.6944328472
 30
0.0
 10
232.036653448
 20
72.7799965148
 30
0.0
 10
231.8610698862
 20
72.9009396711
 30
0.0
 10
231.7003141712
 20
73.0544381435
 30
0.0
 10
231.5070255359
 20
73.3018726194
 30
0.0
 10
231.3992704565
 20
73.5194374818
 30
0.0
 10
231.3440999561
 20
73.672200202
 30
0.0
  0
SPLINE
  5
3BD
100
AcDbEntity
  8
7_ALL_FEATURES
100
AcDbSpline
 62
7
  6
CONTINUOUS
 70
0
 71
3
 72
19
 73
15
 74
0
 42
0.0000001
 43
0.0000001
 44
0.0000000001
 40
0.0
 40
0.0
 40
0.0
 40
0.0
 40
0.1371185174
 40
0.2759945236
 40
0.3450582231
 40
0.413247341
 40
0.5453178773
 40
0.6699438175
 40
0.7292018557
 40
0.7863858784
 40
0.841680154
 40
0.8954032345
 40
0.9479971223
 40
1.0
 40
1.0
 40
1.0
 40
1.0
 10
233.9701634906
 20
75.0915469036
 30
0.0
 10
234.0151543765
 20
74.9601962378
 30
0.0
 10
234.0803672595
 20
74.6865513421
 30
0.0
 10
234.0993364218
 20
74.3357345875
 30
0.0
 10
234.0765969662
 20
74.0567029057
 30
0.0
 10
234.0294167275
 20
73.7877748017
 30
0.0
 10
233.9270692765
 20
73.4728169481
 30
0.0
 10
233.7658327608
 20
73.1930870443
 30
0.0
 10
233.6073085176
 20
73.0067183361
 30
0.0
 10
233.4781817619
 20
72.889460664
 30
0.0
 10
233.3387260722
 20
72.7942478083
 30
0.0
 10
233.1909136655
 20
72.7225586403
 30
0.0
 10
233.0369778063
 20
72.6755677493
 30
0.0
 10
232.931494123
 20
72.6611915505
 30
0.0
 10
232.8789147218
 20
72.6583408801
 30
0.0
  0
SPLINE
  5
3BE
100
AcDbEntity
  8
7_ALL_FEATURES
100
AcDbSpline
 62
7
  6
CONTINUOUS
 70
0
 71
3
 72
11
 73
7
 74
0
 42
0.0000001
 43
0.0000001
 44
0.0000000001
 40
0.0
 40
0.0
 40
0.0
 40
0.0
 40
0.2625848345
 40
0.5148794387
 40
0.7594964507
 40
1.0
 40
1.0
 40
1.0
 40
1.0
 10
231.8672821507
 20
72.9057574968
 30
0.0
 10
231.8174479718
 20
72.8552702262
 30
0.0
 10
231.7117507798
 20
72.7636937646
 30
0.0
 10
231.5347975466
 20
72.6576780921
 30
0.0
 10
231.3467006537
 20
72.5885153419
 30
0.0
 10
231.2161896124
 20
72.5681715916
 30
0.0
 10
231.1513108583
 20
72.5646540935
 30
0.0
  0
SPLINE
  5
3BF
100
AcDbEntity
  8
7_ALL_FEATURES
100
AcDbSpline
 62
7
  6
CONTINUOUS
 70
0
 71
3
 72
11
 73
7
 74
0
 42
0.0000001
 43
0.0000001
 44
0.0000000001
 40
0.0
 40
0.0
 40
0.0
 40
0.0
 40
0.2404806198
 40
0.4850855105
 40
0.7373869838
 40
1.0
 40
1.0
 40
1.0
 40
1.0
 10
230.9617869974
 20
76.0595135728
 30
0.0
 10
231.0267573663
 20
76.063036038
 30
0.0
 10
231.15889426
 20
76.056899991
 30
0.0
 10
231.3536361969
 20
76.0083302295
 30
0.0
 10
231.5412505311
 20
75.9218168403
 30
0.0
 10
231.6563477325
 20
75.8419864127
 30
0.0
 10
231.7113975954
 20
75.7970621328
 30
0.0
  0
SPLINE
  5
3C0
100
AcDbEntity
  8
7_ALL_FEATURES
100
AcDbSpline
 62
7
  6
CONTINUOUS
 70
0
 71
3
 72
14
 73
10
 74
0
 42
0.0000001
 43
0.0000001
 44
0.0000000001
 40
0.0
 40
0.0
 40
0.0
 40
0.0
 40
0.1111566729
 40
0.2241998223
 40
0.3407660177
 40
0.4620577917
 40
0.5887577443
 40
0.7210175601
 40
1.0
 40
1.0
 40
1.0
 40
1.0
 10
232.6893908608
 20
76.1532003594
 30
0.0
 10
232.7540099199
 20
76.1567037778
 30
0.0
 10
232.88541496
 20
76.1506726643
 30
0.0
 10
233.0791177846
 20
76.1026950405
 30
0.0
 10
233.265866925
 20
76.0171313729
 30
0.0
 10
233.4414504868
 20
75.8961882165
 30
0.0
 10
233.6022062019
 20
75.742689744
 30
0.0
 10
233.795494837
 20
75.4952552681
 30
0.0
 10
233.9032499163
 20
75.2776904058
 30
0.0
 10
233.9584204167
 20
75.1249276857
 30
0.0
  0
SPLINE
  5
3C1
100
AcDbEntity
  8
7_ALL_FEATURES
100
AcDbSpline
 62
7
  6
CONTINUOUS
 70
0
 71
3
 72
21
 73
17
 74
0
 42
0.0000001
 43
0.0000001
 44
0.0000000001
 40
0.0
 40
0.0
 40
0.0
 40
0.0
 40
0.1413380559
 40
0.2130329659
 40
0.2843123191
 40
0.4224707513
 40
0.4884232433
 40
0.551672321
 40
0.6120985449
 40
0.6698571831
 40
0.7254004653
 40
0.779460909
 40
0.8329788101
 40
0.8869750105
 40
0.9423992013
 40
1.0
 40
1.0
 40
1.0
 40
1.0
 10
230.0158286121
 20
73.6376247946
 30
0.0
 10
229.9584575987
 20
73.7964805575
 30
0.0
 10
229.9017737377
 20
74.0479016992
 30
0.0
 10
229.8850412554
 20
74.387778436
 30
0.0
 10
229.9074898257
 20
74.7235442736
 30
0.0
 10
229.9873906356
 20
75.0469988723
 30
0.0
 10
230.1243529045
 20
75.3365801841
 30
0.0
 10
230.2498534828
 20
75.5262986089
 30
0.0
 10
230.3967783226
 20
75.6870405746
 30
0.0
 10
230.5618167398
 20
75.8148166771
 30
0.0
 10
230.7411240521
 20
75.9062232629
 30
0.0
 10
230.9303088546
 20
75.9586429353
 30
0.0
 10
231.1244560844
 20
75.9704832725
 30
0.0
 10
231.3183985282
 20
75.9414091157
 30
0.0
 10
231.5070010285
 20
75.8724417884
 30
0.0
 10
231.6236480875
 20
75.8026686943
 30
0.0
 10
231.6795387112
 20
75.7624919888
 30
0.0
  0
SPLINE
  5
3C2
100
AcDbEntity
  8
7_ALL_FEATURES
100
AcDbSpline
 62
7
  6
CONTINUOUS
 70
0
 71
3
 72
14
 73
10
 74
0
 42
0.0000001
 43
0.0000001
 44
0.0000000001
 40
0.0
 40
0.0
 40
0.0
 40
0.0
 40
0.1111566729
 40
0.2241998223
 40
0.3407660177
 40
0.4620577917
 40
0.5887577443
 40
0.7210175601
 40
1.0
 40
1.0
 40
1.0
 40
1.0
 10
232.8789147218
 20
72.6583408801
 30
0.0
 10
232.8142956627
 20
72.6548374617
 30
0.0
 10
232.6828906226
 20
72.6608685753
 30
0.0
 10
232.489187798
 20
72.708846199
 30
0.0
 10
232.3024386575
 20
72.7944098667
 30
0.0
 10
232.1268550957
 20
72.9153530231
 30
0.0
 10
231.9660993807
 20
73.0688514956
 30
0.0
 10
231.7728107454
 20
73.3162859714
 30
0.0
 10
231.6650556669
 20
73.533850834
 30
0.0
 10
231.6098851659
 20
73.6866135538
 30
0.0
  0
SPLINE
  5
3C3
100
AcDbEntity
  8
7_ALL_FEATURES
100
AcDbSpline
 62
7
  6
CONTINUOUS
 70
0
 71
3
 72
20
 73
16
 74
0
 42
0.0000001
 43
0.0000001
 44
0.0000000001
 40
0.0
 40
0.0
 40
0.0
 40
0.0
 40
0.0616714713
 40
0.1216034471
 40
0.1801167309
 40
0.2376232203
 40
0.2946048145
 40
0.351581407
 40
0.4090732081
 40
0.4675629007
 40
0.5274642803
 40
0.5891002011
 40
0.7181418221
 40
0.8554278725
 40
1.0
 40
1.0
 40
1.0
 40
1.0
 10
231.8332103139
 20
72.9379798348
 30
0.0
 10
231.7974793451
 20
72.9058636274
 30
0.0
 10
231.7232035246
 20
72.8466133024
 30
0.0
 10
231.6029808613
 20
72.7735220453
 30
0.0
 10
231.4769923845
 20
72.7184366946
 30
0.0
 10
231.3467427533
 20
72.6820918847
 30
0.0
 10
231.2138005636
 20
72.6649532294
 30
0.0
 10
231.0797891854
 20
72.6672394585
 30
0.0
 10
230.946345405
 20
72.6889206334
 30
0.0
 10
230.8150865813
 20
72.7296910623
 30
0.0
 10
230.6875571325
 20
72.789018204
 30
0.0
 10
230.5220560685
 20
72.8933679616
 30
0.0
 10
230.3323994427
 20
73.0681415476
 30
0.0
 10
230.1462427131
 20
73.3308824104
 30
0.0
 10
230.0540846652
 20
73.5316968313
 30
0.0
 10
230.0158286121
 20
73.6376247946
 30
0.0
  0
SPLINE
  5
3C4
100
AcDbEntity
  8
7_ALL_FEATURES
100
AcDbSpline
 62
7
  6
CONTINUOUS
 70
0
 71
3
 72
19
 73
15
 74
0
 42
0.0000001
 43
0.0000001
 44
0.0000000001
 40
0.0
 40
0.0
 40
0.0
 40
0.0
 40
0.136695281
 40
0.2754389312
 40
0.4126250571
 40
0.4796363896
 40
0.5450547466
 40
0.6698798729
 40
0.7292137517
 40
0.7864469975
 40
0.8417609593
 40
0.8954757268
 40
0.9480393962
 40
1.0
 40
1.0
 40
1.0
 40
1.0
 10
229.8822813025
 20
73.5929267672
 30
0.0
 10
229.8347183684
 20
73.7246247423
 30
0.0
 10
229.7648092314
 20
74.0000158094
 30
0.0
 10
229.7365434727
 20
74.4238484574
 30
0.0
 10
229.7769496538
 20
74.7750623329
 30
0.0
 10
229.8477849817
 20
75.0424408659
 30
0.0
 10
229.9404413876
 20
75.2894446349
 30
0.0
 10
230.0674918186
 20
75.5142876352
 30
0.0
 10
230.2266637788
 20
75.7042361306
 30
0.0
 10
230.3566339505
 20
75.8238185756
 30
0.0
 10
230.4972437665
 20
75.9209445954
 30
0.0
 10
230.6464682667
 20
75.9940815794
 30
0.0
 10
230.802003758
 20
76.0420027848
 30
0.0
 10
230.9086393138
 20
76.0566320921
 30
0.0
 10
230.9617869974
 20
76.0595135728
 30
0.0
  0
SPLINE
  5
3C5
100
AcDbEntity
  8
7_ALL_FEATURES
100
AcDbSpline
 62
7
  6
CONTINUOUS
 70
0
 71
3
 72
26
 73
22
 74
0
 42
0.0000001
 43
0.0000001
 44
0.0000000001
 40
0.0
 40
0.0
 40
0.0
 40
0.0
 40
0.1407074959
 40
0.211782312
 40
0.2816435524
 40
0.3492468976
 40
0.4137991098
 40
0.4748850745
 40
0.5325835351
 40
0.5603916823
 40
0.5876431995
 40
0.614501735
 40
0.6411533002
 40
0.667796361
 40
0.6946297954
 40
0.7218409845
 40
0.7495961112
 40
0.8071603892
 40
0.8680971525
 40
0.9325040916
 40
1.0
 40
1.0
 40
1.0
 40
1.0
 10
231.7434324755
 20
73.7313115812
 30
0.0
 10
231.671597884
 20
73.930215839
 30
0.0
 10
231.6099810155
 20
74.2487670642
 30
0.0
 10
231.6198453291
 20
74.6728749148
 30
0.0
 10
231.6731149635
 20
74.9830539502
 30
0.0
 10
231.7704627334
 20
75.2719960525
 30
0.0
 10
231.9085483002
 20
75.5292389035
 30
0.0
 10
232.0825847205
 20
75.7450839455
 30
0.0
 10
232.2551300043
 20
75.8853137562
 30
0.0
 10
232.4037985848
 20
75.9674173385
 30
0.0
 10
232.5183366942
 20
76.0134663048
 30
0.0
 10
232.6361104594
 20
76.0441909754
 30
0.0
 10
232.7559750135
 20
76.0592821308
 30
0.0
 10
232.8767468696
 20
76.0585911471
 30
0.0
 10
232.9972307922
 20
76.0421154401
 30
0.0
 10
233.1162571691
 20
76.0100430794
 30
0.0
 10
233.2732792342
 20
75.9462294062
 30
0.0
 10
233.4607011322
 20
75.8275294439
 30
0.0
 10
233.658249058
 20
75.6338507892
 30
0.0
 10
233.824795619
 20
75.3948506105
 30
0.0
 10
233.9096648498
 20
75.2145754821
 30
0.0
 10
233.9457698584
 20
75.1197740755
 30
0.0
  0
SPLINE
  5
3C6
100
AcDbEntity
  8
7_ALL_FEATURES
100
AcDbSpline
 62
7
  6
CONTINUOUS
 70
0
 71
3
 72
26
 73
22
 74
0
 42
0.0000001
 43
0.0000001
 44
0.0000000001
 40
0.0
 40
0.0
 40
0.0
 40
0.0
 40
0.1406151452
 40
0.2116288501
 40
0.2813979161
 40
0.3488689958
 40
0.4132486139
 40
0.4741333611
 40
0.5316278921
 40
0.5593459579
 40
0.5865218448
 40
0.6133247069
 40
0.6399451527
 40
0.666584994
 40
0.6934448826
 40
0.7207120361
 40
0.7485504755
 40
0.8063482932
 40
0.8675715718
 40
0.9322679242
 40
1.0
 40
1.0
 40
1.0
 40
1.0
 10
233.957765712
 20
75.0874363342
 30
0.0
 10
234.0301002082
 20
74.8871478798
 30
0.0
 10
234.0918208679
 20
74.5662541332
 30
0.0
 10
234.0808182365
 20
74.1392994193
 30
0.0
 10
234.0260841143
 20
73.827360117
 30
0.0
 10
233.9267377453
 20
73.5372549208
 30
0.0
 10
233.7862292294
 20
73.2796316657
 30
0.0
 10
233.6094869559
 20
73.0643432562
 30
0.0
 10
233.4345631084
 20
72.9254951229
 30
0.0
 10
233.2841257818
 20
72.8450921512
 30
0.0
 10
233.1683297017
 20
72.8005700199
 30
0.0
 10
233.0493966808
 20
72.7716316493
 30
0.0
 10
232.9284985481
 20
72.7585811222
 30
0.0
 10
232.8068485436
 20
72.7615418429
 30
0.0
 10
232.6856661172
 20
72.7804890043
 30
0.0
 10
232.5661448387
 20
72.8152141809
 30
0.0
 10
232.4086937769
 20
72.8828187035
 30
0.0
 10
232.2214336315
 20
73.0065598944
 30
0.0
 10
232.0251739432
 20
73.2062346958
 30
0.0
 10
231.8609779998
 20
73.4510147171
 30
0.0
 10
231.7782748498
 20
73.6348358227
 30
0.0
 10
231.7434324755
 20
73.7313115812
 30
0.0
  0
SPLINE
  5
3C7
100
AcDbEntity
  8
7_ALL_FEATURES
100
AcDbSpline
 62
7
  6
CONTINUOUS
 70
0
 71
3
 72
19
 73
15
 74
0
 42
0.0000001
 43
0.0000001
 44
0.0000000001
 40
0.0
 40
0.0
 40
0.0
 40
0.0
 40
0.136695281
 40
0.2754389312
 40
0.4126250571
 40
0.4796363896
 40
0.5450547466
 40
0.6698798729
 40
0.7292137517
 40
0.7864469975
 40
0.8417609593
 40
0.8954757268
 40
0.9480393962
 40
1.0
 40
1.0
 40
1.0
 40
1.0
 10
231.6098851659
 20
73.6866135538
 30
0.0
 10
231.5623222318
 20
73.8183115289
 30
0.0
 10
231.4924130948
 20
74.0937025961
 30
0.0
 10
231.4641473361
 20
74.517535244
 30
0.0
 10
231.5045535172
 20
74.8687491196
 30
0.0
 10
231.5753888452
 20
75.1361276525
 30
0.0
 10
231.668045251
 20
75.3831314215
 30
0.0
 10
231.795095682
 20
75.6079744219
 30
0.0
 10
231.9542676423
 20
75.7979229172
 30
0.0
 10
232.0842378139
 20
75.9175053623
 30
0.0
 10
232.2248476299
 20
76.014631382
 30
0.0
 10
232.3740721301
 20
76.087768366
 30
0.0
 10
232.5296076215
 20
76.1356895714
 30
0.0
 10
232.6362431772
 20
76.1503188787
 30
0.0
 10
232.6893908608
 20
76.1532003594
 30
0.0
  0
SPLINE
  5
3C8
100
AcDbEntity
  8
7_ALL_FEATURES
100
AcDbSpline
 62
7
  6
CONTINUOUS
 70
0
 71
3
 72
14
 73
10
 74
0
 42
0.0000001
 43
0.0000001
 44
0.0000000001
 40
0.0
 40
0.0
 40
0.0
 40
0.0
 40
0.1111566729
 40
0.2241998223
 40
0.3407660177
 40
0.4620577917
 40
0.5887577443
 40
0.7210175601
 40
1.0
 40
1.0
 40
1.0
 40
1.0
 10
231.1513108583
 20
72.5646540935
 30
0.0
 10
231.0866917992
 20
72.5611506751
 30
0.0
 10
230.9552867592
 20
72.5671817887
 30
0.0
 10
230.7615839346
 20
72.6151594124
 30
0.0
 10
230.5748347941
 20
72.70072308
 30
0.0
 10
230.3992512323
 20
72.8216662364
 30
0.0
 10
230.2384955173
 20
72.975164709
 30
0.0
 10
230.045206882
 20
73.2225991847
 30
0.0
 10
229.9374518035
 20
73.4401640473
 30
0.0
 10
229.8822813025
 20
73.5929267672
 30
0.0
  0
SPLINE
  5
3C9
100
AcDbEntity
  8
3_ALL_AXES
100
AcDbSpline
 62
7
  6
CONTINUOUS
 70
0
 71
3
 72
14
 73
10
 74
0
 42
0.0000001
 43
0.0000001
 44
0.0000000001
 40
0.0
 40
0.0
 40
0.0
 40
0.0
 40
0.2789864404
 40
0.4112400588
 40
0.5379417165
 40
0.659233139
 40
0.7757997307
 40
0.8888431803
 40
1.0
 40
1.0
 40
1.0
 40
1.0
 10
230.2842326407
 20
73.8020035526
 30
0.0
 10
230.3236407011
 20
73.6928857739
 30
0.0
 10
230.400606606
 20
73.5374816141
 30
0.0
 10
230.5386750635
 20
73.3607472853
 30
0.0
 10
230.6534965467
 20
73.2511044802
 30
0.0
 10
230.7789140537
 20
73.1647159768
 30
0.0
 10
230.9123053466
 20
73.1035973741
 30
0.0
 10
231.0506649212
 20
73.0693253749
 30
0.0
 10
231.1445257277
 20
73.0650219738
 30
0.0
 10
231.1906823651
 20
73.0675223547
 30
0.0
  0
SPLINE
  5
3CA
100
AcDbEntity
  8
3_ALL_AXES
100
AcDbSpline
 62
7
  6
CONTINUOUS
 70
0
 71
3
 72
19
 73
15
 74
0
 42
0.0000001
 43
0.0000001
 44
0.0000000001
 40
0.0
 40
0.0
 40
0.0
 40
0.0
 40
0.1367060932
 40
0.2754560779
 40
0.3445458049
 40
0.4128009258
 40
0.5450723468
 40
0.6086203125
 40
0.6701040206
 40
0.786433338
 40
0.8417509351
 40
0.8954691204
 40
0.9480360402
 40
1.0
 40
1.0
 40
1.0
 40
1.0
 10
230.2842326407
 20
73.8020035526
 30
0.0
 10
230.2502586177
 20
73.8960749149
 30
0.0
 10
230.2003214877
 20
74.092738965
 30
0.0
 10
230.1834722585
 20
74.3456761678
 30
0.0
 10
230.1976265088
 20
74.5474504655
 30
0.0
 10
230.2296690911
 20
74.74229394
 30
0.0
 10
230.2881022096
 20
74.9280669807
 30
0.0
 10
230.3726166774
 20
75.0966747595
 30
0.0
 10
230.4690306469
 20
75.2449118042
 30
0.0
 10
230.5874002829
 20
75.3708896245
 30
0.0
 10
230.7234846276
 20
75.4648649847
 30
0.0
 10
230.8300825758
 20
75.5171158558
 30
0.0
 10
230.9411772928
 20
75.5513396437
 30
0.0
 10
231.0173453661
 20
75.561795484
 30
0.0
 10
231.0553080955
 20
75.5638519875
 30
0.0
  0
SPLINE
  5
3CB
100
AcDbEntity
  8
3_ALL_AXES
100
AcDbSpline
 62
7
  6
CONTINUOUS
 70
0
 71
3
 72
15
 73
11
 74
0
 42
0.0000001
 43
0.0000001
 44
0.0000000001
 40
0.0
 40
0.0
 40
0.0
 40
0.0
 40
0.1483724352
 40
0.2894077241
 40
0.4229259865
 40
0.5491266345
 40
0.6686282608
 40
0.7825155336
 40
0.8923310224
 40
1.0
 40
1.0
 40
1.0
 40
1.0
 10
207.3198604057
 20
104.9748608001
 30
0.0
 10
207.3198604057
 20
104.8812030776
 30
0.0
 10
207.327908025
 20
104.6983785144
 30
0.0
 10
207.3660610561
 20
104.4336818546
 30
0.0
 10
207.4296300876
 20
104.18823428
 30
0.0
 10
207.5179764129
 20
103.9650250395
 30
0.0
 10
207.6302093664
 20
103.7668048506
 30
0.0
 10
207.7651845754
 20
103.5961313065
 30
0.0
 10
207.9213059757
 20
103.4554157628
 30
0.0
 10
208.0387517615
 20
103.3826358282
 30
0.0
 10
208.0995405383
 20
103.352240549
 30
0.0
  0
SPLINE
  5
3CC
100
AcDbEntity
  8
3_ALL_AXES
100
AcDbSpline
 62
7
  6
CONTINUOUS
 70
0
 71
3
 72
25
 73
21
 74
0
 42
0.0000001
 43
0.0000001
 44
0.0000000001
 40
0.0
 40
0.0
 40
0.0
 40
0.0
 40
0.0647430307
 40
0.1325856947
 40
0.2028557896
 40
0.2747590502
 40
0.3474313662
 40
0.4199749277
 40
0.491497508
 40
0.5611510708
 40
0.6281720903
 40
0.6919253309
 40
0.7519532344
 40
0.8080322917
 40
0.8602357997
 40
0.9089955796
 40
0.9323593883
 40
0.9552056514
 40
0.9776942389
 40
1.0
 40
1.0
 40
1.0
 40
1.0
 10
207.3198604057
 20
104.9748608001
 30
0.0
 10
207.3198604057
 20
105.1002459242
 30
0.0
 10
207.3349834346
 20
105.3571814496
 30
0.0
 10
207.3983788103
 20
105.7454949661
 30
0.0
 10
207.5017977572
 20
106.1394619762
 30
0.0
 10
207.6432163961
 20
106.5313408575
 30
0.0
 10
207.8198624307
 20
106.9134953459
 30
0.0
 10
208.0282813695
 20
107.2784454604
 30
0.0
 10
208.2643978722
 20
107.619054947
 30
0.0
 10
208.5236090312
 20
107.928668129
 30
0.0
 10
208.8008859823
 20
108.2012452345
 30
0.0
 10
209.0908981684
 20
108.4314715302
 30
0.0
 10
209.3881263478
 20
108.6148416388
 30
0.0
 10
209.6870430622
 20
108.7476780878
 30
0.0
 10
209.9820196398
 20
108.8271304046
 30
0.0
 10
210.2236185168
 20
108.8472834405
 30
0.0
 10
210.4073639653
 20
108.8339846339
 30
0.0
 10
210.5385427002
 20
108.8101706887
 30
0.0
 10
210.6642726748
 20
108.7724651393
 30
0.0
 10
210.744183152
 20
108.7381208651
 30
0.0
 10
210.7828209602
 20
108.7188013947
 30
0.0
  0
SPLINE
  5
3CD
100
AcDbEntity
  8
3_ALL_AXES
100
AcDbSpline
 62
7
  6
CONTINUOUS
 70
0
 71
3
 72
15
 73
11
 74
0
 42
0.0000001
 43
0.0000001
 44
0.0000000001
 40
0.0
 40
0.0
 40
0.0
 40
0.0
 40
0.1076689776
 40
0.2174844664
 40
0.3313717392
 40
0.4508733655
 40
0.5770740135
 40
0.7105922759
 40
0.8516275648
 40
1.0
 40
1.0
 40
1.0
 40
1.0
 10
210.9242423168
 20
108.6480907164
 30
0.0
 10
210.9850310936
 20
108.6176954372
 30
0.0
 10
211.1024768793
 20
108.5449155026
 30
0.0
 10
211.2585982796
 20
108.4041999588
 30
0.0
 10
211.3935734886
 20
108.2335264148
 30
0.0
 10
211.505806442
 20
108.0353062259
 30
0.0
 10
211.5941527672
 20
107.8120969855
 30
0.0
 10
211.6577217987
 20
107.5666494109
 30
0.0
 10
211.6958748298
 20
107.3019527512
 30
0.0
 10
211.7039224491
 20
107.119128188
 30
0.0
 10
211.7039224491
 20
107.0254704655
 30
0.0
  0
SPLINE
  5
3CE
100
AcDbEntity
  8
3_ALL_AXES
100
AcDbSpline
 62
7
  6
CONTINUOUS
 70
0
 71
3
 72
11
 73
7
 74
0
 42
0.0000001
 43
0.0000001
 44
0.0000000001
 40
0.0
 40
0.0
 40
0.0
 40
0.0
 40
0.2436850895
 40
0.4899823274
 40
0.7413567901
 40
1.0
 40
1.0
 40
1.0
 40
1.0
 10
208.2409618942
 20
103.2815298711
 30
0.0
 10
208.2852328768
 20
103.259393731
 30
0.0
 10
208.3773128413
 20
103.2207394542
 30
0.0
 10
208.5229715771
 20
103.1809892394
 30
0.0
 10
208.6754773783
 20
103.1595591225
 30
0.0
 10
208.7793273565
 20
103.1575862008
 30
0.0
 10
208.8318273081
 20
103.1595052132
 30
0.0
  0
SPLINE
  5
3CF
100
AcDbEntity
  8
3_ALL_AXES
100
AcDbSpline
 62
7
  6
CONTINUOUS
 70
0
 71
3
 72
14
 73
10
 74
0
 42
0.0000001
 43
0.0000001
 44
0.0000000001
 40
0.0
 40
0.0
 40
0.0
 40
0.0
 40
0.1074479766
 40
0.2179931165
 40
0.3330082451
 40
0.4535459416
 40
0.713319405
 40
0.8534073342
 40
1.0
 40
1.0
 40
1.0
 40
1.0
 10
210.9170841233
 20
108.6396352452
 30
0.0
 10
210.9683922239
 20
108.6044205199
 30
0.0
 10
211.0667935337
 20
108.5243087596
 30
0.0
 10
211.1961216059
 20
108.380305086
 30
0.0
 10
211.3075029957
 20
108.2128488245
 30
0.0
 10
211.4337298431
 20
107.9544806088
 30
0.0
 10
211.5152016021
 20
107.6613274882
 30
0.0
 10
211.5558587029
 20
107.3472631991
 30
0.0
 10
211.5625010928
 20
107.1810826141
 30
0.0
 10
211.5625010928
 20
107.0961811437
 30
0.0
  0
SPLINE
  5
3D0
100
AcDbEntity
  8
3_ALL_AXES
100
AcDbSpline
 62
7
  6
CONTINUOUS
 70
0
 71
3
 72
15
 73
11
 74
0
 42
0.0000001
 43
0.0000001
 44
0.0000000001
 40
0.0
 40
0.0
 40
0.0
 40
0.0
 40
0.1173831418
 40
0.2411966152
 40
0.3695412281
 40
0.5002110049
 40
0.6308521783
 40
0.7591125806
 40
0.8827897664
 40
1.0
 40
1.0
 40
1.0
 40
1.0
 10
210.0154179074
 20
103.637794954
 30
0.0
 10
210.1373441993
 20
103.7298823772
 30
0.0
 10
210.3745968208
 20
103.9371195063
 30
0.0
 10
210.6964385151
 20
104.2959507093
 30
0.0
 10
210.9864801634
 20
104.7023780781
 30
0.0
 10
211.2364146931
 20
105.144777759
 30
0.0
 10
211.4391614703
 20
105.610575557
 30
0.0
 10
211.5889443357
 20
106.08654912
 30
0.0
 10
211.6814858008
 20
106.5590819154
 30
0.0
 10
211.7039224491
 20
106.8729011828
 30
0.0
 10
211.7039224491
 20
107.0254704655
 30
0.0
  0
SPLINE
  5
3D1
100
AcDbEntity
  8
3_ALL_AXES
100
AcDbSpline
 62
7
  6
CONTINUOUS
 70
0
 71
3
 72
24
 73
20
 74
0
 42
0.0000001
 43
0.0000001
 44
0.0000000001
 40
0.0
 40
0.0
 40
0.0
 40
0.0
 40
0.0222929692
 40
0.0449529593
 40
0.0918757538
 40
0.1417518963
 40
0.1951537756
 40
0.2523158269
 40
0.3131797636
 40
0.3774491067
 40
0.4446407297
 40
0.5141303728
 40
0.5851927068
 40
0.6570374739
 40
0.7288432938
 40
0.7997901878
 40
0.8690932492
 40
0.936032758
 40
1.0
 40
1.0
 40
1.0
 40
1.0
 10
208.2436860359
 20
103.2922446845
 30
0.0
 10
208.2834929717
 20
103.2788068094
 30
0.0
 10
208.3653277432
 20
103.2561190921
 30
0.0
 10
208.536431776
 20
103.2278791764
 30
0.0
 10
208.7631668107
 20
103.2262131228
 30
0.0
 10
209.0431196733
 20
103.2764366032
 30
0.0
 10
209.3294207534
 20
103.3771983021
 30
0.0
 10
209.6170391792
 20
103.5263506054
 30
0.0
 10
209.9010372543
 20
103.7210314918
 30
0.0
 10
210.176436191
 20
103.9576771743
 30
0.0
 10
210.4383539937
 20
104.2320020407
 30
0.0
 10
210.6820986988
 20
104.5390471907
 30
0.0
 10
210.9032763933
 20
104.8732553918
 30
0.0
 10
211.0978844315
 20
105.2285689433
 30
0.0
 10
211.2623945351
 20
105.5985440114
 30
0.0
 10
211.3938237833
 20
105.9764670953
 30
0.0
 10
211.4897817075
 20
106.3555109527
 30
0.0
 10
211.5485270099
 20
106.728769565
 30
0.0
 10
211.5625010928
 20
106.9756268144
 30
0.0
 10
211.5625010928
 20
107.0961811437
 30
0.0
  0
SPLINE
  5
3D2
100
AcDbEntity
  8
7_ALL_FEATURES
100
AcDbSpline
 62
7
  6
CONTINUOUS
 70
0
 71
3
 72
18
 73
14
 74
0
 42
0.0000001
 43
0.0000001
 44
0.0000000001
 40
0.0
 40
0.0
 40
0.0
 40
0.0
 40
0.0537361433
 40
0.1077452176
 40
0.1622927542
 40
0.2176300594
 40
0.2739884436
 40
0.3315747851
 40
0.4510402768
 40
0.5772022344
 40
0.7106809233
 40
0.8516714964
 40
1.0
 40
1.0
 40
1.0
 40
1.0
 10
212.0289399957
 20
115.9423717227
 30
0.0
 10
212.1098687598
 20
115.9019074661
 30
0.0
 10
212.2685518139
 20
115.8133650765
 30
0.0
 10
212.4945111855
 20
115.65906562
 30
0.0
 10
212.707991518
 20
115.4836186287
 30
0.0
 10
212.9083013427
 20
115.287609076
 30
0.0
 10
213.094839872
 20
115.0716507601
 30
0.0
 10
213.327225449
 20
114.7542530886
 30
0.0
 10
213.5798158122
 20
114.3082329781
 30
0.0
 10
213.8153569765
 20
113.7130652072
 30
0.0
 10
213.9848853674
 20
113.0585224702
 30
0.0
 10
214.08662548
 20
112.3526696679
 30
0.0
 10
214.1080855051
 20
111.8651372735
 30
0.0
 10
214.1080855051
 20
111.6153813672
 30
0.0
  0
SPLINE
  5
3D3
100
AcDbEntity
  8
7_ALL_FEATURES
100
AcDbSpline
 62
7
  6
CONTINUOUS
 70
0
 71
3
 72
9
 73
5
 74
0
 42
0.0000001
 43
0.0000001
 44
0.0000000001
 40
0.0
 40
0.0
 40
0.0
 40
0.0
 40
0.4946512237
 40
1.0
 40
1.0
 40
1.0
 40
1.0
 10
186.3436006651
 20
100.5133252175
 30
0.0
 10
186.3858563292
 20
100.4921972558
 30
0.0
 10
186.475547648
 20
100.4575488735
 30
0.0
 10
186.5700394487
 20
100.4401237608
 30
0.0
 10
186.6180773989
 20
100.4354473631
 30
0.0
  0
SPLINE
  5
3D4
100
AcDbEntity
  8
7_ALL_FEATURES
100
AcDbSpline
 62
7
  6
CONTINUOUS
 70
0
 71
3
 72
13
 73
9
 74
0
 42
0.0000001
 43
0.0000001
 44
0.0000000001
 40
0.0
 40
0.0
 40
0.0
 40
0.0
 40
0.2738349168
 40
0.528297658
 40
0.6497439183
 40
0.7682210553
 40
0.8846382813
 40
1.0
 40
1.0
 40
1.0
 40
1.0
 10
265.8519574998
 20
110.807495783
 30
0.0
 10
265.9192700917
 20
110.8338321053
 30
0.0
 10
266.0533448409
 20
110.8748444044
 30
0.0
 10
266.2250239845
 20
110.8940074671
 30
0.0
 10
266.3555911194
 20
110.8873241535
 30
0.0
 10
266.4486041332
 20
110.8719509047
 30
0.0
 10
266.5376183349
 20
110.8462069211
 30
0.0
 10
266.5940716029
 20
110.8221661756
 30
0.0
 10
266.6213076889
 20
110.808548263
 30
0.0
  0
SPLINE
  5
3D5
100
AcDbEntity
  8
7_ALL_FEATURES
100
AcDbSpline
 62
7
  6
CONTINUOUS
 70
0
 71
3
 72
25
 73
21
 74
0
 42
0.0000001
 43
0.0000001
 44
0.0000000001
 40
0.0
 40
0.0
 40
0.0
 40
0.0
 40
0.022457427
 40
0.0450603252
 40
0.0679491512
 40
0.0912548259
 40
0.1395248657
 40
0.1906695417
 40
0.2451533146
 40
0.3031714982
 40
0.3646846129
 40
0.4294587544
 40
0.4971041874
 40
0.5671098761
 40
0.6388740874
 40
0.7117319768
 40
0.7849811586
 40
0.8579061023
 40
0.929802101
 40
1.0
 40
1.0
 40
1.0
 40
1.0
 10
266.6213076889
 20
110.808548263
 30
0.0
 10
266.6441796504
 20
110.7971123917
 30
0.0
 10
266.68892833
 20
110.7717939062
 30
0.0
 10
266.7521475821
 20
110.7269727954
 30
0.0
 10
266.8113167315
 20
110.6754323501
 30
0.0
 10
266.8853220217
 20
110.5971769637
 30
0.0
 10
266.9665733693
 20
110.4824941097
 30
0.0
 10
267.0429463763
 20
110.3240036593
 30
0.0
 10
267.0985167298
 20
110.1455174758
 30
0.0
 10
267.1325800963
 20
109.9498293137
 30
0.0
 10
267.144743296
 20
109.7399098261
 30
0.0
 10
267.1348817067
 20
109.5189550901
 30
0.0
 10
267.1031811098
 20
109.2903397882
 30
0.0
 10
267.0501453702
 20
109.0575731169
 30
0.0
 10
266.9766003904
 20
108.8242414029
 30
0.0
 10
266.8836859142
 20
108.5939486358
 30
0.0
 10
266.7728421756
 20
108.3702589383
 30
0.0
 10
266.6457806504
 20
108.1566300595
 30
0.0
 10
266.5044828274
 20
107.9563865616
 30
0.0
 10
266.4006701907
 20
107.8319925847
 30
0.0
 10
266.3468309528
 20
107.7729122055
 30
0.0
  0
SPLINE
  5
3D6
100
AcDbEntity
  8
7_ALL_FEATURES
100
AcDbSpline
 62
7
  6
CONTINUOUS
 70
0
 71
3
 72
24
 73
20
 74
0
 42
0.0000001
 43
0.0000001
 44
0.0000000001
 40
0.0
 40
0.0
 40
0.0
 40
0.0
 40
0.1311548458
 40
0.1977096398
 40
0.264526282
 40
0.3313256236
 40
0.3978289545
 40
0.4637651144
 40
0.5288776489
 40
0.5929320442
 40
0.6245034984
 40
0.6557363546
 40
0.7170953845
 40
0.7768979081
 40
0.8350706609
 40
0.8915983109
 40
0.9465290745
 40
0.9734396105
 40
1.0
 40
1.0
 40
1.0
 40
1.0
 10
212.990356293
 20
79.0036504173
 30
0.0
 10
212.6661217662
 20
79.9014299842
 30
0.0
 10
212.2825352625
 20
81.2957245344
 30
0.0
 10
211.9780667212
 20
83.1977717886
 30
0.0
 10
211.8528520705
 20
84.6506256989
 30
0.0
 10
211.8332859531
 20
86.1081938258
 30
0.0
 10
211.919504445
 20
87.5569798622
 30
0.0
 10
212.1107299067
 20
88.9833266287
 30
0.0
 10
212.4051671356
 20
90.373784606
 30
0.0
 10
212.7359182337
 20
91.4972858955
 30
0.0
 10
213.0499882569
 20
92.3657369514
 30
0.0
 10
213.3920867458
 20
93.2023607036
 30
0.0
 10
213.8760174437
 20
94.2019745551
 30
0.0
 10
214.5470020875
 20
95.3235116117
 30
0.0
 10
215.2987591648
 20
96.3495809228
 30
0.0
 10
216.1242536944
 20
97.2703221777
 30
0.0
 10
216.8726817755
 20
97.9473233946
 30
0.0
 10
217.500147251
 20
98.4261104067
 30
0.0
 10
217.8226491711
 20
98.644380412
 30
0.0
 10
217.9858438389
 20
98.747985876
 30
0.0
  0
SPLINE
  5
3D7
100
AcDbEntity
  8
7_ALL_FEATURES
100
AcDbSpline
 62
7
  6
CONTINUOUS
 70
0
 71
3
 72
21
 73
17
 74
0
 42
0.0000001
 43
0.0000001
 44
0.0000000001
 40
0.0
 40
0.0
 40
0.0
 40
0.0
 40
0.055459372
 40
0.111159613
 40
0.1673332528
 40
0.2241967744
 40
0.2819440574
 40
0.340741303
 40
0.4007235603
 40
0.4619927899
 40
0.5246172758
 40
0.588632131
 40
0.7207353812
 40
0.7888237523
 40
0.8581457624
 40
1.0
 40
1.0
 40
1.0
 40
1.0
 10
223.8677537422
 20
70.1898614791
 30
0.0
 10
223.591076135
 20
70.1748576086
 30
0.0
 10
223.0346272597
 20
70.1724162052
 30
0.0
 10
222.2010736028
 20
70.251682262
 30
0.0
 10
221.3723199353
 20
70.4133686956
 30
0.0
 10
220.5531082048
 20
70.6565193329
 30
0.0
 10
219.747960927
 20
70.979708095
 30
0.0
 10
218.961332011
 20
71.3810670052
 30
0.0
 10
218.1975341948
 20
71.8583087596
 30
0.0
 10
217.4607515807
 20
72.408725758
 30
0.0
 10
216.7549553382
 20
73.0292867434
 30
0.0
 10
215.8511760032
 20
73.9549528624
 30
0.0
 10
215.0354715562
 20
74.999317123
 30
0.0
 10
214.3158178213
 20
76.1382367737
 30
0.0
 10
213.6478212868
 20
77.3640620287
 30
0.0
 10
213.2310953921
 20
78.3370630359
 30
0.0
 10
212.990356293
 20
79.0036504173
 30
0.0
  0
SPLINE
  5
3D8
100
AcDbEntity
  8
7_ALL_FEATURES
100
AcDbSpline
 62
7
  6
CONTINUOUS
 70
0
 71
3
 72
12
 73
8
 74
0
 42
0.0000001
 43
0.0000001
 44
0.0000000001
 40
0.0
 40
0.0
 40
0.0
 40
0.0
 40
0.2419861886
 40
0.4896508194
 40
0.6154908918
 40
0.7425584447
 40
1.0
 40
1.0
 40
1.0
 40
1.0
 10
216.6274271034
 20
74.75980412
 30
0.0
 10
216.380425844
 20
75.079356565
 30
0.0
 10
215.9082386508
 20
75.7477313556
 30
0.0
 10
215.3846899867
 20
76.6328513139
 30
0.0
 10
215.0014742979
 20
77.3754645096
 30
0.0
 10
214.6398075687
 20
78.1468312496
 30
0.0
 10
214.400098709
 20
78.7429635945
 30
0.0
 10
214.2541454488
 20
79.1470965413
 30
0.0
  0
SPLINE
  5
3D9
100
AcDbEntity
  8
7_ALL_FEATURES
100
AcDbSpline
 62
7
  6
CONTINUOUS
 70
0
 71
3
 72
18
 73
14
 74
0
 42
0.0000001
 43
0.0000001
 44
0.0000000001
 40
0.0
 40
0.0
 40
0.0
 40
0.0
 40
0.1259012339
 40
0.1896498783
 40
0.2537389761
 40
0.3823390809
 40
0.5106204175
 40
0.5743154624
 40
0.6375198996
 40
0.7619125926
 40
0.8229262638
 40
0.8830054862
 40
1.0
 40
1.0
 40
1.0
 40
1.0
 10
214.2541454488
 20
79.1470965413
 30
0.0
 10
214.0229958299
 20
79.7871314158
 30
0.0
 10
213.7290698629
 20
80.7719760989
 30
0.0
 10
213.4437435406
 20
82.1138741401
 30
0.0
 10
213.2279703831
 20
83.4836358931
 30
0.0
 10
213.0942192706
 20
85.2167107677
 30
0.0
 10
213.1427667679
 20
86.9521792156
 30
0.0
 10
213.2915964528
 20
88.3239909355
 30
0.0
 10
213.5109305936
 20
89.6649059182
 30
0.0
 10
213.8365344494
 20
90.9720702348
 30
0.0
 10
214.2680957477
 20
92.2274978839
 30
0.0
 10
214.7580800657
 20
93.4179610082
 30
0.0
 10
215.2029734433
 20
94.2691765959
 30
0.0
 10
215.5328300275
 20
94.8086835034
 30
0.0
  0
SPLINE
  5
3DA
100
AcDbEntity
  8
7_ALL_FEATURES
100
AcDbSpline
 62
7
  6
CONTINUOUS
 70
0
 71
3
 72
26
 73
22
 74
0
 42
0.0000001
 43
0.0000001
 44
0.0000000001
 40
0.0
 40
0.0
 40
0.0
 40
0.0
 40
0.1318360659
 40
0.1652485015
 40
0.1987589666
 40
0.2659142201
 40
0.3330150536
 40
0.3997642322
 40
0.4658740823
 40
0.5310746437
 40
0.5951219156
 40
0.6266530999
 40
0.6578207228
 40
0.7189751013
 40
0.7784837244
 40
0.8362899104
 40
0.8924033605
 40
0.9198587353
 40
0.9469278857
 40
0.9736327702
 40
1.0
 40
1.0
 40
1.0
 40
1.0
 10
213.9870508295
 20
79.0577004865
 30
0.0
 10
213.6525334044
 20
79.9839525794
 30
0.0
 10
213.3262177994
 20
81.181634007
 30
0.0
 10
213.0720334053
 20
82.6444219052
 30
0.0
 10
212.9378679917
 20
83.6372097272
 30
0.0
 10
212.8401518788
 20
84.8878534314
 30
0.0
 10
212.8353982609
 20
86.3907249441
 30
0.0
 10
212.9431043425
 20
87.881960905
 30
0.0
 10
213.1622213636
 20
89.3466352232
 30
0.0
 10
213.490566842
 20
90.7700562424
 30
0.0
 10
213.8544815659
 20
91.9161642062
 30
0.0
 10
214.1976650423
 20
92.7988390048
 30
0.0
 10
214.5697802394
 20
93.6461417001
 30
0.0
 10
215.0936945972
 20
94.6539120445
 30
0.0
 10
215.8166010566
 20
95.7764304835
 30
0.0
 10
216.6226868206
 20
96.7933383558
 30
0.0
 10
217.3627858845
 20
97.5498175597
 30
0.0
 10
217.9882987535
 20
98.0905393662
 30
0.0
 10
218.4694442808
 20
98.4608212668
 30
0.0
 10
218.964683188
 20
98.7977409909
 30
0.0
 10
219.3055171414
 20
99.0007973898
 30
0.0
 10
219.4777660466
 20
99.0963178464
 30
0.0
  0
SPLINE
  5
3DB
100
AcDbEntity
  8
7_ALL_FEATURES
100
AcDbSpline
 62
7
  6
CONTINUOUS
 70
0
 71
3
 72
21
 73
17
 74
0
 42
0.0000001
 43
0.0000001
 44
0.0000000001
 40
0.0
 40
0.0
 40
0.0
 40
0.0
 40
0.055459372
 40
0.111159613
 40
0.1673332528
 40
0.2241967744
 40
0.2819440574
 40
0.340741303
 40
0.4007235603
 40
0.4619927899
 40
0.5246172758
 40
0.588632131
 40
0.7207353812
 40
0.7888237523
 40
0.8581457624
 40
1.0
 40
1.0
 40
1.0
 40
1.0
 10
224.8644482788
 20
70.2439115483
 30
0.0
 10
224.5877706715
 20
70.2289076778
 30
0.0
 10
224.0313217963
 20
70.2264662744
 30
0.0
 10
223.1977681394
 20
70.3057323312
 30
0.0
 10
222.3690144719
 20
70.4674187648
 30
0.0
 10
221.5498027414
 20
70.7105694021
 30
0.0
 10
220.7446554636
 20
71.0337581642
 30
0.0
 10
219.9580265475
 20
71.4351170744
 30
0.0
 10
219.1942287313
 20
71.9123588288
 30
0.0
 10
218.4574461173
 20
72.4627758272
 30
0.0
 10
217.7516498748
 20
73.0833368126
 30
0.0
 10
216.8478705398
 20
74.0090029316
 30
0.0
 10
216.0321660928
 20
75.0533671922
 30
0.0
 10
215.3125123578
 20
76.1922868429
 30
0.0
 10
214.6445158234
 20
77.4181120979
 30
0.0
 10
214.2277899287
 20
78.3911131051
 30
0.0
 10
213.9870508295
 20
79.0577004865
 30
0.0
  0
SPLINE
  5
3DC
100
AcDbEntity
  8
02___PRT_ALL_AXES
100
AcDbSpline
 62
7
  6
CONTINUOUS
 70
0
 71
3
 72
20
 73
16
 74
0
 42
0.0000001
 43
0.0000001
 44
0.0000000001
 40
0.0
 40
0.0
 40
0.0
 40
0.0
 40
0.1635270045
 40
0.3230766497
 40
0.4751630206
 40
0.5471780379
 40
0.6158188762
 40
0.6805891733
 40
0.7410368797
 40
0.7967816628
 40
0.8475424542
 40
0.8931627379
 40
0.9336347469
 40
0.9691243272
 40
1.0
 40
1.0
 40
1.0
 40
1.0
 10
227.6947415165
 20
99.3512532983
 30
0.0
 10
227.6144145708
 20
99.3235805416
 30
0.0
 10
227.4551360311
 20
99.2705540879
 30
0.0
 10
227.2187618567
 20
99.1992069656
 30
0.0
 10
227.0258445371
 20
99.1487811305
 30
0.0
 10
226.8773091493
 20
99.1159936656
 30
0.0
 10
226.7724400983
 20
99.09606095
 30
0.0
 10
226.6728857033
 20
99.0806408491
 30
0.0
 10
226.5794445134
 20
99.0699735234
 30
0.0
 10
226.4928581981
 20
99.0642088054
 30
0.0
 10
226.4137755835
 20
99.0634003244
 30
0.0
 10
226.3427275786
 20
99.0675022984
 30
0.0
 10
226.2800931274
 20
99.0763855652
 30
0.0
 10
226.2261284513
 20
99.0898369983
 30
0.0
 10
226.1939014882
 20
99.102523206
 30
0.0
 10
226.1795536941
 20
99.1096972064
 30
0.0
  0
SPLINE
  5
3DD
100
AcDbEntity
  8
7_ALL_FEATURES
100
AcDbSpline
 62
7
  6
CONTINUOUS
 70
0
 71
3
 72
11
 73
7
 74
0
 42
0.0000001
 43
0.0000001
 44
0.0000000001
 40
0.0
 40
0.0
 40
0.0
 40
0.0
 40
0.2568510362
 40
0.5079597251
 40
0.7550251175
 40
1.0
 40
1.0
 40
1.0
 40
1.0
 10
231.2110286699
 20
92.5903360857
 30
0.0
 10
231.3660634137
 20
92.6852840592
 30
0.0
 10
231.6837215375
 20
92.855765225
 30
0.0
 10
232.1828635781
 20
93.0503219404
 30
0.0
 10
232.6942655024
 20
93.1790521549
 30
0.0
 10
233.0412075655
 20
93.2203915702
 30
0.0
 10
233.2143462679
 20
93.2297807647
 30
0.0
  0
SPLINE
  5
3DE
100
AcDbEntity
  8
7_ALL_FEATURES
100
AcDbSpline
 62
7
  6
CONTINUOUS
 70
0
 71
3
 72
36
 73
32
 74
0
 42
0.0000001
 43
0.0000001
 44
0.0000000001
 40
0.0
 40
0.0
 40
0.0
 40
0.0
 40
0.0255069748
 40
0.0511922926
 40
0.0772248719
 40
0.1037553754
 40
0.1309101943
 40
0.1587877257
 40
0.1874569411
 40
0.2169578051
 40
0.2473028562
 40
0.2784795604
 40
0.3104529481
 40
0.3431684095
 40
0.4104838263
 40
0.4449416291
 40
0.4797795803
 40
0.550098569
 40
0.5853758679
 40
0.6205571588
 40
0.6555222496
 40
0.690154821
 40
0.7243446491
 40
0.7579898719
 40
0.7909993739
 40
0.8232952353
 40
0.8854646863
 40
0.9153236061
 40
0.9443423278
 40
0.9725489183
 40
1.0
 40
1.0
 40
1.0
 40
1.0
 10
234.0265926434
 20
78.2517883817
 30
0.0
 10
233.8700742358
 20
78.2433004945
 30
0.0
 10
233.5546471099
 20
78.2445741139
 30
0.0
 10
233.0824936578
 20
78.3014291132
 30
0.0
 10
232.6136861313
 20
78.412924691
 30
0.0
 10
232.1515854356
 20
78.5784412584
 30
0.0
 10
231.6995019951
 20
78.7969826675
 30
0.0
 10
231.2608033555
 20
79.0671531218
 30
0.0
 10
230.8388331901
 20
79.3871379083
 30
0.0
 10
230.4368710549
 20
79.7547010155
 30
0.0
 10
230.0580761832
 20
80.167202213
 30
0.0
 10
229.7054502857
 20
80.6216060211
 30
0.0
 10
229.3817678271
 20
81.1145736659
 30
0.0
 10
228.9886118673
 20
81.824825562
 30
0.0
 10
228.6684736441
 20
82.5902855917
 30
0.0
 10
228.4239597858
 20
83.393888132
 30
0.0
 10
228.2289299158
 20
84.2299400059
 30
0.0
 10
228.1154172873
 20
85.088329216
 30
0.0
 10
228.084487455
 20
85.9533352879
 30
0.0
 10
228.1028962559
 20
86.6014141898
 30
0.0
 10
228.1627993839
 20
87.2429709246
 30
0.0
 10
228.2637154553
 20
87.8732183889
 30
0.0
 10
228.4048494583
 20
88.4873956776
 30
0.0
 10
228.5850695084
 20
89.0808479482
 30
0.0
 10
228.8029918304
 20
89.6491739807
 30
0.0
 10
229.1370186595
 20
90.3582883279
 30
0.0
 10
229.5415297941
 20
91.0111956316
 30
0.0
 10
230.0121810907
 20
91.5882642144
 30
0.0
 10
230.3868424759
 20
91.9715187342
 30
0.0
 10
230.7847459096
 20
92.3080420927
 30
0.0
 10
231.0671683428
 20
92.5022316634
 30
0.0
 10
231.2110286699
 20
92.5903360857
 30
0.0
  0
SPLINE
  5
3DF
100
AcDbEntity
  8
02___PRT_ALL_AXES
100
AcDbSpline
 62
7
  6
CONTINUOUS
 70
0
 71
3
 72
11
 73
7
 74
0
 42
0.0000001
 43
0.0000001
 44
0.0000000001
 40
0.0
 40
0.0
 40
0.0
 40
0.0
 40
0.2553112692
 40
0.506445905
 40
0.7543285781
 40
1.0
 40
1.0
 40
1.0
 40
1.0
 10
235.2905382889
 20
78.8654428066
 30
0.0
 10
235.1614912271
 20
78.7864104768
 30
0.0
 10
234.8980458146
 20
78.6414199546
 30
0.0
 10
234.4866336909
 20
78.4645966549
 30
0.0
 10
234.0650390478
 20
78.3314856829
 30
0.0
 10
233.77793506
 20
78.2722747962
 30
0.0
 10
233.6339889313
 20
78.2503160667
 30
0.0
  0
SPLINE
  5
3E0
100
AcDbEntity
  8
02___PRT_ALL_AXES
100
AcDbSpline
 62
7
  6
CONTINUOUS
 70
0
 71
3
 72
36
 73
32
 74
0
 42
0.0000001
 43
0.0000001
 44
0.0000000001
 40
0.0
 40
0.0
 40
0.0
 40
0.0
 40
0.0276764668
 40
0.0559984323
 40
0.0850196883
 40
0.1147713157
 40
0.1764323438
 40
0.2083484999
 40
0.2409142987
 40
0.3076932294
 40
0.3761688621
 40
0.41081986
 40
0.4455951399
 40
0.5150523933
 40
0.5495539356
 40
0.5837544936
 40
0.6508352374
 40
0.6835857073
 40
0.7157039625
 40
0.7471376553
 40
0.7778508436
 40
0.8078259874
 40
0.8370657472
 40
0.8655944432
 40
0.8796099915
 40
0.8934672897
 40
0.9207373006
 40
0.947504278
 40
0.9607380531
 40
0.9738892347
 40
1.0
 40
1.0
 40
1.0
 40
1.0
 10
235.2905382889
 20
78.8654428066
 30
0.0
 10
235.432782371
 20
78.9525573915
 30
0.0
 10
235.7117461184
 20
79.1436698656
 30
0.0
 10
236.1050176979
 20
79.4732440412
 30
0.0
 10
236.4750736583
 20
79.8465639405
 30
0.0
 10
236.9393660564
 20
80.4054268052
 30
0.0
 10
237.3403771014
 20
81.035726657
 30
0.0
 10
237.6740368519
 20
81.71935542
 30
0.0
 10
237.9686332749
 20
82.4542394586
 30
0.0
 10
238.2445937504
 20
83.4307485558
 30
0.0
 10
238.3919388964
 20
84.4470707946
 30
0.0
 10
238.4329833961
 20
85.2776472921
 30
0.0
 10
238.4217365513
 20
86.1150267099
 30
0.0
 10
238.3321187037
 20
86.948957619
 30
0.0
 10
238.1650253693
 20
87.7651606318
 30
0.0
 10
237.9497541016
 20
88.5551142383
 30
0.0
 10
237.6615459218
 20
89.3128571619
 30
0.0
 10
237.3024720379
 20
90.0230016399
 30
0.0
 10
237.0037333952
 20
90.521246443
 30
0.0
 10
236.6755784365
 20
90.9856777635
 30
0.0
 10
236.3202623885
 20
91.4130667019
 30
0.0
 10
235.9402375664
 20
91.8003955595
 30
0.0
 10
235.5381589774
 20
92.1449062215
 30
0.0
 10
235.184866192
 20
92.395796075
 30
0.0
 10
234.8941754265
 20
92.572220645
 30
0.0
 10
234.6018944624
 20
92.7306301628
 30
0.0
 10
234.2279480487
 20
92.8985819441
 30
0.0
 10
233.842071922
 20
93.0255836308
 30
0.0
 10
233.5305403799
 20
93.1007993293
 30
0.0
 10
233.2193019827
 20
93.1582151433
 30
0.0
 10
232.9832163478
 20
93.1818481504
 30
0.0
 10
232.8260013188
 20
93.1886964441
 30
0.0
  0
SPLINE
  5
3E1
100
AcDbEntity
  8
7_ALL_FEATURES
100
AcDbSpline
 62
7
  6
CONTINUOUS
 70
0
 71
3
 72
33
 73
29
 74
0
 42
0.0000001
 43
0.0000001
 44
0.0000000001
 40
0.0
 40
0.0
 40
0.0
 40
0.0
 40
0.0649858524
 40
0.098131978
 40
0.1316393761
 40
0.199488423
 40
0.2680669798
 40
0.3368462964
 40
0.405287218
 40
0.4728681876
 40
0.5061970437
 40
0.5391380158
 40
0.57164346
 40
0.6036721044
 40
0.6351898982
 40
0.6661708454
 40
0.696597788
 40
0.7264631044
 40
0.7557693243
 40
0.7845295825
 40
0.8127679014
 40
0.8405192245
 40
0.8678291716
 40
0.8947534604
 40
0.9213569791
 40
0.9477124993
 40
0.9738990486
 40
1.0
 40
1.0
 40
1.0
 40
1.0
 10
242.5308601569
 20
94.5702343755
 30
0.0
 10
242.8463530546
 20
94.018118851
 30
0.0
 10
243.2737658231
 20
93.155221754
 30
0.0
 10
243.7489622956
 20
91.9575201908
 30
0.0
 10
244.1679443942
 20
90.7092385468
 30
0.0
 10
244.5710849896
 20
89.0926484295
 30
0.0
 10
244.8559705857
 20
87.1015903891
 30
0.0
 10
244.9392071825
 20
85.0860665014
 30
0.0
 10
244.8192897077
 20
83.082275749
 30
0.0
 10
244.5503499538
 20
81.4437420633
 30
0.0
 10
244.235136593
 20
80.1719324124
 30
0.0
 10
243.951674343
 20
79.2473640696
 30
0.0
 10
243.62134286
 20
78.352039667
 30
0.0
 10
243.2455597986
 20
77.489958636
 30
0.0
 10
242.8259436836
 20
76.6650148072
 30
0.0
 10
242.3642963568
 20
75.8809333364
 30
0.0
 10
241.8625980733
 20
75.1412716964
 30
0.0
 10
241.32300006
 20
74.4494061123
 30
0.0
 10
240.7478213595
 20
73.8085219182
 30
0.0
 10
240.1395442426
 20
73.2216051242
 30
0.0
 10
239.500813616
 20
72.6914327757
 30
0.0
 10
238.8344382451
 20
72.2205601959
 30
0.0
 10
238.1433916512
 20
71.8113076581
 30
0.0
 10
237.4308104739
 20
71.4657402133
 30
0.0
 10
236.7000011014
 20
71.1856433877
 30
0.0
 10
235.9543928775
 20
70.9724951157
 30
0.0
 10
235.1976522729
 20
70.8274429296
 30
0.0
 10
234.6877144233
 20
70.7766195322
 30
0.0
 10
234.43268635
 20
70.7627906258
 30
0.0
  0
SPLINE
  5
3E2
100
AcDbEntity
  8
7_ALL_FEATURES
100
AcDbSpline
 62
7
  6
CONTINUOUS
 70
0
 71
3
 72
10
 73
6
 74
0
 42
0.0000001
 43
0.0000001
 44
0.0000000001
 40
0.0
 40
0.0
 40
0.0
 40
0.0
 40
0.492320802
 40
0.7453728333
 40
1.0
 40
1.0
 40
1.0
 40
1.0
 10
228.6734498952
 20
99.7194501837
 30
0.0
 10
228.5137943585
 20
99.6565069882
 30
0.0
 10
228.2718411428
 20
99.5617805697
 30
0.0
 10
227.9453536919
 20
99.439624782
 30
0.0
 10
227.7786602287
 20
99.3801634241
 30
0.0
 10
227.6947415165
 20
99.3512532983
 30
0.0
  0
SPLINE
  5
3E3
100
AcDbEntity
  8
7_ALL_FEATURES
100
AcDbSpline
 62
7
  6
CONTINUOUS
 70
0
 71
3
 72
42
 73
38
 74
0
 42
0.0000001
 43
0.0000001
 44
0.0000000001
 40
0.0
 40
0.0
 40
0.0
 40
0.0
 40
0.0130485299
 40
0.0261162701
 40
0.0392222044
 40
0.0523848692
 40
0.0656221449
 40
0.0789510628
 40
0.1059368761
 40
0.1334660178
 40
0.1616297485
 40
0.1904951712
 40
0.2201045962
 40
0.2504760016
 40
0.2816042904
 40
0.3134630791
 40
0.3460068091
 40
0.3791730341
 40
0.412884785
 40
0.4470529549
 40
0.4815786707
 40
0.5163556415
 40
0.5512724791
 40
0.586214998
 40
0.621068502
 40
0.6557200689
 40
0.6900608429
 40
0.7239883454
 40
0.7574088102
 40
0.7902395457
 40
0.822411317
 40
0.8538707248
 40
0.8845825368
 40
0.9145318927
 40
0.9437262597
 40
0.9721969607
 40
1.0
 40
1.0
 40
1.0
 40
1.0
 10
225.1966797866
 20
70.261928318
 30
0.0
 10
225.0360460875
 20
70.2532172512
 30
0.0
 10
224.7139611803
 20
70.2450690837
 30
0.0
 10
224.2304074021
 20
70.2607413324
 30
0.0
 10
223.7471338764
 20
70.3042706159
 30
0.0
 10
223.2650696239
 20
70.3755721624
 30
0.0
 10
222.7850943698
 20
70.4745170771
 30
0.0
 10
222.1466231155
 20
70.6436895634
 30
0.0
 10
221.3568935671
 20
70.9246088313
 30
0.0
 10
220.4364726195
 20
71.3667019944
 30
0.0
 10
219.5458393885
 20
71.9118003238
 30
0.0
 10
218.6916278726
 20
72.5556945449
 30
0.0
 10
217.8800626995
 20
73.2935027456
 30
0.0
 10
217.117069542
 20
74.1196801948
 30
0.0
 10
216.4082055296
 20
75.0280626681
 30
0.0
 10
215.758636811
 20
76.011902769
 30
0.0
 10
215.1731012335
 20
77.0639131373
 30
0.0
 10
214.6558752647
 20
78.1763140507
 30
0.0
 10
214.2107417093
 20
79.340886368
 30
0.0
 10
213.8409604974
 20
80.5490290297
 30
0.0
 10
213.5492430359
 20
81.7918205962
 30
0.0
 10
213.3377307285
 20
83.0600840582
 30
0.0
 10
213.2079779991
 20
84.3444541909
 30
0.0
 10
213.160940001
 20
85.6354467226
 30
0.0
 10
213.1969651721
 20
86.9235286314
 30
0.0
 10
213.3157928509
 20
88.1991888649
 30
0.0
 10
213.5165557625
 20
89.453008777
 30
0.0
 10
213.7977874393
 20
90.6757315873
 30
0.0
 10
214.1574344938
 20
91.858330158
 30
0.0
 10
214.5928733934
 20
92.9920722357
 30
0.0
 10
215.100931935
 20
94.0685827212
 30
0.0
 10
215.6779127272
 20
95.0799009861
 30
0.0
 10
216.3196255169
 20
96.0185369636
 30
0.0
 10
217.0213998509
 20
96.8775095883
 30
0.0
 10
217.7781740091
 20
97.6504259981
 30
0.0
 10
218.5843085741
 20
98.3313932933
 30
0.0
 10
219.1572753047
 20
98.72510502
 30
0.0
 10
219.4495844916
 20
98.904124021
 30
0.0
  0
SPLINE
  5
3E4
100
AcDbEntity
  8
7_ALL_FEATURES
100
AcDbSpline
 62
9
  6
CONTINUOUS
 70
0
 71
3
 72
42
 73
38
 74
0
 42
0.0000001
 43
0.0000001
 44
0.0000000001
 40
0.0
 40
0.0
 40
0.0
 40
0.0
 40
0.0130485284
 40
0.0261162683
 40
0.0392222033
 40
0.0523848698
 40
0.0656221481
 40
0.0789510694
 40
0.1059368916
 40
0.1334660445
 40
0.1616297875
 40
0.1904952232
 40
0.220104661
 40
0.2504760786
 40
0.2816043784
 40
0.3134631765
 40
0.3460069141
 40
0.3791731447
 40
0.4128848991
 40
0.4470530704
 40
0.4815787856
 40
0.5163557538
 40
0.5512725871
 40
0.5862151002
 40
0.6210685971
 40
0.6557201558
 40
0.6900609209
 40
0.723988414
 40
0.7574088691
 40
0.7902395951
 40
0.8224113572
 40
0.8538707563
 40
0.8845825603
 40
0.914531909
 40
0.9437262697
 40
0.9721969653
 40
1.0
 40
1.0
 40
1.0
 40
1.0
 10
234.4326867976
 20
70.7627907185
 30
0.0
 10
234.2720532123
 20
70.7540802182
 30
0.0
 10
233.9499685526
 20
70.7459331696
 30
0.0
 10
233.4664152213
 20
70.7616070437
 30
0.0
 10
232.9831421947
 20
70.8051378968
 30
0.0
 10
232.5010784909
 20
70.8764409543
 30
0.0
 10
232.0211038324
 20
70.9753873185
 30
0.0
 10
231.3826334173
 20
71.1445616646
 30
0.0
 10
230.5929050367
 20
71.4254830951
 30
0.0
 10
229.6724856445
 20
71.8675785519
 30
0.0
 10
228.7818540818
 20
72.4126788838
 30
0.0
 10
227.9276443211
 20
73.0565748104
 30
0.0
 10
227.1160809654
 20
73.7943844174
 30
0.0
 10
226.353089663
 20
74.6205629749
 30
0.0
 10
225.6442275194
 20
75.5289462625
 30
0.0
 10
224.9946606603
 20
76.512786891
 30
0.0
 10
224.4091269109
 20
77.5647975102
 30
0.0
 10
223.8919027174
 20
78.6771984108
 30
0.0
 10
223.446770865
 20
79.8417704669
 30
0.0
 10
223.076991265
 20
81.0499126373
 30
0.0
 10
222.7852753077
 20
82.2927035027
 30
0.0
 10
222.5737643816
 20
83.5609660761
 30
0.0
 10
222.4440128978
 20
84.8453351569
 30
0.0
 10
222.3969759986
 20
86.1363264987
 30
0.0
 10
222.4330021132
 20
87.4244071064
 30
0.0
 10
222.5518305735
 20
88.7000659549
 30
0.0
 10
222.7525941008
 20
89.9538844261
 30
0.0
 10
223.0338262254
 20
91.1766057674
 30
0.0
 10
223.3934735605
 20
92.3592028688
 30
0.0
 10
223.8289125764
 20
93.4929435041
 30
0.0
 10
224.3369710748
 20
94.5694526004
 30
0.0
 10
224.9139516716
 20
95.5807695544
 30
0.0
 10
225.5556641229
 20
96.5194043229
 30
0.0
 10
226.2574379865
 20
97.3783758625
 30
0.0
 10
227.0142115551
 20
98.1512913312
 30
0.0
 10
227.8203454258
 20
98.8322578477
 30
0.0
 10
228.3933116219
 20
99.225969165
 30
0.0
 10
228.6856205306
 20
99.4049879956
 30
0.0
  0
SPLINE
  5
3E5
100
AcDbEntity
  8
7_ALL_FEATURES
100
AcDbSpline
 62
9
  6
CONTINUOUS
 70
0
 71
3
 72
11
 73
7
 74
0
 42
0.0000001
 43
0.0000001
 44
0.0000000001
 40
0.0
 40
0.0
 40
0.0
 40
0.0
 40
0.2558506785
 40
0.5067831991
 40
0.7542766549
 40
1.0
 40
1.0
 40
1.0
 40
1.0
 10
236.0878939182
 20
78.908682862
 30
0.0
 10
235.929017559
 20
78.8113821668
 30
0.0
 10
235.602940774
 20
78.6364549915
 30
0.0
 10
235.0898961327
 20
78.4366075466
 30
0.0
 10
234.5630432086
 20
78.3040848131
 30
0.0
 10
234.2052594989
 20
78.2614774959
 30
0.0
 10
234.026592643
 20
78.2517883887
 30
0.0
  0
SPLINE
  5
3E6
100
AcDbEntity
  8
02___PRT_ALL_AXES
100
AcDbSpline
 62
7
  6
CONTINUOUS
 70
0
 71
3
 72
15
 73
11
 74
0
 42
0.0000001
 43
0.0000001
 44
0.0000000001
 40
0.0
 40
0.0
 40
0.0
 40
0.0
 40
0.1491823665
 40
0.2857592149
 40
0.4122475849
 40
0.5315829843
 40
0.646964227
 40
0.7616053823
 40
0.8784647214
 40
1.0
 40
1.0
 40
1.0
 40
1.0
 10
226.1795536941
 20
99.1096972064
 30
0.0
 10
226.170968311
 20
99.1139899598
 30
0.0
 10
226.1549400301
 20
99.1231050113
 30
0.0
 10
226.1337217554
 20
99.1391619169
 30
0.0
 10
226.1164637635
 20
99.156844073
 30
0.0
 10
226.1031459806
 20
99.1760313701
 30
0.0
 10
226.0937295488
 20
99.1965740962
 30
0.0
 10
226.0881393411
 20
99.2182998817
 30
0.0
 10
226.0862534839
 20
99.2410326517
 30
0.0
 10
226.0873387653
 20
99.2563947877
 30
0.0
 10
226.0883992131
 20
99.2641424439
 30
0.0
  0
SPLINE
  5
3E7
100
AcDbEntity
  8
7_ALL_FEATURES
100
AcDbSpline
 62
9
  6
CONTINUOUS
 70
0
 71
3
 72
35
 73
31
 74
0
 42
0.0000001
 43
0.0000001
 44
0.0000000001
 40
0.0
 40
0.0
 40
0.0
 40
0.0
 40
0.0261106784
 40
0.0523739041
 40
0.0789351384
 40
0.1059263835
 40
0.1334610672
 40
0.1616304678
 40
0.1905017011
 40
0.2201170859
 40
0.2504946051
 40
0.2816291612
 40
0.3134943636
 40
0.346044644
 40
0.4128948245
 40
0.4470698732
 40
0.4816025392
 40
0.5512739318
 40
0.5862234849
 40
0.6210840049
 40
0.6557425471
 40
0.6900902344
 40
0.7574113611
 40
0.7902487047
 40
0.8224269526
 40
0.8845593031
 40
0.9145146866
 40
0.9437149256
 40
0.9721913275
 40
1.0
 40
1.0
 40
1.0
 40
1.0
 10
233.2143462683
 20
93.2297807577
 30
0.0
 10
233.3750314405
 20
93.2384947179
 30
0.0
 10
233.6986606582
 20
93.2373033273
 30
0.0
 10
234.1827125577
 20
93.1795298598
 30
0.0
 10
234.6624683363
 20
93.0662702446
 30
0.0
 10
235.1342180751
 20
92.8984443438
 30
0.0
 10
235.5944557651
 20
92.6773927977
 30
0.0
 10
236.0397647952
 20
92.4048449801
 30
0.0
 10
236.4668726992
 20
92.0828973862
 30
0.0
 10
236.8726545215
 20
91.7139938586
 30
0.0
 10
237.2541521161
 20
91.3009035047
 30
0.0
 10
237.6085808189
 20
90.8467184957
 30
0.0
 10
237.9333774788
 20
90.3547741464
 30
0.0
 10
238.3271141784
 20
89.6473728871
 30
0.0
 10
238.6475651968
 20
88.8855523571
 30
0.0
 10
238.892199042
 20
88.086238706
 30
0.0
 10
239.0872173559
 20
87.2554623113
 30
0.0
 10
239.2009041205
 20
86.4025445444
 30
0.0
 10
239.2322139097
 20
85.5430438991
 30
0.0
 10
239.2142056745
 20
84.8989822422
 30
0.0
 10
239.1547833889
 20
84.2611217964
 30
0.0
 10
239.0218837168
 20
83.4310709127
 30
0.0
 10
238.8089050921
 20
82.626662843
 30
0.0
 10
238.5162334476
 20
81.8646916061
 30
0.0
 10
238.1815913031
 20
81.1555519289
 30
0.0
 10
237.7754484602
 20
80.5014857389
 30
0.0
 10
237.3019994619
 20
79.922010367
 30
0.0
 10
236.9235958643
 20
79.5355268745
 30
0.0
 10
236.5205330761
 20
79.1950497662
 30
0.0
 10
236.2340487022
 20
78.9981924792
 30
0.0
 10
236.0878939182
 20
78.908682862
 30
0.0
  0
SPLINE
  5
3E8
100
AcDbEntity
  8
7_ALL_FEATURES
100
AcDbSpline
 62
9
  6
CONTINUOUS
 70
0
 71
3
 72
44
 73
40
 74
0
 42
0.0000001
 43
0.0000001
 44
0.0000000001
 40
0.0
 40
0.0
 40
0.0
 40
0.0
 40
0.0271819596
 40
0.0549496254
 40
0.0833850554
 40
0.1125454503
 40
0.1424630095
 40
0.1731457745
 40
0.1887735654
 40
0.2045854172
 40
0.2367342119
 40
0.2695447833
 40
0.3029474658
 40
0.3368589716
 40
0.3711848092
 40
0.4058216827
 40
0.4406598638
 40
0.4755855392
 40
0.5104831376
 40
0.5452376508
 40
0.5797369559
 40
0.6138741514
 40
0.6475499159
 40
0.6806748934
 40
0.7131721036
 40
0.7449793634
 40
0.7760516866
 40
0.8063636004
 40
0.8359112771
 40
0.850407686
 40
0.8647224512
 40
0.8788618915
 40
0.8928338996
 40
0.9203056051
 40
0.9472400082
 40
0.9605463124
 40
0.973763398
 40
0.9869085798
 40
1.0
 40
1.0
 40
1.0
 40
1.0
 10
229.8863241795
 20
99.6296450055
 30
0.0
 10
229.5877243368
 20
99.4894000256
 30
0.0
 10
228.9992273402
 20
99.1724861618
 30
0.0
 10
228.1618120718
 20
98.6012851531
 30
0.0
 10
227.3671380772
 20
97.9339940776
 30
0.0
 10
226.6212001522
 20
97.1757847521
 30
0.0
 10
225.9294527323
 20
96.3324253122
 30
0.0
 10
225.4055219068
 20
95.5685269964
 30
0.0
 10
225.0175901271
 20
94.9218412367
 30
0.0
 10
224.6471980814
 20
94.2445849525
 30
0.0
 10
224.2276876628
 20
93.3574517927
 30
0.0
 10
223.7988191585
 20
92.2422669929
 30
0.0
 10
223.4447942199
 20
91.078751101
 30
0.0
 10
223.1682386197
 20
89.8756080677
 30
0.0
 10
222.9711813253
 20
88.6417794428
 30
0.0
 10
222.8550748004
 20
87.3864505793
 30
0.0
 10
222.8207726446
 20
86.1189632467
 30
0.0
 10
222.8685249853
 20
84.8487515303
 30
0.0
 10
222.9979752948
 20
83.5852699461
 30
0.0
 10
223.2081631402
 20
82.3379231523
 30
0.0
 10
223.4975316529
 20
81.1159955866
 30
0.0
 10
223.8639398638
 20
79.9285824009
 30
0.0
 10
224.3046799245
 20
78.7845220481
 30
0.0
 10
224.8164982987
 20
77.6923320068
 30
0.0
 10
225.3956234537
 20
76.6601459745
 30
0.0
 10
226.0377883179
 20
75.6956618198
 30
0.0
 10
226.7382875788
 20
74.806070068
 30
0.0
 10
227.4919211964
 20
73.9980747216
 30
0.0
 10
228.164034298
 20
73.3938606441
 30
0.0
 10
228.7227107422
 20
72.9581453704
 30
0.0
 10
229.1486762326
 20
72.6573272224
 30
0.0
 10
229.5834231229
 20
72.3810138838
 30
0.0
 10
230.1702870569
 20
72.0478917615
 30
0.0
 10
230.9225211515
 20
71.6936748915
 30
0.0
 10
231.7007449353
 20
71.4242520238
 30
0.0
 10
232.3296423661
 20
71.2636599521
 30
0.0
 10
232.8023187912
 20
71.1708201661
 30
0.0
 10
233.2768948656
 20
71.1053158851
 30
0.0
 10
233.5945100103
 20
71.0799070538
 30
0.0
 10
233.7531884102
 20
71.0718182352
 30
0.0
  0
SPLINE
  5
3E9
100
AcDbEntity
  8
7_ALL_FEATURES
100
AcDbSpline
 62
9
  6
CONTINUOUS
 70
0
 71
3
 72
38
 73
34
 74
0
 42
0.0000001
 43
0.0000001
 44
0.0000000001
 40
0.0
 40
0.0
 40
0.0
 40
0.0
 40
0.0276877683
 40
0.0548339075
 40
0.0816073475
 40
0.1081986613
 40
0.1348093536
 40
0.1616397538
 40
0.1888770638
 40
0.216685075
 40
0.2451965895
 40
0.2745088965
 40
0.3046820744
 40
0.3357395452
 40
0.3676702204
 40
0.4004316546
 40
0.4339537642
 40
0.4681428143
 40
0.5028854982
 40
0.5380530128
 40
0.5735050897
 40
0.6090939764
 40
0.6446683756
 40
0.6800773639
 40
0.7151743123
 40
0.7498208322
 40
0.7838907659
 40
0.8172742274
 40
0.8815833775
 40
0.9124718676
 40
0.9424777883
 40
0.9716314355
 40
1.0
 40
1.0
 40
1.0
 40
1.0
 10
231.253686922
 20
92.8569803667
 30
0.0
 10
231.4229094493
 20
92.9606173687
 30
0.0
 10
231.7704711504
 20
93.1464499876
 30
0.0
 10
232.3177904145
 20
93.3568427305
 30
0.0
 10
232.8800429031
 20
93.4936496484
 30
0.0
 10
233.45155458
 20
93.5553613578
 30
0.0
 10
234.0266273055
 20
93.5413449121
 30
0.0
 10
234.5994979452
 20
93.4517793653
 30
0.0
 10
235.1644811024
 20
93.2876610552
 30
0.0
 10
235.7160430327
 20
93.0507495915
 30
0.0
 10
236.2488607111
 20
92.7435096156
 30
0.0
 10
236.7578552354
 20
92.3690544272
 30
0.0
 10
237.2382157819
 20
91.931100481
 30
0.0
 10
237.685422573
 20
91.4339299914
 30
0.0
 10
238.095273723
 20
90.8823563808
 30
0.0
 10
238.4639161029
 20
90.2816875473
 30
0.0
 10
238.7878783487
 20
89.6376840037
 30
0.0
 10
239.064103654
 20
88.9565108238
 30
0.0
 10
239.2899803477
 20
88.2446835561
 30
0.0
 10
239.463368846
 20
87.5090089219
 30
0.0
 10
239.5826239889
 20
86.7565211953
 30
0.0
 10
239.6466124336
 20
85.9944157754
 30
0.0
 10
239.6547238752
 20
85.229979243
 30
0.0
 10
239.6068792448
 20
84.4705233337
 30
0.0
 10
239.5035234276
 20
83.723299824
 30
0.0
 10
239.3456481125
 20
82.9954856414
 30
0.0
 10
239.1346776888
 20
82.2939153644
 30
0.0
 10
238.7898673826
 20
81.4140490459
 30
0.0
 10
238.34574602
 20
80.5998215881
 30
0.0
 10
237.8072425491
 20
79.8805706241
 30
0.0
 10
237.3699520638
 20
79.4043002791
 30
0.0
 10
236.8982465731
 20
78.9890008715
 30
0.0
 10
236.5593132321
 20
78.752394071
 30
0.0
 10
236.385929804
 20
78.6462088074
 30
0.0
  0
SPLINE
  5
3EA
100
AcDbEntity
  8
7_ALL_FEATURES
100
AcDbSpline
 62
9
  6
CONTINUOUS
 70
0
 71
3
 72
38
 73
34
 74
0
 42
0.0000001
 43
0.0000001
 44
0.0000000001
 40
0.0
 40
0.0
 40
0.0
 40
0.0
 40
0.0276877683
 40
0.0548339075
 40
0.0816073475
 40
0.1081986613
 40
0.1348093536
 40
0.1616397538
 40
0.1888770638
 40
0.216685075
 40
0.2451965895
 40
0.2745088965
 40
0.3046820744
 40
0.3357395452
 40
0.3676702204
 40
0.4004316546
 40
0.4339537642
 40
0.4681428143
 40
0.5028854982
 40
0.5380530128
 40
0.5735050897
 40
0.6090939764
 40
0.6446683756
 40
0.6800773639
 40
0.7151743123
 40
0.7498208322
 40
0.7838907659
 40
0.8172742274
 40
0.8815833775
 40
0.9124718676
 40
0.9424777883
 40
0.9716314355
 40
1.0
 40
1.0
 40
1.0
 40
1.0
 10
236.385929804
 20
78.6462088074
 30
0.0
 10
236.2167072767
 20
78.5425718054
 30
0.0
 10
235.8691455756
 20
78.3567391865
 30
0.0
 10
235.3218263115
 20
78.1463464436
 30
0.0
 10
234.7595738229
 20
78.0095395257
 30
0.0
 10
234.188062146
 20
77.9478278164
 30
0.0
 10
233.6129894205
 20
77.961844262
 30
0.0
 10
233.0401187808
 20
78.0514098088
 30
0.0
 10
232.4751356236
 20
78.2155281189
 30
0.0
 10
231.9235736933
 20
78.4524395826
 30
0.0
 10
231.3907560149
 20
78.7596795585
 30
0.0
 10
230.8817614906
 20
79.1341347469
 30
0.0
 10
230.4014009441
 20
79.5720886931
 30
0.0
 10
229.954194153
 20
80.0692591827
 30
0.0
 10
229.544343003
 20
80.6208327933
 30
0.0
 10
229.1757006231
 20
81.2215016268
 30
0.0
 10
228.8517383773
 20
81.8655051704
 30
0.0
 10
228.575513072
 20
82.5466783503
 30
0.0
 10
228.3496363783
 20
83.258505618
 30
0.0
 10
228.17624788
 20
83.9941802522
 30
0.0
 10
228.0569927371
 20
84.7466679788
 30
0.0
 10
227.9930042924
 20
85.5087733987
 30
0.0
 10
227.9848928508
 20
86.2732099311
 30
0.0
 10
228.0327374811
 20
87.0326658404
 30
0.0
 10
228.1360932984
 20
87.7798893501
 30
0.0
 10
228.2939686135
 20
88.5077035327
 30
0.0
 10
228.5049390372
 20
89.2092738097
 30
0.0
 10
228.8497493434
 20
90.0891401283
 30
0.0
 10
229.293870706
 20
90.903367586
 30
0.0
 10
229.8323741769
 20
91.6226185501
 30
0.0
 10
230.2696646622
 20
92.0988888951
 30
0.0
 10
230.7413701529
 20
92.5141883026
 30
0.0
 10
231.0803034939
 20
92.7507951031
 30
0.0
 10
231.253686922
 20
92.8569803667
 30
0.0
  0
SPLINE
  5
3EB
100
AcDbEntity
  8
7_ALL_FEATURES
100
AcDbSpline
 62
7
  6
CONTINUOUS
 70
0
 71
3
 72
17
 73
13
 74
0
 42
0.0000001
 43
0.0000001
 44
0.0000000001
 40
0.0
 40
0.0
 40
0.0
 40
0.0
 40
0.0795960506
 40
0.1242643916
 40
0.172407483
 40
0.2240819519
 40
0.2792676739
 40
0.3998182697
 40
0.5332337821
 40
0.6784478473
 40
0.8343781943
 40
1.0
 40
1.0
 40
1.0
 40
1.0
 10
226.0883992131
 20
99.2641424439
 30
0.0
 10
226.0912266461
 20
99.2847997346
 30
0.0
 10
226.1012360889
 20
99.3163297726
 30
0.0
 10
226.1216302717
 20
99.3566272359
 30
0.0
 10
226.1418143691
 20
99.3887174097
 30
0.0
 10
226.1660647799
 20
99.4213197835
 30
0.0
 10
226.2047261655
 20
99.4666873182
 30
0.0
 10
226.2625031387
 20
99.5236448739
 30
0.0
 10
226.3430217444
 20
99.5904968675
 30
0.0
 10
226.4354365878
 20
99.6570880382
 30
0.0
 10
226.5385719035
 20
99.7228552636
 30
0.0
 10
226.6117255543
 20
99.7646734166
 30
0.0
 10
226.6498233873
 20
99.7854274191
 30
0.0
  0
SPLINE
  5
3EC
100
AcDbEntity
  8
7_ALL_FEATURES
100
AcDbSpline
 62
9
  6
CONTINUOUS
 70
0
 71
3
 72
35
 73
31
 74
0
 42
0.0000001
 43
0.0000001
 44
0.0000000001
 40
0.0
 40
0.0
 40
0.0
 40
0.0
 40
0.0259636471
 40
0.0519155398
 40
0.0779576106
 40
0.1041889677
 40
0.1307028952
 40
0.1575842356
 40
0.184907288
 40
0.2127342816
 40
0.2411144179
 40
0.2700834349
 40
0.2996636135
 40
0.3298641322
 40
0.3606816788
 40
0.3921012494
 40
0.4240970729
 40
0.4566336079
 40
0.4896665788
 40
0.523144034
 40
0.5911669567
 40
0.6256052935
 40
0.6602246885
 40
0.6949505928
 40
0.729707034
 40
0.7989823635
 40
0.8674764981
 40
0.9012674384
 40
0.9346602321
 40
1.0
 40
1.0
 40
1.0
 40
1.0
 10
233.7531884102
 20
71.0718182352
 30
0.0
 10
234.010808242
 20
71.0586857603
 30
0.0
 10
234.5275009664
 20
71.0566259616
 30
0.0
 10
235.2999431169
 20
71.1268139319
 30
0.0
 10
236.0650184814
 20
71.2699050232
 30
0.0
 10
236.8187681511
 20
71.4851544698
 30
0.0
 10
237.5574200473
 20
71.7714355661
 30
0.0
 10
238.27726811
 20
72.1272597851
 30
0.0
 10
238.9747298271
 20
72.5507912614
 30
0.0
 10
239.6463507377
 20
73.0398633304
 30
0.0
 10
240.2888200576
 20
73.5919937025
 30
0.0
 10
240.8989815766
 20
74.2043989215
 30
0.0
 10
241.4738444907
 20
74.8740091059
 30
0.0
 10
242.01059435
 20
75.5974820563
 30
0.0
 10
242.5066045629
 20
76.371218283
 30
0.0
 10
242.9594476173
 20
77.1913754701
 30
0.0
 10
243.3669070091
 20
78.0538910664
 30
0.0
 10
243.7269832728
 20
78.9544810509
 30
0.0
 10
244.037922006
 20
79.8887348221
 30
0.0
 10
244.3867185914
 20
81.1796197722
 30
0.0
 10
244.6285460177
 20
82.5116859665
 30
0.0
 10
244.7634209157
 20
83.8673810708
 30
0.0
 10
244.8107929222
 20
84.8979207124
 30
0.0
 10
244.8036903327
 20
85.9326590905
 30
0.0
 10
244.7217519309
 20
87.3093390291
 30
0.0
 10
244.4852380398
 20
89.0104406997
 30
0.0
 10
244.0716378489
 20
90.6676303656
 30
0.0
 10
243.6379427939
 20
91.9446503493
 30
0.0
 10
243.1449745424
 20
93.1660166434
 30
0.0
 10
242.6998109304
 20
94.0435240959
 30
0.0
 10
242.3706657578
 20
94.6030577655
 30
0.0
  0
SPLINE
  5
3ED
100
AcDbEntity
  8
02___PRT_ALL_AXES
100
AcDbSpline
 62
7
  6
CONTINUOUS
 70
0
 71
3
 72
22
 73
18
 74
0
 42
0.0000001
 43
0.0000001
 44
0.0000000001
 40
0.0
 40
0.0
 40
0.0
 40
0.0
 40
0.0788296421
 40
0.1552566698
 40
0.2292472154
 40
0.3007874226
 40
0.3698856024
 40
0.4365745885
 40
0.5009141873
 40
0.562993738
 40
0.6808148684
 40
0.7369796899
 40
0.7915788493
 40
0.8448741298
 40
0.8971592342
 40
0.9487545979
 40
1.0
 40
1.0
 40
1.0
 40
1.0
 10
211.9976025558
 20
83.1859019718
 30
0.0
 10
211.7785026872
 20
83.2997701759
 30
0.0
 10
211.3512507821
 20
83.5323918911
 30
0.0
 10
210.7352275379
 20
83.9018010869
 30
0.0
 10
210.1551875827
 20
84.2855567984
 30
0.0
 10
209.6124664327
 20
84.6827875281
 30
0.0
 10
209.1082954077
 20
85.0926098414
 30
0.0
 10
208.6438411527
 20
85.5140895008
 30
0.0
 10
208.2201242093
 20
85.9463550591
 30
0.0
 10
207.7196969317
 20
86.5254501575
 30
0.0
 10
207.2923309539
 20
87.1326794518
 30
0.0
 10
206.9514577722
 20
87.7630803302
 30
0.0
 10
206.7446154384
 20
88.2341941985
 30
0.0
 10
206.5831474714
 20
88.7099260283
 30
0.0
 10
206.4674777329
 20
89.1892017664
 30
0.0
 10
206.3979400043
 20
89.6708049531
 30
0.0
 10
206.382454223
 20
89.993149486
 30
0.0
 10
206.382454223
 20
90.1536683264
 30
0.0
  0
SPLINE
  5
3EE
100
AcDbEntity
  8
02___PRT_ALL_AXES
100
AcDbSpline
 62
7
  6
CONTINUOUS
 70
0
 71
3
 72
15
 73
11
 74
0
 42
0.0000001
 43
0.0000001
 44
0.0000000001
 40
0.0
 40
0.0
 40
0.0
 40
0.0
 40
0.1387172492
 40
0.2723564973
 40
0.4013732054
 40
0.5263253359
 40
0.6478722652
 40
0.766767787
 40
0.8838460243
 40
1.0
 40
1.0
 40
1.0
 40
1.0
 10
244.8867699666
 20
86.1135210471
 30
0.0
 10
245.0234019722
 20
86.2691230162
 30
0.0
 10
245.2813489139
 20
86.5839257252
 30
0.0
 10
245.6255803211
 20
87.0750494489
 30
0.0
 10
245.9186913169
 20
87.5747209112
 30
0.0
 10
246.1597956126
 20
88.0816104568
 30
0.0
 10
246.3481578484
 20
88.5943720512
 30
0.0
 10
246.4831670965
 20
89.1116250292
 30
0.0
 10
246.564364606
 20
89.6318436593
 30
0.0
 10
246.5824541287
 20
89.9802749889
 30
0.0
 10
246.5824541287
 20
90.1536683264
 30
0.0
  0
SPLINE
  5
3EF
100
AcDbEntity
  8
7_ALL_FEATURES
100
AcDbSpline
 62
7
  6
CONTINUOUS
 70
0
 71
3
 72
36
 73
32
 74
0
 42
0.0000001
 43
0.0000001
 44
0.0000000001
 40
0.0
 40
0.0
 40
0.0
 40
0.0
 40
0.0739246839
 40
0.1496585131
 40
0.2263729038
 40
0.3032131816
 40
0.3414164959
 40
0.3793306217
 40
0.4168515529
 40
0.4538779503
 40
0.4903118875
 40
0.5260596577
 40
0.5610325909
 40
0.5951479661
 40
0.6283299538
 40
0.6605106968
 40
0.6916314604
 40
0.7216439751
 40
0.7505119041
 40
0.7782125678
 40
0.8047388484
 40
0.8301013845
 40
0.8543309305
 40
0.8660390539
 40
0.8774860274
 40
0.899634808
 40
0.9208878722
 40
0.941378662
 40
0.9612679186
 40
0.9807405933
 40
1.0
 40
1.0
 40
1.0
 40
1.0
 10
233.3842435225
 20
99.1149473207
 30
0.0
 10
232.6784071687
 20
99.2577528353
 30
0.0
 10
231.2390797738
 20
99.4975096936
 30
0.0
 10
229.0437531513
 20
99.7200885977
 30
0.0
 10
226.8104883387
 20
99.8079787379
 30
0.0
 10
224.9416438165
 20
99.7678034116
 30
0.0
 10
223.4548163622
 20
99.6670764693
 30
0.0
 10
222.353016712
 20
99.5578645571
 30
0.0
 10
221.2666055666
 20
99.4152670126
 30
0.0
 10
220.1996145265
 20
99.2398122909
 30
0.0
 10
219.1560178287
 20
99.0321547632
 30
0.0
 10
218.1396967229
 20
98.7930684438
 30
0.0
 10
217.1544304338
 20
98.5234425404
 30
0.0
 10
216.2038798942
 20
98.2242801096
 30
0.0
 10
215.2915747583
 20
97.8966908786
 30
0.0
 10
214.4208992824
 20
97.5418890383
 30
0.0
 10
213.5950803689
 20
97.1611846031
 30
0.0
 10
212.8171751316
 20
96.7559799727
 30
0.0
 10
212.0900602797
 20
96.3277589184
 30
0.0
 10
211.4164252324
 20
95.878084741
 30
0.0
 10
210.7987544489
 20
95.4085767313
 30
0.0
 10
210.2393632659
 20
94.9209472299
 30
0.0
 10
209.8187600104
 20
94.4961333258
 30
0.0
 10
209.5145342488
 20
94.1488104373
 30
0.0
 10
209.2379303257
 20
93.804783567
 30
0.0
 10
208.9305889262
 20
93.3667291903
 30
0.0
 10
208.6231640428
 20
92.8243632632
 30
0.0
 10
208.382494148
 20
92.2730426339
 30
0.0
 10
208.2097062662
 20
91.7148240805
 30
0.0
 10
208.1056608383
 20
91.1520038038
 30
0.0
 10
208.0824544364
 20
90.774296653
 30
0.0
 10
208.0824542309
 20
90.5866810283
 30
0.0
  0
SPLINE
  5
3F0
100
AcDbEntity
  8
02___PRT_ALL_AXES
100
AcDbSpline
 62
7
  6
CONTINUOUS
 70
0
 71
3
 72
20
 73
16
 74
0
 42
0.0000001
 43
0.0000001
 44
0.0000000001
 40
0.0
 40
0.0
 40
0.0
 40
0.0
 40
0.209685499
 40
0.3958566261
 40
0.5571938473
 40
0.6281744678
 40
0.6925144201
 40
0.7501319916
 40
0.8010188026
 40
0.8452964778
 40
0.8833212411
 40
0.9158675108
 40
0.9444211764
 40
0.9714252607
 40
1.0
 40
1.0
 40
1.0
 40
1.0
 10
244.8487667548
 20
90.8962528731
 30
0.0
 10
244.8446708937
 20
90.8624558638
 30
0.0
 10
244.8358823725
 20
90.7987684317
 30
0.0
 10
244.8196028287
 20
90.7097494379
 30
0.0
 10
244.8036168876
 20
90.6436488548
 30
0.0
 10
244.7894236746
 20
90.5976069445
 30
0.0
 10
244.7787435578
 20
90.5681425453
 30
0.0
 10
244.7676041796
 20
90.542362384
 30
0.0
 10
244.7560361707
 20
90.5203843197
 30
0.0
 10
244.7440665157
 20
90.5023172061
 30
0.0
 10
244.7316926166
 20
90.4882627333
 30
0.0
 10
244.7188529378
 20
90.4783397893
 30
0.0
 10
244.7053965463
 20
90.4728284873
 30
0.0
 10
244.6914496651
 20
90.4723015429
 30
0.0
 10
244.6827176998
 20
90.4752602183
 30
0.0
 10
244.6785681466
 20
90.4773350393
 30
0.0
  0
SPLINE
  5
3F1
100
AcDbEntity
  8
7_ALL_FEATURES
100
AcDbSpline
 62
7
  6
CONTINUOUS
 70
0
 71
3
 72
9
 73
5
 74
0
 42
0.0000001
 43
0.0000001
 44
0.0000000001
 40
0.0
 40
0.0
 40
0.0
 40
0.0
 40
0.5155709646
 40
1.0
 40
1.0
 40
1.0
 40
1.0
 10
239.4932189497
 20
93.980793578
 30
0.0
 10
239.3952460689
 20
93.9318071376
 30
0.0
 10
239.1994773753
 20
93.8476935782
 30
0.0
 10
238.9939069497
 20
93.7907279398
 30
0.0
 10
238.8928653821
 20
93.771150768
 30
0.0
  0
SPLINE
  5
3F2
100
AcDbEntity
  8
7_ALL_FEATURES
100
AcDbSpline
 62
7
  6
CONTINUOUS
 70
0
 71
3
 72
23
 73
19
 74
0
 42
0.0000001
 43
0.0000001
 44
0.0000000001
 40
0.0
 40
0.0
 40
0.0
 40
0.0
 40
0.058199324
 40
0.1201538554
 40
0.1853326952
 40
0.2530976136
 40
0.3227323966
 40
0.3934678861
 40
0.4645049798
 40
0.5350365095
 40
0.6042688459
 40
0.671444019
 40
0.7358631147
 40
0.7969121225
 40
0.8540920204
 40
0.9070556677
 40
0.9556546738
 40
1.0
 40
1.0
 40
1.0
 40
1.0
 10
240.2708022651
 20
94.3695852357
 30
0.0
 10
240.3309599699
 20
94.3996640881
 30
0.0
 10
240.4583567828
 20
94.45548667
 30
0.0
 10
240.6613431969
 20
94.5244854152
 30
0.0
 10
240.8796933076
 20
94.5805736266
 30
0.0
 10
241.110124611
 20
94.6229003389
 30
0.0
 10
241.349194754
 20
94.6508316439
 30
0.0
 10
241.5933127446
 20
94.6639442802
 30
0.0
 10
241.8388097897
 20
94.6620398923
 30
0.0
 10
242.081994321
 20
94.6451472184
 30
0.0
 10
242.3192118293
 20
94.6135220461
 30
0.0
 10
242.5469033653
 20
94.5676422125
 30
0.0
 10
242.7616625647
 20
94.5081980752
 30
0.0
 10
242.9602931709
 20
94.4360738927
 30
0.0
 10
243.1398542561
 20
94.3523332896
 30
0.0
 10
243.297727443
 20
94.2581534888
 30
0.0
 10
243.4315670111
 20
94.1548805803
 30
0.0
 10
243.5067474368
 20
94.0774125504
 30
0.0
 10
243.5389867606
 20
94.0375757016
 30
0.0
  0
SPLINE
  5
3F3
100
AcDbEntity
  8
7_ALL_FEATURES
100
AcDbSpline
 62
7
  6
CONTINUOUS
 70
0
 71
3
 72
19
 73
15
 74
0
 42
0.0000001
 43
0.0000001
 44
0.0000000001
 40
0.0
 40
0.0
 40
0.0
 40
0.0
 40
0.1642344711
 40
0.3188528313
 40
0.4619572243
 40
0.592297031
 40
0.6525745697
 40
0.709623131
 40
0.7635940253
 40
0.8147392925
 40
0.8634219414
 40
0.9101203257
 40
0.9554216367
 40
1.0
 40
1.0
 40
1.0
 40
1.0
 10
233.3842435225
 20
99.1149473207
 30
0.0
 10
233.4736509354
 20
99.0968583238
 30
0.0
 10
233.6459282359
 20
99.0547368042
 30
0.0
 10
233.8889702611
 20
98.9712633486
 30
0.0
 10
234.1050037544
 20
98.8708591173
 30
0.0
 10
234.2627522098
 20
98.7722769112
 30
0.0
 10
234.3702344613
 20
98.6862076986
 30
0.0
 10
234.4392667985
 20
98.6205480465
 30
0.0
 10
234.4984411504
 20
98.5524445911
 30
0.0
 10
234.5474157701
 20
98.4822366505
 30
0.0
 10
234.5858871802
 20
98.4102852635
 30
0.0
 10
234.6135910272
 20
98.3369662354
 30
0.0
 10
234.6303116744
 20
98.2627192025
 30
0.0
 10
234.6340488638
 20
98.2127215259
 30
0.0
 10
234.6340489937
 20
98.1879618541
 30
0.0
  0
SPLINE
  5
3F4
100
AcDbEntity
  8
7_ALL_FEATURES
100
AcDbSpline
 62
7
  6
CONTINUOUS
 70
0
 71
3
 72
14
 73
10
 74
0
 42
0.0000001
 43
0.0000001
 44
0.0000000001
 40
0.0
 40
0.0
 40
0.0
 40
0.0
 40
0.1172135256
 40
0.2352336089
 40
0.3548431748
 40
0.4767802425
 40
0.6017207809
 40
0.7302669867
 40
1.0
 40
1.0
 40
1.0
 40
1.0
 10
244.8824540523
 20
90.5866810283
 30
0.0
 10
244.8824541333
 20
90.7341867389
 30
0.0
 10
244.8681683538
 20
91.0304082282
 30
0.0
 10
244.8040213307
 20
91.4729677577
 30
0.0
 10
244.6973194385
 20
91.9133716933
 30
0.0
 10
244.5483760108
 20
92.3504903201
 30
0.0
 10
244.3575762881
 20
92.783341882
 30
0.0
 10
244.0431641389
 20
93.3624873616
 30
0.0
 10
243.7525246544
 20
93.7737154285
 30
0.0
 10
243.5389867606
 20
94.0375757016
 30
0.0
  0
SPLINE
  5
3F5
100
AcDbEntity
  8
7_ALL_FEATURES
100
AcDbSpline
 62
7
  6
CONTINUOUS
 70
0
 71
3
 72
15
 73
11
 74
0
 42
0.0000001
 43
0.0000001
 44
0.0000000001
 40
0.0
 40
0.0
 40
0.0
 40
0.0
 40
0.1020723936
 40
0.2070113235
 40
0.3173570124
 40
0.435111249
 40
0.5616689092
 40
0.6978523994
 40
0.8439883822
 40
1.0
 40
1.0
 40
1.0
 40
1.0
 10
234.6340489937
 20
98.1879618541
 30
0.0
 10
234.6340491659
 20
98.1551321475
 30
0.0
 10
234.6273997212
 20
98.0883760554
 30
0.0
 10
234.5978263524
 20
97.9900987169
 30
0.0
 10
234.5491427582
 20
97.8941171731
 30
0.0
 10
234.482044257
 20
97.8013718152
 30
0.0
 10
234.3973074898
 20
97.7126262908
 30
0.0
 10
234.2957889805
 20
97.6286213703
 30
0.0
 10
234.1784703143
 20
97.5500782631
 30
0.0
 10
234.0931433955
 20
97.5032954753
 30
0.0
 10
234.0482625907
 20
97.4808550729
 30
0.0
  0
SPLINE
  5
3F6
100
AcDbEntity
  8
7_ALL_FEATURES
100
AcDbSpline
 62
7
  6
CONTINUOUS
 70
0
 71
3
 72
23
 73
19
 74
0
 42
0.0000001
 43
0.0000001
 44
0.0000000001
 40
0.0
 40
0.0
 40
0.0
 40
0.0
 40
0.0562368348
 40
0.1107771842
 40
0.16419014
 40
0.2171001613
 40
0.2701577797
 40
0.3240057855
 40
0.3792467764
 40
0.4364174509
 40
0.4959723483
 40
0.5582771018
 40
0.623608935
 40
0.6921619625
 40
0.7640547991
 40
0.8393389286
 40
0.9180068125
 40
1.0
 40
1.0
 40
1.0
 40
1.0
 10
244.6685613672
 20
88.3379420354
 30
0.0
 10
244.7631045709
 20
88.5290910024
 30
0.0
 10
244.9292436296
 20
88.9160664249
 30
0.0
 10
245.1063596331
 20
89.5144846324
 30
0.0
 10
245.2059706544
 20
90.1179606891
 30
0.0
 10
245.2274237868
 20
90.723630591
 30
0.0
 10
245.1705935917
 20
91.3286569388
 30
0.0
 10
245.0358343702
 20
91.9301987956
 30
0.0
 10
244.8239528177
 20
92.5255453094
 30
0.0
 10
244.5361130433
 20
93.112149365
 30
0.0
 10
244.1737653085
 20
93.6876233425
 30
0.0
 10
243.7385961165
 20
94.24969982
 30
0.0
 10
243.2325193686
 20
94.7961977073
 30
0.0
 10
242.657678044
 20
95.3249981205
 30
0.0
 10
242.0164579803
 20
95.8340364442
 30
0.0
 10
241.3114843557
 20
96.3213105685
 30
0.0
 10
240.5456635788
 20
96.7848693534
 30
0.0
 10
240.0074706055
 20
97.071093289
 30
0.0
 10
239.7293746514
 20
97.2101412661
 30
0.0
  0
SPLINE
  5
3F7
100
AcDbEntity
  8
7_ALL_FEATURES
100
AcDbSpline
 62
7
  6
CONTINUOUS
 70
0
 71
3
 72
56
 73
52
 74
0
 42
0.0000001
 43
0.0000001
 44
0.0000000001
 40
0.0
 40
0.0
 40
0.0
 40
0.0
 40
0.0146960111
 40
0.0289124356
 40
0.0426503221
 40
0.0559153426
 40
0.0687182735
 40
0.081075473
 40
0.0930093481
 40
0.1045487702
 40
0.1157293824
 40
0.126593727
 40
0.1371911086
 40
0.1475771101
 40
0.1578127025
 40
0.1679629385
 40
0.1780952852
 40
0.1882777255
 40
0.1985768074
 40
0.2090558343
 40
0.2197733573
 40
0.2307820643
 40
0.2421280876
 40
0.2538506947
 40
0.2659822866
 40
0.278548621
 40
0.2915691771
 40
0.3050576033
 40
0.3190221941
 40
0.3334663655
 40
0.3483891106
 40
0.3637854231
 40
0.3796466851
 40
0.3959610198
 40
0.4127136116
 40
0.4298869949
 40
0.465410356
 40
0.50235245
 40
0.540502023
 40
0.5796259031
 40
0.6194742085
 40
0.6597851264
 40
0.7002894272
 40
0.7407148259
 40
0.7807902806
 40
0.8202503183
 40
0.8588394714
 40
0.8963169277
 40
0.93246154
 40
0.9670773777
 40
1.0
 40
1.0
 40
1.0
 40
1.0
 10
211.864483254
 20
84.7284235224
 30
0.0
 10
211.682444338
 20
84.8419827365
 30
0.0
 10
211.3290339876
 20
85.0731049534
 30
0.0
 10
210.8241103409
 20
85.43788236
 30
0.0
 10
210.3542101513
 20
85.8142588613
 30
0.0
 10
209.9203977084
 20
86.2014029266
 30
0.0
 10
209.5236443196
 20
86.598472602
 30
0.0
 10
209.1648482248
 20
87.0046045178
 30
0.0
 10
208.8448296421
 20
87.4189177959
 30
0.0
 10
208.5643324289
 20
87.8405128438
 30
0.0
 10
208.3240236685
 20
88.2684698193
 30
0.0
 10
208.1244924119
 20
88.7018455315
 30
0.0
 10
207.966245845
 20
89.139669622
 30
0.0
 10
207.8497026865
 20
89.5809415222
 30
0.0
 10
207.7751836887
 20
90.0246299934
 30
0.0
 10
207.7429007626
 20
90.4696771959
 30
0.0
 10
207.7529476313
 20
90.9150080572
 30
0.0
 10
207.8052950503
 20
91.3595436718
 30
0.0
 10
207.899792349
 20
91.8022156422
 30
0.0
 10
208.0361745373
 20
92.241977902
 30
0.0
 10
208.2140729455
 20
92.6778135894
 30
0.0
 10
208.4330257652
 20
93.108736769
 30
0.0
 10
208.6924863421
 20
93.5337904504
 30
0.0
 10
208.9918283749
 20
93.9520429509
 30
0.0
 10
209.3303483652
 20
94.3625843345
 30
0.0
 10
209.7072662138
 20
94.7645239385
 30
0.0
 10
210.1217249215
 20
95.1569893817
 30
0.0
 10
210.5727903857
 20
95.5391266523
 30
0.0
 10
211.0594514068
 20
95.9101012532
 30
0.0
 10
211.5806202286
 20
96.2690999219
 30
0.0
 10
212.1351336919
 20
96.615332729
 30
0.0
 10
212.7217547436
 20
96.9480351153
 30
0.0
 10
213.3391750951
 20
97.2664706654
 30
0.0
 10
213.9860154921
 20
97.5699311329
 30
0.0
 10
214.6608372575
 20
97.8577467452
 30
0.0
 10
215.6065221981
 20
98.2238826236
 30
0.0
 10
216.8493564632
 20
98.6367081633
 30
0.0
 10
218.4100537955
 20
99.0549296156
 30
0.0
 10
220.0427447091
 20
99.3977363639
 30
0.0
 10
221.7328522149
 20
99.6620598476
 30
0.0
 10
223.4653349559
 20
99.8455386768
 30
0.0
 10
225.2247395885
 20
99.9465283505
 30
0.0
 10
226.995368948
 20
99.9641238976
 30
0.0
 10
228.7614205919
 20
99.8981674577
 30
0.0
 10
230.5071350097
 20
99.749250163
 30
0.0
 10
232.2169398492
 20
99.5187070764
 30
0.0
 10
233.8755985395
 20
99.2086006648
 30
0.0
 10
235.4683376121
 20
98.8217049546
 30
0.0
 10
236.9810371995
 20
98.3614494108
 30
0.0
 10
238.4001801207
 20
97.8319641733
 30
0.0
 10
239.2994635628
 20
97.4250968104
 30
0.0
 10
239.7293746514
 20
97.2101412661
 30
0.0
  0
SPLINE
  5
3F8
100
AcDbEntity
  8
7_ALL_FEATURES
100
AcDbSpline
 62
7
  6
CONTINUOUS
 70
0
 71
3
 72
18
 73
14
 74
0
 42
0.0000001
 43
0.0000001
 44
0.0000000001
 40
0.0
 40
0.0
 40
0.0
 40
0.0
 40
0.0534341322
 40
0.107133023
 40
0.1613558172
 40
0.216350843
 40
0.2723511596
 40
0.329571075
 40
0.4483551934
 40
0.5740487898
 40
0.7075584468
 40
0.8494521371
 40
1.0
 40
1.0
 40
1.0
 40
1.0
 10
208.0824542309
 20
90.5866810283
 30
0.0
 10
208.0824540939
 20
90.4616638708
 30
0.0
 10
208.0926967247
 20
90.2108910153
 30
0.0
 10
208.1387182703
 20
89.8357977584
 30
0.0
 10
208.2153188687
 20
89.4619932871
 30
0.0
 10
208.3223448714
 20
89.0901596445
 30
0.0
 10
208.4595999617
 20
88.720908384
 30
0.0
 10
208.6853090738
 20
88.2268074534
 30
0.0
 10
209.045649508
 20
87.6171981764
 30
0.0
 10
209.5880258922
 20
86.91622664
 30
0.0
 10
210.241836672
 20
86.2406499269
 30
0.0
 10
211.0024908273
 20
85.5946992735
 30
0.0
 10
211.5610963392
 20
85.1980609493
 30
0.0
 10
211.8557285437
 20
85.0050393722
 30
0.0
  0
SPLINE
  5
3F9
100
AcDbEntity
  8
7_ALL_FEATURES
100
AcDbSpline
 62
7
  6
CONTINUOUS
 70
0
 71
3
 72
11
 73
7
 74
0
 42
0.0000001
 43
0.0000001
 44
0.0000000001
 40
0.0
 40
0.0
 40
0.0
 40
0.0
 40
0.255290754
 40
0.5060869615
 40
0.7538197707
 40
1.0
 40
1.0
 40
1.0
 40
1.0
 10
244.5718666815
 20
88.9034434832
 30
0.0
 10
244.6229303537
 20
89.0406365331
 30
0.0
 10
244.712949274
 20
89.316955743
 30
0.0
 10
244.8106474434
 20
89.7385876891
 30
0.0
 10
244.8693782642
 20
90.1621295837
 30
0.0
 10
244.8824539747
 20
90.4455172053
 30
0.0
 10
244.8824540523
 20
90.5866810283
 30
0.0
  0
SPLINE
  5
3FA
100
AcDbEntity
  8
7_ALL_FEATURES
100
AcDbSpline
 62
7
  6
CONTINUOUS
 70
0
 71
3
 72
29
 73
25
 74
0
 42
0.0000001
 43
0.0000001
 44
0.0000000001
 40
0.0
 40
0.0
 40
0.0
 40
0.0
 40
0.0605295875
 40
0.1183077162
 40
0.1463456159
 40
0.173910788
 40
0.2010892556
 40
0.2279727582
 40
0.2546575975
 40
0.2812432522
 40
0.3078308196
 40
0.3345213656
 40
0.3614142765
 40
0.3886057054
 40
0.4161871956
 40
0.4442445355
 40
0.5020699048
 40
0.5626558789
 40
0.626424334
 40
0.6936775728
 40
0.7646080161
 40
0.8393106026
 40
0.9177954751
 40
1.0
 40
1.0
 40
1.0
 40
1.0
 10
244.8533659157
 20
86.7379108113
 30
0.0
 10
245.0117459859
 20
86.9508637787
 30
0.0
 10
245.3003962266
 20
87.3832660942
 30
0.0
 10
245.5935048693
 20
87.955942986
 30
0.0
 10
245.7769431499
 20
88.4183095263
 30
0.0
 10
245.8885896753
 20
88.7639551092
 30
0.0
 10
245.9754846804
 20
89.1114259336
 30
0.0
 10
246.0375094833
 20
89.460278046
 30
0.0
 10
246.0745716497
 20
89.8100498938
 30
0.0
 10
246.0866168168
 20
90.1602787238
 30
0.0
 10
246.0736269047
 20
90.5104987662
 30
0.0
 10
246.0356214177
 20
90.8602442546
 30
0.0
 10
245.972656009
 20
91.2090526883
 30
0.0
 10
245.8848247877
 20
91.556462248
 30
0.0
 10
245.7722463964
 20
91.9020309854
 30
0.0
 10
245.5875595565
 20
92.3642839398
 30
0.0
 10
245.2928658661
 20
92.9368141153
 30
0.0
 10
244.8471572674
 20
93.6015271572
 30
0.0
 10
244.3083381452
 20
94.2478838003
 30
0.0
 10
243.6793392406
 20
94.8727475175
 30
0.0
 10
242.9634108094
 20
95.4731913815
 30
0.0
 10
242.1641785868
 20
96.046340588
 30
0.0
 10
241.2857016957
 20
96.5894010893
 30
0.0
 10
240.6641223824
 20
96.9221271344
 30
0.0
 10
240.3417470871
 20
97.083314782
 30
0.0
  0
SPLINE
  5
3FB
100
AcDbEntity
  8
02___PRT_ALL_AXES
100
AcDbSpline
 62
7
  6
CONTINUOUS
 70
0
 71
3
 72
22
 73
18
 74
0
 42
0.0000001
 43
0.0000001
 44
0.0000000001
 40
0.0
 40
0.0
 40
0.0
 40
0.0
 40
0.0152757304
 40
0.0248586542
 40
0.0359523444
 40
0.0486712452
 40
0.0630998022
 40
0.0973089293
 40
0.138908994
 40
0.1880155199
 40
0.2445674976
 40
0.3083304327
 40
0.3788956854
 40
0.4556872303
 40
0.6249078193
 40
0.8089376609
 40
1.0
 40
1.0
 40
1.0
 40
1.0
 10
244.6785681466
 20
90.4773350393
 30
0.0
 10
244.6702682178
 20
90.4814850925
 30
0.0
 10
244.6586005052
 20
90.4917825873
 30
0.0
 10
244.6452895027
 20
90.5090568715
 30
0.0
 10
244.6346656942
 20
90.5264011725
 30
0.0
 10
244.6242307712
 20
90.5471722305
 30
0.0
 10
244.6097707144
 20
90.5815529764
 30
0.0
 10
244.5928910902
 20
90.6338009399
 30
0.0
 10
244.5750991933
 20
90.707616816
 30
0.0
 10
244.5592704958
 20
90.795705279
 30
0.0
 10
244.5458456654
 20
90.8977758205
 30
0.0
 10
244.5352380489
 20
91.0132702091
 30
0.0
 10
244.5277846193
 20
91.1413245818
 30
0.0
 10
244.522217754
 20
91.3335796366
 30
0.0
 10
244.524931292
 20
91.594910152
 30
0.0
 10
244.5415403368
 20
91.9252117364
 30
0.0
 10
244.5602205801
 20
92.152340517
 30
0.0
 10
244.5711607704
 20
92.2678895824
 30
0.0
  0
SPLINE
  5
3FC
100
AcDbEntity
  8
02___PRT_ALL_AXES
100
AcDbSpline
 62
7
  6
CONTINUOUS
 70
0
 71
3
 72
22
 73
18
 74
0
 42
0.0000001
 43
0.0000001
 44
0.0000000001
 40
0.0
 40
0.0
 40
0.0
 40
0.0
 40
0.0508877315
 40
0.1021406062
 40
0.1541126151
 40
0.2071366104
 40
0.261516356
 40
0.3175210402
 40
0.4352141801
 40
0.4973299358
 40
0.561769836
 40
0.6286194998
 40
0.6979336578
 40
0.7697388926
 40
0.8440363374
 40
0.9208041266
 40
1.0
 40
1.0
 40
1.0
 40
1.0
 10
206.382454223
 20
90.1536683264
 30
0.0
 10
206.382454223
 20
90.3182430337
 30
0.0
 10
206.3987380075
 20
90.6488002391
 30
0.0
 10
206.4718501869
 20
91.1425692491
 30
0.0
 10
206.5934510274
 20
91.6338218068
 30
0.0
 10
206.763169069
 20
92.1212466139
 30
0.0
 10
206.9805328581
 20
92.6036870779
 30
0.0
 10
207.3388713455
 20
93.2492098251
 30
0.0
 10
207.7877501206
 20
93.8698098014
 30
0.0
 10
208.3127117868
 20
94.460490141
 30
0.0
 10
208.7572783459
 20
94.9011090674
 30
0.0
 10
209.2443803259
 20
95.3301343914
 30
0.0
 10
209.7728949317
 20
95.7466327448
 30
0.0
 10
210.341537639
 20
96.1496069986
 30
0.0
 10
210.9489532499
 20
96.5381145145
 30
0.0
 10
211.5936733871
 20
96.911228407
 30
0.0
 10
212.0405224031
 20
97.1455487419
 30
0.0
 10
212.269607874
 20
97.2600914773
 30
0.0
  0
SPLINE
  5
3FD
100
AcDbEntity
  8
02___PRT_ALL_AXES
100
AcDbSpline
 62
7
  6
CONTINUOUS
 70
0
 71
3
 72
42
 73
38
 74
0
 42
0.0000001
 43
0.0000001
 44
0.0000000001
 40
0.0
 40
0.0
 40
0.0
 40
0.0
 40
0.0094976267
 40
0.0190337116
 40
0.0286460449
 40
0.0383711214
 40
0.0482435871
 40
0.0582957858
 40
0.0790454534
 40
0.1008337356
 40
0.1238148902
 40
0.1480966828
 40
0.1737445765
 40
0.2007868381
 40
0.2292196288
 40
0.2590116315
 40
0.2901081018
 40
0.322434334
 40
0.3558986355
 40
0.3903949019
 40
0.4258048677
 40
0.4620001271
 40
0.4988439665
 40
0.5361930666
 40
0.5738991102
 40
0.6118103202
 40
0.6497729577
 40
0.6876327946
 40
0.7252365815
 40
0.7624335264
 40
0.7990768043
 40
0.8350251158
 40
0.8701443205
 40
0.9043091823
 40
0.9374052546
 40
0.9693309771
 40
1.0
 40
1.0
 40
1.0
 40
1.0
 10
246.5824541287
 20
90.1536683264
 30
0.0
 10
246.5824541287
 20
90.2770560758
 30
0.0
 10
246.5733288881
 20
90.5244272916
 30
0.0
 10
246.5323150434
 20
90.8946302463
 30
0.0
 10
246.4640305324
 20
91.2638044848
 30
0.0
 10
246.3685847892
 20
91.6314021041
 30
0.0
 10
246.2461165424
 20
91.99693136
 30
0.0
 10
246.0449802477
 20
92.4859321962
 30
0.0
 10
245.723798035
 20
93.0911328048
 30
0.0
 10
245.23829758
 20
93.7923532356
 30
0.0
 10
244.6515584124
 20
94.4729448755
 30
0.0
 10
243.9669632388
 20
95.1294072778
 30
0.0
 10
243.1882607439
 20
95.7584758448
 30
0.0
 10
242.3196499439
 20
96.3569395031
 30
0.0
 10
241.3657775469
 20
96.9217095608
 30
0.0
 10
240.3317405939
 20
97.4498315036
 30
0.0
 10
239.2230694667
 20
97.9385156113
 30
0.0
 10
238.0457044947
 20
98.3851610646
 30
0.0
 10
236.8059657718
 20
98.7873779883
 30
0.0
 10
235.5105190671
 20
99.1430053958
 30
0.0
 10
234.1663392068
 20
99.4501275816
 30
0.0
 10
232.7806710823
 20
99.7070865676
 30
0.0
 10
231.3609893433
 20
99.9124932046
 30
0.0
 10
229.9149568203
 20
100.0652361464
 30
0.0
 10
228.4503819455
 20
100.1644881156
 30
0.0
 10
226.9751755802
 20
100.2097115722
 30
0.0
 10
225.4973072599
 20
100.2006614634
 30
0.0
 10
224.0247612185
 20
100.1373867167
 30
0.0
 10
222.5654922983
 20
100.0202303448
 30
0.0
 10
221.1273820887
 20
99.8498267786
 30
0.0
 10
219.7181951709
 20
99.6270985927
 30
0.0
 10
218.3455366415
 20
99.3532508862
 30
0.0
 10
217.0168079841
 20
99.0297626842
 30
0.0
 10
215.7391727013
 20
98.6583814637
 30
0.0
 10
214.5194915826
 20
98.2410987745
 30
0.0
 10
213.3643731667
 20
97.7801798832
 30
0.0
 10
212.6259784816
 20
97.4382767811
 30
0.0
 10
212.269607874
 20
97.2600914773
 30
0.0
  0
SPLINE
  5
3FE
100
AcDbEntity
  8
7_ALL_FEATURES
100
AcDbSpline
 62
7
  6
CONTINUOUS
 70
0
 71
3
 72
57
 73
53
 74
0
 42
0.0000001
 43
0.0000001
 44
0.0000000001
 40
0.0
 40
0.0
 40
0.0
 40
0.0
 40
0.0329555935
 40
0.0676356713
 40
0.1038680969
 40
0.141447595
 40
0.1801425011
 40
0.2197007269
 40
0.2598551279
 40
0.3003285147
 40
0.3408384282
 40
0.3811018114
 40
0.4208396647
 40
0.4597817912
 40
0.4976717251
 40
0.5342719982
 40
0.5520231059
 40
0.569374475
 40
0.5863044877
 40
0.6027939562
 40
0.6188263946
 40
0.6343883182
 40
0.6494695774
 40
0.6640637267
 40
0.6781684357
 40
0.6917859341
 40
0.7049234947
 40
0.717593944
 40
0.7298161803
 40
0.7416156698
 40
0.7530248626
 40
0.7640834667
 40
0.7748384908
 40
0.7853439614
 40
0.7956602276
 40
0.8058528029
 40
0.8159907659
 40
0.8261448199
 40
0.8363851868
 40
0.8467795493
 40
0.8573912471
 40
0.8682778726
 40
0.8794903256
 40
0.8910723134
 40
0.903060225
 40
0.9154832922
 40
0.9283639401
 40
0.9417182472
 40
0.9555564549
 40
0.9698834792
 40
0.9846994369
 40
1.0
 40
1.0
 40
1.0
 40
1.0
 10
240.3417470871
 20
97.083314782
 30
0.0
 10
239.8828325688
 20
97.3127720412
 30
0.0
 10
238.9220841546
 20
97.7465456602
 30
0.0
 10
237.4048712062
 20
98.3092174757
 30
0.0
 10
235.7864643499
 20
98.7963935037
 30
0.0
 10
234.0818976713
 20
99.2035281957
 30
0.0
 10
232.3068818633
 20
99.5268692862
 30
0.0
 10
230.4778548174
 20
99.7634078694
 30
0.0
 10
228.6117636324
 20
99.91094395
 30
0.0
 10
226.7259160912
 20
99.9681017853
 30
0.0
 10
224.837809658
 20
99.934348464
 30
0.0
 10
222.9649623744
 20
99.8099989426
 30
0.0
 10
221.1247505319
 20
99.5962124563
 30
0.0
 10
219.3342169719
 20
99.2949781887
 30
0.0
 10
217.6099929876
 20
98.9091037882
 30
0.0
 10
216.2277661148
 20
98.5160539108
 30
0.0
 10
215.1692321167
 20
98.1610039138
 30
0.0
 10
214.4097414709
 20
97.8787602667
 30
0.0
 10
213.6783661424
 20
97.5785240777
 30
0.0
 10
212.9767989741
 20
97.2609863461
 30
0.0
 10
212.3066703144
 20
96.9268833226
 30
0.0
 10
211.6695348035
 20
96.5769862966
 30
0.0
 10
211.0668704783
 20
96.2121014141
 30
0.0
 10
210.5000751133
 20
95.8330666678
 30
0.0
 10
209.9704636274
 20
95.440749741
 30
0.0
 10
209.4792661144
 20
95.0360452081
 30
0.0
 10
209.0276265108
 20
94.6198720841
 30
0.0
 10
208.6166018661
 20
94.1931717265
 30
0.0
 10
208.2471623098
 20
93.7569063226
 30
0.0
 10
207.9201911915
 20
93.312058708
 30
0.0
 10
207.636485688
 20
92.8596332325
 30
0.0
 10
207.3967564688
 20
92.4006585294
 30
0.0
 10
207.2016252331
 20
91.9361917439
 30
0.0
 10
207.0516190836
 20
91.4673230679
 30
0.0
 10
206.9471606371
 20
90.9951787046
 30
0.0
 10
206.8885558878
 20
90.5209192778
 30
0.0
 10
206.875981633
 20
90.0457322232
 30
0.0
 10
206.9094764019
 20
89.5708180873
 30
0.0
 10
206.9889383392
 20
89.0973735123
 30
0.0
 10
207.1141303408
 20
88.6265751351
 30
0.0
 10
207.2846915912
 20
88.1595684385
 30
0.0
 10
207.5001506272
 20
87.6974631103
 30
0.0
 10
207.7599366191
 20
87.2413338575
 30
0.0
 10
208.0633871301
 20
86.792224389
 30
0.0
 10
208.4097518789
 20
86.3511518029
 30
0.0
 10
208.7981944192
 20
85.9191103404
 30
0.0
 10
209.2277920136
 20
85.4970734498
 30
0.0
 10
209.6975354477
 20
85.0859939269
 30
0.0
 10
210.2063274069
 20
84.6868038322
 30
0.0
 10
210.7529880575
 20
84.3004092164
 30
0.0
 10
211.3362346674
 20
83.9277006527
 30
0.0
 10
211.7421302954
 20
83.6926428122
 30
0.0
 10
211.9506410676
 20
83.5774534348
 30
0.0
  0
SPLINE
  5
3FF
100
AcDbEntity
  8
02___PRT_ALL_AXES
100
AcDbSpline
 62
7
  6
CONTINUOUS
 70
0
 71
3
 72
23
 73
19
 74
0
 42
0.0000001
 43
0.0000001
 44
0.0000000001
 40
0.0
 40
0.0
 40
0.0
 40
0.0
 40
0.0791896748
 40
0.1559513368
 40
0.2302429295
 40
0.3020424991
 40
0.3713511855
 40
0.4381955717
 40
0.5026303875
 40
0.5647412378
 40
0.6246473642
 40
0.682504022
 40
0.7385042862
 40
0.7928797401
 40
0.8458995488
 40
0.8978674568
 40
0.9491162849
 40
1.0
 40
1.0
 40
1.0
 40
1.0
 10
240.8013664949
 20
97.3131244859
 30
0.0
 10
241.0321617119
 20
97.1977268774
 30
0.0
 10
241.482345368
 20
96.961657929
 30
0.0
 10
242.1318768782
 20
96.5857594971
 30
0.0
 10
242.7438250981
 20
96.1943530377
 30
0.0
 10
243.3167121609
 20
95.7883705375
 30
0.0
 10
243.8491684102
 20
95.3687673866
 30
0.0
 10
244.3399143098
 20
94.9365283486
 30
0.0
 10
244.7877672821
 20
94.4926636762
 30
0.0
 10
245.1916393798
 20
94.0382063284
 30
0.0
 10
245.5505386647
 20
93.5742125378
 30
0.0
 10
245.8635671978
 20
93.101760979
 30
0.0
 10
246.1299217416
 20
92.6219567825
 30
0.0
 10
246.348895702
 20
92.1359336582
 30
0.0
 10
246.5198832691
 20
91.644866768
 30
0.0
 10
246.6423909393
 20
91.1499493737
 30
0.0
 10
246.7160488024
 20
90.6524951716
 30
0.0
 10
246.7324540271
 20
90.3194712039
 30
0.0
 10
246.7324541337
 20
90.1536683264
 30
0.0
  0
SPLINE
  5
400
100
AcDbEntity
  8
02___PRT_ALL_AXES
100
AcDbSpline
 62
7
  6
CONTINUOUS
 70
0
 71
3
 72
42
 73
38
 74
0
 42
0.0000001
 43
0.0000001
 44
0.0000000001
 40
0.0
 40
0.0
 40
0.0
 40
0.0
 40
0.0306690234
 40
0.0625947453
 40
0.0956908182
 40
0.1298556797
 40
0.1649748846
 40
0.2009231957
 40
0.2375664735
 40
0.2747634185
 40
0.3123672054
 40
0.3502270423
 40
0.3881896798
 40
0.4261008898
 40
0.4638069333
 40
0.5011560337
 40
0.5379998731
 40
0.5741951325
 40
0.6096050982
 40
0.6441013639
 40
0.6775656658
 40
0.7098918978
 40
0.7409883684
 40
0.7707803718
 40
0.799213162
 40
0.8262554238
 40
0.8519033169
 40
0.8761851091
 40
0.8991662641
 40
0.9209545461
 40
0.9417042142
 40
0.951756413
 40
0.9616288787
 40
0.9713539551
 40
0.9809662884
 40
0.9905023733
 40
1.0
 40
1.0
 40
1.0
 40
1.0
 10
240.8013664949
 20
97.3131244859
 30
0.0
 10
240.4423363989
 20
97.4926395339
 30
0.0
 10
239.6984313227
 20
97.837094185
 30
0.0
 10
238.5346925905
 20
98.3014527149
 30
0.0
 10
237.3059093743
 20
98.7218494369
 30
0.0
 10
236.018739503
 20
99.0960021973
 30
0.0
 10
234.6800949556
 20
99.4219044406
 30
0.0
 10
233.2971927243
 20
99.6977958484
 30
0.0
 10
231.8774894912
 20
99.9221861859
 30
0.0
 10
230.4286471143
 20
100.0938613978
 30
0.0
 10
228.9584881275
 20
100.2118921032
 30
0.0
 10
227.4749529337
 20
100.2756389823
 30
0.0
 10
225.9860557471
 20
100.2847566538
 30
0.0
 10
224.4998403806
 20
100.2391957138
 30
0.0
 10
223.0243358434
 20
100.1392030325
 30
0.0
 10
221.567512024
 20
99.9853202879
 30
0.0
 10
220.1372356464
 20
99.7783807316
 30
0.0
 10
218.7412267168
 20
99.5195041503
 30
0.0
 10
217.3870156707
 20
99.2100900125
 30
0.0
 10
216.0819014776
 20
98.8518086053
 30
0.0
 10
214.8329109625
 20
98.4465901184
 30
0.0
 10
213.6467596893
 20
97.9966114594
 30
0.0
 10
212.5298148831
 20
97.5042804684
 30
0.0
 10
211.4880612006
 20
96.97221737
 30
0.0
 10
210.5270703842
 20
96.4032325492
 30
0.0
 10
209.6519773973
 20
95.8003027904
 30
0.0
 10
208.8674637271
 20
95.1665396466
 30
0.0
 10
208.1777596721
 20
94.5051782496
 30
0.0
 10
207.5866417985
 20
93.8195076169
 30
0.0
 10
207.0975182606
 20
93.1130541504
 30
0.0
 10
206.7739390943
 20
92.5033371546
 30
0.0
 10
206.5713017473
 20
92.0106870622
 30
0.0
 10
206.4479195671
 20
91.6424299721
 30
0.0
 10
206.351761583
 20
91.2720890801
 30
0.0
 10
206.2829674817
 20
90.9001598113
 30
0.0
 10
206.241647587
 20
90.5271941505
 30
0.0
 10
206.2324541381
 20
90.2779768798
 30
0.0
 10
206.232454218
 20
90.1536683264
 30
0.0
  0
SPLINE
  5
401
100
AcDbEntity
  8
02___PRT_ALL_AXES
100
AcDbSpline
 62
7
  6
CONTINUOUS
 70
0
 71
3
 72
23
 73
19
 74
0
 42
0.0000001
 43
0.0000001
 44
0.0000000001
 40
0.0
 40
0.0
 40
0.0
 40
0.0
 40
0.0791896096
 40
0.1559513519
 40
0.2302429335
 40
0.302042499
 40
0.3713511848
 40
0.4381955745
 40
0.5026303852
 40
0.56474124
 40
0.6246473642
 40
0.6825040215
 40
0.738504288
 40
0.7928797391
 40
0.8458995494
 40
0.8978674567
 40
0.9491162851
 40
1.0
 40
1.0
 40
1.0
 40
1.0
 10
245.7864693022
 20
102.403752101
 30
0.0
 10
246.0976151911
 20
102.2481791565
 30
0.0
 10
246.7045295136
 20
101.9299232116
 30
0.0
 10
247.5801942467
 20
101.4231564509
 30
0.0
 10
248.4051913748
 20
100.8954824439
 30
0.0
 10
249.1775279309
 20
100.3481578919
 30
0.0
 10
249.8953577856
 20
99.7824706307
 30
0.0
 10
250.5569560896
 20
99.1997485221
 30
0.0
 10
251.1607280566
 20
98.601352979
 30
0.0
 10
251.7052076638
 20
97.9886773317
 30
0.0
 10
252.1890569768
 20
97.3631448677
 30
0.0
 10
252.6110657676
 20
96.7262101564
 30
0.0
 10
252.9701513354
 20
96.079363113
 30
0.0
 10
253.2653604239
 20
95.4241318198
 30
0.0
 10
253.4958772056
 20
94.7621009882
 30
0.0
 10
253.6610355994
 20
94.0948789745
 30
0.0
 10
253.7603372326
 20
93.4242370291
 30
0.0
 10
253.7824542374
 20
92.9752713797
 30
0.0
 10
253.7824541438
 20
92.7517445378
 30
0.0
  0
SPLINE
  5
402
100
AcDbEntity
  8
02___PRT_ALL_AXES
100
AcDbSpline
 62
7
  6
CONTINUOUS
 70
0
 71
3
 72
23
 73
19
 74
0
 42
0.0000001
 43
0.0000001
 44
0.0000000001
 40
0.0
 40
0.0
 40
0.0
 40
0.0
 40
0.0541014061
 40
0.1108501034
 40
0.1700083467
 40
0.2312934985
 40
0.2943865185
 40
0.3589394162
 40
0.4245819777
 40
0.4909280019
 40
0.5575812164
 40
0.6241410095
 40
0.6902080856
 40
0.7553901432
 40
0.8193076784
 40
0.8816000311
 40
0.9419318252
 40
1.0
 40
1.0
 40
1.0
 40
1.0
 10
245.7864693022
 20
102.403752101
 30
0.0
 10
245.194944541
 20
102.6995144816
 30
0.0
 10
243.960437248
 20
103.2612448433
 30
0.0
 10
242.0161856251
 20
103.9987533218
 30
0.0
 10
239.9480862601
 20
104.6466464849
 30
0.0
 10
237.7726769606
 20
105.1997250359
 30
0.0
 10
235.5072120888
 20
105.6536042284
 30
0.0
 10
233.1697415068
 20
106.0046544352
 30
0.0
 10
230.7788967778
 20
106.2500682709
 30
0.0
 10
228.3537540106
 20
106.3878792803
 30
0.0
 10
225.9136711468
 20
106.4169827825
 30
0.0
 10
223.4781293132
 20
106.3371453009
 30
0.0
 10
221.0665729549
 20
106.1490072449
 30
0.0
 10
218.6982458521
 20
105.8540756322
 30
0.0
 10
216.3920459598
 20
105.4547150799
 30
0.0
 10
214.1663186864
 20
104.9541073623
 30
0.0
 10
212.0388834435
 20
104.3562843385
 30
0.0
 10
210.6689070423
 20
103.8863191399
 30
0.0
 10
210.0050351338
 20
103.6350420775
 30
0.0
  0
SPLINE
  5
403
100
AcDbEntity
  8
02___PRT_ALL_AXES
100
AcDbSpline
 62
7
  6
CONTINUOUS
 70
0
 71
3
 72
24
 73
20
 74
0
 42
0.0000001
 43
0.0000001
 44
0.0000000001
 40
0.0
 40
0.0
 40
0.0
 40
0.0
 40
0.0813332188
 40
0.1601687008
 40
0.2363935343
 40
0.309919374
 40
0.3806857289
 40
0.4486636757
 40
0.513860026
 40
0.5763219284
 40
0.6361417955
 40
0.6651093268
 40
0.6934744216
 40
0.7484930665
 40
0.8014655817
 40
0.8527070224
 40
0.9025893117
 40
0.951534044
 40
1.0
 40
1.0
 40
1.0
 40
1.0
 10
210.0050351338
 20
103.6350420775
 30
0.0
 10
209.5926999163
 20
103.4789722381
 30
0.0
 10
208.7865832786
 20
103.1557297549
 30
0.0
 10
207.6179690533
 20
102.6290750902
 30
0.0
 10
206.5118583499
 20
102.069614914
 30
0.0
 10
205.4719250649
 20
101.4791910605
 30
0.0
 10
204.5015912762
 20
100.8597257515
 30
0.0
 10
203.6040607452
 20
100.2132314477
 30
0.0
 10
202.782288039
 20
99.5417812523
 30
0.0
 10
202.0390289475
 20
98.8475590619
 30
0.0
 10
201.4812251155
 20
98.2455080842
 30
0.0
 10
201.0780897841
 20
97.7546170822
 30
0.0
 10
200.7111647776
 20
97.2683599741
 30
0.0
 10
200.3037891096
 20
96.6503494811
 30
0.0
 10
199.8970040268
 20
95.8875701228
 30
0.0
 10
199.5787993368
 20
95.1136437169
 30
0.0
 10
199.3504960738
 20
94.3311628494
 30
0.0
 10
199.2130880445
 20
93.5429966171
 30
0.0
 10
199.1824543179
 20
93.0144641651
 30
0.0
 10
199.1824542079
 20
92.7517445378
 30
0.0
  0
SPLINE
  5
404
100
AcDbEntity
  8
7_ALL_FEATURES
100
AcDbSpline
 62
7
  6
CONTINUOUS
 70
0
 71
3
 72
9
 73
5
 74
0
 42
0.0000001
 43
0.0000001
 44
0.0000000001
 40
0.0
 40
0.0
 40
0.0
 40
0.0
 40
0.5139670057
 40
1.0
 40
1.0
 40
1.0
 40
1.0
 10
242.038803362
 20
116.9844018027
 30
0.0
 10
242.467864381
 20
116.7698712932
 30
0.0
 10
243.2892128734
 20
116.3247854296
 30
0.0
 10
244.0749892961
 20
115.8189853917
 30
0.0
 10
244.4453789473
 20
115.5570801676
 30
0.0
  0
SPLINE
  5
405
100
AcDbEntity
  8
7_ALL_FEATURES
100
AcDbSpline
 62
7
  6
CONTINUOUS
 70
0
 71
3
 72
28
 73
24
 74
0
 42
0.0000001
 43
0.0000001
 44
0.0000000001
 40
0.0
 40
0.0
 40
0.0
 40
0.0
 40
0.0259423724
 40
0.0527317639
 40
0.0803430561
 40
0.1087449096
 40
0.1379004331
 40
0.1677677834
 40
0.2294414323
 40
0.2933598175
 40
0.3590594547
 40
0.4260404852
 40
0.4937780121
 40
0.561732753
 40
0.6293613471
 40
0.696126566
 40
0.7615076693
 40
0.825011163
 40
0.8861823187
 40
0.9157691452
 40
0.9446268074
 40
0.9727152549
 40
1.0
 40
1.0
 40
1.0
 40
1.0
 10
209.6958122488
 20
116.3162315187
 30
0.0
 10
209.9448278105
 20
116.4632122947
 30
0.0
 10
210.4580068782
 20
116.7502221031
 30
0.0
 10
211.257816587
 20
117.1535645744
 30
0.0
 10
212.0981674239
 20
117.5357317983
 30
0.0
 10
212.97680494
 20
117.8956987824
 30
0.0
 10
213.8914101845
 20
118.2325225487
 30
0.0
 10
215.1692010428
 20
118.654034777
 30
0.0
 10
216.8407751243
 20
119.1152362384
 30
0.0
 10
218.9276336301
 20
119.5580512707
 30
0.0
 10
221.0945941887
 20
119.891350465
 30
0.0
 10
223.3186510528
 20
120.1115807613
 30
0.0
 10
225.5762592593
 20
120.2163982496
 30
0.0
 10
227.8434759163
 20
120.2046846867
 30
0.0
 10
230.0962610467
 20
120.0765650021
 30
0.0
 10
232.3107248731
 20
119.8334058328
 30
0.0
 10
234.4634295802
 20
119.4777942176
 30
0.0
 10
236.5315247619
 20
119.013519812
 30
0.0
 10
238.1843500342
 20
118.5349572363
 30
0.0
 10
239.4449329459
 20
118.1001096443
 30
0.0
 10
240.3453869913
 20
117.753877431
 30
0.0
 10
241.2089113674
 20
117.3848852087
 30
0.0
 10
241.766790296
 20
117.1204083357
 30
0.0
 10
242.038803362
 20
116.9844018027
 30
0.0
  0
SPLINE
  5
406
100
AcDbEntity
  8
02___PRT_ALL_AXES
100
AcDbSpline
 62
7
  6
CONTINUOUS
 70
0
 71
3
 72
23
 73
19
 74
0
 42
0.0000001
 43
0.0000001
 44
0.0000000001
 40
0.0
 40
0.0
 40
0.0
 40
0.0
 40
0.0498526502
 40
0.1001163708
 40
0.1511878445
 40
0.2034366849
 40
0.2571957013
 40
0.3127546223
 40
0.3703571124
 40
0.4302004868
 40
0.4924373426
 40
0.5571783688
 40
0.6244957465
 40
0.6944267382
 40
0.7669772016
 40
0.8421248802
 40
0.9198224041
 40
1.0
 40
1.0
 40
1.0
 40
1.0
 10
253.7824541438
 20
92.3187318359
 30
0.0
 10
253.7824540434
 20
92.0789526789
 30
0.0
 10
253.7569775691
 20
91.5970376081
 30
0.0
 10
253.6426337356
 20
90.877652356
 30
0.0
 10
253.4525315996
 20
90.1625290484
 30
0.0
 10
253.1873447155
 20
89.4538558317
 30
0.0
 10
252.8479651004
 20
88.7536056697
 30
0.0
 10
252.4354754049
 20
88.0637122214
 30
0.0
 10
251.9511316952
 20
87.3860337469
 30
0.0
 10
251.3963555199
 20
86.7223786802
 30
0.0
 10
250.7727327106
 20
86.0745107229
 30
0.0
 10
250.0820150914
 20
85.4441540031
 30
0.0
 10
249.3261227255
 20
84.8329926437
 30
0.0
 10
248.5071440135
 20
84.2426677011
 30
0.0
 10
247.627336633
 20
83.6747734399
 30
0.0
 10
246.6891164929
 20
83.1308482431
 30
0.0
 10
245.6950856592
 20
82.6123830195
 30
0.0
 10
245.0075026794
 20
82.2895828566
 30
0.0
 10
244.655310757
 20
82.1324999419
 30
0.0
  0
SPLINE
  5
407
100
AcDbEntity
  8
02___PRT_ALL_AXES
100
AcDbSpline
 62
7
  6
CONTINUOUS
 70
0
 71
3
 72
11
 73
7
 74
0
 42
0.0000001
 43
0.0000001
 44
0.0000000001
 40
0.0
 40
0.0
 40
0.0
 40
0.0
 40
0.2614932293
 40
0.5156631158
 40
0.7619829448
 40
1.0
 40
1.0
 40
1.0
 40
1.0
 10
212.494216784
 20
80.596752345
 30
0.0
 10
212.0171753721
 20
80.7390697209
 30
0.0
 10
211.0816633073
 20
81.0376084658
 30
0.0
 10
209.7183345195
 20
81.5344437932
 30
0.0
 10
208.4189229784
 20
82.0724127004
 30
0.0
 10
207.5837265443
 20
82.4640805253
 30
0.0
 10
207.1784390495
 20
82.6667242727
 30
0.0
  0
SPLINE
  5
408
100
AcDbEntity
  8
7_ALL_FEATURES
100
AcDbSpline
 62
7
  6
CONTINUOUS
 70
0
 71
3
 72
18
 73
14
 74
0
 42
0.0000001
 43
0.0000001
 44
0.0000000001
 40
0.0
 40
0.0
 40
0.0
 40
0.0
 40
0.1488758037
 40
0.2895400535
 40
0.4223295577
 40
0.5478474831
 40
0.6669940518
 40
0.7245783144
 40
0.7810509372
 40
0.8366100313
 40
0.8914691257
 40
0.9458542004
 40
1.0
 40
1.0
 40
1.0
 40
1.0
 10
245.2618755278
 20
114.9797298982
 30
0.0
 10
245.5930813813
 20
114.7455318232
 30
0.0
 10
246.2206070604
 20
114.2657547498
 30
0.0
 10
247.0726894947
 20
113.490121599
 30
0.0
 10
247.8038711237
 20
112.6830999432
 30
0.0
 10
248.4095163596
 20
111.8492392707
 30
0.0
 10
248.8108876645
 20
111.1273092079
 30
0.0
 10
249.0622559961
 20
110.5432641193
 30
0.0
 10
249.215227295
 20
110.1067408542
 30
0.0
 10
249.3344708507
 20
109.6675105966
 30
0.0
 10
249.4197949586
 20
109.2262159988
 30
0.0
 10
249.4710492182
 20
108.7835732596
 30
0.0
 10
249.4824539026
 20
108.4877331811
 30
0.0
 10
249.4824540721
 20
108.3402018059
 30
0.0
  0
SPLINE
  5
409
100
AcDbEntity
  8
02___PRT_ALL_AXES
100
AcDbSpline
 62
7
  6
CONTINUOUS
 70
0
 71
3
 72
23
 73
19
 74
0
 42
0.0000001
 43
0.0000001
 44
0.0000000001
 40
0.0
 40
0.0
 40
0.0
 40
0.0
 40
0.0508837149
 40
0.1021325433
 40
0.1541004506
 40
0.2071202609
 40
0.261495712
 40
0.3174959785
 40
0.3753526358
 40
0.43525876
 40
0.4973696148
 40
0.5618044255
 40
0.6286488152
 40
0.697957501
 40
0.7697570665
 40
0.8440486481
 40
0.9208103904
 40
1.0
 40
1.0
 40
1.0
 40
1.0
 10
199.1824542079
 20
92.3187318359
 30
0.0
 10
199.1824541143
 20
92.0952049939
 30
0.0
 10
199.2045711191
 20
91.6462393445
 30
0.0
 10
199.3038727523
 20
90.9755973991
 30
0.0
 10
199.4690311461
 20
90.3083753854
 30
0.0
 10
199.6995479279
 20
89.6463445538
 30
0.0
 10
199.9947570163
 20
88.9911132607
 30
0.0
 10
200.3538425841
 20
88.3442662172
 30
0.0
 10
200.7758513749
 20
87.707331506
 30
0.0
 10
201.2597006879
 20
87.0817990419
 30
0.0
 10
201.8041802951
 20
86.4691233946
 30
0.0
 10
202.4079522621
 20
85.8707278516
 30
0.0
 10
203.0695505661
 20
85.2880057429
 30
0.0
 10
203.7873804208
 20
84.7223184817
 30
0.0
 10
204.5597169769
 20
84.1749939298
 30
0.0
 10
205.384714105
 20
83.6473199227
 30
0.0
 10
206.2603788382
 20
83.140553162
 30
0.0
 10
206.8672931606
 20
82.8222972171
 30
0.0
 10
207.1784390495
 20
82.6667242727
 30
0.0
  0
SPLINE
  5
40A
100
AcDbEntity
  8
02___PRT_ALL_AXES
100
AcDbSpline
 62
7
  6
CONTINUOUS
 70
0
 71
3
 72
42
 73
38
 74
0
 42
0.0000001
 43
0.0000001
 44
0.0000000001
 40
0.0
 40
0.0
 40
0.0
 40
0.0
 40
0.0304974491
 40
0.0622291781
 40
0.095111905
 40
0.1290477549
 40
0.1639264615
 40
0.1996273504
 40
0.236021127
 40
0.27297153
 40
0.3103368758
 40
0.3479715361
 40
0.3857273623
 40
0.4234550827
 40
0.4610056854
 40
0.4982318054
 40
0.5349891286
 40
0.571137836
 40
0.6065441005
 40
0.6410816715
 40
0.6746335718
 40
0.707093951
 40
0.7383701527
 40
0.7683850463
 40
0.7970797227
 40
0.8244166141
 40
0.8503831406
 40
0.8749959041
 40
0.8983053703
 40
0.9204007512
 40
0.9414144003
 40
0.9515744606
 40
0.9615348233
 40
0.9713247777
 40
0.9809760848
 40
0.9905226344
 40
1.0
 40
1.0
 40
1.0
 40
1.0
 10
245.7864693022
 20
101.9707393991
 30
0.0
 10
245.3090760378
 20
102.2094360313
 30
0.0
 10
244.3203721869
 20
102.6677324514
 30
0.0
 10
242.7743646549
 20
103.2865477167
 30
0.0
 10
241.1427673206
 20
103.8477565151
 30
0.0
 10
239.4341863392
 20
104.3483934061
 30
0.0
 10
237.657553057
 20
104.7858448674
 30
0.0
 10
235.8221912217
 20
105.1578109544
 30
0.0
 10
233.9377340447
 20
105.4623363233
 30
0.0
 10
232.0140809526
 20
105.6978170769
 30
0.0
 10
230.061341704
 20
105.8630127359
 30
0.0
 10
228.0897824817
 20
105.9570521583
 30
0.0
 10
226.1097705363
 20
105.9794395375
 30
0.0
 10
224.1317185055
 20
105.9300568071
 30
0.0
 10
222.1660285096
 20
105.8091642823
 30
0.0
 10
220.2230362691
 20
105.6173996726
 30
0.0
 10
218.3129556008
 20
105.3557735057
 30
0.0
 10
216.4458233484
 20
105.0256642947
 30
0.0
 10
214.6314453291
 20
104.6288092899
 30
0.0
 10
212.8793432065
 20
104.1672947151
 30
0.0
 10
211.1987029191
 20
103.6435422868
 30
0.0
 10
209.5983249679
 20
103.0602932585
 30
0.0
 10
208.0865767966
 20
102.4205901211
 30
0.0
 10
206.6713489432
 20
101.7277533575
 30
0.0
 10
205.3600146656
 20
100.9853560636
 30
0.0
 10
204.1593977803
 20
100.1971941402
 30
0.0
 10
203.0757466805
 20
99.3672484452
 30
0.0
 10
202.1147322276
 20
98.4996688408
 30
0.0
 10
201.2814323518
 20
97.598683518
 30
0.0
 10
200.5804466066
 20
96.6688106156
 30
0.0
 10
200.1045347556
 20
95.864394557
 30
0.0
 10
199.7970497587
 20
95.213010753
 30
0.0
 10
199.6042144975
 20
94.7259435397
 30
0.0
 10
199.4469062367
 20
94.2356075716
 30
0.0
 10
199.3253460568
 20
93.7426363232
 30
0.0
 10
199.2397211867
 20
93.2477359479
 30
0.0
 10
199.2065984785
 20
92.9161023448
 30
0.0
 10
199.1961193854
 20
92.7505684507
 30
0.0
  0
SPLINE
  5
40B
100
AcDbEntity
  8
7_ALL_FEATURES
100
AcDbSpline
 62
9
  6
CONTINUOUS
 70
0
 71
3
 72
56
 73
52
 74
0
 42
0.0000001
 43
0.0000001
 44
0.0000000001
 40
0.0
 40
0.0
 40
0.0
 40
0.0
 40
0.0157852885
 40
0.0310865632
 40
0.0458954989
 40
0.0602076691
 40
0.0740233242
 40
0.0873477578
 40
0.1001918774
 40
0.1125727498
 40
0.1245141426
 40
0.1360470052
 40
0.147209824
 40
0.1580487607
 40
0.16861747
 40
0.1789764976
 40
0.1891921878
 40
0.1993350982
 40
0.2094780085
 40
0.2196936987
 40
0.2300527263
 40
0.2406214357
 40
0.2514603723
 40
0.2626231911
 40
0.2741560537
 40
0.2860974464
 40
0.2984783188
 40
0.3113224385
 40
0.3246468722
 40
0.3384625264
 40
0.3527747004
 40
0.3675836207
 40
0.3828849401
 40
0.3986701968
 40
0.4149272288
 40
0.4316405481
 40
0.4663546087
 40
0.5026394876
 40
0.5402820669
 40
0.5790418717
 40
0.6186573777
 40
0.6588517075
 40
0.6993379344
 40
0.7398241613
 40
0.7800184912
 40
0.8196339971
 40
0.8583938019
 40
0.8960363812
 40
0.9323212608
 40
0.9670353329
 40
1.0
 40
1.0
 40
1.0
 40
1.0
 10
211.6669473094
 20
82.7459148932
 30
0.0
 10
211.4281477754
 20
82.8653146602
 30
0.0
 10
210.962351417
 20
83.1095705339
 30
0.0
 10
210.2902936159
 20
83.4985057831
 30
0.0
 10
209.657122442
 20
83.9034863831
 30
0.0
 10
209.0643669515
 20
84.3235489269
 30
0.0
 10
208.5134445988
 20
84.7577043189
 30
0.0
 10
208.0056789736
 20
85.2049337193
 30
0.0
 10
207.5422941101
 20
85.6641921946
 30
0.0
 10
207.1244152893
 20
86.1344105204
 30
0.0
 10
206.7530691284
 20
86.6144961842
 30
0.0
 10
206.4291844559
 20
87.1033327725
 30
0.0
 10
206.1535923377
 20
87.5997772553
 30
0.0
 10
205.9270241852
 20
88.1026553506
 30
0.0
 10
205.7501063747
 20
88.6107559256
 30
0.0
 10
205.6233502483
 20
89.1228265666
 30
0.0
 10
205.5471378695
 20
89.6375734396
 30
0.0
 10
205.5217068203
 20
90.1536683145
 30
0.0
 10
205.547137867
 20
90.6697631894
 30
0.0
 10
205.6233502433
 20
91.1845100625
 30
0.0
 10
205.7501063676
 20
91.6965807037
 30
0.0
 10
205.9270241761
 20
92.2046812789
 30
0.0
 10
206.1535923263
 20
92.7075593744
 30
0.0
 10
206.4291844421
 20
93.2040038576
 30
0.0
 10
206.7530691124
 20
93.6928404463
 30
0.0
 10
207.1244152703
 20
94.1729261104
 30
0.0
 10
207.5422940918
 20
94.6431444373
 30
0.0
 10
208.0056789432
 20
95.1024029116
 30
0.0
 10
208.513444603
 20
95.5496323151
 30
0.0
 10
209.0643668251
 20
95.9837876965
 30
0.0
 10
209.6571227871
 20
96.4038503353
 30
0.0
 10
210.2902920119
 20
96.8088302392
 30
0.0
 10
210.9623589643
 20
97.1977698331
 30
0.0
 10
211.6717130141
 20
97.5697439398
 30
0.0
 10
212.4166619574
 20
97.9238743999
 30
0.0
 10
213.4682691169
 20
98.3768183591
 30
0.0
 10
214.8612229859
 20
98.8908096657
 30
0.0
 10
216.6230913724
 20
99.4164558024
 30
0.0
 10
218.4792942844
 20
99.8535842749
 30
0.0
 10
220.4120577092
 20
100.1980005982
 30
0.0
 10
222.402936886
 20
100.4464062168
 30
0.0
 10
224.4328801925
 20
100.5964119829
 30
0.0
 10
226.4824542235
 20
100.6465748398
 30
0.0
 10
228.5320281106
 20
100.5964120061
 30
0.0
 10
230.5619718426
 20
100.4464061111
 30
0.0
 10
232.5528494908
 20
100.1980009616
 30
0.0
 10
234.4856184186
 20
99.8535829328
 30
0.0
 10
236.3418016971
 20
99.4164605346
 30
0.0
 10
238.1037396057
 20
98.8907928807
 30
0.0
 10
239.7545385002
 20
98.2816439106
 30
0.0
 10
240.7992722056
 20
97.810766178
 30
0.0
 10
241.2979610423
 20
97.5614217596
 30
0.0
  0
SPLINE
  5
40C
100
AcDbEntity
  8
7_ALL_FEATURES
100
AcDbSpline
 62
9
  6
CONTINUOUS
 70
0
 71
3
 72
30
 73
26
 74
0
 42
0.0000001
 43
0.0000001
 44
0.0000000001
 40
0.0
 40
0.0
 40
0.0
 40
0.0
 40
0.0811482435
 40
0.1579876589
 40
0.2304571517
 40
0.2986158407
 40
0.362665355
 40
0.4229728852
 40
0.4519054769
 40
0.4801259398
 40
0.5077331797
 40
0.5348371762
 40
0.5615576799
 40
0.5880223399
 40
0.6143643075
 40
0.6407194419
 40
0.6672233096
 40
0.694008206
 40
0.7212004253
 40
0.7489179578
 40
0.7772687265
 40
0.8063493935
 40
0.8669975564
 40
0.9314310125
 40
1.0
 40
1.0
 40
1.0
 40
1.0
 10
241.7030292777
 20
97.8624192927
 30
0.0
 10
242.1138700072
 20
97.656998928
 30
0.0
 10
242.9011629631
 20
97.2310689973
 30
0.0
 10
244.0008936071
 20
96.527097362
 30
0.0
 10
244.9808191002
 20
95.7795262847
 30
0.0
 10
245.8342089338
 20
94.9931365613
 30
0.0
 10
246.5550614399
 20
94.1730046324
 30
0.0
 10
247.0477458624
 20
93.4556172838
 30
0.0
 10
247.366671603
 20
92.8716903209
 30
0.0
 10
247.5665372064
 20
92.4350499874
 30
0.0
 10
247.7299416143
 20
91.9945039746
 30
0.0
 10
247.8565748759
 20
91.5508080013
 30
0.0
 10
247.9461793435
 20
91.1047530529
 30
0.0
 10
247.9985706868
 20
90.6571412002
 30
0.0
 10
248.013638525
 20
90.2087876721
 30
0.0
 10
247.9913509242
 20
89.7605135964
 30
0.0
 10
247.9317550993
 20
89.3131394199
 30
0.0
 10
247.8349762191
 20
88.867478459
 30
0.0
 10
247.7012125366
 20
88.4243299629
 30
0.0
 10
247.5307346886
 20
87.9844816555
 30
0.0
 10
247.3238644555
 20
87.5486857249
 30
0.0
 10
246.9955183084
 20
86.9659884145
 30
0.0
 10
246.4913067886
 20
86.2506353985
 30
0.0
 10
245.7574706859
 20
85.433605874
 30
0.0
 10
245.1979658367
 20
84.9277663156
 30
0.0
 10
244.8987706063
 20
84.680527482
 30
0.0
  0
SPLINE
  5
40D
100
AcDbEntity
  8
7_ALL_FEATURES
100
AcDbSpline
 62
7
  6
CONTINUOUS
 70
0
 71
3
 72
23
 73
19
 74
0
 42
0.0000001
 43
0.0000001
 44
0.0000000001
 40
0.0
 40
0.0
 40
0.0
 40
0.0
 40
0.0544675782
 40
0.1119097768
 40
0.1720325567
 40
0.2344810501
 40
0.2988522464
 40
0.3647060213
 40
0.4315750455
 40
0.4989740071
 40
0.5664083953
 40
0.6333830896
 40
0.6994109321
 40
0.7640214768
 40
0.8267701285
 40
0.8872479306
 40
0.9450924349
 40
1.0
 40
1.0
 40
1.0
 40
1.0
 10
209.990614624
 20
116.3561113875
 30
0.0
 10
210.535514056
 20
116.6363785174
 30
0.0
 10
211.679200611
 20
117.1661316068
 30
0.0
 10
213.4902620298
 20
117.8523874317
 30
0.0
 10
215.4277865578
 20
118.446122251
 30
0.0
 10
217.4728684868
 20
118.9415171488
 30
0.0
 10
219.6057095126
 20
119.3337771309
 30
0.0
 10
221.8055578315
 20
119.6190664148
 30
0.0
 10
224.0509964595
 20
119.7945963367
 30
0.0
 10
226.3201411382
 20
119.8586467731
 30
0.0
 10
228.5908684552
 20
119.8105897003
 30
0.0
 10
230.8410389613
 20
119.6508966336
 30
0.0
 10
233.048720403
 20
119.3811321679
 30
0.0
 10
235.1924161852
 20
119.0039343471
 30
0.0
 10
237.2512643145
 20
118.5229929064
 30
0.0
 10
239.2053249985
 20
117.9429660927
 30
0.0
 10
241.0355267475
 20
117.2695422088
 30
0.0
 10
242.1934208394
 20
116.7481744414
 30
0.0
 10
242.7459101431
 20
116.4719297895
 30
0.0
  0
SPLINE
  5
40E
100
AcDbEntity
  8
02___PRT_ALL_AXES
100
AcDbSpline
 62
7
  6
CONTINUOUS
 70
0
 71
3
 72
23
 73
19
 74
0
 42
0.0000001
 43
0.0000001
 44
0.0000000001
 40
0.0
 40
0.0
 40
0.0
 40
0.0
 40
0.0786213842
 40
0.1549328868
 40
0.2288948185
 40
0.3004851886
 40
0.3697019199
 40
0.4365648888
 40
0.5011181669
 40
0.5634323189
 40
0.6236067459
 40
0.6817717989
 40
0.7380905223
 40
0.7927596374
 40
0.8460094022
 40
0.8981019541
 40
0.9493277499
 40
1.0
 40
1.0
 40
1.0
 40
1.0
 10
245.7864693022
 20
101.9707393991
 30
0.0
 10
246.0852501113
 20
101.8213489945
 30
0.0
 10
246.6686428076
 20
101.5159966621
 30
0.0
 10
247.5118408451
 20
101.0308759402
 30
0.0
 10
248.3085150734
 20
100.52641214
 30
0.0
 10
249.0568925446
 20
100.0037139008
 30
0.0
 10
249.7553251554
 20
99.4639163858
 30
0.0
 10
250.4022675387
 20
98.9081897941
 30
0.0
 10
250.9962853297
 20
98.3377341138
 30
0.0
 10
251.5360533228
 20
97.7537764739
 30
0.0
 10
252.020356953
 20
97.1575707793
 30
0.0
 10
252.4480906786
 20
96.5503963007
 30
0.0
 10
252.8182585415
 20
95.9335609106
 30
0.0
 10
253.1299751833
 20
95.3084017136
 30
0.0
 10
253.3824685934
 20
94.6762994396
 30
0.0
 10
253.5750910841
 20
94.038649782
 30
0.0
 10
253.707321983
 20
93.3969886077
 30
0.0
 10
253.7551390905
 20
92.9659403726
 30
0.0
 10
253.7687569091
 20
92.7510748586
 30
0.0
  0
SPLINE
  5
40F
100
AcDbEntity
  8
02___PRT_ALL_AXES
100
AcDbSpline
 62
7
  6
CONTINUOUS
 70
0
 71
3
 72
15
 73
11
 74
0
 42
0.0000001
 43
0.0000001
 44
0.0000000001
 40
0.0
 40
0.0
 40
0.0
 40
0.0
 40
0.1155838928
 40
0.2321579037
 40
0.3506761822
 40
0.4720253412
 40
0.5970005263
 40
0.7262902287
 40
0.8604695513
 40
1.0
 40
1.0
 40
1.0
 40
1.0
 10
246.7324541337
 20
90.1536683264
 30
0.0
 10
246.7324542503
 20
89.9723496101
 30
0.0
 10
246.7128077939
 20
89.6078607953
 30
0.0
 10
246.6246424078
 20
89.0638736166
 30
0.0
 10
246.4780802835
 20
88.52324541
 30
0.0
 10
246.2736645703
 20
87.9876952394
 30
0.0
 10
246.0121130669
 20
87.4587726254
 30
0.0
 10
245.694287242
 20
86.9379837609
 30
0.0
 10
245.321218046
 20
86.4268128917
 30
0.0
 10
245.0420601047
 20
86.0999781493
 30
0.0
 10
244.8942356535
 20
85.9385526194
 30
0.0
  0
SPLINE
  5
410
100
AcDbEntity
  8
7_ALL_FEATURES
100
AcDbSpline
 62
7
  6
CONTINUOUS
 70
0
 71
3
 72
9
 73
5
 74
0
 42
0.0000001
 43
0.0000001
 44
0.0000000001
 40
0.0
 40
0.0
 40
0.0
 40
0.0
 40
0.5139670057
 40
1.0
 40
1.0
 40
1.0
 40
1.0
 10
242.7459101431
 20
116.4719297895
 30
0.0
 10
243.1944739357
 20
116.2476478932
 30
0.0
 10
244.0531564506
 20
115.782330854
 30
0.0
 10
244.8746499834
 20
115.2535399053
 30
0.0
 10
245.2618755278
 20
114.9797298982
 30
0.0
  0
SPLINE
  5
411
100
AcDbEntity
  8
7_ALL_FEATURES
100
AcDbSpline
 62
9
  6
CONTINUOUS
 70
0
 71
3
 72
29
 73
25
 74
0
 42
0.0000001
 43
0.0000001
 44
0.0000000001
 40
0.0
 40
0.0
 40
0.0
 40
0.0
 40
0.081567276
 40
0.1589670624
 40
0.2321367775
 40
0.3011205368
 40
0.3660884152
 40
0.4273565446
 40
0.4854047689
 40
0.5134364286
 40
0.5409221293
 40
0.5679687234
 40
0.5946912056
 40
0.621210895
 40
0.6476532115
 40
0.6741451699
 40
0.7008127598
 40
0.7277783989
 40
0.7551586357
 40
0.7830622352
 40
0.8115887254
 40
0.8708267269
 40
0.9334924271
 40
1.0
 40
1.0
 40
1.0
 40
1.0
 10
241.2979610423
 20
97.5614217596
 30
0.0
 10
241.6838407801
 20
97.3684818907
 30
0.0
 10
242.4244609336
 20
96.9688760555
 30
0.0
 10
243.4621350634
 20
96.3105037297
 30
0.0
 10
244.3918291116
 20
95.6124032522
 30
0.0
 10
245.2075877834
 20
94.8788039061
 30
0.0
 10
245.9041789814
 20
94.113975184
 30
0.0
 10
246.4768769939
 20
93.3225104493
 30
0.0
 10
246.8518321555
 20
92.6363634954
 30
0.0
 10
247.0826966762
 20
92.0813416047
 30
0.0
 10
247.2207743482
 20
91.6666126088
 30
0.0
 10
247.3254819704
 20
91.2493578956
 30
0.0
 10
247.3966348286
 20
90.8302529194
 30
0.0
 10
247.4340940255
 20
90.4100038455
 30
0.0
 10
247.4377877701
 20
89.989319867
 30
0.0
 10
247.4077086121
 20
89.5689146613
 30
0.0
 10
247.3439152059
 20
89.1494997852
 30
0.0
 10
247.2465291596
 20
88.731778582
 30
0.0
 10
247.1157363789
 20
88.3164481467
 30
0.0
 10
246.9517665355
 20
87.9041744087
 30
0.0
 10
246.6860339852
 20
87.3526321399
 30
0.0
 10
246.268141774
 20
86.6727025175
 30
0.0
 10
245.6465966718
 20
85.8911963706
 30
0.0
 10
245.1655661615
 20
85.4040782133
 30
0.0
 10
244.9071246031
 20
85.1654320586
 30
0.0
  0
SPLINE
  5
412
100
AcDbEntity
  8
7_ALL_FEATURES
100
AcDbSpline
 62
9
  6
CONTINUOUS
 70
0
 71
3
 72
56
 73
52
 74
0
 42
0.0000001
 43
0.0000001
 44
0.0000000001
 40
0.0
 40
0.0
 40
0.0
 40
0.0
 40
0.0157852892
 40
0.0310865638
 40
0.0458954996
 40
0.0602076697
 40
0.0740233247
 40
0.0873477583
 40
0.1001918779
 40
0.1125727502
 40
0.124514143
 40
0.1360470056
 40
0.1472098244
 40
0.158048761
 40
0.1686174703
 40
0.1789764979
 40
0.1891921881
 40
0.1993350984
 40
0.2094780087
 40
0.2196936989
 40
0.2300527265
 40
0.2406214359
 40
0.2514603725
 40
0.2626231912
 40
0.2741560538
 40
0.2860974466
 40
0.298478319
 40
0.3113224386
 40
0.3246468723
 40
0.3384625265
 40
0.3527747005
 40
0.3675836207
 40
0.3828849402
 40
0.3986701968
 40
0.4149272288
 40
0.431640548
 40
0.4663546086
 40
0.5026394874
 40
0.5402820667
 40
0.5790418714
 40
0.6186573773
 40
0.6588517071
 40
0.699337934
 40
0.7398241608
 40
0.7800184906
 40
0.8196339965
 40
0.8583938012
 40
0.8960363805
 40
0.93232126
 40
0.9670353322
 40
1.0
 40
1.0
 40
1.0
 40
1.0
 10
211.261879074
 20
82.6418441909
 30
0.0
 10
211.0165505516
 20
82.764508452
 30
0.0
 10
210.5380189255
 20
83.0154424887
 30
0.0
 10
209.8475864989
 20
83.4150115572
 30
0.0
 10
209.1971039032
 20
83.8310646617
 30
0.0
 10
208.5881419886
 20
84.2626120645
 30
0.0
 10
208.022156965
 20
84.7086376243
 30
0.0
 10
207.5005086091
 20
85.1680946471
 30
0.0
 10
207.0244544216
 20
85.6399096293
 30
0.0
 10
206.5951504498
 20
86.1229841134
 30
0.0
 10
206.2136513794
 20
86.6161957168
 30
0.0
 10
205.8809114338
 20
87.1183975021
 30
0.0
 10
205.5977844007
 20
87.628415188
 30
0.0
 10
205.365021689
 20
88.1450423865
 30
0.0
 10
205.1832668005
 20
88.6670348516
 30
0.0
 10
205.053045058
 20
89.1931059277
 30
0.0
 10
204.9747489711
 20
89.7219264061
 30
0.0
 10
204.9486226173
 20
90.2521317418
 30
0.0
 10
204.9747489711
 20
90.7823370775
 30
0.0
 10
205.053045058
 20
91.3111575559
 30
0.0
 10
205.1832668005
 20
91.8372286319
 30
0.0
 10
205.365021689
 20
92.3592210971
 30
0.0
 10
205.5977844007
 20
92.8758482956
 30
0.0
 10
205.8809114337
 20
93.3858659815
 30
0.0
 10
206.2136513795
 20
93.8880677668
 30
0.0
 10
206.5951504492
 20
94.38127937
 30
0.0
 10
207.0244544238
 20
94.8643538548
 30
0.0
 10
207.5005086008
 20
95.3361688357
 30
0.0
 10
208.0221569941
 20
95.7956258609
 30
0.0
 10
208.5881418858
 20
96.2416514095
 30
0.0
 10
209.1971042864
 20
96.6731989082
 30
0.0
 10
209.8475848817
 20
97.0892512977
 30
0.0
 10
210.5380267006
 20
97.4888248218
 30
0.0
 10
211.266775077
 20
97.8709690082
 30
0.0
 10
212.0320915405
 20
98.234781688
 30
0.0
 10
213.1124505097
 20
98.7001095098
 30
0.0
 10
214.5434888894
 20
99.2281537641
 30
0.0
 10
216.3535282147
 20
99.7681715014
 30
0.0
 10
218.2604812494
 20
100.2172514283
 30
0.0
 10
220.2460880247
 20
100.5710843795
 30
0.0
 10
222.2913994847
 20
100.826281614
 30
0.0
 10
224.3768431202
 20
100.9803886627
 30
0.0
 10
226.4824542006
 20
101.0319230147
 30
0.0
 10
228.5880651333
 20
100.9803886891
 30
0.0
 10
230.6735092066
 20
100.82628151
 30
0.0
 10
232.7188190974
 20
100.5710847597
 30
0.0
 10
234.7044315276
 20
100.2172500589
 30
0.0
 10
236.6113643941
 20
99.7681763742
 30
0.0
 10
238.4214751456
 20
99.2281365332
 30
0.0
 10
240.117408262
 20
98.6023329237
 30
0.0
 10
241.1907058645
 20
98.1185809994
 30
0.0
 10
241.7030292777
 20
97.8624192927
 30
0.0
  0
SPLINE
  5
413
100
AcDbEntity
  8
02___PRT_ALL_AXES
100
AcDbSpline
 62
7
  6
CONTINUOUS
 70
0
 71
3
 72
21
 73
17
 74
0
 42
0.0000001
 43
0.0000001
 44
0.0000000001
 40
0.0
 40
0.0
 40
0.0
 40
0.0
 40
0.051086519
 40
0.1025297427
 40
0.1546757743
 40
0.2078505762
 40
0.2623523549
 40
0.318446223
 40
0.3763611965
 40
0.4362892044
 40
0.5627078769
 40
0.6294696691
 40
0.6986656201
 40
0.7703258413
 40
0.8444554734
 40
1.0
 40
1.0
 40
1.0
 40
1.0
 10
206.232454218
 20
90.1536683264
 30
0.0
 10
206.2324543232
 20
89.9901312347
 30
0.0
 10
206.2484112238
 20
89.6616958414
 30
0.0
 10
206.3200609072
 20
89.1710379305
 30
0.0
 10
206.4392367781
 20
88.682809865
 30
0.0
 10
206.605589922
 20
88.198272288
 30
0.0
 10
206.8186551353
 20
87.718569813
 30
0.0
 10
207.0778561756
 20
87.2448381142
 30
0.0
 10
207.3825371552
 20
86.7781456085
 30
0.0
 10
207.8567632287
 20
86.1557439803
 30
0.0
 10
208.4134036251
 20
85.5634122549
 30
0.0
 10
209.0393128172
 20
85.0029482022
 30
0.0
 10
209.5581402485
 20
84.5870168752
 30
0.0
 10
210.1164902062
 20
84.1842031707
 30
0.0
 10
210.9248796454
 20
83.6573999802
 30
0.0
 10
211.5675081541
 20
83.2978547389
 30
0.0
 10
212.0109285972
 20
83.0713409775
 30
0.0
  0
SPLINE
  5
414
100
AcDbEntity
  8
7_ALL_FEATURES
100
AcDbSpline
 62
3
  6
CONTINUOUS
 70
0
 71
3
 72
25
 73
21
 74
0
 42
0.0000001
 43
0.0000001
 44
0.0000000001
 40
0.0
 40
0.0
 40
0.0
 40
0.0
 40
0.0620180325
 40
0.1277188435
 40
0.1964810281
 40
0.2675117824
 40
0.3399023373
 40
0.4126783163
 40
0.4848472273
 40
0.5554451992
 40
0.6235849232
 40
0.6885069437
 40
0.749636833
 40
0.806650799
 40
0.8595503412
 40
0.9087389242
 40
0.9322267707
 40
0.9551472877
 40
0.9776744098
 40
1.0
 40
1.0
 40
1.0
 40
1.0
 10
186.9008188176
 20
104.0709704109
 30
0.0
 10
186.8290603136
 20
104.0272877101
 30
0.0
 10
186.6873355371
 20
103.9271295013
 30
0.0
 10
186.4889721737
 20
103.7489321174
 30
0.0
 10
186.3022447806
 20
103.5418430663
 30
0.0
 10
186.131182425
 20
103.3103408166
 30
0.0
 10
185.9794324022
 20
103.0593910466
 30
0.0
 10
185.8502618473
 20
102.7943982962
 30
0.0
 10
185.7464511562
 20
102.5210674722
 30
0.0
 10
185.6702379777
 20
102.2452764933
 30
0.0
 10
185.6232689042
 20
101.9729378574
 30
0.0
 10
185.6065788899
 20
101.7098569646
 30
0.0
 10
185.620585972
 20
101.4616063597
 30
0.0
 10
185.6651615692
 20
101.2333859182
 30
0.0
 10
185.7395937764
 20
101.030063984
 30
0.0
 10
185.8270752845
 20
100.8827214703
 30
0.0
 10
185.910379935
 20
100.7832774265
 30
0.0
 10
185.9781208734
 20
100.7186984973
 30
0.0
 10
186.0516717319
 20
100.6634180373
 30
0.0
 10
186.1044194773
 20
100.6329158943
 30
0.0
 10
186.1314686307
 20
100.6193912346
 30
0.0
  0
SPLINE
  5
415
100
AcDbEntity
  8
7_ALL_FEATURES
100
AcDbSpline
 62
3
  6
CONTINUOUS
 70
0
 71
3
 72
17
 73
13
 74
0
 42
0.0000001
 43
0.0000001
 44
0.0000000001
 40
0.0
 40
0.0
 40
0.0
 40
0.0
 40
0.0564995777
 40
0.1131679646
 40
0.1701712649
 40
0.2276702995
 40
0.3446978456
 40
0.4654173811
 40
0.5907327797
 40
0.7213283259
 40
0.8576666076
 40
1.0
 40
1.0
 40
1.0
 40
1.0
 10
211.8168079614
 20
116.0484377399
 30
0.0
 10
211.7548319881
 20
116.0794256305
 30
0.0
 10
211.6284981321
 20
116.1372081497
 30
0.0
 10
211.433019247
 20
116.2107467788
 30
0.0
 10
211.2317746641
 20
116.2710814967
 30
0.0
 10
210.9547311589
 20
116.3341381279
 30
0.0
 10
210.5943089689
 20
116.3789881726
 30
0.0
 10
210.1479876735
 20
116.3781498487
 30
0.0
 10
209.6883737176
 20
116.3232460184
 30
0.0
 10
209.2188096229
 20
116.2148276958
 30
0.0
 10
208.7426378252
 20
116.0538360844
 30
0.0
 10
208.4296860787
 20
115.9152391164
 30
0.0
 10
208.273098337
 20
115.8380979125
 30
0.0
  0
SPLINE
  5
416
100
AcDbEntity
  8
7_ALL_FEATURES
100
AcDbSpline
 62
3
  6
CONTINUOUS
 70
0
 71
3
 72
18
 73
14
 74
0
 42
0.0000001
 43
0.0000001
 44
0.0000000001
 40
0.0
 40
0.0
 40
0.0
 40
0.0
 40
0.1473271277
 40
0.2877887604
 40
0.421205791
 40
0.547703105
 40
0.6677550217
 40
0.7256546558
 40
0.7822984204
 40
0.8378547393
 40
0.8925143209
 40
0.9464874148
 40
1.0
 40
1.0
 40
1.0
 40
1.0
 10
213.8959534707
 20
111.7214473844
 30
0.0
 10
213.8959534707
 20
111.9579072766
 30
0.0
 10
213.8766845797
 20
112.4201226195
 30
0.0
 10
213.7855954728
 20
113.0910367758
 30
0.0
 10
213.6337864945
 20
113.716775063
 30
0.0
 10
213.4227065403
 20
114.2904444195
 30
0.0
 10
213.1961749632
 20
114.725256932
 30
0.0
 10
212.9872759587
 20
115.0388667998
 30
0.0
 10
212.8193687515
 20
115.2544775201
 30
0.0
 10
212.6388270634
 20
115.4526521199
 30
0.0
 10
212.446130431
 20
115.6328409493
 30
0.0
 10
212.2418310792
 20
115.7945115483
 30
0.0
 10
212.0978176593
 20
115.8899365932
 30
0.0
 10
212.0242591984
 20
115.9342743932
 30
0.0
  0
SPLINE
  5
417
100
AcDbEntity
  8
7_ALL_FEATURES
100
AcDbSpline
 62
3
  6
CONTINUOUS
 70
0
 71
3
 72
9
 73
5
 74
0
 42
0.0000001
 43
0.0000001
 44
0.0000000001
 40
0.0
 40
0.0
 40
0.0
 40
0.0
 40
0.4946512237
 40
1.0
 40
1.0
 40
1.0
 40
1.0
 10
186.1314686307
 20
100.6193912346
 30
0.0
 10
186.1737242948
 20
100.598263273
 30
0.0
 10
186.2634156137
 20
100.5636148907
 30
0.0
 10
186.3579074144
 20
100.546189778
 30
0.0
 10
186.4059453645
 20
100.5415133802
 30
0.0
  0
SPLINE
  5
418
100
AcDbEntity
  8
7_ALL_FEATURES
100
AcDbSpline
 62
3
  6
CONTINUOUS
 70
0
 71
3
 72
25
 73
21
 74
0
 42
0.0000001
 43
0.0000001
 44
0.0000000001
 40
0.0
 40
0.0
 40
0.0
 40
0.0
 40
0.022457427
 40
0.0450603252
 40
0.0679491512
 40
0.0912548259
 40
0.1395248657
 40
0.1906695417
 40
0.2451533146
 40
0.3031714982
 40
0.3646846129
 40
0.4294587544
 40
0.4971041874
 40
0.5671098761
 40
0.6388740874
 40
0.7117319768
 40
0.7849811586
 40
0.8579061023
 40
0.929802101
 40
1.0
 40
1.0
 40
1.0
 40
1.0
 10
266.8334397232
 20
110.7024822458
 30
0.0
 10
266.8563116847
 20
110.6910463745
 30
0.0
 10
266.9010603644
 20
110.6657278891
 30
0.0
 10
266.9642796164
 20
110.6209067783
 30
0.0
 10
267.0234487658
 20
110.5693663329
 30
0.0
 10
267.097454056
 20
110.4911109466
 30
0.0
 10
267.1787054036
 20
110.3764280925
 30
0.0
 10
267.2550784106
 20
110.2179376421
 30
0.0
 10
267.3106487642
 20
110.0394514586
 30
0.0
 10
267.3447121306
 20
109.8437632965
 30
0.0
 10
267.3568753303
 20
109.633843809
 30
0.0
 10
267.347013741
 20
109.4128890729
 30
0.0
 10
267.3153131442
 20
109.184273771
 30
0.0
 10
267.2622774046
 20
108.9515070998
 30
0.0
 10
267.1887324247
 20
108.7181753857
 30
0.0
 10
267.0958179485
 20
108.4878826187
 30
0.0
 10
266.9849742099
 20
108.2641929212
 30
0.0
 10
266.8579126848
 20
108.0505640423
 30
0.0
 10
266.7166148618
 20
107.8503205445
 30
0.0
 10
266.6128022251
 20
107.7259265676
 30
0.0
 10
266.5589629872
 20
107.6668461883
 30
0.0
  0
ENDSEC
  0
SECTION
  2
OBJECTS
  0
DICTIONARY
  5
419
100
AcDbDictionary
  3
ACAD_GROUP
350
41A
  3
ACAD_MLINESTYLE
350
41B
  0
DICTIONARY
  5
41A
102
{ACAD_REACTORS
330
419
102
}
100
AcDbDictionary
  0
DICTIONARY
  5
41B
102
{ACAD_REACTORS
330
419
102
}
100
AcDbDictionary
  3
STANDARD
350
41C
  0
MLINESTYLE
  5
41C
102
{ACAD_REACTORS
330
41B
102
}
100
AcDbMlineStyle
  2
STANDARD
 70
0
  3

 62
256
 51
90.0
 52
90.0
 71
2
 49
0.5
 62
256
  6
BYLAYER
 49
-0.5
 62
256
  6
BYLAYER
  0
ENDSEC
  0
EOF
