999
DXF file: 1h6_c_001.dxf
999
Pro/ENGINEER 2016360 by Parametric Technology Corporation
  0
SECTION
  2
HEADER
  9
$ACADVER
  1
AC1014
  9
$DWGCODEPAGE
  3
ANSI_1252
  9
$EXTMAX
 10
297.0
 20
210.0
 30
0.0
  9
$EXTMIN
 10
0.0
 20
0.0
 30
0.0
  9
$LIMMIN
 10
0.0
 20
0.0
  9
$LIMMAX
 10
297.0
 20
210.0
  9
$VIEWCTR
 10
148.5
 20
105.0
  9
$VIEWSIZE
 40
210.0
  9
$CLAYER
  8
0
  9
$LTSCALE
 40
16.335
  9
$CELTYPE
  6
BYLAYER
  9
$DIMSCALE
 40
1.0
  9
$DIMASZ
 40
2.5
  9
$DIMEXO
 40
0.75
  9
$DIMDLI
 40
11.286
  9
$DIMEXE
 40
0.75
  9
$DIMCEN
 40
2.673
  9
$DIMLFAC
 40
1.0
  9
$DIMBLK
  1
_CLOSED
  9
$DIMALT
 70
0
  9
$DIMALTF
 40
25.4
  9
$DIMTXT
 40
3.0
  9
$DIMTOL
 70
1
  9
$DIMLIM
 70
0
  9
$DIMTFAC
 40
1.0
  9
$DIMTP
 40
0.01
  9
$DIMTM
 40
0.01
  9
$DIMGAP
 40
0.625
  9
$AUNITS
 70
0
  9
$PDMODE
 70
3
  9
$PDSIZE
 40
0.3125
  9
$HANDSEED
  5
447
  9
$TILEMODE
 70
1
  9
$MEASUREMENT
 70
1
  0
ENDSEC
  0
SECTION
  2
CLASSES
  0
ENDSEC
  0
SECTION
  2
TABLES
  0
TABLE
  2
VPORT
  5
8
100
AcDbSymbolTable
 70
2
  0
VPORT
  5
1F4
100
AcDbSymbolTableRecord
100
AcDbViewportTableRecord
  2
*ACTIVE
 70
0
 10
0.0
 20
0.0
 11
1.0
 21
1.0
 12
148.5
 22
105.0
 13
0.0
 23
0.0
 14
1.0
 24
1.0
 15
0.0
 25
0.0
 16
0.0
 26
0.0
 36
1.0
 17
0.0
 27
0.0
 37
0.0
 40
210.0
 41
1.4142857143
 42
50.0
 43
0.0
 44
0.0
 50
0.0
 51
0.0
 71
0
 72
100
 73
1
 74
1
 75
0
 76
0
 77
0
 78
0
  0
ENDTAB
  0
TABLE
  2
LTYPE
  5
5
100
AcDbSymbolTable
 70
6
  0
LTYPE
  5
14
100
AcDbSymbolTableRecord
100
AcDbLinetypeTableRecord
  2
BYBLOCK
 70
0
  3

 72
65
 73
0
 40
0.0
  0
LTYPE
  5
15
100
AcDbSymbolTableRecord
100
AcDbLinetypeTableRecord
  2
BYLAYER
 70
0
  3

 72
65
 73
0
 40
0.0
  0
LTYPE
  5
16
100
AcDbSymbolTableRecord
100
AcDbLinetypeTableRecord
  2
CONTINUOUS
 70
64
  3
Solid line
 72
65
 73
0
 40
0.0
  0
LTYPE
  5
1F5
100
AcDbSymbolTableRecord
100
AcDbLinetypeTableRecord
  2
CENTER
 70
64
  3
____ _ ____ _ ____ _ ____ _ ____ _ ____ _ ____
 72
65
 73
4
 40
0.6
 49
0.375
 74
0
 49
-0.075
 74
0
 49
0.075
 74
0
 49
-0.075
 74
0
  0
LTYPE
  5
1F6
100
AcDbSymbolTableRecord
100
AcDbLinetypeTableRecord
  2
HIDDEN
 70
64
  3
- - - - - - - - - - - - - - - - - - - -
 72
65
 73
2
 40
0.2
 49
0.1
 74
0
 49
-0.1
 74
0
  0
LTYPE
  5
1F7
100
AcDbSymbolTableRecord
100
AcDbLinetypeTableRecord
  2
PHANTOM
 70
64
  3
_____ _ _ _____ _ _ _____ _ _ _____
 72
65
 73
6
 40
0.8
 49
0.45
 74
0
 49
-0.05
 74
0
 49
0.1
 74
0
 49
-0.05
 74
0
 49
0.1
 74
0
 49
-0.05
 74
0
  0
LTYPE
  5
1F8
100
AcDbSymbolTableRecord
100
AcDbLinetypeTableRecord
  2
DOT
 70
64
  3
. . . . . . . . . . . . . . . . . . . .
 72
65
 73
2
 40
0.2
 49
0.1
 74
0
 49
-0.1
 74
0
  0
LTYPE
  5
1F9
100
AcDbSymbolTableRecord
100
AcDbLinetypeTableRecord
  2
DASHED
 70
64
  3
- - - - - - - - - - - - - - - - - - - -
 72
65
 73
2
 40
0.2
 49
0.1
 74
0
 49
-0.1
 74
0
  0
ENDTAB
  0
TABLE
  2
LAYER
  5
2
100
AcDbSymbolTable
 70
36
  0
LAYER
  5
10
100
AcDbSymbolTableRecord
100
AcDbLayerTableRecord
  2
0
 70
0
 62
7
  6
CONTINUOUS
  0
LAYER
  5
1FA
100
AcDbSymbolTableRecord
100
AcDbLayerTableRecord
  2
DEFAULT_1
 70
0
 62
7
  6
CENTER
  0
LAYER
  5
1FB
100
AcDbSymbolTableRecord
100
AcDbLayerTableRecord
  2
DEFAULT_2
 70
0
 62
8
  6
HIDDEN
  0
LAYER
  5
1FC
100
AcDbSymbolTableRecord
100
AcDbLayerTableRecord
  2
DEFAULT_3
 70
0
 62
7
  6
PHANTOM
  0
LAYER
  5
1FD
100
AcDbSymbolTableRecord
100
AcDbLayerTableRecord
  2
01_ALL_DTM_PLN
 70
0
 62
7
  6
CONTINUOUS
  0
LAYER
  5
1FE
100
AcDbSymbolTableRecord
100
AcDbLayerTableRecord
  2
01__ASM_ALL_DTM_PLN
 70
0
 62
7
  6
CONTINUOUS
  0
LAYER
  5
1FF
100
AcDbSymbolTableRecord
100
AcDbLayerTableRecord
  2
01__ASM_DEF_DTM_PLN
 70
0
 62
7
  6
CONTINUOUS
  0
LAYER
  5
200
100
AcDbSymbolTableRecord
100
AcDbLayerTableRecord
  2
01___PRT_ALL_DTM_PLN
 70
0
 62
7
  6
CONTINUOUS
  0
LAYER
  5
201
100
AcDbSymbolTableRecord
100
AcDbLayerTableRecord
  2
01___PRT_DEF_DTM_PLN
 70
0
 62
7
  6
CONTINUOUS
  0
LAYER
  5
202
100
AcDbSymbolTableRecord
100
AcDbLayerTableRecord
  2
02_ALL_AXES
 70
0
 62
7
  6
CONTINUOUS
  0
LAYER
  5
203
100
AcDbSymbolTableRecord
100
AcDbLayerTableRecord
  2
02__ASM_ALL_AXES
 70
0
 62
7
  6
CONTINUOUS
  0
LAYER
  5
204
100
AcDbSymbolTableRecord
100
AcDbLayerTableRecord
  2
02___PRT_ALL_AXES
 70
0
 62
7
  6
CONTINUOUS
  0
LAYER
  5
205
100
AcDbSymbolTableRecord
100
AcDbLayerTableRecord
  2
03_ALL_CURVES
 70
0
 62
7
  6
CONTINUOUS
  0
LAYER
  5
206
100
AcDbSymbolTableRecord
100
AcDbLayerTableRecord
  2
03__ASM_ALL_CURVES
 70
0
 62
7
  6
CONTINUOUS
  0
LAYER
  5
207
100
AcDbSymbolTableRecord
100
AcDbLayerTableRecord
  2
03___PRT_ALL_CURVES
 70
0
 62
7
  6
CONTINUOUS
  0
LAYER
  5
208
100
AcDbSymbolTableRecord
100
AcDbLayerTableRecord
  2
04_ALL_DTM_PNT
 70
0
 62
7
  6
CONTINUOUS
  0
LAYER
  5
209
100
AcDbSymbolTableRecord
100
AcDbLayerTableRecord
  2
04__ASM_ALL_DTM_PNT
 70
0
 62
7
  6
CONTINUOUS
  0
LAYER
  5
20A
100
AcDbSymbolTableRecord
100
AcDbLayerTableRecord
  2
04___PRT_ALL_DTM_PNT
 70
0
 62
7
  6
CONTINUOUS
  0
LAYER
  5
20B
100
AcDbSymbolTableRecord
100
AcDbLayerTableRecord
  2
05_ALL_DTM_CSYS
 70
0
 62
7
  6
CONTINUOUS
  0
LAYER
  5
20C
100
AcDbSymbolTableRecord
100
AcDbLayerTableRecord
  2
05__ASM_ALL_DTM_CSYS
 70
0
 62
7
  6
CONTINUOUS
  0
LAYER
  5
20D
100
AcDbSymbolTableRecord
100
AcDbLayerTableRecord
  2
05__ASM_DEF_DTM_CSYS
 70
0
 62
7
  6
CONTINUOUS
  0
LAYER
  5
20E
100
AcDbSymbolTableRecord
100
AcDbLayerTableRecord
  2
05___PRT_ALL_DTM_CSYS
 70
0
 62
7
  6
CONTINUOUS
  0
LAYER
  5
20F
100
AcDbSymbolTableRecord
100
AcDbLayerTableRecord
  2
05___PRT_DEF_DTM_CSYS
 70
0
 62
7
  6
CONTINUOUS
  0
LAYER
  5
210
100
AcDbSymbolTableRecord
100
AcDbLayerTableRecord
  2
06_ALL_SURFS
 70
0
 62
7
  6
CONTINUOUS
  0
LAYER
  5
211
100
AcDbSymbolTableRecord
100
AcDbLayerTableRecord
  2
06__ASM_ALL_SURFS
 70
0
 62
7
  6
CONTINUOUS
  0
LAYER
  5
212
100
AcDbSymbolTableRecord
100
AcDbLayerTableRecord
  2
06___PRT_ALL_SURFS
 70
0
 62
7
  6
CONTINUOUS
  0
LAYER
  5
213
100
AcDbSymbolTableRecord
100
AcDbLayerTableRecord
  2
07__ASM_ALL_SKELETONS
 70
0
 62
7
  6
CONTINUOUS
  0
LAYER
  5
214
100
AcDbSymbolTableRecord
100
AcDbLayerTableRecord
  2
1_ALL_PLANES
 70
0
 62
7
  6
CONTINUOUS
  0
LAYER
  5
215
100
AcDbSymbolTableRecord
100
AcDbLayerTableRecord
  2
2_ALL_CSYS
 70
0
 62
7
  6
CONTINUOUS
  0
LAYER
  5
216
100
AcDbSymbolTableRecord
100
AcDbLayerTableRecord
  2
3_ALL_AXES
 70
0
 62
7
  6
CONTINUOUS
  0
LAYER
  5
217
100
AcDbSymbolTableRecord
100
AcDbLayerTableRecord
  2
4_ALL_POINTS
 70
0
 62
7
  6
CONTINUOUS
  0
LAYER
  5
218
100
AcDbSymbolTableRecord
100
AcDbLayerTableRecord
  2
5_ALL_CURVES
 70
0
 62
7
  6
CONTINUOUS
  0
LAYER
  5
219
100
AcDbSymbolTableRecord
100
AcDbLayerTableRecord
  2
5__COSTRUZIONE
 70
0
 62
7
  6
CONTINUOUS
  0
LAYER
  5
21A
100
AcDbSymbolTableRecord
100
AcDbLayerTableRecord
  2
6_ALL_SURFS
 70
0
 62
7
  6
CONTINUOUS
  0
LAYER
  5
21B
100
AcDbSymbolTableRecord
100
AcDbLayerTableRecord
  2
7_ALL_FEATURES
 70
0
 62
7
  6
CONTINUOUS
  0
LAYER
  5
21C
100
AcDbSymbolTableRecord
100
AcDbLayerTableRecord
  2
9_SOLID
 70
0
 62
7
  6
CONTINUOUS
  0
LAYER
  5
21D
100
AcDbSymbolTableRecord
100
AcDbLayerTableRecord
  2
INTFCLR_2
 70
0
 62
7
  6
CONTINUOUS
  0
LAYER
  5
21E
100
AcDbSymbolTableRecord
100
AcDbLayerTableRecord
  2
WHITE
 70
0
 62
7
  6
CONTINUOUS
  0
LAYER
  5
21F
100
AcDbSymbolTableRecord
100
AcDbLayerTableRecord
  2
XXX_SOLIDO
 70
0
 62
7
  6
CONTINUOUS
  0
ENDTAB
  0
TABLE
  2
STYLE
  5
3
100
AcDbSymbolTable
 70
1
  0
STYLE
  5
11
100
AcDbSymbolTableRecord
100
AcDbTextStyleTableRecord
  2
STANDARD
 70
0
 40
0.0
 41
1.0
 50
0.0
 71
0
 42
0.2
  3
arial.ttf
  4

  0
STYLE
  5
220
100
AcDbSymbolTableRecord
100
AcDbTextStyleTableRecord
  2
TEXTSTYLE_1
 70
0
 40
0.0
 41
0.8
 50
0.0
 71
0
 42
0.2
  3
gdt
  4

  0
STYLE
  5
221
100
AcDbSymbolTableRecord
100
AcDbTextStyleTableRecord
  2
TEXTSTYLE_2
 70
0
 40
0.0
 41
0.85
 50
0.0
 71
0
 42
0.2
  3
gdt
  4

  0
STYLE
  5
222
100
AcDbSymbolTableRecord
100
AcDbTextStyleTableRecord
  2
TEXTSTYLE_3
 70
0
 40
0.0
 41
0.85
 50
0.0
 71
0
 42
0.2
  3
txt
  4

  0
ENDTAB
  0
TABLE
  2
VIEW
  5
6
100
AcDbSymbolTable
 70
0
  0
ENDTAB
  0
TABLE
  2
UCS
  5
7
100
AcDbSymbolTable
 70
0
  0
ENDTAB
  0
TABLE
  2
APPID
  5
9
100
AcDbSymbolTable
 70
1
  0
APPID
  5
223
100
AcDbSymbolTableRecord
100
AcDbRegAppTableRecord
  2
ACAD
 70
0
  0
ENDTAB
  0
TABLE
  2
BLOCK_RECORD
  5
1
100
AcDbSymbolTable
 70
0
  0
BLOCK_RECORD
  5
1F
100
AcDbSymbolTableRecord
100
AcDbBlockTableRecord
  2
*MODEL_SPACE
  0
BLOCK_RECORD
  5
1B
100
AcDbSymbolTableRecord
100
AcDbBlockTableRecord
  2
*PAPER_SPACE
  0
BLOCK_RECORD
  5
224
100
AcDbSymbolTableRecord
100
AcDbBlockTableRecord
  2
_CLOSED
  0
BLOCK_RECORD
  5
225
100
AcDbSymbolTableRecord
100
AcDbBlockTableRecord
  2
*D0
  0
BLOCK_RECORD
  5
226
100
AcDbSymbolTableRecord
100
AcDbBlockTableRecord
  2
*D1
  0
BLOCK_RECORD
  5
227
100
AcDbSymbolTableRecord
100
AcDbBlockTableRecord
  2
*D2
  0
BLOCK_RECORD
  5
228
100
AcDbSymbolTableRecord
100
AcDbBlockTableRecord
  2
*D3
  0
BLOCK_RECORD
  5
229
100
AcDbSymbolTableRecord
100
AcDbBlockTableRecord
  2
*D4
  0
BLOCK_RECORD
  5
22A
100
AcDbSymbolTableRecord
100
AcDbBlockTableRecord
  2
*D5
  0
BLOCK_RECORD
  5
22B
100
AcDbSymbolTableRecord
100
AcDbBlockTableRecord
  2
*D6
  0
BLOCK_RECORD
  5
22C
100
AcDbSymbolTableRecord
100
AcDbBlockTableRecord
  2
*D7
  0
BLOCK_RECORD
  5
22D
100
AcDbSymbolTableRecord
100
AcDbBlockTableRecord
  2
LOGO2_BL0
  0
ENDTAB
  0
TABLE
  2
DIMSTYLE
  5
A
100
AcDbSymbolTable
 70
1
  0
DIMSTYLE
105
22E
100
AcDbSymbolTableRecord
100
AcDbDimStyleTableRecord
  2
STANDARD
 70
0
  3

  4

  5
_CLOSED
  6
_CLOSED
  7
_CLOSED
 40
1.0
 41
2.5
 42
0.75
 43
0.38
 44
0.75
 45
0.0
 46
0.0
 47
0.01
 48
0.01
140
3.0
141
0.09
142
0.0
143
25.4
144
1.0
145
0.0
146
1.0
147
0.625
 71
1.0
 72
0.0
 73
0
 74
0
 75
0
 76
0
 77
1
 78
8
 79
2
170
0
171
1
172
0
173
0
174
0
175
0
176
0
177
0
178
0
270
2
179
2
271
2
272
2
273
2
274
2
275
0
280
0
281
0
282
0
283
1
284
8
285
0
286
0
287
3
288
0
340
11
  0
DIMSTYLE
105
22F
100
AcDbSymbolTableRecord
100
AcDbDimStyleTableRecord
  2
DIMSTYLE_1
 70
0
  3

  4

  5
_CLOSED
  6
_CLOSED
  7
_CLOSED
 40
1.0
 41
2.5
 42
0.75
 43
0.38
 44
0.75
 45
0.0
 46
0.0
 47
0.2
 48
0.2
140
3.0
141
0.09
142
0.0
143
25.4
144
1.0
145
0.0
146
1.0
147
0.75
 71
0.0
 72
0.0
 73
0
 74
0
 75
0
 76
0
 77
1
 78
8
 79
2
170
0
171
1
172
0
173
0
174
0
175
0
176
0
177
0
178
0
270
2
179
2
271
2
272
2
273
2
274
2
275
0
280
0
281
0
282
0
283
1
284
8
285
0
286
0
287
3
288
0
340
11
  0
DIMSTYLE
105
230
100
AcDbSymbolTableRecord
100
AcDbDimStyleTableRecord
  2
DIMSTYLE_2
 70
0
  3

  4

  5
_CLOSED
  6
_CLOSED
  7
_CLOSED
 40
1.0
 41
2.5
 42
0.75
 43
0.38
 44
0.75
 45
0.0
 46
0.0
 47
0.1
 48
0.1
140
3.0
141
0.09
142
0.0
143
25.4
144
1.0
145
0.0
146
1.0
147
0.75
 71
0.0
 72
0.0
 73
0
 74
0
 75
0
 76
0
 77
1
 78
8
 79
2
170
0
171
1
172
0
173
0
174
0
175
0
176
0
177
0
178
0
270
2
179
2
271
2
272
2
273
2
274
2
275
0
280
0
281
0
282
0
283
1
284
8
285
0
286
0
287
3
288
0
340
11
  0
DIMSTYLE
105
231
100
AcDbSymbolTableRecord
100
AcDbDimStyleTableRecord
  2
DIMSTYLE_3
 70
0
  3
<>
  4

  5
_CLOSED
  6
_CLOSED
  7
_CLOSED
 40
1.0
 41
2.5
 42
0.75
 43
0.38
 44
0.75
 45
0.0
 46
0.0
 47
0.3
 48
0.3
140
3.0
141
0.09
142
0.0
143
25.4
144
1.0
145
0.0
146
1.0
147
0.625
 71
0.0
 72
0.0
 73
0
 74
0
 75
0
 76
0
 77
1
 78
8
 79
2
170
0
171
1
172
1
173
0
174
0
175
0
176
0
177
0
178
0
270
2
179
2
271
2
272
2
273
2
274
2
275
0
280
0
281
0
282
0
283
1
284
8
285
0
286
0
287
3
288
1
340
11
  0
ENDTAB
  0
ENDSEC
  0
SECTION
  2
BLOCKS
  0
BLOCK
  5
20
100
AcDbEntity
  8
0
100
AcDbBlockBegin
  2
*MODEL_SPACE
 70
0
 10
0.0
 20
0.0
 30
0.0
  3
*MODEL_SPACE
  1

  0
ENDBLK
  5
21
100
AcDbEntity
  8
0
100
AcDbBlockEnd
  0
BLOCK
  5
1C
100
AcDbEntity
  8
0
100
AcDbBlockBegin
  2
*PAPER_SPACE
 70
0
 10
0.0
 20
0.0
 30
0.0
  3
*PAPER_SPACE
  1

  0
ENDBLK
  5
1D
100
AcDbEntity
  8
0
100
AcDbBlockEnd
  0
BLOCK
  5
232
100
AcDbEntity
  8
0
100
AcDbBlockBegin
 62
2
  6
CONTINUOUS
  2
LOGO2_BL0
 70
64
 10
207.6164605391
 20
39.6725198453
  3
LOGO2_BL0
  1

  0
LINE
  5
233
100
AcDbEntity
  8
0
100
AcDbLine
 62
7
  6
CONTINUOUS
 10
199.3593857673
 20
42.8680111841
 11
198.055044838
 21
42.8680111841
  0
LINE
  5
234
100
AcDbEntity
  8
0
100
AcDbLine
 62
7
  6
CONTINUOUS
 10
198.055044838
 20
42.8680111841
 11
198.055044838
 21
32.4089451242
  0
LINE
  5
235
100
AcDbEntity
  8
0
100
AcDbLine
 62
7
  6
CONTINUOUS
 10
198.055044838
 20
32.4089451242
 11
202.5360997262
 21
32.4089451242
  0
LINE
  5
236
100
AcDbEntity
  8
0
100
AcDbLine
 62
7
  6
CONTINUOUS
 10
202.5360997262
 20
32.4089451242
 11
202.5360997262
 21
33.6017994493
  0
LINE
  5
237
100
AcDbEntity
  8
0
100
AcDbLine
 62
7
  6
CONTINUOUS
 10
202.5360997262
 20
33.6017994493
 11
199.3593857673
 21
33.6017994493
  0
LINE
  5
238
100
AcDbEntity
  8
0
100
AcDbLine
 62
7
  6
CONTINUOUS
 10
199.3593857673
 20
33.6017994493
 11
199.3593857673
 21
42.8680111841
  0
LINE
  5
239
100
AcDbEntity
  8
0
100
AcDbLine
 62
7
  6
CONTINUOUS
 10
214.2957119836
 20
42.8680111841
 11
212.9918944656
 21
42.8680111841
  0
LINE
  5
23A
100
AcDbEntity
  8
0
100
AcDbLine
 62
7
  6
CONTINUOUS
 10
212.9918944656
 20
42.8680111841
 11
212.9918944656
 21
32.4089451242
  0
LINE
  5
23B
100
AcDbEntity
  8
0
100
AcDbLine
 62
7
  6
CONTINUOUS
 10
212.9918944656
 20
32.4089451242
 11
217.4730802067
 21
32.4089451242
  0
LINE
  5
23C
100
AcDbEntity
  8
0
100
AcDbLine
 62
7
  6
CONTINUOUS
 10
217.4730802067
 20
32.4089451242
 11
217.4730802067
 21
33.6017994493
  0
LINE
  5
23D
100
AcDbEntity
  8
0
100
AcDbLine
 62
7
  6
CONTINUOUS
 10
217.4730802067
 20
33.6017994493
 11
214.2957119836
 21
33.6017994493
  0
LINE
  5
23E
100
AcDbEntity
  8
0
100
AcDbLine
 62
7
  6
CONTINUOUS
 10
214.2957119836
 20
33.6017994493
 11
214.2957119836
 21
42.8680111841
  0
LWPOLYLINE
  5
23F
100
AcDbEntity
  8
0
100
AcDbPolyline
 62
7
  6
CONTINUOUS
 90
2
 70
0
 43
0.2
 10
196.4094397489
 20
29.0653938173
 10
196.4094397489
 20
27.208330568
  0
LWPOLYLINE
  5
240
100
AcDbEntity
  8
0
100
AcDbPolyline
 62
7
  6
CONTINUOUS
 90
2
 70
0
 43
0.2
 10
196.4094397489
 20
27.208330568
 10
197.2051557593
 20
27.208330568
  0
LWPOLYLINE
  5
241
100
AcDbEntity
  8
0
100
AcDbPolyline
 62
7
  6
CONTINUOUS
 90
2
 70
0
 43
0.2
 10
197.2051557593
 20
27.208330568
 10
197.2051557593
 20
27.4203121396
  0
LWPOLYLINE
  5
242
100
AcDbEntity
  8
0
100
AcDbPolyline
 62
7
  6
CONTINUOUS
 90
2
 70
0
 43
0.2
 10
197.2051557593
 20
27.4203121396
 10
196.6410492438
 20
27.4203121396
  0
LWPOLYLINE
  5
243
100
AcDbEntity
  8
0
100
AcDbPolyline
 62
7
  6
CONTINUOUS
 90
2
 70
0
 43
0.2
 10
196.6410492438
 20
27.4203121396
 10
196.6410492438
 20
29.0653938173
  0
LWPOLYLINE
  5
244
100
AcDbEntity
  8
0
100
AcDbPolyline
 62
7
  6
CONTINUOUS
 90
2
 70
0
 43
0.2
 10
196.6410492438
 20
29.0653938173
 10
196.4094397489
 20
29.0653938173
  0
SPLINE
  5
245
100
AcDbEntity
  8
0
100
AcDbSpline
 62
7
  6
CONTINUOUS
 70
2
 71
3
 72
35
 73
31
 74
0
 42
0.0000001
 43
0.0000001
 44
0.0000000001
 40
0.0
 40
0.0
 40
0.0
 40
0.0
 40
1.0
 40
1.0
 40
1.0
 40
2.0
 40
2.0
 40
2.0
 40
3.0
 40
3.0
 40
3.0
 40
4.0
 40
4.0
 40
4.0
 40
5.0
 40
5.0
 40
5.0
 40
6.0
 40
6.0
 40
6.0
 40
7.0
 40
7.0
 40
7.0
 40
8.0
 40
8.0
 40
8.0
 40
9.0
 40
9.0
 40
9.0
 40
10.0
 40
10.0
 40
10.0
 40
10.0
 10
198.6034490148
 20
28.3608822239
 30
0.0
 10
198.6034490148
 20
28.3608822239
 30
0.0
 10
198.6034490148
 20
27.6987669447
 30
0.0
 10
198.6034490148
 20
27.6987669447
 30
0.0
 10
198.6034490148
 20
27.3836733494
 30
0.0
 10
198.7513127037
 20
27.1690747214
 30
0.0
 10
199.0913991879
 20
27.1690747214
 30
0.0
 10
199.430962261
 20
27.1690747214
 30
0.0
 10
199.5790876554
 20
27.3836733494
 30
0.0
 10
199.5790876554
 20
27.6987669447
 30
0.0
 10
199.5790876554
 20
27.6987669447
 30
0.0
 10
199.5790876554
 20
28.3608822239
 30
0.0
 10
199.5790876554
 20
28.3608822239
 30
0.0
 10
199.5790876554
 20
28.3608822239
 30
0.0
 10
199.3570304165
 20
28.3608822239
 30
0.0
 10
199.3570304165
 20
28.3608822239
 30
0.0
 10
199.3570304165
 20
28.3608822239
 30
0.0
 10
199.3570304165
 20
27.7238906865
 30
0.0
 10
199.3570304165
 20
27.7238906865
 30
0.0
 10
199.3570304165
 20
27.5380796793
 30
0.0
 10
199.3103159591
 20
27.3752987688
 30
0.0
 10
199.0913991879
 20
27.3752987688
 30
0.0
 10
198.8719590055
 20
27.3752987688
 30
0.0
 10
198.8252445481
 20
27.5380796793
 30
0.0
 10
198.8252445481
 20
27.7238906865
 30
0.0
 10
198.8252445481
 20
27.7238906865
 30
0.0
 10
198.8252445481
 20
28.3608822239
 30
0.0
 10
198.8252445481
 20
28.3608822239
 30
0.0
 10
198.8252445481
 20
28.3608822239
 30
0.0
 10
198.6034490148
 20
28.3608822239
 30
0.0
 10
198.6034490148
 20
28.3608822239
 30
0.0
  0
SPLINE
  5
246
100
AcDbEntity
  8
0
100
AcDbSpline
 62
7
  6
CONTINUOUS
 70
2
 71
3
 72
35
 73
31
 74
0
 42
0.0000001
 43
0.0000001
 44
0.0000000001
 40
0.0
 40
0.0
 40
0.0
 40
0.0
 40
1.0
 40
1.0
 40
1.0
 40
2.0
 40
2.0
 40
2.0
 40
3.0
 40
3.0
 40
3.0
 40
4.0
 40
4.0
 40
4.0
 40
5.0
 40
5.0
 40
5.0
 40
6.0
 40
6.0
 40
6.0
 40
7.0
 40
7.0
 40
7.0
 40
8.0
 40
8.0
 40
8.0
 40
9.0
 40
9.0
 40
9.0
 40
10.0
 40
10.0
 40
10.0
 40
10.0
 10
202.0022202126
 20
28.3195327321
 30
0.0
 10
201.913763705
 20
28.3708270383
 30
0.0
 10
201.8003143083
 20
28.3959507801
 30
0.0
 10
201.6966788733
 20
28.3959507801
 30
0.0
 10
201.3418060201
 20
28.3959507801
 30
0.0
 10
201.0663608299
 20
28.1321514911
 30
0.0
 10
201.0663608299
 20
27.7746615814
 30
0.0
 10
201.0663608299
 20
27.4297335427
 30
0.0
 10
201.344815635
 20
27.1695981327
 30
0.0
 10
201.6843787081
 20
27.1695981327
 30
0.0
 10
201.8003143083
 20
27.1695981327
 30
0.0
 10
201.9010709812
 20
27.1915814068
 30
0.0
 10
202.0022202126
 20
27.2454927694
 30
0.0
 10
202.0022202126
 20
27.2454927694
 30
0.0
 10
202.0022202126
 20
27.5281348649
 30
0.0
 10
202.0022202126
 20
27.5281348649
 30
0.0
 10
201.9183435537
 20
27.4349676556
 30
0.0
 10
201.8148389716
 20
27.3758221801
 30
0.0
 10
201.6867340588
 20
27.3758221801
 30
0.0
 10
201.4530309188
 20
27.3758221801
 30
0.0
 10
201.2877638047
 20
27.5480244938
 30
0.0
 10
201.2877638047
 20
27.7846063959
 30
0.0
 10
201.2877638047
 20
27.9965879675
 30
0.0
 10
201.4555171224
 20
28.1886799102
 30
0.0
 10
201.6723402484
 20
28.1886799102
 30
0.0
 10
201.8051558627
 20
28.1886799102
 30
0.0
 10
201.913763705
 20
28.1347685475
 30
0.0
 10
202.0022202126
 20
28.0337501689
 30
0.0
 10
202.0022202126
 20
28.0337501689
 30
0.0
 10
202.0022202126
 20
28.3195327321
 30
0.0
 10
202.0022202126
 20
28.3195327321
 30
0.0
  0
SPLINE
  5
247
100
AcDbEntity
  8
0
100
AcDbSpline
 62
7
  6
CONTINUOUS
 70
2
 71
3
 72
32
 73
28
 74
0
 42
0.0000001
 43
0.0000001
 44
0.0000000001
 40
0.0
 40
0.0
 40
0.0
 40
0.0
 40
1.0
 40
1.0
 40
1.0
 40
2.0
 40
2.0
 40
2.0
 40
3.0
 40
3.0
 40
3.0
 40
4.0
 40
4.0
 40
4.0
 40
5.0
 40
5.0
 40
5.0
 40
6.0
 40
6.0
 40
6.0
 40
7.0
 40
7.0
 40
7.0
 40
8.0
 40
8.0
 40
8.0
 40
9.0
 40
9.0
 40
9.0
 40
9.0
 10
204.5340914649
 20
27.7479676058
 30
0.0
 10
204.5340914649
 20
27.7479676058
 30
0.0
 10
204.5340914649
 20
27.7819893395
 30
0.0
 10
204.5340914649
 20
27.7819893395
 30
0.0
 10
204.5340914649
 20
28.1243003217
 30
0.0
 10
204.361234887
 20
28.3959507801
 30
0.0
 10
203.9945852799
 20
28.3959507801
 30
0.0
 10
203.6229632655
 20
28.3959507801
 30
0.0
 10
203.4332266736
 20
28.1295344346
 30
0.0
 10
203.4332266736
 20
27.7746615814
 30
0.0
 10
203.4332266736
 20
27.4349676556
 30
0.0
 10
203.6473018904
 20
27.1690747214
 30
0.0
 10
203.9994268343
 20
27.1690747214
 30
0.0
 10
204.2234468655
 20
27.1690747214
 30
0.0
 10
204.4256144755
 20
27.284748616
 30
0.0
 10
204.5340914649
 20
27.4841683167
 30
0.0
 10
204.5340914649
 20
27.4841683167
 30
0.0
 10
204.3464485182
 20
27.5909442194
 30
0.0
 10
204.3464485182
 20
27.5909442194
 30
0.0
 10
204.2629644177
 20
27.4522402281
 30
0.0
 10
204.1717600008
 20
27.3664007769
 30
0.0
 10
204.0021747436
 20
27.3664007769
 30
0.0
 10
203.790193172
 20
27.3664007769
 30
0.0
 10
203.6572467049
 20
27.5511649615
 30
0.0
 10
203.6548913541
 20
27.7479676058
 30
0.0
 10
203.6548913541
 20
27.7479676058
 30
0.0
 10
204.5340914649
 20
27.7479676058
 30
0.0
 10
204.5340914649
 20
27.7479676058
 30
0.0
  0
SPLINE
  5
248
100
AcDbEntity
  8
0
100
AcDbSpline
 62
7
  6
CONTINUOUS
 70
2
 71
3
 72
14
 73
10
 74
0
 42
0.0000001
 43
0.0000001
 44
0.0000000001
 40
0.0
 40
0.0
 40
0.0
 40
0.0
 40
1.0
 40
1.0
 40
1.0
 40
2.0
 40
2.0
 40
2.0
 40
3.0
 40
3.0
 40
3.0
 40
3.0
 10
203.6669298137
 20
27.9154592179
 30
0.0
 10
203.6945397591
 20
28.0803337736
 30
0.0
 10
203.8223829662
 20
28.2033354262
 30
0.0
 10
203.9945852799
 20
28.2033354262
 30
0.0
 10
204.1717600008
 20
28.2033354262
 30
0.0
 10
204.2852093975
 20
28.0876615316
 30
0.0
 10
204.3124267844
 20
27.9154592179
 30
0.0
 10
204.3124267844
 20
27.9154592179
 30
0.0
 10
203.6669298137
 20
27.9154592179
 30
0.0
 10
203.6669298137
 20
27.9154592179
 30
0.0
  0
SPLINE
  5
249
100
AcDbEntity
  8
0
100
AcDbSpline
 62
7
  6
CONTINUOUS
 70
2
 71
3
 72
20
 73
16
 74
0
 42
0.0000001
 43
0.0000001
 44
0.0000000001
 40
0.0
 40
0.0
 40
0.0
 40
0.0
 40
1.0
 40
1.0
 40
1.0
 40
2.0
 40
2.0
 40
2.0
 40
3.0
 40
3.0
 40
3.0
 40
4.0
 40
4.0
 40
4.0
 40
5.0
 40
5.0
 40
5.0
 40
5.0
 10
206.5581229151
 20
28.124823733
 30
0.0
 10
206.5581229151
 20
28.124823733
 30
0.0
 10
206.9692624817
 20
27.6223488967
 30
0.0
 10
206.9692624817
 20
27.6223488967
 30
0.0
 10
206.8531960286
 20
27.5066750021
 30
0.0
 10
206.7154080071
 20
27.3763455914
 30
0.0
 10
206.543467399
 20
27.3763455914
 30
0.0
 10
206.3660309724
 20
27.3763455914
 30
0.0
 10
206.1985393603
 20
27.5406967358
 30
0.0
 10
206.1985393603
 20
27.7176097511
 30
0.0
 10
206.1985393603
 20
27.8955695889
 30
0.0
 10
206.4082964339
 20
28.0217117093
 30
0.0
 10
206.5358779353
 20
28.1096448057
 30
0.0
 10
206.5358779353
 20
28.1096448057
 30
0.0
 10
206.5581229151
 20
28.124823733
 30
0.0
 10
206.5581229151
 20
28.124823733
 30
0.0
  0
SPLINE
  5
24A
100
AcDbEntity
  8
0
100
AcDbSpline
 62
7
  6
CONTINUOUS
 70
2
 71
3
 72
23
 73
19
 74
0
 42
0.0000001
 43
0.0000001
 44
0.0000000001
 40
0.0
 40
0.0
 40
0.0
 40
0.0
 40
1.0
 40
1.0
 40
1.0
 40
2.0
 40
2.0
 40
2.0
 40
3.0
 40
3.0
 40
3.0
 40
4.0
 40
4.0
 40
4.0
 40
5.0
 40
5.0
 40
5.0
 40
6.0
 40
6.0
 40
6.0
 40
6.0
 10
206.6074544289
 20
28.4158404091
 30
0.0
 10
206.6074544289
 20
28.4158404091
 30
0.0
 10
206.5458227498
 20
28.4943521023
 30
0.0
 10
206.5458227498
 20
28.4943521023
 30
0.0
 10
206.4919113871
 20
28.562918981
 30
0.0
 10
206.4351212624
 20
28.632009271
 30
0.0
 10
206.4351212624
 20
28.7256998915
 30
0.0
 10
206.4351212624
 20
28.8445142539
 30
0.0
 10
206.5310363809
 20
28.9219791245
 30
0.0
 10
206.6419995739
 20
28.9219791245
 30
0.0
 10
206.7652629322
 20
28.9219791245
 30
0.0
 10
206.8585609943
 20
28.8507951893
 30
0.0
 10
206.8585609943
 20
28.7204657786
 30
0.0
 10
206.8585609943
 20
28.5854256664
 30
0.0
 10
206.7304560816
 20
28.5090076183
 30
0.0
 10
206.6368963139
 20
28.4352066267
 30
0.0
 10
206.6368963139
 20
28.4352066267
 30
0.0
 10
206.6074544289
 20
28.4158404091
 30
0.0
 10
206.6074544289
 20
28.4158404091
 30
0.0
  0
SPLINE
  5
24B
100
AcDbEntity
  8
0
100
AcDbSpline
 62
7
  6
CONTINUOUS
 70
2
 71
3
 72
50
 73
46
 74
0
 42
0.0000001
 43
0.0000001
 44
0.0000000001
 40
0.0
 40
0.0
 40
0.0
 40
0.0
 40
1.0
 40
1.0
 40
1.0
 40
2.0
 40
2.0
 40
2.0
 40
3.0
 40
3.0
 40
3.0
 40
4.0
 40
4.0
 40
4.0
 40
5.0
 40
5.0
 40
5.0
 40
6.0
 40
6.0
 40
6.0
 40
7.0
 40
7.0
 40
7.0
 40
8.0
 40
8.0
 40
8.0
 40
9.0
 40
9.0
 40
9.0
 40
10.0
 40
10.0
 40
10.0
 40
11.0
 40
11.0
 40
11.0
 40
12.0
 40
12.0
 40
12.0
 40
13.0
 40
13.0
 40
13.0
 40
14.0
 40
14.0
 40
14.0
 40
15.0
 40
15.0
 40
15.0
 40
15.0
 10
207.3096106716
 20
27.2088539793
 30
0.0
 10
207.3096106716
 20
27.2088539793
 30
0.0
 10
207.5950006763
 20
27.2088539793
 30
0.0
 10
207.5950006763
 20
27.2088539793
 30
0.0
 10
207.5950006763
 20
27.2088539793
 30
0.0
 10
207.2626345085
 20
27.6197318402
 30
0.0
 10
207.2626345085
 20
27.6197318402
 30
0.0
 10
207.2626345085
 20
27.6197318402
 30
0.0
 10
207.4891407434
 20
27.8856247745
 30
0.0
 10
207.4891407434
 20
27.8856247745
 30
0.0
 10
207.4891407434
 20
27.8856247745
 30
0.0
 10
207.3408844961
 20
28.0384608705
 30
0.0
 10
207.3408844961
 20
28.0384608705
 30
0.0
 10
207.3408844961
 20
28.0384608705
 30
0.0
 10
207.1249773398
 20
27.7872234524
 30
0.0
 10
207.1249773398
 20
27.7872234524
 30
0.0
 10
207.1249773398
 20
27.7872234524
 30
0.0
 10
206.7379146924
 20
28.2551531437
 30
0.0
 10
206.7379146924
 20
28.2551531437
 30
0.0
 10
206.8933678449
 20
28.3692568045
 30
0.0
 10
207.0756458259
 20
28.5090076183
 30
0.0
 10
207.0756458259
 20
28.7183721335
 30
0.0
 10
207.0756458259
 20
28.9622817936
 30
0.0
 10
206.8736090688
 20
29.1056964865
 30
0.0
 10
206.647102834
 20
29.1056964865
 30
0.0
 10
206.4029314682
 20
29.1056964865
 30
0.0
 10
206.2185598421
 20
28.9549540356
 30
0.0
 10
206.2185598421
 20
28.6984825045
 30
0.0
 10
206.2185598421
 20
28.5409357069
 30
0.0
 10
206.3172228698
 20
28.4032785382
 30
0.0
 10
206.4225593915
 20
28.2923153452
 30
0.0
 10
206.4225593915
 20
28.2923153452
 30
0.0
 10
206.3070163497
 20
28.2085695391
 30
0.0
 10
206.3070163497
 20
28.2085695391
 30
0.0
 10
206.1293182175
 20
28.0803337736
 30
0.0
 10
205.9819779399
 20
27.9526214193
 30
0.0
 10
205.9819779399
 20
27.7155161059
 30
0.0
 10
205.9819779399
 20
27.3951883977
 30
0.0
 10
206.2405431161
 20
27.1690747214
 30
0.0
 10
206.5509260098
 20
27.1690747214
 30
0.0
 10
206.769842781
 20
27.1690747214
 30
0.0
 10
206.9670379837
 20
27.2941700192
 30
0.0
 10
207.1073122089
 20
27.4600913974
 30
0.0
 10
207.1073122089
 20
27.4600913974
 30
0.0
 10
207.3096106716
 20
27.2088539793
 30
0.0
 10
207.3096106716
 20
27.2088539793
 30
0.0
  0
LWPOLYLINE
  5
24C
100
AcDbEntity
  8
0
100
AcDbPolyline
 62
7
  6
CONTINUOUS
 90
2
 70
0
 43
0.2
 10
209.2450547613
 20
29.0653938173
 10
209.0137069721
 20
29.0653938173
  0
LWPOLYLINE
  5
24D
100
AcDbEntity
  8
0
100
AcDbPolyline
 62
7
  6
CONTINUOUS
 90
2
 70
0
 43
0.2
 10
209.0137069721
 20
29.0653938173
 10
209.0137069721
 20
27.208330568
  0
LWPOLYLINE
  5
24E
100
AcDbEntity
  8
0
100
AcDbPolyline
 62
7
  6
CONTINUOUS
 90
2
 70
0
 43
0.2
 10
209.0137069721
 20
27.208330568
 10
209.809030424
 20
27.208330568
  0
LWPOLYLINE
  5
24F
100
AcDbEntity
  8
0
100
AcDbPolyline
 62
7
  6
CONTINUOUS
 90
2
 70
0
 43
0.2
 10
209.809030424
 20
27.208330568
 10
209.809030424
 20
27.4203121396
  0
LWPOLYLINE
  5
250
100
AcDbEntity
  8
0
100
AcDbPolyline
 62
7
  6
CONTINUOUS
 90
2
 70
0
 43
0.2
 10
209.809030424
 20
27.4203121396
 10
209.2450547613
 20
27.4203121396
  0
LWPOLYLINE
  5
251
100
AcDbEntity
  8
0
100
AcDbPolyline
 62
7
  6
CONTINUOUS
 90
2
 70
0
 43
0.2
 10
209.2450547613
 20
27.4203121396
 10
209.2450547613
 20
29.0653938173
  0
LWPOLYLINE
  5
252
100
AcDbEntity
  8
0
100
AcDbPolyline
 62
7
  6
CONTINUOUS
 90
2
 70
0
 43
0.2
 10
211.4881338355
 20
28.3608822239
 10
211.2669925664
 20
28.3608822239
  0
LWPOLYLINE
  5
253
100
AcDbEntity
  8
0
100
AcDbPolyline
 62
7
  6
CONTINUOUS
 90
2
 70
0
 43
0.2
 10
211.2669925664
 20
28.3608822239
 10
211.2669925664
 20
27.2088539793
  0
LWPOLYLINE
  5
254
100
AcDbEntity
  8
0
100
AcDbPolyline
 62
7
  6
CONTINUOUS
 90
2
 70
0
 43
0.2
 10
211.2669925664
 20
27.2088539793
 10
211.4881338355
 20
27.2088539793
  0
LWPOLYLINE
  5
255
100
AcDbEntity
  8
0
100
AcDbPolyline
 62
7
  6
CONTINUOUS
 90
2
 70
0
 43
0.2
 10
211.4881338355
 20
27.2088539793
 10
211.4881338355
 20
28.3608822239
  0
SPLINE
  5
256
100
AcDbEntity
  8
0
100
AcDbSpline
 62
7
  6
CONTINUOUS
 70
2
 71
3
 72
17
 73
13
 74
0
 42
0.0000001
 43
0.0000001
 44
0.0000000001
 40
0.0
 40
0.0
 40
0.0
 40
0.0
 40
1.0
 40
1.0
 40
1.0
 40
2.0
 40
2.0
 40
2.0
 40
3.0
 40
3.0
 40
3.0
 40
4.0
 40
4.0
 40
4.0
 40
4.0
 10
211.3776940538
 20
29.0434105432
 30
0.0
 10
211.2936865421
 20
29.0434105432
 30
0.0
 10
211.2251196633
 20
28.9743202532
 30
0.0
 10
211.2251196633
 20
28.888480802
 30
0.0
 10
211.2251196633
 20
28.8042115847
 30
0.0
 10
211.2936865421
 20
28.7382617624
 30
0.0
 10
211.3776940538
 20
28.7382617624
 30
0.0
 10
211.4614398598
 20
28.7382617624
 30
0.0
 10
211.5302684442
 20
28.8042115847
 30
0.0
 10
211.5302684442
 20
28.888480802
 30
0.0
 10
211.5302684442
 20
28.9743202532
 30
0.0
 10
211.4614398598
 20
29.0434105432
 30
0.0
 10
211.3776940538
 20
29.0434105432
 30
0.0
  0
SPLINE
  5
257
100
AcDbEntity
  8
0
100
AcDbSpline
 62
7
  6
CONTINUOUS
 70
2
 71
3
 72
17
 73
13
 74
0
 42
0.0000001
 43
0.0000001
 44
0.0000000001
 40
0.0
 40
0.0
 40
0.0
 40
0.0
 40
1.0
 40
1.0
 40
1.0
 40
2.0
 40
2.0
 40
2.0
 40
3.0
 40
3.0
 40
3.0
 40
4.0
 40
4.0
 40
4.0
 40
4.0
 10
213.6184177771
 20
27.3664007769
 30
0.0
 10
213.3844529315
 20
27.3664007769
 30
0.0
 10
213.2541235208
 20
27.568437534
 30
0.0
 10
213.2541235208
 20
27.7846063959
 30
0.0
 10
213.2541235208
 20
27.9992050239
 30
0.0
 10
213.38994875
 20
28.1981013133
 30
0.0
 10
213.6184177771
 20
28.1981013133
 30
0.0
 10
213.8578784413
 20
28.1981013133
 30
0.0
 10
213.9934419649
 20
28.0091498384
 30
0.0
 10
213.9934419649
 20
27.7846063959
 30
0.0
 10
213.9934419649
 20
27.5584927196
 30
0.0
 10
213.8602337921
 20
27.3664007769
 30
0.0
 10
213.6184177771
 20
27.3664007769
 30
0.0
  0
SPLINE
  5
258
100
AcDbEntity
  8
0
100
AcDbSpline
 62
7
  6
CONTINUOUS
 70
2
 71
3
 72
50
 73
46
 74
0
 42
0.0000001
 43
0.0000001
 44
0.0000000001
 40
0.0
 40
0.0
 40
0.0
 40
0.0
 40
1.0
 40
1.0
 40
1.0
 40
2.0
 40
2.0
 40
2.0
 40
3.0
 40
3.0
 40
3.0
 40
4.0
 40
4.0
 40
4.0
 40
5.0
 40
5.0
 40
5.0
 40
6.0
 40
6.0
 40
6.0
 40
7.0
 40
7.0
 40
7.0
 40
8.0
 40
8.0
 40
8.0
 40
9.0
 40
9.0
 40
9.0
 40
10.0
 40
10.0
 40
10.0
 40
11.0
 40
11.0
 40
11.0
 40
12.0
 40
12.0
 40
12.0
 40
13.0
 40
13.0
 40
13.0
 40
14.0
 40
14.0
 40
14.0
 40
15.0
 40
15.0
 40
15.0
 40
15.0
 10
214.2025447744
 20
28.3614056352
 30
0.0
 10
214.2025447744
 20
28.3614056352
 30
0.0
 10
213.980880094
 20
28.3614056352
 30
0.0
 10
213.980880094
 20
28.3614056352
 30
0.0
 10
213.980880094
 20
28.3614056352
 30
0.0
 10
213.980880094
 20
28.1640795796
 30
0.0
 10
213.980880094
 20
28.1640795796
 30
0.0
 10
213.980880094
 20
28.1640795796
 30
0.0
 10
213.9761693924
 20
28.1640795796
 30
0.0
 10
213.9761693924
 20
28.1640795796
 30
0.0
 10
213.8848341227
 20
28.3069708612
 30
0.0
 10
213.7469152483
 20
28.3954273689
 30
0.0
 10
213.5741895233
 20
28.3954273689
 30
0.0
 10
213.2418233555
 20
28.3954273689
 30
0.0
 10
213.032720546
 20
28.1075511605
 30
0.0
 10
213.032720546
 20
27.7919341539
 30
0.0
 10
213.032720546
 20
27.4621850426
 30
0.0
 10
213.2297848959
 20
27.1690747214
 30
0.0
 10
213.5846577491
 20
27.1690747214
 30
0.0
 10
213.7469152483
 20
27.1690747214
 30
0.0
 10
213.8869277678
 20
27.257531229
 30
0.0
 10
213.9761693924
 20
27.388384051
 30
0.0
 10
213.9761693924
 20
27.388384051
 30
0.0
 10
213.980880094
 20
27.388384051
 30
0.0
 10
213.980880094
 20
27.388384051
 30
0.0
 10
213.980880094
 20
27.388384051
 30
0.0
 10
213.980880094
 20
27.1690747214
 30
0.0
 10
213.980880094
 20
27.1690747214
 30
0.0
 10
213.980880094
 20
26.9324928193
 30
0.0
 10
213.9243516749
 20
26.7456349895
 30
0.0
 10
213.6511309826
 20
26.7456349895
 30
0.0
 10
213.4488325199
 20
26.7456349895
 30
0.0
 10
213.3062029439
 20
26.8639259406
 30
0.0
 10
213.3062029439
 20
27.070149988
 30
0.0
 10
213.3062029439
 20
27.070149988
 30
0.0
 10
213.0845382635
 20
27.070149988
 30
0.0
 10
213.0845382635
 20
27.070149988
 30
0.0
 10
213.0895106707
 20
26.7456349895
 30
0.0
 10
213.3205967543
 20
26.5488323453
 30
0.0
 10
213.6409244625
 20
26.5488323453
 30
0.0
 10
214.0889645249
 20
26.5488323453
 30
0.0
 10
214.2025447744
 20
26.8340914971
 30
0.0
 10
214.2025447744
 20
27.2308372534
 30
0.0
 10
214.2025447744
 20
27.2308372534
 30
0.0
 10
214.2025447744
 20
28.3614056352
 30
0.0
 10
214.2025447744
 20
28.3614056352
 30
0.0
  0
SPLINE
  5
259
100
AcDbEntity
  8
0
100
AcDbSpline
 62
7
  6
CONTINUOUS
 70
2
 71
3
 72
44
 73
40
 74
0
 42
0.0000001
 43
0.0000001
 44
0.0000000001
 40
0.0
 40
0.0
 40
0.0
 40
0.0
 40
1.0
 40
1.0
 40
1.0
 40
2.0
 40
2.0
 40
2.0
 40
3.0
 40
3.0
 40
3.0
 40
4.0
 40
4.0
 40
4.0
 40
5.0
 40
5.0
 40
5.0
 40
6.0
 40
6.0
 40
6.0
 40
7.0
 40
7.0
 40
7.0
 40
8.0
 40
8.0
 40
8.0
 40
9.0
 40
9.0
 40
9.0
 40
10.0
 40
10.0
 40
10.0
 40
11.0
 40
11.0
 40
11.0
 40
12.0
 40
12.0
 40
12.0
 40
13.0
 40
13.0
 40
13.0
 40
13.0
 10
215.7714701098
 20
29.3464656789
 30
0.0
 10
215.7714701098
 20
29.3464656789
 30
0.0
 10
215.7714701098
 20
27.208330568
 30
0.0
 10
215.7714701098
 20
27.208330568
 30
0.0
 10
215.7714701098
 20
27.208330568
 30
0.0
 10
215.9928730846
 20
27.208330568
 30
0.0
 10
215.9928730846
 20
27.208330568
 30
0.0
 10
215.9928730846
 20
27.208330568
 30
0.0
 10
215.9928730846
 20
27.7380227913
 30
0.0
 10
215.9928730846
 20
27.7380227913
 30
0.0
 10
215.9928730846
 20
27.9479107177
 30
0.0
 10
215.9928730846
 20
28.1986247246
 30
0.0
 10
216.2781322364
 20
28.1986247246
 30
0.0
 10
216.5050310297
 20
28.1986247246
 30
0.0
 10
216.5319867111
 20
28.0656782575
 30
0.0
 10
216.5319867111
 20
27.8693990246
 30
0.0
 10
216.5319867111
 20
27.8693990246
 30
0.0
 10
216.5319867111
 20
27.208330568
 30
0.0
 10
216.5319867111
 20
27.208330568
 30
0.0
 10
216.5319867111
 20
27.208330568
 30
0.0
 10
216.7539130971
 20
27.208330568
 30
0.0
 10
216.7539130971
 20
27.208330568
 30
0.0
 10
216.7539130971
 20
27.208330568
 30
0.0
 10
216.7539130971
 20
27.8955695889
 30
0.0
 10
216.7539130971
 20
27.8955695889
 30
0.0
 10
216.7539130971
 20
28.1761180392
 30
0.0
 10
216.6699055854
 20
28.3959507801
 30
0.0
 10
216.3448671757
 20
28.3959507801
 30
0.0
 10
216.2051163618
 20
28.3959507801
 30
0.0
 10
216.0669357818
 20
28.3294775466
 30
0.0
 10
215.9975837861
 20
28.2064758939
 30
0.0
 10
215.9975837861
 20
28.2064758939
 30
0.0
 10
215.9928730846
 20
28.2064758939
 30
0.0
 10
215.9928730846
 20
28.2064758939
 30
0.0
 10
215.9928730846
 20
28.2064758939
 30
0.0
 10
215.9928730846
 20
29.3464656789
 30
0.0
 10
215.9928730846
 20
29.3464656789
 30
0.0
 10
215.9928730846
 20
29.3464656789
 30
0.0
 10
215.7714701098
 20
29.3464656789
 30
0.0
 10
215.7714701098
 20
29.3464656789
 30
0.0
  0
LWPOLYLINE
  5
25A
100
AcDbEntity
  8
0
100
AcDbPolyline
 62
7
  6
CONTINUOUS
 90
2
 70
0
 43
0.2
 10
218.593703774
 20
28.1541347652
 10
218.8101343415
 20
28.1541347652
  0
LWPOLYLINE
  5
25B
100
AcDbEntity
  8
0
100
AcDbPolyline
 62
7
  6
CONTINUOUS
 90
2
 70
0
 43
0.2
 10
218.8101343415
 20
28.1541347652
 10
218.8101343415
 20
28.3608822239
  0
LWPOLYLINE
  5
25C
100
AcDbEntity
  8
0
100
AcDbPolyline
 62
7
  6
CONTINUOUS
 90
2
 70
0
 43
0.2
 10
218.8101343415
 20
28.3608822239
 10
218.593703774
 20
28.3608822239
  0
LWPOLYLINE
  5
25D
100
AcDbEntity
  8
0
100
AcDbPolyline
 62
7
  6
CONTINUOUS
 90
2
 70
0
 43
0.2
 10
218.593703774
 20
28.3608822239
 10
218.593703774
 20
28.8015945282
  0
LWPOLYLINE
  5
25E
100
AcDbEntity
  8
0
100
AcDbPolyline
 62
7
  6
CONTINUOUS
 90
2
 70
0
 43
0.2
 10
218.593703774
 20
28.8015945282
 10
218.3720390936
 20
28.8015945282
  0
LWPOLYLINE
  5
25F
100
AcDbEntity
  8
0
100
AcDbPolyline
 62
7
  6
CONTINUOUS
 90
2
 70
0
 43
0.2
 10
218.3720390936
 20
28.8015945282
 10
218.3720390936
 20
28.3608822239
  0
LWPOLYLINE
  5
260
100
AcDbEntity
  8
0
100
AcDbPolyline
 62
7
  6
CONTINUOUS
 90
2
 70
0
 43
0.2
 10
218.3720390936
 20
28.3608822239
 10
218.2513927917
 20
28.3608822239
  0
LWPOLYLINE
  5
261
100
AcDbEntity
  8
0
100
AcDbPolyline
 62
7
  6
CONTINUOUS
 90
2
 70
0
 43
0.2
 10
218.2513927917
 20
28.3608822239
 10
218.2513927917
 20
28.1541347652
  0
LWPOLYLINE
  5
262
100
AcDbEntity
  8
0
100
AcDbPolyline
 62
7
  6
CONTINUOUS
 90
2
 70
0
 43
0.2
 10
218.2513927917
 20
28.1541347652
 10
218.3720390936
 20
28.1541347652
  0
LWPOLYLINE
  5
263
100
AcDbEntity
  8
0
100
AcDbPolyline
 62
7
  6
CONTINUOUS
 90
2
 70
0
 43
0.2
 10
218.3720390936
 20
28.1541347652
 10
218.3720390936
 20
27.208330568
  0
LWPOLYLINE
  5
264
100
AcDbEntity
  8
0
100
AcDbPolyline
 62
7
  6
CONTINUOUS
 90
2
 70
0
 43
0.2
 10
218.3720390936
 20
27.208330568
 10
218.593703774
 20
27.208330568
  0
LWPOLYLINE
  5
265
100
AcDbEntity
  8
0
100
AcDbPolyline
 62
7
  6
CONTINUOUS
 90
2
 70
0
 43
0.2
 10
218.593703774
 20
27.208330568
 10
218.593703774
 20
28.1541347652
  0
SPLINE
  5
266
100
AcDbEntity
  8
0
100
AcDbSpline
 62
7
  6
CONTINUOUS
 70
2
 71
3
 72
20
 73
16
 74
0
 42
0.0000001
 43
0.0000001
 44
0.0000000001
 40
0.0
 40
0.0
 40
0.0
 40
0.0
 40
1.0
 40
1.0
 40
1.0
 40
2.0
 40
2.0
 40
2.0
 40
3.0
 40
3.0
 40
3.0
 40
4.0
 40
4.0
 40
4.0
 40
5.0
 40
5.0
 40
5.0
 40
5.0
 10
206.3757140812
 20
37.5692570114
 30
0.0
 10
206.3757140812
 20
37.5692570114
 30
0.0
 10
208.6920707357
 20
34.7396955891
 30
0.0
 10
208.6920707357
 20
34.7396955891
 30
0.0
 10
208.0404236823
 20
34.0875251244
 30
0.0
 10
207.2635504783
 20
33.3516088537
 30
0.0
 10
206.2923608336
 20
33.3516088537
 30
0.0
 10
205.2938229492
 20
33.3516088537
 30
0.0
 10
204.3505049556
 20
34.281187301
 30
0.0
 10
204.3505049556
 20
35.2803794495
 30
0.0
 10
204.3505049556
 20
36.279571598
 30
0.0
 10
205.5293580287
 20
36.9861768367
 30
0.0
 10
206.2508804891
 20
37.4860346166
 30
0.0
 10
206.2508804891
 20
37.4860346166
 30
0.0
 10
206.3757140812
 20
37.5692570114
 30
0.0
 10
206.3757140812
 20
37.5692570114
 30
0.0
  0
SPLINE
  5
267
100
AcDbEntity
  8
0
100
AcDbSpline
 62
7
  6
CONTINUOUS
 70
2
 71
3
 72
23
 73
19
 74
0
 42
0.0000001
 43
0.0000001
 44
0.0000000001
 40
0.0
 40
0.0
 40
0.0
 40
0.0
 40
1.0
 40
1.0
 40
1.0
 40
2.0
 40
2.0
 40
2.0
 40
3.0
 40
3.0
 40
3.0
 40
4.0
 40
4.0
 40
4.0
 40
5.0
 40
5.0
 40
5.0
 40
6.0
 40
6.0
 40
6.0
 40
6.0
 10
206.6531220638
 20
39.2070109311
 30
0.0
 10
206.6531220638
 20
39.2070109311
 30
0.0
 10
206.3066237912
 20
39.6503402919
 30
0.0
 10
206.3066237912
 20
39.6503402919
 30
0.0
 10
206.0008207463
 20
40.0384497619
 30
0.0
 10
205.6819324192
 20
40.4269517903
 30
0.0
 10
205.6819324192
 20
40.9538961044
 30
0.0
 10
205.6819324192
 20
41.620067821
 30
0.0
 10
206.2232705436
 20
42.0637897403
 30
0.0
 10
206.8471767988
 20
42.0637897403
 30
0.0
 10
207.5409584609
 20
42.0637897403
 30
0.0
 10
208.0681644806
 20
41.6615481656
 30
0.0
 10
208.0681644806
 20
40.9265478646
 30
0.0
 10
208.0681644806
 20
40.163283354
 30
0.0
 10
207.3469037259
 20
39.7331701282
 30
0.0
 10
206.819828559
 20
39.3174507128
 30
0.0
 10
206.819828559
 20
39.3174507128
 30
0.0
 10
206.6531220638
 20
39.2070109311
 30
0.0
 10
206.6531220638
 20
39.2070109311
 30
0.0
  0
SPLINE
  5
268
100
AcDbEntity
  8
0
100
AcDbSpline
 62
7
  6
CONTINUOUS
 70
2
 71
3
 72
50
 73
46
 74
0
 42
0.0000001
 43
0.0000001
 44
0.0000000001
 40
0.0
 40
0.0
 40
0.0
 40
0.0
 40
1.0
 40
1.0
 40
1.0
 40
2.0
 40
2.0
 40
2.0
 40
3.0
 40
3.0
 40
3.0
 40
4.0
 40
4.0
 40
4.0
 40
5.0
 40
5.0
 40
5.0
 40
6.0
 40
6.0
 40
6.0
 40
7.0
 40
7.0
 40
7.0
 40
8.0
 40
8.0
 40
8.0
 40
9.0
 40
9.0
 40
9.0
 40
10.0
 40
10.0
 40
10.0
 40
11.0
 40
11.0
 40
11.0
 40
12.0
 40
12.0
 40
12.0
 40
13.0
 40
13.0
 40
13.0
 40
14.0
 40
14.0
 40
14.0
 40
15.0
 40
15.0
 40
15.0
 40
15.0
 10
210.6067092267
 20
32.408421713
 30
0.0
 10
210.6067092267
 20
32.408421713
 30
0.0
 10
212.2159372313
 20
32.408421713
 30
0.0
 10
212.2159372313
 20
32.408421713
 30
0.0
 10
212.2159372313
 20
32.408421713
 30
0.0
 10
210.3429099376
 20
34.7255634844
 30
0.0
 10
210.3429099376
 20
34.7255634844
 30
0.0
 10
210.3429099376
 20
34.7255634844
 30
0.0
 10
211.6192483631
 20
36.223043179
 30
0.0
 10
211.6192483631
 20
36.223043179
 30
0.0
 10
211.6192483631
 20
36.223043179
 30
0.0
 10
210.7870244154
 20
37.0840547475
 30
0.0
 10
210.7870244154
 20
37.0840547475
 30
0.0
 10
210.7870244154
 20
37.0840547475
 30
0.0
 10
209.5664292921
 20
35.6687506251
 30
0.0
 10
209.5664292921
 20
35.6687506251
 30
0.0
 10
209.5664292921
 20
35.6687506251
 30
0.0
 10
207.3885149233
 20
38.3041264595
 30
0.0
 10
207.3885149233
 20
38.3041264595
 30
0.0
 10
208.2620883627
 20
38.9421648194
 30
0.0
 10
209.2887596039
 20
39.7331701282
 30
0.0
 10
209.2887596039
 20
40.9120232013
 30
0.0
 10
209.2887596039
 20
42.2857161264
 30
0.0
 10
208.150863464
 20
43.0901992758
 30
0.0
 10
206.8755718611
 20
43.0901992758
 30
0.0
 10
205.5021406418
 20
43.0901992758
 30
0.0
 10
204.461206443
 20
42.2439740762
 30
0.0
 10
204.461206443
 20
40.801321714
 30
0.0
 10
204.461206443
 20
39.9137470226
 30
0.0
 10
205.0165458195
 20
39.1368738185
 30
0.0
 10
205.6127112763
 20
38.5124441521
 30
0.0
 10
205.6127112763
 20
38.5124441521
 30
0.0
 10
204.9608025173
 20
38.0408505817
 30
0.0
 10
204.9608025173
 20
38.0408505817
 30
0.0
 10
203.9622646329
 20
37.319589827
 30
0.0
 10
203.129386421
 20
36.5983290724
 30
0.0
 10
203.129386421
 20
35.266770756
 30
0.0
 10
203.129386421
 20
33.463095458
 30
0.0
 10
204.5864325936
 20
32.1864953269
 30
0.0
 10
206.333972031
 20
32.1864953269
 30
0.0
 10
207.5688301119
 20
32.1864953269
 30
0.0
 10
208.6782003366
 20
32.8946707994
 30
0.0
 10
209.4690747925
 20
33.8232024241
 30
0.0
 10
209.4690747925
 20
33.8232024241
 30
0.0
 10
210.6067092267
 20
32.408421713
 30
0.0
 10
210.6067092267
 20
32.408421713
 30
0.0
  0
LINE
  5
269
100
AcDbEntity
  8
0
100
AcDbLine
 62
7
  6
CONTINUOUS
 10
196.4095706017
 20
30.3822966176
 11
218.8234813294
 21
30.3822966176
  0
LINE
  5
26A
100
AcDbEntity
  8
0
100
AcDbLine
 62
7
  6
CONTINUOUS
 10
218.8234813294
 20
30.3822966176
 11
218.8234813294
 21
52.7962073453
  0
LINE
  5
26B
100
AcDbEntity
  8
0
100
AcDbLine
 62
7
  6
CONTINUOUS
 10
218.8234813294
 20
52.7962073453
 11
196.4095706017
 21
52.7962073453
  0
LINE
  5
26C
100
AcDbEntity
  8
0
100
AcDbLine
 62
7
  6
CONTINUOUS
 10
196.4095706017
 20
52.7962073453
 11
196.4095706017
 21
30.3822966176
  0
ENDBLK
  5
26D
100
AcDbEntity
  8
0
  6
BYBLOCK
 62
0
100
AcDbBlockEnd
  0
BLOCK
  5
26E
100
AcDbEntity
  8
0
100
AcDbBlockBegin
  2
_CLOSED
 70
64
 10
0.0
 20
0.0
  3
_CLOSED
  1

  0
LINE
  5
26F
100
AcDbEntity
  8
0
  6
BYBLOCK
 62
0
100
AcDbLine
 10
0.0
 20
0.0
 11
-1.0
 21
0.2
  0
LINE
  5
270
100
AcDbEntity
  8
0
  6
BYBLOCK
 62
0
100
AcDbLine
 10
-1.0
 20
0.2
 11
-1.0
 21
-0.2
  0
LINE
  5
271
100
AcDbEntity
  8
0
  6
BYBLOCK
 62
0
100
AcDbLine
 10
-1.0
 20
-0.2
 11
0.0
 21
0.0
  0
LINE
  5
272
100
AcDbEntity
  8
0
  6
BYBLOCK
 62
0
100
AcDbLine
 10
-1.0
 20
0.0
 11
0.0
 21
0.0
  0
ENDBLK
  5
273
100
AcDbEntity
  8
0
  6
BYBLOCK
 62
0
100
AcDbBlockEnd
  0
BLOCK
  5
274
100
AcDbEntity
  8
0
100
AcDbBlockBegin
 62
2
  6
CONTINUOUS
  2
*D0
 70
65
 10
0.0
 20
0.0
  3
*D0
  1

  0
MTEXT
  5
275
100
AcDbEntity
  8
0
100
AcDbMText
 62
2
  6
CONTINUOUS
  7
TEXTSTYLE_2
 71
2
 72
1
 10
68.8036181783
 20
42.022096431
 30
0.0
 11
1.0
 21
0.0
 31
0.0
  1
{\Fgdt;n}\Farial.ttf;20
 40
3.0
 41
8.6617100372
  0
LINE
  5
276
100
AcDbEntity
  8
0
100
AcDbLine
 62
2
  6
CONTINUOUS
 10
58.8036685191
 20
43.9790909437
 11
58.8036685191
 21
37.522096431
  0
LINE
  5
277
100
AcDbEntity
  8
0
100
AcDbLine
 62
2
  6
CONTINUOUS
 10
78.8035678375
 20
44.2296157008
 11
78.8035678375
 21
37.522096431
  0
LINE
  5
278
100
AcDbEntity
  8
0
100
AcDbLine
 62
2
  6
CONTINUOUS
 10
58.8036685191
 20
38.272096431
 11
68.8036181783
 21
38.272096431
  0
LINE
  5
279
100
AcDbEntity
  8
0
100
AcDbLine
 62
2
  6
CONTINUOUS
 10
78.8035678375
 20
38.272096431
 11
68.8036181783
 21
38.272096431
  0
INSERT
  5
27A
100
AcDbEntity
  8
0
100
AcDbBlockReference
 62
2
  6
CONTINUOUS
  2
_CLOSED
 10
58.8036685191
 20
38.272096431
 41
2.5
 42
2.5
 43
2.5
 50
180.0
  0
INSERT
  5
27B
100
AcDbEntity
  8
0
100
AcDbBlockReference
 62
2
  6
CONTINUOUS
  2
_CLOSED
 10
78.8035678375
 20
38.272096431
 41
2.5
 42
2.5
 43
2.5
  0
ENDBLK
  5
27C
100
AcDbEntity
  8
0
  6
BYBLOCK
 62
0
100
AcDbBlockEnd
  0
BLOCK
  5
27D
100
AcDbEntity
  8
0
100
AcDbBlockBegin
 62
2
  6
CONTINUOUS
  2
*D1
 70
65
 10
0.0
 20
0.0
  3
*D1
  1

  0
MTEXT
  5
27E
100
AcDbEntity
  8
0
100
AcDbMText
 62
2
  6
CONTINUOUS
  7
STANDARD
 71
2
 72
1
 10
112.2283794392
 20
68.5031433398
 30
0.0
 11
0.0
 21
1.0
 31
0.0
  1
19
 40
3.0
 41
4.6617100372
  0
LINE
  5
27F
100
AcDbEntity
  8
0
100
AcDbLine
 62
2
  6
CONTINUOUS
 10
108.154441535
 20
59.0031433398
 11
116.7283794392
 21
59.0031433398
  0
LINE
  5
280
100
AcDbEntity
  8
0
100
AcDbLine
 62
2
  6
CONTINUOUS
 10
107.6041157508
 20
78.0031433398
 11
116.7283794392
 21
78.0031433398
  0
LINE
  5
281
100
AcDbEntity
  8
0
100
AcDbLine
 62
2
  6
CONTINUOUS
 10
115.9783794392
 20
59.0031433398
 11
115.9783794392
 21
68.5031433398
  0
LINE
  5
282
100
AcDbEntity
  8
0
100
AcDbLine
 62
2
  6
CONTINUOUS
 10
115.9783794392
 20
78.0031433398
 11
115.9783794392
 21
68.5031433398
  0
INSERT
  5
283
100
AcDbEntity
  8
0
100
AcDbBlockReference
 62
2
  6
CONTINUOUS
  2
_CLOSED
 10
115.9783794392
 20
59.0031433398
 41
2.5
 42
2.5
 43
2.5
 50
270.0
  0
INSERT
  5
284
100
AcDbEntity
  8
0
100
AcDbBlockReference
 62
2
  6
CONTINUOUS
  2
_CLOSED
 10
115.9783794392
 20
78.0031433398
 41
2.5
 42
2.5
 43
2.5
 50
90.0
  0
ENDBLK
  5
285
100
AcDbEntity
  8
0
  6
BYBLOCK
 62
0
100
AcDbBlockEnd
  0
BLOCK
  5
286
100
AcDbEntity
  8
0
100
AcDbBlockBegin
 62
2
  6
CONTINUOUS
  2
*D2
 70
65
 10
0.0
 20
0.0
  3
*D2
  1

  0
MTEXT
  5
287
100
AcDbEntity
  8
0
100
AcDbMText
 62
2
  6
CONTINUOUS
  7
STANDARD
 71
3
 72
1
 10
112.2283794392
 20
51.6281136398
 30
0.0
 11
0.0
 21
1.0
 31
0.0
  1
3
 40
3.0
 41
2.3308550186
  0
LINE
  5
288
100
AcDbEntity
  8
0
100
AcDbLine
 62
2
  6
CONTINUOUS
 10
108.154441535
 20
59.0031433398
 11
116.7283794392
 21
59.0031433398
  0
LINE
  5
289
100
AcDbEntity
  8
0
100
AcDbLine
 62
2
  6
CONTINUOUS
 10
108.2005244926
 20
56.0031433398
 11
116.7283794392
 21
56.0031433398
  0
LINE
  5
28A
100
AcDbEntity
  8
0
100
AcDbLine
 62
2
  6
CONTINUOUS
 10
115.9783794392
 20
59.0031433398
 11
115.9783794392
 21
60.0031433398
  0
LINE
  5
28B
100
AcDbEntity
  8
0
100
AcDbLine
 62
2
  6
CONTINUOUS
 10
115.9783794392
 20
60.0031433398
 11
115.9783794392
 21
57.5031433398
  0
LINE
  5
28C
100
AcDbEntity
  8
0
100
AcDbLine
 62
2
  6
CONTINUOUS
 10
115.9783794392
 20
56.0031433398
 11
115.9783794392
 21
49.2972586213
  0
LINE
  5
28D
100
AcDbEntity
  8
0
100
AcDbLine
 62
2
  6
CONTINUOUS
 10
115.9783794392
 20
49.2972586213
 11
115.9783794392
 21
57.5031433398
  0
INSERT
  5
28E
100
AcDbEntity
  8
0
100
AcDbBlockReference
 62
2
  6
CONTINUOUS
  2
_CLOSED
 10
115.9783794392
 20
59.0031433398
 41
2.5
 42
2.5
 43
2.5
 50
270.0
  0
INSERT
  5
28F
100
AcDbEntity
  8
0
100
AcDbBlockReference
 62
2
  6
CONTINUOUS
  2
_CLOSED
 10
115.9783794392
 20
56.0031433398
 41
2.5
 42
2.5
 43
2.5
 50
90.0
  0
ENDBLK
  5
290
100
AcDbEntity
  8
0
  6
BYBLOCK
 62
0
100
AcDbBlockEnd
  0
BLOCK
  5
291
100
AcDbEntity
  8
0
100
AcDbBlockBegin
 62
2
  6
CONTINUOUS
  2
*D3
 70
65
 10
0.0
 20
0.0
  3
*D3
  1

  0
MTEXT
  5
292
100
AcDbEntity
  8
0
100
AcDbMText
 62
2
  6
CONTINUOUS
  7
TEXTSTYLE_2
 71
1
 72
1
 10
88.5904135473
 20
174.5186199777
 30
0.0
 11
0.5905857736
 21
0.806974872
 31
0.0
  1
{\Fgdt;n}\Farial.ttf;54,6
 40
3.0
 41
12.1524163569
  0
LINE
  5
293
100
AcDbEntity
  8
0
100
AcDbLine
 62
2
  6
CONTINUOUS
 10
84.9012869475
 20
163.1281788829
 11
98.7936135325
 21
182.1106179606
  0
INSERT
  5
294
100
AcDbEntity
  8
0
100
AcDbBlockReference
 62
2
  6
CONTINUOUS
  2
_CLOSED
 10
84.9012869475
 20
163.1281788829
 41
2.5
 42
2.5
 43
2.5
 50
233.8014125019
  0
ENDBLK
  5
295
100
AcDbEntity
  8
0
  6
BYBLOCK
 62
0
100
AcDbBlockEnd
  0
BLOCK
  5
296
100
AcDbEntity
  8
0
100
AcDbBlockBegin
 62
2
  6
CONTINUOUS
  2
*D4
 70
65
 10
0.0
 20
0.0
  3
*D4
  1

  0
MTEXT
  5
297
100
AcDbEntity
  8
0
100
AcDbMText
 62
2
  6
CONTINUOUS
  7
STANDARD
 71
2
 72
1
 10
119.5970730069
 20
67.0031433398
 30
0.0
 11
0.0
 21
1.0
 31
0.0
  1
22
 40
3.0
 41
4.6617100372
  0
LINE
  5
298
100
AcDbEntity
  8
0
100
AcDbLine
 62
2
  6
CONTINUOUS
 10
108.2005244926
 20
56.0031433398
 11
124.0970730069
 21
56.0031433398
  0
LINE
  5
299
100
AcDbEntity
  8
0
100
AcDbLine
 62
2
  6
CONTINUOUS
 10
107.8781354171
 20
78.0031433398
 11
124.0970730069
 21
78.0031433398
  0
LINE
  5
29A
100
AcDbEntity
  8
0
100
AcDbLine
 62
2
  6
CONTINUOUS
 10
123.3470730069
 20
56.0031433398
 11
123.3470730069
 21
67.0031433398
  0
LINE
  5
29B
100
AcDbEntity
  8
0
100
AcDbLine
 62
2
  6
CONTINUOUS
 10
123.3470730069
 20
78.0031433398
 11
123.3470730069
 21
67.0031433398
  0
INSERT
  5
29C
100
AcDbEntity
  8
0
100
AcDbBlockReference
 62
2
  6
CONTINUOUS
  2
_CLOSED
 10
123.3470730069
 20
56.0031433398
 41
2.5
 42
2.5
 43
2.5
 50
270.0
  0
INSERT
  5
29D
100
AcDbEntity
  8
0
100
AcDbBlockReference
 62
2
  6
CONTINUOUS
  2
_CLOSED
 10
123.3470730069
 20
78.0031433398
 41
2.5
 42
2.5
 43
2.5
 50
90.0
  0
ENDBLK
  5
29E
100
AcDbEntity
  8
0
  6
BYBLOCK
 62
0
100
AcDbBlockEnd
  0
BLOCK
  5
29F
100
AcDbEntity
  8
0
100
AcDbBlockBegin
 62
2
  6
CONTINUOUS
  2
*D5
 70
65
 10
0.0
 20
0.0
  3
*D5
  1

  0
MTEXT
  5
2A0
100
AcDbEntity
  8
0
100
AcDbMText
 62
2
  6
CONTINUOUS
  7
STANDARD
 71
2
 72
1
 10
152.7849677957
 20
180.995489442
 30
0.0
 11
1.0
 21
0.0
 31
0.0
  1
22
 40
3.0
 41
4.6617100372
  0
LINE
  5
2A1
100
AcDbEntity
  8
0
100
AcDbLine
 62
2
  6
CONTINUOUS
 10
141.7849677957
 20
171.4300078765
 11
141.7849677957
 21
177.995489442
  0
LINE
  5
2A2
100
AcDbEntity
  8
0
100
AcDbLine
 62
2
  6
CONTINUOUS
 10
163.7849677957
 20
171.7403122919
 11
163.7849677957
 21
177.995489442
  0
LINE
  5
2A3
100
AcDbEntity
  8
0
100
AcDbLine
 62
2
  6
CONTINUOUS
 10
141.7849677957
 20
177.245489442
 11
152.7849677957
 21
177.245489442
  0
LINE
  5
2A4
100
AcDbEntity
  8
0
100
AcDbLine
 62
2
  6
CONTINUOUS
 10
163.7849677957
 20
177.245489442
 11
152.7849677957
 21
177.245489442
  0
INSERT
  5
2A5
100
AcDbEntity
  8
0
100
AcDbBlockReference
 62
2
  6
CONTINUOUS
  2
_CLOSED
 10
141.7849677957
 20
177.245489442
 41
2.5
 42
2.5
 43
2.5
 50
180.0
  0
INSERT
  5
2A6
100
AcDbEntity
  8
0
100
AcDbBlockReference
 62
2
  6
CONTINUOUS
  2
_CLOSED
 10
163.7849677957
 20
177.245489442
 41
2.5
 42
2.5
 43
2.5
  0
ENDBLK
  5
2A7
100
AcDbEntity
  8
0
  6
BYBLOCK
 62
0
100
AcDbBlockEnd
  0
BLOCK
  5
2A8
100
AcDbEntity
  8
0
100
AcDbBlockBegin
 62
2
  6
CONTINUOUS
  2
*D6
 70
65
 10
0.0
 20
0.0
  3
*D6
  1

  0
MTEXT
  5
2A9
100
AcDbEntity
  8
0
100
AcDbMText
 62
2
  6
CONTINUOUS
  7
STANDARD
 71
1
 72
1
 10
172.6529765499
 20
180.995489442
 30
0.0
 11
1.0
 21
0.0
 31
0.0
  1
4,49
 40
3.0
 41
8.1524163569
  0
LINE
  5
2AA
100
AcDbEntity
  8
0
100
AcDbLine
 62
2
  6
CONTINUOUS
 10
163.7849677957
 20
171.7403122919
 11
163.7849677957
 21
177.995489442
  0
LINE
  5
2AB
100
AcDbEntity
  8
0
100
AcDbLine
 62
2
  6
CONTINUOUS
 10
168.2779468499
 20
171.9504012613
 11
168.2779468499
 21
177.995489442
  0
LINE
  5
2AC
100
AcDbEntity
  8
0
100
AcDbLine
 62
2
  6
CONTINUOUS
 10
163.7849677957
 20
177.245489442
 11
162.7849677957
 21
177.245489442
  0
LINE
  5
2AD
100
AcDbEntity
  8
0
100
AcDbLine
 62
2
  6
CONTINUOUS
 10
162.7849677957
 20
177.245489442
 11
166.0314573228
 21
177.245489442
  0
LINE
  5
2AE
100
AcDbEntity
  8
0
100
AcDbLine
 62
2
  6
CONTINUOUS
 10
168.2779468499
 20
177.245489442
 11
180.8053929068
 21
177.245489442
  0
LINE
  5
2AF
100
AcDbEntity
  8
0
100
AcDbLine
 62
2
  6
CONTINUOUS
 10
180.8053929068
 20
177.245489442
 11
166.0314573228
 21
177.245489442
  0
INSERT
  5
2B0
100
AcDbEntity
  8
0
100
AcDbBlockReference
 62
2
  6
CONTINUOUS
  2
_CLOSED
 10
163.7849677957
 20
177.245489442
 41
2.5
 42
2.5
 43
2.5
  0
INSERT
  5
2B1
100
AcDbEntity
  8
0
100
AcDbBlockReference
 62
2
  6
CONTINUOUS
  2
_CLOSED
 10
168.2779468499
 20
177.245489442
 41
2.5
 42
2.5
 43
2.5
 50
180.0
  0
ENDBLK
  5
2B2
100
AcDbEntity
  8
0
  6
BYBLOCK
 62
0
100
AcDbBlockEnd
  0
BLOCK
  5
2B3
100
AcDbEntity
  8
0
100
AcDbBlockBegin
 62
2
  6
CONTINUOUS
  2
*D7
 70
65
 10
0.0
 20
0.0
  3
*D7
  1

  0
MTEXT
  5
2B4
100
AcDbEntity
  8
0
100
AcDbMText
 62
2
  6
CONTINUOUS
  7
STANDARD
 71
2
 72
1
 10
155.0314573228
 20
188.9462207247
 30
0.0
 11
1.0
 21
0.0
 31
0.0
  1
26,49
 40
3.0
 41
10.4832713755
  0
LINE
  5
2B5
100
AcDbEntity
  8
0
100
AcDbLine
 62
2
  6
CONTINUOUS
 10
141.7849677957
 20
171.8826791003
 11
141.7849677957
 21
185.9462207247
  0
LINE
  5
2B6
100
AcDbEntity
  8
0
100
AcDbLine
 62
2
  6
CONTINUOUS
 10
168.2779468499
 20
171.7240656494
 11
168.2779468499
 21
185.9462207247
  0
LINE
  5
2B7
100
AcDbEntity
  8
0
100
AcDbLine
 62
2
  6
CONTINUOUS
 10
141.7849677957
 20
185.1962207247
 11
155.0314573228
 21
185.1962207247
  0
LINE
  5
2B8
100
AcDbEntity
  8
0
100
AcDbLine
 62
2
  6
CONTINUOUS
 10
168.2779468499
 20
185.1962207247
 11
155.0314573228
 21
185.1962207247
  0
INSERT
  5
2B9
100
AcDbEntity
  8
0
100
AcDbBlockReference
 62
2
  6
CONTINUOUS
  2
_CLOSED
 10
141.7849677957
 20
185.1962207247
 41
2.5
 42
2.5
 43
2.5
 50
180.0
  0
INSERT
  5
2BA
100
AcDbEntity
  8
0
100
AcDbBlockReference
 62
2
  6
CONTINUOUS
  2
_CLOSED
 10
168.2779468499
 20
185.1962207247
 41
2.5
 42
2.5
 43
2.5
  0
ENDBLK
  5
2BB
100
AcDbEntity
  8
0
  6
BYBLOCK
 62
0
100
AcDbBlockEnd
  0
ENDSEC
  0
SECTION
  2
ENTITIES
  0
DIMENSION
  5
2BC
100
AcDbEntity
  8
0
100
AcDbDimension
 62
2
  6
CONTINUOUS
  2
*D0
 10
78.8035678375
 20
38.272096431
 11
68.8036181783
 21
38.272096431
 70
160
  1
%%c<>
  3
DIMSTYLE_1
100
AcDbAlignedDimension
 13
58.8036685191
 23
44.7290909437
 14
78.8035678375
 24
44.9796157008
100
AcDbRotatedDimension
  0
DIMENSION
  5
2BD
100
AcDbEntity
  8
0
100
AcDbDimension
 62
2
  6
CONTINUOUS
  2
*D1
 10
115.9783794392
 20
78.0031433398
 11
115.9783794392
 21
68.6345004043
 70
160
  3
DIMSTYLE_1
100
AcDbAlignedDimension
 13
107.404441535
 23
59.0031433398
 14
106.8541157508
 24
78.0031433398
 50
90.0
100
AcDbRotatedDimension
  0
DIMENSION
  5
2BE
100
AcDbEntity
  8
0
100
AcDbDimension
 62
2
  6
CONTINUOUS
  2
*D2
 10
115.9783794392
 20
56.0031433398
 11
115.9783794392
 21
50.4626879284
 70
160
  3
DIMSTYLE_2
100
AcDbAlignedDimension
 13
107.404441535
 23
59.0031433398
 14
107.4505244926
 24
56.0031433398
 50
270.0
100
AcDbRotatedDimension
  0
DIMENSION
  5
2BF
100
AcDbEntity
  8
0
100
AcDbDimension
 62
2
  6
CONTINUOUS
  2
*D3
 10
84.9012869475
 20
163.1281788829
 11
93.3893979629
 21
178.5360886343
 70
163
  1
%%c<>
  3
DIMSTYLE_3
100
AcDbDiametricDimension
 15
52.6553037088
 25
119.0673508724
  0
DIMENSION
  5
2C0
100
AcDbEntity
  8
0
100
AcDbDimension
 62
2
  6
CONTINUOUS
  2
*D4
 10
123.3470730069
 20
78.0031433398
 11
123.3470730069
 21
66.950486814
 70
160
  3
DIMSTYLE_1
100
AcDbAlignedDimension
 13
107.4505244926
 23
56.0031433398
 14
107.1281354171
 24
78.0031433398
 50
90.0
100
AcDbRotatedDimension
  0
DIMENSION
  5
2C1
100
AcDbEntity
  8
0
100
AcDbDimension
 62
2
  6
CONTINUOUS
  2
*D5
 10
163.7849677957
 20
177.245489442
 11
152.732313446
 21
177.245489442
 70
160
  3
DIMSTYLE_1
100
AcDbAlignedDimension
 13
141.7849677957
 23
170.6800078765
 14
163.7849677957
 24
170.9903122919
100
AcDbRotatedDimension
  0
DIMENSION
  5
2C2
100
AcDbEntity
  8
0
100
AcDbDimension
 62
2
  6
CONTINUOUS
  2
*D6
 10
168.2779468499
 20
177.245489442
 11
176.6527956848
 21
177.245489442
 70
160
  3
DIMSTYLE_2
100
AcDbAlignedDimension
 13
163.7849677957
 23
170.9903122919
 14
168.2779468499
 24
171.2004012613
100
AcDbRotatedDimension
  0
DIMENSION
  5
2C3
100
AcDbEntity
  8
0
100
AcDbDimension
 62
2
  6
CONTINUOUS
  2
*D7
 10
168.2779468499
 20
185.1962207247
 11
154.9916316376
 21
185.1962207247
 70
160
  3
DIMSTYLE_1
100
AcDbAlignedDimension
 13
141.7849677957
 23
171.1326791003
 14
168.2779468499
 24
170.9740656494
100
AcDbRotatedDimension
  0
LINE
  5
2C4
100
AcDbEntity
  8
0
100
AcDbLine
 62
2
  6
CONTINUOUS
 10
193.7904134944
 20
53.1725198453
 11
283.7904134944
 21
53.1725198453
  0
LINE
  5
2C5
100
AcDbEntity
  8
0
100
AcDbLine
 62
2
  6
CONTINUOUS
 10
193.7904134944
 20
53.1725198453
 11
193.7904134944
 21
13.1725198453
  0
LINE
  5
2C6
100
AcDbEntity
  8
0
100
AcDbLine
 62
2
  6
CONTINUOUS
 10
223.7904134944
 20
47.1725198453
 11
283.7904134944
 21
47.1725198453
  0
LINE
  5
2C7
100
AcDbEntity
  8
0
100
AcDbLine
 62
2
  6
CONTINUOUS
 10
223.7904134944
 20
41.1725198453
 11
283.7904134944
 21
41.1725198453
  0
LINE
  5
2C8
100
AcDbEntity
  8
0
100
AcDbLine
 62
2
  6
CONTINUOUS
 10
223.7904134944
 20
31.1725198453
 11
283.7904134944
 21
31.1725198453
  0
LINE
  5
2C9
100
AcDbEntity
  8
0
100
AcDbLine
 62
2
  6
CONTINUOUS
 10
193.7904134944
 20
26.1725198453
 11
283.7904134944
 21
26.1725198453
  0
LINE
  5
2CA
100
AcDbEntity
  8
0
100
AcDbLine
 62
2
  6
CONTINUOUS
 10
193.7904134944
 20
13.1725198453
 11
283.7904134944
 21
13.1725198453
  0
LINE
  5
2CB
100
AcDbEntity
  8
0
100
AcDbLine
 62
2
  6
CONTINUOUS
 10
223.7904134944
 20
53.1725198453
 11
223.7904134944
 21
26.1725198453
  0
LINE
  5
2CC
100
AcDbEntity
  8
0
100
AcDbLine
 62
2
  6
CONTINUOUS
 10
263.7904134944
 20
53.1725198453
 11
263.7904134944
 21
41.1725198453
  0
LINE
  5
2CD
100
AcDbEntity
  8
0
100
AcDbLine
 62
2
  6
CONTINUOUS
 10
283.7904134944
 20
53.1725198453
 11
283.7904134944
 21
13.1725198453
  0
INSERT
  5
2CE
100
AcDbEntity
  8
0
100
AcDbBlockReference
 62
2
  6
CONTINUOUS
  2
LOGO2_BL0
 10
207.6164605391
 20
39.6725198453
  0
MTEXT
  5
2CF
100
AcDbEntity
  8
9_SOLID
100
AcDbMText
 62
2
  6
CONTINUOUS
  7
TEXTSTYLE_3
 71
1
 72
1
 10
225.2779134944
 20
51.6725198453
 30
0.0
 11
1.0
 21
0.0
 31
0.0
  1
1H6_C_001
 40
3.0
 41
30.9642857143
  0
MTEXT
  5
2D0
100
AcDbEntity
  8
0
100
AcDbMText
 62
2
  6
CONTINUOUS
  7
TEXTSTYLE_3
 71
1
 72
1
 10
265.2779134944
 20
51.9225198453
 30
0.0
 11
1.0
 21
0.0
 31
0.0
  1
Rev:01
 40
3.5
 41
21.625
  0
MTEXT
  5
2D1
100
AcDbEntity
  8
9_SOLID
100
AcDbMText
 62
2
  6
CONTINUOUS
  7
TEXTSTYLE_3
 71
1
 72
1
 10
225.2779134944
 20
45.4225198453
 30
0.0
 11
1.0
 21
0.0
 31
0.0
  1
Scale:1:1
 40
3.5
 41
28.375
  0
MTEXT
  5
2D2
100
AcDbEntity
  8
9_SOLID
100
AcDbMText
 62
2
  6
CONTINUOUS
  7
TEXTSTYLE_3
 71
1
 72
1
 10
265.2779134944
 20
45.9225198453
 30
0.0
 11
1.0
 21
0.0
 31
0.0
  1
A4
 40
3.5
 41
9.625
  0
MTEXT
  5
2D3
100
AcDbEntity
  8
0
100
AcDbMText
 62
2
  6
CONTINUOUS
  7
TEXTSTYLE_3
 71
1
 72
1
 10
225.2779134944
 20
37.9225198453
 30
0.0
 11
1.0
 21
0.0
 31
0.0
  1
CIAK 1.0 - CIAK 1.6
 40
3.5
 41
74.25
  0
MTEXT
  5
2D4
100
AcDbEntity
  8
0
100
AcDbMText
 62
2
  6
CONTINUOUS
  7
TEXTSTYLE_3
 71
1
 72
1
 10
225.2779134944
 20
29.9225198453
 30
0.0
 11
1.0
 21
0.0
 31
0.0
  1
DATE:27/04/2018
 40
2.5
 41
43.0357142857
  0
MTEXT
  5
2D5
100
AcDbEntity
  8
9_SOLID
100
AcDbMText
 62
2
  6
CONTINUOUS
  7
TEXTSTYLE_3
 71
1
 72
1
 10
195.2779134944
 20
25.8600198453
 30
0.0
 11
1.0
 21
0.0
 31
0.0
  1
Any integral or partial reproductions are prohibited \Pwithout prior authorisation of L {\Ftxt.shx;\W0.190476;\H2.250000; }& L Luce & Light s.r.l., \Pin accordance with the law in force. \PAll rights reserved.
 40
2.25
 41
134.5982142857
  0
LWPOLYLINE
  5
2D6
100
AcDbEntity
  8
0
100
AcDbPolyline
 62
7
  6
CONTINUOUS
 90
2
 70
0
 43
0.100000004
 10
10.0
 20
10.0
 10
10.0
 20
200.0
  0
LWPOLYLINE
  5
2D7
100
AcDbEntity
  8
0
100
AcDbPolyline
 62
7
  6
CONTINUOUS
 90
2
 70
0
 43
0.100000004
 10
10.0
 20
10.0
 10
287.0
 20
10.0
  0
LWPOLYLINE
  5
2D8
100
AcDbEntity
  8
0
100
AcDbPolyline
 62
7
  6
CONTINUOUS
 90
2
 70
0
 43
0.100000004
 10
10.0
 20
200.0
 10
287.0
 20
200.0
  0
LWPOLYLINE
  5
2D9
100
AcDbEntity
  8
0
100
AcDbPolyline
 62
7
  6
CONTINUOUS
 90
2
 70
0
 43
0.100000004
 10
287.0
 20
10.0
 10
287.0
 20
200.0
  0
LINE
  5
2DA
100
AcDbEntity
  8
7_ALL_FEATURES
100
AcDbLine
 62
7
  6
CONTINUOUS
 10
34.2782953281
 20
164.0977648776
 11
34.2782953281
 21
164.3977648776
  0
LINE
  5
2DB
100
AcDbEntity
  8
7_ALL_FEATURES
100
AcDbLine
 62
9
  6
CONTINUOUS
 10
35.4015530346
 20
164.3977648776
 11
35.4015530346
 21
164.0977648776
  0
LINE
  5
2DC
100
AcDbEntity
  8
7_ALL_FEATURES
100
AcDbLine
 62
3
  6
CONTINUOUS
 10
103.2782945251
 20
117.7977648776
 11
83.0043832097
 21
117.7977648776
  0
LINE
  5
2DD
100
AcDbEntity
  8
7_ALL_FEATURES
100
AcDbLine
 62
7
  6
CONTINUOUS
 10
103.2782945251
 20
118.0977648776
 11
83.4844706053
 21
118.0977648776
  0
LINE
  5
2DE
100
AcDbEntity
  8
7_ALL_FEATURES
100
AcDbLine
 62
7
  6
CONTINUOUS
 10
69.7782953281
 20
120.8977648776
 11
67.7782953281
 21
120.8977648776
  0
LINE
  5
2DF
100
AcDbEntity
  8
7_ALL_FEATURES
100
AcDbLine
 62
7
  6
CONTINUOUS
 10
55.2388062307
 20
147.5440906645
 11
55.2405728674
 21
147.5477648777
  0
LINE
  5
2E0
100
AcDbEntity
  8
02___PRT_ALL_AXES
100
AcDbLine
 62
7
  6
CONTINUOUS
 10
68.7868011021
 20
126.0977648776
 11
68.74269594
 21
126.0977648776
  0
LINE
  5
2E1
100
AcDbEntity
  8
7_ALL_FEATURES
100
AcDbLine
 62
7
  6
CONTINUOUS
 10
68.7421715836
 20
126.0977666376
 11
68.737811179
 21
126.0977652936
  0
LINE
  5
2E2
100
AcDbEntity
  8
7_ALL_FEATURES
100
AcDbLine
 62
7
  6
CONTINUOUS
 10
68.7411094234
 20
126.0977648776
 11
68.7378111825
 21
126.097781273
  0
LINE
  5
2E3
100
AcDbEntity
  8
7_ALL_FEATURES
100
AcDbLine
 62
7
  6
CONTINUOUS
 10
55.2405728674
 20
134.6477648776
 11
55.2387885176
 21
134.6514686281
  0
LINE
  5
2E4
100
AcDbEntity
  8
3_ALL_AXES
100
AcDbLine
 62
7
  6
CONTINUOUS
 10
54.6782953281
 20
147.7977648776
 11
54.6782953281
 21
147.4977648776
  0
LINE
  5
2E5
100
AcDbEntity
  8
3_ALL_AXES
100
AcDbLine
 62
7
  6
CONTINUOUS
 10
54.6782953281
 20
134.3977648776
 11
54.6782953281
 21
134.6977648776
  0
LINE
  5
2E6
100
AcDbEntity
  8
7_ALL_FEATURES
100
AcDbLine
 62
9
  6
CONTINUOUS
 10
54.7782953281
 20
145.4977648776
 11
54.7782953281
 21
136.6977648776
  0
LINE
  5
2E7
100
AcDbEntity
  8
7_ALL_FEATURES
100
AcDbLine
 62
7
  6
CONTINUOUS
 10
55.5782953281
 20
145.5977648776
 11
55.5782953281
 21
145.4977648776
  0
LINE
  5
2E8
100
AcDbEntity
  8
7_ALL_FEATURES
100
AcDbLine
 62
7
  6
CONTINUOUS
 10
55.5782953281
 20
136.5977648776
 11
55.5782953281
 21
136.6977648776
  0
LINE
  5
2E9
100
AcDbEntity
  8
7_ALL_FEATURES
100
AcDbLine
 62
7
  6
CONTINUOUS
 10
69.7782953281
 20
120.8977648776
 11
69.8022644529
 21
120.8737957528
  0
LINE
  5
2EA
100
AcDbEntity
  8
7_ALL_FEATURES
100
AcDbLine
 62
7
  6
CONTINUOUS
 10
57.5782953281
 20
145.5977648776
 11
57.5782953281
 21
145.4977648776
  0
LINE
  5
2EB
100
AcDbEntity
  8
7_ALL_FEATURES
100
AcDbLine
 62
7
  6
CONTINUOUS
 10
57.5782953281
 20
136.5977648776
 11
57.5782953281
 21
136.6977648776
  0
LINE
  5
2EC
100
AcDbEntity
  8
7_ALL_FEATURES
100
AcDbLine
 62
7
  6
CONTINUOUS
 10
58.2782953281
 20
145.4977648776
 11
58.2782953281
 21
136.6977648776
  0
LINE
  5
2ED
100
AcDbEntity
  8
7_ALL_FEATURES
100
AcDbLine
 62
7
  6
CONTINUOUS
 10
58.7640056036
 20
138.5977648776
 11
58.7640056036
 21
143.5977648776
  0
LINE
  5
2EE
100
AcDbEntity
  8
02___PRT_ALL_AXES
100
AcDbLine
 62
7
  6
CONTINUOUS
 10
58.7878033529
 20
136.5977648776
 11
58.7878033529
 21
145.5977648776
  0
LINE
  5
2EF
100
AcDbEntity
  8
02___PRT_ALL_AXES
100
AcDbLine
 62
7
  6
CONTINUOUS
 10
68.7845565633
 20
133.597767815
 11
68.7829934622
 21
133.5977651516
  0
LINE
  5
2F0
100
AcDbEntity
  8
3_ALL_AXES
100
AcDbLine
 62
7
  6
CONTINUOUS
 10
55.362878977
 20
134.3977648776
 11
54.6782953281
 21
134.3977648776
  0
LINE
  5
2F1
100
AcDbEntity
  8
3_ALL_AXES
100
AcDbLine
 62
7
  6
CONTINUOUS
 10
55.2165840515
 20
134.6977648776
 11
54.6782953281
 21
134.6977648776
  0
LINE
  5
2F2
100
AcDbEntity
  8
3_ALL_AXES
100
AcDbLine
 62
7
  6
CONTINUOUS
 10
54.6782953281
 20
134.6977648776
 11
55.0459670038
 21
135.0654365533
  0
LINE
  5
2F3
100
AcDbEntity
  8
7_ALL_FEATURES
100
AcDbLine
 62
7
  6
CONTINUOUS
 10
54.4612853411
 20
136.5977648776
 11
58.7878033529
 21
136.5977648776
  0
LINE
  5
2F4
100
AcDbEntity
  8
7_ALL_FEATURES
100
AcDbLine
 62
7
  6
CONTINUOUS
 10
58.2782953281
 20
136.6977648776
 11
53.6786264576
 21
136.6977648776
  0
LINE
  5
2F5
100
AcDbEntity
  8
3_ALL_AXES
100
AcDbLine
 62
7
  6
CONTINUOUS
 10
54.6782953281
 20
147.4977648776
 11
55.0459670037
 21
147.1300932021
  0
LINE
  5
2F6
100
AcDbEntity
  8
7_ALL_FEATURES
100
AcDbLine
 62
7
  6
CONTINUOUS
 10
67.2782953281
 20
161.292059872
 11
67.2782953281
 21
161.1415040821
  0
LINE
  5
2F7
100
AcDbEntity
  8
7_ALL_FEATURES
100
AcDbLine
 62
9
  6
CONTINUOUS
 10
58.7640056036
 20
138.5977648776
 11
58.2782953281
 21
138.5977648776
  0
LINE
  5
2F8
100
AcDbEntity
  8
7_ALL_FEATURES
100
AcDbLine
 62
7
  6
CONTINUOUS
 10
70.2782953281
 20
161.292059872
 11
70.2782953281
 21
161.1415040821
  0
LINE
  5
2F9
100
AcDbEntity
  8
7_ALL_FEATURES
100
AcDbLine
 62
9
  6
CONTINUOUS
 10
58.2782953281
 20
143.5977648776
 11
58.7640056036
 21
143.5977648776
  0
LINE
  5
2FA
100
AcDbEntity
  8
7_ALL_FEATURES
100
AcDbLine
 62
7
  6
CONTINUOUS
 10
53.6786264576
 20
145.4977648776
 11
58.2782953281
 21
145.4977648776
  0
LINE
  5
2FB
100
AcDbEntity
  8
7_ALL_FEATURES
100
AcDbLine
 62
7
  6
CONTINUOUS
 10
58.7878033529
 20
145.5977648776
 11
54.4612853411
 21
145.5977648776
  0
LINE
  5
2FC
100
AcDbEntity
  8
3_ALL_AXES
100
AcDbLine
 62
7
  6
CONTINUOUS
 10
54.6782953281
 20
147.4977648776
 11
55.2165840515
 21
147.4977648776
  0
LINE
  5
2FD
100
AcDbEntity
  8
3_ALL_AXES
100
AcDbLine
 62
7
  6
CONTINUOUS
 10
54.6782953281
 20
147.7977648776
 11
55.3628894525
 21
147.7977648776
  0
LINE
  5
2FE
100
AcDbEntity
  8
02___PRT_ALL_AXES
100
AcDbLine
 62
7
  6
CONTINUOUS
 10
68.7845565279
 20
148.5977646851
 11
68.7839359693
 21
148.5977647885
  0
LINE
  5
2FF
100
AcDbEntity
  8
02___PRT_ALL_AXES
100
AcDbLine
 62
7
  6
CONTINUOUS
 10
68.7845565262
 20
148.5977566375
 11
68.7839359687
 21
148.5977598002
  0
LINE
  5
300
100
AcDbEntity
  8
7_ALL_FEATURES
100
AcDbLine
 62
7
  6
CONTINUOUS
 10
67.7782953281
 20
120.8977648776
 11
67.7543262033
 21
120.8737957528
  0
LINE
  5
301
100
AcDbEntity
  8
7_ALL_FEATURES
100
AcDbLine
 62
7
  6
CONTINUOUS
 10
68.7411094234
 20
156.0977648227
 11
68.7417488852
 21
156.0977648094
  0
LINE
  5
302
100
AcDbEntity
  8
02___PRT_ALL_AXES
100
AcDbLine
 62
7
  6
CONTINUOUS
 10
68.7868011021
 20
156.0977648776
 11
68.74269594
 21
156.0977648776
  0
LINE
  5
303
100
AcDbEntity
  8
7_ALL_FEATURES
100
AcDbLine
 62
7
  6
CONTINUOUS
 10
68.7411094234
 20
156.0977648776
 11
68.7417488851
 21
156.0977616989
  0
LINE
  5
304
100
AcDbEntity
  8
7_ALL_FEATURES
100
AcDbLine
 62
7
  6
CONTINUOUS
 10
34.2782961312
 20
164.0977648776
 11
54.0721200509
 21
164.0977648776
  0
LINE
  5
305
100
AcDbEntity
  8
7_ALL_FEATURES
100
AcDbLine
 62
3
  6
CONTINUOUS
 10
34.2782961312
 20
164.3977648776
 11
54.5522074465
 21
164.3977648776
  0
LINE
  5
306
100
AcDbEntity
  8
7_ALL_FEATURES
100
AcDbLine
 62
9
  6
CONTINUOUS
 10
102.1550376217
 20
117.7977648776
 11
102.1550376217
 21
118.0977648776
  0
LINE
  5
307
100
AcDbEntity
  8
7_ALL_FEATURES
100
AcDbLine
 62
7
  6
CONTINUOUS
 10
103.2782953281
 20
118.0977648776
 11
103.2782953281
 21
117.7977648776
  0
LINE
  5
308
100
AcDbEntity
  8
02___PRT_ALL_AXES
100
AcDbLine
 62
7
  6
CONTINUOUS
 10
41.4782953281
 20
58.5031433398
 11
41.4782953281
 21
59.0031433398
  0
LINE
  5
309
100
AcDbEntity
  8
7_ALL_FEATURES
100
AcDbLine
 62
7
  6
CONTINUOUS
 10
46.7782953281
 20
78.0031433398
 11
45.7782953281
 21
77.0031433398
  0
LINE
  5
30A
100
AcDbEntity
  8
7_ALL_FEATURES
100
AcDbLine
 62
7
  6
CONTINUOUS
 10
45.7782953281
 20
59.0031433398
 11
45.7782953281
 21
67.0507310512
  0
LINE
  5
30B
100
AcDbEntity
  8
7_ALL_FEATURES
100
AcDbLine
 62
7
  6
CONTINUOUS
 10
45.7782953281
 20
76.6127135794
 11
45.7782953281
 21
77.0031433398
  0
LINE
  5
30C
100
AcDbEntity
  8
7_ALL_FEATURES
100
AcDbLine
 62
7
  6
CONTINUOUS
 10
59.4195796143
 20
78.0122520057
 11
59.4105285701
 21
78.0031433398
  0
LINE
  5
30D
100
AcDbEntity
  8
7_ALL_FEATURES
100
AcDbLine
 62
7
  6
CONTINUOUS
 10
47.2531515919
 20
56.1168390986
 11
41.4782953281
 21
58.5031433398
  0
LINE
  5
30E
100
AcDbEntity
  8
02___PRT_ALL_AXES
100
AcDbLine
 62
7
  6
CONTINUOUS
 10
58.8036685191
 20
51.5101642856
 11
78.8035678375
 21
51.5736249505
  0
LINE
  5
30F
100
AcDbEntity
  8
02___PRT_ALL_AXES
100
AcDbLine
 62
7
  6
CONTINUOUS
 10
58.7894120754
 20
56.0031433398
 11
58.8036685191
 21
51.5101642856
  0
LINE
  5
310
100
AcDbEntity
  8
7_ALL_FEATURES
100
AcDbLine
 62
7
  6
CONTINUOUS
 10
47.8260045842
 20
56.0031433398
 11
89.7305860721
 21
56.0031433398
  0
LINE
  5
311
100
AcDbEntity
  8
7_ALL_FEATURES
100
AcDbLine
 62
9
  6
CONTINUOUS
 10
47.2531515919
 20
56.1168390986
 11
90.3034390643
 21
56.1168390986
  0
LINE
  5
312
100
AcDbEntity
  8
7_ALL_FEATURES
100
AcDbLine
 62
3
  6
CONTINUOUS
 10
35.4015530346
 20
72.1118064309
 11
60.2032657715
 21
60.0152028769
  0
LINE
  5
313
100
AcDbEntity
  8
02___PRT_ALL_AXES
100
AcDbLine
 62
7
  6
CONTINUOUS
 10
41.4782953281
 20
58.5031433398
 11
96.0782953281
 21
58.5031433398
  0
LINE
  5
314
100
AcDbEntity
  8
02___PRT_ALL_AXES
100
AcDbLine
 62
7
  6
CONTINUOUS
 10
41.4782953281
 20
59.0031433398
 11
96.0782953281
 21
59.0031433398
  0
LINE
  5
315
100
AcDbEntity
  8
7_ALL_FEATURES
100
AcDbLine
 62
7
  6
CONTINUOUS
 10
68.200945059
 20
65.5031433398
 11
67.6235947898
 21
64.5031433398
  0
LINE
  5
316
100
AcDbEntity
  8
7_ALL_FEATURES
100
AcDbLine
 62
7
  6
CONTINUOUS
 10
68.200945059
 20
63.5031433398
 11
69.3556455973
 21
63.5031433398
  0
LINE
  5
317
100
AcDbEntity
  8
7_ALL_FEATURES
100
AcDbLine
 62
7
  6
CONTINUOUS
 10
67.6235947898
 20
64.5031433398
 11
68.200945059
 21
63.5031433398
  0
LINE
  5
318
100
AcDbEntity
  8
7_ALL_FEATURES
100
AcDbLine
 62
7
  6
CONTINUOUS
 10
69.3556455973
 20
63.5031433398
 11
69.9329958665
 21
64.5031433398
  0
LINE
  5
319
100
AcDbEntity
  8
7_ALL_FEATURES
100
AcDbLine
 62
7
  6
CONTINUOUS
 10
69.3556455973
 20
65.5031433398
 11
68.200945059
 21
65.5031433398
  0
LINE
  5
31A
100
AcDbEntity
  8
7_ALL_FEATURES
100
AcDbLine
 62
7
  6
CONTINUOUS
 10
69.9329958665
 20
64.5031433398
 11
69.3556455973
 21
65.5031433398
  0
LINE
  5
31B
100
AcDbEntity
  8
7_ALL_FEATURES
100
AcDbLine
 62
3
  6
CONTINUOUS
 10
74.2782953281
 20
61.0031433398
 11
74.2782953281
 21
69.1499186644
  0
LINE
  5
31C
100
AcDbEntity
  8
02___PRT_ALL_AXES
100
AcDbLine
 62
7
  6
CONTINUOUS
 10
78.7895127576
 20
56.0031433398
 11
78.8035678375
 21
51.5736249505
  0
LINE
  5
31D
100
AcDbEntity
  8
7_ALL_FEATURES
100
AcDbLine
 62
7
  6
CONTINUOUS
 10
102.1550376217
 20
72.1118064309
 11
91.7782953281
 21
67.0507310512
  0
LINE
  5
31E
100
AcDbEntity
  8
7_ALL_FEATURES
100
AcDbLine
 62
7
  6
CONTINUOUS
 10
45.7782953281
 20
77.0031433398
 11
54.5389852391
 21
77.0031433398
  0
LINE
  5
31F
100
AcDbEntity
  8
7_ALL_FEATURES
100
AcDbLine
 62
7
  6
CONTINUOUS
 10
67.8032169562
 20
77.0031433398
 11
91.7782953281
 21
77.0031433398
  0
LINE
  5
320
100
AcDbEntity
  8
7_ALL_FEATURES
100
AcDbLine
 62
7
  6
CONTINUOUS
 10
59.4195804985
 20
78.0122520085
 11
78.0194850962
 21
78.0712704212
  0
LINE
  5
321
100
AcDbEntity
  8
7_ALL_FEATURES
100
AcDbLine
 62
7
  6
CONTINUOUS
 10
46.7782953281
 20
78.0031433398
 11
90.7782953281
 21
78.0031433398
  0
LINE
  5
322
100
AcDbEntity
  8
7_ALL_FEATURES
100
AcDbLine
 62
7
  6
CONTINUOUS
 10
90.3034390643
 20
56.1168390986
 11
96.0782953281
 21
58.5031433398
  0
LINE
  5
323
100
AcDbEntity
  8
7_ALL_FEATURES
100
AcDbLine
 62
7
  6
CONTINUOUS
 10
78.0194859804
 20
78.0712704241
 11
78.088046782
 21
78.0031433398
  0
LINE
  5
324
100
AcDbEntity
  8
7_ALL_FEATURES
100
AcDbLine
 62
7
  6
CONTINUOUS
 10
91.7782953281
 20
59.0031433398
 11
91.7782953281
 21
77.0031433398
  0
LINE
  5
325
100
AcDbEntity
  8
7_ALL_FEATURES
100
AcDbLine
 62
7
  6
CONTINUOUS
 10
90.7782953281
 20
78.0031433398
 11
91.7782953281
 21
77.0031433398
  0
LINE
  5
326
100
AcDbEntity
  8
02___PRT_ALL_AXES
100
AcDbLine
 62
7
  6
CONTINUOUS
 10
96.0782953281
 20
58.5031433398
 11
96.0782953281
 21
59.0031433398
  0
LINE
  5
327
100
AcDbEntity
  8
02___PRT_ALL_AXES
100
AcDbLine
 62
7
  6
CONTINUOUS
 10
199.3189081618
 20
93.973620577
 11
199.3189081618
 21
94.4066332789
  0
LINE
  5
328
100
AcDbEntity
  8
02___PRT_ALL_AXES
100
AcDbLine
 62
7
  6
CONTINUOUS
 10
199.3332478593
 20
94.4159840736
 11
199.3326933118
 21
94.4058769454
  0
LINE
  5
329
100
AcDbEntity
  8
02___PRT_ALL_AXES
100
AcDbLine
 62
7
  6
CONTINUOUS
 10
199.3332479043
 20
94.4159840729
 11
199.3326000504
 21
94.4058784228
  0
LINE
  5
32A
100
AcDbEntity
  8
02___PRT_ALL_AXES
100
AcDbLine
 62
7
  6
CONTINUOUS
 10
234.5691698172
 20
72.4176809314
 11
225.3331337782
 21
71.9168169567
  0
LINE
  5
32B
100
AcDbEntity
  8
02___PRT_ALL_AXES
100
AcDbLine
 62
7
  6
CONTINUOUS
 10
225.000902266
 20
71.898800267
 11
224.0042077294
 21
71.8447501978
  0
LINE
  5
32C
100
AcDbEntity
  8
02___PRT_ALL_AXES
100
AcDbLine
 62
7
  6
CONTINUOUS
 10
206.5189081618
 20
91.8085570676
 11
206.5189081618
 21
93.0378562716
  0
LINE
  5
32D
100
AcDbEntity
  8
7_ALL_FEATURES
100
AcDbLine
 62
7
  6
CONTINUOUS
 10
209.1693864448
 20
108.3523109716
 11
208.7611381543
 21
107.2821614226
  0
LINE
  5
32E
100
AcDbEntity
  8
7_ALL_FEATURES
100
AcDbLine
 62
7
  6
CONTINUOUS
 10
210.2300466166
 20
107.8219808857
 11
209.9135500356
 21
106.9923419594
  0
LINE
  5
32F
100
AcDbEntity
  8
7_ALL_FEATURES
100
AcDbLine
 62
7
  6
CONTINUOUS
 10
209.9858830257
 20
107.0285084545
 11
210.3941313162
 21
108.0986580035
  0
LINE
  5
330
100
AcDbEntity
  8
02___PRT_ALL_AXES
100
AcDbLine
 62
7
  6
CONTINUOUS
 10
237.8200750546
 20
77.6013219702
 11
234.4977599327
 21
77.4211550729
  0
LINE
  5
331
100
AcDbEntity
  8
3_ALL_AXES
100
AcDbLine
 62
7
  6
CONTINUOUS
 10
210.9918482976
 20
105.9226427601
 11
210.1545808276
 21
105.2946921575
  0
LINE
  5
332
100
AcDbEntity
  8
7_ALL_FEATURES
100
AcDbLine
 62
7
  6
CONTINUOUS
 10
209.9858830257
 20
108.760559262
 11
209.1693864448
 21
108.3523109716
  0
LINE
  5
333
100
AcDbEntity
  8
7_ALL_FEATURES
100
AcDbLine
 62
7
  6
CONTINUOUS
 10
210.3023796066
 20
107.8581473807
 11
210.2300466166
 21
107.8219808857
  0
LINE
  5
334
100
AcDbEntity
  8
7_ALL_FEATURES
100
AcDbLine
 62
7
  6
CONTINUOUS
 10
209.1693864448
 20
106.620260164
 11
209.9858830257
 21
107.0285084545
  0
LINE
  5
335
100
AcDbEntity
  8
7_ALL_FEATURES
100
AcDbLine
 62
3
  6
CONTINUOUS
 10
214.0324074567
 20
106.5192087402
 11
214.0324074567
 21
113.3763361256
  0
LINE
  5
336
100
AcDbEntity
  8
7_ALL_FEATURES
100
AcDbLine
 62
7
  6
CONTINUOUS
 10
214.2445394911
 20
106.5737972137
 11
214.2445394911
 21
113.2702701084
  0
LINE
  5
337
100
AcDbEntity
  8
7_ALL_FEATURES
100
AcDbLine
 62
7
  6
CONTINUOUS
 10
186.480054615
 20
102.1682138865
 11
186.2679225806
 21
102.2742799037
  0
LINE
  5
338
100
AcDbEntity
  8
7_ALL_FEATURES
100
AcDbLine
 62
9
  6
CONTINUOUS
 10
186.5423993505
 20
102.1964021214
 11
186.7545313849
 21
102.0903361042
  0
LINE
  5
339
100
AcDbEntity
  8
7_ALL_FEATURES
100
AcDbLine
 62
7
  6
CONTINUOUS
 10
208.7611381543
 20
107.2821614226
 11
209.1693864448
 21
106.620260164
  0
LINE
  5
33A
100
AcDbEntity
  8
7_ALL_FEATURES
100
AcDbLine
 62
7
  6
CONTINUOUS
 10
210.3941313162
 20
108.0986580035
 11
209.9858830257
 21
108.760559262
  0
LINE
  5
33B
100
AcDbEntity
  8
02___PRT_ALL_AXES
100
AcDbLine
 62
7
  6
CONTINUOUS
 10
236.7370798873
 20
97.5719784809
 11
233.4147647653
 21
97.3918115835
  0
LINE
  5
33C
100
AcDbEntity
  8
3_ALL_AXES
100
AcDbLine
 62
7
  6
CONTINUOUS
 10
208.377415305
 20
104.9364174619
 11
208.2359939488
 21
105.00712814
  0
LINE
  5
33D
100
AcDbEntity
  8
7_ALL_FEATURES
100
AcDbLine
 62
7
  6
CONTINUOUS
 10
233.4071332612
 20
98.7469521564
 11
234.1847165767
 21
99.1357438141
  0
LINE
  5
33E
100
AcDbEntity
  8
7_ALL_FEATURES
100
AcDbLine
 62
7
  6
CONTINUOUS
 10
186.7545313849
 20
102.0903361042
 11
202.2705543745
 21
100.5798825084
  0
LINE
  5
33F
100
AcDbEntity
  8
7_ALL_FEATURES
100
AcDbLine
 62
3
  6
CONTINUOUS
 10
186.5423993505
 20
102.1964021214
 11
202.3500892984
 21
100.6575553344
  0
LINE
  5
340
100
AcDbEntity
  8
3_ALL_AXES
100
AcDbLine
 62
7
  6
CONTINUOUS
 10
208.377771371
 20
104.9479453952
 11
208.3806670969
 21
104.9470606717
  0
LINE
  5
341
100
AcDbEntity
  8
3_ALL_AXES
100
AcDbLine
 62
7
  6
CONTINUOUS
 10
208.3777677575
 20
104.9479371359
 11
208.3806271459
 21
104.9469691059
  0
LINE
  5
342
100
AcDbEntity
  8
7_ALL_FEATURES
100
AcDbLine
 62
7
  6
CONTINUOUS
 10
208.7611381543
 20
107.2821614226
 11
209.6271635581
 21
106.8491487207
  0
LINE
  5
343
100
AcDbEntity
  8
7_ALL_FEATURES
100
AcDbLine
 62
7
  6
CONTINUOUS
 10
209.1693864448
 20
108.3523109716
 11
210.2300466166
 21
107.8219808857
  0
LINE
  5
344
100
AcDbEntity
  8
7_ALL_FEATURES
100
AcDbLine
 62
7
  6
CONTINUOUS
 10
233.8020105227
 20
100.6995204652
 11
233.1927294601
 21
98.3446742126
  0
LINE
  5
345
100
AcDbEntity
  8
02___PRT_ALL_AXES
100
AcDbLine
 62
7
  6
CONTINUOUS
 10
233.1927294601
 20
98.3446742126
 11
234.9337117836
 21
97.4741830509
  0
LINE
  5
346
100
AcDbEntity
  8
7_ALL_FEATURES
100
AcDbLine
 62
9
  6
CONTINUOUS
 10
235.8529699749
 20
97.5240337995
 11
233.4071332612
 21
98.7469521564
  0
LINE
  5
347
100
AcDbEntity
  8
3_ALL_AXES
100
AcDbLine
 62
7
  6
CONTINUOUS
 10
211.060696878
 20
110.3029806079
 11
210.9192755218
 21
110.373691286
  0
LINE
  5
348
100
AcDbEntity
  8
7_ALL_FEATURES
100
AcDbLine
 62
9
  6
CONTINUOUS
 10
234.1847165767
 20
99.1357438141
 11
234.1847165767
 21
100.5499280873
  0
LINE
  5
349
100
AcDbEntity
  8
7_ALL_FEATURES
100
AcDbLine
 62
9
  6
CONTINUOUS
 10
214.2445394911
 20
113.2702701084
 11
214.0324074567
 21
113.3763361256
  0
LINE
  5
34A
100
AcDbEntity
  8
7_ALL_FEATURES
100
AcDbLine
 62
7
  6
CONTINUOUS
 10
212.1653940056
 20
117.5972605116
 11
211.9532619712
 21
117.7033265288
  0
LINE
  5
34B
100
AcDbEntity
  8
02___PRT_ALL_AXES
100
AcDbLine
 62
7
  6
CONTINUOUS
 10
246.7189081618
 20
91.8085570676
 11
246.7189081618
 21
93.0374395625
  0
LINE
  5
34C
100
AcDbEntity
  8
7_ALL_FEATURES
100
AcDbLine
 62
7
  6
CONTINUOUS
 10
266.4832849388
 20
109.4278009466
 11
253.8247988832
 21
95.5370367619
  0
LINE
  5
34D
100
AcDbEntity
  8
7_ALL_FEATURES
100
AcDbLine
 62
3
  6
CONTINUOUS
 10
266.6954169732
 20
109.3217349295
 11
253.8670887873
 21
95.244594825
  0
LINE
  5
34E
100
AcDbEntity
  8
02___PRT_ALL_AXES
100
AcDbLine
 62
7
  6
CONTINUOUS
 10
249.6189081618
 20
101.7597734948
 11
249.6189081618
 21
109.995090547
  0
LINE
  5
34F
100
AcDbEntity
  8
02___PRT_ALL_AXES
100
AcDbLine
 62
7
  6
CONTINUOUS
 10
253.9189081618
 20
93.973620577
 11
253.9189081618
 21
94.4066332789
  0
LINE
  5
350
100
AcDbEntity
  8
7_ALL_FEATURES
100
AcDbLine
 62
9
  6
CONTINUOUS
 10
266.6954169732
 20
109.3217349295
 11
266.4832849388
 21
109.4278009466
  0
LINE
  5
351
100
AcDbEntity
  8
7_ALL_FEATURES
100
AcDbLine
 62
7
  6
CONTINUOUS
 10
244.5818329423
 20
117.2119689119
 11
245.3983295232
 21
116.6346186427
  0
LINE
  5
352
100
AcDbEntity
  8
7_ALL_FEATURES
100
AcDbLine
 62
7
  6
CONTINUOUS
 10
266.7577617087
 20
112.4634370718
 11
266.9698937431
 21
112.3573710546
  0
LINE
  5
353
100
AcDbEntity
  8
02___PRT_ALL_AXES
100
AcDbLine
 62
7
  6
CONTINUOUS
 10
161.2849677957
 20
113.7977648776
 11
160.7849677957
 21
113.7977648776
  0
LINE
  5
354
100
AcDbEntity
  8
7_ALL_FEATURES
100
AcDbLine
 62
7
  6
CONTINUOUS
 10
141.7849677957
 20
163.0977648776
 11
142.7849677957
 21
164.0977648776
  0
LINE
  5
355
100
AcDbEntity
  8
3_ALL_AXES
100
AcDbLine
 62
7
  6
CONTINUOUS
 10
152.2849806689
 20
116.8977648776
 11
158.2849549225
 21
116.8977648776
  0
LINE
  5
356
100
AcDbEntity
  8
7_ALL_FEATURES
100
AcDbLine
 62
7
  6
CONTINUOUS
 10
141.7849677957
 20
119.0977648776
 11
142.7849677957
 21
118.0977648776
  0
LINE
  5
357
100
AcDbEntity
  8
3_ALL_AXES
100
AcDbLine
 62
7
  6
CONTINUOUS
 10
152.2849677957
 20
117.0977648776
 11
158.2849677957
 21
117.0977648776
  0
LINE
  5
358
100
AcDbEntity
  8
7_ALL_FEATURES
100
AcDbLine
 62
3
  6
CONTINUOUS
 10
160.7849677957
 20
117.7977648776
 11
142.6325572501
 21
117.7977648776
  0
LINE
  5
359
100
AcDbEntity
  8
02___PRT_ALL_AXES
100
AcDbLine
 62
7
  6
CONTINUOUS
 10
143.0403985425
 20
118.0977648776
 11
142.7849677957
 21
118.0977648776
  0
LINE
  5
35A
100
AcDbEntity
  8
7_ALL_FEATURES
100
AcDbLine
 62
7
  6
CONTINUOUS
 10
142.6325572501
 20
118.0977648776
 11
142.7849677957
 21
118.0977648776
  0
LINE
  5
35B
100
AcDbEntity
  8
7_ALL_FEATURES
100
AcDbLine
 62
7
  6
CONTINUOUS
 10
143.0403985425
 20
118.0977648776
 11
160.7849677957
 21
118.0977648776
  0
LINE
  5
35C
100
AcDbEntity
  8
7_ALL_FEATURES
100
AcDbLine
 62
7
  6
CONTINUOUS
 10
141.7462562865
 20
150.3977180602
 11
141.7849677957
 21
150.4364299592
  0
LINE
  5
35D
100
AcDbEntity
  8
7_ALL_FEATURES
100
AcDbLine
 62
7
  6
CONTINUOUS
 10
141.7462562865
 20
131.7978116951
 11
141.7849677957
 21
131.7590997961
  0
LINE
  5
35E
100
AcDbEntity
  8
3_ALL_AXES
100
AcDbLine
 62
7
  6
CONTINUOUS
 10
157.2571029489
 20
164.0699000309
 11
157.2849677957
 21
164.0977648776
  0
LINE
  5
35F
100
AcDbEntity
  8
3_ALL_AXES
100
AcDbLine
 62
7
  6
CONTINUOUS
 10
157.5849677957
 20
164.3977648776
 11
158.2849677957
 21
165.0977648776
  0
LINE
  5
360
100
AcDbEntity
  8
3_ALL_AXES
100
AcDbLine
 62
7
  6
CONTINUOUS
 10
157.257103216
 20
118.1256294574
 11
157.2849677957
 21
118.0977648776
  0
LINE
  5
361
100
AcDbEntity
  8
3_ALL_AXES
100
AcDbLine
 62
7
  6
CONTINUOUS
 10
157.5849677957
 20
117.7977648776
 11
158.2849677957
 21
117.0977648776
  0
LINE
  5
362
100
AcDbEntity
  8
7_ALL_FEATURES
100
AcDbLine
 62
7
  6
CONTINUOUS
 10
141.7849677957
 20
119.0977664648
 11
141.7849677957
 21
163.0977632905
  0
LINE
  5
363
100
AcDbEntity
  8
7_ALL_FEATURES
100
AcDbLine
 62
7
  6
CONTINUOUS
 10
142.6325572134
 20
118.0977648776
 11
142.6325572134
 21
117.7977648776
  0
LINE
  5
364
100
AcDbEntity
  8
7_ALL_FEATURES
100
AcDbLine
 62
7
  6
CONTINUOUS
 10
142.6325572134
 20
164.0977648776
 11
142.6325572134
 21
164.3977648776
  0
LINE
  5
365
100
AcDbEntity
  8
7_ALL_FEATURES
100
AcDbLine
 62
9
  6
CONTINUOUS
 10
142.6383369649
 20
118.0977648776
 11
142.6383369649
 21
117.7977648776
  0
LINE
  5
366
100
AcDbEntity
  8
7_ALL_FEATURES
100
AcDbLine
 62
7
  6
CONTINUOUS
 10
142.7849677957
 20
118.0977648776
 11
142.7849677957
 21
164.0977648776
  0
LINE
  5
367
100
AcDbEntity
  8
7_ALL_FEATURES
100
AcDbLine
 62
9
  6
CONTINUOUS
 10
143.8865540925
 20
164.3977648776
 11
143.8865540925
 21
164.0977648776
  0
LINE
  5
368
100
AcDbEntity
  8
02___PRT_ALL_AXES
100
AcDbLine
 62
7
  6
CONTINUOUS
 10
168.2462165175
 20
131.0977648776
 11
163.7849677957
 21
131.0977648776
  0
LINE
  5
369
100
AcDbEntity
  8
7_ALL_FEATURES
100
AcDbLine
 62
9
  6
CONTINUOUS
 10
147.6763047046
 20
164.3977648776
 11
147.6763047046
 21
164.0977648776
  0
LINE
  5
36A
100
AcDbEntity
  8
7_ALL_FEATURES
100
AcDbLine
 62
9
  6
CONTINUOUS
 10
150.6381924712
 20
118.0977648776
 11
150.6381924712
 21
117.7977648776
  0
LINE
  5
36B
100
AcDbEntity
  8
3_ALL_AXES
100
AcDbLine
 62
7
  6
CONTINUOUS
 10
152.2849677957
 20
117.0977648776
 11
152.2849677957
 21
116.8977648776
  0
LINE
  5
36C
100
AcDbEntity
  8
3_ALL_AXES
100
AcDbLine
 62
7
  6
CONTINUOUS
 10
152.2849677957
 20
165.0977648776
 11
152.2849677957
 21
165.2977648776
  0
LINE
  5
36D
100
AcDbEntity
  8
3_ALL_AXES
100
AcDbLine
 62
7
  6
CONTINUOUS
 10
158.2849677957
 20
117.0977648776
 11
158.2849677957
 21
116.8977648776
  0
LINE
  5
36E
100
AcDbEntity
  8
3_ALL_AXES
100
AcDbLine
 62
7
  6
CONTINUOUS
 10
158.2849677957
 20
165.0977648776
 11
158.2849677957
 21
165.2977648776
  0
LINE
  5
36F
100
AcDbEntity
  8
7_ALL_FEATURES
100
AcDbLine
 62
9
  6
CONTINUOUS
 10
158.7849677957
 20
118.0977648776
 11
158.7849677957
 21
117.7977648776
  0
LINE
  5
370
100
AcDbEntity
  8
7_ALL_FEATURES
100
AcDbLine
 62
9
  6
CONTINUOUS
 10
159.7729082587
 20
164.0977648776
 11
159.7729082587
 21
164.3977648776
  0
LINE
  5
371
100
AcDbEntity
  8
02___PRT_ALL_AXES
100
AcDbLine
 62
7
  6
CONTINUOUS
 10
160.7849677957
 20
113.7977653904
 11
160.7849677957
 21
168.3977643649
  0
LINE
  5
372
100
AcDbEntity
  8
02___PRT_ALL_AXES
100
AcDbLine
 62
7
  6
CONTINUOUS
 10
161.2849677957
 20
113.7977648776
 11
161.2849677957
 21
168.3977648776
  0
LINE
  5
373
100
AcDbEntity
  8
7_ALL_FEATURES
100
AcDbLine
 62
9
  6
CONTINUOUS
 10
163.6712720369
 20
119.5726211414
 11
163.6712720369
 21
162.6229086138
  0
LINE
  5
374
100
AcDbEntity
  8
7_ALL_FEATURES
100
AcDbLine
 62
7
  6
CONTINUOUS
 10
163.7849677957
 20
120.1454741337
 11
163.7849677957
 21
162.0500556216
  0
LINE
  5
375
100
AcDbEntity
  8
02___PRT_ALL_AXES
100
AcDbLine
 62
7
  6
CONTINUOUS
 10
168.2462165175
 20
151.0977648776
 11
163.7849677957
 21
151.0977648776
  0
LINE
  5
376
100
AcDbEntity
  8
02___PRT_ALL_AXES
100
AcDbLine
 62
7
  6
CONTINUOUS
 10
163.6712720369
 20
119.5726211414
 11
161.2849677957
 21
113.7977648776
  0
LINE
  5
377
100
AcDbEntity
  8
3_ALL_AXES
100
AcDbLine
 62
7
  6
CONTINUOUS
 10
153.3128326575
 20
118.1256297394
 11
153.2849677957
 21
118.0977648776
  0
LINE
  5
378
100
AcDbEntity
  8
3_ALL_AXES
100
AcDbLine
 62
7
  6
CONTINUOUS
 10
152.9849677957
 20
117.7977648776
 11
152.2849677957
 21
117.0977648776
  0
LINE
  5
379
100
AcDbEntity
  8
3_ALL_AXES
100
AcDbLine
 62
7
  6
CONTINUOUS
 10
153.3128323868
 20
164.0699002866
 11
153.2849677957
 21
164.0977648776
  0
LINE
  5
37A
100
AcDbEntity
  8
3_ALL_AXES
100
AcDbLine
 62
7
  6
CONTINUOUS
 10
152.9849677957
 20
164.3977648776
 11
152.2849677957
 21
165.0977648776
  0
LINE
  5
37B
100
AcDbEntity
  8
02___PRT_ALL_AXES
100
AcDbLine
 62
7
  6
CONTINUOUS
 10
163.6712720369
 20
162.6229086138
 11
161.2849677957
 21
168.3977648776
  0
LINE
  5
37C
100
AcDbEntity
  8
7_ALL_FEATURES
100
AcDbLine
 62
7
  6
CONTINUOUS
 10
142.6325572501
 20
164.0977648776
 11
160.7849677957
 21
164.0977648776
  0
LINE
  5
37D
100
AcDbEntity
  8
7_ALL_FEATURES
100
AcDbLine
 62
3
  6
CONTINUOUS
 10
142.6325572501
 20
164.3977648776
 11
160.7849677957
 21
164.3977648776
  0
LINE
  5
37E
100
AcDbEntity
  8
3_ALL_AXES
100
AcDbLine
 62
7
  6
CONTINUOUS
 10
152.2849677957
 20
165.0977648776
 11
158.2849677957
 21
165.0977648776
  0
LINE
  5
37F
100
AcDbEntity
  8
3_ALL_AXES
100
AcDbLine
 62
7
  6
CONTINUOUS
 10
152.2849853063
 20
165.2977648776
 11
158.2849502851
 21
165.2977648776
  0
LINE
  5
380
100
AcDbEntity
  8
02___PRT_ALL_AXES
100
AcDbLine
 62
7
  6
CONTINUOUS
 10
161.2849677957
 20
168.3977648776
 11
160.7849677957
 21
168.3977648776
  0
ARC
  5
381
100
AcDbEntity
  8
7_ALL_FEATURES
100
AcDbCircle
 62
7
  6
CONTINUOUS
 10
53.6786264576
 20
134.6977648776
 40
2.0
100
AcDbArc
 50
90.0
 51
202.9696765723
  0
ARC
  5
382
100
AcDbEntity
  8
7_ALL_FEATURES
100
AcDbCircle
 62
7
  6
CONTINUOUS
 10
53.6786264576
 20
147.4977648776
 40
2.0
100
AcDbArc
 50
157.0303234277
 51
270.0
  0
ARC
  5
383
100
AcDbEntity
  8
7_ALL_FEATURES
100
AcDbCircle
 62
9
  6
CONTINUOUS
 10
68.7868001578
 20
141.0969444145
 40
15.0008203613
100
AcDbArc
 50
89.9999963935
 51
90.168456027
  0
ARC
  5
384
100
AcDbEntity
  8
7_ALL_FEATURES
100
AcDbCircle
 62
7
  6
CONTINUOUS
 10
68.7411170063
 20
141.0973816256
 40
15.0003831971
100
AcDbArc
 50
90.0000289637
 51
90.2419828278
  0
ARC
  5
385
100
AcDbEntity
  8
7_ALL_FEATURES
100
AcDbCircle
 62
7
  6
CONTINUOUS
 10
68.7428530257
 20
141.0977588023
 40
15.0000829285
100
AcDbArc
 50
156.1810706833
 51
162.9421019394
  0
ARC
  5
386
100
AcDbEntity
  8
7_ALL_FEATURES
100
AcDbCircle
 62
7
  6
CONTINUOUS
 10
68.7412426149
 20
141.0977617849
 40
15.0000573603
100
AcDbArc
 50
197.0578622435
 51
203.8235668911
  0
ARC
  5
387
100
AcDbEntity
  8
7_ALL_FEATURES
100
AcDbCircle
 62
9
  6
CONTINUOUS
 10
68.7868936736
 20
141.0977449566
 40
15.0000136161
100
AcDbArc
 50
197.4575070007
 51
224.9998403793
  0
ARC
  5
388
100
AcDbEntity
  8
7_ALL_FEATURES
100
AcDbCircle
 62
7
  6
CONTINUOUS
 10
68.7364298629
 20
141.0977354414
 40
14.9999978942
100
AcDbArc
 50
206.5299471764
 51
225.017017721
  0
ARC
  5
389
100
AcDbEntity
  8
7_ALL_FEATURES
100
AcDbCircle
 62
7
  6
CONTINUOUS
 10
68.7411894262
 20
141.0977354138
 40
14.999997883
100
AcDbArc
 50
206.5302727345
 51
225.0041337428
  0
ARC
  5
38A
100
AcDbEntity
  8
7_ALL_FEATURES
100
AcDbCircle
 62
7
  6
CONTINUOUS
 10
68.7427758322
 20
141.0977353005
 40
14.9999978225
100
AcDbArc
 50
206.5299267827
 51
224.9998485449
  0
ARC
  5
38B
100
AcDbEntity
  8
7_ALL_FEATURES
100
AcDbCircle
 62
7
  6
CONTINUOUS
 10
68.7411189985
 20
141.0976564149
 40
14.999892222
100
AcDbArc
 50
225.0041106213
 51
264.2302206059
  0
ARC
  5
38C
100
AcDbEntity
  8
7_ALL_FEATURES
100
AcDbCircle
 62
7
  6
CONTINUOUS
 10
68.7363564878
 20
141.0976513892
 40
14.999886574
100
AcDbArc
 50
225.0169890087
 51
268.8433708864
  0
ARC
  5
38D
100
AcDbEntity
  8
7_ALL_FEATURES
100
AcDbCircle
 62
7
  6
CONTINUOUS
 10
68.7427021122
 20
141.0976512242
 40
14.9998862438
100
AcDbArc
 50
224.9998205717
 51
269.9999764238
  0
ARC
  5
38E
100
AcDbEntity
  8
7_ALL_FEATURES
100
AcDbCircle
 62
9
  6
CONTINUOUS
 10
68.7868072743
 20
141.0976512242
 40
14.9998862438
100
AcDbArc
 50
224.9998205717
 51
270.0000010954
  0
ARC
  5
38F
100
AcDbEntity
  8
7_ALL_FEATURES
100
AcDbCircle
 62
7
  6
CONTINUOUS
 10
68.7868008153
 20
141.0976223894
 40
14.9998574089
100
AcDbArc
 50
270.0000010954
 51
295.1426173389
  0
ARC
  5
390
100
AcDbEntity
  8
7_ALL_FEATURES
100
AcDbCircle
 62
7
  6
CONTINUOUS
 10
68.7411072183
 20
141.0975684371
 40
14.9998035056
100
AcDbArc
 50
264.2302315915
 51
269.9874098924
  0
ARC
  5
391
100
AcDbEntity
  8
02___PRT_ALL_AXES
100
AcDbCircle
 62
7
  6
CONTINUOUS
 10
68.803643604
 20
141.0977399625
 40
9.9999750849
100
AcDbArc
 50
179.9998572463
 51
0.0001427537
  0
ARC
  5
392
100
AcDbEntity
  8
02___PRT_ALL_AXES
100
AcDbCircle
 62
7
  6
CONTINUOUS
 10
68.7877781477
 20
141.0977397723
 40
9.9999747948
100
AcDbArc
 50
179.9998561566
 51
269.9998559832
  0
ARC
  5
393
100
AcDbEntity
  8
02___PRT_ALL_AXES
100
AcDbCircle
 62
7
  6
CONTINUOUS
 10
68.8036181783
 20
141.0977128907
 40
9.5999428327
100
AcDbArc
 50
179.9996897241
 51
0.0003102759
  0
ARC
  5
394
100
AcDbEntity
  8
7_ALL_FEATURES
100
AcDbCircle
 62
9
  6
CONTINUOUS
 10
68.790700076
 20
141.0977221794
 40
7.8900424979
100
AcDbArc
 50
179.9996899349
 51
0.0003100651
  0
ARC
  5
395
100
AcDbEntity
  8
7_ALL_FEATURES
100
AcDbCircle
 62
9
  6
CONTINUOUS
 10
68.7845174504
 20
141.0977636413
 40
7.500004697
100
AcDbArc
 50
270.0002988385
 51
44.9999395837
  0
ARC
  5
396
100
AcDbEntity
  8
02___PRT_ALL_AXES
100
AcDbCircle
 62
7
  6
CONTINUOUS
 10
68.7829543945
 20
141.0977636102
 40
7.5000046763
100
AcDbArc
 50
270.0122396748
 51
44.9999400223
  0
ARC
  5
397
100
AcDbEntity
  8
7_ALL_FEATURES
100
AcDbCircle
 62
7
  6
CONTINUOUS
 10
68.7845928789
 20
141.0977285672
 40
7.4999685372
100
AcDbArc
 50
179.999722608
 51
269.9997226059
  0
CIRCLE
  5
398
100
AcDbEntity
  8
02___PRT_ALL_AXES
100
AcDbCircle
 62
7
  6
CONTINUOUS
 10
68.7782953281
 20
141.0977648776
 40
27.3
  0
CIRCLE
  5
399
100
AcDbEntity
  8
7_ALL_FEATURES
100
AcDbCircle
 62
9
  6
CONTINUOUS
 10
68.7782953281
 20
141.0977648776
 40
21.5251437362
  0
CIRCLE
  5
39A
100
AcDbEntity
  8
7_ALL_FEATURES
100
AcDbCircle
 62
9
  6
CONTINUOUS
 10
68.7782953281
 20
141.0977648776
 40
20.952290744
  0
CIRCLE
  5
39B
100
AcDbEntity
  8
02___PRT_ALL_AXES
100
AcDbCircle
 62
7
  6
CONTINUOUS
 10
68.7782953281
 20
141.0977648776
 40
20.25
  0
CIRCLE
  5
39C
100
AcDbEntity
  8
02___PRT_ALL_AXES
100
AcDbCircle
 62
7
  6
CONTINUOUS
 10
68.7782953281
 20
141.0977648776
 40
20.1
  0
CIRCLE
  5
39D
100
AcDbEntity
  8
7_ALL_FEATURES
100
AcDbCircle
 62
7
  6
CONTINUOUS
 10
68.7782953281
 20
141.0977648776
 40
19.6
  0
CIRCLE
  5
39E
100
AcDbEntity
  8
7_ALL_FEATURES
100
AcDbCircle
 62
7
  6
CONTINUOUS
 10
68.7782953281
 20
141.0977648776
 40
18.7339745962
  0
ARC
  5
39F
100
AcDbEntity
  8
7_ALL_FEATURES
100
AcDbCircle
 62
7
  6
CONTINUOUS
 10
68.7782953281
 20
141.0977648776
 40
18.4
100
AcDbArc
 50
202.9696765723
 51
157.0303234277
  0
ARC
  5
3A0
100
AcDbEntity
  8
7_ALL_FEATURES
100
AcDbCircle
 62
7
  6
CONTINUOUS
 10
68.7428530314
 20
141.097770955
 40
15.0000829345
100
AcDbArc
 50
197.0578980615
 51
203.8189293149
  0
ARC
  5
3A1
100
AcDbEntity
  8
7_ALL_FEATURES
100
AcDbCircle
 62
7
  6
CONTINUOUS
 10
68.736498703
 20
141.0977676407
 40
15.0000740454
100
AcDbArc
 50
197.0579313385
 51
203.8373248218
  0
ARC
  5
3A2
100
AcDbEntity
  8
7_ALL_FEATURES
100
AcDbCircle
 62
7
  6
CONTINUOUS
 10
68.7412245603
 20
141.0977745401
 40
15.000038165
100
AcDbArc
 50
156.1761709957
 51
162.9422039557
  0
ARC
  5
3A3
100
AcDbEntity
  8
7_ALL_FEATURES
100
AcDbCircle
 62
7
  6
CONTINUOUS
 10
68.7866958309
 20
141.0977648819
 40
15.0000312701
100
AcDbArc
 50
295.1427535419
 51
64.8470340654
  0
ARC
  5
3A4
100
AcDbEntity
  8
7_ALL_FEATURES
100
AcDbCircle
 62
7
  6
CONTINUOUS
 10
68.7364385952
 20
141.0977843866
 40
15.0000100081
100
AcDbArc
 50
156.1625466229
 51
162.9423585019
  0
ARC
  5
3A5
100
AcDbEntity
  8
7_ALL_FEATURES
100
AcDbCircle
 62
7
  6
CONTINUOUS
 10
68.7411892412
 20
141.0977945623
 40
14.9999976939
100
AcDbArc
 50
135.0001515449
 51
153.4695562317
  0
ARC
  5
3A6
100
AcDbEntity
  8
7_ALL_FEATURES
100
AcDbCircle
 62
7
  6
CONTINUOUS
 10
68.7364297034
 20
141.0977947787
 40
14.9999975495
100
AcDbArc
 50
135.0001521616
 51
153.4699587956
  0
ARC
  5
3A7
100
AcDbEntity
  8
7_ALL_FEATURES
100
AcDbCircle
 62
9
  6
CONTINUOUS
 10
68.7868239362
 20
141.0978318844
 40
14.9999329652
100
AcDbArc
 50
90.1685568202
 51
162.542584657
  0
ARC
  5
3A8
100
AcDbEntity
  8
7_ALL_FEATURES
100
AcDbCircle
 62
7
  6
CONTINUOUS
 10
68.7427119206
 20
141.0978480918
 40
14.999916683
100
AcDbArc
 50
90.0000610417
 51
153.4701474809
  0
ARC
  5
3A9
100
AcDbEntity
  8
7_ALL_FEATURES
100
AcDbCircle
 62
7
  6
CONTINUOUS
 10
68.7363578077
 20
141.0978754215
 40
14.9998896885
100
AcDbArc
 50
91.9344237415
 51
135.0001757887
  0
ARC
  5
3AA
100
AcDbEntity
  8
7_ALL_FEATURES
100
AcDbCircle
 62
7
  6
CONTINUOUS
 10
68.7868007851
 20
141.0979072239
 40
14.9998575519
100
AcDbArc
 50
64.8471702914
 51
89.9999987891
  0
ARC
  5
3AB
100
AcDbEntity
  8
7_ALL_FEATURES
100
AcDbCircle
 62
7
  6
CONTINUOUS
 10
68.7411092588
 20
141.0979130726
 40
14.9998517221
100
AcDbArc
 50
90.2419618082
 51
135.0001642986
  0
ARC
  5
3AC
100
AcDbEntity
  8
7_ALL_FEATURES
100
AcDbCircle
 62
9
  6
CONTINUOUS
 10
68.7877526973
 20
141.0978619594
 40
14.6999029153
100
AcDbArc
 50
18.5339888438
 51
162.1745699283
  0
ARC
  5
3AD
100
AcDbEntity
  8
02___PRT_ALL_AXES
100
AcDbCircle
 62
7
  6
CONTINUOUS
 10
68.803643604
 20
141.0977897928
 40
9.9999750849
100
AcDbArc
 50
359.9998572463
 51
180.0001427537
  0
ARC
  5
3AE
100
AcDbEntity
  8
02___PRT_ALL_AXES
100
AcDbCircle
 62
7
  6
CONTINUOUS
 10
68.7877781477
 20
141.097789983
 40
9.9999747948
100
AcDbArc
 50
90.0001440168
 51
180.0001438434
  0
ARC
  5
3AF
100
AcDbEntity
  8
02___PRT_ALL_AXES
100
AcDbCircle
 62
7
  6
CONTINUOUS
 10
68.8036181783
 20
141.0978168623
 40
9.5999423008
100
AcDbArc
 50
359.9996897378
 51
180.0003102622
  0
ARC
  5
3B0
100
AcDbEntity
  8
7_ALL_FEATURES
100
AcDbCircle
 62
9
  6
CONTINUOUS
 10
68.7907022744
 20
141.0978060465
 40
7.8900448215
100
AcDbArc
 50
359.9999794962
 51
180.0002989588
  0
ARC
  5
3B1
100
AcDbEntity
  8
7_ALL_FEATURES
100
AcDbCircle
 62
7
  6
CONTINUOUS
 10
68.7845927349
 20
141.097801044
 40
7.4999685372
100
AcDbArc
 50
90.0002762947
 51
180.0002762919
  0
ARC
  5
3B2
100
AcDbEntity
  8
02___PRT_ALL_AXES
100
AcDbCircle
 62
7
  6
CONTINUOUS
 10
68.7829901963
 20
141.0978213469
 40
7.4999435018
100
AcDbArc
 50
44.9998215309
 51
89.9880340177
  0
ARC
  5
3B3
100
AcDbEntity
  8
7_ALL_FEATURES
100
AcDbCircle
 62
9
  6
CONTINUOUS
 10
68.7845535811
 20
141.0978218368
 40
7.4999429583
100
AcDbArc
 50
44.9998203904
 51
90.0002762947
  0
ARC
  5
3B4
100
AcDbEntity
  8
7_ALL_FEATURES
100
AcDbCircle
 62
7
  6
CONTINUOUS
 10
73.1534937413
 20
-242.8444460778
 40
320.0
100
AcDbArc
 50
84.9259727548
 51
86.6633521318
  0
ARC
  5
3B5
100
AcDbEntity
  8
7_ALL_FEATURES
100
AcDbCircle
 62
3
  6
CONTINUOUS
 10
64.403096915
 20
-242.8444460778
 40
320.0
100
AcDbArc
 50
89.655635892
 51
95.0740272452
  0
ARC
  5
3B6
100
AcDbEntity
  8
7_ALL_FEATURES
100
AcDbCircle
 62
3
  6
CONTINUOUS
 10
64.5869772394
 20
69.0031433398
 40
10.0
100
AcDbArc
 50
244.0
 51
270.0
  0
ARC
  5
3B7
100
AcDbEntity
  8
7_ALL_FEATURES
100
AcDbCircle
 62
3
  6
CONTINUOUS
 10
66.2782953281
 20
69.1499186644
 40
8.0
100
AcDbArc
 50
0.0
 51
89.655635892
  0
CIRCLE
  5
3B8
100
AcDbEntity
  8
3_ALL_AXES
100
AcDbCircle
 62
7
  6
CONTINUOUS
 10
68.7782953281
 20
64.5031433398
 40
3.0
  0
ARC
  5
3B9
100
AcDbEntity
  8
7_ALL_FEATURES
100
AcDbCircle
 62
7
  6
CONTINUOUS
 10
101.2782953281
 20
73.9093945235
 40
2.0
100
AcDbArc
 50
296.0
 51
84.9259727548
  0
ARC
  5
3BA
100
AcDbEntity
  8
7_ALL_FEATURES
100
AcDbCircle
 62
3
  6
CONTINUOUS
 10
36.2782953281
 20
73.9093945235
 40
2.0
100
AcDbArc
 50
95.0740272452
 51
244.0
  0
ARC
  5
3BB
100
AcDbEntity
  8
7_ALL_FEATURES
100
AcDbCircle
 62
3
  6
CONTINUOUS
 10
72.2782953281
 20
61.0031433398
 40
2.0
100
AcDbArc
 50
270.0
 51
360.0
  0
ARC
  5
3BC
100
AcDbEntity
  8
7_ALL_FEATURES
100
AcDbCircle
 62
7
  6
CONTINUOUS
 10
89.7305860721
 20
57.5031433398
 40
1.5
100
AcDbArc
 50
270.0
 51
292.451546456
  0
ARC
  5
3BD
100
AcDbEntity
  8
7_ALL_FEATURES
100
AcDbCircle
 62
7
  6
CONTINUOUS
 10
47.8260045842
 20
57.5031433398
 40
1.5
100
AcDbArc
 50
247.548453544
 51
270.0
  0
ARC
  5
3BE
100
AcDbEntity
  8
7_ALL_FEATURES
100
AcDbCircle
 62
3
  6
CONTINUOUS
 10
329.7847437325
 20
-128.249598176
 40
274.0827522637
100
AcDbArc
 50
116.285315049
 51
121.3871961143
  0
ARC
  5
3BF
100
AcDbEntity
  8
7_ALL_FEATURES
100
AcDbCircle
 62
7
  6
CONTINUOUS
 10
354.0301601144
 20
-111.8830858127
 40
241.0025716922
100
AcDbArc
 50
111.4269425907
 51
115.6731698224
  0
ARC
  5
3C0
100
AcDbEntity
  8
7_ALL_FEATURES
100
AcDbCircle
 62
7
  6
CONTINUOUS
 10
223.5517546587
 20
120.7673678699
 40
23.1964393691
100
AcDbArc
 50
247.8111622548
 51
251.3957605568
  0
ARC
  5
3C1
100
AcDbEntity
  8
7_ALL_FEATURES
100
AcDbCircle
 62
9
  6
CONTINUOUS
 10
221.4645928692
 20
104.4561930028
 40
22.5329407067
100
AcDbArc
 50
243.4655843008
 51
245.934770263
  0
ARC
  5
3C2
100
AcDbEntity
  8
7_ALL_FEATURES
100
AcDbCircle
 62
7
  6
CONTINUOUS
 10
223.3922258037
 20
119.7339692257
 40
22.2406329753
100
AcDbArc
 50
247.0334639506
 51
250.846999174
  0
ARC
  5
3C3
100
AcDbEntity
  8
7_ALL_FEATURES
100
AcDbCircle
 62
9
  6
CONTINUOUS
 10
221.3346706607
 20
103.4699542266
 40
21.3184802466
100
AcDbArc
 50
243.4428958583
 51
244.7010231742
  0
ARC
  5
3C4
100
AcDbEntity
  8
7_ALL_FEATURES
100
AcDbCircle
 62
7
  6
CONTINUOUS
 10
224.6252869217
 20
92.332291124
 40
9.647433534
100
AcDbArc
 50
118.12124597
 51
121.489401163
  0
ARC
  5
3C5
100
AcDbEntity
  8
7_ALL_FEATURES
100
AcDbCircle
 62
9
  6
CONTINUOUS
 10
233.8611597654
 20
92.8334288857
 40
9.6471148221
100
AcDbArc
 50
118.1136013281
 51
121.4894240138
  0
ARC
  5
3C6
100
AcDbEntity
  8
7_ALL_FEATURES
100
AcDbCircle
 62
7
  6
CONTINUOUS
 10
224.5483018572
 20
80.2448112869
 40
8.358274146
100
AcDbArc
 50
273.1040837568
 51
274.2504695242
  0
ARC
  5
3C7
100
AcDbEntity
  8
02___PRT_ALL_AXES
100
AcDbCircle
 62
7
  6
CONTINUOUS
 10
247.0819598865
 20
93.9734048711
 40
6.8369482467
100
AcDbArc
 50
0.0018076834
 51
3.625437444
  0
ARC
  5
3C8
100
AcDbEntity
  8
02___PRT_ALL_AXES
100
AcDbCircle
 62
7
  6
CONTINUOUS
 10
206.1556804391
 20
93.9734101739
 40
6.8367722485
100
AcDbArc
 50
176.3732651906
 51
179.9982367101
  0
ARC
  5
3C9
100
AcDbEntity
  8
02___PRT_ALL_AXES
100
AcDbCircle
 62
7
  6
CONTINUOUS
 10
237.9231036826
 20
84.5321884017
 40
6.6205249143
100
AcDbArc
 50
237.5006008565
 51
243.3822310474
  0
ARC
  5
3CA
100
AcDbEntity
  8
7_ALL_FEATURES
100
AcDbCircle
 62
3
  6
CONTINUOUS
 10
210.6084342921
 20
115.0140151061
 40
3.0068184338
100
AcDbArc
 50
58.9227266762
 51
63.4320178788
  0
ARC
  5
3CB
100
AcDbEntity
  8
7_ALL_FEATURES
100
AcDbCircle
 62
7
  6
CONTINUOUS
 10
232.1970167426
 20
101.1643237857
 40
2.7033437782
100
AcDbArc
 50
293.6536900701
 51
296.5921728301
  0
ARC
  5
3CC
100
AcDbEntity
  8
3_ALL_AXES
100
AcDbCircle
 62
7
  6
CONTINUOUS
 10
210.4140023875
 20
109.3633243991
 40
1.1296633483
100
AcDbArc
 50
55.4707725016
 51
63.4308800436
  0
ARC
  5
3CD
100
AcDbEntity
  8
3_ALL_AXES
100
AcDbCircle
 62
7
  6
CONTINUOUS
 10
208.7408249784
 20
106.0168875263
 40
1.1289222661
100
AcDbArc
 50
243.4371578991
 51
251.2405103104
  0
ARC
  5
3CE
100
AcDbEntity
  8
7_ALL_FEATURES
100
AcDbCircle
 62
7
  6
CONTINUOUS
 10
162.2849677957
 20
120.1454741337
 40
1.5
100
AcDbArc
 50
337.548453544
 51
360.0
  0
ARC
  5
3CF
100
AcDbEntity
  8
7_ALL_FEATURES
100
AcDbCircle
 62
7
  6
CONTINUOUS
 10
162.2849677957
 20
162.0500556216
 40
1.5
100
AcDbArc
 50
0.0
 51
22.451546456
  0
SPLINE
  5
3D0
100
AcDbEntity
  8
7_ALL_FEATURES
100
AcDbSpline
 62
7
  6
CONTINUOUS
 70
0
 71
3
 72
30
 73
26
 74
0
 42
0.0000001
 43
0.0000001
 44
0.0000000001
 40
0.0
 40
0.0
 40
0.0
 40
0.0
 40
0.0002856102
 40
0.0011493472
 40
0.0026135034
 40
0.0046797413
 40
0.007346589
 40
0.0106119992
 40
0.0144737231
 40
0.0189290453
 40
0.0296030805
 40
0.0425972374
 40
0.0578698061
 40
0.0753700036
 40
0.0950445508
 40
0.1168334927
 40
0.1665023837
 40
0.2238471551
 40
0.2883184851
 40
0.3593673372
 40
0.43646004
 40
0.5190892913
 40
0.6067818227
 40
0.7956445014
 40
1.0
 40
1.0
 40
1.0
 40
1.0
 10
55.0298724111
 20
147.0961881884
 30
0.0
 10
55.029905701
 20
147.0961549349
 30
0.0
 10
55.0300814121
 20
147.0964045119
 30
0.0
 10
55.0302540931
 20
147.0966712984
 30
0.0
 10
55.0306348919
 20
147.0973631573
 30
0.0
 10
55.0310916346
 20
147.0982433585
 30
0.0
 10
55.0316877322
 20
147.0994314799
 30
0.0
 10
55.0323954333
 20
147.1008768903
 30
0.0
 10
55.0332242441
 20
147.1025972606
 30
0.0
 10
55.0345682626
 20
147.1054219182
 30
0.0
 10
55.0365360178
 20
147.1096169974
 30
0.0
 10
55.0392360472
 20
147.1154363409
 30
0.0
 10
55.0423903034
 20
147.1222848651
 30
0.0
 10
55.0459905326
 20
147.1301395803
 30
0.0
 10
55.050027244
 20
147.1389751957
 30
0.0
 10
55.0562558334
 20
147.1526359823
 30
0.0
 10
55.0650470607
 20
147.1719490215
 30
0.0
 10
55.0767567103
 20
147.1976596128
 30
0.0
 10
55.089950845
 20
147.2265644823
 30
0.0
 10
55.104539104
 20
147.2584092732
 30
0.0
 10
55.1204337154
 20
147.2929459728
 30
0.0
 10
55.1375515483
 20
147.3299380705
 30
0.0
 10
55.1625284642
 20
147.3835829019
 30
0.0
 10
55.1962555562
 20
147.4552744804
 30
0.0
 10
55.2241801576
 20
147.5137287506
 30
0.0
 10
55.2387885176
 20
147.5440611271
 30
0.0
  0
SPLINE
  5
3D1
100
AcDbEntity
  8
02___PRT_ALL_AXES
100
AcDbSpline
 62
7
  6
CONTINUOUS
 70
0
 71
3
 72
30
 73
26
 74
0
 42
0.0000001
 43
0.0000001
 44
0.0000000001
 40
0.0
 40
0.0
 40
0.0
 40
0.0
 40
0.2132151461
 40
0.4070376096
 40
0.4957565308
 40
0.5785035654
 40
0.6548933266
 40
0.7245439076
 40
0.7870831826
 40
0.842155661
 40
0.8894309043
 40
0.9100504065
 40
0.9286113437
 40
0.9450836882
 40
0.9594394948
 40
0.9716533779
 40
0.9817053377
 40
0.9859145847
 40
0.9895765856
 40
0.9926900891
 40
0.9952539342
 40
0.9972670183
 40
0.9987283881
 40
0.9996379712
 40
1.0
 40
1.0
 40
1.0
 40
1.0
 10
58.175521
 20
130.4911631598
 30
0.0
 10
58.2036935732
 20
130.4628721099
 30
0.0
 10
58.2576844627
 20
130.4090700032
 30
0.0
 10
58.323916148
 20
130.3440194725
 30
0.0
 10
58.3729514531
 20
130.2963281165
 30
0.0
 10
58.4063168273
 20
130.2640653833
 30
0.0
 10
58.4371930126
 20
130.2343653316
 30
0.0
 10
58.4654038372
 20
130.2073529536
 30
0.0
 10
58.4907777702
 20
130.1831497742
 30
0.0
 10
58.5131511336
 20
130.1618713971
 30
0.0
 10
58.5298512723
 20
130.1460183071
 30
0.0
 10
58.5415946411
 20
130.1348742834
 30
0.0
 10
58.5491528382
 20
130.127699466
 30
0.0
 10
58.5558574462
 20
130.1213291068
 30
0.0
 10
58.5616956865
 20
130.1157723887
 30
0.0
 10
58.5666560107
 20
130.1110372123
 30
0.0
 10
58.5702343762
 20
130.107605827
 30
0.0
 10
58.5726492324
 20
130.1052752066
 30
0.0
 10
58.5741260712
 20
130.1038428945
 30
0.0
 10
58.5753750457
 20
130.1026202132
 30
0.0
 10
58.5764043073
 20
130.101608889
 30
0.0
 10
58.5771901962
 20
130.1008061599
 30
0.0
 10
58.5777901754
 20
130.1002209866
 30
0.0
 10
58.5780845964
 20
130.0998370239
 30
0.0
 10
58.5782951742
 20
130.0996604742
 30
0.0
 10
58.5782951351
 20
130.099592682
 30
0.0
  0
SPLINE
  5
3D2
100
AcDbEntity
  8
7_ALL_FEATURES
100
AcDbSpline
 62
7
  6
CONTINUOUS
 70
0
 71
3
 72
48
 73
44
 74
0
 42
0.0000001
 43
0.0000001
 44
0.0000000001
 40
0.0
 40
0.0
 40
0.0
 40
0.0
 40
0.0000158351
 40
0.0000519664
 40
0.0001087153
 40
0.0001861358
 40
0.0004030208
 40
0.0007025985
 40
0.001084723
 40
0.0015490933
 40
0.0020953835
 40
0.0027232646
 40
0.0042221399
 40
0.0060416331
 40
0.0081771684
 40
0.0106231921
 40
0.0133737489
 40
0.0164220776
 40
0.0197610901
 40
0.0233831045
 40
0.0314439527
 40
0.0405373706
 40
0.0505932466
 40
0.0615404521
 40
0.0733083849
 40
0.085828181
 40
0.0990336407
 40
0.1128619617
 40
0.1421548164
 40
0.1732822285
 40
0.2058831247
 40
0.2396554454
 40
0.274348953
 40
0.3097576698
 40
0.3457126158
 40
0.4187305794
 40
0.4925690023
 40
0.5666610214
 40
0.6406148936
 40
0.7141493621
 40
0.7870485233
 40
0.8591263774
 40
1.0
 40
1.0
 40
1.0
 40
1.0
 10
58.5782953185
 20
152.0959372013
 30
0.0
 10
58.5782952901
 20
152.0959072506
 30
0.0
 10
58.5782218406
 20
152.0958262615
 30
0.0
 10
58.5781031422
 20
152.095669092
 30
0.0
 10
58.5778787143
 20
152.0954311393
 30
0.0
 10
58.5774251246
 20
152.0949501782
 30
0.0
 10
58.5766318854
 20
152.0941517011
 30
0.0
 10
58.5754254148
 20
152.092956063
 30
0.0
 10
58.5738740021
 20
152.0914415087
 30
0.0
 10
58.5719818715
 20
152.0896087981
 30
0.0
 10
58.569749261
 20
152.0874592356
 30
0.0
 10
58.5660998261
 20
152.0839602301
 30
0.0
 10
58.5606997222
 20
152.0788075023
 30
0.0
 10
58.5532253666
 20
152.0716979474
 30
0.0
 10
58.5444457757
 20
152.0633612882
 30
0.0
 10
58.5343863111
 20
152.0538150199
 30
0.0
 10
58.523075187
 20
152.0430796069
 30
0.0
 10
58.5105435155
 20
152.0311766852
 30
0.0
 10
58.4968247508
 20
152.0181301727
 30
0.0
 10
58.4762521236
 20
151.9985330913
 30
0.0
 10
58.4478415365
 20
151.9713841173
 30
0.0
 10
58.4107273106
 20
151.9357293071
 30
0.0
 10
58.3698009274
 20
151.8961628278
 30
0.0
 10
58.3253932048
 20
151.8529199062
 30
0.0
 10
58.2778327532
 20
151.8062353168
 30
0.0
 10
58.2274402613
 20
151.7563393347
 30
0.0
 10
58.1745239757
 20
151.7034545574
 30
0.0
 10
58.0995401735
 20
151.6277730858
 30
0.0
 10
58.0014886281
 20
151.5272308215
 30
0.0
 10
57.8800615918
 20
151.3999029789
 30
0.0
 10
57.7543765252
 20
151.2649450921
 30
0.0
 10
57.6258354208
 20
151.1234493194
 30
0.0
 10
57.4955943542
 20
150.9763441281
 30
0.0
 10
57.3645981914
 20
150.8244157821
 30
0.0
 10
57.1890480786
 20
150.6152225597
 30
0.0
 10
56.9722068225
 20
150.3458320903
 30
0.0
 10
56.7192076195
 20
150.0131453785
 30
0.0
 10
56.4745177092
 20
149.6721167172
 30
0.0
 10
56.239731951
 20
149.3248893676
 30
0.0
 10
56.0158744108
 20
148.9731923475
 30
0.0
 10
55.803602507
 20
148.6185078771
 30
0.0
 10
55.5386715018
 20
148.1471516613
 30
0.0
 10
55.3554144019
 20
147.7881968014
 30
0.0
 10
55.2405728674
 20
147.5477648776
 30
0.0
  0
SPLINE
  5
3D3
100
AcDbEntity
  8
7_ALL_FEATURES
100
AcDbSpline
 62
7
  6
CONTINUOUS
 70
0
 71
3
 72
12
 73
8
 74
0
 42
0.0000001
 43
0.0000001
 44
0.0000000001
 40
0.0
 40
0.0
 40
0.0
 40
0.0
 40
0.251470252
 40
0.5118000095
 40
0.7710329563
 40
0.8928552368
 40
1.0
 40
1.0
 40
1.0
 40
1.0
 10
55.2405728674
 20
134.6477648776
 30
0.0
 10
55.4252374876
 20
134.2611515319
 30
0.0
 10
55.8347545223
 20
133.4898860924
 30
0.0
 10
56.5498450702
 20
132.3859918216
 30
0.0
 10
57.2232389277
 20
131.5233707369
 30
0.0
 10
57.7762945152
 20
130.9018405764
 30
0.0
 10
58.0467084826
 20
130.6205173845
 30
0.0
 10
58.175521
 20
130.4911631598
 30
0.0
  0
SPLINE
  5
3D4
100
AcDbEntity
  8
7_ALL_FEATURES
100
AcDbSpline
 62
7
  6
CONTINUOUS
 70
0
 71
3
 72
30
 73
26
 74
0
 42
0.0000001
 43
0.0000001
 44
0.0000000001
 40
0.0
 40
0.0
 40
0.0
 40
0.0
 40
0.2043554985
 40
0.3932181772
 40
0.4809107084
 40
0.5635399597
 40
0.6406326624
 40
0.7116815145
 40
0.7761528445
 40
0.833497616
 40
0.8831665071
 40
0.904955449
 40
0.9246299964
 40
0.9421301938
 40
0.9574027627
 40
0.9703969196
 40
0.9810709547
 40
0.9855262769
 40
0.9893880009
 40
0.992653411
 40
0.9953202587
 40
0.9973864966
 40
0.9988506528
 40
0.9997143898
 40
1.0
 40
1.0
 40
1.0
 40
1.0
 10
55.2387885176
 20
134.6514686281
 30
0.0
 10
55.2241801576
 20
134.6818010046
 30
0.0
 10
55.1962555563
 20
134.7402552748
 30
0.0
 10
55.1625284643
 20
134.8119468533
 30
0.0
 10
55.1375515484
 20
134.8655916846
 30
0.0
 10
55.1204337155
 20
134.9025837823
 30
0.0
 10
55.1045391041
 20
134.9371204819
 30
0.0
 10
55.0899508451
 20
134.9689652728
 30
0.0
 10
55.0767567104
 20
134.9978701423
 30
0.0
 10
55.0650470608
 20
135.0235807336
 30
0.0
 10
55.0562558334
 20
135.0428937729
 30
0.0
 10
55.050027244
 20
135.0565545595
 30
0.0
 10
55.0459905326
 20
135.065390175
 30
0.0
 10
55.0423903034
 20
135.0732448902
 30
0.0
 10
55.0392360472
 20
135.0800934144
 30
0.0
 10
55.0365360178
 20
135.0859127579
 30
0.0
 10
55.0345682626
 20
135.0901078371
 30
0.0
 10
55.0332242441
 20
135.0929324947
 30
0.0
 10
55.0323954333
 20
135.094652865
 30
0.0
 10
55.0316877322
 20
135.0960982754
 30
0.0
 10
55.0310916346
 20
135.0972863968
 30
0.0
 10
55.0306348919
 20
135.098166598
 30
0.0
 10
55.0302540931
 20
135.0988584569
 30
0.0
 10
55.0300814121
 20
135.0991252434
 30
0.0
 10
55.029905701
 20
135.0993748204
 30
0.0
 10
55.0298724111
 20
135.0993415668
 30
0.0
  0
SPLINE
  5
3D5
100
AcDbEntity
  8
02___PRT_ALL_AXES
100
AcDbSpline
 62
7
  6
CONTINUOUS
 70
0
 71
3
 72
30
 73
26
 74
0
 42
0.0000001
 43
0.0000001
 44
0.0000000001
 40
0.0
 40
0.0
 40
0.0
 40
0.0
 40
0.0002185161
 40
0.0009827374
 40
0.0023024198
 40
0.0041783127
 40
0.0066095941
 40
0.0095951327
 40
0.0131337254
 40
0.0172241363
 40
0.0270534836
 40
0.0390647528
 40
0.0532379148
 40
0.0695487117
 40
0.0879687604
 40
0.1084684985
 40
0.1555676573
 40
0.2105481165
 40
0.2730773067
 40
0.342796902
 40
0.4193310327
 40
0.5022930243
 40
0.5912924875
 40
0.7858507939
 40
1.0
 40
1.0
 40
1.0
 40
1.0
 10
58.5782951351
 20
130.099592682
 30
0.0
 10
58.5782951114
 20
130.0995517582
 30
0.0
 10
58.5780158792
 20
130.099757004
 30
0.0
 10
58.5778055686
 20
130.099909892
 30
0.0
 10
58.5771553296
 20
130.1004482785
 30
0.0
 10
58.5763886224
 20
130.1011018156
 30
0.0
 10
58.5753433232
 20
130.1020090493
 30
0.0
 10
58.5740886096
 20
130.1031119174
 30
0.0
 10
58.5725992832
 20
130.1044320523
 30
0.0
 10
58.5701602971
 20
130.1066081192
 30
0.0
 10
58.5665485941
 20
130.1098555777
 30
0.0
 10
58.5615482065
 20
130.1143814502
 30
0.0
 10
58.5556610813
 20
130.1197369462
 30
0.0
 10
58.5488989301
 20
130.1259139872
 30
0.0
 10
58.5412745841
 20
130.1329039691
 30
0.0
 10
58.5294178541
 20
130.1438098996
 30
0.0
 10
58.5125591795
 20
130.1593918647
 30
0.0
 10
58.4899809558
 20
130.1803821564
 30
0.0
 10
58.4643704891
 20
130.204332478
 30
0.0
 10
58.4358933199
 20
130.2311268856
 30
0.0
 10
58.4047232803
 20
130.2606432436
 30
0.0
 10
58.3710390361
 20
130.2927555368
 30
0.0
 10
58.3215237657
 20
130.3402947464
 30
0.0
 10
58.2546545137
 20
130.4052326266
 30
0.0
 10
58.2001727731
 20
130.4589980256
 30
0.0
 10
58.1717437732
 20
130.487287237
 30
0.0
  0
LINE
  5
3D6
100
AcDbEntity
  8
02___PRT_ALL_AXES
100
AcDbLine
 62
7
  6
CONTINUOUS
 10
58.1717437732
 20
130.487287237
 11
58.1678501781
 21
130.4911631598
  0
SPLINE
  5
3D7
100
AcDbEntity
  8
7_ALL_FEATURES
100
AcDbSpline
 62
7
  6
CONTINUOUS
 70
0
 71
3
 72
38
 73
34
 74
0
 42
0.0000001
 43
0.0000001
 44
0.0000000001
 40
0.0
 40
0.0
 40
0.0
 40
0.0
 40
0.1950845115
 40
0.2902760335
 40
0.3826721151
 40
0.4713828505
 40
0.5555540102
 40
0.6343748978
 40
0.7070865566
 40
0.7729886296
 40
0.8031850712
 40
0.8314466179
 40
0.8577051393
 40
0.8818974318
 40
0.9039652581
 40
0.9238554385
 40
0.9415200167
 40
0.9569165174
 40
0.9700079242
 40
0.9756791234
 40
0.9807627339
 40
0.9852555727
 40
0.9891550971
 40
0.9924589417
 40
0.9951651217
 40
0.9962936523
 40
0.9972722637
 40
0.998100813
 40
0.9987792269
 40
0.9993075544
 40
0.9996859883
 40
0.9999152188
 40
1.0
 40
1.0
 40
1.0
 40
1.0
 10
58.7640056036
 20
138.5977648776
 30
0.0
 10
58.7640056036
 20
138.4677046566
 30
0.0
 10
58.764064817
 20
138.2741815197
 30
0.0
 10
58.7642664782
 20
138.0190592418
 30
0.0
 10
58.7644744976
 20
137.8348549672
 30
0.0
 10
58.7647383579
 20
137.6579978993
 30
0.0
 10
58.7650554352
 20
137.4901913328
 30
0.0
 10
58.7654224911
 20
137.3330512634
 30
0.0
 10
58.7658358197
 20
137.1880911083
 30
0.0
 10
58.7662255788
 20
137.0755483
 30
0.0
 10
58.7665615518
 20
136.9926397976
 30
0.0
 10
58.7668151009
 20
136.9361610066
 30
0.0
 10
58.7670769462
 20
136.8836851848
 30
0.0
 10
58.7673464173
 20
136.8353387301
 30
0.0
 10
58.7676227783
 20
136.7912380767
 30
0.0
 10
58.7679052639
 20
136.7514894992
 30
0.0
 10
58.7681929705
 20
136.7161887702
 30
0.0
 10
58.7684850605
 20
136.6854209053
 30
0.0
 10
58.7687417039
 20
136.6626489123
 30
0.0
 10
58.7689528403
 20
136.6467523588
 30
0.0
 10
58.7691041395
 20
136.636588073
 30
0.0
 10
58.7692558975
 20
136.6276051097
 30
0.0
 10
58.7694078239
 20
136.6198088351
 30
0.0
 10
58.7695597704
 20
136.6132041142
 30
0.0
 10
58.7696924511
 20
136.6084464844
 30
0.0
 10
58.7698017481
 20
136.6052397878
 30
0.0
 10
58.769878313
 20
136.6032830883
 30
0.0
 10
58.7699553136
 20
136.6016306863
 30
0.0
 10
58.7700298083
 20
136.6002677147
 30
0.0
 10
58.7701085591
 20
136.5992344863
 30
0.0
 10
58.770172722
 20
136.5984328409
 30
0.0
 10
58.7702552964
 20
136.5980610547
 30
0.0
 10
58.7702951476
 20
136.5977648776
 30
0.0
 10
58.7703516701
 20
136.5977648776
 30
0.0
  0
SPLINE
  5
3D8
100
AcDbEntity
  8
7_ALL_FEATURES
100
AcDbSpline
 62
7
  6
CONTINUOUS
 70
0
 71
3
 72
38
 73
34
 74
0
 42
0.0000001
 43
0.0000001
 44
0.0000000001
 40
0.0
 40
0.0
 40
0.0
 40
0.0
 40
0.0000847812
 40
0.0003140117
 40
0.0006924456
 40
0.0012207731
 40
0.001899187
 40
0.0027277363
 40
0.0037063477
 40
0.0048348783
 40
0.0075410583
 40
0.0108449029
 40
0.0147444273
 40
0.0192372661
 40
0.0243208766
 40
0.0299920758
 40
0.0430834826
 40
0.0584799833
 40
0.0761445615
 40
0.0960347419
 40
0.1181025682
 40
0.1422948607
 40
0.1685533821
 40
0.1968149288
 40
0.2270113704
 40
0.2929134434
 40
0.3656251022
 40
0.4444459898
 40
0.5286171495
 40
0.6173278849
 40
0.7097239665
 40
0.8049154885
 40
1.0
 40
1.0
 40
1.0
 40
1.0
 10
58.7703516701
 20
145.5977648776
 30
0.0
 10
58.7702951476
 20
145.5977648776
 30
0.0
 10
58.7702552964
 20
145.5974687006
 30
0.0
 10
58.770172722
 20
145.5970969144
 30
0.0
 10
58.7701085591
 20
145.596295269
 30
0.0
 10
58.7700298083
 20
145.5952620406
 30
0.0
 10
58.7699553136
 20
145.593899069
 30
0.0
 10
58.769878313
 20
145.592246667
 30
0.0
 10
58.7698017481
 20
145.5902899675
 30
0.0
 10
58.7696924511
 20
145.5870832709
 30
0.0
 10
58.7695597704
 20
145.5823256411
 30
0.0
 10
58.7694078239
 20
145.5757209201
 30
0.0
 10
58.7692558975
 20
145.5679246456
 30
0.0
 10
58.7691041395
 20
145.5589416823
 30
0.0
 10
58.7689528403
 20
145.5487773965
 30
0.0
 10
58.7687417039
 20
145.532880843
 30
0.0
 10
58.7684850605
 20
145.51010885
 30
0.0
 10
58.7681929705
 20
145.4793409851
 30
0.0
 10
58.7679052639
 20
145.4440402561
 30
0.0
 10
58.7676227783
 20
145.4042916786
 30
0.0
 10
58.7673464173
 20
145.3601910252
 30
0.0
 10
58.7670769462
 20
145.3118445705
 30
0.0
 10
58.7668151009
 20
145.2593687487
 30
0.0
 10
58.7665615518
 20
145.2028899576
 30
0.0
 10
58.7662255788
 20
145.1199814553
 30
0.0
 10
58.7658358197
 20
145.007438647
 30
0.0
 10
58.7654224911
 20
144.8624784919
 30
0.0
 10
58.7650554352
 20
144.7053384225
 30
0.0
 10
58.7647383579
 20
144.537531856
 30
0.0
 10
58.7644744976
 20
144.360674788
 30
0.0
 10
58.7642664782
 20
144.1764705135
 30
0.0
 10
58.764064817
 20
143.9213482356
 30
0.0
 10
58.7640056036
 20
143.7278250987
 30
0.0
 10
58.7640056036
 20
143.5977648776
 30
0.0
  0
SPLINE
  5
3D9
100
AcDbEntity
  8
7_ALL_FEATURES
100
AcDbSpline
 62
9
  6
CONTINUOUS
 70
0
 71
3
 72
47
 73
43
 74
0
 42
0.0000001
 43
0.0000001
 44
0.0000000001
 40
0.0
 40
0.0
 40
0.0
 40
0.0
 40
0.0156286218
 40
0.0312571642
 40
0.0468857599
 40
0.0625143381
 40
0.0937620006
 40
0.1250096484
 40
0.1406382108
 40
0.1562667693
 40
0.1718953239
 40
0.1875238747
 40
0.2187714767
 40
0.2500190646
 40
0.2812666401
 40
0.312514205
 40
0.3437617619
 40
0.3750093134
 40
0.4062568626
 40
0.4375044124
 40
0.4687519659
 40
0.499999526
 40
0.5312470952
 40
0.562494676
 40
0.5937422699
 40
0.6249898784
 40
0.6562375022
 40
0.6874851416
 40
0.7187327958
 40
0.7499804641
 40
0.7812281449
 40
0.8124758359
 40
0.8281044287
 40
0.8437330231
 40
0.8593616188
 40
0.8749902154
 40
0.9062379217
 40
0.9374856271
 40
0.9531142227
 40
0.9687428169
 40
0.9843714095
 40
1.0
 40
1.0
 40
1.0
 40
1.0
 10
54.7935389128
 20
136.5977648776
 30
0.0
 10
54.8674521317
 20
136.3679053614
 30
0.0
 10
55.0266354457
 20
135.9117498263
 30
0.0
 10
55.2988006676
 20
135.2401771515
 30
0.0
 10
55.6037325799
 20
134.5827964203
 30
0.0
 10
56.0528742483
 20
133.7275839885
 30
0.0
 10
56.6925311752
 20
132.7016102469
 30
0.0
 10
57.4300870153
 20
131.7435965659
 30
0.0
 10
58.0742765404
 20
131.0237777071
 30
0.0
 10
58.5835366624
 20
130.5082438576
 30
0.0
 10
59.1175795962
 20
130.0184263047
 30
0.0
 10
59.8607563877
 20
129.4013419609
 30
0.0
 10
60.8454750644
 20
128.6997549791
 30
0.0
 10
62.1039546452
 20
127.9784222594
 30
0.0
 10
63.4273643302
 20
127.3843832641
 30
0.0
 10
64.802790021
 20
126.9234659325
 30
0.0
 10
66.2168993647
 20
126.6001269799
 30
0.0
 10
67.6559616002
 20
126.4175098164
 30
0.0
 10
69.1060097758
 20
126.37738564
 30
0.0
 10
70.5529687583
 20
126.4801440264
 30
0.0
 10
71.982793708
 20
126.7247880455
 30
0.0
 10
73.3816062457
 20
127.1089422388
 30
0.0
 10
74.7358285779
 20
127.6288788181
 30
0.0
 10
76.0323163669
 20
128.2795500753
 30
0.0
 10
77.2584849441
 20
129.0546410571
 30
0.0
 10
78.4024328569
 20
129.9466279812
 30
0.0
 10
79.4530562502
 20
130.9468525457
 30
0.0
 10
80.4001574903
 20
132.0456079514
 30
0.0
 10
81.2345426675
 20
133.232222378
 30
0.0
 10
81.9481173123
 20
134.4952025884
 30
0.0
 10
82.5339367115
 20
135.8221990575
 30
0.0
 10
82.9110005667
 20
136.9709924815
 30
0.0
 10
83.143646433
 20
137.9085349213
 30
0.0
 10
83.2833256164
 20
138.6196013583
 30
0.0
 10
83.3878010049
 20
139.3366846199
 30
0.0
 10
83.4798250899
 20
140.2982743334
 30
0.0
 10
83.5058232482
 20
141.5070373196
 30
0.0
 10
83.4126923101
 20
142.7124891685
 30
0.0
 10
83.2673741412
 20
143.6674765591
 30
0.0
 10
83.123208027
 20
144.3776529528
 30
0.0
 10
82.9442404961
 20
145.0798315484
 30
0.0
 10
82.8019988521
 20
145.5415509356
 30
0.0
 10
82.725248937
 20
145.7704783878
 30
0.0
  0
SPLINE
  5
3DA
100
AcDbEntity
  8
7_ALL_FEATURES
100
AcDbSpline
 62
7
  6
CONTINUOUS
 70
0
 71
3
 72
23
 73
19
 74
0
 42
0.0000001
 43
0.0000001
 44
0.0000000001
 40
0.0
 40
0.0
 40
0.0
 40
0.0
 40
0.231415573
 40
0.433171541
 40
0.6048098953
 40
0.6792084056
 40
0.7459339341
 40
0.8049495382
 40
0.8562186576
 40
0.8997108461
 40
0.9354038563
 40
0.9632768081
 40
0.9742756497
 40
0.9833154705
 40
0.9903970868
 40
0.995523366
 40
0.9987042677
 40
1.0
 40
1.0
 40
1.0
 40
1.0
 10
54.428245466
 20
145.4977867505
 30
0.0
 10
54.4306969258
 20
145.5055326421
 30
0.0
 10
54.435305127
 20
145.5200255148
 30
0.0
 10
54.4417997799
 20
145.5402416444
 30
0.0
 10
54.4466571351
 20
145.5551936344
 30
0.0
 10
54.4500818866
 20
145.5656263967
 30
0.0
 10
54.4522884939
 20
145.5722974472
 30
0.0
 10
54.4542558028
 20
145.5781923583
 30
0.0
 10
54.4559815667
 20
145.583307868
 30
0.0
 10
54.4574636194
 20
145.5876416502
 30
0.0
 10
54.4587005118
 20
145.5911904406
 30
0.0
 10
54.4595824569
 20
145.593656424
 30
0.0
 10
54.4601679652
 20
145.5952316301
 30
0.0
 10
54.4605088826
 20
145.5961242877
 30
0.0
 10
54.4607876275
 20
145.5968068473
 30
0.0
 10
54.4610019624
 20
145.5973246287
 30
0.0
 10
54.4611535439
 20
145.5975859327
 30
0.0
 10
54.4612398504
 20
145.5977648776
 30
0.0
 10
54.4612853411
 20
145.5977648776
 30
0.0
  0
SPLINE
  5
3DB
100
AcDbEntity
  8
7_ALL_FEATURES
100
AcDbSpline
 62
7
  6
CONTINUOUS
 70
0
 71
3
 72
23
 73
19
 74
0
 42
0.0000001
 43
0.0000001
 44
0.0000000001
 40
0.0
 40
0.0
 40
0.0
 40
0.0
 40
0.0012957334
 40
0.0044766357
 40
0.0096029152
 40
0.0166845316
 40
0.0257243521
 40
0.0367231931
 40
0.0645961431
 40
0.1002891519
 40
0.1437813379
 40
0.1950504529
 40
0.2540660542
 40
0.3207915798
 40
0.3951900855
 40
0.5668284379
 40
0.7685844098
 40
1.0
 40
1.0
 40
1.0
 40
1.0
 10
54.4612853411
 20
136.5977648776
 30
0.0
 10
54.4612398506
 20
136.5977648776
 30
0.0
 10
54.4611535443
 20
136.5979438215
 30
0.0
 10
54.4610019637
 20
136.5982051241
 30
0.0
 10
54.4607876297
 20
136.5987229026
 30
0.0
 10
54.4605088862
 20
136.5994054584
 30
0.0
 10
54.4601679705
 20
136.600298111
 30
0.0
 10
54.4595824653
 20
136.6018733083
 30
0.0
 10
54.4587005248
 20
136.6043392779
 30
0.0
 10
54.4574636389
 20
136.6078880485
 30
0.0
 10
54.4559815941
 20
136.6122218064
 30
0.0
 10
54.4542558395
 20
136.6173372876
 30
0.0
 10
54.4522885412
 20
136.6232321658
 30
0.0
 10
54.4500819457
 20
136.6299031791
 30
0.0
 10
54.4466572126
 20
136.6403358836
 30
0.0
 10
54.4417998832
 20
136.6552877909
 30
0.0
 10
54.4353052648
 20
136.6755038097
 30
0.0
 10
54.4306970877
 20
136.689996603
 30
0.0
 10
54.4282456408
 20
136.6977424524
 30
0.0
  0
SPLINE
  5
3DC
100
AcDbEntity
  8
7_ALL_FEATURES
100
AcDbSpline
 62
7
  6
CONTINUOUS
 70
0
 71
3
 72
38
 73
34
 74
0
 42
0.0000001
 43
0.0000001
 44
0.0000000001
 40
0.0
 40
0.0
 40
0.0
 40
0.0
 40
0.124995214
 40
0.2499905825
 40
0.3749856903
 40
0.4374871018
 40
0.4999883961
 40
0.5624895675
 40
0.6249906137
 40
0.6874915353
 40
0.7187424555
 40
0.7499933468
 40
0.7812442099
 40
0.8124950458
 40
0.8437458554
 40
0.8749966396
 40
0.8906220878
 40
0.9062475305
 40
0.9218729676
 40
0.9374983995
 40
0.9453111218
 40
0.953123844
 40
0.9609365657
 40
0.9687492797
 40
0.9765620099
 40
0.9804683692
 40
0.9843746992
 40
0.9882810802
 40
0.9921874989
 40
0.9941405681
 40
0.9960936825
 40
0.9980471923
 40
1.0
 40
1.0
 40
1.0
 40
1.0
 10
55.3527509066
 20
147.7977316316
 30
0.0
 10
55.4531159177
 20
147.9992649139
 30
0.0
 10
55.6630236237
 20
148.3978371426
 30
0.0
 10
56.0046163888
 20
148.980763186
 30
0.0
 10
56.3110100872
 20
149.4531777762
 30
0.0
 10
56.5687503083
 20
149.8224543794
 30
0.0
 10
56.768291657
 20
150.0949741132
 30
0.0
 10
56.9739583875
 20
150.3628983853
 30
0.0
 10
57.1856486104
 20
150.6260879955
 30
0.0
 10
57.3669928298
 20
150.8413538321
 30
0.0
 10
57.5149726279
 20
151.0110555291
 30
0.0
 10
57.6273998881
 20
151.1370621323
 30
0.0
 10
57.7412553898
 20
151.2617792183
 30
0.0
 10
57.8565271882
 20
151.3851884005
 30
0.0
 10
57.9732038844
 20
151.5072698344
 30
0.0
 10
58.0715975526
 20
151.6078805149
 30
0.0
 10
58.1510066248
 20
151.6876812997
 30
0.0
 10
58.2109108262
 20
151.7471845292
 30
0.0
 10
58.2711628072
 20
151.806335482
 30
0.0
 10
58.3216641538
 20
151.8553294874
 30
0.0
 10
58.3622422697
 20
151.8943409586
 30
0.0
 10
58.3927654784
 20
151.9235060997
 30
0.0
 10
58.4233793627
 20
151.9525760291
 30
0.0
 10
58.4540880794
 20
151.9815457837
 30
0.0
 10
58.4797582339
 20
152.0056026558
 30
0.0
 10
58.5003473418
 20
152.0247913272
 30
0.0
 10
58.515821566
 20
152.0391480375
 30
0.0
 10
58.5313245246
 20
152.0534737795
 30
0.0
 10
58.5442611734
 20
152.0653929683
 30
0.0
 10
58.5546589015
 20
152.0748749163
 30
0.0
 10
58.562489047
 20
152.0819528645
 30
0.0
 10
58.5702538511
 20
152.0890985158
 30
0.0
 10
58.5755421921
 20
152.0937480424
 30
0.0
 10
58.5782953185
 20
152.0959372013
 30
0.0
  0
SPLINE
  5
3DD
100
AcDbEntity
  8
7_ALL_FEATURES
100
AcDbSpline
 62
7
  6
CONTINUOUS
 70
0
 71
3
 72
12
 73
8
 74
0
 42
0.0000001
 43
0.0000001
 44
0.0000000001
 40
0.0
 40
0.0
 40
0.0
 40
0.0
 40
0.1068284511
 40
0.2278957639
 40
0.4861514338
 40
0.7467338297
 40
1.0
 40
1.0
 40
1.0
 40
1.0
 10
58.1678501781
 20
130.4911631598
 30
0.0
 10
58.0458443117
 20
130.6126614412
 30
0.0
 10
57.7901530737
 20
130.8765040821
 30
0.0
 10
57.2660791568
 20
131.4592299675
 30
0.0
 10
56.6241812037
 20
132.2682405576
 30
0.0
 10
55.9346355995
 20
133.3058608318
 30
0.0
 10
55.534729278
 20
134.0323856977
 30
0.0
 10
55.3527551356
 20
134.397789567
 30
0.0
  0
SPLINE
  5
3DE
100
AcDbEntity
  8
7_ALL_FEATURES
100
AcDbSpline
 62
7
  6
CONTINUOUS
 70
0
 71
3
 72
19
 73
15
 74
0
 42
0.0000001
 43
0.0000001
 44
0.0000000001
 40
0.0
 40
0.0
 40
0.0
 40
0.0
 40
0.0050313494
 40
0.0177002607
 40
0.0381725977
 40
0.0664522802
 40
0.1025176013
 40
0.1463413034
 40
0.1978935607
 40
0.2571308763
 40
0.3984221655
 40
0.5697289937
 40
0.7704785326
 40
1.0
 40
1.0
 40
1.0
 40
1.0
 10
55.0298724111
 20
135.0993415668
 30
0.0
 10
55.029826851
 20
135.0992960564
 30
0.0
 10
55.0299250348
 20
135.0990264184
 30
0.0
 10
55.030010556
 20
135.0985967943
 30
0.0
 10
55.0302893855
 20
135.0978301581
 30
0.0
 10
55.0306470638
 20
135.096818766
 30
0.0
 10
55.0311403329
 20
135.0955197725
 30
0.0
 10
55.0317464097
 20
135.0939523287
 30
0.0
 10
55.0324734703
 20
135.0921111519
 30
0.0
 10
55.0336720286
 20
135.0891159052
 30
0.0
 10
55.0354659447
 20
135.0847075899
 30
0.0
 10
55.0379714383
 20
135.0786337359
 30
0.0
 10
55.0409333761
 20
135.0715265562
 30
0.0
 10
55.0430664228
 20
135.066449354
 30
0.0
 10
55.0442073213
 20
135.0637422854
 30
0.0
  0
SPLINE
  5
3DF
100
AcDbEntity
  8
7_ALL_FEATURES
100
AcDbSpline
 62
7
  6
CONTINUOUS
 70
0
 71
3
 72
19
 73
15
 74
0
 42
0.0000001
 43
0.0000001
 44
0.0000000001
 40
0.0
 40
0.0
 40
0.0
 40
0.0
 40
0.2295214681
 40
0.4302710073
 40
0.6015778365
 40
0.7428691243
 40
0.8021064398
 40
0.8536586978
 40
0.8974823997
 40
0.93354772
 40
0.9618274019
 40
0.9822997392
 40
0.9949686509
 40
1.0
 40
1.0
 40
1.0
 40
1.0
 10
55.0442073195
 20
147.1317874656
 30
0.0
 10
55.0430664211
 20
147.1290803974
 30
0.0
 10
55.0409333747
 20
147.1240031957
 30
0.0
 10
55.0379714373
 20
147.1168960169
 30
0.0
 10
55.035465944
 20
147.1108221635
 30
0.0
 10
55.0336720281
 20
147.1064138488
 30
0.0
 10
55.03247347
 20
147.1034186025
 30
0.0
 10
55.0317464094
 20
147.1015774259
 30
0.0
 10
55.0311403327
 20
147.1000099823
 30
0.0
 10
55.0306470637
 20
147.0987109889
 30
0.0
 10
55.0302893855
 20
147.097699597
 30
0.0
 10
55.030010556
 20
147.0969329609
 30
0.0
 10
55.0299250347
 20
147.0965033368
 30
0.0
 10
55.029826851
 20
147.0962336989
 30
0.0
 10
55.0298724111
 20
147.0961881884
 30
0.0
  0
SPLINE
  5
3E0
100
AcDbEntity
  8
3_ALL_AXES
100
AcDbSpline
 62
7
  6
CONTINUOUS
 70
0
 71
3
 72
15
 73
11
 74
0
 42
0.0000001
 43
0.0000001
 44
0.0000000001
 40
0.0
 40
0.0
 40
0.0
 40
0.0
 40
0.1483724352
 40
0.2894077241
 40
0.4229259865
 40
0.5491266345
 40
0.6686282608
 40
0.7825155336
 40
0.8923310224
 40
1.0
 40
1.0
 40
1.0
 40
1.0
 10
207.4563143917
 20
106.6297495412
 30
0.0
 10
207.4563143917
 20
106.5360918188
 30
0.0
 10
207.464362011
 20
106.3532672555
 30
0.0
 10
207.502515042
 20
106.0885705957
 30
0.0
 10
207.5660840736
 20
105.8431230211
 30
0.0
 10
207.6544303989
 20
105.6199137807
 30
0.0
 10
207.7666633523
 20
105.4216935917
 30
0.0
 10
207.9016385614
 20
105.2510200477
 30
0.0
 10
208.0577599617
 20
105.1103045039
 30
0.0
 10
208.1752057475
 20
105.0375245694
 30
0.0
 10
208.2359945243
 20
105.0071292902
 30
0.0
  0
SPLINE
  5
3E1
100
AcDbEntity
  8
3_ALL_AXES
100
AcDbSpline
 62
7
  6
CONTINUOUS
 70
0
 71
3
 72
25
 73
21
 74
0
 42
0.0000001
 43
0.0000001
 44
0.0000000001
 40
0.0
 40
0.0
 40
0.0
 40
0.0
 40
0.0647430307
 40
0.1325856947
 40
0.2028557896
 40
0.2747590502
 40
0.3474313662
 40
0.4199749277
 40
0.491497508
 40
0.5611510708
 40
0.6281720903
 40
0.6919253309
 40
0.7519532344
 40
0.8080322917
 40
0.8602357997
 40
0.9089955796
 40
0.9323593883
 40
0.9552056514
 40
0.9776942389
 40
1.0
 40
1.0
 40
1.0
 40
1.0
 10
207.4563143917
 20
106.6297495412
 30
0.0
 10
207.4563143917
 20
106.7551346654
 30
0.0
 10
207.4714374206
 20
107.0120701907
 30
0.0
 10
207.5348327962
 20
107.4003837072
 30
0.0
 10
207.6382517432
 20
107.7943507173
 30
0.0
 10
207.7796703821
 20
108.1862295986
 30
0.0
 10
207.9563164166
 20
108.568384087
 30
0.0
 10
208.1647353555
 20
108.9333342016
 30
0.0
 10
208.4008518582
 20
109.2739436882
 30
0.0
 10
208.6600630172
 20
109.5835568701
 30
0.0
 10
208.9373399682
 20
109.8561339757
 30
0.0
 10
209.2273521544
 20
110.0863602713
 30
0.0
 10
209.5245803338
 20
110.26973038
 30
0.0
 10
209.8234970482
 20
110.4025668289
 30
0.0
 10
210.1184736258
 20
110.4820191458
 30
0.0
 10
210.3600725028
 20
110.5021721816
 30
0.0
 10
210.5438179513
 20
110.4888733751
 30
0.0
 10
210.6749966862
 20
110.4650594298
 30
0.0
 10
210.8007266608
 20
110.4273538805
 30
0.0
 10
210.880637138
 20
110.3930096062
 30
0.0
 10
210.9192749462
 20
110.3736901359
 30
0.0
  0
SPLINE
  5
3E2
100
AcDbEntity
  8
3_ALL_AXES
100
AcDbSpline
 62
7
  6
CONTINUOUS
 70
0
 71
3
 72
15
 73
11
 74
0
 42
0.0000001
 43
0.0000001
 44
0.0000000001
 40
0.0
 40
0.0
 40
0.0
 40
0.0
 40
0.1076689776
 40
0.2174844664
 40
0.3313717392
 40
0.4508733655
 40
0.5770740135
 40
0.7105922759
 40
0.8516275648
 40
1.0
 40
1.0
 40
1.0
 40
1.0
 10
211.0606963028
 20
110.3029794576
 30
0.0
 10
211.1214850796
 20
110.2725841783
 30
0.0
 10
211.2389308653
 20
110.1998042438
 30
0.0
 10
211.3950522656
 20
110.0590887
 30
0.0
 10
211.5300274745
 20
109.888415156
 30
0.0
 10
211.6422604279
 20
109.690194967
 30
0.0
 10
211.7306067532
 20
109.4669857266
 30
0.0
 10
211.7941757847
 20
109.2215381521
 30
0.0
 10
211.8323288158
 20
108.9568414923
 30
0.0
 10
211.840376435
 20
108.7740169292
 30
0.0
 10
211.840376435
 20
108.6803592067
 30
0.0
  0
SPLINE
  5
3E3
100
AcDbEntity
  8
3_ALL_AXES
100
AcDbSpline
 62
7
  6
CONTINUOUS
 70
0
 71
3
 72
11
 73
7
 74
0
 42
0.0000001
 43
0.0000001
 44
0.0000000001
 40
0.0
 40
0.0
 40
0.0
 40
0.0
 40
0.2439322286
 40
0.4903710354
 40
0.741687553
 40
1.0
 40
1.0
 40
1.0
 40
1.0
 10
208.3774158802
 20
104.9364186122
 30
0.0
 10
208.4207466054
 20
104.9147526146
 30
0.0
 10
208.5107845513
 20
104.8768056545
 30
0.0
 10
208.6530906426
 20
104.837333791
 30
0.0
 10
208.8020012404
 20
104.815399826
 30
0.0
 10
208.9034356224
 20
104.8125812681
 30
0.0
 10
208.9547184574
 20
104.8139632428
 30
0.0
  0
SPLINE
  5
3E4
100
AcDbEntity
  8
3_ALL_AXES
100
AcDbSpline
 62
7
  6
CONTINUOUS
 70
0
 71
3
 72
14
 73
10
 74
0
 42
0.0000001
 43
0.0000001
 44
0.0000000001
 40
0.0
 40
0.0
 40
0.0
 40
0.0
 40
0.107448792
 40
0.2179992898
 40
0.3330211966
 40
0.4535644339
 40
0.7133387253
 40
0.8534195288
 40
1.0
 40
1.0
 40
1.0
 40
1.0
 10
211.0543255809
 20
110.2939830308
 30
0.0
 10
211.1055765843
 20
110.2587445408
 30
0.0
 10
211.2038641976
 20
110.1785992755
 30
0.0
 10
211.3330351473
 20
110.0345886689
 30
0.0
 10
211.4442787639
 20
109.8671622671
 30
0.0
 10
211.5703457836
 20
109.6088842347
 30
0.0
 10
211.6517148261
 20
109.3158809941
 30
0.0
 10
211.6923209582
 20
109.0019959637
 30
0.0
 10
211.6989550788
 20
108.835917803
 30
0.0
 10
211.6989550788
 20
108.7510698848
 30
0.0
  0
SPLINE
  5
3E5
100
AcDbEntity
  8
3_ALL_AXES
100
AcDbSpline
 62
7
  6
CONTINUOUS
 70
0
 71
3
 72
15
 73
11
 74
0
 42
0.0000001
 43
0.0000001
 44
0.0000000001
 40
0.0
 40
0.0
 40
0.0
 40
0.0
 40
0.1174215565
 40
0.2412569497
 40
0.3696082034
 40
0.5002722906
 40
0.6308994548
 40
0.7591420561
 40
0.8828021572
 40
1.0
 40
1.0
 40
1.0
 40
1.0
 10
210.1543625371
 20
105.2945667155
 30
0.0
 10
210.2761415675
 20
105.3867295965
 30
0.0
 10
210.5130874572
 20
105.5940498294
 30
0.0
 10
210.8344935956
 20
105.9528685981
 30
0.0
 10
211.1241094295
 20
106.3591441305
 30
0.0
 10
211.3736538443
 20
106.8012769767
 30
0.0
 10
211.5760694719
 20
107.2667218639
 30
0.0
 10
211.7255992994
 20
107.7422892575
 30
0.0
 10
211.8179804963
 20
108.2143976279
 30
0.0
 10
211.840376435
 20
108.5279277845
 30
0.0
 10
211.840376435
 20
108.6803592067
 30
0.0
  0
SPLINE
  5
3E6
100
AcDbEntity
  8
3_ALL_AXES
100
AcDbSpline
 62
7
  6
CONTINUOUS
 70
0
 71
3
 72
24
 73
20
 74
0
 42
0.0000001
 43
0.0000001
 44
0.0000000001
 40
0.0
 40
0.0
 40
0.0
 40
0.0
 40
0.0222933045
 40
0.0449541735
 40
0.0918799545
 40
0.1417599423
 40
0.1951657498
 40
0.2523312313
 40
0.3131977247
 40
0.3774685528
 40
0.4446605322
 40
0.5141494544
 40
0.5852101232
 40
0.657052472
 40
0.728855351
 40
0.7997990315
 40
0.8690988597
 40
0.9360353535
 40
1.0
 40
1.0
 40
1.0
 40
1.0
 10
208.3806271459
 20
104.9469691059
 30
0.0
 10
208.4204370974
 20
104.9335501067
 30
0.0
 10
208.5022765
 20
104.9108996999
 30
0.0
 10
208.6733842814
 20
104.8827313162
 30
0.0
 10
208.9001129367
 20
104.8811477047
 30
0.0
 10
209.1800445638
 20
104.9314531783
 30
0.0
 10
209.4663148588
 20
105.0322808916
 30
0.0
 10
209.7538947843
 20
105.1814830576
 30
0.0
 10
210.0378484148
 20
105.3761977744
 30
0.0
 10
210.313198852
 20
105.6128616514
 30
0.0
 10
210.5750660948
 20
105.8871898555
 30
0.0
 10
210.8187602123
 20
106.1942246723
 30
0.0
 10
211.0398892823
 20
106.528410449
 30
0.0
 10
211.2344525422
 20
106.8836914103
 30
0.0
 10
211.3989234141
 20
107.2536259389
 30
0.0
 10
211.5303204397
 20
107.6315029694
 30
0.0
 10
211.626254337
 20
108.0104978186
 30
0.0
 10
211.6849846829
 20
108.3837071049
 30
0.0
 10
211.6989550788
 20
108.6305313727
 30
0.0
 10
211.6989550788
 20
108.7510698848
 30
0.0
  0
SPLINE
  5
3E7
100
AcDbEntity
  8
7_ALL_FEATURES
100
AcDbSpline
 62
7
  6
CONTINUOUS
 70
0
 71
3
 72
18
 73
14
 74
0
 42
0.0000001
 43
0.0000001
 44
0.0000000001
 40
0.0
 40
0.0
 40
0.0
 40
0.0
 40
0.0537361433
 40
0.1077452176
 40
0.1622927542
 40
0.2176300594
 40
0.2739884436
 40
0.3315747851
 40
0.4510402768
 40
0.5772022344
 40
0.7106809233
 40
0.8516714964
 40
1.0
 40
1.0
 40
1.0
 40
1.0
 10
212.1653939817
 20
117.5972604639
 30
0.0
 10
212.2463227458
 20
117.5567962072
 30
0.0
 10
212.4050057999
 20
117.4682538176
 30
0.0
 10
212.6309651715
 20
117.3139543612
 30
0.0
 10
212.844445504
 20
117.1385073699
 30
0.0
 10
213.0447553287
 20
116.9424978171
 30
0.0
 10
213.231293858
 20
116.7265395012
 30
0.0
 10
213.463679435
 20
116.4091418297
 30
0.0
 10
213.7162697982
 20
115.9631217193
 30
0.0
 10
213.9518109625
 20
115.3679539483
 30
0.0
 10
214.1213393534
 20
114.7134112114
 30
0.0
 10
214.223079466
 20
114.0075584091
 30
0.0
 10
214.2445394911
 20
113.5200260147
 30
0.0
 10
214.2445394911
 20
113.2702701084
 30
0.0
  0
SPLINE
  5
3E8
100
AcDbEntity
  8
7_ALL_FEATURES
100
AcDbSpline
 62
7
  6
CONTINUOUS
 70
0
 71
3
 72
9
 73
5
 74
0
 42
0.0000001
 43
0.0000001
 44
0.0000000001
 40
0.0
 40
0.0
 40
0.0
 40
0.0
 40
0.4946512237
 40
1.0
 40
1.0
 40
1.0
 40
1.0
 10
186.4800546511
 20
102.1682139586
 30
0.0
 10
186.5223103151
 20
102.1470859969
 30
0.0
 10
186.612001634
 20
102.1124376147
 30
0.0
 10
186.7064934347
 20
102.0950125019
 30
0.0
 10
186.7545313849
 20
102.0903361042
 30
0.0
  0
SPLINE
  5
3E9
100
AcDbEntity
  8
7_ALL_FEATURES
100
AcDbSpline
 62
7
  6
CONTINUOUS
 70
0
 71
3
 72
13
 73
9
 74
0
 42
0.0000001
 43
0.0000001
 44
0.0000000001
 40
0.0
 40
0.0
 40
0.0
 40
0.0
 40
0.2738349168
 40
0.528297658
 40
0.6497439183
 40
0.7682210553
 40
0.8846382813
 40
1.0
 40
1.0
 40
1.0
 40
1.0
 10
265.9884114858
 20
112.4623845242
 30
0.0
 10
266.0557240777
 20
112.4887208464
 30
0.0
 10
266.1897988269
 20
112.5297331456
 30
0.0
 10
266.3614779705
 20
112.5488962083
 30
0.0
 10
266.4920451054
 20
112.5422128947
 30
0.0
 10
266.5850581192
 20
112.5268396458
 30
0.0
 10
266.6740723209
 20
112.5010956622
 30
0.0
 10
266.7305255889
 20
112.4770549168
 30
0.0
 10
266.7577616749
 20
112.4634370041
 30
0.0
  0
SPLINE
  5
3EA
100
AcDbEntity
  8
7_ALL_FEATURES
100
AcDbSpline
 62
7
  6
CONTINUOUS
 70
0
 71
3
 72
25
 73
21
 74
0
 42
0.0000001
 43
0.0000001
 44
0.0000000001
 40
0.0
 40
0.0
 40
0.0
 40
0.0
 40
0.022457427
 40
0.0450603252
 40
0.0679491512
 40
0.0912548259
 40
0.1395248657
 40
0.1906695417
 40
0.2451533146
 40
0.3031714982
 40
0.3646846129
 40
0.4294587544
 40
0.4971041874
 40
0.5671098761
 40
0.6388740874
 40
0.7117319768
 40
0.7849811586
 40
0.8579061023
 40
0.929802101
 40
1.0
 40
1.0
 40
1.0
 40
1.0
 10
266.7577616749
 20
112.4634370041
 30
0.0
 10
266.7806336364
 20
112.4520011328
 30
0.0
 10
266.825382316
 20
112.4266826474
 30
0.0
 10
266.8886015681
 20
112.3818615366
 30
0.0
 10
266.9477707175
 20
112.3303210912
 30
0.0
 10
267.0217760077
 20
112.2520657049
 30
0.0
 10
267.1030273553
 20
112.1373828509
 30
0.0
 10
267.1794003623
 20
111.9788924004
 30
0.0
 10
267.2349707158
 20
111.8004062169
 30
0.0
 10
267.2690340823
 20
111.6047180549
 30
0.0
 10
267.2811972819
 20
111.3947985673
 30
0.0
 10
267.2713356927
 20
111.1738438313
 30
0.0
 10
267.2396350958
 20
110.9452285293
 30
0.0
 10
267.1865993562
 20
110.7124618581
 30
0.0
 10
267.1130543764
 20
110.479130144
 30
0.0
 10
267.0201399002
 20
110.248837377
 30
0.0
 10
266.9092961616
 20
110.0251476795
 30
0.0
 10
266.7822346364
 20
109.8115188006
 30
0.0
 10
266.6409368134
 20
109.6112753028
 30
0.0
 10
266.5371241767
 20
109.4868813259
 30
0.0
 10
266.4832849388
 20
109.4278009466
 30
0.0
  0
SPLINE
  5
3EB
100
AcDbEntity
  8
7_ALL_FEATURES
100
AcDbSpline
 62
7
  6
CONTINUOUS
 70
0
 71
3
 72
24
 73
20
 74
0
 42
0.0000001
 43
0.0000001
 44
0.0000000001
 40
0.0
 40
0.0
 40
0.0
 40
0.0
 40
0.1311517234
 40
0.1977048822
 40
0.2645199653
 40
0.3313179118
 40
0.3978200954
 40
0.4637554311
 40
0.5288675265
 40
0.5929219129
 40
0.6244935296
 40
0.6557266625
 40
0.7170865871
 40
0.7768904221
 40
0.8350648352
 40
0.8915943891
 40
0.9465271574
 40
0.9734386741
 40
1.0
 40
1.0
 40
1.0
 40
1.0
 10
213.1268102789
 20
80.6585391584
 30
0.0
 10
212.8026228294
 20
81.556188372
 30
0.0
 10
212.419076971
 20
82.9502738588
 30
0.0
 10
212.1146025221
 20
84.8520364883
 30
0.0
 10
211.9893528668
 20
86.3046757522
 30
0.0
 10
211.969721043
 20
87.7620357878
 30
0.0
 10
212.0558437105
 20
89.2106260667
 30
0.0
 10
212.2469443249
 20
90.6367951517
 30
0.0
 10
212.5412293685
 20
92.0270990417
 30
0.0
 10
212.8718313227
 20
93.1504933342
 30
0.0
 10
213.1857701814
 20
94.0188758385
 30
0.0
 10
213.5277331843
 20
94.8554468439
 30
0.0
 10
214.0114830741
 20
95.8550178239
 30
0.0
 10
214.6822325265
 20
96.9765425783
 30
0.0
 10
215.4337423721
 20
98.0026444378
 30
0.0
 10
216.2589819197
 20
98.9234657577
 30
0.0
 10
217.0071930785
 20
99.6005755915
 30
0.0
 10
217.6344871455
 20
100.0794760348
 30
0.0
 10
217.9569044227
 20
100.2978114015
 30
0.0
 10
218.1200572239
 20
100.4014517315
 30
0.0
  0
SPLINE
  5
3EC
100
AcDbEntity
  8
7_ALL_FEATURES
100
AcDbSpline
 62
7
  6
CONTINUOUS
 70
0
 71
3
 72
21
 73
17
 74
0
 42
0.0000001
 43
0.0000001
 44
0.0000000001
 40
0.0
 40
0.0
 40
0.0
 40
0.0
 40
0.055459372
 40
0.111159613
 40
0.1673332528
 40
0.2241967744
 40
0.2819440574
 40
0.340741303
 40
0.4007235603
 40
0.4619927899
 40
0.5246172758
 40
0.588632131
 40
0.7207353812
 40
0.7888237523
 40
0.8581457624
 40
1.0
 40
1.0
 40
1.0
 40
1.0
 10
224.0042077282
 20
71.8447502203
 30
0.0
 10
223.727530121
 20
71.8297463497
 30
0.0
 10
223.1710812457
 20
71.8273049463
 30
0.0
 10
222.3375275888
 20
71.9065710032
 30
0.0
 10
221.5087739213
 20
72.0682574367
 30
0.0
 10
220.6895621908
 20
72.311408074
 30
0.0
 10
219.884414913
 20
72.6345968361
 30
0.0
 10
219.097785997
 20
73.0359557463
 30
0.0
 10
218.3339881808
 20
73.5131975007
 30
0.0
 10
217.5972055667
 20
74.0636144992
 30
0.0
 10
216.8914093242
 20
74.6841754845
 30
0.0
 10
215.9876299892
 20
75.6098416035
 30
0.0
 10
215.1719255422
 20
76.6542058642
 30
0.0
 10
214.4522718072
 20
77.7931255148
 30
0.0
 10
213.7842752728
 20
79.0189507699
 30
0.0
 10
213.3675493781
 20
79.991951777
 30
0.0
 10
213.1268102789
 20
80.6585391584
 30
0.0
  0
SPLINE
  5
3ED
100
AcDbEntity
  8
7_ALL_FEATURES
100
AcDbSpline
 62
7
  6
CONTINUOUS
 70
0
 71
3
 72
12
 73
8
 74
0
 42
0.0000001
 43
0.0000001
 44
0.0000000001
 40
0.0
 40
0.0
 40
0.0
 40
0.0
 40
0.2423501233
 40
0.4901188032
 40
0.6159181061
 40
0.7428898369
 40
1.0
 40
1.0
 40
1.0
 40
1.0
 10
216.657327667
 20
76.5543288033
 30
0.0
 10
216.4224762498
 20
76.866079909
 30
0.0
 10
215.9732664972
 20
77.5163243902
 30
0.0
 10
215.4738926906
 20
78.3745331182
 30
0.0
 10
215.107651787
 20
79.0928549814
 30
0.0
 10
214.7615388643
 20
79.8376779469
 30
0.0
 10
214.5312547682
 20
80.4125218728
 30
0.0
 10
214.3905994347
 20
80.8019852825
 30
0.0
  0
SPLINE
  5
3EE
100
AcDbEntity
  8
7_ALL_FEATURES
100
AcDbSpline
 62
7
  6
CONTINUOUS
 70
0
 71
3
 72
18
 73
14
 74
0
 42
0.0000001
 43
0.0000001
 44
0.0000000001
 40
0.0
 40
0.0
 40
0.0
 40
0.0
 40
0.1257772764
 40
0.1894577047
 40
0.2534789812
 40
0.3819587849
 40
0.5101604979
 40
0.57383792
 40
0.6370433239
 40
0.7615029036
 40
0.8225837634
 40
0.8827537809
 40
1.0
 40
1.0
 40
1.0
 40
1.0
 10
214.3905994347
 20
80.8019852825
 30
0.0
 10
214.1620195534
 20
81.4349047588
 30
0.0
 10
213.8707766182
 20
82.4085352715
 30
0.0
 10
213.5866691141
 20
83.7350334357
 30
0.0
 10
213.3705241823
 20
85.0890941633
 30
0.0
 10
213.233285686
 20
86.8026984129
 30
0.0
 10
213.2743355184
 20
88.5195013881
 30
0.0
 10
213.4147746979
 20
89.8775947364
 30
0.0
 10
213.6243525269
 20
91.2063798456
 30
0.0
 10
213.9380471738
 20
92.5030507066
 30
0.0
 10
214.3555999832
 20
93.7502609597
 30
0.0
 10
214.8308586882
 20
94.9349663944
 30
0.0
 10
215.2632318675
 20
95.7836230969
 30
0.0
 10
215.5842015217
 20
96.3225747113
 30
0.0
  0
SPLINE
  5
3EF
100
AcDbEntity
  8
7_ALL_FEATURES
100
AcDbSpline
 62
7
  6
CONTINUOUS
 70
0
 71
3
 72
26
 73
22
 74
0
 42
0.0000001
 43
0.0000001
 44
0.0000000001
 40
0.0
 40
0.0
 40
0.0
 40
0.0
 40
0.1318268987
 40
0.1652369234
 40
0.1987450054
 40
0.2658957213
 40
0.3329925283
 40
0.3997384417
 40
0.4658460091
 40
0.5310454492
 40
0.5950928829
 40
0.6266246402
 40
0.6577931689
 40
0.7189503417
 40
0.778462924
 40
0.8362739896
 40
0.8923928788
 40
0.919851023
 40
0.9469228946
 40
0.9736303766
 40
1.0
 40
1.0
 40
1.0
 40
1.0
 10
214.1235048155
 20
80.7125892276
 30
0.0
 10
213.7891243474
 20
81.6384620976
 30
0.0
 10
213.4629047878
 20
82.8356365574
 30
0.0
 10
213.2087234475
 20
84.2978069595
 30
0.0
 10
213.07452961
 20
85.2901767799
 30
0.0
 10
212.9767202905
 20
86.5403024185
 30
0.0
 10
212.9717631802
 20
88.0425728669
 30
0.0
 10
213.0791758507
 20
89.5332474685
 30
0.0
 10
213.2979132835
 20
90.9974177432
 30
0.0
 10
213.6257984703
 20
92.420408926
 30
0.0
 10
213.9892639037
 20
93.566225921
 30
0.0
 10
214.3320536224
 20
94.4487212008
 30
0.0
 10
214.7037636124
 20
95.2958928051
 30
0.0
 10
215.2271390494
 20
96.3035703316
 30
0.0
 10
215.9493474954
 20
97.4260986228
 30
0.0
 10
216.7547038787
 20
98.4431540206
 30
0.0
 10
217.4941738402
 20
99.1998776235
 30
0.0
 10
218.1191847954
 20
99.7408740447
 30
0.0
 10
218.5999585219
 20
100.1113986889
 30
0.0
 10
219.0948290746
 20
100.4485991946
 30
0.0
 10
219.4354209387
 20
100.6518702899
 30
0.0
 10
219.607550549
 20
100.7475045463
 30
0.0
  0
SPLINE
  5
3F0
100
AcDbEntity
  8
7_ALL_FEATURES
100
AcDbSpline
 62
7
  6
CONTINUOUS
 70
0
 71
3
 72
21
 73
17
 74
0
 42
0.0000001
 43
0.0000001
 44
0.0000000001
 40
0.0
 40
0.0
 40
0.0
 40
0.0
 40
0.055459372
 40
0.111159613
 40
0.1673332528
 40
0.2241967744
 40
0.2819440574
 40
0.340741303
 40
0.4007235603
 40
0.4619927899
 40
0.5246172758
 40
0.588632131
 40
0.7207353812
 40
0.7888237523
 40
0.8581457624
 40
1.0
 40
1.0
 40
1.0
 40
1.0
 10
225.0009022648
 20
71.8988002895
 30
0.0
 10
224.7242246575
 20
71.8837964189
 30
0.0
 10
224.1677757822
 20
71.8813550155
 30
0.0
 10
223.3342221253
 20
71.9606210724
 30
0.0
 10
222.5054684579
 20
72.1223075059
 30
0.0
 10
221.6862567273
 20
72.3654581432
 30
0.0
 10
220.8811094496
 20
72.6886469053
 30
0.0
 10
220.0944805335
 20
73.0900058155
 30
0.0
 10
219.3306827173
 20
73.5672475699
 30
0.0
 10
218.5939001033
 20
74.1176645684
 30
0.0
 10
217.8881038608
 20
74.7382255537
 30
0.0
 10
216.9843245258
 20
75.6638916727
 30
0.0
 10
216.1686200788
 20
76.7082559334
 30
0.0
 10
215.4489663438
 20
77.847175584
 30
0.0
 10
214.7809698093
 20
79.0730008391
 30
0.0
 10
214.3642439147
 20
80.0460018462
 30
0.0
 10
214.1235048155
 20
80.7125892276
 30
0.0
  0
SPLINE
  5
3F1
100
AcDbEntity
  8
02___PRT_ALL_AXES
100
AcDbSpline
 62
7
  6
CONTINUOUS
 70
0
 71
3
 72
20
 73
16
 74
0
 42
0.0000001
 43
0.0000001
 44
0.0000000001
 40
0.0
 40
0.0
 40
0.0
 40
0.0
 40
0.1635268455
 40
0.3230762256
 40
0.475162545
 40
0.5471776166
 40
0.615818508
 40
0.6805888328
 40
0.7410366404
 40
0.7967815907
 40
0.8475424676
 40
0.8931626852
 40
0.9336346436
 40
0.9691242753
 40
1.0
 40
1.0
 40
1.0
 40
1.0
 10
227.8311955025
 20
101.0061420394
 30
0.0
 10
227.750868637
 20
100.9784693104
 30
0.0
 10
227.5915903155
 20
100.9254429121
 30
0.0
 10
227.3552163803
 20
100.8540958773
 30
0.0
 10
227.1622992204
 20
100.8036699931
 30
0.0
 10
227.0137638138
 20
100.770882494
 30
0.0
 10
226.9088946878
 20
100.7509498069
 30
0.0
 10
226.8093401875
 20
100.735529788
 30
0.0
 10
226.7158988566
 20
100.7248623916
 30
0.0
 10
226.6293123733
 20
100.7190974619
 30
0.0
 10
226.5502296611
 20
100.7182889226
 30
0.0
 10
226.4791816749
 20
100.7223910504
 30
0.0
 10
226.4165472976
 20
100.7312744587
 30
0.0
 10
226.3625825288
 20
100.7447257175
 30
0.0
 10
226.33035561
 20
100.7574121222
 30
0.0
 10
226.3160077068
 20
100.7645859638
 30
0.0
  0
SPLINE
  5
3F2
100
AcDbEntity
  8
02___PRT_ALL_AXES
100
AcDbSpline
 62
7
  6
CONTINUOUS
 70
0
 71
3
 72
11
 73
7
 74
0
 42
0.0000001
 43
0.0000001
 44
0.0000000001
 40
0.0
 40
0.0
 40
0.0
 40
0.0
 40
0.2556297467
 40
0.5066847875
 40
0.7543590736
 40
1.0
 40
1.0
 40
1.0
 40
1.0
 10
235.4269922749
 20
80.5203315478
 30
0.0
 10
235.2824389382
 20
80.4318027054
 30
0.0
 10
234.9865276544
 20
80.2710884625
 30
0.0
 10
234.5225768359
 20
80.0814276446
 30
0.0
 10
234.0465440132
 20
79.9470768738
 30
0.0
 10
233.7227156368
 20
79.8950073967
 30
0.0
 10
233.56066038
 20
79.8785914513
 30
0.0
  0
SPLINE
  5
3F3
100
AcDbEntity
  8
7_ALL_FEATURES
100
AcDbSpline
 62
7
  6
CONTINUOUS
 70
0
 71
3
 72
9
 73
5
 74
0
 42
0.0000001
 43
0.0000001
 44
0.0000000001
 40
0.0
 40
0.0
 40
0.0
 40
0.0
 40
0.5166239378
 40
1.0
 40
1.0
 40
1.0
 40
1.0
 10
232.3413730178
 20
94.7551688147
 30
0.0
 10
232.4313792973
 20
94.7849699646
 30
0.0
 10
232.6094231411
 20
94.8319091398
 30
0.0
 10
232.7921940079
 20
94.8543766678
 30
0.0
 10
232.8807737521
 20
94.8591802872
 30
0.0
  0
SPLINE
  5
3F4
100
AcDbEntity
  8
7_ALL_FEATURES
100
AcDbSpline
 62
7
  6
CONTINUOUS
 70
0
 71
3
 72
9
 73
5
 74
0
 42
0.0000001
 43
0.0000001
 44
0.0000000001
 40
0.0
 40
0.0
 40
0.0
 40
0.0
 40
0.4833745764
 40
1.0
 40
1.0
 40
1.0
 40
1.0
 10
233.6930201276
 20
79.8811879042
 30
0.0
 10
233.6044364556
 20
79.8763840717
 30
0.0
 10
233.420298986
 20
79.8789556499
 30
0.0
 10
233.2382148385
 20
79.9063688842
 30
0.0
 10
233.1455092014
 20
79.9262638071
 30
0.0
  0
SPLINE
  5
3F5
100
AcDbEntity
  8
02___PRT_ALL_AXES
100
AcDbSpline
 62
7
  6
CONTINUOUS
 70
0
 71
3
 72
34
 73
30
 74
0
 42
0.0000001
 43
0.0000001
 44
0.0000000001
 40
0.0
 40
0.0
 40
0.0
 40
0.0
 40
0.0277466436
 40
0.0561504052
 40
0.0852662397
 40
0.1151253734
 40
0.1770348442
 40
0.2090891568
 40
0.2417982039
 40
0.3088638334
 40
0.3776016691
 40
0.4123649725
 40
0.4472345228
 40
0.51681124
 40
0.5513333312
 40
0.5855251087
 40
0.6524949042
 40
0.6851454279
 40
0.7171358099
 40
0.748417014
 40
0.7789578233
 40
0.8087469031
 40
0.8377946079
 40
0.866134355
 40
0.8938233381
 40
0.9209423062
 40
0.947594137
 40
0.9739009929
 40
1.0
 40
1.0
 40
1.0
 40
1.0
 10
235.4269922749
 20
80.5203315478
 30
0.0
 10
235.57127395
 20
80.6086940164
 30
0.0
 10
235.8541572934
 20
80.8027965039
 30
0.0
 10
236.2525380325
 20
81.1380399221
 30
0.0
 10
236.626957273
 20
81.5182015018
 30
0.0
 10
237.0960488809
 20
82.0877748351
 30
0.0
 10
237.4997799814
 20
82.7304294805
 30
0.0
 10
237.8340123042
 20
83.4273198163
 30
0.0
 10
238.1276876094
 20
84.1763281758
 30
0.0
 10
238.3994711025
 20
85.1708492483
 30
0.0
 10
238.5387800467
 20
86.2046407898
 30
0.0
 10
238.5710282702
 20
87.0482669396
 30
0.0
 10
238.5494498074
 20
87.8972948103
 30
0.0
 10
238.4474160507
 20
88.7412599293
 30
0.0
 10
238.2658972194
 20
89.5652515628
 30
0.0
 10
238.0354279028
 20
90.3603187347
 30
0.0
 10
237.7305092528
 20
91.120467811
 30
0.0
 10
237.3534403555
 20
91.8295248144
 30
0.0
 10
237.041148841
 20
92.3247645209
 30
0.0
 10
236.6993071011
 20
92.7841569145
 30
0.0
 10
236.3303269503
 20
93.204416076
 30
0.0
 10
235.9368348475
 20
93.5824805633
 30
0.0
 10
235.5216269885
 20
93.9155912716
 30
0.0
 10
235.0876625056
 20
94.2012932622
 30
0.0
 10
234.6380447869
 20
94.4374565481
 30
0.0
 10
234.1760185503
 20
94.622293226
 30
0.0
 10
233.704918211
 20
94.7543778337
 30
0.0
 10
233.2282819688
 20
94.8326714968
 30
0.0
 10
232.9083118437
 20
94.8486172915
 30
0.0
 10
232.749173233
 20
94.8474500141
 30
0.0
  0
SPLINE
  5
3F6
100
AcDbEntity
  8
02___PRT_ALL_AXES
100
AcDbSpline
 62
7
  6
CONTINUOUS
 70
0
 71
3
 72
27
 73
23
 74
0
 42
0.0000001
 43
0.0000001
 44
0.0000000001
 40
0.0
 40
0.0
 40
0.0
 40
0.0
 40
0.0275491895
 40
0.0556462241
 40
0.084310783
 40
0.1135513837
 40
0.173711969
 40
0.2360278857
 40
0.3002298837
 40
0.36594037
 40
0.4327010041
 40
0.5000000028
 40
0.5672990017
 40
0.6340596359
 40
0.6997701225
 40
0.7639721209
 40
0.8262880379
 40
0.8864486236
 40
0.9156892219
 40
0.9443537831
 40
0.9724508101
 40
1.0
 40
1.0
 40
1.0
 40
1.0
 10
233.4488979992
 20
95.85921297
 30
0.0
 10
233.3110812971
 20
95.7488414599
 30
0.0
 10
233.0412608193
 20
95.5150083817
 30
0.0
 10
232.6598671231
 20
95.1315992364
 30
0.0
 10
232.2995590162
 20
94.7138551305
 30
0.0
 10
231.8452762537
 20
94.1080893734
 30
0.0
 10
231.3403469021
 20
93.2737439055
 30
0.0
 10
230.8484885792
 20
92.1801707379
 30
0.0
 10
230.473164249
 20
91.0040565521
 30
0.0
 10
230.2210042839
 20
89.7666542556
 30
0.0
 10
230.0963867218
 20
88.4901399892
 30
0.0
 10
230.1014932485
 20
87.1974417309
 30
0.0
 10
230.2362098663
 20
85.9117721394
 30
0.0
 10
230.4981396724
 20
84.656220071
 30
0.0
 10
230.8826343372
 20
83.4533431241
 30
0.0
 10
231.3829433307
 20
82.3247139219
 30
0.0
 10
231.9901769522
 20
81.2907438145
 30
0.0
 10
232.5823716732
 20
80.5158945021
 30
0.0
 10
233.0994985617
 20
79.9628079358
 30
0.0
 10
233.5028684746
 20
79.5864773222
 30
0.0
 10
233.9234878501
 20
79.2465610964
 30
0.0
 10
234.2170127285
 20
79.0432777941
 30
0.0
 10
234.3659567951
 20
78.9484570184
 30
0.0
  0
SPLINE
  5
3F7
100
AcDbEntity
  8
02___PRT_ALL_AXES
100
AcDbSpline
 62
7
  6
CONTINUOUS
 70
0
 71
3
 72
15
 73
11
 74
0
 42
0.0000001
 43
0.0000001
 44
0.0000000001
 40
0.0
 40
0.0
 40
0.0
 40
0.0
 40
0.1289409209
 40
0.256368928
 40
0.3824566831
 40
0.5073943479
 40
0.6313900299
 40
0.7546659222
 40
0.8774555174
 40
1.0
 40
1.0
 40
1.0
 40
1.0
 10
239.6970250974
 20
96.9338508523
 30
0.0
 10
239.5793193278
 20
96.9927037371
 30
0.0
 10
239.3417311388
 20
97.1027680169
 30
0.0
 10
238.9779026612
 20
97.2448351183
 30
0.0
 10
238.6097288253
 20
97.3624984943
 30
0.0
 10
238.238157839
 20
97.4554441468
 30
0.0
 10
237.8641312525
 20
97.5234320904
 30
0.0
 10
237.4885956141
 20
97.5662830039
 30
0.0
 10
237.112530023
 20
97.5838851622
 30
0.0
 10
236.8619671388
 20
97.5787509834
 30
0.0
 10
236.7370798874
 20
97.5719784782
 30
0.0
  0
SPLINE
  5
3F8
100
AcDbEntity
  8
02___PRT_ALL_AXES
100
AcDbSpline
 62
7
  6
CONTINUOUS
 70
0
 71
3
 72
37
 73
33
 74
0
 42
0.0000001
 43
0.0000001
 44
0.0000000001
 40
0.0
 40
0.0
 40
0.0
 40
0.0
 40
0.0279207475
 40
0.0565179099
 40
0.0858416618
 40
0.1159180639
 40
0.178269162
 40
0.210537156
 40
0.2434485643
 40
0.2769327626
 40
0.3109063328
 40
0.3452753766
 40
0.3799378087
 40
0.4147856244
 40
0.4497071437
 40
0.5192835845
 40
0.5537527675
 40
0.5878566965
 40
0.6214987475
 40
0.654592078
 40
0.6870619359
 40
0.7188479779
 40
0.7499065661
 40
0.7802129841
 40
0.809763475
 40
0.8385769577
 40
0.8666962171
 40
0.8941883116
 40
0.9211439105
 40
0.9476752914
 40
0.9739128294
 40
1.0
 40
1.0
 40
1.0
 40
1.0
 10
239.6970250974
 20
96.9338508523
 30
0.0
 10
239.901026742
 20
96.83185003
 30
0.0
 10
240.3035497558
 20
96.6038616859
 30
0.0
 10
240.8778969159
 20
96.1998330265
 30
0.0
 10
241.42571062
 20
95.7327967237
 30
0.0
 10
242.1234304786
 20
95.0226034383
 30
0.0
 10
242.7424906447
 20
94.2070974993
 30
0.0
 10
243.2750249871
 20
93.3109904417
 30
0.0
 10
243.6353401287
 20
92.5891905506
 30
0.0
 10
243.9491182812
 20
91.8310140789
 30
0.0
 10
244.2141640816
 20
91.0418914164
 30
0.0
 10
244.428541616
 20
90.2275931502
 30
0.0
 10
244.5907038893
 20
89.3940619102
 30
0.0
 10
244.6994756793
 20
88.5473047574
 30
0.0
 10
244.7721597178
 20
87.4107652397
 30
0.0
 10
244.7361812405
 20
86.2723692503
 30
0.0
 10
244.5907576243
 20
85.1526307601
 30
0.0
 10
244.4285948015
 20
84.3328737321
 30
0.0
 10
244.2142006946
 20
83.5368577592
 30
0.0
 10
243.9491138389
 20
82.7703213789
 30
0.0
 10
243.6352424376
 20
82.0388650874
 30
0.0
 10
243.2748409297
 20
81.3478177344
 30
0.0
 10
242.8704952027
 20
80.702225453
 30
0.0
 10
242.4251035292
 20
80.1068123945
 30
0.0
 10
241.9418577425
 20
79.5659528364
 30
0.0
 10
241.4242243026
 20
79.0836439045
 30
0.0
 10
240.8759279844
 20
78.6634805609
 30
0.0
 10
240.3009321481
 20
78.3086299622
 30
0.0
 10
239.7034364646
 20
78.0218043412
 30
0.0
 10
239.0878089069
 20
77.8052263962
 30
0.0
 10
238.4587392337
 20
77.6606038806
 30
0.0
 10
238.032864933
 20
77.6128613456
 30
0.0
 10
237.8200750545
 20
77.6013219728
 30
0.0
  0
SPLINE
  5
3F9
100
AcDbEntity
  8
7_ALL_FEATURES
100
AcDbSpline
 62
7
  6
CONTINUOUS
 70
0
 71
3
 72
10
 73
6
 74
0
 42
0.0000001
 43
0.0000001
 44
0.0000000001
 40
0.0
 40
0.0
 40
0.0
 40
0.0
 40
0.4922647709
 40
0.7453368469
 40
1.0
 40
1.0
 40
1.0
 40
1.0
 10
228.8133400136
 20
101.3756937058
 30
0.0
 10
228.6531411693
 20
101.3125294258
 30
0.0
 10
228.4103523884
 20
101.2174545621
 30
0.0
 10
228.0827209103
 20
101.0948429484
 30
0.0
 10
227.9154225122
 20
101.0351583742
 30
0.0
 10
227.8311955025
 20
101.0061420394
 30
0.0
  0
SPLINE
  5
3FA
100
AcDbEntity
  8
7_ALL_FEATURES
100
AcDbSpline
 62
7
  6
CONTINUOUS
 70
0
 71
3
 72
33
 73
29
 74
0
 42
0.0000001
 43
0.0000001
 44
0.0000000001
 40
0.0
 40
0.0
 40
0.0
 40
0.0
 40
0.0649876563
 40
0.0981345144
 40
0.1316425288
 40
0.1994924609
 40
0.2680714532
 40
0.3368508027
 40
0.4052914255
 40
0.4728718491
 40
0.5062003678
 40
0.5391409752
 40
0.5716460414
 40
0.6036743033
 40
0.6351917222
 40
0.6661723129
 40
0.6965989229
 40
0.7264639414
 40
0.7557699031
 40
0.7845299446
 40
0.8127680936
 40
0.8405192915
 40
0.867829156
 40
0.8947534009
 40
0.9213569083
 40
0.9477124407
 40
0.9738990171
 40
1.0
 40
1.0
 40
1.0
 40
1.0
 10
242.6682265317
 20
96.2235262
 30
0.0
 10
242.9836445483
 20
95.6713948921
 30
0.0
 10
243.410948336
 20
94.8084862085
 30
0.0
 10
243.8860082311
 20
93.6107869257
 30
0.0
 10
244.3048549141
 20
92.3625266547
 30
0.0
 10
244.707837035
 20
90.7459890111
 30
0.0
 10
244.9925537653
 20
88.7550252046
 30
0.0
 10
245.0756446214
 20
86.7396245447
 30
0.0
 10
244.9556074071
 20
84.7359792313
 30
0.0
 10
244.6865901128
 20
83.0975790558
 30
0.0
 10
244.3713292166
 20
81.8258810478
 30
0.0
 10
244.0878386344
 20
80.9013978606
 30
0.0
 10
243.7574864152
 20
80.0061586259
 30
0.0
 10
243.3816893626
 20
79.1441621518
 30
0.0
 10
242.9620663261
 20
78.31930124
 30
0.0
 10
242.5004190731
 20
77.5353000945
 30
0.0
 10
241.9987269325
 20
76.7957158107
 30
0.0
 10
241.459141635
 20
76.1039233327
 30
0.0
 10
240.8839815114
 20
75.4631074747
 30
0.0
 10
240.2757281375
 20
74.8762539391
 30
0.0
 10
239.6370267396
 20
74.3461383489
 30
0.0
 10
238.9706849782
 20
73.8753161111
 30
0.0
 10
238.2796759861
 20
73.4661069869
 30
0.0
 10
237.5671362454
 20
73.1205747354
 30
0.0
 10
236.8363709912
 20
72.840505556
 30
0.0
 10
236.0908092393
 20
72.6273766404
 30
0.0
 10
235.334116839
 20
72.4823342224
 30
0.0
 10
234.8242116143
 20
72.4315128728
 30
0.0
 10
234.5691998324
 20
72.4176826435
 30
0.0
  0
SPLINE
  5
3FB
100
AcDbEntity
  8
7_ALL_FEATURES
100
AcDbSpline
 62
7
  6
CONTINUOUS
 70
0
 71
3
 72
42
 73
38
 74
0
 42
0.0000001
 43
0.0000001
 44
0.0000000001
 40
0.0
 40
0.0
 40
0.0
 40
0.0
 40
0.0130489155
 40
0.0261170418
 40
0.0392233634
 40
0.0523864171
 40
0.065624084
 40
0.0789533957
 40
0.1059400065
 40
0.1334699617
 40
0.1616345246
 40
0.1905008002
 40
0.2201111002
 40
0.2352053076
 40
0.2504902925
 40
0.2816195011
 40
0.3134792312
 40
0.3460239228
 40
0.3791911278
 40
0.4129038749
 40
0.4470730544
 40
0.4815997905
 40
0.5512592194
 40
0.5862027709
 40
0.6210573048
 40
0.6557098956
 40
0.6900516844
 40
0.7239801894
 40
0.7574016417
 40
0.7902333474
 40
0.8224060693
 40
0.8538664068
 40
0.8845791263
 40
0.9145293672
 40
0.9437245968
 40
0.9721961391
 40
1.0
 40
1.0
 40
1.0
 40
1.0
 10
225.3331337726
 20
71.9168170592
 30
0.0
 10
225.1725000735
 20
71.9081059924
 30
0.0
 10
224.8504151663
 20
71.8999578248
 30
0.0
 10
224.3668613882
 20
71.9156300734
 30
0.0
 10
223.8835878619
 20
71.9591593575
 30
0.0
 10
223.4015236116
 20
72.0304609019
 30
0.0
 10
222.9215483493
 20
72.1294058248
 30
0.0
 10
222.2830771366
 20
72.2985782692
 30
0.0
 10
221.4933472638
 20
72.5794978641
 30
0.0
 10
220.5729276952
 20
73.0215896369
 30
0.0
 10
219.6822891691
 20
73.5666933051
 30
0.0
 10
218.8280981501
 20
74.21056686
 30
0.0
 10
218.1560206568
 20
74.8215708761
 30
0.0
 10
217.6421788864
 20
75.353732381
 30
0.0
 10
217.1390203792
 20
75.9213066637
 30
0.0
 10
216.5446419126
 20
76.6829717352
 30
0.0
 10
215.8950956333
 20
77.6667860766
 30
0.0
 10
215.3095540287
 20
78.7188026312
 30
0.0
 10
214.7923290265
 20
79.8312054484
 30
0.0
 10
214.3471978631
 20
80.9957634447
 30
0.0
 10
213.9774058821
 20
82.2039625425
 30
0.0
 10
213.5874045744
 20
83.8654170203
 30
0.0
 10
213.3600164952
 20
85.5712977881
 30
0.0
 10
213.2973979887
 20
87.2902852525
 30
0.0
 10
213.3334180936
 20
88.5784307299
 30
0.0
 10
213.4522471187
 20
89.8540740698
 30
0.0
 10
213.6530096742
 20
91.10789845
 30
0.0
 10
213.9342414448
 20
92.330620084
 30
0.0
 10
214.2938884747
 20
93.513218963
 30
0.0
 10
214.7293273807
 20
94.6469609602
 30
0.0
 10
215.2373859207
 20
95.7234714667
 30
0.0
 10
215.8143667133
 20
96.7347897262
 30
0.0
 10
216.4560795028
 20
97.6734257051
 30
0.0
 10
217.1578538369
 20
98.5323983294
 30
0.0
 10
217.9146279951
 20
99.3053147392
 30
0.0
 10
218.7207625601
 20
99.9862820344
 30
0.0
 10
219.2937292907
 20
100.3799937612
 30
0.0
 10
219.5860384776
 20
100.5590127622
 30
0.0
  0
SPLINE
  5
3FC
100
AcDbEntity
  8
02___PRT_ALL_AXES
100
AcDbSpline
 62
7
  6
CONTINUOUS
 70
0
 71
3
 72
37
 73
33
 74
0
 42
0.0000001
 43
0.0000001
 44
0.0000000001
 40
0.0
 40
0.0
 40
0.0
 40
0.0
 40
0.0260871706
 40
0.0523247086
 40
0.0788560895
 40
0.1058116884
 40
0.1333037829
 40
0.1614230423
 40
0.190236525
 40
0.2197870159
 40
0.2500934339
 40
0.2811520221
 40
0.3129380641
 40
0.345407922
 40
0.3785012525
 40
0.4121433035
 40
0.4462472325
 40
0.4807164155
 40
0.5502928563
 40
0.5852143756
 40
0.6200621913
 40
0.6547246234
 40
0.6890936672
 40
0.7230672374
 40
0.7565514357
 40
0.789462844
 40
0.821730838
 40
0.8840819361
 40
0.9141583382
 40
0.9434820901
 40
0.9720792525
 40
1.0
 40
1.0
 40
1.0
 40
1.0
 10
236.7370798874
 20
97.5719784782
 30
0.0
 10
236.5242900088
 20
97.5604391055
 30
0.0
 10
236.0984157082
 20
97.5126965705
 30
0.0
 10
235.4693460349
 20
97.3680740549
 30
0.0
 10
234.8537184773
 20
97.1514961099
 30
0.0
 10
234.2562227937
 20
96.8646704889
 30
0.0
 10
233.6812269575
 20
96.5098198902
 30
0.0
 10
233.1329306393
 20
96.0896565466
 30
0.0
 10
232.6152971993
 20
95.6073476147
 30
0.0
 10
232.1320514127
 20
95.0664880566
 30
0.0
 10
231.6866597391
 20
94.4710749981
 30
0.0
 10
231.2823140122
 20
93.8254827167
 30
0.0
 10
230.9219125043
 20
93.1344353637
 30
0.0
 10
230.608041103
 20
92.4029790722
 30
0.0
 10
230.3429542473
 20
91.6364426919
 30
0.0
 10
230.1285601403
 20
90.840426719
 30
0.0
 10
229.9663973175
 20
90.020669691
 30
0.0
 10
229.8209737014
 20
88.9009312008
 30
0.0
 10
229.7849952241
 20
87.7625352114
 30
0.0
 10
229.8576792625
 20
86.6259956937
 30
0.0
 10
229.9664510526
 20
85.7792385409
 30
0.0
 10
230.1286133259
 20
84.9457073009
 30
0.0
 10
230.3429908603
 20
84.1314090347
 30
0.0
 10
230.6080366606
 20
83.3422863722
 30
0.0
 10
230.9218148131
 20
82.5841099005
 30
0.0
 10
231.2821299547
 20
81.8623100094
 30
0.0
 10
231.8146642972
 20
80.9662029518
 30
0.0
 10
232.4337244633
 20
80.1506970128
 30
0.0
 10
233.1314443219
 20
79.4405037274
 30
0.0
 10
233.6792580259
 20
78.9734674246
 30
0.0
 10
234.253605186
 20
78.5694387652
 30
0.0
 10
234.6561281999
 20
78.3414504211
 30
0.0
 10
234.8601298445
 20
78.2394495988
 30
0.0
  0
SPLINE
  5
3FD
100
AcDbEntity
  8
02___PRT_ALL_AXES
100
AcDbSpline
 62
7
  6
CONTINUOUS
 70
0
 71
3
 72
15
 73
11
 74
0
 42
0.0000001
 43
0.0000001
 44
0.0000000001
 40
0.0
 40
0.0
 40
0.0
 40
0.0
 40
0.1225444824
 40
0.2453340773
 40
0.3686099705
 40
0.4926056516
 40
0.617543319
 40
0.7436310739
 40
0.8710590662
 40
1.0
 40
1.0
 40
1.0
 40
1.0
 10
234.4977599321
 20
77.4211550829
 30
0.0
 10
234.3728726875
 20
77.4143824529
 30
0.0
 10
234.1223097947
 20
77.4092484092
 30
0.0
 10
233.7462442053
 20
77.4268505006
 30
0.0
 10
233.3707085672
 20
77.469701446
 30
0.0
 10
232.9966819802
 20
77.5376893983
 30
0.0
 10
232.625110995
 20
77.6306350658
 30
0.0
 10
232.2569371719
 20
77.7482984406
 30
0.0
 10
231.8931086915
 20
77.8903655308
 30
0.0
 10
231.655520504
 20
78.0004298107
 30
0.0
 10
231.5378147225
 20
78.0592827015
 30
0.0
  0
SPLINE
  5
3FE
100
AcDbEntity
  8
02___PRT_ALL_AXES
100
AcDbSpline
 62
7
  6
CONTINUOUS
 70
0
 71
3
 72
15
 73
11
 74
0
 42
0.0000001
 43
0.0000001
 44
0.0000000001
 40
0.0
 40
0.0
 40
0.0
 40
0.0
 40
0.1225444826
 40
0.2453340778
 40
0.3686099701
 40
0.4926056521
 40
0.6175433169
 40
0.743631072
 40
0.8710590791
 40
1.0
 40
1.0
 40
1.0
 40
1.0
 10
237.8200750545
 20
77.6013219728
 30
0.0
 10
237.695187803
 20
77.5945494677
 30
0.0
 10
237.4446249188
 20
77.5894152889
 30
0.0
 10
237.0685593277
 20
77.6070174472
 30
0.0
 10
236.6930236893
 20
77.6498683607
 30
0.0
 10
236.3189971029
 20
77.7178563043
 30
0.0
 10
235.9474261165
 20
77.8108019568
 30
0.0
 10
235.5792522807
 20
77.9284653328
 30
0.0
 10
235.2154238031
 20
78.0705324342
 30
0.0
 10
234.9778356141
 20
78.180596714
 30
0.0
 10
234.8601298445
 20
78.2394495988
 30
0.0
  0
SPLINE
  5
3FF
100
AcDbEntity
  8
02___PRT_ALL_AXES
100
AcDbSpline
 62
7
  6
CONTINUOUS
 70
0
 71
3
 72
37
 73
33
 74
0
 42
0.0000001
 43
0.0000001
 44
0.0000000001
 40
0.0
 40
0.0
 40
0.0
 40
0.0
 40
0.0279207443
 40
0.0565179092
 40
0.0858416615
 40
0.1159180637
 40
0.1782691621
 40
0.2105371563
 40
0.2434485647
 40
0.276932763
 40
0.310906333
 40
0.3452753764
 40
0.3799378081
 40
0.4147856237
 40
0.4497071432
 40
0.5192835846
 40
0.5537527679
 40
0.5878566969
 40
0.6214987477
 40
0.6545920777
 40
0.687061935
 40
0.7188479765
 40
0.7499065646
 40
0.7802129826
 40
0.8097634738
 40
0.8385769569
 40
0.8666962166
 40
0.8941883114
 40
0.9211439105
 40
0.9476752915
 40
0.9739128295
 40
1.0
 40
1.0
 40
1.0
 40
1.0
 10
231.5378147225
 20
78.0592827015
 30
0.0
 10
231.3338131014
 20
78.161283512
 30
0.0
 10
230.9312900956
 20
78.389271858
 30
0.0
 10
230.3569429206
 20
78.7933004919
 30
0.0
 10
229.8091291905
 20
79.2603368038
 30
0.0
 10
229.1114093224
 20
79.9705300902
 30
0.0
 10
228.4923491622
 20
80.7860360428
 30
0.0
 10
227.9598148382
 20
81.6821431183
 30
0.0
 10
227.599499715
 20
82.4039430218
 30
0.0
 10
227.285721581
 20
83.1621195004
 30
0.0
 10
227.0206757929
 20
83.9512421621
 30
0.0
 10
226.8062982547
 20
84.7655404197
 30
0.0
 10
226.6441359542
 20
85.5990716477
 30
0.0
 10
226.5353641276
 20
86.4458287934
 30
0.0
 10
226.462680041
 20
87.5823683144
 30
0.0
 10
226.498658495
 20
88.7207643167
 30
0.0
 10
226.6440821298
 20
89.8405028144
 30
0.0
 10
226.80624498
 20
90.6602598385
 30
0.0
 10
227.0206391219
 20
91.456275797
 30
0.0
 10
227.2857260116
 20
92.2228121545
 30
0.0
 10
227.5995974381
 20
92.9542684215
 30
0.0
 10
227.9599989518
 20
93.6453157597
 30
0.0
 10
228.3643446637
 20
94.2909080449
 30
0.0
 10
228.809736315
 20
94.8863211221
 30
0.0
 10
229.2929820798
 20
95.4271807084
 30
0.0
 10
229.8106155034
 20
95.9094896704
 30
0.0
 10
230.3589118131
 20
96.3296530404
 30
0.0
 10
230.9339076489
 20
96.6845036519
 30
0.0
 10
231.5314033372
 20
96.9713292839
 30
0.0
 10
232.1470309049
 20
97.1879071795
 30
0.0
 10
232.7761005785
 20
97.332529799
 30
0.0
 10
233.201974899
 20
97.3802719881
 30
0.0
 10
233.4147647659
 20
97.3918115735
 30
0.0
  0
SPLINE
  5
400
100
AcDbEntity
  8
02___PRT_ALL_AXES
100
AcDbSpline
 62
7
  6
CONTINUOUS
 70
0
 71
3
 72
15
 73
11
 74
0
 42
0.0000001
 43
0.0000001
 44
0.0000000001
 40
0.0
 40
0.0
 40
0.0
 40
0.0
 40
0.1491820936
 40
0.285759497
 40
0.4122480282
 40
0.5315832315
 40
0.6469641938
 40
0.7616055664
 40
0.8784655963
 40
1.0
 40
1.0
 40
1.0
 40
1.0
 10
226.3160077068
 20
100.7645859638
 30
0.0
 10
226.3074222884
 20
100.7688786072
 30
0.0
 10
226.2913941365
 20
100.7779939274
 30
0.0
 10
226.2701756809
 20
100.794050611
 30
0.0
 10
226.2529176749
 20
100.8117328335
 30
0.0
 10
226.2396000413
 20
100.8309201941
 30
0.0
 10
226.230183488
 20
100.85146284
 30
0.0
 10
226.2245933016
 20
100.8731886858
 30
0.0
 10
226.2227075321
 20
100.895921459
 30
0.0
 10
226.2237927589
 20
100.9112835847
 30
0.0
 10
226.2248531991
 20
100.919031185
 30
0.0
  0
SPLINE
  5
401
100
AcDbEntity
  8
7_ALL_FEATURES
100
AcDbSpline
 62
9
  6
CONTINUOUS
 70
0
 71
3
 72
44
 73
40
 74
0
 42
0.0000001
 43
0.0000001
 44
0.0000000001
 40
0.0
 40
0.0
 40
0.0
 40
0.0
 40
0.0271833292
 40
0.0549525991
 40
0.0833897721
 40
0.1125519589
 40
0.1424712784
 40
0.173155703
 40
0.1887842665
 40
0.2045968455
 40
0.2367469413
 40
0.2695585803
 40
0.3029620762
 40
0.3368741307
 40
0.3712002507
 40
0.4058371471
 40
0.4406751055
 40
0.475600332
 40
0.5104972802
 40
0.5452509703
 40
0.5797493108
 40
0.6138854337
 40
0.6475600519
 40
0.6806838439
 40
0.7131798628
 40
0.7449859567
 40
0.7760571675
 40
0.8063680464
 40
0.8359147843
 40
0.8504107631
 40
0.864725126
 40
0.8788641921
 40
0.8928358541
 40
0.9203069497
 40
0.9472408392
 40
0.9605469156
 40
0.9737637892
 40
0.9869087713
 40
1.0
 40
1.0
 40
1.0
 40
1.0
 10
230.0198201743
 20
101.2831437972
 30
0.0
 10
229.7212828771
 20
101.1427961918
 30
0.0
 10
229.1329184367
 20
100.8256878757
 30
0.0
 10
228.2957170547
 20
100.2542344589
 30
0.0
 10
227.501266829
 20
99.5867258669
 30
0.0
 10
226.7555595186
 20
98.8283343403
 30
0.0
 10
226.0640467066
 20
97.9848280156
 30
0.0
 10
225.5403104748
 20
97.2208358956
 30
0.0
 10
225.1525336785
 20
96.5740914114
 30
0.0
 10
224.7822989035
 20
95.8967893783
 30
0.0
 10
224.362982397
 20
95.0096207762
 30
0.0
 10
223.9343379284
 20
93.8944236599
 30
0.0
 10
223.5805283619
 20
92.7309257922
 30
0.0
 10
223.304177341
 20
91.5278291735
 30
0.0
 10
223.107311918
 20
90.2940731606
 30
0.0
 10
222.9913828462
 20
89.0388406652
 30
0.0
 10
222.9572422428
 20
87.771470808
 30
0.0
 10
223.0051389915
 20
86.5013948484
 30
0.0
 10
223.1347155721
 20
85.2380643361
 30
0.0
 10
223.3450108172
 20
83.9908808585
 30
0.0
 10
223.634467387
 20
82.7691257162
 30
0.0
 10
224.0009441034
 20
81.5818908952
 30
0.0
 10
224.4417331728
 20
80.4380116924
 30
0.0
 10
224.9535813709
 20
79.3460024779
 30
0.0
 10
225.5327177246
 20
78.3139939244
 30
0.0
 10
226.1748759598
 20
77.349680992
 30
0.0
 10
226.8753517794
 20
76.4602514524
 30
0.0
 10
227.6289463816
 20
75.6524067129
 30
0.0
 10
228.3010143818
 20
75.0483076789
 30
0.0
 10
228.8596482412
 20
74.6126761336
 30
0.0
 10
229.2855793815
 20
74.311915858
 30
0.0
 10
229.7202892477
 20
74.0356558576
 30
0.0
 10
230.3071013885
 20
73.7025978646
 30
0.0
 10
231.0592651904
 20
73.348449332
 30
0.0
 10
231.8374110261
 20
73.0790783089
 30
0.0
 10
232.4662440561
 20
72.9185163067
 30
0.0
 10
232.9388717887
 20
72.8256933177
 30
0.0
 10
233.4133985861
 20
72.7602001638
 30
0.0
 10
233.7309805464
 20
72.7347949513
 30
0.0
 10
233.8896423962
 20
72.7267069763
 30
0.0
  0
SPLINE
  5
402
100
AcDbEntity
  8
7_ALL_FEATURES
100
AcDbSpline
 62
9
  6
CONTINUOUS
 70
0
 71
3
 72
15
 73
11
 74
0
 42
0.0000001
 43
0.0000001
 44
0.0000000001
 40
0.0
 40
0.0
 40
0.0
 40
0.0
 40
0.126014112
 40
0.2503273201
 40
0.3736192764
 40
0.4966178388
 40
0.6200649561
 40
0.7446810667
 40
0.8711317173
 40
1.0
 40
1.0
 40
1.0
 40
1.0
 10
232.4469401743
 20
94.8816931165
 30
0.0
 10
232.6055890567
 20
94.9568791773
 30
0.0
 10
232.9291798743
 20
95.0892228604
 30
0.0
 10
233.4312170914
 20
95.2308075992
 30
0.0
 10
233.9421984994
 20
95.3127568387
 30
0.0
 10
234.4580441768
 20
95.334361259
 30
0.0
 10
234.9747120231
 20
95.2954660768
 30
0.0
 10
235.4881625254
 20
95.1964041662
 30
0.0
 10
235.9943341108
 20
95.0380479251
 30
0.0
 10
236.3209970261
 20
94.8952680306
 30
0.0
 10
236.4815820939
 20
94.8149754967
 30
0.0
  0
SPLINE
  5
403
100
AcDbEntity
  8
7_ALL_FEATURES
100
AcDbSpline
 62
9
  6
CONTINUOUS
 70
0
 71
3
 72
15
 73
11
 74
0
 42
0.0000001
 43
0.0000001
 44
0.0000000001
 40
0.0
 40
0.0
 40
0.0
 40
0.0
 40
0.126177774
 40
0.2506811719
 40
0.3741523182
 40
0.4972793856
 40
0.6207661937
 40
0.7453001928
 40
0.871522046
 40
1.0
 40
1.0
 40
1.0
 40
1.0
 10
233.263999084
 20
79.8119497969
 30
0.0
 10
233.425441302
 20
79.7558847822
 30
0.0
 10
233.7523768226
 20
79.6613919696
 30
0.0
 10
234.2527309324
 20
79.5749132758
 30
0.0
 10
234.7555946155
 20
79.545459087
 30
0.0
 10
235.2571663776
 20
79.5733022038
 30
0.0
 10
235.75373074
 20
79.6582263458
 30
0.0
 10
236.2416165708
 20
79.7995821768
 30
0.0
 10
236.717174427
 20
79.9962353924
 30
0.0
 10
237.0207680296
 20
80.1616151145
 30
0.0
 10
237.1691652483
 20
80.2524980666
 30
0.0
  0
SPLINE
  5
404
100
AcDbEntity
  8
7_ALL_FEATURES
100
AcDbSpline
 62
9
  6
CONTINUOUS
 70
0
 71
3
 72
29
 73
25
 74
0
 42
0.0000001
 43
0.0000001
 44
0.0000000001
 40
0.0
 40
0.0
 40
0.0
 40
0.0
 40
0.0270811715
 40
0.0547103534
 40
0.0829314771
 40
0.1117731472
 40
0.1713207528
 40
0.2020513503
 40
0.2333765771
 40
0.2976226403
 40
0.3636857677
 40
0.431040326
 40
0.4990816184
 40
0.567164451
 40
0.6346412133
 40
0.7008999262
 40
0.7654027275
 40
0.7968738311
 40
0.8277586987
 40
0.8876286281
 40
0.9166310405
 40
0.9450079962
 40
0.9727842872
 40
1.0
 40
1.0
 40
1.0
 40
1.0
 10
237.1691652483
 20
80.2524980666
 30
0.0
 10
237.3003036088
 20
80.3328111712
 30
0.0
 10
237.5580889184
 20
80.507028983
 30
0.0
 10
237.9247255874
 20
80.8033814747
 30
0.0
 10
238.2731267788
 20
81.1356759452
 30
0.0
 10
238.7153513878
 20
81.629233116
 30
0.0
 10
239.1082476019
 20
82.183274231
 30
0.0
 10
239.4482405734
 20
82.7846960276
 30
0.0
 10
239.7592888827
 20
83.4314604863
 30
0.0
 10
240.0764214128
 20
84.2954803173
 30
0.0
 10
240.3352854738
 20
85.390164206
 30
0.0
 10
240.4705023813
 20
86.528542266
 30
0.0
 10
240.4792361081
 20
87.6862620922
 30
0.0
 10
240.3613493235
 20
88.838690801
 30
0.0
 10
240.1193095133
 20
89.961302303
 30
0.0
 10
239.7582459642
 20
91.0300768608
 30
0.0
 10
239.3610070549
 20
91.8640489856
 30
0.0
 10
238.9903117204
 20
92.4822546647
 30
0.0
 10
238.5949273976
 20
93.053100105
 30
0.0
 10
238.1514060898
 20
93.5722199728
 30
0.0
 10
237.6644559246
 20
94.0270274936
 30
0.0
 10
237.2861332474
 20
94.3290351156
 30
0.0
 10
236.8930378569
 20
94.5937307225
 30
0.0
 10
236.6198080329
 20
94.7458625272
 30
0.0
 10
236.4815820939
 20
94.8149754967
 30
0.0
  0
SPLINE
  5
405
100
AcDbEntity
  8
02___PRT_ALL_AXES
100
AcDbSpline
 62
7
  6
CONTINUOUS
 70
0
 71
3
 72
38
 73
34
 74
0
 42
0.0000001
 43
0.0000001
 44
0.0000000001
 40
0.0
 40
0.0
 40
0.0
 40
0.0
 40
0.0285114781
 40
0.0578237659
 40
0.0879969161
 40
0.1190543571
 40
0.1836827117
 40
0.2172047896
 40
0.2513938076
 40
0.2861364588
 40
0.3213039399
 40
0.356755983
 40
0.3923448359
 40
0.4279192015
 40
0.4633281561
 40
0.4984250708
 40
0.5330715574
 40
0.5671414585
 40
0.6005248884
 40
0.6331323134
 40
0.6648986227
 40
0.6957870826
 40
0.7257929737
 40
0.7549465905
 40
0.783315132
 40
0.811002878
 40
0.8381489889
 40
0.8649224028
 40
0.891513691
 40
0.9181243577
 40
0.944954733
 40
0.9721920249
 40
1.0
 40
1.0
 40
1.0
 40
1.0
 10
239.6002871924
 20
96.5599628272
 30
0.0
 10
239.8252312556
 20
96.4474907956
 30
0.0
 10
240.2682438632
 20
96.1920519715
 30
0.0
 10
240.8946113082
 20
95.731233337
 30
0.0
 10
241.4858782744
 20
95.1921596622
 30
0.0
 10
242.2292931979
 20
94.3657207447
 30
0.0
 10
242.8681584632
 20
93.413198994
 30
0.0
 10
243.3930820976
 20
92.3695976861
 30
0.0
 10
243.7331066589
 20
91.5311438214
 30
0.0
 10
244.0110936147
 20
90.6550725553
 30
0.0
 10
244.2244989565
 20
89.7496203272
 30
0.0
 10
244.3712734419
 20
88.8234833926
 30
0.0
 10
244.4500287203
 20
87.8855068768
 30
0.0
 10
244.4600122316
 20
86.9446625502
 30
0.0
 10
244.4011255279
 20
86.0099456498
 30
0.0
 10
244.2739219312
 20
85.0902929676
 30
0.0
 10
244.0796006023
 20
84.1944960552
 30
0.0
 10
243.8199928218
 20
83.3311181455
 30
0.0
 10
243.4975418925
 20
82.5084141121
 30
0.0
 10
243.1152769873
 20
81.7342553577
 30
0.0
 10
242.6767820982
 20
81.0160608539
 30
0.0
 10
242.1861620042
 20
80.3607353426
 30
0.0
 10
241.6480074945
 20
79.7746151374
 30
0.0
 10
241.0673631814
 20
79.2634200619
 30
0.0
 10
240.4497003145
 20
78.8322075984
 30
0.0
 10
239.8008942771
 20
78.4853226682
 30
0.0
 10
239.1272002589
 20
78.226336199
 30
0.0
 10
238.4352159829
 20
78.0579692474
 30
0.0
 10
237.7318107833
 20
77.9820141721
 30
0.0
 10
237.0240352875
 20
77.9992635475
 30
0.0
 10
236.3189443436
 20
78.1095069621
 30
0.0
 10
235.6236529656
 20
78.311463884
 30
0.0
 10
235.1762614578
 20
78.5036407697
 30
0.0
 10
234.9568677495
 20
78.6133376239
 30
0.0
  0
SPLINE
  5
406
100
AcDbEntity
  8
02___PRT_ALL_AXES
100
AcDbSpline
 62
7
  6
CONTINUOUS
 70
0
 71
3
 72
23
 73
19
 74
0
 42
0.0000001
 43
0.0000001
 44
0.0000000001
 40
0.0
 40
0.0
 40
0.0
 40
0.0
 40
0.064108408
 40
0.1273911682
 40
0.1899561747
 40
0.2519230462
 40
0.313422883
 40
0.3745955574
 40
0.4355872962
 40
0.4965478818
 40
0.5576277128
 40
0.6189748367
 40
0.680732082
 40
0.7430344169
 40
0.8060066298
 40
0.8697613937
 40
0.9343977457
 40
1.0
 40
1.0
 40
1.0
 40
1.0
 10
239.6002871924
 20
96.5599628272
 30
0.0
 10
239.4749410926
 20
96.6226358771
 30
0.0
 10
239.2216529274
 20
96.7389717941
 30
0.0
 10
238.8330299259
 20
96.8861615536
 30
0.0
 10
238.4394939428
 20
97.0043913051
 30
0.0
 10
238.0422961119
 20
97.0932687709
 30
0.0
 10
237.6426771469
 20
97.1525082992
 30
0.0
 10
237.2418946455
 20
97.1819153087
 30
0.0
 10
236.8412104588
 20
97.1813925913
 30
0.0
 10
236.4418878383
 20
97.1509396256
 30
0.0
 10
236.0451857235
 20
97.0906532273
 30
0.0
 10
235.6523537373
 20
97.0007269942
 30
0.0
 10
235.2646271854
 20
96.8814506219
 30
0.0
 10
234.8832220066
 20
96.7332071851
 30
0.0
 10
234.5093324979
 20
96.5564724848
 30
0.0
 10
234.1441203587
 20
96.3518066487
 30
0.0
 10
233.7887388135
 20
96.1198739016
 30
0.0
 10
233.5608330344
 20
95.9488569586
 30
0.0
 10
233.4488979992
 20
95.85921297
 30
0.0
  0
SPLINE
  5
407
100
AcDbEntity
  8
7_ALL_FEATURES
100
AcDbSpline
 62
9
  6
CONTINUOUS
 70
0
 71
3
 72
29
 73
25
 74
0
 42
0.0000001
 43
0.0000001
 44
0.0000000001
 40
0.0
 40
0.0
 40
0.0
 40
0.0
 40
0.0270811788
 40
0.0547103521
 40
0.0829314772
 40
0.1117731468
 40
0.1713207526
 40
0.2020513518
 40
0.2333765769
 40
0.2976226407
 40
0.3636857685
 40
0.4310403267
 40
0.4990816184
 40
0.5671644504
 40
0.6346412125
 40
0.7008999257
 40
0.7654027277
 40
0.7968738297
 40
0.8277586989
 40
0.8876286285
 40
0.9166310403
 40
0.9450079975
 40
0.9727842798
 40
1.0
 40
1.0
 40
1.0
 40
1.0
 10
235.7543214024
 20
80.5380823845
 30
0.0
 10
235.8789762586
 20
80.6144247947
 30
0.0
 10
236.1240165377
 20
80.7800292055
 30
0.0
 10
236.4725265492
 20
81.0617298789
 30
0.0
 10
236.8037025485
 20
81.377595593
 30
0.0
 10
237.2240634693
 20
81.8467510004
 30
0.0
 10
237.5975347755
 20
82.3734000738
 30
0.0
 10
237.9207181513
 20
82.9450874193
 30
0.0
 10
238.2163882964
 20
83.5598754648
 30
0.0
 10
238.5178415302
 20
84.3811778331
 30
0.0
 10
238.7639072393
 20
85.4217400663
 30
0.0
 10
238.8924389175
 20
86.5038362229
 30
0.0
 10
238.9007408285
 20
87.6043178641
 30
0.0
 10
238.7886824356
 20
88.6997699846
 30
0.0
 10
238.5586092249
 20
89.7668790927
 30
0.0
 10
238.2153968158
 20
90.7828129635
 30
0.0
 10
237.8377976909
 20
91.5755532082
 30
0.0
 10
237.4854295061
 20
92.1631944153
 30
0.0
 10
237.1095933403
 20
92.7058171297
 30
0.0
 10
236.6879998683
 20
93.1992714725
 30
0.0
 10
236.2251246504
 20
93.6315930227
 30
0.0
 10
235.8655064938
 20
93.9186692902
 30
0.0
 10
235.4918458935
 20
94.1702782075
 30
0.0
 10
235.2321246833
 20
94.314888554
 30
0.0
 10
235.1007326597
 20
94.3805845658
 30
0.0
  0
SPLINE
  5
408
100
AcDbEntity
  8
7_ALL_FEATURES
100
AcDbSpline
 62
7
  6
CONTINUOUS
 70
0
 71
3
 72
17
 73
13
 74
0
 42
0.0000001
 43
0.0000001
 44
0.0000000001
 40
0.0
 40
0.0
 40
0.0
 40
0.0
 40
0.0795659542
 40
0.1242243255
 40
0.1723608538
 40
0.2240316744
 40
0.2792162974
 40
0.399770988
 40
0.5331961463
 40
0.6784226308
 40
0.8343660482
 40
1.0
 40
1.0
 40
1.0
 40
1.0
 10
226.2248531991
 20
100.919031185
 30
0.0
 10
226.2276845955
 20
100.9397174327
 30
0.0
 10
226.2377162309
 20
100.9712922162
 30
0.0
 10
226.2581550755
 20
101.0116433749
 30
0.0
 10
226.2783850843
 20
101.0437782523
 30
0.0
 10
226.3026909198
 20
101.0764258719
 30
0.0
 10
226.3414412514
 20
101.1218568435
 30
0.0
 10
226.3993495921
 20
101.1788916686
 30
0.0
 10
226.4800473973
 20
101.2458302553
 30
0.0
 10
226.5726644349
 20
101.3125035006
 30
0.0
 10
226.6760211968
 20
101.3783468801
 30
0.0
 10
226.7493294859
 20
101.4202101502
 30
0.0
 10
226.7875071537
 20
101.4409857338
 30
0.0
  0
SPLINE
  5
409
100
AcDbEntity
  8
7_ALL_FEATURES
100
AcDbSpline
 62
9
  6
CONTINUOUS
 70
0
 71
3
 72
13
 73
9
 74
0
 42
0.0000001
 43
0.0000001
 44
0.0000000001
 40
0.0
 40
0.0
 40
0.0
 40
0.0
 40
0.2563118639
 40
0.5072709372
 40
0.6312976847
 40
0.7546044596
 40
0.8774248168
 40
1.0
 40
1.0
 40
1.0
 40
1.0
 10
235.1007326597
 20
94.3805845658
 30
0.0
 10
234.925292843
 20
94.4683044741
 30
0.0
 10
234.5673737808
 20
94.6214818817
 30
0.0
 10
234.101483932
 20
94.7545375805
 30
0.0
 10
233.7260675666
 20
94.8227679237
 30
0.0
 10
233.4444091327
 20
94.8549093202
 30
0.0
 10
233.1623617566
 20
94.8681100676
 30
0.0
 10
232.9744391964
 20
94.8642595508
 30
0.0
 10
232.8807737555
 20
94.8591802251
 30
0.0
  0
SPLINE
  5
40A
100
AcDbEntity
  8
7_ALL_FEATURES
100
AcDbSpline
 62
9
  6
CONTINUOUS
 70
0
 71
3
 72
42
 73
38
 74
0
 42
0.0000001
 43
0.0000001
 44
0.0000000001
 40
0.0
 40
0.0
 40
0.0
 40
0.0
 40
0.0130489155
 40
0.0261170418
 40
0.0392233634
 40
0.0523864171
 40
0.065624084
 40
0.0789533957
 40
0.1059400065
 40
0.1334699617
 40
0.1616345246
 40
0.1905008002
 40
0.2201111002
 40
0.2352053076
 40
0.2504902925
 40
0.2816195011
 40
0.3134792312
 40
0.3460239228
 40
0.3791911278
 40
0.4129038749
 40
0.4470730544
 40
0.4815997905
 40
0.5512592194
 40
0.5862027709
 40
0.6210573048
 40
0.6557098956
 40
0.6900516844
 40
0.7239801894
 40
0.7574016417
 40
0.7902333474
 40
0.8224060693
 40
0.8538664068
 40
0.8845791263
 40
0.9145293672
 40
0.9437245968
 40
0.9721961391
 40
1.0
 40
1.0
 40
1.0
 40
1.0
 10
234.5691698116
 20
72.4176810338
 30
0.0
 10
234.4085361125
 20
72.408969967
 30
0.0
 10
234.0864512053
 20
72.4008217995
 30
0.0
 10
233.6028974272
 20
72.416494048
 30
0.0
 10
233.1196239009
 20
72.4600233321
 30
0.0
 10
232.6375596506
 20
72.5313248765
 30
0.0
 10
232.1575843883
 20
72.6302697994
 30
0.0
 10
231.5191131756
 20
72.7994422438
 30
0.0
 10
230.7293833029
 20
73.0803618387
 30
0.0
 10
229.8089637342
 20
73.5224536115
 30
0.0
 10
228.9183252081
 20
74.0675572797
 30
0.0
 10
228.0641341891
 20
74.7114308346
 30
0.0
 10
227.3920566958
 20
75.3224348507
 30
0.0
 10
226.8782149254
 20
75.8545963556
 30
0.0
 10
226.3750564182
 20
76.4221706383
 30
0.0
 10
225.7806779516
 20
77.1838357098
 30
0.0
 10
225.1311316723
 20
78.1676500512
 30
0.0
 10
224.5455900677
 20
79.2196666059
 30
0.0
 10
224.0283650655
 20
80.332069423
 30
0.0
 10
223.5832339021
 20
81.4966274194
 30
0.0
 10
223.2134419211
 20
82.7048265171
 30
0.0
 10
222.8234406134
 20
84.3662809949
 30
0.0
 10
222.5960525342
 20
86.0721617627
 30
0.0
 10
222.5334340277
 20
87.7911492271
 30
0.0
 10
222.5694541326
 20
89.0792947045
 30
0.0
 10
222.6882831577
 20
90.3549380444
 30
0.0
 10
222.8890457132
 20
91.6087624246
 30
0.0
 10
223.1702774838
 20
92.8314840586
 30
0.0
 10
223.5299245137
 20
94.0140829376
 30
0.0
 10
223.9653634197
 20
95.1478249348
 30
0.0
 10
224.4734219597
 20
96.2243354413
 30
0.0
 10
225.0504027523
 20
97.2356537008
 30
0.0
 10
225.6921155418
 20
98.1742896797
 30
0.0
 10
226.3938898759
 20
99.033262304
 30
0.0
 10
227.1506640341
 20
99.8061787139
 30
0.0
 10
227.9567985991
 20
100.4871460091
 30
0.0
 10
228.5297653297
 20
100.8808577358
 30
0.0
 10
228.8220745166
 20
101.0598767368
 30
0.0
  0
SPLINE
  5
40B
100
AcDbEntity
  8
7_ALL_FEATURES
100
AcDbSpline
 62
9
  6
CONTINUOUS
 70
0
 71
3
 72
11
 73
7
 74
0
 42
0.0000001
 43
0.0000001
 44
0.0000000001
 40
0.0
 40
0.0
 40
0.0
 40
0.0
 40
0.2457233451
 40
0.4932168009
 40
0.7441493215
 40
1.0
 40
1.0
 40
1.0
 40
1.0
 10
233.6930201272
 20
79.8811879112
 30
0.0
 10
233.871686983
 20
79.8908770184
 30
0.0
 10
234.2294706928
 20
79.9334843356
 30
0.0
 10
234.7563236169
 20
80.0660070691
 30
0.0
 10
235.2693682582
 20
80.2658545141
 30
0.0
 10
235.5954450432
 20
80.4407816893
 30
0.0
 10
235.7543214024
 20
80.5380823845
 30
0.0
  0
SPLINE
  5
40C
100
AcDbEntity
  8
7_ALL_FEATURES
100
AcDbSpline
 62
9
  6
CONTINUOUS
 70
0
 71
3
 72
35
 73
31
 74
0
 42
0.0000001
 43
0.0000001
 44
0.0000000001
 40
0.0
 40
0.0
 40
0.0
 40
0.0
 40
0.0259636765
 40
0.0519155947
 40
0.0779576781
 40
0.104189027
 40
0.1307029186
 40
0.1575841898
 40
0.1849071362
 40
0.212733985
 40
0.241113938
 40
0.2700827349
 40
0.2996626605
 40
0.3298628982
 40
0.3606801425
 40
0.3920993967
 40
0.4240948981
 40
0.4566311142
 40
0.4896637789
 40
0.5231409504
 40
0.5911634131
 40
0.6256015911
 40
0.6602208874
 40
0.7296791813
 40
0.7643899085
 40
0.7989791136
 40
0.8674739596
 40
0.9012653963
 40
0.9346587803
 40
1.0
 40
1.0
 40
1.0
 40
1.0
 10
233.8896423962
 20
72.7267069763
 30
0.0
 10
234.1472509316
 20
72.7135750773
 30
0.0
 10
234.663920876
 20
72.7115143036
 30
0.0
 10
235.4363292915
 20
72.7816943509
 30
0.0
 10
236.2013719158
 20
72.9247711378
 30
0.0
 10
236.9550903618
 20
73.1400000427
 30
0.0
 10
237.6937130398
 20
73.4262545704
 30
0.0
 10
238.4135343604
 20
73.7820464661
 30
0.0
 10
239.110972255
 20
74.2055401948
 30
0.0
 10
239.7825726777
 20
74.6945694764
 30
0.0
 10
240.4250252297
 20
75.246652454
 30
0.0
 10
241.0351740544
 20
75.8590061521
 30
0.0
 10
241.6100286666
 20
76.5285612129
 30
0.0
 10
242.146774899
 20
77.2519760031
 30
0.0
 10
242.6427864056
 20
78.0256516294
 30
0.0
 10
243.0956358788
 20
78.8457464246
 30
0.0
 10
243.5031069742
 20
79.7081984459
 30
0.0
 10
243.8632003459
 20
80.6087245686
 30
0.0
 10
244.174161647
 20
81.5429140967
 30
0.0
 10
244.5229961166
 20
82.8337182253
 30
0.0
 10
244.7648715239
 20
84.1656886081
 30
0.0
 10
244.8998058398
 20
85.5213465195
 30
0.0
 10
244.9630938765
 20
86.896547175
 30
0.0
 10
244.9172485933
 20
88.2776370675
 30
0.0
 10
244.7631091934
 20
89.6480491121
 30
0.0
 10
244.5383682017
 20
90.9989455969
 30
0.0
 10
244.2084236042
 20
92.3213769787
 30
0.0
 10
243.7748412323
 20
93.598335215
 30
0.0
 10
243.2819733501
 20
94.8197187251
 30
0.0
 10
242.8368923062
 20
95.6972356176
 30
0.0
 10
242.5078029475
 20
96.2567849729
 30
0.0
  0
SPLINE
  5
40D
100
AcDbEntity
  8
02___PRT_ALL_AXES
100
AcDbSpline
 62
7
  6
CONTINUOUS
 70
0
 71
3
 72
22
 73
18
 74
0
 42
0.0000001
 43
0.0000001
 44
0.0000000001
 40
0.0
 40
0.0
 40
0.0
 40
0.0
 40
0.0788291242
 40
0.1552556718
 40
0.2292457868
 40
0.3007856234
 40
0.3698835025
 40
0.4365722662
 40
0.5009117273
 40
0.5629912303
 40
0.6808125445
 40
0.7369775915
 40
0.7915770583
 40
0.8448727178
 40
0.897158259
 40
0.9487540998
 40
1.0
 40
1.0
 40
1.0
 40
1.0
 10
212.1336835283
 20
84.8409845767
 30
0.0
 10
211.9145973917
 20
84.9548517442
 30
0.0
 10
211.4873724281
 20
85.187470913
 30
0.0
 10
210.8713886151
 20
85.5568747077
 30
0.0
 10
210.2913862516
 20
85.9406235993
 30
0.0
 10
209.7487006751
 20
86.3378461649
 30
0.0
 10
209.2445630403
 20
86.7476590516
 30
0.0
 10
208.7801398345
 20
87.169128107
 30
0.0
 10
208.3564514626
 20
87.6013819677
 30
0.0
 10
207.8560578047
 20
88.1804608786
 30
0.0
 10
207.4287212795
 20
88.7876715504
 30
0.0
 10
207.0878719884
 20
89.4180514348
 30
0.0
 10
206.8810440497
 20
89.8891495853
 30
0.0
 10
206.7195873675
 20
90.3648652026
 30
0.0
 10
206.6039257402
 20
90.8441243455
 30
0.0
 10
206.5343928992
 20
91.3257106824
 30
0.0
 10
206.518908209
 20
91.6480438444
 30
0.0
 10
206.518908209
 20
91.8085570676
 30
0.0
  0
SPLINE
  5
40E
100
AcDbEntity
  8
02___PRT_ALL_AXES
100
AcDbSpline
 62
7
  6
CONTINUOUS
 70
0
 71
3
 72
15
 73
11
 74
0
 42
0.0000001
 43
0.0000001
 44
0.0000000001
 40
0.0
 40
0.0
 40
0.0
 40
0.0
 40
0.1387088462
 40
0.2723425315
 40
0.401356442
 40
0.5263083526
 40
0.6478573311
 40
0.7667567412
 40
0.8838401652
 40
1.0
 40
1.0
 40
1.0
 40
1.0
 10
245.0245349372
 20
87.7699031189
 30
0.0
 10
245.161064089
 20
87.925456529
 30
0.0
 10
245.4188160771
 20
88.2401585422
 30
0.0
 10
245.7627822263
 20
88.7311125846
 30
0.0
 10
246.0556658591
 20
89.2306043941
 30
0.0
 10
246.2965820393
 20
89.7373057544
 30
0.0
 10
246.484796569
 20
90.249872131
 30
0.0
 10
246.6196995195
 20
90.7669244311
 30
0.0
 10
246.7008329158
 20
91.2869387267
 30
0.0
 10
246.7189081147
 20
91.6352318639
 30
0.0
 10
246.7189081147
 20
91.8085570676
 30
0.0
  0
SPLINE
  5
40F
100
AcDbEntity
  8
7_ALL_FEATURES
100
AcDbSpline
 62
7
  6
CONTINUOUS
 70
0
 71
3
 72
36
 73
32
 74
0
 42
0.0000001
 43
0.0000001
 44
0.0000000001
 40
0.0
 40
0.0
 40
0.0
 40
0.0
 40
0.0739246839
 40
0.1496585131
 40
0.2263729038
 40
0.3032131816
 40
0.3414164959
 40
0.3793306217
 40
0.4168515529
 40
0.4538779503
 40
0.4903118875
 40
0.5260596577
 40
0.5610325909
 40
0.5951479661
 40
0.6283299538
 40
0.6605106968
 40
0.6916314604
 40
0.7216439751
 40
0.7505119041
 40
0.7782125678
 40
0.8047388484
 40
0.8301013845
 40
0.8543309305
 40
0.8660390539
 40
0.8774860274
 40
0.899634808
 40
0.9208878722
 40
0.941378662
 40
0.9612679186
 40
0.9807405933
 40
1.0
 40
1.0
 40
1.0
 40
1.0
 10
233.5206975085
 20
100.7698360618
 30
0.0
 10
232.8148611547
 20
100.9126415765
 30
0.0
 10
231.3755337597
 20
101.1523984348
 30
0.0
 10
229.1802071373
 20
101.3749773389
 30
0.0
 10
226.9469423247
 20
101.4628674791
 30
0.0
 10
225.0780978024
 20
101.4226921527
 30
0.0
 10
223.5912703481
 20
101.3219652104
 30
0.0
 10
222.489470698
 20
101.2127532982
 30
0.0
 10
221.4030595525
 20
101.0701557537
 30
0.0
 10
220.3360685125
 20
100.8947010321
 30
0.0
 10
219.2924718147
 20
100.6870435043
 30
0.0
 10
218.2761507089
 20
100.447957185
 30
0.0
 10
217.2908844198
 20
100.1783312815
 30
0.0
 10
216.3403338802
 20
99.8791688507
 30
0.0
 10
215.4280287443
 20
99.5515796198
 30
0.0
 10
214.5573532684
 20
99.1967777794
 30
0.0
 10
213.7315343549
 20
98.8160733443
 30
0.0
 10
212.9536291176
 20
98.4108687139
 30
0.0
 10
212.2265142657
 20
97.9826476595
 30
0.0
 10
211.5528792184
 20
97.5329734822
 30
0.0
 10
210.9352084349
 20
97.0634654725
 30
0.0
 10
210.3758172519
 20
96.575835971
 30
0.0
 10
209.9552139964
 20
96.151022067
 30
0.0
 10
209.6509882348
 20
95.8036991785
 30
0.0
 10
209.3743843117
 20
95.4596723081
 30
0.0
 10
209.0670429122
 20
95.0216179315
 30
0.0
 10
208.7596180288
 20
94.4792520044
 30
0.0
 10
208.518948134
 20
93.9279313751
 30
0.0
 10
208.3461602522
 20
93.3697128216
 30
0.0
 10
208.2421148242
 20
92.8068925449
 30
0.0
 10
208.2189084224
 20
92.4291853942
 30
0.0
 10
208.2189082169
 20
92.2415697695
 30
0.0
  0
SPLINE
  5
410
100
AcDbEntity
  8
02___PRT_ALL_AXES
100
AcDbSpline
 62
7
  6
CONTINUOUS
 70
0
 71
3
 72
20
 73
16
 74
0
 42
0.0000001
 43
0.0000001
 44
0.0000000001
 40
0.0
 40
0.0
 40
0.0
 40
0.0
 40
0.209685499
 40
0.3958566261
 40
0.5571938473
 40
0.6281744678
 40
0.6925144201
 40
0.7501319916
 40
0.8010188026
 40
0.8452964778
 40
0.8833212411
 40
0.9158675108
 40
0.9444211764
 40
0.9714252607
 40
1.0
 40
1.0
 40
1.0
 40
1.0
 10
244.9852207408
 20
92.5511416142
 30
0.0
 10
244.9811248797
 20
92.517344605
 30
0.0
 10
244.9723363585
 20
92.4536571728
 30
0.0
 10
244.9560568147
 20
92.3646381791
 30
0.0
 10
244.9400708736
 20
92.298537596
 30
0.0
 10
244.9258776606
 20
92.2524956856
 30
0.0
 10
244.9151975438
 20
92.2230312864
 30
0.0
 10
244.9040581656
 20
92.1972511251
 30
0.0
 10
244.8924901567
 20
92.1752730609
 30
0.0
 10
244.8805205017
 20
92.1572059473
 30
0.0
 10
244.8681466026
 20
92.1431514745
 30
0.0
 10
244.8553069238
 20
92.1332285304
 30
0.0
 10
244.8418505322
 20
92.1277172284
 30
0.0
 10
244.8279036511
 20
92.1271902841
 30
0.0
 10
244.8191716858
 20
92.1301489594
 30
0.0
 10
244.8150221326
 20
92.1322237805
 30
0.0
  0
SPLINE
  5
411
100
AcDbEntity
  8
7_ALL_FEATURES
100
AcDbSpline
 62
7
  6
CONTINUOUS
 70
0
 71
3
 72
21
 73
17
 74
0
 42
0.0000001
 43
0.0000001
 44
0.0000000001
 40
0.0
 40
0.0
 40
0.0
 40
0.0
 40
0.065583276
 40
0.1332602427
 40
0.2727083568
 40
0.4138745118
 40
0.4836649114
 40
0.5521467546
 40
0.6187773029
 40
0.6830530102
 40
0.7445231933
 40
0.8028060164
 40
0.8576068545
 40
0.9087413298
 40
0.9561630889
 40
1.0
 40
1.0
 40
1.0
 40
1.0
 10
240.864998943
 20
96.1955988602
 30
0.0
 10
240.9278057921
 20
96.2126993167
 30
0.0
 10
241.0565768949
 20
96.2433371145
 30
0.0
 10
241.3232510229
 20
96.2903800209
 30
0.0
 10
241.6682415927
 20
96.3217019924
 30
0.0
 10
242.0166670722
 20
96.3169336575
 30
0.0
 10
242.2929251338
 20
96.2910804571
 30
0.0
 10
242.4941792124
 20
96.2610553249
 30
0.0
 10
242.6880285506
 20
96.2206670949
 30
0.0
 10
242.872353166
 20
96.1703575897
 30
0.0
 10
243.0451358767
 20
96.1106778123
 30
0.0
 10
243.2044966441
 20
96.042274861
 30
0.0
 10
243.3487065398
 20
95.9658825384
 30
0.0
 10
243.4762197421
 20
95.8822894474
 30
0.0
 10
243.5856349561
 20
95.7923756684
 30
0.0
 10
243.6480696455
 20
95.7262858226
 30
0.0
 10
243.6754407466
 20
95.6924644428
 30
0.0
  0
SPLINE
  5
412
100
AcDbEntity
  8
7_ALL_FEATURES
100
AcDbSpline
 62
7
  6
CONTINUOUS
 70
0
 71
3
 72
19
 73
15
 74
0
 42
0.0000001
 43
0.0000001
 44
0.0000000001
 40
0.0
 40
0.0
 40
0.0
 40
0.0
 40
0.1642344711
 40
0.3188528313
 40
0.4619572243
 40
0.592297031
 40
0.6525745697
 40
0.709623131
 40
0.7635940253
 40
0.8147392925
 40
0.8634219414
 40
0.9101203257
 40
0.9554216367
 40
1.0
 40
1.0
 40
1.0
 40
1.0
 10
233.5206975085
 20
100.7698360618
 30
0.0
 10
233.6101049213
 20
100.7517470649
 30
0.0
 10
233.7823822219
 20
100.7096255454
 30
0.0
 10
234.0254242471
 20
100.6261520897
 30
0.0
 10
234.2414577404
 20
100.5257478584
 30
0.0
 10
234.3992061958
 20
100.4271656524
 30
0.0
 10
234.5066884473
 20
100.3410964397
 30
0.0
 10
234.5757207845
 20
100.2754367877
 30
0.0
 10
234.6348951364
 20
100.2073333322
 30
0.0
 10
234.6838697561
 20
100.1371253917
 30
0.0
 10
234.7223411662
 20
100.0651740046
 30
0.0
 10
234.7500450132
 20
99.9918549766
 30
0.0
 10
234.7667656604
 20
99.9176079436
 30
0.0
 10
234.7705028498
 20
99.867610267
 30
0.0
 10
234.7705029797
 20
99.8428505953
 30
0.0
  0
SPLINE
  5
413
100
AcDbEntity
  8
7_ALL_FEATURES
100
AcDbSpline
 62
7
  6
CONTINUOUS
 70
0
 71
3
 72
14
 73
10
 74
0
 42
0.0000001
 43
0.0000001
 44
0.0000000001
 40
0.0
 40
0.0
 40
0.0
 40
0.0
 40
0.1172135256
 40
0.2352336089
 40
0.3548431748
 40
0.4767802425
 40
0.6017207809
 40
0.7302669867
 40
1.0
 40
1.0
 40
1.0
 40
1.0
 10
245.0189080382
 20
92.2415697695
 30
0.0
 10
245.0189081193
 20
92.3890754801
 30
0.0
 10
245.0046223398
 20
92.6852969693
 30
0.0
 10
244.9404753167
 20
93.1278564988
 30
0.0
 10
244.8337734245
 20
93.5682604344
 30
0.0
 10
244.6848299968
 20
94.0053790612
 30
0.0
 10
244.4940302741
 20
94.4382306231
 30
0.0
 10
244.1796181249
 20
95.0173761027
 30
0.0
 10
243.8889786404
 20
95.4286041697
 30
0.0
 10
243.6754407466
 20
95.6924644428
 30
0.0
  0
SPLINE
  5
414
100
AcDbEntity
  8
02___PRT_ALL_AXES
100
AcDbSpline
 62
7
  6
CONTINUOUS
 70
0
 71
3
 72
9
 73
5
 74
0
 42
0.0000001
 43
0.0000001
 44
0.0000000001
 40
0.0
 40
0.0
 40
0.0
 40
0.0
 40
0.2595684707
 40
1.0
 40
1.0
 40
1.0
 40
1.0
 10
244.9980373061
 20
92.6762846013
 30
0.0
 10
244.9971088838
 20
92.6654396014
 30
0.0
 10
244.9933686381
 20
92.6236730853
 30
0.0
 10
244.9889562433
 20
92.5819651238
 30
0.0
 10
244.9852207408
 20
92.5511416142
 30
0.0
  0
SPLINE
  5
415
100
AcDbEntity
  8
7_ALL_FEATURES
100
AcDbSpline
 62
7
  6
CONTINUOUS
 70
0
 71
3
 72
15
 73
11
 74
0
 42
0.0000001
 43
0.0000001
 44
0.0000000001
 40
0.0
 40
0.0
 40
0.0
 40
0.0
 40
0.1020723936
 40
0.2070113235
 40
0.3173570124
 40
0.435111249
 40
0.5616689092
 40
0.6978523994
 40
0.8439883822
 40
1.0
 40
1.0
 40
1.0
 40
1.0
 10
234.7705029797
 20
99.8428505953
 30
0.0
 10
234.7705031519
 20
99.8100208887
 30
0.0
 10
234.7638537072
 20
99.7432647965
 30
0.0
 10
234.7342803384
 20
99.644987458
 30
0.0
 10
234.6855967442
 20
99.5490059143
 30
0.0
 10
234.618498243
 20
99.4562605564
 30
0.0
 10
234.5337614758
 20
99.367515032
 30
0.0
 10
234.4322429664
 20
99.2835101114
 30
0.0
 10
234.3149243003
 20
99.2049670042
 30
0.0
 10
234.2295973815
 20
99.1581842165
 30
0.0
 10
234.1847165767
 20
99.1357438141
 30
0.0
  0
SPLINE
  5
416
100
AcDbEntity
  8
7_ALL_FEATURES
100
AcDbSpline
 62
7
  6
CONTINUOUS
 70
0
 71
3
 72
23
 73
19
 74
0
 42
0.0000001
 43
0.0000001
 44
0.0000000001
 40
0.0
 40
0.0
 40
0.0
 40
0.0
 40
0.05623396
 40
0.1107722411
 40
0.1641839181
 40
0.2170933902
 40
0.2701510878
 40
0.3239996689
 40
0.3792415814
 40
0.4364133735
 40
0.4959694464
 40
0.5582753156
 40
0.6236081114
 40
0.6921618791
 40
0.7640551871
 40
0.8393394919
 40
0.9180072451
 40
1.0
 40
1.0
 40
1.0
 40
1.0
 10
244.805394194
 20
89.9935968616
 30
0.0
 10
244.8998980122
 20
90.1847352971
 30
0.0
 10
245.0659610755
 20
90.57168853
 30
0.0
 10
245.2429706235
 20
91.1700646883
 30
0.0
 10
245.3424870665
 20
91.7734946712
 30
0.0
 10
245.3638581724
 20
92.3791150697
 30
0.0
 10
245.3069590631
 20
92.9840892158
 30
0.0
 10
245.1721443746
 20
93.5855770023
 30
0.0
 10
244.9602209179
 20
94.1808684177
 30
0.0
 10
244.6723527122
 20
94.7674171212
 30
0.0
 10
244.3099897944
 20
95.3428361738
 30
0.0
 10
243.8748183627
 20
95.9048587594
 30
0.0
 10
243.3687519441
 20
96.4513043369
 30
0.0
 10
242.7939330896
 20
96.9800545501
 30
0.0
 10
242.1527471348
 20
97.4890452889
 30
0.0
 10
241.4478186874
 20
97.9762749402
 30
0.0
 10
240.6820534945
 20
98.4397928445
 30
0.0
 10
240.1439022607
 20
98.7259931956
 30
0.0
 10
239.8658286374
 20
98.8650300072
 30
0.0
  0
SPLINE
  5
417
100
AcDbEntity
  8
7_ALL_FEATURES
100
AcDbSpline
 62
7
  6
CONTINUOUS
 70
0
 71
3
 72
56
 73
52
 74
0
 42
0.0000001
 43
0.0000001
 44
0.0000000001
 40
0.0
 40
0.0
 40
0.0
 40
0.0
 40
0.0146981842
 40
0.0289167516
 40
0.042656732
 40
0.0559237771
 40
0.0687286422
 40
0.0810876637
 40
0.0930232262
 40
0.1045641783
 40
0.1157461411
 40
0.1266116363
 40
0.1372099505
 40
0.1475966522
 40
0.1578327037
 40
0.1679831549
 40
0.1781154774
 40
0.1882976653
 40
0.1985962841
 40
0.2090746598
 40
0.2197913696
 40
0.2307991285
 40
0.2421440969
 40
0.2538655686
 40
0.2659959697
 40
0.2785610801
 40
0.2915803993
 40
0.3050675931
 40
0.3190309708
 40
0.3334739613
 40
0.3483955681
 40
0.3637907936
 40
0.3796510272
 40
0.3959643975
 40
0.4127160932
 40
0.4298886518
 40
0.4654105832
 40
0.5023515454
 40
0.5405002777
 40
0.5796235918
 40
0.6194715816
 40
0.6597824041
 40
0.7002867946
 40
0.7407124297
 40
0.7807882272
 40
0.8202486725
 40
0.8588382567
 40
0.896316128
 40
0.9324611019
 40
0.9670772153
 40
1.0
 40
1.0
 40
1.0
 40
1.0
 10
212.00342397
 20
86.381761333
 30
0.0
 10
211.8213237861
 20
86.4953093847
 30
0.0
 10
211.4677909074
 20
86.726410877
 30
0.0
 10
210.9626810052
 20
87.0911612852
 30
0.0
 10
210.492594718
 20
87.4675159378
 30
0.0
 10
210.0585968877
 20
87.854643238
 30
0.0
 10
209.661659353
 20
88.251701137
 30
0.0
 10
209.3026808643
 20
88.6578261652
 30
0.0
 10
208.9824821282
 20
89.0721373371
 30
0.0
 10
208.7018074698
 20
89.4937349531
 30
0.0
 10
208.4613244219
 20
89.9216990663
 30
0.0
 10
208.2616224758
 20
90.355086388
 30
0.0
 10
208.1032092587
 20
90.792926468
 30
0.0
 10
207.9865039329
 20
91.2342186397
 30
0.0
 10
207.9118277057
 20
91.6779315505
 30
0.0
 10
207.8793929496
 20
92.1230072115
 30
0.0
 10
207.8892938396
 20
92.5683703522
 30
0.0
 10
207.9415015504
 20
93.0129418172
 30
0.0
 10
208.0358657792
 20
93.4556529165
 30
0.0
 10
208.1721218389
 20
93.8954572668
 30
0.0
 10
208.3499012913
 20
94.3313376882
 30
0.0
 10
208.5687425035
 20
94.7623079397
 30
0.0
 10
208.8280989525
 20
95.1874107467
 30
0.0
 10
209.1273444364
 20
95.6057141623
 30
0.0
 10
209.4657755317
 20
96.0163080036
 30
0.0
 10
209.8426121969
 20
96.4183013705
 30
0.0
 10
210.25699747
 20
96.8108216506
 30
0.0
 10
210.707997264
 20
97.1930146052
 30
0.0
 10
211.1946003744
 20
97.5640455104
 30
0.0
 10
211.7157190159
 20
97.9231008777
 30
0.0
 10
212.2701899767
 20
98.2693905517
 30
0.0
 10
212.8567761256
 20
98.6021497493
 30
0.0
 10
213.4741690717
 20
98.9206418307
 30
0.0
 10
214.1209894312
 20
99.2241583297
 30
0.0
 10
214.7957983729
 20
99.5120292609
 30
0.0
 10
215.7414779989
 20
99.8782394484
 30
0.0
 10
216.9843231087
 20
100.291154165
 30
0.0
 10
218.5450546853
 20
100.7094741818
 30
0.0
 10
220.1778027772
 20
101.0523720877
 30
0.0
 10
221.8679878721
 20
101.3167780873
 30
0.0
 10
223.6005658509
 20
101.50032973
 30
0.0
 10
225.3600803796
 20
101.6013816308
 30
0.0
 10
227.130831133
 20
101.6190281353
 30
0.0
 10
228.8970123864
 20
101.5531109054
 30
0.0
 10
230.6428612773
 20
101.4042208037
 30
0.0
 10
232.3528020833
 20
101.1736928353
 30
0.0
 10
234.0115948982
 20
100.8635896219
 30
0.0
 10
235.6044630006
 20
100.4766855509
 30
0.0
 10
237.1172834154
 20
100.0164106384
 30
0.0
 10
238.5365360065
 20
99.4868957757
 30
0.0
 10
239.4358866741
 20
99.0800009889
 30
0.0
 10
239.8658286374
 20
98.8650300072
 30
0.0
  0
SPLINE
  5
418
100
AcDbEntity
  8
7_ALL_FEATURES
100
AcDbSpline
 62
7
  6
CONTINUOUS
 70
0
 71
3
 72
18
 73
14
 74
0
 42
0.0000001
 43
0.0000001
 44
0.0000000001
 40
0.0
 40
0.0
 40
0.0
 40
0.0
 40
0.0534337635
 40
0.1071322992
 40
0.1613547645
 40
0.2163494994
 40
0.2723495735
 40
0.3295693029
 40
0.4483532402
 40
0.5740469336
 40
0.7075569657
 40
0.8494512874
 40
1.0
 40
1.0
 40
1.0
 40
1.0
 10
208.2189082169
 20
92.2415697695
 30
0.0
 10
208.2189080799
 20
92.1165489762
 30
0.0
 10
208.2291513093
 20
91.865768785
 30
0.0
 10
208.2751755403
 20
91.4906646196
 30
0.0
 10
208.3517806015
 20
91.1168493559
 30
0.0
 10
208.4588128256
 20
90.7450050971
 30
0.0
 10
208.5960758712
 20
90.3757434502
 30
0.0
 10
208.8217981515
 20
89.881628595
 30
0.0
 10
209.1821595681
 20
89.2720027602
 30
0.0
 10
209.7245668191
 20
88.5710138595
 30
0.0
 10
210.3784142832
 20
87.8954219292
 30
0.0
 10
211.1391104457
 20
87.249458527
 30
0.0
 10
211.6977459964
 20
86.8528139242
 30
0.0
 10
211.9923939397
 20
86.6597896157
 30
0.0
  0
SPLINE
  5
419
100
AcDbEntity
  8
7_ALL_FEATURES
100
AcDbSpline
 62
7
  6
CONTINUOUS
 70
0
 71
3
 72
11
 73
7
 74
0
 42
0.0000001
 43
0.0000001
 44
0.0000000001
 40
0.0
 40
0.0
 40
0.0
 40
0.0
 40
0.2552828973
 40
0.5060778614
 40
0.7538140364
 40
1.0
 40
1.0
 40
1.0
 40
1.0
 10
244.7088034246
 20
90.5596297679
 30
0.0
 10
244.7597887223
 20
90.6967215901
 30
0.0
 10
244.8496686133
 20
90.9728342626
 30
0.0
 10
244.9472140065
 20
91.394140194
 30
0.0
 10
245.0058527851
 20
91.8173514403
 30
0.0
 10
245.0189079607
 20
92.1005161624
 30
0.0
 10
245.0189080382
 20
92.2415697695
 30
0.0
  0
SPLINE
  5
41A
100
AcDbEntity
  8
7_ALL_FEATURES
100
AcDbSpline
 62
7
  6
CONTINUOUS
 70
0
 71
3
 72
29
 73
25
 74
0
 42
0.0000001
 43
0.0000001
 44
0.0000000001
 40
0.0
 40
0.0
 40
0.0
 40
0.0
 40
0.060537956
 40
0.1183226523
 40
0.1463631216
 40
0.173930377
 40
0.2011104432
 40
0.2279950688
 40
0.2546805732
 40
0.2812664604
 40
0.3078538609
 40
0.3345438802
 40
0.3614359494
 40
0.3886262701
 40
0.4162064357
 40
0.4442622852
 40
0.5020843555
 40
0.5626669202
 40
0.6264321503
 40
0.6936825716
 40
0.7646107581
 40
0.8393117403
 40
0.9177957002
 40
1.0
 40
1.0
 40
1.0
 40
1.0
 10
244.9884218446
 20
88.3909203562
 30
0.0
 10
245.146915855
 20
88.6038931448
 30
0.0
 10
245.4357862699
 20
89.0363382906
 30
0.0
 10
245.7291626133
 20
89.6090930217
 30
0.0
 10
245.9127980018
 20
90.071529518
 30
0.0
 10
246.0245818828
 20
90.4172274686
 30
0.0
 10
246.1116060131
 20
90.7647534406
 30
0.0
 10
246.1737514838
 20
91.1136632607
 30
0.0
 10
246.2109256522
 20
91.4634951466
 30
0.0
 10
246.2230739692
 20
91.8137861034
 30
0.0
 10
246.2101781937
 20
92.1640701076
 30
0.0
 10
246.1722576978
 20
92.5138811303
 30
0.0
 10
246.1093680332
 20
92.8627564027
 30
0.0
 10
246.0216032414
 20
93.2102338323
 30
0.0
 10
245.9090819205
 20
93.5558712103
 30
0.0
 10
245.7244596157
 20
94.0182165991
 30
0.0
 10
245.4298219407
 20
94.590865046
 30
0.0
 10
244.9841421734
 20
95.2557173966
 30
0.0
 10
244.4453157007
 20
95.9022097767
 30
0.0
 10
243.816274546
 20
96.5272039357
 30
0.0
 10
243.1002704508
 20
97.1277713968
 30
0.0
 10
242.300930856
 20
97.7010358197
 30
0.0
 10
241.4223168797
 20
98.2442016595
 30
0.0
 10
240.8006328383
 20
98.5769876406
 30
0.0
 10
240.4782010731
 20
98.7382035232
 30
0.0
  0
SPLINE
  5
41B
100
AcDbEntity
  8
02___PRT_ALL_AXES
100
AcDbSpline
 62
7
  6
CONTINUOUS
 70
0
 71
3
 72
22
 73
18
 74
0
 42
0.0000001
 43
0.0000001
 44
0.0000000001
 40
0.0
 40
0.0
 40
0.0
 40
0.0
 40
0.0152707856
 40
0.0248524291
 40
0.0359457583
 40
0.0486652512
 40
0.0630953603
 40
0.0973104291
 40
0.1389199751
 40
0.188038972
 40
0.2446055401
 40
0.3083839592
 40
0.3789639924
 40
0.4557677904
 40
0.6249973555
 40
0.8090035131
 40
1.0
 40
1.0
 40
1.0
 40
1.0
 10
244.8150221326
 20
92.1322237805
 30
0.0
 10
244.8067142503
 20
92.1363778105
 30
0.0
 10
244.7950363557
 20
92.1466889272
 30
0.0
 10
244.7817154316
 20
92.1639856602
 30
0.0
 10
244.7710832676
 20
92.1813547335
 30
0.0
 10
244.7606404715
 20
92.2021563915
 30
0.0
 10
244.7461697191
 20
92.2365898662
 30
0.0
 10
244.7292795647
 20
92.2889192549
 30
0.0
 10
244.7114798633
 20
92.3628508471
 30
0.0
 10
244.6956485081
 20
92.451078017
 30
0.0
 10
244.6822271338
 20
92.5533082652
 30
0.0
 10
244.6716298388
 20
92.668980351
 30
0.0
 10
244.6641939113
 20
92.7972264123
 30
0.0
 10
244.658661219
 20
92.9897511091
 30
0.0
 10
244.6614328527
 20
93.2514146312
 30
0.0
 10
244.678125488
 20
93.5820875215
 30
0.0
 10
244.6968655706
 20
93.8094499012
 30
0.0
 10
244.7078352837
 20
93.9251054415
 30
0.0
  0
SPLINE
  5
41C
100
AcDbEntity
  8
02___PRT_ALL_AXES
100
AcDbSpline
 62
7
  6
CONTINUOUS
 70
0
 71
3
 72
22
 73
18
 74
0
 42
0.0000001
 43
0.0000001
 44
0.0000000001
 40
0.0
 40
0.0
 40
0.0
 40
0.0
 40
0.0508877315
 40
0.1021406062
 40
0.1541126151
 40
0.2071366104
 40
0.261516356
 40
0.3175210402
 40
0.4352141801
 40
0.4973299358
 40
0.561769836
 40
0.6286194998
 40
0.6979336578
 40
0.7697388926
 40
0.8440363374
 40
0.9208041266
 40
1.0
 40
1.0
 40
1.0
 40
1.0
 10
206.518908209
 20
91.8085570676
 30
0.0
 10
206.518908209
 20
91.9731317748
 30
0.0
 10
206.5351919935
 20
92.3036889802
 30
0.0
 10
206.6083041729
 20
92.7974579902
 30
0.0
 10
206.7299050134
 20
93.2887105479
 30
0.0
 10
206.899623055
 20
93.7761353551
 30
0.0
 10
207.1169868441
 20
94.2585758191
 30
0.0
 10
207.4753253315
 20
94.9040985663
 30
0.0
 10
207.9242041065
 20
95.5246985426
 30
0.0
 10
208.4491657728
 20
96.1153788821
 30
0.0
 10
208.8937323319
 20
96.5559978086
 30
0.0
 10
209.3808343119
 20
96.9850231326
 30
0.0
 10
209.9093489177
 20
97.4015214859
 30
0.0
 10
210.477991625
 20
97.8044957397
 30
0.0
 10
211.0854072359
 20
98.1930032556
 30
0.0
 10
211.730127373
 20
98.5661171482
 30
0.0
 10
212.1769763891
 20
98.800437483
 30
0.0
 10
212.40606186
 20
98.9149802185
 30
0.0
  0
SPLINE
  5
41D
100
AcDbEntity
  8
02___PRT_ALL_AXES
100
AcDbSpline
 62
7
  6
CONTINUOUS
 70
0
 71
3
 72
42
 73
38
 74
0
 42
0.0000001
 43
0.0000001
 44
0.0000000001
 40
0.0
 40
0.0
 40
0.0
 40
0.0
 40
0.0094976267
 40
0.0190337116
 40
0.0286460449
 40
0.0383711214
 40
0.0482435871
 40
0.0582957858
 40
0.0790454534
 40
0.1008337356
 40
0.1238148902
 40
0.1480966828
 40
0.1737445765
 40
0.2007868381
 40
0.2292196288
 40
0.2590116315
 40
0.2901081018
 40
0.322434334
 40
0.3558986355
 40
0.3903949019
 40
0.4258048677
 40
0.4620001271
 40
0.4988439665
 40
0.5361930666
 40
0.5738991102
 40
0.6118103202
 40
0.6497729577
 40
0.6876327946
 40
0.7252365815
 40
0.7624335264
 40
0.7990768043
 40
0.8350251158
 40
0.8701443205
 40
0.9043091823
 40
0.9374052546
 40
0.9693309771
 40
1.0
 40
1.0
 40
1.0
 40
1.0
 10
246.7189081147
 20
91.8085570676
 30
0.0
 10
246.7189081147
 20
91.9319448169
 30
0.0
 10
246.7097828741
 20
92.1793160328
 30
0.0
 10
246.6687690294
 20
92.5495189875
 30
0.0
 10
246.6004845184
 20
92.9186932259
 30
0.0
 10
246.5050387752
 20
93.2862908452
 30
0.0
 10
246.3825705284
 20
93.6518201011
 30
0.0
 10
246.1814342337
 20
94.1408209374
 30
0.0
 10
245.860252021
 20
94.746021546
 30
0.0
 10
245.374751566
 20
95.4472419768
 30
0.0
 10
244.7880123984
 20
96.1278336166
 30
0.0
 10
244.1034172248
 20
96.7842960189
 30
0.0
 10
243.3247147299
 20
97.413364586
 30
0.0
 10
242.4561039299
 20
98.0118282442
 30
0.0
 10
241.5022315328
 20
98.576598302
 30
0.0
 10
240.4681945799
 20
99.1047202447
 30
0.0
 10
239.3595234527
 20
99.5934043525
 30
0.0
 10
238.1821584807
 20
100.0400498057
 30
0.0
 10
236.9424197578
 20
100.4422667294
 30
0.0
 10
235.6469730531
 20
100.797894137
 30
0.0
 10
234.3027931928
 20
101.1050163228
 30
0.0
 10
232.9171250683
 20
101.3619753087
 30
0.0
 10
231.4974433293
 20
101.5673819458
 30
0.0
 10
230.0514108063
 20
101.7201248875
 30
0.0
 10
228.5868359315
 20
101.8193768567
 30
0.0
 10
227.1116295662
 20
101.8646003133
 30
0.0
 10
225.6337612459
 20
101.8555502045
 30
0.0
 10
224.1612152045
 20
101.7922754579
 30
0.0
 10
222.7019462843
 20
101.6751190859
 30
0.0
 10
221.2638360747
 20
101.5047155198
 30
0.0
 10
219.8546491569
 20
101.2819873339
 30
0.0
 10
218.4819906275
 20
101.0081396273
 30
0.0
 10
217.1532619701
 20
100.6846514254
 30
0.0
 10
215.8756266873
 20
100.3132702049
 30
0.0
 10
214.6559455686
 20
99.8959875157
 30
0.0
 10
213.5008271527
 20
99.4350686244
 30
0.0
 10
212.7624324676
 20
99.0931655223
 30
0.0
 10
212.40606186
 20
98.9149802185
 30
0.0
  0
SPLINE
  5
41E
100
AcDbEntity
  8
7_ALL_FEATURES
100
AcDbSpline
 62
7
  6
CONTINUOUS
 70
0
 71
3
 72
57
 73
53
 74
0
 42
0.0000001
 43
0.0000001
 44
0.0000000001
 40
0.0
 40
0.0
 40
0.0
 40
0.0
 40
0.0329556464
 40
0.0676358557
 40
0.1038684715
 40
0.1414481943
 40
0.1801433326
 40
0.2197017688
 40
0.2598563284
 40
0.3003297917
 40
0.3408396706
 40
0.3811028803
 40
0.4208403965
 40
0.4597820012
 40
0.4976712124
 40
0.5342705518
 40
0.5520211127
 40
0.5693718822
 40
0.5863012436
 40
0.6027900111
 40
0.6188217015
 40
0.6343828341
 40
0.649463264
 40
0.6640565519
 40
0.6781603747
 40
0.6917769711
 40
0.7049136246
 40
0.717583174
 40
0.7298045321
 40
0.7416031814
 40
0.7530115899
 40
0.7640694851
 40
0.7748238962
 40
0.7853288701
 40
0.7956447749
 40
0.805837141
 40
0.8159750602
 40
0.8261292442
 40
0.8363699181
 40
0.8467647625
 40
0.8573771104
 40
0.8682645434
 40
0.8794779477
 40
0.8910610151
 40
0.903050118
 40
0.9154744714
 40
0.9283564839
 40
0.9417122178
 40
0.9555518988
 40
0.9698804284
 40
0.9846979091
 40
1.0
 40
1.0
 40
1.0
 40
1.0
 10
240.4782010731
 20
98.7382035232
 30
0.0
 10
240.0192630689
 20
98.9676725253
 30
0.0
 10
239.0584634424
 20
99.4014669457
 30
0.0
 10
237.5411668796
 20
99.9641610358
 30
0.0
 10
235.9226678553
 20
100.4513513675
 30
0.0
 10
234.2180027968
 20
100.8584918078
 30
0.0
 10
232.4428848598
 20
101.1818296643
 30
0.0
 10
230.6137545127
 20
101.4183557609
 30
0.0
 10
228.7475614936
 20
101.5658699999
 30
0.0
 10
226.8616162477
 20
101.6229967025
 30
0.0
 10
224.9734188815
 20
101.5892031978
 30
0.0
 10
223.1004900154
 20
101.4648048458
 30
0.0
 10
221.2602084159
 20
101.2509614528
 30
0.0
 10
219.4696192474
 20
100.94966293
 30
0.0
 10
217.7453559593
 20
100.5637177965
 30
0.0
 10
216.3631089485
 20
100.1706030984
 30
0.0
 10
215.3045690089
 20
99.8154985177
 30
0.0
 10
214.5450805772
 20
99.5332138757
 30
0.0
 10
213.8137128508
 20
99.232935911
 30
0.0
 10
213.1121588207
 20
98.9153557868
 30
0.0
 10
212.4420489656
 20
98.581209922
 30
0.0
 10
211.8049380353
 20
98.2312697781
 30
0.0
 10
211.202304156
 20
97.8663416752
 30
0.0
 10
210.6355451699
 20
97.4872637832
 30
0.0
 10
210.105976042
 20
97.094903965
 30
0.0
 10
209.6148268943
 20
96.6901569723
 30
0.0
 10
209.1632416729
 20
96.2739419983
 30
0.0
 10
208.7522774196
 20
95.847200579
 30
0.0
 10
208.382904239
 20
95.410895083
 30
0.0
 10
208.0560054382
 20
94.9660085328
 30
0.0
 10
207.7723781402
 20
94.5135454709
 30
0.0
 10
207.532732941
 20
94.0545347373
 30
0.0
 10
207.3376914432
 20
93.5900337009
 30
0.0
 10
207.1877806157
 20
93.1211327955
 30
0.0
 10
207.0834228922
 20
92.648958479
 30
0.0
 10
207.0249240357
 20
92.1746716278
 30
0.0
 10
207.0124605553
 20
91.6994599129
 30
0.0
 10
207.0460706486
 20
91.2245240816
 30
0.0
 10
207.1256520987
 20
90.7510609338
 30
0.0
 10
207.2509674293
 20
90.2802472219
 30
0.0
 10
207.4216554655
 20
89.8132285168
 30
0.0
 10
207.6372443933
 20
89.3511145797
 30
0.0
 10
207.897163039
 20
88.8949801903
 30
0.0
 10
208.2007486177
 20
88.4458691337
 30
0.0
 10
208.5472504882
 20
88.0047985874
 30
0.0
 10
208.9358318357
 20
87.5727628784
 30
0.0
 10
209.3655695359
 20
87.1507355387
 30
0.0
 10
209.8354539696
 20
86.7396694437
 30
0.0
 10
210.3443873991
 20
86.3404967247
 30
0.0
 10
210.8911895509
 20
85.9541234886
 30
0.0
 10
211.4745772494
 20
85.5814403553
 30
0.0
 10
211.880565583
 20
85.3464014879
 30
0.0
 10
212.0891226182
 20
85.2312222447
 30
0.0
  0
SPLINE
  5
41F
100
AcDbEntity
  8
02___PRT_ALL_AXES
100
AcDbSpline
 62
7
  6
CONTINUOUS
 70
0
 71
3
 72
23
 73
19
 74
0
 42
0.0000001
 43
0.0000001
 44
0.0000000001
 40
0.0
 40
0.0
 40
0.0
 40
0.0
 40
0.0791896748
 40
0.1559513368
 40
0.2302429295
 40
0.3020424991
 40
0.3713511855
 40
0.4381955717
 40
0.5026303875
 40
0.5647412378
 40
0.6246473642
 40
0.682504022
 40
0.7385042862
 40
0.7928797401
 40
0.8458995488
 40
0.8978674568
 40
0.9491162849
 40
1.0
 40
1.0
 40
1.0
 40
1.0
 10
240.9378204809
 20
98.9680132271
 30
0.0
 10
241.1686156979
 20
98.8526156186
 30
0.0
 10
241.618799354
 20
98.6165466701
 30
0.0
 10
242.2683308642
 20
98.2406482383
 30
0.0
 10
242.8802790841
 20
97.8492417788
 30
0.0
 10
243.4531661469
 20
97.4432592786
 30
0.0
 10
243.9856223962
 20
97.0236561278
 30
0.0
 10
244.4763682958
 20
96.5914170898
 30
0.0
 10
244.9242212681
 20
96.1475524173
 30
0.0
 10
245.3280933658
 20
95.6930950696
 30
0.0
 10
245.6869926507
 20
95.2291012789
 30
0.0
 10
246.0000211838
 20
94.7566497201
 30
0.0
 10
246.2663757276
 20
94.2768455236
 30
0.0
 10
246.4853496879
 20
93.7908223994
 30
0.0
 10
246.6563372551
 20
93.2997555091
 30
0.0
 10
246.7788449253
 20
92.8048381149
 30
0.0
 10
246.8525027884
 20
92.3073839127
 30
0.0
 10
246.8689080131
 20
91.9743599451
 30
0.0
 10
246.8689081197
 20
91.8085570676
 30
0.0
  0
SPLINE
  5
420
100
AcDbEntity
  8
02___PRT_ALL_AXES
100
AcDbSpline
 62
7
  6
CONTINUOUS
 70
0
 71
3
 72
42
 73
38
 74
0
 42
0.0000001
 43
0.0000001
 44
0.0000000001
 40
0.0
 40
0.0
 40
0.0
 40
0.0
 40
0.0306690234
 40
0.0625947453
 40
0.0956908182
 40
0.1298556797
 40
0.1649748846
 40
0.2009231957
 40
0.2375664735
 40
0.2747634185
 40
0.3123672054
 40
0.3502270423
 40
0.3881896798
 40
0.4261008898
 40
0.4638069333
 40
0.5011560337
 40
0.5379998731
 40
0.5741951325
 40
0.6096050982
 40
0.6441013639
 40
0.6775656658
 40
0.7098918978
 40
0.7409883684
 40
0.7707803718
 40
0.799213162
 40
0.8262554238
 40
0.8519033169
 40
0.8761851091
 40
0.8991662641
 40
0.9209545461
 40
0.9417042142
 40
0.951756413
 40
0.9616288787
 40
0.9713539551
 40
0.9809662884
 40
0.9905023733
 40
1.0
 40
1.0
 40
1.0
 40
1.0
 10
240.9378204809
 20
98.9680132271
 30
0.0
 10
240.5787903849
 20
99.1475282751
 30
0.0
 10
239.8348853086
 20
99.4919829261
 30
0.0
 10
238.6711465765
 20
99.9563414561
 30
0.0
 10
237.4423633603
 20
100.3767381781
 30
0.0
 10
236.155193489
 20
100.7508909384
 30
0.0
 10
234.8165489416
 20
101.0767931817
 30
0.0
 10
233.4336467103
 20
101.3526845896
 30
0.0
 10
232.0139434772
 20
101.5770749271
 30
0.0
 10
230.5651011003
 20
101.748750139
 30
0.0
 10
229.0949421135
 20
101.8667808444
 30
0.0
 10
227.6114069197
 20
101.9305277235
 30
0.0
 10
226.1225097331
 20
101.939645395
 30
0.0
 10
224.6362943666
 20
101.8940844549
 30
0.0
 10
223.1607898294
 20
101.7940917737
 30
0.0
 10
221.70396601
 20
101.6402090291
 30
0.0
 10
220.2736896324
 20
101.4332694727
 30
0.0
 10
218.8776807028
 20
101.1743928914
 30
0.0
 10
217.5234696567
 20
100.8649787536
 30
0.0
 10
216.2183554636
 20
100.5066973464
 30
0.0
 10
214.9693649485
 20
100.1014788596
 30
0.0
 10
213.7832136753
 20
99.6515002006
 30
0.0
 10
212.6662688691
 20
99.1591692095
 30
0.0
 10
211.6245151866
 20
98.6271061111
 30
0.0
 10
210.6635243702
 20
98.0581212904
 30
0.0
 10
209.7884313833
 20
97.4551915315
 30
0.0
 10
209.0039177131
 20
96.8214283877
 30
0.0
 10
208.3142136581
 20
96.1600669907
 30
0.0
 10
207.7230957845
 20
95.474396358
 30
0.0
 10
207.2339722466
 20
94.7679428915
 30
0.0
 10
206.9103930803
 20
94.1582258958
 30
0.0
 10
206.7077557333
 20
93.6655758033
 30
0.0
 10
206.5843735531
 20
93.2973187132
 30
0.0
 10
206.488215569
 20
92.9269778212
 30
0.0
 10
206.4194214677
 20
92.5550485525
 30
0.0
 10
206.3781015729
 20
92.1820828916
 30
0.0
 10
206.3689081241
 20
91.932865621
 30
0.0
 10
206.368908204
 20
91.8085570676
 30
0.0
  0
SPLINE
  5
421
100
AcDbEntity
  8
02___PRT_ALL_AXES
100
AcDbSpline
 62
7
  6
CONTINUOUS
 70
0
 71
3
 72
23
 73
19
 74
0
 42
0.0000001
 43
0.0000001
 44
0.0000000001
 40
0.0
 40
0.0
 40
0.0
 40
0.0
 40
0.0791896096
 40
0.1559513519
 40
0.2302429335
 40
0.302042499
 40
0.3713511848
 40
0.4381955745
 40
0.5026303852
 40
0.56474124
 40
0.6246473642
 40
0.6825040215
 40
0.738504288
 40
0.7928797391
 40
0.8458995494
 40
0.8978674567
 40
0.9491162851
 40
1.0
 40
1.0
 40
1.0
 40
1.0
 10
245.9229232882
 20
104.0586408421
 30
0.0
 10
246.2340691771
 20
103.9030678977
 30
0.0
 10
246.8409834995
 20
103.5848119527
 30
0.0
 10
247.7166482327
 20
103.0780451921
 30
0.0
 10
248.5416453608
 20
102.550371185
 30
0.0
 10
249.3139819169
 20
102.0030466331
 30
0.0
 10
250.0318117716
 20
101.4373593718
 30
0.0
 10
250.6934100756
 20
100.8546372632
 30
0.0
 10
251.2971820426
 20
100.2562417202
 30
0.0
 10
251.8416616498
 20
99.6435660729
 30
0.0
 10
252.3255109628
 20
99.0180336088
 30
0.0
 10
252.7475197536
 20
98.3810988976
 30
0.0
 10
253.1066053214
 20
97.7342518541
 30
0.0
 10
253.4018144098
 20
97.079020561
 30
0.0
 10
253.6323311916
 20
96.4169897294
 30
0.0
 10
253.7974895854
 20
95.7497677157
 30
0.0
 10
253.8967912186
 20
95.0791257703
 30
0.0
 10
253.9189082234
 20
94.6301601209
 30
0.0
 10
253.9189081298
 20
94.4066332789
 30
0.0
  0
SPLINE
  5
422
100
AcDbEntity
  8
02___PRT_ALL_AXES
100
AcDbSpline
 62
7
  6
CONTINUOUS
 70
0
 71
3
 72
23
 73
19
 74
0
 42
0.0000001
 43
0.0000001
 44
0.0000000001
 40
0.0
 40
0.0
 40
0.0
 40
0.0
 40
0.0541013503
 40
0.110849968
 40
0.1700081128
 40
0.2312931536
 40
0.2943860571
 40
0.3589388399
 40
0.4245812965
 40
0.4909272333
 40
0.5575803861
 40
0.6241401506
 40
0.6902072383
 40
0.7553893542
 40
0.8193069997
 40
0.8815995192
 40
0.9419315392
 40
1.0
 40
1.0
 40
1.0
 40
1.0
 10
245.9229232882
 20
104.0586408421
 30
0.0
 10
245.3314039434
 20
104.3544005145
 30
0.0
 10
244.0969083957
 20
104.9161260278
 30
0.0
 10
242.152675888
 20
105.6536291435
 30
0.0
 10
240.0845975487
 20
106.3015186363
 30
0.0
 10
237.9092107242
 20
106.8545953318
 30
0.0
 10
235.6437692922
 20
107.3084745761
 30
0.0
 10
233.3063226069
 20
107.6595268068
 30
0.0
 10
230.9155017092
 20
107.9049446723
 30
0.0
 10
228.4903821785
 20
108.0427617205
 30
0.0
 10
226.0503214261
 20
108.0718732417
 30
0.0
 10
223.6148000561
 20
107.9920456991
 30
0.0
 10
221.2032620047
 20
107.8039194113
 30
0.0
 10
218.8349505651
 20
107.5090012745
 30
0.0
 10
216.528763233
 20
107.1096557563
 30
0.0
 10
214.3030449944
 20
106.6090644551
 30
0.0
 10
212.1756148736
 20
106.0112590271
 30
0.0
 10
210.8056399052
 20
105.5413067472
 30
0.0
 10
210.1417679065
 20
105.2900363387
 30
0.0
  0
SPLINE
  5
423
100
AcDbEntity
  8
02___PRT_ALL_AXES
100
AcDbSpline
 62
7
  6
CONTINUOUS
 70
0
 71
3
 72
24
 73
20
 74
0
 42
0.0000001
 43
0.0000001
 44
0.0000000001
 40
0.0
 40
0.0
 40
0.0
 40
0.0
 40
0.0813333806
 40
0.1601690268
 40
0.2363940195
 40
0.3099200066
 40
0.3806864904
 40
0.4486645416
 40
0.5138609665
 40
0.5763229092
 40
0.6361427788
 40
0.6651102964
 40
0.6934753675
 40
0.7484939344
 40
0.8014663325
 40
0.8527076209
 40
0.9025897285
 40
0.9515342579
 40
1.0
 40
1.0
 40
1.0
 40
1.0
 10
210.1417679065
 20
105.2900363387
 30
0.0
 10
209.7294229382
 20
105.1339669626
 30
0.0
 10
208.9232870484
 20
104.8107249822
 30
0.0
 10
207.7546444024
 20
104.2840698137
 30
0.0
 10
206.6485062764
 20
103.724607877
 30
0.0
 10
205.6085467587
 20
103.1341810635
 30
0.0
 10
204.6381881083
 20
102.5147116589
 30
0.0
 10
203.7406342563
 20
101.8682121933
 30
0.0
 10
202.9188399271
 20
101.1967558443
 30
0.0
 10
202.175561057
 20
100.5025265884
 30
0.0
 10
201.6177421381
 20
99.9004688613
 30
0.0
 10
201.2145958298
 20
99.4095720554
 30
0.0
 10
200.8476609277
 20
98.9233092134
 30
0.0
 10
200.4402741977
 20
98.3052911715
 30
0.0
 10
200.0334779069
 20
97.5425019488
 30
0.0
 10
199.715264393
 20
96.7685652074
 30
0.0
 10
199.4869547655
 20
95.9860736357
 30
0.0
 10
199.3495428909
 20
95.1978964493
 30
0.0
 10
199.3189083039
 20
94.6693565606
 30
0.0
 10
199.3189081939
 20
94.4066332789
 30
0.0
  0
SPLINE
  5
424
100
AcDbEntity
  8
7_ALL_FEATURES
100
AcDbSpline
 62
7
  6
CONTINUOUS
 70
0
 71
3
 72
9
 73
5
 74
0
 42
0.0000001
 43
0.0000001
 44
0.0000000001
 40
0.0
 40
0.0
 40
0.0
 40
0.0
 40
0.5139670057
 40
1.0
 40
1.0
 40
1.0
 40
1.0
 10
242.175257348
 20
118.6392905439
 30
0.0
 10
242.604318367
 20
118.4247600344
 30
0.0
 10
243.4256668594
 20
117.9796741707
 30
0.0
 10
244.2114432821
 20
117.4738741328
 30
0.0
 10
244.5818329333
 20
117.2119689087
 30
0.0
  0
SPLINE
  5
425
100
AcDbEntity
  8
7_ALL_FEATURES
100
AcDbSpline
 62
7
  6
CONTINUOUS
 70
0
 71
3
 72
28
 73
24
 74
0
 42
0.0000001
 43
0.0000001
 44
0.0000000001
 40
0.0
 40
0.0
 40
0.0
 40
0.0
 40
0.0259417511
 40
0.0527305681
 40
0.0803413368
 40
0.1087427206
 40
0.1378978301
 40
0.1677648234
 40
0.2294379281
 40
0.2933559912
 40
0.3590555136
 40
0.4260366153
 40
0.4937743726
 40
0.5617294724
 40
0.6293585207
 40
0.6961242542
 40
0.7615058974
 40
0.8250099224
 40
0.8861815685
 40
0.9157686161
 40
0.9446264787
 40
0.9727151034
 40
1.0
 40
1.0
 40
1.0
 40
1.0
 10
209.8316094429
 20
117.970732572
 30
0.0
 10
210.0806186922
 20
118.1177233867
 30
0.0
 10
210.5937866883
 20
118.4047532168
 30
0.0
 10
211.3935832982
 20
118.8081245277
 30
0.0
 10
212.2339251194
 20
119.1903202806
 30
0.0
 10
213.1125576015
 20
119.5503153486
 30
0.0
 10
214.0271616795
 20
119.887166631
 30
0.0
 10
215.3049573563
 20
120.308715456
 30
0.0
 10
216.9765465145
 20
120.769960131
 30
0.0
 10
219.0634337548
 20
121.2128218606
 30
0.0
 10
221.230434408
 20
121.546162948
 30
0.0
 10
223.4545410321
 20
121.7664296867
 30
0.0
 10
225.7122068393
 20
121.8712776533
 30
0.0
 10
227.9794870005
 20
121.8595882134
 30
0.0
 10
230.2323395312
 20
121.7314860495
 30
0.0
 10
232.4468726119
 20
121.4883376855
 30
0.0
 10
234.5996463914
 20
121.132730192
 30
0.0
 10
236.6678084611
 20
120.6684533908
 30
0.0
 10
238.3206869391
 20
120.1898834744
 30
0.0
 10
239.5813096678
 20
119.7550268754
 30
0.0
 10
240.481791355
 20
119.4087866431
 30
0.0
 10
241.3453414463
 20
119.0397850787
 30
0.0
 10
241.9032365706
 20
118.7753009326
 30
0.0
 10
242.175257348
 20
118.6392905439
 30
0.0
  0
SPLINE
  5
426
100
AcDbEntity
  8
02___PRT_ALL_AXES
100
AcDbSpline
 62
7
  6
CONTINUOUS
 70
0
 71
3
 72
23
 73
19
 74
0
 42
0.0000001
 43
0.0000001
 44
0.0000000001
 40
0.0
 40
0.0
 40
0.0
 40
0.0
 40
0.0498520214
 40
0.1001151425
 40
0.1511860724
 40
0.2034344481
 40
0.2571930964
 40
0.3127517581
 40
0.3703541042
 40
0.4301974517
 40
0.4924343947
 40
0.5571756159
 40
0.6244932868
 40
0.694424658
 40
0.7669755733
 40
0.8421237605
 40
0.9198218332
 40
1.0
 40
1.0
 40
1.0
 40
1.0
 10
253.9189081298
 20
93.973620577
 30
0.0
 10
253.9189080294
 20
93.7338313197
 30
0.0
 10
253.8934293914
 20
93.2518957523
 30
0.0
 10
253.7790758756
 20
92.532480211
 30
0.0
 10
253.5889576908
 20
91.8173271782
 30
0.0
 10
253.3237485135
 20
91.1086250776
 30
0.0
 10
252.984340517
 20
90.4083471134
 30
0.0
 10
252.5718165351
 20
89.7184271741
 30
0.0
 10
252.0874328409
 20
89.0407237369
 30
0.0
 10
251.5326112143
 20
88.377045445
 30
0.0
 10
250.9089377437
 20
87.7291562032
 30
0.0
 10
250.2181645363
 20
87.098780337
 30
0.0
 10
249.4622119653
 20
86.4876021601
 30
0.0
 10
248.6431687689
 20
85.8972629116
 30
0.0
 10
247.7632929894
 20
85.3293570288
 30
0.0
 10
246.8250009249
 20
84.7854230567
 30
0.0
 10
245.8308950563
 20
84.266952054
 30
0.0
 10
245.1432610162
 20
83.9441501386
 30
0.0
 10
244.7910431416
 20
83.7870668494
 30
0.0
  0
SPLINE
  5
427
100
AcDbEntity
  8
02___PRT_ALL_AXES
100
AcDbSpline
 62
7
  6
CONTINUOUS
 70
0
 71
3
 72
11
 73
7
 74
0
 42
0.0000001
 43
0.0000001
 44
0.0000000001
 40
0.0
 40
0.0
 40
0.0
 40
0.0
 40
0.2614941749
 40
0.5156644573
 40
0.7619840062
 40
1.0
 40
1.0
 40
1.0
 40
1.0
 10
212.6312844319
 20
82.2514580158
 30
0.0
 10
212.1541854971
 20
82.3937840858
 30
0.0
 10
211.2185616812
 20
82.6923433198
 30
0.0
 10
209.8550725391
 20
83.1892198294
 30
0.0
 10
208.5555130396
 20
83.7272390219
 30
0.0
 10
207.720224157
 20
84.1189474531
 30
0.0
 10
207.3148930355
 20
84.3216130138
 30
0.0
  0
SPLINE
  5
428
100
AcDbEntity
  8
7_ALL_FEATURES
100
AcDbSpline
 62
7
  6
CONTINUOUS
 70
0
 71
3
 72
18
 73
14
 74
0
 42
0.0000001
 43
0.0000001
 44
0.0000000001
 40
0.0
 40
0.0
 40
0.0
 40
0.0
 40
0.1488758037
 40
0.2895400535
 40
0.4223295577
 40
0.5478474831
 40
0.6669940518
 40
0.7245783144
 40
0.7810509372
 40
0.8366100313
 40
0.8914691257
 40
0.9458542004
 40
1.0
 40
1.0
 40
1.0
 40
1.0
 10
245.3983295138
 20
116.6346186394
 30
0.0
 10
245.7295353673
 20
116.4004205644
 30
0.0
 10
246.3570610464
 20
115.920643491
 30
0.0
 10
247.2091434807
 20
115.1450103402
 30
0.0
 10
247.9403251097
 20
114.3379886843
 30
0.0
 10
248.5459703456
 20
113.5041280119
 30
0.0
 10
248.9473416505
 20
112.7821979491
 30
0.0
 10
249.1987099821
 20
112.1981528605
 30
0.0
 10
249.351681281
 20
111.7616295954
 30
0.0
 10
249.4709248367
 20
111.3223993377
 30
0.0
 10
249.5562489446
 20
110.8811047399
 30
0.0
 10
249.6075032042
 20
110.4384620008
 30
0.0
 10
249.6189078886
 20
110.1426219223
 30
0.0
 10
249.6189080581
 20
109.995090547
 30
0.0
  0
SPLINE
  5
429
100
AcDbEntity
  8
02___PRT_ALL_AXES
100
AcDbSpline
 62
7
  6
CONTINUOUS
 70
0
 71
3
 72
23
 73
19
 74
0
 42
0.0000001
 43
0.0000001
 44
0.0000000001
 40
0.0
 40
0.0
 40
0.0
 40
0.0
 40
0.0508837149
 40
0.1021325433
 40
0.1541004506
 40
0.2071202609
 40
0.261495712
 40
0.3174959785
 40
0.3753526358
 40
0.43525876
 40
0.4973696148
 40
0.5618044255
 40
0.6286488152
 40
0.697957501
 40
0.7697570665
 40
0.8440486481
 40
0.9208103904
 40
1.0
 40
1.0
 40
1.0
 40
1.0
 10
199.3189081939
 20
93.973620577
 30
0.0
 10
199.3189081003
 20
93.750093735
 30
0.0
 10
199.3410251051
 20
93.3011280857
 30
0.0
 10
199.4403267383
 20
92.6304861403
 30
0.0
 10
199.6054851321
 20
91.9632641266
 30
0.0
 10
199.8360019139
 20
91.3012332949
 30
0.0
 10
200.1312110023
 20
90.6460020018
 30
0.0
 10
200.4902965701
 20
89.9991549584
 30
0.0
 10
200.9123053609
 20
89.3622202471
 30
0.0
 10
201.3961546739
 20
88.7366877831
 30
0.0
 10
201.9406342811
 20
88.1240121357
 30
0.0
 10
202.5444062481
 20
87.5256165927
 30
0.0
 10
203.2060045521
 20
86.9428944841
 30
0.0
 10
203.9238344068
 20
86.3772072228
 30
0.0
 10
204.6961709629
 20
85.8298826709
 30
0.0
 10
205.521168091
 20
85.3022086639
 30
0.0
 10
206.3968328241
 20
84.7954419032
 30
0.0
 10
207.0037471466
 20
84.4771859582
 30
0.0
 10
207.3148930355
 20
84.3216130138
 30
0.0
  0
SPLINE
  5
42A
100
AcDbEntity
  8
02___PRT_ALL_AXES
100
AcDbSpline
 62
7
  6
CONTINUOUS
 70
0
 71
3
 72
42
 73
38
 74
0
 42
0.0000001
 43
0.0000001
 44
0.0000000001
 40
0.0
 40
0.0
 40
0.0
 40
0.0
 40
0.0304932393
 40
0.0622202124
 40
0.0950977114
 40
0.1290279498
 40
0.1639007624
 40
0.1995955847
 40
0.2359832388
 40
0.2729275852
 40
0.3102870642
 40
0.3479161724
 40
0.3856668846
 40
0.4233900491
 40
0.4609367688
 40
0.498159786
 40
0.5349148845
 40
0.5710623311
 40
0.6064683701
 40
0.6410068054
 40
0.6745606935
 40
0.7070241939
 40
0.738304631
 40
0.7683248211
 40
0.7970257615
 40
0.8243697421
 40
0.8503439822
 40
0.8749648151
 40
0.8982823587
 40
0.9203853932
 40
0.9414057571
 40
0.9515686334
 40
0.9615313576
 40
0.9713231443
 40
0.9809756825
 40
0.9905227959
 40
1.0
 40
1.0
 40
1.0
 40
1.0
 10
245.9229232882
 20
103.6256281402
 30
0.0
 10
245.4456917162
 20
103.8642439263
 30
0.0
 10
244.4573336641
 20
104.3223920327
 30
0.0
 10
242.9118836183
 20
104.9410310732
 30
0.0
 10
241.2808947491
 20
105.502103828
 30
0.0
 10
239.5729643294
 20
106.0026475318
 30
0.0
 10
237.7970144097
 20
106.4400508822
 30
0.0
 10
235.9623589876
 20
106.8120157079
 30
0.0
 10
234.0786211962
 20
107.1165879738
 30
0.0
 10
232.1556901319
 20
107.3521646003
 30
0.0
 10
230.2036650677
 20
107.5175054237
 30
0.0
 10
228.2328016379
 20
107.6117391248
 30
0.0
 10
226.2534565746
 20
107.6343691892
 30
0.0
 10
224.2760321217
 20
107.5852763646
 30
0.0
 10
222.3109202241
 20
107.4647192518
 30
0.0
 10
220.3684467367
 20
107.2733333798
 30
0.0
 10
218.4588160119
 20
107.0121266122
 30
0.0
 10
216.5920559206
 20
106.6824743373
 30
0.0
 10
214.7779638785
 20
106.2861102789
 30
0.0
 10
213.0260538129
 20
105.8251166955
 30
0.0
 10
211.3455046514
 20
105.3019110292
 30
0.0
 10
209.7451107011
 20
104.7192298948
 30
0.0
 10
208.2332340722
 20
104.0801109213
 30
0.0
 10
206.8177608885
 20
103.38786952
 30
0.0
 10
205.5060609492
 20
102.6460735797
 30
0.0
 10
204.3049555291
 20
101.8585138015
 30
0.0
 10
203.2206913991
 20
101.0291658312
 30
0.0
 10
202.2589385151
 20
100.1621744539
 30
0.0
 10
201.4247744571
 20
99.2617628799
 30
0.0
 10
200.722798854
 20
98.3324436622
 30
0.0
 10
200.2459406083
 20
97.5284626564
 30
0.0
 10
199.9376354198
 20
96.8773972651
 30
0.0
 10
199.7441659887
 20
96.3905635443
 30
0.0
 10
199.5861948071
 20
95.9004503162
 30
0.0
 10
199.4639437046
 20
95.4076902234
 30
0.0
 10
199.3776007941
 20
94.9129884955
 30
0.0
 10
199.3439793091
 20
94.5814656127
 30
0.0
 10
199.3332479043
 20
94.4159840729
 30
0.0
  0
SPLINE
  5
42B
100
AcDbEntity
  8
7_ALL_FEATURES
100
AcDbSpline
 62
9
  6
CONTINUOUS
 70
0
 71
3
 72
56
 73
52
 74
0
 42
0.0000001
 43
0.0000001
 44
0.0000000001
 40
0.0
 40
0.0
 40
0.0
 40
0.0
 40
0.0157852885
 40
0.0310865632
 40
0.0458954989
 40
0.0602076691
 40
0.0740233242
 40
0.0873477578
 40
0.1001918774
 40
0.1125727498
 40
0.1245141426
 40
0.1360470052
 40
0.147209824
 40
0.1580487607
 40
0.16861747
 40
0.1789764976
 40
0.1891921878
 40
0.1993350982
 40
0.2094780085
 40
0.2196936987
 40
0.2300527263
 40
0.2406214357
 40
0.2514603723
 40
0.2626231911
 40
0.2741560537
 40
0.2860974464
 40
0.2984783188
 40
0.3113224385
 40
0.3246468722
 40
0.3384625264
 40
0.3527747004
 40
0.3675836207
 40
0.3828849401
 40
0.3986701968
 40
0.4149272288
 40
0.4316405481
 40
0.4663546087
 40
0.5026394876
 40
0.5402820669
 40
0.5790418717
 40
0.6186573777
 40
0.6588517075
 40
0.6993379344
 40
0.7398241613
 40
0.7800184912
 40
0.8196339971
 40
0.8583938019
 40
0.8960363812
 40
0.9323212608
 40
0.9670353329
 40
1.0
 40
1.0
 40
1.0
 40
1.0
 10
211.8034012954
 20
84.4008036343
 30
0.0
 10
211.5646017614
 20
84.5202034013
 30
0.0
 10
211.098805403
 20
84.7644592751
 30
0.0
 10
210.4267476019
 20
85.1533945243
 30
0.0
 10
209.793576428
 20
85.5583751242
 30
0.0
 10
209.2008209375
 20
85.9784376681
 30
0.0
 10
208.6498985848
 20
86.4125930601
 30
0.0
 10
208.1421329596
 20
86.8598224605
 30
0.0
 10
207.6787480961
 20
87.3190809358
 30
0.0
 10
207.2608692752
 20
87.7892992615
 30
0.0
 10
206.8895231144
 20
88.2693849254
 30
0.0
 10
206.5656384419
 20
88.7582215136
 30
0.0
 10
206.2900463237
 20
89.2546659965
 30
0.0
 10
206.0634781712
 20
89.7575440917
 30
0.0
 10
205.8865603607
 20
90.2656446667
 30
0.0
 10
205.7598042342
 20
90.7777153078
 30
0.0
 10
205.6835918555
 20
91.2924621808
 30
0.0
 10
205.6581608063
 20
91.8085570556
 30
0.0
 10
205.683591853
 20
92.3246519306
 30
0.0
 10
205.7598042293
 20
92.8393988037
 30
0.0
 10
205.8865603536
 20
93.3514694449
 30
0.0
 10
206.0634781621
 20
93.85957002
 30
0.0
 10
206.2900463123
 20
94.3624481155
 30
0.0
 10
206.5656384281
 20
94.8588925987
 30
0.0
 10
206.8895230984
 20
95.3477291875
 30
0.0
 10
207.2608692563
 20
95.8278148515
 30
0.0
 10
207.6787480778
 20
96.2980331784
 30
0.0
 10
208.1421329292
 20
96.7572916528
 30
0.0
 10
208.649898589
 20
97.2045210563
 30
0.0
 10
209.2008208111
 20
97.6386764377
 30
0.0
 10
209.7935767731
 20
98.0587390765
 30
0.0
 10
210.4267459979
 20
98.4637189804
 30
0.0
 10
211.0988129503
 20
98.8526585743
 30
0.0
 10
211.8081670001
 20
99.224632681
 30
0.0
 10
212.5531159434
 20
99.578763141
 30
0.0
 10
213.6047231029
 20
100.0317071002
 30
0.0
 10
214.9976769718
 20
100.5456984068
 30
0.0
 10
216.7595453584
 20
101.0713445436
 30
0.0
 10
218.6157482704
 20
101.5084730161
 30
0.0
 10
220.5485116952
 20
101.8528893394
 30
0.0
 10
222.539390872
 20
102.1012949579
 30
0.0
 10
224.5693341785
 20
102.2513007241
 30
0.0
 10
226.6189082095
 20
102.3014635809
 30
0.0
 10
228.6684820966
 20
102.2513007472
 30
0.0
 10
230.6984258286
 20
102.1012948523
 30
0.0
 10
232.6893034768
 20
101.8528897027
 30
0.0
 10
234.6220724046
 20
101.5084716739
 30
0.0
 10
236.4782556831
 20
101.0713492757
 30
0.0
 10
238.2401935917
 20
100.5456816218
 30
0.0
 10
239.8909924862
 20
99.9365326518
 30
0.0
 10
240.9357261916
 20
99.4656549191
 30
0.0
 10
241.4344150283
 20
99.2163105008
 30
0.0
  0
SPLINE
  5
42C
100
AcDbEntity
  8
7_ALL_FEATURES
100
AcDbSpline
 62
9
  6
CONTINUOUS
 70
0
 71
3
 72
30
 73
26
 74
0
 42
0.0000001
 43
0.0000001
 44
0.0000000001
 40
0.0
 40
0.0
 40
0.0
 40
0.0
 40
0.0811468287
 40
0.1579844038
 40
0.2304516369
 40
0.2986076953
 40
0.3626543101
 40
0.422958836
 40
0.4518899612
 40
0.480109023
 40
0.5077149649
 40
0.5348178062
 40
0.5615373375
 40
0.5880012466
 40
0.6143427202
 40
0.6406976481
 40
0.6672016208
 40
0.6939869504
 40
0.72117994
 40
0.7488985811
 40
0.7772507909
 40
0.80633322
 40
0.8669858015
 40
0.9314247177
 40
1.0
 40
1.0
 40
1.0
 40
1.0
 10
241.8394832637
 20
99.5173080339
 30
0.0
 10
242.2503682097
 20
99.3118655609
 30
0.0
 10
243.0377421069
 20
98.8858883356
 30
0.0
 10
244.1375755165
 20
98.1818317075
 30
0.0
 10
245.1175759812
 20
97.4341669368
 30
0.0
 10
245.9710109796
 20
96.6476763575
 30
0.0
 10
246.6918771204
 20
95.8274380654
 30
0.0
 10
247.1845453253
 20
95.1099571723
 30
0.0
 10
247.5034396138
 20
94.5259559295
 30
0.0
 10
247.7032733351
 20
94.0892607444
 30
0.0
 10
247.8666372372
 20
93.6486601618
 30
0.0
 10
247.9932213596
 20
93.2049101809
 30
0.0
 10
248.0827680762
 20
92.7588020837
 30
0.0
 10
248.1350931212
 20
92.311138241
 30
0.0
 10
248.1500862214
 20
91.8627341799
 30
0.0
 10
248.1277155929
 20
91.4144113172
 30
0.0
 10
248.0680286387
 20
90.9669903738
 30
0.0
 10
247.9711507465
 20
90.5212849217
 30
0.0
 10
247.8372804131
 20
90.0780944471
 30
0.0
 10
247.6666885373
 20
89.638206896
 30
0.0
 10
247.4596971808
 20
89.2023746675
 30
0.0
 10
247.131176671
 20
88.6196300838
 30
0.0
 10
246.6267299496
 20
87.9042284898
 30
0.0
 10
245.8925955056
 20
87.0871595688
 30
0.0
 10
245.3328865261
 20
86.5813061744
 30
0.0
 10
245.0335861105
 20
86.3340624947
 30
0.0
  0
SPLINE
  5
42D
100
AcDbEntity
  8
7_ALL_FEATURES
100
AcDbSpline
 62
7
  6
CONTINUOUS
 70
0
 71
3
 72
23
 73
19
 74
0
 42
0.0000001
 43
0.0000001
 44
0.0000000001
 40
0.0
 40
0.0
 40
0.0
 40
0.0
 40
0.0544695844
 40
0.1119134198
 40
0.1720374491
 40
0.2344868062
 40
0.2988584974
 40
0.3647124277
 40
0.4315813066
 40
0.4989798683
 40
0.566413654
 40
0.6333875982
 40
0.6994146
 40
0.7640242704
 40
0.8267720697
 40
0.8872490927
 40
0.9450929373
 40
1.0
 40
1.0
 40
1.0
 40
1.0
 10
210.1283534412
 20
118.0116609241
 30
0.0
 10
210.6732679066
 20
118.2918908489
 30
0.0
 10
211.8169736174
 20
118.8215709219
 30
0.0
 10
213.628042802
 20
119.5077269056
 30
0.0
 10
215.5655495884
 20
120.1013667998
 30
0.0
 10
217.6105903107
 20
120.5966731908
 30
0.0
 10
219.7433690049
 20
120.9888523971
 30
0.0
 10
221.9431365341
 20
121.274069809
 30
0.0
 10
224.1884788361
 20
121.4495377451
 30
0.0
 10
226.4575147832
 20
121.5135368581
 30
0.0
 10
228.7281242432
 20
121.4654396942
 30
0.0
 10
230.9781711419
 20
121.305718113
 30
0.0
 10
233.1857266371
 20
121.0359368287
 30
0.0
 10
235.3292975238
 20
120.6587337852
 30
0.0
 10
237.3880251223
 20
120.1777983933
 30
0.0
 10
239.3419728098
 20
119.5977883718
 30
0.0
 10
241.1720721102
 20
118.9243912857
 30
0.0
 10
242.3299035178
 20
118.4030488364
 30
0.0
 10
242.8823641291
 20
118.1268185307
 30
0.0
  0
SPLINE
  5
42E
100
AcDbEntity
  8
02___PRT_ALL_AXES
100
AcDbSpline
 62
7
  6
CONTINUOUS
 70
0
 71
3
 72
23
 73
19
 74
0
 42
0.0000001
 43
0.0000001
 44
0.0000000001
 40
0.0
 40
0.0
 40
0.0
 40
0.0
 40
0.0786217017
 40
0.1549334581
 40
0.2288955785
 40
0.3004860722
 40
0.3697028636
 40
0.4365658325
 40
0.5011190557
 40
0.5634331057
 40
0.6236073935
 40
0.6817722829
 40
0.7380908336
 40
0.7927597848
 40
0.8460094146
 40
0.898101882
 40
0.9493276664
 40
1.0
 40
1.0
 40
1.0
 40
1.0
 10
245.9229232882
 20
103.6256281402
 30
0.0
 10
246.2217107919
 20
103.4762343884
 30
0.0
 10
246.8051162366
 20
103.1708750752
 30
0.0
 10
247.6483319069
 20
102.6857426672
 30
0.0
 10
248.4450215764
 20
102.181266349
 30
0.0
 10
249.1934121826
 20
101.6585548366
 30
0.0
 10
249.8918555186
 20
101.1187433726
 30
0.0
 10
250.5388061231
 20
100.5630022374
 30
0.0
 10
251.1328295472
 20
99.9925315034
 30
0.0
 10
251.6726005108
 20
99.4085583853
 30
0.0
 10
252.1569043836
 20
98.8123368761
 30
0.0
 10
252.5846355687
 20
98.2051463372
 30
0.0
 10
252.9547980605
 20
97.5882947343
 30
0.0
 10
253.2665064648
 20
96.9631192707
 30
0.0
 10
253.5189887446
 20
96.3310007797
 30
0.0
 10
253.7115971998
 20
95.6933350633
 30
0.0
 10
253.8438111643
 20
95.0516581089
 30
0.0
 10
253.8916149647
 20
94.620600032
 30
0.0
 10
253.905225712
 20
94.4057297519
 30
0.0
  0
SPLINE
  5
42F
100
AcDbEntity
  8
02___PRT_ALL_AXES
100
AcDbSpline
 62
7
  6
CONTINUOUS
 70
0
 71
3
 72
15
 73
11
 74
0
 42
0.0000001
 43
0.0000001
 44
0.0000000001
 40
0.0
 40
0.0
 40
0.0
 40
0.0
 40
0.1155868962
 40
0.2321635613
 40
0.3506838215
 40
0.4720340141
 40
0.5970090692
 40
0.7262973292
 40
0.8604738127
 40
1.0
 40
1.0
 40
1.0
 40
1.0
 10
246.8689081197
 20
91.8085570676
 30
0.0
 10
246.8689082363
 20
91.627273055
 30
0.0
 10
246.8492693625
 20
91.2628547028
 30
0.0
 10
246.7611378992
 20
90.7189715871
 30
0.0
 10
246.6146319889
 20
90.1784454211
 30
0.0
 10
246.4102943316
 20
89.6429942822
 30
0.0
 10
246.1488421579
 20
89.1141668356
 30
0.0
 10
245.831136275
 20
88.5934684622
 30
0.0
 10
245.458206867
 20
88.0823826333
 30
0.0
 10
245.1791514517
 20
87.7555979506
 30
0.0
 10
245.0313810684
 20
87.5941964885
 30
0.0
  0
SPLINE
  5
430
100
AcDbEntity
  8
7_ALL_FEATURES
100
AcDbSpline
 62
7
  6
CONTINUOUS
 70
0
 71
3
 72
9
 73
5
 74
0
 42
0.0000001
 43
0.0000001
 44
0.0000000001
 40
0.0
 40
0.0
 40
0.0
 40
0.0
 40
0.5139670057
 40
1.0
 40
1.0
 40
1.0
 40
1.0
 10
242.8823641291
 20
118.1268185307
 30
0.0
 10
243.3309279217
 20
117.9025366344
 30
0.0
 10
244.1896104366
 20
117.4372195951
 30
0.0
 10
245.0111039694
 20
116.9084286464
 30
0.0
 10
245.3983295138
 20
116.6346186394
 30
0.0
  0
SPLINE
  5
431
100
AcDbEntity
  8
7_ALL_FEATURES
100
AcDbSpline
 62
9
  6
CONTINUOUS
 70
0
 71
3
 72
29
 73
25
 74
0
 42
0.0000001
 43
0.0000001
 44
0.0000000001
 40
0.0
 40
0.0
 40
0.0
 40
0.0
 40
0.0815665735
 40
0.1589653834
 40
0.2321338501
 40
0.301116116
 40
0.3660823126
 40
0.4273486646
 40
0.485395147
 40
0.5134260036
 40
0.540910975
 40
0.5679569378
 40
0.5946789107
 40
0.6211982356
 40
0.6476403531
 40
0.6741322956
 40
0.7008000661
 40
0.7277660917
 40
0.7551469255
 40
0.7830513328
 40
0.811578838
 40
0.8708194611
 40
0.9334884951
 40
1.0
 40
1.0
 40
1.0
 40
1.0
 10
241.4344150283
 20
99.2163105008
 30
0.0
 10
241.8203213967
 20
99.0233573166
 30
0.0
 10
242.560990462
 20
98.6237230512
 30
0.0
 10
243.5987271914
 20
97.9652999203
 30
0.0
 10
244.5284678032
 20
97.267143539
 30
0.0
 10
245.3442558604
 20
96.533484074
 30
0.0
 10
246.0408582951
 20
95.7685918956
 30
0.0
 10
246.6135485461
 20
94.9770613386
 30
0.0
 10
246.9884803485
 20
94.2908579087
 30
0.0
 10
247.2193155479
 20
93.7357919452
 30
0.0
 10
247.3573665816
 20
93.3210302973
 30
0.0
 10
247.4620425676
 20
92.9037433349
 30
0.0
 10
247.5331588175
 20
92.4846066728
 30
0.0
 10
247.5705764774
 20
92.0643266437
 30
0.0
 10
247.5742238242
 20
91.6436126041
 30
0.0
 10
247.5440934965
 20
91.2231783898
 30
0.0
 10
247.4802442573
 20
90.8037357072
 30
0.0
 10
247.3827978388
 20
90.3859880402
 30
0.0
 10
247.2519402835
 20
89.9706326145
 30
0.0
 10
247.0879014109
 20
89.5583354839
 30
0.0
 10
246.8220693351
 20
89.0067623127
 30
0.0
 10
246.4040420217
 20
88.3267997764
 30
0.0
 10
245.7823244473
 20
87.5452650867
 30
0.0
 10
245.3011754859
 20
87.058135333
 30
0.0
 10
245.0426727946
 20
86.8194844755
 30
0.0
  0
SPLINE
  5
432
100
AcDbEntity
  8
7_ALL_FEATURES
100
AcDbSpline
 62
9
  6
CONTINUOUS
 70
0
 71
3
 72
56
 73
52
 74
0
 42
0.0000001
 43
0.0000001
 44
0.0000000001
 40
0.0
 40
0.0
 40
0.0
 40
0.0
 40
0.0157852892
 40
0.0310865638
 40
0.0458954996
 40
0.0602076697
 40
0.0740233247
 40
0.0873477583
 40
0.1001918779
 40
0.1125727502
 40
0.124514143
 40
0.1360470056
 40
0.1472098244
 40
0.158048761
 40
0.1686174703
 40
0.1789764979
 40
0.1891921881
 40
0.1993350984
 40
0.2094780087
 40
0.2196936989
 40
0.2300527265
 40
0.2406214359
 40
0.2514603725
 40
0.2626231912
 40
0.2741560538
 40
0.2860974466
 40
0.298478319
 40
0.3113224386
 40
0.3246468723
 40
0.3384625265
 40
0.3527747005
 40
0.3675836207
 40
0.3828849402
 40
0.3986701968
 40
0.4149272288
 40
0.431640548
 40
0.4663546086
 40
0.5026394874
 40
0.5402820667
 40
0.5790418714
 40
0.6186573773
 40
0.6588517071
 40
0.699337934
 40
0.7398241608
 40
0.7800184906
 40
0.8196339965
 40
0.8583938012
 40
0.8960363805
 40
0.93232126
 40
0.9670353322
 40
1.0
 40
1.0
 40
1.0
 40
1.0
 10
211.39833306
 20
84.296732932
 30
0.0
 10
211.1530045376
 20
84.4193971932
 30
0.0
 10
210.6744729115
 20
84.6703312299
 30
0.0
 10
209.9840404849
 20
85.0699002983
 30
0.0
 10
209.3335578892
 20
85.4859534029
 30
0.0
 10
208.7245959746
 20
85.9175008056
 30
0.0
 10
208.1586109509
 20
86.3635263654
 30
0.0
 10
207.6369625951
 20
86.8229833882
 30
0.0
 10
207.1609084076
 20
87.2947983704
 30
0.0
 10
206.7316044358
 20
87.7778728546
 30
0.0
 10
206.3501053654
 20
88.2710844579
 30
0.0
 10
206.0173654198
 20
88.7732862432
 30
0.0
 10
205.7342383867
 20
89.2833039292
 30
0.0
 10
205.501475675
 20
89.7999311277
 30
0.0
 10
205.3197207865
 20
90.3219235928
 30
0.0
 10
205.189499044
 20
90.8479946688
 30
0.0
 10
205.1112029571
 20
91.3768151472
 30
0.0
 10
205.0850766033
 20
91.9070204829
 30
0.0
 10
205.1112029571
 20
92.4372258186
 30
0.0
 10
205.189499044
 20
92.966046297
 30
0.0
 10
205.3197207865
 20
93.4921173731
 30
0.0
 10
205.501475675
 20
94.0141098382
 30
0.0
 10
205.7342383867
 20
94.5307370367
 30
0.0
 10
206.0173654197
 20
95.0407547226
 30
0.0
 10
206.3501053655
 20
95.542956508
 30
0.0
 10
206.7316044352
 20
96.0361681111
 30
0.0
 10
207.1609084098
 20
96.5192425959
 30
0.0
 10
207.6369625868
 20
96.9910575768
 30
0.0
 10
208.1586109801
 20
97.450514602
 30
0.0
 10
208.7245958718
 20
97.8965401506
 30
0.0
 10
209.3335582724
 20
98.3280876493
 30
0.0
 10
209.9840388677
 20
98.7441400388
 30
0.0
 10
210.6744806866
 20
99.1437135629
 30
0.0
 10
211.403229063
 20
99.5258577494
 30
0.0
 10
212.1685455265
 20
99.8896704292
 30
0.0
 10
213.2489044957
 20
100.3549982509
 30
0.0
 10
214.6799428754
 20
100.8830425052
 30
0.0
 10
216.4899822007
 20
101.4230602425
 30
0.0
 10
218.3969352354
 20
101.8721401695
 30
0.0
 10
220.3825420107
 20
102.2259731206
 30
0.0
 10
222.4278534706
 20
102.4811703551
 30
0.0
 10
224.5132971062
 20
102.6352774038
 30
0.0
 10
226.6189081866
 20
102.6868117559
 30
0.0
 10
228.7245191193
 20
102.6352774302
 30
0.0
 10
230.8099631926
 20
102.4811702512
 30
0.0
 10
232.8552730834
 20
102.2259735009
 30
0.0
 10
234.8408855136
 20
101.8721388001
 30
0.0
 10
236.7478183801
 20
101.4230651154
 30
0.0
 10
238.5579291316
 20
100.8830252744
 30
0.0
 10
240.253862248
 20
100.2572216648
 30
0.0
 10
241.3271598505
 20
99.7734697405
 30
0.0
 10
241.8394832637
 20
99.5173080339
 30
0.0
  0
SPLINE
  5
433
100
AcDbEntity
  8
02___PRT_ALL_AXES
100
AcDbSpline
 62
7
  6
CONTINUOUS
 70
0
 71
3
 72
21
 73
17
 74
0
 42
0.0000001
 43
0.0000001
 44
0.0000000001
 40
0.0
 40
0.0
 40
0.0
 40
0.0
 40
0.0510850192
 40
0.1025268065
 40
0.1546715249
 40
0.2078451887
 40
0.2623460468
 40
0.3184392425
 40
0.376353812
 40
0.4362816933
 40
0.5627009318
 40
0.6294633973
 40
0.6986602538
 40
0.7703215868
 40
0.8444525068
 40
1.0
 40
1.0
 40
1.0
 40
1.0
 10
206.368908204
 20
91.8085570676
 30
0.0
 10
206.3689083092
 20
91.6450028521
 30
0.0
 10
206.3848685743
 20
91.3165327861
 30
0.0
 10
206.4565333292
 20
90.8258235112
 30
0.0
 10
206.5757342078
 20
90.3375448773
 30
0.0
 10
206.7421221387
 20
89.8529579262
 30
0.0
 10
206.9552317159
 20
89.3732076233
 30
0.0
 10
207.2144864518
 20
88.8994299813
 30
0.0
 10
207.5192301848
 20
88.4326937348
 30
0.0
 10
207.9935543778
 20
87.8102347582
 30
0.0
 10
208.5503075591
 20
87.2178543075
 30
0.0
 10
209.1763406723
 20
86.6573494905
 30
0.0
 10
209.6952707897
 20
86.2413899162
 30
0.0
 10
210.2537300856
 20
85.8385518942
 30
0.0
 10
211.0622764716
 20
85.3117211113
 30
0.0
 10
211.7050265966
 20
84.9521630671
 30
0.0
 10
212.1485298154
 20
84.7256437221
 30
0.0
  0
SPLINE
  5
434
100
AcDbEntity
  8
7_ALL_FEATURES
100
AcDbSpline
 62
3
  6
CONTINUOUS
 70
0
 71
3
 72
25
 73
21
 74
0
 42
0.0000001
 43
0.0000001
 44
0.0000000001
 40
0.0
 40
0.0
 40
0.0
 40
0.0
 40
0.0620180325
 40
0.1277188435
 40
0.1964810281
 40
0.2675117824
 40
0.3399023373
 40
0.4126783163
 40
0.4848472273
 40
0.5554451992
 40
0.6235849232
 40
0.6885069437
 40
0.749636833
 40
0.806650799
 40
0.8595503412
 40
0.9087389242
 40
0.9322267707
 40
0.9551472877
 40
0.9776744098
 40
1.0
 40
1.0
 40
1.0
 40
1.0
 10
187.0372728036
 20
105.725859152
 30
0.0
 10
186.9655142996
 20
105.6821764512
 30
0.0
 10
186.823789523
 20
105.5820182425
 30
0.0
 10
186.6254261597
 20
105.4038208585
 30
0.0
 10
186.4386987666
 20
105.1967318074
 30
0.0
 10
186.267636411
 20
104.9652295577
 30
0.0
 10
186.1158863882
 20
104.7142797877
 30
0.0
 10
185.9867158333
 20
104.4492870374
 30
0.0
 10
185.8829051422
 20
104.1759562133
 30
0.0
 10
185.8066919637
 20
103.9001652344
 30
0.0
 10
185.7597228902
 20
103.6278265986
 30
0.0
 10
185.7430328759
 20
103.3647457058
 30
0.0
 10
185.757039958
 20
103.1164951009
 30
0.0
 10
185.8016155552
 20
102.8882746594
 30
0.0
 10
185.8760477624
 20
102.6849527252
 30
0.0
 10
185.9635292705
 20
102.5376102115
 30
0.0
 10
186.046833921
 20
102.4381661676
 30
0.0
 10
186.1145748594
 20
102.3735872384
 30
0.0
 10
186.1881257179
 20
102.3183067785
 30
0.0
 10
186.2408734633
 20
102.2878046355
 30
0.0
 10
186.2679226167
 20
102.2742799758
 30
0.0
  0
SPLINE
  5
435
100
AcDbEntity
  8
7_ALL_FEATURES
100
AcDbSpline
 62
3
  6
CONTINUOUS
 70
0
 71
3
 72
17
 73
13
 74
0
 42
0.0000001
 43
0.0000001
 44
0.0000000001
 40
0.0
 40
0.0
 40
0.0
 40
0.0
 40
0.0564995777
 40
0.1131679646
 40
0.1701712649
 40
0.2276702995
 40
0.3446978456
 40
0.4654173811
 40
0.5907327797
 40
0.7213283259
 40
0.8576666076
 40
1.0
 40
1.0
 40
1.0
 40
1.0
 10
211.9532619474
 20
117.703326481
 30
0.0
 10
211.8912859741
 20
117.7343143717
 30
0.0
 10
211.7649521181
 20
117.7920968909
 30
0.0
 10
211.569473233
 20
117.8656355199
 30
0.0
 10
211.3682286501
 20
117.9259702379
 30
0.0
 10
211.0911851449
 20
117.989026869
 30
0.0
 10
210.7307629549
 20
118.0338769138
 30
0.0
 10
210.2844416594
 20
118.0330385898
 30
0.0
 10
209.8248277036
 20
117.9781347596
 30
0.0
 10
209.3552636088
 20
117.869716437
 30
0.0
 10
208.8790918112
 20
117.7087248255
 30
0.0
 10
208.5661400647
 20
117.5701278575
 30
0.0
 10
208.409552323
 20
117.4929866537
 30
0.0
  0
SPLINE
  5
436
100
AcDbEntity
  8
7_ALL_FEATURES
100
AcDbSpline
 62
3
  6
CONTINUOUS
 70
0
 71
3
 72
18
 73
14
 74
0
 42
0.0000001
 43
0.0000001
 44
0.0000000001
 40
0.0
 40
0.0
 40
0.0
 40
0.0
 40
0.1473280514
 40
0.2877901945
 40
0.4212073243
 40
0.5477043815
 40
0.6677558032
 40
0.7256551606
 40
0.782298663
 40
0.8378547659
 40
0.8925142119
 40
0.9464872854
 40
1.0
 40
1.0
 40
1.0
 40
1.0
 10
214.0324074567
 20
113.3763361256
 30
0.0
 10
214.0324074567
 20
113.6128077077
 30
0.0
 10
214.0131366891
 20
114.075045342
 30
0.0
 10
213.9220384815
 20
114.7459903662
 30
0.0
 10
213.7702143613
 20
115.3717543331
 30
0.0
 10
213.5591134912
 20
115.9454432019
 30
0.0
 10
213.3325596059
 20
116.3802663631
 30
0.0
 10
213.1236404328
 20
116.6938803979
 30
0.0
 10
212.9557172147
 20
116.9094921147
 30
0.0
 10
212.7751585131
 20
117.1076655892
 30
0.0
 10
212.5824439617
 20
117.2878511147
 30
0.0
 10
212.3781258971
 20
117.4495161825
 30
0.0
 10
212.2340997337
 20
117.5449358667
 30
0.0
 10
212.1605348603
 20
117.5892706119
 30
0.0
  0
SPLINE
  5
437
100
AcDbEntity
  8
7_ALL_FEATURES
100
AcDbSpline
 62
3
  6
CONTINUOUS
 70
0
 71
3
 72
9
 73
5
 74
0
 42
0.0000001
 43
0.0000001
 44
0.0000000001
 40
0.0
 40
0.0
 40
0.0
 40
0.0
 40
0.4946512237
 40
1.0
 40
1.0
 40
1.0
 40
1.0
 10
186.2679226167
 20
102.2742799758
 30
0.0
 10
186.3101782808
 20
102.2531520141
 30
0.0
 10
186.3998695997
 20
102.2185036318
 30
0.0
 10
186.4943614004
 20
102.2010785191
 30
0.0
 10
186.5423993505
 20
102.1964021214
 30
0.0
  0
SPLINE
  5
438
100
AcDbEntity
  8
7_ALL_FEATURES
100
AcDbSpline
 62
3
  6
CONTINUOUS
 70
0
 71
3
 72
25
 73
21
 74
0
 42
0.0000001
 43
0.0000001
 44
0.0000000001
 40
0.0
 40
0.0
 40
0.0
 40
0.0
 40
0.022457427
 40
0.0450603252
 40
0.0679491512
 40
0.0912548259
 40
0.1395248657
 40
0.1906695417
 40
0.2451533146
 40
0.3031714982
 40
0.3646846129
 40
0.4294587544
 40
0.4971041874
 40
0.5671098761
 40
0.6388740874
 40
0.7117319768
 40
0.7849811586
 40
0.8579061023
 40
0.929802101
 40
1.0
 40
1.0
 40
1.0
 40
1.0
 10
266.9698937092
 20
112.3573709869
 30
0.0
 10
266.9927656707
 20
112.3459351156
 30
0.0
 10
267.0375143504
 20
112.3206166302
 30
0.0
 10
267.1007336024
 20
112.2757955194
 30
0.0
 10
267.1599027518
 20
112.224255074
 30
0.0
 10
267.233908042
 20
112.1459996877
 30
0.0
 10
267.3151593896
 20
112.0313168337
 30
0.0
 10
267.3915323966
 20
111.8728263832
 30
0.0
 10
267.4471027502
 20
111.6943401997
 30
0.0
 10
267.4811661166
 20
111.4986520377
 30
0.0
 10
267.4933293163
 20
111.2887325501
 30
0.0
 10
267.483467727
 20
111.0677778141
 30
0.0
 10
267.4517671302
 20
110.8391625122
 30
0.0
 10
267.3987313905
 20
110.6063958409
 30
0.0
 10
267.3251864107
 20
110.3730641268
 30
0.0
 10
267.2322719345
 20
110.1427713598
 30
0.0
 10
267.1214281959
 20
109.9190816623
 30
0.0
 10
266.9943666707
 20
109.7054527835
 30
0.0
 10
266.8530688478
 20
109.5052092856
 30
0.0
 10
266.7492562111
 20
109.3808153087
 30
0.0
 10
266.6954169732
 20
109.3217349295
 30
0.0
  0
SPLINE
  5
439
100
AcDbEntity
  8
7_ALL_FEATURES
100
AcDbSpline
 62
7
  6
CONTINUOUS
 70
0
 71
3
 72
49
 73
45
 74
0
 42
0.0000001
 43
0.0000001
 44
0.0000000001
 40
0.0
 40
0.0
 40
0.0
 40
0.0
 40
0.000017025
 40
0.0000454374
 40
0.000138331
 40
0.0002801546
 40
0.0004711767
 40
0.0007114867
 40
0.001001118
 40
0.0013400803
 40
0.0017283683
 40
0.0026528121
 40
0.0037741904
 40
0.0050921772
 40
0.0066063262
 40
0.0083161555
 40
0.0102210897
 40
0.0123204868
 40
0.0146136579
 40
0.0197781283
 40
0.025707545
 40
0.032393912
 40
0.0398282033
 40
0.0480003739
 40
0.0568993818
 40
0.0665132037
 40
0.0768288514
 40
0.0995089428
 40
0.1248170854
 40
0.1526165137
 40
0.1827570049
 40
0.2150756581
 40
0.2493978192
 40
0.2855380012
 40
0.3233008797
 40
0.3624823764
 40
0.4442476754
 40
0.5290687051
 40
0.6151142968
 40
0.700526848
 40
0.7834624202
 40
0.8621305527
 40
0.9348329171
 40
1.0
 40
1.0
 40
1.0
 40
1.0
 10
141.7462562865
 20
150.3977179658
 30
0.0
 10
141.7461925754
 20
150.3976542593
 30
0.0
 10
141.7460899906
 20
150.3974277559
 30
0.0
 10
141.745885486
 20
150.3967302372
 30
0.0
 10
141.7456644863
 20
150.3953465641
 30
0.0
 10
141.7454028707
 20
150.3931126231
 30
0.0
 10
141.7451419615
 20
150.3900885856
 30
0.0
 10
141.7448757008
 20
150.386283074
 30
0.0
 10
141.7446089114
 20
150.3816921681
 30
0.0
 10
141.7443408986
 20
150.3763174481
 30
0.0
 10
141.7439606188
 20
150.3675847131
 30
0.0
 10
141.7434971659
 20
150.3547113635
 30
0.0
 10
141.7429655288
 20
150.3369176215
 30
0.0
 10
141.7424331985
 20
150.3160019481
 30
0.0
 10
141.7419006419
 20
150.2919712812
 30
0.0
 10
141.7413686599
 20
150.2648337512
 30
0.0
 10
141.74083766
 20
150.2345984851
 30
0.0
 10
141.7403079759
 20
150.2012756667
 30
0.0
 10
141.7395745548
 20
150.1507041636
 30
0.0
 10
141.7386752949
 20
150.079864159
 30
0.0
 10
141.7376417686
 20
149.9857749139
 30
0.0
 10
141.7366181224
 20
149.8796728147
 30
0.0
 10
141.7356060761
 20
149.761701248
 30
0.0
 10
141.7346074558
 20
149.632019671
 30
0.0
 10
141.7336238588
 20
149.4908033831
 30
0.0
 10
141.7326567495
 20
149.3382432413
 30
0.0
 10
141.7313495819
 20
149.1127529443
 30
0.0
 10
141.7297848547
 20
148.8042068723
 30
0.0
 10
141.7280461221
 20
148.4031346928
 30
0.0
 10
141.7264029282
 20
147.9625806274
 30
0.0
 10
141.7248646919
 20
147.484925654
 30
0.0
 10
141.7234403632
 20
146.9727512301
 30
0.0
 10
141.7221380016
 20
146.4288254209
 30
0.0
 10
141.720964949
 20
145.8560878681
 30
0.0
 10
141.7199276871
 20
145.257633922
 30
0.0
 10
141.7187164277
 20
144.4177272479
 30
0.0
 10
141.7175944329
 20
143.3287837715
 30
0.0
 10
141.7168718518
 20
141.99183042
 30
0.0
 10
141.7167720202
 20
140.6355752512
 30
0.0
 10
141.7172970039
 20
139.2892982105
 30
0.0
 10
141.718434829
 20
137.9820638142
 30
0.0
 10
141.7201589212
 20
136.742093694
 30
0.0
 10
141.7224292594
 20
135.5961572527
 30
0.0
 10
141.7243894779
 20
134.866540825
 30
0.0
 10
141.7254837588
 20
134.5216718126
 30
0.0
  0
SPLINE
  5
43A
100
AcDbEntity
  8
7_ALL_FEATURES
100
AcDbSpline
 62
7
  6
CONTINUOUS
 70
0
 71
3
 72
38
 73
34
 74
0
 42
0.0000001
 43
0.0000001
 44
0.0000000001
 40
0.0
 40
0.0
 40
0.0
 40
0.0
 40
0.115089799
 40
0.2241354578
 40
0.3268772428
 40
0.4230691298
 40
0.512481467
 40
0.594900558
 40
0.6701294987
 40
0.7379885568
 40
0.7983156321
 40
0.8256089199
 40
0.8509666507
 40
0.8743736003
 40
0.8958159205
 40
0.9152806984
 40
0.9327564793
 40
0.948232748
 40
0.9617004493
 40
0.9731515726
 40
0.9781188393
 40
0.9825795411
 40
0.9865331126
 40
0.9899790697
 40
0.9929169679
 40
0.9953465216
 40
0.9972677634
 40
0.9980378877
 40
0.9986811547
 40
0.9991978079
 40
0.9995883704
 40
0.9998541706
 40
1.0
 40
1.0
 40
1.0
 40
1.0
 10
141.7254837588
 20
134.5216718126
 30
0.0
 10
141.7258153559
 20
134.4171670319
 30
0.0
 10
141.7264918055
 20
134.2136458157
 30
0.0
 10
141.72757992
 20
133.9168325622
 30
0.0
 10
141.7287122306
 20
133.637179528
 30
0.0
 10
141.7298859057
 20
133.3753545295
 30
0.0
 10
141.7310979512
 20
133.131983588
 30
0.0
 10
141.7323452421
 20
132.9076481347
 30
0.0
 10
141.733624383
 20
132.702884287
 30
0.0
 10
141.7349319938
 20
132.518181343
 30
0.0
 10
141.736076818
 20
132.3770055405
 30
0.0
 10
141.7370146178
 20
132.2744220093
 30
0.0
 10
141.7376995148
 20
132.2053622712
 30
0.0
 10
141.7383891382
 20
132.1416157355
 30
0.0
 10
141.7390829866
 20
132.0832205829
 30
0.0
 10
141.7397804747
 20
132.0302115877
 30
0.0
 10
141.7404809556
 20
131.9826205237
 30
0.0
 10
141.7411835496
 20
131.9404756892
 30
0.0
 10
141.7418875131
 20
131.9038023353
 30
0.0
 10
141.7424991779
 20
131.8766715917
 30
0.0
 10
141.7429981354
 20
131.8577192362
 30
0.0
 10
141.7433544538
 20
131.845573565
 30
0.0
 10
141.7437105402
 20
131.8348099373
 30
0.0
 10
141.7440661924
 20
131.8254299292
 30
0.0
 10
141.7444205821
 20
131.8174347816
 30
0.0
 10
141.744773595
 20
131.8108258715
 30
0.0
 10
141.7450823427
 20
131.8061855908
 30
0.0
 10
141.7453389349
 20
131.8031688534
 30
0.0
 10
141.7455155278
 20
131.8014242132
 30
0.0
 10
141.7456918945
 20
131.8000296562
 30
0.0
 10
141.7458615791
 20
131.7989718267
 30
0.0
 10
141.7460328775
 20
131.7982749577
 30
0.0
 10
141.7461626495
 20
131.7979054197
 30
0.0
 10
141.7462562865
 20
131.7978117895
 30
0.0
  0
SPLINE
  5
43B
100
AcDbEntity
  8
7_ALL_FEATURES
100
AcDbSpline
 62
7
  6
CONTINUOUS
 70
0
 71
3
 72
52
 73
48
 74
0
 42
0.0000001
 43
0.0000001
 44
0.0000000001
 40
0.0
 40
0.0
 40
0.0
 40
0.0
 40
0.0000088803
 40
0.0000221172
 40
0.0000462203
 40
0.0000822216
 40
0.0001303946
 40
0.0001908475
 40
0.0002636328
 40
0.0003487783
 40
0.0005562058
 40
0.0008132015
 40
0.0011197892
 40
0.0014759739
 40
0.0023370667
 40
0.003396248
 40
0.0046532182
 40
0.0061075617
 40
0.0077588009
 40
0.0096063958
 40
0.0116497077
 40
0.013888069
 40
0.0189468027
 40
0.0247757504
 40
0.0313670098
 40
0.0387116313
 40
0.0467996392
 40
0.0556200478
 40
0.0651608773
 40
0.0754091698
 40
0.0979715043
 40
0.1231844571
 40
0.15091105
 40
0.1810006368
 40
0.2132897166
 40
0.2476028569
 40
0.2837536122
 40
0.3215455498
 40
0.3607733323
 40
0.4426771767
 40
0.5276874298
 40
0.6139589428
 40
0.6996191942
 40
0.782808928
 40
0.8617225128
 40
0.9346471366
 40
1.0
 40
1.0
 40
1.0
 40
1.0
 10
141.7462562865
 20
131.7978117895
 30
0.0
 10
141.7462895191
 20
131.7977785593
 30
0.0
 10
141.7464339895
 20
131.7977412064
 30
0.0
 10
141.7465639631
 20
131.7980000232
 30
0.0
 10
141.7466896115
 20
131.7983420369
 30
0.0
 10
141.7468191101
 20
131.7989133974
 30
0.0
 10
141.7469511875
 20
131.7996622815
 30
0.0
 10
141.7470844822
 20
131.8006151331
 30
0.0
 10
141.7472185799
 20
131.8017624288
 30
0.0
 10
141.7474108299
 20
131.8036867548
 30
0.0
 10
141.7476439677
 20
131.8065858395
 30
0.0
 10
141.747910988
 20
131.8106575604
 30
0.0
 10
141.7481790417
 20
131.8155177869
 30
0.0
 10
141.7485621191
 20
131.8235732976
 30
0.0
 10
141.7490270884
 20
131.8356119197
 30
0.0
 10
141.749559566
 20
131.8524180647
 30
0.0
 10
141.7500930438
 20
131.8723650914
 30
0.0
 10
141.7506270682
 20
131.8954463125
 30
0.0
 10
141.7511606925
 20
131.9216539564
 30
0.0
 10
141.7516934651
 20
131.950979104
 30
0.0
 10
141.7522250313
 20
131.9834118795
 30
0.0
 10
141.7529620964
 20
132.0328374019
 30
0.0
 10
141.753865358
 20
132.1022968148
 30
0.0
 10
141.7549029197
 20
132.1947925221
 30
0.0
 10
141.7559308661
 20
132.2993862956
 30
0.0
 10
141.7569474422
 20
132.4159360034
 30
0.0
 10
141.7579507695
 20
132.5442832516
 30
0.0
 10
141.7589392216
 20
132.6842536297
 30
0.0
 10
141.7599113097
 20
132.835656965
 30
0.0
 10
141.7612260922
 20
133.0597841476
 30
0.0
 10
141.7628000161
 20
133.366850698
 30
0.0
 10
141.764549063
 20
133.7664155432
 30
0.0
 10
141.7662026963
 20
134.2058165862
 30
0.0
 10
141.767751376
 20
134.6826662738
 30
0.0
 10
141.769186026
 20
135.1943735789
 30
0.0
 10
141.7704984771
 20
135.7381580312
 30
0.0
 10
141.7716812867
 20
136.3110648936
 30
0.0
 10
141.7727278802
 20
136.9099811743
 30
0.0
 10
141.7739512804
 20
137.7510305211
 30
0.0
 10
141.7750865101
 20
138.8419674775
 30
0.0
 10
141.7758218035
 20
140.1818681495
 30
0.0
 10
141.7759312049
 20
141.5416485571
 30
0.0
 10
141.7754124193
 20
142.8917943755
 30
0.0
 10
141.7742773437
 20
144.2030004124
 30
0.0
 10
141.7725526401
 20
145.4468066744
 30
0.0
 10
141.7702785673
 20
146.5962161673
 30
0.0
 10
141.7683134971
 20
147.328001341
 30
0.0
 10
141.7672160826
 20
147.6738579427
 30
0.0
  0
SPLINE
  5
43C
100
AcDbEntity
  8
7_ALL_FEATURES
100
AcDbSpline
 62
7
  6
CONTINUOUS
 70
0
 71
3
 72
39
 73
35
 74
0
 42
0.0000001
 43
0.0000001
 44
0.0000000001
 40
0.0
 40
0.0
 40
0.0
 40
0.0
 40
0.1159901473
 40
0.2258359473
 40
0.3292715406
 40
0.4260451872
 40
0.515922087
 40
0.5986839353
 40
0.6741297877
 40
0.7420764584
 40
0.802358994
 40
0.8548310796
 40
0.8780976392
 40
0.8993654235
 40
0.9186214254
 40
0.9358541002
 40
0.9510529696
 40
0.9642089313
 40
0.9753141362
 40
0.98436203
 40
0.9913476336
 40
0.99406595
 40
0.9962676604
 40
0.9971748428
 40
0.9979529822
 40
0.998602206
 40
0.9991227627
 40
0.9995151897
 40
0.999663758
 40
0.9997809912
 40
0.999867667
 40
0.999925803
 40
0.999962476
 40
1.0
 40
1.0
 40
1.0
 40
1.0
 10
141.7672160826
 20
147.6738579427
 30
0.0
 10
141.7668818653
 20
147.7791884584
 30
0.0
 10
141.7661999884
 20
147.9842697185
 30
0.0
 10
141.765102553
 20
148.2832803132
 30
0.0
 10
141.7639602559
 20
148.5648400369
 30
0.0
 10
141.7627760059
 20
148.8282655914
 30
0.0
 10
141.7615528687
 20
149.0729168548
 30
0.0
 10
141.7602940861
 20
149.2981998202
 30
0.0
 10
141.7590030538
 20
149.503567333
 30
0.0
 10
141.7576835754
 20
149.6885206663
 30
0.0
 10
141.7563393442
 20
149.8526106497
 30
0.0
 10
141.755160463
 20
149.9761263803
 30
0.0
 10
141.7541933182
 20
150.064212953
 30
0.0
 10
141.7534931731
 20
150.122136965
 30
0.0
 10
141.7527895018
 20
150.1745811017
 30
0.0
 10
141.7520829301
 20
150.2215134434
 30
0.0
 10
141.7513744195
 20
150.2629055904
 30
0.0
 10
141.7506648097
 20
150.298732399
 30
0.0
 10
141.7499566559
 20
150.3289723056
 30
0.0
 10
141.7492502888
 20
150.3536069928
 30
0.0
 10
141.7486306291
 20
150.3706247622
 30
0.0
 10
141.7481105478
 20
150.3814238956
 30
0.0
 10
141.7477989672
 20
150.3867066276
 30
0.0
 10
141.7475423602
 20
150.3902271862
 30
0.0
 10
141.7473629796
 20
150.3923396345
 30
0.0
 10
141.7471848784
 20
150.3940997324
 30
0.0
 10
141.7470076064
 20
150.3955072965
 30
0.0
 10
141.7468526749
 20
150.3964594349
 30
0.0
 10
141.7467209462
 20
150.3970426525
 30
0.0
 10
141.7466338376
 20
150.397350937
 30
0.0
 10
141.7465441652
 20
150.3975722656
 30
0.0
 10
141.7464631111
 20
150.3977157776
 30
0.0
 10
141.7463466879
 20
150.3977852554
 30
0.0
 10
141.7462803825
 20
150.39774206
 30
0.0
 10
141.7462562865
 20
150.3977179658
 30
0.0
  0
SPLINE
  5
43D
100
AcDbEntity
  8
02___PRT_ALL_AXES
100
AcDbSpline
 62
7
  6
CONTINUOUS
 70
0
 71
3
 72
46
 73
42
 74
0
 42
0.0000001
 43
0.0000001
 44
0.0000000001
 40
0.0
 40
0.0
 40
0.0
 40
0.0
 40
0.0980139685
 40
0.195084085
 40
0.2902754258
 40
0.3826712843
 40
0.4713818514
 40
0.5555528049
 40
0.6343735478
 40
0.707085016
 40
0.7409284652
 40
0.7729869853
 40
0.8031833487
 40
0.8314448141
 40
0.8577033025
 40
0.8818955617
 40
0.9039633204
 40
0.92385343
 40
0.9415179923
 40
0.9495021984
 40
0.9569144798
 40
0.96375041
 40
0.9700058404
 40
0.9756770512
 40
0.9807606015
 40
0.9852534777
 40
0.9891529751
 40
0.9924567958
 40
0.9938847053
 40
0.9951630143
 40
0.9962915328
 40
0.9972701081
 40
0.998098649
 40
0.9987770934
 40
0.9993054365
 40
0.999513371
 40
0.9996838786
 40
0.9998170679
 40
0.9999131802
 40
0.9999729174
 40
1.0
 40
1.0
 40
1.0
 40
1.0
 10
168.2779468499
 20
141.0977648776
 30
0.0
 10
168.2779468499
 20
140.7710411928
 30
0.0
 10
168.2778459664
 20
140.1207400923
 30
0.0
 10
168.2773927624
 20
139.1531244625
 30
0.0
 10
168.276642417
 20
138.2042366541
 30
0.0
 10
168.2756023969
 20
137.2832151915
 30
0.0
 10
168.2742830647
 20
136.3989299236
 30
0.0
 10
168.2726977359
 20
135.5598969986
 30
0.0
 10
168.2708622625
 20
134.7741967537
 30
0.0
 10
168.2691008785
 20
134.1562605827
 30
0.0
 10
168.2675650278
 20
133.6942035482
 30
0.0
 10
168.2663899712
 20
133.3738676685
 30
0.0
 10
168.2651670719
 20
133.0721393186
 30
0.0
 10
168.2638993702
 20
132.7897453921
 30
0.0
 10
168.2625901372
 20
132.5273662051
 30
0.0
 10
168.2612427779
 20
132.2856338531
 30
0.0
 10
168.2598609972
 20
132.0651306785
 30
0.0
 10
168.258448483
 20
131.8663878759
 30
0.0
 10
168.257211545
 20
131.7145917556
 30
0.0
 10
168.2561981446
 20
131.6043893793
 30
0.0
 10
168.2554582978
 20
131.5302826325
 30
0.0
 10
168.2547133895
 20
131.4619390203
 30
0.0
 10
168.2539639409
 20
131.3993995901
 30
0.0
 10
168.2532106313
 20
131.3427021216
 30
0.0
 10
168.2524541382
 20
131.2918806415
 30
0.0
 10
168.2516954867
 20
131.2469658226
 30
0.0
 10
168.2509354635
 20
131.2079846213
 30
0.0
 10
168.2502747073
 20
131.1792204299
 30
0.0
 10
168.2497352822
 20
131.1591935589
 30
0.0
 10
168.2493506344
 20
131.1464164635
 30
0.0
 10
168.2489663022
 20
131.135137909
 30
0.0
 10
168.2485825904
 20
131.1253596951
 30
0.0
 10
168.2482003223
 20
131.117082732
 30
0.0
 10
168.2478203072
 20
131.1103092136
 30
0.0
 10
168.2474863191
 20
131.1056034566
 30
0.0
 10
168.2472094522
 20
131.1025953221
 30
0.0
 10
168.2470165802
 20
131.1008963455
 30
0.0
 10
168.2468354022
 20
131.0995869566
 30
0.0
 10
168.2466370538
 20
131.0986165476
 30
0.0
 10
168.2464924013
 20
131.0980749139
 30
0.0
 10
168.2463067957
 20
131.0977648776
 30
0.0
 10
168.2462165175
 20
131.0977648776
 30
0.0
  0
SPLINE
  5
43E
100
AcDbEntity
  8
02___PRT_ALL_AXES
100
AcDbSpline
 62
7
  6
CONTINUOUS
 70
0
 71
3
 72
46
 73
42
 74
0
 42
0.0000001
 43
0.0000001
 44
0.0000000001
 40
0.0
 40
0.0
 40
0.0
 40
0.0
 40
0.0980139685
 40
0.195084085
 40
0.2902754258
 40
0.3826712843
 40
0.4713818514
 40
0.5555528049
 40
0.6343735478
 40
0.707085016
 40
0.7409284652
 40
0.7729869853
 40
0.8031833487
 40
0.8314448141
 40
0.8577033025
 40
0.8818955617
 40
0.9039633204
 40
0.92385343
 40
0.9415179923
 40
0.9495021984
 40
0.9569144798
 40
0.96375041
 40
0.9700058404
 40
0.9756770512
 40
0.9807606015
 40
0.9852534777
 40
0.9891529751
 40
0.9924567958
 40
0.9938847053
 40
0.9951630143
 40
0.9962915328
 40
0.9972701081
 40
0.998098649
 40
0.9987770934
 40
0.9993054365
 40
0.999513371
 40
0.9996838786
 40
0.9998170679
 40
0.9999131802
 40
0.9999729174
 40
1.0
 40
1.0
 40
1.0
 40
1.0
 10
168.2779468499
 20
141.0977648776
 30
0.0
 10
168.2779468499
 20
141.4244885625
 30
0.0
 10
168.2778459664
 20
142.074789663
 30
0.0
 10
168.2773927624
 20
143.0424052928
 30
0.0
 10
168.276642417
 20
143.9912931012
 30
0.0
 10
168.2756023969
 20
144.9123145638
 30
0.0
 10
168.2742830647
 20
145.7965998317
 30
0.0
 10
168.2726977359
 20
146.6356327567
 30
0.0
 10
168.2708622625
 20
147.4213330016
 30
0.0
 10
168.2691008785
 20
148.0392691726
 30
0.0
 10
168.2675650278
 20
148.5013262071
 30
0.0
 10
168.2663899712
 20
148.8216620868
 30
0.0
 10
168.2651670719
 20
149.1233904366
 30
0.0
 10
168.2638993702
 20
149.4057843632
 30
0.0
 10
168.2625901372
 20
149.6681635502
 30
0.0
 10
168.2612427779
 20
149.9098959022
 30
0.0
 10
168.2598609972
 20
150.1303990768
 30
0.0
 10
168.258448483
 20
150.3291418794
 30
0.0
 10
168.257211545
 20
150.4809379996
 30
0.0
 10
168.2561981446
 20
150.591140376
 30
0.0
 10
168.2554582978
 20
150.6652471227
 30
0.0
 10
168.2547133895
 20
150.733590735
 30
0.0
 10
168.2539639409
 20
150.7961301652
 30
0.0
 10
168.2532106313
 20
150.8528276337
 30
0.0
 10
168.2524541382
 20
150.9036491138
 30
0.0
 10
168.2516954867
 20
150.9485639326
 30
0.0
 10
168.2509354635
 20
150.987545134
 30
0.0
 10
168.2502747073
 20
151.0163093254
 30
0.0
 10
168.2497352822
 20
151.0363361964
 30
0.0
 10
168.2493506344
 20
151.0491132917
 30
0.0
 10
168.2489663022
 20
151.0603918463
 30
0.0
 10
168.2485825904
 20
151.0701700602
 30
0.0
 10
168.2482003223
 20
151.0784470233
 30
0.0
 10
168.2478203072
 20
151.0852205417
 30
0.0
 10
168.2474863191
 20
151.0899262987
 30
0.0
 10
168.2472094522
 20
151.0929344332
 30
0.0
 10
168.2470165802
 20
151.0946334098
 30
0.0
 10
168.2468354022
 20
151.0959427987
 30
0.0
 10
168.2466370538
 20
151.0969132077
 30
0.0
 10
168.2464924013
 20
151.0974548413
 30
0.0
 10
168.2463067957
 20
151.0977648776
 30
0.0
 10
168.2462165175
 20
151.0977648776
 30
0.0
  0
SPLINE
  5
43F
100
AcDbEntity
  8
7_ALL_FEATURES
100
AcDbSpline
 62
7
  6
CONTINUOUS
 70
0
 71
3
 72
38
 73
34
 74
0
 42
0.0000001
 43
0.0000001
 44
0.0000000001
 40
0.0
 40
0.0
 40
0.0
 40
0.0
 40
0.1891549719
 40
0.2819371471
 40
0.3725050251
 40
0.4600749148
 40
0.5438315633
 40
0.6229401208
 40
0.6965563748
 40
0.763845819
 40
0.8240062586
 40
0.8511773307
 40
0.8762921034
 40
0.8992699472
 40
0.9200365392
 40
0.9385239043
 40
0.9546714494
 40
0.9684261957
 40
0.9743916093
 40
0.9797425347
 40
0.9844743524
 40
0.988583114
 40
0.9920656607
 40
0.9949189038
 40
0.9961087454
 40
0.99714046
 40
0.9980138524
 40
0.9987287273
 40
0.9992848895
 40
0.9996821734
 40
0.9998212226
 40
0.9999205434
 40
1.0
 40
1.0
 40
1.0
 40
1.0
 10
155.2849677957
 20
163.9771620073
 30
0.0
 10
155.1428313557
 20
163.9771567184
 30
0.0
 10
154.9309673272
 20
163.9793215094
 30
0.0
 10
154.6511433491
 20
163.9864160921
 30
0.0
 10
154.4476889681
 20
163.9935808456
 30
0.0
 10
154.2510882218
 20
164.002384003
 30
0.0
 10
154.0631749936
 20
164.0125238872
 30
0.0
 10
153.8858219753
 20
164.0236394382
 30
0.0
 10
153.7209084465
 20
164.0353201252
 30
0.0
 10
153.5702818324
 20
164.0471198072
 30
0.0
 10
153.4545129772
 20
164.0569733618
 30
0.0
 10
153.3703557882
 20
164.0645262676
 30
0.0
 10
153.3140409464
 20
164.069736486
 30
0.0
 10
153.262530363
 20
164.0746333677
 30
0.0
 10
153.2159877426
 20
164.0791657768
 30
0.0
 10
153.1745618301
 20
164.0832858734
 30
0.0
 10
153.138385528
 20
164.0869499564
 30
0.0
 10
153.1115749867
 20
164.0897079544
 30
0.0
 10
153.0928367269
 20
164.0916548667
 30
0.0
 10
153.0808430063
 20
164.0929083063
 30
0.0
 10
153.0702374381
 20
164.0940222839
 30
0.0
 10
153.0610286185
 20
164.0949937289
 30
0.0
 10
153.0532238464
 20
164.0958203615
 30
0.0
 10
153.0476007323
 20
164.0964176773
 30
0.0
 10
153.0438084506
 20
164.096821439
 30
0.0
 10
153.0414967279
 20
164.0970674702
 30
0.0
 10
153.0395367111
 20
164.0972774347
 30
0.0
 10
153.0379410563
 20
164.0974453464
 30
0.0
 10
153.0366775362
 20
164.0975866335
 30
0.0
 10
153.0358964687
 20
164.0976570492
 30
0.0
 10
153.0353741935
 20
164.0977303777
 30
0.0
 10
153.0352196905
 20
164.0977161644
 30
0.0
 10
153.0349257499
 20
164.0978069492
 30
0.0
 10
153.0349680309
 20
164.0977647934
 30
0.0
  0
SPLINE
  5
440
100
AcDbEntity
  8
7_ALL_FEATURES
100
AcDbSpline
 62
7
  6
CONTINUOUS
 70
0
 71
3
 72
32
 73
28
 74
0
 42
0.0000001
 43
0.0000001
 44
0.0000000001
 40
0.0
 40
0.0
 40
0.0
 40
0.0
 40
0.0000794792
 40
0.0003179156
 40
0.000715309
 40
0.0012716251
 40
0.0028603353
 40
0.0050825102
 40
0.0079365445
 40
0.0114200587
 40
0.0155299596
 40
0.0202630844
 40
0.0315825436
 40
0.0453410595
 40
0.0614930004
 40
0.0799853603
 40
0.1007575098
 40
0.1237414388
 40
0.1760408292
 40
0.2362164689
 40
0.3035223476
 40
0.3771558739
 40
0.4562822366
 40
0.540056984
 40
0.6276429179
 40
0.8110271488
 40
1.0
 40
1.0
 40
1.0
 40
1.0
 10
153.0349680309
 20
118.0977649619
 30
0.0
 10
153.0350242687
 20
118.0977850646
 30
0.0
 10
153.0352694698
 20
118.0977769456
 30
0.0
 10
153.0357965308
 20
118.0978663984
 30
0.0
 10
153.0366914611
 20
118.0979432546
 30
0.0
 10
153.0385885432
 20
118.0981573555
 30
0.0
 10
153.0418535427
 20
118.0984972948
 30
0.0
 10
153.0468326729
 20
118.0990315932
 30
0.0
 10
153.0532290411
 20
118.0997095406
 30
0.0
 10
153.0610357446
 20
118.1005369201
 30
0.0
 10
153.0702471692
 20
118.1015084489
 30
0.0
 10
153.0853148907
 20
118.1030912064
 30
0.0
 10
153.1075951716
 20
118.1054124421
 30
0.0
 10
153.1384138157
 20
118.1085826809
 30
0.0
 10
153.1745998797
 20
118.1122477092
 30
0.0
 10
153.2160368834
 20
118.1163688216
 30
0.0
 10
153.2625918554
 20
118.1209023129
 30
0.0
 10
153.3344466255
 20
118.1277329996
 30
0.0
 10
153.4358151136
 20
118.1369653251
 30
0.0
 10
153.5704215782
 20
118.1484214363
 30
0.0
 10
153.7210846022
 20
118.1602228543
 30
0.0
 10
153.8860364742
 20
118.1719047252
 30
0.0
 10
154.0634290743
 20
118.1830208159
 30
0.0
 10
154.2513810835
 20
118.1931602073
 30
0.0
 10
154.5176825601
 20
118.2050810178
 30
0.0
 10
154.8631614856
 20
118.2155174397
 30
0.0
 10
155.1429685281
 20
118.2183730712
 30
0.0
 10
155.2849677957
 20
118.218367748
 30
0.0
  0
SPLINE
  5
441
100
AcDbEntity
  8
7_ALL_FEATURES
100
AcDbSpline
 62
7
  6
CONTINUOUS
 70
0
 71
3
 72
38
 73
34
 74
0
 42
0.0000001
 43
0.0000001
 44
0.0000000001
 40
0.0
 40
0.0
 40
0.0
 40
0.0
 40
0.1891593329
 40
0.2819413773
 40
0.3725087392
 40
0.4600782183
 40
0.5438344151
 40
0.6229425255
 40
0.6965583485
 40
0.7638473811
 40
0.8240074392
 40
0.8511783346
 40
0.8762929416
 40
0.8992706324
 40
0.9200370852
 40
0.9385243256
 40
0.9546717613
 40
0.9684264137
 40
0.9743917863
 40
0.9797426748
 40
0.9844744599
 40
0.9885831931
 40
0.9920657156
 40
0.994918939
 40
0.9961087724
 40
0.9971404798
 40
0.9980138661
 40
0.998728736
 40
0.9992848944
 40
0.9996821756
 40
0.9998212239
 40
0.999920544
 40
1.0
 40
1.0
 40
1.0
 40
1.0
 10
155.2849677957
 20
118.218367748
 30
0.0
 10
155.4271075127
 20
118.2183729033
 30
0.0
 10
155.6389747203
 20
118.2162081865
 30
0.0
 10
155.9188014853
 20
118.2091133769
 30
0.0
 10
156.1222550689
 20
118.2019485693
 30
0.0
 10
156.3188547771
 20
118.193145384
 30
0.0
 10
156.5067670193
 20
118.183005491
 30
0.0
 10
156.6841190371
 20
118.1718899527
 30
0.0
 10
156.8490315964
 20
118.1602092959
 30
0.0
 10
156.9996572912
 20
118.1484096576
 30
0.0
 10
157.1154254188
 20
118.138556148
 30
0.0
 10
157.1995820651
 20
118.1310032812
 30
0.0
 10
157.2558965357
 20
118.1257930917
 30
0.0
 10
157.3074067761
 20
118.1208962384
 30
0.0
 10
157.3539490846
 20
118.1163638567
 30
0.0
 10
157.3953747177
 20
118.1122437858
 30
0.0
 10
157.4315507745
 20
118.1085797262
 30
0.0
 10
157.4583611331
 20
118.1058217462
 30
0.0
 10
157.4770992644
 20
118.1038748468
 30
0.0
 10
157.4890929024
 20
118.1026214158
 30
0.0
 10
157.4996983974
 20
118.1015074456
 30
0.0
 10
157.5089071533
 20
118.1005360073
 30
0.0
 10
157.5167118714
 20
118.0997093805
 30
0.0
 10
157.5223349466
 20
118.0991120686
 30
0.0
 10
157.526127202
 20
118.0987083098
 30
0.0
 10
157.5284389087
 20
118.0984622803
 30
0.0
 10
157.5303989118
 20
118.0982523173
 30
0.0
 10
157.5319945555
 20
118.0980844067
 30
0.0
 10
157.533258067
 20
118.0979431206
 30
0.0
 10
157.5340391291
 20
118.0978727053
 30
0.0
 10
157.5345614007
 20
118.0977993773
 30
0.0
 10
157.5347159027
 20
118.0978135906
 30
0.0
 10
157.5350098411
 20
118.0977228063
 30
0.0
 10
157.5349675605
 20
118.0977649619
 30
0.0
  0
SPLINE
  5
442
100
AcDbEntity
  8
7_ALL_FEATURES
100
AcDbSpline
 62
7
  6
CONTINUOUS
 70
0
 71
3
 72
32
 73
28
 74
0
 42
0.0000001
 43
0.0000001
 44
0.0000000001
 40
0.0
 40
0.0
 40
0.0
 40
0.0
 40
0.0000794776
 40
0.0003179094
 40
0.0007152951
 40
0.0012716004
 40
0.0028602795
 40
0.0050824112
 40
0.0079363901
 40
0.0114198366
 40
0.0155296578
 40
0.0202626912
 40
0.0315819322
 40
0.0453401847
 40
0.0614918186
 40
0.0799838296
 40
0.1007555902
 40
0.1237390931
 40
0.1760375308
 40
0.2362121068
 40
0.3035168371
 40
0.3771491538
 40
0.456274282
 40
0.5400477839
 40
0.6276324001
 40
0.8110134371
 40
1.0
 40
1.0
 40
1.0
 40
1.0
 10
157.5349675605
 20
164.0977647934
 30
0.0
 10
157.5349113266
 20
164.0977446832
 30
0.0
 10
157.5346661235
 20
164.0977528213
 30
0.0
 10
157.5341390795
 20
164.0976633516
 30
0.0
 10
157.5332441628
 20
164.0975865074
 30
0.0
 10
157.5313471199
 20
164.0973724042
 30
0.0
 10
157.5280821822
 20
164.0970324764
 30
0.0
 10
157.5231031497
 20
164.096498186
 30
0.0
 10
157.5167069056
 20
164.0958202525
 30
0.0
 10
157.5089003537
 20
164.0949928887
 30
0.0
 10
157.4996891076
 20
164.0940213787
 30
0.0
 10
157.4846216771
 20
164.092438651
 30
0.0
 10
157.4623418246
 20
164.0901174589
 30
0.0
 10
157.4315237702
 20
164.0869472782
 30
0.0
 10
157.3953383939
 20
164.0832823156
 30
0.0
 10
157.353902172
 20
164.0791612751
 30
0.0
 10
157.3073480713
 20
164.0746278601
 30
0.0
 10
157.2354946251
 20
164.0677972831
 30
0.0
 10
157.1341279676
 20
164.058565094
 30
0.0
 10
156.9995238773
 20
164.0471091301
 30
0.0
 10
156.8488634229
 20
164.0353078343
 30
0.0
 10
156.6839142515
 20
164.0236260468
 30
0.0
 10
156.5065244272
 20
164.0125099909
 30
0.0
 10
156.3185752771
 20
164.0023705823
 30
0.0
 10
156.0522781349
 20
163.9904496804
 30
0.0
 10
155.7067923144
 20
163.9800126163
 30
0.0
 10
155.4269773666
 20
163.977156628
 30
0.0
 10
155.2849677957
 20
163.9771620073
 30
0.0
  0
ENDSEC
  0
SECTION
  2
OBJECTS
  0
DICTIONARY
  5
443
100
AcDbDictionary
  3
ACAD_GROUP
350
444
  3
ACAD_MLINESTYLE
350
445
  0
DICTIONARY
  5
444
102
{ACAD_REACTORS
330
443
102
}
100
AcDbDictionary
  0
DICTIONARY
  5
445
102
{ACAD_REACTORS
330
443
102
}
100
AcDbDictionary
  3
STANDARD
350
446
  0
MLINESTYLE
  5
446
102
{ACAD_REACTORS
330
445
102
}
100
AcDbMlineStyle
  2
STANDARD
 70
0
  3

 62
256
 51
90.0
 52
90.0
 71
2
 49
0.5
 62
256
  6
BYLAYER
 49
-0.5
 62
256
  6
BYLAYER
  0
ENDSEC
  0
EOF
