  0
SECTION
  2
HEADER
  9
$ACADVER
  1
AC1027
  9
$ACADMAINTVER
 70
   105
  9
$DWGCODEPAGE
  3
ANSI_1252
  9
$REQUIREDVERSIONS
160
                 0
  9
$LASTSAVEDBY
  1
andrea.zolin
  9
$INSBASE
 10
0.0
 20
0.0
 30
0.0
  9
$EXTMIN
 10
0.0
 20
0.0
 30
0.0
  9
$EXTMAX
 10
297.0
 20
210.0
 30
0.0
  9
$LIMMIN
 10
0.0
 20
0.0
  9
$LIMMAX
 10
297.0
 20
210.0
  9
$ORTHOMODE
 70
     0
  9
$REGENMODE
 70
     1
  9
$FILLMODE
 70
     1
  9
$QTEXTMODE
 70
     0
  9
$MIRRTEXT
 70
     1
  9
$LTSCALE
 40
16.335
  9
$ATTMODE
 70
     1
  9
$TEXTSIZE
 40
0.2
  9
$TRACEWID
 40
0.05
  9
$TEXTSTYLE
  7
STANDARD
  9
$CLAYER
  8
0
  9
$CELTYPE
  6
BYLAYER
  9
$CECOLOR
 62
   256
  9
$CELTSCALE
 40
1.0
  9
$DISPSILH
 70
     0
  9
$DIMSCALE
 40
1.0
  9
$DIMASZ
 40
2.5
  9
$DIMEXO
 40
0.75
  9
$DIMDLI
 40
11.286
  9
$DIMRND
 40
0.0
  9
$DIMDLE
 40
0.0
  9
$DIMEXE
 40
0.75
  9
$DIMTP
 40
0.01
  9
$DIMTM
 40
0.01
  9
$DIMTXT
 40
3.0
  9
$DIMCEN
 40
2.673
  9
$DIMTSZ
 40
0.0
  9
$DIMTOL
 70
     1
  9
$DIMLIM
 70
     0
  9
$DIMTIH
 70
     1
  9
$DIMTOH
 70
     1
  9
$DIMSE1
 70
     0
  9
$DIMSE2
 70
     0
  9
$DIMTAD
 70
     0
  9
$DIMZIN
 70
     0
  9
$DIMBLK
  1
CLOSED
  9
$DIMASO
 70
     1
  9
$DIMSHO
 70
     1
  9
$DIMPOST
  1

  9
$DIMAPOST
  1

  9
$DIMALT
 70
     0
  9
$DIMALTD
 70
     2
  9
$DIMALTF
 40
25.4
  9
$DIMLFAC
 40
1.0
  9
$DIMTOFL
 70
     0
  9
$DIMTVP
 40
0.0
  9
$DIMTIX
 70
     0
  9
$DIMSOXD
 70
     0
  9
$DIMSAH
 70
     0
  9
$DIMBLK1
  1

  9
$DIMBLK2
  1

  9
$DIMSTYLE
  2
STANDARD
  9
$DIMCLRD
 70
     0
  9
$DIMCLRE
 70
     0
  9
$DIMCLRT
 70
     0
  9
$DIMTFAC
 40
1.0
  9
$DIMGAP
 40
0.625
  9
$DIMJUST
 70
     0
  9
$DIMSD1
 70
     0
  9
$DIMSD2
 70
     0
  9
$DIMTOLJ
 70
     1
  9
$DIMTZIN
 70
     0
  9
$DIMALTZ
 70
     0
  9
$DIMALTTZ
 70
     0
  9
$DIMUPT
 70
     0
  9
$DIMDEC
 70
     4
  9
$DIMTDEC
 70
     4
  9
$DIMALTU
 70
     2
  9
$DIMALTTD
 70
     2
  9
$DIMTXSTY
  7
STANDARD
  9
$DIMAUNIT
 70
     0
  9
$DIMADEC
 70
     0
  9
$DIMALTRND
 40
0.0
  9
$DIMAZIN
 70
     0
  9
$DIMDSEP
 70
    44
  9
$DIMATFIT
 70
     3
  9
$DIMFRAC
 70
     0
  9
$DIMLDRBLK
  1

  9
$DIMLUNIT
 70
     2
  9
$DIMLWD
 70
    -2
  9
$DIMLWE
 70
    -2
  9
$DIMTMOVE
 70
     0
  9
$DIMFXL
 40
1.0
  9
$DIMFXLON
 70
     0
  9
$DIMJOGANG
 40
0.7853981633974483
  9
$DIMTFILL
 70
     0
  9
$DIMTFILLCLR
 70
     0
  9
$DIMARCSYM
 70
     0
  9
$DIMLTYPE
  6

  9
$DIMLTEX1
  6

  9
$DIMLTEX2
  6

  9
$DIMTXTDIRECTION
 70
     0
  9
$LUNITS
 70
     2
  9
$LUPREC
 70
     4
  9
$SKETCHINC
 40
0.1
  9
$FILLETRAD
 40
0.5
  9
$AUNITS
 70
     0
  9
$AUPREC
 70
     0
  9
$MENU
  1
.
  9
$ELEVATION
 40
0.0
  9
$PELEVATION
 40
0.0
  9
$THICKNESS
 40
0.0
  9
$LIMCHECK
 70
     0
  9
$CHAMFERA
 40
0.0
  9
$CHAMFERB
 40
0.0
  9
$CHAMFERC
 40
0.0
  9
$CHAMFERD
 40
0.0
  9
$SKPOLY
 70
     0
  9
$TDCREATE
 40
2447893.083333333
  9
$TDUCREATE
 40
0.0
  9
$TDUPDATE
 40
2458620.590972963
  9
$TDUUPDATE
 40
2458620.50763963
  9
$TDINDWG
 40
0.0003066435
  9
$TDUSRTIMER
 40
0.0003066435
  9
$USRTIMER
 70
     1
  9
$ANGBASE
 50
0.0
  9
$ANGDIR
 70
     0
  9
$PDMODE
 70
     3
  9
$PDSIZE
 40
0.3125
  9
$PLINEWID
 40
0.0
  9
$SPLFRAME
 70
     0
  9
$SPLINETYPE
 70
     6
  9
$SPLINESEGS
 70
     8
  9
$HANDSEED
  5
59E
  9
$SURFTAB1
 70
     6
  9
$SURFTAB2
 70
     6
  9
$SURFTYPE
 70
     6
  9
$SURFU
 70
     6
  9
$SURFV
 70
     6
  9
$UCSBASE
  2

  9
$UCSNAME
  2

  9
$UCSORG
 10
0.0
 20
0.0
 30
0.0
  9
$UCSXDIR
 10
1.0
 20
0.0
 30
0.0
  9
$UCSYDIR
 10
0.0
 20
1.0
 30
0.0
  9
$UCSORTHOREF
  2

  9
$UCSORTHOVIEW
 70
     0
  9
$UCSORGTOP
 10
0.0
 20
0.0
 30
0.0
  9
$UCSORGBOTTOM
 10
0.0
 20
0.0
 30
0.0
  9
$UCSORGLEFT
 10
0.0
 20
0.0
 30
0.0
  9
$UCSORGRIGHT
 10
0.0
 20
0.0
 30
0.0
  9
$UCSORGFRONT
 10
0.0
 20
0.0
 30
0.0
  9
$UCSORGBACK
 10
0.0
 20
0.0
 30
0.0
  9
$PUCSBASE
  2

  9
$PUCSNAME
  2

  9
$PUCSORG
 10
0.0
 20
0.0
 30
0.0
  9
$PUCSXDIR
 10
1.0
 20
0.0
 30
0.0
  9
$PUCSYDIR
 10
0.0
 20
1.0
 30
0.0
  9
$PUCSORTHOREF
  2

  9
$PUCSORTHOVIEW
 70
     0
  9
$PUCSORGTOP
 10
0.0
 20
0.0
 30
0.0
  9
$PUCSORGBOTTOM
 10
0.0
 20
0.0
 30
0.0
  9
$PUCSORGLEFT
 10
0.0
 20
0.0
 30
0.0
  9
$PUCSORGRIGHT
 10
0.0
 20
0.0
 30
0.0
  9
$PUCSORGFRONT
 10
0.0
 20
0.0
 30
0.0
  9
$PUCSORGBACK
 10
0.0
 20
0.0
 30
0.0
  9
$USERI1
 70
     0
  9
$USERI2
 70
     0
  9
$USERI3
 70
     0
  9
$USERI4
 70
     0
  9
$USERI5
 70
     0
  9
$USERR1
 40
0.0
  9
$USERR2
 40
0.0
  9
$USERR3
 40
0.0
  9
$USERR4
 40
0.0
  9
$USERR5
 40
0.0
  9
$WORLDVIEW
 70
     1
  9
$SHADEDGE
 70
     3
  9
$SHADEDIF
 70
    70
  9
$TILEMODE
 70
     0
  9
$MAXACTVP
 70
    64
  9
$PINSBASE
 10
0.0
 20
0.0
 30
0.0
  9
$PLIMCHECK
 70
     0
  9
$PEXTMIN
 10
9.949999999999989
 20
9.950000000000003
 30
0.0
  9
$PEXTMAX
 10
291.5463968142666
 20
200.05
 30
0.0
  9
$PLIMMIN
 10
0.0
 20
0.0
  9
$PLIMMAX
 10
297.0
 20
210.0
  9
$UNITMODE
 70
     0
  9
$VISRETAIN
 70
     1
  9
$PLINEGEN
 70
     0
  9
$PSLTSCALE
 70
     1
  9
$TREEDEPTH
 70
  3020
  9
$CMLSTYLE
  2
Standard
  9
$CMLJUST
 70
     0
  9
$CMLSCALE
 40
1.0
  9
$PROXYGRAPHICS
 70
     1
  9
$MEASUREMENT
 70
     1
  9
$CELWEIGHT
370
    -1
  9
$ENDCAPS
280
     0
  9
$JOINSTYLE
280
     0
  9
$LWDISPLAY
290
     0
  9
$INSUNITS
 70
     4
  9
$HYPERLINKBASE
  1

  9
$STYLESHEET
  1

  9
$XEDIT
290
     1
  9
$CEPSNTYPE
380
     0
  9
$PSTYLEMODE
290
     1
  9
$FINGERPRINTGUID
  2
{363E8DD8-18C2-4D73-8941-6B8FF83B6E11}
  9
$VERSIONGUID
  2
{FAEB1C32-E019-11D5-929B-00C0DF256EC4}
  9
$EXTNAMES
290
     1
  9
$PSVPSCALE
 40
0.0
  9
$OLESTARTUP
290
     0
  9
$SORTENTS
280
   127
  9
$INDEXCTL
280
     0
  9
$HIDETEXT
280
     1
  9
$XCLIPFRAME
280
     2
  9
$HALOGAP
280
     0
  9
$OBSCOLOR
 70
   257
  9
$OBSLTYPE
280
     0
  9
$INTERSECTIONDISPLAY
280
     0
  9
$INTERSECTIONCOLOR
 70
   257
  9
$DIMASSOC
280
     2
  9
$PROJECTNAME
  1

  9
$CAMERADISPLAY
290
     0
  9
$LENSLENGTH
 40
50.0
  9
$CAMERAHEIGHT
 40
0.0
  9
$STEPSPERSEC
 40
2.0
  9
$STEPSIZE
 40
6.0
  9
$3DDWFPREC
 40
2.0
  9
$PSOLWIDTH
 40
0.25
  9
$PSOLHEIGHT
 40
4.0
  9
$LOFTANG1
 40
1.570796326794897
  9
$LOFTANG2
 40
1.570796326794897
  9
$LOFTMAG1
 40
0.0
  9
$LOFTMAG2
 40
0.0
  9
$LOFTPARAM
 70
     7
  9
$LOFTNORMALS
280
     1
  9
$LATITUDE
 40
37.795
  9
$LONGITUDE
 40
-122.394
  9
$NORTHDIRECTION
 40
0.0
  9
$TIMEZONE
 70
 -8000
  9
$LIGHTGLYPHDISPLAY
280
     1
  9
$TILEMODELIGHTSYNCH
280
     1
  9
$SOLIDHIST
280
     0
  9
$SHOWHIST
280
     1
  9
$DWFFRAME
280
     2
  9
$DGNFRAME
280
     2
  9
$REALWORLDSCALE
290
     1
  9
$INTERFERECOLOR
 62
   256
  9
$CSHADOW
280
     0
  9
$SHADOWPLANELOCATION
 40
0.0
  0
ENDSEC
  0
SECTION
  2
CLASSES
  0
CLASS
  1
ACDBDICTIONARYWDFLT
  2
AcDbDictionaryWithDefault
  3
ObjectDBX Classes
 90
        0
 91
        4
280
     0
281
     0
  0
CLASS
  1
ACDBPLACEHOLDER
  2
AcDbPlaceHolder
  3
ObjectDBX Classes
 90
        0
 91
        1
280
     0
281
     0
  0
CLASS
  1
LAYOUT
  2
AcDbLayout
  3
ObjectDBX Classes
 90
        0
 91
        1
280
     0
281
     0
  0
CLASS
  1
SCALE
  2
AcDbScale
  3
ObjectDBX Classes
 90
     1153
 91
        4
280
     0
281
     0
  0
CLASS
  1
VISUALSTYLE
  2
AcDbVisualStyle
  3
ObjectDBX Classes
 90
     4095
 91
        4
280
     0
281
     0
  0
CLASS
  1
MATERIAL
  2
AcDbMaterial
  3
ObjectDBX Classes
 90
     1153
 91
        4
280
     0
281
     0
  0
CLASS
  1
TABLESTYLE
  2
AcDbTableStyle
  3
ObjectDBX Classes
 90
     4095
 91
        4
280
     0
281
     0
  0
CLASS
  1
MLEADERSTYLE
  2
AcDbMLeaderStyle
  3
ACDB_MLEADERSTYLE_CLASS
 90
     4095
 91
        4
280
     0
281
     0
  0
CLASS
  1
DICTIONARYVAR
  2
AcDbDictionaryVar
  3
ObjectDBX Classes
 90
        0
 91
        4
280
     0
281
     0
  0
CLASS
  1
CELLSTYLEMAP
  2
AcDbCellStyleMap
  3
ObjectDBX Classes
 90
     1152
 91
        4
280
     0
281
     0
  0
ENDSEC
  0
SECTION
  2
TABLES
  0
TABLE
  2
VPORT
  5
8
330
0
100
AcDbSymbolTable
 70
     1
  0
VPORT
  5
1F4
330
8
100
AcDbSymbolTableRecord
100
AcDbViewportTableRecord
  2
*ACTIVE
 70
     0
 10
0.0
 20
0.0
 11
1.0
 21
1.0
 12
148.5
 22
105.0
 13
0.0
 23
0.0
 14
1.0
 24
1.0
 15
0.0
 25
0.0
 16
0.0
 26
0.0
 36
1.0
 17
0.0
 27
0.0
 37
0.0
 40
210.0
 41
1.4142857143
 42
50.0
 43
0.0
 44
0.0
 50
0.0
 51
0.0
 71
     0
 72
   100
 73
     1
 74
     1
 75
     0
 76
     0
 77
     0
 78
     0
281
     0
 65
     1
110
0.0
120
0.0
130
0.0
111
1.0
121
0.0
131
0.0
112
0.0
122
1.0
132
0.0
 79
     0
146
0.0
348
577
 60
     3
 61
     5
292
     1
282
     1
141
0.0
142
0.0
 63
   256
  0
ENDTAB
  0
TABLE
  2
LTYPE
  5
5
330
0
100
AcDbSymbolTable
 70
     6
  0
LTYPE
  5
14
330
5
100
AcDbSymbolTableRecord
100
AcDbLinetypeTableRecord
  2
BYBLOCK
 70
     0
  3

 72
    65
 73
     0
 40
0.0
  0
LTYPE
  5
15
330
5
100
AcDbSymbolTableRecord
100
AcDbLinetypeTableRecord
  2
BYLAYER
 70
     0
  3

 72
    65
 73
     0
 40
0.0
  0
LTYPE
  5
16
330
5
100
AcDbSymbolTableRecord
100
AcDbLinetypeTableRecord
  2
CONTINUOUS
 70
     0
  3
Solid line
 72
    65
 73
     0
 40
0.0
  0
LTYPE
  5
1F5
330
5
100
AcDbSymbolTableRecord
100
AcDbLinetypeTableRecord
  2
CENTER
 70
     0
  3
____ _ ____ _ ____ _ ____ _ ____ _ ____ _ ____
 72
    65
 73
     4
 40
0.6
 49
0.375
 74
     0
 49
-0.075
 74
     0
 49
0.075
 74
     0
 49
-0.075
 74
     0
  0
LTYPE
  5
1F6
330
5
100
AcDbSymbolTableRecord
100
AcDbLinetypeTableRecord
  2
HIDDEN
 70
     0
  3
- - - - - - - - - - - - - - - - - - - -
 72
    65
 73
     2
 40
0.2
 49
0.1
 74
     0
 49
-0.1
 74
     0
  0
LTYPE
  5
1F7
330
5
100
AcDbSymbolTableRecord
100
AcDbLinetypeTableRecord
  2
PHANTOM
 70
     0
  3
_____ _ _ _____ _ _ _____ _ _ _____
 72
    65
 73
     6
 40
0.8
 49
0.45
 74
     0
 49
-0.05
 74
     0
 49
0.1
 74
     0
 49
-0.05
 74
     0
 49
0.1
 74
     0
 49
-0.05
 74
     0
  0
LTYPE
  5
1F8
330
5
100
AcDbSymbolTableRecord
100
AcDbLinetypeTableRecord
  2
DOT
 70
     0
  3
. . . . . . . . . . . . . . . . . . . .
 72
    65
 73
     2
 40
0.2
 49
0.1
 74
     0
 49
-0.1
 74
     0
  0
LTYPE
  5
1F9
330
5
100
AcDbSymbolTableRecord
100
AcDbLinetypeTableRecord
  2
DASHED
 70
     0
  3
- - - - - - - - - - - - - - - - - - - -
 72
    65
 73
     2
 40
0.2
 49
0.1
 74
     0
 49
-0.1
 74
     0
  0
ENDTAB
  0
TABLE
  2
LAYER
  5
2
330
0
100
AcDbSymbolTable
 70
    38
  0
LAYER
  5
10
330
2
100
AcDbSymbolTableRecord
100
AcDbLayerTableRecord
  2
0
 70
     0
 62
     7
  6
CONTINUOUS
370
    -3
390
F
347
58E
348
0
  0
LAYER
  5
1FA
330
2
100
AcDbSymbolTableRecord
100
AcDbLayerTableRecord
  2
DEFAULT_1
 70
     0
 62
     7
  6
CENTER
370
    -3
390
F
347
58E
348
0
  0
LAYER
  5
1FB
330
2
100
AcDbSymbolTableRecord
100
AcDbLayerTableRecord
  2
DEFAULT_2
 70
     0
 62
     8
  6
HIDDEN
370
    -3
390
F
347
58E
348
0
  0
LAYER
  5
1FC
330
2
100
AcDbSymbolTableRecord
100
AcDbLayerTableRecord
  2
DEFAULT_3
 70
     0
 62
     7
  6
PHANTOM
370
    -3
390
F
347
58E
348
0
  0
LAYER
  5
1FD
330
2
100
AcDbSymbolTableRecord
100
AcDbLayerTableRecord
  2
01_ALL_DTM_PLN
 70
     0
 62
     7
  6
CONTINUOUS
370
    -3
390
F
347
58E
348
0
  0
LAYER
  5
1FE
330
2
100
AcDbSymbolTableRecord
100
AcDbLayerTableRecord
  2
01__ASM_ALL_DTM_PLN
 70
     0
 62
     7
  6
CONTINUOUS
370
    -3
390
F
347
58E
348
0
  0
LAYER
  5
1FF
330
2
100
AcDbSymbolTableRecord
100
AcDbLayerTableRecord
  2
01__ASM_DEF_DTM_PLN
 70
     0
 62
     7
  6
CONTINUOUS
370
    -3
390
F
347
58E
348
0
  0
LAYER
  5
200
330
2
100
AcDbSymbolTableRecord
100
AcDbLayerTableRecord
  2
01___PRT_ALL_DTM_PLN
 70
     0
 62
     7
  6
CONTINUOUS
370
    -3
390
F
347
58E
348
0
  0
LAYER
  5
201
330
2
100
AcDbSymbolTableRecord
100
AcDbLayerTableRecord
  2
01___PRT_DEF_DTM_PLN
 70
     0
 62
     7
  6
CONTINUOUS
370
    -3
390
F
347
58E
348
0
  0
LAYER
  5
202
330
2
100
AcDbSymbolTableRecord
100
AcDbLayerTableRecord
  2
02_ALL_AXES
 70
     0
 62
     7
  6
CONTINUOUS
370
    -3
390
F
347
58E
348
0
  0
LAYER
  5
203
330
2
100
AcDbSymbolTableRecord
100
AcDbLayerTableRecord
  2
02__ASM_ALL_AXES
 70
     0
 62
     7
  6
CONTINUOUS
370
    -3
390
F
347
58E
348
0
  0
LAYER
  5
204
330
2
100
AcDbSymbolTableRecord
100
AcDbLayerTableRecord
  2
02___PRT_ALL_AXES
 70
     0
 62
     7
  6
CONTINUOUS
370
    -3
390
F
347
58E
348
0
  0
LAYER
  5
205
330
2
100
AcDbSymbolTableRecord
100
AcDbLayerTableRecord
  2
03_ALL_CURVES
 70
     0
 62
     7
  6
CONTINUOUS
370
    -3
390
F
347
58E
348
0
  0
LAYER
  5
206
330
2
100
AcDbSymbolTableRecord
100
AcDbLayerTableRecord
  2
03__ASM_ALL_CURVES
 70
     0
 62
     7
  6
CONTINUOUS
370
    -3
390
F
347
58E
348
0
  0
LAYER
  5
207
330
2
100
AcDbSymbolTableRecord
100
AcDbLayerTableRecord
  2
03___PRT_ALL_CURVES
 70
     0
 62
     7
  6
CONTINUOUS
370
    -3
390
F
347
58E
348
0
  0
LAYER
  5
208
330
2
100
AcDbSymbolTableRecord
100
AcDbLayerTableRecord
  2
04_ALL_DTM_PNT
 70
     0
 62
     7
  6
CONTINUOUS
370
    -3
390
F
347
58E
348
0
  0
LAYER
  5
209
330
2
100
AcDbSymbolTableRecord
100
AcDbLayerTableRecord
  2
04__ASM_ALL_DTM_PNT
 70
     0
 62
     7
  6
CONTINUOUS
370
    -3
390
F
347
58E
348
0
  0
LAYER
  5
20A
330
2
100
AcDbSymbolTableRecord
100
AcDbLayerTableRecord
  2
04___PRT_ALL_DTM_PNT
 70
     0
 62
     7
  6
CONTINUOUS
370
    -3
390
F
347
58E
348
0
  0
LAYER
  5
20B
330
2
100
AcDbSymbolTableRecord
100
AcDbLayerTableRecord
  2
05_ALL_DTM_CSYS
 70
     0
 62
     7
  6
CONTINUOUS
370
    -3
390
F
347
58E
348
0
  0
LAYER
  5
20C
330
2
100
AcDbSymbolTableRecord
100
AcDbLayerTableRecord
  2
05__ASM_ALL_DTM_CSYS
 70
     0
 62
     7
  6
CONTINUOUS
370
    -3
390
F
347
58E
348
0
  0
LAYER
  5
20D
330
2
100
AcDbSymbolTableRecord
100
AcDbLayerTableRecord
  2
05__ASM_DEF_DTM_CSYS
 70
     0
 62
     7
  6
CONTINUOUS
370
    -3
390
F
347
58E
348
0
  0
LAYER
  5
20E
330
2
100
AcDbSymbolTableRecord
100
AcDbLayerTableRecord
  2
05___PRT_ALL_DTM_CSYS
 70
     0
 62
     7
  6
CONTINUOUS
370
    -3
390
F
347
58E
348
0
  0
LAYER
  5
20F
330
2
100
AcDbSymbolTableRecord
100
AcDbLayerTableRecord
  2
05___PRT_DEF_DTM_CSYS
 70
     0
 62
     7
  6
CONTINUOUS
370
    -3
390
F
347
58E
348
0
  0
LAYER
  5
210
330
2
100
AcDbSymbolTableRecord
100
AcDbLayerTableRecord
  2
06_ALL_SURFS
 70
     0
 62
     7
  6
CONTINUOUS
370
    -3
390
F
347
58E
348
0
  0
LAYER
  5
211
330
2
100
AcDbSymbolTableRecord
100
AcDbLayerTableRecord
  2
06__ASM_ALL_SURFS
 70
     0
 62
     7
  6
CONTINUOUS
370
    -3
390
F
347
58E
348
0
  0
LAYER
  5
212
330
2
100
AcDbSymbolTableRecord
100
AcDbLayerTableRecord
  2
06___PRT_ALL_SURFS
 70
     0
 62
     7
  6
CONTINUOUS
370
    -3
390
F
347
58E
348
0
  0
LAYER
  5
213
330
2
100
AcDbSymbolTableRecord
100
AcDbLayerTableRecord
  2
07__ASM_ALL_SKELETONS
 70
     0
 62
     7
  6
CONTINUOUS
370
    -3
390
F
347
58E
348
0
  0
LAYER
  5
214
330
2
100
AcDbSymbolTableRecord
100
AcDbLayerTableRecord
  2
1_ALL_PLANES
 70
     0
 62
     7
  6
CONTINUOUS
370
    -3
390
F
347
58E
348
0
  0
LAYER
  5
215
330
2
100
AcDbSymbolTableRecord
100
AcDbLayerTableRecord
  2
1__APPOGGIO
 70
     0
 62
     7
  6
CONTINUOUS
370
    -3
390
F
347
58E
348
0
  0
LAYER
  5
216
330
2
100
AcDbSymbolTableRecord
100
AcDbLayerTableRecord
  2
2_ALL_CSYS
 70
     0
 62
     7
  6
CONTINUOUS
370
    -3
390
F
347
58E
348
0
  0
LAYER
  5
217
330
2
100
AcDbSymbolTableRecord
100
AcDbLayerTableRecord
  2
3_ALL_AXES
 70
     0
 62
     7
  6
CONTINUOUS
370
    -3
390
F
347
58E
348
0
  0
LAYER
  5
218
330
2
100
AcDbSymbolTableRecord
100
AcDbLayerTableRecord
  2
4_ALL_POINTS
 70
     0
 62
     7
  6
CONTINUOUS
370
    -3
390
F
347
58E
348
0
  0
LAYER
  5
219
330
2
100
AcDbSymbolTableRecord
100
AcDbLayerTableRecord
  2
5_ALL_CURVES
 70
     0
 62
     7
  6
CONTINUOUS
370
    -3
390
F
347
58E
348
0
  0
LAYER
  5
21A
330
2
100
AcDbSymbolTableRecord
100
AcDbLayerTableRecord
  2
5__COSTRUZIONE
 70
     0
 62
     7
  6
CONTINUOUS
370
    -3
390
F
347
58E
348
0
  0
LAYER
  5
21B
330
2
100
AcDbSymbolTableRecord
100
AcDbLayerTableRecord
  2
6_ALL_SURFS
 70
     0
 62
     7
  6
CONTINUOUS
370
    -3
390
F
347
58E
348
0
  0
LAYER
  5
21C
330
2
100
AcDbSymbolTableRecord
100
AcDbLayerTableRecord
  2
7_ALL_FEATURES
 70
     0
 62
     7
  6
CONTINUOUS
370
    -3
390
F
347
58E
348
0
  0
LAYER
  5
21D
330
2
100
AcDbSymbolTableRecord
100
AcDbLayerTableRecord
  2
9_SOLID
 70
     0
 62
     7
  6
CONTINUOUS
370
    -3
390
F
347
58E
348
0
  0
LAYER
  5
21E
330
2
100
AcDbSymbolTableRecord
100
AcDbLayerTableRecord
  2
XXX_SOLIDO
 70
     0
 62
     7
  6
CONTINUOUS
370
    -3
390
F
347
58E
348
0
  0
ENDTAB
  0
TABLE
  2
STYLE
  5
3
330
0
100
AcDbSymbolTable
 70
     5
  0
STYLE
  5
11
330
3
100
AcDbSymbolTableRecord
100
AcDbTextStyleTableRecord
  2
STANDARD
 70
     0
 40
0.0
 41
1.0
 50
0.0
 71
     0
 42
0.2
  3
arial.ttf
  4

  0
STYLE
  5
21F
330
3
100
AcDbSymbolTableRecord
100
AcDbTextStyleTableRecord
  2
TEXTSTYLE_1
 70
     0
 40
0.0
 41
0.8
 50
0.0
 71
     0
 42
0.2
  3
gdt
  4

  0
STYLE
  5
220
330
3
100
AcDbSymbolTableRecord
100
AcDbTextStyleTableRecord
  2
TEXTSTYLE_2
 70
     0
 40
0.0
 41
0.85
 50
0.0
 71
     0
 42
0.2
  3
gdt
  4

  0
STYLE
  5
221
330
3
100
AcDbSymbolTableRecord
100
AcDbTextStyleTableRecord
  2
TEXTSTYLE_3
 70
     0
 40
0.0
 41
2.0
 50
0.0
 71
     0
 42
0.2
  3
txt
  4

  0
STYLE
  5
222
330
3
100
AcDbSymbolTableRecord
100
AcDbTextStyleTableRecord
  2
TEXTSTYLE_4
 70
     0
 40
0.0
 41
0.85
 50
0.0
 71
     0
 42
0.2
  3
txt
  4

  0
ENDTAB
  0
TABLE
  2
VIEW
  5
6
330
0
100
AcDbSymbolTable
 70
     0
  0
ENDTAB
  0
TABLE
  2
UCS
  5
7
330
0
100
AcDbSymbolTable
 70
     0
  0
ENDTAB
  0
TABLE
  2
APPID
  5
9
330
0
100
AcDbSymbolTable
 70
     1
  0
APPID
  5
223
330
9
100
AcDbSymbolTableRecord
100
AcDbRegAppTableRecord
  2
ACAD
 70
     0
  0
ENDTAB
  0
TABLE
  2
DIMSTYLE
  5
A
330
0
100
AcDbSymbolTable
 70
     4
100
AcDbDimStyleTable
  0
DIMSTYLE
105
22E
330
A
100
AcDbSymbolTableRecord
100
AcDbDimStyleTableRecord
  2
STANDARD
 70
     0
 41
2.5
 42
0.75
 44
0.75
 47
0.01
 48
0.01
 71
     1
 73
     0
 74
     0
 77
     1
 78
     8
 79
     2
140
3.0
147
0.625
171
     1
178
     0
179
     2
271
     2
272
     2
278
    44
284
     8
340
11
341
226
342
226
343
226
344
226
  0
DIMSTYLE
105
22F
330
A
100
AcDbSymbolTableRecord
100
AcDbDimStyleTableRecord
  2
DIMSTYLE_1
 70
     0
  3
<>
 41
2.5
 42
0.75
 44
0.75
 47
0.3
 48
0.3
 73
     0
 74
     0
 77
     1
 78
     8
 79
     2
140
3.0
147
0.625
171
     1
172
     1
178
     0
179
     2
271
     2
272
     2
278
    44
284
     8
288
     1
289
     2
340
11
341
226
342
226
343
226
344
226
  0
DIMSTYLE
105
230
330
A
100
AcDbSymbolTableRecord
100
AcDbDimStyleTableRecord
  2
DIMSTYLE_2
 70
     0
 41
2.5
 42
0.75
 44
0.75
 47
0.3
 48
0.3
 73
     0
 74
     0
 77
     1
 78
     8
 79
     2
140
3.0
147
0.75
171
     1
178
     0
179
     2
271
     2
272
     2
278
    44
284
     8
340
11
341
226
342
226
343
226
344
226
  0
DIMSTYLE
105
231
330
A
100
AcDbSymbolTableRecord
100
AcDbDimStyleTableRecord
  2
DIMSTYLE_3
 70
     0
 41
2.5
 42
0.75
 44
0.75
 47
0.1
 48
0.1
 73
     0
 74
     0
 77
     1
 78
     8
 79
     2
140
3.0
147
0.75
171
     1
178
     0
179
     2
271
     2
272
     2
278
    44
284
     8
340
11
341
226
342
226
343
226
344
226
  0
ENDTAB
  0
TABLE
  2
BLOCK_RECORD
  5
1
330
0
100
AcDbSymbolTable
 70
     8
  0
BLOCK_RECORD
  5
224
330
1
100
AcDbSymbolTableRecord
100
AcDbBlockTableRecord
  2
*Model_Space
340
54E
 70
     0
280
     1
281
     0
  0
BLOCK_RECORD
  5
225
330
1
100
AcDbSymbolTableRecord
100
AcDbBlockTableRecord
  2
*Paper_Space
340
54F
 70
     0
280
     1
281
     0
  0
BLOCK_RECORD
  5
226
330
1
100
AcDbSymbolTableRecord
100
AcDbBlockTableRecord
  2
_CLOSED
340
0
102
{BLKREFS
331
281
331
289
331
28A
331
292
331
293
331
29D
331
29E
331
2A6
331
2A7
102
}
 70
     0
280
     1
281
     0
  0
BLOCK_RECORD
  5
227
330
1
100
AcDbSymbolTableRecord
100
AcDbBlockTableRecord
  2
*D1
340
0
 70
     0
280
     1
281
     0
  0
BLOCK_RECORD
  5
228
330
1
100
AcDbSymbolTableRecord
100
AcDbBlockTableRecord
  2
*D2
340
0
 70
     0
280
     1
281
     0
  0
BLOCK_RECORD
  5
229
330
1
100
AcDbSymbolTableRecord
100
AcDbBlockTableRecord
  2
*D3
340
0
 70
     0
280
     1
281
     0
  0
BLOCK_RECORD
  5
22A
330
1
100
AcDbSymbolTableRecord
100
AcDbBlockTableRecord
  2
*D4
340
0
 70
     0
280
     1
281
     0
  0
BLOCK_RECORD
  5
22B
330
1
100
AcDbSymbolTableRecord
100
AcDbBlockTableRecord
  2
*D5
340
0
 70
     0
280
     1
281
     0
  0
BLOCK_RECORD
  5
22C
330
1
100
AcDbSymbolTableRecord
100
AcDbBlockTableRecord
  2
LOGO2_BL1
340
0
102
{BLKREFS
331
53C
102
}
 70
     0
280
     1
281
     0
  0
BLOCK_RECORD
  5
22D
330
1
100
AcDbSymbolTableRecord
100
AcDbBlockTableRecord
  2
PROIEZIONE_EU_BL0
340
0
102
{BLKREFS
331
539
102
}
 70
     0
280
     1
281
     0
  0
ENDTAB
  0
ENDSEC
  0
SECTION
  2
BLOCKS
  0
BLOCK
  5
20
330
224
100
AcDbEntity
  8
0
100
AcDbBlockBegin
  2
*Model_Space
 70
     0
 10
0.0
 20
0.0
 30
0.0
  3
*Model_Space
  1

  0
ENDBLK
  5
21
330
224
100
AcDbEntity
  8
0
100
AcDbBlockEnd
  0
BLOCK
  5
1C
330
225
100
AcDbEntity
 67
     1
  8
0
100
AcDbBlockBegin
  2
*Paper_Space
 70
     0
 10
0.0
 20
0.0
 30
0.0
  3
*Paper_Space
  1

  0
ENDBLK
  5
1D
330
225
100
AcDbEntity
 67
     1
  8
0
100
AcDbBlockEnd
  0
BLOCK
  5
278
330
226
100
AcDbEntity
  8
0
100
AcDbBlockBegin
  2
_CLOSED
 70
     0
 10
0.0
 20
0.0
 30
0.0
  3
_CLOSED
  1

  0
LINE
  5
279
330
226
100
AcDbEntity
  8
0
  6
ByBlock
 62
     0
100
AcDbLine
 10
0.0
 20
0.0
 30
0.0
 11
-1.0
 21
0.2
 31
0.0
  0
LINE
  5
27A
330
226
100
AcDbEntity
  8
0
  6
ByBlock
 62
     0
100
AcDbLine
 10
-1.0
 20
0.2
 30
0.0
 11
-1.0
 21
-0.2
 31
0.0
  0
LINE
  5
27B
330
226
100
AcDbEntity
  8
0
  6
ByBlock
 62
     0
100
AcDbLine
 10
-1.0
 20
-0.2
 30
0.0
 11
0.0
 21
0.0
 31
0.0
  0
LINE
  5
27C
330
226
100
AcDbEntity
  8
0
  6
ByBlock
 62
     0
100
AcDbLine
 10
-1.0
 20
0.0
 30
0.0
 11
0.0
 21
0.0
 31
0.0
  0
ENDBLK
  5
27D
330
226
100
AcDbEntity
  8
0
  6
ByBlock
 62
     0
100
AcDbBlockEnd
  0
BLOCK
  5
27E
330
227
100
AcDbEntity
  8
0
100
AcDbBlockBegin
  2
*D1
 70
     1
 10
0.0
 20
0.0
 30
0.0
  3
*D1
  1

  0
MTEXT
  5
27F
330
227
100
AcDbEntity
  8
0
  6
Continuous
 62
     2
100
AcDbMText
 10
55.6975419724
 20
172.5076733878
 30
0.0
 40
3.0
 41
8.6617100372
 46
0.0
 71
     3
 72
     1
  1
{\Fgdt;n}\Farial.ttf;69
  7
TEXTSTYLE_2
 11
0.816499685
 21
-0.5773458793
 31
0.0
 73
     1
 44
0.9
  0
LINE
  5
280
330
227
100
AcDbEntity
  8
0
  6
Continuous
 62
     2
100
AcDbLine
 10
60.5467297907
 20
164.4860430979
 30
0.0
 11
46.4602114079
 21
174.4466021668
 31
0.0
  0
INSERT
  5
281
330
227
100
AcDbEntity
  8
0
  6
Continuous
 62
     2
100
AcDbBlockReference
  2
_CLOSED
 10
60.5467297907
 20
164.4860430979
 30
0.0
 41
2.5
 42
2.5
 43
2.5
 50
324.7359183656999
  0
ENDBLK
  5
282
330
227
100
AcDbEntity
  8
0
  6
ByBlock
 62
     0
100
AcDbBlockEnd
  0
BLOCK
  5
283
330
228
100
AcDbEntity
  8
0
100
AcDbBlockBegin
  2
*D2
 70
     1
 10
0.0
 20
0.0
 30
0.0
  3
*D2
  1

  0
MTEXT
  5
284
330
228
100
AcDbEntity
  8
0
  6
Continuous
 62
     2
100
AcDbMText
 10
40.8415042083
 20
67.5411008137
 30
0.0
 40
3.0
 41
10.4832713755
 46
0.0
 71
     2
 72
     1
  1
48,33
 11
0.0
 21
1.0
 31
0.0
 73
     1
 44
0.9
  0
LINE
  5
285
330
228
100
AcDbEntity
  8
0
  6
Continuous
 62
     2
100
AcDbLine
 10
62.7824692464
 20
91.7083543348
 30
0.0
 11
43.8415042083
 21
91.7083543348
 31
0.0
  0
LINE
  5
286
330
228
100
AcDbEntity
  8
0
  6
Continuous
 62
     2
100
AcDbLine
 10
58.8627366506
 20
43.3738472926
 30
0.0
 11
43.8415042083
 21
43.3738472926
 31
0.0
  0
LINE
  5
287
330
228
100
AcDbEntity
  8
0
  6
Continuous
 62
     2
100
AcDbLine
 10
44.5915042083
 20
91.7083543348
 30
0.0
 11
44.5915042083
 21
67.5411008137
 31
0.0
  0
LINE
  5
288
330
228
100
AcDbEntity
  8
0
  6
Continuous
 62
     2
100
AcDbLine
 10
44.5915042083
 20
43.3738472926
 30
0.0
 11
44.5915042083
 21
67.5411008137
 31
0.0
  0
INSERT
  5
289
330
228
100
AcDbEntity
  8
0
  6
Continuous
 62
     2
100
AcDbBlockReference
  2
_CLOSED
 10
44.5915042083
 20
91.7083543348
 30
0.0
 41
2.5
 42
2.5
 43
2.5
 50
90.0
  0
INSERT
  5
28A
330
228
100
AcDbEntity
  8
0
  6
Continuous
 62
     2
100
AcDbBlockReference
  2
_CLOSED
 10
44.5915042083
 20
43.3738472926
 30
0.0
 41
2.5
 42
2.5
 43
2.5
 50
270.0
  0
ENDBLK
  5
28B
330
228
100
AcDbEntity
  8
0
  6
ByBlock
 62
     0
100
AcDbBlockEnd
  0
BLOCK
  5
28C
330
229
100
AcDbEntity
  8
0
100
AcDbBlockBegin
  2
*D3
 70
     1
 10
0.0
 20
0.0
 30
0.0
  3
*D3
  1

  0
MTEXT
  5
28D
330
229
100
AcDbEntity
  8
0
  6
Continuous
 62
     2
100
AcDbMText
 10
28.9124416637
 20
61.9333543348
 30
0.0
 40
3.0
 41
10.4832713755
 46
0.0
 71
     2
 72
     1
  1
59,55
 11
0.0
 21
1.0
 31
0.0
 73
     1
 44
0.9
  0
LINE
  5
28E
330
229
100
AcDbEntity
  8
0
  6
Continuous
 62
     2
100
AcDbLine
 10
59.6036303254
 20
32.1583543348
 30
0.0
 11
31.9124416637
 21
32.1583543348
 31
0.0
  0
LINE
  5
28F
330
229
100
AcDbEntity
  8
0
  6
Continuous
 62
     2
100
AcDbLine
 10
61.184021193
 20
91.7083543348
 30
0.0
 11
31.9124416637
 21
91.7083543348
 31
0.0
  0
LINE
  5
290
330
229
100
AcDbEntity
  8
0
  6
Continuous
 62
     2
100
AcDbLine
 10
32.6624416637
 20
32.1583543348
 30
0.0
 11
32.6624416637
 21
61.9333543348
 31
0.0
  0
LINE
  5
291
330
229
100
AcDbEntity
  8
0
  6
Continuous
 62
     2
100
AcDbLine
 10
32.6624416637
 20
91.7083543348
 30
0.0
 11
32.6624416637
 21
61.9333543348
 31
0.0
  0
INSERT
  5
292
330
229
100
AcDbEntity
  8
0
  6
Continuous
 62
     2
100
AcDbBlockReference
  2
_CLOSED
 10
32.6624416637
 20
32.1583543348
 30
0.0
 41
2.5
 42
2.5
 43
2.5
 50
270.0
  0
INSERT
  5
293
330
229
100
AcDbEntity
  8
0
  6
Continuous
 62
     2
100
AcDbBlockReference
  2
_CLOSED
 10
32.6624416637
 20
91.7083543348
 30
0.0
 41
2.5
 42
2.5
 43
2.5
 50
90.0
  0
ENDBLK
  5
294
330
229
100
AcDbEntity
  8
0
  6
ByBlock
 62
     0
100
AcDbBlockEnd
  0
BLOCK
  5
295
330
22A
100
AcDbEntity
  8
0
100
AcDbBlockBegin
  2
*D4
 70
     1
 10
0.0
 20
0.0
 30
0.0
  3
*D4
  1

  0
MTEXT
  5
296
330
22A
100
AcDbEntity
  8
0
  6
Continuous
 62
     2
100
AcDbMText
 10
127.0642940935
 20
39.7642225048
 30
0.0
 40
3.0
 41
5.8215613383
 46
0.0
 71
     3
 72
     1
  1
1,5
 11
0.0
 21
1.0
 31
0.0
 73
     1
 44
0.9
  0
LINE
  5
297
330
22A
100
AcDbEntity
  8
0
  6
Continuous
 62
     2
100
AcDbLine
 10
123.9659689238
 20
44.8738472926
 30
0.0
 11
131.5642940935
 21
44.8738472926
 31
0.0
  0
LINE
  5
298
330
22A
100
AcDbEntity
  8
0
  6
Continuous
 62
     2
100
AcDbLine
 10
123.6385650235
 20
43.3738472926
 30
0.0
 11
131.5642940935
 21
43.3738472926
 31
0.0
  0
LINE
  5
299
330
22A
100
AcDbEntity
  8
0
  6
Continuous
 62
     2
100
AcDbLine
 10
130.8142940935
 20
44.8738472926
 30
0.0
 11
130.8142940935
 21
45.8738472926
 31
0.0
  0
LINE
  5
29A
330
22A
100
AcDbEntity
  8
0
  6
Continuous
 62
     2
100
AcDbLine
 10
130.8142940935
 20
45.8738472926
 30
0.0
 11
130.8142940935
 21
44.1238472926
 31
0.0
  0
LINE
  5
29B
330
22A
100
AcDbEntity
  8
0
  6
Continuous
 62
     2
100
AcDbLine
 10
130.8142940935
 20
43.3738472926
 30
0.0
 11
130.8142940935
 21
33.9426611665
 31
0.0
  0
LINE
  5
29C
330
22A
100
AcDbEntity
  8
0
  6
Continuous
 62
     2
100
AcDbLine
 10
130.8142940935
 20
33.9426611665
 30
0.0
 11
130.8142940935
 21
44.1238472926
 31
0.0
  0
INSERT
  5
29D
330
22A
100
AcDbEntity
  8
0
  6
Continuous
 62
     2
100
AcDbBlockReference
  2
_CLOSED
 10
130.8142940935
 20
44.8738472926
 30
0.0
 41
2.5
 42
2.5
 43
2.5
 50
270.0
  0
INSERT
  5
29E
330
22A
100
AcDbEntity
  8
0
  6
Continuous
 62
     2
100
AcDbBlockReference
  2
_CLOSED
 10
130.8142940935
 20
43.3738472926
 30
0.0
 41
2.5
 42
2.5
 43
2.5
 50
90.0
  0
ENDBLK
  5
29F
330
22A
100
AcDbEntity
  8
0
  6
ByBlock
 62
     0
100
AcDbBlockEnd
  0
BLOCK
  5
2A0
330
22B
100
AcDbEntity
  8
0
100
AcDbBlockBegin
  2
*D5
 70
     1
 10
0.0
 20
0.0
 30
0.0
  3
*D5
  1

  0
MTEXT
  5
2A1
330
22B
100
AcDbEntity
  8
0
  6
Continuous
 62
     2
100
AcDbMText
 10
163.8785373963
 20
144.5676102614
 30
0.0
 40
3.0
 41
12.1524163569
 46
0.0
 71
     2
 72
     1
  1
{\Fgdt;n}\Farial.ttf;57,3
  7
TEXTSTYLE_2
 11
0.0
 21
1.0
 31
0.0
 73
     1
 44
0.9
  0
LINE
  5
2A2
330
22B
100
AcDbEntity
  8
0
  6
Continuous
 62
     2
100
AcDbLine
 10
188.7343764117
 20
173.2176102614
 30
0.0
 11
166.8785373963
 21
173.2176102614
 31
0.0
  0
LINE
  5
2A3
330
22B
100
AcDbEntity
  8
0
  6
Continuous
 62
     2
100
AcDbLine
 10
186.4508791925
 20
115.9176102614
 30
0.0
 11
166.8785373963
 21
115.9176102614
 31
0.0
  0
LINE
  5
2A4
330
22B
100
AcDbEntity
  8
0
  6
Continuous
 62
     2
100
AcDbLine
 10
167.6285373963
 20
173.2176102614
 30
0.0
 11
167.6285373963
 21
144.5676102614
 31
0.0
  0
LINE
  5
2A5
330
22B
100
AcDbEntity
  8
0
  6
Continuous
 62
     2
100
AcDbLine
 10
167.6285373963
 20
115.9176102614
 30
0.0
 11
167.6285373963
 21
144.5676102614
 31
0.0
  0
INSERT
  5
2A6
330
22B
100
AcDbEntity
  8
0
  6
Continuous
 62
     2
100
AcDbBlockReference
  2
_CLOSED
 10
167.6285373963
 20
173.2176102614
 30
0.0
 41
2.5
 42
2.5
 43
2.5
 50
90.0
  0
INSERT
  5
2A7
330
22B
100
AcDbEntity
  8
0
  6
Continuous
 62
     2
100
AcDbBlockReference
  2
_CLOSED
 10
167.6285373963
 20
115.9176102614
 30
0.0
 41
2.5
 42
2.5
 43
2.5
 50
270.0
  0
ENDBLK
  5
2A8
330
22B
100
AcDbEntity
  8
0
  6
ByBlock
 62
     0
100
AcDbBlockEnd
  0
BLOCK
  5
232
330
22C
100
AcDbEntity
  8
0
100
AcDbBlockBegin
  2
LOGO2_BL1
 70
     0
 10
167.8332771924
 20
44.9839440915
 30
0.0
  3
LOGO2_BL1
  1

  0
LINE
  5
233
330
22C
100
AcDbEntity
  8
0
  6
Continuous
 62
     7
100
AcDbLine
 10
159.5762024206
 20
48.1794354304
 30
0.0
 11
158.2718614913
 21
48.1794354304
 31
0.0
  0
LINE
  5
234
330
22C
100
AcDbEntity
  8
0
  6
Continuous
 62
     7
100
AcDbLine
 10
158.2718614913
 20
48.1794354304
 30
0.0
 11
158.2718614913
 21
37.7203693705
 31
0.0
  0
LINE
  5
235
330
22C
100
AcDbEntity
  8
0
  6
Continuous
 62
     7
100
AcDbLine
 10
158.2718614913
 20
37.7203693705
 30
0.0
 11
162.7529163795
 21
37.7203693705
 31
0.0
  0
LINE
  5
236
330
22C
100
AcDbEntity
  8
0
  6
Continuous
 62
     7
100
AcDbLine
 10
162.7529163795
 20
37.7203693705
 30
0.0
 11
162.7529163795
 21
38.9132236956
 31
0.0
  0
LINE
  5
237
330
22C
100
AcDbEntity
  8
0
  6
Continuous
 62
     7
100
AcDbLine
 10
162.7529163795
 20
38.9132236956
 30
0.0
 11
159.5762024206
 21
38.9132236956
 31
0.0
  0
LINE
  5
238
330
22C
100
AcDbEntity
  8
0
  6
Continuous
 62
     7
100
AcDbLine
 10
159.5762024206
 20
38.9132236956
 30
0.0
 11
159.5762024206
 21
48.1794354304
 31
0.0
  0
LINE
  5
239
330
22C
100
AcDbEntity
  8
0
  6
Continuous
 62
     7
100
AcDbLine
 10
174.5125286369
 20
48.1794354304
 30
0.0
 11
173.2087111188
 21
48.1794354304
 31
0.0
  0
LINE
  5
23A
330
22C
100
AcDbEntity
  8
0
  6
Continuous
 62
     7
100
AcDbLine
 10
173.2087111188
 20
48.1794354304
 30
0.0
 11
173.2087111188
 21
37.7203693705
 31
0.0
  0
LINE
  5
23B
330
22C
100
AcDbEntity
  8
0
  6
Continuous
 62
     7
100
AcDbLine
 10
173.2087111188
 20
37.7203693705
 30
0.0
 11
177.6898968599
 21
37.7203693705
 31
0.0
  0
LINE
  5
23C
330
22C
100
AcDbEntity
  8
0
  6
Continuous
 62
     7
100
AcDbLine
 10
177.6898968599
 20
37.7203693705
 30
0.0
 11
177.6898968599
 21
38.9132236956
 31
0.0
  0
LINE
  5
23D
330
22C
100
AcDbEntity
  8
0
  6
Continuous
 62
     7
100
AcDbLine
 10
177.6898968599
 20
38.9132236956
 30
0.0
 11
174.5125286369
 21
38.9132236956
 31
0.0
  0
LINE
  5
23E
330
22C
100
AcDbEntity
  8
0
  6
Continuous
 62
     7
100
AcDbLine
 10
174.5125286369
 20
38.9132236956
 30
0.0
 11
174.5125286369
 21
48.1794354304
 31
0.0
  0
LWPOLYLINE
  5
23F
330
22C
100
AcDbEntity
  8
0
  6
Continuous
 62
     7
100
AcDbPolyline
 90
        2
 70
     0
 43
0.2
 10
156.6262564022
 20
34.3768180636
 10
156.6262564022
 20
32.5197548143
  0
LWPOLYLINE
  5
240
330
22C
100
AcDbEntity
  8
0
  6
Continuous
 62
     7
100
AcDbPolyline
 90
        2
 70
     0
 43
0.2
 10
156.6262564022
 20
32.5197548143
 10
157.4219724126
 20
32.5197548143
  0
LWPOLYLINE
  5
241
330
22C
100
AcDbEntity
  8
0
  6
Continuous
 62
     7
100
AcDbPolyline
 90
        2
 70
     0
 43
0.2
 10
157.4219724126
 20
32.5197548143
 10
157.4219724126
 20
32.7317363858
  0
LWPOLYLINE
  5
242
330
22C
100
AcDbEntity
  8
0
  6
Continuous
 62
     7
100
AcDbPolyline
 90
        2
 70
     0
 43
0.2
 10
157.4219724126
 20
32.7317363858
 10
156.8578658971
 20
32.7317363858
  0
LWPOLYLINE
  5
243
330
22C
100
AcDbEntity
  8
0
  6
Continuous
 62
     7
100
AcDbPolyline
 90
        2
 70
     0
 43
0.2
 10
156.8578658971
 20
32.7317363858
 10
156.8578658971
 20
34.3768180636
  0
LWPOLYLINE
  5
244
330
22C
100
AcDbEntity
  8
0
  6
Continuous
 62
     7
100
AcDbPolyline
 90
        2
 70
     0
 43
0.2
 10
156.8578658971
 20
34.3768180636
 10
156.6262564022
 20
34.3768180636
  0
SPLINE
  5
245
330
22C
100
AcDbEntity
  8
0
  6
Continuous
 62
     7
100
AcDbSpline
 70
     3
 71
     3
 72
    35
 73
    31
 74
     0
 42
0.000000001
 43
0.0000001
 40
0.0
 40
0.0
 40
0.0
 40
0.0
 40
1.0
 40
1.0
 40
1.0
 40
2.0
 40
2.0
 40
2.0
 40
3.0
 40
3.0
 40
3.0
 40
4.0
 40
4.0
 40
4.0
 40
5.0
 40
5.0
 40
5.0
 40
6.0
 40
6.0
 40
6.0
 40
7.0
 40
7.0
 40
7.0
 40
8.0
 40
8.0
 40
8.0
 40
9.0
 40
9.0
 40
9.0
 40
10.0
 40
10.0
 40
10.0
 40
10.0
 10
158.8202656681
 20
33.6723064701
 30
0.0
 10
158.8202656681
 20
33.6723064701
 30
0.0
 10
158.8202656681
 20
33.010191191
 30
0.0
 10
158.8202656681
 20
33.010191191
 30
0.0
 10
158.8202656681
 20
32.6950975957
 30
0.0
 10
158.9681293569
 20
32.4804989677
 30
0.0
 10
159.3082158412
 20
32.4804989677
 30
0.0
 10
159.6477789142
 20
32.4804989677
 30
0.0
 10
159.7959043087
 20
32.6950975957
 30
0.0
 10
159.7959043087
 20
33.010191191
 30
0.0
 10
159.7959043087
 20
33.010191191
 30
0.0
 10
159.7959043087
 20
33.6723064701
 30
0.0
 10
159.7959043087
 20
33.6723064701
 30
0.0
 10
159.7959043087
 20
33.6723064701
 30
0.0
 10
159.5738470698
 20
33.6723064701
 30
0.0
 10
159.5738470698
 20
33.6723064701
 30
0.0
 10
159.5738470698
 20
33.6723064701
 30
0.0
 10
159.5738470698
 20
33.0353149328
 30
0.0
 10
159.5738470698
 20
33.0353149328
 30
0.0
 10
159.5738470698
 20
32.8495039256
 30
0.0
 10
159.5271326124
 20
32.6867230151
 30
0.0
 10
159.3082158412
 20
32.6867230151
 30
0.0
 10
159.0887756588
 20
32.6867230151
 30
0.0
 10
159.0420612014
 20
32.8495039256
 30
0.0
 10
159.0420612014
 20
33.0353149328
 30
0.0
 10
159.0420612014
 20
33.0353149328
 30
0.0
 10
159.0420612014
 20
33.6723064701
 30
0.0
 10
159.0420612014
 20
33.6723064701
 30
0.0
 10
159.0420612014
 20
33.6723064701
 30
0.0
 10
158.8202656681
 20
33.6723064701
 30
0.0
 10
158.8202656681
 20
33.6723064701
 30
0.0
  0
SPLINE
  5
246
330
22C
100
AcDbEntity
  8
0
  6
Continuous
 62
     7
100
AcDbSpline
 70
     3
 71
     3
 72
    35
 73
    31
 74
     0
 42
0.000000001
 43
0.0000001
 40
0.0
 40
0.0
 40
0.0
 40
0.0
 40
1.0
 40
1.0
 40
1.0
 40
2.0
 40
2.0
 40
2.0
 40
3.0
 40
3.0
 40
3.0
 40
4.0
 40
4.0
 40
4.0
 40
5.0
 40
5.0
 40
5.0
 40
6.0
 40
6.0
 40
6.0
 40
7.0
 40
7.0
 40
7.0
 40
8.0
 40
8.0
 40
8.0
 40
9.0
 40
9.0
 40
9.0
 40
10.0
 40
10.0
 40
10.0
 40
10.0
 10
162.2190368659
 20
33.6309569784
 30
0.0
 10
162.1305803583
 20
33.6822512846
 30
0.0
 10
162.0171309616
 20
33.7073750264
 30
0.0
 10
161.9134955266
 20
33.7073750264
 30
0.0
 10
161.5586226734
 20
33.7073750264
 30
0.0
 10
161.2831774832
 20
33.4435757373
 30
0.0
 10
161.2831774832
 20
33.0860858277
 30
0.0
 10
161.2831774832
 20
32.741157789
 30
0.0
 10
161.5616322883
 20
32.481022379
 30
0.0
 10
161.9011953613
 20
32.481022379
 30
0.0
 10
162.0171309616
 20
32.481022379
 30
0.0
 10
162.1178876345
 20
32.503005653
 30
0.0
 10
162.2190368659
 20
32.5569170157
 30
0.0
 10
162.2190368659
 20
32.5569170157
 30
0.0
 10
162.2190368659
 20
32.8395591111
 30
0.0
 10
162.2190368659
 20
32.8395591111
 30
0.0
 10
162.135160207
 20
32.7463919019
 30
0.0
 10
162.0316556248
 20
32.6872464264
 30
0.0
 10
161.9035507121
 20
32.6872464264
 30
0.0
 10
161.6698475721
 20
32.6872464264
 30
0.0
 10
161.504580458
 20
32.8594487401
 30
0.0
 10
161.504580458
 20
33.0960306422
 30
0.0
 10
161.504580458
 20
33.3080122138
 30
0.0
 10
161.6723337757
 20
33.5001041564
 30
0.0
 10
161.8891569017
 20
33.5001041564
 30
0.0
 10
162.021972516
 20
33.5001041564
 30
0.0
 10
162.1305803583
 20
33.4461927938
 30
0.0
 10
162.2190368659
 20
33.3451744152
 30
0.0
 10
162.2190368659
 20
33.3451744152
 30
0.0
 10
162.2190368659
 20
33.6309569784
 30
0.0
 10
162.2190368659
 20
33.6309569784
 30
0.0
  0
SPLINE
  5
247
330
22C
100
AcDbEntity
  8
0
  6
Continuous
 62
     7
100
AcDbSpline
 70
     3
 71
     3
 72
    32
 73
    28
 74
     0
 42
0.000000001
 43
0.0000001
 40
0.0
 40
0.0
 40
0.0
 40
0.0
 40
1.0
 40
1.0
 40
1.0
 40
2.0
 40
2.0
 40
2.0
 40
3.0
 40
3.0
 40
3.0
 40
4.0
 40
4.0
 40
4.0
 40
5.0
 40
5.0
 40
5.0
 40
6.0
 40
6.0
 40
6.0
 40
7.0
 40
7.0
 40
7.0
 40
8.0
 40
8.0
 40
8.0
 40
9.0
 40
9.0
 40
9.0
 40
9.0
 10
164.7509081182
 20
33.0593918521
 30
0.0
 10
164.7509081182
 20
33.0593918521
 30
0.0
 10
164.7509081182
 20
33.0934135858
 30
0.0
 10
164.7509081182
 20
33.0934135858
 30
0.0
 10
164.7509081182
 20
33.435724568
 30
0.0
 10
164.5780515403
 20
33.7073750264
 30
0.0
 10
164.2114019332
 20
33.7073750264
 30
0.0
 10
163.8397799188
 20
33.7073750264
 30
0.0
 10
163.6500433269
 20
33.4409586809
 30
0.0
 10
163.6500433269
 20
33.0860858277
 30
0.0
 10
163.6500433269
 20
32.7463919019
 30
0.0
 10
163.8641185437
 20
32.4804989677
 30
0.0
 10
164.2162434876
 20
32.4804989677
 30
0.0
 10
164.4402635188
 20
32.4804989677
 30
0.0
 10
164.6424311287
 20
32.5961728623
 30
0.0
 10
164.7509081182
 20
32.795592563
 30
0.0
 10
164.7509081182
 20
32.795592563
 30
0.0
 10
164.5632651715
 20
32.9023684657
 30
0.0
 10
164.5632651715
 20
32.9023684657
 30
0.0
 10
164.479781071
 20
32.7636644744
 30
0.0
 10
164.3885766541
 20
32.6778250232
 30
0.0
 10
164.2189913969
 20
32.6778250232
 30
0.0
 10
164.0070098253
 20
32.6778250232
 30
0.0
 10
163.8740633582
 20
32.8625892078
 30
0.0
 10
163.8717080074
 20
33.0593918521
 30
0.0
 10
163.8717080074
 20
33.0593918521
 30
0.0
 10
164.7509081182
 20
33.0593918521
 30
0.0
 10
164.7509081182
 20
33.0593918521
 30
0.0
  0
SPLINE
  5
248
330
22C
100
AcDbEntity
  8
0
  6
Continuous
 62
     7
100
AcDbSpline
 70
     3
 71
     3
 72
    14
 73
    10
 74
     0
 42
0.000000001
 43
0.0000001
 40
0.0
 40
0.0
 40
0.0
 40
0.0
 40
1.0
 40
1.0
 40
1.0
 40
2.0
 40
2.0
 40
2.0
 40
3.0
 40
3.0
 40
3.0
 40
3.0
 10
163.883746467
 20
33.2268834642
 30
0.0
 10
163.9113564124
 20
33.3917580198
 30
0.0
 10
164.0391996195
 20
33.5147596725
 30
0.0
 10
164.2114019332
 20
33.5147596725
 30
0.0
 10
164.3885766541
 20
33.5147596725
 30
0.0
 10
164.5020260508
 20
33.3990857779
 30
0.0
 10
164.5292434377
 20
33.2268834642
 30
0.0
 10
164.5292434377
 20
33.2268834642
 30
0.0
 10
163.883746467
 20
33.2268834642
 30
0.0
 10
163.883746467
 20
33.2268834642
 30
0.0
  0
SPLINE
  5
249
330
22C
100
AcDbEntity
  8
0
  6
Continuous
 62
     7
100
AcDbSpline
 70
     3
 71
     3
 72
    20
 73
    16
 74
     0
 42
0.000000001
 43
0.0000001
 40
0.0
 40
0.0
 40
0.0
 40
0.0
 40
1.0
 40
1.0
 40
1.0
 40
2.0
 40
2.0
 40
2.0
 40
3.0
 40
3.0
 40
3.0
 40
4.0
 40
4.0
 40
4.0
 40
5.0
 40
5.0
 40
5.0
 40
5.0
 10
166.7749395683
 20
33.4362479793
 30
0.0
 10
166.7749395683
 20
33.4362479793
 30
0.0
 10
167.186079135
 20
32.933773143
 30
0.0
 10
167.186079135
 20
32.933773143
 30
0.0
 10
167.0700126819
 20
32.8180992483
 30
0.0
 10
166.9322246604
 20
32.6877698377
 30
0.0
 10
166.7602840523
 20
32.6877698377
 30
0.0
 10
166.5828476257
 20
32.6877698377
 30
0.0
 10
166.4153560136
 20
32.8521209821
 30
0.0
 10
166.4153560136
 20
33.0290339974
 30
0.0
 10
166.4153560136
 20
33.2069938352
 30
0.0
 10
166.6251130872
 20
33.3331359556
 30
0.0
 10
166.7526945886
 20
33.421069052
 30
0.0
 10
166.7526945886
 20
33.421069052
 30
0.0
 10
166.7749395683
 20
33.4362479793
 30
0.0
 10
166.7749395683
 20
33.4362479793
 30
0.0
  0
SPLINE
  5
24A
330
22C
100
AcDbEntity
  8
0
  6
Continuous
 62
     7
100
AcDbSpline
 70
     3
 71
     3
 72
    23
 73
    19
 74
     0
 42
0.000000001
 43
0.0000001
 40
0.0
 40
0.0
 40
0.0
 40
0.0
 40
1.0
 40
1.0
 40
1.0
 40
2.0
 40
2.0
 40
2.0
 40
3.0
 40
3.0
 40
3.0
 40
4.0
 40
4.0
 40
4.0
 40
5.0
 40
5.0
 40
5.0
 40
6.0
 40
6.0
 40
6.0
 40
6.0
 10
166.8242710822
 20
33.7272646554
 30
0.0
 10
166.8242710822
 20
33.7272646554
 30
0.0
 10
166.7626394031
 20
33.8057763486
 30
0.0
 10
166.7626394031
 20
33.8057763486
 30
0.0
 10
166.7087280404
 20
33.8743432273
 30
0.0
 10
166.6519379157
 20
33.9434335173
 30
0.0
 10
166.6519379157
 20
34.0371241378
 30
0.0
 10
166.6519379157
 20
34.1559385001
 30
0.0
 10
166.7478530342
 20
34.2334033707
 30
0.0
 10
166.8588162272
 20
34.2334033707
 30
0.0
 10
166.9820795855
 20
34.2334033707
 30
0.0
 10
167.0753776476
 20
34.1622194356
 30
0.0
 10
167.0753776476
 20
34.0318900249
 30
0.0
 10
167.0753776476
 20
33.8968499126
 30
0.0
 10
166.9472727349
 20
33.8204318646
 30
0.0
 10
166.8537129672
 20
33.746630873
 30
0.0
 10
166.8537129672
 20
33.746630873
 30
0.0
 10
166.8242710822
 20
33.7272646554
 30
0.0
 10
166.8242710822
 20
33.7272646554
 30
0.0
  0
SPLINE
  5
24B
330
22C
100
AcDbEntity
  8
0
  6
Continuous
 62
     7
100
AcDbSpline
 70
     3
 71
     3
 72
    50
 73
    46
 74
     0
 42
0.000000001
 43
0.0000001
 40
0.0
 40
0.0
 40
0.0
 40
0.0
 40
1.0
 40
1.0
 40
1.0
 40
2.0
 40
2.0
 40
2.0
 40
3.0
 40
3.0
 40
3.0
 40
4.0
 40
4.0
 40
4.0
 40
5.0
 40
5.0
 40
5.0
 40
6.0
 40
6.0
 40
6.0
 40
7.0
 40
7.0
 40
7.0
 40
8.0
 40
8.0
 40
8.0
 40
9.0
 40
9.0
 40
9.0
 40
10.0
 40
10.0
 40
10.0
 40
11.0
 40
11.0
 40
11.0
 40
12.0
 40
12.0
 40
12.0
 40
13.0
 40
13.0
 40
13.0
 40
14.0
 40
14.0
 40
14.0
 40
15.0
 40
15.0
 40
15.0
 40
15.0
 10
167.5264273249
 20
32.5202782255
 30
0.0
 10
167.5264273249
 20
32.5202782255
 30
0.0
 10
167.8118173296
 20
32.5202782255
 30
0.0
 10
167.8118173296
 20
32.5202782255
 30
0.0
 10
167.8118173296
 20
32.5202782255
 30
0.0
 10
167.4794511618
 20
32.9311560865
 30
0.0
 10
167.4794511618
 20
32.9311560865
 30
0.0
 10
167.4794511618
 20
32.9311560865
 30
0.0
 10
167.7059573966
 20
33.1970490208
 30
0.0
 10
167.7059573966
 20
33.1970490208
 30
0.0
 10
167.7059573966
 20
33.1970490208
 30
0.0
 10
167.5577011494
 20
33.3498851168
 30
0.0
 10
167.5577011494
 20
33.3498851168
 30
0.0
 10
167.5577011494
 20
33.3498851168
 30
0.0
 10
167.3417939931
 20
33.0986476986
 30
0.0
 10
167.3417939931
 20
33.0986476986
 30
0.0
 10
167.3417939931
 20
33.0986476986
 30
0.0
 10
166.9547313457
 20
33.56657739
 30
0.0
 10
166.9547313457
 20
33.56657739
 30
0.0
 10
167.1101844982
 20
33.6806810508
 30
0.0
 10
167.2924624792
 20
33.8204318646
 30
0.0
 10
167.2924624792
 20
34.0297963798
 30
0.0
 10
167.2924624792
 20
34.2737060399
 30
0.0
 10
167.0904257221
 20
34.4171207328
 30
0.0
 10
166.8639194873
 20
34.4171207328
 30
0.0
 10
166.6197481215
 20
34.4171207328
 30
0.0
 10
166.4353764953
 20
34.2663782819
 30
0.0
 10
166.4353764953
 20
34.0099067508
 30
0.0
 10
166.4353764953
 20
33.8523599532
 30
0.0
 10
166.5340395231
 20
33.7147027845
 30
0.0
 10
166.6393760448
 20
33.6037395914
 30
0.0
 10
166.6393760448
 20
33.6037395914
 30
0.0
 10
166.523833003
 20
33.5199937854
 30
0.0
 10
166.523833003
 20
33.5199937854
 30
0.0
 10
166.3461348708
 20
33.3917580198
 30
0.0
 10
166.1987945932
 20
33.2640456656
 30
0.0
 10
166.1987945932
 20
33.0269403522
 30
0.0
 10
166.1987945932
 20
32.706612644
 30
0.0
 10
166.4573597694
 20
32.4804989677
 30
0.0
 10
166.7677426631
 20
32.4804989677
 30
0.0
 10
166.9866594343
 20
32.4804989677
 30
0.0
 10
167.183854637
 20
32.6055942655
 30
0.0
 10
167.3241288621
 20
32.7715156437
 30
0.0
 10
167.3241288621
 20
32.7715156437
 30
0.0
 10
167.5264273249
 20
32.5202782255
 30
0.0
 10
167.5264273249
 20
32.5202782255
 30
0.0
  0
LWPOLYLINE
  5
24C
330
22C
100
AcDbEntity
  8
0
  6
Continuous
 62
     7
100
AcDbPolyline
 90
        2
 70
     0
 43
0.2
 10
169.4618714146
 20
34.3768180636
 10
169.2305236254
 20
34.3768180636
  0
LWPOLYLINE
  5
24D
330
22C
100
AcDbEntity
  8
0
  6
Continuous
 62
     7
100
AcDbPolyline
 90
        2
 70
     0
 43
0.2
 10
169.2305236254
 20
34.3768180636
 10
169.2305236254
 20
32.5197548143
  0
LWPOLYLINE
  5
24E
330
22C
100
AcDbEntity
  8
0
  6
Continuous
 62
     7
100
AcDbPolyline
 90
        2
 70
     0
 43
0.2
 10
169.2305236254
 20
32.5197548143
 10
170.0258470773
 20
32.5197548143
  0
LWPOLYLINE
  5
24F
330
22C
100
AcDbEntity
  8
0
  6
Continuous
 62
     7
100
AcDbPolyline
 90
        2
 70
     0
 43
0.2
 10
170.0258470773
 20
32.5197548143
 10
170.0258470773
 20
32.7317363858
  0
LWPOLYLINE
  5
250
330
22C
100
AcDbEntity
  8
0
  6
Continuous
 62
     7
100
AcDbPolyline
 90
        2
 70
     0
 43
0.2
 10
170.0258470773
 20
32.7317363858
 10
169.4618714146
 20
32.7317363858
  0
LWPOLYLINE
  5
251
330
22C
100
AcDbEntity
  8
0
  6
Continuous
 62
     7
100
AcDbPolyline
 90
        2
 70
     0
 43
0.2
 10
169.4618714146
 20
32.7317363858
 10
169.4618714146
 20
34.3768180636
  0
LWPOLYLINE
  5
252
330
22C
100
AcDbEntity
  8
0
  6
Continuous
 62
     7
100
AcDbPolyline
 90
        2
 70
     0
 43
0.2
 10
171.7049504888
 20
33.6723064701
 10
171.4838092197
 20
33.6723064701
  0
LWPOLYLINE
  5
253
330
22C
100
AcDbEntity
  8
0
  6
Continuous
 62
     7
100
AcDbPolyline
 90
        2
 70
     0
 43
0.2
 10
171.4838092197
 20
33.6723064701
 10
171.4838092197
 20
32.5202782255
  0
LWPOLYLINE
  5
254
330
22C
100
AcDbEntity
  8
0
  6
Continuous
 62
     7
100
AcDbPolyline
 90
        2
 70
     0
 43
0.2
 10
171.4838092197
 20
32.5202782255
 10
171.7049504888
 20
32.5202782255
  0
LWPOLYLINE
  5
255
330
22C
100
AcDbEntity
  8
0
  6
Continuous
 62
     7
100
AcDbPolyline
 90
        2
 70
     0
 43
0.2
 10
171.7049504888
 20
32.5202782255
 10
171.7049504888
 20
33.6723064701
  0
SPLINE
  5
256
330
22C
100
AcDbEntity
  8
0
  6
Continuous
 62
     7
100
AcDbSpline
 70
     3
 71
     3
 72
    17
 73
    13
 74
     0
 42
0.000000001
 43
0.0000001
 40
0.0
 40
0.0
 40
0.0
 40
0.0
 40
1.0
 40
1.0
 40
1.0
 40
2.0
 40
2.0
 40
2.0
 40
3.0
 40
3.0
 40
3.0
 40
4.0
 40
4.0
 40
4.0
 40
4.0
 10
171.5945107071
 20
34.3548347895
 30
0.0
 10
171.5105031954
 20
34.3548347895
 30
0.0
 10
171.4419363166
 20
34.2857444995
 30
0.0
 10
171.4419363166
 20
34.1999050483
 30
0.0
 10
171.4419363166
 20
34.115635831
 30
0.0
 10
171.5105031954
 20
34.0496860087
 30
0.0
 10
171.5945107071
 20
34.0496860087
 30
0.0
 10
171.6782565131
 20
34.0496860087
 30
0.0
 10
171.7470850975
 20
34.115635831
 30
0.0
 10
171.7470850975
 20
34.1999050483
 30
0.0
 10
171.7470850975
 20
34.2857444995
 30
0.0
 10
171.6782565131
 20
34.3548347895
 30
0.0
 10
171.5945107071
 20
34.3548347895
 30
0.0
  0
SPLINE
  5
257
330
22C
100
AcDbEntity
  8
0
  6
Continuous
 62
     7
100
AcDbSpline
 70
     3
 71
     3
 72
    17
 73
    13
 74
     0
 42
0.000000001
 43
0.0000001
 40
0.0
 40
0.0
 40
0.0
 40
0.0
 40
1.0
 40
1.0
 40
1.0
 40
2.0
 40
2.0
 40
2.0
 40
3.0
 40
3.0
 40
3.0
 40
4.0
 40
4.0
 40
4.0
 40
4.0
 10
173.8352344304
 20
32.6778250232
 30
0.0
 10
173.6012695848
 20
32.6778250232
 30
0.0
 10
173.4709401741
 20
32.8798617803
 30
0.0
 10
173.4709401741
 20
33.0960306422
 30
0.0
 10
173.4709401741
 20
33.3106292702
 30
0.0
 10
173.6067654033
 20
33.5095255596
 30
0.0
 10
173.8352344304
 20
33.5095255596
 30
0.0
 10
174.0746950946
 20
33.5095255596
 30
0.0
 10
174.2102586182
 20
33.3205740847
 30
0.0
 10
174.2102586182
 20
33.0960306422
 30
0.0
 10
174.2102586182
 20
32.8699169658
 30
0.0
 10
174.0770504454
 20
32.6778250232
 30
0.0
 10
173.8352344304
 20
32.6778250232
 30
0.0
  0
SPLINE
  5
258
330
22C
100
AcDbEntity
  8
0
  6
Continuous
 62
     7
100
AcDbSpline
 70
     3
 71
     3
 72
    50
 73
    46
 74
     0
 42
0.000000001
 43
0.0000001
 40
0.0
 40
0.0
 40
0.0
 40
0.0
 40
1.0
 40
1.0
 40
1.0
 40
2.0
 40
2.0
 40
2.0
 40
3.0
 40
3.0
 40
3.0
 40
4.0
 40
4.0
 40
4.0
 40
5.0
 40
5.0
 40
5.0
 40
6.0
 40
6.0
 40
6.0
 40
7.0
 40
7.0
 40
7.0
 40
8.0
 40
8.0
 40
8.0
 40
9.0
 40
9.0
 40
9.0
 40
10.0
 40
10.0
 40
10.0
 40
11.0
 40
11.0
 40
11.0
 40
12.0
 40
12.0
 40
12.0
 40
13.0
 40
13.0
 40
13.0
 40
14.0
 40
14.0
 40
14.0
 40
15.0
 40
15.0
 40
15.0
 40
15.0
 10
174.4193614277
 20
33.6728298814
 30
0.0
 10
174.4193614277
 20
33.6728298814
 30
0.0
 10
174.1976967473
 20
33.6728298814
 30
0.0
 10
174.1976967473
 20
33.6728298814
 30
0.0
 10
174.1976967473
 20
33.6728298814
 30
0.0
 10
174.1976967473
 20
33.4755038259
 30
0.0
 10
174.1976967473
 20
33.4755038259
 30
0.0
 10
174.1976967473
 20
33.4755038259
 30
0.0
 10
174.1929860457
 20
33.4755038259
 30
0.0
 10
174.1929860457
 20
33.4755038259
 30
0.0
 10
174.101650776
 20
33.6183951075
 30
0.0
 10
173.9637319016
 20
33.7068516151
 30
0.0
 10
173.7910061766
 20
33.7068516151
 30
0.0
 10
173.4586400088
 20
33.7068516151
 30
0.0
 10
173.2495371993
 20
33.4189754068
 30
0.0
 10
173.2495371993
 20
33.1033584002
 30
0.0
 10
173.2495371993
 20
32.7736092889
 30
0.0
 10
173.4466015492
 20
32.4804989677
 30
0.0
 10
173.8014744024
 20
32.4804989677
 30
0.0
 10
173.9637319016
 20
32.4804989677
 30
0.0
 10
174.1037444211
 20
32.5689554753
 30
0.0
 10
174.1929860457
 20
32.6998082973
 30
0.0
 10
174.1929860457
 20
32.6998082973
 30
0.0
 10
174.1976967473
 20
32.6998082973
 30
0.0
 10
174.1976967473
 20
32.6998082973
 30
0.0
 10
174.1976967473
 20
32.6998082973
 30
0.0
 10
174.1976967473
 20
32.4804989677
 30
0.0
 10
174.1976967473
 20
32.4804989677
 30
0.0
 10
174.1976967473
 20
32.2439170656
 30
0.0
 10
174.1411683282
 20
32.0570592358
 30
0.0
 10
173.8679476359
 20
32.0570592358
 30
0.0
 10
173.6656491732
 20
32.0570592358
 30
0.0
 10
173.5230195972
 20
32.1753501868
 30
0.0
 10
173.5230195972
 20
32.3815742343
 30
0.0
 10
173.5230195972
 20
32.3815742343
 30
0.0
 10
173.3013549168
 20
32.3815742343
 30
0.0
 10
173.3013549168
 20
32.3815742343
 30
0.0
 10
173.306327324
 20
32.0570592358
 30
0.0
 10
173.5374134076
 20
31.8602565915
 30
0.0
 10
173.8577411158
 20
31.8602565915
 30
0.0
 10
174.3057811782
 20
31.8602565915
 30
0.0
 10
174.4193614277
 20
32.1455157434
 30
0.0
 10
174.4193614277
 20
32.5422614996
 30
0.0
 10
174.4193614277
 20
32.5422614996
 30
0.0
 10
174.4193614277
 20
33.6728298814
 30
0.0
 10
174.4193614277
 20
33.6728298814
 30
0.0
  0
SPLINE
  5
259
330
22C
100
AcDbEntity
  8
0
  6
Continuous
 62
     7
100
AcDbSpline
 70
     3
 71
     3
 72
    44
 73
    40
 74
     0
 42
0.000000001
 43
0.0000001
 40
0.0
 40
0.0
 40
0.0
 40
0.0
 40
1.0
 40
1.0
 40
1.0
 40
2.0
 40
2.0
 40
2.0
 40
3.0
 40
3.0
 40
3.0
 40
4.0
 40
4.0
 40
4.0
 40
5.0
 40
5.0
 40
5.0
 40
6.0
 40
6.0
 40
6.0
 40
7.0
 40
7.0
 40
7.0
 40
8.0
 40
8.0
 40
8.0
 40
9.0
 40
9.0
 40
9.0
 40
10.0
 40
10.0
 40
10.0
 40
11.0
 40
11.0
 40
11.0
 40
12.0
 40
12.0
 40
12.0
 40
13.0
 40
13.0
 40
13.0
 40
13.0
 10
175.9882867631
 20
34.6578899252
 30
0.0
 10
175.9882867631
 20
34.6578899252
 30
0.0
 10
175.9882867631
 20
32.5197548143
 30
0.0
 10
175.9882867631
 20
32.5197548143
 30
0.0
 10
175.9882867631
 20
32.5197548143
 30
0.0
 10
176.2096897379
 20
32.5197548143
 30
0.0
 10
176.2096897379
 20
32.5197548143
 30
0.0
 10
176.2096897379
 20
32.5197548143
 30
0.0
 10
176.2096897379
 20
33.0494470376
 30
0.0
 10
176.2096897379
 20
33.0494470376
 30
0.0
 10
176.2096897379
 20
33.259334964
 30
0.0
 10
176.2096897379
 20
33.5100489709
 30
0.0
 10
176.4949488897
 20
33.5100489709
 30
0.0
 10
176.721847683
 20
33.5100489709
 30
0.0
 10
176.7488033644
 20
33.3771025038
 30
0.0
 10
176.7488033644
 20
33.1808232708
 30
0.0
 10
176.7488033644
 20
33.1808232708
 30
0.0
 10
176.7488033644
 20
32.5197548143
 30
0.0
 10
176.7488033644
 20
32.5197548143
 30
0.0
 10
176.7488033644
 20
32.5197548143
 30
0.0
 10
176.9707297504
 20
32.5197548143
 30
0.0
 10
176.9707297504
 20
32.5197548143
 30
0.0
 10
176.9707297504
 20
32.5197548143
 30
0.0
 10
176.9707297504
 20
33.2069938352
 30
0.0
 10
176.9707297504
 20
33.2069938352
 30
0.0
 10
176.9707297504
 20
33.4875422855
 30
0.0
 10
176.8867222387
 20
33.7073750264
 30
0.0
 10
176.5616838289
 20
33.7073750264
 30
0.0
 10
176.4219330151
 20
33.7073750264
 30
0.0
 10
176.2837524351
 20
33.6409017929
 30
0.0
 10
176.2144004394
 20
33.5179001402
 30
0.0
 10
176.2144004394
 20
33.5179001402
 30
0.0
 10
176.2096897379
 20
33.5179001402
 30
0.0
 10
176.2096897379
 20
33.5179001402
 30
0.0
 10
176.2096897379
 20
33.5179001402
 30
0.0
 10
176.2096897379
 20
34.6578899252
 30
0.0
 10
176.2096897379
 20
34.6578899252
 30
0.0
 10
176.2096897379
 20
34.6578899252
 30
0.0
 10
175.9882867631
 20
34.6578899252
 30
0.0
 10
175.9882867631
 20
34.6578899252
 30
0.0
  0
LWPOLYLINE
  5
25A
330
22C
100
AcDbEntity
  8
0
  6
Continuous
 62
     7
100
AcDbPolyline
 90
        2
 70
     0
 43
0.2
 10
178.8105204273
 20
33.4655590114
 10
179.0269509948
 20
33.4655590114
  0
LWPOLYLINE
  5
25B
330
22C
100
AcDbEntity
  8
0
  6
Continuous
 62
     7
100
AcDbPolyline
 90
        2
 70
     0
 43
0.2
 10
179.0269509948
 20
33.4655590114
 10
179.0269509948
 20
33.6723064701
  0
LWPOLYLINE
  5
25C
330
22C
100
AcDbEntity
  8
0
  6
Continuous
 62
     7
100
AcDbPolyline
 90
        2
 70
     0
 43
0.2
 10
179.0269509948
 20
33.6723064701
 10
178.8105204273
 20
33.6723064701
  0
LWPOLYLINE
  5
25D
330
22C
100
AcDbEntity
  8
0
  6
Continuous
 62
     7
100
AcDbPolyline
 90
        2
 70
     0
 43
0.2
 10
178.8105204273
 20
33.6723064701
 10
178.8105204273
 20
34.1130187745
  0
LWPOLYLINE
  5
25E
330
22C
100
AcDbEntity
  8
0
  6
Continuous
 62
     7
100
AcDbPolyline
 90
        2
 70
     0
 43
0.2
 10
178.8105204273
 20
34.1130187745
 10
178.5888557469
 20
34.1130187745
  0
LWPOLYLINE
  5
25F
330
22C
100
AcDbEntity
  8
0
  6
Continuous
 62
     7
100
AcDbPolyline
 90
        2
 70
     0
 43
0.2
 10
178.5888557469
 20
34.1130187745
 10
178.5888557469
 20
33.6723064701
  0
LWPOLYLINE
  5
260
330
22C
100
AcDbEntity
  8
0
  6
Continuous
 62
     7
100
AcDbPolyline
 90
        2
 70
     0
 43
0.2
 10
178.5888557469
 20
33.6723064701
 10
178.468209445
 20
33.6723064701
  0
LWPOLYLINE
  5
261
330
22C
100
AcDbEntity
  8
0
  6
Continuous
 62
     7
100
AcDbPolyline
 90
        2
 70
     0
 43
0.2
 10
178.468209445
 20
33.6723064701
 10
178.468209445
 20
33.4655590114
  0
LWPOLYLINE
  5
262
330
22C
100
AcDbEntity
  8
0
  6
Continuous
 62
     7
100
AcDbPolyline
 90
        2
 70
     0
 43
0.2
 10
178.468209445
 20
33.4655590114
 10
178.5888557469
 20
33.4655590114
  0
LWPOLYLINE
  5
263
330
22C
100
AcDbEntity
  8
0
  6
Continuous
 62
     7
100
AcDbPolyline
 90
        2
 70
     0
 43
0.2
 10
178.5888557469
 20
33.4655590114
 10
178.5888557469
 20
32.5197548143
  0
LWPOLYLINE
  5
264
330
22C
100
AcDbEntity
  8
0
  6
Continuous
 62
     7
100
AcDbPolyline
 90
        2
 70
     0
 43
0.2
 10
178.5888557469
 20
32.5197548143
 10
178.8105204273
 20
32.5197548143
  0
LWPOLYLINE
  5
265
330
22C
100
AcDbEntity
  8
0
  6
Continuous
 62
     7
100
AcDbPolyline
 90
        2
 70
     0
 43
0.2
 10
178.8105204273
 20
32.5197548143
 10
178.8105204273
 20
33.4655590114
  0
SPLINE
  5
266
330
22C
100
AcDbEntity
  8
0
  6
Continuous
 62
     7
100
AcDbSpline
 70
     3
 71
     3
 72
    20
 73
    16
 74
     0
 42
0.000000001
 43
0.0000001
 40
0.0
 40
0.0
 40
0.0
 40
0.0
 40
1.0
 40
1.0
 40
1.0
 40
2.0
 40
2.0
 40
2.0
 40
3.0
 40
3.0
 40
3.0
 40
4.0
 40
4.0
 40
4.0
 40
5.0
 40
5.0
 40
5.0
 40
5.0
 10
166.5925307345
 20
42.8806812576
 30
0.0
 10
166.5925307345
 20
42.8806812576
 30
0.0
 10
168.908887389
 20
40.0511198354
 30
0.0
 10
168.908887389
 20
40.0511198354
 30
0.0
 10
168.2572403356
 20
39.3989493707
 30
0.0
 10
167.4803671316
 20
38.6630331
 30
0.0
 10
166.5091774869
 20
38.6630331
 30
0.0
 10
165.5106396025
 20
38.6630331
 30
0.0
 10
164.5673216089
 20
39.5926115472
 30
0.0
 10
164.5673216089
 20
40.5918036958
 30
0.0
 10
164.5673216089
 20
41.5909958443
 30
0.0
 10
165.746174682
 20
42.297601083
 30
0.0
 10
166.4676971424
 20
42.7974588629
 30
0.0
 10
166.4676971424
 20
42.7974588629
 30
0.0
 10
166.5925307345
 20
42.8806812576
 30
0.0
 10
166.5925307345
 20
42.8806812576
 30
0.0
  0
SPLINE
  5
267
330
22C
100
AcDbEntity
  8
0
  6
Continuous
 62
     7
100
AcDbSpline
 70
     3
 71
     3
 72
    23
 73
    19
 74
     0
 42
0.000000001
 43
0.0000001
 40
0.0
 40
0.0
 40
0.0
 40
0.0
 40
1.0
 40
1.0
 40
1.0
 40
2.0
 40
2.0
 40
2.0
 40
3.0
 40
3.0
 40
3.0
 40
4.0
 40
4.0
 40
4.0
 40
5.0
 40
5.0
 40
5.0
 40
6.0
 40
6.0
 40
6.0
 40
6.0
 10
166.8699387171
 20
44.5184351774
 30
0.0
 10
166.8699387171
 20
44.5184351774
 30
0.0
 10
166.5234404445
 20
44.9617645382
 30
0.0
 10
166.5234404445
 20
44.9617645382
 30
0.0
 10
166.2176373996
 20
45.3498740082
 30
0.0
 10
165.8987490725
 20
45.7383760366
 30
0.0
 10
165.8987490725
 20
46.2653203507
 30
0.0
 10
165.8987490725
 20
46.9314920673
 30
0.0
 10
166.4400871969
 20
47.3752139866
 30
0.0
 10
167.0639934521
 20
47.3752139866
 30
0.0
 10
167.7577751141
 20
47.3752139866
 30
0.0
 10
168.2849811339
 20
46.9729724119
 30
0.0
 10
168.2849811339
 20
46.2379721109
 30
0.0
 10
168.2849811339
 20
45.4747076003
 30
0.0
 10
167.5637203792
 20
45.0445943745
 30
0.0
 10
167.0366452123
 20
44.6288749591
 30
0.0
 10
167.0366452123
 20
44.6288749591
 30
0.0
 10
166.8699387171
 20
44.5184351774
 30
0.0
 10
166.8699387171
 20
44.5184351774
 30
0.0
  0
SPLINE
  5
268
330
22C
100
AcDbEntity
  8
0
  6
Continuous
 62
     7
100
AcDbSpline
 70
     3
 71
     3
 72
    50
 73
    46
 74
     0
 42
0.000000001
 43
0.0000001
 40
0.0
 40
0.0
 40
0.0
 40
0.0
 40
1.0
 40
1.0
 40
1.0
 40
2.0
 40
2.0
 40
2.0
 40
3.0
 40
3.0
 40
3.0
 40
4.0
 40
4.0
 40
4.0
 40
5.0
 40
5.0
 40
5.0
 40
6.0
 40
6.0
 40
6.0
 40
7.0
 40
7.0
 40
7.0
 40
8.0
 40
8.0
 40
8.0
 40
9.0
 40
9.0
 40
9.0
 40
10.0
 40
10.0
 40
10.0
 40
11.0
 40
11.0
 40
11.0
 40
12.0
 40
12.0
 40
12.0
 40
13.0
 40
13.0
 40
13.0
 40
14.0
 40
14.0
 40
14.0
 40
15.0
 40
15.0
 40
15.0
 40
15.0
 10
170.82352588
 20
37.7198459592
 30
0.0
 10
170.82352588
 20
37.7198459592
 30
0.0
 10
172.4327538846
 20
37.7198459592
 30
0.0
 10
172.4327538846
 20
37.7198459592
 30
0.0
 10
172.4327538846
 20
37.7198459592
 30
0.0
 10
170.5597265909
 20
40.0369877306
 30
0.0
 10
170.5597265909
 20
40.0369877306
 30
0.0
 10
170.5597265909
 20
40.0369877306
 30
0.0
 10
171.8360650164
 20
41.5344674252
 30
0.0
 10
171.8360650164
 20
41.5344674252
 30
0.0
 10
171.8360650164
 20
41.5344674252
 30
0.0
 10
171.0038410687
 20
42.3954789938
 30
0.0
 10
171.0038410687
 20
42.3954789938
 30
0.0
 10
171.0038410687
 20
42.3954789938
 30
0.0
 10
169.7832459454
 20
40.9801748714
 30
0.0
 10
169.7832459454
 20
40.9801748714
 30
0.0
 10
169.7832459454
 20
40.9801748714
 30
0.0
 10
167.6053315766
 20
43.6155507058
 30
0.0
 10
167.6053315766
 20
43.6155507058
 30
0.0
 10
168.478905016
 20
44.2535890657
 30
0.0
 10
169.5055762572
 20
45.0445943745
 30
0.0
 10
169.5055762572
 20
46.2234474476
 30
0.0
 10
169.5055762572
 20
47.5971403726
 30
0.0
 10
168.3676801173
 20
48.4016235221
 30
0.0
 10
167.0923885144
 20
48.4016235221
 30
0.0
 10
165.7189572951
 20
48.4016235221
 30
0.0
 10
164.6780230963
 20
47.5553983224
 30
0.0
 10
164.6780230963
 20
46.1127459602
 30
0.0
 10
164.6780230963
 20
45.2251712688
 30
0.0
 10
165.2333624727
 20
44.4482980648
 30
0.0
 10
165.8295279296
 20
43.8238683984
 30
0.0
 10
165.8295279296
 20
43.8238683984
 30
0.0
 10
165.1776191706
 20
43.352274828
 30
0.0
 10
165.1776191706
 20
43.352274828
 30
0.0
 10
164.1790812862
 20
42.6310140733
 30
0.0
 10
163.3462030743
 20
41.9097533186
 30
0.0
 10
163.3462030743
 20
40.5781950023
 30
0.0
 10
163.3462030743
 20
38.7745197043
 30
0.0
 10
164.8032492469
 20
37.4979195732
 30
0.0
 10
166.5507886843
 20
37.4979195732
 30
0.0
 10
167.7856467652
 20
37.4979195732
 30
0.0
 10
168.8950169899
 20
38.2060950457
 30
0.0
 10
169.6858914458
 20
39.1346266704
 30
0.0
 10
169.6858914458
 20
39.1346266704
 30
0.0
 10
170.82352588
 20
37.7198459592
 30
0.0
 10
170.82352588
 20
37.7198459592
 30
0.0
  0
LINE
  5
269
330
22C
100
AcDbEntity
  8
0
  6
Continuous
 62
     7
100
AcDbLine
 10
156.626387255
 20
35.6937208639
 30
0.0
 11
179.0402979827
 21
35.6937208639
 31
0.0
  0
LINE
  5
26A
330
22C
100
AcDbEntity
  8
0
  6
Continuous
 62
     7
100
AcDbLine
 10
179.0402979827
 20
35.6937208639
 30
0.0
 11
179.0402979827
 21
58.1076315915
 31
0.0
  0
LINE
  5
26B
330
22C
100
AcDbEntity
  8
0
  6
Continuous
 62
     7
100
AcDbLine
 10
179.0402979827
 20
58.1076315915
 30
0.0
 11
156.626387255
 21
58.1076315915
 31
0.0
  0
LINE
  5
26C
330
22C
100
AcDbEntity
  8
0
  6
Continuous
 62
     7
100
AcDbLine
 10
156.626387255
 20
58.1076315915
 30
0.0
 11
156.626387255
 21
35.6937208639
 31
0.0
  0
ENDBLK
  5
26D
330
22C
100
AcDbEntity
  8
0
  6
ByBlock
 62
     0
100
AcDbBlockEnd
  0
BLOCK
  5
26E
330
22D
100
AcDbEntity
  8
0
100
AcDbBlockBegin
  2
PROIEZIONE_EU_BL0
 70
     0
 10
169.0072301476
 20
70.6089440915
 30
0.0
  3
PROIEZIONE_EU_BL0
  1

  0
LWPOLYLINE
  5
26F
330
22D
100
AcDbEntity
  8
DEFAULT_1
  6
CENTER
 62
     7
100
AcDbPolyline
 90
        2
 70
     0
 43
0.25
 10
175.1338508093
 20
75.6086382234
 10
175.1338917917
 20
65.6092499597
  0
LWPOLYLINE
  5
270
330
22D
100
AcDbEntity
  8
DEFAULT_1
  6
CENTER
 62
     7
100
AcDbPolyline
 90
        2
 70
     0
 43
0.25
 10
181.1338806344
 20
70.6092152267
 10
156.8805796609
 20
70.6089445663
  0
LWPOLYLINE
  5
271
330
22D
100
AcDbEntity
  8
0
  6
Continuous
 62
     7
100
AcDbPolyline
 90
        2
 70
     1
 43
0.25
 10
171.5867406335
 20
70.5903963373
 42
1.0
 10
178.6930697321
 20
70.5903963373
 42
1.0
  0
LWPOLYLINE
  5
272
330
22D
100
AcDbEntity
  8
0
  6
Continuous
 62
     7
100
AcDbPolyline
 90
        2
 70
     1
 43
0.25
 10
173.1364844619
 20
70.6082943819
 42
1.0
 10
177.1482362119
 20
70.6082943819
 42
1.0
  0
LWPOLYLINE
  5
273
330
22D
100
AcDbEntity
  8
0
  6
Continuous
 62
     7
100
AcDbPolyline
 90
        2
 70
     0
 43
0.25
 10
169.1338784284
 20
74.1841475868
 10
169.1338780738
 20
67.0839446785
  0
LWPOLYLINE
  5
274
330
22D
100
AcDbEntity
  8
0
  6
Continuous
 62
     7
100
AcDbPolyline
 90
        2
 70
     0
 43
0.25
 10
169.1339065102
 20
67.0839162421
 10
159.139349239
 20
68.6040096549
  0
LWPOLYLINE
  5
275
330
22D
100
AcDbEntity
  8
0
  6
Continuous
 62
     7
100
AcDbPolyline
 90
        2
 70
     0
 43
0.25
 10
159.1370392534
 20
68.6033321134
 10
159.1343723493
 20
72.6089707248
  0
LWPOLYLINE
  5
276
330
22D
100
AcDbEntity
  8
0
  6
Continuous
 62
     7
100
AcDbPolyline
 90
        2
 70
     0
 43
0.25
 10
159.1343640732
 20
72.6089624487
 10
169.1341073105
 20
74.1841196688
  0
ENDBLK
  5
277
330
22D
100
AcDbEntity
  8
0
  6
ByBlock
 62
     0
100
AcDbBlockEnd
  0
ENDSEC
  0
SECTION
  2
ENTITIES
  0
LWPOLYLINE
  5
2A9
330
225
100
AcDbEntity
 67
     1
  8
0
  6
Continuous
 62
     7
100
AcDbPolyline
 90
        2
 70
     0
 43
0.5
 10
284.0
 20
13.0
 10
284.0
 20
197.0
  0
LWPOLYLINE
  5
2AA
330
225
100
AcDbEntity
 67
     1
  8
0
  6
Continuous
 62
     7
100
AcDbPolyline
 90
        2
 70
     0
 43
0.5
 10
13.0
 20
13.0
 10
13.0
 20
197.0
  0
LWPOLYLINE
  5
2AB
330
225
100
AcDbEntity
 67
     1
  8
0
  6
Continuous
 62
     7
100
AcDbPolyline
 90
        2
 70
     0
 43
0.5
 10
13.0
 20
13.0
 10
284.0
 20
13.0
  0
LWPOLYLINE
  5
2AC
330
225
100
AcDbEntity
 67
     1
  8
0
  6
Continuous
 62
     7
100
AcDbPolyline
 90
        2
 70
     0
 43
0.1
 10
148.5
 20
197.0
 10
148.5
 20
200.0
  0
LWPOLYLINE
  5
2AD
330
225
100
AcDbEntity
 67
     1
  8
0
  6
Continuous
 62
     7
100
AcDbPolyline
 90
        2
 70
     0
 43
0.1
 10
284.0
 20
105.0
 10
287.0
 20
105.0
  0
LWPOLYLINE
  5
2AE
330
225
100
AcDbEntity
 67
     1
  8
0
  6
Continuous
 62
     7
100
AcDbPolyline
 90
        2
 70
     0
 43
0.1
 10
13.0
 20
105.0
 10
10.0
 20
105.0
  0
LWPOLYLINE
  5
2AF
330
225
100
AcDbEntity
 67
     1
  8
0
  6
Continuous
 62
     7
100
AcDbPolyline
 90
        2
 70
     0
 43
0.5
 10
13.0
 20
197.0
 10
284.0
 20
197.0
  0
LWPOLYLINE
  5
2B0
330
225
100
AcDbEntity
 67
     1
  8
0
  6
Continuous
 62
     7
100
AcDbPolyline
 90
        2
 70
     0
 43
0.1
 10
10.0
 20
200.0
 10
287.0
 20
200.0
  0
LWPOLYLINE
  5
2B1
330
225
100
AcDbEntity
 67
     1
  8
0
  6
Continuous
 62
     7
100
AcDbPolyline
 90
        2
 70
     0
 43
0.1
 10
10.0
 20
10.0
 10
10.0
 20
200.0
  0
LWPOLYLINE
  5
2B2
330
225
100
AcDbEntity
 67
     1
  8
0
  6
Continuous
 62
     7
100
AcDbPolyline
 90
        2
 70
     0
 43
0.1
 10
287.0
 20
10.0
 10
287.0
 20
200.0
  0
LWPOLYLINE
  5
2B3
330
225
100
AcDbEntity
 67
     1
  8
0
  6
Continuous
 62
     7
100
AcDbPolyline
 90
        2
 70
     0
 43
0.1
 10
10.0
 20
10.0
 10
287.0
 20
10.0
  0
LWPOLYLINE
  5
2B4
330
225
100
AcDbEntity
 67
     1
  8
0
  6
Continuous
 62
     7
100
AcDbPolyline
 90
        2
 70
     0
 43
0.1
 10
148.5
 20
13.0
 10
148.5
 20
10.0
  0
VIEWPORT
  5
2B5
330
225
100
AcDbEntity
 67
     1
  8
0
100
AcDbViewport
 10
148.5
 20
105.0
 30
0.0
 40
297.0
 41
210.0
 68
     1
 69
     1
 12
148.5
 22
105.0
 13
0.0
 23
0.0
 14
10.0
 24
10.0
 15
10.0
 25
10.0
 16
0.0
 26
0.0
 36
1.0
 17
0.0
 27
0.0
 37
0.0
 42
50.0
 43
0.0
 44
0.0
 45
210.0
 50
0.0
 51
0.0
 72
   100
 90
    32864
  1

281
     0
 71
     1
 74
     0
110
0.0
120
0.0
130
0.0
111
1.0
121
0.0
131
0.0
112
0.0
122
1.0
132
0.0
 79
     0
146
0.0
170
     0
 61
     5
348
577
292
     1
282
     1
141
0.0
142
0.0
 63
   256
  0
LINE
  5
2B6
330
225
100
AcDbEntity
 67
     1
  8
3_ALL_AXES
  6
Continuous
 62
     7
100
AcDbLine
 10
117.2159689238
 20
52.9857247015
 30
0.0
 11
117.2159689238
 21
53.0191467542
 31
0.0
  0
LINE
  5
2B7
330
225
100
AcDbEntity
 67
     1
  8
3_ALL_AXES
  6
Continuous
 62
     7
100
AcDbLine
 10
117.2159689238
 20
53.0191467542
 30
0.0
 11
117.2159689238
 21
53.5964970234
 31
0.0
  0
LINE
  5
2B8
330
225
100
AcDbEntity
 67
     1
  8
3_ALL_AXES
  6
Continuous
 62
     7
100
AcDbLine
 10
117.2159689238
 20
53.5964970234
 30
0.0
 11
117.2159689238
 21
54.7511975618
 31
0.0
  0
LINE
  5
2B9
330
225
100
AcDbEntity
 67
     1
  8
3_ALL_AXES
  6
Continuous
 62
     7
100
AcDbLine
 10
117.2159689238
 20
54.7511975618
 30
0.0
 11
117.2159689238
 21
55.328547831
 31
0.0
  0
LINE
  5
2BA
330
225
100
AcDbEntity
 67
     1
  8
3_ALL_AXES
  6
Continuous
 62
     7
100
AcDbLine
 10
117.2159689238
 20
55.328547831
 30
0.0
 11
117.2159689238
 21
55.3619385925
 31
0.0
  0
LINE
  5
2BB
330
225
100
AcDbEntity
 67
     1
  8
3_ALL_AXES
  6
Continuous
 62
     7
100
AcDbLine
 10
60.2159689238
 20
55.3619698588
 30
0.0
 11
60.2159689238
 21
55.328547831
 31
0.0
  0
LINE
  5
2BC
330
225
100
AcDbEntity
 67
     1
  8
3_ALL_AXES
  6
Continuous
 62
     7
100
AcDbLine
 10
60.2159689238
 20
55.328547831
 30
0.0
 11
60.2159689238
 21
54.7511975618
 31
0.0
  0
LINE
  5
2BD
330
225
100
AcDbEntity
 67
     1
  8
3_ALL_AXES
  6
Continuous
 62
     7
100
AcDbLine
 10
60.2159689238
 20
54.7511975618
 30
0.0
 11
60.2159689238
 21
53.5964970234
 31
0.0
  0
LINE
  5
2BE
330
225
100
AcDbEntity
 67
     1
  8
3_ALL_AXES
  6
Continuous
 62
     7
100
AcDbLine
 10
60.2159689238
 20
53.5964970234
 30
0.0
 11
60.2159689238
 21
53.0191467542
 31
0.0
  0
LINE
  5
2BF
330
225
100
AcDbEntity
 67
     1
  8
3_ALL_AXES
  6
Continuous
 62
     7
100
AcDbLine
 10
60.2159689238
 20
53.0191467542
 30
0.0
 11
60.2159689238
 21
52.9857558928
 31
0.0
  0
LINE
  5
2C0
330
225
100
AcDbEntity
 67
     1
  8
3_ALL_AXES
  6
Continuous
 62
     7
100
AcDbLine
 10
85.9159689238
 20
89.8311373256
 30
0.0
 11
85.9159689238
 21
88.6083543348
 31
0.0
  0
LINE
  5
2C1
330
225
100
AcDbEntity
 67
     1
  8
3_ALL_AXES
  6
Continuous
 62
     7
100
AcDbLine
 10
90.1659689238
 20
87.3083543348
 30
0.0
 11
90.1659689238
 21
87.2083543348
 31
0.0
  0
LINE
  5
2C2
330
225
100
AcDbEntity
 67
     1
  8
3_ALL_AXES
  6
Continuous
 62
     7
100
AcDbLine
 10
87.2659689238
 20
87.3083543348
 30
0.0
 11
87.2659689238
 21
87.2083543348
 31
0.0
  0
LINE
  5
2C3
330
225
100
AcDbEntity
 67
     1
  8
3_ALL_AXES
  6
Continuous
 62
     7
100
AcDbLine
 10
91.5159689238
 20
89.8311373256
 30
0.0
 11
91.5159689238
 21
88.6083543348
 31
0.0
  0
LINE
  5
2C4
330
225
100
AcDbEntity
 67
     1
  8
3_ALL_AXES
  6
Continuous
 62
     7
100
AcDbLine
 10
87.2159689238
 20
90.536533612
 30
0.0
 11
87.2159689238
 21
90.550995022
 31
0.0
  0
ARC
  5
2C5
330
225
100
AcDbEntity
 67
     1
  8
3_ALL_AXES
  6
Continuous
 62
     7
100
AcDbCircle
 10
88.7159689238
 20
86.3083543348
 30
0.0
 40
4.4863682417
100
AcDbArc
 50
95.37172068440002
 51
109.5327832667
  0
SPLINE
  5
2C6
330
225
100
AcDbEntity
 67
     1
  8
3_ALL_AXES
  6
Continuous
 62
     7
100
AcDbSpline
 70
     0
 71
     3
 72
    14
 73
    10
 74
     0
 42
0.000000001
 43
0.0000001
 40
0.0
 40
0.0
 40
0.0
 40
0.0
 40
0.0250522634
 40
0.0826614775
 40
0.1745543994
 40
0.29798062
 40
0.4484197279
 40
0.6200504974
 40
1.0
 40
1.0
 40
1.0
 40
1.0
 10
88.3659689238
 20
90.7750197577
 30
0.0
 10
88.3659689238
 20
90.7756096013
 30
0.0
 10
88.3636727633
 20
90.7766683651
 30
0.0
 10
88.3600022732
 20
90.7771444846
 30
0.0
 10
88.3533798385
 20
90.7777007934
 30
0.0
 10
88.3448531191
 20
90.7777881512
 30
0.0
 10
88.3343334656
 20
90.7776031797
 30
0.0
 10
88.3178334588
 20
90.7768518521
 30
0.0
 10
88.3048753661
 20
90.7758572294
 30
0.0
 10
88.2959689238
 20
90.7750197577
 30
0.0
  0
LINE
  5
2C7
330
225
100
AcDbEntity
 67
     1
  8
3_ALL_AXES
  6
Continuous
 62
     7
100
AcDbLine
 10
88.3659689238
 20
90.536533612
 30
0.0
 11
88.3659689238
 21
90.7750197577
 31
0.0
  0
ARC
  5
2C8
330
225
100
AcDbEntity
 67
     1
  8
3_ALL_AXES
  6
Continuous
 62
     7
100
AcDbCircle
 10
88.7159689238
 20
86.3083543348
 30
0.0
 40
4.2426406871
100
AcDbArc
 50
85.26796159589999
 51
94.73203840409998
  0
LINE
  5
2C9
330
225
100
AcDbEntity
 67
     1
  8
3_ALL_AXES
  6
Continuous
 62
     7
100
AcDbLine
 10
89.0659689238
 20
90.7750197577
 30
0.0
 11
89.0659689238
 21
90.536533612
 31
0.0
  0
SPLINE
  5
2CA
330
225
100
AcDbEntity
 67
     1
  8
3_ALL_AXES
  6
Continuous
 62
     7
100
AcDbSpline
 70
     0
 71
     3
 72
    14
 73
    10
 74
     0
 42
0.000000001
 43
0.0000001
 40
0.0
 40
0.0
 40
0.0
 40
0.0
 40
0.3799509066
 40
0.5515831282
 40
0.7020272295
 40
0.8254484769
 40
0.9173381866
 40
0.9749483193
 40
1.0
 40
1.0
 40
1.0
 40
1.0
 10
89.1359689238
 20
90.7750197577
 30
0.0
 10
89.1270624475
 20
90.7758572326
 30
0.0
 10
89.1141042879
 20
90.7768518767
 30
0.0
 10
89.0976040915
 20
90.7776031825
 30
0.0
 10
89.0870844052
 20
90.777788142
 30
0.0
 10
89.0785577465
 20
90.777700816
 30
0.0
 10
89.0719355161
 20
90.7771444263
 30
0.0
 10
89.0682650501
 20
90.7766684035
 30
0.0
 10
89.0659689238
 20
90.7756095876
 30
0.0
 10
89.0659689238
 20
90.7750197577
 30
0.0
  0
ARC
  5
2CB
330
225
100
AcDbEntity
 67
     1
  8
3_ALL_AXES
  6
Continuous
 62
     7
100
AcDbCircle
 10
88.7159689238
 20
86.3083543348
 30
0.0
 40
4.4863682417
100
AcDbArc
 50
70.4672167333
 51
84.62827931560001
  0
LINE
  5
2CC
330
225
100
AcDbEntity
 67
     1
  8
3_ALL_AXES
  6
Continuous
 62
     7
100
AcDbLine
 10
90.2159689238
 20
90.550995022
 30
0.0
 11
90.2159689238
 21
90.536533612
 31
0.0
  0
ARC
  5
2CD
330
225
100
AcDbEntity
 67
     1
  8
3_ALL_AXES
  6
Continuous
 62
     7
100
AcDbCircle
 10
88.7159689238
 20
86.3083543348
 30
0.0
 40
4.5
100
AcDbArc
 50
70.4578675255
 51
70.5287793655
  0
ARC
  5
2CE
330
225
100
AcDbEntity
 67
     1
  8
3_ALL_AXES
  6
Continuous
 62
     7
100
AcDbCircle
 10
88.7159689238
 20
86.3083543348
 30
0.0
 40
4.5
100
AcDbArc
 50
51.52140486670001
 51
70.4578675255
  0
ARC
  5
2CF
330
225
100
AcDbEntity
 67
     1
  8
3_ALL_AXES
  6
Continuous
 62
     7
100
AcDbCircle
 10
88.7159689238
 20
86.3083543348
 30
0.0
 40
4.5
100
AcDbArc
 50
109.4712206345
 51
109.5421324745
  0
ARC
  5
2D0
330
225
100
AcDbEntity
 67
     1
  8
3_ALL_AXES
  6
Continuous
 62
     7
100
AcDbCircle
 10
88.7159689238
 20
86.3083543348
 30
0.0
 40
4.5
100
AcDbArc
 50
109.5421324745
 51
128.4785951333
  0
LINE
  5
2D1
330
225
100
AcDbEntity
 67
     1
  8
3_ALL_AXES
  6
Continuous
 62
     7
100
AcDbLine
 10
91.5159689238
 20
89.8311373256
 30
0.0
 11
85.9159689238
 21
89.8311373256
 31
0.0
  0
LINE
  5
2D2
330
225
100
AcDbEntity
 67
     1
  8
7_ALL_FEATURES
  6
Continuous
 62
     7
100
AcDbLine
 10
83.9656430411
 20
87.2083543348
 30
0.0
 11
83.9656417924
 21
87.2083543348
 31
0.0
  0
LINE
  5
2D3
330
225
100
AcDbEntity
 67
     1
  8
7_ALL_FEATURES
  6
Continuous
 62
     7
100
AcDbLine
 10
83.9685296328
 20
89.4032261297
 30
0.0
 11
83.9681021414
 21
88.6083543348
 31
0.0
  0
LINE
  5
2D4
330
225
100
AcDbEntity
 67
     1
  8
7_ALL_FEATURES
  6
Continuous
 62
     7
100
AcDbLine
 10
93.4681012353
 20
88.6083543348
 30
0.0
 11
93.4656408862
 21
88.6083543348
 31
0.0
  0
LINE
  5
2D5
330
225
100
AcDbEntity
 67
     1
  8
7_ALL_FEATURES
  6
Continuous
 62
     7
100
AcDbLine
 10
93.4697684514
 20
85.9083543348
 30
0.0
 11
93.4708199077
 21
87.2083540086
 31
0.0
  0
LINE
  5
2D6
330
225
100
AcDbEntity
 67
     1
  8
7_ALL_FEATURES
  6
Continuous
 62
     7
100
AcDbLine
 10
93.4697684514
 20
87.2083543348
 30
0.0
 11
93.4656408862
 21
87.2083543348
 31
0.0
  0
LINE
  5
2D7
330
225
100
AcDbEntity
 67
     1
  8
7_ALL_FEATURES
  6
Continuous
 62
     7
100
AcDbLine
 10
93.4690826486
 20
88.5006620272
 30
0.0
 11
93.4690783418
 21
88.6083543739
 31
0.0
  0
LINE
  5
2D8
330
225
100
AcDbEntity
 67
     1
  8
7_ALL_FEATURES
  6
Continuous
 62
     7
100
AcDbLine
 10
93.4686540218
 20
87.3083543348
 30
0.0
 11
93.4690826486
 21
88.5006620272
 31
0.0
  0
LINE
  5
2D9
330
225
100
AcDbEntity
 67
     1
  8
7_ALL_FEATURES
  6
Continuous
 62
     7
100
AcDbLine
 10
93.4656408862
 20
87.3083543348
 30
0.0
 11
93.4686540218
 21
87.3083543348
 31
0.0
  0
LINE
  5
2DA
330
225
100
AcDbEntity
 67
     1
  8
7_ALL_FEATURES
  6
Continuous
 62
     7
100
AcDbLine
 10
93.4656408862
 20
88.6083543348
 30
0.0
 11
91.5159689238
 21
88.6083543348
 31
0.0
  0
LINE
  5
2DB
330
225
100
AcDbEntity
 67
     1
  8
7_ALL_FEATURES
  6
Continuous
 62
     7
100
AcDbLine
 10
91.5159689238
 20
88.6083543348
 30
0.0
 11
85.9159689238
 21
88.6083543348
 31
0.0
  0
LINE
  5
2DC
330
225
100
AcDbEntity
 67
     1
  8
7_ALL_FEATURES
  6
Continuous
 62
     7
100
AcDbLine
 10
85.9159689238
 20
88.6083543348
 30
0.0
 11
83.9681021414
 21
88.6083543348
 31
0.0
  0
LINE
  5
2DD
330
225
100
AcDbEntity
 67
     1
  8
7_ALL_FEATURES
  6
Continuous
 62
     7
100
AcDbLine
 10
83.9681021414
 20
88.6083543348
 30
0.0
 11
83.9656430411
 21
88.6083543348
 31
0.0
  0
LINE
  5
2DE
330
225
100
AcDbEntity
 67
     1
  8
7_ALL_FEATURES
  6
Continuous
 62
     7
100
AcDbLine
 10
83.9656417924
 20
87.3083543348
 30
0.0
 11
83.9656430411
 21
87.3083543348
 31
0.0
  0
LINE
  5
2DF
330
225
100
AcDbEntity
 67
     1
  8
7_ALL_FEATURES
  6
Continuous
 62
     7
100
AcDbLine
 10
83.9656413393
 20
85.9083543348
 30
0.0
 11
83.9656413393
 21
87.2083543348
 31
0.0
  0
LINE
  5
2E0
330
225
100
AcDbEntity
 67
     1
  8
7_ALL_FEATURES
  6
Continuous
 62
     7
100
AcDbLine
 10
83.9656430411
 20
88.6083543348
 30
0.0
 11
83.9656417924
 21
88.6083543348
 31
0.0
  0
LINE
  5
2E1
330
225
100
AcDbEntity
 67
     1
  8
7_ALL_FEATURES
  6
Continuous
 62
     7
100
AcDbLine
 10
93.4656408862
 20
87.2083543348
 30
0.0
 11
83.9697693576
 21
87.2083543348
 31
0.0
  0
LINE
  5
2E2
330
225
100
AcDbEntity
 67
     1
  8
7_ALL_FEATURES
  6
Continuous
 62
     7
100
AcDbLine
 10
83.9697693576
 20
87.2083543348
 30
0.0
 11
83.9656430411
 21
87.2083543348
 31
0.0
  0
LINE
  5
2E3
330
225
100
AcDbEntity
 67
     1
  8
7_ALL_FEATURES
  6
Continuous
 62
     7
100
AcDbLine
 10
83.9656430411
 20
87.3083543348
 30
0.0
 11
83.968654928
 21
87.3083543348
 31
0.0
  0
LINE
  5
2E4
330
225
100
AcDbEntity
 67
     1
  8
7_ALL_FEATURES
  6
Continuous
 62
     7
100
AcDbLine
 10
83.968654928
 20
87.3083543348
 30
0.0
 11
93.4656408862
 21
87.3083543348
 31
0.0
  0
LINE
  5
2E5
330
225
100
AcDbEntity
 67
     1
  8
7_ALL_FEATURES
  6
Continuous
 62
     7
100
AcDbLine
 10
83.9656413393
 20
87.3083543348
 30
0.0
 11
83.9656413393
 21
88.6083543348
 31
0.0
  0
LINE
  5
2E6
330
225
100
AcDbEntity
 67
     1
  8
7_ALL_FEATURES
  6
Continuous
 62
     7
100
AcDbLine
 10
83.9697693576
 20
91.7083543348
 30
0.0
 11
93.4697684514
 21
91.7083543348
 31
0.0
  0
LINE
  5
2E7
330
225
100
AcDbEntity
 67
     1
  8
7_ALL_FEATURES
  6
Continuous
 62
     7
100
AcDbLine
 10
83.9697693576
 20
91.7083420811
 30
0.0
 11
83.9687164112
 21
90.4082980564
 31
0.0
  0
LINE
  5
2E8
330
225
100
AcDbEntity
 67
     1
  8
7_ALL_FEATURES
  6
Continuous
 62
     7
100
AcDbLine
 10
83.9687164112
 20
90.4082980564
 30
0.0
 11
83.9685296328
 21
89.4032261297
 31
0.0
  0
LINE
  5
2E9
330
225
100
AcDbEntity
 67
     1
  8
7_ALL_FEATURES
  6
Continuous
 62
     7
100
AcDbLine
 10
83.9700032119
 20
87.3083483179
 30
0.0
 11
83.9697693576
 21
87.2083543348
 31
0.0
  0
LINE
  5
2EA
330
225
100
AcDbEntity
 67
     1
  8
7_ALL_FEATURES
  6
Continuous
 62
     9
100
AcDbLine
 10
83.9685296328
 20
89.4032261297
 30
0.0
 11
85.9159689238
 21
89.4032261297
 31
0.0
  0
LINE
  5
2EB
330
225
100
AcDbEntity
 67
     1
  8
7_ALL_FEATURES
  6
Continuous
 62
     9
100
AcDbLine
 10
91.5159689238
 20
89.4032261297
 30
0.0
 11
93.4685287266
 21
89.4032261297
 31
0.0
  0
LINE
  5
2EC
330
225
100
AcDbEntity
 67
     1
  8
7_ALL_FEATURES
  6
Continuous
 62
     9
100
AcDbLine
 10
93.4656408862
 20
87.2083543348
 30
0.0
 11
93.4656408862
 21
85.9083543348
 31
0.0
  0
LINE
  5
2ED
330
225
100
AcDbEntity
 67
     1
  8
7_ALL_FEATURES
  6
Continuous
 62
     9
100
AcDbLine
 10
93.4656408862
 20
88.6083543348
 30
0.0
 11
93.4656408862
 21
87.3083543348
 31
0.0
  0
LINE
  5
2EE
330
225
100
AcDbEntity
 67
     1
  8
7_ALL_FEATURES
  6
Continuous
 62
     7
100
AcDbLine
 10
93.4697684514
 20
91.7083420811
 30
0.0
 11
93.468715505
 21
90.4082980564
 31
0.0
  0
LINE
  5
2EF
330
225
100
AcDbEntity
 67
     1
  8
7_ALL_FEATURES
  6
Continuous
 62
     7
100
AcDbLine
 10
93.468715505
 20
90.4082980564
 30
0.0
 11
93.4685287266
 21
89.4032261297
 31
0.0
  0
LINE
  5
2F0
330
225
100
AcDbEntity
 67
     1
  8
7_ALL_FEATURES
  6
Continuous
 62
     7
100
AcDbLine
 10
93.4700023114
 20
87.3083524748
 30
0.0
 11
93.4697684514
 21
87.2083543348
 31
0.0
  0
LINE
  5
2F1
330
225
100
AcDbEntity
 67
     1
  8
7_ALL_FEATURES
  6
Continuous
 62
     7
100
AcDbLine
 10
93.4685287266
 20
89.4032261297
 30
0.0
 11
93.4681012353
 21
88.6083543348
 31
0.0
  0
SPLINE
  5
2F2
330
225
100
AcDbEntity
 67
     1
  8
3_ALL_AXES
  6
Continuous
 62
     7
100
AcDbSpline
 70
     0
 71
     3
 72
    12
 73
     8
 74
     0
 42
0.000000001
 43
0.0000001
 40
0.0
 40
0.0
 40
0.0
 40
0.0
 40
0.1711231539
 40
0.3370829539
 40
0.492462195
 40
0.6330978614
 40
1.0
 40
1.0
 40
1.0
 40
1.0
 10
100.0844001646
 20
48.9738472926
 30
0.0
 10
100.0844001646
 20
49.022636311
 30
0.0
 10
100.0884111085
 20
49.1188858708
 30
0.0
 10
100.1057339787
 20
49.2579555223
 30
0.0
 10
100.1350593541
 20
49.3881138039
 30
0.0
 10
100.1919582237
 20
49.5606911518
 30
0.0
 10
100.2967561863
 20
49.7238343462
 30
0.0
 10
100.4013638609
 20
49.7238343462
 30
0.0
  0
SPLINE
  5
2F3
330
225
100
AcDbEntity
 67
     1
  8
3_ALL_AXES
  6
Continuous
 62
     7
100
AcDbSpline
 70
     0
 71
     3
 72
    12
 73
     8
 74
     0
 42
0.000000001
 43
0.0000001
 40
0.0
 40
0.0
 40
0.0
 40
0.0
 40
0.1711231539
 40
0.3370829539
 40
0.492462195
 40
0.6330978614
 40
1.0
 40
1.0
 40
1.0
 40
1.0
 10
77.347537683
 20
48.9738472926
 30
0.0
 10
77.347537683
 20
49.022636311
 30
0.0
 10
77.3435267391
 20
49.1188858708
 30
0.0
 10
77.3262038689
 20
49.2579555223
 30
0.0
 10
77.2968784936
 20
49.3881138039
 30
0.0
 10
77.2399796239
 20
49.5606911518
 30
0.0
 10
77.1351816613
 20
49.7238343462
 30
0.0
 10
77.0305739867
 20
49.7238343462
 30
0.0
  0
LINE
  5
2F4
330
225
100
AcDbEntity
 67
     1
  8
3_ALL_AXES
  6
Continuous
 62
     7
100
AcDbLine
 10
61.2510592264
 20
49.7238472926
 30
0.0
 11
61.1516670152
 21
49.7238472926
 31
0.0
  0
LINE
  5
2F5
330
225
100
AcDbEntity
 67
     1
  8
3_ALL_AXES
  6
Continuous
 62
     7
100
AcDbLine
 10
61.1516670152
 20
49.7238472926
 30
0.0
 11
61.1038622878
 21
49.7238472926
 31
0.0
  0
LINE
  5
2F6
330
225
100
AcDbEntity
 67
     1
  8
3_ALL_AXES
  6
Continuous
 62
     7
100
AcDbLine
 10
116.3268335297
 20
49.7238472926
 30
0.0
 11
116.3280755598
 21
49.7238472926
 31
0.0
  0
LINE
  5
2F7
330
225
100
AcDbEntity
 67
     1
  8
3_ALL_AXES
  6
Continuous
 62
     7
100
AcDbLine
 10
116.3280755598
 20
49.7238472926
 30
0.0
 11
116.1808786212
 21
49.7238472926
 31
0.0
  0
ARC
  5
2F8
330
225
100
AcDbEntity
 67
     1
  8
3_ALL_AXES
  6
Continuous
 62
     7
100
AcDbCircle
 10
116.3659689238
 20
48.9738472926
 30
0.0
 40
0.75
100
AcDbArc
 50
270.0
 51
360.0
  0
ARC
  5
2F9
330
225
100
AcDbEntity
 67
     1
  8
3_ALL_AXES
  6
Continuous
 62
     7
100
AcDbCircle
 10
61.0659689238
 20
48.9738472926
 30
0.0
 40
0.75
100
AcDbArc
 50
90.0
 51
180.0
  0
ARC
  5
2FA
330
225
100
AcDbEntity
 67
     1
  8
3_ALL_AXES
  6
Continuous
 62
     7
100
AcDbCircle
 10
61.0659689238
 20
48.9738472926
 30
0.0
 40
0.75
100
AcDbArc
 50
180.0
 51
270.0
  0
ARC
  5
2FB
330
225
100
AcDbEntity
 67
     1
  8
3_ALL_AXES
  6
Continuous
 62
     7
100
AcDbCircle
 10
116.3659689238
 20
48.9738472926
 30
0.0
 40
0.75
100
AcDbArc
 50
0.0
 51
90.0
  0
LINE
  5
2FC
330
225
100
AcDbEntity
 67
     1
  8
3_ALL_AXES
  6
Continuous
 62
     7
100
AcDbLine
 10
61.2510592264
 20
48.2238472926
 30
0.0
 11
61.1516670152
 21
48.2238472926
 31
0.0
  0
SPLINE
  5
2FD
330
225
100
AcDbEntity
 67
     1
  8
3_ALL_AXES
  6
Continuous
 62
     7
100
AcDbSpline
 70
     0
 71
     3
 72
    12
 73
     8
 74
     0
 42
0.000000001
 43
0.0000001
 40
0.0
 40
0.0
 40
0.0
 40
0.0
 40
0.3669021386
 40
0.507537805
 40
0.6629170461
 40
0.8288768461
 40
1.0
 40
1.0
 40
1.0
 40
1.0
 10
77.0305739867
 20
48.2238602389
 30
0.0
 10
77.1351816613
 20
48.2238602389
 30
0.0
 10
77.2399796239
 20
48.3870034334
 30
0.0
 10
77.2968784936
 20
48.5595807813
 30
0.0
 10
77.3262038689
 20
48.6897390629
 30
0.0
 10
77.3435267391
 20
48.8288087144
 30
0.0
 10
77.347537683
 20
48.9250582742
 30
0.0
 10
77.347537683
 20
48.9738472926
 30
0.0
  0
LINE
  5
2FE
330
225
100
AcDbEntity
 67
     1
  8
3_ALL_AXES
  6
Continuous
 62
     7
100
AcDbLine
 10
61.1516670152
 20
48.2238472926
 30
0.0
 11
61.1038622878
 21
48.2238472926
 31
0.0
  0
LINE
  5
2FF
330
225
100
AcDbEntity
 67
     1
  8
3_ALL_AXES
  6
Continuous
 62
     7
100
AcDbLine
 10
116.3268335297
 20
48.2238472926
 30
0.0
 11
116.3280755598
 21
48.2238472926
 31
0.0
  0
LINE
  5
300
330
225
100
AcDbEntity
 67
     1
  8
3_ALL_AXES
  6
Continuous
 62
     7
100
AcDbLine
 10
116.3280755598
 20
48.2238472926
 30
0.0
 11
116.1808786212
 21
48.2238472926
 31
0.0
  0
LINE
  5
301
330
225
100
AcDbEntity
 67
     1
  8
3_ALL_AXES
  6
Continuous
 62
     7
100
AcDbLine
 10
104.5659689238
 20
48.2238472926
 30
0.0
 11
100.7159689238
 21
48.2238472926
 31
0.0
  0
LINE
  5
302
330
225
100
AcDbEntity
 67
     1
  8
3_ALL_AXES
  6
Continuous
 62
     7
100
AcDbLine
 10
100.7159689238
 20
48.2238472926
 30
0.0
 11
100.4013638609
 21
48.2238472926
 31
0.0
  0
SPLINE
  5
303
330
225
100
AcDbEntity
 67
     1
  8
3_ALL_AXES
  6
Continuous
 62
     7
100
AcDbSpline
 70
     0
 71
     3
 72
    12
 73
     8
 74
     0
 42
0.000000001
 43
0.0000001
 40
0.0
 40
0.0
 40
0.0
 40
0.0
 40
0.3669021386
 40
0.507537805
 40
0.6629170461
 40
0.8288768461
 40
1.0
 40
1.0
 40
1.0
 40
1.0
 10
100.4013638609
 20
48.2238602389
 30
0.0
 10
100.2967561863
 20
48.2238602389
 30
0.0
 10
100.1919582237
 20
48.3870034334
 30
0.0
 10
100.1350593541
 20
48.5595807813
 30
0.0
 10
100.1057339787
 20
48.6897390629
 30
0.0
 10
100.0884111085
 20
48.8288087144
 30
0.0
 10
100.0844001646
 20
48.9250582742
 30
0.0
 10
100.0844001646
 20
48.9738472926
 30
0.0
  0
SPLINE
  5
304
330
225
100
AcDbEntity
 67
     1
  8
3_ALL_AXES
  6
Continuous
 62
     7
100
AcDbSpline
 70
     0
 71
     3
 72
    12
 73
     8
 74
     0
 42
0.000000001
 43
0.0000001
 40
0.0
 40
0.0
 40
0.0
 40
0.0
 40
0.3669021386
 40
0.507537805
 40
0.6629170461
 40
0.8288768461
 40
1.0
 40
1.0
 40
1.0
 40
1.0
 10
77.0305739867
 20
49.7238343462
 30
0.0
 10
76.9259663121
 20
49.7238343462
 30
0.0
 10
76.8211683494
 20
49.5606911518
 30
0.0
 10
76.7642694798
 20
49.3881138039
 30
0.0
 10
76.7349441045
 20
49.2579555223
 30
0.0
 10
76.7176212343
 20
49.1188858708
 30
0.0
 10
76.7136102904
 20
49.022636311
 30
0.0
 10
76.7136102904
 20
48.9738472926
 30
0.0
  0
SPLINE
  5
305
330
225
100
AcDbEntity
 67
     1
  8
3_ALL_AXES
  6
Continuous
 62
     7
100
AcDbSpline
 70
     0
 71
     3
 72
    12
 73
     8
 74
     0
 42
0.000000001
 43
0.0000001
 40
0.0
 40
0.0
 40
0.0
 40
0.0
 40
0.1711231539
 40
0.3370829539
 40
0.492462195
 40
0.6330978614
 40
1.0
 40
1.0
 40
1.0
 40
1.0
 10
76.7136102904
 20
48.9738472926
 30
0.0
 10
76.7136102904
 20
48.9250582742
 30
0.0
 10
76.7176212343
 20
48.8288087144
 30
0.0
 10
76.7349441045
 20
48.6897390629
 30
0.0
 10
76.7642694798
 20
48.5595807813
 30
0.0
 10
76.8211683494
 20
48.3870034334
 30
0.0
 10
76.9259663121
 20
48.2238602389
 30
0.0
 10
77.0305739867
 20
48.2238602389
 30
0.0
  0
SPLINE
  5
306
330
225
100
AcDbEntity
 67
     1
  8
3_ALL_AXES
  6
Continuous
 62
     7
100
AcDbSpline
 70
     0
 71
     3
 72
    12
 73
     8
 74
     0
 42
0.000000001
 43
0.0000001
 40
0.0
 40
0.0
 40
0.0
 40
0.0
 40
0.3669021386
 40
0.507537805
 40
0.6629170461
 40
0.8288768461
 40
1.0
 40
1.0
 40
1.0
 40
1.0
 10
100.4013638609
 20
49.7238343462
 30
0.0
 10
100.5059715355
 20
49.7238343462
 30
0.0
 10
100.6107694982
 20
49.5606911518
 30
0.0
 10
100.6676683678
 20
49.3881138039
 30
0.0
 10
100.6969937431
 20
49.2579555223
 30
0.0
 10
100.7143166133
 20
49.1188858708
 30
0.0
 10
100.7183275572
 20
49.022636311
 30
0.0
 10
100.7183275572
 20
48.9738472926
 30
0.0
  0
SPLINE
  5
307
330
225
100
AcDbEntity
 67
     1
  8
3_ALL_AXES
  6
Continuous
 62
     7
100
AcDbSpline
 70
     0
 71
     3
 72
    12
 73
     8
 74
     0
 42
0.000000001
 43
0.0000001
 40
0.0
 40
0.0
 40
0.0
 40
0.0
 40
0.1711231539
 40
0.3370829539
 40
0.492462195
 40
0.6330978614
 40
1.0
 40
1.0
 40
1.0
 40
1.0
 10
100.7183275572
 20
48.9738472926
 30
0.0
 10
100.7183275572
 20
48.9250582742
 30
0.0
 10
100.7143166133
 20
48.8288087144
 30
0.0
 10
100.6969937431
 20
48.6897390629
 30
0.0
 10
100.6676683678
 20
48.5595807813
 30
0.0
 10
100.6107694982
 20
48.3870034334
 30
0.0
 10
100.5059715355
 20
48.2238602389
 30
0.0
 10
100.4013638609
 20
48.2238602389
 30
0.0
  0
LINE
  5
308
330
225
100
AcDbEntity
 67
     1
  8
7_ALL_FEATURES
  6
Continuous
 62
     7
100
AcDbLine
 10
59.0128600325
 20
45.6112828579
 30
0.0
 11
47.9128600325
 21
64.8370468219
 31
0.0
  0
LINE
  5
309
330
225
100
AcDbEntity
 67
     1
  8
7_ALL_FEATURES
  6
Continuous
 62
     7
100
AcDbLine
 10
59.6659689238
 20
57.3738472926
 30
0.0
 11
60.0159689238
 21
57.3738472926
 31
0.0
  0
ARC
  5
30A
330
225
100
AcDbEntity
 67
     1
  8
7_ALL_FEATURES
  6
Continuous
 62
     7
100
AcDbCircle
 10
60.3659689238
 20
50.5738472926
 30
0.0
 40
0.7
100
AcDbArc
 50
180.0
 51
270.0
  0
LINE
  5
30B
330
225
100
AcDbEntity
 67
     1
  8
7_ALL_FEATURES
  6
Continuous
 62
     7
100
AcDbLine
 10
59.6659689238
 20
50.5738472926
 30
0.0
 11
59.6659689238
 21
57.3738472926
 31
0.0
  0
LINE
  5
30C
330
225
100
AcDbEntity
 67
     1
  8
7_ALL_FEATURES
  6
Continuous
 62
     7
100
AcDbLine
 10
59.6659689238
 20
47.3738472926
 30
0.0
 11
59.6659689238
 21
45.7862828579
 31
0.0
  0
ARC
  5
30D
330
225
100
AcDbEntity
 67
     1
  8
7_ALL_FEATURES
  6
Continuous
 62
     7
100
AcDbCircle
 10
48.2159689238
 20
65.0120468219
 30
0.0
 40
0.35
100
AcDbArc
 50
180.0
 51
210.0
  0
ARC
  5
30E
330
225
100
AcDbEntity
 67
     1
  8
7_ALL_FEATURES
  6
Continuous
 62
     7
100
AcDbCircle
 10
59.3159689238
 20
45.7862828579
 30
0.0
 40
0.35
100
AcDbArc
 50
210.0
 51
360.0
  0
LINE
  5
30F
330
225
100
AcDbEntity
 67
     1
  8
7_ALL_FEATURES
  6
Continuous
 62
     7
100
AcDbLine
 10
47.8659689238
 20
65.0120468219
 30
0.0
 11
47.8659689238
 21
70.8244823872
 31
0.0
  0
LINE
  5
310
330
225
100
AcDbEntity
 67
     1
  8
7_ALL_FEATURES
  6
Continuous
 62
     7
100
AcDbLine
 10
60.3659689238
 20
48.0738472926
 30
0.0
 11
60.9659689238
 21
48.0738472926
 31
0.0
  0
LINE
  5
311
330
225
100
AcDbEntity
 67
     1
  8
7_ALL_FEATURES
  6
Continuous
 62
     7
100
AcDbLine
 10
47.5159689238
 20
70.8244823872
 30
0.0
 11
47.8659689238
 21
70.8244823872
 31
0.0
  0
ARC
  5
312
330
225
100
AcDbEntity
 67
     1
  8
7_ALL_FEATURES
  6
Continuous
 62
     7
100
AcDbCircle
 10
60.3659689238
 20
47.3738472926
 30
0.0
 40
0.7
100
AcDbArc
 50
90.0
 51
180.0
  0
ARC
  5
313
330
225
100
AcDbEntity
 67
     1
  8
7_ALL_FEATURES
  6
Continuous
 62
     7
100
AcDbCircle
 10
60.9659689238
 20
49.5238472926
 30
0.0
 40
0.35
100
AcDbArc
 50
25.7142857143
 51
90.0
  0
LINE
  5
314
330
225
100
AcDbEntity
 67
     1
  8
7_ALL_FEATURES
  6
Continuous
 62
     7
100
AcDbLine
 10
60.3659689238
 20
49.8738472926
 30
0.0
 11
60.9659689238
 21
49.8738472926
 31
0.0
  0
ARC
  5
315
330
225
100
AcDbEntity
 67
     1
  8
7_ALL_FEATURES
  6
Continuous
 62
     7
100
AcDbCircle
 10
60.9659689238
 20
48.4238472926
 30
0.0
 40
0.35
100
AcDbArc
 50
270.0
 51
334.2857142857
  0
LINE
  5
316
330
225
100
AcDbEntity
 67
     1
  8
7_ALL_FEATURES
  6
Continuous
 62
     9
100
AcDbLine
 10
59.6659689238
 20
47.3738472926
 30
0.0
 11
60.0159689238
 21
47.3738472926
 31
0.0
  0
LINE
  5
317
330
225
100
AcDbEntity
 67
     1
  8
7_ALL_FEATURES
  6
Continuous
 62
     9
100
AcDbLine
 10
59.6659689238
 20
50.5738472926
 30
0.0
 11
60.0159689238
 21
50.5738472926
 31
0.0
  0
LINE
  5
318
330
225
100
AcDbEntity
 67
     1
  8
7_ALL_FEATURES
  6
Continuous
 62
     9
100
AcDbLine
 10
60.3659689238
 20
49.8738472926
 30
0.0
 11
60.3659689238
 21
50.2238472926
 31
0.0
  0
LINE
  5
319
330
225
100
AcDbEntity
 67
     1
  8
7_ALL_FEATURES
  6
Continuous
 62
     9
100
AcDbLine
 10
58.7097511412
 20
45.4362828579
 30
0.0
 11
59.0128600325
 21
45.6112828579
 31
0.0
  0
LINE
  5
31A
330
225
100
AcDbEntity
 67
     1
  8
7_ALL_FEATURES
  6
Continuous
 62
     9
100
AcDbLine
 10
60.9659689238
 20
50.2238472926
 30
0.0
 11
60.9659689238
 21
49.8738472926
 31
0.0
  0
LINE
  5
31B
330
225
100
AcDbEntity
 67
     1
  8
7_ALL_FEATURES
  6
Continuous
 62
     9
100
AcDbLine
 10
47.5159689238
 20
65.0120468219
 30
0.0
 11
47.8659689238
 21
65.0120468219
 31
0.0
  0
LINE
  5
31C
330
225
100
AcDbEntity
 67
     1
  8
7_ALL_FEATURES
  6
Continuous
 62
     9
100
AcDbLine
 10
47.6097511412
 20
64.6620468219
 30
0.0
 11
47.9128600325
 21
64.8370468219
 31
0.0
  0
LINE
  5
31D
330
225
100
AcDbEntity
 67
     1
  8
7_ALL_FEATURES
  6
Continuous
 62
     9
100
AcDbLine
 10
60.3659689238
 20
48.0738472926
 30
0.0
 11
60.3659689238
 21
47.7238472926
 31
0.0
  0
LINE
  5
31E
330
225
100
AcDbEntity
 67
     1
  8
7_ALL_FEATURES
  6
Continuous
 62
     9
100
AcDbLine
 10
60.9659689238
 20
47.7238472926
 30
0.0
 11
60.9659689238
 21
48.0738472926
 31
0.0
  0
LINE
  5
31F
330
225
100
AcDbEntity
 67
     1
  8
7_ALL_FEATURES
  6
Continuous
 62
     9
100
AcDbLine
 10
60.0159689238
 20
45.7862828579
 30
0.0
 11
59.6659689238
 21
45.7862828579
 31
0.0
  0
LINE
  5
320
330
225
100
AcDbEntity
 67
     1
  8
7_ALL_FEATURES
  6
Continuous
 62
     7
100
AcDbLine
 10
129.5190778151
 20
64.8370468219
 30
0.0
 11
118.4190778151
 21
45.6112828579
 31
0.0
  0
LINE
  5
321
330
225
100
AcDbEntity
 67
     1
  8
7_ALL_FEATURES
  6
Continuous
 62
     7
100
AcDbLine
 10
117.7659689238
 20
57.3738472926
 30
0.0
 11
117.4159689238
 21
57.3738472926
 31
0.0
  0
ARC
  5
322
330
225
100
AcDbEntity
 67
     1
  8
7_ALL_FEATURES
  6
Continuous
 62
     7
100
AcDbCircle
 10
117.0659689238
 20
50.5738472926
 30
0.0
 40
0.7
100
AcDbArc
 50
270.0
 51
360.0
  0
LINE
  5
323
330
225
100
AcDbEntity
 67
     1
  8
7_ALL_FEATURES
  6
Continuous
 62
     7
100
AcDbLine
 10
117.7659689238
 20
57.3738472926
 30
0.0
 11
117.7659689238
 21
50.5738472926
 31
0.0
  0
LINE
  5
324
330
225
100
AcDbEntity
 67
     1
  8
7_ALL_FEATURES
  6
Continuous
 62
     7
100
AcDbLine
 10
117.7659689238
 20
45.7862828579
 30
0.0
 11
117.7659689238
 21
47.3738472926
 31
0.0
  0
ARC
  5
325
330
225
100
AcDbEntity
 67
     1
  8
7_ALL_FEATURES
  6
Continuous
 62
     7
100
AcDbCircle
 10
129.2159689238
 20
65.0120468219
 30
0.0
 40
0.35
100
AcDbArc
 50
330.0
 51
360.0
  0
LINE
  5
326
330
225
100
AcDbEntity
 67
     1
  8
7_ALL_FEATURES
  6
Continuous
 62
     7
100
AcDbLine
 10
129.5659689238
 20
70.8244823872
 30
0.0
 11
129.5659689238
 21
65.0120468219
 31
0.0
  0
LINE
  5
327
330
225
100
AcDbEntity
 67
     1
  8
7_ALL_FEATURES
  6
Continuous
 62
     7
100
AcDbLine
 10
129.9159689238
 20
70.8244823872
 30
0.0
 11
129.5659689238
 21
70.8244823872
 31
0.0
  0
ARC
  5
328
330
225
100
AcDbEntity
 67
     1
  8
7_ALL_FEATURES
  6
Continuous
 62
     7
100
AcDbCircle
 10
118.1159689238
 20
45.7862828579
 30
0.0
 40
0.35
100
AcDbArc
 50
180.0
 51
330.0
  0
LINE
  5
329
330
225
100
AcDbEntity
 67
     1
  8
7_ALL_FEATURES
  6
Continuous
 62
     7
100
AcDbLine
 10
116.4659689238
 20
48.0738472926
 30
0.0
 11
117.0659689238
 21
48.0738472926
 31
0.0
  0
ARC
  5
32A
330
225
100
AcDbEntity
 67
     1
  8
7_ALL_FEATURES
  6
Continuous
 62
     7
100
AcDbCircle
 10
116.4659689238
 20
49.5238472926
 30
0.0
 40
0.35
100
AcDbArc
 50
90.0
 51
128.5714285714
  0
LINE
  5
32B
330
225
100
AcDbEntity
 67
     1
  8
7_ALL_FEATURES
  6
Continuous
 62
     7
100
AcDbLine
 10
116.4659689238
 20
49.8738472926
 30
0.0
 11
117.0659689238
 21
49.8738472926
 31
0.0
  0
ARC
  5
32C
330
225
100
AcDbEntity
 67
     1
  8
7_ALL_FEATURES
  6
Continuous
 62
     7
100
AcDbCircle
 10
117.0659689238
 20
47.3738472926
 30
0.0
 40
0.7
100
AcDbArc
 50
0.0
 51
90.0
  0
ARC
  5
32D
330
225
100
AcDbEntity
 67
     1
  8
7_ALL_FEATURES
  6
Continuous
 62
     7
100
AcDbCircle
 10
116.4659689238
 20
48.4238472926
 30
0.0
 40
0.35
100
AcDbArc
 50
231.4285714286
 51
270.0
  0
LINE
  5
32E
330
225
100
AcDbEntity
 67
     1
  8
7_ALL_FEATURES
  6
Continuous
 62
     9
100
AcDbLine
 10
129.8221867065
 20
64.6620468219
 30
0.0
 11
129.5190778151
 21
64.8370468219
 31
0.0
  0
LINE
  5
32F
330
225
100
AcDbEntity
 67
     1
  8
7_ALL_FEATURES
  6
Continuous
 62
     9
100
AcDbLine
 10
117.0659689238
 20
49.8738472926
 30
0.0
 11
117.0659689238
 21
50.2238472926
 31
0.0
  0
LINE
  5
330
330
225
100
AcDbEntity
 67
     1
  8
7_ALL_FEATURES
  6
Continuous
 62
     9
100
AcDbLine
 10
118.7221867065
 20
45.4362828579
 30
0.0
 11
118.4190778151
 21
45.6112828579
 31
0.0
  0
LINE
  5
331
330
225
100
AcDbEntity
 67
     1
  8
7_ALL_FEATURES
  6
Continuous
 62
     9
100
AcDbLine
 10
117.4159689238
 20
45.7862828579
 30
0.0
 11
117.7659689238
 21
45.7862828579
 31
0.0
  0
LINE
  5
332
330
225
100
AcDbEntity
 67
     1
  8
7_ALL_FEATURES
  6
Continuous
 62
     9
100
AcDbLine
 10
129.9159689238
 20
65.0120468219
 30
0.0
 11
129.5659689238
 21
65.0120468219
 31
0.0
  0
LINE
  5
333
330
225
100
AcDbEntity
 67
     1
  8
7_ALL_FEATURES
  6
Continuous
 62
     9
100
AcDbLine
 10
117.0659689238
 20
48.0738472926
 30
0.0
 11
117.0659689238
 21
47.7238472926
 31
0.0
  0
LINE
  5
334
330
225
100
AcDbEntity
 67
     1
  8
7_ALL_FEATURES
  6
Continuous
 62
     9
100
AcDbLine
 10
116.4659689238
 20
47.7238472926
 30
0.0
 11
116.4659689238
 21
48.0738472926
 31
0.0
  0
LINE
  5
335
330
225
100
AcDbEntity
 67
     1
  8
7_ALL_FEATURES
  6
Continuous
 62
     9
100
AcDbLine
 10
117.7659689238
 20
50.5738472926
 30
0.0
 11
117.4159689238
 21
50.5738472926
 31
0.0
  0
LINE
  5
336
330
225
100
AcDbEntity
 67
     1
  8
7_ALL_FEATURES
  6
Continuous
 62
     9
100
AcDbLine
 10
116.4659689238
 20
50.2238472926
 30
0.0
 11
116.4659689238
 21
49.8738472926
 31
0.0
  0
LINE
  5
337
330
225
100
AcDbEntity
 67
     1
  8
7_ALL_FEATURES
  6
Continuous
 62
     9
100
AcDbLine
 10
117.7659689238
 20
47.3738472926
 30
0.0
 11
117.4159689238
 21
47.3738472926
 31
0.0
  0
ARC
  5
338
330
225
100
AcDbEntity
 67
     1
  8
7_ALL_FEATURES
  6
Continuous
 62
     7
100
AcDbCircle
 10
88.7083850153
 20
35.3083543348
 30
0.0
 40
1.55
100
AcDbArc
 50
180.0
 51
360.0
  0
LINE
  5
339
330
225
100
AcDbEntity
 67
     1
  8
7_ALL_FEATURES
  6
Continuous
 62
     7
100
AcDbLine
 10
90.2583990287
 20
43.3738472926
 30
0.0
 11
90.2583990287
 21
35.3083543348
 31
0.0
  0
LINE
  5
33A
330
225
100
AcDbEntity
 67
     1
  8
7_ALL_FEATURES
  6
Continuous
 62
     7
100
AcDbLine
 10
87.1583993244
 20
43.3738472926
 30
0.0
 11
87.1583993244
 21
35.3083543348
 31
0.0
  0
LINE
  5
33B
330
225
100
AcDbEntity
 67
     1
  8
3_ALL_AXES
  6
Continuous
 62
     7
100
AcDbLine
 10
107.7159671114
 20
33.6583543348
 30
0.0
 11
106.1159672641
 21
33.6583543348
 31
0.0
  0
LINE
  5
33C
330
225
100
AcDbEntity
 67
     1
  8
3_ALL_AXES
  6
Continuous
 62
     7
100
AcDbLine
 10
106.1159672641
 20
33.6583543348
 30
0.0
 11
71.315971565
 21
33.6583543348
 31
0.0
  0
LINE
  5
33D
330
225
100
AcDbEntity
 67
     1
  8
3_ALL_AXES
  6
Continuous
 62
     7
100
AcDbLine
 10
71.315971565
 20
33.6583543348
 30
0.0
 11
69.7159715199
 21
33.6583543348
 31
0.0
  0
LINE
  5
33E
330
225
100
AcDbEntity
 67
     1
  8
3_ALL_AXES
  6
Continuous
 62
     7
100
AcDbLine
 10
107.7159671114
 20
32.1583543348
 30
0.0
 11
104.2159674453
 21
32.1583543348
 31
0.0
  0
LINE
  5
33F
330
225
100
AcDbEntity
 67
     1
  8
3_ALL_AXES
  6
Continuous
 62
     7
100
AcDbLine
 10
104.2159674453
 20
32.1583543348
 30
0.0
 11
73.2159724666
 21
32.1583543348
 31
0.0
  0
LINE
  5
340
330
225
100
AcDbEntity
 67
     1
  8
3_ALL_AXES
  6
Continuous
 62
     7
100
AcDbLine
 10
73.2159724666
 20
32.1583543348
 30
0.0
 11
69.7159715199
 21
32.1583543348
 31
0.0
  0
LINE
  5
341
330
225
100
AcDbEntity
 67
     1
  8
3_ALL_AXES
  6
Continuous
 62
     7
100
AcDbLine
 10
107.7159671114
 20
32.1583543348
 30
0.0
 11
107.7159663277
 21
32.1583543348
 31
0.0
  0
LINE
  5
342
330
225
100
AcDbEntity
 67
     1
  8
3_ALL_AXES
  6
Continuous
 62
     7
100
AcDbLine
 10
107.7159689238
 20
33.6583543348
 30
0.0
 11
107.7159689238
 21
32.1583543348
 31
0.0
  0
LINE
  5
343
330
225
100
AcDbEntity
 67
     1
  8
3_ALL_AXES
  6
Continuous
 62
     7
100
AcDbLine
 10
106.1159689238
 20
43.3738472926
 30
0.0
 11
106.1159689238
 21
33.6583543348
 31
0.0
  0
LINE
  5
344
330
225
100
AcDbEntity
 67
     1
  8
3_ALL_AXES
  6
Continuous
 62
     7
100
AcDbLine
 10
69.7159715199
 20
32.1583543348
 30
0.0
 11
69.7159707362
 21
32.1583543348
 31
0.0
  0
LINE
  5
345
330
225
100
AcDbEntity
 67
     1
  8
3_ALL_AXES
  6
Continuous
 62
     7
100
AcDbLine
 10
107.7159671114
 20
33.6583543348
 30
0.0
 11
107.7159663277
 21
33.6583543348
 31
0.0
  0
LINE
  5
346
330
225
100
AcDbEntity
 67
     1
  8
3_ALL_AXES
  6
Continuous
 62
     7
100
AcDbLine
 10
69.7159715199
 20
33.6583543348
 30
0.0
 11
69.7159707362
 21
33.6583543348
 31
0.0
  0
LINE
  5
347
330
225
100
AcDbEntity
 67
     1
  8
3_ALL_AXES
  6
Continuous
 62
     7
100
AcDbLine
 10
69.7159689238
 20
33.6583543348
 30
0.0
 11
69.7159689238
 21
32.1583543348
 31
0.0
  0
LINE
  5
348
330
225
100
AcDbEntity
 67
     1
  8
3_ALL_AXES
  6
Continuous
 62
     7
100
AcDbLine
 10
71.3159689238
 20
43.3738472926
 30
0.0
 11
71.3159689238
 21
33.6583543348
 31
0.0
  0
ARC
  5
349
330
225
100
AcDbEntity
 67
     1
  8
7_ALL_FEATURES
  6
Continuous
 62
     7
100
AcDbCircle
 10
112.4517553614
 20
63.1738472926
 30
0.0
 40
1.0
100
AcDbArc
 50
45.0
 51
90.0
  0
ARC
  5
34A
330
225
100
AcDbEntity
 67
     1
  8
7_ALL_FEATURES
  6
Continuous
 62
     7
100
AcDbCircle
 10
64.9801824862
 20
63.1738472926
 30
0.0
 40
1.0
100
AcDbArc
 50
90.0
 51
135.0
  0
ARC
  5
34B
330
225
100
AcDbEntity
 67
     1
  8
7_ALL_FEATURES
  6
Continuous
 62
     7
100
AcDbCircle
 10
62.0659689238
 20
58.8454201678
 30
0.0
 40
2.0
100
AcDbArc
 50
135.0
 51
180.0
  0
ARC
  5
34C
330
225
100
AcDbEntity
 67
     1
  8
7_ALL_FEATURES
  6
Continuous
 62
     7
100
AcDbCircle
 10
115.3659689238
 20
58.8454201678
 30
0.0
 40
2.0
100
AcDbArc
 50
0.0
 51
45.0
  0
LINE
  5
34D
330
225
100
AcDbEntity
 67
     1
  8
7_ALL_FEATURES
  6
Continuous
 62
     7
100
AcDbLine
 10
61.7659689238
 20
47.4738472926
 30
0.0
 11
61.7659689238
 21
48.2238472926
 31
0.0
  0
LINE
  5
34E
330
225
100
AcDbEntity
 67
     1
  8
7_ALL_FEATURES
  6
Continuous
 62
     7
100
AcDbLine
 10
61.7659689238
 20
49.7238472926
 30
0.0
 11
61.7659689238
 21
50.4738472926
 31
0.0
  0
LINE
  5
34F
330
225
100
AcDbEntity
 67
     1
  8
7_ALL_FEATURES
  6
Continuous
 62
     7
100
AcDbLine
 10
115.6659689238
 20
47.4738472926
 30
0.0
 11
115.6659689238
 21
48.2238472926
 31
0.0
  0
LINE
  5
350
330
225
100
AcDbEntity
 67
     1
  8
7_ALL_FEATURES
  6
Continuous
 62
     7
100
AcDbLine
 10
115.6659689238
 20
49.7238472926
 30
0.0
 11
115.6659689238
 21
50.4738472926
 31
0.0
  0
LINE
  5
351
330
225
100
AcDbEntity
 67
     1
  8
7_ALL_FEATURES
  6
Continuous
 62
     7
100
AcDbLine
 10
61.211184704
 20
43.3738472926
 30
0.0
 11
62.5659689238
 21
43.3738472926
 31
0.0
  0
LINE
  5
352
330
225
100
AcDbEntity
 67
     1
  8
7_ALL_FEATURES
  6
Continuous
 62
     7
100
AcDbLine
 10
62.5659689238
 20
43.3738472926
 30
0.0
 11
114.8659689238
 21
43.3738472926
 31
0.0
  0
LINE
  5
353
330
225
100
AcDbEntity
 67
     1
  8
7_ALL_FEATURES
  6
Continuous
 62
     7
100
AcDbLine
 10
114.8659689238
 20
43.3738472926
 30
0.0
 11
116.2207531436
 21
43.3738472926
 31
0.0
  0
LINE
  5
354
330
225
100
AcDbEntity
 67
     1
  8
02___PRT_ALL_AXES
  6
Continuous
 62
     7
100
AcDbLine
 10
54.2159689238
 20
44.8738472926
 30
0.0
 11
60.0659689238
 21
44.8738472926
 31
0.0
  0
LINE
  5
355
330
225
100
AcDbEntity
 67
     1
  8
02___PRT_ALL_AXES
  6
Continuous
 62
     7
100
AcDbLine
 10
60.0659689238
 20
44.8738472926
 30
0.0
 11
117.3659689238
 21
44.8738472926
 31
0.0
  0
LINE
  5
356
330
225
100
AcDbEntity
 67
     1
  8
02___PRT_ALL_AXES
  6
Continuous
 62
     7
100
AcDbLine
 10
117.3659689238
 20
44.8738472926
 30
0.0
 11
123.2159689238
 21
44.8738472926
 31
0.0
  0
LINE
  5
357
330
225
100
AcDbEntity
 67
     1
  8
7_ALL_FEATURES
  6
Continuous
 62
     7
100
AcDbLine
 10
113.1588621426
 20
63.8809540738
 30
0.0
 11
116.7801824862
 21
60.2596337302
 31
0.0
  0
LINE
  5
358
330
225
100
AcDbEntity
 67
     1
  8
7_ALL_FEATURES
  6
Continuous
 62
     7
100
AcDbLine
 10
60.0659689238
 20
47.4738472926
 30
0.0
 11
61.7659689238
 21
47.4738472926
 31
0.0
  0
LINE
  5
359
330
225
100
AcDbEntity
 67
     1
  8
7_ALL_FEATURES
  6
Continuous
 62
     7
100
AcDbLine
 10
61.7659689238
 20
47.4738472926
 30
0.0
 11
115.6659689238
 21
47.4738472926
 31
0.0
  0
LINE
  5
35A
330
225
100
AcDbEntity
 67
     1
  8
7_ALL_FEATURES
  6
Continuous
 62
     7
100
AcDbLine
 10
115.6659689238
 20
47.4738472926
 30
0.0
 11
117.3659689238
 21
47.4738472926
 31
0.0
  0
LINE
  5
35B
330
225
100
AcDbEntity
 67
     1
  8
7_ALL_FEATURES
  6
Continuous
 62
     7
100
AcDbLine
 10
64.273075705
 20
63.8809540738
 30
0.0
 11
60.6517553614
 21
60.2596337302
 31
0.0
  0
SPLINE
  5
35C
330
225
100
AcDbEntity
 67
     1
  8
7_ALL_FEATURES
  6
Continuous
 62
     7
100
AcDbSpline
 70
     0
 71
     3
 72
    28
 73
    24
 74
     0
 42
0.000000001
 43
0.0000001
 40
0.0
 40
0.0
 40
0.0
 40
0.0
 40
0.0002837347
 40
0.0011456719
 40
0.0025841716
 40
0.0045975933
 40
0.0071842969
 40
0.0103426422
 40
0.0183676981
 40
0.0286579382
 40
0.0411929079
 40
0.0559486777
 40
0.0728943449
 40
0.1132153331
 40
0.1618358859
 40
0.2183723956
 40
0.2823863464
 40
0.3533915757
 40
0.4308640428
 40
0.514252104
 40
0.6029873598
 40
0.7942028046
 40
1.0
 40
1.0
 40
1.0
 40
1.0
 10
117.3659689238
 20
51.1738472926
 30
0.0
 10
117.3660113218
 20
51.173677416
 30
0.0
 10
117.3657756693
 20
51.1752232128
 30
0.0
 10
117.3657367861
 20
51.1759861724
 30
0.0
 10
117.3653389309
 20
51.1790987489
 30
0.0
 10
117.3649390843
 20
51.1825919987
 30
0.0
 10
117.3643636582
 20
51.1874268789
 30
0.0
 10
117.3633772277
 20
51.1958276969
 30
0.0
 10
117.361829293
 20
51.2090134769
 30
0.0
 10
117.3596251897
 20
51.2279114878
 30
0.0
 10
117.3569561506
 20
51.2509519206
 30
0.0
 10
117.3538413504
 20
51.2780697591
 30
0.0
 10
117.3488196797
 20
51.3222294636
 30
0.0
 10
117.3415682964
 20
51.3871666626
 30
0.0
 10
117.3318875552
 20
51.4764153411
 30
0.0
 10
117.3210184772
 20
51.5802405595
 30
0.0
 10
117.3092167588
 20
51.6978558973
 30
0.0
 10
117.2967552064
 20
51.8283877013
 30
0.0
 10
117.2839159309
 20
51.9708913442
 30
0.0
 10
117.2709824131
 20
52.1243693419
 30
0.0
 10
117.2535421171
 20
52.3479010539
 30
0.0
 10
117.2332525551
 20
52.6469695821
 30
0.0
 10
117.2201994326
 20
52.8916216912
 30
0.0
 10
117.2143871401
 20
53.0184823163
 30
0.0
  0
ARC
  5
35D
330
225
100
AcDbEntity
 67
     1
  8
7_ALL_FEATURES
  6
Continuous
 62
     7
100
AcDbCircle
 10
142.4061402052
 20
54.1738472895
 30
0.0
 40
25.2182332989
100
AcDbArc
 50
177.3740860275
 51
182.6259062561
  0
SPLINE
  5
35E
330
225
100
AcDbEntity
 67
     1
  8
7_ALL_FEATURES
  6
Continuous
 62
     7
100
AcDbSpline
 70
     0
 71
     3
 72
    28
 73
    24
 74
     0
 42
0.000000001
 43
0.0000001
 40
0.0
 40
0.0
 40
0.0
 40
0.0
 40
0.2058253149
 40
0.3970640981
 40
0.4858086439
 40
0.5692040854
 40
0.6466817856
 40
0.7176898929
 40
0.7817041553
 40
0.838238378
 40
0.8868534851
 40
0.9271673009
 40
0.9441060136
 40
0.9588551577
 40
0.9713870378
 40
0.9816732366
 40
0.9896879398
 40
0.9928394737
 40
0.9954191637
 40
0.9974260355
 40
0.998859115
 40
0.9997174279
 40
1.0
 40
1.0
 40
1.0
 40
1.0
 10
117.2143872957
 20
55.3292156554
 30
0.0
 10
117.2202003892
 20
55.4560933811
 30
0.0
 10
117.2332554596
 20
55.7007767397
 30
0.0
 10
117.253548414
 20
55.9998820633
 30
0.0
 10
117.2709915209
 20
56.2234379078
 30
0.0
 10
117.283926872
 20
56.3769290321
 30
0.0
 10
117.2967677129
 20
56.519441869
 30
0.0
 10
117.3092304419
 20
56.6499785404
 30
0.0
 10
117.321032838
 20
56.7675941523
 30
0.0
 10
117.3319019832
 20
56.8714145667
 30
0.0
 10
117.341582163
 20
56.9606538892
 30
0.0
 10
117.3488325062
 20
57.0255789305
 30
0.0
 10
117.3538528881
 20
57.0697258113
 30
0.0
 10
117.356966608
 20
57.0968333685
 30
0.0
 10
117.3596347693
 20
57.1198653173
 30
0.0
 10
117.3618376272
 20
57.1387525726
 30
0.0
 10
117.3633841495
 20
57.1519253042
 30
0.0
 10
117.3643687199
 20
57.1603113634
 30
0.0
 10
117.3649429437
 20
57.1651335009
 30
0.0
 10
117.3653407797
 20
57.1686159004
 30
0.0
 10
117.3657389093
 20
57.1717168082
 30
0.0
 10
117.3657746776
 20
57.1724775888
 30
0.0
 10
117.3660124039
 20
57.1740161544
 30
0.0
 10
117.3659689238
 20
57.1738472926
 30
0.0
  0
LINE
  5
35F
330
225
100
AcDbEntity
 67
     1
  8
7_ALL_FEATURES
  6
Continuous
 62
     7
100
AcDbLine
 10
60.0659689238
 20
50.4738472926
 30
0.0
 11
61.7659689238
 21
50.4738472926
 31
0.0
  0
LINE
  5
360
330
225
100
AcDbEntity
 67
     1
  8
7_ALL_FEATURES
  6
Continuous
 62
     7
100
AcDbLine
 10
61.7659689238
 20
50.4738472926
 30
0.0
 11
115.6659689238
 21
50.4738472926
 31
0.0
  0
LINE
  5
361
330
225
100
AcDbEntity
 67
     1
  8
7_ALL_FEATURES
  6
Continuous
 62
     7
100
AcDbLine
 10
115.6659689238
 20
50.4738472926
 30
0.0
 11
117.3659689238
 21
50.4738472926
 31
0.0
  0
SPLINE
  5
362
330
225
100
AcDbEntity
 67
     1
  8
7_ALL_FEATURES
  6
Continuous
 62
     7
100
AcDbSpline
 70
     0
 71
     3
 72
    28
 73
    24
 74
     0
 42
0.000000001
 43
0.0000001
 40
0.0
 40
0.0
 40
0.0
 40
0.0
 40
0.000283748
 40
0.0011456985
 40
0.002584211
 40
0.004597645
 40
0.0071843599
 40
0.0103427154
 40
0.0183677869
 40
0.0286580367
 40
0.0411930179
 40
0.0559488056
 40
0.0728944889
 40
0.11321549
 40
0.1618360566
 40
0.2183725701
 40
0.28238652
 40
0.3533917419
 40
0.4308641963
 40
0.5142522397
 40
0.6029874744
 40
0.7942028683
 40
1.0
 40
1.0
 40
1.0
 40
1.0
 10
60.0659689238
 20
57.1738472926
 30
0.0
 10
60.0659264761
 20
57.1740171652
 30
0.0
 10
60.0661622519
 20
57.1724713581
 30
0.0
 10
60.0662010227
 20
57.1717083537
 30
0.0
 10
60.0665989458
 20
57.1685957698
 30
0.0
 10
60.0669987663
 20
57.1651024897
 30
0.0
 10
60.0675742059
 20
57.1602675921
 30
0.0
 10
60.0685606338
 20
57.1518667498
 30
0.0
 10
60.0701085743
 20
57.1386809491
 30
0.0
 10
60.0723126787
 20
57.1197829152
 30
0.0
 10
60.0749817209
 20
57.0967424585
 30
0.0
 10
60.0780965239
 20
57.069624592
 30
0.0
 10
60.0831181975
 20
57.0254648588
 30
0.0
 10
60.090369583
 20
56.9605276336
 30
0.0
 10
60.1000503252
 20
56.8712789364
 30
0.0
 10
60.110919403
 20
56.7674537078
 30
0.0
 10
60.1227211196
 20
56.6498383727
 30
0.0
 10
60.1351826692
 20
56.5193065817
 30
0.0
 10
60.1480219409
 20
56.376802962
 30
0.0
 10
60.1609554545
 20
56.2233249962
 30
0.0
 10
60.1783957441
 20
55.9997933395
 30
0.0
 10
60.1986852985
 20
55.7007248952
 30
0.0
 10
60.2117384167
 20
55.456072857
 30
0.0
 10
60.2175507074
 20
55.3292122713
 30
0.0
  0
ARC
  5
363
330
225
100
AcDbEntity
 67
     1
  8
7_ALL_FEATURES
  6
Continuous
 62
     7
100
AcDbCircle
 10
35.0257976419
 20
54.1738472957
 30
0.0
 40
25.2182332993
100
AcDbArc
 50
357.3740860528
 51
2.6259062616
  0
SPLINE
  5
364
330
225
100
AcDbEntity
 67
     1
  8
7_ALL_FEATURES
  6
Continuous
 62
     7
100
AcDbSpline
 70
     0
 71
     3
 72
    28
 73
    24
 74
     0
 42
0.000000001
 43
0.0000001
 40
0.0
 40
0.0
 40
0.0
 40
0.0
 40
0.2058251387
 40
0.3970637774
 40
0.485808265
 40
0.5692036594
 40
0.6466813259
 40
0.7176894148
 40
0.7817036737
 40
0.8382379133
 40
0.886853046
 40
0.9271669262
 40
0.9441056645
 40
0.9588548308
 40
0.9713867417
 40
0.9816729913
 40
0.989687771
 40
0.9928393475
 40
0.9954190786
 40
0.9974259869
 40
0.9988590949
 40
0.9997174251
 40
1.0
 40
1.0
 40
1.0
 40
1.0
 10
60.2175505524
 20
53.0184789409
 30
0.0
 10
60.2117374639
 20
52.8916013231
 30
0.0
 10
60.1986824056
 20
52.6469181605
 30
0.0
 10
60.1783894724
 20
52.3478130681
 30
0.0
 10
60.1609463832
 20
52.1242573754
 30
0.0
 10
60.1480110436
 20
51.9707663353
 30
0.0
 10
60.1351702127
 20
51.8282535581
 30
0.0
 10
60.1227074913
 20
51.6977169197
 30
0.0
 10
60.1109050995
 20
51.5801013097
 30
0.0
 10
60.1000359552
 20
51.4762808704
 30
0.0
 10
60.0903557711
 20
51.3870414815
 30
0.0
 10
60.0831054218
 20
51.3221163687
 30
0.0
 10
60.0780850333
 20
51.2779694187
 30
0.0
 10
60.0749713083
 20
51.250861813
 30
0.0
 10
60.0723031404
 20
51.2278298004
 30
0.0
 10
60.0701002708
 20
51.2089424483
 30
0.0
 10
60.0685537382
 20
51.1957696118
 30
0.0
 10
60.0675691538
 20
51.1873834554
 30
0.0
 10
60.0669949263
 20
51.1825612416
 30
0.0
 10
60.06659707
 20
51.1790787845
 30
0.0
 10
60.066198963
 20
51.1759778084
 30
0.0
 10
60.0661631412
 20
51.1752170289
 30
0.0
 10
60.0659254656
 20
51.1736784234
 30
0.0
 10
60.0659689238
 20
51.1738472926
 30
0.0
  0
LINE
  5
365
330
225
100
AcDbEntity
 67
     1
  8
7_ALL_FEATURES
  6
Continuous
 62
     7
100
AcDbLine
 10
64.9801824862
 20
64.1738472926
 30
0.0
 11
66.6760052215
 21
64.1738472926
 31
0.0
  0
LINE
  5
366
330
225
100
AcDbEntity
 67
     1
  8
7_ALL_FEATURES
  6
Continuous
 62
     7
100
AcDbLine
 10
66.6760052215
 20
64.1738472926
 30
0.0
 11
110.7559326261
 21
64.1738472926
 31
0.0
  0
LINE
  5
367
330
225
100
AcDbEntity
 67
     1
  8
7_ALL_FEATURES
  6
Continuous
 62
     7
100
AcDbLine
 10
110.7559326261
 20
64.1738472926
 30
0.0
 11
112.4517553614
 21
64.1738472926
 31
0.0
  0
ARC
  5
368
330
225
100
AcDbEntity
 67
     1
  8
7_ALL_FEATURES
  6
Continuous
 62
     7
100
AcDbCircle
 10
116.2207531436
 20
45.3738472926
 30
0.0
 40
2.0
100
AcDbArc
 50
270.0
 51
278.3056762056
  0
ARC
  5
369
330
225
100
AcDbEntity
 67
     1
  8
7_ALL_FEATURES
  6
Continuous
 62
     7
100
AcDbCircle
 10
61.211184704
 20
45.3738472926
 30
0.0
 40
2.0
100
AcDbArc
 50
261.6943237944
 51
270.0
  0
LINE
  5
36A
330
225
100
AcDbEntity
 67
     1
  8
7_ALL_FEATURES
  6
Continuous
 62
     7
100
AcDbLine
 10
116.5096616058
 20
43.3948243265
 30
0.0
 11
123.2159689238
 21
44.3738472926
 31
0.0
  0
LINE
  5
36B
330
225
100
AcDbEntity
 67
     1
  8
7_ALL_FEATURES
  6
Continuous
 62
     7
100
AcDbLine
 10
60.9222762418
 20
43.3948243265
 30
0.0
 11
54.2159689238
 21
44.3738472926
 31
0.0
  0
LINE
  5
36C
330
225
100
AcDbEntity
 67
     1
  8
02___PRT_ALL_AXES
  6
Continuous
 62
     7
100
AcDbLine
 10
54.2159689238
 20
44.3738472926
 30
0.0
 11
54.2159689238
 21
44.8738472926
 31
0.0
  0
LINE
  5
36D
330
225
100
AcDbEntity
 67
     1
  8
7_ALL_FEATURES
  6
Continuous
 62
     7
100
AcDbLine
 10
117.3659689238
 20
57.1738472926
 30
0.0
 11
117.3659689238
 21
58.8454201678
 31
0.0
  0
LINE
  5
36E
330
225
100
AcDbEntity
 67
     1
  8
02___PRT_ALL_AXES
  6
Continuous
 62
     7
100
AcDbLine
 10
123.2159689238
 20
44.3738472926
 30
0.0
 11
123.2159689238
 21
44.8738472926
 31
0.0
  0
LINE
  5
36F
330
225
100
AcDbEntity
 67
     1
  8
7_ALL_FEATURES
  6
Continuous
 62
     7
100
AcDbLine
 10
60.0659689238
 20
44.8738472926
 30
0.0
 11
60.0659689238
 21
47.4738472926
 31
0.0
  0
LINE
  5
370
330
225
100
AcDbEntity
 67
     1
  8
7_ALL_FEATURES
  6
Continuous
 62
     7
100
AcDbLine
 10
117.3659689238
 20
50.4738472926
 30
0.0
 11
117.3659689238
 21
51.1738472926
 31
0.0
  0
LINE
  5
371
330
225
100
AcDbEntity
 67
     1
  8
7_ALL_FEATURES
  6
Continuous
 62
     7
100
AcDbLine
 10
117.3659689238
 20
44.8738472926
 30
0.0
 11
117.3659689238
 21
47.4738472926
 31
0.0
  0
LINE
  5
372
330
225
100
AcDbEntity
 67
     1
  8
7_ALL_FEATURES
  6
Continuous
 62
     7
100
AcDbLine
 10
60.0659689238
 20
50.4738472926
 30
0.0
 11
60.0659689238
 21
51.1738472926
 31
0.0
  0
LINE
  5
373
330
225
100
AcDbEntity
 67
     1
  8
7_ALL_FEATURES
  6
Continuous
 62
     7
100
AcDbLine
 10
60.0659689238
 20
57.1738472926
 30
0.0
 11
60.0659689238
 21
58.8454201678
 31
0.0
  0
LINE
  5
374
330
225
100
AcDbEntity
 67
     1
  8
7_ALL_FEATURES
  6
Continuous
 62
     9
100
AcDbLine
 10
60.9222762418
 20
43.3948243265
 30
0.0
 11
116.5096616058
 21
43.3948243265
 31
0.0
  0
LINE
  5
375
330
225
100
AcDbEntity
 67
     1
  8
02___PRT_ALL_AXES
  6
Continuous
 62
     7
100
AcDbLine
 10
54.2159689238
 20
44.3738472926
 30
0.0
 11
123.2159689238
 21
44.3738472926
 31
0.0
  0
LINE
  5
376
330
225
100
AcDbEntity
 67
     1
  8
7_ALL_FEATURES
  6
Continuous
 62
     9
100
AcDbLine
 10
116.7801824862
 20
60.2596337302
 30
0.0
 11
60.6517553614
 21
60.2596337302
 31
0.0
  0
LINE
  5
377
330
225
100
AcDbEntity
 67
     1
  8
7_ALL_FEATURES
  6
Continuous
 62
     9
100
AcDbLine
 10
64.273075705
 20
63.8809540738
 30
0.0
 11
113.1588621426
 21
63.8809540738
 31
0.0
  0
LINE
  5
378
330
225
100
AcDbEntity
 67
     1
  8
7_ALL_FEATURES
  6
Continuous
 62
     9
100
AcDbLine
 10
117.3659689238
 20
58.8454201678
 30
0.0
 11
60.0659689238
 21
58.8454201678
 31
0.0
  0
LINE
  5
379
330
225
100
AcDbEntity
 67
     1
  8
7_ALL_FEATURES
  6
Continuous
 62
     7
100
AcDbLine
 10
108.0804341094
 20
69.4083543348
 30
0.0
 11
108.0804299423
 21
69.4083543348
 31
0.0
  0
LINE
  5
37A
330
225
100
AcDbEntity
 67
     1
  8
7_ALL_FEATURES
  6
Continuous
 62
     7
100
AcDbLine
 10
69.3515037382
 20
69.4083543348
 30
0.0
 11
69.3515079053
 21
69.4083543348
 31
0.0
  0
LINE
  5
37B
330
225
100
AcDbEntity
 67
     1
  8
7_ALL_FEATURES
  6
Continuous
 62
     7
100
AcDbLine
 10
88.7074735646
 20
72.9083543348
 30
0.0
 11
100.2159689238
 21
72.9083543348
 31
0.0
  0
LINE
  5
37C
330
225
100
AcDbEntity
 67
     1
  8
7_ALL_FEATURES
  6
Continuous
 62
     7
100
AcDbLine
 10
100.2159689238
 20
72.9083543348
 30
0.0
 11
100.4661465644
 21
72.9083543348
 31
0.0
  0
LINE
  5
37D
330
225
100
AcDbEntity
 67
     1
  8
7_ALL_FEATURES
  6
Continuous
 62
     7
100
AcDbLine
 10
100.4661465644
 20
72.9083543348
 30
0.0
 11
102.716950342
 21
72.9083543348
 31
0.0
  0
LINE
  5
37E
330
225
100
AcDbEntity
 67
     1
  8
7_ALL_FEATURES
  6
Continuous
 62
     7
100
AcDbLine
 10
102.716950342
 20
72.9083543348
 30
0.0
 11
104.9657886123
 21
72.9083543348
 31
0.0
  0
LINE
  5
37F
330
225
100
AcDbEntity
 67
     1
  8
7_ALL_FEATURES
  6
Continuous
 62
     7
100
AcDbLine
 10
104.9657886123
 20
72.9083543348
 30
0.0
 11
108.1659688955
 21
72.9083543348
 31
0.0
  0
LINE
  5
380
330
225
100
AcDbEntity
 67
     1
  8
7_ALL_FEATURES
  6
Continuous
 62
     7
100
AcDbLine
 10
88.7074735646
 20
74.9083543348
 30
0.0
 11
98.7159689238
 21
74.9083543348
 31
0.0
  0
LINE
  5
381
330
225
100
AcDbEntity
 67
     1
  8
7_ALL_FEATURES
  6
Continuous
 62
     7
100
AcDbLine
 10
98.7159689238
 20
74.9083543348
 30
0.0
 11
100.4661465644
 21
74.9083543348
 31
0.0
  0
LINE
  5
382
330
225
100
AcDbEntity
 67
     1
  8
7_ALL_FEATURES
  6
Continuous
 62
     7
100
AcDbLine
 10
100.4661465644
 20
74.9083543348
 30
0.0
 11
102.716950342
 21
74.9083543348
 31
0.0
  0
LINE
  5
383
330
225
100
AcDbEntity
 67
     1
  8
7_ALL_FEATURES
  6
Continuous
 62
     7
100
AcDbLine
 10
102.716950342
 20
74.9083543348
 30
0.0
 11
104.9657886123
 21
74.9083543348
 31
0.0
  0
LINE
  5
384
330
225
100
AcDbEntity
 67
     1
  8
7_ALL_FEATURES
  6
Continuous
 62
     7
100
AcDbLine
 10
104.9657886123
 20
74.9083543348
 30
0.0
 11
108.1659688955
 21
74.9083543348
 31
0.0
  0
LINE
  5
385
330
225
100
AcDbEntity
 67
     1
  8
7_ALL_FEATURES
  6
Continuous
 62
     7
100
AcDbLine
 10
71.0161762738
 20
85.9083543348
 30
0.0
 11
83.9656417924
 21
85.9083543348
 31
0.0
  0
LINE
  5
386
330
225
100
AcDbEntity
 67
     1
  8
7_ALL_FEATURES
  6
Continuous
 62
     7
100
AcDbLine
 10
83.9656417924
 20
85.9083543348
 30
0.0
 11
86.5660275239
 21
85.9083543348
 31
0.0
  0
LINE
  5
387
330
225
100
AcDbEntity
 67
     1
  8
7_ALL_FEATURES
  6
Continuous
 62
     7
100
AcDbLine
 10
86.5660275239
 20
85.9083543348
 30
0.0
 11
87.4661625168
 21
85.9083543348
 31
0.0
  0
LINE
  5
388
330
225
100
AcDbEntity
 67
     1
  8
7_ALL_FEATURES
  6
Continuous
 62
     7
100
AcDbLine
 10
87.4661625168
 20
85.9083543348
 30
0.0
 11
88.7082379285
 21
85.9083543348
 31
0.0
  0
LINE
  5
389
330
225
100
AcDbEntity
 67
     1
  8
7_ALL_FEATURES
  6
Continuous
 62
     7
100
AcDbLine
 10
88.7078011491
 20
78.4083543348
 30
0.0
 11
98.7159689238
 21
78.4083543348
 31
0.0
  0
LINE
  5
38A
330
225
100
AcDbEntity
 67
     1
  8
7_ALL_FEATURES
  6
Continuous
 62
     7
100
AcDbLine
 10
98.7159689238
 20
78.4083543348
 30
0.0
 11
100.4661465644
 21
78.4083543348
 31
0.0
  0
LINE
  5
38B
330
225
100
AcDbEntity
 67
     1
  8
7_ALL_FEATURES
  6
Continuous
 62
     7
100
AcDbLine
 10
100.4661465644
 20
78.4083543348
 30
0.0
 11
102.716950342
 21
78.4083543348
 31
0.0
  0
LINE
  5
38C
330
225
100
AcDbEntity
 67
     1
  8
7_ALL_FEATURES
  6
Continuous
 62
     7
100
AcDbLine
 10
102.716950342
 20
78.4083543348
 30
0.0
 11
104.9064508843
 21
78.4083543348
 31
0.0
  0
LINE
  5
38D
330
225
100
AcDbEntity
 67
     1
  8
7_ALL_FEATURES
  6
Continuous
 62
     7
100
AcDbLine
 10
104.9064508843
 20
78.4083543348
 30
0.0
 11
104.9657886123
 21
78.4083543348
 31
0.0
  0
LINE
  5
38E
330
225
100
AcDbEntity
 67
     1
  8
7_ALL_FEATURES
  6
Continuous
 62
     7
100
AcDbLine
 10
104.9657886123
 20
78.4083543348
 30
0.0
 11
107.4157497623
 21
78.4083543348
 31
0.0
  0
LINE
  5
38F
330
225
100
AcDbEntity
 67
     1
  8
7_ALL_FEATURES
  6
Continuous
 62
     7
100
AcDbLine
 10
71.0159689238
 20
85.9083543348
 30
0.0
 11
70.7159689238
 21
85.6083543348
 31
0.0
  0
LINE
  5
390
330
225
100
AcDbEntity
 67
     1
  8
7_ALL_FEATURES
  6
Continuous
 62
     7
100
AcDbLine
 10
88.7078011491
 20
80.4083543348
 30
0.0
 11
90.2159689238
 21
80.4083543348
 31
0.0
  0
LINE
  5
391
330
225
100
AcDbEntity
 67
     1
  8
7_ALL_FEATURES
  6
Continuous
 62
     7
100
AcDbLine
 10
90.2159689238
 20
80.4083543348
 30
0.0
 11
96.7159689238
 21
80.4083543348
 31
0.0
  0
LINE
  5
392
330
225
100
AcDbEntity
 67
     1
  8
7_ALL_FEATURES
  6
Continuous
 62
     7
100
AcDbLine
 10
96.7159689238
 20
80.4083543348
 30
0.0
 11
100.4661465644
 21
80.4083543348
 31
0.0
  0
LINE
  5
393
330
225
100
AcDbEntity
 67
     1
  8
7_ALL_FEATURES
  6
Continuous
 62
     7
100
AcDbLine
 10
100.4661465644
 20
80.4083543348
 30
0.0
 11
102.716950342
 21
80.4083543348
 31
0.0
  0
LINE
  5
394
330
225
100
AcDbEntity
 67
     1
  8
7_ALL_FEATURES
  6
Continuous
 62
     7
100
AcDbLine
 10
102.716950342
 20
80.4083543348
 30
0.0
 11
104.9064502924
 21
80.4083543348
 31
0.0
  0
LINE
  5
395
330
225
100
AcDbEntity
 67
     1
  8
7_ALL_FEATURES
  6
Continuous
 62
     7
100
AcDbLine
 10
104.9064502924
 20
80.4083543348
 30
0.0
 11
104.9657886123
 21
80.4083543348
 31
0.0
  0
LINE
  5
396
330
225
100
AcDbEntity
 67
     1
  8
7_ALL_FEATURES
  6
Continuous
 62
     7
100
AcDbLine
 10
104.9657886123
 20
80.4083543348
 30
0.0
 11
107.4157497623
 21
80.4083543348
 31
0.0
  0
LINE
  5
397
330
225
100
AcDbEntity
 67
     1
  8
7_ALL_FEATURES
  6
Continuous
 62
     7
100
AcDbLine
 10
106.4159689238
 20
85.9083543348
 30
0.0
 11
106.7159689238
 21
85.6083543348
 31
0.0
  0
LINE
  5
398
330
225
100
AcDbEntity
 67
     1
  8
7_ALL_FEATURES
  6
Continuous
 62
     7
100
AcDbLine
 10
71.016176274
 20
83.9083543348
 30
0.0
 11
80.7159689238
 21
83.9083543348
 31
0.0
  0
LINE
  5
399
330
225
100
AcDbEntity
 67
     1
  8
7_ALL_FEATURES
  6
Continuous
 62
     7
100
AcDbLine
 10
80.7159689238
 20
83.9083543348
 30
0.0
 11
88.7082379285
 21
83.9083543348
 31
0.0
  0
LINE
  5
39A
330
225
100
AcDbEntity
 67
     1
  8
7_ALL_FEATURES
  6
Continuous
 62
     7
100
AcDbLine
 10
71.0159689238
 20
83.9083543348
 30
0.0
 11
70.7159689238
 21
84.2083543348
 31
0.0
  0
LINE
  5
39B
330
225
100
AcDbEntity
 67
     1
  8
7_ALL_FEATURES
  6
Continuous
 62
     7
100
AcDbLine
 10
106.4159689238
 20
83.9083543348
 30
0.0
 11
106.7159689238
 21
84.2083543348
 31
0.0
  0
LINE
  5
39C
330
225
100
AcDbEntity
 67
     1
  8
7_ALL_FEATURES
  6
Continuous
 62
     7
100
AcDbLine
 10
70.0161880853
 20
80.4083543348
 30
0.0
 11
80.7159689238
 21
80.4083543348
 31
0.0
  0
LINE
  5
39D
330
225
100
AcDbEntity
 67
     1
  8
7_ALL_FEATURES
  6
Continuous
 62
     7
100
AcDbLine
 10
80.7159689238
 20
80.4083543348
 30
0.0
 11
87.2159689238
 21
80.4083543348
 31
0.0
  0
LINE
  5
39E
330
225
100
AcDbEntity
 67
     1
  8
7_ALL_FEATURES
  6
Continuous
 62
     7
100
AcDbLine
 10
87.2159689238
 20
80.4083543348
 30
0.0
 11
88.7078011491
 21
80.4083543348
 31
0.0
  0
LINE
  5
39F
330
225
100
AcDbEntity
 67
     1
  8
7_ALL_FEATURES
  6
Continuous
 62
     7
100
AcDbLine
 10
88.7082379285
 20
83.9083543348
 30
0.0
 11
96.7159689238
 21
83.9083543348
 31
0.0
  0
LINE
  5
3A0
330
225
100
AcDbEntity
 67
     1
  8
7_ALL_FEATURES
  6
Continuous
 62
     7
100
AcDbLine
 10
96.7159689238
 20
83.9083543348
 30
0.0
 11
100.4661465644
 21
83.9083543348
 31
0.0
  0
LINE
  5
3A1
330
225
100
AcDbEntity
 67
     1
  8
7_ALL_FEATURES
  6
Continuous
 62
     7
100
AcDbLine
 10
100.4661465644
 20
83.9083543348
 30
0.0
 11
102.5494789895
 21
83.9083543348
 31
0.0
  0
LINE
  5
3A2
330
225
100
AcDbEntity
 67
     1
  8
7_ALL_FEATURES
  6
Continuous
 62
     7
100
AcDbLine
 10
102.5494789895
 20
83.9083543348
 30
0.0
 11
102.716950342
 21
83.9083543348
 31
0.0
  0
LINE
  5
3A3
330
225
100
AcDbEntity
 67
     1
  8
7_ALL_FEATURES
  6
Continuous
 62
     7
100
AcDbLine
 10
102.716950342
 20
83.9083543348
 30
0.0
 11
104.9657886123
 21
83.9083543348
 31
0.0
  0
LINE
  5
3A4
330
225
100
AcDbEntity
 67
     1
  8
7_ALL_FEATURES
  6
Continuous
 62
     7
100
AcDbLine
 10
104.9657886123
 20
83.9083543348
 30
0.0
 11
106.4157615736
 21
83.9083543348
 31
0.0
  0
LINE
  5
3A5
330
225
100
AcDbEntity
 67
     1
  8
7_ALL_FEATURES
  6
Continuous
 62
     7
100
AcDbLine
 10
70.0159689238
 20
80.4083543348
 30
0.0
 11
69.7159689238
 21
80.1083543348
 31
0.0
  0
LINE
  5
3A6
330
225
100
AcDbEntity
 67
     1
  8
7_ALL_FEATURES
  6
Continuous
 62
     7
100
AcDbLine
 10
107.4159689238
 20
80.4083543348
 30
0.0
 11
107.7159689238
 21
80.1083543348
 31
0.0
  0
LINE
  5
3A7
330
225
100
AcDbEntity
 67
     1
  8
7_ALL_FEATURES
  6
Continuous
 62
     7
100
AcDbLine
 10
88.7082379285
 20
85.9083543348
 30
0.0
 11
89.9657753308
 21
85.9083543348
 31
0.0
  0
LINE
  5
3A8
330
225
100
AcDbEntity
 67
     1
  8
7_ALL_FEATURES
  6
Continuous
 62
     7
100
AcDbLine
 10
89.9657753308
 20
85.9083543348
 30
0.0
 11
90.8659103237
 21
85.9083543348
 31
0.0
  0
LINE
  5
3A9
330
225
100
AcDbEntity
 67
     1
  8
7_ALL_FEATURES
  6
Continuous
 62
     7
100
AcDbLine
 10
90.8659103237
 20
85.9083543348
 30
0.0
 11
93.4656408862
 21
85.9083543348
 31
0.0
  0
LINE
  5
3AA
330
225
100
AcDbEntity
 67
     1
  8
7_ALL_FEATURES
  6
Continuous
 62
     7
100
AcDbLine
 10
93.4656408862
 20
85.9083543348
 30
0.0
 11
100.166170936
 21
85.9083543348
 31
0.0
  0
LINE
  5
3AB
330
225
100
AcDbEntity
 67
     1
  8
7_ALL_FEATURES
  6
Continuous
 62
     7
100
AcDbLine
 10
100.166170936
 20
85.9083543348
 30
0.0
 11
102.5494777307
 21
85.9083543348
 31
0.0
  0
LINE
  5
3AC
330
225
100
AcDbEntity
 67
     1
  8
7_ALL_FEATURES
  6
Continuous
 62
     7
100
AcDbLine
 10
102.5494777307
 20
85.9083543348
 30
0.0
 11
102.7170813758
 21
85.9083543348
 31
0.0
  0
LINE
  5
3AD
330
225
100
AcDbEntity
 67
     1
  8
7_ALL_FEATURES
  6
Continuous
 62
     7
100
AcDbLine
 10
102.7170813758
 20
85.9083543348
 30
0.0
 11
105.1895792256
 21
85.9083543348
 31
0.0
  0
LINE
  5
3AE
330
225
100
AcDbEntity
 67
     1
  8
7_ALL_FEATURES
  6
Continuous
 62
     7
100
AcDbLine
 10
105.1895792256
 20
85.9083543348
 30
0.0
 11
105.2657642407
 21
85.9083543348
 31
0.0
  0
LINE
  5
3AF
330
225
100
AcDbEntity
 67
     1
  8
7_ALL_FEATURES
  6
Continuous
 62
     7
100
AcDbLine
 10
105.2657642407
 20
85.9083543348
 30
0.0
 11
106.4157615738
 21
85.9083543348
 31
0.0
  0
LINE
  5
3B0
330
225
100
AcDbEntity
 67
     1
  8
7_ALL_FEATURES
  6
Continuous
 62
     7
100
AcDbLine
 10
70.0161880853
 20
78.4083543348
 30
0.0
 11
78.7159689238
 21
78.4083543348
 31
0.0
  0
LINE
  5
3B1
330
225
100
AcDbEntity
 67
     1
  8
7_ALL_FEATURES
  6
Continuous
 62
     7
100
AcDbLine
 10
78.7159689238
 20
78.4083543348
 30
0.0
 11
88.7078011491
 21
78.4083543348
 31
0.0
  0
LINE
  5
3B2
330
225
100
AcDbEntity
 67
     1
  8
7_ALL_FEATURES
  6
Continuous
 62
     7
100
AcDbLine
 10
70.0159689238
 20
78.4083543348
 30
0.0
 11
69.7159689238
 21
78.7083543348
 31
0.0
  0
LINE
  5
3B3
330
225
100
AcDbEntity
 67
     1
  8
7_ALL_FEATURES
  6
Continuous
 62
     7
100
AcDbLine
 10
107.4159689238
 20
78.4083543348
 30
0.0
 11
107.7159689238
 21
78.7083543348
 31
0.0
  0
LINE
  5
3B4
330
225
100
AcDbEntity
 67
     1
  8
7_ALL_FEATURES
  6
Continuous
 62
     7
100
AcDbLine
 10
69.2659689521
 20
74.9083543348
 30
0.0
 11
78.7159689238
 21
74.9083543348
 31
0.0
  0
LINE
  5
3B5
330
225
100
AcDbEntity
 67
     1
  8
7_ALL_FEATURES
  6
Continuous
 62
     7
100
AcDbLine
 10
78.7159689238
 20
74.9083543348
 30
0.0
 11
88.7074735646
 21
74.9083543348
 31
0.0
  0
LINE
  5
3B6
330
225
100
AcDbEntity
 67
     1
  8
7_ALL_FEATURES
  6
Continuous
 62
     7
100
AcDbLine
 10
69.2659689238
 20
74.9083543348
 30
0.0
 11
68.9659689238
 21
74.6083543348
 31
0.0
  0
LINE
  5
3B7
330
225
100
AcDbEntity
 67
     1
  8
7_ALL_FEATURES
  6
Continuous
 62
     7
100
AcDbLine
 10
108.1659689238
 20
74.9083543348
 30
0.0
 11
108.4659689238
 21
74.6083543348
 31
0.0
  0
LINE
  5
3B8
330
225
100
AcDbEntity
 67
     1
  8
7_ALL_FEATURES
  6
Continuous
 62
     7
100
AcDbLine
 10
69.2659689521
 20
72.9083543348
 30
0.0
 11
77.2159689238
 21
72.9083543348
 31
0.0
  0
LINE
  5
3B9
330
225
100
AcDbEntity
 67
     1
  8
7_ALL_FEATURES
  6
Continuous
 62
     7
100
AcDbLine
 10
77.2159689238
 20
72.9083543348
 30
0.0
 11
88.7074735646
 21
72.9083543348
 31
0.0
  0
LINE
  5
3BA
330
225
100
AcDbEntity
 67
     1
  8
7_ALL_FEATURES
  6
Continuous
 62
     7
100
AcDbLine
 10
69.2659689238
 20
72.9083543348
 30
0.0
 11
68.9659689238
 21
73.2083543348
 31
0.0
  0
LINE
  5
3BB
330
225
100
AcDbEntity
 67
     1
  8
7_ALL_FEATURES
  6
Continuous
 62
     7
100
AcDbLine
 10
108.1659689238
 20
72.9083543348
 30
0.0
 11
108.4659689238
 21
73.2083543348
 31
0.0
  0
LINE
  5
3BC
330
225
100
AcDbEntity
 67
     1
  8
7_ALL_FEATURES
  6
Continuous
 62
     7
100
AcDbLine
 10
69.3515079053
 20
69.4083543348
 30
0.0
 11
77.2159689238
 21
69.4083543348
 31
0.0
  0
LINE
  5
3BD
330
225
100
AcDbEntity
 67
     1
  8
7_ALL_FEATURES
  6
Continuous
 62
     7
100
AcDbLine
 10
77.2159689238
 20
69.4083543348
 30
0.0
 11
100.2159689238
 21
69.4083543348
 31
0.0
  0
LINE
  5
3BE
330
225
100
AcDbEntity
 67
     1
  8
7_ALL_FEATURES
  6
Continuous
 62
     7
100
AcDbLine
 10
100.2159689238
 20
69.4083543348
 30
0.0
 11
100.4661465644
 21
69.4083543348
 31
0.0
  0
LINE
  5
3BF
330
225
100
AcDbEntity
 67
     1
  8
7_ALL_FEATURES
  6
Continuous
 62
     7
100
AcDbLine
 10
100.4661465644
 20
69.4083543348
 30
0.0
 11
102.716950342
 21
69.4083543348
 31
0.0
  0
LINE
  5
3C0
330
225
100
AcDbEntity
 67
     1
  8
7_ALL_FEATURES
  6
Continuous
 62
     7
100
AcDbLine
 10
102.716950342
 20
69.4083543348
 30
0.0
 11
104.9657886123
 21
69.4083543348
 31
0.0
  0
LINE
  5
3C1
330
225
100
AcDbEntity
 67
     1
  8
7_ALL_FEATURES
  6
Continuous
 62
     7
100
AcDbLine
 10
104.9657886123
 20
69.4083543348
 30
0.0
 11
105.0018867727
 21
69.4083543348
 31
0.0
  0
LINE
  5
3C2
330
225
100
AcDbEntity
 67
     1
  8
7_ALL_FEATURES
  6
Continuous
 62
     7
100
AcDbLine
 10
105.0018867727
 20
69.4083543348
 30
0.0
 11
108.0804341094
 21
69.4083543348
 31
0.0
  0
LINE
  5
3C3
330
225
100
AcDbEntity
 67
     1
  8
7_ALL_FEATURES
  6
Continuous
 62
     7
100
AcDbLine
 10
69.351501891
 20
69.4083543348
 30
0.0
 11
68.4399418118
 21
68.8195212375
 31
0.0
  0
LINE
  5
3C4
330
225
100
AcDbEntity
 67
     1
  8
7_ALL_FEATURES
  6
Continuous
 62
     7
100
AcDbLine
 10
108.0804359566
 20
69.4083543348
 30
0.0
 11
108.9919960359
 21
68.8195212375
 31
0.0
  0
LINE
  5
3C5
330
225
100
AcDbEntity
 67
     1
  8
02___PRT_ALL_AXES
  6
Continuous
 62
     7
100
AcDbLine
 10
70.7159689238
 20
84.2083543348
 30
0.0
 11
70.7159689238
 21
85.6083543348
 31
0.0
  0
ARC
  5
3C6
330
225
100
AcDbEntity
 67
     1
  8
02___PRT_ALL_AXES
  6
Continuous
 62
     7
100
AcDbCircle
 10
88.7159689238
 20
59.6738472926
 30
0.0
 40
22.2432153106
100
AcDbArc
 50
11.6993403744
 51
24.2781589051
  0
LINE
  5
3C7
330
225
100
AcDbEntity
 67
     1
  8
02___PRT_ALL_AXES
  6
Continuous
 62
     7
100
AcDbLine
 10
80.7159689238
 20
80.4083543348
 30
0.0
 11
80.7159689238
 21
83.9083543348
 31
0.0
  0
ARC
  5
3C8
330
225
100
AcDbEntity
 67
     1
  8
02___PRT_ALL_AXES
  6
Continuous
 62
     7
100
AcDbCircle
 10
88.7159689238
 20
59.6738472926
 30
0.0
 40
22.2432153106
100
AcDbArc
 50
155.7218410949
 51
168.3006596256
  0
LINE
  5
3C9
330
225
100
AcDbEntity
 67
     1
  8
02___PRT_ALL_AXES
  6
Continuous
 62
     7
100
AcDbLine
 10
69.7159689238
 20
78.7083543348
 30
0.0
 11
69.7159689238
 21
80.1083543348
 31
0.0
  0
LINE
  5
3CA
330
225
100
AcDbEntity
 67
     1
  8
02___PRT_ALL_AXES
  6
Continuous
 62
     7
100
AcDbLine
 10
78.7159689238
 20
74.9083543348
 30
0.0
 11
78.7159689238
 21
78.4083543348
 31
0.0
  0
LINE
  5
3CB
330
225
100
AcDbEntity
 67
     1
  8
02___PRT_ALL_AXES
  6
Continuous
 62
     7
100
AcDbLine
 10
68.9659689238
 20
73.2083543348
 30
0.0
 11
68.9659689238
 21
74.6083543348
 31
0.0
  0
LINE
  5
3CC
330
225
100
AcDbEntity
 67
     1
  8
02___PRT_ALL_AXES
  6
Continuous
 62
     7
100
AcDbLine
 10
100.2159689238
 20
69.4083543348
 30
0.0
 11
100.2159689238
 21
72.9083543348
 31
0.0
  0
LINE
  5
3CD
330
225
100
AcDbEntity
 67
     1
  8
02___PRT_ALL_AXES
  6
Continuous
 62
     7
100
AcDbLine
 10
77.2159689238
 20
69.4083543348
 30
0.0
 11
77.2159689238
 21
72.9083543348
 31
0.0
  0
LINE
  5
3CE
330
225
100
AcDbEntity
 67
     1
  8
02___PRT_ALL_AXES
  6
Continuous
 62
     7
100
AcDbLine
 10
106.7159689238
 20
84.2083543348
 30
0.0
 11
106.7159689238
 21
85.6083543348
 31
0.0
  0
LINE
  5
3CF
330
225
100
AcDbEntity
 67
     1
  8
02___PRT_ALL_AXES
  6
Continuous
 62
     7
100
AcDbLine
 10
108.4659689238
 20
73.2083543348
 30
0.0
 11
108.4659689238
 21
74.6083543348
 31
0.0
  0
LINE
  5
3D0
330
225
100
AcDbEntity
 67
     1
  8
02___PRT_ALL_AXES
  6
Continuous
 62
     7
100
AcDbLine
 10
96.7159689238
 20
80.4083543348
 30
0.0
 11
96.7159689238
 21
83.9083543348
 31
0.0
  0
LINE
  5
3D1
330
225
100
AcDbEntity
 67
     1
  8
02___PRT_ALL_AXES
  6
Continuous
 62
     7
100
AcDbLine
 10
107.7159689238
 20
78.7083543348
 30
0.0
 11
107.7159689238
 21
80.1083543348
 31
0.0
  0
LINE
  5
3D2
330
225
100
AcDbEntity
 67
     1
  8
02___PRT_ALL_AXES
  6
Continuous
 62
     7
100
AcDbLine
 10
98.7159689238
 20
74.9083543348
 30
0.0
 11
98.7159689238
 21
78.4083543348
 31
0.0
  0
LINE
  5
3D3
330
225
100
AcDbEntity
 67
     1
  8
7_ALL_FEATURES
  6
Continuous
 62
     7
100
AcDbLine
 10
88.7073425308
 20
73.2083543348
 30
0.0
 11
108.4659689238
 21
73.2083543348
 31
0.0
  0
LINE
  5
3D4
330
225
100
AcDbEntity
 67
     1
  8
7_ALL_FEATURES
  6
Continuous
 62
     7
100
AcDbLine
 10
70.7159689238
 20
85.6083543348
 30
0.0
 11
88.7081068947
 21
85.6083543348
 31
0.0
  0
LINE
  5
3D5
330
225
100
AcDbEntity
 67
     1
  8
7_ALL_FEATURES
  6
Continuous
 62
     7
100
AcDbLine
 10
70.7159689238
 20
84.2083543348
 30
0.0
 11
88.7081068947
 21
84.2083543348
 31
0.0
  0
LINE
  5
3D6
330
225
100
AcDbEntity
 67
     1
  8
7_ALL_FEATURES
  6
Continuous
 62
     7
100
AcDbLine
 10
88.7081068947
 20
85.6083543348
 30
0.0
 11
106.7159689238
 21
85.6083543348
 31
0.0
  0
LINE
  5
3D7
330
225
100
AcDbEntity
 67
     1
  8
7_ALL_FEATURES
  6
Continuous
 62
     7
100
AcDbLine
 10
88.7081068947
 20
84.2083543348
 30
0.0
 11
106.7159689238
 21
84.2083543348
 31
0.0
  0
LINE
  5
3D8
330
225
100
AcDbEntity
 67
     1
  8
7_ALL_FEATURES
  6
Continuous
 62
     7
100
AcDbLine
 10
69.7159689238
 20
80.1083543348
 30
0.0
 11
88.7076701153
 21
80.1083543348
 31
0.0
  0
LINE
  5
3D9
330
225
100
AcDbEntity
 67
     1
  8
7_ALL_FEATURES
  6
Continuous
 62
     7
100
AcDbLine
 10
108.9919941017
 20
68.8195212376
 30
0.0
 11
108.9919960358
 21
68.8195212376
 31
0.0
  0
LINE
  5
3DA
330
225
100
AcDbEntity
 67
     1
  8
7_ALL_FEATURES
  6
Continuous
 62
     7
100
AcDbLine
 10
88.7076701153
 20
80.1083543348
 30
0.0
 11
107.7159689238
 21
80.1083543348
 31
0.0
  0
LINE
  5
3DB
330
225
100
AcDbEntity
 67
     1
  8
7_ALL_FEATURES
  6
Continuous
 62
     7
100
AcDbLine
 10
69.7159689238
 20
78.7083543348
 30
0.0
 11
88.7076701153
 21
78.7083543348
 31
0.0
  0
LINE
  5
3DC
330
225
100
AcDbEntity
 67
     1
  8
7_ALL_FEATURES
  6
Continuous
 62
     7
100
AcDbLine
 10
68.4399418118
 20
68.8195212376
 30
0.0
 11
108.9919941016
 21
68.8195212376
 31
0.0
  0
LINE
  5
3DD
330
225
100
AcDbEntity
 67
     1
  8
7_ALL_FEATURES
  6
Continuous
 62
     7
100
AcDbLine
 10
88.7076701153
 20
78.7083543348
 30
0.0
 11
107.7159689238
 21
78.7083543348
 31
0.0
  0
LINE
  5
3DE
330
225
100
AcDbEntity
 67
     1
  8
7_ALL_FEATURES
  6
Continuous
 62
     7
100
AcDbLine
 10
68.9659689238
 20
74.6083543348
 30
0.0
 11
88.7073425308
 21
74.6083543348
 31
0.0
  0
LINE
  5
3DF
330
225
100
AcDbEntity
 67
     1
  8
7_ALL_FEATURES
  6
Continuous
 62
     7
100
AcDbLine
 10
68.9659689238
 20
73.2083543348
 30
0.0
 11
88.7073425308
 21
73.2083543348
 31
0.0
  0
LINE
  5
3E0
330
225
100
AcDbEntity
 67
     1
  8
7_ALL_FEATURES
  6
Continuous
 62
     7
100
AcDbLine
 10
88.7073425308
 20
74.6083543348
 30
0.0
 11
108.4659689238
 21
74.6083543348
 31
0.0
  0
ARC
  5
3E1
330
225
100
AcDbEntity
 67
     1
  8
7_ALL_FEATURES
  6
Continuous
 62
     3
100
AcDbCircle
 10
60.3659689238
 20
50.5738472926
 30
0.0
 40
0.35
100
AcDbArc
 50
180.0
 51
270.0
  0
LINE
  5
3E2
330
225
100
AcDbEntity
 67
     1
  8
7_ALL_FEATURES
  6
Continuous
 62
     3
100
AcDbLine
 10
58.7097511412
 20
45.4362828579
 30
0.0
 11
47.6097511412
 21
64.6620468219
 31
0.0
  0
LINE
  5
3E3
330
225
100
AcDbEntity
 67
     1
  8
7_ALL_FEATURES
  6
Continuous
 62
     3
100
AcDbLine
 10
60.0159689238
 20
50.5738472926
 30
0.0
 11
60.0159689238
 21
57.3738472926
 31
0.0
  0
LINE
  5
3E4
330
225
100
AcDbEntity
 67
     1
  8
7_ALL_FEATURES
  6
Continuous
 62
     3
100
AcDbLine
 10
60.0159689238
 20
47.3738472926
 30
0.0
 11
60.0159689238
 21
45.7862828579
 31
0.0
  0
ARC
  5
3E5
330
225
100
AcDbEntity
 67
     1
  8
7_ALL_FEATURES
  6
Continuous
 62
     3
100
AcDbCircle
 10
59.3159689238
 20
45.7862828579
 30
0.0
 40
0.7
100
AcDbArc
 50
210.0
 51
360.0
  0
ARC
  5
3E6
330
225
100
AcDbEntity
 67
     1
  8
7_ALL_FEATURES
  6
Continuous
 62
     3
100
AcDbCircle
 10
48.2159689238
 20
65.0120468219
 30
0.0
 40
0.7
100
AcDbArc
 50
180.0
 51
210.0
  0
LINE
  5
3E7
330
225
100
AcDbEntity
 67
     1
  8
7_ALL_FEATURES
  6
Continuous
 62
     3
100
AcDbLine
 10
47.5159689238
 20
65.0120468219
 30
0.0
 11
47.5159689238
 21
70.8244823872
 31
0.0
  0
LINE
  5
3E8
330
225
100
AcDbEntity
 67
     1
  8
7_ALL_FEATURES
  6
Continuous
 62
     3
100
AcDbLine
 10
60.3659689238
 20
47.7238472926
 30
0.0
 11
60.9659689238
 21
47.7238472926
 31
0.0
  0
ARC
  5
3E9
330
225
100
AcDbEntity
 67
     1
  8
7_ALL_FEATURES
  6
Continuous
 62
     3
100
AcDbCircle
 10
60.9659689238
 20
49.5238472926
 30
0.0
 40
0.7
100
AcDbArc
 50
16.6920503368
 51
90.0
  0
LINE
  5
3EA
330
225
100
AcDbEntity
 67
     1
  8
7_ALL_FEATURES
  6
Continuous
 62
     3
100
AcDbLine
 10
60.3659689238
 20
50.2238472926
 30
0.0
 11
60.9659689238
 21
50.2238472926
 31
0.0
  0
ARC
  5
3EB
330
225
100
AcDbEntity
 67
     1
  8
7_ALL_FEATURES
  6
Continuous
 62
     3
100
AcDbCircle
 10
60.3659689238
 20
47.3738472926
 30
0.0
 40
0.35
100
AcDbArc
 50
90.0
 51
180.0
  0
ARC
  5
3EC
330
225
100
AcDbEntity
 67
     1
  8
7_ALL_FEATURES
  6
Continuous
 62
     3
100
AcDbCircle
 10
60.9659689238
 20
48.4238472926
 30
0.0
 40
0.7
100
AcDbArc
 50
270.0
 51
343.3079496632
  0
LINE
  5
3ED
330
225
100
AcDbEntity
 67
     1
  8
7_ALL_FEATURES
  6
Continuous
 62
     3
100
AcDbLine
 10
129.8221867065
 20
64.6620468219
 30
0.0
 11
118.7221867065
 21
45.4362828579
 31
0.0
  0
ARC
  5
3EE
330
225
100
AcDbEntity
 67
     1
  8
7_ALL_FEATURES
  6
Continuous
 62
     3
100
AcDbCircle
 10
117.0659689238
 20
50.5738472926
 30
0.0
 40
0.35
100
AcDbArc
 50
270.0
 51
360.0
  0
LINE
  5
3EF
330
225
100
AcDbEntity
 67
     1
  8
7_ALL_FEATURES
  6
Continuous
 62
     3
100
AcDbLine
 10
117.4159689238
 20
57.3738472926
 30
0.0
 11
117.4159689238
 21
50.5738472926
 31
0.0
  0
LINE
  5
3F0
330
225
100
AcDbEntity
 67
     1
  8
7_ALL_FEATURES
  6
Continuous
 62
     3
100
AcDbLine
 10
117.4159689238
 20
45.7862828579
 30
0.0
 11
117.4159689238
 21
47.3738472926
 31
0.0
  0
ARC
  5
3F1
330
225
100
AcDbEntity
 67
     1
  8
7_ALL_FEATURES
  6
Continuous
 62
     3
100
AcDbCircle
 10
118.1159689238
 20
45.7862828579
 30
0.0
 40
0.7
100
AcDbArc
 50
180.0
 51
330.0
  0
ARC
  5
3F2
330
225
100
AcDbEntity
 67
     1
  8
7_ALL_FEATURES
  6
Continuous
 62
     3
100
AcDbCircle
 10
129.2159689238
 20
65.0120468219
 30
0.0
 40
0.7
100
AcDbArc
 50
330.0
 51
360.0
  0
LINE
  5
3F3
330
225
100
AcDbEntity
 67
     1
  8
7_ALL_FEATURES
  6
Continuous
 62
     3
100
AcDbLine
 10
129.9159689238
 20
70.8244823872
 30
0.0
 11
129.9159689238
 21
65.0120468219
 31
0.0
  0
ARC
  5
3F4
330
225
100
AcDbEntity
 67
     1
  8
7_ALL_FEATURES
  6
Continuous
 62
     3
100
AcDbCircle
 10
116.4659689238
 20
49.5238472926
 30
0.0
 40
0.7
100
AcDbArc
 50
90.0
 51
163.3079496632
  0
LINE
  5
3F5
330
225
100
AcDbEntity
 67
     1
  8
7_ALL_FEATURES
  6
Continuous
 62
     3
100
AcDbLine
 10
116.4659689238
 20
47.7238472926
 30
0.0
 11
117.0659689238
 21
47.7238472926
 31
0.0
  0
LINE
  5
3F6
330
225
100
AcDbEntity
 67
     1
  8
7_ALL_FEATURES
  6
Continuous
 62
     3
100
AcDbLine
 10
116.4659689238
 20
50.2238472926
 30
0.0
 11
117.0659689238
 21
50.2238472926
 31
0.0
  0
ARC
  5
3F7
330
225
100
AcDbEntity
 67
     1
  8
7_ALL_FEATURES
  6
Continuous
 62
     3
100
AcDbCircle
 10
117.0659689238
 20
47.3738472926
 30
0.0
 40
0.35
100
AcDbArc
 50
0.0
 51
90.0
  0
ARC
  5
3F8
330
225
100
AcDbEntity
 67
     1
  8
7_ALL_FEATURES
  6
Continuous
 62
     3
100
AcDbCircle
 10
116.4659689238
 20
48.4238472926
 30
0.0
 40
0.7
100
AcDbArc
 50
196.6920503368
 51
270.0
  0
LINE
  5
3F9
330
225
100
AcDbEntity
 67
     1
  8
7_ALL_FEATURES
  6
Continuous
 62
     7
100
AcDbLine
 10
87.5242678468
 20
125.5670879385
 30
0.0
 11
87.6742678324
 21
125.5671534554
 31
0.0
  0
LINE
  5
3FA
330
225
100
AcDbEntity
 67
     1
  8
7_ALL_FEATURES
  6
Continuous
 62
     7
100
AcDbLine
 10
87.6742678324
 20
125.5671534554
 30
0.0
 11
88.7242677323
 21
125.5676120738
 31
0.0
  0
LINE
  5
3FB
330
225
100
AcDbEntity
 67
     1
  8
7_ALL_FEATURES
  6
Continuous
 62
     7
100
AcDbLine
 10
88.7242677323
 20
125.5676120738
 30
0.0
 11
89.7742676321
 21
125.5680706921
 31
0.0
  0
LINE
  5
3FC
330
225
100
AcDbEntity
 67
     1
  8
7_ALL_FEATURES
  6
Continuous
 62
     7
100
AcDbLine
 10
89.7742676321
 20
125.5680706921
 30
0.0
 11
89.9242676178
 21
125.568136209
 31
0.0
  0
LINE
  5
3FD
330
225
100
AcDbEntity
 67
     1
  8
7_ALL_FEATURES
  6
Continuous
 62
     7
100
AcDbLine
 10
89.9648004438
 20
125.6087044715
 30
0.0
 11
89.9242676114
 21
125.5681362154
 31
0.0
  0
LINE
  5
3FE
330
225
100
AcDbEntity
 67
     1
  8
7_ALL_FEATURES
  6
Continuous
 62
     7
100
AcDbLine
 10
87.483699015
 20
125.6076213597
 30
0.0
 11
87.5242678531
 21
125.5670879449
 31
0.0
  0
LINE
  5
3FF
330
225
100
AcDbEntity
 67
     1
  8
7_ALL_FEATURES
  6
Continuous
 62
     7
100
AcDbLine
 10
89.9076700009
 20
163.5681325843
 30
0.0
 11
89.7576700152
 21
163.5680670674
 31
0.0
  0
LINE
  5
400
330
225
100
AcDbEntity
 67
     1
  8
7_ALL_FEATURES
  6
Continuous
 62
     7
100
AcDbLine
 10
89.7576700152
 20
163.5680670674
 30
0.0
 11
88.7076701153
 21
163.567608449
 31
0.0
  0
LINE
  5
401
330
225
100
AcDbEntity
 67
     1
  8
7_ALL_FEATURES
  6
Continuous
 62
     7
100
AcDbLine
 10
88.7076701153
 20
163.567608449
 30
0.0
 11
87.6576702155
 21
163.5671498307
 31
0.0
  0
LINE
  5
402
330
225
100
AcDbEntity
 67
     1
  8
7_ALL_FEATURES
  6
Continuous
 62
     7
100
AcDbLine
 10
87.6576702155
 20
163.5671498307
 30
0.0
 11
87.5076702298
 21
163.5670843138
 31
0.0
  0
LINE
  5
403
330
225
100
AcDbEntity
 67
     1
  8
7_ALL_FEATURES
  6
Continuous
 62
     7
100
AcDbLine
 10
87.4671374038
 20
163.5265160513
 30
0.0
 11
87.5076702362
 21
163.5670843074
 31
0.0
  0
LINE
  5
404
330
225
100
AcDbEntity
 67
     1
  8
7_ALL_FEATURES
  6
Continuous
 62
     7
100
AcDbLine
 10
89.9482388326
 20
163.5275991631
 30
0.0
 11
89.9076699945
 21
163.5681325779
 31
0.0
  0
LINE
  5
405
330
225
100
AcDbEntity
 67
     1
  8
3_ALL_AXES
  6
Continuous
 62
     7
100
AcDbLine
 10
62.6959766102
 20
145.8176102614
 30
0.0
 11
62.5992868686
 21
145.8176102614
 31
0.0
  0
LINE
  5
406
330
225
100
AcDbEntity
 67
     1
  8
3_ALL_AXES
  6
Continuous
 62
     7
100
AcDbLine
 10
62.6959766102
 20
143.3176102614
 30
0.0
 11
62.5992868686
 21
143.3176102614
 31
0.0
  0
LINE
  5
407
330
225
100
AcDbEntity
 67
     1
  8
3_ALL_AXES
  6
Continuous
 62
     7
100
AcDbLine
 10
114.7359612374
 20
145.8176102614
 30
0.0
 11
114.832650979
 21
145.8176102614
 31
0.0
  0
LINE
  5
408
330
225
100
AcDbEntity
 67
     1
  8
3_ALL_AXES
  6
Continuous
 62
     7
100
AcDbLine
 10
114.7359612374
 20
143.3176102614
 30
0.0
 11
114.832650979
 21
143.3176102614
 31
0.0
  0
ARC
  5
409
330
225
100
AcDbEntity
 67
     1
  8
7_ALL_FEATURES
  6
Continuous
 62
     7
100
AcDbCircle
 10
88.7159689238
 20
144.5676102614
 30
0.0
 40
10.65
100
AcDbArc
 50
180.0
 51
360.0
  0
ARC
  5
40A
330
225
100
AcDbEntity
 67
     1
  8
7_ALL_FEATURES
  6
Continuous
 62
     7
100
AcDbCircle
 10
88.7159689238
 20
144.5676102614
 30
0.0
 40
10.65
100
AcDbArc
 50
0.0
 51
180.0
  0
ARC
  5
40B
330
225
100
AcDbEntity
 67
     1
  8
02___PRT_ALL_AXES
  6
Continuous
 62
     7
100
AcDbCircle
 10
88.7159689238
 20
144.5676102614
 30
0.0
 40
10.75
100
AcDbArc
 50
270.0
 51
90.0
  0
ARC
  5
40C
330
225
100
AcDbEntity
 67
     1
  8
02___PRT_ALL_AXES
  6
Continuous
 62
     7
100
AcDbCircle
 10
88.7159689238
 20
144.5676102614
 30
0.0
 40
10.75
100
AcDbArc
 50
90.0
 51
270.0
  0
ARC
  5
40D
330
225
100
AcDbEntity
 67
     1
  8
7_ALL_FEATURES
  6
Continuous
 62
     9
100
AcDbCircle
 10
88.7159689238
 20
144.5676102614
 30
0.0
 40
13.0833333333
100
AcDbArc
 50
270.0
 51
90.0
  0
ARC
  5
40E
330
225
100
AcDbEntity
 67
     1
  8
7_ALL_FEATURES
  6
Continuous
 62
     9
100
AcDbCircle
 10
88.7159689238
 20
144.5676102614
 30
0.0
 40
12.6217948718
100
AcDbArc
 50
90.0
 51
270.0
  0
ARC
  5
40F
330
225
100
AcDbEntity
 67
     1
  8
7_ALL_FEATURES
  6
Continuous
 62
     9
100
AcDbCircle
 10
88.7159689238
 20
144.5676102614
 30
0.0
 40
12.6217948718
100
AcDbArc
 50
270.0
 51
90.0
  0
ARC
  5
410
330
225
100
AcDbEntity
 67
     1
  8
7_ALL_FEATURES
  6
Continuous
 62
     9
100
AcDbCircle
 10
88.7159689238
 20
144.5676102614
 30
0.0
 40
13.0833333333
100
AcDbArc
 50
90.0
 51
270.0
  0
ARC
  5
411
330
225
100
AcDbEntity
 67
     1
  8
3_ALL_AXES
  6
Continuous
 62
     7
100
AcDbCircle
 10
88.7159689238
 20
144.5676102614
 30
0.0
 40
19.0
100
AcDbArc
 50
0.0250256166
 51
180.0250256166
  0
ARC
  5
412
330
225
100
AcDbEntity
 67
     1
  8
3_ALL_AXES
  6
Continuous
 62
     7
100
AcDbCircle
 10
88.7159689238
 20
144.5676102614
 30
0.0
 40
19.0
100
AcDbArc
 50
180.0250256166
 51
0.0250256166
  0
ARC
  5
413
330
225
100
AcDbEntity
 67
     1
  8
7_ALL_FEATURES
  6
Continuous
 62
     7
100
AcDbCircle
 10
88.7159689238
 20
144.5676102614
 30
0.0
 40
13.5
100
AcDbArc
 50
0.0250256166
 51
180.0250256166
  0
ARC
  5
414
330
225
100
AcDbEntity
 67
     1
  8
7_ALL_FEATURES
  6
Continuous
 62
     7
100
AcDbCircle
 10
88.7159689238
 20
144.5676102614
 30
0.0
 40
13.5
100
AcDbArc
 50
180.0250256166
 51
0.0250256166
  0
ARC
  5
415
330
225
100
AcDbEntity
 67
     1
  8
7_ALL_FEATURES
  6
Continuous
 62
     9
100
AcDbCircle
 10
88.7159689238
 20
144.5676102614
 30
0.0
 40
15.5
100
AcDbArc
 50
0.0250256166
 51
180.0250256166
  0
ARC
  5
416
330
225
100
AcDbEntity
 67
     1
  8
7_ALL_FEATURES
  6
Continuous
 62
     9
100
AcDbCircle
 10
88.7159689238
 20
144.5676102614
 30
0.0
 40
15.5
100
AcDbArc
 50
180.0250256166
 51
0.0250256166
  0
ARC
  5
417
330
225
100
AcDbEntity
 67
     1
  8
7_ALL_FEATURES
  6
Continuous
 62
     9
100
AcDbCircle
 10
88.7159689238
 20
144.5676102614
 30
0.0
 40
19.2048931833
100
AcDbArc
 50
0.0250256166
 51
180.0250256166
  0
ARC
  5
418
330
225
100
AcDbEntity
 67
     1
  8
7_ALL_FEATURES
  6
Continuous
 62
     9
100
AcDbCircle
 10
88.7159689238
 20
144.5676102614
 30
0.0
 40
19.2048931833
100
AcDbArc
 50
180.0250256166
 51
0.0250256166
  0
ARC
  5
419
330
225
100
AcDbEntity
 67
     1
  8
7_ALL_FEATURES
  6
Continuous
 62
     7
100
AcDbCircle
 10
88.7159689238
 20
144.5676102614
 30
0.0
 40
22.0
100
AcDbArc
 50
90.0
 51
270.0
  0
ARC
  5
41A
330
225
100
AcDbEntity
 67
     1
  8
3_ALL_AXES
  6
Continuous
 62
     7
100
AcDbCircle
 10
88.7159689238
 20
144.5676102614
 30
0.0
 40
26.05
100
AcDbArc
 50
90.0
 51
270.0
  0
ARC
  5
41B
330
225
100
AcDbEntity
 67
     1
  8
7_ALL_FEATURES
  6
Continuous
 62
     7
100
AcDbCircle
 10
88.7159689238
 20
144.5676102614
 30
0.0
 40
22.0
100
AcDbArc
 50
270.0
 51
90.0
  0
ARC
  5
41C
330
225
100
AcDbEntity
 67
     1
  8
3_ALL_AXES
  6
Continuous
 62
     7
100
AcDbCircle
 10
88.7159689238
 20
144.5676102614
 30
0.0
 40
26.05
100
AcDbArc
 50
270.0
 51
90.0
  0
ARC
  5
41D
330
225
100
AcDbEntity
 67
     1
  8
7_ALL_FEATURES
  6
Continuous
 62
     9
100
AcDbCircle
 10
88.7159689238
 20
144.5676102614
 30
0.0
 40
22.0316718427
100
AcDbArc
 50
89.99999996930002
 51
269.9999999693
  0
ARC
  5
41E
330
225
100
AcDbEntity
 67
     1
  8
7_ALL_FEATURES
  6
Continuous
 62
     9
100
AcDbCircle
 10
88.7159689238
 20
144.5676102614
 30
0.0
 40
24.2180339887
100
AcDbArc
 50
270.000000176
 51
90.000000176
  0
ARC
  5
41F
330
225
100
AcDbEntity
 67
     1
  8
7_ALL_FEATURES
  6
Continuous
 62
     9
100
AcDbCircle
 10
88.7159689238
 20
144.5676102614
 30
0.0
 40
24.2180339887
100
AcDbArc
 50
90.000000176
 51
270.000000176
  0
ARC
  5
420
330
225
100
AcDbEntity
 67
     1
  8
7_ALL_FEATURES
  6
Continuous
 62
     9
100
AcDbCircle
 10
88.7159689238
 20
144.5676102614
 30
0.0
 40
23.3236067977
100
AcDbArc
 50
269.9999999693
 51
89.99999996930002
  0
ARC
  5
421
330
225
100
AcDbEntity
 67
     1
  8
7_ALL_FEATURES
  6
Continuous
 62
     9
100
AcDbCircle
 10
88.7159689238
 20
144.5676102614
 30
0.0
 40
22.0316718427
100
AcDbArc
 50
269.9999999693
 51
89.99999996930002
  0
ARC
  5
422
330
225
100
AcDbEntity
 67
     1
  8
7_ALL_FEATURES
  6
Continuous
 62
     9
100
AcDbCircle
 10
88.7159689238
 20
144.5676102614
 30
0.0
 40
23.3236067977
100
AcDbArc
 50
89.99999996930002
 51
269.9999999693
  0
ARC
  5
423
330
225
100
AcDbEntity
 67
     1
  8
02___PRT_ALL_AXES
  6
Continuous
 62
     7
100
AcDbCircle
 10
88.7159689238
 20
144.5676102614
 30
0.0
 40
26.15
100
AcDbArc
 50
0.0
 51
180.0
  0
ARC
  5
424
330
225
100
AcDbEntity
 67
     1
  8
02___PRT_ALL_AXES
  6
Continuous
 62
     7
100
AcDbCircle
 10
88.7159689238
 20
144.5676102614
 30
0.0
 40
26.15
100
AcDbArc
 50
180.0
 51
360.0
  0
ARC
  5
425
330
225
100
AcDbEntity
 67
     1
  8
02___PRT_ALL_AXES
  6
Continuous
 62
     7
100
AcDbCircle
 10
88.7159689238
 20
144.5676102614
 30
0.0
 40
34.5
100
AcDbArc
 50
0.0
 51
180.0
  0
ARC
  5
426
330
225
100
AcDbEntity
 67
     1
  8
02___PRT_ALL_AXES
  6
Continuous
 62
     7
100
AcDbCircle
 10
88.7159689238
 20
144.5676102614
 30
0.0
 40
34.5
100
AcDbArc
 50
180.0
 51
360.0
  0
ARC
  5
427
330
225
100
AcDbEntity
 67
     1
  8
7_ALL_FEATURES
  6
Continuous
 62
     9
100
AcDbCircle
 10
88.7159689238
 20
144.5676102614
 30
0.0
 40
27.5047842198
100
AcDbArc
 50
0.0
 51
180.0
  0
ARC
  5
428
330
225
100
AcDbEntity
 67
     1
  8
7_ALL_FEATURES
  6
Continuous
 62
     9
100
AcDbCircle
 10
88.7159689238
 20
144.5676102614
 30
0.0
 40
27.5047842198
100
AcDbArc
 50
180.0
 51
360.0
  0
ARC
  5
429
330
225
100
AcDbEntity
 67
     1
  8
7_ALL_FEATURES
  6
Continuous
 62
     9
100
AcDbCircle
 10
88.7159689238
 20
144.5676102614
 30
0.0
 40
27.793692682
100
AcDbArc
 50
0.0
 51
180.0
  0
ARC
  5
42A
330
225
100
AcDbEntity
 67
     1
  8
7_ALL_FEATURES
  6
Continuous
 62
     9
100
AcDbCircle
 10
88.7159689238
 20
144.5676102614
 30
0.0
 40
27.793692682
100
AcDbArc
 50
180.0
 51
360.0
  0
LINE
  5
42B
330
225
100
AcDbEntity
 67
     1
  8
7_ALL_FEATURES
  6
Continuous
 62
     3
100
AcDbLine
 10
47.6097511412
 20
140.5676102614
 30
0.0
 11
54.4499548272
 21
140.5676102614
 31
0.0
  0
LINE
  5
42C
330
225
100
AcDbEntity
 67
     1
  8
7_ALL_FEATURES
  6
Continuous
 62
     3
100
AcDbLine
 10
54.4499548272
 20
148.5676102614
 30
0.0
 11
47.6097511412
 21
148.5676102614
 31
0.0
  0
LINE
  5
42D
330
225
100
AcDbEntity
 67
     1
  8
7_ALL_FEATURES
  6
Continuous
 62
     3
100
AcDbLine
 10
47.5159689238
 20
140.5676102614
 30
0.0
 11
47.6097511412
 21
140.5676102614
 31
0.0
  0
LINE
  5
42E
330
225
100
AcDbEntity
 67
     1
  8
7_ALL_FEATURES
  6
Continuous
 62
     3
100
AcDbLine
 10
47.5159689238
 20
148.5676102614
 30
0.0
 11
47.6097511412
 21
148.5676102614
 31
0.0
  0
LINE
  5
42F
330
225
100
AcDbEntity
 67
     1
  8
7_ALL_FEATURES
  6
Continuous
 62
     3
100
AcDbLine
 10
47.5159689238
 20
140.5676102614
 30
0.0
 11
47.5159689238
 21
148.5676102614
 31
0.0
  0
LINE
  5
430
330
225
100
AcDbEntity
 67
     1
  8
7_ALL_FEATURES
  6
Continuous
 62
     9
100
AcDbLine
 10
47.6097511412
 20
140.5676102614
 30
0.0
 11
47.6097511412
 21
148.5676102614
 31
0.0
  0
LINE
  5
431
330
225
100
AcDbEntity
 67
     1
  8
7_ALL_FEATURES
  6
Continuous
 62
     3
100
AcDbLine
 10
129.8221867065
 20
148.5676102614
 30
0.0
 11
122.9819830204
 21
148.5676102614
 31
0.0
  0
LINE
  5
432
330
225
100
AcDbEntity
 67
     1
  8
7_ALL_FEATURES
  6
Continuous
 62
     3
100
AcDbLine
 10
122.9819830204
 20
140.5676102614
 30
0.0
 11
129.8221867065
 21
140.5676102614
 31
0.0
  0
LINE
  5
433
330
225
100
AcDbEntity
 67
     1
  8
7_ALL_FEATURES
  6
Continuous
 62
     3
100
AcDbLine
 10
129.9159689238
 20
148.5676102614
 30
0.0
 11
129.8221867065
 21
148.5676102614
 31
0.0
  0
LINE
  5
434
330
225
100
AcDbEntity
 67
     1
  8
7_ALL_FEATURES
  6
Continuous
 62
     3
100
AcDbLine
 10
129.9159689238
 20
140.5676102614
 30
0.0
 11
129.8221867065
 21
140.5676102614
 31
0.0
  0
LINE
  5
435
330
225
100
AcDbEntity
 67
     1
  8
7_ALL_FEATURES
  6
Continuous
 62
     3
100
AcDbLine
 10
129.9159689238
 20
148.5676102614
 30
0.0
 11
129.9159689238
 21
140.5676102614
 31
0.0
  0
LINE
  5
436
330
225
100
AcDbEntity
 67
     1
  8
7_ALL_FEATURES
  6
Continuous
 62
     9
100
AcDbLine
 10
129.8221867065
 20
148.5676102614
 30
0.0
 11
129.8221867065
 21
140.5676102614
 31
0.0
  0
LINE
  5
437
330
225
100
AcDbEntity
 67
     1
  8
3_ALL_AXES
  6
Continuous
 62
     7
100
AcDbLine
 10
178.4175757263
 20
147.3676102614
 30
0.0
 11
177.1947927356
 21
147.3676102614
 31
0.0
  0
LINE
  5
438
330
225
100
AcDbEntity
 67
     1
  8
3_ALL_AXES
  6
Continuous
 62
     7
100
AcDbLine
 10
176.4749404843
 20
146.0676102614
 30
0.0
 11
176.4893964491
 21
146.0676102614
 31
0.0
  0
ARC
  5
439
330
225
100
AcDbEntity
 67
     1
  8
3_ALL_AXES
  6
Continuous
 62
     7
100
AcDbCircle
 10
180.7175757263
 20
144.5676102614
 30
0.0
 40
4.5
100
AcDbArc
 50
141.5214048667
 51
160.4579351587
  0
ARC
  5
43A
330
225
100
AcDbEntity
 67
     1
  8
3_ALL_AXES
  6
Continuous
 62
     7
100
AcDbCircle
 10
180.7175757263
 20
144.5676102614
 30
0.0
 40
4.5
100
AcDbArc
 50
160.4579351587
 51
160.5287793655
  0
LINE
  5
43B
330
225
100
AcDbEntity
 67
     1
  8
3_ALL_AXES
  6
Continuous
 62
     7
100
AcDbLine
 10
176.4893964491
 20
143.0676102614
 30
0.0
 11
176.4749404843
 21
143.0676102614
 31
0.0
  0
ARC
  5
43C
330
225
100
AcDbEntity
 67
     1
  8
3_ALL_AXES
  6
Continuous
 62
     7
100
AcDbCircle
 10
180.7175757263
 20
144.5676102614
 30
0.0
 40
4.4863682417
100
AcDbArc
 50
185.3717206844
 51
199.5327832667
  0
SPLINE
  5
43D
330
225
100
AcDbEntity
 67
     1
  8
3_ALL_AXES
  6
Continuous
 62
     7
100
AcDbSpline
 70
     0
 71
     3
 72
    14
 73
    10
 74
     0
 42
0.000000001
 43
0.0000001
 40
0.0
 40
0.0
 40
0.0
 40
0.0
 40
0.0250522634
 40
0.0826614775
 40
0.1745543994
 40
0.29798062
 40
0.4484197279
 40
0.6200504974
 40
1.0
 40
1.0
 40
1.0
 40
1.0
 10
176.2509103034
 20
144.2176102614
 30
0.0
 10
176.2503204599
 20
144.2176102614
 30
0.0
 10
176.2492616961
 20
144.2153141009
 30
0.0
 10
176.2487855766
 20
144.2116436107
 30
0.0
 10
176.2482292678
 20
144.2050211761
 30
0.0
 10
176.24814191
 20
144.1964944567
 30
0.0
 10
176.2483268815
 20
144.1859748032
 30
0.0
 10
176.249078209
 20
144.1694747964
 30
0.0
 10
176.2500728318
 20
144.1565167037
 30
0.0
 10
176.2509103034
 20
144.1476102614
 30
0.0
  0
LINE
  5
43E
330
225
100
AcDbEntity
 67
     1
  8
3_ALL_AXES
  6
Continuous
 62
     7
100
AcDbLine
 10
176.4893964491
 20
144.2176102614
 30
0.0
 11
176.2509103034
 21
144.2176102614
 31
0.0
  0
ARC
  5
43F
330
225
100
AcDbEntity
 67
     1
  8
3_ALL_AXES
  6
Continuous
 62
     7
100
AcDbCircle
 10
180.7175757263
 20
144.5676102614
 30
0.0
 40
4.2426406871
100
AcDbArc
 50
180.0
 51
184.7320384041
  0
LINE
  5
440
330
225
100
AcDbEntity
 67
     1
  8
3_ALL_AXES
  6
Continuous
 62
     7
100
AcDbLine
 10
179.8175757263
 20
146.0176102614
 30
0.0
 11
179.7175757263
 21
146.0176102614
 31
0.0
  0
ARC
  5
441
330
225
100
AcDbEntity
 67
     1
  8
3_ALL_AXES
  6
Continuous
 62
     7
100
AcDbCircle
 10
180.7175757263
 20
144.5676102614
 30
0.0
 40
4.2426406871
100
AcDbArc
 50
175.2679615959
 51
180.0
  0
LINE
  5
442
330
225
100
AcDbEntity
 67
     1
  8
3_ALL_AXES
  6
Continuous
 62
     7
100
AcDbLine
 10
176.2509103034
 20
144.9176102614
 30
0.0
 11
176.4893964491
 21
144.9176102614
 31
0.0
  0
SPLINE
  5
443
330
225
100
AcDbEntity
 67
     1
  8
3_ALL_AXES
  6
Continuous
 62
     7
100
AcDbSpline
 70
     0
 71
     3
 72
    14
 73
    10
 74
     0
 42
0.000000001
 43
0.0000001
 40
0.0
 40
0.0
 40
0.0
 40
0.0
 40
0.3799509066
 40
0.5515831282
 40
0.7020272295
 40
0.8254484769
 40
0.9173381866
 40
0.9749483193
 40
1.0
 40
1.0
 40
1.0
 40
1.0
 10
176.2509103034
 20
144.9876102614
 30
0.0
 10
176.2500728286
 20
144.9787037851
 30
0.0
 10
176.2490781845
 20
144.9657456255
 30
0.0
 10
176.2483268787
 20
144.9492454291
 30
0.0
 10
176.2481419191
 20
144.9387257428
 30
0.0
 10
176.2482292451
 20
144.930199084
 30
0.0
 10
176.2487856349
 20
144.9235768537
 30
0.0
 10
176.2492616577
 20
144.9199063877
 30
0.0
 10
176.2503204735
 20
144.9176102614
 30
0.0
 10
176.2509103034
 20
144.9176102614
 30
0.0
  0
ARC
  5
444
330
225
100
AcDbEntity
 67
     1
  8
3_ALL_AXES
  6
Continuous
 62
     7
100
AcDbCircle
 10
180.7175757263
 20
144.5676102614
 30
0.0
 40
4.4863682417
100
AcDbArc
 50
160.4672167333
 51
174.6282793156
  0
LINE
  5
445
330
225
100
AcDbEntity
 67
     1
  8
3_ALL_AXES
  6
Continuous
 62
     7
100
AcDbLine
 10
178.4175757263
 20
141.7676102614
 30
0.0
 11
177.1947927356
 21
141.7676102614
 31
0.0
  0
ARC
  5
446
330
225
100
AcDbEntity
 67
     1
  8
3_ALL_AXES
  6
Continuous
 62
     7
100
AcDbCircle
 10
180.7175757263
 20
144.5676102614
 30
0.0
 40
4.5
100
AcDbArc
 50
199.5420648413
 51
218.4785951333
  0
ARC
  5
447
330
225
100
AcDbEntity
 67
     1
  8
3_ALL_AXES
  6
Continuous
 62
     7
100
AcDbCircle
 10
180.7175757263
 20
144.5676102614
 30
0.0
 40
4.5
100
AcDbArc
 50
199.4712206345
 51
199.5420648413
  0
LINE
  5
448
330
225
100
AcDbEntity
 67
     1
  8
3_ALL_AXES
  6
Continuous
 62
     7
100
AcDbLine
 10
179.8175757263
 20
143.1176102614
 30
0.0
 11
179.7175757263
 21
143.1176102614
 31
0.0
  0
LINE
  5
449
330
225
100
AcDbEntity
 67
     1
  8
3_ALL_AXES
  6
Continuous
 62
     7
100
AcDbLine
 10
177.1947927356
 20
141.7676102614
 30
0.0
 11
177.1947927356
 21
144.5676102614
 31
0.0
  0
LINE
  5
44A
330
225
100
AcDbEntity
 67
     1
  8
3_ALL_AXES
  6
Continuous
 62
     7
100
AcDbLine
 10
177.1947927356
 20
147.3676102614
 30
0.0
 11
177.1947927356
 21
144.5676102614
 31
0.0
  0
LINE
  5
44B
330
225
100
AcDbEntity
 67
     1
  8
7_ALL_FEATURES
  6
Continuous
 62
     7
100
AcDbLine
 10
179.7175757263
 20
145.3155354877
 30
0.0
 11
179.7175757263
 21
138.4170063102
 31
0.0
  0
ARC
  5
44C
330
225
100
AcDbEntity
 67
     1
  8
7_ALL_FEATURES
  6
Continuous
 62
     7
100
AcDbCircle
 10
178.7175757263
 20
138.4170063102
 30
0.0
 40
1.0
100
AcDbArc
 50
258.9125097576
 51
360.0
  0
ARC
  5
44D
330
225
100
AcDbEntity
 67
     1
  8
7_ALL_FEATURES
  6
Continuous
 62
     7
100
AcDbCircle
 10
178.2175757263
 20
135.8655363892
 30
0.0
 40
1.6
100
AcDbArc
 50
78.9125097576
 51
266.3041699114
  0
LINE
  5
44E
330
225
100
AcDbEntity
 67
     1
  8
7_ALL_FEATURES
  6
Continuous
 62
     7
100
AcDbLine
 10
179.8175757263
 20
135.8655363892
 30
0.0
 11
179.8175757263
 21
145.3155354877
 31
0.0
  0
ARC
  5
44F
330
225
100
AcDbEntity
 67
     1
  8
7_ALL_FEATURES
  6
Continuous
 62
     7
100
AcDbCircle
 10
178.2175757263
 20
135.8655363892
 30
0.0
 40
2.9
100
AcDbArc
 50
171.3424269272
 51
360.0
  0
ARC
  5
450
330
225
100
AcDbEntity
 67
     1
  8
7_ALL_FEATURES
  6
Continuous
 62
     7
100
AcDbCircle
 10
177.4175757263
 20
139.6826029619
 30
0.0
 40
1.0
100
AcDbArc
 50
281.8370052531
 51
360.0
  0
LINE
  5
451
330
225
100
AcDbEntity
 67
     1
  8
7_ALL_FEATURES
  6
Continuous
 62
     7
100
AcDbLine
 10
178.4175757263
 20
139.6826029619
 30
0.0
 11
178.4175757263
 21
145.3155354877
 31
0.0
  0
LINE
  5
452
330
225
100
AcDbEntity
 67
     1
  8
7_ALL_FEATURES
  6
Continuous
 62
     7
100
AcDbLine
 10
179.8175757263
 20
150.0675545223
 30
0.0
 11
179.8175757263
 21
146.7176100563
 31
0.0
  0
LINE
  5
453
330
225
100
AcDbEntity
 67
     1
  8
7_ALL_FEATURES
  6
Continuous
 62
     7
100
AcDbLine
 10
179.8175757263
 20
146.7176100563
 30
0.0
 11
179.8175757263
 21
145.3155354877
 31
0.0
  0
LINE
  5
454
330
225
100
AcDbEntity
 67
     1
  8
7_ALL_FEATURES
  6
Continuous
 62
     7
100
AcDbLine
 10
181.1175757263
 20
150.0676101899
 30
0.0
 11
179.8175757263
 21
150.0676101899
 31
0.0
  0
LINE
  5
455
330
225
100
AcDbEntity
 67
     1
  8
7_ALL_FEATURES
  6
Continuous
 62
     7
100
AcDbLine
 10
178.4175757263
 20
150.0675545223
 30
0.0
 11
178.4175757263
 21
147.3766430479
 31
0.0
  0
LINE
  5
456
330
225
100
AcDbEntity
 67
     1
  8
7_ALL_FEATURES
  6
Continuous
 62
     7
100
AcDbLine
 10
178.4175757263
 20
147.3766430479
 30
0.0
 11
178.4175757263
 21
147.3675774533
 31
0.0
  0
LINE
  5
457
330
225
100
AcDbEntity
 67
     1
  8
7_ALL_FEATURES
  6
Continuous
 62
     7
100
AcDbLine
 10
178.4175757263
 20
147.3675774533
 30
0.0
 11
178.4175757263
 21
146.7176100563
 31
0.0
  0
LINE
  5
458
330
225
100
AcDbEntity
 67
     1
  8
7_ALL_FEATURES
  6
Continuous
 62
     7
100
AcDbLine
 10
178.4175757263
 20
146.7176100563
 30
0.0
 11
178.4175757263
 21
146.0234859683
 31
0.0
  0
LINE
  5
459
330
225
100
AcDbEntity
 67
     1
  8
7_ALL_FEATURES
  6
Continuous
 62
     7
100
AcDbLine
 10
178.4175757263
 20
146.0234859683
 30
0.0
 11
178.4175757263
 21
146.0176102614
 31
0.0
  0
LINE
  5
45A
330
225
100
AcDbEntity
 67
     1
  8
7_ALL_FEATURES
  6
Continuous
 62
     7
100
AcDbLine
 10
178.4175757263
 20
146.0176102614
 30
0.0
 11
178.4175757263
 21
145.3155354877
 31
0.0
  0
LINE
  5
45B
330
225
100
AcDbEntity
 67
     1
  8
7_ALL_FEATURES
  6
Continuous
 62
     7
100
AcDbLine
 10
179.7175757263
 20
150.0676101899
 30
0.0
 11
178.4175757263
 21
150.0676101899
 31
0.0
  0
LINE
  5
45C
330
225
100
AcDbEntity
 67
     1
  8
7_ALL_FEATURES
  6
Continuous
 62
     7
100
AcDbLine
 10
177.6227039315
 20
138.7038679432
 30
0.0
 11
177.6227039315
 21
138.7080173475
 31
0.0
  0
LINE
  5
45D
330
225
100
AcDbEntity
 67
     1
  8
7_ALL_FEATURES
  6
Continuous
 62
     7
100
AcDbLine
 10
179.7175757263
 20
145.3155354877
 30
0.0
 11
179.7175757263
 21
146.7156761649
 31
0.0
  0
LINE
  5
45E
330
225
100
AcDbEntity
 67
     1
  8
7_ALL_FEATURES
  6
Continuous
 62
     7
100
AcDbLine
 10
179.7175757263
 20
146.7156761649
 30
0.0
 11
179.7175757263
 21
150.0675545223
 31
0.0
  0
ARC
  5
45F
330
225
100
AcDbEntity
 67
     1
  8
7_ALL_FEATURES
  6
Continuous
 62
     7
100
AcDbCircle
 10
178.2175757263
 20
135.8655363892
 30
0.0
 40
1.6
100
AcDbArc
 50
266.3041699114
 51
360.0
  0
ARC
  5
460
330
225
100
AcDbEntity
 67
     1
  8
7_ALL_FEATURES
  6
Continuous
 62
     7
100
AcDbCircle
 10
178.2175757263
 20
135.8655363892
 30
0.0
 40
2.9
100
AcDbArc
 50
101.8370052531
 51
171.3424269272
  0
LINE
  5
461
330
225
100
AcDbEntity
 67
     1
  8
7_ALL_FEATURES
  6
Continuous
 62
     9
100
AcDbLine
 10
179.7175757263
 20
145.3155354877
 30
0.0
 11
178.4175757263
 21
145.3155354877
 31
0.0
  0
LINE
  5
462
330
225
100
AcDbEntity
 67
     1
  8
7_ALL_FEATURES
  6
Continuous
 62
     9
100
AcDbLine
 10
181.1175757263
 20
145.3155354877
 30
0.0
 11
179.8175757263
 21
145.3155354877
 31
0.0
  0
ARC
  5
463
330
225
100
AcDbEntity
 67
     1
  8
3_ALL_AXES
  6
Continuous
 62
     7
100
AcDbCircle
 10
218.0520827686
 20
116.9176102614
 30
0.0
 40
0.75
100
AcDbArc
 50
270.0
 51
360.0
  0
SPLINE
  5
464
330
225
100
AcDbEntity
 67
     1
  8
3_ALL_AXES
  6
Continuous
 62
     7
100
AcDbSpline
 70
     0
 71
     3
 72
    13
 73
     9
 74
     0
 42
0.000000001
 43
0.0000001
 40
0.0
 40
0.0
 40
0.0
 40
0.0
 40
0.2605731799
 40
0.5146726425
 40
0.6388174833
 40
0.7607021948
 40
0.880833471
 40
1.0
 40
1.0
 40
1.0
 40
1.0
 10
218.0520827686
 20
170.3067514132
 30
0.0
 10
218.1493054243
 20
170.3067514132
 30
0.0
 10
218.3430560692
 20
170.2725995407
 30
0.0
 10
218.5526953141
 20
170.1470707871
 30
0.0
 10
218.6789144488
 20
170.008136474
 30
0.0
 10
218.7490622571
 20
169.8897243061
 30
0.0
 10
218.7923149529
 20
169.7610651748
 30
0.0
 10
218.8020698222
 20
169.6714828865
 30
0.0
 10
218.8020698222
 20
169.627020573
 30
0.0
  0
LINE
  5
465
330
225
100
AcDbEntity
 67
     1
  8
3_ALL_AXES
  6
Continuous
 62
     7
100
AcDbLine
 10
217.3020827686
 20
169.627020573
 30
0.0
 11
217.3020827686
 21
148.5676102614
 31
0.0
  0
LINE
  5
466
330
225
100
AcDbEntity
 67
     1
  8
3_ALL_AXES
  6
Continuous
 62
     7
100
AcDbLine
 10
217.3020827686
 20
140.5676102614
 30
0.0
 11
217.3020827686
 21
116.9777772104
 31
0.0
  0
SPLINE
  5
467
330
225
100
AcDbEntity
 67
     1
  8
3_ALL_AXES
  6
Continuous
 62
     7
100
AcDbSpline
 70
     0
 71
     3
 72
    13
 73
     9
 74
     0
 42
0.000000001
 43
0.0000001
 40
0.0
 40
0.0
 40
0.0
 40
0.0
 40
0.119166529
 40
0.2392978052
 40
0.3611825167
 40
0.4853273575
 40
0.7394268201
 40
1.0
 40
1.0
 40
1.0
 40
1.0
 10
217.3020957149
 20
169.627020573
 30
0.0
 10
217.3020957149
 20
169.6714828865
 30
0.0
 10
217.3118505842
 20
169.7610651748
 30
0.0
 10
217.3551032801
 20
169.8897243061
 30
0.0
 10
217.4252510884
 20
170.008136474
 30
0.0
 10
217.551470223
 20
170.1470707871
 30
0.0
 10
217.761109468
 20
170.2725995407
 30
0.0
 10
217.9548601129
 20
170.3067514132
 30
0.0
 10
218.0520827686
 20
170.3067514132
 30
0.0
  0
LINE
  5
468
330
225
100
AcDbEntity
 67
     1
  8
3_ALL_AXES
  6
Continuous
 62
     7
100
AcDbLine
 10
217.3020827686
 20
116.9777772104
 30
0.0
 11
217.3020827686
 21
116.9176102614
 31
0.0
  0
ARC
  5
469
330
225
100
AcDbEntity
 67
     1
  8
3_ALL_AXES
  6
Continuous
 62
     7
100
AcDbCircle
 10
218.0520827686
 20
116.9176102614
 30
0.0
 40
0.75
100
AcDbArc
 50
180.0
 51
270.0
  0
LINE
  5
46A
330
225
100
AcDbEntity
 67
     1
  8
3_ALL_AXES
  6
Continuous
 62
     7
100
AcDbLine
 10
218.8020827686
 20
169.627020573
 30
0.0
 11
218.8020827686
 21
148.5676102614
 31
0.0
  0
LINE
  5
46B
330
225
100
AcDbEntity
 67
     1
  8
3_ALL_AXES
  6
Continuous
 62
     7
100
AcDbLine
 10
218.8020827686
 20
140.5676102614
 30
0.0
 11
218.8020827686
 21
116.9777772104
 31
0.0
  0
LINE
  5
46C
330
225
100
AcDbEntity
 67
     1
  8
3_ALL_AXES
  6
Continuous
 62
     7
100
AcDbLine
 10
218.8020827686
 20
116.9777772104
 30
0.0
 11
218.8020827686
 21
116.9176102614
 31
0.0
  0
LINE
  5
46D
330
225
100
AcDbEntity
 67
     1
  8
7_ALL_FEATURES
  6
Continuous
 62
     7
100
AcDbLine
 10
223.6520827686
 20
161.8991107553
 30
0.0
 11
231.7175757263
 21
161.8991107553
 31
0.0
  0
LINE
  5
46E
330
225
100
AcDbEntity
 67
     1
  8
7_ALL_FEATURES
  6
Continuous
 62
     7
100
AcDbLine
 10
223.6520827686
 20
161.8977567392
 30
0.0
 11
231.7175757263
 21
161.8977567392
 31
0.0
  0
SPLINE
  5
46F
330
225
100
AcDbEntity
 67
     1
  8
7_ALL_FEATURES
  6
Continuous
 62
     7
100
AcDbSpline
 70
     0
 71
     3
 72
    27
 73
    23
 74
     0
 42
0.000000001
 43
0.0000001
 40
0.0
 40
0.0
 40
0.0
 40
0.0
 40
0.0003028582
 40
0.0012090229
 40
0.0027185908
 40
0.0048315728
 40
0.0075477545
 40
0.0108649448
 40
0.0192893392
 40
0.0300786912
 40
0.0432069379
 40
0.0586472237
 40
0.0763600387
 40
0.118404794
 40
0.1689351207
 40
0.2274485463
 40
0.2933774492
 40
0.366087385
 40
0.4448813752
 40
0.6176414123
 40
0.8050850529
 40
1.0
 40
1.0
 40
1.0
 40
1.0
 10
233.2675681044
 20
161.9676057887
 30
0.0
 10
233.267567991
 20
161.9674491017
 30
0.0
 10
233.2665698579
 20
161.9677028963
 30
0.0
 10
233.2655330609
 20
161.967255434
 30
0.0
 10
233.2629938395
 20
161.9672095939
 30
0.0
 10
233.2598200455
 20
161.9668265127
 30
0.0
 10
233.2555879393
 20
161.9664687336
 30
0.0
 10
233.2481560646
 20
161.9657723274
 30
0.0
 10
233.2365356088
 20
161.9647338768
 30
0.0
 10
233.2198734464
 20
161.9632501949
 30
0.0
 10
233.1995866535
 20
161.9614805301
 30
0.0
 10
233.175730907
 20
161.9594308302
 30
0.0
 10
233.1369636822
 20
161.9561631944
 30
0.0
 10
233.080092884
 20
161.9515364374
 30
0.0
 10
233.0021565826
 20
161.9455270055
 30
0.0
 10
232.9118668366
 20
161.9390124156
 30
0.0
 10
232.8100921397
 20
161.9322440711
 30
0.0
 10
232.6978038925
 20
161.9254741829
 30
0.0
 10
232.5302803719
 20
161.9165196109
 30
0.0
 10
232.3033517745
 20
161.9069490812
 30
0.0
 10
232.0162391273
 20
161.8994926808
 30
0.0
 10
231.8184171444
 20
161.8977567392
 30
0.0
 10
231.7175757263
 20
161.8977567392
 30
0.0
  0
LINE
  5
470
330
225
100
AcDbEntity
 67
     1
  8
3_ALL_AXES
  6
Continuous
 62
     7
100
AcDbLine
 10
234.8675757263
 20
125.5676715234
 30
0.0
 11
234.8675757263
 21
129.067610284
 31
0.0
  0
LINE
  5
471
330
225
100
AcDbEntity
 67
     1
  8
3_ALL_AXES
  6
Continuous
 62
     7
100
AcDbLine
 10
234.8675757263
 20
129.067610284
 30
0.0
 11
234.8675757263
 21
129.1032838074
 31
0.0
  0
LINE
  5
472
330
225
100
AcDbEntity
 67
     1
  8
3_ALL_AXES
  6
Continuous
 62
     7
100
AcDbLine
 10
234.8675757263
 20
129.1032838074
 30
0.0
 11
234.8675757263
 21
144.5593114529
 31
0.0
  0
LINE
  5
473
330
225
100
AcDbEntity
 67
     1
  8
3_ALL_AXES
  6
Continuous
 62
     7
100
AcDbLine
 10
233.3675757263
 20
125.5676715234
 30
0.0
 11
233.3675757263
 21
127.1676102614
 31
0.0
  0
LINE
  5
474
330
225
100
AcDbEntity
 67
     1
  8
3_ALL_AXES
  6
Continuous
 62
     7
100
AcDbLine
 10
233.3675757263
 20
127.1676102614
 30
0.0
 11
233.3675757263
 21
144.5593114529
 31
0.0
  0
LINE
  5
475
330
225
100
AcDbEntity
 67
     1
  8
7_ALL_FEATURES
  6
Continuous
 62
     7
100
AcDbLine
 10
223.6520827686
 20
127.2361097675
 30
0.0
 11
231.7175757263
 21
127.2361097675
 31
0.0
  0
LINE
  5
476
330
225
100
AcDbEntity
 67
     1
  8
3_ALL_AXES
  6
Continuous
 62
     7
100
AcDbLine
 10
233.3675757263
 20
125.5676102614
 30
0.0
 11
234.8675757263
 21
125.5676102614
 31
0.0
  0
SPLINE
  5
477
330
225
100
AcDbEntity
 67
     1
  8
7_ALL_FEATURES
  6
Continuous
 62
     7
100
AcDbSpline
 70
     0
 71
     3
 72
    18
 73
    14
 74
     0
 42
0.000000001
 43
0.0000001
 40
0.0
 40
0.0
 40
0.0
 40
0.0
 40
0.0052746591
 40
0.0201121558
 40
0.0443425019
 40
0.0777410368
 40
0.1199623315
 40
0.1706027295
 40
0.2950720989
 40
0.4463734956
 40
0.6187457062
 40
0.8056714936
 40
1.0
 40
1.0
 40
1.0
 40
1.0
 10
233.267549504
 20
127.1676130631
 30
0.0
 10
233.2648208027
 20
127.167611339
 30
0.0
 10
233.2544695203
 20
127.1689515667
 30
0.0
 10
233.2315986266
 20
127.1704773466
 30
0.0
 10
233.1942516701
 20
127.1738736814
 30
0.0
 10
233.1427685341
 20
127.1780225713
 30
0.0
 10
233.0776575015
 20
127.1832332135
 30
0.0
 10
232.965545701
 20
127.1916842068
 30
0.0
 10
232.7970714738
 20
127.2031485106
 30
0.0
 10
232.565591269
 20
127.2160818555
 30
0.0
 10
232.3016643269
 20
127.2270615258
 30
0.0
 10
232.0153422018
 20
127.2344008667
 30
0.0
 10
231.8181063094
 20
127.2361097675
 30
0.0
 10
231.7175757263
 20
127.2361097675
 30
0.0
  0
LINE
  5
478
330
225
100
AcDbEntity
 67
     1
  8
3_ALL_AXES
  6
Continuous
 62
     7
100
AcDbLine
 10
233.2675570941
 20
127.1676102614
 30
0.0
 11
233.3675757263
 21
127.1676102614
 31
0.0
  0
LINE
  5
479
330
225
100
AcDbEntity
 67
     1
  8
3_ALL_AXES
  6
Continuous
 62
     7
100
AcDbLine
 10
234.8675757263
 20
163.5675489994
 30
0.0
 11
234.8675757263
 21
160.0676102388
 31
0.0
  0
LINE
  5
47A
330
225
100
AcDbEntity
 67
     1
  8
3_ALL_AXES
  6
Continuous
 62
     7
100
AcDbLine
 10
234.8675757263
 20
160.0676102388
 30
0.0
 11
234.8675757263
 21
160.0319367154
 31
0.0
  0
LINE
  5
47B
330
225
100
AcDbEntity
 67
     1
  8
3_ALL_AXES
  6
Continuous
 62
     7
100
AcDbLine
 10
234.8675757263
 20
160.0319367154
 30
0.0
 11
234.8675757263
 21
144.574380342
 31
0.0
  0
LINE
  5
47C
330
225
100
AcDbEntity
 67
     1
  8
3_ALL_AXES
  6
Continuous
 62
     7
100
AcDbLine
 10
234.8675757263
 20
144.574380342
 30
0.0
 11
234.8675757263
 21
144.5593114529
 31
0.0
  0
LINE
  5
47D
330
225
100
AcDbEntity
 67
     1
  8
3_ALL_AXES
  6
Continuous
 62
     7
100
AcDbLine
 10
233.3675757263
 20
163.5675489994
 30
0.0
 11
233.3675757263
 21
161.9676102614
 31
0.0
  0
LINE
  5
47E
330
225
100
AcDbEntity
 67
     1
  8
3_ALL_AXES
  6
Continuous
 62
     7
100
AcDbLine
 10
233.3675757263
 20
161.9676102614
 30
0.0
 11
233.3675757263
 21
144.5593114529
 31
0.0
  0
LINE
  5
47F
330
225
100
AcDbEntity
 67
     1
  8
3_ALL_AXES
  6
Continuous
 62
     7
100
AcDbLine
 10
233.3675757263
 20
163.5676102614
 30
0.0
 11
234.8675757263
 21
163.5676102614
 31
0.0
  0
LINE
  5
480
330
225
100
AcDbEntity
 67
     1
  8
3_ALL_AXES
  6
Continuous
 62
     7
100
AcDbLine
 10
233.2675570941
 20
161.9676102614
 30
0.0
 11
233.3675757263
 21
161.9676102614
 31
0.0
  0
LINE
  5
481
330
225
100
AcDbEntity
 67
     1
  8
7_ALL_FEATURES
  6
Continuous
 62
     7
100
AcDbLine
 10
233.2675488295
 20
161.9676102614
 30
0.0
 11
233.2675672717
 21
161.9676086016
 31
0.0
  0
LINE
  5
482
330
225
100
AcDbEntity
 67
     1
  8
7_ALL_FEATURES
  6
Continuous
 62
     7
100
AcDbLine
 10
202.8520827686
 20
120.8318238238
 30
0.0
 11
202.8520827686
 21
120.854415479
 31
0.0
  0
LINE
  5
483
330
225
100
AcDbEntity
 67
     1
  8
7_ALL_FEATURES
  6
Continuous
 62
     7
100
AcDbLine
 10
202.8520827686
 20
120.854415479
 30
0.0
 11
202.8520827686
 21
122.527647361
 31
0.0
  0
LINE
  5
484
330
225
100
AcDbEntity
 67
     1
  8
7_ALL_FEATURES
  6
Continuous
 62
     7
100
AcDbLine
 10
202.8520827686
 20
122.527647361
 30
0.0
 11
202.8520827686
 21
140.5676102614
 31
0.0
  0
ARC
  5
485
330
225
100
AcDbEntity
 67
     1
  8
7_ALL_FEATURES
  6
Continuous
 62
     7
100
AcDbCircle
 10
203.8520827686
 20
120.8318238238
 30
0.0
 40
1.0
100
AcDbArc
 50
180.0
 51
225.0
  0
LINE
  5
486
330
225
100
AcDbEntity
 67
     1
  8
7_ALL_FEATURES
  6
Continuous
 62
     7
100
AcDbLine
 10
202.8520827686
 20
120.8373186113
 30
0.0
 11
202.8520827686
 21
120.8318238238
 31
0.0
  0
LINE
  5
487
330
225
100
AcDbEntity
 67
     1
  8
7_ALL_FEATURES
  6
Continuous
 62
     7
100
AcDbLine
 10
202.8520827686
 20
140.5676102614
 30
0.0
 11
202.8520827686
 21
120.8373186113
 31
0.0
  0
ARC
  5
488
330
225
100
AcDbEntity
 67
     1
  8
7_ALL_FEATURES
  6
Continuous
 62
     7
100
AcDbCircle
 10
203.8520827686
 20
168.303396699
 30
0.0
 40
1.0
100
AcDbArc
 50
135.0
 51
180.0
  0
LINE
  5
489
330
225
100
AcDbEntity
 67
     1
  8
7_ALL_FEATURES
  6
Continuous
 62
     7
100
AcDbLine
 10
202.8520827686
 20
148.5676102614
 30
0.0
 11
202.8520827686
 21
166.6075731618
 31
0.0
  0
LINE
  5
48A
330
225
100
AcDbEntity
 67
     1
  8
7_ALL_FEATURES
  6
Continuous
 62
     7
100
AcDbLine
 10
202.8520827686
 20
166.6075731618
 30
0.0
 11
202.8520827686
 21
168.303396699
 31
0.0
  0
LINE
  5
48B
330
225
100
AcDbEntity
 67
     1
  8
7_ALL_FEATURES
  6
Continuous
 62
     7
100
AcDbLine
 10
202.8520827686
 20
168.303396699
 30
0.0
 11
202.8520827686
 21
166.6075731618
 31
0.0
  0
LINE
  5
48C
330
225
100
AcDbEntity
 67
     1
  8
7_ALL_FEATURES
  6
Continuous
 62
     7
100
AcDbLine
 10
202.8520827686
 20
166.6075731618
 30
0.0
 11
202.8520827686
 21
148.5676102614
 31
0.0
  0
ARC
  5
48D
330
225
100
AcDbEntity
 67
     1
  8
7_ALL_FEATURES
  6
Continuous
 62
     7
100
AcDbCircle
 10
208.1805098933
 20
117.9176102614
 30
0.0
 40
2.0
100
AcDbArc
 50
225.0
 51
270.0
  0
LINE
  5
48E
330
225
100
AcDbEntity
 67
     1
  8
02___PRT_ALL_AXES
  6
Continuous
 62
     7
100
AcDbLine
 10
222.1520827686
 20
144.5676102614
 30
0.0
 11
222.1520827686
 21
173.2176102614
 31
0.0
  0
LINE
  5
48F
330
225
100
AcDbEntity
 67
     1
  8
02___PRT_ALL_AXES
  6
Continuous
 62
     7
100
AcDbLine
 10
222.1520827686
 20
173.2176102614
 30
0.0
 11
222.1520827686
 21
179.0676097426
 31
0.0
  0
LINE
  5
490
330
225
100
AcDbEntity
 67
     1
  8
02___PRT_ALL_AXES
  6
Continuous
 62
     7
100
AcDbLine
 10
222.1520827686
 20
144.5676102614
 30
0.0
 11
222.1520827686
 21
115.9176102614
 31
0.0
  0
LINE
  5
491
330
225
100
AcDbEntity
 67
     1
  8
02___PRT_ALL_AXES
  6
Continuous
 62
     7
100
AcDbLine
 10
222.1520827686
 20
115.9176102614
 30
0.0
 11
222.1520827686
 21
110.0676107802
 31
0.0
  0
LINE
  5
492
330
225
100
AcDbEntity
 67
     1
  8
7_ALL_FEATURES
  6
Continuous
 62
     7
100
AcDbLine
 10
219.5520827686
 20
148.5676102614
 30
0.0
 11
219.5520827686
 21
171.5176102614
 31
0.0
  0
LINE
  5
493
330
225
100
AcDbEntity
 67
     1
  8
7_ALL_FEATURES
  6
Continuous
 62
     7
100
AcDbLine
 10
219.5520827686
 20
171.5176102614
 30
0.0
 11
219.5520827686
 21
173.2176081945
 31
0.0
  0
ARC
  5
494
330
225
100
AcDbEntity
 67
     1
  8
7_ALL_FEATURES
  6
Continuous
 62
     7
100
AcDbCircle
 10
208.1805098933
 20
171.2176102614
 30
0.0
 40
2.0
100
AcDbArc
 50
90.0
 51
135.0
  0
LINE
  5
495
330
225
100
AcDbEntity
 67
     1
  8
7_ALL_FEATURES
  6
Continuous
 62
     7
100
AcDbLine
 10
219.5520827686
 20
171.5176102614
 30
0.0
 11
216.5520827686
 21
171.5176102614
 31
0.0
  0
LINE
  5
496
330
225
100
AcDbEntity
 67
     1
  8
7_ALL_FEATURES
  6
Continuous
 62
     7
100
AcDbLine
 10
219.5520827686
 20
117.6176102614
 30
0.0
 11
218.8020827686
 21
117.6176102614
 31
0.0
  0
LINE
  5
497
330
225
100
AcDbEntity
 67
     1
  8
7_ALL_FEATURES
  6
Continuous
 62
     7
100
AcDbLine
 10
217.3020827686
 20
117.6176102614
 30
0.0
 11
216.5520827686
 21
117.6176102614
 31
0.0
  0
LINE
  5
498
330
225
100
AcDbEntity
 67
     1
  8
7_ALL_FEATURES
  6
Continuous
 62
     7
100
AcDbLine
 10
216.5520827686
 20
148.5676102614
 30
0.0
 11
216.5520827686
 21
171.5176102614
 31
0.0
  0
LINE
  5
499
330
225
100
AcDbEntity
 67
     1
  8
7_ALL_FEATURES
  6
Continuous
 62
     7
100
AcDbLine
 10
216.5520827686
 20
171.5176102614
 30
0.0
 11
216.5520827686
 21
173.2176081945
 31
0.0
  0
LINE
  5
49A
330
225
100
AcDbEntity
 67
     1
  8
7_ALL_FEATURES
  6
Continuous
 62
     7
100
AcDbLine
 10
203.1449759874
 20
120.1247170426
 30
0.0
 11
206.766296331
 21
116.503396699
 31
0.0
  0
LINE
  5
49B
330
225
100
AcDbEntity
 67
     1
  8
7_ALL_FEATURES
  6
Continuous
 62
     7
100
AcDbLine
 10
203.1449759874
 20
169.0105034802
 30
0.0
 11
206.766296331
 21
172.6318238238
 31
0.0
  0
LINE
  5
49C
330
225
100
AcDbEntity
 67
     1
  8
7_ALL_FEATURES
  6
Continuous
 62
     7
100
AcDbLine
 10
223.6520827686
 20
117.062828026
 30
0.0
 11
223.6520827686
 21
118.4176109357
 31
0.0
  0
LINE
  5
49D
330
225
100
AcDbEntity
 67
     1
  8
7_ALL_FEATURES
  6
Continuous
 62
     7
100
AcDbLine
 10
223.6520827686
 20
118.4176109357
 30
0.0
 11
223.6520827686
 21
144.5676102614
 31
0.0
  0
ARC
  5
49E
330
225
100
AcDbEntity
 67
     1
  8
7_ALL_FEATURES
  6
Continuous
 62
     7
100
AcDbCircle
 10
221.6520827686
 20
117.0628260416
 30
0.0
 40
2.0
100
AcDbArc
 50
351.6943237944
 51
360.0
  0
LINE
  5
49F
330
225
100
AcDbEntity
 67
     1
  8
7_ALL_FEATURES
  6
Continuous
 62
     7
100
AcDbLine
 10
223.6520827686
 20
117.0628260416
 30
0.0
 11
223.6520827686
 21
118.4176109357
 31
0.0
  0
LINE
  5
4A0
330
225
100
AcDbEntity
 67
     1
  8
7_ALL_FEATURES
  6
Continuous
 62
     7
100
AcDbLine
 10
223.6520827686
 20
118.4176109357
 30
0.0
 11
223.6520827686
 21
144.5676102614
 31
0.0
  0
ARC
  5
4A1
330
225
100
AcDbEntity
 67
     1
  8
7_ALL_FEATURES
  6
Continuous
 62
     7
100
AcDbCircle
 10
221.6520827686
 20
172.0723944812
 30
0.0
 40
2.0
100
AcDbArc
 50
0.0
 51
8.305676205599998
  0
LINE
  5
4A2
330
225
100
AcDbEntity
 67
     1
  8
7_ALL_FEATURES
  6
Continuous
 62
     7
100
AcDbLine
 10
223.6520827686
 20
144.5676102614
 30
0.0
 11
223.6520827686
 21
170.7176095871
 31
0.0
  0
LINE
  5
4A3
330
225
100
AcDbEntity
 67
     1
  8
7_ALL_FEATURES
  6
Continuous
 62
     7
100
AcDbLine
 10
223.6520827686
 20
170.7176095871
 30
0.0
 11
223.6520827686
 21
172.0723924968
 31
0.0
  0
LINE
  5
4A4
330
225
100
AcDbEntity
 67
     1
  8
7_ALL_FEATURES
  6
Continuous
 62
     7
100
AcDbLine
 10
223.6520827686
 20
144.5676102614
 30
0.0
 11
223.6520827686
 21
170.7176095871
 31
0.0
  0
LINE
  5
4A5
330
225
100
AcDbEntity
 67
     1
  8
7_ALL_FEATURES
  6
Continuous
 62
     7
100
AcDbLine
 10
223.6520827686
 20
170.7176095871
 30
0.0
 11
223.6520827686
 21
172.0723944812
 31
0.0
  0
LINE
  5
4A6
330
225
100
AcDbEntity
 67
     1
  8
7_ALL_FEATURES
  6
Continuous
 62
     7
100
AcDbLine
 10
216.5520827686
 20
115.9176123283
 30
0.0
 11
216.5520827686
 21
117.6176102614
 31
0.0
  0
LINE
  5
4A7
330
225
100
AcDbEntity
 67
     1
  8
7_ALL_FEATURES
  6
Continuous
 62
     7
100
AcDbLine
 10
216.5520827686
 20
117.6176102614
 30
0.0
 11
216.5520827686
 21
140.5676102614
 31
0.0
  0
LINE
  5
4A8
330
225
100
AcDbEntity
 67
     1
  8
02___PRT_ALL_AXES
  6
Continuous
 62
     7
100
AcDbLine
 10
216.5520827686
 20
115.9176102614
 30
0.0
 11
208.1805098933
 21
115.9176102614
 31
0.0
  0
LINE
  5
4A9
330
225
100
AcDbEntity
 67
     1
  8
7_ALL_FEATURES
  6
Continuous
 62
     7
100
AcDbLine
 10
219.5520827686
 20
115.9176123283
 30
0.0
 11
219.5520827686
 21
117.6176102614
 31
0.0
  0
LINE
  5
4AA
330
225
100
AcDbEntity
 67
     1
  8
7_ALL_FEATURES
  6
Continuous
 62
     7
100
AcDbLine
 10
219.5520827686
 20
117.6176102614
 30
0.0
 11
219.5520827686
 21
140.5676102614
 31
0.0
  0
LINE
  5
4AB
330
225
100
AcDbEntity
 67
     1
  8
02___PRT_ALL_AXES
  6
Continuous
 62
     7
100
AcDbLine
 10
222.1520827686
 20
115.9176102614
 30
0.0
 11
219.5520827686
 21
115.9176102614
 31
0.0
  0
LINE
  5
4AC
330
225
100
AcDbEntity
 67
     1
  8
02___PRT_ALL_AXES
  6
Continuous
 62
     7
100
AcDbLine
 10
222.6520827686
 20
110.0676102614
 30
0.0
 11
222.1520827686
 21
110.0676102614
 31
0.0
  0
LINE
  5
4AD
330
225
100
AcDbEntity
 67
     1
  8
02___PRT_ALL_AXES
  6
Continuous
 62
     7
100
AcDbLine
 10
223.6311057347
 20
116.7739175794
 30
0.0
 11
222.6520827686
 21
110.0676102614
 31
0.0
  0
LINE
  5
4AE
330
225
100
AcDbEntity
 67
     1
  8
02___PRT_ALL_AXES
  6
Continuous
 62
     7
100
AcDbLine
 10
216.5520827686
 20
173.2176102614
 30
0.0
 11
208.1805098933
 21
173.2176102614
 31
0.0
  0
LINE
  5
4AF
330
225
100
AcDbEntity
 67
     1
  8
02___PRT_ALL_AXES
  6
Continuous
 62
     7
100
AcDbLine
 10
222.1520827686
 20
173.2176102614
 30
0.0
 11
219.5520827686
 21
173.2176102614
 31
0.0
  0
LINE
  5
4B0
330
225
100
AcDbEntity
 67
     1
  8
02___PRT_ALL_AXES
  6
Continuous
 62
     7
100
AcDbLine
 10
222.6520827686
 20
179.0676102614
 30
0.0
 11
222.1520827686
 21
179.0676102614
 31
0.0
  0
LINE
  5
4B1
330
225
100
AcDbEntity
 67
     1
  8
02___PRT_ALL_AXES
  6
Continuous
 62
     7
100
AcDbLine
 10
223.6311057347
 20
172.3613029434
 30
0.0
 11
222.6520827686
 21
179.0676102614
 31
0.0
  0
LINE
  5
4B2
330
225
100
AcDbEntity
 67
     1
  8
7_ALL_FEATURES
  6
Continuous
 62
     9
100
AcDbLine
 10
203.1449759874
 20
120.1247170426
 30
0.0
 11
203.1449759874
 21
140.5676102614
 31
0.0
  0
LINE
  5
4B3
330
225
100
AcDbEntity
 67
     1
  8
02___PRT_ALL_AXES
  6
Continuous
 62
     7
100
AcDbLine
 10
222.6520827686
 20
144.5676102614
 30
0.0
 11
222.6520827686
 21
179.0676102614
 31
0.0
  0
LINE
  5
4B4
330
225
100
AcDbEntity
 67
     1
  8
7_ALL_FEATURES
  6
Continuous
 62
     9
100
AcDbLine
 10
223.6311057347
 20
116.7739175794
 30
0.0
 11
223.6311057347
 21
144.5676102614
 31
0.0
  0
LINE
  5
4B5
330
225
100
AcDbEntity
 67
     1
  8
7_ALL_FEATURES
  6
Continuous
 62
     9
100
AcDbLine
 10
206.766296331
 20
172.6318238238
 30
0.0
 11
206.766296331
 21
148.5676102614
 31
0.0
  0
LINE
  5
4B6
330
225
100
AcDbEntity
 67
     1
  8
7_ALL_FEATURES
  6
Continuous
 62
     9
100
AcDbLine
 10
223.6311057347
 20
144.5676102614
 30
0.0
 11
223.6311057347
 21
172.3613029434
 31
0.0
  0
LINE
  5
4B7
330
225
100
AcDbEntity
 67
     1
  8
7_ALL_FEATURES
  6
Continuous
 62
     9
100
AcDbLine
 10
203.1449759874
 20
148.5676102614
 30
0.0
 11
203.1449759874
 21
169.0105034802
 31
0.0
  0
LINE
  5
4B8
330
225
100
AcDbEntity
 67
     1
  8
7_ALL_FEATURES
  6
Continuous
 62
     9
100
AcDbLine
 10
206.766296331
 20
140.5676102614
 30
0.0
 11
206.766296331
 21
116.503396699
 31
0.0
  0
LINE
  5
4B9
330
225
100
AcDbEntity
 67
     1
  8
7_ALL_FEATURES
  6
Continuous
 62
     9
100
AcDbLine
 10
208.1805098933
 20
173.2176102614
 30
0.0
 11
208.1805098933
 21
148.5676102614
 31
0.0
  0
LINE
  5
4BA
330
225
100
AcDbEntity
 67
     1
  8
02___PRT_ALL_AXES
  6
Continuous
 62
     7
100
AcDbLine
 10
222.6520827686
 20
144.5676102614
 30
0.0
 11
222.6520827686
 21
110.0676102614
 31
0.0
  0
LINE
  5
4BB
330
225
100
AcDbEntity
 67
     1
  8
7_ALL_FEATURES
  6
Continuous
 62
     9
100
AcDbLine
 10
208.1805098933
 20
140.5676102614
 30
0.0
 11
208.1805098933
 21
115.9176102614
 31
0.0
  0
LINE
  5
4BC
330
225
100
AcDbEntity
 67
     1
  8
7_ALL_FEATURES
  6
Continuous
 62
     7
100
AcDbLine
 10
197.6175757263
 20
148.5676102614
 30
0.0
 11
197.6175757263
 21
156.0676091644
 31
0.0
  0
LINE
  5
4BD
330
225
100
AcDbEntity
 67
     1
  8
7_ALL_FEATURES
  6
Continuous
 62
     7
100
AcDbLine
 10
197.6175757263
 20
156.0676091644
 30
0.0
 11
197.6175757263
 21
163.932077266
 31
0.0
  0
LINE
  5
4BE
330
225
100
AcDbEntity
 67
     1
  8
7_ALL_FEATURES
  6
Continuous
 62
     7
100
AcDbLine
 10
181.1175757263
 20
126.8676165664
 30
0.0
 11
181.1175757263
 21
135.8655363892
 31
0.0
  0
LINE
  5
4BF
330
225
100
AcDbEntity
 67
     1
  8
7_ALL_FEATURES
  6
Continuous
 62
     7
100
AcDbLine
 10
181.1175757263
 20
135.8655363892
 30
0.0
 11
181.1175757263
 21
142.4176104665
 31
0.0
  0
LINE
  5
4C0
330
225
100
AcDbEntity
 67
     1
  8
7_ALL_FEATURES
  6
Continuous
 62
     7
100
AcDbLine
 10
181.1175757263
 20
142.4176104665
 30
0.0
 11
181.1175757263
 21
143.3176103806
 31
0.0
  0
LINE
  5
4C1
330
225
100
AcDbEntity
 67
     1
  8
7_ALL_FEATURES
  6
Continuous
 62
     7
100
AcDbLine
 10
181.1175757263
 20
143.3176103806
 30
0.0
 11
181.1175757263
 21
145.3155354877
 31
0.0
  0
LINE
  5
4C2
330
225
100
AcDbEntity
 67
     1
  8
7_ALL_FEATURES
  6
Continuous
 62
     7
100
AcDbLine
 10
181.1175757263
 20
145.3155354877
 30
0.0
 11
181.1175757263
 21
145.8176101422
 31
0.0
  0
LINE
  5
4C3
330
225
100
AcDbEntity
 67
     1
  8
7_ALL_FEATURES
  6
Continuous
 62
     7
100
AcDbLine
 10
181.1175757263
 20
145.8176101422
 30
0.0
 11
181.1175757263
 21
145.8826352261
 31
0.0
  0
LINE
  5
4C4
330
225
100
AcDbEntity
 67
     1
  8
7_ALL_FEATURES
  6
Continuous
 62
     7
100
AcDbLine
 10
181.1175757263
 20
145.8826352261
 30
0.0
 11
181.1175757263
 21
146.7176100563
 31
0.0
  0
LINE
  5
4C5
330
225
100
AcDbEntity
 67
     1
  8
7_ALL_FEATURES
  6
Continuous
 62
     7
100
AcDbLine
 10
181.1175757263
 20
146.7176100563
 30
0.0
 11
181.1175757263
 21
150.0676101899
 31
0.0
  0
LINE
  5
4C6
330
225
100
AcDbEntity
 67
     1
  8
7_ALL_FEATURES
  6
Continuous
 62
     7
100
AcDbLine
 10
181.1175757263
 20
150.0676101899
 30
0.0
 11
181.1175757263
 21
162.267608573
 31
0.0
  0
LINE
  5
4C7
330
225
100
AcDbEntity
 67
     1
  8
7_ALL_FEATURES
  6
Continuous
 62
     7
100
AcDbLine
 10
181.1175757263
 20
126.8676102614
 30
0.0
 11
181.4175757263
 21
126.5676102614
 31
0.0
  0
LINE
  5
4C8
330
225
100
AcDbEntity
 67
     1
  8
7_ALL_FEATURES
  6
Continuous
 62
     7
100
AcDbLine
 10
181.1175757263
 20
162.2676102614
 30
0.0
 11
181.4175757263
 21
162.5676102614
 31
0.0
  0
LINE
  5
4C9
330
225
100
AcDbEntity
 67
     1
  8
7_ALL_FEATURES
  6
Continuous
 62
     7
100
AcDbLine
 10
194.1175757263
 20
164.0176084061
 30
0.0
 11
194.1175757263
 21
164.0176042257
 31
0.0
  0
LINE
  5
4CA
330
225
100
AcDbEntity
 67
     1
  8
7_ALL_FEATURES
  6
Continuous
 62
     7
100
AcDbLine
 10
194.1175757263
 20
125.1176121167
 30
0.0
 11
194.1175757263
 21
125.1176162971
 31
0.0
  0
LINE
  5
4CB
330
225
100
AcDbEntity
 67
     1
  8
7_ALL_FEATURES
  6
Continuous
 62
     7
100
AcDbLine
 10
183.1175757263
 20
126.8676165664
 30
0.0
 11
183.1175757263
 21
136.5676110245
 31
0.0
  0
LINE
  5
4CC
330
225
100
AcDbEntity
 67
     1
  8
7_ALL_FEATURES
  6
Continuous
 62
     7
100
AcDbLine
 10
183.1175757263
 20
136.5676110245
 30
0.0
 11
183.1175757263
 21
152.5676094983
 31
0.0
  0
LINE
  5
4CD
330
225
100
AcDbEntity
 67
     1
  8
7_ALL_FEATURES
  6
Continuous
 62
     7
100
AcDbLine
 10
183.1175757263
 20
152.5676094983
 30
0.0
 11
183.1175757263
 21
162.267608573
 31
0.0
  0
LINE
  5
4CE
330
225
100
AcDbEntity
 67
     1
  8
7_ALL_FEATURES
  6
Continuous
 62
     7
100
AcDbLine
 10
192.1175757263
 20
164.0176084061
 30
0.0
 11
192.1175757263
 21
164.0176042258
 31
0.0
  0
LINE
  5
4CF
330
225
100
AcDbEntity
 67
     1
  8
7_ALL_FEATURES
  6
Continuous
 62
     7
100
AcDbLine
 10
192.1175757263
 20
125.1176121167
 30
0.0
 11
192.1175757263
 21
125.117616297
 31
0.0
  0
LINE
  5
4D0
330
225
100
AcDbEntity
 67
     1
  8
7_ALL_FEATURES
  6
Continuous
 62
     7
100
AcDbLine
 10
183.1175757263
 20
126.8676102614
 30
0.0
 11
182.8175757263
 21
126.5676102614
 31
0.0
  0
LINE
  5
4D1
330
225
100
AcDbEntity
 67
     1
  8
7_ALL_FEATURES
  6
Continuous
 62
     7
100
AcDbLine
 10
183.1175757263
 20
162.2676102614
 30
0.0
 11
182.8175757263
 21
162.5676102614
 31
0.0
  0
LINE
  5
4D2
330
225
100
AcDbEntity
 67
     1
  8
7_ALL_FEATURES
  6
Continuous
 62
     7
100
AcDbLine
 10
186.6175757263
 20
125.8676169199
 30
0.0
 11
186.6175757263
 21
136.5676110245
 31
0.0
  0
LINE
  5
4D3
330
225
100
AcDbEntity
 67
     1
  8
7_ALL_FEATURES
  6
Continuous
 62
     7
100
AcDbLine
 10
186.6175757263
 20
136.5676110245
 30
0.0
 11
186.6175757263
 21
143.0676104045
 31
0.0
  0
LINE
  5
4D4
330
225
100
AcDbEntity
 67
     1
  8
7_ALL_FEATURES
  6
Continuous
 62
     7
100
AcDbLine
 10
186.6175757263
 20
143.0676104045
 30
0.0
 11
186.6175757263
 21
143.1619786603
 31
0.0
  0
LINE
  5
4D5
330
225
100
AcDbEntity
 67
     1
  8
7_ALL_FEATURES
  6
Continuous
 62
     7
100
AcDbLine
 10
186.6175757263
 20
143.1619786603
 30
0.0
 11
186.6175757263
 21
145.9569496812
 31
0.0
  0
LINE
  5
4D6
330
225
100
AcDbEntity
 67
     1
  8
7_ALL_FEATURES
  6
Continuous
 62
     7
100
AcDbLine
 10
186.6175757263
 20
145.9569496812
 30
0.0
 11
186.6175757263
 21
146.0676101183
 31
0.0
  0
LINE
  5
4D7
330
225
100
AcDbEntity
 67
     1
  8
7_ALL_FEATURES
  6
Continuous
 62
     7
100
AcDbLine
 10
186.6175757263
 20
146.0676101183
 30
0.0
 11
186.6175757263
 21
152.5676094983
 31
0.0
  0
LINE
  5
4D8
330
225
100
AcDbEntity
 67
     1
  8
7_ALL_FEATURES
  6
Continuous
 62
     7
100
AcDbLine
 10
186.6175757263
 20
152.5676094983
 30
0.0
 11
186.6175757263
 21
163.2676084776
 31
0.0
  0
LINE
  5
4D9
330
225
100
AcDbEntity
 67
     1
  8
7_ALL_FEATURES
  6
Continuous
 62
     7
100
AcDbLine
 10
186.6175757263
 20
125.8676102614
 30
0.0
 11
186.9175757263
 21
125.5676102614
 31
0.0
  0
LINE
  5
4DA
330
225
100
AcDbEntity
 67
     1
  8
7_ALL_FEATURES
  6
Continuous
 62
     7
100
AcDbLine
 10
188.6175757263
 20
163.2676084776
 30
0.0
 11
188.6175757263
 21
163.2676036029
 31
0.0
  0
LINE
  5
4DB
330
225
100
AcDbEntity
 67
     1
  8
7_ALL_FEATURES
  6
Continuous
 62
     7
100
AcDbLine
 10
188.6175757263
 20
125.8676120452
 30
0.0
 11
188.6175757263
 21
125.8676169199
 31
0.0
  0
LINE
  5
4DC
330
225
100
AcDbEntity
 67
     1
  8
7_ALL_FEATURES
  6
Continuous
 62
     7
100
AcDbLine
 10
186.6175757263
 20
163.2676102614
 30
0.0
 11
186.9175757263
 21
163.5676102614
 31
0.0
  0
LINE
  5
4DD
330
225
100
AcDbEntity
 67
     1
  8
7_ALL_FEATURES
  6
Continuous
 62
     7
100
AcDbLine
 10
186.6175757263
 20
163.2676084776
 30
0.0
 11
186.6175757263
 21
163.2676036029
 31
0.0
  0
LINE
  5
4DE
330
225
100
AcDbEntity
 67
     1
  8
7_ALL_FEATURES
  6
Continuous
 62
     7
100
AcDbLine
 10
186.6175757263
 20
125.8676120452
 30
0.0
 11
186.6175757263
 21
125.8676169199
 31
0.0
  0
LINE
  5
4DF
330
225
100
AcDbEntity
 67
     1
  8
7_ALL_FEATURES
  6
Continuous
 62
     7
100
AcDbLine
 10
188.6175757263
 20
125.8676169199
 30
0.0
 11
188.6175757263
 21
134.5676112153
 31
0.0
  0
LINE
  5
4E0
330
225
100
AcDbEntity
 67
     1
  8
7_ALL_FEATURES
  6
Continuous
 62
     7
100
AcDbLine
 10
188.6175757263
 20
134.5676112153
 30
0.0
 11
188.6175757263
 21
154.5676093075
 31
0.0
  0
LINE
  5
4E1
330
225
100
AcDbEntity
 67
     1
  8
7_ALL_FEATURES
  6
Continuous
 62
     7
100
AcDbLine
 10
188.6175757263
 20
154.5676093075
 30
0.0
 11
188.6175757263
 21
163.2676084776
 31
0.0
  0
LINE
  5
4E2
330
225
100
AcDbEntity
 67
     1
  8
7_ALL_FEATURES
  6
Continuous
 62
     7
100
AcDbLine
 10
188.6175757263
 20
125.8676102614
 30
0.0
 11
188.3175757263
 21
125.5676102614
 31
0.0
  0
LINE
  5
4E3
330
225
100
AcDbEntity
 67
     1
  8
7_ALL_FEATURES
  6
Continuous
 62
     7
100
AcDbLine
 10
188.6175757263
 20
163.2676102614
 30
0.0
 11
188.3175757263
 21
163.5676102614
 31
0.0
  0
LINE
  5
4E4
330
225
100
AcDbEntity
 67
     1
  8
7_ALL_FEATURES
  6
Continuous
 62
     7
100
AcDbLine
 10
192.1175757263
 20
125.117616297
 30
0.0
 11
192.1175757263
 21
134.5676112153
 31
0.0
  0
LINE
  5
4E5
330
225
100
AcDbEntity
 67
     1
  8
7_ALL_FEATURES
  6
Continuous
 62
     7
100
AcDbLine
 10
192.1175757263
 20
134.5676112153
 30
0.0
 11
192.1175757263
 21
154.5676093075
 31
0.0
  0
LINE
  5
4E6
330
225
100
AcDbEntity
 67
     1
  8
7_ALL_FEATURES
  6
Continuous
 62
     7
100
AcDbLine
 10
192.1175757263
 20
154.5676093075
 30
0.0
 11
192.1175757263
 21
164.0176084061
 31
0.0
  0
LINE
  5
4E7
330
225
100
AcDbEntity
 67
     1
  8
7_ALL_FEATURES
  6
Continuous
 62
     7
100
AcDbLine
 10
183.1175757263
 20
162.267608573
 30
0.0
 11
183.1175757263
 21
162.2676039564
 31
0.0
  0
LINE
  5
4E8
330
225
100
AcDbEntity
 67
     1
  8
7_ALL_FEATURES
  6
Continuous
 62
     7
100
AcDbLine
 10
183.1175757263
 20
126.8676119498
 30
0.0
 11
183.1175757263
 21
126.8676165664
 31
0.0
  0
LINE
  5
4E9
330
225
100
AcDbEntity
 67
     1
  8
7_ALL_FEATURES
  6
Continuous
 62
     7
100
AcDbLine
 10
192.1175757263
 20
125.1176102614
 30
0.0
 11
192.4175757263
 21
124.8176102614
 31
0.0
  0
LINE
  5
4EA
330
225
100
AcDbEntity
 67
     1
  8
7_ALL_FEATURES
  6
Continuous
 62
     7
100
AcDbLine
 10
181.1175757263
 20
162.267608573
 30
0.0
 11
181.1175757263
 21
162.2676039564
 31
0.0
  0
LINE
  5
4EB
330
225
100
AcDbEntity
 67
     1
  8
7_ALL_FEATURES
  6
Continuous
 62
     7
100
AcDbLine
 10
181.1175757263
 20
126.8676119498
 30
0.0
 11
181.1175757263
 21
126.8676165664
 31
0.0
  0
LINE
  5
4EC
330
225
100
AcDbEntity
 67
     1
  8
7_ALL_FEATURES
  6
Continuous
 62
     7
100
AcDbLine
 10
192.1175757263
 20
164.0176102614
 30
0.0
 11
192.4175757263
 21
164.3176102614
 31
0.0
  0
LINE
  5
4ED
330
225
100
AcDbEntity
 67
     1
  8
7_ALL_FEATURES
  6
Continuous
 62
     7
100
AcDbLine
 10
194.1175757263
 20
125.1176162971
 30
0.0
 11
194.1175757263
 21
133.0676113584
 31
0.0
  0
LINE
  5
4EE
330
225
100
AcDbEntity
 67
     1
  8
7_ALL_FEATURES
  6
Continuous
 62
     7
100
AcDbLine
 10
194.1175757263
 20
133.0676113584
 30
0.0
 11
194.1175757263
 21
156.0676091644
 31
0.0
  0
LINE
  5
4EF
330
225
100
AcDbEntity
 67
     1
  8
7_ALL_FEATURES
  6
Continuous
 62
     7
100
AcDbLine
 10
194.1175757263
 20
156.0676091644
 30
0.0
 11
194.1175757263
 21
164.0176084061
 31
0.0
  0
LINE
  5
4F0
330
225
100
AcDbEntity
 67
     1
  8
02___PRT_ALL_AXES
  6
Continuous
 62
     7
100
AcDbLine
 10
197.6175757263
 20
133.0676113584
 30
0.0
 11
194.1175757263
 21
133.0676113584
 31
0.0
  0
LINE
  5
4F1
330
225
100
AcDbEntity
 67
     1
  8
02___PRT_ALL_AXES
  6
Continuous
 62
     7
100
AcDbLine
 10
197.6175757263
 20
156.0676091644
 30
0.0
 11
194.1175757263
 21
156.0676091644
 31
0.0
  0
LINE
  5
4F2
330
225
100
AcDbEntity
 67
     1
  8
7_ALL_FEATURES
  6
Continuous
 62
     7
100
AcDbLine
 10
194.1175757263
 20
125.1176102614
 30
0.0
 11
193.8175757263
 21
124.8176102614
 31
0.0
  0
LINE
  5
4F3
330
225
100
AcDbEntity
 67
     1
  8
7_ALL_FEATURES
  6
Continuous
 62
     7
100
AcDbLine
 10
194.1175757263
 20
164.0176102614
 30
0.0
 11
193.8175757263
 21
164.3176102614
 31
0.0
  0
LINE
  5
4F4
330
225
100
AcDbEntity
 67
     1
  8
02___PRT_ALL_AXES
  6
Continuous
 62
     7
100
AcDbLine
 10
192.1175757263
 20
154.5676093075
 30
0.0
 11
188.6175757263
 21
154.5676093075
 31
0.0
  0
LINE
  5
4F5
330
225
100
AcDbEntity
 67
     1
  8
7_ALL_FEATURES
  6
Continuous
 62
     7
100
AcDbLine
 10
197.6175757263
 20
163.9320772942
 30
0.0
 11
198.2064088236
 21
164.8436373735
 31
0.0
  0
LINE
  5
4F6
330
225
100
AcDbEntity
 67
     1
  8
02___PRT_ALL_AXES
  6
Continuous
 62
     7
100
AcDbLine
 10
192.1175757263
 20
134.5676112153
 30
0.0
 11
188.6175757263
 21
134.5676112153
 31
0.0
  0
LINE
  5
4F7
330
225
100
AcDbEntity
 67
     1
  8
7_ALL_FEATURES
  6
Continuous
 62
     7
100
AcDbLine
 10
197.6175757263
 20
125.2031432568
 30
0.0
 11
197.6175757263
 21
133.0676113584
 31
0.0
  0
LINE
  5
4F8
330
225
100
AcDbEntity
 67
     1
  8
7_ALL_FEATURES
  6
Continuous
 62
     7
100
AcDbLine
 10
197.6175757263
 20
133.0676113584
 30
0.0
 11
197.6175757263
 21
140.5676102614
 31
0.0
  0
LINE
  5
4F9
330
225
100
AcDbEntity
 67
     1
  8
7_ALL_FEATURES
  6
Continuous
 62
     7
100
AcDbLine
 10
197.6175757263
 20
125.2031432286
 30
0.0
 11
198.2064088236
 21
124.2915831494
 31
0.0
  0
LINE
  5
4FA
330
225
100
AcDbEntity
 67
     1
  8
02___PRT_ALL_AXES
  6
Continuous
 62
     7
100
AcDbLine
 10
186.6175757263
 20
152.5676094983
 30
0.0
 11
183.1175757263
 21
152.5676094983
 31
0.0
  0
LINE
  5
4FB
330
225
100
AcDbEntity
 67
     1
  8
02___PRT_ALL_AXES
  6
Continuous
 62
     7
100
AcDbLine
 10
186.6175757263
 20
136.5676110245
 30
0.0
 11
183.1175757263
 21
136.5676110245
 31
0.0
  0
LINE
  5
4FC
330
225
100
AcDbEntity
 67
     1
  8
02___PRT_ALL_AXES
  6
Continuous
 62
     7
100
AcDbLine
 10
182.8175757263
 20
126.5676102614
 30
0.0
 11
181.4175757263
 21
126.5676102614
 31
0.0
  0
LINE
  5
4FD
330
225
100
AcDbEntity
 67
     1
  8
02___PRT_ALL_AXES
  6
Continuous
 62
     7
100
AcDbLine
 10
188.3175757263
 20
125.5676102614
 30
0.0
 11
186.9175757263
 21
125.5676102614
 31
0.0
  0
LINE
  5
4FE
330
225
100
AcDbEntity
 67
     1
  8
02___PRT_ALL_AXES
  6
Continuous
 62
     7
100
AcDbLine
 10
193.8175757263
 20
124.8176102614
 30
0.0
 11
192.4175757263
 21
124.8176102614
 31
0.0
  0
LINE
  5
4FF
330
225
100
AcDbEntity
 67
     1
  8
02___PRT_ALL_AXES
  6
Continuous
 62
     7
100
AcDbLine
 10
182.8175757263
 20
162.5676102614
 30
0.0
 11
181.4175757263
 21
162.5676102614
 31
0.0
  0
LINE
  5
500
330
225
100
AcDbEntity
 67
     1
  8
02___PRT_ALL_AXES
  6
Continuous
 62
     7
100
AcDbLine
 10
188.3175757263
 20
163.5676102614
 30
0.0
 11
186.9175757263
 21
163.5676102614
 31
0.0
  0
LINE
  5
501
330
225
100
AcDbEntity
 67
     1
  8
02___PRT_ALL_AXES
  6
Continuous
 62
     7
100
AcDbLine
 10
193.8175757263
 20
164.3176102614
 30
0.0
 11
192.4175757263
 21
164.3176102614
 31
0.0
  0
ARC
  5
502
330
225
100
AcDbEntity
 67
     1
  8
02___PRT_ALL_AXES
  6
Continuous
 62
     7
100
AcDbCircle
 10
207.3520827686
 20
144.5676102614
 30
0.0
 40
22.2432153106
100
AcDbArc
 50
101.6993403744
 51
114.2781589051
  0
ARC
  5
503
330
225
100
AcDbEntity
 67
     1
  8
02___PRT_ALL_AXES
  6
Continuous
 62
     7
100
AcDbCircle
 10
207.3520827686
 20
144.5676102614
 30
0.0
 40
22.2432153106
100
AcDbArc
 50
245.7218410949
 51
258.3006596256
  0
LINE
  5
504
330
225
100
AcDbEntity
 67
     1
  8
7_ALL_FEATURES
  6
Continuous
 62
     7
100
AcDbLine
 10
181.4175757263
 20
126.5676102614
 30
0.0
 11
181.4175757263
 21
162.5676085444
 31
0.0
  0
LINE
  5
505
330
225
100
AcDbEntity
 67
     1
  8
7_ALL_FEATURES
  6
Continuous
 62
     7
100
AcDbLine
 10
182.8175757263
 20
126.5676102614
 30
0.0
 11
182.8175757263
 21
162.5676085444
 31
0.0
  0
LINE
  5
506
330
225
100
AcDbEntity
 67
     1
  8
7_ALL_FEATURES
  6
Continuous
 62
     7
100
AcDbLine
 10
181.4175757263
 20
162.5676085444
 30
0.0
 11
181.4175757263
 21
162.5676102614
 31
0.0
  0
LINE
  5
507
330
225
100
AcDbEntity
 67
     1
  8
7_ALL_FEATURES
  6
Continuous
 62
     7
100
AcDbLine
 10
186.9175757263
 20
125.5676102614
 30
0.0
 11
186.9175757263
 21
163.567608449
 31
0.0
  0
LINE
  5
508
330
225
100
AcDbEntity
 67
     1
  8
7_ALL_FEATURES
  6
Continuous
 62
     7
100
AcDbLine
 10
188.3175757263
 20
125.5676102614
 30
0.0
 11
188.3175757263
 21
163.567608449
 31
0.0
  0
LINE
  5
509
330
225
100
AcDbEntity
 67
     1
  8
7_ALL_FEATURES
  6
Continuous
 62
     7
100
AcDbLine
 10
182.8175757263
 20
162.5676085444
 30
0.0
 11
182.8175757263
 21
162.5676102614
 31
0.0
  0
LINE
  5
50A
330
225
100
AcDbEntity
 67
     1
  8
7_ALL_FEATURES
  6
Continuous
 62
     7
100
AcDbLine
 10
192.4175757263
 20
124.8176102614
 30
0.0
 11
192.4175757263
 21
164.3176083775
 31
0.0
  0
LINE
  5
50B
330
225
100
AcDbEntity
 67
     1
  8
7_ALL_FEATURES
  6
Continuous
 62
     7
100
AcDbLine
 10
193.8175757263
 20
124.8176102614
 30
0.0
 11
193.8175757263
 21
164.3176083775
 31
0.0
  0
LINE
  5
50C
330
225
100
AcDbEntity
 67
     1
  8
7_ALL_FEATURES
  6
Continuous
 62
     7
100
AcDbLine
 10
186.9175757263
 20
163.567608449
 30
0.0
 11
186.9175757263
 21
163.5676102614
 31
0.0
  0
LINE
  5
50D
330
225
100
AcDbEntity
 67
     1
  8
7_ALL_FEATURES
  6
Continuous
 62
     7
100
AcDbLine
 10
188.3175757263
 20
163.567608449
 30
0.0
 11
188.3175757263
 21
163.5676102614
 31
0.0
  0
LINE
  5
50E
330
225
100
AcDbEntity
 67
     1
  8
7_ALL_FEATURES
  6
Continuous
 62
     7
100
AcDbLine
 10
192.4175757263
 20
164.3176083775
 30
0.0
 11
192.4175757263
 21
164.3176102614
 31
0.0
  0
LINE
  5
50F
330
225
100
AcDbEntity
 67
     1
  8
7_ALL_FEATURES
  6
Continuous
 62
     7
100
AcDbLine
 10
193.8175757263
 20
164.3176083775
 30
0.0
 11
193.8175757263
 21
164.3176102614
 31
0.0
  0
LINE
  5
510
330
225
100
AcDbEntity
 67
     1
  8
7_ALL_FEATURES
  6
Continuous
 62
     7
100
AcDbLine
 10
198.2064088236
 20
124.2915831494
 30
0.0
 11
198.2064088236
 21
140.5676102614
 31
0.0
  0
LINE
  5
511
330
225
100
AcDbEntity
 67
     1
  8
7_ALL_FEATURES
  6
Continuous
 62
     7
100
AcDbLine
 10
198.2064088236
 20
148.5676102614
 30
0.0
 11
198.2064088236
 21
164.8436373735
 31
0.0
  0
LINE
  5
512
330
225
100
AcDbEntity
 67
     1
  8
7_ALL_FEATURES
  6
Continuous
 62
     3
100
AcDbLine
 10
202.3638832393
 20
140.5676102614
 30
0.0
 11
221.5896472033
 21
140.5676102614
 31
0.0
  0
LINE
  5
513
330
225
100
AcDbEntity
 67
     1
  8
7_ALL_FEATURES
  6
Continuous
 62
     3
100
AcDbLine
 10
221.5896472033
 20
148.5676102614
 30
0.0
 11
202.3638832393
 21
148.5676102614
 31
0.0
  0
LINE
  5
514
330
225
100
AcDbEntity
 67
     1
  8
7_ALL_FEATURES
  6
Continuous
 62
     3
100
AcDbLine
 10
221.9396472033
 20
140.5676102614
 30
0.0
 11
221.5896472033
 21
140.5676102614
 31
0.0
  0
LINE
  5
515
330
225
100
AcDbEntity
 67
     1
  8
7_ALL_FEATURES
  6
Continuous
 62
     3
100
AcDbLine
 10
221.9396472033
 20
148.5676102614
 30
0.0
 11
221.5896472033
 21
148.5676102614
 31
0.0
  0
LINE
  5
516
330
225
100
AcDbEntity
 67
     1
  8
7_ALL_FEATURES
  6
Continuous
 62
     3
100
AcDbLine
 10
221.9396472033
 20
148.5676102614
 30
0.0
 11
221.9396472033
 21
140.5676102614
 31
0.0
  0
LINE
  5
517
330
225
100
AcDbEntity
 67
     1
  8
7_ALL_FEATURES
  6
Continuous
 62
     3
100
AcDbLine
 10
202.0138832393
 20
140.5676102614
 30
0.0
 11
202.3638832393
 21
140.5676102614
 31
0.0
  0
LINE
  5
518
330
225
100
AcDbEntity
 67
     1
  8
7_ALL_FEATURES
  6
Continuous
 62
     3
100
AcDbLine
 10
202.0138832393
 20
148.5676102614
 30
0.0
 11
202.3638832393
 21
148.5676102614
 31
0.0
  0
LINE
  5
519
330
225
100
AcDbEntity
 67
     1
  8
7_ALL_FEATURES
  6
Continuous
 62
     3
100
AcDbLine
 10
196.201447674
 20
148.5676102614
 30
0.0
 11
196.201447674
 21
140.5676102614
 31
0.0
  0
LINE
  5
51A
330
225
100
AcDbEntity
 67
     1
  8
7_ALL_FEATURES
  6
Continuous
 62
     3
100
AcDbLine
 10
196.201447674
 20
140.5676102614
 30
0.0
 11
202.0138832393
 21
140.5676102614
 31
0.0
  0
LINE
  5
51B
330
225
100
AcDbEntity
 67
     1
  8
7_ALL_FEATURES
  6
Continuous
 62
     3
100
AcDbLine
 10
202.0138832393
 20
148.5676102614
 30
0.0
 11
196.201447674
 21
148.5676102614
 31
0.0
  0
LINE
  5
51C
330
225
100
AcDbEntity
 67
     1
  8
7_ALL_FEATURES
  6
Continuous
 62
     9
100
AcDbLine
 10
202.0138832393
 20
140.5676102614
 30
0.0
 11
202.0138832393
 21
148.5676102614
 31
0.0
  0
LINE
  5
51D
330
225
100
AcDbEntity
 67
     1
  8
7_ALL_FEATURES
  6
Continuous
 62
     9
100
AcDbLine
 10
202.3638832393
 20
140.5676102614
 30
0.0
 11
202.3638832393
 21
148.5676102614
 31
0.0
  0
LINE
  5
51E
330
225
100
AcDbEntity
 67
     1
  8
7_ALL_FEATURES
  6
Continuous
 62
     9
100
AcDbLine
 10
221.5896472033
 20
148.5676102614
 30
0.0
 11
221.5896472033
 21
140.5676102614
 31
0.0
  0
DIMENSION
  5
51F
330
225
100
AcDbEntity
 67
     1
  8
0
  6
Continuous
 62
     2
100
AcDbDimension
280
     0
  2
*D1
 10
60.5467297907
 20
164.4860430979
 30
0.0
 11
51.2953813949
 21
173.7833251592
 31
0.0
 70
   163
  1
%%c<>
 71
     3
 42
69.0
 73
     0
 74
     0
 75
     0
  3
DIMSTYLE_1
100
AcDbDiametricDimension
 15
116.8852080569
 25
124.6491774249
 35
0.0
 40
0.0
  0
DIMENSION
  5
520
330
225
100
AcDbEntity
 67
     1
  8
0
  6
Continuous
 62
     2
100
AcDbDimension
280
     0
  2
*D2
 10
44.5915042083
 20
43.3738472926
 30
0.0
 11
44.5915042083
 21
67.4622448837
 31
0.0
 70
   160
 71
     2
 42
48.3345070423
 73
     0
 74
     0
 75
     0
  3
DIMSTYLE_2
100
AcDbAlignedDimension
 13
63.5324692464
 23
91.7083543348
 33
0.0
 14
59.6127366506
 24
43.3738472926
 34
0.0
 50
270.0
100
AcDbRotatedDimension
  0
DIMENSION
  5
521
330
225
100
AcDbEntity
 67
     1
  8
0
  6
Continuous
 62
     2
100
AcDbDimension
280
     0
  2
*D3
 10
32.6624416637
 20
91.7083543348
 30
0.0
 11
32.6624416637
 21
61.9325637228
 31
0.0
 70
   160
 71
     2
 42
59.55
 73
     0
 74
     0
 75
     0
  3
DIMSTYLE_2
100
AcDbAlignedDimension
 13
60.3536303254
 23
32.1583543348
 33
0.0
 14
61.934021193
 24
91.7083543348
 34
0.0
 50
90.0
100
AcDbRotatedDimension
  0
DIMENSION
  5
522
330
225
100
AcDbEntity
 67
     1
  8
0
  6
Continuous
 62
     2
100
AcDbDimension
280
     0
  2
*D4
 10
130.8142940935
 20
43.3738472926
 30
0.0
 11
130.8142940935
 21
36.9969928511
 31
0.0
 70
   160
 71
     3
 42
1.5
 73
     0
 74
     0
 75
     0
  3
DIMSTYLE_3
100
AcDbAlignedDimension
 13
123.2159689238
 23
44.8738472926
 33
0.0
 14
122.8885650235
 24
43.3738472926
 34
0.0
 50
270.0
100
AcDbRotatedDimension
  0
DIMENSION
  5
523
330
225
100
AcDbEntity
 67
     1
  8
0
  6
Continuous
 62
     2
100
AcDbDimension
280
     0
  2
*D5
 10
167.6285373963
 20
115.9176102614
 30
0.0
 11
167.6285373963
 21
144.5676102614
 31
0.0
 70
   160
  1
%%c<>
 71
     2
 42
57.3
 73
     0
 74
     0
 75
     0
  3
DIMSTYLE_2
100
AcDbAlignedDimension
 13
189.4843764117
 23
173.2176102614
 33
0.0
 14
187.2008791925
 24
115.9176102614
 34
0.0
 50
270.0
100
AcDbRotatedDimension
  0
LINE
  5
524
330
225
100
AcDbEntity
 67
     1
  8
0
  6
Continuous
 62
     2
100
AcDbLine
 10
154.0072301476
 20
78.9839440915
 30
0.0
 11
284.0072301476
 21
78.9839440915
 31
0.0
  0
LINE
  5
525
330
225
100
AcDbEntity
 67
     1
  8
0
  6
Continuous
 62
     2
100
AcDbLine
 10
154.0072301476
 20
78.9839440915
 30
0.0
 11
154.0072301476
 21
12.9839440915
 31
0.0
  0
LINE
  5
526
330
225
100
AcDbEntity
 67
     1
  8
0
  6
Continuous
 62
     2
100
AcDbLine
 10
184.0072301476
 20
70.9839440915
 30
0.0
 11
284.0072301476
 21
70.9839440915
 31
0.0
  0
LINE
  5
527
330
225
100
AcDbEntity
 67
     1
  8
0
  6
Continuous
 62
     2
100
AcDbLine
 10
154.0072301476
 20
62.9839440915
 30
0.0
 11
284.0072301476
 21
62.9839440915
 31
0.0
  0
LINE
  5
528
330
225
100
AcDbEntity
 67
     1
  8
0
  6
Continuous
 62
     2
100
AcDbLine
 10
184.0072301476
 20
56.9839440915
 30
0.0
 11
284.0072301476
 21
56.9839440915
 31
0.0
  0
LINE
  5
529
330
225
100
AcDbEntity
 67
     1
  8
0
  6
Continuous
 62
     2
100
AcDbLine
 10
184.0072301476
 20
50.9839440915
 30
0.0
 11
284.0072301476
 21
50.9839440915
 31
0.0
  0
LINE
  5
52A
330
225
100
AcDbEntity
 67
     1
  8
0
  6
Continuous
 62
     2
100
AcDbLine
 10
184.0072301476
 20
44.9839440915
 30
0.0
 11
284.0072301476
 21
44.9839440915
 31
0.0
  0
LINE
  5
52B
330
225
100
AcDbEntity
 67
     1
  8
0
  6
Continuous
 62
     2
100
AcDbLine
 10
184.0072301476
 20
38.9839440915
 30
0.0
 11
284.0072301476
 21
38.9839440915
 31
0.0
  0
LINE
  5
52C
330
225
100
AcDbEntity
 67
     1
  8
0
  6
Continuous
 62
     2
100
AcDbLine
 10
184.0072301476
 20
32.9839440915
 30
0.0
 11
284.0072301476
 21
32.9839440915
 31
0.0
  0
LINE
  5
52D
330
225
100
AcDbEntity
 67
     1
  8
0
  6
Continuous
 62
     2
100
AcDbLine
 10
154.0072301476
 20
26.9839440915
 30
0.0
 11
284.0072301476
 21
26.9839440915
 31
0.0
  0
LINE
  5
52E
330
225
100
AcDbEntity
 67
     1
  8
0
  6
Continuous
 62
     2
100
AcDbLine
 10
154.0072301476
 20
20.9839440915
 30
0.0
 11
284.0072301476
 21
20.9839440915
 31
0.0
  0
LINE
  5
52F
330
225
100
AcDbEntity
 67
     1
  8
0
  6
Continuous
 62
     2
100
AcDbLine
 10
154.0072301476
 20
16.9839440915
 30
0.0
 11
284.0072301476
 21
16.9839440915
 31
0.0
  0
LINE
  5
530
330
225
100
AcDbEntity
 67
     1
  8
0
  6
Continuous
 62
     2
100
AcDbLine
 10
154.0072301476
 20
12.9839440915
 30
0.0
 11
284.0072301476
 21
12.9839440915
 31
0.0
  0
LINE
  5
531
330
225
100
AcDbEntity
 67
     1
  8
0
  6
Continuous
 62
     2
100
AcDbLine
 10
184.0072301476
 20
78.9839440915
 30
0.0
 11
184.0072301476
 21
20.9839440915
 31
0.0
  0
LINE
  5
532
330
225
100
AcDbEntity
 67
     1
  8
0
  6
Continuous
 62
     2
100
AcDbLine
 10
204.0072301476
 20
62.9839440915
 30
0.0
 11
204.0072301476
 21
56.9839440915
 31
0.0
  0
LINE
  5
533
330
225
100
AcDbEntity
 67
     1
  8
0
  6
Continuous
 62
     2
100
AcDbLine
 10
234.0072301476
 20
32.9839440915
 30
0.0
 11
234.0072301476
 21
20.9839440915
 31
0.0
  0
LINE
  5
534
330
225
100
AcDbEntity
 67
     1
  8
0
  6
Continuous
 62
     2
100
AcDbLine
 10
244.0072301476
 20
62.9839440915
 30
0.0
 11
244.0072301476
 21
56.9839440915
 31
0.0
  0
LINE
  5
535
330
225
100
AcDbEntity
 67
     1
  8
0
  6
Continuous
 62
     2
100
AcDbLine
 10
244.0072301476
 20
50.9839440915
 30
0.0
 11
244.0072301476
 21
44.9839440915
 31
0.0
  0
LINE
  5
536
330
225
100
AcDbEntity
 67
     1
  8
0
  6
Continuous
 62
     2
100
AcDbLine
 10
264.0072301476
 20
62.9839440915
 30
0.0
 11
264.0072301476
 21
56.9839440915
 31
0.0
  0
LINE
  5
537
330
225
100
AcDbEntity
 67
     1
  8
0
  6
Continuous
 62
     2
100
AcDbLine
 10
274.0072301476
 20
50.9839440915
 30
0.0
 11
274.0072301476
 21
44.9839440915
 31
0.0
  0
LINE
  5
538
330
225
100
AcDbEntity
 67
     1
  8
0
  6
Continuous
 62
     2
100
AcDbLine
 10
284.0072301476
 20
78.9839440915
 30
0.0
 11
284.0072301476
 21
12.9839440915
 31
0.0
  0
INSERT
  5
539
330
225
100
AcDbEntity
 67
     1
  8
0
  6
Continuous
 62
     2
100
AcDbBlockReference
  2
PROIEZIONE_EU_BL0
 10
169.0072301476
 20
70.6089440915
 30
0.0
  0
MTEXT
  5
53A
330
225
100
AcDbEntity
 67
     1
  8
9_SOLID
  6
Continuous
 62
     2
100
AcDbMText
 10
185.4947301476
 20
77.3589440915
 30
0.0
 40
1.9
 41
142.3642857143
 46
0.0
 71
     1
 72
     1
  1
EN: Chamfer/radii unlisted 0.3x45°. Remove sharp edges.\PGen. tol.: hole H11, shaft h11, lenght Js12. UNI EN 22768 Medium Grande.
  7
TEXTSTYLE_4
 73
     1
 44
0.9
  0
MTEXT
  5
53B
330
225
100
AcDbEntity
 67
     1
  8
9_SOLID
  6
Continuous
 62
     2
100
AcDbMText
 10
185.4947301476
 20
69.3589440915
 30
0.0
 40
1.9
 41
148.2678571429
 46
0.0
 71
     1
 72
     1
  1
IT: Sm./rac. non quotati 0.3x45°. Eliminare spigoli taglienti.\PToll. gen.: foro H11, albero h11, lunghezza Js12. UNI EN 22768 Grado Medio.
  7
TEXTSTYLE_4
 73
     1
 44
0.9
  0
INSERT
  5
53C
330
225
100
AcDbEntity
 67
     1
  8
0
  6
Continuous
 62
     2
100
AcDbBlockReference
  2
LOGO2_BL1
 10
167.8332771924
 20
44.9839440915
 30
0.0
  0
MTEXT
  5
53D
330
225
100
AcDbEntity
 67
     1
  8
9_SOLID
  6
Continuous
 62
     2
100
AcDbMText
 10
185.4947301476
 20
61.2339440915
 30
0.0
 40
3.0
 41
24.9642857143
 46
0.0
 71
     1
 72
     1
  1
Pj: A031
  7
TEXTSTYLE_4
 73
     1
 44
0.9
  0
MTEXT
  5
53E
330
225
100
AcDbEntity
 67
     1
  8
9_SOLID
  6
Continuous
 62
     2
100
AcDbMText
 10
205.4947301476
 20
61.2339440915
 30
0.0
 40
3.0
 41
38.0357142857
 46
0.0
 71
     1
 72
     1
  1
% Check: %
  7
TEXTSTYLE_4
 73
     1
 44
0.9
  0
MTEXT
  5
53F
330
225
100
AcDbEntity
 67
     1
  8
9_SOLID
  6
Continuous
 62
     2
100
AcDbMText
 10
245.4947301476
 20
61.2339440915
 30
0.0
 40
3.0
 41
19.5
 46
0.0
 71
     1
 72
     1
  1
Rev:00
  7
TEXTSTYLE_4
 73
     1
 44
0.9
  0
MTEXT
  5
540
330
225
100
AcDbEntity
 67
     1
  8
9_SOLID
  6
Continuous
 62
     2
100
AcDbMText
 10
265.4947301476
 20
61.4839440915
 30
0.0
 40
3.0
 41
19.7142857143
 46
0.0
 71
     1
 72
     1
  1
Ver: A
  7
TEXTSTYLE_4
 73
     1
 44
0.9
  0
MTEXT
  5
541
330
225
100
AcDbEntity
 67
     1
  8
9_SOLID
  6
Continuous
 62
     2
100
AcDbMText
 10
185.4947301476
 20
55.2339440915
 30
0.0
 40
3.0
 41
76.6071428571
 46
0.0
 71
     1
 72
     1
  1
Neutral code: A031_C_001
  7
TEXTSTYLE_4
 73
     1
 44
0.9
  0
MTEXT
  5
542
330
225
100
AcDbEntity
 67
     1
  8
9_SOLID
  6
Continuous
 62
     2
100
AcDbMText
 10
185.4947301476
 20
49.2339440915
 30
0.0
 40
3.0
 41
19.3928571429
 46
0.0
 71
     1
 72
     1
  1
Code: 
  7
TEXTSTYLE_4
 73
     1
 44
0.9
  0
MTEXT
  5
543
330
225
100
AcDbEntity
 67
     1
  8
9_SOLID
  6
Continuous
 62
     2
100
AcDbMText
 10
245.4947301476
 20
49.4839440915
 30
0.0
 40
3.0
 41
27.0
 46
0.0
 71
     1
 72
     1
  1
Scale: 1:1
  7
TEXTSTYLE_4
 73
     1
 44
0.9
  0
MTEXT
  5
544
330
225
100
AcDbEntity
 67
     1
  8
9_SOLID
  6
Continuous
 62
     2
100
AcDbMText
 10
279.0072301476
 20
49.4839440915
 30
0.0
 40
3.0
 41
7.3928571429
 46
0.0
 71
     2
 72
     1
  1
A4
  7
TEXTSTYLE_4
 73
     1
 44
0.9
  0
MTEXT
  5
545
330
225
100
AcDbEntity
 67
     1
  8
9_SOLID
  6
Continuous
 62
     2
100
AcDbMText
 10
185.4947301476
 20
43.4839440915
 30
0.0
 40
3.0
 41
64.3928571429
 46
0.0
 71
     1
 72
     1
  1
It descr.: CAMEO 2.8
  7
TEXTSTYLE_4
 73
     1
 44
0.9
  0
MTEXT
  5
546
330
225
100
AcDbEntity
 67
     1
  8
9_SOLID
  6
Continuous
 62
     2
100
AcDbMText
 10
185.4947301476
 20
37.4839440915
 30
0.0
 40
3.0
 41
33.9642857143
 46
0.0
 71
     1
 72
     1
  1
En descr.: 
  7
TEXTSTYLE_4
 73
     1
 44
0.9
  0
MTEXT
  5
547
330
225
100
AcDbEntity
 67
     1
  8
9_SOLID
  6
Continuous
 62
     2
100
AcDbMText
 10
185.4947301476
 20
31.4839440915
 30
0.0
 40
3.0
 41
31.6071428571
 46
0.0
 71
     1
 72
     1
  1
Des.: A.G.
  7
TEXTSTYLE_4
 73
     1
 44
0.9
  0
MTEXT
  5
548
330
225
100
AcDbEntity
 67
     1
  8
9_SOLID
  6
Continuous
 62
     2
100
AcDbMText
 10
235.4947301476
 20
31.4839440915
 30
0.0
 40
3.0
 41
34.8214285714
 46
0.0
 71
     1
 72
     1
  1
Check: A.P.
  7
TEXTSTYLE_4
 73
     1
 44
0.9
  0
MTEXT
  5
549
330
225
100
AcDbEntity
 67
     1
  8
9_SOLID
  6
Continuous
 62
     2
100
AcDbMText
 10
155.4947301476
 20
25.4839440915
 30
0.0
 40
3.0
 41
43.1785714286
 46
0.0
 71
     1
 72
     1
  1
Date: 16.05.19
  7
TEXTSTYLE_4
 73
     1
 44
0.9
  0
MTEXT
  5
54A
330
225
100
AcDbEntity
 67
     1
  8
9_SOLID
  6
Continuous
 62
     2
100
AcDbMText
 10
185.4947301476
 20
25.4839440915
 30
0.0
 40
3.0
 41
18.2142857143
 46
0.0
 71
     1
 72
     1
  1
Mat.: 
  7
TEXTSTYLE_4
 73
     1
 44
0.9
  0
MTEXT
  5
54B
330
225
100
AcDbEntity
 67
     1
  8
9_SOLID
  6
Continuous
 62
     2
100
AcDbMText
 10
235.4947301476
 20
24.9839440915
 30
0.0
 40
2.0
 41
42.3571428571
 46
0.0
 71
     1
 72
     1
  1
Disegno per catalogo
  7
TEXTSTYLE_4
 73
     1
 44
0.9
  0
MTEXT
  5
54C
330
225
100
AcDbEntity
 67
     1
  8
9_SOLID
  6
Continuous
 62
     2
100
AcDbMText
 10
155.4947301476
 20
19.8839440915
 30
0.0
 40
1.8
 41
175.6928571429
 46
0.0
 71
     1
 72
     1
  1
It: A norma di legge si diffida da qualsiasi riproduzione senza nostra autorizzazione esplicita.
  7
TEXTSTYLE_4
 73
     1
 44
0.9
  0
MTEXT
  5
54D
330
225
100
AcDbEntity
 67
     1
  8
9_SOLID
  6
Continuous
 62
     2
100
AcDbMText
 10
155.4947301476
 20
15.8839440915
 30
0.0
 40
1.8
 41
157.6285714286
 46
0.0
 71
     1
 72
     1
  1
En: According to the law, beware of any reproduction made without our authorization.
  7
TEXTSTYLE_4
 73
     1
 44
0.9
  0
ENDSEC
  0
SECTION
  2
OBJECTS
  0
DICTIONARY
  5
C
330
0
100
AcDbDictionary
281
     1
  3
ACAD_DETAILVIEWSTYLE
350
59C
  3
ACAD_GROUP
350
D
  3
ACAD_LAYOUT
350
1A
  3
ACAD_MATERIAL
350
58B
  3
ACAD_MLEADERSTYLE
350
591
  3
ACAD_MLINESTYLE
350
17
  3
ACAD_PLOTSETTINGS
350
19
  3
ACAD_PLOTSTYLENAME
350
E
  3
ACAD_SCALELIST
350
550
  3
ACAD_SECTIONVIEWSTYLE
350
59D
  3
ACAD_TABLESTYLE
350
58F
  3
ACAD_VISUALSTYLE
350
572
  3
ACDB_RECOMPOSE_DATA
350
598
  3
AcDbVariableDictionary
350
594
  3
APPDATA
350
593
  0
DICTIONARY
  5
59C
102
{ACAD_REACTORS
330
C
102
}
330
C
100
AcDbDictionary
281
     1
  0
DICTIONARY
  5
D
102
{ACAD_REACTORS
330
C
102
}
330
C
100
AcDbDictionary
281
     1
  0
DICTIONARY
  5
1A
102
{ACAD_REACTORS
330
C
102
}
330
C
100
AcDbDictionary
281
     1
  3
168713_1
350
54F
  3
Model
350
54E
  0
DICTIONARY
  5
58B
102
{ACAD_REACTORS
330
C
102
}
330
C
100
AcDbDictionary
281
     1
  3
ByBlock
350
58D
  3
ByLayer
350
58C
  3
Global
350
58E
  0
DICTIONARY
  5
591
102
{ACAD_REACTORS
330
C
102
}
330
C
100
AcDbDictionary
281
     1
  3
Standard
350
592
  0
DICTIONARY
  5
17
102
{ACAD_REACTORS
330
C
102
}
330
C
100
AcDbDictionary
281
     1
  3
Standard
350
18
  0
DICTIONARY
  5
19
102
{ACAD_REACTORS
330
C
102
}
330
C
100
AcDbDictionary
281
     1
  0
ACDBDICTIONARYWDFLT
  5
E
102
{ACAD_REACTORS
330
C
102
}
330
C
100
AcDbDictionary
281
     1
  3
Normal
350
F
100
AcDbDictionaryWithDefault
340
F
  0
DICTIONARY
  5
550
102
{ACAD_REACTORS
330
C
102
}
330
C
100
AcDbDictionary
281
     1
  3
A0
350
551
  3
A1
350
552
  3
A2
350
553
  3
A3
350
554
  3
A4
350
555
  3
A5
350
556
  3
A6
350
557
  3
A7
350
558
  3
A8
350
559
  3
A9
350
55A
  3
B0
350
55B
  3
B1
350
55C
  3
B2
350
55D
  3
B3
350
55E
  3
B4
350
55F
  3
B5
350
560
  3
B6
350
561
  3
B7
350
562
  3
B8
350
563
  3
B9
350
564
  3
C0
350
565
  3
C1
350
566
  3
C2
350
567
  3
C3
350
568
  3
C4
350
569
  3
C5
350
56A
  3
C6
350
56B
  3
C7
350
56C
  3
C8
350
56D
  3
C9
350
56E
  3
D0
350
56F
  3
D1
350
570
  3
D2
350
571
  0
DICTIONARY
  5
59D
102
{ACAD_REACTORS
330
C
102
}
330
C
100
AcDbDictionary
281
     1
  0
DICTIONARY
  5
58F
102
{ACAD_REACTORS
330
C
102
}
330
C
100
AcDbDictionary
281
     1
  3
Standard
350
590
  0
DICTIONARY
  5
572
102
{ACAD_REACTORS
330
C
102
}
330
C
100
AcDbDictionary
281
     1
  3
2dWireframe
350
577
  3
Basic
350
57A
  3
Brighten
350
57E
  3
ColorChange
350
582
  3
Conceptual
350
57C
  3
Dim
350
57D
  3
EdgeColorOff
350
585
  3
Facepattern
350
581
  3
Flat
350
573
  3
FlatWithEdges
350
574
  3
Gouraud
350
575
  3
GouraudWithEdges
350
576
  3
Hidden
350
579
  3
JitterOff
350
583
  3
Linepattern
350
580
  3
OverhangOff
350
584
  3
Realistic
350
57B
  3
Shaded
350
58A
  3
Shaded with edges
350
589
  3
Shades of Gray
350
586
  3
Sketchy
350
587
  3
Thicken
350
57F
  3
Wireframe
350
578
  3
X-Ray
350
588
  0
XRECORD
  5
598
102
{ACAD_REACTORS
330
C
102
}
330
C
100
AcDbXrecord
280
     1
 90
        1
330
590
  0
DICTIONARY
  5
594
102
{ACAD_REACTORS
330
C
102
}
330
C
100
AcDbDictionary
281
     1
  3
CANNOSCALE
350
595
  3
CMLEADERSTYLE
350
59A
  3
CTABLESTYLE
350
599
  3
MSLTSCALE
350
59B
  0
DICTIONARY
  5
593
102
{ACAD_REACTORS
330
C
102
}
330
C
100
AcDbDictionary
281
     1
  0
LAYOUT
  5
54F
102
{ACAD_REACTORS
330
1A
102
}
330
1A
100
AcDbPlotSettings
  1

  2
none_device
  4
ISO_A4_(297.00_x_210.00_MM)
  6

 40
0.0
 41
0.0
 42
0.0
 43
0.0
 44
297.0
 45
210.0
 46
0.0
 47
0.0
 48
0.0
 49
0.0
140
0.0
141
0.0
142
1.0
143
1.0
 70
     0
 72
     1
 73
     0
 74
     0
  7

 75
     0
 76
     0
 77
     2
 78
   300
147
1.0
148
0.0
149
0.0
100
AcDbLayout
  1
168713_1
 70
     0
 71
     1
 10
0.0
 20
0.0
 11
297.0
 21
210.0
 12
0.0
 22
0.0
 32
0.0
 14
9.949999999999989
 24
9.950000000000003
 34
0.0
 15
291.5463968142666
 25
200.05
 35
0.0
146
0.0
 13
0.0
 23
0.0
 33
0.0
 16
1.0
 26
0.0
 36
0.0
 17
0.0
 27
1.0
 37
0.0
 76
     0
330
225
331
2B5
  0
LAYOUT
  5
54E
102
{ACAD_REACTORS
330
1A
102
}
330
1A
100
AcDbPlotSettings
  1

  2
none_device
  4

  6

 40
0.0
 41
0.0
 42
0.0
 43
0.0
 44
297.0
 45
210.0
 46
0.0
 47
0.0
 48
0.0
 49
0.0
140
0.0
141
0.0
142
1.0
143
1.0
 70
  1024
 72
     1
 73
     0
 74
     0
  7

 75
     0
 76
     0
 77
     2
 78
   300
147
1.0
148
0.0
149
0.0
100
AcDbLayout
  1
Model
 70
     0
 71
     0
 10
0.0
 20
0.0
 11
297.0
 21
210.0
 12
0.0
 22
0.0
 32
0.0
 14
0.0
 24
0.0
 34
0.0
 15
0.0
 25
0.0
 35
0.0
146
0.0
 13
0.0
 23
0.0
 33
0.0
 16
1.0
 26
0.0
 36
0.0
 17
0.0
 27
1.0
 37
0.0
 76
     0
330
224
331
1F4
  0
MATERIAL
  5
58D
102
{ACAD_REACTORS
330
58B
102
}
330
58B
100
AcDbMaterial
  1
ByBlock
 72
     1
 94
      127
  0
MATERIAL
  5
58C
102
{ACAD_REACTORS
330
58B
102
}
330
58B
100
AcDbMaterial
  1
ByLayer
 72
     1
 94
      127
  0
MATERIAL
  5
58E
102
{ACAD_REACTORS
330
58B
102
}
330
58B
100
AcDbMaterial
  1
Global
 72
     1
 94
      127
  0
MLEADERSTYLE
  5
592
102
{ACAD_REACTORS
330
591
102
}
330
591
100
AcDbMLeaderStyle
179
     2
170
     2
171
     1
172
     0
 90
        2
 40
0.0
 41
0.0
173
     1
 91
-1056964608
340
14
 92
       -2
290
     1
 42
2.0
291
     1
 43
8.0
  3
Standard
341
0
 44
4.0
300

342
11
174
     1
178
     1
175
     1
176
     0
 93
-1056964608
 45
4.0
292
     0
297
     0
 46
4.0
343
0
 94
-1056964608
 47
1.0
 49
1.0
140
1.0
293
     1
141
0.0
294
     1
177
     0
142
1.0
295
     0
296
     0
143
3.75
271
     0
272
     9
273
     9
298
     0
  0
MLINESTYLE
  5
18
102
{ACAD_REACTORS
330
17
102
}
330
17
100
AcDbMlineStyle
  2
STANDARD
 70
     0
  3

 62
   256
 51
90.0
 52
90.0
 71
     2
 49
0.5
 62
   256
  6
BYLAYER
 49
-0.5
 62
   256
  6
BYLAYER
  0
ACDBPLACEHOLDER
  5
F
102
{ACAD_REACTORS
330
E
102
}
330
E
  0
SCALE
  5
551
102
{ACAD_REACTORS
330
550
102
}
330
550
100
AcDbScale
 70
     0
300
1:1
140
1.0
141
1.0
290
     1
  0
SCALE
  5
552
102
{ACAD_REACTORS
330
550
102
}
330
550
100
AcDbScale
 70
     0
300
1:2
140
1.0
141
2.0
290
     0
  0
SCALE
  5
553
102
{ACAD_REACTORS
330
550
102
}
330
550
100
AcDbScale
 70
     0
300
1:4
140
1.0
141
4.0
290
     0
  0
SCALE
  5
554
102
{ACAD_REACTORS
330
550
102
}
330
550
100
AcDbScale
 70
     0
300
1:5
140
1.0
141
5.0
290
     0
  0
SCALE
  5
555
102
{ACAD_REACTORS
330
550
102
}
330
550
100
AcDbScale
 70
     0
300
1:8
140
1.0
141
8.0
290
     0
  0
SCALE
  5
556
102
{ACAD_REACTORS
330
550
102
}
330
550
100
AcDbScale
 70
     0
300
1:10
140
1.0
141
10.0
290
     0
  0
SCALE
  5
557
102
{ACAD_REACTORS
330
550
102
}
330
550
100
AcDbScale
 70
     0
300
1:16
140
1.0
141
16.0
290
     0
  0
SCALE
  5
558
102
{ACAD_REACTORS
330
550
102
}
330
550
100
AcDbScale
 70
     0
300
1:20
140
1.0
141
20.0
290
     0
  0
SCALE
  5
559
102
{ACAD_REACTORS
330
550
102
}
330
550
100
AcDbScale
 70
     0
300
1:30
140
1.0
141
30.0
290
     0
  0
SCALE
  5
55A
102
{ACAD_REACTORS
330
550
102
}
330
550
100
AcDbScale
 70
     0
300
1:40
140
1.0
141
40.0
290
     0
  0
SCALE
  5
55B
102
{ACAD_REACTORS
330
550
102
}
330
550
100
AcDbScale
 70
     0
300
1:50
140
1.0
141
50.0
290
     0
  0
SCALE
  5
55C
102
{ACAD_REACTORS
330
550
102
}
330
550
100
AcDbScale
 70
     0
300
1:100
140
1.0
141
100.0
290
     0
  0
SCALE
  5
55D
102
{ACAD_REACTORS
330
550
102
}
330
550
100
AcDbScale
 70
     0
300
2:1
140
2.0
141
1.0
290
     0
  0
SCALE
  5
55E
102
{ACAD_REACTORS
330
550
102
}
330
550
100
AcDbScale
 70
     0
300
4:1
140
4.0
141
1.0
290
     0
  0
SCALE
  5
55F
102
{ACAD_REACTORS
330
550
102
}
330
550
100
AcDbScale
 70
     0
300
8:1
140
8.0
141
1.0
290
     0
  0
SCALE
  5
560
102
{ACAD_REACTORS
330
550
102
}
330
550
100
AcDbScale
 70
     0
300
10:1
140
10.0
141
1.0
290
     0
  0
SCALE
  5
561
102
{ACAD_REACTORS
330
550
102
}
330
550
100
AcDbScale
 70
     0
300
100:1
140
100.0
141
1.0
290
     0
  0
SCALE
  5
562
102
{ACAD_REACTORS
330
550
102
}
330
550
100
AcDbScale
 70
     0
300
1/128" = 1'-0"
140
0.0078125
141
12.0
290
     0
  0
SCALE
  5
563
102
{ACAD_REACTORS
330
550
102
}
330
550
100
AcDbScale
 70
     0
300
1/64" = 1'-0"
140
0.015625
141
12.0
290
     0
  0
SCALE
  5
564
102
{ACAD_REACTORS
330
550
102
}
330
550
100
AcDbScale
 70
     0
300
1/32" = 1'-0"
140
0.03125
141
12.0
290
     0
  0
SCALE
  5
565
102
{ACAD_REACTORS
330
550
102
}
330
550
100
AcDbScale
 70
     0
300
1/16" = 1'-0"
140
0.0625
141
12.0
290
     0
  0
SCALE
  5
566
102
{ACAD_REACTORS
330
550
102
}
330
550
100
AcDbScale
 70
     0
300
3/32" = 1'-0"
140
0.09375
141
12.0
290
     0
  0
SCALE
  5
567
102
{ACAD_REACTORS
330
550
102
}
330
550
100
AcDbScale
 70
     0
300
1/8" = 1'-0"
140
0.125
141
12.0
290
     0
  0
SCALE
  5
568
102
{ACAD_REACTORS
330
550
102
}
330
550
100
AcDbScale
 70
     0
300
3/16" = 1'-0"
140
0.1875
141
12.0
290
     0
  0
SCALE
  5
569
102
{ACAD_REACTORS
330
550
102
}
330
550
100
AcDbScale
 70
     0
300
1/4" = 1'-0"
140
0.25
141
12.0
290
     0
  0
SCALE
  5
56A
102
{ACAD_REACTORS
330
550
102
}
330
550
100
AcDbScale
 70
     0
300
3/8" = 1'-0"
140
0.375
141
12.0
290
     0
  0
SCALE
  5
56B
102
{ACAD_REACTORS
330
550
102
}
330
550
100
AcDbScale
 70
     0
300
1/2" = 1'-0"
140
0.5
141
12.0
290
     0
  0
SCALE
  5
56C
102
{ACAD_REACTORS
330
550
102
}
330
550
100
AcDbScale
 70
     0
300
3/4" = 1'-0"
140
0.75
141
12.0
290
     0
  0
SCALE
  5
56D
102
{ACAD_REACTORS
330
550
102
}
330
550
100
AcDbScale
 70
     0
300
1" = 1'-0"
140
1.0
141
12.0
290
     0
  0
SCALE
  5
56E
102
{ACAD_REACTORS
330
550
102
}
330
550
100
AcDbScale
 70
     0
300
1-1/2" = 1'-0"
140
1.5
141
12.0
290
     0
  0
SCALE
  5
56F
102
{ACAD_REACTORS
330
550
102
}
330
550
100
AcDbScale
 70
     0
300
3" = 1'-0"
140
3.0
141
12.0
290
     0
  0
SCALE
  5
570
102
{ACAD_REACTORS
330
550
102
}
330
550
100
AcDbScale
 70
     0
300
6" = 1'-0"
140
6.0
141
12.0
290
     0
  0
SCALE
  5
571
102
{ACAD_REACTORS
330
550
102
}
330
550
100
AcDbScale
 70
     0
300
1'-0" = 1'-0"
140
12.0
141
12.0
290
     0
  0
TABLESTYLE
  5
590
102
{ACAD_REACTORS
330
58F
102
}
102
{ACAD_XDICTIONARY
360
596
102
}
330
58F
100
AcDbTableStyle
  3
Standard
 70
     0
 71
     0
 40
0.06
 41
0.06
280
     0
281
     0
  7
STANDARD
140
4.5
170
     2
 62
     0
 63
   257
283
     0
 90
        4
 91
        0
  1

274
    -2
284
     1
 64
     0
275
    -2
285
     1
 65
     0
276
    -2
286
     1
 66
     0
277
    -2
287
     1
 67
     0
278
    -2
288
     1
 68
     0
279
    -2
289
     1
 69
     0
  7
STANDARD
140
6.0
170
     5
 62
     0
 63
   257
283
     0
 90
        4
 91
        0
  1

274
    -2
284
     1
 64
     0
275
    -2
285
     1
 65
     0
276
    -2
286
     1
 66
     0
277
    -2
287
     1
 67
     0
278
    -2
288
     1
 68
     0
279
    -2
289
     1
 69
     0
  7
STANDARD
140
4.5
170
     5
 62
     0
 63
   257
283
     0
 90
        4
 91
        0
  1

274
    -2
284
     1
 64
     0
275
    -2
285
     1
 65
     0
276
    -2
286
     1
 66
     0
277
    -2
287
     1
 67
     0
278
    -2
288
     1
 68
     0
279
    -2
289
     1
 69
     0
  0
VISUALSTYLE
  5
577
102
{ACAD_REACTORS
330
572
102
}
330
572
100
AcDbVisualStyle
  2
2dWireframe
 70
     4
177
     3
291
     0
 70
    58
 90
        0
176
     1
 90
        2
176
     1
 90
        0
176
     1
 90
        0
176
     1
 40
0.6
176
     1
 40
30.0
176
     1
 62
     7
420
 16777215
176
     1
 90
        1
176
     1
 90
        4
176
     1
 62
     7
176
     1
 62
   257
176
     1
 90
        1
176
     1
 90
        1
176
     1
 40
1.0
176
     1
 90
        0
176
     1
 62
   257
176
     1
 40
1.0
176
     1
 90
        1
176
     1
 90
        6
176
     1
 90
        2
176
     1
 62
     7
176
     1
 90
        5
176
     1
 90
        0
176
     1
 90
        0
176
     1
290
     0
176
     1
 90
        1
176
     1
 40
0.0
176
     1
 90
        0
176
     1
290
     1
176
     1
290
     1
176
     1
290
     0
176
     1
290
     0
176
     1
290
     0
176
     1
290
     0
176
     1
290
     0
176
     1
290
     0
176
     1
290
     0
176
     1
 90
       50
176
     1
 40
0.0
176
     1
 40
1.0
176
     1
 90
        0
176
     1
 62
    18
420
        0
176
     1
 90
       50
176
     1
 90
        3
176
     1
 62
     5
420
      255
176
     1
290
     0
176
     1
 90
       50
176
     1
 90
       50
176
     1
 90
       50
176
     1
290
     0
176
     1
 90
       50
176
     1
 62
   256
176
     0
 40
1.0
176
     0
 90
        2
176
     1
  1
strokes_ogs.tif
176
     1
290
     0
176
     1
 40
1.0
176
     1
 40
1.0
176
     1
  0
VISUALSTYLE
  5
57A
102
{ACAD_REACTORS
330
572
102
}
330
572
100
AcDbVisualStyle
  2
Basic
 70
     7
177
     3
291
     1
 70
    58
 90
        1
176
     1
 90
        0
176
     1
 90
        1
176
     1
 90
        0
176
     1
 40
0.6
176
     1
 40
30.0
176
     1
 62
     7
420
 16777215
176
     1
 90
        0
176
     1
 90
        4
176
     1
 62
     7
176
     1
 62
   257
176
     1
 90
        1
176
     1
 90
        1
176
     1
 40
1.0
176
     1
 90
        8
176
     1
 62
     7
176
     1
 40
1.0
176
     1
 90
        1
176
     1
 90
        6
176
     1
 90
        2
176
     1
 62
     7
176
     1
 90
        5
176
     1
 90
        0
176
     1
 90
        0
176
     1
290
     0
176
     1
 90
        1
176
     1
 40
0.0
176
     1
 90
        0
176
     1
290
     0
176
     1
290
     1
176
     1
290
     1
176
     1
290
     0
176
     1
290
     0
176
     1
290
     0
176
     1
290
     0
176
     1
290
     0
176
     1
290
     0
176
     1
 90
       50
176
     1
 40
0.0
176
     1
 40
1.0
176
     1
 90
        0
176
     1
 62
    18
420
        0
176
     1
 90
       50
176
     1
 90
        3
176
     1
 62
     5
420
      255
176
     1
290
     0
176
     1
 90
       50
176
     1
 90
       50
176
     1
 90
       50
176
     1
290
     0
176
     1
 90
       50
176
     1
 62
   256
176
     0
 40
1.0
176
     0
 90
        2
176
     1
  1
strokes_ogs.tif
176
     1
290
     0
176
     1
 40
1.0
176
     1
 40
1.0
176
     1
  0
VISUALSTYLE
  5
57E
102
{ACAD_REACTORS
330
572
102
}
330
572
100
AcDbVisualStyle
  2
Brighten
 70
    12
177
     3
291
     1
 70
    58
 90
        2
176
     1
 90
        2
176
     1
 90
        0
176
     1
 90
        0
176
     1
 40
0.6
176
     1
 40
30.0
176
     1
 62
     7
420
 16777215
176
     1
 90
        1
176
     1
 90
        4
176
     1
 62
     7
176
     1
 62
   257
176
     1
 90
        1
176
     1
 90
        1
176
     1
 40
1.0
176
     1
 90
        8
176
     1
 62
     7
176
     1
 40
1.0
176
     1
 90
        1
176
     1
 90
        6
176
     1
 90
        2
176
     1
 62
     7
176
     1
 90
        5
176
     1
 90
        0
176
     1
 90
        0
176
     1
290
     0
176
     1
 90
        1
176
     1
 40
50.0
176
     1
 90
        0
176
     1
290
     0
176
     1
290
     1
176
     1
290
     1
176
     1
290
     0
176
     1
290
     0
176
     1
290
     0
176
     1
290
     0
176
     1
290
     0
176
     1
290
     0
176
     1
 90
       50
176
     1
 40
0.0
176
     1
 40
1.0
176
     1
 90
        0
176
     1
 62
    18
420
        0
176
     1
 90
       50
176
     1
 90
        3
176
     1
 62
     5
420
      255
176
     1
290
     0
176
     1
 90
       50
176
     1
 90
       50
176
     1
 90
       50
176
     1
290
     0
176
     1
 90
       50
176
     1
 62
   256
176
     0
 40
1.0
176
     0
 90
        2
176
     1
  1
strokes_ogs.tif
176
     1
290
     0
176
     1
 40
1.0
176
     1
 40
1.0
176
     1
  0
VISUALSTYLE
  5
582
102
{ACAD_REACTORS
330
572
102
}
330
572
100
AcDbVisualStyle
  2
ColorChange
 70
    16
177
     3
291
     1
 70
    58
 90
        2
176
     1
 90
        2
176
     1
 90
        3
176
     1
 90
        0
176
     1
 40
0.6
176
     1
 40
30.0
176
     1
 62
     8
420
  8421504
176
     1
 90
        1
176
     1
 90
        4
176
     1
 62
     7
176
     1
 62
   257
176
     1
 90
        1
176
     1
 90
        1
176
     1
 40
1.0
176
     1
 90
        8
176
     1
 62
     8
420
  8421504
176
     1
 40
1.0
176
     1
 90
        1
176
     1
 90
        6
176
     1
 90
        2
176
     1
 62
     7
176
     1
 90
        5
176
     1
 90
        0
176
     1
 90
        0
176
     1
290
     0
176
     1
 90
        1
176
     1
 40
0.0
176
     1
 90
        0
176
     1
290
     0
176
     1
290
     1
176
     1
290
     1
176
     1
290
     0
176
     1
290
     0
176
     1
290
     0
176
     1
290
     0
176
     1
290
     0
176
     1
290
     0
176
     1
 90
       50
176
     1
 40
0.0
176
     1
 40
1.0
176
     1
 90
        0
176
     1
 62
    18
420
        0
176
     1
 90
       50
176
     1
 90
        3
176
     1
 62
     5
420
      255
176
     1
290
     0
176
     1
 90
       50
176
     1
 90
       50
176
     1
 90
       50
176
     1
290
     0
176
     1
 90
       50
176
     1
 62
   256
176
     0
 40
1.0
176
     0
 90
        2
176
     1
  1
strokes_ogs.tif
176
     1
290
     0
176
     1
 40
1.0
176
     1
 40
1.0
176
     1
  0
VISUALSTYLE
  5
57C
102
{ACAD_REACTORS
330
572
102
}
330
572
100
AcDbVisualStyle
  2
Conceptual
 70
     9
177
     3
291
     0
 70
    58
 90
        3
176
     1
 90
        2
176
     1
 90
        0
176
     1
 90
        0
176
     1
 40
0.6
176
     1
 40
30.0
176
     1
 62
     7
420
 16777215
176
     1
 90
        2
176
     1
 90
        2
176
     1
 62
     7
176
     1
 62
   257
176
     1
 90
        1
176
     1
 90
        1
176
     1
 40
179.0
176
     1
 90
        8
176
     1
 62
     7
176
     1
 40
1.0
176
     1
 90
        1
176
     1
 90
        6
176
     1
 90
        2
176
     1
 62
     7
176
     1
 90
        3
176
     1
 90
        0
176
     1
 90
        0
176
     1
290
     0
176
     1
 90
        1
176
     1
 40
0.0
176
     1
 90
        0
176
     1
290
     0
176
     1
290
     1
176
     1
290
     1
176
     1
290
     0
176
     1
290
     0
176
     1
290
     0
176
     1
290
     0
176
     1
290
     0
176
     1
290
     0
176
     1
 90
       50
176
     1
 40
0.0
176
     1
 40
1.0
176
     1
 90
        0
176
     1
 62
    18
420
        0
176
     1
 90
       50
176
     1
 90
        3
176
     1
 62
     5
420
      255
176
     1
290
     0
176
     1
 90
       50
176
     1
 90
       50
176
     1
 90
       50
176
     1
290
     0
176
     1
 90
       50
176
     1
 62
   256
176
     0
 40
1.0
176
     0
 90
        2
176
     1
  1
strokes_ogs.tif
176
     1
290
     0
176
     1
 40
1.0
176
     1
 40
1.0
176
     1
  0
VISUALSTYLE
  5
57D
102
{ACAD_REACTORS
330
572
102
}
330
572
100
AcDbVisualStyle
  2
Dim
 70
    11
177
     3
291
     1
 70
    58
 90
        2
176
     1
 90
        2
176
     1
 90
        0
176
     1
 90
        0
176
     1
 40
0.6
176
     1
 40
30.0
176
     1
 62
     7
420
 16777215
176
     1
 90
        1
176
     1
 90
        4
176
     1
 62
     7
176
     1
 62
   257
176
     1
 90
        1
176
     1
 90
        1
176
     1
 40
1.0
176
     1
 90
        8
176
     1
 62
     7
176
     1
 40
1.0
176
     1
 90
        1
176
     1
 90
        6
176
     1
 90
        2
176
     1
 62
     7
176
     1
 90
        5
176
     1
 90
        0
176
     1
 90
        0
176
     1
290
     0
176
     1
 90
        1
176
     1
 40
-50.0
176
     1
 90
        0
176
     1
290
     0
176
     1
290
     1
176
     1
290
     1
176
     1
290
     0
176
     1
290
     0
176
     1
290
     0
176
     1
290
     0
176
     1
290
     0
176
     1
290
     0
176
     1
 90
       50
176
     1
 40
0.0
176
     1
 40
1.0
176
     1
 90
        0
176
     1
 62
    18
420
        0
176
     1
 90
       50
176
     1
 90
        3
176
     1
 62
     5
420
      255
176
     1
290
     0
176
     1
 90
       50
176
     1
 90
       50
176
     1
 90
       50
176
     1
290
     0
176
     1
 90
       50
176
     1
 62
   256
176
     0
 40
1.0
176
     0
 90
        2
176
     1
  1
strokes_ogs.tif
176
     1
290
     0
176
     1
 40
1.0
176
     1
 40
1.0
176
     1
  0
VISUALSTYLE
  5
585
102
{ACAD_REACTORS
330
572
102
}
330
572
100
AcDbVisualStyle
  2
EdgeColorOff
 70
    22
177
     3
291
     1
 70
    58
 90
        2
176
     0
 90
        2
176
     0
 90
        0
176
     0
 90
        0
176
     0
 40
0.6
176
     0
 40
30.0
176
     0
 62
     7
420
 16777215
176
     0
 90
        1
176
     0
 90
        4
176
     0
 62
     7
176
     0
 62
   257
176
     0
 90
        1
176
     0
 90
        1
176
     0
 40
1.0
176
     0
 90
        8
176
     2
 62
     7
176
     0
 40
1.0
176
     0
 90
        1
176
     0
 90
        6
176
     0
 90
        2
176
     0
 62
     7
176
     0
 90
        5
176
     0
 90
        0
176
     0
 90
        0
176
     0
290
     0
176
     0
 90
        1
176
     0
 40
0.0
176
     0
 90
        0
176
     0
290
     0
176
     0
290
     1
176
     0
290
     1
176
     0
290
     0
176
     0
290
     0
176
     0
290
     0
176
     0
290
     0
176
     0
290
     0
176
     0
290
     0
176
     0
 90
       50
176
     0
 40
0.0
176
     0
 40
1.0
176
     0
 90
        0
176
     0
 62
    18
420
        0
176
     0
 90
       50
176
     0
 90
        3
176
     0
 62
     5
420
      255
176
     0
290
     0
176
     0
 90
       50
176
     0
 90
       50
176
     0
 90
       50
176
     0
290
     0
176
     0
 90
       50
176
     0
 62
   256
176
     0
 40
1.0
176
     0
 90
        2
176
     0
  1
strokes_ogs.tif
176
     0
290
     0
176
     0
 40
1.0
176
     0
 40
1.0
176
     0
  0
VISUALSTYLE
  5
581
102
{ACAD_REACTORS
330
572
102
}
330
572
100
AcDbVisualStyle
  2
Facepattern
 70
    15
177
     3
291
     1
 70
    58
 90
        2
176
     1
 90
        2
176
     1
 90
        0
176
     1
 90
        0
176
     1
 40
0.6
176
     1
 40
30.0
176
     1
 62
     7
420
 16777215
176
     1
 90
        1
176
     1
 90
        4
176
     1
 62
     7
176
     1
 62
   257
176
     1
 90
        1
176
     1
 90
        1
176
     1
 40
1.0
176
     1
 90
        8
176
     1
 62
     7
176
     1
 40
1.0
176
     1
 90
        1
176
     1
 90
        6
176
     1
 90
        2
176
     1
 62
     7
176
     1
 90
        5
176
     1
 90
        0
176
     1
 90
        0
176
     1
290
     0
176
     1
 90
        1
176
     1
 40
0.0
176
     1
 90
        0
176
     1
290
     0
176
     1
290
     1
176
     1
290
     1
176
     1
290
     0
176
     1
290
     0
176
     1
290
     0
176
     1
290
     0
176
     1
290
     0
176
     1
290
     0
176
     1
 90
       50
176
     1
 40
0.0
176
     1
 40
1.0
176
     1
 90
        0
176
     1
 62
    18
420
        0
176
     1
 90
       50
176
     1
 90
        3
176
     1
 62
     5
420
      255
176
     1
290
     0
176
     1
 90
       50
176
     1
 90
       50
176
     1
 90
       50
176
     1
290
     0
176
     1
 90
       50
176
     1
 62
   256
176
     0
 40
1.0
176
     0
 90
        2
176
     1
  1
strokes_ogs.tif
176
     1
290
     0
176
     1
 40
1.0
176
     1
 40
1.0
176
     1
  0
VISUALSTYLE
  5
573
102
{ACAD_REACTORS
330
572
102
}
330
572
100
AcDbVisualStyle
  2
Flat
 70
     0
177
     3
291
     1
 70
    58
 90
        2
176
     1
 90
        1
176
     1
 90
        1
176
     1
 90
        2
176
     1
 40
0.6
176
     1
 40
30.0
176
     1
 62
     7
420
 16777215
176
     1
 90
        0
176
     1
 90
        0
176
     1
 62
     7
176
     1
 62
   257
176
     1
 90
        1
176
     1
 90
        1
176
     1
 40
1.0
176
     1
 90
        8
176
     1
 62
     7
176
     1
 40
1.0
176
     1
 90
        1
176
     1
 90
        6
176
     1
 90
        2
176
     1
 62
     7
176
     1
 90
        5
176
     1
 90
        0
176
     1
 90
        0
176
     1
290
     0
176
     1
 90
       13
176
     1
 40
0.0
176
     1
 90
        0
176
     1
290
     0
176
     1
290
     1
176
     1
290
     1
176
     1
290
     0
176
     1
290
     0
176
     1
290
     0
176
     1
290
     0
176
     1
290
     0
176
     1
290
     0
176
     1
 90
       50
176
     1
 40
0.0
176
     1
 40
1.0
176
     1
 90
        0
176
     1
 62
    18
420
        0
176
     1
 90
       50
176
     1
 90
        3
176
     1
 62
     5
420
      255
176
     1
290
     0
176
     1
 90
       50
176
     1
 90
       50
176
     1
 90
       50
176
     1
290
     0
176
     1
 90
       50
176
     1
 62
   256
176
     0
 40
1.0
176
     0
 90
        2
176
     1
  1
strokes_ogs.tif
176
     1
290
     0
176
     1
 40
1.0
176
     1
 40
1.0
176
     1
  0
VISUALSTYLE
  5
574
102
{ACAD_REACTORS
330
572
102
}
330
572
100
AcDbVisualStyle
  2
FlatWithEdges
 70
     1
177
     3
291
     1
 70
    58
 90
        2
176
     1
 90
        1
176
     1
 90
        1
176
     1
 90
        2
176
     1
 40
0.6
176
     1
 40
30.0
176
     1
 62
     7
420
 16777215
176
     1
 90
        1
176
     1
 90
        0
176
     1
 62
     7
176
     1
 62
   257
176
     1
 90
        1
176
     1
 90
        1
176
     1
 40
1.0
176
     1
 90
        0
176
     1
 62
   257
176
     1
 40
1.0
176
     1
 90
        1
176
     1
 90
        6
176
     1
 90
        2
176
     1
 62
     7
176
     1
 90
        5
176
     1
 90
        0
176
     1
 90
        0
176
     1
290
     0
176
     1
 90
       13
176
     1
 40
0.0
176
     1
 90
        0
176
     1
290
     0
176
     1
290
     1
176
     1
290
     1
176
     1
290
     0
176
     1
290
     0
176
     1
290
     0
176
     1
290
     0
176
     1
290
     0
176
     1
290
     0
176
     1
 90
       50
176
     1
 40
0.0
176
     1
 40
1.0
176
     1
 90
        0
176
     1
 62
    18
420
        0
176
     1
 90
       50
176
     1
 90
        3
176
     1
 62
     5
420
      255
176
     1
290
     0
176
     1
 90
       50
176
     1
 90
       50
176
     1
 90
       50
176
     1
290
     0
176
     1
 90
       50
176
     1
 62
   256
176
     0
 40
1.0
176
     0
 90
        2
176
     1
  1
strokes_ogs.tif
176
     1
290
     0
176
     1
 40
1.0
176
     1
 40
1.0
176
     1
  0
VISUALSTYLE
  5
575
102
{ACAD_REACTORS
330
572
102
}
330
572
100
AcDbVisualStyle
  2
Gouraud
 70
     2
177
     3
291
     1
 70
    58
 90
        2
176
     1
 90
        2
176
     1
 90
        1
176
     1
 90
        2
176
     1
 40
0.6
176
     1
 40
30.0
176
     1
 62
     7
420
 16777215
176
     1
 90
        0
176
     1
 90
        0
176
     1
 62
     7
176
     1
 62
   257
176
     1
 90
        1
176
     1
 90
        1
176
     1
 40
1.0
176
     1
 90
        0
176
     1
 62
     7
176
     1
 40
1.0
176
     1
 90
        1
176
     1
 90
        6
176
     1
 90
        2
176
     1
 62
     7
176
     1
 90
        5
176
     1
 90
        0
176
     1
 90
        0
176
     1
290
     0
176
     1
 90
       13
176
     1
 40
0.0
176
     1
 90
        0
176
     1
290
     0
176
     1
290
     1
176
     1
290
     1
176
     1
290
     0
176
     1
290
     0
176
     1
290
     0
176
     1
290
     0
176
     1
290
     0
176
     1
290
     0
176
     1
 90
       50
176
     1
 40
0.0
176
     1
 40
1.0
176
     1
 90
        0
176
     1
 62
    18
420
        0
176
     1
 90
       50
176
     1
 90
        3
176
     1
 62
     5
420
      255
176
     1
290
     0
176
     1
 90
       50
176
     1
 90
       50
176
     1
 90
       50
176
     1
290
     0
176
     1
 90
       50
176
     1
 62
   256
176
     0
 40
1.0
176
     0
 90
        2
176
     1
  1
strokes_ogs.tif
176
     1
290
     0
176
     1
 40
1.0
176
     1
 40
1.0
176
     1
  0
VISUALSTYLE
  5
576
102
{ACAD_REACTORS
330
572
102
}
330
572
100
AcDbVisualStyle
  2
GouraudWithEdges
 70
     3
177
     3
291
     1
 70
    58
 90
        2
176
     1
 90
        2
176
     1
 90
        1
176
     1
 90
        2
176
     1
 40
0.6
176
     1
 40
30.0
176
     1
 62
     7
420
 16777215
176
     1
 90
        1
176
     1
 90
        0
176
     1
 62
     7
176
     1
 62
   257
176
     1
 90
        1
176
     1
 90
        1
176
     1
 40
1.0
176
     1
 90
        0
176
     1
 62
   257
176
     1
 40
1.0
176
     1
 90
        1
176
     1
 90
        6
176
     1
 90
        2
176
     1
 62
     7
176
     1
 90
        5
176
     1
 90
        0
176
     1
 90
        0
176
     1
290
     0
176
     1
 90
       13
176
     1
 40
0.0
176
     1
 90
        0
176
     1
290
     0
176
     1
290
     1
176
     1
290
     1
176
     1
290
     0
176
     1
290
     0
176
     1
290
     0
176
     1
290
     0
176
     1
290
     0
176
     1
290
     0
176
     1
 90
       50
176
     1
 40
0.0
176
     1
 40
1.0
176
     1
 90
        0
176
     1
 62
    18
420
        0
176
     1
 90
       50
176
     1
 90
        3
176
     1
 62
     5
420
      255
176
     1
290
     0
176
     1
 90
       50
176
     1
 90
       50
176
     1
 90
       50
176
     1
290
     0
176
     1
 90
       50
176
     1
 62
   256
176
     0
 40
1.0
176
     0
 90
        2
176
     1
  1
strokes_ogs.tif
176
     1
290
     0
176
     1
 40
1.0
176
     1
 40
1.0
176
     1
  0
VISUALSTYLE
  5
579
102
{ACAD_REACTORS
330
572
102
}
330
572
100
AcDbVisualStyle
  2
Hidden
 70
     6
177
     3
291
     0
 70
    58
 90
        1
176
     1
 90
        2
176
     1
 90
        2
176
     1
 90
        0
176
     1
 40
0.6
176
     1
 40
30.0
176
     1
 62
     7
420
 16777215
176
     1
 90
        2
176
     1
 90
        2
176
     1
 62
     7
176
     1
 62
   257
176
     1
 90
        2
176
     1
 90
        1
176
     1
 40
40.0
176
     1
 90
        0
176
     1
 62
   257
176
     1
 40
1.0
176
     1
 90
        1
176
     1
 90
        6
176
     1
 90
        2
176
     1
 62
     7
176
     1
 90
        3
176
     1
 90
        0
176
     1
 90
        0
176
     1
290
     0
176
     1
 90
        1
176
     1
 40
0.0
176
     1
 90
        0
176
     1
290
     0
176
     1
290
     1
176
     1
290
     1
176
     1
290
     0
176
     1
290
     0
176
     1
290
     0
176
     1
290
     0
176
     1
290
     0
176
     1
290
     0
176
     1
 90
       50
176
     1
 40
0.0
176
     1
 40
1.0
176
     1
 90
        0
176
     1
 62
    18
420
        0
176
     1
 90
       50
176
     1
 90
        3
176
     1
 62
     5
420
      255
176
     1
290
     0
176
     1
 90
       50
176
     1
 90
       50
176
     1
 90
       50
176
     1
290
     0
176
     1
 90
       50
176
     1
 62
   256
176
     0
 40
1.0
176
     0
 90
        2
176
     1
  1
strokes_ogs.tif
176
     1
290
     0
176
     1
 40
1.0
176
     1
 40
1.0
176
     1
  0
VISUALSTYLE
  5
583
102
{ACAD_REACTORS
330
572
102
}
330
572
100
AcDbVisualStyle
  2
JitterOff
 70
    20
177
     3
291
     1
 70
    58
 90
        2
176
     0
 90
        2
176
     0
 90
        0
176
     0
 90
        0
176
     0
 40
0.6
176
     0
 40
30.0
176
     0
 62
     7
420
 16777215
176
     0
 90
        1
176
     0
 90
        4
176
     0
 62
     7
176
     0
 62
   257
176
     0
 90
        1
176
     0
 90
        1
176
     0
 40
1.0
176
     0
 90
       10
176
     2
 62
     7
176
     0
 40
1.0
176
     0
 90
        1
176
     0
 90
        6
176
     0
 90
        2
176
     0
 62
     7
176
     0
 90
        5
176
     0
 90
        0
176
     0
 90
        0
176
     0
290
     0
176
     0
 90
        1
176
     0
 40
0.0
176
     0
 90
        0
176
     0
290
     0
176
     0
290
     1
176
     0
290
     1
176
     0
290
     0
176
     0
290
     0
176
     0
290
     0
176
     0
290
     0
176
     0
290
     0
176
     0
290
     0
176
     0
 90
       50
176
     0
 40
0.0
176
     0
 40
1.0
176
     0
 90
        0
176
     0
 62
    18
420
        0
176
     0
 90
       50
176
     0
 90
        3
176
     0
 62
     5
420
      255
176
     0
290
     0
176
     0
 90
       50
176
     0
 90
       50
176
     0
 90
       50
176
     0
290
     0
176
     0
 90
       50
176
     0
 62
   256
176
     0
 40
1.0
176
     0
 90
        2
176
     0
  1
strokes_ogs.tif
176
     0
290
     0
176
     0
 40
1.0
176
     0
 40
1.0
176
     0
  0
VISUALSTYLE
  5
580
102
{ACAD_REACTORS
330
572
102
}
330
572
100
AcDbVisualStyle
  2
Linepattern
 70
    14
177
     3
291
     1
 70
    58
 90
        2
176
     1
 90
        2
176
     1
 90
        0
176
     1
 90
        0
176
     1
 40
0.6
176
     1
 40
30.0
176
     1
 62
     7
420
 16777215
176
     1
 90
        1
176
     1
 90
        4
176
     1
 62
     7
176
     1
 62
   257
176
     1
 90
        7
176
     1
 90
        7
176
     1
 40
1.0
176
     1
 90
        8
176
     1
 62
     7
176
     1
 40
1.0
176
     1
 90
        1
176
     1
 90
        6
176
     1
 90
        2
176
     1
 62
     7
176
     1
 90
        5
176
     1
 90
        0
176
     1
 90
        0
176
     1
290
     0
176
     1
 90
        1
176
     1
 40
0.0
176
     1
 90
        0
176
     1
290
     0
176
     1
290
     1
176
     1
290
     1
176
     1
290
     0
176
     1
290
     0
176
     1
290
     0
176
     1
290
     0
176
     1
290
     0
176
     1
290
     0
176
     1
 90
       50
176
     1
 40
0.0
176
     1
 40
1.0
176
     1
 90
        0
176
     1
 62
    18
420
        0
176
     1
 90
       50
176
     1
 90
        3
176
     1
 62
     5
420
      255
176
     1
290
     0
176
     1
 90
       50
176
     1
 90
       50
176
     1
 90
       50
176
     1
290
     0
176
     1
 90
       50
176
     1
 62
   256
176
     0
 40
1.0
176
     0
 90
        2
176
     1
  1
strokes_ogs.tif
176
     1
290
     0
176
     1
 40
1.0
176
     1
 40
1.0
176
     1
  0
VISUALSTYLE
  5
584
102
{ACAD_REACTORS
330
572
102
}
330
572
100
AcDbVisualStyle
  2
OverhangOff
 70
    21
177
     3
291
     1
 70
    58
 90
        2
176
     0
 90
        2
176
     0
 90
        0
176
     0
 90
        0
176
     0
 40
0.6
176
     0
 40
30.0
176
     0
 62
     7
420
 16777215
176
     0
 90
        1
176
     0
 90
        4
176
     0
 62
     7
176
     0
 62
   257
176
     0
 90
        1
176
     0
 90
        1
176
     0
 40
1.0
176
     0
 90
        9
176
     2
 62
     7
176
     0
 40
1.0
176
     0
 90
        1
176
     0
 90
        6
176
     0
 90
        2
176
     0
 62
     7
176
     0
 90
        5
176
     0
 90
        0
176
     0
 90
        0
176
     0
290
     0
176
     0
 90
        1
176
     0
 40
0.0
176
     0
 90
        0
176
     0
290
     0
176
     0
290
     1
176
     0
290
     1
176
     0
290
     0
176
     0
290
     0
176
     0
290
     0
176
     0
290
     0
176
     0
290
     0
176
     0
290
     0
176
     0
 90
       50
176
     0
 40
0.0
176
     0
 40
1.0
176
     0
 90
        0
176
     0
 62
    18
420
        0
176
     0
 90
       50
176
     0
 90
        3
176
     0
 62
     5
420
      255
176
     0
290
     0
176
     0
 90
       50
176
     0
 90
       50
176
     0
 90
       50
176
     0
290
     0
176
     0
 90
       50
176
     0
 62
   256
176
     0
 40
1.0
176
     0
 90
        2
176
     0
  1
strokes_ogs.tif
176
     0
290
     0
176
     0
 40
1.0
176
     0
 40
1.0
176
     0
  0
VISUALSTYLE
  5
57B
102
{ACAD_REACTORS
330
572
102
}
330
572
100
AcDbVisualStyle
  2
Realistic
 70
     8
177
     3
291
     0
 70
    58
 90
        2
176
     1
 90
        3
176
     1
 90
        0
176
     1
 90
        2
176
     1
 40
0.6
176
     1
 40
30.0
176
     1
 62
     7
420
 16777215
176
     1
 90
        0
176
     1
 90
        0
176
     1
 62
     7
176
     1
 62
   257
176
     1
 90
        1
176
     1
 90
        1
176
     1
 40
1.0
176
     1
 90
        8
176
     1
 62
   257
176
     1
 40
1.0
176
     1
 90
        1
176
     1
 90
        6
176
     1
 90
        2
176
     1
 62
     7
176
     1
 90
        3
176
     1
 90
        0
176
     1
 90
        0
176
     1
290
     0
176
     1
 90
       13
176
     1
 40
0.0
176
     1
 90
        0
176
     1
290
     0
176
     1
290
     1
176
     1
290
     1
176
     1
290
     0
176
     1
290
     0
176
     1
290
     0
176
     1
290
     0
176
     1
290
     0
176
     1
290
     0
176
     1
 90
       50
176
     1
 40
0.0
176
     1
 40
1.0
176
     1
 90
        0
176
     1
 62
    18
420
        0
176
     1
 90
       50
176
     1
 90
        3
176
     1
 62
     5
420
      255
176
     1
290
     0
176
     1
 90
       50
176
     1
 90
       50
176
     1
 90
       50
176
     1
290
     0
176
     1
 90
       50
176
     1
 62
   256
176
     0
 40
1.0
176
     0
 90
        2
176
     1
  1
strokes_ogs.tif
176
     1
290
     0
176
     1
 40
1.0
176
     1
 40
1.0
176
     1
  0
VISUALSTYLE
  5
58A
102
{ACAD_REACTORS
330
572
102
}
330
572
100
AcDbVisualStyle
  2
Shaded
 70
    27
177
     3
291
     0
 70
    58
 90
        2
176
     1
 90
        2
176
     1
 90
        1
176
     1
 90
        2
176
     1
 40
0.6
176
     1
 40
30.0
176
     1
 62
     7
420
 16777215
176
     1
 90
        0
176
     1
 90
        4
176
     1
 62
     7
176
     1
 62
   257
176
     1
 90
        1
176
     1
 90
        1
176
     1
 40
1.0
176
     1
 90
        8
176
     1
 62
   257
176
     1
 40
1.0
176
     1
 90
        1
176
     1
 90
        6
176
     1
 90
        2
176
     1
 62
     8
420
  7895160
176
     1
 90
        3
176
     1
 90
        0
176
     1
 90
        0
176
     1
290
     0
176
     1
 90
        5
176
     1
 40
0.0
176
     1
 90
        0
176
     1
290
     0
176
     1
290
     1
176
     1
290
     1
176
     1
290
     0
176
     1
290
     0
176
     1
290
     0
176
     1
290
     0
176
     1
290
     0
176
     1
290
     0
176
     1
 90
       50
176
     1
 40
0.0
176
     1
 40
1.0
176
     1
 90
        0
176
     1
 62
    18
420
        0
176
     1
 90
       50
176
     1
 90
        3
176
     1
 62
     5
420
      255
176
     1
290
     0
176
     1
 90
       50
176
     1
 90
       50
176
     1
 90
       50
176
     1
290
     0
176
     1
 90
       50
176
     1
 62
   256
176
     0
 40
1.0
176
     0
 90
        2
176
     1
  1
strokes_ogs.tif
176
     1
290
     0
176
     1
 40
1.0
176
     1
 40
1.0
176
     1
  0
VISUALSTYLE
  5
589
102
{ACAD_REACTORS
330
572
102
}
330
572
100
AcDbVisualStyle
  2
Shaded with edges
 70
    26
177
     3
291
     0
 70
    58
 90
        2
176
     1
 90
        2
176
     1
 90
        1
176
     1
 90
        2
176
     1
 40
0.6
176
     1
 40
30.0
176
     1
 62
     7
420
 16777215
176
     1
 90
        1
176
     1
 90
       10
176
     1
 62
     7
176
     1
 62
   257
176
     1
 90
        2
176
     1
 90
        1
176
     1
 40
1.0
176
     1
 90
        8
176
     1
 62
   257
176
     1
 40
1.0
176
     1
 90
        1
176
     1
 90
        6
176
     1
 90
        2
176
     1
 62
     7
176
     1
 90
        3
176
     1
 90
        0
176
     1
 90
        0
176
     1
290
     0
176
     1
 90
        5
176
     1
 40
0.0
176
     1
 90
        0
176
     1
290
     0
176
     1
290
     1
176
     1
290
     1
176
     1
290
     0
176
     1
290
     0
176
     1
290
     0
176
     1
290
     0
176
     1
290
     0
176
     1
290
     0
176
     1
 90
       50
176
     1
 40
0.0
176
     1
 40
1.0
176
     1
 90
        0
176
     1
 62
    18
420
        0
176
     1
 90
       50
176
     1
 90
        3
176
     1
 62
     5
420
      255
176
     1
290
     0
176
     1
 90
       50
176
     1
 90
       50
176
     1
 90
       50
176
     1
290
     0
176
     1
 90
       50
176
     1
 62
   256
176
     0
 40
1.0
176
     0
 90
        2
176
     1
  1
strokes_ogs.tif
176
     1
290
     0
176
     1
 40
1.0
176
     1
 40
1.0
176
     1
  0
VISUALSTYLE
  5
586
102
{ACAD_REACTORS
330
572
102
}
330
572
100
AcDbVisualStyle
  2
Shades of Gray
 70
    23
177
     3
291
     0
 70
    58
 90
        2
176
     1
 90
        2
176
     1
 90
        3
176
     1
 90
        0
176
     1
 40
0.6
176
     1
 40
30.0
176
     1
 62
     7
420
 16777215
176
     1
 90
        2
176
     1
 90
        2
176
     1
 62
     7
176
     1
 62
     7
176
     1
 90
        1
176
     1
 90
        1
176
     1
 40
40.0
176
     1
 90
        8
176
     1
 62
     7
176
     1
 40
1.0
176
     1
 90
        1
176
     1
 90
        6
176
     1
 90
        2
176
     1
 62
     7
176
     1
 90
        3
176
     1
 90
        0
176
     1
 90
        0
176
     1
290
     0
176
     1
 90
        1
176
     1
 40
0.0
176
     1
 90
        0
176
     1
290
     0
176
     1
290
     1
176
     1
290
     1
176
     1
290
     0
176
     1
290
     0
176
     1
290
     0
176
     1
290
     0
176
     1
290
     0
176
     1
290
     0
176
     1
 90
       50
176
     1
 40
0.0
176
     1
 40
1.0
176
     1
 90
        0
176
     1
 62
    18
420
        0
176
     1
 90
       50
176
     1
 90
        3
176
     1
 62
     5
420
      255
176
     1
290
     0
176
     1
 90
       50
176
     1
 90
       50
176
     1
 90
       50
176
     1
290
     0
176
     1
 90
       50
176
     1
 62
   256
176
     0
 40
1.0
176
     0
 90
        2
176
     1
  1
strokes_ogs.tif
176
     1
290
     0
176
     1
 40
1.0
176
     1
 40
1.0
176
     1
  0
VISUALSTYLE
  5
587
102
{ACAD_REACTORS
330
572
102
}
330
572
100
AcDbVisualStyle
  2
Sketchy
 70
    24
177
     3
291
     0
 70
    58
 90
        1
176
     1
 90
        2
176
     1
 90
        2
176
     1
 90
        0
176
     1
 40
0.6
176
     1
 40
30.0
176
     1
 62
     7
420
 16777215
176
     1
 90
        2
176
     1
 90
        2
176
     1
 62
     7
176
     1
 62
     7
176
     1
 90
        1
176
     1
 90
        1
176
     1
 40
40.0
176
     1
 90
       11
176
     1
 62
     7
176
     1
 40
1.0
176
     1
 90
        1
176
     1
 90
        6
176
     1
 90
        2
176
     1
 62
     7
176
     1
 90
        6
176
     1
 90
        0
176
     1
 90
        0
176
     1
290
     0
176
     1
 90
        1
176
     1
 40
0.0
176
     1
 90
        0
176
     1
290
     0
176
     1
290
     1
176
     1
290
     1
176
     1
290
     0
176
     1
290
     0
176
     1
290
     0
176
     1
290
     0
176
     1
290
     0
176
     1
290
     0
176
     1
 90
       50
176
     1
 40
0.0
176
     1
 40
1.0
176
     1
 90
        0
176
     1
 62
    18
420
        0
176
     1
 90
       50
176
     1
 90
        3
176
     1
 62
     5
420
      255
176
     1
290
     0
176
     1
 90
       50
176
     1
 90
       50
176
     1
 90
       50
176
     1
290
     0
176
     1
 90
       50
176
     1
 62
   256
176
     0
 40
1.0
176
     0
 90
        2
176
     1
  1
strokes_ogs.tif
176
     1
290
     0
176
     1
 40
1.0
176
     1
 40
1.0
176
     1
  0
VISUALSTYLE
  5
57F
102
{ACAD_REACTORS
330
572
102
}
330
572
100
AcDbVisualStyle
  2
Thicken
 70
    13
177
     3
291
     1
 70
    58
 90
        2
176
     1
 90
        2
176
     1
 90
        0
176
     1
 90
        0
176
     1
 40
0.6
176
     1
 40
30.0
176
     1
 62
     7
420
 16777215
176
     1
 90
        1
176
     1
 90
        4
176
     1
 62
     7
176
     1
 62
   257
176
     1
 90
        1
176
     1
 90
        1
176
     1
 40
1.0
176
     1
 90
       12
176
     1
 62
     7
176
     1
 40
1.0
176
     1
 90
        1
176
     1
 90
        6
176
     1
 90
        2
176
     1
 62
     7
176
     1
 90
        5
176
     1
 90
        0
176
     1
 90
        0
176
     1
290
     0
176
     1
 90
        1
176
     1
 40
0.0
176
     1
 90
        0
176
     1
290
     0
176
     1
290
     1
176
     1
290
     1
176
     1
290
     0
176
     1
290
     0
176
     1
290
     0
176
     1
290
     0
176
     1
290
     0
176
     1
290
     0
176
     1
 90
       50
176
     1
 40
0.0
176
     1
 40
1.0
176
     1
 90
        0
176
     1
 62
    18
420
        0
176
     1
 90
       50
176
     1
 90
        3
176
     1
 62
     5
420
      255
176
     1
290
     0
176
     1
 90
       50
176
     1
 90
       50
176
     1
 90
       50
176
     1
290
     0
176
     1
 90
       50
176
     1
 62
   256
176
     0
 40
1.0
176
     0
 90
        2
176
     1
  1
strokes_ogs.tif
176
     1
290
     0
176
     1
 40
1.0
176
     1
 40
1.0
176
     1
  0
VISUALSTYLE
  5
578
102
{ACAD_REACTORS
330
572
102
}
330
572
100
AcDbVisualStyle
  2
Wireframe
 70
     5
177
     3
291
     0
 70
    58
 90
        0
176
     1
 90
        2
176
     1
 90
        0
176
     1
 90
        0
176
     1
 40
0.6
176
     1
 40
30.0
176
     1
 62
     7
420
 16777215
176
     1
 90
        1
176
     1
 90
        4
176
     1
 62
     7
176
     1
 62
   257
176
     1
 90
        1
176
     1
 90
        1
176
     1
 40
1.0
176
     1
 90
        0
176
     1
 62
   257
176
     1
 40
1.0
176
     1
 90
        1
176
     1
 90
        6
176
     1
 90
        2
176
     1
 62
     7
176
     1
 90
        3
176
     1
 90
        0
176
     1
 90
        0
176
     1
290
     0
176
     1
 90
        1
176
     1
 40
0.0
176
     1
 90
        0
176
     1
290
     0
176
     1
290
     1
176
     1
290
     1
176
     1
290
     0
176
     1
290
     0
176
     1
290
     0
176
     1
290
     0
176
     1
290
     0
176
     1
290
     0
176
     1
 90
       50
176
     1
 40
0.0
176
     1
 40
1.0
176
     1
 90
        0
176
     1
 62
    18
420
        0
176
     1
 90
       50
176
     1
 90
        3
176
     1
 62
     5
420
      255
176
     1
290
     0
176
     1
 90
       50
176
     1
 90
       50
176
     1
 90
       50
176
     1
290
     0
176
     1
 90
       50
176
     1
 62
   256
176
     0
 40
1.0
176
     0
 90
        2
176
     1
  1
strokes_ogs.tif
176
     1
290
     0
176
     1
 40
1.0
176
     1
 40
1.0
176
     1
  0
VISUALSTYLE
  5
588
102
{ACAD_REACTORS
330
572
102
}
330
572
100
AcDbVisualStyle
  2
X-Ray
 70
    25
177
     3
291
     0
 70
    58
 90
        2
176
     1
 90
        2
176
     1
 90
        1
176
     1
 90
        1
176
     1
 40
0.5
176
     1
 40
30.0
176
     1
 62
     7
420
 16777215
176
     1
 90
        1
176
     1
 90
        0
176
     1
 62
     7
176
     1
 62
   257
176
     1
 90
        1
176
     1
 90
        1
176
     1
 40
1.0
176
     1
 90
        8
176
     1
 62
     7
176
     1
 40
1.0
176
     1
 90
        1
176
     1
 90
        6
176
     1
 90
        2
176
     1
 62
     7
176
     1
 90
        3
176
     1
 90
        0
176
     1
 90
        0
176
     1
290
     0
176
     1
 90
       13
176
     1
 40
0.0
176
     1
 90
        0
176
     1
290
     0
176
     1
290
     1
176
     1
290
     1
176
     1
290
     0
176
     1
290
     0
176
     1
290
     0
176
     1
290
     0
176
     1
290
     0
176
     1
290
     0
176
     1
 90
       50
176
     1
 40
0.0
176
     1
 40
1.0
176
     1
 90
        0
176
     1
 62
    18
420
        0
176
     1
 90
       50
176
     1
 90
        3
176
     1
 62
     5
420
      255
176
     1
290
     0
176
     1
 90
       50
176
     1
 90
       50
176
     1
 90
       50
176
     1
290
     0
176
     1
 90
       50
176
     1
 62
   256
176
     0
 40
1.0
176
     0
 90
        2
176
     1
  1
strokes_ogs.tif
176
     1
290
     0
176
     1
 40
1.0
176
     1
 40
1.0
176
     1
  0
DICTIONARYVAR
  5
595
102
{ACAD_REACTORS
330
594
102
}
330
594
100
DictionaryVariables
280
     0
  1
1:1
  0
DICTIONARYVAR
  5
59A
102
{ACAD_REACTORS
330
594
102
}
330
594
100
DictionaryVariables
280
     0
  1
Standard
  0
DICTIONARYVAR
  5
599
102
{ACAD_REACTORS
330
594
102
}
330
594
100
DictionaryVariables
280
     0
  1
Standard
  0
DICTIONARYVAR
  5
59B
102
{ACAD_REACTORS
330
594
102
}
330
594
100
DictionaryVariables
280
     0
  1
0
  0
DICTIONARY
  5
596
330
590
100
AcDbDictionary
280
     1
281
     1
  3
ACAD_ROUNDTRIP_2008_TABLESTYLE_CELLSTYLEMAP
360
597
  0
CELLSTYLEMAP
  5
597
102
{ACAD_REACTORS
330
596
102
}
330
596
100
AcDbCellStyleMap
 90
        3
300
CELLSTYLE
  1
TABLEFORMAT_BEGIN
 90
        5
170
     1
 91
        0
 92
    32768
 62
   257
 93
        1
300
CONTENTFORMAT
  1
CONTENTFORMAT_BEGIN
 90
        0
 91
        0
 92
        4
 93
        0
300

 40
0.0
140
1.0
 94
        5
 62
     0
340
11
144
6.0
309
CONTENTFORMAT_END
171
     1
301
MARGIN
  1
CELLMARGIN_BEGIN
 40
1.5
 40
1.5
 40
1.5
 40
1.5
 40
1.5
 40
1.5
309
CELLMARGIN_END
 94
        6
 95
        1
302
GRIDFORMAT
  1
GRIDFORMAT_BEGIN
 90
        0
 91
        1
 62
     0
 92
       -2
340
14
 93
        0
 40
0.045
309
GRIDFORMAT_END
 95
        2
302
GRIDFORMAT
  1
GRIDFORMAT_BEGIN
 90
        0
 91
        1
 62
     0
 92
       -2
340
14
 93
        0
 40
0.045
309
GRIDFORMAT_END
 95
        4
302
GRIDFORMAT
  1
GRIDFORMAT_BEGIN
 90
        0
 91
        1
 62
     0
 92
       -2
340
14
 93
        0
 40
0.045
309
GRIDFORMAT_END
 95
        8
302
GRIDFORMAT
  1
GRIDFORMAT_BEGIN
 90
        0
 91
        1
 62
     0
 92
       -2
340
14
 93
        0
 40
0.045
309
GRIDFORMAT_END
 95
       16
302
GRIDFORMAT
  1
GRIDFORMAT_BEGIN
 90
        0
 91
        1
 62
     0
 92
       -2
340
14
 93
        0
 40
0.045
309
GRIDFORMAT_END
 95
       32
302
GRIDFORMAT
  1
GRIDFORMAT_BEGIN
 90
        0
 91
        1
 62
     0
 92
       -2
340
14
 93
        0
 40
0.045
309
GRIDFORMAT_END
309
TABLEFORMAT_END
  1
CELLSTYLE_BEGIN
 90
        1
 91
        1
300
_TITLE
309
CELLSTYLE_END
300
CELLSTYLE
  1
TABLEFORMAT_BEGIN
 90
        5
170
     1
 91
        0
 92
        0
 62
   257
 93
        1
300
CONTENTFORMAT
  1
CONTENTFORMAT_BEGIN
 90
        0
 91
        0
 92
        4
 93
        0
300

 40
0.0
140
1.0
 94
        5
 62
     0
340
11
144
4.5
309
CONTENTFORMAT_END
171
     1
301
MARGIN
  1
CELLMARGIN_BEGIN
 40
1.5
 40
1.5
 40
1.5
 40
1.5
 40
1.5
 40
1.5
309
CELLMARGIN_END
 94
        6
 95
        1
302
GRIDFORMAT
  1
GRIDFORMAT_BEGIN
 90
        0
 91
        1
 62
     0
 92
       -2
340
14
 93
        0
 40
0.045
309
GRIDFORMAT_END
 95
        2
302
GRIDFORMAT
  1
GRIDFORMAT_BEGIN
 90
        0
 91
        1
 62
     0
 92
       -2
340
14
 93
        0
 40
0.045
309
GRIDFORMAT_END
 95
        4
302
GRIDFORMAT
  1
GRIDFORMAT_BEGIN
 90
        0
 91
        1
 62
     0
 92
       -2
340
14
 93
        0
 40
0.045
309
GRIDFORMAT_END
 95
        8
302
GRIDFORMAT
  1
GRIDFORMAT_BEGIN
 90
        0
 91
        1
 62
     0
 92
       -2
340
14
 93
        0
 40
0.045
309
GRIDFORMAT_END
 95
       16
302
GRIDFORMAT
  1
GRIDFORMAT_BEGIN
 90
        0
 91
        1
 62
     0
 92
       -2
340
14
 93
        0
 40
0.045
309
GRIDFORMAT_END
 95
       32
302
GRIDFORMAT
  1
GRIDFORMAT_BEGIN
 90
        0
 91
        1
 62
     0
 92
       -2
340
14
 93
        0
 40
0.045
309
GRIDFORMAT_END
309
TABLEFORMAT_END
  1
CELLSTYLE_BEGIN
 90
        2
 91
        1
300
_HEADER
309
CELLSTYLE_END
300
CELLSTYLE
  1
TABLEFORMAT_BEGIN
 90
        5
170
     1
 91
        0
 92
        0
 62
   257
 93
        1
300
CONTENTFORMAT
  1
CONTENTFORMAT_BEGIN
 90
        0
 91
        0
 92
        4
 93
        0
300

 40
0.0
140
1.0
 94
        2
 62
     0
340
11
144
4.5
309
CONTENTFORMAT_END
171
     1
301
MARGIN
  1
CELLMARGIN_BEGIN
 40
1.5
 40
1.5
 40
1.5
 40
1.5
 40
1.5
 40
1.5
309
CELLMARGIN_END
 94
        6
 95
        1
302
GRIDFORMAT
  1
GRIDFORMAT_BEGIN
 90
        0
 91
        1
 62
     0
 92
       -2
340
14
 93
        0
 40
0.045
309
GRIDFORMAT_END
 95
        2
302
GRIDFORMAT
  1
GRIDFORMAT_BEGIN
 90
        0
 91
        1
 62
     0
 92
       -2
340
14
 93
        0
 40
0.045
309
GRIDFORMAT_END
 95
        4
302
GRIDFORMAT
  1
GRIDFORMAT_BEGIN
 90
        0
 91
        1
 62
     0
 92
       -2
340
14
 93
        0
 40
0.045
309
GRIDFORMAT_END
 95
        8
302
GRIDFORMAT
  1
GRIDFORMAT_BEGIN
 90
        0
 91
        1
 62
     0
 92
       -2
340
14
 93
        0
 40
0.045
309
GRIDFORMAT_END
 95
       16
302
GRIDFORMAT
  1
GRIDFORMAT_BEGIN
 90
        0
 91
        1
 62
     0
 92
       -2
340
14
 93
        0
 40
0.045
309
GRIDFORMAT_END
 95
       32
302
GRIDFORMAT
  1
GRIDFORMAT_BEGIN
 90
        0
 91
        1
 62
     0
 92
       -2
340
14
 93
        0
 40
0.045
309
GRIDFORMAT_END
309
TABLEFORMAT_END
  1
CELLSTYLE_BEGIN
 90
        3
 91
        2
300
_DATA
309
CELLSTYLE_END
  0
ENDSEC
  0
EOF
