  0
SECTION
  2
HEADER
  9
$ACADVER
  1
AC1027
  9
$ACADMAINTVER
 70
   105
  9
$DWGCODEPAGE
  3
ANSI_1252
  9
$REQUIREDVERSIONS
160
                 0
  9
$LASTSAVEDBY
  1
andrea.zolin
  9
$INSBASE
 10
0.0
 20
0.0
 30
0.0
  9
$EXTMIN
 10
0.0
 20
0.0
 30
0.0
  9
$EXTMAX
 10
297.0
 20
210.0
 30
0.0
  9
$LIMMIN
 10
0.0
 20
0.0
  9
$LIMMAX
 10
297.0
 20
210.0
  9
$ORTHOMODE
 70
     0
  9
$REGENMODE
 70
     1
  9
$FILLMODE
 70
     1
  9
$QTEXTMODE
 70
     0
  9
$MIRRTEXT
 70
     1
  9
$LTSCALE
 40
16.335
  9
$ATTMODE
 70
     1
  9
$TEXTSIZE
 40
0.2
  9
$TRACEWID
 40
0.05
  9
$TEXTSTYLE
  7
STANDARD
  9
$CLAYER
  8
0
  9
$CELTYPE
  6
BYLAYER
  9
$CECOLOR
 62
   256
  9
$CELTSCALE
 40
1.0
  9
$DISPSILH
 70
     0
  9
$DIMSCALE
 40
1.0
  9
$DIMASZ
 40
2.5
  9
$DIMEXO
 40
0.75
  9
$DIMDLI
 40
11.286
  9
$DIMRND
 40
0.0
  9
$DIMDLE
 40
0.0
  9
$DIMEXE
 40
0.75
  9
$DIMTP
 40
0.01
  9
$DIMTM
 40
0.01
  9
$DIMTXT
 40
3.0
  9
$DIMCEN
 40
2.673
  9
$DIMTSZ
 40
0.0
  9
$DIMTOL
 70
     1
  9
$DIMLIM
 70
     0
  9
$DIMTIH
 70
     1
  9
$DIMTOH
 70
     1
  9
$DIMSE1
 70
     0
  9
$DIMSE2
 70
     0
  9
$DIMTAD
 70
     0
  9
$DIMZIN
 70
     0
  9
$DIMBLK
  1
CLOSED
  9
$DIMASO
 70
     1
  9
$DIMSHO
 70
     1
  9
$DIMPOST
  1

  9
$DIMAPOST
  1

  9
$DIMALT
 70
     0
  9
$DIMALTD
 70
     2
  9
$DIMALTF
 40
25.4
  9
$DIMLFAC
 40
1.0
  9
$DIMTOFL
 70
     0
  9
$DIMTVP
 40
0.0
  9
$DIMTIX
 70
     0
  9
$DIMSOXD
 70
     0
  9
$DIMSAH
 70
     0
  9
$DIMBLK1
  1

  9
$DIMBLK2
  1

  9
$DIMSTYLE
  2
STANDARD
  9
$DIMCLRD
 70
     0
  9
$DIMCLRE
 70
     0
  9
$DIMCLRT
 70
     0
  9
$DIMTFAC
 40
1.0
  9
$DIMGAP
 40
0.625
  9
$DIMJUST
 70
     0
  9
$DIMSD1
 70
     0
  9
$DIMSD2
 70
     0
  9
$DIMTOLJ
 70
     1
  9
$DIMTZIN
 70
     0
  9
$DIMALTZ
 70
     0
  9
$DIMALTTZ
 70
     0
  9
$DIMUPT
 70
     0
  9
$DIMDEC
 70
     4
  9
$DIMTDEC
 70
     4
  9
$DIMALTU
 70
     2
  9
$DIMALTTD
 70
     2
  9
$DIMTXSTY
  7
STANDARD
  9
$DIMAUNIT
 70
     0
  9
$DIMADEC
 70
     0
  9
$DIMALTRND
 40
0.0
  9
$DIMAZIN
 70
     0
  9
$DIMDSEP
 70
    44
  9
$DIMATFIT
 70
     3
  9
$DIMFRAC
 70
     0
  9
$DIMLDRBLK
  1

  9
$DIMLUNIT
 70
     2
  9
$DIMLWD
 70
    -2
  9
$DIMLWE
 70
    -2
  9
$DIMTMOVE
 70
     0
  9
$DIMFXL
 40
1.0
  9
$DIMFXLON
 70
     0
  9
$DIMJOGANG
 40
0.7853981633974483
  9
$DIMTFILL
 70
     0
  9
$DIMTFILLCLR
 70
     0
  9
$DIMARCSYM
 70
     0
  9
$DIMLTYPE
  6

  9
$DIMLTEX1
  6

  9
$DIMLTEX2
  6

  9
$DIMTXTDIRECTION
 70
     0
  9
$LUNITS
 70
     2
  9
$LUPREC
 70
     4
  9
$SKETCHINC
 40
0.1
  9
$FILLETRAD
 40
0.5
  9
$AUNITS
 70
     0
  9
$AUPREC
 70
     0
  9
$MENU
  1
.
  9
$ELEVATION
 40
0.0
  9
$PELEVATION
 40
0.0
  9
$THICKNESS
 40
0.0
  9
$LIMCHECK
 70
     0
  9
$CHAMFERA
 40
0.0
  9
$CHAMFERB
 40
0.0
  9
$CHAMFERC
 40
0.0
  9
$CHAMFERD
 40
0.0
  9
$SKPOLY
 70
     0
  9
$TDCREATE
 40
2447893.083333333
  9
$TDUCREATE
 40
0.0
  9
$TDUPDATE
 40
2458620.590125151
  9
$TDUUPDATE
 40
2458620.506791817
  9
$TDINDWG
 40
0.0002954861
  9
$TDUSRTIMER
 40
0.0002954861
  9
$USRTIMER
 70
     1
  9
$ANGBASE
 50
0.0
  9
$ANGDIR
 70
     0
  9
$PDMODE
 70
     3
  9
$PDSIZE
 40
0.3125
  9
$PLINEWID
 40
0.0
  9
$SPLFRAME
 70
     0
  9
$SPLINETYPE
 70
     6
  9
$SPLINESEGS
 70
     8
  9
$HANDSEED
  5
53D
  9
$SURFTAB1
 70
     6
  9
$SURFTAB2
 70
     6
  9
$SURFTYPE
 70
     6
  9
$SURFU
 70
     6
  9
$SURFV
 70
     6
  9
$UCSBASE
  2

  9
$UCSNAME
  2

  9
$UCSORG
 10
0.0
 20
0.0
 30
0.0
  9
$UCSXDIR
 10
1.0
 20
0.0
 30
0.0
  9
$UCSYDIR
 10
0.0
 20
1.0
 30
0.0
  9
$UCSORTHOREF
  2

  9
$UCSORTHOVIEW
 70
     0
  9
$UCSORGTOP
 10
0.0
 20
0.0
 30
0.0
  9
$UCSORGBOTTOM
 10
0.0
 20
0.0
 30
0.0
  9
$UCSORGLEFT
 10
0.0
 20
0.0
 30
0.0
  9
$UCSORGRIGHT
 10
0.0
 20
0.0
 30
0.0
  9
$UCSORGFRONT
 10
0.0
 20
0.0
 30
0.0
  9
$UCSORGBACK
 10
0.0
 20
0.0
 30
0.0
  9
$PUCSBASE
  2

  9
$PUCSNAME
  2

  9
$PUCSORG
 10
0.0
 20
0.0
 30
0.0
  9
$PUCSXDIR
 10
1.0
 20
0.0
 30
0.0
  9
$PUCSYDIR
 10
0.0
 20
1.0
 30
0.0
  9
$PUCSORTHOREF
  2

  9
$PUCSORTHOVIEW
 70
     0
  9
$PUCSORGTOP
 10
0.0
 20
0.0
 30
0.0
  9
$PUCSORGBOTTOM
 10
0.0
 20
0.0
 30
0.0
  9
$PUCSORGLEFT
 10
0.0
 20
0.0
 30
0.0
  9
$PUCSORGRIGHT
 10
0.0
 20
0.0
 30
0.0
  9
$PUCSORGFRONT
 10
0.0
 20
0.0
 30
0.0
  9
$PUCSORGBACK
 10
0.0
 20
0.0
 30
0.0
  9
$USERI1
 70
     0
  9
$USERI2
 70
     0
  9
$USERI3
 70
     0
  9
$USERI4
 70
     0
  9
$USERI5
 70
     0
  9
$USERR1
 40
0.0
  9
$USERR2
 40
0.0
  9
$USERR3
 40
0.0
  9
$USERR4
 40
0.0
  9
$USERR5
 40
0.0
  9
$WORLDVIEW
 70
     1
  9
$SHADEDGE
 70
     3
  9
$SHADEDIF
 70
    70
  9
$TILEMODE
 70
     0
  9
$MAXACTVP
 70
    64
  9
$PINSBASE
 10
0.0
 20
0.0
 30
0.0
  9
$PLIMCHECK
 70
     0
  9
$PEXTMIN
 10
9.949999999999989
 20
9.950000000000003
 30
0.0
  9
$PEXTMAX
 10
291.5463968142666
 20
200.05
 30
0.0
  9
$PLIMMIN
 10
0.0
 20
0.0
  9
$PLIMMAX
 10
297.0
 20
210.0
  9
$UNITMODE
 70
     0
  9
$VISRETAIN
 70
     1
  9
$PLINEGEN
 70
     0
  9
$PSLTSCALE
 70
     1
  9
$TREEDEPTH
 70
  3020
  9
$CMLSTYLE
  2
Standard
  9
$CMLJUST
 70
     0
  9
$CMLSCALE
 40
1.0
  9
$PROXYGRAPHICS
 70
     1
  9
$MEASUREMENT
 70
     1
  9
$CELWEIGHT
370
    -1
  9
$ENDCAPS
280
     0
  9
$JOINSTYLE
280
     0
  9
$LWDISPLAY
290
     0
  9
$INSUNITS
 70
     4
  9
$HYPERLINKBASE
  1

  9
$STYLESHEET
  1

  9
$XEDIT
290
     1
  9
$CEPSNTYPE
380
     0
  9
$PSTYLEMODE
290
     1
  9
$FINGERPRINTGUID
  2
{A4EBA5BF-4A83-4A31-9E4B-35CD15CF1391}
  9
$VERSIONGUID
  2
{FAEB1C32-E019-11D5-929B-00C0DF256EC4}
  9
$EXTNAMES
290
     1
  9
$PSVPSCALE
 40
0.0
  9
$OLESTARTUP
290
     0
  9
$SORTENTS
280
   127
  9
$INDEXCTL
280
     0
  9
$HIDETEXT
280
     1
  9
$XCLIPFRAME
280
     2
  9
$HALOGAP
280
     0
  9
$OBSCOLOR
 70
   257
  9
$OBSLTYPE
280
     0
  9
$INTERSECTIONDISPLAY
280
     0
  9
$INTERSECTIONCOLOR
 70
   257
  9
$DIMASSOC
280
     2
  9
$PROJECTNAME
  1

  9
$CAMERADISPLAY
290
     0
  9
$LENSLENGTH
 40
50.0
  9
$CAMERAHEIGHT
 40
0.0
  9
$STEPSPERSEC
 40
2.0
  9
$STEPSIZE
 40
6.0
  9
$3DDWFPREC
 40
2.0
  9
$PSOLWIDTH
 40
0.25
  9
$PSOLHEIGHT
 40
4.0
  9
$LOFTANG1
 40
1.570796326794897
  9
$LOFTANG2
 40
1.570796326794897
  9
$LOFTMAG1
 40
0.0
  9
$LOFTMAG2
 40
0.0
  9
$LOFTPARAM
 70
     7
  9
$LOFTNORMALS
280
     1
  9
$LATITUDE
 40
37.795
  9
$LONGITUDE
 40
-122.394
  9
$NORTHDIRECTION
 40
0.0
  9
$TIMEZONE
 70
 -8000
  9
$LIGHTGLYPHDISPLAY
280
     1
  9
$TILEMODELIGHTSYNCH
280
     1
  9
$SOLIDHIST
280
     0
  9
$SHOWHIST
280
     1
  9
$DWFFRAME
280
     2
  9
$DGNFRAME
280
     2
  9
$REALWORLDSCALE
290
     1
  9
$INTERFERECOLOR
 62
   256
  9
$CSHADOW
280
     0
  9
$SHADOWPLANELOCATION
 40
0.0
  0
ENDSEC
  0
SECTION
  2
CLASSES
  0
CLASS
  1
ACDBDICTIONARYWDFLT
  2
AcDbDictionaryWithDefault
  3
ObjectDBX Classes
 90
        0
 91
        4
280
     0
281
     0
  0
CLASS
  1
ACDBPLACEHOLDER
  2
AcDbPlaceHolder
  3
ObjectDBX Classes
 90
        0
 91
        1
280
     0
281
     0
  0
CLASS
  1
LAYOUT
  2
AcDbLayout
  3
ObjectDBX Classes
 90
        0
 91
        1
280
     0
281
     0
  0
CLASS
  1
SCALE
  2
AcDbScale
  3
ObjectDBX Classes
 90
     1153
 91
        4
280
     0
281
     0
  0
CLASS
  1
VISUALSTYLE
  2
AcDbVisualStyle
  3
ObjectDBX Classes
 90
     4095
 91
        4
280
     0
281
     0
  0
CLASS
  1
MATERIAL
  2
AcDbMaterial
  3
ObjectDBX Classes
 90
     1153
 91
        4
280
     0
281
     0
  0
CLASS
  1
TABLESTYLE
  2
AcDbTableStyle
  3
ObjectDBX Classes
 90
     4095
 91
        4
280
     0
281
     0
  0
CLASS
  1
MLEADERSTYLE
  2
AcDbMLeaderStyle
  3
ACDB_MLEADERSTYLE_CLASS
 90
     4095
 91
        4
280
     0
281
     0
  0
CLASS
  1
DICTIONARYVAR
  2
AcDbDictionaryVar
  3
ObjectDBX Classes
 90
        0
 91
        4
280
     0
281
     0
  0
CLASS
  1
CELLSTYLEMAP
  2
AcDbCellStyleMap
  3
ObjectDBX Classes
 90
     1152
 91
        4
280
     0
281
     0
  0
ENDSEC
  0
SECTION
  2
TABLES
  0
TABLE
  2
VPORT
  5
8
330
0
100
AcDbSymbolTable
 70
     1
  0
VPORT
  5
1F4
330
8
100
AcDbSymbolTableRecord
100
AcDbViewportTableRecord
  2
*ACTIVE
 70
     0
 10
0.0
 20
0.0
 11
1.0
 21
1.0
 12
148.5
 22
105.0
 13
0.0
 23
0.0
 14
1.0
 24
1.0
 15
0.0
 25
0.0
 16
0.0
 26
0.0
 36
1.0
 17
0.0
 27
0.0
 37
0.0
 40
210.0
 41
1.4142857143
 42
50.0
 43
0.0
 44
0.0
 50
0.0
 51
0.0
 71
     0
 72
   100
 73
     1
 74
     1
 75
     0
 76
     0
 77
     0
 78
     0
281
     0
 65
     1
110
0.0
120
0.0
130
0.0
111
1.0
121
0.0
131
0.0
112
0.0
122
1.0
132
0.0
 79
     0
146
0.0
348
516
 60
     3
 61
     5
292
     1
282
     1
141
0.0
142
0.0
 63
   256
  0
ENDTAB
  0
TABLE
  2
LTYPE
  5
5
330
0
100
AcDbSymbolTable
 70
     6
  0
LTYPE
  5
14
330
5
100
AcDbSymbolTableRecord
100
AcDbLinetypeTableRecord
  2
BYBLOCK
 70
     0
  3

 72
    65
 73
     0
 40
0.0
  0
LTYPE
  5
15
330
5
100
AcDbSymbolTableRecord
100
AcDbLinetypeTableRecord
  2
BYLAYER
 70
     0
  3

 72
    65
 73
     0
 40
0.0
  0
LTYPE
  5
16
330
5
100
AcDbSymbolTableRecord
100
AcDbLinetypeTableRecord
  2
CONTINUOUS
 70
     0
  3
Solid line
 72
    65
 73
     0
 40
0.0
  0
LTYPE
  5
1F5
330
5
100
AcDbSymbolTableRecord
100
AcDbLinetypeTableRecord
  2
CENTER
 70
     0
  3
____ _ ____ _ ____ _ ____ _ ____ _ ____ _ ____
 72
    65
 73
     4
 40
0.6
 49
0.375
 74
     0
 49
-0.075
 74
     0
 49
0.075
 74
     0
 49
-0.075
 74
     0
  0
LTYPE
  5
1F6
330
5
100
AcDbSymbolTableRecord
100
AcDbLinetypeTableRecord
  2
HIDDEN
 70
     0
  3
- - - - - - - - - - - - - - - - - - - -
 72
    65
 73
     2
 40
0.2
 49
0.1
 74
     0
 49
-0.1
 74
     0
  0
LTYPE
  5
1F7
330
5
100
AcDbSymbolTableRecord
100
AcDbLinetypeTableRecord
  2
PHANTOM
 70
     0
  3
_____ _ _ _____ _ _ _____ _ _ _____
 72
    65
 73
     6
 40
0.8
 49
0.45
 74
     0
 49
-0.05
 74
     0
 49
0.1
 74
     0
 49
-0.05
 74
     0
 49
0.1
 74
     0
 49
-0.05
 74
     0
  0
LTYPE
  5
1F8
330
5
100
AcDbSymbolTableRecord
100
AcDbLinetypeTableRecord
  2
DOT
 70
     0
  3
. . . . . . . . . . . . . . . . . . . .
 72
    65
 73
     2
 40
0.2
 49
0.1
 74
     0
 49
-0.1
 74
     0
  0
LTYPE
  5
1F9
330
5
100
AcDbSymbolTableRecord
100
AcDbLinetypeTableRecord
  2
DASHED
 70
     0
  3
- - - - - - - - - - - - - - - - - - - -
 72
    65
 73
     2
 40
0.2
 49
0.1
 74
     0
 49
-0.1
 74
     0
  0
ENDTAB
  0
TABLE
  2
LAYER
  5
2
330
0
100
AcDbSymbolTable
 70
    38
  0
LAYER
  5
10
330
2
100
AcDbSymbolTableRecord
100
AcDbLayerTableRecord
  2
0
 70
     0
 62
     7
  6
CONTINUOUS
370
    -3
390
F
347
52D
348
0
  0
LAYER
  5
1FA
330
2
100
AcDbSymbolTableRecord
100
AcDbLayerTableRecord
  2
DEFAULT_1
 70
     0
 62
     7
  6
CENTER
370
    -3
390
F
347
52D
348
0
  0
LAYER
  5
1FB
330
2
100
AcDbSymbolTableRecord
100
AcDbLayerTableRecord
  2
DEFAULT_2
 70
     0
 62
     8
  6
HIDDEN
370
    -3
390
F
347
52D
348
0
  0
LAYER
  5
1FC
330
2
100
AcDbSymbolTableRecord
100
AcDbLayerTableRecord
  2
DEFAULT_3
 70
     0
 62
     7
  6
PHANTOM
370
    -3
390
F
347
52D
348
0
  0
LAYER
  5
1FD
330
2
100
AcDbSymbolTableRecord
100
AcDbLayerTableRecord
  2
01_ALL_DTM_PLN
 70
     0
 62
     7
  6
CONTINUOUS
370
    -3
390
F
347
52D
348
0
  0
LAYER
  5
1FE
330
2
100
AcDbSymbolTableRecord
100
AcDbLayerTableRecord
  2
01__ASM_ALL_DTM_PLN
 70
     0
 62
     7
  6
CONTINUOUS
370
    -3
390
F
347
52D
348
0
  0
LAYER
  5
1FF
330
2
100
AcDbSymbolTableRecord
100
AcDbLayerTableRecord
  2
01__ASM_DEF_DTM_PLN
 70
     0
 62
     7
  6
CONTINUOUS
370
    -3
390
F
347
52D
348
0
  0
LAYER
  5
200
330
2
100
AcDbSymbolTableRecord
100
AcDbLayerTableRecord
  2
01___PRT_ALL_DTM_PLN
 70
     0
 62
     7
  6
CONTINUOUS
370
    -3
390
F
347
52D
348
0
  0
LAYER
  5
201
330
2
100
AcDbSymbolTableRecord
100
AcDbLayerTableRecord
  2
01___PRT_DEF_DTM_PLN
 70
     0
 62
     7
  6
CONTINUOUS
370
    -3
390
F
347
52D
348
0
  0
LAYER
  5
202
330
2
100
AcDbSymbolTableRecord
100
AcDbLayerTableRecord
  2
02_ALL_AXES
 70
     0
 62
     7
  6
CONTINUOUS
370
    -3
390
F
347
52D
348
0
  0
LAYER
  5
203
330
2
100
AcDbSymbolTableRecord
100
AcDbLayerTableRecord
  2
02__ASM_ALL_AXES
 70
     0
 62
     7
  6
CONTINUOUS
370
    -3
390
F
347
52D
348
0
  0
LAYER
  5
204
330
2
100
AcDbSymbolTableRecord
100
AcDbLayerTableRecord
  2
02___PRT_ALL_AXES
 70
     0
 62
     7
  6
CONTINUOUS
370
    -3
390
F
347
52D
348
0
  0
LAYER
  5
205
330
2
100
AcDbSymbolTableRecord
100
AcDbLayerTableRecord
  2
03_ALL_CURVES
 70
     0
 62
     7
  6
CONTINUOUS
370
    -3
390
F
347
52D
348
0
  0
LAYER
  5
206
330
2
100
AcDbSymbolTableRecord
100
AcDbLayerTableRecord
  2
03__ASM_ALL_CURVES
 70
     0
 62
     7
  6
CONTINUOUS
370
    -3
390
F
347
52D
348
0
  0
LAYER
  5
207
330
2
100
AcDbSymbolTableRecord
100
AcDbLayerTableRecord
  2
03___PRT_ALL_CURVES
 70
     0
 62
     7
  6
CONTINUOUS
370
    -3
390
F
347
52D
348
0
  0
LAYER
  5
208
330
2
100
AcDbSymbolTableRecord
100
AcDbLayerTableRecord
  2
04_ALL_DTM_PNT
 70
     0
 62
     7
  6
CONTINUOUS
370
    -3
390
F
347
52D
348
0
  0
LAYER
  5
209
330
2
100
AcDbSymbolTableRecord
100
AcDbLayerTableRecord
  2
04__ASM_ALL_DTM_PNT
 70
     0
 62
     7
  6
CONTINUOUS
370
    -3
390
F
347
52D
348
0
  0
LAYER
  5
20A
330
2
100
AcDbSymbolTableRecord
100
AcDbLayerTableRecord
  2
04___PRT_ALL_DTM_PNT
 70
     0
 62
     7
  6
CONTINUOUS
370
    -3
390
F
347
52D
348
0
  0
LAYER
  5
20B
330
2
100
AcDbSymbolTableRecord
100
AcDbLayerTableRecord
  2
05_ALL_DTM_CSYS
 70
     0
 62
     7
  6
CONTINUOUS
370
    -3
390
F
347
52D
348
0
  0
LAYER
  5
20C
330
2
100
AcDbSymbolTableRecord
100
AcDbLayerTableRecord
  2
05__ASM_ALL_DTM_CSYS
 70
     0
 62
     7
  6
CONTINUOUS
370
    -3
390
F
347
52D
348
0
  0
LAYER
  5
20D
330
2
100
AcDbSymbolTableRecord
100
AcDbLayerTableRecord
  2
05__ASM_DEF_DTM_CSYS
 70
     0
 62
     7
  6
CONTINUOUS
370
    -3
390
F
347
52D
348
0
  0
LAYER
  5
20E
330
2
100
AcDbSymbolTableRecord
100
AcDbLayerTableRecord
  2
05___PRT_ALL_DTM_CSYS
 70
     0
 62
     7
  6
CONTINUOUS
370
    -3
390
F
347
52D
348
0
  0
LAYER
  5
20F
330
2
100
AcDbSymbolTableRecord
100
AcDbLayerTableRecord
  2
05___PRT_DEF_DTM_CSYS
 70
     0
 62
     7
  6
CONTINUOUS
370
    -3
390
F
347
52D
348
0
  0
LAYER
  5
210
330
2
100
AcDbSymbolTableRecord
100
AcDbLayerTableRecord
  2
06_ALL_SURFS
 70
     0
 62
     7
  6
CONTINUOUS
370
    -3
390
F
347
52D
348
0
  0
LAYER
  5
211
330
2
100
AcDbSymbolTableRecord
100
AcDbLayerTableRecord
  2
06__ASM_ALL_SURFS
 70
     0
 62
     7
  6
CONTINUOUS
370
    -3
390
F
347
52D
348
0
  0
LAYER
  5
212
330
2
100
AcDbSymbolTableRecord
100
AcDbLayerTableRecord
  2
06___PRT_ALL_SURFS
 70
     0
 62
     7
  6
CONTINUOUS
370
    -3
390
F
347
52D
348
0
  0
LAYER
  5
213
330
2
100
AcDbSymbolTableRecord
100
AcDbLayerTableRecord
  2
07__ASM_ALL_SKELETONS
 70
     0
 62
     7
  6
CONTINUOUS
370
    -3
390
F
347
52D
348
0
  0
LAYER
  5
214
330
2
100
AcDbSymbolTableRecord
100
AcDbLayerTableRecord
  2
1_ALL_PLANES
 70
     0
 62
     7
  6
CONTINUOUS
370
    -3
390
F
347
52D
348
0
  0
LAYER
  5
215
330
2
100
AcDbSymbolTableRecord
100
AcDbLayerTableRecord
  2
2_ALL_CSYS
 70
     0
 62
     7
  6
CONTINUOUS
370
    -3
390
F
347
52D
348
0
  0
LAYER
  5
216
330
2
100
AcDbSymbolTableRecord
100
AcDbLayerTableRecord
  2
3_ALL_AXES
 70
     0
 62
     7
  6
CONTINUOUS
370
    -3
390
F
347
52D
348
0
  0
LAYER
  5
217
330
2
100
AcDbSymbolTableRecord
100
AcDbLayerTableRecord
  2
4_ALL_POINTS
 70
     0
 62
     7
  6
CONTINUOUS
370
    -3
390
F
347
52D
348
0
  0
LAYER
  5
218
330
2
100
AcDbSymbolTableRecord
100
AcDbLayerTableRecord
  2
5_ALL_CURVES
 70
     0
 62
     7
  6
CONTINUOUS
370
    -3
390
F
347
52D
348
0
  0
LAYER
  5
219
330
2
100
AcDbSymbolTableRecord
100
AcDbLayerTableRecord
  2
5__COSTRUZIONE
 70
     0
 62
     7
  6
CONTINUOUS
370
    -3
390
F
347
52D
348
0
  0
LAYER
  5
21A
330
2
100
AcDbSymbolTableRecord
100
AcDbLayerTableRecord
  2
6_ALL_SURFS
 70
     0
 62
     7
  6
CONTINUOUS
370
    -3
390
F
347
52D
348
0
  0
LAYER
  5
21B
330
2
100
AcDbSymbolTableRecord
100
AcDbLayerTableRecord
  2
7_ALL_FEATURES
 70
     0
 62
     7
  6
CONTINUOUS
370
    -3
390
F
347
52D
348
0
  0
LAYER
  5
21C
330
2
100
AcDbSymbolTableRecord
100
AcDbLayerTableRecord
  2
9_SOLID
 70
     0
 62
     7
  6
CONTINUOUS
370
    -3
390
F
347
52D
348
0
  0
LAYER
  5
21D
330
2
100
AcDbSymbolTableRecord
100
AcDbLayerTableRecord
  2
CLOSED_SHELL
 70
     0
 62
     7
  6
CONTINUOUS
370
    -3
390
F
347
52D
348
0
  0
LAYER
  5
21E
330
2
100
AcDbSymbolTableRecord
100
AcDbLayerTableRecord
  2
XXX_SOLIDO
 70
     0
 62
     7
  6
CONTINUOUS
370
    -3
390
F
347
52D
348
0
  0
ENDTAB
  0
TABLE
  2
STYLE
  5
3
330
0
100
AcDbSymbolTable
 70
     5
  0
STYLE
  5
11
330
3
100
AcDbSymbolTableRecord
100
AcDbTextStyleTableRecord
  2
STANDARD
 70
     0
 40
0.0
 41
1.0
 50
0.0
 71
     0
 42
0.2
  3
arial.ttf
  4

  0
STYLE
  5
21F
330
3
100
AcDbSymbolTableRecord
100
AcDbTextStyleTableRecord
  2
TEXTSTYLE_1
 70
     0
 40
0.0
 41
0.8
 50
0.0
 71
     0
 42
0.2
  3
gdt
  4

  0
STYLE
  5
220
330
3
100
AcDbSymbolTableRecord
100
AcDbTextStyleTableRecord
  2
TEXTSTYLE_2
 70
     0
 40
0.0
 41
0.85
 50
0.0
 71
     0
 42
0.2
  3
gdt
  4

  0
STYLE
  5
221
330
3
100
AcDbSymbolTableRecord
100
AcDbTextStyleTableRecord
  2
TEXTSTYLE_3
 70
     0
 40
0.0
 41
2.0
 50
0.0
 71
     0
 42
0.2
  3
txt
  4

  0
STYLE
  5
222
330
3
100
AcDbSymbolTableRecord
100
AcDbTextStyleTableRecord
  2
TEXTSTYLE_4
 70
     0
 40
0.0
 41
0.85
 50
0.0
 71
     0
 42
0.2
  3
txt
  4

  0
ENDTAB
  0
TABLE
  2
VIEW
  5
6
330
0
100
AcDbSymbolTable
 70
     0
  0
ENDTAB
  0
TABLE
  2
UCS
  5
7
330
0
100
AcDbSymbolTable
 70
     0
  0
ENDTAB
  0
TABLE
  2
APPID
  5
9
330
0
100
AcDbSymbolTable
 70
     1
  0
APPID
  5
223
330
9
100
AcDbSymbolTableRecord
100
AcDbRegAppTableRecord
  2
ACAD
 70
     0
  0
ENDTAB
  0
TABLE
  2
DIMSTYLE
  5
A
330
0
100
AcDbSymbolTable
 70
     4
100
AcDbDimStyleTable
  0
DIMSTYLE
105
22D
330
A
100
AcDbSymbolTableRecord
100
AcDbDimStyleTableRecord
  2
STANDARD
 70
     0
 41
2.5
 42
0.75
 44
0.75
 47
0.01
 48
0.01
 71
     1
 73
     0
 74
     0
 77
     1
 78
     8
 79
     2
140
3.0
147
0.625
171
     1
178
     0
179
     2
271
     2
272
     2
278
    44
284
     8
340
11
341
226
342
226
343
226
344
226
  0
DIMSTYLE
105
22E
330
A
100
AcDbSymbolTableRecord
100
AcDbDimStyleTableRecord
  2
DIMSTYLE_1
 70
     0
  3
<>
 41
2.5
 42
0.75
 44
0.75
 47
0.3
 48
0.3
 73
     0
 74
     0
 77
     1
 78
     8
 79
     2
140
3.0
147
0.625
171
     1
172
     1
178
     0
179
     2
271
     2
272
     2
278
    44
284
     8
288
     1
289
     2
340
11
341
226
342
226
343
226
344
226
  0
DIMSTYLE
105
22F
330
A
100
AcDbSymbolTableRecord
100
AcDbDimStyleTableRecord
  2
DIMSTYLE_2
 70
     0
 41
2.5
 42
0.75
 44
0.75
 47
0.3
 48
0.3
 73
     0
 74
     0
 77
     1
 78
     8
 79
     2
140
3.0
147
0.75
171
     1
178
     0
179
     2
271
     2
272
     2
278
    44
284
     8
340
11
341
226
342
226
343
226
344
226
  0
DIMSTYLE
105
230
330
A
100
AcDbSymbolTableRecord
100
AcDbDimStyleTableRecord
  2
DIMSTYLE_3
 70
     0
 41
2.5
 42
0.75
 44
0.75
 47
0.1
 48
0.1
 73
     0
 74
     0
 77
     1
 78
     8
 79
     2
140
3.0
147
0.75
171
     1
178
     0
179
     2
271
     2
272
     2
278
    44
284
     8
340
11
341
226
342
226
343
226
344
226
  0
ENDTAB
  0
TABLE
  2
BLOCK_RECORD
  5
1
330
0
100
AcDbSymbolTable
 70
     7
  0
BLOCK_RECORD
  5
224
330
1
100
AcDbSymbolTableRecord
100
AcDbBlockTableRecord
  2
*Model_Space
340
4ED
 70
     0
280
     1
281
     0
  0
BLOCK_RECORD
  5
225
330
1
100
AcDbSymbolTableRecord
100
AcDbBlockTableRecord
  2
*Paper_Space
340
4EE
 70
     0
280
     1
281
     0
  0
BLOCK_RECORD
  5
226
330
1
100
AcDbSymbolTableRecord
100
AcDbBlockTableRecord
  2
_CLOSED
340
0
102
{BLKREFS
331
280
331
288
331
289
331
293
331
294
331
29C
331
29D
102
}
 70
     0
280
     1
281
     0
  0
BLOCK_RECORD
  5
227
330
1
100
AcDbSymbolTableRecord
100
AcDbBlockTableRecord
  2
*D1
340
0
 70
     0
280
     1
281
     0
  0
BLOCK_RECORD
  5
228
330
1
100
AcDbSymbolTableRecord
100
AcDbBlockTableRecord
  2
*D2
340
0
 70
     0
280
     1
281
     0
  0
BLOCK_RECORD
  5
229
330
1
100
AcDbSymbolTableRecord
100
AcDbBlockTableRecord
  2
*D3
340
0
 70
     0
280
     1
281
     0
  0
BLOCK_RECORD
  5
22A
330
1
100
AcDbSymbolTableRecord
100
AcDbBlockTableRecord
  2
*D4
340
0
 70
     0
280
     1
281
     0
  0
BLOCK_RECORD
  5
22B
330
1
100
AcDbSymbolTableRecord
100
AcDbBlockTableRecord
  2
LOGO2_BL1
340
0
102
{BLKREFS
331
4DB
102
}
 70
     0
280
     1
281
     0
  0
BLOCK_RECORD
  5
22C
330
1
100
AcDbSymbolTableRecord
100
AcDbBlockTableRecord
  2
PROIEZIONE_EU_BL0
340
0
102
{BLKREFS
331
4D8
102
}
 70
     0
280
     1
281
     0
  0
ENDTAB
  0
ENDSEC
  0
SECTION
  2
BLOCKS
  0
BLOCK
  5
20
330
224
100
AcDbEntity
  8
0
100
AcDbBlockBegin
  2
*Model_Space
 70
     0
 10
0.0
 20
0.0
 30
0.0
  3
*Model_Space
  1

  0
ENDBLK
  5
21
330
224
100
AcDbEntity
  8
0
100
AcDbBlockEnd
  0
BLOCK
  5
1C
330
225
100
AcDbEntity
 67
     1
  8
0
100
AcDbBlockBegin
  2
*Paper_Space
 70
     0
 10
0.0
 20
0.0
 30
0.0
  3
*Paper_Space
  1

  0
ENDBLK
  5
1D
330
225
100
AcDbEntity
 67
     1
  8
0
100
AcDbBlockEnd
  0
BLOCK
  5
277
330
226
100
AcDbEntity
  8
0
100
AcDbBlockBegin
  2
_CLOSED
 70
     0
 10
0.0
 20
0.0
 30
0.0
  3
_CLOSED
  1

  0
LINE
  5
278
330
226
100
AcDbEntity
  8
0
  6
ByBlock
 62
     0
100
AcDbLine
 10
0.0
 20
0.0
 30
0.0
 11
-1.0
 21
0.2
 31
0.0
  0
LINE
  5
279
330
226
100
AcDbEntity
  8
0
  6
ByBlock
 62
     0
100
AcDbLine
 10
-1.0
 20
0.2
 30
0.0
 11
-1.0
 21
-0.2
 31
0.0
  0
LINE
  5
27A
330
226
100
AcDbEntity
  8
0
  6
ByBlock
 62
     0
100
AcDbLine
 10
-1.0
 20
-0.2
 30
0.0
 11
0.0
 21
0.0
 31
0.0
  0
LINE
  5
27B
330
226
100
AcDbEntity
  8
0
  6
ByBlock
 62
     0
100
AcDbLine
 10
-1.0
 20
0.0
 30
0.0
 11
0.0
 21
0.0
 31
0.0
  0
ENDBLK
  5
27C
330
226
100
AcDbEntity
  8
0
  6
ByBlock
 62
     0
100
AcDbBlockEnd
  0
BLOCK
  5
27D
330
227
100
AcDbEntity
  8
0
100
AcDbBlockBegin
  2
*D1
 70
     1
 10
0.0
 20
0.0
 30
0.0
  3
*D1
  1

  0
MTEXT
  5
27E
330
227
100
AcDbEntity
  8
0
  6
Continuous
 62
     2
100
AcDbMText
 10
49.3605691373
 20
172.331383318
 30
0.0
 40
3.0
 41
8.6617100372
 46
0.0
 71
     3
 72
     1
  1
{\Fgdt;n}\Farial.ttf;69
  7
TEXTSTYLE_2
 11
0.8414429486
 21
-0.5403459672000001
 31
0.0
 73
     1
 44
0.9
  0
LINE
  5
27F
330
227
100
AcDbEntity
  8
0
  6
Continuous
 62
     2
100
AcDbLine
 10
54.5973779652
 20
164.511853138
 30
0.0
 11
40.0459369268
 21
173.8562923486
 31
0.0
  0
INSERT
  5
280
330
227
100
AcDbEntity
  8
0
  6
Continuous
 62
     2
100
AcDbBlockReference
  2
_CLOSED
 10
54.5973779652
 20
164.511853138
 30
0.0
 41
2.5
 42
2.5
 43
2.5
 50
327.2928065615999
  0
ENDBLK
  5
281
330
227
100
AcDbEntity
  8
0
  6
ByBlock
 62
     0
100
AcDbBlockEnd
  0
BLOCK
  5
282
330
228
100
AcDbEntity
  8
0
100
AcDbBlockBegin
  2
*D2
 70
     1
 10
0.0
 20
0.0
 30
0.0
  3
*D2
  1

  0
MTEXT
  5
283
330
228
100
AcDbEntity
  8
0
  6
Continuous
 62
     2
100
AcDbMText
 10
28.53700699
 20
67.1346735665
 30
0.0
 40
3.0
 41
10.4832713755
 46
0.0
 71
     2
 72
     1
  1
48,31
 11
0.0
 21
1.0
 31
0.0
 73
     1
 44
0.9
  0
LINE
  5
284
330
228
100
AcDbEntity
  8
0
  6
Continuous
 62
     2
100
AcDbLine
 10
49.1095018717
 20
91.2914385707
 30
0.0
 11
31.53700699
 21
91.2914385707
 31
0.0
  0
LINE
  5
285
330
228
100
AcDbEntity
  8
0
  6
Continuous
 62
     2
100
AcDbLine
 10
46.9485081661
 20
42.9779085623
 30
0.0
 11
31.53700699
 21
42.9779085623
 31
0.0
  0
LINE
  5
286
330
228
100
AcDbEntity
  8
0
  6
Continuous
 62
     2
100
AcDbLine
 10
32.28700699
 20
91.2914385707
 30
0.0
 11
32.28700699
 21
67.1346735665
 31
0.0
  0
LINE
  5
287
330
228
100
AcDbEntity
  8
0
  6
Continuous
 62
     2
100
AcDbLine
 10
32.28700699
 20
42.9779085623
 30
0.0
 11
32.28700699
 21
67.1346735665
 31
0.0
  0
INSERT
  5
288
330
228
100
AcDbEntity
  8
0
  6
Continuous
 62
     2
100
AcDbBlockReference
  2
_CLOSED
 10
32.28700699
 20
91.2914385707
 30
0.0
 41
2.5
 42
2.5
 43
2.5
 50
90.0
  0
INSERT
  5
289
330
228
100
AcDbEntity
  8
0
  6
Continuous
 62
     2
100
AcDbBlockReference
  2
_CLOSED
 10
32.28700699
 20
42.9779085623
 30
0.0
 41
2.5
 42
2.5
 43
2.5
 50
270.0
  0
ENDBLK
  5
28A
330
228
100
AcDbEntity
  8
0
  6
ByBlock
 62
     0
100
AcDbBlockEnd
  0
BLOCK
  5
28B
330
229
100
AcDbEntity
  8
0
100
AcDbBlockBegin
  2
*D3
 70
     1
 10
0.0
 20
0.0
 30
0.0
  3
*D3
  1

  0
MTEXT
  5
28C
330
229
100
AcDbEntity
  8
0
  6
Continuous
 62
     2
100
AcDbMText
 10
124.44590241
 20
35.8477923319
 30
0.0
 40
3.0
 41
5.8215613383
 46
0.0
 71
     3
 72
     1
  1
1,5
 11
0.0
 21
1.0
 31
0.0
 73
     1
 44
0.9
  0
LINE
  5
28D
330
229
100
AcDbEntity
  8
0
  6
Continuous
 62
     2
100
AcDbLine
 10
118.8771596913
 20
44.4569315284
 30
0.0
 11
128.94590241
 21
44.4569315284
 31
0.0
  0
LINE
  5
28E
330
229
100
AcDbEntity
  8
0
  6
Continuous
 62
     2
100
AcDbLine
 10
119.5398801852
 20
42.9569315284
 30
0.0
 11
128.94590241
 21
42.9569315284
 31
0.0
  0
LINE
  5
28F
330
229
100
AcDbEntity
  8
0
  6
Continuous
 62
     2
100
AcDbLine
 10
128.19590241
 20
44.4569315284
 30
0.0
 11
128.19590241
 21
45.4569315284
 31
0.0
  0
LINE
  5
290
330
229
100
AcDbEntity
  8
0
  6
Continuous
 62
     2
100
AcDbLine
 10
128.19590241
 20
45.4569315284
 30
0.0
 11
128.19590241
 21
43.7069315284
 31
0.0
  0
LINE
  5
291
330
229
100
AcDbEntity
  8
0
  6
Continuous
 62
     2
100
AcDbLine
 10
128.19590241
 20
42.9569315284
 30
0.0
 11
128.19590241
 21
30.0262309936
 31
0.0
  0
LINE
  5
292
330
229
100
AcDbEntity
  8
0
  6
Continuous
 62
     2
100
AcDbLine
 10
128.19590241
 20
30.0262309936
 30
0.0
 11
128.19590241
 21
43.7069315284
 31
0.0
  0
INSERT
  5
293
330
229
100
AcDbEntity
  8
0
  6
Continuous
 62
     2
100
AcDbBlockReference
  2
_CLOSED
 10
128.19590241
 20
44.4569315284
 30
0.0
 41
2.5
 42
2.5
 43
2.5
 50
270.0
  0
INSERT
  5
294
330
229
100
AcDbEntity
  8
0
  6
Continuous
 62
     2
100
AcDbBlockReference
  2
_CLOSED
 10
128.19590241
 20
42.9569315284
 30
0.0
 41
2.5
 42
2.5
 43
2.5
 50
90.0
  0
ENDBLK
  5
295
330
229
100
AcDbEntity
  8
0
  6
ByBlock
 62
     0
100
AcDbBlockEnd
  0
BLOCK
  5
296
330
22A
100
AcDbEntity
  8
0
100
AcDbBlockBegin
  2
*D4
 70
     1
 10
0.0
 20
0.0
 30
0.0
  3
*D4
  1

  0
MTEXT
  5
297
330
22A
100
AcDbEntity
  8
0
  6
Continuous
 62
     2
100
AcDbMText
 10
166.9322834552
 20
145.8699172692
 30
0.0
 40
3.0
 41
12.1524163569
 46
0.0
 71
     2
 72
     1
  1
{\Fgdt;n}\Farial.ttf;57,3
  7
TEXTSTYLE_2
 11
0.0
 21
1.0
 31
0.0
 73
     1
 44
0.9
  0
LINE
  5
298
330
22A
100
AcDbEntity
  8
0
  6
Continuous
 62
     2
100
AcDbLine
 10
186.2857707632
 20
174.5199172692
 30
0.0
 11
169.9322834552
 21
174.5199172692
 31
0.0
  0
LINE
  5
299
330
22A
100
AcDbEntity
  8
0
  6
Continuous
 62
     2
100
AcDbLine
 10
188.4550931214
 20
117.2199172692
 30
0.0
 11
169.9322834552
 21
117.2199172692
 31
0.0
  0
LINE
  5
29A
330
22A
100
AcDbEntity
  8
0
  6
Continuous
 62
     2
100
AcDbLine
 10
170.6822834552
 20
174.5199172692
 30
0.0
 11
170.6822834552
 21
145.8699172692
 31
0.0
  0
LINE
  5
29B
330
22A
100
AcDbEntity
  8
0
  6
Continuous
 62
     2
100
AcDbLine
 10
170.6822834552
 20
117.2199172692
 30
0.0
 11
170.6822834552
 21
145.8699172692
 31
0.0
  0
INSERT
  5
29C
330
22A
100
AcDbEntity
  8
0
  6
Continuous
 62
     2
100
AcDbBlockReference
  2
_CLOSED
 10
170.6822834552
 20
174.5199172692
 30
0.0
 41
2.5
 42
2.5
 43
2.5
 50
90.0
  0
INSERT
  5
29D
330
22A
100
AcDbEntity
  8
0
  6
Continuous
 62
     2
100
AcDbBlockReference
  2
_CLOSED
 10
170.6822834552
 20
117.2199172692
 30
0.0
 41
2.5
 42
2.5
 43
2.5
 50
270.0
  0
ENDBLK
  5
29E
330
22A
100
AcDbEntity
  8
0
  6
ByBlock
 62
     0
100
AcDbBlockEnd
  0
BLOCK
  5
231
330
22B
100
AcDbEntity
  8
0
100
AcDbBlockBegin
  2
LOGO2_BL1
 70
     0
 10
167.8332771924
 20
44.9839440915
 30
0.0
  3
LOGO2_BL1
  1

  0
LINE
  5
232
330
22B
100
AcDbEntity
  8
0
  6
Continuous
 62
     7
100
AcDbLine
 10
159.5762024206
 20
48.1794354304
 30
0.0
 11
158.2718614913
 21
48.1794354304
 31
0.0
  0
LINE
  5
233
330
22B
100
AcDbEntity
  8
0
  6
Continuous
 62
     7
100
AcDbLine
 10
158.2718614913
 20
48.1794354304
 30
0.0
 11
158.2718614913
 21
37.7203693705
 31
0.0
  0
LINE
  5
234
330
22B
100
AcDbEntity
  8
0
  6
Continuous
 62
     7
100
AcDbLine
 10
158.2718614913
 20
37.7203693705
 30
0.0
 11
162.7529163795
 21
37.7203693705
 31
0.0
  0
LINE
  5
235
330
22B
100
AcDbEntity
  8
0
  6
Continuous
 62
     7
100
AcDbLine
 10
162.7529163795
 20
37.7203693705
 30
0.0
 11
162.7529163795
 21
38.9132236956
 31
0.0
  0
LINE
  5
236
330
22B
100
AcDbEntity
  8
0
  6
Continuous
 62
     7
100
AcDbLine
 10
162.7529163795
 20
38.9132236956
 30
0.0
 11
159.5762024206
 21
38.9132236956
 31
0.0
  0
LINE
  5
237
330
22B
100
AcDbEntity
  8
0
  6
Continuous
 62
     7
100
AcDbLine
 10
159.5762024206
 20
38.9132236956
 30
0.0
 11
159.5762024206
 21
48.1794354304
 31
0.0
  0
LINE
  5
238
330
22B
100
AcDbEntity
  8
0
  6
Continuous
 62
     7
100
AcDbLine
 10
174.5125286369
 20
48.1794354304
 30
0.0
 11
173.2087111188
 21
48.1794354304
 31
0.0
  0
LINE
  5
239
330
22B
100
AcDbEntity
  8
0
  6
Continuous
 62
     7
100
AcDbLine
 10
173.2087111188
 20
48.1794354304
 30
0.0
 11
173.2087111188
 21
37.7203693705
 31
0.0
  0
LINE
  5
23A
330
22B
100
AcDbEntity
  8
0
  6
Continuous
 62
     7
100
AcDbLine
 10
173.2087111188
 20
37.7203693705
 30
0.0
 11
177.6898968599
 21
37.7203693705
 31
0.0
  0
LINE
  5
23B
330
22B
100
AcDbEntity
  8
0
  6
Continuous
 62
     7
100
AcDbLine
 10
177.6898968599
 20
37.7203693705
 30
0.0
 11
177.6898968599
 21
38.9132236956
 31
0.0
  0
LINE
  5
23C
330
22B
100
AcDbEntity
  8
0
  6
Continuous
 62
     7
100
AcDbLine
 10
177.6898968599
 20
38.9132236956
 30
0.0
 11
174.5125286369
 21
38.9132236956
 31
0.0
  0
LINE
  5
23D
330
22B
100
AcDbEntity
  8
0
  6
Continuous
 62
     7
100
AcDbLine
 10
174.5125286369
 20
38.9132236956
 30
0.0
 11
174.5125286369
 21
48.1794354304
 31
0.0
  0
LWPOLYLINE
  5
23E
330
22B
100
AcDbEntity
  8
0
  6
Continuous
 62
     7
100
AcDbPolyline
 90
        2
 70
     0
 43
0.2
 10
156.6262564022
 20
34.3768180636
 10
156.6262564022
 20
32.5197548143
  0
LWPOLYLINE
  5
23F
330
22B
100
AcDbEntity
  8
0
  6
Continuous
 62
     7
100
AcDbPolyline
 90
        2
 70
     0
 43
0.2
 10
156.6262564022
 20
32.5197548143
 10
157.4219724126
 20
32.5197548143
  0
LWPOLYLINE
  5
240
330
22B
100
AcDbEntity
  8
0
  6
Continuous
 62
     7
100
AcDbPolyline
 90
        2
 70
     0
 43
0.2
 10
157.4219724126
 20
32.5197548143
 10
157.4219724126
 20
32.7317363858
  0
LWPOLYLINE
  5
241
330
22B
100
AcDbEntity
  8
0
  6
Continuous
 62
     7
100
AcDbPolyline
 90
        2
 70
     0
 43
0.2
 10
157.4219724126
 20
32.7317363858
 10
156.8578658971
 20
32.7317363858
  0
LWPOLYLINE
  5
242
330
22B
100
AcDbEntity
  8
0
  6
Continuous
 62
     7
100
AcDbPolyline
 90
        2
 70
     0
 43
0.2
 10
156.8578658971
 20
32.7317363858
 10
156.8578658971
 20
34.3768180636
  0
LWPOLYLINE
  5
243
330
22B
100
AcDbEntity
  8
0
  6
Continuous
 62
     7
100
AcDbPolyline
 90
        2
 70
     0
 43
0.2
 10
156.8578658971
 20
34.3768180636
 10
156.6262564022
 20
34.3768180636
  0
SPLINE
  5
244
330
22B
100
AcDbEntity
  8
0
  6
Continuous
 62
     7
100
AcDbSpline
 70
     3
 71
     3
 72
    35
 73
    31
 74
     0
 42
0.000000001
 43
0.0000001
 40
0.0
 40
0.0
 40
0.0
 40
0.0
 40
1.0
 40
1.0
 40
1.0
 40
2.0
 40
2.0
 40
2.0
 40
3.0
 40
3.0
 40
3.0
 40
4.0
 40
4.0
 40
4.0
 40
5.0
 40
5.0
 40
5.0
 40
6.0
 40
6.0
 40
6.0
 40
7.0
 40
7.0
 40
7.0
 40
8.0
 40
8.0
 40
8.0
 40
9.0
 40
9.0
 40
9.0
 40
10.0
 40
10.0
 40
10.0
 40
10.0
 10
158.8202656681
 20
33.6723064701
 30
0.0
 10
158.8202656681
 20
33.6723064701
 30
0.0
 10
158.8202656681
 20
33.010191191
 30
0.0
 10
158.8202656681
 20
33.010191191
 30
0.0
 10
158.8202656681
 20
32.6950975957
 30
0.0
 10
158.9681293569
 20
32.4804989677
 30
0.0
 10
159.3082158412
 20
32.4804989677
 30
0.0
 10
159.6477789142
 20
32.4804989677
 30
0.0
 10
159.7959043087
 20
32.6950975957
 30
0.0
 10
159.7959043087
 20
33.010191191
 30
0.0
 10
159.7959043087
 20
33.010191191
 30
0.0
 10
159.7959043087
 20
33.6723064701
 30
0.0
 10
159.7959043087
 20
33.6723064701
 30
0.0
 10
159.7959043087
 20
33.6723064701
 30
0.0
 10
159.5738470698
 20
33.6723064701
 30
0.0
 10
159.5738470698
 20
33.6723064701
 30
0.0
 10
159.5738470698
 20
33.6723064701
 30
0.0
 10
159.5738470698
 20
33.0353149328
 30
0.0
 10
159.5738470698
 20
33.0353149328
 30
0.0
 10
159.5738470698
 20
32.8495039256
 30
0.0
 10
159.5271326124
 20
32.6867230151
 30
0.0
 10
159.3082158412
 20
32.6867230151
 30
0.0
 10
159.0887756588
 20
32.6867230151
 30
0.0
 10
159.0420612014
 20
32.8495039256
 30
0.0
 10
159.0420612014
 20
33.0353149328
 30
0.0
 10
159.0420612014
 20
33.0353149328
 30
0.0
 10
159.0420612014
 20
33.6723064701
 30
0.0
 10
159.0420612014
 20
33.6723064701
 30
0.0
 10
159.0420612014
 20
33.6723064701
 30
0.0
 10
158.8202656681
 20
33.6723064701
 30
0.0
 10
158.8202656681
 20
33.6723064701
 30
0.0
  0
SPLINE
  5
245
330
22B
100
AcDbEntity
  8
0
  6
Continuous
 62
     7
100
AcDbSpline
 70
     3
 71
     3
 72
    35
 73
    31
 74
     0
 42
0.000000001
 43
0.0000001
 40
0.0
 40
0.0
 40
0.0
 40
0.0
 40
1.0
 40
1.0
 40
1.0
 40
2.0
 40
2.0
 40
2.0
 40
3.0
 40
3.0
 40
3.0
 40
4.0
 40
4.0
 40
4.0
 40
5.0
 40
5.0
 40
5.0
 40
6.0
 40
6.0
 40
6.0
 40
7.0
 40
7.0
 40
7.0
 40
8.0
 40
8.0
 40
8.0
 40
9.0
 40
9.0
 40
9.0
 40
10.0
 40
10.0
 40
10.0
 40
10.0
 10
162.2190368659
 20
33.6309569784
 30
0.0
 10
162.1305803583
 20
33.6822512846
 30
0.0
 10
162.0171309616
 20
33.7073750264
 30
0.0
 10
161.9134955266
 20
33.7073750264
 30
0.0
 10
161.5586226734
 20
33.7073750264
 30
0.0
 10
161.2831774832
 20
33.4435757373
 30
0.0
 10
161.2831774832
 20
33.0860858277
 30
0.0
 10
161.2831774832
 20
32.741157789
 30
0.0
 10
161.5616322883
 20
32.481022379
 30
0.0
 10
161.9011953613
 20
32.481022379
 30
0.0
 10
162.0171309616
 20
32.481022379
 30
0.0
 10
162.1178876345
 20
32.503005653
 30
0.0
 10
162.2190368659
 20
32.5569170157
 30
0.0
 10
162.2190368659
 20
32.5569170157
 30
0.0
 10
162.2190368659
 20
32.8395591111
 30
0.0
 10
162.2190368659
 20
32.8395591111
 30
0.0
 10
162.135160207
 20
32.7463919019
 30
0.0
 10
162.0316556248
 20
32.6872464264
 30
0.0
 10
161.9035507121
 20
32.6872464264
 30
0.0
 10
161.6698475721
 20
32.6872464264
 30
0.0
 10
161.504580458
 20
32.8594487401
 30
0.0
 10
161.504580458
 20
33.0960306422
 30
0.0
 10
161.504580458
 20
33.3080122138
 30
0.0
 10
161.6723337757
 20
33.5001041564
 30
0.0
 10
161.8891569017
 20
33.5001041564
 30
0.0
 10
162.021972516
 20
33.5001041564
 30
0.0
 10
162.1305803583
 20
33.4461927938
 30
0.0
 10
162.2190368659
 20
33.3451744152
 30
0.0
 10
162.2190368659
 20
33.3451744152
 30
0.0
 10
162.2190368659
 20
33.6309569784
 30
0.0
 10
162.2190368659
 20
33.6309569784
 30
0.0
  0
SPLINE
  5
246
330
22B
100
AcDbEntity
  8
0
  6
Continuous
 62
     7
100
AcDbSpline
 70
     3
 71
     3
 72
    32
 73
    28
 74
     0
 42
0.000000001
 43
0.0000001
 40
0.0
 40
0.0
 40
0.0
 40
0.0
 40
1.0
 40
1.0
 40
1.0
 40
2.0
 40
2.0
 40
2.0
 40
3.0
 40
3.0
 40
3.0
 40
4.0
 40
4.0
 40
4.0
 40
5.0
 40
5.0
 40
5.0
 40
6.0
 40
6.0
 40
6.0
 40
7.0
 40
7.0
 40
7.0
 40
8.0
 40
8.0
 40
8.0
 40
9.0
 40
9.0
 40
9.0
 40
9.0
 10
164.7509081182
 20
33.0593918521
 30
0.0
 10
164.7509081182
 20
33.0593918521
 30
0.0
 10
164.7509081182
 20
33.0934135858
 30
0.0
 10
164.7509081182
 20
33.0934135858
 30
0.0
 10
164.7509081182
 20
33.435724568
 30
0.0
 10
164.5780515403
 20
33.7073750264
 30
0.0
 10
164.2114019332
 20
33.7073750264
 30
0.0
 10
163.8397799188
 20
33.7073750264
 30
0.0
 10
163.6500433269
 20
33.4409586809
 30
0.0
 10
163.6500433269
 20
33.0860858277
 30
0.0
 10
163.6500433269
 20
32.7463919019
 30
0.0
 10
163.8641185437
 20
32.4804989677
 30
0.0
 10
164.2162434876
 20
32.4804989677
 30
0.0
 10
164.4402635188
 20
32.4804989677
 30
0.0
 10
164.6424311287
 20
32.5961728623
 30
0.0
 10
164.7509081182
 20
32.795592563
 30
0.0
 10
164.7509081182
 20
32.795592563
 30
0.0
 10
164.5632651715
 20
32.9023684657
 30
0.0
 10
164.5632651715
 20
32.9023684657
 30
0.0
 10
164.479781071
 20
32.7636644744
 30
0.0
 10
164.3885766541
 20
32.6778250232
 30
0.0
 10
164.2189913969
 20
32.6778250232
 30
0.0
 10
164.0070098253
 20
32.6778250232
 30
0.0
 10
163.8740633582
 20
32.8625892078
 30
0.0
 10
163.8717080074
 20
33.0593918521
 30
0.0
 10
163.8717080074
 20
33.0593918521
 30
0.0
 10
164.7509081182
 20
33.0593918521
 30
0.0
 10
164.7509081182
 20
33.0593918521
 30
0.0
  0
SPLINE
  5
247
330
22B
100
AcDbEntity
  8
0
  6
Continuous
 62
     7
100
AcDbSpline
 70
     3
 71
     3
 72
    14
 73
    10
 74
     0
 42
0.000000001
 43
0.0000001
 40
0.0
 40
0.0
 40
0.0
 40
0.0
 40
1.0
 40
1.0
 40
1.0
 40
2.0
 40
2.0
 40
2.0
 40
3.0
 40
3.0
 40
3.0
 40
3.0
 10
163.883746467
 20
33.2268834642
 30
0.0
 10
163.9113564124
 20
33.3917580198
 30
0.0
 10
164.0391996195
 20
33.5147596725
 30
0.0
 10
164.2114019332
 20
33.5147596725
 30
0.0
 10
164.3885766541
 20
33.5147596725
 30
0.0
 10
164.5020260508
 20
33.3990857779
 30
0.0
 10
164.5292434377
 20
33.2268834642
 30
0.0
 10
164.5292434377
 20
33.2268834642
 30
0.0
 10
163.883746467
 20
33.2268834642
 30
0.0
 10
163.883746467
 20
33.2268834642
 30
0.0
  0
SPLINE
  5
248
330
22B
100
AcDbEntity
  8
0
  6
Continuous
 62
     7
100
AcDbSpline
 70
     3
 71
     3
 72
    20
 73
    16
 74
     0
 42
0.000000001
 43
0.0000001
 40
0.0
 40
0.0
 40
0.0
 40
0.0
 40
1.0
 40
1.0
 40
1.0
 40
2.0
 40
2.0
 40
2.0
 40
3.0
 40
3.0
 40
3.0
 40
4.0
 40
4.0
 40
4.0
 40
5.0
 40
5.0
 40
5.0
 40
5.0
 10
166.7749395683
 20
33.4362479793
 30
0.0
 10
166.7749395683
 20
33.4362479793
 30
0.0
 10
167.186079135
 20
32.933773143
 30
0.0
 10
167.186079135
 20
32.933773143
 30
0.0
 10
167.0700126819
 20
32.8180992483
 30
0.0
 10
166.9322246604
 20
32.6877698377
 30
0.0
 10
166.7602840523
 20
32.6877698377
 30
0.0
 10
166.5828476257
 20
32.6877698377
 30
0.0
 10
166.4153560136
 20
32.8521209821
 30
0.0
 10
166.4153560136
 20
33.0290339974
 30
0.0
 10
166.4153560136
 20
33.2069938352
 30
0.0
 10
166.6251130872
 20
33.3331359556
 30
0.0
 10
166.7526945886
 20
33.421069052
 30
0.0
 10
166.7526945886
 20
33.421069052
 30
0.0
 10
166.7749395683
 20
33.4362479793
 30
0.0
 10
166.7749395683
 20
33.4362479793
 30
0.0
  0
SPLINE
  5
249
330
22B
100
AcDbEntity
  8
0
  6
Continuous
 62
     7
100
AcDbSpline
 70
     3
 71
     3
 72
    23
 73
    19
 74
     0
 42
0.000000001
 43
0.0000001
 40
0.0
 40
0.0
 40
0.0
 40
0.0
 40
1.0
 40
1.0
 40
1.0
 40
2.0
 40
2.0
 40
2.0
 40
3.0
 40
3.0
 40
3.0
 40
4.0
 40
4.0
 40
4.0
 40
5.0
 40
5.0
 40
5.0
 40
6.0
 40
6.0
 40
6.0
 40
6.0
 10
166.8242710822
 20
33.7272646554
 30
0.0
 10
166.8242710822
 20
33.7272646554
 30
0.0
 10
166.7626394031
 20
33.8057763486
 30
0.0
 10
166.7626394031
 20
33.8057763486
 30
0.0
 10
166.7087280404
 20
33.8743432273
 30
0.0
 10
166.6519379157
 20
33.9434335173
 30
0.0
 10
166.6519379157
 20
34.0371241378
 30
0.0
 10
166.6519379157
 20
34.1559385001
 30
0.0
 10
166.7478530342
 20
34.2334033707
 30
0.0
 10
166.8588162272
 20
34.2334033707
 30
0.0
 10
166.9820795855
 20
34.2334033707
 30
0.0
 10
167.0753776476
 20
34.1622194356
 30
0.0
 10
167.0753776476
 20
34.0318900249
 30
0.0
 10
167.0753776476
 20
33.8968499126
 30
0.0
 10
166.9472727349
 20
33.8204318646
 30
0.0
 10
166.8537129672
 20
33.746630873
 30
0.0
 10
166.8537129672
 20
33.746630873
 30
0.0
 10
166.8242710822
 20
33.7272646554
 30
0.0
 10
166.8242710822
 20
33.7272646554
 30
0.0
  0
SPLINE
  5
24A
330
22B
100
AcDbEntity
  8
0
  6
Continuous
 62
     7
100
AcDbSpline
 70
     3
 71
     3
 72
    50
 73
    46
 74
     0
 42
0.000000001
 43
0.0000001
 40
0.0
 40
0.0
 40
0.0
 40
0.0
 40
1.0
 40
1.0
 40
1.0
 40
2.0
 40
2.0
 40
2.0
 40
3.0
 40
3.0
 40
3.0
 40
4.0
 40
4.0
 40
4.0
 40
5.0
 40
5.0
 40
5.0
 40
6.0
 40
6.0
 40
6.0
 40
7.0
 40
7.0
 40
7.0
 40
8.0
 40
8.0
 40
8.0
 40
9.0
 40
9.0
 40
9.0
 40
10.0
 40
10.0
 40
10.0
 40
11.0
 40
11.0
 40
11.0
 40
12.0
 40
12.0
 40
12.0
 40
13.0
 40
13.0
 40
13.0
 40
14.0
 40
14.0
 40
14.0
 40
15.0
 40
15.0
 40
15.0
 40
15.0
 10
167.5264273249
 20
32.5202782255
 30
0.0
 10
167.5264273249
 20
32.5202782255
 30
0.0
 10
167.8118173296
 20
32.5202782255
 30
0.0
 10
167.8118173296
 20
32.5202782255
 30
0.0
 10
167.8118173296
 20
32.5202782255
 30
0.0
 10
167.4794511618
 20
32.9311560865
 30
0.0
 10
167.4794511618
 20
32.9311560865
 30
0.0
 10
167.4794511618
 20
32.9311560865
 30
0.0
 10
167.7059573966
 20
33.1970490208
 30
0.0
 10
167.7059573966
 20
33.1970490208
 30
0.0
 10
167.7059573966
 20
33.1970490208
 30
0.0
 10
167.5577011494
 20
33.3498851168
 30
0.0
 10
167.5577011494
 20
33.3498851168
 30
0.0
 10
167.5577011494
 20
33.3498851168
 30
0.0
 10
167.3417939931
 20
33.0986476986
 30
0.0
 10
167.3417939931
 20
33.0986476986
 30
0.0
 10
167.3417939931
 20
33.0986476986
 30
0.0
 10
166.9547313457
 20
33.56657739
 30
0.0
 10
166.9547313457
 20
33.56657739
 30
0.0
 10
167.1101844982
 20
33.6806810508
 30
0.0
 10
167.2924624792
 20
33.8204318646
 30
0.0
 10
167.2924624792
 20
34.0297963798
 30
0.0
 10
167.2924624792
 20
34.2737060399
 30
0.0
 10
167.0904257221
 20
34.4171207328
 30
0.0
 10
166.8639194873
 20
34.4171207328
 30
0.0
 10
166.6197481215
 20
34.4171207328
 30
0.0
 10
166.4353764953
 20
34.2663782819
 30
0.0
 10
166.4353764953
 20
34.0099067508
 30
0.0
 10
166.4353764953
 20
33.8523599532
 30
0.0
 10
166.5340395231
 20
33.7147027845
 30
0.0
 10
166.6393760448
 20
33.6037395914
 30
0.0
 10
166.6393760448
 20
33.6037395914
 30
0.0
 10
166.523833003
 20
33.5199937854
 30
0.0
 10
166.523833003
 20
33.5199937854
 30
0.0
 10
166.3461348708
 20
33.3917580198
 30
0.0
 10
166.1987945932
 20
33.2640456656
 30
0.0
 10
166.1987945932
 20
33.0269403522
 30
0.0
 10
166.1987945932
 20
32.706612644
 30
0.0
 10
166.4573597694
 20
32.4804989677
 30
0.0
 10
166.7677426631
 20
32.4804989677
 30
0.0
 10
166.9866594343
 20
32.4804989677
 30
0.0
 10
167.183854637
 20
32.6055942655
 30
0.0
 10
167.3241288621
 20
32.7715156437
 30
0.0
 10
167.3241288621
 20
32.7715156437
 30
0.0
 10
167.5264273249
 20
32.5202782255
 30
0.0
 10
167.5264273249
 20
32.5202782255
 30
0.0
  0
LWPOLYLINE
  5
24B
330
22B
100
AcDbEntity
  8
0
  6
Continuous
 62
     7
100
AcDbPolyline
 90
        2
 70
     0
 43
0.2
 10
169.4618714146
 20
34.3768180636
 10
169.2305236254
 20
34.3768180636
  0
LWPOLYLINE
  5
24C
330
22B
100
AcDbEntity
  8
0
  6
Continuous
 62
     7
100
AcDbPolyline
 90
        2
 70
     0
 43
0.2
 10
169.2305236254
 20
34.3768180636
 10
169.2305236254
 20
32.5197548143
  0
LWPOLYLINE
  5
24D
330
22B
100
AcDbEntity
  8
0
  6
Continuous
 62
     7
100
AcDbPolyline
 90
        2
 70
     0
 43
0.2
 10
169.2305236254
 20
32.5197548143
 10
170.0258470773
 20
32.5197548143
  0
LWPOLYLINE
  5
24E
330
22B
100
AcDbEntity
  8
0
  6
Continuous
 62
     7
100
AcDbPolyline
 90
        2
 70
     0
 43
0.2
 10
170.0258470773
 20
32.5197548143
 10
170.0258470773
 20
32.7317363858
  0
LWPOLYLINE
  5
24F
330
22B
100
AcDbEntity
  8
0
  6
Continuous
 62
     7
100
AcDbPolyline
 90
        2
 70
     0
 43
0.2
 10
170.0258470773
 20
32.7317363858
 10
169.4618714146
 20
32.7317363858
  0
LWPOLYLINE
  5
250
330
22B
100
AcDbEntity
  8
0
  6
Continuous
 62
     7
100
AcDbPolyline
 90
        2
 70
     0
 43
0.2
 10
169.4618714146
 20
32.7317363858
 10
169.4618714146
 20
34.3768180636
  0
LWPOLYLINE
  5
251
330
22B
100
AcDbEntity
  8
0
  6
Continuous
 62
     7
100
AcDbPolyline
 90
        2
 70
     0
 43
0.2
 10
171.7049504888
 20
33.6723064701
 10
171.4838092197
 20
33.6723064701
  0
LWPOLYLINE
  5
252
330
22B
100
AcDbEntity
  8
0
  6
Continuous
 62
     7
100
AcDbPolyline
 90
        2
 70
     0
 43
0.2
 10
171.4838092197
 20
33.6723064701
 10
171.4838092197
 20
32.5202782255
  0
LWPOLYLINE
  5
253
330
22B
100
AcDbEntity
  8
0
  6
Continuous
 62
     7
100
AcDbPolyline
 90
        2
 70
     0
 43
0.2
 10
171.4838092197
 20
32.5202782255
 10
171.7049504888
 20
32.5202782255
  0
LWPOLYLINE
  5
254
330
22B
100
AcDbEntity
  8
0
  6
Continuous
 62
     7
100
AcDbPolyline
 90
        2
 70
     0
 43
0.2
 10
171.7049504888
 20
32.5202782255
 10
171.7049504888
 20
33.6723064701
  0
SPLINE
  5
255
330
22B
100
AcDbEntity
  8
0
  6
Continuous
 62
     7
100
AcDbSpline
 70
     3
 71
     3
 72
    17
 73
    13
 74
     0
 42
0.000000001
 43
0.0000001
 40
0.0
 40
0.0
 40
0.0
 40
0.0
 40
1.0
 40
1.0
 40
1.0
 40
2.0
 40
2.0
 40
2.0
 40
3.0
 40
3.0
 40
3.0
 40
4.0
 40
4.0
 40
4.0
 40
4.0
 10
171.5945107071
 20
34.3548347895
 30
0.0
 10
171.5105031954
 20
34.3548347895
 30
0.0
 10
171.4419363166
 20
34.2857444995
 30
0.0
 10
171.4419363166
 20
34.1999050483
 30
0.0
 10
171.4419363166
 20
34.115635831
 30
0.0
 10
171.5105031954
 20
34.0496860087
 30
0.0
 10
171.5945107071
 20
34.0496860087
 30
0.0
 10
171.6782565131
 20
34.0496860087
 30
0.0
 10
171.7470850975
 20
34.115635831
 30
0.0
 10
171.7470850975
 20
34.1999050483
 30
0.0
 10
171.7470850975
 20
34.2857444995
 30
0.0
 10
171.6782565131
 20
34.3548347895
 30
0.0
 10
171.5945107071
 20
34.3548347895
 30
0.0
  0
SPLINE
  5
256
330
22B
100
AcDbEntity
  8
0
  6
Continuous
 62
     7
100
AcDbSpline
 70
     3
 71
     3
 72
    17
 73
    13
 74
     0
 42
0.000000001
 43
0.0000001
 40
0.0
 40
0.0
 40
0.0
 40
0.0
 40
1.0
 40
1.0
 40
1.0
 40
2.0
 40
2.0
 40
2.0
 40
3.0
 40
3.0
 40
3.0
 40
4.0
 40
4.0
 40
4.0
 40
4.0
 10
173.8352344304
 20
32.6778250232
 30
0.0
 10
173.6012695848
 20
32.6778250232
 30
0.0
 10
173.4709401741
 20
32.8798617803
 30
0.0
 10
173.4709401741
 20
33.0960306422
 30
0.0
 10
173.4709401741
 20
33.3106292702
 30
0.0
 10
173.6067654033
 20
33.5095255596
 30
0.0
 10
173.8352344304
 20
33.5095255596
 30
0.0
 10
174.0746950946
 20
33.5095255596
 30
0.0
 10
174.2102586182
 20
33.3205740847
 30
0.0
 10
174.2102586182
 20
33.0960306422
 30
0.0
 10
174.2102586182
 20
32.8699169658
 30
0.0
 10
174.0770504454
 20
32.6778250232
 30
0.0
 10
173.8352344304
 20
32.6778250232
 30
0.0
  0
SPLINE
  5
257
330
22B
100
AcDbEntity
  8
0
  6
Continuous
 62
     7
100
AcDbSpline
 70
     3
 71
     3
 72
    50
 73
    46
 74
     0
 42
0.000000001
 43
0.0000001
 40
0.0
 40
0.0
 40
0.0
 40
0.0
 40
1.0
 40
1.0
 40
1.0
 40
2.0
 40
2.0
 40
2.0
 40
3.0
 40
3.0
 40
3.0
 40
4.0
 40
4.0
 40
4.0
 40
5.0
 40
5.0
 40
5.0
 40
6.0
 40
6.0
 40
6.0
 40
7.0
 40
7.0
 40
7.0
 40
8.0
 40
8.0
 40
8.0
 40
9.0
 40
9.0
 40
9.0
 40
10.0
 40
10.0
 40
10.0
 40
11.0
 40
11.0
 40
11.0
 40
12.0
 40
12.0
 40
12.0
 40
13.0
 40
13.0
 40
13.0
 40
14.0
 40
14.0
 40
14.0
 40
15.0
 40
15.0
 40
15.0
 40
15.0
 10
174.4193614277
 20
33.6728298814
 30
0.0
 10
174.4193614277
 20
33.6728298814
 30
0.0
 10
174.1976967473
 20
33.6728298814
 30
0.0
 10
174.1976967473
 20
33.6728298814
 30
0.0
 10
174.1976967473
 20
33.6728298814
 30
0.0
 10
174.1976967473
 20
33.4755038259
 30
0.0
 10
174.1976967473
 20
33.4755038259
 30
0.0
 10
174.1976967473
 20
33.4755038259
 30
0.0
 10
174.1929860457
 20
33.4755038259
 30
0.0
 10
174.1929860457
 20
33.4755038259
 30
0.0
 10
174.101650776
 20
33.6183951075
 30
0.0
 10
173.9637319016
 20
33.7068516151
 30
0.0
 10
173.7910061766
 20
33.7068516151
 30
0.0
 10
173.4586400088
 20
33.7068516151
 30
0.0
 10
173.2495371993
 20
33.4189754068
 30
0.0
 10
173.2495371993
 20
33.1033584002
 30
0.0
 10
173.2495371993
 20
32.7736092889
 30
0.0
 10
173.4466015492
 20
32.4804989677
 30
0.0
 10
173.8014744024
 20
32.4804989677
 30
0.0
 10
173.9637319016
 20
32.4804989677
 30
0.0
 10
174.1037444211
 20
32.5689554753
 30
0.0
 10
174.1929860457
 20
32.6998082973
 30
0.0
 10
174.1929860457
 20
32.6998082973
 30
0.0
 10
174.1976967473
 20
32.6998082973
 30
0.0
 10
174.1976967473
 20
32.6998082973
 30
0.0
 10
174.1976967473
 20
32.6998082973
 30
0.0
 10
174.1976967473
 20
32.4804989677
 30
0.0
 10
174.1976967473
 20
32.4804989677
 30
0.0
 10
174.1976967473
 20
32.2439170656
 30
0.0
 10
174.1411683282
 20
32.0570592358
 30
0.0
 10
173.8679476359
 20
32.0570592358
 30
0.0
 10
173.6656491732
 20
32.0570592358
 30
0.0
 10
173.5230195972
 20
32.1753501868
 30
0.0
 10
173.5230195972
 20
32.3815742343
 30
0.0
 10
173.5230195972
 20
32.3815742343
 30
0.0
 10
173.3013549168
 20
32.3815742343
 30
0.0
 10
173.3013549168
 20
32.3815742343
 30
0.0
 10
173.306327324
 20
32.0570592358
 30
0.0
 10
173.5374134076
 20
31.8602565915
 30
0.0
 10
173.8577411158
 20
31.8602565915
 30
0.0
 10
174.3057811782
 20
31.8602565915
 30
0.0
 10
174.4193614277
 20
32.1455157434
 30
0.0
 10
174.4193614277
 20
32.5422614996
 30
0.0
 10
174.4193614277
 20
32.5422614996
 30
0.0
 10
174.4193614277
 20
33.6728298814
 30
0.0
 10
174.4193614277
 20
33.6728298814
 30
0.0
  0
SPLINE
  5
258
330
22B
100
AcDbEntity
  8
0
  6
Continuous
 62
     7
100
AcDbSpline
 70
     3
 71
     3
 72
    44
 73
    40
 74
     0
 42
0.000000001
 43
0.0000001
 40
0.0
 40
0.0
 40
0.0
 40
0.0
 40
1.0
 40
1.0
 40
1.0
 40
2.0
 40
2.0
 40
2.0
 40
3.0
 40
3.0
 40
3.0
 40
4.0
 40
4.0
 40
4.0
 40
5.0
 40
5.0
 40
5.0
 40
6.0
 40
6.0
 40
6.0
 40
7.0
 40
7.0
 40
7.0
 40
8.0
 40
8.0
 40
8.0
 40
9.0
 40
9.0
 40
9.0
 40
10.0
 40
10.0
 40
10.0
 40
11.0
 40
11.0
 40
11.0
 40
12.0
 40
12.0
 40
12.0
 40
13.0
 40
13.0
 40
13.0
 40
13.0
 10
175.9882867631
 20
34.6578899252
 30
0.0
 10
175.9882867631
 20
34.6578899252
 30
0.0
 10
175.9882867631
 20
32.5197548143
 30
0.0
 10
175.9882867631
 20
32.5197548143
 30
0.0
 10
175.9882867631
 20
32.5197548143
 30
0.0
 10
176.2096897379
 20
32.5197548143
 30
0.0
 10
176.2096897379
 20
32.5197548143
 30
0.0
 10
176.2096897379
 20
32.5197548143
 30
0.0
 10
176.2096897379
 20
33.0494470376
 30
0.0
 10
176.2096897379
 20
33.0494470376
 30
0.0
 10
176.2096897379
 20
33.259334964
 30
0.0
 10
176.2096897379
 20
33.5100489709
 30
0.0
 10
176.4949488897
 20
33.5100489709
 30
0.0
 10
176.721847683
 20
33.5100489709
 30
0.0
 10
176.7488033644
 20
33.3771025038
 30
0.0
 10
176.7488033644
 20
33.1808232708
 30
0.0
 10
176.7488033644
 20
33.1808232708
 30
0.0
 10
176.7488033644
 20
32.5197548143
 30
0.0
 10
176.7488033644
 20
32.5197548143
 30
0.0
 10
176.7488033644
 20
32.5197548143
 30
0.0
 10
176.9707297504
 20
32.5197548143
 30
0.0
 10
176.9707297504
 20
32.5197548143
 30
0.0
 10
176.9707297504
 20
32.5197548143
 30
0.0
 10
176.9707297504
 20
33.2069938352
 30
0.0
 10
176.9707297504
 20
33.2069938352
 30
0.0
 10
176.9707297504
 20
33.4875422855
 30
0.0
 10
176.8867222387
 20
33.7073750264
 30
0.0
 10
176.5616838289
 20
33.7073750264
 30
0.0
 10
176.4219330151
 20
33.7073750264
 30
0.0
 10
176.2837524351
 20
33.6409017929
 30
0.0
 10
176.2144004394
 20
33.5179001402
 30
0.0
 10
176.2144004394
 20
33.5179001402
 30
0.0
 10
176.2096897379
 20
33.5179001402
 30
0.0
 10
176.2096897379
 20
33.5179001402
 30
0.0
 10
176.2096897379
 20
33.5179001402
 30
0.0
 10
176.2096897379
 20
34.6578899252
 30
0.0
 10
176.2096897379
 20
34.6578899252
 30
0.0
 10
176.2096897379
 20
34.6578899252
 30
0.0
 10
175.9882867631
 20
34.6578899252
 30
0.0
 10
175.9882867631
 20
34.6578899252
 30
0.0
  0
LWPOLYLINE
  5
259
330
22B
100
AcDbEntity
  8
0
  6
Continuous
 62
     7
100
AcDbPolyline
 90
        2
 70
     0
 43
0.2
 10
178.8105204273
 20
33.4655590114
 10
179.0269509948
 20
33.4655590114
  0
LWPOLYLINE
  5
25A
330
22B
100
AcDbEntity
  8
0
  6
Continuous
 62
     7
100
AcDbPolyline
 90
        2
 70
     0
 43
0.2
 10
179.0269509948
 20
33.4655590114
 10
179.0269509948
 20
33.6723064701
  0
LWPOLYLINE
  5
25B
330
22B
100
AcDbEntity
  8
0
  6
Continuous
 62
     7
100
AcDbPolyline
 90
        2
 70
     0
 43
0.2
 10
179.0269509948
 20
33.6723064701
 10
178.8105204273
 20
33.6723064701
  0
LWPOLYLINE
  5
25C
330
22B
100
AcDbEntity
  8
0
  6
Continuous
 62
     7
100
AcDbPolyline
 90
        2
 70
     0
 43
0.2
 10
178.8105204273
 20
33.6723064701
 10
178.8105204273
 20
34.1130187745
  0
LWPOLYLINE
  5
25D
330
22B
100
AcDbEntity
  8
0
  6
Continuous
 62
     7
100
AcDbPolyline
 90
        2
 70
     0
 43
0.2
 10
178.8105204273
 20
34.1130187745
 10
178.5888557469
 20
34.1130187745
  0
LWPOLYLINE
  5
25E
330
22B
100
AcDbEntity
  8
0
  6
Continuous
 62
     7
100
AcDbPolyline
 90
        2
 70
     0
 43
0.2
 10
178.5888557469
 20
34.1130187745
 10
178.5888557469
 20
33.6723064701
  0
LWPOLYLINE
  5
25F
330
22B
100
AcDbEntity
  8
0
  6
Continuous
 62
     7
100
AcDbPolyline
 90
        2
 70
     0
 43
0.2
 10
178.5888557469
 20
33.6723064701
 10
178.468209445
 20
33.6723064701
  0
LWPOLYLINE
  5
260
330
22B
100
AcDbEntity
  8
0
  6
Continuous
 62
     7
100
AcDbPolyline
 90
        2
 70
     0
 43
0.2
 10
178.468209445
 20
33.6723064701
 10
178.468209445
 20
33.4655590114
  0
LWPOLYLINE
  5
261
330
22B
100
AcDbEntity
  8
0
  6
Continuous
 62
     7
100
AcDbPolyline
 90
        2
 70
     0
 43
0.2
 10
178.468209445
 20
33.4655590114
 10
178.5888557469
 20
33.4655590114
  0
LWPOLYLINE
  5
262
330
22B
100
AcDbEntity
  8
0
  6
Continuous
 62
     7
100
AcDbPolyline
 90
        2
 70
     0
 43
0.2
 10
178.5888557469
 20
33.4655590114
 10
178.5888557469
 20
32.5197548143
  0
LWPOLYLINE
  5
263
330
22B
100
AcDbEntity
  8
0
  6
Continuous
 62
     7
100
AcDbPolyline
 90
        2
 70
     0
 43
0.2
 10
178.5888557469
 20
32.5197548143
 10
178.8105204273
 20
32.5197548143
  0
LWPOLYLINE
  5
264
330
22B
100
AcDbEntity
  8
0
  6
Continuous
 62
     7
100
AcDbPolyline
 90
        2
 70
     0
 43
0.2
 10
178.8105204273
 20
32.5197548143
 10
178.8105204273
 20
33.4655590114
  0
SPLINE
  5
265
330
22B
100
AcDbEntity
  8
0
  6
Continuous
 62
     7
100
AcDbSpline
 70
     3
 71
     3
 72
    20
 73
    16
 74
     0
 42
0.000000001
 43
0.0000001
 40
0.0
 40
0.0
 40
0.0
 40
0.0
 40
1.0
 40
1.0
 40
1.0
 40
2.0
 40
2.0
 40
2.0
 40
3.0
 40
3.0
 40
3.0
 40
4.0
 40
4.0
 40
4.0
 40
5.0
 40
5.0
 40
5.0
 40
5.0
 10
166.5925307345
 20
42.8806812576
 30
0.0
 10
166.5925307345
 20
42.8806812576
 30
0.0
 10
168.908887389
 20
40.0511198354
 30
0.0
 10
168.908887389
 20
40.0511198354
 30
0.0
 10
168.2572403356
 20
39.3989493707
 30
0.0
 10
167.4803671316
 20
38.6630331
 30
0.0
 10
166.5091774869
 20
38.6630331
 30
0.0
 10
165.5106396025
 20
38.6630331
 30
0.0
 10
164.5673216089
 20
39.5926115472
 30
0.0
 10
164.5673216089
 20
40.5918036958
 30
0.0
 10
164.5673216089
 20
41.5909958443
 30
0.0
 10
165.746174682
 20
42.297601083
 30
0.0
 10
166.4676971424
 20
42.7974588629
 30
0.0
 10
166.4676971424
 20
42.7974588629
 30
0.0
 10
166.5925307345
 20
42.8806812576
 30
0.0
 10
166.5925307345
 20
42.8806812576
 30
0.0
  0
SPLINE
  5
266
330
22B
100
AcDbEntity
  8
0
  6
Continuous
 62
     7
100
AcDbSpline
 70
     3
 71
     3
 72
    23
 73
    19
 74
     0
 42
0.000000001
 43
0.0000001
 40
0.0
 40
0.0
 40
0.0
 40
0.0
 40
1.0
 40
1.0
 40
1.0
 40
2.0
 40
2.0
 40
2.0
 40
3.0
 40
3.0
 40
3.0
 40
4.0
 40
4.0
 40
4.0
 40
5.0
 40
5.0
 40
5.0
 40
6.0
 40
6.0
 40
6.0
 40
6.0
 10
166.8699387171
 20
44.5184351774
 30
0.0
 10
166.8699387171
 20
44.5184351774
 30
0.0
 10
166.5234404445
 20
44.9617645382
 30
0.0
 10
166.5234404445
 20
44.9617645382
 30
0.0
 10
166.2176373996
 20
45.3498740082
 30
0.0
 10
165.8987490725
 20
45.7383760366
 30
0.0
 10
165.8987490725
 20
46.2653203507
 30
0.0
 10
165.8987490725
 20
46.9314920673
 30
0.0
 10
166.4400871969
 20
47.3752139866
 30
0.0
 10
167.0639934521
 20
47.3752139866
 30
0.0
 10
167.7577751141
 20
47.3752139866
 30
0.0
 10
168.2849811339
 20
46.9729724119
 30
0.0
 10
168.2849811339
 20
46.2379721109
 30
0.0
 10
168.2849811339
 20
45.4747076003
 30
0.0
 10
167.5637203792
 20
45.0445943745
 30
0.0
 10
167.0366452123
 20
44.6288749591
 30
0.0
 10
167.0366452123
 20
44.6288749591
 30
0.0
 10
166.8699387171
 20
44.5184351774
 30
0.0
 10
166.8699387171
 20
44.5184351774
 30
0.0
  0
SPLINE
  5
267
330
22B
100
AcDbEntity
  8
0
  6
Continuous
 62
     7
100
AcDbSpline
 70
     3
 71
     3
 72
    50
 73
    46
 74
     0
 42
0.000000001
 43
0.0000001
 40
0.0
 40
0.0
 40
0.0
 40
0.0
 40
1.0
 40
1.0
 40
1.0
 40
2.0
 40
2.0
 40
2.0
 40
3.0
 40
3.0
 40
3.0
 40
4.0
 40
4.0
 40
4.0
 40
5.0
 40
5.0
 40
5.0
 40
6.0
 40
6.0
 40
6.0
 40
7.0
 40
7.0
 40
7.0
 40
8.0
 40
8.0
 40
8.0
 40
9.0
 40
9.0
 40
9.0
 40
10.0
 40
10.0
 40
10.0
 40
11.0
 40
11.0
 40
11.0
 40
12.0
 40
12.0
 40
12.0
 40
13.0
 40
13.0
 40
13.0
 40
14.0
 40
14.0
 40
14.0
 40
15.0
 40
15.0
 40
15.0
 40
15.0
 10
170.82352588
 20
37.7198459592
 30
0.0
 10
170.82352588
 20
37.7198459592
 30
0.0
 10
172.4327538846
 20
37.7198459592
 30
0.0
 10
172.4327538846
 20
37.7198459592
 30
0.0
 10
172.4327538846
 20
37.7198459592
 30
0.0
 10
170.5597265909
 20
40.0369877306
 30
0.0
 10
170.5597265909
 20
40.0369877306
 30
0.0
 10
170.5597265909
 20
40.0369877306
 30
0.0
 10
171.8360650164
 20
41.5344674252
 30
0.0
 10
171.8360650164
 20
41.5344674252
 30
0.0
 10
171.8360650164
 20
41.5344674252
 30
0.0
 10
171.0038410687
 20
42.3954789938
 30
0.0
 10
171.0038410687
 20
42.3954789938
 30
0.0
 10
171.0038410687
 20
42.3954789938
 30
0.0
 10
169.7832459454
 20
40.9801748714
 30
0.0
 10
169.7832459454
 20
40.9801748714
 30
0.0
 10
169.7832459454
 20
40.9801748714
 30
0.0
 10
167.6053315766
 20
43.6155507058
 30
0.0
 10
167.6053315766
 20
43.6155507058
 30
0.0
 10
168.478905016
 20
44.2535890657
 30
0.0
 10
169.5055762572
 20
45.0445943745
 30
0.0
 10
169.5055762572
 20
46.2234474476
 30
0.0
 10
169.5055762572
 20
47.5971403726
 30
0.0
 10
168.3676801173
 20
48.4016235221
 30
0.0
 10
167.0923885144
 20
48.4016235221
 30
0.0
 10
165.7189572951
 20
48.4016235221
 30
0.0
 10
164.6780230963
 20
47.5553983224
 30
0.0
 10
164.6780230963
 20
46.1127459602
 30
0.0
 10
164.6780230963
 20
45.2251712688
 30
0.0
 10
165.2333624727
 20
44.4482980648
 30
0.0
 10
165.8295279296
 20
43.8238683984
 30
0.0
 10
165.8295279296
 20
43.8238683984
 30
0.0
 10
165.1776191706
 20
43.352274828
 30
0.0
 10
165.1776191706
 20
43.352274828
 30
0.0
 10
164.1790812862
 20
42.6310140733
 30
0.0
 10
163.3462030743
 20
41.9097533186
 30
0.0
 10
163.3462030743
 20
40.5781950023
 30
0.0
 10
163.3462030743
 20
38.7745197043
 30
0.0
 10
164.8032492469
 20
37.4979195732
 30
0.0
 10
166.5507886843
 20
37.4979195732
 30
0.0
 10
167.7856467652
 20
37.4979195732
 30
0.0
 10
168.8950169899
 20
38.2060950457
 30
0.0
 10
169.6858914458
 20
39.1346266704
 30
0.0
 10
169.6858914458
 20
39.1346266704
 30
0.0
 10
170.82352588
 20
37.7198459592
 30
0.0
 10
170.82352588
 20
37.7198459592
 30
0.0
  0
LINE
  5
268
330
22B
100
AcDbEntity
  8
0
  6
Continuous
 62
     7
100
AcDbLine
 10
156.626387255
 20
35.6937208639
 30
0.0
 11
179.0402979827
 21
35.6937208639
 31
0.0
  0
LINE
  5
269
330
22B
100
AcDbEntity
  8
0
  6
Continuous
 62
     7
100
AcDbLine
 10
179.0402979827
 20
35.6937208639
 30
0.0
 11
179.0402979827
 21
58.1076315915
 31
0.0
  0
LINE
  5
26A
330
22B
100
AcDbEntity
  8
0
  6
Continuous
 62
     7
100
AcDbLine
 10
179.0402979827
 20
58.1076315915
 30
0.0
 11
156.626387255
 21
58.1076315915
 31
0.0
  0
LINE
  5
26B
330
22B
100
AcDbEntity
  8
0
  6
Continuous
 62
     7
100
AcDbLine
 10
156.626387255
 20
58.1076315915
 30
0.0
 11
156.626387255
 21
35.6937208639
 31
0.0
  0
ENDBLK
  5
26C
330
22B
100
AcDbEntity
  8
0
  6
ByBlock
 62
     0
100
AcDbBlockEnd
  0
BLOCK
  5
26D
330
22C
100
AcDbEntity
  8
0
100
AcDbBlockBegin
  2
PROIEZIONE_EU_BL0
 70
     0
 10
169.0072301476
 20
70.6089440915
 30
0.0
  3
PROIEZIONE_EU_BL0
  1

  0
LWPOLYLINE
  5
26E
330
22C
100
AcDbEntity
  8
DEFAULT_1
  6
CENTER
 62
     7
100
AcDbPolyline
 90
        2
 70
     0
 43
0.25
 10
175.1338508093
 20
75.6086382234
 10
175.1338917917
 20
65.6092499597
  0
LWPOLYLINE
  5
26F
330
22C
100
AcDbEntity
  8
DEFAULT_1
  6
CENTER
 62
     7
100
AcDbPolyline
 90
        2
 70
     0
 43
0.25
 10
181.1338806344
 20
70.6092152267
 10
156.8805796609
 20
70.6089445663
  0
LWPOLYLINE
  5
270
330
22C
100
AcDbEntity
  8
0
  6
Continuous
 62
     7
100
AcDbPolyline
 90
        2
 70
     1
 43
0.25
 10
171.5867406335
 20
70.5903963373
 42
1.0
 10
178.6930697321
 20
70.5903963373
 42
1.0
  0
LWPOLYLINE
  5
271
330
22C
100
AcDbEntity
  8
0
  6
Continuous
 62
     7
100
AcDbPolyline
 90
        2
 70
     1
 43
0.25
 10
173.1364844619
 20
70.6082943819
 42
1.0
 10
177.1482362119
 20
70.6082943819
 42
1.0
  0
LWPOLYLINE
  5
272
330
22C
100
AcDbEntity
  8
0
  6
Continuous
 62
     7
100
AcDbPolyline
 90
        2
 70
     0
 43
0.25
 10
169.1338784284
 20
74.1841475868
 10
169.1338780738
 20
67.0839446785
  0
LWPOLYLINE
  5
273
330
22C
100
AcDbEntity
  8
0
  6
Continuous
 62
     7
100
AcDbPolyline
 90
        2
 70
     0
 43
0.25
 10
169.1339065102
 20
67.0839162421
 10
159.139349239
 20
68.6040096549
  0
LWPOLYLINE
  5
274
330
22C
100
AcDbEntity
  8
0
  6
Continuous
 62
     7
100
AcDbPolyline
 90
        2
 70
     0
 43
0.25
 10
159.1370392534
 20
68.6033321134
 10
159.1343723493
 20
72.6089707248
  0
LWPOLYLINE
  5
275
330
22C
100
AcDbEntity
  8
0
  6
Continuous
 62
     7
100
AcDbPolyline
 90
        2
 70
     0
 43
0.25
 10
159.1343640732
 20
72.6089624487
 10
169.1341073105
 20
74.1841196688
  0
ENDBLK
  5
276
330
22C
100
AcDbEntity
  8
0
  6
ByBlock
 62
     0
100
AcDbBlockEnd
  0
ENDSEC
  0
SECTION
  2
ENTITIES
  0
LWPOLYLINE
  5
29F
330
225
100
AcDbEntity
 67
     1
  8
0
  6
Continuous
 62
     7
100
AcDbPolyline
 90
        2
 70
     0
 43
0.5
 10
284.0
 20
13.0
 10
284.0
 20
197.0
  0
LWPOLYLINE
  5
2A0
330
225
100
AcDbEntity
 67
     1
  8
0
  6
Continuous
 62
     7
100
AcDbPolyline
 90
        2
 70
     0
 43
0.5
 10
13.0
 20
13.0
 10
13.0
 20
197.0
  0
LWPOLYLINE
  5
2A1
330
225
100
AcDbEntity
 67
     1
  8
0
  6
Continuous
 62
     7
100
AcDbPolyline
 90
        2
 70
     0
 43
0.5
 10
13.0
 20
13.0
 10
284.0
 20
13.0
  0
LWPOLYLINE
  5
2A2
330
225
100
AcDbEntity
 67
     1
  8
0
  6
Continuous
 62
     7
100
AcDbPolyline
 90
        2
 70
     0
 43
0.1
 10
148.5
 20
197.0
 10
148.5
 20
200.0
  0
LWPOLYLINE
  5
2A3
330
225
100
AcDbEntity
 67
     1
  8
0
  6
Continuous
 62
     7
100
AcDbPolyline
 90
        2
 70
     0
 43
0.1
 10
284.0
 20
105.0
 10
287.0
 20
105.0
  0
LWPOLYLINE
  5
2A4
330
225
100
AcDbEntity
 67
     1
  8
0
  6
Continuous
 62
     7
100
AcDbPolyline
 90
        2
 70
     0
 43
0.1
 10
13.0
 20
105.0
 10
10.0
 20
105.0
  0
LWPOLYLINE
  5
2A5
330
225
100
AcDbEntity
 67
     1
  8
0
  6
Continuous
 62
     7
100
AcDbPolyline
 90
        2
 70
     0
 43
0.5
 10
13.0
 20
197.0
 10
284.0
 20
197.0
  0
LWPOLYLINE
  5
2A6
330
225
100
AcDbEntity
 67
     1
  8
0
  6
Continuous
 62
     7
100
AcDbPolyline
 90
        2
 70
     0
 43
0.1
 10
10.0
 20
200.0
 10
287.0
 20
200.0
  0
LWPOLYLINE
  5
2A7
330
225
100
AcDbEntity
 67
     1
  8
0
  6
Continuous
 62
     7
100
AcDbPolyline
 90
        2
 70
     0
 43
0.1
 10
10.0
 20
10.0
 10
10.0
 20
200.0
  0
LWPOLYLINE
  5
2A8
330
225
100
AcDbEntity
 67
     1
  8
0
  6
Continuous
 62
     7
100
AcDbPolyline
 90
        2
 70
     0
 43
0.1
 10
287.0
 20
10.0
 10
287.0
 20
200.0
  0
LWPOLYLINE
  5
2A9
330
225
100
AcDbEntity
 67
     1
  8
0
  6
Continuous
 62
     7
100
AcDbPolyline
 90
        2
 70
     0
 43
0.1
 10
10.0
 20
10.0
 10
287.0
 20
10.0
  0
LWPOLYLINE
  5
2AA
330
225
100
AcDbEntity
 67
     1
  8
0
  6
Continuous
 62
     7
100
AcDbPolyline
 90
        2
 70
     0
 43
0.1
 10
148.5
 20
13.0
 10
148.5
 20
10.0
  0
VIEWPORT
  5
2AB
330
225
100
AcDbEntity
 67
     1
  8
0
100
AcDbViewport
 10
148.5
 20
105.0
 30
0.0
 40
297.0
 41
210.0
 68
     1
 69
     1
 12
148.5
 22
105.0
 13
0.0
 23
0.0
 14
10.0
 24
10.0
 15
10.0
 25
10.0
 16
0.0
 26
0.0
 36
1.0
 17
0.0
 27
0.0
 37
0.0
 42
50.0
 43
0.0
 44
0.0
 45
210.0
 50
0.0
 51
0.0
 72
   100
 90
    32864
  1

281
     0
 71
     1
 74
     0
110
0.0
120
0.0
130
0.0
111
1.0
121
0.0
131
0.0
112
0.0
122
1.0
132
0.0
 79
     0
146
0.0
170
     0
 61
     5
348
516
292
     1
282
     1
141
0.0
142
0.0
 63
   256
  0
LINE
  5
2AC
330
225
100
AcDbEntity
 67
     1
  8
3_ALL_AXES
  6
Continuous
 62
     7
100
AcDbLine
 10
112.1271596913
 20
52.5688089373
 30
0.0
 11
112.1271596913
 21
52.60223099
 31
0.0
  0
LINE
  5
2AD
330
225
100
AcDbEntity
 67
     1
  8
3_ALL_AXES
  6
Continuous
 62
     7
100
AcDbLine
 10
112.1271596913
 20
52.60223099
 30
0.0
 11
112.1271596913
 21
53.1795812592
 31
0.0
  0
LINE
  5
2AE
330
225
100
AcDbEntity
 67
     1
  8
3_ALL_AXES
  6
Continuous
 62
     7
100
AcDbLine
 10
112.1271596913
 20
53.1795812592
 30
0.0
 11
112.1271596913
 21
54.3342817976
 31
0.0
  0
LINE
  5
2AF
330
225
100
AcDbEntity
 67
     1
  8
3_ALL_AXES
  6
Continuous
 62
     7
100
AcDbLine
 10
112.1271596913
 20
54.3342817976
 30
0.0
 11
112.1271596913
 21
54.9116320668
 31
0.0
  0
LINE
  5
2B0
330
225
100
AcDbEntity
 67
     1
  8
3_ALL_AXES
  6
Continuous
 62
     7
100
AcDbLine
 10
112.1271596913
 20
54.9116320668
 30
0.0
 11
112.1271596913
 21
54.9450228283
 31
0.0
  0
LINE
  5
2B1
330
225
100
AcDbEntity
 67
     1
  8
3_ALL_AXES
  6
Continuous
 62
     7
100
AcDbLine
 10
55.1271596913
 20
54.9450540946
 30
0.0
 11
55.1271596913
 21
54.9116320668
 31
0.0
  0
LINE
  5
2B2
330
225
100
AcDbEntity
 67
     1
  8
3_ALL_AXES
  6
Continuous
 62
     7
100
AcDbLine
 10
55.1271596913
 20
54.9116320668
 30
0.0
 11
55.1271596913
 21
54.3342817976
 31
0.0
  0
LINE
  5
2B3
330
225
100
AcDbEntity
 67
     1
  8
3_ALL_AXES
  6
Continuous
 62
     7
100
AcDbLine
 10
55.1271596913
 20
54.3342817976
 30
0.0
 11
55.1271596913
 21
53.1795812592
 31
0.0
  0
LINE
  5
2B4
330
225
100
AcDbEntity
 67
     1
  8
3_ALL_AXES
  6
Continuous
 62
     7
100
AcDbLine
 10
55.1271596913
 20
53.1795812592
 30
0.0
 11
55.1271596913
 21
52.60223099
 31
0.0
  0
LINE
  5
2B5
330
225
100
AcDbEntity
 67
     1
  8
3_ALL_AXES
  6
Continuous
 62
     7
100
AcDbLine
 10
55.1271596913
 20
52.60223099
 30
0.0
 11
55.1271596913
 21
52.5688401286
 31
0.0
  0
LINE
  5
2B6
330
225
100
AcDbEntity
 67
     1
  8
7_ALL_FEATURES
  6
Continuous
 62
     7
100
AcDbLine
 10
88.3810465489
 20
86.8914385707
 30
0.0
 11
88.3446882645
 21
86.8914385707
 31
0.0
  0
LINE
  5
2B7
330
225
100
AcDbEntity
 67
     1
  8
7_ALL_FEATURES
  6
Continuous
 62
     7
100
AcDbLine
 10
88.3312408953
 20
86.7914385707
 30
0.0
 11
88.3810465489
 21
86.7914385707
 31
0.0
  0
SPLINE
  5
2B8
330
225
100
AcDbEntity
 67
     1
  8
7_ALL_FEATURES
  6
Continuous
 62
     7
100
AcDbSpline
 70
     0
 71
     3
 72
    27
 73
    23
 74
     0
 42
0.000000001
 43
0.0000001
 40
0.0
 40
0.0
 40
0.0
 40
0.0
 40
0.2051397455
 40
0.3969667599
 40
0.4860319268
 40
0.5696905311
 40
0.6473511541
 40
0.7184452714
 40
0.7824297969
 40
0.8388618258
 40
0.8873245013
 40
0.9274587825
 40
0.9443181115
 40
0.9589953186
 40
0.9714579097
 40
0.9816815183
 40
0.9896544225
 40
0.9953664508
 40
0.997371923
 40
0.9988095074
 40
0.999680413
 40
1.0
 40
1.0
 40
1.0
 40
1.0
 10
88.3462001515
 20
88.9863103655
 30
0.0
 10
88.346260196
 20
88.9319520426
 30
0.0
 10
88.3464243247
 20
88.8267630756
 30
0.0
 10
88.3467563179
 20
88.6979737241
 30
0.0
 10
88.347095512
 20
88.6013748886
 30
0.0
 10
88.3473741311
 20
88.5350280902
 30
0.0
 10
88.3476810502
 20
88.4734434776
 30
0.0
 10
88.3480136974
 20
88.4170723538
 30
0.0
 10
88.3483698792
 20
88.3663267045
 30
0.0
 10
88.3487459915
 20
88.3215782686
 30
0.0
 10
88.3491390384
 20
88.2831502544
 30
0.0
 10
88.3494943193
 20
88.2552082358
 30
0.0
 10
88.3497937104
 20
88.2362194211
 30
0.0
 10
88.3500069292
 20
88.2245616163
 30
0.0
 10
88.3502224877
 20
88.2146655311
 30
0.0
 10
88.3504361642
 20
88.2065380096
 30
0.0
 10
88.3506547789
 20
88.20022222
 30
0.0
 10
88.3508361397
 20
88.1960354557
 30
0.0
 10
88.3510094076
 20
88.1936594661
 30
0.0
 10
88.3510983537
 20
88.192447281
 30
0.0
 10
88.3512235826
 20
88.191889858
 30
0.0
 10
88.3512738309
 20
88.1914385707
 30
0.0
 10
88.3513585158
 20
88.1914385707
 30
0.0
  0
LINE
  5
2B9
330
225
100
AcDbEntity
 67
     1
  8
7_ALL_FEATURES
  6
Continuous
 62
     7
100
AcDbLine
 10
88.3513585158
 20
88.1914385707
 30
0.0
 11
88.3810465489
 21
88.1914385707
 31
0.0
  0
SPLINE
  5
2BA
330
225
100
AcDbEntity
 67
     1
  8
7_ALL_FEATURES
  6
Continuous
 62
     7
100
AcDbSpline
 70
     0
 71
     3
 72
    29
 73
    25
 74
     0
 42
0.000000001
 43
0.0000001
 40
0.0
 40
0.0
 40
0.0
 40
0.0
 40
0.0003213662
 40
0.0011373139
 40
0.0024747049
 40
0.0043373819
 40
0.0067261861
 40
0.0096411197
 40
0.0170478839
 40
0.0265537198
 40
0.0381536045
 40
0.0518378341
 40
0.0675903503
 40
0.0853945375
 40
0.1052337322
 40
0.1509496497
 40
0.2045704225
 40
0.2658808209
 40
0.3346597624
 40
0.4106462625
 40
0.4935441311
 40
0.5830514371
 40
0.7804959809
 40
1.0
 40
1.0
 40
1.0
 40
1.0
 10
78.8313728395
 20
85.4914385707
 30
0.0
 10
78.8312341243
 20
85.4914385707
 30
0.0
 10
78.8310510299
 20
85.4920789394
 30
0.0
 10
78.8308545835
 20
85.4929736382
 30
0.0
 10
78.8306304009
 20
85.494779137
 30
0.0
 10
78.8304061794
 20
85.4971436722
 30
0.0
 10
78.8301762684
 20
85.5002430812
 30
0.0
 10
78.8298419455
 20
85.5057124761
 30
0.0
 10
78.8294415239
 20
85.5142663395
 30
0.0
 10
78.8289860845
 20
85.5265631961
 30
0.0
 10
78.8285303468
 20
85.5415738834
 30
0.0
 10
78.8280750851
 20
85.5592809551
 30
0.0
 10
78.8276217078
 20
85.5796671931
 30
0.0
 10
78.8271709029
 20
85.6027106848
 30
0.0
 10
78.8265442845
 20
85.638686625
 30
0.0
 10
78.825787184
 20
85.6901224358
 30
0.0
 10
78.8249328064
 20
85.7594592267
 30
0.0
 10
78.8240998902
 20
85.8387518658
 30
0.0
 10
78.8232925564
 20
85.9276991884
 30
0.0
 10
78.8225144173
 20
86.0259651447
 30
0.0
 10
78.8217684177
 20
86.1331788127
 30
0.0
 10
78.8207890583
 20
86.2928184509
 30
0.0
 10
78.8196857423
 20
86.5114232939
 30
0.0
 10
78.8189758277
 20
86.6913943867
 30
0.0
 10
78.8186438936
 20
86.7861409326
 30
0.0
  0
SPLINE
  5
2BB
330
225
100
AcDbEntity
 67
     1
  8
7_ALL_FEATURES
  6
Continuous
 62
     7
100
AcDbSpline
 70
     0
 71
     3
 72
    36
 73
    32
 74
     0
 42
0.000000001
 43
0.0000001
 40
0.0
 40
0.0
 40
0.0
 40
0.0
 40
0.1556910058
 40
0.2397288425
 40
0.325883068
 40
0.4125890714
 40
0.4982731243
 40
0.5813802259
 40
0.6604012189
 40
0.7339009968
 40
0.80054613
 40
0.8309156417
 40
0.8591275213
 40
0.885054873
 40
0.9085813157
 40
0.9295962287
 40
0.9480084782
 40
0.9637318152
 40
0.9705618469
 40
0.9766947182
 40
0.9821235853
 40
0.9868416184
 40
0.9908423684
 40
0.9941220726
 40
0.9966782492
 40
0.9976843114
 40
0.9985087039
 40
0.9991512962
 40
0.9996122008
 40
0.999892409
 40
1.0
 40
1.0
 40
1.0
 40
1.0
 10
78.8186438936
 20
86.7861409326
 30
0.0
 10
78.8178247249
 20
87.0199626357
 30
0.0
 10
78.8169442387
 20
87.3799964134
 30
0.0
 10
78.8162913523
 20
87.8694205482
 30
0.0
 10
78.8160596511
 20
88.25524057
 30
0.0
 10
78.8161004458
 20
88.6435330044
 30
0.0
 10
78.8164135358
 20
89.0272490214
 30
0.0
 10
78.8169927812
 20
89.3994230535
 30
0.0
 10
78.8178269859
 20
89.7532977166
 30
0.0
 10
78.8189001838
 20
90.0824483579
 30
0.0
 10
78.8200066223
 20
90.338531591
 30
0.0
 10
78.8210130035
 20
90.5265992442
 30
0.0
 10
78.821790442
 20
90.6535155741
 30
0.0
 10
78.822610138
 20
90.770154207
 30
0.0
 10
78.8234677978
 20
90.8759835509
 30
0.0
 10
78.8243593174
 20
90.9705256898
 30
0.0
 10
78.8252795686
 20
91.0533479044
 30
0.0
 10
78.826098914
 20
91.1148663724
 30
0.0
 10
78.8267794387
 20
91.1579432047
 30
0.0
 10
78.8272700631
 20
91.1855603487
 30
0.0
 10
78.8277642107
 20
91.210005123
 30
0.0
 10
78.8282610547
 20
91.231246551
 30
0.0
 10
78.8287588515
 20
91.2492605282
 30
0.0
 10
78.8292569532
 20
91.2640226532
 30
0.0
 10
78.8296946536
 20
91.2742951342
 30
0.0
 10
78.8300613144
 20
91.2808639343
 30
0.0
 10
78.8303118538
 20
91.2845888822
 30
0.0
 10
78.830560834
 20
91.2874241835
 30
0.0
 10
78.830798818
 20
91.2896020148
 30
0.0
 10
78.8310271443
 20
91.2906541713
 30
0.0
 10
78.8312112587
 20
91.2914383161
 30
0.0
 10
78.8313728394
 20
91.2914372055
 30
0.0
  0
LINE
  5
2BC
330
225
100
AcDbEntity
 67
     1
  8
7_ALL_FEATURES
  6
Continuous
 62
     7
100
AcDbLine
 10
88.3810935895
 20
86.7914385707
 30
0.0
 11
88.3810465489
 21
86.7914385707
 31
0.0
  0
LINE
  5
2BD
330
225
100
AcDbEntity
 67
     1
  8
7_ALL_FEATURES
  6
Continuous
 62
     7
100
AcDbLine
 10
88.381112521
 20
85.4914385707
 30
0.0
 11
88.381112521
 21
86.7914385707
 31
0.0
  0
LINE
  5
2BE
330
225
100
AcDbEntity
 67
     1
  8
7_ALL_FEATURES
  6
Continuous
 62
     7
100
AcDbLine
 10
88.3810935895
 20
88.1914385707
 30
0.0
 11
88.3810465489
 21
88.1914385707
 31
0.0
  0
LINE
  5
2BF
330
225
100
AcDbEntity
 67
     1
  8
7_ALL_FEATURES
  6
Continuous
 62
     7
100
AcDbLine
 10
88.381112521
 20
86.8914385707
 30
0.0
 11
88.381112521
 21
88.1914385707
 31
0.0
  0
SPLINE
  5
2C0
330
225
100
AcDbEntity
 67
     1
  8
7_ALL_FEATURES
  6
Continuous
 62
     7
100
AcDbSpline
 70
     0
 71
     3
 72
    51
 73
    47
 74
     0
 42
0.000000001
 43
0.0000001
 40
0.0
 40
0.0
 40
0.0
 40
0.0
 40
0.000163228
 40
0.0006186638
 40
0.0013734099
 40
0.0024285113
 40
0.0037833218
 40
0.0054366935
 40
0.009634187
 40
0.0150109052
 40
0.0215564894
 40
0.0292564657
 40
0.038089468
 40
0.048033446
 40
0.0590663346
 40
0.0842932321
 40
0.1135195576
 40
0.1464711955
 40
0.1828242511
 40
0.2222343764
 40
0.2643173308
 40
0.3086715103
 40
0.4024610572
 40
0.4999988982
 40
0.5975368428
 40
0.6913266841
 40
0.7356803272
 40
0.7777642548
 40
0.8171728959
 40
0.8535279418
 40
0.8864770952
 40
0.9157063928
 40
0.9409299593
 40
0.9519650753
 40
0.9619105358
 40
0.9707415301
 40
0.9784396518
 40
0.9849870727
 40
0.9903660085
 40
0.9945618276
 40
0.9962138525
 40
0.9975677128
 40
0.9986228118
 40
0.9993787418
 40
0.9998357834
 40
1.0
 40
1.0
 40
1.0
 40
1.0
 10
88.3312408952
 20
89.9914321956
 30
0.0
 10
88.3310667789
 20
89.9914336483
 30
0.0
 10
88.3310133761
 20
89.9904622907
 30
0.0
 10
88.3307464257
 20
89.9893101082
 30
0.0
 10
88.3306037513
 20
89.9867306005
 30
0.0
 10
88.3303831154
 20
89.9834355787
 30
0.0
 10
88.3301907704
 20
89.9790766321
 30
0.0
 10
88.3298939021
 20
89.9714093721
 30
0.0
 10
88.3295479057
 20
89.9594282941
 30
0.0
 10
88.3291520433
 20
89.9422410393
 30
0.0
 10
88.3287605603
 20
89.9213113221
 30
0.0
 10
88.3283724244
 20
89.896695955
 30
0.0
 10
88.3279901603
 20
89.8684542678
 30
0.0
 10
88.3276146907
 20
89.8366570665
 30
0.0
 10
88.3271018356
 20
89.7873721796
 30
0.0
 10
88.3264990426
 20
89.7175179177
 30
0.0
 10
88.3258448272
 20
89.6242816958
 30
0.0
 10
88.3252402738
 20
89.5191761795
 30
0.0
 10
88.3246909092
 20
89.4032067387
 30
0.0
 10
88.3242033041
 20
89.2774961815
 30
0.0
 10
88.3237818225
 20
89.143250203
 30
0.0
 10
88.3233056673
 20
88.9509953079
 30
0.0
 10
88.3229122527
 20
88.699583995
 30
0.0
 10
88.3227551833
 20
88.3914390344
 30
0.0
 10
88.322912263
 20
88.0832937599
 30
0.0
 10
88.3233055957
 20
87.8318825944
 30
0.0
 10
88.3237818896
 20
87.6396269198
 30
0.0
 10
88.3242032149
 20
87.505382058
 30
0.0
 10
88.3246910269
 20
87.3796699236
 30
0.0
 10
88.3252401337
 20
87.2637025919
 30
0.0
 10
88.3258449814
 20
87.1585944341
 30
0.0
 10
88.3264988423
 20
87.0653612429
 30
0.0
 10
88.32710203
 20
86.9955049911
 30
0.0
 10
88.327614721
 20
86.9462196986
 30
0.0
 10
88.3279900487
 20
86.9144206795
 30
0.0
 10
88.3283723166
 20
86.8861815328
 30
0.0
 10
88.3287605416
 20
86.8615683245
 30
0.0
 10
88.3291519647
 20
86.8406362709
 30
0.0
 10
88.3295477248
 20
86.8234464426
 30
0.0
 10
88.3298939868
 20
86.811466307
 30
0.0
 10
88.3301912256
 20
86.8038031717
 30
0.0
 10
88.3303835013
 20
86.7994469467
 30
0.0
 10
88.3306048338
 20
86.7961510917
 30
0.0
 10
88.3307461129
 20
86.7935696275
 30
0.0
 10
88.3310156116
 20
86.7924122498
 30
0.0
 10
88.3310657184
 20
86.7914385707
 30
0.0
 10
88.3312408953
 20
86.7914385707
 30
0.0
  0
SPLINE
  5
2C1
330
225
100
AcDbEntity
 67
     1
  8
7_ALL_FEATURES
  6
Continuous
 62
     7
100
AcDbSpline
 70
     0
 71
     3
 72
    30
 73
    26
 74
     0
 42
0.000000001
 43
0.0000001
 40
0.0
 40
0.0
 40
0.0
 40
0.0
 40
0.0003197725
 40
0.0011894188
 40
0.0026249295
 40
0.0046281232
 40
0.0071990925
 40
0.0103374524
 40
0.0140426336
 40
0.0183137174
 40
0.0285437435
 40
0.0410054207
 40
0.055675976
 40
0.0725323907
 40
0.0915450752
 40
0.1126757221
 40
0.161135089
 40
0.2175678873
 40
0.2815545269
 40
0.3526391723
 40
0.4302992779
 40
0.5139785369
 40
0.6030532832
 40
0.7948095104
 40
1.0
 40
1.0
 40
1.0
 40
1.0
 10
88.3312408952
 20
91.2914372055
 30
0.0
 10
88.3314866179
 20
91.2914355165
 30
0.0
 10
88.3316330357
 20
91.2901321466
 30
0.0
 10
88.3319964017
 20
91.288513865
 30
0.0
 10
88.3322542022
 20
91.2850037766
 30
0.0
 10
88.3325875063
 20
91.2804896671
 30
0.0
 10
88.3328963657
 20
91.2745349223
 30
0.0
 10
88.3332176132
 20
91.2673204445
 30
0.0
 10
88.3335356029
 20
91.258780861
 30
0.0
 10
88.3339886942
 20
91.2447994806
 30
0.0
 10
88.334536209
 20
91.2240859017
 30
0.0
 10
88.3351598009
 20
91.1953821534
 30
0.0
 10
88.3357786612
 20
91.161584623
 30
0.0
 10
88.3363912876
 20
91.1227523948
 30
0.0
 10
88.3369957663
 20
91.0789551974
 30
0.0
 10
88.3378276308
 20
91.0108737177
 30
0.0
 10
88.3388170611
 20
90.9140367282
 30
0.0
 10
88.3399081915
 20
90.7842667296
 30
0.0
 10
88.3409406829
 20
90.637109424
 30
0.0
 10
88.3419056503
 20
90.4736392812
 30
0.0
 10
88.342795747
 20
90.2950357637
 30
0.0
 10
88.3436035123
 20
90.1026072747
 30
0.0
 10
88.3445872874
 20
89.8225019059
 30
0.0
 10
88.345550282
 20
89.4490209488
 30
0.0
 10
88.3460259795
 20
89.1439884452
 30
0.0
 10
88.3462001515
 20
88.9863103655
 30
0.0
  0
LINE
  5
2C2
330
225
100
AcDbEntity
 67
     1
  8
7_ALL_FEATURES
  6
Continuous
 62
     7
100
AcDbLine
 10
88.3810465489
 20
86.8914385707
 30
0.0
 11
88.3810935895
 21
86.8914385707
 31
0.0
  0
LINE
  5
2C3
330
225
100
AcDbEntity
 67
     1
  8
7_ALL_FEATURES
  6
Continuous
 62
     7
100
AcDbLine
 10
88.3312408953
 20
91.2914385707
 30
0.0
 11
78.8313728395
 21
91.2914385707
 31
0.0
  0
LINE
  5
2C4
330
225
100
AcDbEntity
 67
     1
  8
7_ALL_FEATURES
  6
Continuous
 62
     7
100
AcDbLine
 10
88.3446882645
 20
86.8914385707
 30
0.0
 11
88.3284189706
 21
86.8914385707
 31
0.0
  0
LINE
  5
2C5
330
225
100
AcDbEntity
 67
     1
  8
7_ALL_FEATURES
  6
Continuous
 62
     9
100
AcDbLine
 10
88.3810465489
 20
86.8914385707
 30
0.0
 11
88.3810465489
 21
88.1914385707
 31
0.0
  0
LINE
  5
2C6
330
225
100
AcDbEntity
 67
     1
  8
7_ALL_FEATURES
  6
Continuous
 62
     9
100
AcDbLine
 10
88.3395161994
 20
88.083746263
 30
0.0
 11
88.3230006628
 21
88.083746263
 31
0.0
  0
LINE
  5
2C7
330
225
100
AcDbEntity
 67
     1
  8
7_ALL_FEATURES
  6
Continuous
 62
     9
100
AcDbLine
 10
88.3810465489
 20
85.4914385707
 30
0.0
 11
88.3810465489
 21
86.7914385707
 31
0.0
  0
SPLINE
  5
2C8
330
225
100
AcDbEntity
 67
     1
  8
7_ALL_FEATURES
  6
Continuous
 62
     7
100
AcDbSpline
 70
     0
 71
     3
 72
    29
 73
    25
 74
     0
 42
0.000000001
 43
0.0000001
 40
0.0
 40
0.0
 40
0.0
 40
0.0
 40
0.0003423115
 40
0.0013085041
 40
0.002907937
 40
0.0051401312
 40
0.0080034534
 40
0.0114959534
 40
0.0203601215
 40
0.031715093
 40
0.0455281137
 40
0.0617484113
 40
0.0803240884
 40
0.1012032159
 40
0.1243305741
 40
0.1770205569
 40
0.2377364961
 40
0.3057633364
 40
0.3802556092
 40
0.4603289221
 40
0.5449891584
 40
0.6331998027
 40
0.8160778231
 40
1.0
 40
1.0
 40
1.0
 40
1.0
 10
88.3446882645
 20
86.8914385707
 30
0.0
 10
88.3445522095
 20
86.8914385707
 30
0.0
 10
88.3445473386
 20
86.8922166217
 30
0.0
 10
88.3443301597
 20
86.8931167769
 30
0.0
 10
88.3442471614
 20
86.8951594646
 30
0.0
 10
88.3440849014
 20
86.8977551082
 30
0.0
 10
88.3439528732
 20
86.901189482
 30
0.0
 10
88.3437434408
 20
86.9072240373
 30
0.0
 10
88.3435021396
 20
86.9166528167
 30
0.0
 10
88.343225668
 20
86.9301732367
 30
0.0
 10
88.3429538348
 20
86.9466223528
 30
0.0
 10
88.3426851064
 20
86.9659402245
 30
0.0
 10
88.3424218553
 20
86.9880674118
 30
0.0
 10
88.3421647571
 20
87.0129399407
 30
0.0
 10
88.341816489
 20
87.0513713414
 30
0.0
 10
88.3414119949
 20
87.1056363407
 30
0.0
 10
88.3409814452
 20
87.1777472969
 30
0.0
 10
88.3405942916
 20
87.2585241368
 30
0.0
 10
88.3402547762
 20
87.3469950267
 30
0.0
 10
88.3399682105
 20
87.4420772394
 30
0.0
 10
88.3397375913
 20
87.5426121187
 30
0.0
 10
88.3395064518
 20
87.6840078074
 30
0.0
 10
88.3393783032
 20
87.8648563009
 30
0.0
 10
88.3394406983
 20
88.0106446396
 30
0.0
 10
88.3395161994
 20
88.083746263
 30
0.0
  0
SPLINE
  5
2C9
330
225
100
AcDbEntity
 67
     1
  8
7_ALL_FEATURES
  6
Continuous
 62
     7
100
AcDbSpline
 70
     0
 71
     3
 72
    29
 73
    25
 74
     0
 42
0.000000001
 43
0.0000001
 40
0.0
 40
0.0
 40
0.0
 40
0.0
 40
0.0003213662
 40
0.0011373139
 40
0.0024747049
 40
0.0043373819
 40
0.0067261861
 40
0.0096411197
 40
0.0170478839
 40
0.0265537198
 40
0.0381536045
 40
0.0518378341
 40
0.0675903503
 40
0.0853945375
 40
0.1052337322
 40
0.1509496497
 40
0.2045704225
 40
0.2658808209
 40
0.3346597624
 40
0.4106462625
 40
0.4935441311
 40
0.5830514371
 40
0.7804959809
 40
1.0
 40
1.0
 40
1.0
 40
1.0
 10
88.3312408953
 20
85.4914385707
 30
0.0
 10
88.3311021802
 20
85.4914385707
 30
0.0
 10
88.3309190858
 20
85.4920789394
 30
0.0
 10
88.3307226393
 20
85.4929736382
 30
0.0
 10
88.3304984567
 20
85.494779137
 30
0.0
 10
88.3302742352
 20
85.4971436722
 30
0.0
 10
88.3300443242
 20
85.5002430812
 30
0.0
 10
88.3297100013
 20
85.5057124761
 30
0.0
 10
88.3293095797
 20
85.5142663395
 30
0.0
 10
88.3288541403
 20
85.5265631961
 30
0.0
 10
88.3283984026
 20
85.5415738834
 30
0.0
 10
88.3279431409
 20
85.5592809551
 30
0.0
 10
88.3274897636
 20
85.5796671931
 30
0.0
 10
88.3270389587
 20
85.6027106848
 30
0.0
 10
88.3264123403
 20
85.638686625
 30
0.0
 10
88.3256552398
 20
85.6901224358
 30
0.0
 10
88.3248008622
 20
85.7594592267
 30
0.0
 10
88.323967946
 20
85.8387518658
 30
0.0
 10
88.3231606122
 20
85.9276991884
 30
0.0
 10
88.3223824731
 20
86.0259651447
 30
0.0
 10
88.3216364735
 20
86.1331788127
 30
0.0
 10
88.3206571142
 20
86.2928184509
 30
0.0
 10
88.3195537981
 20
86.5114232939
 30
0.0
 10
88.3188438835
 20
86.6913943867
 30
0.0
 10
88.3185119494
 20
86.7861409326
 30
0.0
  0
SPLINE
  5
2CA
330
225
100
AcDbEntity
 67
     1
  8
7_ALL_FEATURES
  6
Continuous
 62
     7
100
AcDbSpline
 70
     0
 71
     3
 72
    36
 73
    32
 74
     0
 42
0.000000001
 43
0.0000001
 40
0.0
 40
0.0
 40
0.0
 40
0.0
 40
0.1556910058
 40
0.2397288425
 40
0.325883068
 40
0.4125890714
 40
0.4982731243
 40
0.5813802259
 40
0.6604012189
 40
0.7339009968
 40
0.80054613
 40
0.8309156417
 40
0.8591275213
 40
0.885054873
 40
0.9085813157
 40
0.9295962287
 40
0.9480084782
 40
0.9637318152
 40
0.9705618469
 40
0.9766947182
 40
0.9821235853
 40
0.9868416184
 40
0.9908423684
 40
0.9941220726
 40
0.9966782492
 40
0.9976843114
 40
0.9985087039
 40
0.9991512962
 40
0.9996122008
 40
0.999892409
 40
1.0
 40
1.0
 40
1.0
 40
1.0
 10
88.3185119494
 20
86.7861409326
 30
0.0
 10
88.3176927807
 20
87.0199626357
 30
0.0
 10
88.3168122945
 20
87.3799964134
 30
0.0
 10
88.3161594081
 20
87.8694205482
 30
0.0
 10
88.3159277069
 20
88.25524057
 30
0.0
 10
88.3159685016
 20
88.6435330044
 30
0.0
 10
88.3162815916
 20
89.0272490214
 30
0.0
 10
88.316860837
 20
89.3994230535
 30
0.0
 10
88.3176950417
 20
89.7532977166
 30
0.0
 10
88.3187682396
 20
90.0824483579
 30
0.0
 10
88.3198746781
 20
90.338531591
 30
0.0
 10
88.3208810593
 20
90.5265992442
 30
0.0
 10
88.3216584978
 20
90.6535155741
 30
0.0
 10
88.3224781938
 20
90.770154207
 30
0.0
 10
88.3233358536
 20
90.8759835509
 30
0.0
 10
88.3242273732
 20
90.9705256898
 30
0.0
 10
88.3251476244
 20
91.0533479044
 30
0.0
 10
88.3259669698
 20
91.1148663724
 30
0.0
 10
88.3266474945
 20
91.1579432047
 30
0.0
 10
88.3271381189
 20
91.1855603487
 30
0.0
 10
88.3276322665
 20
91.210005123
 30
0.0
 10
88.3281291105
 20
91.231246551
 30
0.0
 10
88.3286269073
 20
91.2492605282
 30
0.0
 10
88.329125009
 20
91.2640226532
 30
0.0
 10
88.3295627094
 20
91.2742951342
 30
0.0
 10
88.3299293702
 20
91.2808639343
 30
0.0
 10
88.3301799096
 20
91.2845888822
 30
0.0
 10
88.3304288898
 20
91.2874241835
 30
0.0
 10
88.3306668738
 20
91.2896020148
 30
0.0
 10
88.3308952001
 20
91.2906541713
 30
0.0
 10
88.3310793145
 20
91.2914383161
 30
0.0
 10
88.3312408952
 20
91.2914372055
 30
0.0
  0
SPLINE
  5
2CB
330
225
100
AcDbEntity
 67
     1
  8
7_ALL_FEATURES
  6
Continuous
 62
     7
100
AcDbSpline
 70
     0
 71
     3
 72
    30
 73
    26
 74
     0
 42
0.000000001
 43
0.0000001
 40
0.0
 40
0.0
 40
0.0
 40
0.0
 40
0.18394885
 40
0.3667866053
 40
0.4550162226
 40
0.5396805097
 40
0.6197457996
 40
0.6942405567
 40
0.7622651734
 40
0.8229861333
 40
0.8756746192
 40
0.8987981481
 40
0.9196799691
 40
0.9382606351
 40
0.9544807777
 40
0.9682862597
 40
0.9796410481
 40
0.9843894318
 40
0.988513164
 40
0.9920082988
 40
0.9948711352
 40
0.9971001631
 40
0.9986954799
 40
0.9996583672
 40
1.0
 40
1.0
 40
1.0
 40
1.0
 10
88.3395161994
 20
88.083746263
 30
0.0
 10
88.3396370183
 20
88.2007254572
 30
0.0
 10
88.3397369842
 20
88.4339774265
 30
0.0
 10
88.3395317161
 20
88.7233375337
 30
0.0
 10
88.339161976
 20
88.9495589644
 30
0.0
 10
88.3387931607
 20
89.1104238086
 30
0.0
 10
88.3383343487
 20
89.2625539267
 30
0.0
 10
88.3377913641
 20
89.404101972
 30
0.0
 10
88.3371717006
 20
89.5333478719
 30
0.0
 10
88.3364830393
 20
89.6487258618
 30
0.0
 10
88.335835948
 20
89.7355494155
 30
0.0
 10
88.3352784162
 20
89.797037754
 30
0.0
 10
88.3348670297
 20
89.8368362101
 30
0.0
 10
88.334445665
 20
89.8722441198
 30
0.0
 10
88.3340162528
 20
89.9031517104
 30
0.0
 10
88.3335797459
 20
89.9294628219
 30
0.0
 10
88.3331945103
 20
89.9484801342
 30
0.0
 10
88.3328737756
 20
89.9613371455
 30
0.0
 10
88.3326494838
 20
89.9692033521
 30
0.0
 10
88.3324183461
 20
89.9758515049
 30
0.0
 10
88.3322073217
 20
89.9813457036
 30
0.0
 10
88.3319479997
 20
89.9854949604
 30
0.0
 10
88.3318142352
 20
89.9887533615
 30
0.0
 10
88.3314680502
 20
89.9901943098
 30
0.0
 10
88.3314581434
 20
89.991430383
 30
0.0
 10
88.3312408952
 20
89.9914321956
 30
0.0
  0
ARC
  5
2CC
330
225
100
AcDbEntity
 67
     1
  8
3_ALL_AXES
  6
Continuous
 62
     7
100
AcDbCircle
 10
111.2771596913
 20
48.5569315284
 30
0.0
 40
0.75
100
AcDbArc
 50
270.0
 51
360.0
  0
ARC
  5
2CD
330
225
100
AcDbEntity
 67
     1
  8
3_ALL_AXES
  6
Continuous
 62
     7
100
AcDbCircle
 10
55.9771596913
 20
48.5569315284
 30
0.0
 40
0.75
100
AcDbArc
 50
180.0
 51
270.0
  0
LINE
  5
2CE
330
225
100
AcDbEntity
 67
     1
  8
3_ALL_AXES
  6
Continuous
 62
     7
100
AcDbLine
 10
111.2392663273
 20
49.3069315284
 30
0.0
 11
111.0920693887
 21
49.3069315284
 31
0.0
  0
LINE
  5
2CF
330
225
100
AcDbEntity
 67
     1
  8
3_ALL_AXES
  6
Continuous
 62
     7
100
AcDbLine
 10
111.2392663273
 20
47.8069315284
 30
0.0
 11
111.0920693887
 21
47.8069315284
 31
0.0
  0
ARC
  5
2D0
330
225
100
AcDbEntity
 67
     1
  8
3_ALL_AXES
  6
Continuous
 62
     7
100
AcDbCircle
 10
55.9771596913
 20
48.5569315284
 30
0.0
 40
0.75
100
AcDbArc
 50
90.0
 51
180.0
  0
ARC
  5
2D1
330
225
100
AcDbEntity
 67
     1
  8
3_ALL_AXES
  6
Continuous
 62
     7
100
AcDbCircle
 10
111.2771596913
 20
48.5569315284
 30
0.0
 40
0.75
100
AcDbArc
 50
0.0
 51
90.0
  0
LINE
  5
2D2
330
225
100
AcDbEntity
 67
     1
  8
7_ALL_FEATURES
  6
Continuous
 62
     7
100
AcDbLine
 10
53.9240508
 20
45.1943670937
 30
0.0
 11
42.8240508
 21
64.4201310577
 31
0.0
  0
LINE
  5
2D3
330
225
100
AcDbEntity
 67
     1
  8
7_ALL_FEATURES
  6
Continuous
 62
     7
100
AcDbLine
 10
54.5771596913
 20
56.9569315284
 30
0.0
 11
54.9271596913
 21
56.9569315284
 31
0.0
  0
ARC
  5
2D4
330
225
100
AcDbEntity
 67
     1
  8
7_ALL_FEATURES
  6
Continuous
 62
     7
100
AcDbCircle
 10
55.2771596913
 20
50.1569315284
 30
0.0
 40
0.7
100
AcDbArc
 50
180.0
 51
270.0
  0
LINE
  5
2D5
330
225
100
AcDbEntity
 67
     1
  8
7_ALL_FEATURES
  6
Continuous
 62
     7
100
AcDbLine
 10
54.5771596913
 20
50.1569315284
 30
0.0
 11
54.5771596913
 21
56.9569315284
 31
0.0
  0
LINE
  5
2D6
330
225
100
AcDbEntity
 67
     1
  8
7_ALL_FEATURES
  6
Continuous
 62
     7
100
AcDbLine
 10
54.5771596913
 20
46.9569315284
 30
0.0
 11
54.5771596913
 21
45.3693670937
 31
0.0
  0
ARC
  5
2D7
330
225
100
AcDbEntity
 67
     1
  8
7_ALL_FEATURES
  6
Continuous
 62
     7
100
AcDbCircle
 10
43.1271596913
 20
64.5951310577
 30
0.0
 40
0.35
100
AcDbArc
 50
180.0
 51
210.0
  0
ARC
  5
2D8
330
225
100
AcDbEntity
 67
     1
  8
7_ALL_FEATURES
  6
Continuous
 62
     7
100
AcDbCircle
 10
54.2271596913
 20
45.3693670937
 30
0.0
 40
0.35
100
AcDbArc
 50
210.0
 51
360.0
  0
LINE
  5
2D9
330
225
100
AcDbEntity
 67
     1
  8
7_ALL_FEATURES
  6
Continuous
 62
     7
100
AcDbLine
 10
42.7771596913
 20
64.5951310577
 30
0.0
 11
42.7771596913
 21
70.407566623
 31
0.0
  0
LINE
  5
2DA
330
225
100
AcDbEntity
 67
     1
  8
7_ALL_FEATURES
  6
Continuous
 62
     7
100
AcDbLine
 10
55.2771596913
 20
47.6569315284
 30
0.0
 11
55.8771596913
 21
47.6569315284
 31
0.0
  0
LINE
  5
2DB
330
225
100
AcDbEntity
 67
     1
  8
7_ALL_FEATURES
  6
Continuous
 62
     7
100
AcDbLine
 10
42.4271596913
 20
70.407566623
 30
0.0
 11
42.7771596913
 21
70.407566623
 31
0.0
  0
ARC
  5
2DC
330
225
100
AcDbEntity
 67
     1
  8
7_ALL_FEATURES
  6
Continuous
 62
     7
100
AcDbCircle
 10
55.2771596913
 20
46.9569315284
 30
0.0
 40
0.7
100
AcDbArc
 50
90.0
 51
180.0
  0
ARC
  5
2DD
330
225
100
AcDbEntity
 67
     1
  8
7_ALL_FEATURES
  6
Continuous
 62
     7
100
AcDbCircle
 10
55.8771596913
 20
49.1069315284
 30
0.0
 40
0.35
100
AcDbArc
 50
51.42857142859999
 51
90.0
  0
LINE
  5
2DE
330
225
100
AcDbEntity
 67
     1
  8
7_ALL_FEATURES
  6
Continuous
 62
     7
100
AcDbLine
 10
55.2771596913
 20
49.4569315284
 30
0.0
 11
55.8771596913
 21
49.4569315284
 31
0.0
  0
ARC
  5
2DF
330
225
100
AcDbEntity
 67
     1
  8
7_ALL_FEATURES
  6
Continuous
 62
     7
100
AcDbCircle
 10
55.8771596913
 20
48.0069315284
 30
0.0
 40
0.35
100
AcDbArc
 50
270.0
 51
308.5714285714
  0
LINE
  5
2E0
330
225
100
AcDbEntity
 67
     1
  8
7_ALL_FEATURES
  6
Continuous
 62
     9
100
AcDbLine
 10
54.5771596913
 20
46.9569315284
 30
0.0
 11
54.9271596913
 21
46.9569315284
 31
0.0
  0
LINE
  5
2E1
330
225
100
AcDbEntity
 67
     1
  8
7_ALL_FEATURES
  6
Continuous
 62
     9
100
AcDbLine
 10
54.5771596913
 20
50.1569315284
 30
0.0
 11
54.9271596913
 21
50.1569315284
 31
0.0
  0
LINE
  5
2E2
330
225
100
AcDbEntity
 67
     1
  8
7_ALL_FEATURES
  6
Continuous
 62
     9
100
AcDbLine
 10
55.2771596913
 20
49.4569315284
 30
0.0
 11
55.2771596913
 21
49.8069315284
 31
0.0
  0
LINE
  5
2E3
330
225
100
AcDbEntity
 67
     1
  8
7_ALL_FEATURES
  6
Continuous
 62
     9
100
AcDbLine
 10
53.6209419087
 20
45.0193670937
 30
0.0
 11
53.9240508
 21
45.1943670937
 31
0.0
  0
LINE
  5
2E4
330
225
100
AcDbEntity
 67
     1
  8
7_ALL_FEATURES
  6
Continuous
 62
     9
100
AcDbLine
 10
55.8771596913
 20
49.8069315284
 30
0.0
 11
55.8771596913
 21
49.4569315284
 31
0.0
  0
LINE
  5
2E5
330
225
100
AcDbEntity
 67
     1
  8
7_ALL_FEATURES
  6
Continuous
 62
     9
100
AcDbLine
 10
42.4271596913
 20
64.5951310577
 30
0.0
 11
42.7771596913
 21
64.5951310577
 31
0.0
  0
LINE
  5
2E6
330
225
100
AcDbEntity
 67
     1
  8
7_ALL_FEATURES
  6
Continuous
 62
     9
100
AcDbLine
 10
42.5209419087
 20
64.2451310577
 30
0.0
 11
42.8240508
 21
64.4201310577
 31
0.0
  0
LINE
  5
2E7
330
225
100
AcDbEntity
 67
     1
  8
7_ALL_FEATURES
  6
Continuous
 62
     9
100
AcDbLine
 10
55.2771596913
 20
47.6569315284
 30
0.0
 11
55.2771596913
 21
47.3069315284
 31
0.0
  0
LINE
  5
2E8
330
225
100
AcDbEntity
 67
     1
  8
7_ALL_FEATURES
  6
Continuous
 62
     9
100
AcDbLine
 10
55.8771596913
 20
47.3069315284
 30
0.0
 11
55.8771596913
 21
47.6569315284
 31
0.0
  0
LINE
  5
2E9
330
225
100
AcDbEntity
 67
     1
  8
7_ALL_FEATURES
  6
Continuous
 62
     9
100
AcDbLine
 10
54.9271596913
 20
45.3693670937
 30
0.0
 11
54.5771596913
 21
45.3693670937
 31
0.0
  0
LINE
  5
2EA
330
225
100
AcDbEntity
 67
     1
  8
7_ALL_FEATURES
  6
Continuous
 62
     7
100
AcDbLine
 10
124.4302685826
 20
64.4201310577
 30
0.0
 11
113.3302685826
 21
45.1943670937
 31
0.0
  0
LINE
  5
2EB
330
225
100
AcDbEntity
 67
     1
  8
7_ALL_FEATURES
  6
Continuous
 62
     7
100
AcDbLine
 10
112.6771596913
 20
56.9569315284
 30
0.0
 11
112.3271596913
 21
56.9569315284
 31
0.0
  0
ARC
  5
2EC
330
225
100
AcDbEntity
 67
     1
  8
7_ALL_FEATURES
  6
Continuous
 62
     7
100
AcDbCircle
 10
111.9771596913
 20
50.1569315284
 30
0.0
 40
0.7
100
AcDbArc
 50
270.0
 51
360.0
  0
LINE
  5
2ED
330
225
100
AcDbEntity
 67
     1
  8
7_ALL_FEATURES
  6
Continuous
 62
     7
100
AcDbLine
 10
112.6771596913
 20
56.9569315284
 30
0.0
 11
112.6771596913
 21
50.1569315284
 31
0.0
  0
LINE
  5
2EE
330
225
100
AcDbEntity
 67
     1
  8
7_ALL_FEATURES
  6
Continuous
 62
     7
100
AcDbLine
 10
112.6771596913
 20
45.3693670937
 30
0.0
 11
112.6771596913
 21
46.9569315284
 31
0.0
  0
ARC
  5
2EF
330
225
100
AcDbEntity
 67
     1
  8
7_ALL_FEATURES
  6
Continuous
 62
     7
100
AcDbCircle
 10
124.1271596913
 20
64.5951310577
 30
0.0
 40
0.35
100
AcDbArc
 50
330.0
 51
360.0
  0
LINE
  5
2F0
330
225
100
AcDbEntity
 67
     1
  8
7_ALL_FEATURES
  6
Continuous
 62
     7
100
AcDbLine
 10
124.4771596913
 20
70.407566623
 30
0.0
 11
124.4771596913
 21
64.5951310577
 31
0.0
  0
LINE
  5
2F1
330
225
100
AcDbEntity
 67
     1
  8
7_ALL_FEATURES
  6
Continuous
 62
     7
100
AcDbLine
 10
124.8271596913
 20
70.407566623
 30
0.0
 11
124.4771596913
 21
70.407566623
 31
0.0
  0
ARC
  5
2F2
330
225
100
AcDbEntity
 67
     1
  8
7_ALL_FEATURES
  6
Continuous
 62
     7
100
AcDbCircle
 10
113.0271596913
 20
45.3693670937
 30
0.0
 40
0.35
100
AcDbArc
 50
180.0
 51
330.0
  0
LINE
  5
2F3
330
225
100
AcDbEntity
 67
     1
  8
7_ALL_FEATURES
  6
Continuous
 62
     7
100
AcDbLine
 10
111.3771596913
 20
47.6569315284
 30
0.0
 11
111.9771596913
 21
47.6569315284
 31
0.0
  0
ARC
  5
2F4
330
225
100
AcDbEntity
 67
     1
  8
7_ALL_FEATURES
  6
Continuous
 62
     7
100
AcDbCircle
 10
111.3771596913
 20
49.1069315284
 30
0.0
 40
0.35
100
AcDbArc
 50
90.0
 51
154.2857142857
  0
LINE
  5
2F5
330
225
100
AcDbEntity
 67
     1
  8
7_ALL_FEATURES
  6
Continuous
 62
     7
100
AcDbLine
 10
111.3771596913
 20
49.4569315284
 30
0.0
 11
111.9771596913
 21
49.4569315284
 31
0.0
  0
ARC
  5
2F6
330
225
100
AcDbEntity
 67
     1
  8
7_ALL_FEATURES
  6
Continuous
 62
     7
100
AcDbCircle
 10
111.9771596913
 20
46.9569315284
 30
0.0
 40
0.7
100
AcDbArc
 50
0.0
 51
90.0
  0
ARC
  5
2F7
330
225
100
AcDbEntity
 67
     1
  8
7_ALL_FEATURES
  6
Continuous
 62
     7
100
AcDbCircle
 10
111.3771596913
 20
48.0069315284
 30
0.0
 40
0.35
100
AcDbArc
 50
205.7142857143
 51
270.0
  0
LINE
  5
2F8
330
225
100
AcDbEntity
 67
     1
  8
7_ALL_FEATURES
  6
Continuous
 62
     9
100
AcDbLine
 10
124.733377474
 20
64.2451310577
 30
0.0
 11
124.4302685826
 21
64.4201310577
 31
0.0
  0
LINE
  5
2F9
330
225
100
AcDbEntity
 67
     1
  8
7_ALL_FEATURES
  6
Continuous
 62
     9
100
AcDbLine
 10
111.9771596913
 20
49.4569315284
 30
0.0
 11
111.9771596913
 21
49.8069315284
 31
0.0
  0
LINE
  5
2FA
330
225
100
AcDbEntity
 67
     1
  8
7_ALL_FEATURES
  6
Continuous
 62
     9
100
AcDbLine
 10
113.633377474
 20
45.0193670937
 30
0.0
 11
113.3302685826
 21
45.1943670937
 31
0.0
  0
LINE
  5
2FB
330
225
100
AcDbEntity
 67
     1
  8
7_ALL_FEATURES
  6
Continuous
 62
     9
100
AcDbLine
 10
112.3271596913
 20
45.3693670937
 30
0.0
 11
112.6771596913
 21
45.3693670937
 31
0.0
  0
LINE
  5
2FC
330
225
100
AcDbEntity
 67
     1
  8
7_ALL_FEATURES
  6
Continuous
 62
     9
100
AcDbLine
 10
124.8271596913
 20
64.5951310577
 30
0.0
 11
124.4771596913
 21
64.5951310577
 31
0.0
  0
LINE
  5
2FD
330
225
100
AcDbEntity
 67
     1
  8
7_ALL_FEATURES
  6
Continuous
 62
     9
100
AcDbLine
 10
111.9771596913
 20
47.6569315284
 30
0.0
 11
111.9771596913
 21
47.3069315284
 31
0.0
  0
LINE
  5
2FE
330
225
100
AcDbEntity
 67
     1
  8
7_ALL_FEATURES
  6
Continuous
 62
     9
100
AcDbLine
 10
111.3771596913
 20
47.3069315284
 30
0.0
 11
111.3771596913
 21
47.6569315284
 31
0.0
  0
LINE
  5
2FF
330
225
100
AcDbEntity
 67
     1
  8
7_ALL_FEATURES
  6
Continuous
 62
     9
100
AcDbLine
 10
112.6771596913
 20
50.1569315284
 30
0.0
 11
112.3271596913
 21
50.1569315284
 31
0.0
  0
LINE
  5
300
330
225
100
AcDbEntity
 67
     1
  8
7_ALL_FEATURES
  6
Continuous
 62
     9
100
AcDbLine
 10
111.3771596913
 20
49.8069315284
 30
0.0
 11
111.3771596913
 21
49.4569315284
 31
0.0
  0
LINE
  5
301
330
225
100
AcDbEntity
 67
     1
  8
7_ALL_FEATURES
  6
Continuous
 62
     9
100
AcDbLine
 10
112.6771596913
 20
46.9569315284
 30
0.0
 11
112.3271596913
 21
46.9569315284
 31
0.0
  0
ARC
  5
302
330
225
100
AcDbEntity
 67
     1
  8
7_ALL_FEATURES
  6
Continuous
 62
     7
100
AcDbCircle
 10
107.362946129
 20
62.7569315284
 30
0.0
 40
1.0
100
AcDbArc
 50
45.0
 51
90.0
  0
ARC
  5
303
330
225
100
AcDbEntity
 67
     1
  8
7_ALL_FEATURES
  6
Continuous
 62
     7
100
AcDbCircle
 10
59.8913732537
 20
62.7569315284
 30
0.0
 40
1.0
100
AcDbArc
 50
90.0
 51
135.0
  0
ARC
  5
304
330
225
100
AcDbEntity
 67
     1
  8
7_ALL_FEATURES
  6
Continuous
 62
     7
100
AcDbCircle
 10
56.9771596913
 20
58.4285044037
 30
0.0
 40
2.0
100
AcDbArc
 50
135.0
 51
180.0
  0
ARC
  5
305
330
225
100
AcDbEntity
 67
     1
  8
7_ALL_FEATURES
  6
Continuous
 62
     7
100
AcDbCircle
 10
110.2771596913
 20
58.4285044037
 30
0.0
 40
2.0
100
AcDbArc
 50
0.0
 51
45.0
  0
LINE
  5
306
330
225
100
AcDbEntity
 67
     1
  8
7_ALL_FEATURES
  6
Continuous
 62
     7
100
AcDbLine
 10
56.6771596913
 20
47.0569315284
 30
0.0
 11
56.6771596913
 21
47.8069315284
 31
0.0
  0
LINE
  5
307
330
225
100
AcDbEntity
 67
     1
  8
7_ALL_FEATURES
  6
Continuous
 62
     7
100
AcDbLine
 10
56.6771596913
 20
49.3069315284
 30
0.0
 11
56.6771596913
 21
50.0569315284
 31
0.0
  0
LINE
  5
308
330
225
100
AcDbEntity
 67
     1
  8
7_ALL_FEATURES
  6
Continuous
 62
     7
100
AcDbLine
 10
110.5771596913
 20
47.0569315284
 30
0.0
 11
110.5771596913
 21
47.8069315284
 31
0.0
  0
LINE
  5
309
330
225
100
AcDbEntity
 67
     1
  8
7_ALL_FEATURES
  6
Continuous
 62
     7
100
AcDbLine
 10
110.5771596913
 20
49.3069315284
 30
0.0
 11
110.5771596913
 21
50.0569315284
 31
0.0
  0
LINE
  5
30A
330
225
100
AcDbEntity
 67
     1
  8
7_ALL_FEATURES
  6
Continuous
 62
     7
100
AcDbLine
 10
56.1223754715
 20
42.9569315284
 30
0.0
 11
57.4771596913
 21
42.9569315284
 31
0.0
  0
LINE
  5
30B
330
225
100
AcDbEntity
 67
     1
  8
7_ALL_FEATURES
  6
Continuous
 62
     7
100
AcDbLine
 10
57.4771596913
 20
42.9569315284
 30
0.0
 11
109.7771596913
 21
42.9569315284
 31
0.0
  0
LINE
  5
30C
330
225
100
AcDbEntity
 67
     1
  8
7_ALL_FEATURES
  6
Continuous
 62
     7
100
AcDbLine
 10
109.7771596913
 20
42.9569315284
 30
0.0
 11
111.1319439111
 21
42.9569315284
 31
0.0
  0
LINE
  5
30D
330
225
100
AcDbEntity
 67
     1
  8
02___PRT_ALL_AXES
  6
Continuous
 62
     7
100
AcDbLine
 10
49.1271596913
 20
44.4569315284
 30
0.0
 11
54.9771596913
 21
44.4569315284
 31
0.0
  0
LINE
  5
30E
330
225
100
AcDbEntity
 67
     1
  8
02___PRT_ALL_AXES
  6
Continuous
 62
     7
100
AcDbLine
 10
54.9771596913
 20
44.4569315284
 30
0.0
 11
112.2771596913
 21
44.4569315284
 31
0.0
  0
LINE
  5
30F
330
225
100
AcDbEntity
 67
     1
  8
02___PRT_ALL_AXES
  6
Continuous
 62
     7
100
AcDbLine
 10
112.2771596913
 20
44.4569315284
 30
0.0
 11
118.1271596913
 21
44.4569315284
 31
0.0
  0
LINE
  5
310
330
225
100
AcDbEntity
 67
     1
  8
7_ALL_FEATURES
  6
Continuous
 62
     7
100
AcDbLine
 10
108.0700529101
 20
63.4640383096
 30
0.0
 11
111.6913732537
 21
59.842717966
 31
0.0
  0
LINE
  5
311
330
225
100
AcDbEntity
 67
     1
  8
7_ALL_FEATURES
  6
Continuous
 62
     7
100
AcDbLine
 10
54.9771596913
 20
47.0569315284
 30
0.0
 11
56.6771596913
 21
47.0569315284
 31
0.0
  0
LINE
  5
312
330
225
100
AcDbEntity
 67
     1
  8
7_ALL_FEATURES
  6
Continuous
 62
     7
100
AcDbLine
 10
56.6771596913
 20
47.0569315284
 30
0.0
 11
110.5771596913
 21
47.0569315284
 31
0.0
  0
LINE
  5
313
330
225
100
AcDbEntity
 67
     1
  8
7_ALL_FEATURES
  6
Continuous
 62
     7
100
AcDbLine
 10
110.5771596913
 20
47.0569315284
 30
0.0
 11
112.2771596913
 21
47.0569315284
 31
0.0
  0
LINE
  5
314
330
225
100
AcDbEntity
 67
     1
  8
7_ALL_FEATURES
  6
Continuous
 62
     7
100
AcDbLine
 10
59.1842664725
 20
63.4640383096
 30
0.0
 11
55.562946129
 21
59.842717966
 31
0.0
  0
SPLINE
  5
315
330
225
100
AcDbEntity
 67
     1
  8
7_ALL_FEATURES
  6
Continuous
 62
     7
100
AcDbSpline
 70
     0
 71
     3
 72
    28
 73
    24
 74
     0
 42
0.000000001
 43
0.0000001
 40
0.0
 40
0.0
 40
0.0
 40
0.0
 40
0.0002837347
 40
0.0011456719
 40
0.0025841716
 40
0.0045975933
 40
0.0071842969
 40
0.0103426422
 40
0.0183676981
 40
0.0286579382
 40
0.0411929079
 40
0.0559486777
 40
0.0728943449
 40
0.1132153331
 40
0.1618358859
 40
0.2183723956
 40
0.2823863464
 40
0.3533915757
 40
0.4308640428
 40
0.514252104
 40
0.6029873598
 40
0.7942028046
 40
1.0
 40
1.0
 40
1.0
 40
1.0
 10
112.2771596913
 20
50.7569315284
 30
0.0
 10
112.2772020894
 20
50.7567616518
 30
0.0
 10
112.2769664368
 20
50.7583074486
 30
0.0
 10
112.2769275536
 20
50.7590704082
 30
0.0
 10
112.2765296984
 20
50.7621829847
 30
0.0
 10
112.2761298519
 20
50.7656762345
 30
0.0
 10
112.2755544257
 20
50.7705111147
 30
0.0
 10
112.2745679952
 20
50.7789119327
 30
0.0
 10
112.2730200606
 20
50.7920977127
 30
0.0
 10
112.2708159572
 20
50.8109957236
 30
0.0
 10
112.2681469181
 20
50.8340361564
 30
0.0
 10
112.2650321179
 20
50.861153995
 30
0.0
 10
112.2600104473
 20
50.9053136994
 30
0.0
 10
112.252759064
 20
50.9702508985
 30
0.0
 10
112.2430783227
 20
51.0594995769
 30
0.0
 10
112.2322092447
 20
51.1633247953
 30
0.0
 10
112.2204075263
 20
51.2809401331
 30
0.0
 10
112.207945974
 20
51.4114719371
 30
0.0
 10
112.1951066984
 20
51.55397558
 30
0.0
 10
112.1821731806
 20
51.7074535777
 30
0.0
 10
112.1647328847
 20
51.9309852897
 30
0.0
 10
112.1444433226
 20
52.2300538179
 30
0.0
 10
112.1313902001
 20
52.474705927
 30
0.0
 10
112.1255779076
 20
52.6015665521
 30
0.0
  0
ARC
  5
316
330
225
100
AcDbEntity
 67
     1
  8
7_ALL_FEATURES
  6
Continuous
 62
     7
100
AcDbCircle
 10
137.3173309727
 20
53.7569315253
 30
0.0
 40
25.2182332988
100
AcDbArc
 50
177.3740860275
 51
182.6259062561
  0
SPLINE
  5
317
330
225
100
AcDbEntity
 67
     1
  8
7_ALL_FEATURES
  6
Continuous
 62
     7
100
AcDbSpline
 70
     0
 71
     3
 72
    28
 73
    24
 74
     0
 42
0.000000001
 43
0.0000001
 40
0.0
 40
0.0
 40
0.0
 40
0.0
 40
0.2058253149
 40
0.3970640981
 40
0.4858086439
 40
0.5692040854
 40
0.6466817856
 40
0.7176898929
 40
0.7817041553
 40
0.838238378
 40
0.8868534851
 40
0.9271673009
 40
0.9441060136
 40
0.9588551577
 40
0.9713870378
 40
0.9816732366
 40
0.9896879398
 40
0.9928394737
 40
0.9954191637
 40
0.9974260355
 40
0.998859115
 40
0.9997174279
 40
1.0
 40
1.0
 40
1.0
 40
1.0
 10
112.1255780632
 20
54.9122998912
 30
0.0
 10
112.1313911567
 20
55.0391776169
 30
0.0
 10
112.1444462272
 20
55.2838609756
 30
0.0
 10
112.1647391816
 20
55.5829662991
 30
0.0
 10
112.1821822884
 20
55.8065221436
 30
0.0
 10
112.1951176395
 20
55.9600132679
 30
0.0
 10
112.2079584804
 20
56.1025261048
 30
0.0
 10
112.2204212094
 20
56.2330627762
 30
0.0
 10
112.2322236055
 20
56.3506783881
 30
0.0
 10
112.2430927508
 20
56.4544988026
 30
0.0
 10
112.2527729306
 20
56.543738125
 30
0.0
 10
112.2600232737
 20
56.6086631663
 30
0.0
 10
112.2650436556
 20
56.6528100471
 30
0.0
 10
112.2681573755
 20
56.6799176044
 30
0.0
 10
112.2708255368
 20
56.7029495531
 30
0.0
 10
112.2730283948
 20
56.7218368084
 30
0.0
 10
112.274574917
 20
56.73500954
 30
0.0
 10
112.2755594875
 20
56.7433955992
 30
0.0
 10
112.2761337112
 20
56.7482177367
 30
0.0
 10
112.2765315472
 20
56.7517001362
 30
0.0
 10
112.2769296768
 20
56.754801044
 30
0.0
 10
112.2769654451
 20
56.7555618246
 30
0.0
 10
112.2772031714
 20
56.7571003902
 30
0.0
 10
112.2771596913
 20
56.7569315284
 30
0.0
  0
LINE
  5
318
330
225
100
AcDbEntity
 67
     1
  8
7_ALL_FEATURES
  6
Continuous
 62
     7
100
AcDbLine
 10
54.9771596913
 20
50.0569315284
 30
0.0
 11
56.6771596913
 21
50.0569315284
 31
0.0
  0
LINE
  5
319
330
225
100
AcDbEntity
 67
     1
  8
7_ALL_FEATURES
  6
Continuous
 62
     7
100
AcDbLine
 10
56.6771596913
 20
50.0569315284
 30
0.0
 11
110.5771596913
 21
50.0569315284
 31
0.0
  0
LINE
  5
31A
330
225
100
AcDbEntity
 67
     1
  8
7_ALL_FEATURES
  6
Continuous
 62
     7
100
AcDbLine
 10
110.5771596913
 20
50.0569315284
 30
0.0
 11
112.2771596913
 21
50.0569315284
 31
0.0
  0
SPLINE
  5
31B
330
225
100
AcDbEntity
 67
     1
  8
7_ALL_FEATURES
  6
Continuous
 62
     7
100
AcDbSpline
 70
     0
 71
     3
 72
    28
 73
    24
 74
     0
 42
0.000000001
 43
0.0000001
 40
0.0
 40
0.0
 40
0.0
 40
0.0
 40
0.000283748
 40
0.0011456985
 40
0.002584211
 40
0.004597645
 40
0.0071843599
 40
0.0103427154
 40
0.0183677869
 40
0.0286580367
 40
0.0411930179
 40
0.0559488056
 40
0.0728944889
 40
0.11321549
 40
0.1618360566
 40
0.2183725701
 40
0.28238652
 40
0.3533917419
 40
0.4308641963
 40
0.5142522397
 40
0.6029874744
 40
0.7942028683
 40
1.0
 40
1.0
 40
1.0
 40
1.0
 10
54.9771596913
 20
56.7569315284
 30
0.0
 10
54.9771172436
 20
56.7571014011
 30
0.0
 10
54.9773530194
 20
56.755555594
 30
0.0
 10
54.9773917902
 20
56.7547925895
 30
0.0
 10
54.9777897133
 20
56.7516800056
 30
0.0
 10
54.9781895338
 20
56.7481867255
 30
0.0
 10
54.9787649734
 20
56.7433518279
 30
0.0
 10
54.9797514013
 20
56.7349509856
 30
0.0
 10
54.9812993418
 20
56.721765185
 30
0.0
 10
54.9835034462
 20
56.702867151
 30
0.0
 10
54.9861724884
 20
56.6798266943
 30
0.0
 10
54.9892872914
 20
56.6527088278
 30
0.0
 10
54.994308965
 20
56.6085490946
 30
0.0
 10
55.0015603505
 20
56.5436118694
 30
0.0
 10
55.0112410927
 20
56.4543631722
 30
0.0
 10
55.0221101705
 20
56.3505379436
 30
0.0
 10
55.0339118871
 20
56.2329226085
 30
0.0
 10
55.0463734367
 20
56.1023908175
 30
0.0
 10
55.0592127085
 20
55.9598871979
 30
0.0
 10
55.072146222
 20
55.806409232
 30
0.0
 10
55.0895865116
 20
55.5828775754
 30
0.0
 10
55.109876066
 20
55.283809131
 30
0.0
 10
55.1229291842
 20
55.0391570928
 30
0.0
 10
55.1287414749
 20
54.9122965071
 30
0.0
  0
ARC
  5
31C
330
225
100
AcDbEntity
 67
     1
  8
7_ALL_FEATURES
  6
Continuous
 62
     7
100
AcDbCircle
 10
29.9369884094
 20
53.7569315315
 30
0.0
 40
25.2182332993
100
AcDbArc
 50
357.3740860528
 51
2.6259062616
  0
SPLINE
  5
31D
330
225
100
AcDbEntity
 67
     1
  8
7_ALL_FEATURES
  6
Continuous
 62
     7
100
AcDbSpline
 70
     0
 71
     3
 72
    28
 73
    24
 74
     0
 42
0.000000001
 43
0.0000001
 40
0.0
 40
0.0
 40
0.0
 40
0.0
 40
0.2058251387
 40
0.3970637774
 40
0.485808265
 40
0.5692036594
 40
0.6466813259
 40
0.7176894148
 40
0.7817036737
 40
0.8382379133
 40
0.886853046
 40
0.9271669262
 40
0.9441056645
 40
0.9588548308
 40
0.9713867417
 40
0.9816729913
 40
0.989687771
 40
0.9928393475
 40
0.9954190786
 40
0.9974259869
 40
0.9988590949
 40
0.9997174251
 40
1.0
 40
1.0
 40
1.0
 40
1.0
 10
55.1287413199
 20
52.6015631767
 30
0.0
 10
55.1229282315
 20
52.4746855589
 30
0.0
 10
55.1098731731
 20
52.2300023963
 30
0.0
 10
55.0895802399
 20
51.9308973039
 30
0.0
 10
55.0721371507
 20
51.7073416112
 30
0.0
 10
55.0592018111
 20
51.5538505711
 30
0.0
 10
55.0463609802
 20
51.4113377939
 30
0.0
 10
55.0338982589
 20
51.2808011555
 30
0.0
 10
55.022095867
 20
51.1631855455
 30
0.0
 10
55.0112267227
 20
51.0593651062
 30
0.0
 10
55.0015465386
 20
50.9701257174
 30
0.0
 10
54.9942961893
 20
50.9052006045
 30
0.0
 10
54.9892758008
 20
50.8610536545
 30
0.0
 10
54.9861620758
 20
50.8339460488
 30
0.0
 10
54.9834939079
 20
50.8109140362
 30
0.0
 10
54.9812910383
 20
50.7920266841
 30
0.0
 10
54.9797445057
 20
50.7788538477
 30
0.0
 10
54.9787599213
 20
50.7704676912
 30
0.0
 10
54.9781856938
 20
50.7656454774
 30
0.0
 10
54.9777878376
 20
50.7621630203
 30
0.0
 10
54.9773897305
 20
50.7590620442
 30
0.0
 10
54.9773539088
 20
50.7583012647
 30
0.0
 10
54.9771162331
 20
50.7567626592
 30
0.0
 10
54.9771596913
 20
50.7569315284
 30
0.0
  0
LINE
  5
31E
330
225
100
AcDbEntity
 67
     1
  8
7_ALL_FEATURES
  6
Continuous
 62
     7
100
AcDbLine
 10
59.8913732537
 20
63.7569315284
 30
0.0
 11
61.587195989
 21
63.7569315284
 31
0.0
  0
LINE
  5
31F
330
225
100
AcDbEntity
 67
     1
  8
7_ALL_FEATURES
  6
Continuous
 62
     7
100
AcDbLine
 10
61.587195989
 20
63.7569315284
 30
0.0
 11
105.6671233937
 21
63.7569315284
 31
0.0
  0
LINE
  5
320
330
225
100
AcDbEntity
 67
     1
  8
7_ALL_FEATURES
  6
Continuous
 62
     7
100
AcDbLine
 10
105.6671233937
 20
63.7569315284
 30
0.0
 11
107.362946129
 21
63.7569315284
 31
0.0
  0
ARC
  5
321
330
225
100
AcDbEntity
 67
     1
  8
7_ALL_FEATURES
  6
Continuous
 62
     7
100
AcDbCircle
 10
111.1319439111
 20
44.9569315284
 30
0.0
 40
2.0
100
AcDbArc
 50
270.0
 51
278.3056762056
  0
ARC
  5
322
330
225
100
AcDbEntity
 67
     1
  8
7_ALL_FEATURES
  6
Continuous
 62
     7
100
AcDbCircle
 10
56.1223754715
 20
44.9569315284
 30
0.0
 40
2.0
100
AcDbArc
 50
261.6943237944
 51
270.0
  0
LINE
  5
323
330
225
100
AcDbEntity
 67
     1
  8
7_ALL_FEATURES
  6
Continuous
 62
     7
100
AcDbLine
 10
111.4208523733
 20
42.9779085623
 30
0.0
 11
118.1271596913
 21
43.9569315284
 31
0.0
  0
LINE
  5
324
330
225
100
AcDbEntity
 67
     1
  8
7_ALL_FEATURES
  6
Continuous
 62
     7
100
AcDbLine
 10
55.8334670093
 20
42.9779085623
 30
0.0
 11
49.1271596913
 21
43.9569315284
 31
0.0
  0
LINE
  5
325
330
225
100
AcDbEntity
 67
     1
  8
02___PRT_ALL_AXES
  6
Continuous
 62
     7
100
AcDbLine
 10
49.1271596913
 20
43.9569315284
 30
0.0
 11
49.1271596913
 21
44.4569315284
 31
0.0
  0
LINE
  5
326
330
225
100
AcDbEntity
 67
     1
  8
7_ALL_FEATURES
  6
Continuous
 62
     7
100
AcDbLine
 10
112.2771596913
 20
56.7569315284
 30
0.0
 11
112.2771596913
 21
58.4285044037
 31
0.0
  0
LINE
  5
327
330
225
100
AcDbEntity
 67
     1
  8
02___PRT_ALL_AXES
  6
Continuous
 62
     7
100
AcDbLine
 10
118.1271596913
 20
43.9569315284
 30
0.0
 11
118.1271596913
 21
44.4569315284
 31
0.0
  0
LINE
  5
328
330
225
100
AcDbEntity
 67
     1
  8
7_ALL_FEATURES
  6
Continuous
 62
     7
100
AcDbLine
 10
54.9771596913
 20
44.4569315284
 30
0.0
 11
54.9771596913
 21
47.0569315284
 31
0.0
  0
LINE
  5
329
330
225
100
AcDbEntity
 67
     1
  8
7_ALL_FEATURES
  6
Continuous
 62
     7
100
AcDbLine
 10
112.2771596913
 20
50.0569315284
 30
0.0
 11
112.2771596913
 21
50.7569315284
 31
0.0
  0
LINE
  5
32A
330
225
100
AcDbEntity
 67
     1
  8
7_ALL_FEATURES
  6
Continuous
 62
     7
100
AcDbLine
 10
112.2771596913
 20
44.4569315284
 30
0.0
 11
112.2771596913
 21
47.0569315284
 31
0.0
  0
LINE
  5
32B
330
225
100
AcDbEntity
 67
     1
  8
7_ALL_FEATURES
  6
Continuous
 62
     7
100
AcDbLine
 10
54.9771596913
 20
50.0569315284
 30
0.0
 11
54.9771596913
 21
50.7569315284
 31
0.0
  0
LINE
  5
32C
330
225
100
AcDbEntity
 67
     1
  8
7_ALL_FEATURES
  6
Continuous
 62
     7
100
AcDbLine
 10
54.9771596913
 20
56.7569315284
 30
0.0
 11
54.9771596913
 21
58.4285044037
 31
0.0
  0
LINE
  5
32D
330
225
100
AcDbEntity
 67
     1
  8
7_ALL_FEATURES
  6
Continuous
 62
     9
100
AcDbLine
 10
55.8334670093
 20
42.9779085623
 30
0.0
 11
111.4208523733
 21
42.9779085623
 31
0.0
  0
LINE
  5
32E
330
225
100
AcDbEntity
 67
     1
  8
02___PRT_ALL_AXES
  6
Continuous
 62
     7
100
AcDbLine
 10
49.1271596913
 20
43.9569315284
 30
0.0
 11
118.1271596913
 21
43.9569315284
 31
0.0
  0
LINE
  5
32F
330
225
100
AcDbEntity
 67
     1
  8
7_ALL_FEATURES
  6
Continuous
 62
     9
100
AcDbLine
 10
111.6913732537
 20
59.842717966
 30
0.0
 11
55.562946129
 21
59.842717966
 31
0.0
  0
LINE
  5
330
330
225
100
AcDbEntity
 67
     1
  8
7_ALL_FEATURES
  6
Continuous
 62
     9
100
AcDbLine
 10
59.1842664725
 20
63.4640383096
 30
0.0
 11
108.0700529101
 21
63.4640383096
 31
0.0
  0
LINE
  5
331
330
225
100
AcDbEntity
 67
     1
  8
7_ALL_FEATURES
  6
Continuous
 62
     9
100
AcDbLine
 10
112.2771596913
 20
58.4285044037
 30
0.0
 11
54.9771596913
 21
58.4285044037
 31
0.0
  0
LINE
  5
332
330
225
100
AcDbEntity
 67
     1
  8
7_ALL_FEATURES
  6
Continuous
 62
     7
100
AcDbLine
 10
102.9913577737
 20
68.9914385707
 30
0.0
 11
102.9915600989
 21
68.9914385707
 31
0.0
  0
LINE
  5
333
330
225
100
AcDbEntity
 67
     1
  8
7_ALL_FEATURES
  6
Continuous
 62
     7
100
AcDbLine
 10
83.5246496423
 20
72.4914385707
 30
0.0
 11
95.1271596913
 21
72.4914385707
 31
0.0
  0
LINE
  5
334
330
225
100
AcDbEntity
 67
     1
  8
7_ALL_FEATURES
  6
Continuous
 62
     7
100
AcDbLine
 10
95.1271596913
 20
72.4914385707
 30
0.0
 11
103.0771558486
 21
72.4914385707
 31
0.0
  0
LINE
  5
335
330
225
100
AcDbEntity
 67
     1
  8
7_ALL_FEATURES
  6
Continuous
 62
     7
100
AcDbLine
 10
83.5246496423
 20
74.4914385707
 30
0.0
 11
93.6271596913
 21
74.4914385707
 31
0.0
  0
LINE
  5
336
330
225
100
AcDbEntity
 67
     1
  8
7_ALL_FEATURES
  6
Continuous
 62
     7
100
AcDbLine
 10
93.6271596913
 20
74.4914385707
 30
0.0
 11
103.0771558484
 21
74.4914385707
 31
0.0
  0
LINE
  5
337
330
225
100
AcDbEntity
 67
     1
  8
7_ALL_FEATURES
  6
Continuous
 62
     7
100
AcDbLine
 10
83.528602472
 20
77.9914385707
 30
0.0
 11
93.6271596913
 21
77.9914385707
 31
0.0
  0
LINE
  5
338
330
225
100
AcDbEntity
 67
     1
  8
7_ALL_FEATURES
  6
Continuous
 62
     7
100
AcDbLine
 10
93.6271596913
 20
77.9914385707
 30
0.0
 11
102.3269426795
 21
77.9914385707
 31
0.0
  0
LINE
  5
339
330
225
100
AcDbEntity
 67
     1
  8
7_ALL_FEATURES
  6
Continuous
 62
     7
100
AcDbLine
 10
101.3271596913
 20
85.4914385707
 30
0.0
 11
101.6271596913
 21
85.1914385707
 31
0.0
  0
LINE
  5
33A
330
225
100
AcDbEntity
 67
     1
  8
7_ALL_FEATURES
  6
Continuous
 62
     7
100
AcDbLine
 10
65.927365007
 20
85.4914385707
 30
0.0
 11
67.0775567234
 21
85.4914385707
 31
0.0
  0
LINE
  5
33B
330
225
100
AcDbEntity
 67
     1
  8
7_ALL_FEATURES
  6
Continuous
 62
     7
100
AcDbLine
 10
67.0775567234
 20
85.4914385707
 30
0.0
 11
67.1168685966
 21
85.4914385707
 31
0.0
  0
LINE
  5
33C
330
225
100
AcDbEntity
 67
     1
  8
7_ALL_FEATURES
  6
Continuous
 62
     7
100
AcDbLine
 10
67.1168685966
 20
85.4914385707
 30
0.0
 11
69.6407937562
 21
85.4914385707
 31
0.0
  0
LINE
  5
33D
330
225
100
AcDbEntity
 67
     1
  8
7_ALL_FEATURES
  6
Continuous
 62
     7
100
AcDbLine
 10
69.6407937562
 20
85.4914385707
 30
0.0
 11
69.7308548765
 21
85.4914385707
 31
0.0
  0
LINE
  5
33E
330
225
100
AcDbEntity
 67
     1
  8
7_ALL_FEATURES
  6
Continuous
 62
     7
100
AcDbLine
 10
69.7308548765
 20
85.4914385707
 30
0.0
 11
72.1771515475
 21
85.4914385707
 31
0.0
  0
LINE
  5
33F
330
225
100
AcDbEntity
 67
     1
  8
7_ALL_FEATURES
  6
Continuous
 62
     7
100
AcDbLine
 10
72.1771515475
 20
85.4914385707
 30
0.0
 11
78.8313728395
 21
85.4914385707
 31
0.0
  0
LINE
  5
340
330
225
100
AcDbEntity
 67
     1
  8
7_ALL_FEATURES
  6
Continuous
 62
     7
100
AcDbLine
 10
78.8313728395
 20
85.4914385707
 30
0.0
 11
81.4772179149
 21
85.4914385707
 31
0.0
  0
LINE
  5
341
330
225
100
AcDbEntity
 67
     1
  8
7_ALL_FEATURES
  6
Continuous
 62
     7
100
AcDbLine
 10
81.4772179149
 20
85.4914385707
 30
0.0
 11
82.3773527662
 21
85.4914385707
 31
0.0
  0
LINE
  5
342
330
225
100
AcDbEntity
 67
     1
  8
7_ALL_FEATURES
  6
Continuous
 62
     7
100
AcDbLine
 10
82.3773527662
 20
85.4914385707
 30
0.0
 11
83.5338729115
 21
85.4914385707
 31
0.0
  0
LINE
  5
343
330
225
100
AcDbEntity
 67
     1
  8
7_ALL_FEATURES
  6
Continuous
 62
     7
100
AcDbLine
 10
65.9271596913
 20
85.4914385707
 30
0.0
 11
65.6271596913
 21
85.1914385707
 31
0.0
  0
LINE
  5
344
330
225
100
AcDbEntity
 67
     1
  8
7_ALL_FEATURES
  6
Continuous
 62
     7
100
AcDbLine
 10
101.3271596913
 20
83.4914385707
 30
0.0
 11
101.6271596913
 21
83.7914385707
 31
0.0
  0
LINE
  5
345
330
225
100
AcDbEntity
 67
     1
  8
7_ALL_FEATURES
  6
Continuous
 62
     7
100
AcDbLine
 10
83.528602472
 20
79.9914385707
 30
0.0
 11
83.6350653506
 21
79.9914385707
 31
0.0
  0
LINE
  5
346
330
225
100
AcDbEntity
 67
     1
  8
7_ALL_FEATURES
  6
Continuous
 62
     7
100
AcDbLine
 10
83.6350653506
 20
79.9914385707
 30
0.0
 11
85.1271596913
 21
79.9914385707
 31
0.0
  0
LINE
  5
347
330
225
100
AcDbEntity
 67
     1
  8
7_ALL_FEATURES
  6
Continuous
 62
     7
100
AcDbLine
 10
85.1271596913
 20
79.9914385707
 30
0.0
 11
91.6271596913
 21
79.9914385707
 31
0.0
  0
LINE
  5
348
330
225
100
AcDbEntity
 67
     1
  8
7_ALL_FEATURES
  6
Continuous
 62
     7
100
AcDbLine
 10
91.6271596913
 20
79.9914385707
 30
0.0
 11
91.6515831721
 21
79.9914385707
 31
0.0
  0
LINE
  5
349
330
225
100
AcDbEntity
 67
     1
  8
7_ALL_FEATURES
  6
Continuous
 62
     7
100
AcDbLine
 10
91.6515831721
 20
79.9914385707
 30
0.0
 11
102.3269426796
 21
79.9914385707
 31
0.0
  0
LINE
  5
34A
330
225
100
AcDbEntity
 67
     1
  8
7_ALL_FEATURES
  6
Continuous
 62
     7
100
AcDbLine
 10
65.9273650073
 20
83.4914385707
 30
0.0
 11
67.3775324406
 21
83.4914385707
 31
0.0
  0
LINE
  5
34B
330
225
100
AcDbEntity
 67
     1
  8
7_ALL_FEATURES
  6
Continuous
 62
     7
100
AcDbLine
 10
67.3775324406
 20
83.4914385707
 30
0.0
 11
69.6392126244
 21
83.4914385707
 31
0.0
  0
LINE
  5
34C
330
225
100
AcDbEntity
 67
     1
  8
7_ALL_FEATURES
  6
Continuous
 62
     7
100
AcDbLine
 10
69.6392126244
 20
83.4914385707
 30
0.0
 11
69.7308568917
 21
83.4914385707
 31
0.0
  0
LINE
  5
34D
330
225
100
AcDbEntity
 67
     1
  8
7_ALL_FEATURES
  6
Continuous
 62
     7
100
AcDbLine
 10
69.7308568917
 20
83.4914385707
 30
0.0
 11
71.8771758302
 21
83.4914385707
 31
0.0
  0
LINE
  5
34E
330
225
100
AcDbEntity
 67
     1
  8
7_ALL_FEATURES
  6
Continuous
 62
     7
100
AcDbLine
 10
71.8771758302
 20
83.4914385707
 30
0.0
 11
75.6271596913
 21
83.4914385707
 31
0.0
  0
LINE
  5
34F
330
225
100
AcDbEntity
 67
     1
  8
7_ALL_FEATURES
  6
Continuous
 62
     7
100
AcDbLine
 10
75.6271596913
 20
83.4914385707
 30
0.0
 11
83.5338729115
 21
83.4914385707
 31
0.0
  0
LINE
  5
350
330
225
100
AcDbEntity
 67
     1
  8
7_ALL_FEATURES
  6
Continuous
 62
     7
100
AcDbLine
 10
65.9271596913
 20
83.4914385707
 30
0.0
 11
65.6271596913
 21
83.7914385707
 31
0.0
  0
LINE
  5
351
330
225
100
AcDbEntity
 67
     1
  8
7_ALL_FEATURES
  6
Continuous
 62
     7
100
AcDbLine
 10
102.3271596913
 20
79.9914385707
 30
0.0
 11
102.6271596913
 21
79.6914385707
 31
0.0
  0
LINE
  5
352
330
225
100
AcDbEntity
 67
     1
  8
7_ALL_FEATURES
  6
Continuous
 62
     7
100
AcDbLine
 10
64.927376703
 20
79.9914385707
 30
0.0
 11
67.3775324406
 21
79.9914385707
 31
0.0
  0
LINE
  5
353
330
225
100
AcDbEntity
 67
     1
  8
7_ALL_FEATURES
  6
Continuous
 62
     7
100
AcDbLine
 10
67.3775324406
 20
79.9914385707
 30
0.0
 11
67.3835369136
 21
79.9914385707
 31
0.0
  0
LINE
  5
354
330
225
100
AcDbEntity
 67
     1
  8
7_ALL_FEATURES
  6
Continuous
 62
     7
100
AcDbLine
 10
67.3835369136
 20
79.9914385707
 30
0.0
 11
69.6392126244
 21
79.9914385707
 31
0.0
  0
LINE
  5
355
330
225
100
AcDbEntity
 67
     1
  8
7_ALL_FEATURES
  6
Continuous
 62
     7
100
AcDbLine
 10
69.6392126244
 20
79.9914385707
 30
0.0
 11
71.8771758302
 21
79.9914385707
 31
0.0
  0
LINE
  5
356
330
225
100
AcDbEntity
 67
     1
  8
7_ALL_FEATURES
  6
Continuous
 62
     7
100
AcDbLine
 10
71.8771758302
 20
79.9914385707
 30
0.0
 11
75.6271596913
 21
79.9914385707
 31
0.0
  0
LINE
  5
357
330
225
100
AcDbEntity
 67
     1
  8
7_ALL_FEATURES
  6
Continuous
 62
     7
100
AcDbLine
 10
75.6271596913
 20
79.9914385707
 30
0.0
 11
82.1271596913
 21
79.9914385707
 31
0.0
  0
LINE
  5
358
330
225
100
AcDbEntity
 67
     1
  8
7_ALL_FEATURES
  6
Continuous
 62
     7
100
AcDbLine
 10
82.1271596913
 20
79.9914385707
 30
0.0
 11
83.528602472
 21
79.9914385707
 31
0.0
  0
LINE
  5
359
330
225
100
AcDbEntity
 67
     1
  8
7_ALL_FEATURES
  6
Continuous
 62
     7
100
AcDbLine
 10
64.9271596913
 20
79.9914385707
 30
0.0
 11
64.6271596913
 21
79.6914385707
 31
0.0
  0
LINE
  5
35A
330
225
100
AcDbEntity
 67
     1
  8
7_ALL_FEATURES
  6
Continuous
 62
     7
100
AcDbLine
 10
83.5338729115
 20
83.4914385707
 30
0.0
 11
91.6271596913
 21
83.4914385707
 31
0.0
  0
LINE
  5
35B
330
225
100
AcDbEntity
 67
     1
  8
7_ALL_FEATURES
  6
Continuous
 62
     7
100
AcDbLine
 10
91.6271596913
 20
83.4914385707
 30
0.0
 11
101.3269543753
 21
83.4914385707
 31
0.0
  0
LINE
  5
35C
330
225
100
AcDbEntity
 67
     1
  8
7_ALL_FEATURES
  6
Continuous
 62
     7
100
AcDbLine
 10
102.3271596913
 20
77.9914385707
 30
0.0
 11
102.6271596913
 21
78.2914385707
 31
0.0
  0
LINE
  5
35D
330
225
100
AcDbEntity
 67
     1
  8
7_ALL_FEATURES
  6
Continuous
 62
     7
100
AcDbLine
 10
64.9273767031
 20
77.9914385707
 30
0.0
 11
67.3775324406
 21
77.9914385707
 31
0.0
  0
LINE
  5
35E
330
225
100
AcDbEntity
 67
     1
  8
7_ALL_FEATURES
  6
Continuous
 62
     7
100
AcDbLine
 10
67.3775324406
 20
77.9914385707
 30
0.0
 11
67.3835377979
 21
77.9914385707
 31
0.0
  0
LINE
  5
35F
330
225
100
AcDbEntity
 67
     1
  8
7_ALL_FEATURES
  6
Continuous
 62
     7
100
AcDbLine
 10
67.3835377979
 20
77.9914385707
 30
0.0
 11
69.6392126244
 21
77.9914385707
 31
0.0
  0
LINE
  5
360
330
225
100
AcDbEntity
 67
     1
  8
7_ALL_FEATURES
  6
Continuous
 62
     7
100
AcDbLine
 10
69.6392126244
 20
77.9914385707
 30
0.0
 11
71.8771758302
 21
77.9914385707
 31
0.0
  0
LINE
  5
361
330
225
100
AcDbEntity
 67
     1
  8
7_ALL_FEATURES
  6
Continuous
 62
     7
100
AcDbLine
 10
71.8771758302
 20
77.9914385707
 30
0.0
 11
73.6271596913
 21
77.9914385707
 31
0.0
  0
LINE
  5
362
330
225
100
AcDbEntity
 67
     1
  8
7_ALL_FEATURES
  6
Continuous
 62
     7
100
AcDbLine
 10
73.6271596913
 20
77.9914385707
 30
0.0
 11
83.528602472
 21
77.9914385707
 31
0.0
  0
LINE
  5
363
330
225
100
AcDbEntity
 67
     1
  8
7_ALL_FEATURES
  6
Continuous
 62
     7
100
AcDbLine
 10
64.9271596913
 20
77.9914385707
 30
0.0
 11
64.6271596913
 21
78.2914385707
 31
0.0
  0
LINE
  5
364
330
225
100
AcDbEntity
 67
     1
  8
7_ALL_FEATURES
  6
Continuous
 62
     7
100
AcDbLine
 10
103.0771596913
 20
74.4914385707
 30
0.0
 11
103.3771596913
 21
74.1914385707
 31
0.0
  0
LINE
  5
365
330
225
100
AcDbEntity
 67
     1
  8
7_ALL_FEATURES
  6
Continuous
 62
     7
100
AcDbLine
 10
83.5338729115
 20
85.4914385707
 30
0.0
 11
83.6337477407
 21
85.4914385707
 31
0.0
  0
LINE
  5
366
330
225
100
AcDbEntity
 67
     1
  8
7_ALL_FEATURES
  6
Continuous
 62
     7
100
AcDbLine
 10
83.6337477407
 20
85.4914385707
 30
0.0
 11
84.8769666164
 21
85.4914385707
 31
0.0
  0
LINE
  5
367
330
225
100
AcDbEntity
 67
     1
  8
7_ALL_FEATURES
  6
Continuous
 62
     7
100
AcDbLine
 10
84.8769666164
 20
85.4914385707
 30
0.0
 11
85.7771014677
 21
85.4914385707
 31
0.0
  0
LINE
  5
368
330
225
100
AcDbEntity
 67
     1
  8
7_ALL_FEATURES
  6
Continuous
 62
     7
100
AcDbLine
 10
85.7771014677
 20
85.4914385707
 30
0.0
 11
88.3312408953
 21
85.4914385707
 31
0.0
  0
LINE
  5
369
330
225
100
AcDbEntity
 67
     1
  8
7_ALL_FEATURES
  6
Continuous
 62
     7
100
AcDbLine
 10
88.3312408953
 20
85.4914385707
 30
0.0
 11
88.3810465489
 21
85.4914385707
 31
0.0
  0
LINE
  5
36A
330
225
100
AcDbEntity
 67
     1
  8
7_ALL_FEATURES
  6
Continuous
 62
     7
100
AcDbLine
 10
88.3810465489
 20
85.4914385707
 30
0.0
 11
101.3269543756
 21
85.4914385707
 31
0.0
  0
LINE
  5
36B
330
225
100
AcDbEntity
 67
     1
  8
7_ALL_FEATURES
  6
Continuous
 62
     7
100
AcDbLine
 10
64.1771635343
 20
74.4914385707
 30
0.0
 11
67.3775324406
 21
74.4914385707
 31
0.0
  0
LINE
  5
36C
330
225
100
AcDbEntity
 67
     1
  8
7_ALL_FEATURES
  6
Continuous
 62
     7
100
AcDbLine
 10
67.3775324406
 20
74.4914385707
 30
0.0
 11
69.6392126244
 21
74.4914385707
 31
0.0
  0
LINE
  5
36D
330
225
100
AcDbEntity
 67
     1
  8
7_ALL_FEATURES
  6
Continuous
 62
     7
100
AcDbLine
 10
69.6392126244
 20
74.4914385707
 30
0.0
 11
71.8771758302
 21
74.4914385707
 31
0.0
  0
LINE
  5
36E
330
225
100
AcDbEntity
 67
     1
  8
7_ALL_FEATURES
  6
Continuous
 62
     7
100
AcDbLine
 10
71.8771758302
 20
74.4914385707
 30
0.0
 11
73.6271596913
 21
74.4914385707
 31
0.0
  0
LINE
  5
36F
330
225
100
AcDbEntity
 67
     1
  8
7_ALL_FEATURES
  6
Continuous
 62
     7
100
AcDbLine
 10
73.6271596913
 20
74.4914385707
 30
0.0
 11
83.5246496423
 21
74.4914385707
 31
0.0
  0
LINE
  5
370
330
225
100
AcDbEntity
 67
     1
  8
7_ALL_FEATURES
  6
Continuous
 62
     7
100
AcDbLine
 10
64.1771596913
 20
74.4914385707
 30
0.0
 11
63.8771596913
 21
74.1914385707
 31
0.0
  0
LINE
  5
371
330
225
100
AcDbEntity
 67
     1
  8
7_ALL_FEATURES
  6
Continuous
 62
     7
100
AcDbLine
 10
103.0771596913
 20
72.4914385707
 30
0.0
 11
103.3771596913
 21
72.7914385707
 31
0.0
  0
LINE
  5
372
330
225
100
AcDbEntity
 67
     1
  8
7_ALL_FEATURES
  6
Continuous
 62
     7
100
AcDbLine
 10
64.177163534
 20
72.4914385707
 30
0.0
 11
67.3775324406
 21
72.4914385707
 31
0.0
  0
LINE
  5
373
330
225
100
AcDbEntity
 67
     1
  8
7_ALL_FEATURES
  6
Continuous
 62
     7
100
AcDbLine
 10
67.3775324406
 20
72.4914385707
 30
0.0
 11
69.6392126244
 21
72.4914385707
 31
0.0
  0
LINE
  5
374
330
225
100
AcDbEntity
 67
     1
  8
7_ALL_FEATURES
  6
Continuous
 62
     7
100
AcDbLine
 10
69.6392126244
 20
72.4914385707
 30
0.0
 11
71.8771758302
 21
72.4914385707
 31
0.0
  0
LINE
  5
375
330
225
100
AcDbEntity
 67
     1
  8
7_ALL_FEATURES
  6
Continuous
 62
     7
100
AcDbLine
 10
71.8771758302
 20
72.4914385707
 30
0.0
 11
72.1271596913
 21
72.4914385707
 31
0.0
  0
LINE
  5
376
330
225
100
AcDbEntity
 67
     1
  8
7_ALL_FEATURES
  6
Continuous
 62
     7
100
AcDbLine
 10
72.1271596913
 20
72.4914385707
 30
0.0
 11
83.5246496423
 21
72.4914385707
 31
0.0
  0
LINE
  5
377
330
225
100
AcDbEntity
 67
     1
  8
7_ALL_FEATURES
  6
Continuous
 62
     7
100
AcDbLine
 10
64.1771596913
 20
72.4914385707
 30
0.0
 11
63.8771596913
 21
72.7914385707
 31
0.0
  0
LINE
  5
378
330
225
100
AcDbEntity
 67
     1
  8
7_ALL_FEATURES
  6
Continuous
 62
     7
100
AcDbLine
 10
102.9916267241
 20
68.9914385707
 30
0.0
 11
103.9031868034
 21
68.4026054733
 31
0.0
  0
LINE
  5
379
330
225
100
AcDbEntity
 67
     1
  8
7_ALL_FEATURES
  6
Continuous
 62
     7
100
AcDbLine
 10
64.2627592838
 20
68.9914385707
 30
0.0
 11
67.3775324406
 21
68.9914385707
 31
0.0
  0
LINE
  5
37A
330
225
100
AcDbEntity
 67
     1
  8
7_ALL_FEATURES
  6
Continuous
 62
     7
100
AcDbLine
 10
67.3775324406
 20
68.9914385707
 30
0.0
 11
69.6392126244
 21
68.9914385707
 31
0.0
  0
LINE
  5
37B
330
225
100
AcDbEntity
 67
     1
  8
7_ALL_FEATURES
  6
Continuous
 62
     7
100
AcDbLine
 10
69.6392126244
 20
68.9914385707
 30
0.0
 11
71.8771758302
 21
68.9914385707
 31
0.0
  0
LINE
  5
37C
330
225
100
AcDbEntity
 67
     1
  8
7_ALL_FEATURES
  6
Continuous
 62
     7
100
AcDbLine
 10
71.8771758302
 20
68.9914385707
 30
0.0
 11
72.1271596913
 21
68.9914385707
 31
0.0
  0
LINE
  5
37D
330
225
100
AcDbEntity
 67
     1
  8
7_ALL_FEATURES
  6
Continuous
 62
     7
100
AcDbLine
 10
72.1271596913
 20
68.9914385707
 30
0.0
 11
82.5535279977
 21
68.9914385707
 31
0.0
  0
LINE
  5
37E
330
225
100
AcDbEntity
 67
     1
  8
7_ALL_FEATURES
  6
Continuous
 62
     7
100
AcDbLine
 10
82.5535279977
 20
68.9914385707
 30
0.0
 11
83.5250992284
 21
68.9914385707
 31
0.0
  0
LINE
  5
37F
330
225
100
AcDbEntity
 67
     1
  8
7_ALL_FEATURES
  6
Continuous
 62
     7
100
AcDbLine
 10
83.5250992284
 20
68.9914385707
 30
0.0
 11
83.5586439773
 21
68.9914385707
 31
0.0
  0
LINE
  5
380
330
225
100
AcDbEntity
 67
     1
  8
7_ALL_FEATURES
  6
Continuous
 62
     7
100
AcDbLine
 10
83.5586439773
 20
68.9914385707
 30
0.0
 11
84.5532190779
 21
68.9914385707
 31
0.0
  0
LINE
  5
381
330
225
100
AcDbEntity
 67
     1
  8
7_ALL_FEATURES
  6
Continuous
 62
     7
100
AcDbLine
 10
84.5532190779
 20
68.9914385707
 30
0.0
 11
95.1271596913
 21
68.9914385707
 31
0.0
  0
LINE
  5
382
330
225
100
AcDbEntity
 67
     1
  8
7_ALL_FEATURES
  6
Continuous
 62
     7
100
AcDbLine
 10
95.1271596913
 20
68.9914385707
 30
0.0
 11
102.9913577737
 21
68.9914385707
 31
0.0
  0
LINE
  5
383
330
225
100
AcDbEntity
 67
     1
  8
7_ALL_FEATURES
  6
Continuous
 62
     7
100
AcDbLine
 10
64.2626926586
 20
68.9914385707
 30
0.0
 11
63.3511325793
 21
68.4026054733
 31
0.0
  0
LINE
  5
384
330
225
100
AcDbEntity
 67
     1
  8
02___PRT_ALL_AXES
  6
Continuous
 62
     7
100
AcDbLine
 10
101.6271596913
 20
83.7914385707
 30
0.0
 11
101.6271596913
 21
85.1914385707
 31
0.0
  0
ARC
  5
385
330
225
100
AcDbEntity
 67
     1
  8
02___PRT_ALL_AXES
  6
Continuous
 62
     7
100
AcDbCircle
 10
83.6271596913
 20
59.2569315284
 30
0.0
 40
22.2432153106
100
AcDbArc
 50
155.7218410949
 51
168.3006596256
  0
LINE
  5
386
330
225
100
AcDbEntity
 67
     1
  8
02___PRT_ALL_AXES
  6
Continuous
 62
     7
100
AcDbLine
 10
91.6271596913
 20
79.9914385707
 30
0.0
 11
91.6271596913
 21
83.4914385707
 31
0.0
  0
LINE
  5
387
330
225
100
AcDbEntity
 67
     1
  8
02___PRT_ALL_AXES
  6
Continuous
 62
     7
100
AcDbLine
 10
102.6271596913
 20
78.2914385707
 30
0.0
 11
102.6271596913
 21
79.6914385707
 31
0.0
  0
LINE
  5
388
330
225
100
AcDbEntity
 67
     1
  8
02___PRT_ALL_AXES
  6
Continuous
 62
     7
100
AcDbLine
 10
93.6271596913
 20
74.4914385707
 30
0.0
 11
93.6271596913
 21
77.9914385707
 31
0.0
  0
LINE
  5
389
330
225
100
AcDbEntity
 67
     1
  8
02___PRT_ALL_AXES
  6
Continuous
 62
     7
100
AcDbLine
 10
103.3771596913
 20
72.7914385707
 30
0.0
 11
103.3771596913
 21
74.1914385707
 31
0.0
  0
ARC
  5
38A
330
225
100
AcDbEntity
 67
     1
  8
02___PRT_ALL_AXES
  6
Continuous
 62
     7
100
AcDbCircle
 10
83.6271596913
 20
59.2569315284
 30
0.0
 40
22.2432153106
100
AcDbArc
 50
11.6993403744
 51
24.2781589051
  0
LINE
  5
38B
330
225
100
AcDbEntity
 67
     1
  8
02___PRT_ALL_AXES
  6
Continuous
 62
     7
100
AcDbLine
 10
95.1271596913
 20
68.9914385707
 30
0.0
 11
95.1271596913
 21
72.4914385707
 31
0.0
  0
LINE
  5
38C
330
225
100
AcDbEntity
 67
     1
  8
02___PRT_ALL_AXES
  6
Continuous
 62
     7
100
AcDbLine
 10
65.6271596913
 20
83.7914385707
 30
0.0
 11
65.6271596913
 21
85.1914385707
 31
0.0
  0
LINE
  5
38D
330
225
100
AcDbEntity
 67
     1
  8
02___PRT_ALL_AXES
  6
Continuous
 62
     7
100
AcDbLine
 10
75.6271596913
 20
79.9914385707
 30
0.0
 11
75.6271596913
 21
83.4914385707
 31
0.0
  0
LINE
  5
38E
330
225
100
AcDbEntity
 67
     1
  8
02___PRT_ALL_AXES
  6
Continuous
 62
     7
100
AcDbLine
 10
72.1271596913
 20
68.9914385707
 30
0.0
 11
72.1271596913
 21
72.4914385707
 31
0.0
  0
LINE
  5
38F
330
225
100
AcDbEntity
 67
     1
  8
02___PRT_ALL_AXES
  6
Continuous
 62
     7
100
AcDbLine
 10
63.8771596913
 20
72.7914385707
 30
0.0
 11
63.8771596913
 21
74.1914385707
 31
0.0
  0
LINE
  5
390
330
225
100
AcDbEntity
 67
     1
  8
02___PRT_ALL_AXES
  6
Continuous
 62
     7
100
AcDbLine
 10
73.6271596913
 20
74.4914385707
 30
0.0
 11
73.6271596913
 21
77.9914385707
 31
0.0
  0
LINE
  5
391
330
225
100
AcDbEntity
 67
     1
  8
02___PRT_ALL_AXES
  6
Continuous
 62
     7
100
AcDbLine
 10
64.6271596913
 20
78.2914385707
 30
0.0
 11
64.6271596913
 21
79.6914385707
 31
0.0
  0
LINE
  5
392
330
225
100
AcDbEntity
 67
     1
  8
7_ALL_FEATURES
  6
Continuous
 62
     7
100
AcDbLine
 10
103.9029051922
 20
68.4026054734
 30
0.0
 11
103.9031868033
 21
68.4026054734
 31
0.0
  0
LINE
  5
393
330
225
100
AcDbEntity
 67
     1
  8
7_ALL_FEATURES
  6
Continuous
 62
     7
100
AcDbLine
 10
83.5322917797
 20
85.1914385707
 30
0.0
 11
101.6271596913
 21
85.1914385707
 31
0.0
  0
LINE
  5
394
330
225
100
AcDbEntity
 67
     1
  8
7_ALL_FEATURES
  6
Continuous
 62
     7
100
AcDbLine
 10
83.5322917797
 20
83.7914385707
 30
0.0
 11
101.6271596913
 21
83.7914385707
 31
0.0
  0
LINE
  5
395
330
225
100
AcDbEntity
 67
     1
  8
7_ALL_FEATURES
  6
Continuous
 62
     7
100
AcDbLine
 10
63.3511325794
 20
68.4026054734
 30
0.0
 11
103.9029051924
 21
68.4026054734
 31
0.0
  0
LINE
  5
396
330
225
100
AcDbEntity
 67
     1
  8
7_ALL_FEATURES
  6
Continuous
 62
     7
100
AcDbLine
 10
83.5230685105
 20
74.1914385707
 30
0.0
 11
103.3771596913
 21
74.1914385707
 31
0.0
  0
LINE
  5
397
330
225
100
AcDbEntity
 67
     1
  8
7_ALL_FEATURES
  6
Continuous
 62
     7
100
AcDbLine
 10
83.5230685105
 20
72.7914385707
 30
0.0
 11
103.3771596913
 21
72.7914385707
 31
0.0
  0
LINE
  5
398
330
225
100
AcDbEntity
 67
     1
  8
7_ALL_FEATURES
  6
Continuous
 62
     7
100
AcDbLine
 10
65.6271596913
 20
85.1914385707
 30
0.0
 11
83.5322917797
 21
85.1914385707
 31
0.0
  0
LINE
  5
399
330
225
100
AcDbEntity
 67
     1
  8
7_ALL_FEATURES
  6
Continuous
 62
     7
100
AcDbLine
 10
65.6271596913
 20
83.7914385707
 30
0.0
 11
83.5322917797
 21
83.7914385707
 31
0.0
  0
LINE
  5
39A
330
225
100
AcDbEntity
 67
     1
  8
7_ALL_FEATURES
  6
Continuous
 62
     7
100
AcDbLine
 10
83.5270213401
 20
79.6914385707
 30
0.0
 11
102.6271596913
 21
79.6914385707
 31
0.0
  0
LINE
  5
39B
330
225
100
AcDbEntity
 67
     1
  8
7_ALL_FEATURES
  6
Continuous
 62
     7
100
AcDbLine
 10
64.6271596913
 20
79.6914385707
 30
0.0
 11
83.5270213401
 21
79.6914385707
 31
0.0
  0
LINE
  5
39C
330
225
100
AcDbEntity
 67
     1
  8
7_ALL_FEATURES
  6
Continuous
 62
     7
100
AcDbLine
 10
64.6271596913
 20
78.2914385707
 30
0.0
 11
83.5270213401
 21
78.2914385707
 31
0.0
  0
LINE
  5
39D
330
225
100
AcDbEntity
 67
     1
  8
7_ALL_FEATURES
  6
Continuous
 62
     7
100
AcDbLine
 10
83.5270213401
 20
78.2914385707
 30
0.0
 11
102.6271596913
 21
78.2914385707
 31
0.0
  0
LINE
  5
39E
330
225
100
AcDbEntity
 67
     1
  8
7_ALL_FEATURES
  6
Continuous
 62
     7
100
AcDbLine
 10
63.8771596913
 20
72.7914385707
 30
0.0
 11
83.5230685105
 21
72.7914385707
 31
0.0
  0
LINE
  5
39F
330
225
100
AcDbEntity
 67
     1
  8
7_ALL_FEATURES
  6
Continuous
 62
     7
100
AcDbLine
 10
63.8771596913
 20
74.1914385707
 30
0.0
 11
83.5230685105
 21
74.1914385707
 31
0.0
  0
ARC
  5
3A0
330
225
100
AcDbEntity
 67
     1
  8
7_ALL_FEATURES
  6
Continuous
 62
     3
100
AcDbCircle
 10
55.2771596913
 20
50.1569315284
 30
0.0
 40
0.35
100
AcDbArc
 50
180.0
 51
270.0
  0
LINE
  5
3A1
330
225
100
AcDbEntity
 67
     1
  8
7_ALL_FEATURES
  6
Continuous
 62
     3
100
AcDbLine
 10
53.6209419087
 20
45.0193670937
 30
0.0
 11
42.5209419087
 21
64.2451310577
 31
0.0
  0
LINE
  5
3A2
330
225
100
AcDbEntity
 67
     1
  8
7_ALL_FEATURES
  6
Continuous
 62
     3
100
AcDbLine
 10
54.9271596913
 20
50.1569315284
 30
0.0
 11
54.9271596913
 21
56.9569315284
 31
0.0
  0
LINE
  5
3A3
330
225
100
AcDbEntity
 67
     1
  8
7_ALL_FEATURES
  6
Continuous
 62
     3
100
AcDbLine
 10
54.9271596913
 20
46.9569315284
 30
0.0
 11
54.9271596913
 21
45.3693670937
 31
0.0
  0
ARC
  5
3A4
330
225
100
AcDbEntity
 67
     1
  8
7_ALL_FEATURES
  6
Continuous
 62
     3
100
AcDbCircle
 10
54.2271596913
 20
45.3693670937
 30
0.0
 40
0.7
100
AcDbArc
 50
210.0
 51
360.0
  0
ARC
  5
3A5
330
225
100
AcDbEntity
 67
     1
  8
7_ALL_FEATURES
  6
Continuous
 62
     3
100
AcDbCircle
 10
43.1271596913
 20
64.5951310577
 30
0.0
 40
0.7
100
AcDbArc
 50
180.0
 51
210.0
  0
LINE
  5
3A6
330
225
100
AcDbEntity
 67
     1
  8
7_ALL_FEATURES
  6
Continuous
 62
     3
100
AcDbLine
 10
42.4271596913
 20
64.5951310577
 30
0.0
 11
42.4271596913
 21
70.407566623
 31
0.0
  0
LINE
  5
3A7
330
225
100
AcDbEntity
 67
     1
  8
7_ALL_FEATURES
  6
Continuous
 62
     3
100
AcDbLine
 10
55.2771596913
 20
47.3069315284
 30
0.0
 11
55.8771596913
 21
47.3069315284
 31
0.0
  0
ARC
  5
3A8
330
225
100
AcDbEntity
 67
     1
  8
7_ALL_FEATURES
  6
Continuous
 62
     3
100
AcDbCircle
 10
55.8771596913
 20
49.1069315284
 30
0.0
 40
0.7
100
AcDbArc
 50
16.6920503368
 51
90.0
  0
LINE
  5
3A9
330
225
100
AcDbEntity
 67
     1
  8
7_ALL_FEATURES
  6
Continuous
 62
     3
100
AcDbLine
 10
55.2771596913
 20
49.8069315284
 30
0.0
 11
55.8771596913
 21
49.8069315284
 31
0.0
  0
ARC
  5
3AA
330
225
100
AcDbEntity
 67
     1
  8
7_ALL_FEATURES
  6
Continuous
 62
     3
100
AcDbCircle
 10
55.2771596913
 20
46.9569315284
 30
0.0
 40
0.35
100
AcDbArc
 50
90.0
 51
180.0
  0
ARC
  5
3AB
330
225
100
AcDbEntity
 67
     1
  8
7_ALL_FEATURES
  6
Continuous
 62
     3
100
AcDbCircle
 10
55.8771596913
 20
48.0069315284
 30
0.0
 40
0.7
100
AcDbArc
 50
270.0
 51
343.3079496632
  0
LINE
  5
3AC
330
225
100
AcDbEntity
 67
     1
  8
7_ALL_FEATURES
  6
Continuous
 62
     3
100
AcDbLine
 10
124.733377474
 20
64.2451310577
 30
0.0
 11
113.633377474
 21
45.0193670937
 31
0.0
  0
ARC
  5
3AD
330
225
100
AcDbEntity
 67
     1
  8
7_ALL_FEATURES
  6
Continuous
 62
     3
100
AcDbCircle
 10
111.9771596913
 20
50.1569315284
 30
0.0
 40
0.35
100
AcDbArc
 50
270.0
 51
360.0
  0
LINE
  5
3AE
330
225
100
AcDbEntity
 67
     1
  8
7_ALL_FEATURES
  6
Continuous
 62
     3
100
AcDbLine
 10
112.3271596913
 20
56.9569315284
 30
0.0
 11
112.3271596913
 21
50.1569315284
 31
0.0
  0
LINE
  5
3AF
330
225
100
AcDbEntity
 67
     1
  8
7_ALL_FEATURES
  6
Continuous
 62
     3
100
AcDbLine
 10
112.3271596913
 20
45.3693670937
 30
0.0
 11
112.3271596913
 21
46.9569315284
 31
0.0
  0
ARC
  5
3B0
330
225
100
AcDbEntity
 67
     1
  8
7_ALL_FEATURES
  6
Continuous
 62
     3
100
AcDbCircle
 10
113.0271596913
 20
45.3693670937
 30
0.0
 40
0.7
100
AcDbArc
 50
180.0
 51
330.0
  0
ARC
  5
3B1
330
225
100
AcDbEntity
 67
     1
  8
7_ALL_FEATURES
  6
Continuous
 62
     3
100
AcDbCircle
 10
124.1271596913
 20
64.5951310577
 30
0.0
 40
0.7
100
AcDbArc
 50
330.0
 51
360.0
  0
LINE
  5
3B2
330
225
100
AcDbEntity
 67
     1
  8
7_ALL_FEATURES
  6
Continuous
 62
     3
100
AcDbLine
 10
124.8271596913
 20
70.407566623
 30
0.0
 11
124.8271596913
 21
64.5951310577
 31
0.0
  0
ARC
  5
3B3
330
225
100
AcDbEntity
 67
     1
  8
7_ALL_FEATURES
  6
Continuous
 62
     3
100
AcDbCircle
 10
111.3771596913
 20
49.1069315284
 30
0.0
 40
0.7
100
AcDbArc
 50
90.0
 51
163.3079496632
  0
LINE
  5
3B4
330
225
100
AcDbEntity
 67
     1
  8
7_ALL_FEATURES
  6
Continuous
 62
     3
100
AcDbLine
 10
111.3771596913
 20
47.3069315284
 30
0.0
 11
111.9771596913
 21
47.3069315284
 31
0.0
  0
LINE
  5
3B5
330
225
100
AcDbEntity
 67
     1
  8
7_ALL_FEATURES
  6
Continuous
 62
     3
100
AcDbLine
 10
111.3771596913
 20
49.8069315284
 30
0.0
 11
111.9771596913
 21
49.8069315284
 31
0.0
  0
ARC
  5
3B6
330
225
100
AcDbEntity
 67
     1
  8
7_ALL_FEATURES
  6
Continuous
 62
     3
100
AcDbCircle
 10
111.9771596913
 20
46.9569315284
 30
0.0
 40
0.35
100
AcDbArc
 50
0.0
 51
90.0
  0
ARC
  5
3B7
330
225
100
AcDbEntity
 67
     1
  8
7_ALL_FEATURES
  6
Continuous
 62
     3
100
AcDbCircle
 10
111.3771596913
 20
48.0069315284
 30
0.0
 40
0.7
100
AcDbArc
 50
196.6920503368
 51
270.0
  0
LINE
  5
3B8
330
225
100
AcDbEntity
 67
     1
  8
3_ALL_AXES
  6
Continuous
 62
     7
100
AcDbLine
 10
109.6471520049
 20
147.1199172692
 30
0.0
 11
109.7438417465
 21
147.1199172692
 31
0.0
  0
LINE
  5
3B9
330
225
100
AcDbEntity
 67
     1
  8
3_ALL_AXES
  6
Continuous
 62
     7
100
AcDbLine
 10
109.6471520049
 20
144.6199172692
 30
0.0
 11
109.7438417465
 21
144.6199172692
 31
0.0
  0
LINE
  5
3BA
330
225
100
AcDbEntity
 67
     1
  8
3_ALL_AXES
  6
Continuous
 62
     7
100
AcDbLine
 10
57.6071673777
 20
147.1199172692
 30
0.0
 11
57.5104776361
 21
147.1199172692
 31
0.0
  0
LINE
  5
3BB
330
225
100
AcDbEntity
 67
     1
  8
3_ALL_AXES
  6
Continuous
 62
     7
100
AcDbLine
 10
57.6071673777
 20
144.6199172692
 30
0.0
 11
57.5104776361
 21
144.6199172692
 31
0.0
  0
ARC
  5
3BC
330
225
100
AcDbEntity
 67
     1
  8
3_ALL_AXES
  6
Continuous
 62
     7
100
AcDbCircle
 10
83.6271596913
 20
145.8699172692
 30
0.0
 40
12.0
100
AcDbArc
 50
0.0
 51
180.0
  0
ARC
  5
3BD
330
225
100
AcDbEntity
 67
     1
  8
3_ALL_AXES
  6
Continuous
 62
     7
100
AcDbCircle
 10
83.6271596913
 20
145.8699172692
 30
0.0
 40
19.0
100
AcDbArc
 50
0.0
 51
180.0
  0
ARC
  5
3BE
330
225
100
AcDbEntity
 67
     1
  8
3_ALL_AXES
  6
Continuous
 62
     7
100
AcDbCircle
 10
83.6271596913
 20
145.8699172692
 30
0.0
 40
19.0
100
AcDbArc
 50
180.0
 51
360.0
  0
ARC
  5
3BF
330
225
100
AcDbEntity
 67
     1
  8
3_ALL_AXES
  6
Continuous
 62
     7
100
AcDbCircle
 10
83.6271596913
 20
145.8699172692
 30
0.0
 40
12.0
100
AcDbArc
 50
180.0
 51
360.0
  0
ARC
  5
3C0
330
225
100
AcDbEntity
 67
     1
  8
7_ALL_FEATURES
  6
Continuous
 62
     9
100
AcDbCircle
 10
83.6271596913
 20
145.8699172692
 30
0.0
 40
16.4167608962
100
AcDbArc
 50
0.0
 51
180.0
  0
ARC
  5
3C1
330
225
100
AcDbEntity
 67
     1
  8
7_ALL_FEATURES
  6
Continuous
 62
     9
100
AcDbCircle
 10
83.6271596913
 20
145.8699172692
 30
0.0
 40
17.8166180609
100
AcDbArc
 50
0.0
 51
180.0
  0
ARC
  5
3C2
330
225
100
AcDbEntity
 67
     1
  8
7_ALL_FEATURES
  6
Continuous
 62
     9
100
AcDbCircle
 10
83.6271596913
 20
145.8699172692
 30
0.0
 40
17.8166180609
100
AcDbArc
 50
180.0
 51
360.0
  0
ARC
  5
3C3
330
225
100
AcDbEntity
 67
     1
  8
7_ALL_FEATURES
  6
Continuous
 62
     9
100
AcDbCircle
 10
83.6271596913
 20
145.8699172692
 30
0.0
 40
16.4167608962
100
AcDbArc
 50
180.0
 51
360.0
  0
ARC
  5
3C4
330
225
100
AcDbEntity
 67
     1
  8
7_ALL_FEATURES
  6
Continuous
 62
     9
100
AcDbCircle
 10
83.6271596913
 20
145.8699172692
 30
0.0
 40
19.2048931833
100
AcDbArc
 50
0.3019753397
 51
180.3019753397
  0
ARC
  5
3C5
330
225
100
AcDbEntity
 67
     1
  8
7_ALL_FEATURES
  6
Continuous
 62
     9
100
AcDbCircle
 10
83.6271596913
 20
145.8699172692
 30
0.0
 40
19.2048931833
100
AcDbArc
 50
180.3019753397
 51
0.3019753397
  0
ARC
  5
3C6
330
225
100
AcDbEntity
 67
     1
  8
7_ALL_FEATURES
  6
Continuous
 62
     7
100
AcDbCircle
 10
83.6271596913
 20
145.8699172692
 30
0.0
 40
22.0
100
AcDbArc
 50
90.0
 51
270.0
  0
ARC
  5
3C7
330
225
100
AcDbEntity
 67
     1
  8
3_ALL_AXES
  6
Continuous
 62
     7
100
AcDbCircle
 10
83.6271596913
 20
145.8699172692
 30
0.0
 40
26.05
100
AcDbArc
 50
90.0
 51
270.0
  0
ARC
  5
3C8
330
225
100
AcDbEntity
 67
     1
  8
7_ALL_FEATURES
  6
Continuous
 62
     7
100
AcDbCircle
 10
83.6271596913
 20
145.8699172692
 30
0.0
 40
22.0
100
AcDbArc
 50
270.0
 51
90.0
  0
ARC
  5
3C9
330
225
100
AcDbEntity
 67
     1
  8
3_ALL_AXES
  6
Continuous
 62
     7
100
AcDbCircle
 10
83.6271596913
 20
145.8699172692
 30
0.0
 40
26.05
100
AcDbArc
 50
270.0
 51
90.0
  0
ARC
  5
3CA
330
225
100
AcDbEntity
 67
     1
  8
7_ALL_FEATURES
  6
Continuous
 62
     9
100
AcDbCircle
 10
83.6271596913
 20
145.8699172692
 30
0.0
 40
22.0316718427
100
AcDbArc
 50
89.99999996930002
 51
269.9999999693
  0
ARC
  5
3CB
330
225
100
AcDbEntity
 67
     1
  8
7_ALL_FEATURES
  6
Continuous
 62
     9
100
AcDbCircle
 10
83.6271596913
 20
145.8699172692
 30
0.0
 40
24.2180339887
100
AcDbArc
 50
270.000000176
 51
90.000000176
  0
ARC
  5
3CC
330
225
100
AcDbEntity
 67
     1
  8
7_ALL_FEATURES
  6
Continuous
 62
     9
100
AcDbCircle
 10
83.6271596913
 20
145.8699172692
 30
0.0
 40
24.2180339887
100
AcDbArc
 50
90.000000176
 51
270.000000176
  0
ARC
  5
3CD
330
225
100
AcDbEntity
 67
     1
  8
7_ALL_FEATURES
  6
Continuous
 62
     9
100
AcDbCircle
 10
83.6271596913
 20
145.8699172692
 30
0.0
 40
23.3236067977
100
AcDbArc
 50
269.9999999693
 51
89.99999996930002
  0
ARC
  5
3CE
330
225
100
AcDbEntity
 67
     1
  8
7_ALL_FEATURES
  6
Continuous
 62
     9
100
AcDbCircle
 10
83.6271596913
 20
145.8699172692
 30
0.0
 40
22.0316718427
100
AcDbArc
 50
269.9999999693
 51
89.99999996930002
  0
ARC
  5
3CF
330
225
100
AcDbEntity
 67
     1
  8
7_ALL_FEATURES
  6
Continuous
 62
     9
100
AcDbCircle
 10
83.6271596913
 20
145.8699172692
 30
0.0
 40
23.3236067977
100
AcDbArc
 50
89.99999996930002
 51
269.9999999693
  0
ARC
  5
3D0
330
225
100
AcDbEntity
 67
     1
  8
02___PRT_ALL_AXES
  6
Continuous
 62
     7
100
AcDbCircle
 10
83.6271596913
 20
145.8699172692
 30
0.0
 40
26.15
100
AcDbArc
 50
0.0
 51
180.0
  0
ARC
  5
3D1
330
225
100
AcDbEntity
 67
     1
  8
02___PRT_ALL_AXES
  6
Continuous
 62
     7
100
AcDbCircle
 10
83.6271596913
 20
145.8699172692
 30
0.0
 40
26.15
100
AcDbArc
 50
180.0
 51
360.0
  0
ARC
  5
3D2
330
225
100
AcDbEntity
 67
     1
  8
02___PRT_ALL_AXES
  6
Continuous
 62
     7
100
AcDbCircle
 10
83.6271596913
 20
145.8699172692
 30
0.0
 40
34.5
100
AcDbArc
 50
0.0
 51
180.0
  0
ARC
  5
3D3
330
225
100
AcDbEntity
 67
     1
  8
02___PRT_ALL_AXES
  6
Continuous
 62
     7
100
AcDbCircle
 10
83.6271596913
 20
145.8699172692
 30
0.0
 40
34.5
100
AcDbArc
 50
180.0
 51
360.0
  0
ARC
  5
3D4
330
225
100
AcDbEntity
 67
     1
  8
7_ALL_FEATURES
  6
Continuous
 62
     9
100
AcDbCircle
 10
83.6271596913
 20
145.8699172692
 30
0.0
 40
27.5047842198
100
AcDbArc
 50
0.0
 51
180.0
  0
ARC
  5
3D5
330
225
100
AcDbEntity
 67
     1
  8
7_ALL_FEATURES
  6
Continuous
 62
     9
100
AcDbCircle
 10
83.6271596913
 20
145.8699172692
 30
0.0
 40
27.5047842198
100
AcDbArc
 50
180.0
 51
360.0
  0
ARC
  5
3D6
330
225
100
AcDbEntity
 67
     1
  8
7_ALL_FEATURES
  6
Continuous
 62
     9
100
AcDbCircle
 10
83.6271596913
 20
145.8699172692
 30
0.0
 40
27.793692682
100
AcDbArc
 50
0.0
 51
180.0
  0
ARC
  5
3D7
330
225
100
AcDbEntity
 67
     1
  8
7_ALL_FEATURES
  6
Continuous
 62
     9
100
AcDbCircle
 10
83.6271596913
 20
145.8699172692
 30
0.0
 40
27.793692682
100
AcDbArc
 50
180.0
 51
360.0
  0
LINE
  5
3D8
330
225
100
AcDbEntity
 67
     1
  8
7_ALL_FEATURES
  6
Continuous
 62
     3
100
AcDbLine
 10
42.5209419087
 20
141.8699172692
 30
0.0
 11
49.3611455948
 21
141.8699172692
 31
0.0
  0
LINE
  5
3D9
330
225
100
AcDbEntity
 67
     1
  8
7_ALL_FEATURES
  6
Continuous
 62
     3
100
AcDbLine
 10
49.3611455948
 20
149.8699172692
 30
0.0
 11
42.5209419087
 21
149.8699172692
 31
0.0
  0
LINE
  5
3DA
330
225
100
AcDbEntity
 67
     1
  8
7_ALL_FEATURES
  6
Continuous
 62
     3
100
AcDbLine
 10
42.4271596913
 20
141.8699172692
 30
0.0
 11
42.5209419087
 21
141.8699172692
 31
0.0
  0
LINE
  5
3DB
330
225
100
AcDbEntity
 67
     1
  8
7_ALL_FEATURES
  6
Continuous
 62
     3
100
AcDbLine
 10
42.4271596913
 20
149.8699172692
 30
0.0
 11
42.5209419087
 21
149.8699172692
 31
0.0
  0
LINE
  5
3DC
330
225
100
AcDbEntity
 67
     1
  8
7_ALL_FEATURES
  6
Continuous
 62
     3
100
AcDbLine
 10
42.4271596913
 20
141.8699172692
 30
0.0
 11
42.4271596913
 21
149.8699172692
 31
0.0
  0
LINE
  5
3DD
330
225
100
AcDbEntity
 67
     1
  8
7_ALL_FEATURES
  6
Continuous
 62
     9
100
AcDbLine
 10
42.5209419087
 20
141.8699172692
 30
0.0
 11
42.5209419087
 21
149.8699172692
 31
0.0
  0
LINE
  5
3DE
330
225
100
AcDbEntity
 67
     1
  8
7_ALL_FEATURES
  6
Continuous
 62
     3
100
AcDbLine
 10
124.733377474
 20
149.8699172692
 30
0.0
 11
117.8931737879
 21
149.8699172692
 31
0.0
  0
LINE
  5
3DF
330
225
100
AcDbEntity
 67
     1
  8
7_ALL_FEATURES
  6
Continuous
 62
     3
100
AcDbLine
 10
117.8931737879
 20
141.8699172692
 30
0.0
 11
124.733377474
 21
141.8699172692
 31
0.0
  0
LINE
  5
3E0
330
225
100
AcDbEntity
 67
     1
  8
7_ALL_FEATURES
  6
Continuous
 62
     3
100
AcDbLine
 10
124.8271596913
 20
149.8699172692
 30
0.0
 11
124.733377474
 21
149.8699172692
 31
0.0
  0
LINE
  5
3E1
330
225
100
AcDbEntity
 67
     1
  8
7_ALL_FEATURES
  6
Continuous
 62
     3
100
AcDbLine
 10
124.8271596913
 20
141.8699172692
 30
0.0
 11
124.733377474
 21
141.8699172692
 31
0.0
  0
LINE
  5
3E2
330
225
100
AcDbEntity
 67
     1
  8
7_ALL_FEATURES
  6
Continuous
 62
     3
100
AcDbLine
 10
124.8271596913
 20
149.8699172692
 30
0.0
 11
124.8271596913
 21
141.8699172692
 31
0.0
  0
LINE
  5
3E3
330
225
100
AcDbEntity
 67
     1
  8
7_ALL_FEATURES
  6
Continuous
 62
     9
100
AcDbLine
 10
124.733377474
 20
149.8699172692
 30
0.0
 11
124.733377474
 21
141.8699172692
 31
0.0
  0
LINE
  5
3E4
330
225
100
AcDbEntity
 67
     1
  8
3_ALL_AXES
  6
Continuous
 62
     7
100
AcDbLine
 10
180.6786830923
 20
148.6699172692
 30
0.0
 11
179.4559001015
 21
148.6699172692
 31
0.0
  0
LINE
  5
3E5
330
225
100
AcDbEntity
 67
     1
  8
3_ALL_AXES
  6
Continuous
 62
     7
100
AcDbLine
 10
178.7360478503
 20
147.3699172692
 30
0.0
 11
178.7505038151
 21
147.3699172692
 31
0.0
  0
ARC
  5
3E6
330
225
100
AcDbEntity
 67
     1
  8
3_ALL_AXES
  6
Continuous
 62
     7
100
AcDbCircle
 10
182.9786830923
 20
145.8699172692
 30
0.0
 40
4.5
100
AcDbArc
 50
141.5214048667
 51
160.4579351587
  0
ARC
  5
3E7
330
225
100
AcDbEntity
 67
     1
  8
3_ALL_AXES
  6
Continuous
 62
     7
100
AcDbCircle
 10
182.9786830923
 20
145.8699172692
 30
0.0
 40
4.5
100
AcDbArc
 50
160.4579351587
 51
160.5287793655
  0
LINE
  5
3E8
330
225
100
AcDbEntity
 67
     1
  8
3_ALL_AXES
  6
Continuous
 62
     7
100
AcDbLine
 10
178.7505038151
 20
144.3699172692
 30
0.0
 11
178.7360478503
 21
144.3699172692
 31
0.0
  0
ARC
  5
3E9
330
225
100
AcDbEntity
 67
     1
  8
3_ALL_AXES
  6
Continuous
 62
     7
100
AcDbCircle
 10
182.9786830923
 20
145.8699172692
 30
0.0
 40
4.4863682417
100
AcDbArc
 50
185.3717206844
 51
199.5327832667
  0
SPLINE
  5
3EA
330
225
100
AcDbEntity
 67
     1
  8
3_ALL_AXES
  6
Continuous
 62
     7
100
AcDbSpline
 70
     0
 71
     3
 72
    14
 73
    10
 74
     0
 42
0.000000001
 43
0.0000001
 40
0.0
 40
0.0
 40
0.0
 40
0.0
 40
0.0250522634
 40
0.0826614775
 40
0.1745543994
 40
0.29798062
 40
0.4484197279
 40
0.6200504974
 40
1.0
 40
1.0
 40
1.0
 40
1.0
 10
178.5120176694
 20
145.5199172692
 30
0.0
 10
178.5114278259
 20
145.5199172692
 30
0.0
 10
178.5103690621
 20
145.5176211087
 30
0.0
 10
178.5098929425
 20
145.5139506185
 30
0.0
 10
178.5093366337
 20
145.5073281839
 30
0.0
 10
178.509249276
 20
145.4988014645
 30
0.0
 10
178.5094342475
 20
145.488281811
 30
0.0
 10
178.510185575
 20
145.4717818041
 30
0.0
 10
178.5111801977
 20
145.4588237115
 30
0.0
 10
178.5120176694
 20
145.4499172692
 30
0.0
  0
LINE
  5
3EB
330
225
100
AcDbEntity
 67
     1
  8
3_ALL_AXES
  6
Continuous
 62
     7
100
AcDbLine
 10
178.7505038151
 20
145.5199172692
 30
0.0
 11
178.5120176694
 21
145.5199172692
 31
0.0
  0
ARC
  5
3EC
330
225
100
AcDbEntity
 67
     1
  8
3_ALL_AXES
  6
Continuous
 62
     7
100
AcDbCircle
 10
182.9786830923
 20
145.8699172692
 30
0.0
 40
4.2426406871
100
AcDbArc
 50
180.0
 51
184.7320384041
  0
LINE
  5
3ED
330
225
100
AcDbEntity
 67
     1
  8
3_ALL_AXES
  6
Continuous
 62
     7
100
AcDbLine
 10
182.0786830923
 20
147.3199172692
 30
0.0
 11
181.9786830923
 21
147.3199172692
 31
0.0
  0
ARC
  5
3EE
330
225
100
AcDbEntity
 67
     1
  8
3_ALL_AXES
  6
Continuous
 62
     7
100
AcDbCircle
 10
182.9786830923
 20
145.8699172692
 30
0.0
 40
4.2426406871
100
AcDbArc
 50
175.2679615959
 51
180.0
  0
LINE
  5
3EF
330
225
100
AcDbEntity
 67
     1
  8
3_ALL_AXES
  6
Continuous
 62
     7
100
AcDbLine
 10
178.5120176694
 20
146.2199172692
 30
0.0
 11
178.7505038151
 21
146.2199172692
 31
0.0
  0
SPLINE
  5
3F0
330
225
100
AcDbEntity
 67
     1
  8
3_ALL_AXES
  6
Continuous
 62
     7
100
AcDbSpline
 70
     0
 71
     3
 72
    14
 73
    10
 74
     0
 42
0.000000001
 43
0.0000001
 40
0.0
 40
0.0
 40
0.0
 40
0.0
 40
0.3799509066
 40
0.5515831282
 40
0.7020272295
 40
0.8254484769
 40
0.9173381866
 40
0.9749483193
 40
1.0
 40
1.0
 40
1.0
 40
1.0
 10
178.5120176694
 20
146.2899172692
 30
0.0
 10
178.5111801945
 20
146.2810107929
 30
0.0
 10
178.5101855505
 20
146.2680526332
 30
0.0
 10
178.5094342446
 20
146.2515524368
 30
0.0
 10
178.5092492851
 20
146.2410327506
 30
0.0
 10
178.5093366111
 20
146.2325060918
 30
0.0
 10
178.5098930009
 20
146.2258838614
 30
0.0
 10
178.5103690237
 20
146.2222133955
 30
0.0
 10
178.5114278395
 20
146.2199172692
 30
0.0
 10
178.5120176694
 20
146.2199172692
 30
0.0
  0
ARC
  5
3F1
330
225
100
AcDbEntity
 67
     1
  8
3_ALL_AXES
  6
Continuous
 62
     7
100
AcDbCircle
 10
182.9786830923
 20
145.8699172692
 30
0.0
 40
4.4863682417
100
AcDbArc
 50
160.4672167333
 51
174.6282793156
  0
LINE
  5
3F2
330
225
100
AcDbEntity
 67
     1
  8
3_ALL_AXES
  6
Continuous
 62
     7
100
AcDbLine
 10
180.6786830923
 20
143.0699172692
 30
0.0
 11
179.4559001015
 21
143.0699172692
 31
0.0
  0
ARC
  5
3F3
330
225
100
AcDbEntity
 67
     1
  8
3_ALL_AXES
  6
Continuous
 62
     7
100
AcDbCircle
 10
182.9786830923
 20
145.8699172692
 30
0.0
 40
4.5
100
AcDbArc
 50
199.5420648413
 51
218.4785951333
  0
ARC
  5
3F4
330
225
100
AcDbEntity
 67
     1
  8
3_ALL_AXES
  6
Continuous
 62
     7
100
AcDbCircle
 10
182.9786830923
 20
145.8699172692
 30
0.0
 40
4.5
100
AcDbArc
 50
199.4712206345
 51
199.5420648413
  0
LINE
  5
3F5
330
225
100
AcDbEntity
 67
     1
  8
3_ALL_AXES
  6
Continuous
 62
     7
100
AcDbLine
 10
182.0786830923
 20
144.4199172692
 30
0.0
 11
181.9786830923
 21
144.4199172692
 31
0.0
  0
LINE
  5
3F6
330
225
100
AcDbEntity
 67
     1
  8
3_ALL_AXES
  6
Continuous
 62
     7
100
AcDbLine
 10
179.4559001015
 20
143.0699172692
 30
0.0
 11
179.4559001015
 21
145.8699172692
 31
0.0
  0
LINE
  5
3F7
330
225
100
AcDbEntity
 67
     1
  8
3_ALL_AXES
  6
Continuous
 62
     7
100
AcDbLine
 10
179.4559001015
 20
148.6699172692
 30
0.0
 11
179.4559001015
 21
145.8699172692
 31
0.0
  0
SPLINE
  5
3F8
330
225
100
AcDbEntity
 67
     1
  8
7_ALL_FEATURES
  6
Continuous
 62
     7
100
AcDbSpline
 70
     0
 71
     3
 72
    15
 73
    11
 74
     0
 42
0.000000001
 43
0.0000001
 40
0.0
 40
0.0
 40
0.0
 40
0.0
 40
0.1249853819
 40
0.2500069792
 40
0.3749961313
 40
0.4999976785
 40
0.6249995985
 40
0.7499897972
 40
0.8750129152
 40
1.0
 40
1.0
 40
1.0
 40
1.0
 10
181.9786830923
 20
152.0433962965
 30
0.0
 10
181.9786830923
 20
152.1167508206
 30
0.0
 10
181.9623906037
 20
152.2639900812
 30
0.0
 10
181.8903472307
 20
152.4737615904
 30
0.0
 10
181.7740848211
 20
152.6627745479
 30
0.0
 10
181.6193428431
 20
152.8217785081
 30
0.0
 10
181.433546477
 20
152.9430522253
 30
0.0
 10
181.2257009038
 20
153.0207941554
 30
0.0
 10
181.0059877405
 20
153.0511510549
 30
0.0
 10
180.8583617562
 20
153.0388239883
 30
0.0
 10
180.7863754
 20
153.0247173455
 30
0.0
  0
SPLINE
  5
3F9
330
225
100
AcDbEntity
 67
     1
  8
7_ALL_FEATURES
  6
Continuous
 62
     7
100
AcDbSpline
 70
     0
 71
     3
 72
    15
 73
    11
 74
     0
 42
0.000000001
 43
0.0000001
 40
0.0
 40
0.0
 40
0.0
 40
0.0
 40
0.1250038822
 40
0.2500006512
 40
0.3750029506
 40
0.5000027565
 40
0.6250027143
 40
0.7500020999
 40
0.8750011566
 40
1.0
 40
1.0
 40
1.0
 40
1.0
 10
180.7863754
 20
153.0247173455
 30
0.0
 10
180.6732115234
 20
153.0025414434
 30
0.0
 10
180.4412949989
 20
152.9826967109
 30
0.0
 10
180.0957764529
 20
153.0284272767
 30
0.0
 10
179.7679947951
 20
153.147335493
 30
0.0
 10
179.4734807433
 20
153.3339344521
 30
0.0
 10
179.2259454063
 20
153.5794575368
 30
0.0
 10
179.0369760431
 20
153.8724944075
 30
0.0
 10
178.9154079647
 20
154.1991318252
 30
0.0
 10
178.8830684148
 20
154.4296354012
 30
0.0
 10
178.8794700157
 20
154.5448908266
 30
0.0
  0
SPLINE
  5
3FA
330
225
100
AcDbEntity
 67
     1
  8
7_ALL_FEATURES
  6
Continuous
 62
     7
100
AcDbSpline
 70
     0
 71
     3
 72
    27
 73
    23
 74
     0
 42
0.000000001
 43
0.0000001
 40
0.0
 40
0.0
 40
0.0
 40
0.0
 40
0.0624826686
 40
0.093760777
 40
0.125036262
 40
0.1875180396
 40
0.2499988603
 40
0.2812771406
 40
0.3125555223
 40
0.3750369049
 40
0.4375184408
 40
0.5000000533
 40
0.5624816543
 40
0.6249631636
 40
0.6874445307
 40
0.7187228492
 40
0.7500011577
 40
0.8124822075
 40
0.8749631274
 40
0.9062411581
 40
0.937519241
 40
1.0
 40
1.0
 40
1.0
 40
1.0
 10
183.3786830923
 20
154.5948310239
 30
0.0
 10
183.3786830923
 20
154.7843338773
 30
0.0
 10
183.3505708989
 20
155.0697249314
 30
0.0
 10
183.2582613027
 20
155.4379890783
 30
0.0
 10
183.1303434149
 20
155.7955715946
 30
0.0
 10
182.905522526
 20
156.2163667052
 30
0.0
 10
182.6027733252
 20
156.5851148313
 30
0.0
 10
182.3213754814
 20
156.8401292768
 30
0.0
 10
182.0163703043
 20
157.0663656282
 30
0.0
 10
181.5955661235
 20
157.2913575335
 30
0.0
 10
181.0481041845
 20
157.4573906734
 30
0.0
 10
180.4786830611
 20
157.5134909086
 30
0.0
 10
179.9092625181
 20
157.4573878586
 30
0.0
 10
179.3618005818
 20
157.2913552402
 30
0.0
 10
178.9409971381
 20
157.0663630879
 30
0.0
 10
178.6359897455
 20
156.8401301105
 30
0.0
 10
178.3545913108
 20
156.5851148107
 30
0.0
 10
178.0518484757
 20
156.2163661464
 30
0.0
 10
177.8270058608
 20
155.7955738093
 30
0.0
 10
177.6991133603
 20
155.4379766859
 30
0.0
 10
177.6067914698
 20
155.0697148782
 30
0.0
 10
177.5786775924
 20
154.7843280891
 30
0.0
 10
177.5786844575
 20
154.5948310275
 30
0.0
  0
LINE
  5
3FB
330
225
100
AcDbEntity
 67
     1
  8
7_ALL_FEATURES
  6
Continuous
 62
     7
100
AcDbLine
 10
183.3786830923
 20
140.3699276858
 30
0.0
 11
182.0786830923
 21
140.3699276858
 31
0.0
  0
LINE
  5
3FC
330
225
100
AcDbEntity
 67
     1
  8
7_ALL_FEATURES
  6
Continuous
 62
     7
100
AcDbLine
 10
181.9786830923
 20
140.3699828074
 30
0.0
 11
181.9786830923
 21
143.7199336438
 31
0.0
  0
LINE
  5
3FD
330
225
100
AcDbEntity
 67
     1
  8
7_ALL_FEATURES
  6
Continuous
 62
     7
100
AcDbLine
 10
181.9786830923
 20
143.7199336438
 30
0.0
 11
181.9786830923
 21
145.094893098
 31
0.0
  0
LINE
  5
3FE
330
225
100
AcDbEntity
 67
     1
  8
7_ALL_FEATURES
  6
Continuous
 62
     7
100
AcDbLine
 10
180.6786830923
 20
150.7277479262
 30
0.0
 11
180.6786830923
 21
145.094893098
 31
0.0
  0
SPLINE
  5
3FF
330
225
100
AcDbEntity
 67
     1
  8
7_ALL_FEATURES
  6
Continuous
 62
     7
100
AcDbSpline
 70
     0
 71
     3
 72
    13
 73
     9
 74
     0
 42
0.000000001
 43
0.0000001
 40
0.0
 40
0.0
 40
0.0
 40
0.0
 40
0.125198624
 40
0.2504700737
 40
0.5000019996
 40
0.749532791
 40
0.8748029582
 40
1.0
 40
1.0
 40
1.0
 40
1.0
 10
179.8838112974
 20
151.7064694447
 30
0.0
 10
179.9393635707
 20
151.6948266828
 30
0.0
 10
180.0487543455
 20
151.6619338558
 30
0.0
 10
180.2524541234
 20
151.5605201827
 30
0.0
 10
180.4702310915
 20
151.3705893506
 30
0.0
 10
180.611454256
 20
151.1184856364
 30
0.0
 10
180.6689283825
 20
150.8983169469
 30
0.0
 10
180.6786830923
 20
150.7845064281
 30
0.0
 10
180.6786830923
 20
150.7277479262
 30
0.0
  0
LINE
  5
400
330
225
100
AcDbEntity
 67
     1
  8
7_ALL_FEATURES
  6
Continuous
 62
     7
100
AcDbLine
 10
182.0786830923
 20
154.5447618483
 30
0.0
 11
182.0786830923
 21
145.094893098
 31
0.0
  0
LINE
  5
401
330
225
100
AcDbEntity
 67
     1
  8
7_ALL_FEATURES
  6
Continuous
 62
     7
100
AcDbLine
 10
181.9786830923
 20
145.094893098
 30
0.0
 11
181.9786830923
 21
151.9933271209
 31
0.0
  0
LINE
  5
402
330
225
100
AcDbEntity
 67
     1
  8
7_ALL_FEATURES
  6
Continuous
 62
     7
100
AcDbLine
 10
181.9786830923
 20
140.3699276858
 30
0.0
 11
180.6786830923
 21
140.3699276858
 31
0.0
  0
LINE
  5
403
330
225
100
AcDbEntity
 67
     1
  8
7_ALL_FEATURES
  6
Continuous
 62
     7
100
AcDbLine
 10
180.6786830923
 20
145.094893098
 30
0.0
 11
180.6786830923
 21
144.4199172692
 31
0.0
  0
LINE
  5
404
330
225
100
AcDbEntity
 67
     1
  8
7_ALL_FEATURES
  6
Continuous
 62
     7
100
AcDbLine
 10
180.6786830923
 20
144.4199172692
 30
0.0
 11
180.6786830923
 21
143.7199336438
 31
0.0
  0
LINE
  5
405
330
225
100
AcDbEntity
 67
     1
  8
7_ALL_FEATURES
  6
Continuous
 62
     7
100
AcDbLine
 10
180.6786830923
 20
143.7199336438
 30
0.0
 11
180.6786830923
 21
143.0699500773
 31
0.0
  0
LINE
  5
406
330
225
100
AcDbEntity
 67
     1
  8
7_ALL_FEATURES
  6
Continuous
 62
     7
100
AcDbLine
 10
180.6786830923
 20
143.0699500773
 30
0.0
 11
180.6786830923
 21
140.3699828074
 31
0.0
  0
SPLINE
  5
407
330
225
100
AcDbEntity
 67
     1
  8
7_ALL_FEATURES
  6
Continuous
 62
     7
100
AcDbSpline
 70
     0
 71
     3
 72
    25
 73
    21
 74
     0
 42
0.000000001
 43
0.0000001
 40
0.0
 40
0.0
 40
0.0
 40
0.0
 40
0.0624900645
 40
0.1249801755
 40
0.1874703953
 40
0.2499607688
 40
0.3124513172
 40
0.3749420358
 40
0.437432895
 40
0.4999238472
 40
0.5624148331
 40
0.6249057864
 40
0.6873966883
 40
0.718679939
 40
0.7499626484
 40
0.8124535957
 40
0.8749432078
 40
0.9062220325
 40
0.9375109002
 40
1.0
 40
1.0
 40
1.0
 40
1.0
 10
178.8786894674
 20
154.544761868
 30
0.0
 10
178.8786848701
 20
154.649311591
 30
0.0
 10
178.899319953
 20
154.8589905198
 30
0.0
 10
178.9909532119
 20
155.1609703149
 30
0.0
 10
179.1397624423
 20
155.4393934929
 30
0.0
 10
179.3400244705
 20
155.6834032978
 30
0.0
 10
179.5840446716
 20
155.883664742
 30
0.0
 10
179.8624449439
 20
156.0324709334
 30
0.0
 10
180.1645278791
 20
156.1241054853
 30
0.0
 10
180.4786804376
 20
156.1550495108
 30
0.0
 10
180.7928459746
 20
156.1241013815
 30
0.0
 10
181.0948919234
 20
156.0324970122
 30
0.0
 10
181.3270658116
 20
155.9083717141
 30
0.0
 10
181.4953344409
 20
155.783539505
 30
0.0
 10
181.6506020844
 20
155.642856244
 30
0.0
 10
181.8176238962
 20
155.4394009787
 30
0.0
 10
181.9416725548
 20
155.2072489345
 30
0.0
 10
182.0122426778
 20
155.0099545836
 30
0.0
 10
182.0631690989
 20
154.806771397
 30
0.0
 10
182.0786830923
 20
154.6493099572
 30
0.0
 10
182.0786830923
 20
154.5447618483
 30
0.0
  0
SPLINE
  5
408
330
225
100
AcDbEntity
 67
     1
  8
7_ALL_FEATURES
  6
Continuous
 62
     7
100
AcDbSpline
 70
     0
 71
     3
 72
    15
 73
    11
 74
     0
 42
0.000000001
 43
0.0000001
 40
0.0
 40
0.0
 40
0.0
 40
0.0
 40
0.1249992409
 40
0.2499985882
 40
0.3749981517
 40
0.4999979057
 40
0.62499819
 40
0.7499981021
 40
0.87499982
 40
1.0
 40
1.0
 40
1.0
 40
1.0
 10
177.5786844575
 20
154.5447618519
 30
0.0
 10
177.578690422
 20
154.3801228148
 30
0.0
 10
177.6068591121
 20
154.0501556744
 30
0.0
 10
177.7324362198
 20
153.5701037228
 30
0.0
 10
177.937672907
 20
153.1181778736
 30
0.0
 10
178.2166236971
 20
152.7076731571
 30
0.0
 10
178.5611837291
 20
152.3504531439
 30
0.0
 10
178.9614051377
 20
152.0568776267
 30
0.0
 10
179.4054974202
 20
151.835505977
 30
0.0
 10
179.7226719861
 20
151.7402413593
 30
0.0
 10
179.8838112974
 20
151.7064694447
 30
0.0
  0
LINE
  5
409
330
225
100
AcDbEntity
 67
     1
  8
7_ALL_FEATURES
  6
Continuous
 62
     7
100
AcDbLine
 10
182.0786830923
 20
145.094893098
 30
0.0
 11
182.0786830923
 21
143.7199336438
 31
0.0
  0
LINE
  5
40A
330
225
100
AcDbEntity
 67
     1
  8
7_ALL_FEATURES
  6
Continuous
 62
     7
100
AcDbLine
 10
182.0786830923
 20
143.7199336438
 30
0.0
 11
182.0786830923
 21
140.3699828074
 31
0.0
  0
LINE
  5
40B
330
225
100
AcDbEntity
 67
     1
  8
7_ALL_FEATURES
  6
Continuous
 62
     9
100
AcDbLine
 10
180.6786830923
 20
145.094893098
 30
0.0
 11
181.9786830923
 21
145.094893098
 31
0.0
  0
LINE
  5
40C
330
225
100
AcDbEntity
 67
     1
  8
7_ALL_FEATURES
  6
Continuous
 62
     9
100
AcDbLine
 10
180.7863754
 20
153.0247173455
 30
0.0
 11
180.7863754
 21
152.9746481699
 31
0.0
  0
LINE
  5
40D
330
225
100
AcDbEntity
 67
     1
  8
7_ALL_FEATURES
  6
Continuous
 62
     9
100
AcDbLine
 10
182.0786830923
 20
145.094893098
 30
0.0
 11
183.3786830923
 21
145.094893098
 31
0.0
  0
SPLINE
  5
40E
330
225
100
AcDbEntity
 67
     1
  8
7_ALL_FEATURES
  6
Continuous
 62
     7
100
AcDbSpline
 70
     0
 71
     3
 72
    27
 73
    23
 74
     0
 42
0.000000001
 43
0.0000001
 40
0.0
 40
0.0
 40
0.0
 40
0.0
 40
0.0624826686
 40
0.093760777
 40
0.125036262
 40
0.1875180396
 40
0.2499988603
 40
0.2812771406
 40
0.3125555223
 40
0.3750369049
 40
0.4375184408
 40
0.5000000533
 40
0.5624816543
 40
0.6249631636
 40
0.6874445307
 40
0.7187228492
 40
0.7500011577
 40
0.8124822075
 40
0.8749631274
 40
0.9062411581
 40
0.937519241
 40
1.0
 40
1.0
 40
1.0
 40
1.0
 10
183.3786830923
 20
154.5447618483
 30
0.0
 10
183.3786830923
 20
154.7342647017
 30
0.0
 10
183.3505708989
 20
155.0196557558
 30
0.0
 10
183.2582613027
 20
155.3879199027
 30
0.0
 10
183.1303434149
 20
155.745502419
 30
0.0
 10
182.905522526
 20
156.1662975296
 30
0.0
 10
182.6027733252
 20
156.5350456557
 30
0.0
 10
182.3213754814
 20
156.7900601012
 30
0.0
 10
182.0163703043
 20
157.0162964526
 30
0.0
 10
181.5955661235
 20
157.2412883579
 30
0.0
 10
181.0481041845
 20
157.4073214978
 30
0.0
 10
180.4786830611
 20
157.463421733
 30
0.0
 10
179.9092625181
 20
157.407318683
 30
0.0
 10
179.3618005818
 20
157.2412860646
 30
0.0
 10
178.9409971381
 20
157.0162939123
 30
0.0
 10
178.6359897455
 20
156.7900609349
 30
0.0
 10
178.3545913108
 20
156.5350456351
 30
0.0
 10
178.0518484757
 20
156.1662969708
 30
0.0
 10
177.8270058608
 20
155.7455046337
 30
0.0
 10
177.6991133603
 20
155.3879075103
 30
0.0
 10
177.6067914698
 20
155.0196457026
 30
0.0
 10
177.5786775924
 20
154.7342589135
 30
0.0
 10
177.5786844575
 20
154.5447618519
 30
0.0
  0
SPLINE
  5
40F
330
225
100
AcDbEntity
 67
     1
  8
7_ALL_FEATURES
  6
Continuous
 62
     7
100
AcDbSpline
 70
     0
 71
     3
 72
    15
 73
    11
 74
     0
 42
0.000000001
 43
0.0000001
 40
0.0
 40
0.0
 40
0.0
 40
0.0
 40
0.1250046493
 40
0.2500004693
 40
0.3750030454
 40
0.5000027492
 40
0.6250026576
 40
0.7500020069
 40
0.8750010725
 40
1.0
 40
1.0
 40
1.0
 40
1.0
 10
180.7863754
 20
152.9746481699
 30
0.0
 10
180.6711806541
 20
152.9520742931
 30
0.0
 10
180.4349858479
 20
152.932324908
 30
0.0
 10
180.0834521959
 20
152.9809520072
 30
0.0
 10
179.7508914613
 20
153.1052761971
 30
0.0
 10
179.4536322354
 20
153.2993558732
 30
0.0
 10
179.2060126507
 20
153.5537411494
 30
0.0
 10
179.0200472361
 20
153.8561816535
 30
0.0
 10
178.9047332227
 20
154.1918008791
 30
0.0
 10
178.8786946289
 20
154.427381512
 30
0.0
 10
178.8786894674
 20
154.544761868
 30
0.0
  0
SPLINE
  5
410
330
225
100
AcDbEntity
 67
     1
  8
7_ALL_FEATURES
  6
Continuous
 62
     7
100
AcDbSpline
 70
     0
 71
     3
 72
    15
 73
    11
 74
     0
 42
0.000000001
 43
0.0000001
 40
0.0
 40
0.0
 40
0.0
 40
0.0
 40
0.1249853819
 40
0.2500069792
 40
0.3749961313
 40
0.4999976785
 40
0.6249995985
 40
0.7499897972
 40
0.8750129152
 40
1.0
 40
1.0
 40
1.0
 40
1.0
 10
181.9786830923
 20
151.9933271209
 30
0.0
 10
181.9786830923
 20
152.066681645
 30
0.0
 10
181.9623906037
 20
152.2139209056
 30
0.0
 10
181.8903472307
 20
152.4236924148
 30
0.0
 10
181.7740848211
 20
152.6127053723
 30
0.0
 10
181.6193428431
 20
152.7717093325
 30
0.0
 10
181.433546477
 20
152.8929830497
 30
0.0
 10
181.2257009038
 20
152.9707249798
 30
0.0
 10
181.0059877405
 20
153.0010818793
 30
0.0
 10
180.8583617562
 20
152.9887548127
 30
0.0
 10
180.7863754
 20
152.9746481699
 30
0.0
  0
ARC
  5
411
330
225
100
AcDbEntity
 67
     1
  8
3_ALL_AXES
  6
Continuous
 62
     7
100
AcDbCircle
 10
220.3131901346
 20
173.5199172692
 30
0.0
 40
0.75
100
AcDbArc
 50
0.0
 51
90.0
  0
SPLINE
  5
412
330
225
100
AcDbEntity
 67
     1
  8
3_ALL_AXES
  6
Continuous
 62
     7
100
AcDbSpline
 70
     0
 71
     3
 72
    13
 73
     9
 74
     0
 42
0.000000001
 43
0.0000001
 40
0.0
 40
0.0
 40
0.0
 40
0.0
 40
0.2605731799
 40
0.5146726425
 40
0.6388174833
 40
0.7607021948
 40
0.880833471
 40
1.0
 40
1.0
 40
1.0
 40
1.0
 10
220.3131901346
 20
120.1307761173
 30
0.0
 10
220.4104127903
 20
120.1307761173
 30
0.0
 10
220.6041634352
 20
120.1649279899
 30
0.0
 10
220.8138026801
 20
120.2904567435
 30
0.0
 10
220.9400218148
 20
120.4293910566
 30
0.0
 10
221.010169623
 20
120.5478032245
 30
0.0
 10
221.0534223189
 20
120.6764623558
 30
0.0
 10
221.0631771882
 20
120.7660446441
 30
0.0
 10
221.0631771882
 20
120.8105069576
 30
0.0
  0
LINE
  5
413
330
225
100
AcDbEntity
 67
     1
  8
3_ALL_AXES
  6
Continuous
 62
     7
100
AcDbLine
 10
219.5631901346
 20
173.5199172692
 30
0.0
 11
219.5631901346
 21
149.8699172692
 31
0.0
  0
LINE
  5
414
330
225
100
AcDbEntity
 67
     1
  8
3_ALL_AXES
  6
Continuous
 62
     7
100
AcDbLine
 10
219.5631901346
 20
141.8699172692
 30
0.0
 11
219.5631901346
 21
120.8105069576
 31
0.0
  0
SPLINE
  5
415
330
225
100
AcDbEntity
 67
     1
  8
3_ALL_AXES
  6
Continuous
 62
     7
100
AcDbSpline
 70
     0
 71
     3
 72
    13
 73
     9
 74
     0
 42
0.000000001
 43
0.0000001
 40
0.0
 40
0.0
 40
0.0
 40
0.0
 40
0.119166529
 40
0.2392978052
 40
0.3611825167
 40
0.4853273575
 40
0.7394268201
 40
1.0
 40
1.0
 40
1.0
 40
1.0
 10
219.5632030809
 20
120.8105069576
 30
0.0
 10
219.5632030809
 20
120.7660446441
 30
0.0
 10
219.5729579502
 20
120.6764623558
 30
0.0
 10
219.6162106461
 20
120.5478032245
 30
0.0
 10
219.6863584543
 20
120.4293910566
 30
0.0
 10
219.812577589
 20
120.2904567435
 30
0.0
 10
220.0222168339
 20
120.1649279899
 30
0.0
 10
220.2159674789
 20
120.1307761173
 30
0.0
 10
220.3131901346
 20
120.1307761173
 30
0.0
  0
LINE
  5
416
330
225
100
AcDbEntity
 67
     1
  8
3_ALL_AXES
  6
Continuous
 62
     7
100
AcDbLine
 10
221.0631901346
 20
173.5199172692
 30
0.0
 11
221.0631901346
 21
149.8699172692
 31
0.0
  0
LINE
  5
417
330
225
100
AcDbEntity
 67
     1
  8
3_ALL_AXES
  6
Continuous
 62
     7
100
AcDbLine
 10
221.0631901346
 20
141.8699172692
 30
0.0
 11
221.0631901346
 21
120.8105069576
 31
0.0
  0
ARC
  5
418
330
225
100
AcDbEntity
 67
     1
  8
3_ALL_AXES
  6
Continuous
 62
     7
100
AcDbCircle
 10
220.3131901346
 20
173.5199172692
 30
0.0
 40
0.75
100
AcDbArc
 50
90.0
 51
180.0
  0
LINE
  5
419
330
225
100
AcDbEntity
 67
     1
  8
7_ALL_FEATURES
  6
Continuous
 62
     7
100
AcDbLine
 10
205.1131901346
 20
122.1341308316
 30
0.0
 11
205.1131901346
 21
122.1567224868
 31
0.0
  0
LINE
  5
41A
330
225
100
AcDbEntity
 67
     1
  8
7_ALL_FEATURES
  6
Continuous
 62
     7
100
AcDbLine
 10
205.1131901346
 20
122.1567224868
 30
0.0
 11
205.1131901346
 21
123.8299543688
 31
0.0
  0
LINE
  5
41B
330
225
100
AcDbEntity
 67
     1
  8
7_ALL_FEATURES
  6
Continuous
 62
     7
100
AcDbLine
 10
205.1131901346
 20
123.8299543688
 30
0.0
 11
205.1131901346
 21
141.8699172692
 31
0.0
  0
ARC
  5
41C
330
225
100
AcDbEntity
 67
     1
  8
7_ALL_FEATURES
  6
Continuous
 62
     7
100
AcDbCircle
 10
206.1131901346
 20
122.1341308316
 30
0.0
 40
1.0
100
AcDbArc
 50
180.0
 51
225.0
  0
LINE
  5
41D
330
225
100
AcDbEntity
 67
     1
  8
7_ALL_FEATURES
  6
Continuous
 62
     7
100
AcDbLine
 10
205.1131901346
 20
122.1396256191
 30
0.0
 11
205.1131901346
 21
122.1341308316
 31
0.0
  0
LINE
  5
41E
330
225
100
AcDbEntity
 67
     1
  8
7_ALL_FEATURES
  6
Continuous
 62
     7
100
AcDbLine
 10
205.1131901346
 20
141.8699172692
 30
0.0
 11
205.1131901346
 21
122.1396256191
 31
0.0
  0
ARC
  5
41F
330
225
100
AcDbEntity
 67
     1
  8
7_ALL_FEATURES
  6
Continuous
 62
     7
100
AcDbCircle
 10
206.1131901346
 20
169.6057037068
 30
0.0
 40
1.0
100
AcDbArc
 50
135.0
 51
180.0
  0
LINE
  5
420
330
225
100
AcDbEntity
 67
     1
  8
7_ALL_FEATURES
  6
Continuous
 62
     7
100
AcDbLine
 10
205.1131901346
 20
149.8699172692
 30
0.0
 11
205.1131901346
 21
167.9098801696
 31
0.0
  0
LINE
  5
421
330
225
100
AcDbEntity
 67
     1
  8
7_ALL_FEATURES
  6
Continuous
 62
     7
100
AcDbLine
 10
205.1131901346
 20
167.9098801696
 30
0.0
 11
205.1131901346
 21
169.6057037068
 31
0.0
  0
LINE
  5
422
330
225
100
AcDbEntity
 67
     1
  8
7_ALL_FEATURES
  6
Continuous
 62
     7
100
AcDbLine
 10
205.1131901346
 20
169.6057037068
 30
0.0
 11
205.1131901346
 21
167.9098801696
 31
0.0
  0
LINE
  5
423
330
225
100
AcDbEntity
 67
     1
  8
7_ALL_FEATURES
  6
Continuous
 62
     7
100
AcDbLine
 10
205.1131901346
 20
167.9098801696
 30
0.0
 11
205.1131901346
 21
149.8699172692
 31
0.0
  0
ARC
  5
424
330
225
100
AcDbEntity
 67
     1
  8
7_ALL_FEATURES
  6
Continuous
 62
     7
100
AcDbCircle
 10
210.4416172593
 20
119.2199172692
 30
0.0
 40
2.0
100
AcDbArc
 50
225.0
 51
270.0
  0
LINE
  5
425
330
225
100
AcDbEntity
 67
     1
  8
02___PRT_ALL_AXES
  6
Continuous
 62
     7
100
AcDbLine
 10
224.4131901346
 20
145.8699172692
 30
0.0
 11
224.4131901346
 21
174.5199172692
 31
0.0
  0
LINE
  5
426
330
225
100
AcDbEntity
 67
     1
  8
02___PRT_ALL_AXES
  6
Continuous
 62
     7
100
AcDbLine
 10
224.4131901346
 20
174.5199172692
 30
0.0
 11
224.4131901346
 21
180.3699167504
 31
0.0
  0
LINE
  5
427
330
225
100
AcDbEntity
 67
     1
  8
02___PRT_ALL_AXES
  6
Continuous
 62
     7
100
AcDbLine
 10
224.4131901346
 20
145.8699172692
 30
0.0
 11
224.4131901346
 21
117.2199172692
 31
0.0
  0
LINE
  5
428
330
225
100
AcDbEntity
 67
     1
  8
02___PRT_ALL_AXES
  6
Continuous
 62
     7
100
AcDbLine
 10
224.4131901346
 20
117.2199172692
 30
0.0
 11
224.4131901346
 21
111.369917788
 31
0.0
  0
LINE
  5
429
330
225
100
AcDbEntity
 67
     1
  8
7_ALL_FEATURES
  6
Continuous
 62
     7
100
AcDbLine
 10
221.8131901346
 20
149.8699172692
 30
0.0
 11
221.8131901346
 21
172.8199172692
 31
0.0
  0
LINE
  5
42A
330
225
100
AcDbEntity
 67
     1
  8
7_ALL_FEATURES
  6
Continuous
 62
     7
100
AcDbLine
 10
221.8131901346
 20
172.8199172692
 30
0.0
 11
221.8131901346
 21
174.5199152023
 31
0.0
  0
ARC
  5
42B
330
225
100
AcDbEntity
 67
     1
  8
7_ALL_FEATURES
  6
Continuous
 62
     7
100
AcDbCircle
 10
210.4416172593
 20
172.5199172692
 30
0.0
 40
2.0
100
AcDbArc
 50
90.0
 51
135.0
  0
LINE
  5
42C
330
225
100
AcDbEntity
 67
     1
  8
7_ALL_FEATURES
  6
Continuous
 62
     7
100
AcDbLine
 10
221.8131901346
 20
172.8199172692
 30
0.0
 11
221.0631901346
 21
172.8199172692
 31
0.0
  0
LINE
  5
42D
330
225
100
AcDbEntity
 67
     1
  8
7_ALL_FEATURES
  6
Continuous
 62
     7
100
AcDbLine
 10
219.5631901346
 20
172.8199172692
 30
0.0
 11
218.8131901346
 21
172.8199172692
 31
0.0
  0
LINE
  5
42E
330
225
100
AcDbEntity
 67
     1
  8
7_ALL_FEATURES
  6
Continuous
 62
     7
100
AcDbLine
 10
221.8131901346
 20
118.9199172692
 30
0.0
 11
218.8131901346
 21
118.9199172692
 31
0.0
  0
LINE
  5
42F
330
225
100
AcDbEntity
 67
     1
  8
7_ALL_FEATURES
  6
Continuous
 62
     7
100
AcDbLine
 10
218.8131901346
 20
149.8699172692
 30
0.0
 11
218.8131901346
 21
172.8199172692
 31
0.0
  0
LINE
  5
430
330
225
100
AcDbEntity
 67
     1
  8
7_ALL_FEATURES
  6
Continuous
 62
     7
100
AcDbLine
 10
218.8131901346
 20
172.8199172692
 30
0.0
 11
218.8131901346
 21
174.5199152023
 31
0.0
  0
LINE
  5
431
330
225
100
AcDbEntity
 67
     1
  8
7_ALL_FEATURES
  6
Continuous
 62
     7
100
AcDbLine
 10
205.4060833534
 20
121.4270240504
 30
0.0
 11
209.0274036969
 21
117.8057037068
 31
0.0
  0
LINE
  5
432
330
225
100
AcDbEntity
 67
     1
  8
7_ALL_FEATURES
  6
Continuous
 62
     7
100
AcDbLine
 10
205.4060833534
 20
170.312810488
 30
0.0
 11
209.0274036969
 21
173.9341308316
 31
0.0
  0
LINE
  5
433
330
225
100
AcDbEntity
 67
     1
  8
7_ALL_FEATURES
  6
Continuous
 62
     7
100
AcDbLine
 10
225.9131901346
 20
118.3651350338
 30
0.0
 11
225.9131901346
 21
119.7199179435
 31
0.0
  0
LINE
  5
434
330
225
100
AcDbEntity
 67
     1
  8
7_ALL_FEATURES
  6
Continuous
 62
     7
100
AcDbLine
 10
225.9131901346
 20
119.7199179435
 30
0.0
 11
225.9131901346
 21
145.8699172692
 31
0.0
  0
ARC
  5
435
330
225
100
AcDbEntity
 67
     1
  8
7_ALL_FEATURES
  6
Continuous
 62
     7
100
AcDbCircle
 10
223.9131901346
 20
118.3651330494
 30
0.0
 40
2.0
100
AcDbArc
 50
351.6943237944
 51
360.0
  0
LINE
  5
436
330
225
100
AcDbEntity
 67
     1
  8
7_ALL_FEATURES
  6
Continuous
 62
     7
100
AcDbLine
 10
225.9131901346
 20
118.3651330494
 30
0.0
 11
225.9131901346
 21
119.7199179435
 31
0.0
  0
LINE
  5
437
330
225
100
AcDbEntity
 67
     1
  8
7_ALL_FEATURES
  6
Continuous
 62
     7
100
AcDbLine
 10
225.9131901346
 20
119.7199179435
 30
0.0
 11
225.9131901346
 21
145.8699172692
 31
0.0
  0
ARC
  5
438
330
225
100
AcDbEntity
 67
     1
  8
7_ALL_FEATURES
  6
Continuous
 62
     7
100
AcDbCircle
 10
223.9131901346
 20
173.374701489
 30
0.0
 40
2.0
100
AcDbArc
 50
0.0
 51
8.305676205599998
  0
LINE
  5
439
330
225
100
AcDbEntity
 67
     1
  8
7_ALL_FEATURES
  6
Continuous
 62
     7
100
AcDbLine
 10
225.9131901346
 20
145.8699172692
 30
0.0
 11
225.9131901346
 21
172.0199165949
 31
0.0
  0
LINE
  5
43A
330
225
100
AcDbEntity
 67
     1
  8
7_ALL_FEATURES
  6
Continuous
 62
     7
100
AcDbLine
 10
225.9131901346
 20
172.0199165949
 30
0.0
 11
225.9131901346
 21
173.3746995046
 31
0.0
  0
LINE
  5
43B
330
225
100
AcDbEntity
 67
     1
  8
7_ALL_FEATURES
  6
Continuous
 62
     7
100
AcDbLine
 10
225.9131901346
 20
145.8699172692
 30
0.0
 11
225.9131901346
 21
172.0199165949
 31
0.0
  0
LINE
  5
43C
330
225
100
AcDbEntity
 67
     1
  8
7_ALL_FEATURES
  6
Continuous
 62
     7
100
AcDbLine
 10
225.9131901346
 20
172.0199165949
 30
0.0
 11
225.9131901346
 21
173.374701489
 31
0.0
  0
LINE
  5
43D
330
225
100
AcDbEntity
 67
     1
  8
7_ALL_FEATURES
  6
Continuous
 62
     7
100
AcDbLine
 10
218.8131901346
 20
117.2199193361
 30
0.0
 11
218.8131901346
 21
118.9199172692
 31
0.0
  0
LINE
  5
43E
330
225
100
AcDbEntity
 67
     1
  8
7_ALL_FEATURES
  6
Continuous
 62
     7
100
AcDbLine
 10
218.8131901346
 20
118.9199172692
 30
0.0
 11
218.8131901346
 21
141.8699172692
 31
0.0
  0
LINE
  5
43F
330
225
100
AcDbEntity
 67
     1
  8
02___PRT_ALL_AXES
  6
Continuous
 62
     7
100
AcDbLine
 10
218.8131901346
 20
117.2199172692
 30
0.0
 11
210.4416172593
 21
117.2199172692
 31
0.0
  0
LINE
  5
440
330
225
100
AcDbEntity
 67
     1
  8
7_ALL_FEATURES
  6
Continuous
 62
     7
100
AcDbLine
 10
221.8131901346
 20
117.2199193361
 30
0.0
 11
221.8131901346
 21
118.9199172692
 31
0.0
  0
LINE
  5
441
330
225
100
AcDbEntity
 67
     1
  8
7_ALL_FEATURES
  6
Continuous
 62
     7
100
AcDbLine
 10
221.8131901346
 20
118.9199172692
 30
0.0
 11
221.8131901346
 21
141.8699172692
 31
0.0
  0
LINE
  5
442
330
225
100
AcDbEntity
 67
     1
  8
02___PRT_ALL_AXES
  6
Continuous
 62
     7
100
AcDbLine
 10
224.4131901346
 20
117.2199172692
 30
0.0
 11
221.8131901346
 21
117.2199172692
 31
0.0
  0
LINE
  5
443
330
225
100
AcDbEntity
 67
     1
  8
02___PRT_ALL_AXES
  6
Continuous
 62
     7
100
AcDbLine
 10
224.9131901346
 20
111.3699172692
 30
0.0
 11
224.4131901346
 21
111.3699172692
 31
0.0
  0
LINE
  5
444
330
225
100
AcDbEntity
 67
     1
  8
02___PRT_ALL_AXES
  6
Continuous
 62
     7
100
AcDbLine
 10
225.8922131007
 20
118.0762245872
 30
0.0
 11
224.9131901346
 21
111.3699172692
 31
0.0
  0
LINE
  5
445
330
225
100
AcDbEntity
 67
     1
  8
02___PRT_ALL_AXES
  6
Continuous
 62
     7
100
AcDbLine
 10
218.8131901346
 20
174.5199172692
 30
0.0
 11
210.4416172593
 21
174.5199172692
 31
0.0
  0
LINE
  5
446
330
225
100
AcDbEntity
 67
     1
  8
02___PRT_ALL_AXES
  6
Continuous
 62
     7
100
AcDbLine
 10
224.4131901346
 20
174.5199172692
 30
0.0
 11
221.8131901346
 21
174.5199172692
 31
0.0
  0
LINE
  5
447
330
225
100
AcDbEntity
 67
     1
  8
02___PRT_ALL_AXES
  6
Continuous
 62
     7
100
AcDbLine
 10
224.9131901346
 20
180.3699172692
 30
0.0
 11
224.4131901346
 21
180.3699172692
 31
0.0
  0
LINE
  5
448
330
225
100
AcDbEntity
 67
     1
  8
02___PRT_ALL_AXES
  6
Continuous
 62
     7
100
AcDbLine
 10
225.8922131007
 20
173.6636099512
 30
0.0
 11
224.9131901346
 21
180.3699172692
 31
0.0
  0
LINE
  5
449
330
225
100
AcDbEntity
 67
     1
  8
7_ALL_FEATURES
  6
Continuous
 62
     9
100
AcDbLine
 10
205.4060833534
 20
121.4270240504
 30
0.0
 11
205.4060833534
 21
141.8699172692
 31
0.0
  0
LINE
  5
44A
330
225
100
AcDbEntity
 67
     1
  8
02___PRT_ALL_AXES
  6
Continuous
 62
     7
100
AcDbLine
 10
224.9131901346
 20
145.8699172692
 30
0.0
 11
224.9131901346
 21
180.3699172692
 31
0.0
  0
LINE
  5
44B
330
225
100
AcDbEntity
 67
     1
  8
7_ALL_FEATURES
  6
Continuous
 62
     9
100
AcDbLine
 10
225.8922131007
 20
118.0762245872
 30
0.0
 11
225.8922131007
 21
145.8699172692
 31
0.0
  0
LINE
  5
44C
330
225
100
AcDbEntity
 67
     1
  8
7_ALL_FEATURES
  6
Continuous
 62
     9
100
AcDbLine
 10
209.0274036969
 20
173.9341308316
 30
0.0
 11
209.0274036969
 21
149.8699172692
 31
0.0
  0
LINE
  5
44D
330
225
100
AcDbEntity
 67
     1
  8
7_ALL_FEATURES
  6
Continuous
 62
     9
100
AcDbLine
 10
225.8922131007
 20
145.8699172692
 30
0.0
 11
225.8922131007
 21
173.6636099512
 31
0.0
  0
LINE
  5
44E
330
225
100
AcDbEntity
 67
     1
  8
7_ALL_FEATURES
  6
Continuous
 62
     9
100
AcDbLine
 10
205.4060833534
 20
149.8699172692
 30
0.0
 11
205.4060833534
 21
170.312810488
 31
0.0
  0
LINE
  5
44F
330
225
100
AcDbEntity
 67
     1
  8
7_ALL_FEATURES
  6
Continuous
 62
     9
100
AcDbLine
 10
209.0274036969
 20
141.8699172692
 30
0.0
 11
209.0274036969
 21
117.8057037068
 31
0.0
  0
LINE
  5
450
330
225
100
AcDbEntity
 67
     1
  8
7_ALL_FEATURES
  6
Continuous
 62
     9
100
AcDbLine
 10
210.4416172593
 20
174.5199172692
 30
0.0
 11
210.4416172593
 21
149.8699172692
 31
0.0
  0
LINE
  5
451
330
225
100
AcDbEntity
 67
     1
  8
02___PRT_ALL_AXES
  6
Continuous
 62
     7
100
AcDbLine
 10
224.9131901346
 20
145.8699172692
 30
0.0
 11
224.9131901346
 21
111.3699172692
 31
0.0
  0
LINE
  5
452
330
225
100
AcDbEntity
 67
     1
  8
7_ALL_FEATURES
  6
Continuous
 62
     9
100
AcDbLine
 10
210.4416172593
 20
141.8699172692
 30
0.0
 11
210.4416172593
 21
117.2199172692
 31
0.0
  0
LINE
  5
453
330
225
100
AcDbEntity
 67
     1
  8
7_ALL_FEATURES
  6
Continuous
 62
     7
100
AcDbLine
 10
199.8786830923
 20
149.8699172692
 30
0.0
 11
199.8786830923
 21
157.3699172692
 31
0.0
  0
LINE
  5
454
330
225
100
AcDbEntity
 67
     1
  8
7_ALL_FEATURES
  6
Continuous
 62
     7
100
AcDbLine
 10
199.8786830923
 20
157.3699172692
 30
0.0
 11
199.8786830923
 21
158.869736714
 31
0.0
  0
LINE
  5
455
330
225
100
AcDbEntity
 67
     1
  8
7_ALL_FEATURES
  6
Continuous
 62
     7
100
AcDbLine
 10
199.8786830923
 20
158.869736714
 30
0.0
 11
199.8786830923
 21
160.8697089362
 31
0.0
  0
LINE
  5
456
330
225
100
AcDbEntity
 67
     1
  8
7_ALL_FEATURES
  6
Continuous
 62
     7
100
AcDbLine
 10
199.8786830923
 20
160.8697089362
 30
0.0
 11
199.8786830923
 21
165.2343804763
 31
0.0
  0
LINE
  5
457
330
225
100
AcDbEntity
 67
     1
  8
7_ALL_FEATURES
  6
Continuous
 62
     7
100
AcDbLine
 10
196.3786830923
 20
165.3196471308
 30
0.0
 11
196.3786830923
 21
165.3198504094
 31
0.0
  0
LINE
  5
458
330
225
100
AcDbEntity
 67
     1
  8
7_ALL_FEATURES
  6
Continuous
 62
     7
100
AcDbLine
 10
194.3786830923
 20
165.3196471308
 30
0.0
 11
194.3786830923
 21
165.3198504096
 31
0.0
  0
LINE
  5
459
330
225
100
AcDbEntity
 67
     1
  8
7_ALL_FEATURES
  6
Continuous
 62
     7
100
AcDbLine
 10
183.3786830923
 20
163.5699172692
 30
0.0
 11
183.6786830923
 21
163.8699172692
 31
0.0
  0
LINE
  5
45A
330
225
100
AcDbEntity
 67
     1
  8
7_ALL_FEATURES
  6
Continuous
 62
     7
100
AcDbLine
 10
190.8786830923
 20
164.5696575475
 30
0.0
 11
190.8786830923
 21
164.5698432146
 31
0.0
  0
LINE
  5
45B
330
225
100
AcDbEntity
 67
     1
  8
7_ALL_FEATURES
  6
Continuous
 62
     7
100
AcDbLine
 10
183.3786830923
 20
128.1699873924
 30
0.0
 11
183.3786830923
 21
140.3699828074
 31
0.0
  0
LINE
  5
45C
330
225
100
AcDbEntity
 67
     1
  8
7_ALL_FEATURES
  6
Continuous
 62
     7
100
AcDbLine
 10
183.3786830923
 20
140.3699828074
 30
0.0
 11
183.3786830923
 21
143.2461740521
 31
0.0
  0
LINE
  5
45D
330
225
100
AcDbEntity
 67
     1
  8
7_ALL_FEATURES
  6
Continuous
 62
     7
100
AcDbLine
 10
183.3786830923
 20
143.2461740521
 30
0.0
 11
183.3786830923
 21
143.7199336438
 31
0.0
  0
LINE
  5
45E
330
225
100
AcDbEntity
 67
     1
  8
7_ALL_FEATURES
  6
Continuous
 62
     7
100
AcDbLine
 10
183.3786830923
 20
143.7199336438
 30
0.0
 11
183.3786830923
 21
144.6199346303
 31
0.0
  0
LINE
  5
45F
330
225
100
AcDbEntity
 67
     1
  8
7_ALL_FEATURES
  6
Continuous
 62
     7
100
AcDbLine
 10
183.3786830923
 20
144.6199346303
 30
0.0
 11
183.3786830923
 21
145.094893098
 31
0.0
  0
LINE
  5
460
330
225
100
AcDbEntity
 67
     1
  8
7_ALL_FEATURES
  6
Continuous
 62
     7
100
AcDbLine
 10
183.3786830923
 20
145.094893098
 30
0.0
 11
183.3786830923
 21
147.0996074398
 31
0.0
  0
LINE
  5
461
330
225
100
AcDbEntity
 67
     1
  8
7_ALL_FEATURES
  6
Continuous
 62
     7
100
AcDbLine
 10
183.3786830923
 20
147.0996074398
 30
0.0
 11
183.3786830923
 21
147.1198999081
 31
0.0
  0
LINE
  5
462
330
225
100
AcDbEntity
 67
     1
  8
7_ALL_FEATURES
  6
Continuous
 62
     7
100
AcDbLine
 10
183.3786830923
 20
147.1198999081
 30
0.0
 11
183.3786830923
 21
148.0199008946
 31
0.0
  0
LINE
  5
463
330
225
100
AcDbEntity
 67
     1
  8
7_ALL_FEATURES
  6
Continuous
 62
     7
100
AcDbLine
 10
183.3786830923
 20
148.0199008946
 30
0.0
 11
183.3786830923
 21
148.3460881793
 31
0.0
  0
LINE
  5
464
330
225
100
AcDbEntity
 67
     1
  8
7_ALL_FEATURES
  6
Continuous
 62
     7
100
AcDbLine
 10
183.3786830923
 20
148.3460881793
 30
0.0
 11
183.3786830923
 21
154.5447618483
 31
0.0
  0
LINE
  5
465
330
225
100
AcDbEntity
 67
     1
  8
7_ALL_FEATURES
  6
Continuous
 62
     7
100
AcDbLine
 10
183.3786830923
 20
154.5447618483
 30
0.0
 11
183.3786830923
 21
154.5948310239
 31
0.0
  0
LINE
  5
466
330
225
100
AcDbEntity
 67
     1
  8
7_ALL_FEATURES
  6
Continuous
 62
     7
100
AcDbLine
 10
183.3786830923
 20
154.5948310239
 30
0.0
 11
183.3786830923
 21
163.5696714363
 31
0.0
  0
LINE
  5
467
330
225
100
AcDbEntity
 67
     1
  8
7_ALL_FEATURES
  6
Continuous
 62
     7
100
AcDbLine
 10
183.3786830923
 20
128.1699172692
 30
0.0
 11
183.6786830923
 21
127.8699172692
 31
0.0
  0
LINE
  5
468
330
225
100
AcDbEntity
 67
     1
  8
7_ALL_FEATURES
  6
Continuous
 62
     7
100
AcDbLine
 10
185.3786830923
 20
163.5699172692
 30
0.0
 11
185.0786830923
 21
163.8699172692
 31
0.0
  0
LINE
  5
469
330
225
100
AcDbEntity
 67
     1
  8
7_ALL_FEATURES
  6
Continuous
 62
     7
100
AcDbLine
 10
185.3786830923
 20
128.1699873927
 30
0.0
 11
185.3786830923
 21
137.8699172692
 31
0.0
  0
LINE
  5
46A
330
225
100
AcDbEntity
 67
     1
  8
7_ALL_FEATURES
  6
Continuous
 62
     7
100
AcDbLine
 10
185.3786830923
 20
137.8699172692
 30
0.0
 11
185.3786830923
 21
143.5461696576
 31
0.0
  0
LINE
  5
46B
330
225
100
AcDbEntity
 67
     1
  8
7_ALL_FEATURES
  6
Continuous
 62
     7
100
AcDbLine
 10
185.3786830923
 20
143.5461696576
 30
0.0
 11
185.3786830923
 21
148.0460925738
 31
0.0
  0
LINE
  5
46C
330
225
100
AcDbEntity
 67
     1
  8
7_ALL_FEATURES
  6
Continuous
 62
     7
100
AcDbLine
 10
185.3786830923
 20
148.0460925738
 30
0.0
 11
185.3786830923
 21
153.8698563406
 31
0.0
  0
LINE
  5
46D
330
225
100
AcDbEntity
 67
     1
  8
7_ALL_FEATURES
  6
Continuous
 62
     7
100
AcDbLine
 10
185.3786830923
 20
153.8698563406
 30
0.0
 11
185.3786830923
 21
163.5696714363
 31
0.0
  0
LINE
  5
46E
330
225
100
AcDbEntity
 67
     1
  8
7_ALL_FEATURES
  6
Continuous
 62
     7
100
AcDbLine
 10
185.3786830923
 20
128.1699172692
 30
0.0
 11
185.0786830923
 21
127.8699172692
 31
0.0
  0
LINE
  5
46F
330
225
100
AcDbEntity
 67
     1
  8
7_ALL_FEATURES
  6
Continuous
 62
     7
100
AcDbLine
 10
188.8786830923
 20
164.5696575475
 30
0.0
 11
188.8786830923
 21
164.5698432152
 31
0.0
  0
LINE
  5
470
330
225
100
AcDbEntity
 67
     1
  8
7_ALL_FEATURES
  6
Continuous
 62
     7
100
AcDbLine
 10
188.8786830923
 20
164.5699172692
 30
0.0
 11
189.1786830923
 21
164.8699172692
 31
0.0
  0
LINE
  5
471
330
225
100
AcDbEntity
 67
     1
  8
7_ALL_FEATURES
  6
Continuous
 62
     7
100
AcDbLine
 10
188.8786830923
 20
127.1699913232
 30
0.0
 11
188.8786830923
 21
137.8699172692
 31
0.0
  0
LINE
  5
472
330
225
100
AcDbEntity
 67
     1
  8
7_ALL_FEATURES
  6
Continuous
 62
     7
100
AcDbLine
 10
188.8786830923
 20
137.8699172692
 30
0.0
 11
188.8786830923
 21
143.5461623656
 31
0.0
  0
LINE
  5
473
330
225
100
AcDbEntity
 67
     1
  8
7_ALL_FEATURES
  6
Continuous
 62
     7
100
AcDbLine
 10
188.8786830923
 20
143.5461623656
 30
0.0
 11
188.8786830923
 21
144.3699172692
 31
0.0
  0
LINE
  5
474
330
225
100
AcDbEntity
 67
     1
  8
7_ALL_FEATURES
  6
Continuous
 62
     7
100
AcDbLine
 10
188.8786830923
 20
144.3699172692
 30
0.0
 11
188.8786830923
 21
147.3699172692
 31
0.0
  0
LINE
  5
475
330
225
100
AcDbEntity
 67
     1
  8
7_ALL_FEATURES
  6
Continuous
 62
     7
100
AcDbLine
 10
188.8786830923
 20
147.3699172692
 30
0.0
 11
188.8786830923
 21
148.0460925738
 31
0.0
  0
LINE
  5
476
330
225
100
AcDbEntity
 67
     1
  8
7_ALL_FEATURES
  6
Continuous
 62
     7
100
AcDbLine
 10
188.8786830923
 20
148.0460925738
 30
0.0
 11
188.8786830923
 21
153.8698563406
 31
0.0
  0
LINE
  5
477
330
225
100
AcDbEntity
 67
     1
  8
7_ALL_FEATURES
  6
Continuous
 62
     7
100
AcDbLine
 10
188.8786830923
 20
153.8698563406
 30
0.0
 11
188.8786830923
 21
164.5696575475
 31
0.0
  0
LINE
  5
478
330
225
100
AcDbEntity
 67
     1
  8
7_ALL_FEATURES
  6
Continuous
 62
     7
100
AcDbLine
 10
188.8786830923
 20
127.1699172692
 30
0.0
 11
189.1786830923
 21
126.8699172692
 31
0.0
  0
LINE
  5
479
330
225
100
AcDbEntity
 67
     1
  8
7_ALL_FEATURES
  6
Continuous
 62
     7
100
AcDbLine
 10
190.8786830923
 20
164.5699172692
 30
0.0
 11
190.5786830923
 21
164.8699172692
 31
0.0
  0
LINE
  5
47A
330
225
100
AcDbEntity
 67
     1
  8
7_ALL_FEATURES
  6
Continuous
 62
     7
100
AcDbLine
 10
190.8786830923
 20
127.1699913238
 30
0.0
 11
190.8786830923
 21
135.8699172692
 31
0.0
  0
LINE
  5
47B
330
225
100
AcDbEntity
 67
     1
  8
7_ALL_FEATURES
  6
Continuous
 62
     7
100
AcDbLine
 10
190.8786830923
 20
135.8699172692
 30
0.0
 11
190.8786830923
 21
143.5461623656
 31
0.0
  0
LINE
  5
47C
330
225
100
AcDbEntity
 67
     1
  8
7_ALL_FEATURES
  6
Continuous
 62
     7
100
AcDbLine
 10
190.8786830923
 20
143.5461623656
 30
0.0
 11
190.8786830923
 21
148.0460925738
 31
0.0
  0
LINE
  5
47D
330
225
100
AcDbEntity
 67
     1
  8
7_ALL_FEATURES
  6
Continuous
 62
     7
100
AcDbLine
 10
190.8786830923
 20
148.0460925738
 30
0.0
 11
190.8786830923
 21
155.8699172692
 31
0.0
  0
LINE
  5
47E
330
225
100
AcDbEntity
 67
     1
  8
7_ALL_FEATURES
  6
Continuous
 62
     7
100
AcDbLine
 10
190.8786830923
 20
155.8699172692
 30
0.0
 11
190.8786830923
 21
164.5696575475
 31
0.0
  0
LINE
  5
47F
330
225
100
AcDbEntity
 67
     1
  8
7_ALL_FEATURES
  6
Continuous
 62
     7
100
AcDbLine
 10
185.3786830923
 20
163.5696714363
 30
0.0
 11
185.3786830923
 21
163.5698471456
 31
0.0
  0
LINE
  5
480
330
225
100
AcDbEntity
 67
     1
  8
7_ALL_FEATURES
  6
Continuous
 62
     7
100
AcDbLine
 10
190.8786830923
 20
127.1699172692
 30
0.0
 11
190.5786830923
 21
126.8699172692
 31
0.0
  0
LINE
  5
481
330
225
100
AcDbEntity
 67
     1
  8
7_ALL_FEATURES
  6
Continuous
 62
     7
100
AcDbLine
 10
194.3786830923
 20
165.3199172692
 30
0.0
 11
194.6786830923
 21
165.6199172692
 31
0.0
  0
LINE
  5
482
330
225
100
AcDbEntity
 67
     1
  8
7_ALL_FEATURES
  6
Continuous
 62
     7
100
AcDbLine
 10
194.3786830923
 20
126.4199841288
 30
0.0
 11
194.3786830923
 21
135.8699172692
 31
0.0
  0
LINE
  5
483
330
225
100
AcDbEntity
 67
     1
  8
7_ALL_FEATURES
  6
Continuous
 62
     7
100
AcDbLine
 10
194.3786830923
 20
135.8699172692
 30
0.0
 11
194.3786830923
 21
143.5461623656
 31
0.0
  0
LINE
  5
484
330
225
100
AcDbEntity
 67
     1
  8
7_ALL_FEATURES
  6
Continuous
 62
     7
100
AcDbLine
 10
194.3786830923
 20
143.5461623656
 30
0.0
 11
194.3786830923
 21
148.0460925738
 31
0.0
  0
LINE
  5
485
330
225
100
AcDbEntity
 67
     1
  8
7_ALL_FEATURES
  6
Continuous
 62
     7
100
AcDbLine
 10
194.3786830923
 20
148.0460925738
 30
0.0
 11
194.3786830923
 21
155.8699172692
 31
0.0
  0
LINE
  5
486
330
225
100
AcDbEntity
 67
     1
  8
7_ALL_FEATURES
  6
Continuous
 62
     7
100
AcDbLine
 10
194.3786830923
 20
155.8699172692
 30
0.0
 11
194.3786830923
 21
165.3196471308
 31
0.0
  0
LINE
  5
487
330
225
100
AcDbEntity
 67
     1
  8
7_ALL_FEATURES
  6
Continuous
 62
     7
100
AcDbLine
 10
194.3786830923
 20
126.4199172692
 30
0.0
 11
194.6786830923
 21
126.1199172692
 31
0.0
  0
LINE
  5
488
330
225
100
AcDbEntity
 67
     1
  8
7_ALL_FEATURES
  6
Continuous
 62
     7
100
AcDbLine
 10
183.3786830923
 20
163.5696714363
 30
0.0
 11
183.3786830923
 21
163.569847146
 31
0.0
  0
LINE
  5
489
330
225
100
AcDbEntity
 67
     1
  8
7_ALL_FEATURES
  6
Continuous
 62
     7
100
AcDbLine
 10
196.3786830923
 20
165.3199172692
 30
0.0
 11
196.0786830923
 21
165.6199172692
 31
0.0
  0
LINE
  5
48A
330
225
100
AcDbEntity
 67
     1
  8
7_ALL_FEATURES
  6
Continuous
 62
     7
100
AcDbLine
 10
196.3786830923
 20
126.419984129
 30
0.0
 11
196.3786830923
 21
134.3699172692
 31
0.0
  0
LINE
  5
48B
330
225
100
AcDbEntity
 67
     1
  8
7_ALL_FEATURES
  6
Continuous
 62
     7
100
AcDbLine
 10
196.3786830923
 20
134.3699172692
 30
0.0
 11
196.3786830923
 21
143.5461623656
 31
0.0
  0
LINE
  5
48C
330
225
100
AcDbEntity
 67
     1
  8
7_ALL_FEATURES
  6
Continuous
 62
     7
100
AcDbLine
 10
196.3786830923
 20
143.5461623656
 30
0.0
 11
196.3786830923
 21
148.0460925738
 31
0.0
  0
LINE
  5
48D
330
225
100
AcDbEntity
 67
     1
  8
7_ALL_FEATURES
  6
Continuous
 62
     7
100
AcDbLine
 10
196.3786830923
 20
148.0460925738
 30
0.0
 11
196.3786830923
 21
157.3699172692
 31
0.0
  0
LINE
  5
48E
330
225
100
AcDbEntity
 67
     1
  8
7_ALL_FEATURES
  6
Continuous
 62
     7
100
AcDbLine
 10
196.3786830923
 20
157.3699172692
 30
0.0
 11
196.3786830923
 21
165.3196471308
 31
0.0
  0
LINE
  5
48F
330
225
100
AcDbEntity
 67
     1
  8
7_ALL_FEATURES
  6
Continuous
 62
     7
100
AcDbLine
 10
196.3786830923
 20
126.4199172692
 30
0.0
 11
196.0786830923
 21
126.1199172692
 31
0.0
  0
LINE
  5
490
330
225
100
AcDbEntity
 67
     1
  8
7_ALL_FEATURES
  6
Continuous
 62
     7
100
AcDbLine
 10
199.8786830923
 20
126.5054540621
 30
0.0
 11
199.8786830923
 21
130.8701256021
 31
0.0
  0
LINE
  5
491
330
225
100
AcDbEntity
 67
     1
  8
7_ALL_FEATURES
  6
Continuous
 62
     7
100
AcDbLine
 10
199.8786830923
 20
130.8701256021
 30
0.0
 11
199.8786830923
 21
132.8700978244
 31
0.0
  0
LINE
  5
492
330
225
100
AcDbEntity
 67
     1
  8
7_ALL_FEATURES
  6
Continuous
 62
     7
100
AcDbLine
 10
199.8786830923
 20
132.8700978244
 30
0.0
 11
199.8786830923
 21
134.3699172692
 31
0.0
  0
LINE
  5
493
330
225
100
AcDbEntity
 67
     1
  8
7_ALL_FEATURES
  6
Continuous
 62
     7
100
AcDbLine
 10
199.8786830923
 20
134.3699172692
 30
0.0
 11
199.8786830923
 21
141.8699172692
 31
0.0
  0
LINE
  5
494
330
225
100
AcDbEntity
 67
     1
  8
7_ALL_FEATURES
  6
Continuous
 62
     7
100
AcDbLine
 10
199.8786830923
 20
126.5054502364
 30
0.0
 11
200.4675161896
 21
125.5938901571
 31
0.0
  0
LINE
  5
495
330
225
100
AcDbEntity
 67
     1
  8
7_ALL_FEATURES
  6
Continuous
 62
     7
100
AcDbLine
 10
199.8786830923
 20
165.234384302
 30
0.0
 11
200.4675161896
 21
166.1459443812
 31
0.0
  0
LINE
  5
496
330
225
100
AcDbEntity
 67
     1
  8
02___PRT_ALL_AXES
  6
Continuous
 62
     7
100
AcDbLine
 10
185.0786830923
 20
163.8699172692
 30
0.0
 11
183.6786830923
 21
163.8699172692
 31
0.0
  0
LINE
  5
497
330
225
100
AcDbEntity
 67
     1
  8
02___PRT_ALL_AXES
  6
Continuous
 62
     7
100
AcDbLine
 10
188.8786830923
 20
153.8699172692
 30
0.0
 11
185.3786830923
 21
153.8699172692
 31
0.0
  0
LINE
  5
498
330
225
100
AcDbEntity
 67
     1
  8
02___PRT_ALL_AXES
  6
Continuous
 62
     7
100
AcDbLine
 10
190.5786830923
 20
164.8699172692
 30
0.0
 11
189.1786830923
 21
164.8699172692
 31
0.0
  0
LINE
  5
499
330
225
100
AcDbEntity
 67
     1
  8
02___PRT_ALL_AXES
  6
Continuous
 62
     7
100
AcDbLine
 10
194.3786830923
 20
155.8699172692
 30
0.0
 11
190.8786830923
 21
155.8699172692
 31
0.0
  0
LINE
  5
49A
330
225
100
AcDbEntity
 67
     1
  8
02___PRT_ALL_AXES
  6
Continuous
 62
     7
100
AcDbLine
 10
196.0786830923
 20
165.6199172692
 30
0.0
 11
194.6786830923
 21
165.6199172692
 31
0.0
  0
LINE
  5
49B
330
225
100
AcDbEntity
 67
     1
  8
02___PRT_ALL_AXES
  6
Continuous
 62
     7
100
AcDbLine
 10
199.8786830923
 20
157.3699172692
 30
0.0
 11
196.3786830923
 21
157.3699172692
 31
0.0
  0
LINE
  5
49C
330
225
100
AcDbEntity
 67
     1
  8
02___PRT_ALL_AXES
  6
Continuous
 62
     7
100
AcDbLine
 10
185.0786830923
 20
127.8699172692
 30
0.0
 11
183.6786830923
 21
127.8699172692
 31
0.0
  0
LINE
  5
49D
330
225
100
AcDbEntity
 67
     1
  8
02___PRT_ALL_AXES
  6
Continuous
 62
     7
100
AcDbLine
 10
188.8786830923
 20
137.8699172692
 30
0.0
 11
185.3786830923
 21
137.8699172692
 31
0.0
  0
LINE
  5
49E
330
225
100
AcDbEntity
 67
     1
  8
02___PRT_ALL_AXES
  6
Continuous
 62
     7
100
AcDbLine
 10
190.5786830923
 20
126.8699172692
 30
0.0
 11
189.1786830923
 21
126.8699172692
 31
0.0
  0
LINE
  5
49F
330
225
100
AcDbEntity
 67
     1
  8
02___PRT_ALL_AXES
  6
Continuous
 62
     7
100
AcDbLine
 10
194.3786830923
 20
135.8699172692
 30
0.0
 11
190.8786830923
 21
135.8699172692
 31
0.0
  0
ARC
  5
4A0
330
225
100
AcDbEntity
 67
     1
  8
02___PRT_ALL_AXES
  6
Continuous
 62
     7
100
AcDbCircle
 10
209.6131901346
 20
145.8699172692
 30
0.0
 40
22.2432153106
100
AcDbArc
 50
101.6993403744
 51
114.2781589051
  0
LINE
  5
4A1
330
225
100
AcDbEntity
 67
     1
  8
02___PRT_ALL_AXES
  6
Continuous
 62
     7
100
AcDbLine
 10
196.0786830923
 20
126.1199172692
 30
0.0
 11
194.6786830923
 21
126.1199172692
 31
0.0
  0
LINE
  5
4A2
330
225
100
AcDbEntity
 67
     1
  8
02___PRT_ALL_AXES
  6
Continuous
 62
     7
100
AcDbLine
 10
199.8786830923
 20
134.3699172692
 30
0.0
 11
196.3786830923
 21
134.3699172692
 31
0.0
  0
ARC
  5
4A3
330
225
100
AcDbEntity
 67
     1
  8
02___PRT_ALL_AXES
  6
Continuous
 62
     7
100
AcDbCircle
 10
209.6131901346
 20
145.8699172692
 30
0.0
 40
22.2432153106
100
AcDbArc
 50
245.7218410949
 51
258.3006596256
  0
LINE
  5
4A4
330
225
100
AcDbEntity
 67
     1
  8
7_ALL_FEATURES
  6
Continuous
 62
     7
100
AcDbLine
 10
190.5786830923
 20
164.8696533808
 30
0.0
 11
190.5786830923
 21
164.8699172692
 31
0.0
  0
LINE
  5
4A5
330
225
100
AcDbEntity
 67
     1
  8
7_ALL_FEATURES
  6
Continuous
 62
     7
100
AcDbLine
 10
183.6786830923
 20
163.8696672697
 30
0.0
 11
183.6786830923
 21
163.8699172692
 31
0.0
  0
LINE
  5
4A6
330
225
100
AcDbEntity
 67
     1
  8
7_ALL_FEATURES
  6
Continuous
 62
     7
100
AcDbLine
 10
185.0786830923
 20
163.8696672697
 30
0.0
 11
185.0786830923
 21
163.8699172692
 31
0.0
  0
LINE
  5
4A7
330
225
100
AcDbEntity
 67
     1
  8
7_ALL_FEATURES
  6
Continuous
 62
     7
100
AcDbLine
 10
183.6786830923
 20
127.8699172692
 30
0.0
 11
183.6786830923
 21
163.8696672697
 31
0.0
  0
LINE
  5
4A8
330
225
100
AcDbEntity
 67
     1
  8
7_ALL_FEATURES
  6
Continuous
 62
     7
100
AcDbLine
 10
185.0786830923
 20
127.8699172692
 30
0.0
 11
185.0786830923
 21
163.8696672697
 31
0.0
  0
LINE
  5
4A9
330
225
100
AcDbEntity
 67
     1
  8
7_ALL_FEATURES
  6
Continuous
 62
     7
100
AcDbLine
 10
189.1786830923
 20
126.8699172692
 30
0.0
 11
189.1786830923
 21
164.8696533808
 31
0.0
  0
LINE
  5
4AA
330
225
100
AcDbEntity
 67
     1
  8
7_ALL_FEATURES
  6
Continuous
 62
     7
100
AcDbLine
 10
190.5786830923
 20
126.8699172692
 30
0.0
 11
190.5786830923
 21
164.8696533808
 31
0.0
  0
LINE
  5
4AB
330
225
100
AcDbEntity
 67
     1
  8
7_ALL_FEATURES
  6
Continuous
 62
     7
100
AcDbLine
 10
200.4675161896
 20
149.8699172692
 30
0.0
 11
200.4675161896
 21
166.1459443812
 31
0.0
  0
LINE
  5
4AC
330
225
100
AcDbEntity
 67
     1
  8
7_ALL_FEATURES
  6
Continuous
 62
     7
100
AcDbLine
 10
194.6786830923
 20
126.1199172692
 30
0.0
 11
194.6786830923
 21
165.6196429641
 31
0.0
  0
LINE
  5
4AD
330
225
100
AcDbEntity
 67
     1
  8
7_ALL_FEATURES
  6
Continuous
 62
     7
100
AcDbLine
 10
196.0786830923
 20
126.1199172692
 30
0.0
 11
196.0786830923
 21
165.6196429641
 31
0.0
  0
LINE
  5
4AE
330
225
100
AcDbEntity
 67
     1
  8
7_ALL_FEATURES
  6
Continuous
 62
     7
100
AcDbLine
 10
194.6786830923
 20
165.6196429641
 30
0.0
 11
194.6786830923
 21
165.6199172692
 31
0.0
  0
LINE
  5
4AF
330
225
100
AcDbEntity
 67
     1
  8
7_ALL_FEATURES
  6
Continuous
 62
     7
100
AcDbLine
 10
196.0786830923
 20
165.6196429641
 30
0.0
 11
196.0786830923
 21
165.6199172692
 31
0.0
  0
LINE
  5
4B0
330
225
100
AcDbEntity
 67
     1
  8
7_ALL_FEATURES
  6
Continuous
 62
     7
100
AcDbLine
 10
200.4675161896
 20
125.5938901571
 30
0.0
 11
200.4675161896
 21
141.8699172692
 31
0.0
  0
LINE
  5
4B1
330
225
100
AcDbEntity
 67
     1
  8
7_ALL_FEATURES
  6
Continuous
 62
     7
100
AcDbLine
 10
189.1786830923
 20
164.8696533808
 30
0.0
 11
189.1786830923
 21
164.8699172692
 31
0.0
  0
LINE
  5
4B2
330
225
100
AcDbEntity
 67
     1
  8
7_ALL_FEATURES
  6
Continuous
 62
     3
100
AcDbLine
 10
204.6249906052
 20
141.8699172692
 30
0.0
 11
223.8507545693
 21
141.8699172692
 31
0.0
  0
LINE
  5
4B3
330
225
100
AcDbEntity
 67
     1
  8
7_ALL_FEATURES
  6
Continuous
 62
     3
100
AcDbLine
 10
223.8507545693
 20
149.8699172692
 30
0.0
 11
204.6249906052
 21
149.8699172692
 31
0.0
  0
LINE
  5
4B4
330
225
100
AcDbEntity
 67
     1
  8
7_ALL_FEATURES
  6
Continuous
 62
     3
100
AcDbLine
 10
224.2007545693
 20
141.8699172692
 30
0.0
 11
223.8507545693
 21
141.8699172692
 31
0.0
  0
LINE
  5
4B5
330
225
100
AcDbEntity
 67
     1
  8
7_ALL_FEATURES
  6
Continuous
 62
     3
100
AcDbLine
 10
224.2007545693
 20
149.8699172692
 30
0.0
 11
223.8507545693
 21
149.8699172692
 31
0.0
  0
LINE
  5
4B6
330
225
100
AcDbEntity
 67
     1
  8
7_ALL_FEATURES
  6
Continuous
 62
     3
100
AcDbLine
 10
224.2007545693
 20
149.8699172692
 30
0.0
 11
224.2007545693
 21
141.8699172692
 31
0.0
  0
LINE
  5
4B7
330
225
100
AcDbEntity
 67
     1
  8
7_ALL_FEATURES
  6
Continuous
 62
     3
100
AcDbLine
 10
204.2749906052
 20
141.8699172692
 30
0.0
 11
204.6249906052
 21
141.8699172692
 31
0.0
  0
LINE
  5
4B8
330
225
100
AcDbEntity
 67
     1
  8
7_ALL_FEATURES
  6
Continuous
 62
     3
100
AcDbLine
 10
204.2749906052
 20
149.8699172692
 30
0.0
 11
204.6249906052
 21
149.8699172692
 31
0.0
  0
LINE
  5
4B9
330
225
100
AcDbEntity
 67
     1
  8
7_ALL_FEATURES
  6
Continuous
 62
     3
100
AcDbLine
 10
198.4625550399
 20
149.8699172692
 30
0.0
 11
198.4625550399
 21
141.8699172692
 31
0.0
  0
LINE
  5
4BA
330
225
100
AcDbEntity
 67
     1
  8
7_ALL_FEATURES
  6
Continuous
 62
     3
100
AcDbLine
 10
198.4625550399
 20
141.8699172692
 30
0.0
 11
204.2749906052
 21
141.8699172692
 31
0.0
  0
LINE
  5
4BB
330
225
100
AcDbEntity
 67
     1
  8
7_ALL_FEATURES
  6
Continuous
 62
     3
100
AcDbLine
 10
204.2749906052
 20
149.8699172692
 30
0.0
 11
198.4625550399
 21
149.8699172692
 31
0.0
  0
LINE
  5
4BC
330
225
100
AcDbEntity
 67
     1
  8
7_ALL_FEATURES
  6
Continuous
 62
     9
100
AcDbLine
 10
204.2749906052
 20
141.8699172692
 30
0.0
 11
204.2749906052
 21
149.8699172692
 31
0.0
  0
LINE
  5
4BD
330
225
100
AcDbEntity
 67
     1
  8
7_ALL_FEATURES
  6
Continuous
 62
     9
100
AcDbLine
 10
204.6249906052
 20
141.8699172692
 30
0.0
 11
204.6249906052
 21
149.8699172692
 31
0.0
  0
LINE
  5
4BE
330
225
100
AcDbEntity
 67
     1
  8
7_ALL_FEATURES
  6
Continuous
 62
     9
100
AcDbLine
 10
223.8507545693
 20
149.8699172692
 30
0.0
 11
223.8507545693
 21
141.8699172692
 31
0.0
  0
DIMENSION
  5
4BF
330
225
100
AcDbEntity
 67
     1
  8
0
  6
Continuous
 62
     2
100
AcDbDimension
280
     0
  2
*D1
 10
54.5973779652
 20
164.511853138
 30
0.0
 11
44.9058827698
 21
173.409378939
 31
0.0
 70
   163
  1
%%c<>
 71
     3
 42
69.0
 73
     0
 74
     0
 75
     0
  3
DIMSTYLE_1
100
AcDbDiametricDimension
 15
112.6569414174
 25
127.2279814004
 35
0.0
 40
0.0
  0
DIMENSION
  5
4C0
330
225
100
AcDbEntity
 67
     1
  8
0
  6
Continuous
 62
     2
100
AcDbDimension
280
     0
  2
*D2
 10
32.28700699
 20
42.9779085623
 30
0.0
 11
32.28700699
 21
66.7658546077
 31
0.0
 70
   160
 71
     2
 42
48.3135300084
 73
     0
 74
     0
 75
     0
  3
DIMSTYLE_2
100
AcDbAlignedDimension
 13
49.8595018717
 23
91.2914385707
 33
0.0
 14
47.6985081661
 24
42.9779085623
 34
0.0
 50
270.0
100
AcDbRotatedDimension
  0
DIMENSION
  5
4C1
330
225
100
AcDbEntity
 67
     1
  8
0
  6
Continuous
 62
     2
100
AcDbDimension
280
     0
  2
*D3
 10
128.19590241
 20
42.9569315284
 30
0.0
 11
128.19590241
 21
33.0805632791
 31
0.0
 70
   160
 71
     3
 42
1.5
 73
     0
 74
     0
 75
     0
  3
DIMSTYLE_3
100
AcDbAlignedDimension
 13
118.1271596913
 23
44.4569315284
 33
0.0
 14
118.7898801852
 24
42.9569315284
 34
0.0
 50
270.0
100
AcDbRotatedDimension
  0
DIMENSION
  5
4C2
330
225
100
AcDbEntity
 67
     1
  8
0
  6
Continuous
 62
     2
100
AcDbDimension
280
     0
  2
*D4
 10
170.6822834552
 20
117.2199172692
 30
0.0
 11
170.6822834552
 21
145.8699172692
 31
0.0
 70
   160
  1
%%c<>
 71
     2
 42
57.3
 73
     0
 74
     0
 75
     0
  3
DIMSTYLE_2
100
AcDbAlignedDimension
 13
187.0357707632
 23
174.5199172692
 33
0.0
 14
189.2050931214
 24
117.2199172692
 34
0.0
 50
270.0
100
AcDbRotatedDimension
  0
LINE
  5
4C3
330
225
100
AcDbEntity
 67
     1
  8
0
  6
Continuous
 62
     2
100
AcDbLine
 10
154.0072301476
 20
78.9839440915
 30
0.0
 11
284.0072301476
 21
78.9839440915
 31
0.0
  0
LINE
  5
4C4
330
225
100
AcDbEntity
 67
     1
  8
0
  6
Continuous
 62
     2
100
AcDbLine
 10
154.0072301476
 20
78.9839440915
 30
0.0
 11
154.0072301476
 21
12.9839440915
 31
0.0
  0
LINE
  5
4C5
330
225
100
AcDbEntity
 67
     1
  8
0
  6
Continuous
 62
     2
100
AcDbLine
 10
184.0072301476
 20
70.9839440915
 30
0.0
 11
284.0072301476
 21
70.9839440915
 31
0.0
  0
LINE
  5
4C6
330
225
100
AcDbEntity
 67
     1
  8
0
  6
Continuous
 62
     2
100
AcDbLine
 10
154.0072301476
 20
62.9839440915
 30
0.0
 11
284.0072301476
 21
62.9839440915
 31
0.0
  0
LINE
  5
4C7
330
225
100
AcDbEntity
 67
     1
  8
0
  6
Continuous
 62
     2
100
AcDbLine
 10
184.0072301476
 20
56.9839440915
 30
0.0
 11
284.0072301476
 21
56.9839440915
 31
0.0
  0
LINE
  5
4C8
330
225
100
AcDbEntity
 67
     1
  8
0
  6
Continuous
 62
     2
100
AcDbLine
 10
184.0072301476
 20
50.9839440915
 30
0.0
 11
284.0072301476
 21
50.9839440915
 31
0.0
  0
LINE
  5
4C9
330
225
100
AcDbEntity
 67
     1
  8
0
  6
Continuous
 62
     2
100
AcDbLine
 10
184.0072301476
 20
44.9839440915
 30
0.0
 11
284.0072301476
 21
44.9839440915
 31
0.0
  0
LINE
  5
4CA
330
225
100
AcDbEntity
 67
     1
  8
0
  6
Continuous
 62
     2
100
AcDbLine
 10
184.0072301476
 20
38.9839440915
 30
0.0
 11
284.0072301476
 21
38.9839440915
 31
0.0
  0
LINE
  5
4CB
330
225
100
AcDbEntity
 67
     1
  8
0
  6
Continuous
 62
     2
100
AcDbLine
 10
184.0072301476
 20
32.9839440915
 30
0.0
 11
284.0072301476
 21
32.9839440915
 31
0.0
  0
LINE
  5
4CC
330
225
100
AcDbEntity
 67
     1
  8
0
  6
Continuous
 62
     2
100
AcDbLine
 10
154.0072301476
 20
26.9839440915
 30
0.0
 11
284.0072301476
 21
26.9839440915
 31
0.0
  0
LINE
  5
4CD
330
225
100
AcDbEntity
 67
     1
  8
0
  6
Continuous
 62
     2
100
AcDbLine
 10
154.0072301476
 20
20.9839440915
 30
0.0
 11
284.0072301476
 21
20.9839440915
 31
0.0
  0
LINE
  5
4CE
330
225
100
AcDbEntity
 67
     1
  8
0
  6
Continuous
 62
     2
100
AcDbLine
 10
154.0072301476
 20
16.9839440915
 30
0.0
 11
284.0072301476
 21
16.9839440915
 31
0.0
  0
LINE
  5
4CF
330
225
100
AcDbEntity
 67
     1
  8
0
  6
Continuous
 62
     2
100
AcDbLine
 10
154.0072301476
 20
12.9839440915
 30
0.0
 11
284.0072301476
 21
12.9839440915
 31
0.0
  0
LINE
  5
4D0
330
225
100
AcDbEntity
 67
     1
  8
0
  6
Continuous
 62
     2
100
AcDbLine
 10
184.0072301476
 20
78.9839440915
 30
0.0
 11
184.0072301476
 21
20.9839440915
 31
0.0
  0
LINE
  5
4D1
330
225
100
AcDbEntity
 67
     1
  8
0
  6
Continuous
 62
     2
100
AcDbLine
 10
204.0072301476
 20
62.9839440915
 30
0.0
 11
204.0072301476
 21
56.9839440915
 31
0.0
  0
LINE
  5
4D2
330
225
100
AcDbEntity
 67
     1
  8
0
  6
Continuous
 62
     2
100
AcDbLine
 10
234.0072301476
 20
32.9839440915
 30
0.0
 11
234.0072301476
 21
20.9839440915
 31
0.0
  0
LINE
  5
4D3
330
225
100
AcDbEntity
 67
     1
  8
0
  6
Continuous
 62
     2
100
AcDbLine
 10
244.0072301476
 20
62.9839440915
 30
0.0
 11
244.0072301476
 21
56.9839440915
 31
0.0
  0
LINE
  5
4D4
330
225
100
AcDbEntity
 67
     1
  8
0
  6
Continuous
 62
     2
100
AcDbLine
 10
244.0072301476
 20
50.9839440915
 30
0.0
 11
244.0072301476
 21
44.9839440915
 31
0.0
  0
LINE
  5
4D5
330
225
100
AcDbEntity
 67
     1
  8
0
  6
Continuous
 62
     2
100
AcDbLine
 10
264.0072301476
 20
62.9839440915
 30
0.0
 11
264.0072301476
 21
56.9839440915
 31
0.0
  0
LINE
  5
4D6
330
225
100
AcDbEntity
 67
     1
  8
0
  6
Continuous
 62
     2
100
AcDbLine
 10
274.0072301476
 20
50.9839440915
 30
0.0
 11
274.0072301476
 21
44.9839440915
 31
0.0
  0
LINE
  5
4D7
330
225
100
AcDbEntity
 67
     1
  8
0
  6
Continuous
 62
     2
100
AcDbLine
 10
284.0072301476
 20
78.9839440915
 30
0.0
 11
284.0072301476
 21
12.9839440915
 31
0.0
  0
INSERT
  5
4D8
330
225
100
AcDbEntity
 67
     1
  8
0
  6
Continuous
 62
     2
100
AcDbBlockReference
  2
PROIEZIONE_EU_BL0
 10
169.0072301476
 20
70.6089440915
 30
0.0
  0
MTEXT
  5
4D9
330
225
100
AcDbEntity
 67
     1
  8
9_SOLID
  6
Continuous
 62
     2
100
AcDbMText
 10
185.4947301476
 20
77.3589440915
 30
0.0
 40
1.9
 41
142.3642857143
 46
0.0
 71
     1
 72
     1
  1
EN: Chamfer/radii unlisted 0.3x45°. Remove sharp edges.\PGen. tol.: hole H11, shaft h11, lenght Js12. UNI EN 22768 Medium Grande.
  7
TEXTSTYLE_4
 73
     1
 44
0.9
  0
MTEXT
  5
4DA
330
225
100
AcDbEntity
 67
     1
  8
9_SOLID
  6
Continuous
 62
     2
100
AcDbMText
 10
185.4947301476
 20
69.3589440915
 30
0.0
 40
1.9
 41
148.2678571429
 46
0.0
 71
     1
 72
     1
  1
IT: Sm./rac. non quotati 0.3x45°. Eliminare spigoli taglienti.\PToll. gen.: foro H11, albero h11, lunghezza Js12. UNI EN 22768 Grado Medio.
  7
TEXTSTYLE_4
 73
     1
 44
0.9
  0
INSERT
  5
4DB
330
225
100
AcDbEntity
 67
     1
  8
0
  6
Continuous
 62
     2
100
AcDbBlockReference
  2
LOGO2_BL1
 10
167.8332771924
 20
44.9839440915
 30
0.0
  0
MTEXT
  5
4DC
330
225
100
AcDbEntity
 67
     1
  8
9_SOLID
  6
Continuous
 62
     2
100
AcDbMText
 10
185.4947301476
 20
61.2339440915
 30
0.0
 40
3.0
 41
25.9285714286
 46
0.0
 71
     1
 72
     1
  1
Pj: A030
  7
TEXTSTYLE_4
 73
     1
 44
0.9
  0
MTEXT
  5
4DD
330
225
100
AcDbEntity
 67
     1
  8
9_SOLID
  6
Continuous
 62
     2
100
AcDbMText
 10
205.4947301476
 20
61.2339440915
 30
0.0
 40
3.0
 41
38.0357142857
 46
0.0
 71
     1
 72
     1
  1
% Check: %
  7
TEXTSTYLE_4
 73
     1
 44
0.9
  0
MTEXT
  5
4DE
330
225
100
AcDbEntity
 67
     1
  8
9_SOLID
  6
Continuous
 62
     2
100
AcDbMText
 10
245.4947301476
 20
61.2339440915
 30
0.0
 40
3.0
 41
19.5
 46
0.0
 71
     1
 72
     1
  1
Rev:00
  7
TEXTSTYLE_4
 73
     1
 44
0.9
  0
MTEXT
  5
4DF
330
225
100
AcDbEntity
 67
     1
  8
9_SOLID
  6
Continuous
 62
     2
100
AcDbMText
 10
265.4947301476
 20
61.4839440915
 30
0.0
 40
3.0
 41
19.7142857143
 46
0.0
 71
     1
 72
     1
  1
Ver: A
  7
TEXTSTYLE_4
 73
     1
 44
0.9
  0
MTEXT
  5
4E0
330
225
100
AcDbEntity
 67
     1
  8
9_SOLID
  6
Continuous
 62
     2
100
AcDbMText
 10
185.4947301476
 20
55.2339440915
 30
0.0
 40
3.0
 41
77.5714285714
 46
0.0
 71
     1
 72
     1
  1
Neutral code: A030_C_001
  7
TEXTSTYLE_4
 73
     1
 44
0.9
  0
MTEXT
  5
4E1
330
225
100
AcDbEntity
 67
     1
  8
9_SOLID
  6
Continuous
 62
     2
100
AcDbMText
 10
185.4947301476
 20
49.2339440915
 30
0.0
 40
3.0
 41
19.3928571429
 46
0.0
 71
     1
 72
     1
  1
Code: 
  7
TEXTSTYLE_4
 73
     1
 44
0.9
  0
MTEXT
  5
4E2
330
225
100
AcDbEntity
 67
     1
  8
9_SOLID
  6
Continuous
 62
     2
100
AcDbMText
 10
245.4947301476
 20
49.4839440915
 30
0.0
 40
3.0
 41
27.0
 46
0.0
 71
     1
 72
     1
  1
Scale: 1:1
  7
TEXTSTYLE_4
 73
     1
 44
0.9
  0
MTEXT
  5
4E3
330
225
100
AcDbEntity
 67
     1
  8
9_SOLID
  6
Continuous
 62
     2
100
AcDbMText
 10
279.0072301476
 20
49.4839440915
 30
0.0
 40
3.0
 41
7.3928571429
 46
0.0
 71
     2
 72
     1
  1
A4
  7
TEXTSTYLE_4
 73
     1
 44
0.9
  0
MTEXT
  5
4E4
330
225
100
AcDbEntity
 67
     1
  8
9_SOLID
  6
Continuous
 62
     2
100
AcDbMText
 10
185.4947301476
 20
43.4839440915
 30
0.0
 40
3.0
 41
64.3928571429
 46
0.0
 71
     1
 72
     1
  1
It descr.: CAMEO 2.7
  7
TEXTSTYLE_4
 73
     1
 44
0.9
  0
MTEXT
  5
4E5
330
225
100
AcDbEntity
 67
     1
  8
9_SOLID
  6
Continuous
 62
     2
100
AcDbMText
 10
185.4947301476
 20
37.4839440915
 30
0.0
 40
3.0
 41
33.9642857143
 46
0.0
 71
     1
 72
     1
  1
En descr.: 
  7
TEXTSTYLE_4
 73
     1
 44
0.9
  0
MTEXT
  5
4E6
330
225
100
AcDbEntity
 67
     1
  8
9_SOLID
  6
Continuous
 62
     2
100
AcDbMText
 10
185.4947301476
 20
31.4839440915
 30
0.0
 40
3.0
 41
31.6071428571
 46
0.0
 71
     1
 72
     1
  1
Des.: A.G.
  7
TEXTSTYLE_4
 73
     1
 44
0.9
  0
MTEXT
  5
4E7
330
225
100
AcDbEntity
 67
     1
  8
9_SOLID
  6
Continuous
 62
     2
100
AcDbMText
 10
235.4947301476
 20
31.4839440915
 30
0.0
 40
3.0
 41
34.8214285714
 46
0.0
 71
     1
 72
     1
  1
Check: A.P.
  7
TEXTSTYLE_4
 73
     1
 44
0.9
  0
MTEXT
  5
4E8
330
225
100
AcDbEntity
 67
     1
  8
9_SOLID
  6
Continuous
 62
     2
100
AcDbMText
 10
155.4947301476
 20
25.4839440915
 30
0.0
 40
3.0
 41
43.1785714286
 46
0.0
 71
     1
 72
     1
  1
Date: 16.05.19
  7
TEXTSTYLE_4
 73
     1
 44
0.9
  0
MTEXT
  5
4E9
330
225
100
AcDbEntity
 67
     1
  8
9_SOLID
  6
Continuous
 62
     2
100
AcDbMText
 10
185.4947301476
 20
25.4839440915
 30
0.0
 40
3.0
 41
18.2142857143
 46
0.0
 71
     1
 72
     1
  1
Mat.: 
  7
TEXTSTYLE_4
 73
     1
 44
0.9
  0
MTEXT
  5
4EA
330
225
100
AcDbEntity
 67
     1
  8
9_SOLID
  6
Continuous
 62
     2
100
AcDbMText
 10
235.4947301476
 20
24.9839440915
 30
0.0
 40
2.0
 41
42.3571428571
 46
0.0
 71
     1
 72
     1
  1
Disegno per catalogo
  7
TEXTSTYLE_4
 73
     1
 44
0.9
  0
MTEXT
  5
4EB
330
225
100
AcDbEntity
 67
     1
  8
9_SOLID
  6
Continuous
 62
     2
100
AcDbMText
 10
155.4947301476
 20
19.8839440915
 30
0.0
 40
1.8
 41
175.6928571429
 46
0.0
 71
     1
 72
     1
  1
It: A norma di legge si diffida da qualsiasi riproduzione senza nostra autorizzazione esplicita.
  7
TEXTSTYLE_4
 73
     1
 44
0.9
  0
MTEXT
  5
4EC
330
225
100
AcDbEntity
 67
     1
  8
9_SOLID
  6
Continuous
 62
     2
100
AcDbMText
 10
155.4947301476
 20
15.8839440915
 30
0.0
 40
1.8
 41
157.6285714286
 46
0.0
 71
     1
 72
     1
  1
En: According to the law, beware of any reproduction made without our authorization.
  7
TEXTSTYLE_4
 73
     1
 44
0.9
  0
ENDSEC
  0
SECTION
  2
OBJECTS
  0
DICTIONARY
  5
C
330
0
100
AcDbDictionary
281
     1
  3
ACAD_DETAILVIEWSTYLE
350
53B
  3
ACAD_GROUP
350
D
  3
ACAD_LAYOUT
350
1A
  3
ACAD_MATERIAL
350
52A
  3
ACAD_MLEADERSTYLE
350
530
  3
ACAD_MLINESTYLE
350
17
  3
ACAD_PLOTSETTINGS
350
19
  3
ACAD_PLOTSTYLENAME
350
E
  3
ACAD_SCALELIST
350
4EF
  3
ACAD_SECTIONVIEWSTYLE
350
53C
  3
ACAD_TABLESTYLE
350
52E
  3
ACAD_VISUALSTYLE
350
511
  3
ACDB_RECOMPOSE_DATA
350
537
  3
AcDbVariableDictionary
350
533
  3
APPDATA
350
532
  0
DICTIONARY
  5
53B
102
{ACAD_REACTORS
330
C
102
}
330
C
100
AcDbDictionary
281
     1
  0
DICTIONARY
  5
D
102
{ACAD_REACTORS
330
C
102
}
330
C
100
AcDbDictionary
281
     1
  0
DICTIONARY
  5
1A
102
{ACAD_REACTORS
330
C
102
}
330
C
100
AcDbDictionary
281
     1
  3
168712_1
350
4EE
  3
Model
350
4ED
  0
DICTIONARY
  5
52A
102
{ACAD_REACTORS
330
C
102
}
330
C
100
AcDbDictionary
281
     1
  3
ByBlock
350
52C
  3
ByLayer
350
52B
  3
Global
350
52D
  0
DICTIONARY
  5
530
102
{ACAD_REACTORS
330
C
102
}
330
C
100
AcDbDictionary
281
     1
  3
Standard
350
531
  0
DICTIONARY
  5
17
102
{ACAD_REACTORS
330
C
102
}
330
C
100
AcDbDictionary
281
     1
  3
Standard
350
18
  0
DICTIONARY
  5
19
102
{ACAD_REACTORS
330
C
102
}
330
C
100
AcDbDictionary
281
     1
  0
ACDBDICTIONARYWDFLT
  5
E
102
{ACAD_REACTORS
330
C
102
}
330
C
100
AcDbDictionary
281
     1
  3
Normal
350
F
100
AcDbDictionaryWithDefault
340
F
  0
DICTIONARY
  5
4EF
102
{ACAD_REACTORS
330
C
102
}
330
C
100
AcDbDictionary
281
     1
  3
A0
350
4F0
  3
A1
350
4F1
  3
A2
350
4F2
  3
A3
350
4F3
  3
A4
350
4F4
  3
A5
350
4F5
  3
A6
350
4F6
  3
A7
350
4F7
  3
A8
350
4F8
  3
A9
350
4F9
  3
B0
350
4FA
  3
B1
350
4FB
  3
B2
350
4FC
  3
B3
350
4FD
  3
B4
350
4FE
  3
B5
350
4FF
  3
B6
350
500
  3
B7
350
501
  3
B8
350
502
  3
B9
350
503
  3
C0
350
504
  3
C1
350
505
  3
C2
350
506
  3
C3
350
507
  3
C4
350
508
  3
C5
350
509
  3
C6
350
50A
  3
C7
350
50B
  3
C8
350
50C
  3
C9
350
50D
  3
D0
350
50E
  3
D1
350
50F
  3
D2
350
510
  0
DICTIONARY
  5
53C
102
{ACAD_REACTORS
330
C
102
}
330
C
100
AcDbDictionary
281
     1
  0
DICTIONARY
  5
52E
102
{ACAD_REACTORS
330
C
102
}
330
C
100
AcDbDictionary
281
     1
  3
Standard
350
52F
  0
DICTIONARY
  5
511
102
{ACAD_REACTORS
330
C
102
}
330
C
100
AcDbDictionary
281
     1
  3
2dWireframe
350
516
  3
Basic
350
519
  3
Brighten
350
51D
  3
ColorChange
350
521
  3
Conceptual
350
51B
  3
Dim
350
51C
  3
EdgeColorOff
350
524
  3
Facepattern
350
520
  3
Flat
350
512
  3
FlatWithEdges
350
513
  3
Gouraud
350
514
  3
GouraudWithEdges
350
515
  3
Hidden
350
518
  3
JitterOff
350
522
  3
Linepattern
350
51F
  3
OverhangOff
350
523
  3
Realistic
350
51A
  3
Shaded
350
529
  3
Shaded with edges
350
528
  3
Shades of Gray
350
525
  3
Sketchy
350
526
  3
Thicken
350
51E
  3
Wireframe
350
517
  3
X-Ray
350
527
  0
XRECORD
  5
537
102
{ACAD_REACTORS
330
C
102
}
330
C
100
AcDbXrecord
280
     1
 90
        1
330
52F
  0
DICTIONARY
  5
533
102
{ACAD_REACTORS
330
C
102
}
330
C
100
AcDbDictionary
281
     1
  3
CANNOSCALE
350
534
  3
CMLEADERSTYLE
350
539
  3
CTABLESTYLE
350
538
  3
MSLTSCALE
350
53A
  0
DICTIONARY
  5
532
102
{ACAD_REACTORS
330
C
102
}
330
C
100
AcDbDictionary
281
     1
  0
LAYOUT
  5
4EE
102
{ACAD_REACTORS
330
1A
102
}
330
1A
100
AcDbPlotSettings
  1

  2
none_device
  4
ISO_A4_(297.00_x_210.00_MM)
  6

 40
0.0
 41
0.0
 42
0.0
 43
0.0
 44
297.0
 45
210.0
 46
0.0
 47
0.0
 48
0.0
 49
0.0
140
0.0
141
0.0
142
1.0
143
1.0
 70
     0
 72
     1
 73
     0
 74
     0
  7

 75
     0
 76
     0
 77
     2
 78
   300
147
1.0
148
0.0
149
0.0
100
AcDbLayout
  1
168712_1
 70
     0
 71
     1
 10
0.0
 20
0.0
 11
297.0
 21
210.0
 12
0.0
 22
0.0
 32
0.0
 14
9.949999999999989
 24
9.950000000000003
 34
0.0
 15
291.5463968142666
 25
200.05
 35
0.0
146
0.0
 13
0.0
 23
0.0
 33
0.0
 16
1.0
 26
0.0
 36
0.0
 17
0.0
 27
1.0
 37
0.0
 76
     0
330
225
331
2AB
  0
LAYOUT
  5
4ED
102
{ACAD_REACTORS
330
1A
102
}
330
1A
100
AcDbPlotSettings
  1

  2
none_device
  4

  6

 40
0.0
 41
0.0
 42
0.0
 43
0.0
 44
297.0
 45
210.0
 46
0.0
 47
0.0
 48
0.0
 49
0.0
140
0.0
141
0.0
142
1.0
143
1.0
 70
  1024
 72
     1
 73
     0
 74
     0
  7

 75
     0
 76
     0
 77
     2
 78
   300
147
1.0
148
0.0
149
0.0
100
AcDbLayout
  1
Model
 70
     0
 71
     0
 10
0.0
 20
0.0
 11
297.0
 21
210.0
 12
0.0
 22
0.0
 32
0.0
 14
0.0
 24
0.0
 34
0.0
 15
0.0
 25
0.0
 35
0.0
146
0.0
 13
0.0
 23
0.0
 33
0.0
 16
1.0
 26
0.0
 36
0.0
 17
0.0
 27
1.0
 37
0.0
 76
     0
330
224
331
1F4
  0
MATERIAL
  5
52C
102
{ACAD_REACTORS
330
52A
102
}
330
52A
100
AcDbMaterial
  1
ByBlock
 72
     1
 94
      127
  0
MATERIAL
  5
52B
102
{ACAD_REACTORS
330
52A
102
}
330
52A
100
AcDbMaterial
  1
ByLayer
 72
     1
 94
      127
  0
MATERIAL
  5
52D
102
{ACAD_REACTORS
330
52A
102
}
330
52A
100
AcDbMaterial
  1
Global
 72
     1
 94
      127
  0
MLEADERSTYLE
  5
531
102
{ACAD_REACTORS
330
530
102
}
330
530
100
AcDbMLeaderStyle
179
     2
170
     2
171
     1
172
     0
 90
        2
 40
0.0
 41
0.0
173
     1
 91
-1056964608
340
14
 92
       -2
290
     1
 42
2.0
291
     1
 43
8.0
  3
Standard
341
0
 44
4.0
300

342
11
174
     1
178
     1
175
     1
176
     0
 93
-1056964608
 45
4.0
292
     0
297
     0
 46
4.0
343
0
 94
-1056964608
 47
1.0
 49
1.0
140
1.0
293
     1
141
0.0
294
     1
177
     0
142
1.0
295
     0
296
     0
143
3.75
271
     0
272
     9
273
     9
298
     0
  0
MLINESTYLE
  5
18
102
{ACAD_REACTORS
330
17
102
}
330
17
100
AcDbMlineStyle
  2
STANDARD
 70
     0
  3

 62
   256
 51
90.0
 52
90.0
 71
     2
 49
0.5
 62
   256
  6
BYLAYER
 49
-0.5
 62
   256
  6
BYLAYER
  0
ACDBPLACEHOLDER
  5
F
102
{ACAD_REACTORS
330
E
102
}
330
E
  0
SCALE
  5
4F0
102
{ACAD_REACTORS
330
4EF
102
}
330
4EF
100
AcDbScale
 70
     0
300
1:1
140
1.0
141
1.0
290
     1
  0
SCALE
  5
4F1
102
{ACAD_REACTORS
330
4EF
102
}
330
4EF
100
AcDbScale
 70
     0
300
1:2
140
1.0
141
2.0
290
     0
  0
SCALE
  5
4F2
102
{ACAD_REACTORS
330
4EF
102
}
330
4EF
100
AcDbScale
 70
     0
300
1:4
140
1.0
141
4.0
290
     0
  0
SCALE
  5
4F3
102
{ACAD_REACTORS
330
4EF
102
}
330
4EF
100
AcDbScale
 70
     0
300
1:5
140
1.0
141
5.0
290
     0
  0
SCALE
  5
4F4
102
{ACAD_REACTORS
330
4EF
102
}
330
4EF
100
AcDbScale
 70
     0
300
1:8
140
1.0
141
8.0
290
     0
  0
SCALE
  5
4F5
102
{ACAD_REACTORS
330
4EF
102
}
330
4EF
100
AcDbScale
 70
     0
300
1:10
140
1.0
141
10.0
290
     0
  0
SCALE
  5
4F6
102
{ACAD_REACTORS
330
4EF
102
}
330
4EF
100
AcDbScale
 70
     0
300
1:16
140
1.0
141
16.0
290
     0
  0
SCALE
  5
4F7
102
{ACAD_REACTORS
330
4EF
102
}
330
4EF
100
AcDbScale
 70
     0
300
1:20
140
1.0
141
20.0
290
     0
  0
SCALE
  5
4F8
102
{ACAD_REACTORS
330
4EF
102
}
330
4EF
100
AcDbScale
 70
     0
300
1:30
140
1.0
141
30.0
290
     0
  0
SCALE
  5
4F9
102
{ACAD_REACTORS
330
4EF
102
}
330
4EF
100
AcDbScale
 70
     0
300
1:40
140
1.0
141
40.0
290
     0
  0
SCALE
  5
4FA
102
{ACAD_REACTORS
330
4EF
102
}
330
4EF
100
AcDbScale
 70
     0
300
1:50
140
1.0
141
50.0
290
     0
  0
SCALE
  5
4FB
102
{ACAD_REACTORS
330
4EF
102
}
330
4EF
100
AcDbScale
 70
     0
300
1:100
140
1.0
141
100.0
290
     0
  0
SCALE
  5
4FC
102
{ACAD_REACTORS
330
4EF
102
}
330
4EF
100
AcDbScale
 70
     0
300
2:1
140
2.0
141
1.0
290
     0
  0
SCALE
  5
4FD
102
{ACAD_REACTORS
330
4EF
102
}
330
4EF
100
AcDbScale
 70
     0
300
4:1
140
4.0
141
1.0
290
     0
  0
SCALE
  5
4FE
102
{ACAD_REACTORS
330
4EF
102
}
330
4EF
100
AcDbScale
 70
     0
300
8:1
140
8.0
141
1.0
290
     0
  0
SCALE
  5
4FF
102
{ACAD_REACTORS
330
4EF
102
}
330
4EF
100
AcDbScale
 70
     0
300
10:1
140
10.0
141
1.0
290
     0
  0
SCALE
  5
500
102
{ACAD_REACTORS
330
4EF
102
}
330
4EF
100
AcDbScale
 70
     0
300
100:1
140
100.0
141
1.0
290
     0
  0
SCALE
  5
501
102
{ACAD_REACTORS
330
4EF
102
}
330
4EF
100
AcDbScale
 70
     0
300
1/128" = 1'-0"
140
0.0078125
141
12.0
290
     0
  0
SCALE
  5
502
102
{ACAD_REACTORS
330
4EF
102
}
330
4EF
100
AcDbScale
 70
     0
300
1/64" = 1'-0"
140
0.015625
141
12.0
290
     0
  0
SCALE
  5
503
102
{ACAD_REACTORS
330
4EF
102
}
330
4EF
100
AcDbScale
 70
     0
300
1/32" = 1'-0"
140
0.03125
141
12.0
290
     0
  0
SCALE
  5
504
102
{ACAD_REACTORS
330
4EF
102
}
330
4EF
100
AcDbScale
 70
     0
300
1/16" = 1'-0"
140
0.0625
141
12.0
290
     0
  0
SCALE
  5
505
102
{ACAD_REACTORS
330
4EF
102
}
330
4EF
100
AcDbScale
 70
     0
300
3/32" = 1'-0"
140
0.09375
141
12.0
290
     0
  0
SCALE
  5
506
102
{ACAD_REACTORS
330
4EF
102
}
330
4EF
100
AcDbScale
 70
     0
300
1/8" = 1'-0"
140
0.125
141
12.0
290
     0
  0
SCALE
  5
507
102
{ACAD_REACTORS
330
4EF
102
}
330
4EF
100
AcDbScale
 70
     0
300
3/16" = 1'-0"
140
0.1875
141
12.0
290
     0
  0
SCALE
  5
508
102
{ACAD_REACTORS
330
4EF
102
}
330
4EF
100
AcDbScale
 70
     0
300
1/4" = 1'-0"
140
0.25
141
12.0
290
     0
  0
SCALE
  5
509
102
{ACAD_REACTORS
330
4EF
102
}
330
4EF
100
AcDbScale
 70
     0
300
3/8" = 1'-0"
140
0.375
141
12.0
290
     0
  0
SCALE
  5
50A
102
{ACAD_REACTORS
330
4EF
102
}
330
4EF
100
AcDbScale
 70
     0
300
1/2" = 1'-0"
140
0.5
141
12.0
290
     0
  0
SCALE
  5
50B
102
{ACAD_REACTORS
330
4EF
102
}
330
4EF
100
AcDbScale
 70
     0
300
3/4" = 1'-0"
140
0.75
141
12.0
290
     0
  0
SCALE
  5
50C
102
{ACAD_REACTORS
330
4EF
102
}
330
4EF
100
AcDbScale
 70
     0
300
1" = 1'-0"
140
1.0
141
12.0
290
     0
  0
SCALE
  5
50D
102
{ACAD_REACTORS
330
4EF
102
}
330
4EF
100
AcDbScale
 70
     0
300
1-1/2" = 1'-0"
140
1.5
141
12.0
290
     0
  0
SCALE
  5
50E
102
{ACAD_REACTORS
330
4EF
102
}
330
4EF
100
AcDbScale
 70
     0
300
3" = 1'-0"
140
3.0
141
12.0
290
     0
  0
SCALE
  5
50F
102
{ACAD_REACTORS
330
4EF
102
}
330
4EF
100
AcDbScale
 70
     0
300
6" = 1'-0"
140
6.0
141
12.0
290
     0
  0
SCALE
  5
510
102
{ACAD_REACTORS
330
4EF
102
}
330
4EF
100
AcDbScale
 70
     0
300
1'-0" = 1'-0"
140
12.0
141
12.0
290
     0
  0
TABLESTYLE
  5
52F
102
{ACAD_REACTORS
330
52E
102
}
102
{ACAD_XDICTIONARY
360
535
102
}
330
52E
100
AcDbTableStyle
  3
Standard
 70
     0
 71
     0
 40
0.06
 41
0.06
280
     0
281
     0
  7
STANDARD
140
4.5
170
     2
 62
     0
 63
   257
283
     0
 90
        4
 91
        0
  1

274
    -2
284
     1
 64
     0
275
    -2
285
     1
 65
     0
276
    -2
286
     1
 66
     0
277
    -2
287
     1
 67
     0
278
    -2
288
     1
 68
     0
279
    -2
289
     1
 69
     0
  7
STANDARD
140
6.0
170
     5
 62
     0
 63
   257
283
     0
 90
        4
 91
        0
  1

274
    -2
284
     1
 64
     0
275
    -2
285
     1
 65
     0
276
    -2
286
     1
 66
     0
277
    -2
287
     1
 67
     0
278
    -2
288
     1
 68
     0
279
    -2
289
     1
 69
     0
  7
STANDARD
140
4.5
170
     5
 62
     0
 63
   257
283
     0
 90
        4
 91
        0
  1

274
    -2
284
     1
 64
     0
275
    -2
285
     1
 65
     0
276
    -2
286
     1
 66
     0
277
    -2
287
     1
 67
     0
278
    -2
288
     1
 68
     0
279
    -2
289
     1
 69
     0
  0
VISUALSTYLE
  5
516
102
{ACAD_REACTORS
330
511
102
}
330
511
100
AcDbVisualStyle
  2
2dWireframe
 70
     4
177
     3
291
     0
 70
    58
 90
        0
176
     1
 90
        2
176
     1
 90
        0
176
     1
 90
        0
176
     1
 40
0.6
176
     1
 40
30.0
176
     1
 62
     7
420
 16777215
176
     1
 90
        1
176
     1
 90
        4
176
     1
 62
     7
176
     1
 62
   257
176
     1
 90
        1
176
     1
 90
        1
176
     1
 40
1.0
176
     1
 90
        0
176
     1
 62
   257
176
     1
 40
1.0
176
     1
 90
        1
176
     1
 90
        6
176
     1
 90
        2
176
     1
 62
     7
176
     1
 90
        5
176
     1
 90
        0
176
     1
 90
        0
176
     1
290
     0
176
     1
 90
        1
176
     1
 40
0.0
176
     1
 90
        0
176
     1
290
     1
176
     1
290
     1
176
     1
290
     0
176
     1
290
     0
176
     1
290
     0
176
     1
290
     0
176
     1
290
     0
176
     1
290
     0
176
     1
290
     0
176
     1
 90
       50
176
     1
 40
0.0
176
     1
 40
1.0
176
     1
 90
        0
176
     1
 62
    18
420
        0
176
     1
 90
       50
176
     1
 90
        3
176
     1
 62
     5
420
      255
176
     1
290
     0
176
     1
 90
       50
176
     1
 90
       50
176
     1
 90
       50
176
     1
290
     0
176
     1
 90
       50
176
     1
 62
   256
176
     0
 40
1.0
176
     0
 90
        2
176
     1
  1
strokes_ogs.tif
176
     1
290
     0
176
     1
 40
1.0
176
     1
 40
1.0
176
     1
  0
VISUALSTYLE
  5
519
102
{ACAD_REACTORS
330
511
102
}
330
511
100
AcDbVisualStyle
  2
Basic
 70
     7
177
     3
291
     1
 70
    58
 90
        1
176
     1
 90
        0
176
     1
 90
        1
176
     1
 90
        0
176
     1
 40
0.6
176
     1
 40
30.0
176
     1
 62
     7
420
 16777215
176
     1
 90
        0
176
     1
 90
        4
176
     1
 62
     7
176
     1
 62
   257
176
     1
 90
        1
176
     1
 90
        1
176
     1
 40
1.0
176
     1
 90
        8
176
     1
 62
     7
176
     1
 40
1.0
176
     1
 90
        1
176
     1
 90
        6
176
     1
 90
        2
176
     1
 62
     7
176
     1
 90
        5
176
     1
 90
        0
176
     1
 90
        0
176
     1
290
     0
176
     1
 90
        1
176
     1
 40
0.0
176
     1
 90
        0
176
     1
290
     0
176
     1
290
     1
176
     1
290
     1
176
     1
290
     0
176
     1
290
     0
176
     1
290
     0
176
     1
290
     0
176
     1
290
     0
176
     1
290
     0
176
     1
 90
       50
176
     1
 40
0.0
176
     1
 40
1.0
176
     1
 90
        0
176
     1
 62
    18
420
        0
176
     1
 90
       50
176
     1
 90
        3
176
     1
 62
     5
420
      255
176
     1
290
     0
176
     1
 90
       50
176
     1
 90
       50
176
     1
 90
       50
176
     1
290
     0
176
     1
 90
       50
176
     1
 62
   256
176
     0
 40
1.0
176
     0
 90
        2
176
     1
  1
strokes_ogs.tif
176
     1
290
     0
176
     1
 40
1.0
176
     1
 40
1.0
176
     1
  0
VISUALSTYLE
  5
51D
102
{ACAD_REACTORS
330
511
102
}
330
511
100
AcDbVisualStyle
  2
Brighten
 70
    12
177
     3
291
     1
 70
    58
 90
        2
176
     1
 90
        2
176
     1
 90
        0
176
     1
 90
        0
176
     1
 40
0.6
176
     1
 40
30.0
176
     1
 62
     7
420
 16777215
176
     1
 90
        1
176
     1
 90
        4
176
     1
 62
     7
176
     1
 62
   257
176
     1
 90
        1
176
     1
 90
        1
176
     1
 40
1.0
176
     1
 90
        8
176
     1
 62
     7
176
     1
 40
1.0
176
     1
 90
        1
176
     1
 90
        6
176
     1
 90
        2
176
     1
 62
     7
176
     1
 90
        5
176
     1
 90
        0
176
     1
 90
        0
176
     1
290
     0
176
     1
 90
        1
176
     1
 40
50.0
176
     1
 90
        0
176
     1
290
     0
176
     1
290
     1
176
     1
290
     1
176
     1
290
     0
176
     1
290
     0
176
     1
290
     0
176
     1
290
     0
176
     1
290
     0
176
     1
290
     0
176
     1
 90
       50
176
     1
 40
0.0
176
     1
 40
1.0
176
     1
 90
        0
176
     1
 62
    18
420
        0
176
     1
 90
       50
176
     1
 90
        3
176
     1
 62
     5
420
      255
176
     1
290
     0
176
     1
 90
       50
176
     1
 90
       50
176
     1
 90
       50
176
     1
290
     0
176
     1
 90
       50
176
     1
 62
   256
176
     0
 40
1.0
176
     0
 90
        2
176
     1
  1
strokes_ogs.tif
176
     1
290
     0
176
     1
 40
1.0
176
     1
 40
1.0
176
     1
  0
VISUALSTYLE
  5
521
102
{ACAD_REACTORS
330
511
102
}
330
511
100
AcDbVisualStyle
  2
ColorChange
 70
    16
177
     3
291
     1
 70
    58
 90
        2
176
     1
 90
        2
176
     1
 90
        3
176
     1
 90
        0
176
     1
 40
0.6
176
     1
 40
30.0
176
     1
 62
     8
420
  8421504
176
     1
 90
        1
176
     1
 90
        4
176
     1
 62
     7
176
     1
 62
   257
176
     1
 90
        1
176
     1
 90
        1
176
     1
 40
1.0
176
     1
 90
        8
176
     1
 62
     8
420
  8421504
176
     1
 40
1.0
176
     1
 90
        1
176
     1
 90
        6
176
     1
 90
        2
176
     1
 62
     7
176
     1
 90
        5
176
     1
 90
        0
176
     1
 90
        0
176
     1
290
     0
176
     1
 90
        1
176
     1
 40
0.0
176
     1
 90
        0
176
     1
290
     0
176
     1
290
     1
176
     1
290
     1
176
     1
290
     0
176
     1
290
     0
176
     1
290
     0
176
     1
290
     0
176
     1
290
     0
176
     1
290
     0
176
     1
 90
       50
176
     1
 40
0.0
176
     1
 40
1.0
176
     1
 90
        0
176
     1
 62
    18
420
        0
176
     1
 90
       50
176
     1
 90
        3
176
     1
 62
     5
420
      255
176
     1
290
     0
176
     1
 90
       50
176
     1
 90
       50
176
     1
 90
       50
176
     1
290
     0
176
     1
 90
       50
176
     1
 62
   256
176
     0
 40
1.0
176
     0
 90
        2
176
     1
  1
strokes_ogs.tif
176
     1
290
     0
176
     1
 40
1.0
176
     1
 40
1.0
176
     1
  0
VISUALSTYLE
  5
51B
102
{ACAD_REACTORS
330
511
102
}
330
511
100
AcDbVisualStyle
  2
Conceptual
 70
     9
177
     3
291
     0
 70
    58
 90
        3
176
     1
 90
        2
176
     1
 90
        0
176
     1
 90
        0
176
     1
 40
0.6
176
     1
 40
30.0
176
     1
 62
     7
420
 16777215
176
     1
 90
        2
176
     1
 90
        2
176
     1
 62
     7
176
     1
 62
   257
176
     1
 90
        1
176
     1
 90
        1
176
     1
 40
179.0
176
     1
 90
        8
176
     1
 62
     7
176
     1
 40
1.0
176
     1
 90
        1
176
     1
 90
        6
176
     1
 90
        2
176
     1
 62
     7
176
     1
 90
        3
176
     1
 90
        0
176
     1
 90
        0
176
     1
290
     0
176
     1
 90
        1
176
     1
 40
0.0
176
     1
 90
        0
176
     1
290
     0
176
     1
290
     1
176
     1
290
     1
176
     1
290
     0
176
     1
290
     0
176
     1
290
     0
176
     1
290
     0
176
     1
290
     0
176
     1
290
     0
176
     1
 90
       50
176
     1
 40
0.0
176
     1
 40
1.0
176
     1
 90
        0
176
     1
 62
    18
420
        0
176
     1
 90
       50
176
     1
 90
        3
176
     1
 62
     5
420
      255
176
     1
290
     0
176
     1
 90
       50
176
     1
 90
       50
176
     1
 90
       50
176
     1
290
     0
176
     1
 90
       50
176
     1
 62
   256
176
     0
 40
1.0
176
     0
 90
        2
176
     1
  1
strokes_ogs.tif
176
     1
290
     0
176
     1
 40
1.0
176
     1
 40
1.0
176
     1
  0
VISUALSTYLE
  5
51C
102
{ACAD_REACTORS
330
511
102
}
330
511
100
AcDbVisualStyle
  2
Dim
 70
    11
177
     3
291
     1
 70
    58
 90
        2
176
     1
 90
        2
176
     1
 90
        0
176
     1
 90
        0
176
     1
 40
0.6
176
     1
 40
30.0
176
     1
 62
     7
420
 16777215
176
     1
 90
        1
176
     1
 90
        4
176
     1
 62
     7
176
     1
 62
   257
176
     1
 90
        1
176
     1
 90
        1
176
     1
 40
1.0
176
     1
 90
        8
176
     1
 62
     7
176
     1
 40
1.0
176
     1
 90
        1
176
     1
 90
        6
176
     1
 90
        2
176
     1
 62
     7
176
     1
 90
        5
176
     1
 90
        0
176
     1
 90
        0
176
     1
290
     0
176
     1
 90
        1
176
     1
 40
-50.0
176
     1
 90
        0
176
     1
290
     0
176
     1
290
     1
176
     1
290
     1
176
     1
290
     0
176
     1
290
     0
176
     1
290
     0
176
     1
290
     0
176
     1
290
     0
176
     1
290
     0
176
     1
 90
       50
176
     1
 40
0.0
176
     1
 40
1.0
176
     1
 90
        0
176
     1
 62
    18
420
        0
176
     1
 90
       50
176
     1
 90
        3
176
     1
 62
     5
420
      255
176
     1
290
     0
176
     1
 90
       50
176
     1
 90
       50
176
     1
 90
       50
176
     1
290
     0
176
     1
 90
       50
176
     1
 62
   256
176
     0
 40
1.0
176
     0
 90
        2
176
     1
  1
strokes_ogs.tif
176
     1
290
     0
176
     1
 40
1.0
176
     1
 40
1.0
176
     1
  0
VISUALSTYLE
  5
524
102
{ACAD_REACTORS
330
511
102
}
330
511
100
AcDbVisualStyle
  2
EdgeColorOff
 70
    22
177
     3
291
     1
 70
    58
 90
        2
176
     0
 90
        2
176
     0
 90
        0
176
     0
 90
        0
176
     0
 40
0.6
176
     0
 40
30.0
176
     0
 62
     7
420
 16777215
176
     0
 90
        1
176
     0
 90
        4
176
     0
 62
     7
176
     0
 62
   257
176
     0
 90
        1
176
     0
 90
        1
176
     0
 40
1.0
176
     0
 90
        8
176
     2
 62
     7
176
     0
 40
1.0
176
     0
 90
        1
176
     0
 90
        6
176
     0
 90
        2
176
     0
 62
     7
176
     0
 90
        5
176
     0
 90
        0
176
     0
 90
        0
176
     0
290
     0
176
     0
 90
        1
176
     0
 40
0.0
176
     0
 90
        0
176
     0
290
     0
176
     0
290
     1
176
     0
290
     1
176
     0
290
     0
176
     0
290
     0
176
     0
290
     0
176
     0
290
     0
176
     0
290
     0
176
     0
290
     0
176
     0
 90
       50
176
     0
 40
0.0
176
     0
 40
1.0
176
     0
 90
        0
176
     0
 62
    18
420
        0
176
     0
 90
       50
176
     0
 90
        3
176
     0
 62
     5
420
      255
176
     0
290
     0
176
     0
 90
       50
176
     0
 90
       50
176
     0
 90
       50
176
     0
290
     0
176
     0
 90
       50
176
     0
 62
   256
176
     0
 40
1.0
176
     0
 90
        2
176
     0
  1
strokes_ogs.tif
176
     0
290
     0
176
     0
 40
1.0
176
     0
 40
1.0
176
     0
  0
VISUALSTYLE
  5
520
102
{ACAD_REACTORS
330
511
102
}
330
511
100
AcDbVisualStyle
  2
Facepattern
 70
    15
177
     3
291
     1
 70
    58
 90
        2
176
     1
 90
        2
176
     1
 90
        0
176
     1
 90
        0
176
     1
 40
0.6
176
     1
 40
30.0
176
     1
 62
     7
420
 16777215
176
     1
 90
        1
176
     1
 90
        4
176
     1
 62
     7
176
     1
 62
   257
176
     1
 90
        1
176
     1
 90
        1
176
     1
 40
1.0
176
     1
 90
        8
176
     1
 62
     7
176
     1
 40
1.0
176
     1
 90
        1
176
     1
 90
        6
176
     1
 90
        2
176
     1
 62
     7
176
     1
 90
        5
176
     1
 90
        0
176
     1
 90
        0
176
     1
290
     0
176
     1
 90
        1
176
     1
 40
0.0
176
     1
 90
        0
176
     1
290
     0
176
     1
290
     1
176
     1
290
     1
176
     1
290
     0
176
     1
290
     0
176
     1
290
     0
176
     1
290
     0
176
     1
290
     0
176
     1
290
     0
176
     1
 90
       50
176
     1
 40
0.0
176
     1
 40
1.0
176
     1
 90
        0
176
     1
 62
    18
420
        0
176
     1
 90
       50
176
     1
 90
        3
176
     1
 62
     5
420
      255
176
     1
290
     0
176
     1
 90
       50
176
     1
 90
       50
176
     1
 90
       50
176
     1
290
     0
176
     1
 90
       50
176
     1
 62
   256
176
     0
 40
1.0
176
     0
 90
        2
176
     1
  1
strokes_ogs.tif
176
     1
290
     0
176
     1
 40
1.0
176
     1
 40
1.0
176
     1
  0
VISUALSTYLE
  5
512
102
{ACAD_REACTORS
330
511
102
}
330
511
100
AcDbVisualStyle
  2
Flat
 70
     0
177
     3
291
     1
 70
    58
 90
        2
176
     1
 90
        1
176
     1
 90
        1
176
     1
 90
        2
176
     1
 40
0.6
176
     1
 40
30.0
176
     1
 62
     7
420
 16777215
176
     1
 90
        0
176
     1
 90
        0
176
     1
 62
     7
176
     1
 62
   257
176
     1
 90
        1
176
     1
 90
        1
176
     1
 40
1.0
176
     1
 90
        8
176
     1
 62
     7
176
     1
 40
1.0
176
     1
 90
        1
176
     1
 90
        6
176
     1
 90
        2
176
     1
 62
     7
176
     1
 90
        5
176
     1
 90
        0
176
     1
 90
        0
176
     1
290
     0
176
     1
 90
       13
176
     1
 40
0.0
176
     1
 90
        0
176
     1
290
     0
176
     1
290
     1
176
     1
290
     1
176
     1
290
     0
176
     1
290
     0
176
     1
290
     0
176
     1
290
     0
176
     1
290
     0
176
     1
290
     0
176
     1
 90
       50
176
     1
 40
0.0
176
     1
 40
1.0
176
     1
 90
        0
176
     1
 62
    18
420
        0
176
     1
 90
       50
176
     1
 90
        3
176
     1
 62
     5
420
      255
176
     1
290
     0
176
     1
 90
       50
176
     1
 90
       50
176
     1
 90
       50
176
     1
290
     0
176
     1
 90
       50
176
     1
 62
   256
176
     0
 40
1.0
176
     0
 90
        2
176
     1
  1
strokes_ogs.tif
176
     1
290
     0
176
     1
 40
1.0
176
     1
 40
1.0
176
     1
  0
VISUALSTYLE
  5
513
102
{ACAD_REACTORS
330
511
102
}
330
511
100
AcDbVisualStyle
  2
FlatWithEdges
 70
     1
177
     3
291
     1
 70
    58
 90
        2
176
     1
 90
        1
176
     1
 90
        1
176
     1
 90
        2
176
     1
 40
0.6
176
     1
 40
30.0
176
     1
 62
     7
420
 16777215
176
     1
 90
        1
176
     1
 90
        0
176
     1
 62
     7
176
     1
 62
   257
176
     1
 90
        1
176
     1
 90
        1
176
     1
 40
1.0
176
     1
 90
        0
176
     1
 62
   257
176
     1
 40
1.0
176
     1
 90
        1
176
     1
 90
        6
176
     1
 90
        2
176
     1
 62
     7
176
     1
 90
        5
176
     1
 90
        0
176
     1
 90
        0
176
     1
290
     0
176
     1
 90
       13
176
     1
 40
0.0
176
     1
 90
        0
176
     1
290
     0
176
     1
290
     1
176
     1
290
     1
176
     1
290
     0
176
     1
290
     0
176
     1
290
     0
176
     1
290
     0
176
     1
290
     0
176
     1
290
     0
176
     1
 90
       50
176
     1
 40
0.0
176
     1
 40
1.0
176
     1
 90
        0
176
     1
 62
    18
420
        0
176
     1
 90
       50
176
     1
 90
        3
176
     1
 62
     5
420
      255
176
     1
290
     0
176
     1
 90
       50
176
     1
 90
       50
176
     1
 90
       50
176
     1
290
     0
176
     1
 90
       50
176
     1
 62
   256
176
     0
 40
1.0
176
     0
 90
        2
176
     1
  1
strokes_ogs.tif
176
     1
290
     0
176
     1
 40
1.0
176
     1
 40
1.0
176
     1
  0
VISUALSTYLE
  5
514
102
{ACAD_REACTORS
330
511
102
}
330
511
100
AcDbVisualStyle
  2
Gouraud
 70
     2
177
     3
291
     1
 70
    58
 90
        2
176
     1
 90
        2
176
     1
 90
        1
176
     1
 90
        2
176
     1
 40
0.6
176
     1
 40
30.0
176
     1
 62
     7
420
 16777215
176
     1
 90
        0
176
     1
 90
        0
176
     1
 62
     7
176
     1
 62
   257
176
     1
 90
        1
176
     1
 90
        1
176
     1
 40
1.0
176
     1
 90
        0
176
     1
 62
     7
176
     1
 40
1.0
176
     1
 90
        1
176
     1
 90
        6
176
     1
 90
        2
176
     1
 62
     7
176
     1
 90
        5
176
     1
 90
        0
176
     1
 90
        0
176
     1
290
     0
176
     1
 90
       13
176
     1
 40
0.0
176
     1
 90
        0
176
     1
290
     0
176
     1
290
     1
176
     1
290
     1
176
     1
290
     0
176
     1
290
     0
176
     1
290
     0
176
     1
290
     0
176
     1
290
     0
176
     1
290
     0
176
     1
 90
       50
176
     1
 40
0.0
176
     1
 40
1.0
176
     1
 90
        0
176
     1
 62
    18
420
        0
176
     1
 90
       50
176
     1
 90
        3
176
     1
 62
     5
420
      255
176
     1
290
     0
176
     1
 90
       50
176
     1
 90
       50
176
     1
 90
       50
176
     1
290
     0
176
     1
 90
       50
176
     1
 62
   256
176
     0
 40
1.0
176
     0
 90
        2
176
     1
  1
strokes_ogs.tif
176
     1
290
     0
176
     1
 40
1.0
176
     1
 40
1.0
176
     1
  0
VISUALSTYLE
  5
515
102
{ACAD_REACTORS
330
511
102
}
330
511
100
AcDbVisualStyle
  2
GouraudWithEdges
 70
     3
177
     3
291
     1
 70
    58
 90
        2
176
     1
 90
        2
176
     1
 90
        1
176
     1
 90
        2
176
     1
 40
0.6
176
     1
 40
30.0
176
     1
 62
     7
420
 16777215
176
     1
 90
        1
176
     1
 90
        0
176
     1
 62
     7
176
     1
 62
   257
176
     1
 90
        1
176
     1
 90
        1
176
     1
 40
1.0
176
     1
 90
        0
176
     1
 62
   257
176
     1
 40
1.0
176
     1
 90
        1
176
     1
 90
        6
176
     1
 90
        2
176
     1
 62
     7
176
     1
 90
        5
176
     1
 90
        0
176
     1
 90
        0
176
     1
290
     0
176
     1
 90
       13
176
     1
 40
0.0
176
     1
 90
        0
176
     1
290
     0
176
     1
290
     1
176
     1
290
     1
176
     1
290
     0
176
     1
290
     0
176
     1
290
     0
176
     1
290
     0
176
     1
290
     0
176
     1
290
     0
176
     1
 90
       50
176
     1
 40
0.0
176
     1
 40
1.0
176
     1
 90
        0
176
     1
 62
    18
420
        0
176
     1
 90
       50
176
     1
 90
        3
176
     1
 62
     5
420
      255
176
     1
290
     0
176
     1
 90
       50
176
     1
 90
       50
176
     1
 90
       50
176
     1
290
     0
176
     1
 90
       50
176
     1
 62
   256
176
     0
 40
1.0
176
     0
 90
        2
176
     1
  1
strokes_ogs.tif
176
     1
290
     0
176
     1
 40
1.0
176
     1
 40
1.0
176
     1
  0
VISUALSTYLE
  5
518
102
{ACAD_REACTORS
330
511
102
}
330
511
100
AcDbVisualStyle
  2
Hidden
 70
     6
177
     3
291
     0
 70
    58
 90
        1
176
     1
 90
        2
176
     1
 90
        2
176
     1
 90
        0
176
     1
 40
0.6
176
     1
 40
30.0
176
     1
 62
     7
420
 16777215
176
     1
 90
        2
176
     1
 90
        2
176
     1
 62
     7
176
     1
 62
   257
176
     1
 90
        2
176
     1
 90
        1
176
     1
 40
40.0
176
     1
 90
        0
176
     1
 62
   257
176
     1
 40
1.0
176
     1
 90
        1
176
     1
 90
        6
176
     1
 90
        2
176
     1
 62
     7
176
     1
 90
        3
176
     1
 90
        0
176
     1
 90
        0
176
     1
290
     0
176
     1
 90
        1
176
     1
 40
0.0
176
     1
 90
        0
176
     1
290
     0
176
     1
290
     1
176
     1
290
     1
176
     1
290
     0
176
     1
290
     0
176
     1
290
     0
176
     1
290
     0
176
     1
290
     0
176
     1
290
     0
176
     1
 90
       50
176
     1
 40
0.0
176
     1
 40
1.0
176
     1
 90
        0
176
     1
 62
    18
420
        0
176
     1
 90
       50
176
     1
 90
        3
176
     1
 62
     5
420
      255
176
     1
290
     0
176
     1
 90
       50
176
     1
 90
       50
176
     1
 90
       50
176
     1
290
     0
176
     1
 90
       50
176
     1
 62
   256
176
     0
 40
1.0
176
     0
 90
        2
176
     1
  1
strokes_ogs.tif
176
     1
290
     0
176
     1
 40
1.0
176
     1
 40
1.0
176
     1
  0
VISUALSTYLE
  5
522
102
{ACAD_REACTORS
330
511
102
}
330
511
100
AcDbVisualStyle
  2
JitterOff
 70
    20
177
     3
291
     1
 70
    58
 90
        2
176
     0
 90
        2
176
     0
 90
        0
176
     0
 90
        0
176
     0
 40
0.6
176
     0
 40
30.0
176
     0
 62
     7
420
 16777215
176
     0
 90
        1
176
     0
 90
        4
176
     0
 62
     7
176
     0
 62
   257
176
     0
 90
        1
176
     0
 90
        1
176
     0
 40
1.0
176
     0
 90
       10
176
     2
 62
     7
176
     0
 40
1.0
176
     0
 90
        1
176
     0
 90
        6
176
     0
 90
        2
176
     0
 62
     7
176
     0
 90
        5
176
     0
 90
        0
176
     0
 90
        0
176
     0
290
     0
176
     0
 90
        1
176
     0
 40
0.0
176
     0
 90
        0
176
     0
290
     0
176
     0
290
     1
176
     0
290
     1
176
     0
290
     0
176
     0
290
     0
176
     0
290
     0
176
     0
290
     0
176
     0
290
     0
176
     0
290
     0
176
     0
 90
       50
176
     0
 40
0.0
176
     0
 40
1.0
176
     0
 90
        0
176
     0
 62
    18
420
        0
176
     0
 90
       50
176
     0
 90
        3
176
     0
 62
     5
420
      255
176
     0
290
     0
176
     0
 90
       50
176
     0
 90
       50
176
     0
 90
       50
176
     0
290
     0
176
     0
 90
       50
176
     0
 62
   256
176
     0
 40
1.0
176
     0
 90
        2
176
     0
  1
strokes_ogs.tif
176
     0
290
     0
176
     0
 40
1.0
176
     0
 40
1.0
176
     0
  0
VISUALSTYLE
  5
51F
102
{ACAD_REACTORS
330
511
102
}
330
511
100
AcDbVisualStyle
  2
Linepattern
 70
    14
177
     3
291
     1
 70
    58
 90
        2
176
     1
 90
        2
176
     1
 90
        0
176
     1
 90
        0
176
     1
 40
0.6
176
     1
 40
30.0
176
     1
 62
     7
420
 16777215
176
     1
 90
        1
176
     1
 90
        4
176
     1
 62
     7
176
     1
 62
   257
176
     1
 90
        7
176
     1
 90
        7
176
     1
 40
1.0
176
     1
 90
        8
176
     1
 62
     7
176
     1
 40
1.0
176
     1
 90
        1
176
     1
 90
        6
176
     1
 90
        2
176
     1
 62
     7
176
     1
 90
        5
176
     1
 90
        0
176
     1
 90
        0
176
     1
290
     0
176
     1
 90
        1
176
     1
 40
0.0
176
     1
 90
        0
176
     1
290
     0
176
     1
290
     1
176
     1
290
     1
176
     1
290
     0
176
     1
290
     0
176
     1
290
     0
176
     1
290
     0
176
     1
290
     0
176
     1
290
     0
176
     1
 90
       50
176
     1
 40
0.0
176
     1
 40
1.0
176
     1
 90
        0
176
     1
 62
    18
420
        0
176
     1
 90
       50
176
     1
 90
        3
176
     1
 62
     5
420
      255
176
     1
290
     0
176
     1
 90
       50
176
     1
 90
       50
176
     1
 90
       50
176
     1
290
     0
176
     1
 90
       50
176
     1
 62
   256
176
     0
 40
1.0
176
     0
 90
        2
176
     1
  1
strokes_ogs.tif
176
     1
290
     0
176
     1
 40
1.0
176
     1
 40
1.0
176
     1
  0
VISUALSTYLE
  5
523
102
{ACAD_REACTORS
330
511
102
}
330
511
100
AcDbVisualStyle
  2
OverhangOff
 70
    21
177
     3
291
     1
 70
    58
 90
        2
176
     0
 90
        2
176
     0
 90
        0
176
     0
 90
        0
176
     0
 40
0.6
176
     0
 40
30.0
176
     0
 62
     7
420
 16777215
176
     0
 90
        1
176
     0
 90
        4
176
     0
 62
     7
176
     0
 62
   257
176
     0
 90
        1
176
     0
 90
        1
176
     0
 40
1.0
176
     0
 90
        9
176
     2
 62
     7
176
     0
 40
1.0
176
     0
 90
        1
176
     0
 90
        6
176
     0
 90
        2
176
     0
 62
     7
176
     0
 90
        5
176
     0
 90
        0
176
     0
 90
        0
176
     0
290
     0
176
     0
 90
        1
176
     0
 40
0.0
176
     0
 90
        0
176
     0
290
     0
176
     0
290
     1
176
     0
290
     1
176
     0
290
     0
176
     0
290
     0
176
     0
290
     0
176
     0
290
     0
176
     0
290
     0
176
     0
290
     0
176
     0
 90
       50
176
     0
 40
0.0
176
     0
 40
1.0
176
     0
 90
        0
176
     0
 62
    18
420
        0
176
     0
 90
       50
176
     0
 90
        3
176
     0
 62
     5
420
      255
176
     0
290
     0
176
     0
 90
       50
176
     0
 90
       50
176
     0
 90
       50
176
     0
290
     0
176
     0
 90
       50
176
     0
 62
   256
176
     0
 40
1.0
176
     0
 90
        2
176
     0
  1
strokes_ogs.tif
176
     0
290
     0
176
     0
 40
1.0
176
     0
 40
1.0
176
     0
  0
VISUALSTYLE
  5
51A
102
{ACAD_REACTORS
330
511
102
}
330
511
100
AcDbVisualStyle
  2
Realistic
 70
     8
177
     3
291
     0
 70
    58
 90
        2
176
     1
 90
        3
176
     1
 90
        0
176
     1
 90
        2
176
     1
 40
0.6
176
     1
 40
30.0
176
     1
 62
     7
420
 16777215
176
     1
 90
        0
176
     1
 90
        0
176
     1
 62
     7
176
     1
 62
   257
176
     1
 90
        1
176
     1
 90
        1
176
     1
 40
1.0
176
     1
 90
        8
176
     1
 62
   257
176
     1
 40
1.0
176
     1
 90
        1
176
     1
 90
        6
176
     1
 90
        2
176
     1
 62
     7
176
     1
 90
        3
176
     1
 90
        0
176
     1
 90
        0
176
     1
290
     0
176
     1
 90
       13
176
     1
 40
0.0
176
     1
 90
        0
176
     1
290
     0
176
     1
290
     1
176
     1
290
     1
176
     1
290
     0
176
     1
290
     0
176
     1
290
     0
176
     1
290
     0
176
     1
290
     0
176
     1
290
     0
176
     1
 90
       50
176
     1
 40
0.0
176
     1
 40
1.0
176
     1
 90
        0
176
     1
 62
    18
420
        0
176
     1
 90
       50
176
     1
 90
        3
176
     1
 62
     5
420
      255
176
     1
290
     0
176
     1
 90
       50
176
     1
 90
       50
176
     1
 90
       50
176
     1
290
     0
176
     1
 90
       50
176
     1
 62
   256
176
     0
 40
1.0
176
     0
 90
        2
176
     1
  1
strokes_ogs.tif
176
     1
290
     0
176
     1
 40
1.0
176
     1
 40
1.0
176
     1
  0
VISUALSTYLE
  5
529
102
{ACAD_REACTORS
330
511
102
}
330
511
100
AcDbVisualStyle
  2
Shaded
 70
    27
177
     3
291
     0
 70
    58
 90
        2
176
     1
 90
        2
176
     1
 90
        1
176
     1
 90
        2
176
     1
 40
0.6
176
     1
 40
30.0
176
     1
 62
     7
420
 16777215
176
     1
 90
        0
176
     1
 90
        4
176
     1
 62
     7
176
     1
 62
   257
176
     1
 90
        1
176
     1
 90
        1
176
     1
 40
1.0
176
     1
 90
        8
176
     1
 62
   257
176
     1
 40
1.0
176
     1
 90
        1
176
     1
 90
        6
176
     1
 90
        2
176
     1
 62
     8
420
  7895160
176
     1
 90
        3
176
     1
 90
        0
176
     1
 90
        0
176
     1
290
     0
176
     1
 90
        5
176
     1
 40
0.0
176
     1
 90
        0
176
     1
290
     0
176
     1
290
     1
176
     1
290
     1
176
     1
290
     0
176
     1
290
     0
176
     1
290
     0
176
     1
290
     0
176
     1
290
     0
176
     1
290
     0
176
     1
 90
       50
176
     1
 40
0.0
176
     1
 40
1.0
176
     1
 90
        0
176
     1
 62
    18
420
        0
176
     1
 90
       50
176
     1
 90
        3
176
     1
 62
     5
420
      255
176
     1
290
     0
176
     1
 90
       50
176
     1
 90
       50
176
     1
 90
       50
176
     1
290
     0
176
     1
 90
       50
176
     1
 62
   256
176
     0
 40
1.0
176
     0
 90
        2
176
     1
  1
strokes_ogs.tif
176
     1
290
     0
176
     1
 40
1.0
176
     1
 40
1.0
176
     1
  0
VISUALSTYLE
  5
528
102
{ACAD_REACTORS
330
511
102
}
330
511
100
AcDbVisualStyle
  2
Shaded with edges
 70
    26
177
     3
291
     0
 70
    58
 90
        2
176
     1
 90
        2
176
     1
 90
        1
176
     1
 90
        2
176
     1
 40
0.6
176
     1
 40
30.0
176
     1
 62
     7
420
 16777215
176
     1
 90
        1
176
     1
 90
       10
176
     1
 62
     7
176
     1
 62
   257
176
     1
 90
        2
176
     1
 90
        1
176
     1
 40
1.0
176
     1
 90
        8
176
     1
 62
   257
176
     1
 40
1.0
176
     1
 90
        1
176
     1
 90
        6
176
     1
 90
        2
176
     1
 62
     7
176
     1
 90
        3
176
     1
 90
        0
176
     1
 90
        0
176
     1
290
     0
176
     1
 90
        5
176
     1
 40
0.0
176
     1
 90
        0
176
     1
290
     0
176
     1
290
     1
176
     1
290
     1
176
     1
290
     0
176
     1
290
     0
176
     1
290
     0
176
     1
290
     0
176
     1
290
     0
176
     1
290
     0
176
     1
 90
       50
176
     1
 40
0.0
176
     1
 40
1.0
176
     1
 90
        0
176
     1
 62
    18
420
        0
176
     1
 90
       50
176
     1
 90
        3
176
     1
 62
     5
420
      255
176
     1
290
     0
176
     1
 90
       50
176
     1
 90
       50
176
     1
 90
       50
176
     1
290
     0
176
     1
 90
       50
176
     1
 62
   256
176
     0
 40
1.0
176
     0
 90
        2
176
     1
  1
strokes_ogs.tif
176
     1
290
     0
176
     1
 40
1.0
176
     1
 40
1.0
176
     1
  0
VISUALSTYLE
  5
525
102
{ACAD_REACTORS
330
511
102
}
330
511
100
AcDbVisualStyle
  2
Shades of Gray
 70
    23
177
     3
291
     0
 70
    58
 90
        2
176
     1
 90
        2
176
     1
 90
        3
176
     1
 90
        0
176
     1
 40
0.6
176
     1
 40
30.0
176
     1
 62
     7
420
 16777215
176
     1
 90
        2
176
     1
 90
        2
176
     1
 62
     7
176
     1
 62
     7
176
     1
 90
        1
176
     1
 90
        1
176
     1
 40
40.0
176
     1
 90
        8
176
     1
 62
     7
176
     1
 40
1.0
176
     1
 90
        1
176
     1
 90
        6
176
     1
 90
        2
176
     1
 62
     7
176
     1
 90
        3
176
     1
 90
        0
176
     1
 90
        0
176
     1
290
     0
176
     1
 90
        1
176
     1
 40
0.0
176
     1
 90
        0
176
     1
290
     0
176
     1
290
     1
176
     1
290
     1
176
     1
290
     0
176
     1
290
     0
176
     1
290
     0
176
     1
290
     0
176
     1
290
     0
176
     1
290
     0
176
     1
 90
       50
176
     1
 40
0.0
176
     1
 40
1.0
176
     1
 90
        0
176
     1
 62
    18
420
        0
176
     1
 90
       50
176
     1
 90
        3
176
     1
 62
     5
420
      255
176
     1
290
     0
176
     1
 90
       50
176
     1
 90
       50
176
     1
 90
       50
176
     1
290
     0
176
     1
 90
       50
176
     1
 62
   256
176
     0
 40
1.0
176
     0
 90
        2
176
     1
  1
strokes_ogs.tif
176
     1
290
     0
176
     1
 40
1.0
176
     1
 40
1.0
176
     1
  0
VISUALSTYLE
  5
526
102
{ACAD_REACTORS
330
511
102
}
330
511
100
AcDbVisualStyle
  2
Sketchy
 70
    24
177
     3
291
     0
 70
    58
 90
        1
176
     1
 90
        2
176
     1
 90
        2
176
     1
 90
        0
176
     1
 40
0.6
176
     1
 40
30.0
176
     1
 62
     7
420
 16777215
176
     1
 90
        2
176
     1
 90
        2
176
     1
 62
     7
176
     1
 62
     7
176
     1
 90
        1
176
     1
 90
        1
176
     1
 40
40.0
176
     1
 90
       11
176
     1
 62
     7
176
     1
 40
1.0
176
     1
 90
        1
176
     1
 90
        6
176
     1
 90
        2
176
     1
 62
     7
176
     1
 90
        6
176
     1
 90
        0
176
     1
 90
        0
176
     1
290
     0
176
     1
 90
        1
176
     1
 40
0.0
176
     1
 90
        0
176
     1
290
     0
176
     1
290
     1
176
     1
290
     1
176
     1
290
     0
176
     1
290
     0
176
     1
290
     0
176
     1
290
     0
176
     1
290
     0
176
     1
290
     0
176
     1
 90
       50
176
     1
 40
0.0
176
     1
 40
1.0
176
     1
 90
        0
176
     1
 62
    18
420
        0
176
     1
 90
       50
176
     1
 90
        3
176
     1
 62
     5
420
      255
176
     1
290
     0
176
     1
 90
       50
176
     1
 90
       50
176
     1
 90
       50
176
     1
290
     0
176
     1
 90
       50
176
     1
 62
   256
176
     0
 40
1.0
176
     0
 90
        2
176
     1
  1
strokes_ogs.tif
176
     1
290
     0
176
     1
 40
1.0
176
     1
 40
1.0
176
     1
  0
VISUALSTYLE
  5
51E
102
{ACAD_REACTORS
330
511
102
}
330
511
100
AcDbVisualStyle
  2
Thicken
 70
    13
177
     3
291
     1
 70
    58
 90
        2
176
     1
 90
        2
176
     1
 90
        0
176
     1
 90
        0
176
     1
 40
0.6
176
     1
 40
30.0
176
     1
 62
     7
420
 16777215
176
     1
 90
        1
176
     1
 90
        4
176
     1
 62
     7
176
     1
 62
   257
176
     1
 90
        1
176
     1
 90
        1
176
     1
 40
1.0
176
     1
 90
       12
176
     1
 62
     7
176
     1
 40
1.0
176
     1
 90
        1
176
     1
 90
        6
176
     1
 90
        2
176
     1
 62
     7
176
     1
 90
        5
176
     1
 90
        0
176
     1
 90
        0
176
     1
290
     0
176
     1
 90
        1
176
     1
 40
0.0
176
     1
 90
        0
176
     1
290
     0
176
     1
290
     1
176
     1
290
     1
176
     1
290
     0
176
     1
290
     0
176
     1
290
     0
176
     1
290
     0
176
     1
290
     0
176
     1
290
     0
176
     1
 90
       50
176
     1
 40
0.0
176
     1
 40
1.0
176
     1
 90
        0
176
     1
 62
    18
420
        0
176
     1
 90
       50
176
     1
 90
        3
176
     1
 62
     5
420
      255
176
     1
290
     0
176
     1
 90
       50
176
     1
 90
       50
176
     1
 90
       50
176
     1
290
     0
176
     1
 90
       50
176
     1
 62
   256
176
     0
 40
1.0
176
     0
 90
        2
176
     1
  1
strokes_ogs.tif
176
     1
290
     0
176
     1
 40
1.0
176
     1
 40
1.0
176
     1
  0
VISUALSTYLE
  5
517
102
{ACAD_REACTORS
330
511
102
}
330
511
100
AcDbVisualStyle
  2
Wireframe
 70
     5
177
     3
291
     0
 70
    58
 90
        0
176
     1
 90
        2
176
     1
 90
        0
176
     1
 90
        0
176
     1
 40
0.6
176
     1
 40
30.0
176
     1
 62
     7
420
 16777215
176
     1
 90
        1
176
     1
 90
        4
176
     1
 62
     7
176
     1
 62
   257
176
     1
 90
        1
176
     1
 90
        1
176
     1
 40
1.0
176
     1
 90
        0
176
     1
 62
   257
176
     1
 40
1.0
176
     1
 90
        1
176
     1
 90
        6
176
     1
 90
        2
176
     1
 62
     7
176
     1
 90
        3
176
     1
 90
        0
176
     1
 90
        0
176
     1
290
     0
176
     1
 90
        1
176
     1
 40
0.0
176
     1
 90
        0
176
     1
290
     0
176
     1
290
     1
176
     1
290
     1
176
     1
290
     0
176
     1
290
     0
176
     1
290
     0
176
     1
290
     0
176
     1
290
     0
176
     1
290
     0
176
     1
 90
       50
176
     1
 40
0.0
176
     1
 40
1.0
176
     1
 90
        0
176
     1
 62
    18
420
        0
176
     1
 90
       50
176
     1
 90
        3
176
     1
 62
     5
420
      255
176
     1
290
     0
176
     1
 90
       50
176
     1
 90
       50
176
     1
 90
       50
176
     1
290
     0
176
     1
 90
       50
176
     1
 62
   256
176
     0
 40
1.0
176
     0
 90
        2
176
     1
  1
strokes_ogs.tif
176
     1
290
     0
176
     1
 40
1.0
176
     1
 40
1.0
176
     1
  0
VISUALSTYLE
  5
527
102
{ACAD_REACTORS
330
511
102
}
330
511
100
AcDbVisualStyle
  2
X-Ray
 70
    25
177
     3
291
     0
 70
    58
 90
        2
176
     1
 90
        2
176
     1
 90
        1
176
     1
 90
        1
176
     1
 40
0.5
176
     1
 40
30.0
176
     1
 62
     7
420
 16777215
176
     1
 90
        1
176
     1
 90
        0
176
     1
 62
     7
176
     1
 62
   257
176
     1
 90
        1
176
     1
 90
        1
176
     1
 40
1.0
176
     1
 90
        8
176
     1
 62
     7
176
     1
 40
1.0
176
     1
 90
        1
176
     1
 90
        6
176
     1
 90
        2
176
     1
 62
     7
176
     1
 90
        3
176
     1
 90
        0
176
     1
 90
        0
176
     1
290
     0
176
     1
 90
       13
176
     1
 40
0.0
176
     1
 90
        0
176
     1
290
     0
176
     1
290
     1
176
     1
290
     1
176
     1
290
     0
176
     1
290
     0
176
     1
290
     0
176
     1
290
     0
176
     1
290
     0
176
     1
290
     0
176
     1
 90
       50
176
     1
 40
0.0
176
     1
 40
1.0
176
     1
 90
        0
176
     1
 62
    18
420
        0
176
     1
 90
       50
176
     1
 90
        3
176
     1
 62
     5
420
      255
176
     1
290
     0
176
     1
 90
       50
176
     1
 90
       50
176
     1
 90
       50
176
     1
290
     0
176
     1
 90
       50
176
     1
 62
   256
176
     0
 40
1.0
176
     0
 90
        2
176
     1
  1
strokes_ogs.tif
176
     1
290
     0
176
     1
 40
1.0
176
     1
 40
1.0
176
     1
  0
DICTIONARYVAR
  5
534
102
{ACAD_REACTORS
330
533
102
}
330
533
100
DictionaryVariables
280
     0
  1
1:1
  0
DICTIONARYVAR
  5
539
102
{ACAD_REACTORS
330
533
102
}
330
533
100
DictionaryVariables
280
     0
  1
Standard
  0
DICTIONARYVAR
  5
538
102
{ACAD_REACTORS
330
533
102
}
330
533
100
DictionaryVariables
280
     0
  1
Standard
  0
DICTIONARYVAR
  5
53A
102
{ACAD_REACTORS
330
533
102
}
330
533
100
DictionaryVariables
280
     0
  1
0
  0
DICTIONARY
  5
535
330
52F
100
AcDbDictionary
280
     1
281
     1
  3
ACAD_ROUNDTRIP_2008_TABLESTYLE_CELLSTYLEMAP
360
536
  0
CELLSTYLEMAP
  5
536
102
{ACAD_REACTORS
330
535
102
}
330
535
100
AcDbCellStyleMap
 90
        3
300
CELLSTYLE
  1
TABLEFORMAT_BEGIN
 90
        5
170
     1
 91
        0
 92
    32768
 62
   257
 93
        1
300
CONTENTFORMAT
  1
CONTENTFORMAT_BEGIN
 90
        0
 91
        0
 92
        4
 93
        0
300

 40
0.0
140
1.0
 94
        5
 62
     0
340
11
144
6.0
309
CONTENTFORMAT_END
171
     1
301
MARGIN
  1
CELLMARGIN_BEGIN
 40
1.5
 40
1.5
 40
1.5
 40
1.5
 40
1.5
 40
1.5
309
CELLMARGIN_END
 94
        6
 95
        1
302
GRIDFORMAT
  1
GRIDFORMAT_BEGIN
 90
        0
 91
        1
 62
     0
 92
       -2
340
14
 93
        0
 40
0.045
309
GRIDFORMAT_END
 95
        2
302
GRIDFORMAT
  1
GRIDFORMAT_BEGIN
 90
        0
 91
        1
 62
     0
 92
       -2
340
14
 93
        0
 40
0.045
309
GRIDFORMAT_END
 95
        4
302
GRIDFORMAT
  1
GRIDFORMAT_BEGIN
 90
        0
 91
        1
 62
     0
 92
       -2
340
14
 93
        0
 40
0.045
309
GRIDFORMAT_END
 95
        8
302
GRIDFORMAT
  1
GRIDFORMAT_BEGIN
 90
        0
 91
        1
 62
     0
 92
       -2
340
14
 93
        0
 40
0.045
309
GRIDFORMAT_END
 95
       16
302
GRIDFORMAT
  1
GRIDFORMAT_BEGIN
 90
        0
 91
        1
 62
     0
 92
       -2
340
14
 93
        0
 40
0.045
309
GRIDFORMAT_END
 95
       32
302
GRIDFORMAT
  1
GRIDFORMAT_BEGIN
 90
        0
 91
        1
 62
     0
 92
       -2
340
14
 93
        0
 40
0.045
309
GRIDFORMAT_END
309
TABLEFORMAT_END
  1
CELLSTYLE_BEGIN
 90
        1
 91
        1
300
_TITLE
309
CELLSTYLE_END
300
CELLSTYLE
  1
TABLEFORMAT_BEGIN
 90
        5
170
     1
 91
        0
 92
        0
 62
   257
 93
        1
300
CONTENTFORMAT
  1
CONTENTFORMAT_BEGIN
 90
        0
 91
        0
 92
        4
 93
        0
300

 40
0.0
140
1.0
 94
        5
 62
     0
340
11
144
4.5
309
CONTENTFORMAT_END
171
     1
301
MARGIN
  1
CELLMARGIN_BEGIN
 40
1.5
 40
1.5
 40
1.5
 40
1.5
 40
1.5
 40
1.5
309
CELLMARGIN_END
 94
        6
 95
        1
302
GRIDFORMAT
  1
GRIDFORMAT_BEGIN
 90
        0
 91
        1
 62
     0
 92
       -2
340
14
 93
        0
 40
0.045
309
GRIDFORMAT_END
 95
        2
302
GRIDFORMAT
  1
GRIDFORMAT_BEGIN
 90
        0
 91
        1
 62
     0
 92
       -2
340
14
 93
        0
 40
0.045
309
GRIDFORMAT_END
 95
        4
302
GRIDFORMAT
  1
GRIDFORMAT_BEGIN
 90
        0
 91
        1
 62
     0
 92
       -2
340
14
 93
        0
 40
0.045
309
GRIDFORMAT_END
 95
        8
302
GRIDFORMAT
  1
GRIDFORMAT_BEGIN
 90
        0
 91
        1
 62
     0
 92
       -2
340
14
 93
        0
 40
0.045
309
GRIDFORMAT_END
 95
       16
302
GRIDFORMAT
  1
GRIDFORMAT_BEGIN
 90
        0
 91
        1
 62
     0
 92
       -2
340
14
 93
        0
 40
0.045
309
GRIDFORMAT_END
 95
       32
302
GRIDFORMAT
  1
GRIDFORMAT_BEGIN
 90
        0
 91
        1
 62
     0
 92
       -2
340
14
 93
        0
 40
0.045
309
GRIDFORMAT_END
309
TABLEFORMAT_END
  1
CELLSTYLE_BEGIN
 90
        2
 91
        1
300
_HEADER
309
CELLSTYLE_END
300
CELLSTYLE
  1
TABLEFORMAT_BEGIN
 90
        5
170
     1
 91
        0
 92
        0
 62
   257
 93
        1
300
CONTENTFORMAT
  1
CONTENTFORMAT_BEGIN
 90
        0
 91
        0
 92
        4
 93
        0
300

 40
0.0
140
1.0
 94
        2
 62
     0
340
11
144
4.5
309
CONTENTFORMAT_END
171
     1
301
MARGIN
  1
CELLMARGIN_BEGIN
 40
1.5
 40
1.5
 40
1.5
 40
1.5
 40
1.5
 40
1.5
309
CELLMARGIN_END
 94
        6
 95
        1
302
GRIDFORMAT
  1
GRIDFORMAT_BEGIN
 90
        0
 91
        1
 62
     0
 92
       -2
340
14
 93
        0
 40
0.045
309
GRIDFORMAT_END
 95
        2
302
GRIDFORMAT
  1
GRIDFORMAT_BEGIN
 90
        0
 91
        1
 62
     0
 92
       -2
340
14
 93
        0
 40
0.045
309
GRIDFORMAT_END
 95
        4
302
GRIDFORMAT
  1
GRIDFORMAT_BEGIN
 90
        0
 91
        1
 62
     0
 92
       -2
340
14
 93
        0
 40
0.045
309
GRIDFORMAT_END
 95
        8
302
GRIDFORMAT
  1
GRIDFORMAT_BEGIN
 90
        0
 91
        1
 62
     0
 92
       -2
340
14
 93
        0
 40
0.045
309
GRIDFORMAT_END
 95
       16
302
GRIDFORMAT
  1
GRIDFORMAT_BEGIN
 90
        0
 91
        1
 62
     0
 92
       -2
340
14
 93
        0
 40
0.045
309
GRIDFORMAT_END
 95
       32
302
GRIDFORMAT
  1
GRIDFORMAT_BEGIN
 90
        0
 91
        1
 62
     0
 92
       -2
340
14
 93
        0
 40
0.045
309
GRIDFORMAT_END
309
TABLEFORMAT_END
  1
CELLSTYLE_BEGIN
 90
        3
 91
        2
300
_DATA
309
CELLSTYLE_END
  0
ENDSEC
  0
EOF
