  0
SECTION
  2
HEADER
  9
$ACADVER
  1
AC1027
  9
$ACADMAINTVER
 70
   105
  9
$DWGCODEPAGE
  3
ANSI_1252
  9
$REQUIREDVERSIONS
160
                 0
  9
$LASTSAVEDBY
  1
andrea.zolin
  9
$INSBASE
 10
0.0
 20
0.0
 30
0.0
  9
$EXTMIN
 10
0.0
 20
0.0
 30
0.0
  9
$EXTMAX
 10
297.0
 20
210.0
 30
0.0
  9
$LIMMIN
 10
0.0
 20
0.0
  9
$LIMMAX
 10
297.0
 20
210.0
  9
$ORTHOMODE
 70
     0
  9
$REGENMODE
 70
     1
  9
$FILLMODE
 70
     1
  9
$QTEXTMODE
 70
     0
  9
$MIRRTEXT
 70
     1
  9
$LTSCALE
 40
16.335
  9
$ATTMODE
 70
     1
  9
$TEXTSIZE
 40
0.2
  9
$TRACEWID
 40
0.05
  9
$TEXTSTYLE
  7
STANDARD
  9
$CLAYER
  8
0
  9
$CELTYPE
  6
BYLAYER
  9
$CECOLOR
 62
   256
  9
$CELTSCALE
 40
1.0
  9
$DISPSILH
 70
     0
  9
$DIMSCALE
 40
1.0
  9
$DIMASZ
 40
2.5
  9
$DIMEXO
 40
0.75
  9
$DIMDLI
 40
11.286
  9
$DIMRND
 40
0.0
  9
$DIMDLE
 40
0.0
  9
$DIMEXE
 40
0.75
  9
$DIMTP
 40
0.01
  9
$DIMTM
 40
0.01
  9
$DIMTXT
 40
3.0
  9
$DIMCEN
 40
2.673
  9
$DIMTSZ
 40
0.0
  9
$DIMTOL
 70
     1
  9
$DIMLIM
 70
     0
  9
$DIMTIH
 70
     1
  9
$DIMTOH
 70
     1
  9
$DIMSE1
 70
     0
  9
$DIMSE2
 70
     0
  9
$DIMTAD
 70
     0
  9
$DIMZIN
 70
     0
  9
$DIMBLK
  1
CLOSED
  9
$DIMASO
 70
     1
  9
$DIMSHO
 70
     1
  9
$DIMPOST
  1

  9
$DIMAPOST
  1

  9
$DIMALT
 70
     0
  9
$DIMALTD
 70
     2
  9
$DIMALTF
 40
25.4
  9
$DIMLFAC
 40
1.0
  9
$DIMTOFL
 70
     0
  9
$DIMTVP
 40
0.0
  9
$DIMTIX
 70
     0
  9
$DIMSOXD
 70
     0
  9
$DIMSAH
 70
     0
  9
$DIMBLK1
  1

  9
$DIMBLK2
  1

  9
$DIMSTYLE
  2
STANDARD
  9
$DIMCLRD
 70
     0
  9
$DIMCLRE
 70
     0
  9
$DIMCLRT
 70
     0
  9
$DIMTFAC
 40
1.0
  9
$DIMGAP
 40
0.625
  9
$DIMJUST
 70
     0
  9
$DIMSD1
 70
     0
  9
$DIMSD2
 70
     0
  9
$DIMTOLJ
 70
     1
  9
$DIMTZIN
 70
     0
  9
$DIMALTZ
 70
     0
  9
$DIMALTTZ
 70
     0
  9
$DIMUPT
 70
     0
  9
$DIMDEC
 70
     4
  9
$DIMTDEC
 70
     4
  9
$DIMALTU
 70
     2
  9
$DIMALTTD
 70
     2
  9
$DIMTXSTY
  7
STANDARD
  9
$DIMAUNIT
 70
     0
  9
$DIMADEC
 70
     0
  9
$DIMALTRND
 40
0.0
  9
$DIMAZIN
 70
     0
  9
$DIMDSEP
 70
    44
  9
$DIMATFIT
 70
     3
  9
$DIMFRAC
 70
     0
  9
$DIMLDRBLK
  1

  9
$DIMLUNIT
 70
     2
  9
$DIMLWD
 70
    -2
  9
$DIMLWE
 70
    -2
  9
$DIMTMOVE
 70
     0
  9
$DIMFXL
 40
1.0
  9
$DIMFXLON
 70
     0
  9
$DIMJOGANG
 40
0.7853981633974483
  9
$DIMTFILL
 70
     0
  9
$DIMTFILLCLR
 70
     0
  9
$DIMARCSYM
 70
     0
  9
$DIMLTYPE
  6

  9
$DIMLTEX1
  6

  9
$DIMLTEX2
  6

  9
$DIMTXTDIRECTION
 70
     0
  9
$LUNITS
 70
     2
  9
$LUPREC
 70
     4
  9
$SKETCHINC
 40
0.1
  9
$FILLETRAD
 40
0.5
  9
$AUNITS
 70
     0
  9
$AUPREC
 70
     0
  9
$MENU
  1
.
  9
$ELEVATION
 40
0.0
  9
$PELEVATION
 40
0.0
  9
$THICKNESS
 40
0.0
  9
$LIMCHECK
 70
     0
  9
$CHAMFERA
 40
0.0
  9
$CHAMFERB
 40
0.0
  9
$CHAMFERC
 40
0.0
  9
$CHAMFERD
 40
0.0
  9
$SKPOLY
 70
     0
  9
$TDCREATE
 40
2447893.083333333
  9
$TDUCREATE
 40
0.0
  9
$TDUPDATE
 40
2458620.588626169
  9
$TDUUPDATE
 40
2458620.505292836
  9
$TDINDWG
 40
0.0003784259
  9
$TDUSRTIMER
 40
0.0003784259
  9
$USRTIMER
 70
     1
  9
$ANGBASE
 50
0.0
  9
$ANGDIR
 70
     0
  9
$PDMODE
 70
     3
  9
$PDSIZE
 40
0.3125
  9
$PLINEWID
 40
0.0
  9
$SPLFRAME
 70
     0
  9
$SPLINETYPE
 70
     6
  9
$SPLINESEGS
 70
     8
  9
$HANDSEED
  5
4C4
  9
$SURFTAB1
 70
     6
  9
$SURFTAB2
 70
     6
  9
$SURFTYPE
 70
     6
  9
$SURFU
 70
     6
  9
$SURFV
 70
     6
  9
$UCSBASE
  2

  9
$UCSNAME
  2

  9
$UCSORG
 10
0.0
 20
0.0
 30
0.0
  9
$UCSXDIR
 10
1.0
 20
0.0
 30
0.0
  9
$UCSYDIR
 10
0.0
 20
1.0
 30
0.0
  9
$UCSORTHOREF
  2

  9
$UCSORTHOVIEW
 70
     0
  9
$UCSORGTOP
 10
0.0
 20
0.0
 30
0.0
  9
$UCSORGBOTTOM
 10
0.0
 20
0.0
 30
0.0
  9
$UCSORGLEFT
 10
0.0
 20
0.0
 30
0.0
  9
$UCSORGRIGHT
 10
0.0
 20
0.0
 30
0.0
  9
$UCSORGFRONT
 10
0.0
 20
0.0
 30
0.0
  9
$UCSORGBACK
 10
0.0
 20
0.0
 30
0.0
  9
$PUCSBASE
  2

  9
$PUCSNAME
  2

  9
$PUCSORG
 10
0.0
 20
0.0
 30
0.0
  9
$PUCSXDIR
 10
1.0
 20
0.0
 30
0.0
  9
$PUCSYDIR
 10
0.0
 20
1.0
 30
0.0
  9
$PUCSORTHOREF
  2

  9
$PUCSORTHOVIEW
 70
     0
  9
$PUCSORGTOP
 10
0.0
 20
0.0
 30
0.0
  9
$PUCSORGBOTTOM
 10
0.0
 20
0.0
 30
0.0
  9
$PUCSORGLEFT
 10
0.0
 20
0.0
 30
0.0
  9
$PUCSORGRIGHT
 10
0.0
 20
0.0
 30
0.0
  9
$PUCSORGFRONT
 10
0.0
 20
0.0
 30
0.0
  9
$PUCSORGBACK
 10
0.0
 20
0.0
 30
0.0
  9
$USERI1
 70
     0
  9
$USERI2
 70
     0
  9
$USERI3
 70
     0
  9
$USERI4
 70
     0
  9
$USERI5
 70
     0
  9
$USERR1
 40
0.0
  9
$USERR2
 40
0.0
  9
$USERR3
 40
0.0
  9
$USERR4
 40
0.0
  9
$USERR5
 40
0.0
  9
$WORLDVIEW
 70
     1
  9
$SHADEDGE
 70
     3
  9
$SHADEDIF
 70
    70
  9
$TILEMODE
 70
     0
  9
$MAXACTVP
 70
    64
  9
$PINSBASE
 10
0.0
 20
0.0
 30
0.0
  9
$PLIMCHECK
 70
     0
  9
$PEXTMIN
 10
9.949999999999989
 20
9.950000000000003
 30
0.0
  9
$PEXTMAX
 10
291.5463968142666
 20
200.05
 30
0.0
  9
$PLIMMIN
 10
0.0
 20
0.0
  9
$PLIMMAX
 10
297.0
 20
210.0
  9
$UNITMODE
 70
     0
  9
$VISRETAIN
 70
     1
  9
$PLINEGEN
 70
     0
  9
$PSLTSCALE
 70
     1
  9
$TREEDEPTH
 70
  3020
  9
$CMLSTYLE
  2
Standard
  9
$CMLJUST
 70
     0
  9
$CMLSCALE
 40
1.0
  9
$PROXYGRAPHICS
 70
     1
  9
$MEASUREMENT
 70
     1
  9
$CELWEIGHT
370
    -1
  9
$ENDCAPS
280
     0
  9
$JOINSTYLE
280
     0
  9
$LWDISPLAY
290
     0
  9
$INSUNITS
 70
     4
  9
$HYPERLINKBASE
  1

  9
$STYLESHEET
  1

  9
$XEDIT
290
     1
  9
$CEPSNTYPE
380
     0
  9
$PSTYLEMODE
290
     1
  9
$FINGERPRINTGUID
  2
{81FA7083-476C-4EB1-80AF-F1F80BF3E74A}
  9
$VERSIONGUID
  2
{FAEB1C32-E019-11D5-929B-00C0DF256EC4}
  9
$EXTNAMES
290
     1
  9
$PSVPSCALE
 40
0.0
  9
$OLESTARTUP
290
     0
  9
$SORTENTS
280
   127
  9
$INDEXCTL
280
     0
  9
$HIDETEXT
280
     1
  9
$XCLIPFRAME
280
     2
  9
$HALOGAP
280
     0
  9
$OBSCOLOR
 70
   257
  9
$OBSLTYPE
280
     0
  9
$INTERSECTIONDISPLAY
280
     0
  9
$INTERSECTIONCOLOR
 70
   257
  9
$DIMASSOC
280
     2
  9
$PROJECTNAME
  1

  9
$CAMERADISPLAY
290
     0
  9
$LENSLENGTH
 40
50.0
  9
$CAMERAHEIGHT
 40
0.0
  9
$STEPSPERSEC
 40
2.0
  9
$STEPSIZE
 40
6.0
  9
$3DDWFPREC
 40
2.0
  9
$PSOLWIDTH
 40
0.25
  9
$PSOLHEIGHT
 40
4.0
  9
$LOFTANG1
 40
1.570796326794897
  9
$LOFTANG2
 40
1.570796326794897
  9
$LOFTMAG1
 40
0.0
  9
$LOFTMAG2
 40
0.0
  9
$LOFTPARAM
 70
     7
  9
$LOFTNORMALS
280
     1
  9
$LATITUDE
 40
37.795
  9
$LONGITUDE
 40
-122.394
  9
$NORTHDIRECTION
 40
0.0
  9
$TIMEZONE
 70
 -8000
  9
$LIGHTGLYPHDISPLAY
280
     1
  9
$TILEMODELIGHTSYNCH
280
     1
  9
$SOLIDHIST
280
     0
  9
$SHOWHIST
280
     1
  9
$DWFFRAME
280
     2
  9
$DGNFRAME
280
     2
  9
$REALWORLDSCALE
290
     1
  9
$INTERFERECOLOR
 62
   256
  9
$CSHADOW
280
     0
  9
$SHADOWPLANELOCATION
 40
0.0
  0
ENDSEC
  0
SECTION
  2
CLASSES
  0
CLASS
  1
ACDBDICTIONARYWDFLT
  2
AcDbDictionaryWithDefault
  3
ObjectDBX Classes
 90
        0
 91
        4
280
     0
281
     0
  0
CLASS
  1
ACDBPLACEHOLDER
  2
AcDbPlaceHolder
  3
ObjectDBX Classes
 90
        0
 91
        1
280
     0
281
     0
  0
CLASS
  1
LAYOUT
  2
AcDbLayout
  3
ObjectDBX Classes
 90
        0
 91
        1
280
     0
281
     0
  0
CLASS
  1
SCALE
  2
AcDbScale
  3
ObjectDBX Classes
 90
     1153
 91
        4
280
     0
281
     0
  0
CLASS
  1
VISUALSTYLE
  2
AcDbVisualStyle
  3
ObjectDBX Classes
 90
     4095
 91
        4
280
     0
281
     0
  0
CLASS
  1
MATERIAL
  2
AcDbMaterial
  3
ObjectDBX Classes
 90
     1153
 91
        4
280
     0
281
     0
  0
CLASS
  1
TABLESTYLE
  2
AcDbTableStyle
  3
ObjectDBX Classes
 90
     4095
 91
        4
280
     0
281
     0
  0
CLASS
  1
MLEADERSTYLE
  2
AcDbMLeaderStyle
  3
ACDB_MLEADERSTYLE_CLASS
 90
     4095
 91
        4
280
     0
281
     0
  0
CLASS
  1
DICTIONARYVAR
  2
AcDbDictionaryVar
  3
ObjectDBX Classes
 90
        0
 91
        4
280
     0
281
     0
  0
CLASS
  1
CELLSTYLEMAP
  2
AcDbCellStyleMap
  3
ObjectDBX Classes
 90
     1152
 91
        4
280
     0
281
     0
  0
ENDSEC
  0
SECTION
  2
TABLES
  0
TABLE
  2
VPORT
  5
8
330
0
100
AcDbSymbolTable
 70
     1
  0
VPORT
  5
1F4
330
8
100
AcDbSymbolTableRecord
100
AcDbViewportTableRecord
  2
*ACTIVE
 70
     0
 10
0.0
 20
0.0
 11
1.0
 21
1.0
 12
148.5
 22
105.0
 13
0.0
 23
0.0
 14
1.0
 24
1.0
 15
0.0
 25
0.0
 16
0.0
 26
0.0
 36
1.0
 17
0.0
 27
0.0
 37
0.0
 40
210.0
 41
1.4142857143
 42
50.0
 43
0.0
 44
0.0
 50
0.0
 51
0.0
 71
     0
 72
   100
 73
     1
 74
     1
 75
     0
 76
     0
 77
     0
 78
     0
281
     0
 65
     1
110
0.0
120
0.0
130
0.0
111
1.0
121
0.0
131
0.0
112
0.0
122
1.0
132
0.0
 79
     0
146
0.0
348
49D
 60
     3
 61
     5
292
     1
282
     1
141
0.0
142
0.0
 63
   256
  0
ENDTAB
  0
TABLE
  2
LTYPE
  5
5
330
0
100
AcDbSymbolTable
 70
     6
  0
LTYPE
  5
14
330
5
100
AcDbSymbolTableRecord
100
AcDbLinetypeTableRecord
  2
BYBLOCK
 70
     0
  3

 72
    65
 73
     0
 40
0.0
  0
LTYPE
  5
15
330
5
100
AcDbSymbolTableRecord
100
AcDbLinetypeTableRecord
  2
BYLAYER
 70
     0
  3

 72
    65
 73
     0
 40
0.0
  0
LTYPE
  5
16
330
5
100
AcDbSymbolTableRecord
100
AcDbLinetypeTableRecord
  2
CONTINUOUS
 70
     0
  3
Solid line
 72
    65
 73
     0
 40
0.0
  0
LTYPE
  5
1F5
330
5
100
AcDbSymbolTableRecord
100
AcDbLinetypeTableRecord
  2
CENTER
 70
     0
  3
____ _ ____ _ ____ _ ____ _ ____ _ ____ _ ____
 72
    65
 73
     4
 40
0.6
 49
0.375
 74
     0
 49
-0.075
 74
     0
 49
0.075
 74
     0
 49
-0.075
 74
     0
  0
LTYPE
  5
1F6
330
5
100
AcDbSymbolTableRecord
100
AcDbLinetypeTableRecord
  2
HIDDEN
 70
     0
  3
- - - - - - - - - - - - - - - - - - - -
 72
    65
 73
     2
 40
0.2
 49
0.1
 74
     0
 49
-0.1
 74
     0
  0
LTYPE
  5
1F7
330
5
100
AcDbSymbolTableRecord
100
AcDbLinetypeTableRecord
  2
PHANTOM
 70
     0
  3
_____ _ _ _____ _ _ _____ _ _ _____
 72
    65
 73
     6
 40
0.8
 49
0.45
 74
     0
 49
-0.05
 74
     0
 49
0.1
 74
     0
 49
-0.05
 74
     0
 49
0.1
 74
     0
 49
-0.05
 74
     0
  0
LTYPE
  5
1F8
330
5
100
AcDbSymbolTableRecord
100
AcDbLinetypeTableRecord
  2
DOT
 70
     0
  3
. . . . . . . . . . . . . . . . . . . .
 72
    65
 73
     2
 40
0.2
 49
0.1
 74
     0
 49
-0.1
 74
     0
  0
LTYPE
  5
1F9
330
5
100
AcDbSymbolTableRecord
100
AcDbLinetypeTableRecord
  2
DASHED
 70
     0
  3
- - - - - - - - - - - - - - - - - - - -
 72
    65
 73
     2
 40
0.2
 49
0.1
 74
     0
 49
-0.1
 74
     0
  0
ENDTAB
  0
TABLE
  2
LAYER
  5
2
330
0
100
AcDbSymbolTable
 70
    23
  0
LAYER
  5
10
330
2
100
AcDbSymbolTableRecord
100
AcDbLayerTableRecord
  2
0
 70
     0
 62
     7
  6
CONTINUOUS
370
    -3
390
F
347
4B4
348
0
  0
LAYER
  5
1FA
330
2
100
AcDbSymbolTableRecord
100
AcDbLayerTableRecord
  2
DEFAULT_1
 70
     0
 62
     7
  6
CENTER
370
    -3
390
F
347
4B4
348
0
  0
LAYER
  5
1FB
330
2
100
AcDbSymbolTableRecord
100
AcDbLayerTableRecord
  2
DEFAULT_2
 70
     0
 62
     8
  6
HIDDEN
370
    -3
390
F
347
4B4
348
0
  0
LAYER
  5
1FC
330
2
100
AcDbSymbolTableRecord
100
AcDbLayerTableRecord
  2
DEFAULT_3
 70
     0
 62
     7
  6
PHANTOM
370
    -3
390
F
347
4B4
348
0
  0
LAYER
  5
1FD
330
2
100
AcDbSymbolTableRecord
100
AcDbLayerTableRecord
  2
01___PRT_ALL_DTM_PLN
 70
     0
 62
     7
  6
CONTINUOUS
370
    -3
390
F
347
4B4
348
0
  0
LAYER
  5
1FE
330
2
100
AcDbSymbolTableRecord
100
AcDbLayerTableRecord
  2
01___PRT_DEF_DTM_PLN
 70
     0
 62
     7
  6
CONTINUOUS
370
    -3
390
F
347
4B4
348
0
  0
LAYER
  5
1FF
330
2
100
AcDbSymbolTableRecord
100
AcDbLayerTableRecord
  2
02___PRT_ALL_AXES
 70
     0
 62
     7
  6
CONTINUOUS
370
    -3
390
F
347
4B4
348
0
  0
LAYER
  5
200
330
2
100
AcDbSymbolTableRecord
100
AcDbLayerTableRecord
  2
03___PRT_ALL_CURVES
 70
     0
 62
     7
  6
CONTINUOUS
370
    -3
390
F
347
4B4
348
0
  0
LAYER
  5
201
330
2
100
AcDbSymbolTableRecord
100
AcDbLayerTableRecord
  2
04___PRT_ALL_DTM_PNT
 70
     0
 62
     7
  6
CONTINUOUS
370
    -3
390
F
347
4B4
348
0
  0
LAYER
  5
202
330
2
100
AcDbSymbolTableRecord
100
AcDbLayerTableRecord
  2
05___PRT_ALL_DTM_CSYS
 70
     0
 62
     7
  6
CONTINUOUS
370
    -3
390
F
347
4B4
348
0
  0
LAYER
  5
203
330
2
100
AcDbSymbolTableRecord
100
AcDbLayerTableRecord
  2
05___PRT_DEF_DTM_CSYS
 70
     0
 62
     7
  6
CONTINUOUS
370
    -3
390
F
347
4B4
348
0
  0
LAYER
  5
204
330
2
100
AcDbSymbolTableRecord
100
AcDbLayerTableRecord
  2
06___PRT_ALL_SURFS
 70
     0
 62
     7
  6
CONTINUOUS
370
    -3
390
F
347
4B4
348
0
  0
LAYER
  5
205
330
2
100
AcDbSymbolTableRecord
100
AcDbLayerTableRecord
  2
1_ALL_PLANES
 70
     0
 62
     7
  6
CONTINUOUS
370
    -3
390
F
347
4B4
348
0
  0
LAYER
  5
206
330
2
100
AcDbSymbolTableRecord
100
AcDbLayerTableRecord
  2
2_ALL_CSYS
 70
     0
 62
     7
  6
CONTINUOUS
370
    -3
390
F
347
4B4
348
0
  0
LAYER
  5
207
330
2
100
AcDbSymbolTableRecord
100
AcDbLayerTableRecord
  2
3_ALL_AXES
 70
     0
 62
     7
  6
CONTINUOUS
370
    -3
390
F
347
4B4
348
0
  0
LAYER
  5
208
330
2
100
AcDbSymbolTableRecord
100
AcDbLayerTableRecord
  2
4_ALL_POINTS
 70
     0
 62
     7
  6
CONTINUOUS
370
    -3
390
F
347
4B4
348
0
  0
LAYER
  5
209
330
2
100
AcDbSymbolTableRecord
100
AcDbLayerTableRecord
  2
5_ALL_CURVES
 70
     0
 62
     7
  6
CONTINUOUS
370
    -3
390
F
347
4B4
348
0
  0
LAYER
  5
20A
330
2
100
AcDbSymbolTableRecord
100
AcDbLayerTableRecord
  2
5__COSTRUZIONE
 70
     0
 62
     7
  6
CONTINUOUS
370
    -3
390
F
347
4B4
348
0
  0
LAYER
  5
20B
330
2
100
AcDbSymbolTableRecord
100
AcDbLayerTableRecord
  2
6_ALL_SURFS
 70
     0
 62
     7
  6
CONTINUOUS
370
    -3
390
F
347
4B4
348
0
  0
LAYER
  5
20C
330
2
100
AcDbSymbolTableRecord
100
AcDbLayerTableRecord
  2
7_ALL_FEATURES
 70
     0
 62
     7
  6
CONTINUOUS
370
    -3
390
F
347
4B4
348
0
  0
LAYER
  5
20D
330
2
100
AcDbSymbolTableRecord
100
AcDbLayerTableRecord
  2
9_SOLID
 70
     0
 62
     7
  6
CONTINUOUS
370
    -3
390
F
347
4B4
348
0
  0
LAYER
  5
20E
330
2
100
AcDbSymbolTableRecord
100
AcDbLayerTableRecord
  2
WHITE
 70
     0
 62
     7
  6
CONTINUOUS
370
    -3
390
F
347
4B4
348
0
  0
LAYER
  5
20F
330
2
100
AcDbSymbolTableRecord
100
AcDbLayerTableRecord
  2
XXX_SOLIDO
 70
     0
 62
     7
  6
CONTINUOUS
370
    -3
390
F
347
4B4
348
0
  0
ENDTAB
  0
TABLE
  2
STYLE
  5
3
330
0
100
AcDbSymbolTable
 70
     5
  0
STYLE
  5
11
330
3
100
AcDbSymbolTableRecord
100
AcDbTextStyleTableRecord
  2
STANDARD
 70
     0
 40
0.0
 41
1.0
 50
0.0
 71
     0
 42
0.2
  3
arial.ttf
  4

  0
STYLE
  5
210
330
3
100
AcDbSymbolTableRecord
100
AcDbTextStyleTableRecord
  2
TEXTSTYLE_1
 70
     0
 40
0.0
 41
0.8
 50
0.0
 71
     0
 42
0.2
  3
gdt
  4

  0
STYLE
  5
211
330
3
100
AcDbSymbolTableRecord
100
AcDbTextStyleTableRecord
  2
TEXTSTYLE_2
 70
     0
 40
0.0
 41
0.85
 50
0.0
 71
     0
 42
0.2
  3
gdt
  4

  0
STYLE
  5
212
330
3
100
AcDbSymbolTableRecord
100
AcDbTextStyleTableRecord
  2
TEXTSTYLE_3
 70
     0
 40
0.0
 41
2.0
 50
0.0
 71
     0
 42
0.2
  3
txt
  4

  0
STYLE
  5
213
330
3
100
AcDbSymbolTableRecord
100
AcDbTextStyleTableRecord
  2
TEXTSTYLE_4
 70
     0
 40
0.0
 41
0.85
 50
0.0
 71
     0
 42
0.2
  3
txt
  4

  0
ENDTAB
  0
TABLE
  2
VIEW
  5
6
330
0
100
AcDbSymbolTable
 70
     0
  0
ENDTAB
  0
TABLE
  2
UCS
  5
7
330
0
100
AcDbSymbolTable
 70
     0
  0
ENDTAB
  0
TABLE
  2
APPID
  5
9
330
0
100
AcDbSymbolTable
 70
     1
  0
APPID
  5
214
330
9
100
AcDbSymbolTableRecord
100
AcDbRegAppTableRecord
  2
ACAD
 70
     0
  0
ENDTAB
  0
TABLE
  2
DIMSTYLE
  5
A
330
0
100
AcDbSymbolTable
 70
     4
100
AcDbDimStyleTable
  0
DIMSTYLE
105
21F
330
A
100
AcDbSymbolTableRecord
100
AcDbDimStyleTableRecord
  2
STANDARD
 70
     0
 41
2.5
 42
0.75
 44
0.75
 47
0.01
 48
0.01
 71
     1
 73
     0
 74
     0
 77
     1
 78
     8
 79
     2
140
3.0
147
0.625
171
     1
178
     0
179
     2
271
     2
272
     2
278
    44
284
     8
340
11
341
217
342
217
343
217
344
217
  0
DIMSTYLE
105
220
330
A
100
AcDbSymbolTableRecord
100
AcDbDimStyleTableRecord
  2
DIMSTYLE_1
 70
     0
 41
2.5
 42
0.75
 44
0.75
 47
0.3
 48
0.3
 73
     0
 74
     0
 77
     1
 78
     8
 79
     2
140
3.0
147
0.75
171
     1
178
     0
179
     2
271
     2
272
     2
278
    44
284
     8
340
11
341
217
342
217
343
217
344
217
  0
DIMSTYLE
105
221
330
A
100
AcDbSymbolTableRecord
100
AcDbDimStyleTableRecord
  2
DIMSTYLE_2
 70
     0
 41
2.5
 42
0.75
 44
0.75
 47
0.1
 48
0.1
 73
     0
 74
     0
 77
     1
 78
     8
 79
     2
140
3.0
147
0.75
171
     1
178
     0
179
     2
271
     2
272
     2
278
    44
284
     8
340
11
341
217
342
217
343
217
344
217
  0
DIMSTYLE
105
222
330
A
100
AcDbSymbolTableRecord
100
AcDbDimStyleTableRecord
  2
DIMSTYLE_3
 70
     0
  3
<>
 41
2.5
 42
0.75
 44
0.75
 47
0.3
 48
0.3
 73
     0
 74
     0
 77
     1
 78
     8
 79
     2
140
3.0
147
0.625
171
     1
172
     1
178
     0
179
     2
271
     2
272
     2
278
    44
284
     8
288
     1
289
     2
340
11
341
217
342
217
343
217
344
217
  0
ENDTAB
  0
TABLE
  2
BLOCK_RECORD
  5
1
330
0
100
AcDbSymbolTable
 70
     8
  0
BLOCK_RECORD
  5
215
330
1
100
AcDbSymbolTableRecord
100
AcDbBlockTableRecord
  2
*Model_Space
340
474
 70
     0
280
     1
281
     0
  0
BLOCK_RECORD
  5
216
330
1
100
AcDbSymbolTableRecord
100
AcDbBlockTableRecord
  2
*Paper_Space
340
475
 70
     0
280
     1
281
     0
  0
BLOCK_RECORD
  5
217
330
1
100
AcDbSymbolTableRecord
100
AcDbBlockTableRecord
  2
_CLOSED
340
0
102
{BLKREFS
331
275
331
276
331
27E
331
27F
331
289
331
28A
331
28F
331
297
331
298
102
}
 70
     0
280
     1
281
     0
  0
BLOCK_RECORD
  5
218
330
1
100
AcDbSymbolTableRecord
100
AcDbBlockTableRecord
  2
*D1
340
0
 70
     0
280
     1
281
     0
  0
BLOCK_RECORD
  5
219
330
1
100
AcDbSymbolTableRecord
100
AcDbBlockTableRecord
  2
*D2
340
0
 70
     0
280
     1
281
     0
  0
BLOCK_RECORD
  5
21A
330
1
100
AcDbSymbolTableRecord
100
AcDbBlockTableRecord
  2
*D3
340
0
 70
     0
280
     1
281
     0
  0
BLOCK_RECORD
  5
21B
330
1
100
AcDbSymbolTableRecord
100
AcDbBlockTableRecord
  2
*D4
340
0
 70
     0
280
     1
281
     0
  0
BLOCK_RECORD
  5
21C
330
1
100
AcDbSymbolTableRecord
100
AcDbBlockTableRecord
  2
*D5
340
0
 70
     0
280
     1
281
     0
  0
BLOCK_RECORD
  5
21D
330
1
100
AcDbSymbolTableRecord
100
AcDbBlockTableRecord
  2
LOGO2_BL1
340
0
102
{BLKREFS
331
462
102
}
 70
     0
280
     1
281
     0
  0
BLOCK_RECORD
  5
21E
330
1
100
AcDbSymbolTableRecord
100
AcDbBlockTableRecord
  2
PROIEZIONE_EU_BL0
340
0
102
{BLKREFS
331
45F
102
}
 70
     0
280
     1
281
     0
  0
ENDTAB
  0
ENDSEC
  0
SECTION
  2
BLOCKS
  0
BLOCK
  5
20
330
215
100
AcDbEntity
  8
0
100
AcDbBlockBegin
  2
*Model_Space
 70
     0
 10
0.0
 20
0.0
 30
0.0
  3
*Model_Space
  1

  0
ENDBLK
  5
21
330
215
100
AcDbEntity
  8
0
100
AcDbBlockEnd
  0
BLOCK
  5
1C
330
216
100
AcDbEntity
 67
     1
  8
0
100
AcDbBlockBegin
  2
*Paper_Space
 70
     0
 10
0.0
 20
0.0
 30
0.0
  3
*Paper_Space
  1

  0
ENDBLK
  5
1D
330
216
100
AcDbEntity
 67
     1
  8
0
100
AcDbBlockEnd
  0
BLOCK
  5
269
330
217
100
AcDbEntity
  8
0
100
AcDbBlockBegin
  2
_CLOSED
 70
     0
 10
0.0
 20
0.0
 30
0.0
  3
_CLOSED
  1

  0
LINE
  5
26A
330
217
100
AcDbEntity
  8
0
  6
ByBlock
 62
     0
100
AcDbLine
 10
0.0
 20
0.0
 30
0.0
 11
-1.0
 21
0.2
 31
0.0
  0
LINE
  5
26B
330
217
100
AcDbEntity
  8
0
  6
ByBlock
 62
     0
100
AcDbLine
 10
-1.0
 20
0.2
 30
0.0
 11
-1.0
 21
-0.2
 31
0.0
  0
LINE
  5
26C
330
217
100
AcDbEntity
  8
0
  6
ByBlock
 62
     0
100
AcDbLine
 10
-1.0
 20
-0.2
 30
0.0
 11
0.0
 21
0.0
 31
0.0
  0
LINE
  5
26D
330
217
100
AcDbEntity
  8
0
  6
ByBlock
 62
     0
100
AcDbLine
 10
-1.0
 20
0.0
 30
0.0
 11
0.0
 21
0.0
 31
0.0
  0
ENDBLK
  5
26E
330
217
100
AcDbEntity
  8
0
  6
ByBlock
 62
     0
100
AcDbBlockEnd
  0
BLOCK
  5
26F
330
218
100
AcDbEntity
  8
0
100
AcDbBlockBegin
  2
*D1
 70
     1
 10
0.0
 20
0.0
 30
0.0
  3
*D1
  1

  0
MTEXT
  5
270
330
218
100
AcDbEntity
  8
0
  6
Continuous
 62
     2
100
AcDbMText
 10
38.1113704823
 20
75.2810353555
 30
0.0
 40
3.0
 41
10.4832713755
 46
0.0
 71
     2
 72
     1
  1
38,46
 11
0.0
 21
1.0
 31
0.0
 73
     1
 44
0.9
  0
LINE
  5
271
330
218
100
AcDbEntity
  8
0
  6
Continuous
 62
     2
100
AcDbLine
 10
79.0523466495
 20
94.5089774578
 30
0.0
 11
41.1113704823
 21
94.5089774578
 31
0.0
  0
LINE
  5
272
330
218
100
AcDbEntity
  8
0
  6
Continuous
 62
     2
100
AcDbLine
 10
61.3829274269
 20
56.0530932533
 30
0.0
 11
41.1113704823
 21
56.0530932533
 31
0.0
  0
LINE
  5
273
330
218
100
AcDbEntity
  8
0
  6
Continuous
 62
     2
100
AcDbLine
 10
41.8613704823
 20
94.5089774578
 30
0.0
 11
41.8613704823
 21
75.2810353555
 31
0.0
  0
LINE
  5
274
330
218
100
AcDbEntity
  8
0
  6
Continuous
 62
     2
100
AcDbLine
 10
41.8613704823
 20
56.0530932533
 30
0.0
 11
41.8613704823
 21
75.2810353555
 31
0.0
  0
INSERT
  5
275
330
218
100
AcDbEntity
  8
0
  6
Continuous
 62
     2
100
AcDbBlockReference
  2
_CLOSED
 10
41.8613704823
 20
94.5089774578
 30
0.0
 41
2.5
 42
2.5
 43
2.5
 50
90.0
  0
INSERT
  5
276
330
218
100
AcDbEntity
  8
0
  6
Continuous
 62
     2
100
AcDbBlockReference
  2
_CLOSED
 10
41.8613704823
 20
56.0530932533
 30
0.0
 41
2.5
 42
2.5
 43
2.5
 50
270.0
  0
ENDBLK
  5
277
330
218
100
AcDbEntity
  8
0
  6
ByBlock
 62
     0
100
AcDbBlockEnd
  0
BLOCK
  5
278
330
219
100
AcDbEntity
  8
0
100
AcDbBlockBegin
  2
*D2
 70
     1
 10
0.0
 20
0.0
 30
0.0
  3
*D2
  1

  0
MTEXT
  5
279
330
219
100
AcDbEntity
  8
0
  6
Continuous
 62
     2
100
AcDbMText
 10
26.8500847304
 20
67.3839774578
 30
0.0
 40
3.0
 41
10.4832713755
 46
0.0
 71
     2
 72
     1
  1
54,25
 11
0.0
 21
1.0
 31
0.0
 73
     1
 44
0.9
  0
LINE
  5
27A
330
219
100
AcDbEntity
  8
0
  6
Continuous
 62
     2
100
AcDbLine
 10
68.7763257091
 20
40.2589774578
 30
0.0
 11
29.8500847304
 21
40.2589774578
 31
0.0
  0
LINE
  5
27B
330
219
100
AcDbEntity
  8
0
  6
Continuous
 62
     2
100
AcDbLine
 10
79.0523466495
 20
94.5089774578
 30
0.0
 11
29.8500847304
 21
94.5089774578
 31
0.0
  0
LINE
  5
27C
330
219
100
AcDbEntity
  8
0
  6
Continuous
 62
     2
100
AcDbLine
 10
30.6000847304
 20
40.2589774578
 30
0.0
 11
30.6000847304
 21
67.3839774578
 31
0.0
  0
LINE
  5
27D
330
219
100
AcDbEntity
  8
0
  6
Continuous
 62
     2
100
AcDbLine
 10
30.6000847304
 20
94.5089774578
 30
0.0
 11
30.6000847304
 21
67.3839774578
 31
0.0
  0
INSERT
  5
27E
330
219
100
AcDbEntity
  8
0
  6
Continuous
 62
     2
100
AcDbBlockReference
  2
_CLOSED
 10
30.6000847304
 20
40.2589774578
 30
0.0
 41
2.5
 42
2.5
 43
2.5
 50
270.0
  0
INSERT
  5
27F
330
219
100
AcDbEntity
  8
0
  6
Continuous
 62
     2
100
AcDbBlockReference
  2
_CLOSED
 10
30.6000847304
 20
94.5089774578
 30
0.0
 41
2.5
 42
2.5
 43
2.5
 50
90.0
  0
ENDBLK
  5
280
330
219
100
AcDbEntity
  8
0
  6
ByBlock
 62
     0
100
AcDbBlockEnd
  0
BLOCK
  5
281
330
21A
100
AcDbEntity
  8
0
100
AcDbBlockBegin
  2
*D3
 70
     1
 10
0.0
 20
0.0
 30
0.0
  3
*D3
  1

  0
MTEXT
  5
282
330
21A
100
AcDbEntity
  8
0
  6
Continuous
 62
     2
100
AcDbMText
 10
116.8859379732
 20
51.5399868477
 30
0.0
 40
3.0
 41
5.8215613383
 46
0.0
 71
     3
 72
     1
  1
1,5
 11
0.0
 21
1.0
 31
0.0
 73
     1
 44
0.9
  0
LINE
  5
283
330
21A
100
AcDbEntity
  8
0
  6
Continuous
 62
     2
100
AcDbLine
 10
113.7763257091
 20
57.5530932533
 30
0.0
 11
121.3859379732
 21
57.5530932533
 31
0.0
  0
LINE
  5
284
330
21A
100
AcDbEntity
  8
0
  6
Continuous
 62
     2
100
AcDbLine
 10
113.6846274485
 20
56.0530932533
 30
0.0
 11
121.3859379732
 21
56.0530932533
 31
0.0
  0
LINE
  5
285
330
21A
100
AcDbEntity
  8
0
  6
Continuous
 62
     2
100
AcDbLine
 10
120.6359379732
 20
57.5530932533
 30
0.0
 11
120.6359379732
 21
58.5530932533
 31
0.0
  0
LINE
  5
286
330
21A
100
AcDbEntity
  8
0
  6
Continuous
 62
     2
100
AcDbLine
 10
120.6359379732
 20
58.5530932533
 30
0.0
 11
120.6359379732
 21
56.8030932533
 31
0.0
  0
LINE
  5
287
330
21A
100
AcDbEntity
  8
0
  6
Continuous
 62
     2
100
AcDbLine
 10
120.6359379732
 20
56.0530932533
 30
0.0
 11
120.6359379732
 21
45.7184255094
 31
0.0
  0
LINE
  5
288
330
21A
100
AcDbEntity
  8
0
  6
Continuous
 62
     2
100
AcDbLine
 10
120.6359379732
 20
45.7184255094
 30
0.0
 11
120.6359379732
 21
56.8030932533
 31
0.0
  0
INSERT
  5
289
330
21A
100
AcDbEntity
  8
0
  6
Continuous
 62
     2
100
AcDbBlockReference
  2
_CLOSED
 10
120.6359379732
 20
57.5530932533
 30
0.0
 41
2.5
 42
2.5
 43
2.5
 50
270.0
  0
INSERT
  5
28A
330
21A
100
AcDbEntity
  8
0
  6
Continuous
 62
     2
100
AcDbBlockReference
  2
_CLOSED
 10
120.6359379732
 20
56.0530932533
 30
0.0
 41
2.5
 42
2.5
 43
2.5
 50
90.0
  0
ENDBLK
  5
28B
330
21A
100
AcDbEntity
  8
0
  6
ByBlock
 62
     0
100
AcDbBlockEnd
  0
BLOCK
  5
28C
330
21B
100
AcDbEntity
  8
0
100
AcDbBlockBegin
  2
*D4
 70
     1
 10
0.0
 20
0.0
 30
0.0
  3
*D4
  1

  0
MTEXT
  5
28D
330
21B
100
AcDbEntity
  8
0
  6
Continuous
 62
     2
100
AcDbMText
 10
60.5544567757
 20
170.9107277891
 30
0.0
 40
3.0
 41
8.6617100372
 46
0.0
 71
     3
 72
     1
  1
{\Fgdt;n}\Farial.ttf;58
  7
TEXTSTYLE_2
 11
0.7533538116
 21
-0.6576154154
 31
0.0
 73
     1
 44
0.9
  0
LINE
  5
28E
330
21B
100
AcDbEntity
  8
0
  6
Continuous
 62
     2
100
AcDbLine
 10
62.1790651728
 20
164.5148385645
 30
0.0
 11
51.5630666966
 21
173.7817250397
 31
0.0
  0
INSERT
  5
28F
330
21B
100
AcDbEntity
  8
0
  6
Continuous
 62
     2
100
AcDbBlockReference
  2
_CLOSED
 10
62.1790651728
 20
164.5148385645
 30
0.0
 41
2.5
 42
2.5
 43
2.5
 50
318.8817366159
  0
ENDBLK
  5
290
330
21B
100
AcDbEntity
  8
0
  6
ByBlock
 62
     0
100
AcDbBlockEnd
  0
BLOCK
  5
291
330
21C
100
AcDbEntity
  8
0
100
AcDbBlockBegin
  2
*D5
 70
     1
 10
0.0
 20
0.0
 30
0.0
  3
*D5
  1

  0
MTEXT
  5
292
330
21C
100
AcDbEntity
  8
0
  6
Continuous
 62
     2
100
AcDbMText
 10
163.3539833952
 20
145.4439915184
 30
0.0
 40
3.0
 41
12.1524163569
 46
0.0
 71
     2
 72
     1
  1
{\Fgdt;n}\Farial.ttf;47,2
  7
TEXTSTYLE_2
 11
0.0
 21
1.0
 31
0.0
 73
     1
 44
0.9
  0
LINE
  5
293
330
21C
100
AcDbEntity
  8
0
  6
Continuous
 62
     2
100
AcDbLine
 10
178.8722843051
 20
169.0439915184
 30
0.0
 11
166.3539833952
 21
169.0439915184
 31
0.0
  0
LINE
  5
294
330
21C
100
AcDbEntity
  8
0
  6
Continuous
 62
     2
100
AcDbLine
 10
178.3014100003
 20
121.8439915184
 30
0.0
 11
166.3539833952
 21
121.8439915184
 31
0.0
  0
LINE
  5
295
330
21C
100
AcDbEntity
  8
0
  6
Continuous
 62
     2
100
AcDbLine
 10
167.1039833952
 20
169.0439915184
 30
0.0
 11
167.1039833952
 21
145.4439915184
 31
0.0
  0
LINE
  5
296
330
21C
100
AcDbEntity
  8
0
  6
Continuous
 62
     2
100
AcDbLine
 10
167.1039833952
 20
121.8439915184
 30
0.0
 11
167.1039833952
 21
145.4439915184
 31
0.0
  0
INSERT
  5
297
330
21C
100
AcDbEntity
  8
0
  6
Continuous
 62
     2
100
AcDbBlockReference
  2
_CLOSED
 10
167.1039833952
 20
169.0439915184
 30
0.0
 41
2.5
 42
2.5
 43
2.5
 50
90.0
  0
INSERT
  5
298
330
21C
100
AcDbEntity
  8
0
  6
Continuous
 62
     2
100
AcDbBlockReference
  2
_CLOSED
 10
167.1039833952
 20
121.8439915184
 30
0.0
 41
2.5
 42
2.5
 43
2.5
 50
270.0
  0
ENDBLK
  5
299
330
21C
100
AcDbEntity
  8
0
  6
ByBlock
 62
     0
100
AcDbBlockEnd
  0
BLOCK
  5
223
330
21D
100
AcDbEntity
  8
0
100
AcDbBlockBegin
  2
LOGO2_BL1
 70
     0
 10
167.8332771924
 20
44.9839440915
 30
0.0
  3
LOGO2_BL1
  1

  0
LINE
  5
224
330
21D
100
AcDbEntity
  8
0
  6
Continuous
 62
     7
100
AcDbLine
 10
159.5762024206
 20
48.1794354304
 30
0.0
 11
158.2718614913
 21
48.1794354304
 31
0.0
  0
LINE
  5
225
330
21D
100
AcDbEntity
  8
0
  6
Continuous
 62
     7
100
AcDbLine
 10
158.2718614913
 20
48.1794354304
 30
0.0
 11
158.2718614913
 21
37.7203693705
 31
0.0
  0
LINE
  5
226
330
21D
100
AcDbEntity
  8
0
  6
Continuous
 62
     7
100
AcDbLine
 10
158.2718614913
 20
37.7203693705
 30
0.0
 11
162.7529163795
 21
37.7203693705
 31
0.0
  0
LINE
  5
227
330
21D
100
AcDbEntity
  8
0
  6
Continuous
 62
     7
100
AcDbLine
 10
162.7529163795
 20
37.7203693705
 30
0.0
 11
162.7529163795
 21
38.9132236956
 31
0.0
  0
LINE
  5
228
330
21D
100
AcDbEntity
  8
0
  6
Continuous
 62
     7
100
AcDbLine
 10
162.7529163795
 20
38.9132236956
 30
0.0
 11
159.5762024206
 21
38.9132236956
 31
0.0
  0
LINE
  5
229
330
21D
100
AcDbEntity
  8
0
  6
Continuous
 62
     7
100
AcDbLine
 10
159.5762024206
 20
38.9132236956
 30
0.0
 11
159.5762024206
 21
48.1794354304
 31
0.0
  0
LINE
  5
22A
330
21D
100
AcDbEntity
  8
0
  6
Continuous
 62
     7
100
AcDbLine
 10
174.5125286369
 20
48.1794354304
 30
0.0
 11
173.2087111188
 21
48.1794354304
 31
0.0
  0
LINE
  5
22B
330
21D
100
AcDbEntity
  8
0
  6
Continuous
 62
     7
100
AcDbLine
 10
173.2087111188
 20
48.1794354304
 30
0.0
 11
173.2087111188
 21
37.7203693705
 31
0.0
  0
LINE
  5
22C
330
21D
100
AcDbEntity
  8
0
  6
Continuous
 62
     7
100
AcDbLine
 10
173.2087111188
 20
37.7203693705
 30
0.0
 11
177.6898968599
 21
37.7203693705
 31
0.0
  0
LINE
  5
22D
330
21D
100
AcDbEntity
  8
0
  6
Continuous
 62
     7
100
AcDbLine
 10
177.6898968599
 20
37.7203693705
 30
0.0
 11
177.6898968599
 21
38.9132236956
 31
0.0
  0
LINE
  5
22E
330
21D
100
AcDbEntity
  8
0
  6
Continuous
 62
     7
100
AcDbLine
 10
177.6898968599
 20
38.9132236956
 30
0.0
 11
174.5125286369
 21
38.9132236956
 31
0.0
  0
LINE
  5
22F
330
21D
100
AcDbEntity
  8
0
  6
Continuous
 62
     7
100
AcDbLine
 10
174.5125286369
 20
38.9132236956
 30
0.0
 11
174.5125286369
 21
48.1794354304
 31
0.0
  0
LWPOLYLINE
  5
230
330
21D
100
AcDbEntity
  8
0
  6
Continuous
 62
     7
100
AcDbPolyline
 90
        2
 70
     0
 43
0.2
 10
156.6262564022
 20
34.3768180636
 10
156.6262564022
 20
32.5197548143
  0
LWPOLYLINE
  5
231
330
21D
100
AcDbEntity
  8
0
  6
Continuous
 62
     7
100
AcDbPolyline
 90
        2
 70
     0
 43
0.2
 10
156.6262564022
 20
32.5197548143
 10
157.4219724126
 20
32.5197548143
  0
LWPOLYLINE
  5
232
330
21D
100
AcDbEntity
  8
0
  6
Continuous
 62
     7
100
AcDbPolyline
 90
        2
 70
     0
 43
0.2
 10
157.4219724126
 20
32.5197548143
 10
157.4219724126
 20
32.7317363858
  0
LWPOLYLINE
  5
233
330
21D
100
AcDbEntity
  8
0
  6
Continuous
 62
     7
100
AcDbPolyline
 90
        2
 70
     0
 43
0.2
 10
157.4219724126
 20
32.7317363858
 10
156.8578658971
 20
32.7317363858
  0
LWPOLYLINE
  5
234
330
21D
100
AcDbEntity
  8
0
  6
Continuous
 62
     7
100
AcDbPolyline
 90
        2
 70
     0
 43
0.2
 10
156.8578658971
 20
32.7317363858
 10
156.8578658971
 20
34.3768180636
  0
LWPOLYLINE
  5
235
330
21D
100
AcDbEntity
  8
0
  6
Continuous
 62
     7
100
AcDbPolyline
 90
        2
 70
     0
 43
0.2
 10
156.8578658971
 20
34.3768180636
 10
156.6262564022
 20
34.3768180636
  0
SPLINE
  5
236
330
21D
100
AcDbEntity
  8
0
  6
Continuous
 62
     7
100
AcDbSpline
 70
     3
 71
     3
 72
    35
 73
    31
 74
     0
 42
0.000000001
 43
0.0000001
 40
0.0
 40
0.0
 40
0.0
 40
0.0
 40
1.0
 40
1.0
 40
1.0
 40
2.0
 40
2.0
 40
2.0
 40
3.0
 40
3.0
 40
3.0
 40
4.0
 40
4.0
 40
4.0
 40
5.0
 40
5.0
 40
5.0
 40
6.0
 40
6.0
 40
6.0
 40
7.0
 40
7.0
 40
7.0
 40
8.0
 40
8.0
 40
8.0
 40
9.0
 40
9.0
 40
9.0
 40
10.0
 40
10.0
 40
10.0
 40
10.0
 10
158.8202656681
 20
33.6723064701
 30
0.0
 10
158.8202656681
 20
33.6723064701
 30
0.0
 10
158.8202656681
 20
33.010191191
 30
0.0
 10
158.8202656681
 20
33.010191191
 30
0.0
 10
158.8202656681
 20
32.6950975957
 30
0.0
 10
158.9681293569
 20
32.4804989677
 30
0.0
 10
159.3082158412
 20
32.4804989677
 30
0.0
 10
159.6477789142
 20
32.4804989677
 30
0.0
 10
159.7959043087
 20
32.6950975957
 30
0.0
 10
159.7959043087
 20
33.010191191
 30
0.0
 10
159.7959043087
 20
33.010191191
 30
0.0
 10
159.7959043087
 20
33.6723064701
 30
0.0
 10
159.7959043087
 20
33.6723064701
 30
0.0
 10
159.7959043087
 20
33.6723064701
 30
0.0
 10
159.5738470698
 20
33.6723064701
 30
0.0
 10
159.5738470698
 20
33.6723064701
 30
0.0
 10
159.5738470698
 20
33.6723064701
 30
0.0
 10
159.5738470698
 20
33.0353149328
 30
0.0
 10
159.5738470698
 20
33.0353149328
 30
0.0
 10
159.5738470698
 20
32.8495039256
 30
0.0
 10
159.5271326124
 20
32.6867230151
 30
0.0
 10
159.3082158412
 20
32.6867230151
 30
0.0
 10
159.0887756588
 20
32.6867230151
 30
0.0
 10
159.0420612014
 20
32.8495039256
 30
0.0
 10
159.0420612014
 20
33.0353149328
 30
0.0
 10
159.0420612014
 20
33.0353149328
 30
0.0
 10
159.0420612014
 20
33.6723064701
 30
0.0
 10
159.0420612014
 20
33.6723064701
 30
0.0
 10
159.0420612014
 20
33.6723064701
 30
0.0
 10
158.8202656681
 20
33.6723064701
 30
0.0
 10
158.8202656681
 20
33.6723064701
 30
0.0
  0
SPLINE
  5
237
330
21D
100
AcDbEntity
  8
0
  6
Continuous
 62
     7
100
AcDbSpline
 70
     3
 71
     3
 72
    35
 73
    31
 74
     0
 42
0.000000001
 43
0.0000001
 40
0.0
 40
0.0
 40
0.0
 40
0.0
 40
1.0
 40
1.0
 40
1.0
 40
2.0
 40
2.0
 40
2.0
 40
3.0
 40
3.0
 40
3.0
 40
4.0
 40
4.0
 40
4.0
 40
5.0
 40
5.0
 40
5.0
 40
6.0
 40
6.0
 40
6.0
 40
7.0
 40
7.0
 40
7.0
 40
8.0
 40
8.0
 40
8.0
 40
9.0
 40
9.0
 40
9.0
 40
10.0
 40
10.0
 40
10.0
 40
10.0
 10
162.2190368659
 20
33.6309569784
 30
0.0
 10
162.1305803583
 20
33.6822512846
 30
0.0
 10
162.0171309616
 20
33.7073750264
 30
0.0
 10
161.9134955266
 20
33.7073750264
 30
0.0
 10
161.5586226734
 20
33.7073750264
 30
0.0
 10
161.2831774832
 20
33.4435757373
 30
0.0
 10
161.2831774832
 20
33.0860858277
 30
0.0
 10
161.2831774832
 20
32.741157789
 30
0.0
 10
161.5616322883
 20
32.481022379
 30
0.0
 10
161.9011953613
 20
32.481022379
 30
0.0
 10
162.0171309616
 20
32.481022379
 30
0.0
 10
162.1178876345
 20
32.503005653
 30
0.0
 10
162.2190368659
 20
32.5569170157
 30
0.0
 10
162.2190368659
 20
32.5569170157
 30
0.0
 10
162.2190368659
 20
32.8395591111
 30
0.0
 10
162.2190368659
 20
32.8395591111
 30
0.0
 10
162.135160207
 20
32.7463919019
 30
0.0
 10
162.0316556248
 20
32.6872464264
 30
0.0
 10
161.9035507121
 20
32.6872464264
 30
0.0
 10
161.6698475721
 20
32.6872464264
 30
0.0
 10
161.504580458
 20
32.8594487401
 30
0.0
 10
161.504580458
 20
33.0960306422
 30
0.0
 10
161.504580458
 20
33.3080122138
 30
0.0
 10
161.6723337757
 20
33.5001041564
 30
0.0
 10
161.8891569017
 20
33.5001041564
 30
0.0
 10
162.021972516
 20
33.5001041564
 30
0.0
 10
162.1305803583
 20
33.4461927938
 30
0.0
 10
162.2190368659
 20
33.3451744152
 30
0.0
 10
162.2190368659
 20
33.3451744152
 30
0.0
 10
162.2190368659
 20
33.6309569784
 30
0.0
 10
162.2190368659
 20
33.6309569784
 30
0.0
  0
SPLINE
  5
238
330
21D
100
AcDbEntity
  8
0
  6
Continuous
 62
     7
100
AcDbSpline
 70
     3
 71
     3
 72
    32
 73
    28
 74
     0
 42
0.000000001
 43
0.0000001
 40
0.0
 40
0.0
 40
0.0
 40
0.0
 40
1.0
 40
1.0
 40
1.0
 40
2.0
 40
2.0
 40
2.0
 40
3.0
 40
3.0
 40
3.0
 40
4.0
 40
4.0
 40
4.0
 40
5.0
 40
5.0
 40
5.0
 40
6.0
 40
6.0
 40
6.0
 40
7.0
 40
7.0
 40
7.0
 40
8.0
 40
8.0
 40
8.0
 40
9.0
 40
9.0
 40
9.0
 40
9.0
 10
164.7509081182
 20
33.0593918521
 30
0.0
 10
164.7509081182
 20
33.0593918521
 30
0.0
 10
164.7509081182
 20
33.0934135858
 30
0.0
 10
164.7509081182
 20
33.0934135858
 30
0.0
 10
164.7509081182
 20
33.435724568
 30
0.0
 10
164.5780515403
 20
33.7073750264
 30
0.0
 10
164.2114019332
 20
33.7073750264
 30
0.0
 10
163.8397799188
 20
33.7073750264
 30
0.0
 10
163.6500433269
 20
33.4409586809
 30
0.0
 10
163.6500433269
 20
33.0860858277
 30
0.0
 10
163.6500433269
 20
32.7463919019
 30
0.0
 10
163.8641185437
 20
32.4804989677
 30
0.0
 10
164.2162434876
 20
32.4804989677
 30
0.0
 10
164.4402635188
 20
32.4804989677
 30
0.0
 10
164.6424311287
 20
32.5961728623
 30
0.0
 10
164.7509081182
 20
32.795592563
 30
0.0
 10
164.7509081182
 20
32.795592563
 30
0.0
 10
164.5632651715
 20
32.9023684657
 30
0.0
 10
164.5632651715
 20
32.9023684657
 30
0.0
 10
164.479781071
 20
32.7636644744
 30
0.0
 10
164.3885766541
 20
32.6778250232
 30
0.0
 10
164.2189913969
 20
32.6778250232
 30
0.0
 10
164.0070098253
 20
32.6778250232
 30
0.0
 10
163.8740633582
 20
32.8625892078
 30
0.0
 10
163.8717080074
 20
33.0593918521
 30
0.0
 10
163.8717080074
 20
33.0593918521
 30
0.0
 10
164.7509081182
 20
33.0593918521
 30
0.0
 10
164.7509081182
 20
33.0593918521
 30
0.0
  0
SPLINE
  5
239
330
21D
100
AcDbEntity
  8
0
  6
Continuous
 62
     7
100
AcDbSpline
 70
     3
 71
     3
 72
    14
 73
    10
 74
     0
 42
0.000000001
 43
0.0000001
 40
0.0
 40
0.0
 40
0.0
 40
0.0
 40
1.0
 40
1.0
 40
1.0
 40
2.0
 40
2.0
 40
2.0
 40
3.0
 40
3.0
 40
3.0
 40
3.0
 10
163.883746467
 20
33.2268834642
 30
0.0
 10
163.9113564124
 20
33.3917580198
 30
0.0
 10
164.0391996195
 20
33.5147596725
 30
0.0
 10
164.2114019332
 20
33.5147596725
 30
0.0
 10
164.3885766541
 20
33.5147596725
 30
0.0
 10
164.5020260508
 20
33.3990857779
 30
0.0
 10
164.5292434377
 20
33.2268834642
 30
0.0
 10
164.5292434377
 20
33.2268834642
 30
0.0
 10
163.883746467
 20
33.2268834642
 30
0.0
 10
163.883746467
 20
33.2268834642
 30
0.0
  0
SPLINE
  5
23A
330
21D
100
AcDbEntity
  8
0
  6
Continuous
 62
     7
100
AcDbSpline
 70
     3
 71
     3
 72
    20
 73
    16
 74
     0
 42
0.000000001
 43
0.0000001
 40
0.0
 40
0.0
 40
0.0
 40
0.0
 40
1.0
 40
1.0
 40
1.0
 40
2.0
 40
2.0
 40
2.0
 40
3.0
 40
3.0
 40
3.0
 40
4.0
 40
4.0
 40
4.0
 40
5.0
 40
5.0
 40
5.0
 40
5.0
 10
166.7749395683
 20
33.4362479793
 30
0.0
 10
166.7749395683
 20
33.4362479793
 30
0.0
 10
167.186079135
 20
32.933773143
 30
0.0
 10
167.186079135
 20
32.933773143
 30
0.0
 10
167.0700126819
 20
32.8180992483
 30
0.0
 10
166.9322246604
 20
32.6877698377
 30
0.0
 10
166.7602840523
 20
32.6877698377
 30
0.0
 10
166.5828476257
 20
32.6877698377
 30
0.0
 10
166.4153560136
 20
32.8521209821
 30
0.0
 10
166.4153560136
 20
33.0290339974
 30
0.0
 10
166.4153560136
 20
33.2069938352
 30
0.0
 10
166.6251130872
 20
33.3331359556
 30
0.0
 10
166.7526945886
 20
33.421069052
 30
0.0
 10
166.7526945886
 20
33.421069052
 30
0.0
 10
166.7749395683
 20
33.4362479793
 30
0.0
 10
166.7749395683
 20
33.4362479793
 30
0.0
  0
SPLINE
  5
23B
330
21D
100
AcDbEntity
  8
0
  6
Continuous
 62
     7
100
AcDbSpline
 70
     3
 71
     3
 72
    23
 73
    19
 74
     0
 42
0.000000001
 43
0.0000001
 40
0.0
 40
0.0
 40
0.0
 40
0.0
 40
1.0
 40
1.0
 40
1.0
 40
2.0
 40
2.0
 40
2.0
 40
3.0
 40
3.0
 40
3.0
 40
4.0
 40
4.0
 40
4.0
 40
5.0
 40
5.0
 40
5.0
 40
6.0
 40
6.0
 40
6.0
 40
6.0
 10
166.8242710822
 20
33.7272646554
 30
0.0
 10
166.8242710822
 20
33.7272646554
 30
0.0
 10
166.7626394031
 20
33.8057763486
 30
0.0
 10
166.7626394031
 20
33.8057763486
 30
0.0
 10
166.7087280404
 20
33.8743432273
 30
0.0
 10
166.6519379157
 20
33.9434335173
 30
0.0
 10
166.6519379157
 20
34.0371241378
 30
0.0
 10
166.6519379157
 20
34.1559385001
 30
0.0
 10
166.7478530342
 20
34.2334033707
 30
0.0
 10
166.8588162272
 20
34.2334033707
 30
0.0
 10
166.9820795855
 20
34.2334033707
 30
0.0
 10
167.0753776476
 20
34.1622194356
 30
0.0
 10
167.0753776476
 20
34.0318900249
 30
0.0
 10
167.0753776476
 20
33.8968499126
 30
0.0
 10
166.9472727349
 20
33.8204318646
 30
0.0
 10
166.8537129672
 20
33.746630873
 30
0.0
 10
166.8537129672
 20
33.746630873
 30
0.0
 10
166.8242710822
 20
33.7272646554
 30
0.0
 10
166.8242710822
 20
33.7272646554
 30
0.0
  0
SPLINE
  5
23C
330
21D
100
AcDbEntity
  8
0
  6
Continuous
 62
     7
100
AcDbSpline
 70
     3
 71
     3
 72
    50
 73
    46
 74
     0
 42
0.000000001
 43
0.0000001
 40
0.0
 40
0.0
 40
0.0
 40
0.0
 40
1.0
 40
1.0
 40
1.0
 40
2.0
 40
2.0
 40
2.0
 40
3.0
 40
3.0
 40
3.0
 40
4.0
 40
4.0
 40
4.0
 40
5.0
 40
5.0
 40
5.0
 40
6.0
 40
6.0
 40
6.0
 40
7.0
 40
7.0
 40
7.0
 40
8.0
 40
8.0
 40
8.0
 40
9.0
 40
9.0
 40
9.0
 40
10.0
 40
10.0
 40
10.0
 40
11.0
 40
11.0
 40
11.0
 40
12.0
 40
12.0
 40
12.0
 40
13.0
 40
13.0
 40
13.0
 40
14.0
 40
14.0
 40
14.0
 40
15.0
 40
15.0
 40
15.0
 40
15.0
 10
167.5264273249
 20
32.5202782255
 30
0.0
 10
167.5264273249
 20
32.5202782255
 30
0.0
 10
167.8118173296
 20
32.5202782255
 30
0.0
 10
167.8118173296
 20
32.5202782255
 30
0.0
 10
167.8118173296
 20
32.5202782255
 30
0.0
 10
167.4794511618
 20
32.9311560865
 30
0.0
 10
167.4794511618
 20
32.9311560865
 30
0.0
 10
167.4794511618
 20
32.9311560865
 30
0.0
 10
167.7059573966
 20
33.1970490208
 30
0.0
 10
167.7059573966
 20
33.1970490208
 30
0.0
 10
167.7059573966
 20
33.1970490208
 30
0.0
 10
167.5577011494
 20
33.3498851168
 30
0.0
 10
167.5577011494
 20
33.3498851168
 30
0.0
 10
167.5577011494
 20
33.3498851168
 30
0.0
 10
167.3417939931
 20
33.0986476986
 30
0.0
 10
167.3417939931
 20
33.0986476986
 30
0.0
 10
167.3417939931
 20
33.0986476986
 30
0.0
 10
166.9547313457
 20
33.56657739
 30
0.0
 10
166.9547313457
 20
33.56657739
 30
0.0
 10
167.1101844982
 20
33.6806810508
 30
0.0
 10
167.2924624792
 20
33.8204318646
 30
0.0
 10
167.2924624792
 20
34.0297963798
 30
0.0
 10
167.2924624792
 20
34.2737060399
 30
0.0
 10
167.0904257221
 20
34.4171207328
 30
0.0
 10
166.8639194873
 20
34.4171207328
 30
0.0
 10
166.6197481215
 20
34.4171207328
 30
0.0
 10
166.4353764953
 20
34.2663782819
 30
0.0
 10
166.4353764953
 20
34.0099067508
 30
0.0
 10
166.4353764953
 20
33.8523599532
 30
0.0
 10
166.5340395231
 20
33.7147027845
 30
0.0
 10
166.6393760448
 20
33.6037395914
 30
0.0
 10
166.6393760448
 20
33.6037395914
 30
0.0
 10
166.523833003
 20
33.5199937854
 30
0.0
 10
166.523833003
 20
33.5199937854
 30
0.0
 10
166.3461348708
 20
33.3917580198
 30
0.0
 10
166.1987945932
 20
33.2640456656
 30
0.0
 10
166.1987945932
 20
33.0269403522
 30
0.0
 10
166.1987945932
 20
32.706612644
 30
0.0
 10
166.4573597694
 20
32.4804989677
 30
0.0
 10
166.7677426631
 20
32.4804989677
 30
0.0
 10
166.9866594343
 20
32.4804989677
 30
0.0
 10
167.183854637
 20
32.6055942655
 30
0.0
 10
167.3241288621
 20
32.7715156437
 30
0.0
 10
167.3241288621
 20
32.7715156437
 30
0.0
 10
167.5264273249
 20
32.5202782255
 30
0.0
 10
167.5264273249
 20
32.5202782255
 30
0.0
  0
LWPOLYLINE
  5
23D
330
21D
100
AcDbEntity
  8
0
  6
Continuous
 62
     7
100
AcDbPolyline
 90
        2
 70
     0
 43
0.2
 10
169.4618714146
 20
34.3768180636
 10
169.2305236254
 20
34.3768180636
  0
LWPOLYLINE
  5
23E
330
21D
100
AcDbEntity
  8
0
  6
Continuous
 62
     7
100
AcDbPolyline
 90
        2
 70
     0
 43
0.2
 10
169.2305236254
 20
34.3768180636
 10
169.2305236254
 20
32.5197548143
  0
LWPOLYLINE
  5
23F
330
21D
100
AcDbEntity
  8
0
  6
Continuous
 62
     7
100
AcDbPolyline
 90
        2
 70
     0
 43
0.2
 10
169.2305236254
 20
32.5197548143
 10
170.0258470773
 20
32.5197548143
  0
LWPOLYLINE
  5
240
330
21D
100
AcDbEntity
  8
0
  6
Continuous
 62
     7
100
AcDbPolyline
 90
        2
 70
     0
 43
0.2
 10
170.0258470773
 20
32.5197548143
 10
170.0258470773
 20
32.7317363858
  0
LWPOLYLINE
  5
241
330
21D
100
AcDbEntity
  8
0
  6
Continuous
 62
     7
100
AcDbPolyline
 90
        2
 70
     0
 43
0.2
 10
170.0258470773
 20
32.7317363858
 10
169.4618714146
 20
32.7317363858
  0
LWPOLYLINE
  5
242
330
21D
100
AcDbEntity
  8
0
  6
Continuous
 62
     7
100
AcDbPolyline
 90
        2
 70
     0
 43
0.2
 10
169.4618714146
 20
32.7317363858
 10
169.4618714146
 20
34.3768180636
  0
LWPOLYLINE
  5
243
330
21D
100
AcDbEntity
  8
0
  6
Continuous
 62
     7
100
AcDbPolyline
 90
        2
 70
     0
 43
0.2
 10
171.7049504888
 20
33.6723064701
 10
171.4838092197
 20
33.6723064701
  0
LWPOLYLINE
  5
244
330
21D
100
AcDbEntity
  8
0
  6
Continuous
 62
     7
100
AcDbPolyline
 90
        2
 70
     0
 43
0.2
 10
171.4838092197
 20
33.6723064701
 10
171.4838092197
 20
32.5202782255
  0
LWPOLYLINE
  5
245
330
21D
100
AcDbEntity
  8
0
  6
Continuous
 62
     7
100
AcDbPolyline
 90
        2
 70
     0
 43
0.2
 10
171.4838092197
 20
32.5202782255
 10
171.7049504888
 20
32.5202782255
  0
LWPOLYLINE
  5
246
330
21D
100
AcDbEntity
  8
0
  6
Continuous
 62
     7
100
AcDbPolyline
 90
        2
 70
     0
 43
0.2
 10
171.7049504888
 20
32.5202782255
 10
171.7049504888
 20
33.6723064701
  0
SPLINE
  5
247
330
21D
100
AcDbEntity
  8
0
  6
Continuous
 62
     7
100
AcDbSpline
 70
     3
 71
     3
 72
    17
 73
    13
 74
     0
 42
0.000000001
 43
0.0000001
 40
0.0
 40
0.0
 40
0.0
 40
0.0
 40
1.0
 40
1.0
 40
1.0
 40
2.0
 40
2.0
 40
2.0
 40
3.0
 40
3.0
 40
3.0
 40
4.0
 40
4.0
 40
4.0
 40
4.0
 10
171.5945107071
 20
34.3548347895
 30
0.0
 10
171.5105031954
 20
34.3548347895
 30
0.0
 10
171.4419363166
 20
34.2857444995
 30
0.0
 10
171.4419363166
 20
34.1999050483
 30
0.0
 10
171.4419363166
 20
34.115635831
 30
0.0
 10
171.5105031954
 20
34.0496860087
 30
0.0
 10
171.5945107071
 20
34.0496860087
 30
0.0
 10
171.6782565131
 20
34.0496860087
 30
0.0
 10
171.7470850975
 20
34.115635831
 30
0.0
 10
171.7470850975
 20
34.1999050483
 30
0.0
 10
171.7470850975
 20
34.2857444995
 30
0.0
 10
171.6782565131
 20
34.3548347895
 30
0.0
 10
171.5945107071
 20
34.3548347895
 30
0.0
  0
SPLINE
  5
248
330
21D
100
AcDbEntity
  8
0
  6
Continuous
 62
     7
100
AcDbSpline
 70
     3
 71
     3
 72
    17
 73
    13
 74
     0
 42
0.000000001
 43
0.0000001
 40
0.0
 40
0.0
 40
0.0
 40
0.0
 40
1.0
 40
1.0
 40
1.0
 40
2.0
 40
2.0
 40
2.0
 40
3.0
 40
3.0
 40
3.0
 40
4.0
 40
4.0
 40
4.0
 40
4.0
 10
173.8352344304
 20
32.6778250232
 30
0.0
 10
173.6012695848
 20
32.6778250232
 30
0.0
 10
173.4709401741
 20
32.8798617803
 30
0.0
 10
173.4709401741
 20
33.0960306422
 30
0.0
 10
173.4709401741
 20
33.3106292702
 30
0.0
 10
173.6067654033
 20
33.5095255596
 30
0.0
 10
173.8352344304
 20
33.5095255596
 30
0.0
 10
174.0746950946
 20
33.5095255596
 30
0.0
 10
174.2102586182
 20
33.3205740847
 30
0.0
 10
174.2102586182
 20
33.0960306422
 30
0.0
 10
174.2102586182
 20
32.8699169658
 30
0.0
 10
174.0770504454
 20
32.6778250232
 30
0.0
 10
173.8352344304
 20
32.6778250232
 30
0.0
  0
SPLINE
  5
249
330
21D
100
AcDbEntity
  8
0
  6
Continuous
 62
     7
100
AcDbSpline
 70
     3
 71
     3
 72
    50
 73
    46
 74
     0
 42
0.000000001
 43
0.0000001
 40
0.0
 40
0.0
 40
0.0
 40
0.0
 40
1.0
 40
1.0
 40
1.0
 40
2.0
 40
2.0
 40
2.0
 40
3.0
 40
3.0
 40
3.0
 40
4.0
 40
4.0
 40
4.0
 40
5.0
 40
5.0
 40
5.0
 40
6.0
 40
6.0
 40
6.0
 40
7.0
 40
7.0
 40
7.0
 40
8.0
 40
8.0
 40
8.0
 40
9.0
 40
9.0
 40
9.0
 40
10.0
 40
10.0
 40
10.0
 40
11.0
 40
11.0
 40
11.0
 40
12.0
 40
12.0
 40
12.0
 40
13.0
 40
13.0
 40
13.0
 40
14.0
 40
14.0
 40
14.0
 40
15.0
 40
15.0
 40
15.0
 40
15.0
 10
174.4193614277
 20
33.6728298814
 30
0.0
 10
174.4193614277
 20
33.6728298814
 30
0.0
 10
174.1976967473
 20
33.6728298814
 30
0.0
 10
174.1976967473
 20
33.6728298814
 30
0.0
 10
174.1976967473
 20
33.6728298814
 30
0.0
 10
174.1976967473
 20
33.4755038259
 30
0.0
 10
174.1976967473
 20
33.4755038259
 30
0.0
 10
174.1976967473
 20
33.4755038259
 30
0.0
 10
174.1929860457
 20
33.4755038259
 30
0.0
 10
174.1929860457
 20
33.4755038259
 30
0.0
 10
174.101650776
 20
33.6183951075
 30
0.0
 10
173.9637319016
 20
33.7068516151
 30
0.0
 10
173.7910061766
 20
33.7068516151
 30
0.0
 10
173.4586400088
 20
33.7068516151
 30
0.0
 10
173.2495371993
 20
33.4189754068
 30
0.0
 10
173.2495371993
 20
33.1033584002
 30
0.0
 10
173.2495371993
 20
32.7736092889
 30
0.0
 10
173.4466015492
 20
32.4804989677
 30
0.0
 10
173.8014744024
 20
32.4804989677
 30
0.0
 10
173.9637319016
 20
32.4804989677
 30
0.0
 10
174.1037444211
 20
32.5689554753
 30
0.0
 10
174.1929860457
 20
32.6998082973
 30
0.0
 10
174.1929860457
 20
32.6998082973
 30
0.0
 10
174.1976967473
 20
32.6998082973
 30
0.0
 10
174.1976967473
 20
32.6998082973
 30
0.0
 10
174.1976967473
 20
32.6998082973
 30
0.0
 10
174.1976967473
 20
32.4804989677
 30
0.0
 10
174.1976967473
 20
32.4804989677
 30
0.0
 10
174.1976967473
 20
32.2439170656
 30
0.0
 10
174.1411683282
 20
32.0570592358
 30
0.0
 10
173.8679476359
 20
32.0570592358
 30
0.0
 10
173.6656491732
 20
32.0570592358
 30
0.0
 10
173.5230195972
 20
32.1753501868
 30
0.0
 10
173.5230195972
 20
32.3815742343
 30
0.0
 10
173.5230195972
 20
32.3815742343
 30
0.0
 10
173.3013549168
 20
32.3815742343
 30
0.0
 10
173.3013549168
 20
32.3815742343
 30
0.0
 10
173.306327324
 20
32.0570592358
 30
0.0
 10
173.5374134076
 20
31.8602565915
 30
0.0
 10
173.8577411158
 20
31.8602565915
 30
0.0
 10
174.3057811782
 20
31.8602565915
 30
0.0
 10
174.4193614277
 20
32.1455157434
 30
0.0
 10
174.4193614277
 20
32.5422614996
 30
0.0
 10
174.4193614277
 20
32.5422614996
 30
0.0
 10
174.4193614277
 20
33.6728298814
 30
0.0
 10
174.4193614277
 20
33.6728298814
 30
0.0
  0
SPLINE
  5
24A
330
21D
100
AcDbEntity
  8
0
  6
Continuous
 62
     7
100
AcDbSpline
 70
     3
 71
     3
 72
    44
 73
    40
 74
     0
 42
0.000000001
 43
0.0000001
 40
0.0
 40
0.0
 40
0.0
 40
0.0
 40
1.0
 40
1.0
 40
1.0
 40
2.0
 40
2.0
 40
2.0
 40
3.0
 40
3.0
 40
3.0
 40
4.0
 40
4.0
 40
4.0
 40
5.0
 40
5.0
 40
5.0
 40
6.0
 40
6.0
 40
6.0
 40
7.0
 40
7.0
 40
7.0
 40
8.0
 40
8.0
 40
8.0
 40
9.0
 40
9.0
 40
9.0
 40
10.0
 40
10.0
 40
10.0
 40
11.0
 40
11.0
 40
11.0
 40
12.0
 40
12.0
 40
12.0
 40
13.0
 40
13.0
 40
13.0
 40
13.0
 10
175.9882867631
 20
34.6578899252
 30
0.0
 10
175.9882867631
 20
34.6578899252
 30
0.0
 10
175.9882867631
 20
32.5197548143
 30
0.0
 10
175.9882867631
 20
32.5197548143
 30
0.0
 10
175.9882867631
 20
32.5197548143
 30
0.0
 10
176.2096897379
 20
32.5197548143
 30
0.0
 10
176.2096897379
 20
32.5197548143
 30
0.0
 10
176.2096897379
 20
32.5197548143
 30
0.0
 10
176.2096897379
 20
33.0494470376
 30
0.0
 10
176.2096897379
 20
33.0494470376
 30
0.0
 10
176.2096897379
 20
33.259334964
 30
0.0
 10
176.2096897379
 20
33.5100489709
 30
0.0
 10
176.4949488897
 20
33.5100489709
 30
0.0
 10
176.721847683
 20
33.5100489709
 30
0.0
 10
176.7488033644
 20
33.3771025038
 30
0.0
 10
176.7488033644
 20
33.1808232708
 30
0.0
 10
176.7488033644
 20
33.1808232708
 30
0.0
 10
176.7488033644
 20
32.5197548143
 30
0.0
 10
176.7488033644
 20
32.5197548143
 30
0.0
 10
176.7488033644
 20
32.5197548143
 30
0.0
 10
176.9707297504
 20
32.5197548143
 30
0.0
 10
176.9707297504
 20
32.5197548143
 30
0.0
 10
176.9707297504
 20
32.5197548143
 30
0.0
 10
176.9707297504
 20
33.2069938352
 30
0.0
 10
176.9707297504
 20
33.2069938352
 30
0.0
 10
176.9707297504
 20
33.4875422855
 30
0.0
 10
176.8867222387
 20
33.7073750264
 30
0.0
 10
176.5616838289
 20
33.7073750264
 30
0.0
 10
176.4219330151
 20
33.7073750264
 30
0.0
 10
176.2837524351
 20
33.6409017929
 30
0.0
 10
176.2144004394
 20
33.5179001402
 30
0.0
 10
176.2144004394
 20
33.5179001402
 30
0.0
 10
176.2096897379
 20
33.5179001402
 30
0.0
 10
176.2096897379
 20
33.5179001402
 30
0.0
 10
176.2096897379
 20
33.5179001402
 30
0.0
 10
176.2096897379
 20
34.6578899252
 30
0.0
 10
176.2096897379
 20
34.6578899252
 30
0.0
 10
176.2096897379
 20
34.6578899252
 30
0.0
 10
175.9882867631
 20
34.6578899252
 30
0.0
 10
175.9882867631
 20
34.6578899252
 30
0.0
  0
LWPOLYLINE
  5
24B
330
21D
100
AcDbEntity
  8
0
  6
Continuous
 62
     7
100
AcDbPolyline
 90
        2
 70
     0
 43
0.2
 10
178.8105204273
 20
33.4655590114
 10
179.0269509948
 20
33.4655590114
  0
LWPOLYLINE
  5
24C
330
21D
100
AcDbEntity
  8
0
  6
Continuous
 62
     7
100
AcDbPolyline
 90
        2
 70
     0
 43
0.2
 10
179.0269509948
 20
33.4655590114
 10
179.0269509948
 20
33.6723064701
  0
LWPOLYLINE
  5
24D
330
21D
100
AcDbEntity
  8
0
  6
Continuous
 62
     7
100
AcDbPolyline
 90
        2
 70
     0
 43
0.2
 10
179.0269509948
 20
33.6723064701
 10
178.8105204273
 20
33.6723064701
  0
LWPOLYLINE
  5
24E
330
21D
100
AcDbEntity
  8
0
  6
Continuous
 62
     7
100
AcDbPolyline
 90
        2
 70
     0
 43
0.2
 10
178.8105204273
 20
33.6723064701
 10
178.8105204273
 20
34.1130187745
  0
LWPOLYLINE
  5
24F
330
21D
100
AcDbEntity
  8
0
  6
Continuous
 62
     7
100
AcDbPolyline
 90
        2
 70
     0
 43
0.2
 10
178.8105204273
 20
34.1130187745
 10
178.5888557469
 20
34.1130187745
  0
LWPOLYLINE
  5
250
330
21D
100
AcDbEntity
  8
0
  6
Continuous
 62
     7
100
AcDbPolyline
 90
        2
 70
     0
 43
0.2
 10
178.5888557469
 20
34.1130187745
 10
178.5888557469
 20
33.6723064701
  0
LWPOLYLINE
  5
251
330
21D
100
AcDbEntity
  8
0
  6
Continuous
 62
     7
100
AcDbPolyline
 90
        2
 70
     0
 43
0.2
 10
178.5888557469
 20
33.6723064701
 10
178.468209445
 20
33.6723064701
  0
LWPOLYLINE
  5
252
330
21D
100
AcDbEntity
  8
0
  6
Continuous
 62
     7
100
AcDbPolyline
 90
        2
 70
     0
 43
0.2
 10
178.468209445
 20
33.6723064701
 10
178.468209445
 20
33.4655590114
  0
LWPOLYLINE
  5
253
330
21D
100
AcDbEntity
  8
0
  6
Continuous
 62
     7
100
AcDbPolyline
 90
        2
 70
     0
 43
0.2
 10
178.468209445
 20
33.4655590114
 10
178.5888557469
 20
33.4655590114
  0
LWPOLYLINE
  5
254
330
21D
100
AcDbEntity
  8
0
  6
Continuous
 62
     7
100
AcDbPolyline
 90
        2
 70
     0
 43
0.2
 10
178.5888557469
 20
33.4655590114
 10
178.5888557469
 20
32.5197548143
  0
LWPOLYLINE
  5
255
330
21D
100
AcDbEntity
  8
0
  6
Continuous
 62
     7
100
AcDbPolyline
 90
        2
 70
     0
 43
0.2
 10
178.5888557469
 20
32.5197548143
 10
178.8105204273
 20
32.5197548143
  0
LWPOLYLINE
  5
256
330
21D
100
AcDbEntity
  8
0
  6
Continuous
 62
     7
100
AcDbPolyline
 90
        2
 70
     0
 43
0.2
 10
178.8105204273
 20
32.5197548143
 10
178.8105204273
 20
33.4655590114
  0
SPLINE
  5
257
330
21D
100
AcDbEntity
  8
0
  6
Continuous
 62
     7
100
AcDbSpline
 70
     3
 71
     3
 72
    20
 73
    16
 74
     0
 42
0.000000001
 43
0.0000001
 40
0.0
 40
0.0
 40
0.0
 40
0.0
 40
1.0
 40
1.0
 40
1.0
 40
2.0
 40
2.0
 40
2.0
 40
3.0
 40
3.0
 40
3.0
 40
4.0
 40
4.0
 40
4.0
 40
5.0
 40
5.0
 40
5.0
 40
5.0
 10
166.5925307345
 20
42.8806812576
 30
0.0
 10
166.5925307345
 20
42.8806812576
 30
0.0
 10
168.908887389
 20
40.0511198354
 30
0.0
 10
168.908887389
 20
40.0511198354
 30
0.0
 10
168.2572403356
 20
39.3989493707
 30
0.0
 10
167.4803671316
 20
38.6630331
 30
0.0
 10
166.5091774869
 20
38.6630331
 30
0.0
 10
165.5106396025
 20
38.6630331
 30
0.0
 10
164.5673216089
 20
39.5926115472
 30
0.0
 10
164.5673216089
 20
40.5918036958
 30
0.0
 10
164.5673216089
 20
41.5909958443
 30
0.0
 10
165.746174682
 20
42.297601083
 30
0.0
 10
166.4676971424
 20
42.7974588629
 30
0.0
 10
166.4676971424
 20
42.7974588629
 30
0.0
 10
166.5925307345
 20
42.8806812576
 30
0.0
 10
166.5925307345
 20
42.8806812576
 30
0.0
  0
SPLINE
  5
258
330
21D
100
AcDbEntity
  8
0
  6
Continuous
 62
     7
100
AcDbSpline
 70
     3
 71
     3
 72
    23
 73
    19
 74
     0
 42
0.000000001
 43
0.0000001
 40
0.0
 40
0.0
 40
0.0
 40
0.0
 40
1.0
 40
1.0
 40
1.0
 40
2.0
 40
2.0
 40
2.0
 40
3.0
 40
3.0
 40
3.0
 40
4.0
 40
4.0
 40
4.0
 40
5.0
 40
5.0
 40
5.0
 40
6.0
 40
6.0
 40
6.0
 40
6.0
 10
166.8699387171
 20
44.5184351774
 30
0.0
 10
166.8699387171
 20
44.5184351774
 30
0.0
 10
166.5234404445
 20
44.9617645382
 30
0.0
 10
166.5234404445
 20
44.9617645382
 30
0.0
 10
166.2176373996
 20
45.3498740082
 30
0.0
 10
165.8987490725
 20
45.7383760366
 30
0.0
 10
165.8987490725
 20
46.2653203507
 30
0.0
 10
165.8987490725
 20
46.9314920673
 30
0.0
 10
166.4400871969
 20
47.3752139866
 30
0.0
 10
167.0639934521
 20
47.3752139866
 30
0.0
 10
167.7577751141
 20
47.3752139866
 30
0.0
 10
168.2849811339
 20
46.9729724119
 30
0.0
 10
168.2849811339
 20
46.2379721109
 30
0.0
 10
168.2849811339
 20
45.4747076003
 30
0.0
 10
167.5637203792
 20
45.0445943745
 30
0.0
 10
167.0366452123
 20
44.6288749591
 30
0.0
 10
167.0366452123
 20
44.6288749591
 30
0.0
 10
166.8699387171
 20
44.5184351774
 30
0.0
 10
166.8699387171
 20
44.5184351774
 30
0.0
  0
SPLINE
  5
259
330
21D
100
AcDbEntity
  8
0
  6
Continuous
 62
     7
100
AcDbSpline
 70
     3
 71
     3
 72
    50
 73
    46
 74
     0
 42
0.000000001
 43
0.0000001
 40
0.0
 40
0.0
 40
0.0
 40
0.0
 40
1.0
 40
1.0
 40
1.0
 40
2.0
 40
2.0
 40
2.0
 40
3.0
 40
3.0
 40
3.0
 40
4.0
 40
4.0
 40
4.0
 40
5.0
 40
5.0
 40
5.0
 40
6.0
 40
6.0
 40
6.0
 40
7.0
 40
7.0
 40
7.0
 40
8.0
 40
8.0
 40
8.0
 40
9.0
 40
9.0
 40
9.0
 40
10.0
 40
10.0
 40
10.0
 40
11.0
 40
11.0
 40
11.0
 40
12.0
 40
12.0
 40
12.0
 40
13.0
 40
13.0
 40
13.0
 40
14.0
 40
14.0
 40
14.0
 40
15.0
 40
15.0
 40
15.0
 40
15.0
 10
170.82352588
 20
37.7198459592
 30
0.0
 10
170.82352588
 20
37.7198459592
 30
0.0
 10
172.4327538846
 20
37.7198459592
 30
0.0
 10
172.4327538846
 20
37.7198459592
 30
0.0
 10
172.4327538846
 20
37.7198459592
 30
0.0
 10
170.5597265909
 20
40.0369877306
 30
0.0
 10
170.5597265909
 20
40.0369877306
 30
0.0
 10
170.5597265909
 20
40.0369877306
 30
0.0
 10
171.8360650164
 20
41.5344674252
 30
0.0
 10
171.8360650164
 20
41.5344674252
 30
0.0
 10
171.8360650164
 20
41.5344674252
 30
0.0
 10
171.0038410687
 20
42.3954789938
 30
0.0
 10
171.0038410687
 20
42.3954789938
 30
0.0
 10
171.0038410687
 20
42.3954789938
 30
0.0
 10
169.7832459454
 20
40.9801748714
 30
0.0
 10
169.7832459454
 20
40.9801748714
 30
0.0
 10
169.7832459454
 20
40.9801748714
 30
0.0
 10
167.6053315766
 20
43.6155507058
 30
0.0
 10
167.6053315766
 20
43.6155507058
 30
0.0
 10
168.478905016
 20
44.2535890657
 30
0.0
 10
169.5055762572
 20
45.0445943745
 30
0.0
 10
169.5055762572
 20
46.2234474476
 30
0.0
 10
169.5055762572
 20
47.5971403726
 30
0.0
 10
168.3676801173
 20
48.4016235221
 30
0.0
 10
167.0923885144
 20
48.4016235221
 30
0.0
 10
165.7189572951
 20
48.4016235221
 30
0.0
 10
164.6780230963
 20
47.5553983224
 30
0.0
 10
164.6780230963
 20
46.1127459602
 30
0.0
 10
164.6780230963
 20
45.2251712688
 30
0.0
 10
165.2333624727
 20
44.4482980648
 30
0.0
 10
165.8295279296
 20
43.8238683984
 30
0.0
 10
165.8295279296
 20
43.8238683984
 30
0.0
 10
165.1776191706
 20
43.352274828
 30
0.0
 10
165.1776191706
 20
43.352274828
 30
0.0
 10
164.1790812862
 20
42.6310140733
 30
0.0
 10
163.3462030743
 20
41.9097533186
 30
0.0
 10
163.3462030743
 20
40.5781950023
 30
0.0
 10
163.3462030743
 20
38.7745197043
 30
0.0
 10
164.8032492469
 20
37.4979195732
 30
0.0
 10
166.5507886843
 20
37.4979195732
 30
0.0
 10
167.7856467652
 20
37.4979195732
 30
0.0
 10
168.8950169899
 20
38.2060950457
 30
0.0
 10
169.6858914458
 20
39.1346266704
 30
0.0
 10
169.6858914458
 20
39.1346266704
 30
0.0
 10
170.82352588
 20
37.7198459592
 30
0.0
 10
170.82352588
 20
37.7198459592
 30
0.0
  0
LINE
  5
25A
330
21D
100
AcDbEntity
  8
0
  6
Continuous
 62
     7
100
AcDbLine
 10
156.626387255
 20
35.6937208639
 30
0.0
 11
179.0402979827
 21
35.6937208639
 31
0.0
  0
LINE
  5
25B
330
21D
100
AcDbEntity
  8
0
  6
Continuous
 62
     7
100
AcDbLine
 10
179.0402979827
 20
35.6937208639
 30
0.0
 11
179.0402979827
 21
58.1076315915
 31
0.0
  0
LINE
  5
25C
330
21D
100
AcDbEntity
  8
0
  6
Continuous
 62
     7
100
AcDbLine
 10
179.0402979827
 20
58.1076315915
 30
0.0
 11
156.626387255
 21
58.1076315915
 31
0.0
  0
LINE
  5
25D
330
21D
100
AcDbEntity
  8
0
  6
Continuous
 62
     7
100
AcDbLine
 10
156.626387255
 20
58.1076315915
 30
0.0
 11
156.626387255
 21
35.6937208639
 31
0.0
  0
ENDBLK
  5
25E
330
21D
100
AcDbEntity
  8
0
  6
ByBlock
 62
     0
100
AcDbBlockEnd
  0
BLOCK
  5
25F
330
21E
100
AcDbEntity
  8
0
100
AcDbBlockBegin
  2
PROIEZIONE_EU_BL0
 70
     0
 10
169.0072301476
 20
70.6089440915
 30
0.0
  3
PROIEZIONE_EU_BL0
  1

  0
LWPOLYLINE
  5
260
330
21E
100
AcDbEntity
  8
DEFAULT_1
  6
CENTER
 62
     7
100
AcDbPolyline
 90
        2
 70
     0
 43
0.25
 10
175.1338508093
 20
75.6086382234
 10
175.1338917917
 20
65.6092499597
  0
LWPOLYLINE
  5
261
330
21E
100
AcDbEntity
  8
DEFAULT_1
  6
CENTER
 62
     7
100
AcDbPolyline
 90
        2
 70
     0
 43
0.25
 10
181.1338806344
 20
70.6092152267
 10
156.8805796609
 20
70.6089445663
  0
LWPOLYLINE
  5
262
330
21E
100
AcDbEntity
  8
0
  6
Continuous
 62
     7
100
AcDbPolyline
 90
        2
 70
     1
 43
0.25
 10
171.5867406335
 20
70.5903963373
 42
1.0
 10
178.6930697321
 20
70.5903963373
 42
1.0
  0
LWPOLYLINE
  5
263
330
21E
100
AcDbEntity
  8
0
  6
Continuous
 62
     7
100
AcDbPolyline
 90
        2
 70
     1
 43
0.25
 10
173.1364844619
 20
70.6082943819
 42
1.0
 10
177.1482362119
 20
70.6082943819
 42
1.0
  0
LWPOLYLINE
  5
264
330
21E
100
AcDbEntity
  8
0
  6
Continuous
 62
     7
100
AcDbPolyline
 90
        2
 70
     0
 43
0.25
 10
169.1338784284
 20
74.1841475868
 10
169.1338780738
 20
67.0839446785
  0
LWPOLYLINE
  5
265
330
21E
100
AcDbEntity
  8
0
  6
Continuous
 62
     7
100
AcDbPolyline
 90
        2
 70
     0
 43
0.25
 10
169.1339065102
 20
67.0839162421
 10
159.139349239
 20
68.6040096549
  0
LWPOLYLINE
  5
266
330
21E
100
AcDbEntity
  8
0
  6
Continuous
 62
     7
100
AcDbPolyline
 90
        2
 70
     0
 43
0.25
 10
159.1370392534
 20
68.6033321134
 10
159.1343723493
 20
72.6089707248
  0
LWPOLYLINE
  5
267
330
21E
100
AcDbEntity
  8
0
  6
Continuous
 62
     7
100
AcDbPolyline
 90
        2
 70
     0
 43
0.25
 10
159.1343640732
 20
72.6089624487
 10
169.1341073105
 20
74.1841196688
  0
ENDBLK
  5
268
330
21E
100
AcDbEntity
  8
0
  6
ByBlock
 62
     0
100
AcDbBlockEnd
  0
ENDSEC
  0
SECTION
  2
ENTITIES
  0
LWPOLYLINE
  5
29A
330
216
100
AcDbEntity
 67
     1
  8
0
  6
Continuous
 62
     7
100
AcDbPolyline
 90
        2
 70
     0
 43
0.5
 10
284.0
 20
13.0
 10
284.0
 20
197.0
  0
LWPOLYLINE
  5
29B
330
216
100
AcDbEntity
 67
     1
  8
0
  6
Continuous
 62
     7
100
AcDbPolyline
 90
        2
 70
     0
 43
0.5
 10
13.0
 20
13.0
 10
13.0
 20
197.0
  0
LWPOLYLINE
  5
29C
330
216
100
AcDbEntity
 67
     1
  8
0
  6
Continuous
 62
     7
100
AcDbPolyline
 90
        2
 70
     0
 43
0.5
 10
13.0
 20
13.0
 10
284.0
 20
13.0
  0
LWPOLYLINE
  5
29D
330
216
100
AcDbEntity
 67
     1
  8
0
  6
Continuous
 62
     7
100
AcDbPolyline
 90
        2
 70
     0
 43
0.1
 10
148.5
 20
197.0
 10
148.5
 20
200.0
  0
LWPOLYLINE
  5
29E
330
216
100
AcDbEntity
 67
     1
  8
0
  6
Continuous
 62
     7
100
AcDbPolyline
 90
        2
 70
     0
 43
0.1
 10
284.0
 20
105.0
 10
287.0
 20
105.0
  0
LWPOLYLINE
  5
29F
330
216
100
AcDbEntity
 67
     1
  8
0
  6
Continuous
 62
     7
100
AcDbPolyline
 90
        2
 70
     0
 43
0.1
 10
13.0
 20
105.0
 10
10.0
 20
105.0
  0
LWPOLYLINE
  5
2A0
330
216
100
AcDbEntity
 67
     1
  8
0
  6
Continuous
 62
     7
100
AcDbPolyline
 90
        2
 70
     0
 43
0.5
 10
13.0
 20
197.0
 10
284.0
 20
197.0
  0
LWPOLYLINE
  5
2A1
330
216
100
AcDbEntity
 67
     1
  8
0
  6
Continuous
 62
     7
100
AcDbPolyline
 90
        2
 70
     0
 43
0.1
 10
10.0
 20
200.0
 10
287.0
 20
200.0
  0
LWPOLYLINE
  5
2A2
330
216
100
AcDbEntity
 67
     1
  8
0
  6
Continuous
 62
     7
100
AcDbPolyline
 90
        2
 70
     0
 43
0.1
 10
10.0
 20
10.0
 10
10.0
 20
200.0
  0
LWPOLYLINE
  5
2A3
330
216
100
AcDbEntity
 67
     1
  8
0
  6
Continuous
 62
     7
100
AcDbPolyline
 90
        2
 70
     0
 43
0.1
 10
287.0
 20
10.0
 10
287.0
 20
200.0
  0
LWPOLYLINE
  5
2A4
330
216
100
AcDbEntity
 67
     1
  8
0
  6
Continuous
 62
     7
100
AcDbPolyline
 90
        2
 70
     0
 43
0.1
 10
10.0
 20
10.0
 10
287.0
 20
10.0
  0
LWPOLYLINE
  5
2A5
330
216
100
AcDbEntity
 67
     1
  8
0
  6
Continuous
 62
     7
100
AcDbPolyline
 90
        2
 70
     0
 43
0.1
 10
148.5
 20
13.0
 10
148.5
 20
10.0
  0
VIEWPORT
  5
2A6
330
216
100
AcDbEntity
 67
     1
  8
0
100
AcDbViewport
 10
148.5
 20
105.0
 30
0.0
 40
297.0
 41
210.0
 68
     1
 69
     1
 12
148.5
 22
105.0
 13
0.0
 23
0.0
 14
10.0
 24
10.0
 15
10.0
 25
10.0
 16
0.0
 26
0.0
 36
1.0
 17
0.0
 27
0.0
 37
0.0
 42
50.0
 43
0.0
 44
0.0
 45
210.0
 50
0.0
 51
0.0
 72
   100
 90
    32864
  1

281
     0
 71
     1
 74
     0
110
0.0
120
0.0
130
0.0
111
1.0
121
0.0
131
0.0
112
0.0
122
1.0
132
0.0
 79
     0
146
0.0
170
     0
 61
     5
348
49D
292
     1
282
     1
141
0.0
142
0.0
 63
   256
  0
LINE
  5
2A7
330
216
100
AcDbEntity
 67
     1
  8
3_ALL_AXES
  6
Continuous
 62
     7
100
AcDbLine
 10
60.3263257091
 20
78.6530932533
 30
0.0
 11
60.4765715909
 21
78.6530932533
 31
0.0
  0
LINE
  5
2A8
330
216
100
AcDbEntity
 67
     1
  8
3_ALL_AXES
  6
Continuous
 62
     7
100
AcDbLine
 10
60.3263257091
 20
73.8530932533
 30
0.0
 11
60.4765714123
 21
73.8530932533
 31
0.0
  0
LINE
  5
2A9
330
216
100
AcDbEntity
 67
     1
  8
3_ALL_AXES
  6
Continuous
 62
     7
100
AcDbLine
 10
60.3263257091
 20
78.6530932533
 30
0.0
 11
60.3263257091
 21
77.4077937917
 31
0.0
  0
LINE
  5
2AA
330
216
100
AcDbEntity
 67
     1
  8
3_ALL_AXES
  6
Continuous
 62
     7
100
AcDbLine
 10
60.3263257091
 20
77.4077937917
 30
0.0
 11
60.3263257091
 21
76.8304435225
 31
0.0
  0
LINE
  5
2AB
330
216
100
AcDbEntity
 67
     1
  8
3_ALL_AXES
  6
Continuous
 62
     7
100
AcDbLine
 10
60.3263257091
 20
76.8304435225
 30
0.0
 11
60.3263257091
 21
75.6757429841
 31
0.0
  0
LINE
  5
2AC
330
216
100
AcDbEntity
 67
     1
  8
3_ALL_AXES
  6
Continuous
 62
     7
100
AcDbLine
 10
60.3263257091
 20
75.6757429841
 30
0.0
 11
60.3263257091
 21
75.0983927149
 31
0.0
  0
LINE
  5
2AD
330
216
100
AcDbEntity
 67
     1
  8
3_ALL_AXES
  6
Continuous
 62
     7
100
AcDbLine
 10
60.3263257091
 20
75.0983927149
 30
0.0
 11
60.3263257091
 21
73.8530932533
 31
0.0
  0
LINE
  5
2AE
330
216
100
AcDbEntity
 67
     1
  8
3_ALL_AXES
  6
Continuous
 62
     7
100
AcDbLine
 10
107.7263257091
 20
78.6530932533
 30
0.0
 11
107.7263257091
 21
77.4077937917
 31
0.0
  0
LINE
  5
2AF
330
216
100
AcDbEntity
 67
     1
  8
3_ALL_AXES
  6
Continuous
 62
     7
100
AcDbLine
 10
107.7263257091
 20
77.4077937917
 30
0.0
 11
107.7263257091
 21
76.8304435225
 31
0.0
  0
LINE
  5
2B0
330
216
100
AcDbEntity
 67
     1
  8
3_ALL_AXES
  6
Continuous
 62
     7
100
AcDbLine
 10
107.7263257091
 20
76.8304435225
 30
0.0
 11
107.7263257091
 21
75.6757429841
 31
0.0
  0
LINE
  5
2B1
330
216
100
AcDbEntity
 67
     1
  8
3_ALL_AXES
  6
Continuous
 62
     7
100
AcDbLine
 10
107.7263257091
 20
75.6757429841
 30
0.0
 11
107.7263257091
 21
75.0983927149
 31
0.0
  0
LINE
  5
2B2
330
216
100
AcDbEntity
 67
     1
  8
3_ALL_AXES
  6
Continuous
 62
     7
100
AcDbLine
 10
107.7263257091
 20
75.0983927149
 30
0.0
 11
107.7263257091
 21
73.8530932533
 31
0.0
  0
LINE
  5
2B3
330
216
100
AcDbEntity
 67
     1
  8
3_ALL_AXES
  6
Continuous
 62
     7
100
AcDbLine
 10
107.7263257091
 20
78.6530932533
 30
0.0
 11
107.5760800068
 21
78.6530932533
 31
0.0
  0
LINE
  5
2B4
330
216
100
AcDbEntity
 67
     1
  8
3_ALL_AXES
  6
Continuous
 62
     7
100
AcDbLine
 10
107.7263257091
 20
73.8530932533
 30
0.0
 11
107.5760798275
 21
73.8530932533
 31
0.0
  0
SPLINE
  5
2B5
330
216
100
AcDbEntity
 67
     1
  8
7_ALL_FEATURES
  6
Continuous
 62
     7
100
AcDbSpline
 70
     0
 71
     3
 72
    41
 73
    37
 74
     0
 42
0.000000001
 43
0.0000001
 40
0.0
 40
0.0
 40
0.0
 40
0.0
 40
0.0027735576
 40
0.0060071964
 40
0.0099987704
 40
0.0149064408
 40
0.020808528
 40
0.027740715
 40
0.0357184199
 40
0.0447449274
 40
0.0658998492
 40
0.0910788031
 40
0.1200794167
 40
0.1526527573
 40
0.1885012475
 40
0.2272967831
 40
0.3122458101
 40
0.40430803
 40
0.499999693
 40
0.595691301
 40
0.6877534697
 40
0.7727025534
 40
0.8114982199
 40
0.8473467488
 40
0.8799197318
 40
0.908920911
 40
0.9340991718
 40
0.9552548371
 40
0.9642807333
 40
0.972258547
 40
0.9791913465
 40
0.9850932642
 40
0.9899998805
 40
0.9939910094
 40
0.997224713
 40
1.0
 40
1.0
 40
1.0
 40
1.0
 10
89.2418491263
 20
88.7089774578
 30
0.0
 10
89.2473155337
 20
88.7089774578
 30
0.0
 10
89.2592284403
 20
88.7118285703
 30
0.0
 10
89.2755821466
 20
88.7233275687
 30
0.0
 10
89.2914392387
 20
88.7414093438
 30
0.0
 10
89.3070575907
 20
88.7661409349
 30
0.0
 10
89.3225161542
 20
88.7975550344
 30
0.0
 10
89.3378082619
 20
88.8356467553
 30
0.0
 10
89.3529008837
 20
88.8803635837
 30
0.0
 10
89.3738152156
 20
88.9526239009
 30
0.0
 10
89.3985280081
 20
89.0589690345
 30
0.0
 10
89.4255290323
 20
89.2050003903
 30
0.0
 10
89.4508931134
 20
89.3741176753
 30
0.0
 10
89.4743430342
 20
89.5647074378
 30
0.0
 10
89.4956378327
 20
89.774960619
 30
0.0
 10
89.5216306514
 20
90.0884406749
 30
0.0
 10
89.5465787828
 20
90.5131063617
 30
0.0
 10
89.5645806023
 20
91.0503214485
 30
0.0
 10
89.5706607332
 20
91.6089773331
 30
0.0
 10
89.5645802855
 20
92.1676331107
 30
0.0
 10
89.5465785207
 20
92.7048481009
 30
0.0
 10
89.5216303097
 20
93.1295140532
 30
0.0
 10
89.4956378938
 20
93.4429945792
 30
0.0
 10
89.4743434827
 20
93.6532474521
 30
0.0
 10
89.4508921172
 20
93.8438374821
 30
0.0
 10
89.4255302127
 20
94.0129542048
 30
0.0
 10
89.3985258656
 20
94.1589860488
 30
0.0
 10
89.3738184732
 20
94.2653313999
 30
0.0
 10
89.352900371
 20
94.3375911794
 30
0.0
 10
89.3378055064
 20
94.3823074502
 30
0.0
 10
89.3225134304
 20
94.420400283
 30
0.0
 10
89.3070565171
 20
94.4518139228
 30
0.0
 10
89.291440301
 20
94.4765427987
 30
0.0
 10
89.2755917982
 20
94.4946273322
 30
0.0
 10
89.2592378699
 20
94.5061335448
 30
0.0
 10
89.2473189423
 20
94.5089778512
 30
0.0
 10
89.2418491267
 20
94.5089760926
 30
0.0
  0
LINE
  5
2B6
330
216
100
AcDbEntity
 67
     1
  8
7_ALL_FEATURES
  6
Continuous
 62
     7
100
AcDbLine
 10
78.7073144585
 20
88.7089774578
 30
0.0
 11
78.7073144585
 21
90.0089774578
 31
0.0
  0
LINE
  5
2B7
330
216
100
AcDbEntity
 67
     1
  8
7_ALL_FEATURES
  6
Continuous
 62
     7
100
AcDbLine
 10
78.707331186
 20
90.1089774578
 30
0.0
 11
78.7375632201
 21
90.1089774578
 31
0.0
  0
LINE
  5
2B8
330
216
100
AcDbEntity
 67
     1
  8
7_ALL_FEATURES
  6
Continuous
 62
     7
100
AcDbLine
 10
79.3722567423
 20
91.4089774578
 30
0.0
 11
78.7375632201
 21
91.4089774578
 31
0.0
  0
SPLINE
  5
2B9
330
216
100
AcDbEntity
 67
     1
  8
7_ALL_FEATURES
  6
Continuous
 62
     7
100
AcDbSpline
 70
     0
 71
     3
 72
    17
 73
    13
 74
     0
 42
0.000000001
 43
0.0000001
 40
0.0
 40
0.0
 40
0.0
 40
0.0
 40
0.3883675526
 40
0.5577565955
 40
0.7041308331
 40
0.7673795134
 40
0.8234388116
 40
0.8719588202
 40
0.9126805758
 40
0.9455006693
 40
0.9704945936
 40
1.0
 40
1.0
 40
1.0
 40
1.0
 10
79.4825362057
 20
92.2038492526
 30
0.0
 10
79.4800503819
 20
92.0985850608
 30
0.0
 10
79.4737858856
 20
91.9474260493
 30
0.0
 10
79.4583944446
 20
91.7571253683
 30
0.0
 10
79.4468194555
 20
91.6549941937
 30
0.0
 10
79.4361305919
 20
91.5837468941
 30
0.0
 10
79.428084788
 20
91.5389687242
 30
0.0
 10
79.4196344774
 20
91.5004353858
 30
0.0
 10
79.411006626
 20
91.4685980221
 30
0.0
 10
79.4018483851
 20
91.4430874952
 30
0.0
 10
79.392068356
 20
91.422604614
 30
0.0
 10
79.3802561971
 20
91.4089774578
 30
0.0
 10
79.3722567423
 20
91.4089774578
 30
0.0
  0
LINE
  5
2BA
330
216
100
AcDbEntity
 67
     1
  8
7_ALL_FEATURES
  6
Continuous
 62
     7
100
AcDbLine
 10
79.8023466495
 20
90.0089774578
 30
0.0
 11
78.7375632201
 21
90.0089774578
 31
0.0
  0
LINE
  5
2BB
330
216
100
AcDbEntity
 67
     1
  8
7_ALL_FEATURES
  6
Continuous
 62
     7
100
AcDbLine
 10
78.7375632201
 20
90.1089774578
 30
0.0
 11
79.5148584853
 21
90.1089774578
 31
0.0
  0
LINE
  5
2BC
330
216
100
AcDbEntity
 67
     1
  8
7_ALL_FEATURES
  6
Continuous
 62
     7
100
AcDbLine
 10
78.7073144585
 20
90.1089774578
 30
0.0
 11
78.7073144585
 21
91.4089774578
 31
0.0
  0
LINE
  5
2BD
330
216
100
AcDbEntity
 67
     1
  8
7_ALL_FEATURES
  6
Continuous
 62
     7
100
AcDbLine
 10
78.7375632201
 20
91.4089774578
 30
0.0
 11
78.707331186
 21
91.4089774578
 31
0.0
  0
SPLINE
  5
2BE
330
216
100
AcDbEntity
 67
     1
  8
7_ALL_FEATURES
  6
Continuous
 62
     7
100
AcDbSpline
 70
     0
 71
     3
 72
    38
 73
    34
 74
     0
 42
0.000000001
 43
0.0000001
 40
0.0
 40
0.0
 40
0.0
 40
0.0
 40
0.0027750165
 40
0.006008265
 40
0.0100008218
 40
0.0149083657
 40
0.020808543
 40
0.0277406338
 40
0.0447430899
 40
0.065896714
 40
0.0910774444
 40
0.1200776261
 40
0.1526523568
 40
0.1885008363
 40
0.2272977148
 40
0.312248279
 40
0.4043120712
 40
0.5000053114
 40
0.5956986526
 40
0.6877627316
 40
0.7727137222
 40
0.8115091744
 40
0.8473595627
 40
0.8799319044
 40
0.9089349453
 40
0.9341125421
 40
0.955269576
 40
0.9722682386
 40
0.9850947258
 40
0.990001787
 40
0.9939935871
 40
0.9972273034
 40
1.0
 40
1.0
 40
1.0
 40
1.0
 10
79.8023466518
 20
93.2089710827
 30
0.0
 10
79.805364127
 20
93.2089722603
 30
0.0
 10
79.8119402348
 20
93.2074096941
 30
0.0
 10
79.8209660392
 20
93.2010621914
 30
0.0
 10
79.8297058779
 20
93.1910784482
 30
0.0
 10
79.838320401
 20
93.1774342885
 30
0.0
 10
79.8468538667
 20
93.1601074205
 30
0.0
 10
79.8589374943
 20
93.1299761707
 30
0.0
 10
79.8731684968
 20
93.0829804757
 30
0.0
 10
79.8887997572
 20
93.0158844342
 30
0.0
 10
79.9036828242
 20
92.9353062233
 30
0.0
 10
79.9176831598
 20
92.8420028401
 30
0.0
 10
79.9306177922
 20
92.73684958
 30
0.0
 10
79.9423687471
 20
92.6208476989
 30
0.0
 10
79.95670761
 20
92.4478932037
 30
0.0
 10
79.9704730654
 20
92.2135948577
 30
0.0
 10
79.980404613
 20
91.917201045
 30
0.0
 10
79.9837593131
 20
91.6089779296
 30
0.0
 10
79.980404986
 20
91.3007544587
 30
0.0
 10
79.9704726812
 20
91.004359872
 30
0.0
 10
79.9567100879
 20
90.7700619651
 30
0.0
 10
79.9423663624
 20
90.5971070715
 30
0.0
 10
79.9306209141
 20
90.4811063177
 30
0.0
 10
79.917679261
 20
90.3759524827
 30
0.0
 10
79.9036891297
 20
90.2826470612
 30
0.0
 10
79.8887877836
 20
90.2020785654
 30
0.0
 10
79.8731903917
 20
90.1349519313
 30
0.0
 10
79.8570331475
 20
90.0819000141
 30
0.0
 10
79.8423372651
 20
90.0469094824
 30
0.0
 10
79.8297037827
 20
90.0268726701
 30
0.0
 10
79.8209523158
 20
90.0168994316
 30
0.0
 10
79.8119330697
 20
90.0105527145
 30
0.0
 10
79.8053616025
 20
90.0089774578
 30
0.0
 10
79.8023466495
 20
90.0089774578
 30
0.0
  0
SPLINE
  5
2BF
330
216
100
AcDbEntity
 67
     1
  8
7_ALL_FEATURES
  6
Continuous
 62
     7
100
AcDbSpline
 70
     0
 71
     3
 72
    21
 73
    17
 74
     0
 42
0.000000001
 43
0.0000001
 40
0.0
 40
0.0
 40
0.0
 40
0.0
 40
0.0295050345
 40
0.041058533
 40
0.0545210012
 40
0.069940299
 40
0.0873397607
 40
0.1280677956
 40
0.176581836
 40
0.2326381317
 40
0.2958845162
 40
0.3659146006
 40
0.44224645
 40
0.6116538149
 40
0.7993522538
 40
1.0
 40
1.0
 40
1.0
 40
1.0
 10
79.8023466499
 20
94.5089760926
 30
0.0
 10
79.7791469932
 20
94.5089686335
 30
0.0
 10
79.7527689753
 20
94.4786057185
 30
0.0
 10
79.7322954525
 20
94.4423594637
 30
0.0
 10
79.7187022593
 20
94.4132838662
 30
0.0
 10
79.7054609535
 20
94.3794638413
 30
0.0
 10
79.6869458222
 20
94.3246222719
 30
0.0
 10
79.6649021802
 20
94.2436738025
 30
0.0
 10
79.6404574746
 20
94.1320351069
 30
0.0
 10
79.6171073388
 20
94.0021406926
 30
0.0
 10
79.5950109346
 20
93.854901694
 30
0.0
 10
79.574368281
 20
93.6913730119
 30
0.0
 10
79.5480691881
 20
93.4444695166
 30
0.0
 10
79.5206084107
 20
93.1047117674
 30
0.0
 10
79.4964314656
 20
92.6667853963
 30
0.0
 10
79.4862608805
 20
92.3615735775
 30
0.0
 10
79.4825362057
 20
92.2038492526
 30
0.0
  0
LINE
  5
2C0
330
216
100
AcDbEntity
 67
     1
  8
7_ALL_FEATURES
  6
Continuous
 62
     7
100
AcDbLine
 10
89.2418491263
 20
94.5089774578
 30
0.0
 11
79.8023466495
 21
94.5089774578
 31
0.0
  0
LINE
  5
2C1
330
216
100
AcDbEntity
 67
     1
  8
7_ALL_FEATURES
  6
Continuous
 62
     7
100
AcDbLine
 10
79.8626759183
 20
90.1089774578
 30
0.0
 11
79.5148584853
 21
90.1089774578
 31
0.0
  0
LINE
  5
2C2
330
216
100
AcDbEntity
 67
     1
  8
7_ALL_FEATURES
  6
Continuous
 62
     7
100
AcDbLine
 10
78.7375632201
 20
90.0089774578
 30
0.0
 11
78.707331186
 21
90.0089774578
 31
0.0
  0
LINE
  5
2C3
330
216
100
AcDbEntity
 67
     1
  8
7_ALL_FEATURES
  6
Continuous
 62
     9
100
AcDbLine
 10
78.7375632201
 20
91.4089774578
 30
0.0
 11
78.7375632201
 21
90.1089774578
 31
0.0
  0
LINE
  5
2C4
330
216
100
AcDbEntity
 67
     1
  8
7_ALL_FEATURES
  6
Continuous
 62
     9
100
AcDbLine
 10
79.9785126528
 20
91.3012851501
 30
0.0
 11
79.6254308562
 21
91.3012851501
 31
0.0
  0
LINE
  5
2C5
330
216
100
AcDbEntity
 67
     1
  8
7_ALL_FEATURES
  6
Continuous
 62
     9
100
AcDbLine
 10
78.7375632201
 20
90.0089774578
 30
0.0
 11
78.7375632201
 21
88.7089774578
 31
0.0
  0
SPLINE
  5
2C6
330
216
100
AcDbEntity
 67
     1
  8
7_ALL_FEATURES
  6
Continuous
 62
     7
100
AcDbSpline
 70
     0
 71
     3
 72
    41
 73
    37
 74
     0
 42
0.000000001
 43
0.0000001
 40
0.0
 40
0.0
 40
0.0
 40
0.0
 40
0.0027735576
 40
0.0060071964
 40
0.0099987704
 40
0.0149064408
 40
0.020808528
 40
0.027740715
 40
0.0357184199
 40
0.0447449274
 40
0.0658998492
 40
0.0910788031
 40
0.1200794167
 40
0.1526527573
 40
0.1885012475
 40
0.2272967831
 40
0.3122458101
 40
0.40430803
 40
0.499999693
 40
0.595691301
 40
0.6877534697
 40
0.7727025534
 40
0.8114982199
 40
0.8473467488
 40
0.8799197318
 40
0.908920911
 40
0.9340991718
 40
0.9552548371
 40
0.9642807333
 40
0.972258547
 40
0.9791913465
 40
0.9850932642
 40
0.9899998805
 40
0.9939910094
 40
0.997224713
 40
1.0
 40
1.0
 40
1.0
 40
1.0
 10
79.8023466495
 20
88.7089774578
 30
0.0
 10
79.8078130569
 20
88.7089774578
 30
0.0
 10
79.8197259635
 20
88.7118285703
 30
0.0
 10
79.8360796698
 20
88.7233275687
 30
0.0
 10
79.851936762
 20
88.7414093438
 30
0.0
 10
79.8675551139
 20
88.7661409349
 30
0.0
 10
79.8830136775
 20
88.7975550344
 30
0.0
 10
79.8983057852
 20
88.8356467553
 30
0.0
 10
79.913398407
 20
88.8803635837
 30
0.0
 10
79.9343127388
 20
88.9526239009
 30
0.0
 10
79.9590255314
 20
89.0589690345
 30
0.0
 10
79.9860265555
 20
89.2050003903
 30
0.0
 10
80.0113906366
 20
89.3741176753
 30
0.0
 10
80.0348405575
 20
89.5647074378
 30
0.0
 10
80.056135356
 20
89.774960619
 30
0.0
 10
80.0821281746
 20
90.0884406749
 30
0.0
 10
80.1070763061
 20
90.5131063617
 30
0.0
 10
80.1250781256
 20
91.0503214485
 30
0.0
 10
80.1311582565
 20
91.6089773331
 30
0.0
 10
80.1250778088
 20
92.1676331107
 30
0.0
 10
80.1070760439
 20
92.7048481009
 30
0.0
 10
80.0821278329
 20
93.1295140532
 30
0.0
 10
80.056135417
 20
93.4429945792
 30
0.0
 10
80.034841006
 20
93.6532474521
 30
0.0
 10
80.0113896405
 20
93.8438374821
 30
0.0
 10
79.986027736
 20
94.0129542048
 30
0.0
 10
79.9590233889
 20
94.1589860488
 30
0.0
 10
79.9343159964
 20
94.2653313999
 30
0.0
 10
79.9133978942
 20
94.3375911794
 30
0.0
 10
79.8983030296
 20
94.3823074502
 30
0.0
 10
79.8830109536
 20
94.420400283
 30
0.0
 10
79.8675540404
 20
94.4518139228
 30
0.0
 10
79.8519378243
 20
94.4765427987
 30
0.0
 10
79.8360893215
 20
94.4946273322
 30
0.0
 10
79.8197353931
 20
94.5061335448
 30
0.0
 10
79.8078164655
 20
94.5089778512
 30
0.0
 10
79.8023466499
 20
94.5089760926
 30
0.0
  0
SPLINE
  5
2C7
330
216
100
AcDbEntity
 67
     1
  8
7_ALL_FEATURES
  6
Continuous
 62
     7
100
AcDbSpline
 70
     0
 71
     3
 72
    23
 73
    19
 74
     0
 42
0.000000001
 43
0.0000001
 40
0.0
 40
0.0
 40
0.0
 40
0.0
 40
0.1810212673
 40
0.3609629483
 40
0.531248308
 40
0.6102017628
 40
0.6837577709
 40
0.7510547089
 40
0.811303113
 40
0.8638286416
 40
0.9080576754
 40
0.9435921427
 40
0.9580295949
 40
0.9702561686
 40
0.9803297924
 40
0.9883838958
 40
0.9947244774
 40
1.0
 40
1.0
 40
1.0
 40
1.0
 10
79.6254308562
 20
91.3012851501
 30
0.0
 10
79.6228484108
 20
91.4182410576
 30
0.0
 10
79.6207065005
 20
91.6515315203
 30
0.0
 10
79.6259308564
 20
91.9948401775
 30
0.0
 10
79.6372852884
 20
92.2720058597
 30
0.0
 10
79.6507032094
 20
92.4801874788
 30
0.0
 10
79.6623173168
 20
92.6217693827
 30
0.0
 10
79.6755736425
 20
92.751063863
 30
0.0
 10
79.6903085805
 20
92.8665106518
 30
0.0
 10
79.7062939431
 20
92.9667323506
 30
0.0
 10
79.7233383449
 20
93.0505307245
 30
0.0
 10
79.7390245173
 20
93.1094339472
 30
0.0
 10
79.7524648635
 20
93.1473413643
 30
0.0
 10
79.7619664661
 20
93.1691262842
 30
0.0
 10
79.771565622
 20
93.1862885611
 30
0.0
 10
79.7813099298
 20
93.1988451559
 30
0.0
 10
79.791391752
 20
93.2069075049
 30
0.0
 10
79.7989373624
 20
93.2089697522
 30
0.0
 10
79.8023466518
 20
93.2089710827
 30
0.0
  0
SPLINE
  5
2C8
330
216
100
AcDbEntity
 67
     1
  8
7_ALL_FEATURES
  6
Continuous
 62
     7
100
AcDbSpline
 70
     0
 71
     3
 72
    22
 73
    18
 74
     0
 42
0.000000001
 43
0.0000001
 40
0.0
 40
0.0
 40
0.0
 40
0.0
 40
0.0052678806
 40
0.0116115953
 40
0.0196661798
 40
0.02973564
 40
0.0419640073
 40
0.0564090372
 40
0.0919391702
 40
0.1361694999
 40
0.1886972567
 40
0.2489417754
 40
0.3162418479
 40
0.4687530363
 40
0.6390183225
 40
0.8190022912
 40
1.0
 40
1.0
 40
1.0
 40
1.0
 10
79.5148584853
 20
90.1089774578
 30
0.0
 10
79.5169861797
 20
90.1089774578
 30
0.0
 10
79.5216988999
 20
90.1102766604
 30
0.0
 10
79.5279904179
 20
90.1153212868
 30
0.0
 10
79.5340870666
 20
90.1231629252
 30
0.0
 10
79.5400963002
 20
90.1338832686
 30
0.0
 10
79.5460379863
 20
90.1474998494
 30
0.0
 10
79.5544341422
 20
90.1711952419
 30
0.0
 10
79.5642427476
 20
90.2080097112
 30
0.0
 10
79.5748890627
 20
90.2603842815
 30
0.0
 10
79.5848804537
 20
90.3230216223
 30
0.0
 10
79.5940939322
 20
90.3951752513
 30
0.0
 10
79.6056213737
 20
90.50771009
 30
0.0
 10
79.6167880417
 20
90.6649024192
 30
0.0
 10
79.6251249072
 20
90.8678188395
 30
0.0
 10
79.6283801207
 20
91.0823862738
 30
0.0
 10
79.6270446555
 20
91.2281980807
 30
0.0
 10
79.6254308562
 20
91.3012851501
 30
0.0
  0
SPLINE
  5
2C9
330
216
100
AcDbEntity
 67
     1
  8
3_ALL_AXES
  6
Continuous
 62
     7
100
AcDbSpline
 70
     0
 71
     3
 72
    16
 73
    12
 74
     0
 42
0.000000001
 43
0.0000001
 40
0.0
 40
0.0
 40
0.0
 40
0.0
 40
0.1679790377
 40
0.3308128068
 40
0.4833080198
 40
0.5543943695
 40
0.6214117809
 40
0.7417885013
 40
0.843162128
 40
0.9271450521
 40
1.0
 40
1.0
 40
1.0
 40
1.0
 10
74.8343785163
 20
61.6530932533
 30
0.0
 10
74.8343785163
 20
61.6042941338
 30
0.0
 10
74.8304297739
 20
61.5081390942
 30
0.0
 10
74.8128611086
 20
61.3686745761
 30
0.0
 10
74.7885306391
 20
61.2588672981
 30
0.0
 10
74.7633994162
 20
61.1782209319
 30
0.0
 10
74.7366711439
 20
61.1080169154
 30
0.0
 10
74.699018286
 20
61.0326436561
 30
0.0
 10
74.6449697703
 20
60.9613130869
 30
0.0
 10
74.5844873395
 20
60.9147483094
 30
0.0
 10
74.5385797067
 20
60.9030932533
 30
0.0
 10
74.51741482
 20
60.9030932533
 30
0.0
  0
SPLINE
  5
2CA
330
216
100
AcDbEntity
 67
     1
  8
3_ALL_AXES
  6
Continuous
 62
     7
100
AcDbSpline
 70
     0
 71
     3
 72
    16
 73
    12
 74
     0
 42
0.000000001
 43
0.0000001
 40
0.0
 40
0.0
 40
0.0
 40
0.0
 40
0.1679790377
 40
0.3308128068
 40
0.4833080198
 40
0.5543943695
 40
0.6214117809
 40
0.7417885013
 40
0.843162128
 40
0.9271450521
 40
1.0
 40
1.0
 40
1.0
 40
1.0
 10
93.218272902
 20
61.6530932533
 30
0.0
 10
93.218272902
 20
61.6042941338
 30
0.0
 10
93.2222216443
 20
61.5081390942
 30
0.0
 10
93.2397903097
 20
61.3686745761
 30
0.0
 10
93.2641207791
 20
61.2588672981
 30
0.0
 10
93.2892520021
 20
61.1782209319
 30
0.0
 10
93.3159802744
 20
61.1080169154
 30
0.0
 10
93.3536331323
 20
61.0326436561
 30
0.0
 10
93.407681648
 20
60.9613130869
 30
0.0
 10
93.4681640788
 20
60.9147483094
 30
0.0
 10
93.5140717115
 20
60.9030932533
 30
0.0
 10
93.5352365983
 20
60.9030932533
 30
0.0
  0
LINE
  5
2CB
330
216
100
AcDbEntity
 67
     1
  8
3_ALL_AXES
  6
Continuous
 62
     7
100
AcDbLine
 10
106.3912354065
 20
60.9030932533
 30
0.0
 11
106.4565894684
 21
60.9030932533
 31
0.0
  0
LINE
  5
2CC
330
216
100
AcDbEntity
 67
     1
  8
3_ALL_AXES
  6
Continuous
 62
     7
100
AcDbLine
 10
106.4565894684
 20
60.9030932533
 30
0.0
 11
106.4954902411
 21
60.9030932533
 31
0.0
  0
LINE
  5
2CD
330
216
100
AcDbEntity
 67
     1
  8
3_ALL_AXES
  6
Continuous
 62
     7
100
AcDbLine
 10
61.5581718707
 20
60.9030932533
 30
0.0
 11
61.5571611771
 21
60.9030932533
 31
0.0
  0
LINE
  5
2CE
330
216
100
AcDbEntity
 67
     1
  8
3_ALL_AXES
  6
Continuous
 62
     7
100
AcDbLine
 10
61.5571611771
 20
60.9030932533
 30
0.0
 11
61.6614160117
 21
60.9030932533
 31
0.0
  0
ARC
  5
2CF
330
216
100
AcDbEntity
 67
     1
  8
3_ALL_AXES
  6
Continuous
 62
     7
100
AcDbCircle
 10
61.5263257091
 20
61.6530932533
 30
0.0
 40
0.75
100
AcDbArc
 50
90.0
 51
180.0
  0
ARC
  5
2D0
330
216
100
AcDbEntity
 67
     1
  8
3_ALL_AXES
  6
Continuous
 62
     7
100
AcDbCircle
 10
106.5263257091
 20
61.6530932533
 30
0.0
 40
0.75
100
AcDbArc
 50
270.0
 51
360.0
  0
ARC
  5
2D1
330
216
100
AcDbEntity
 67
     1
  8
3_ALL_AXES
  6
Continuous
 62
     7
100
AcDbCircle
 10
106.5263257091
 20
61.6530932533
 30
0.0
 40
0.75
100
AcDbArc
 50
0.0
 51
90.0
  0
ARC
  5
2D2
330
216
100
AcDbEntity
 67
     1
  8
3_ALL_AXES
  6
Continuous
 62
     7
100
AcDbCircle
 10
61.5263257091
 20
61.6530932533
 30
0.0
 40
0.75
100
AcDbArc
 50
180.0
 51
270.0
  0
LINE
  5
2D3
330
216
100
AcDbEntity
 67
     1
  8
3_ALL_AXES
  6
Continuous
 62
     7
100
AcDbLine
 10
106.3912354065
 20
62.4030932533
 30
0.0
 11
106.4565894684
 21
62.4030932533
 31
0.0
  0
SPLINE
  5
2D4
330
216
100
AcDbEntity
 67
     1
  8
3_ALL_AXES
  6
Continuous
 62
     7
100
AcDbSpline
 70
     0
 71
     3
 72
    16
 73
    12
 74
     0
 42
0.000000001
 43
0.0000001
 40
0.0
 40
0.0
 40
0.0
 40
0.0
 40
0.0728549479
 40
0.156837872
 40
0.2582114987
 40
0.3785882191
 40
0.4456056305
 40
0.5166919802
 40
0.6691871932
 40
0.8320209623
 40
1.0
 40
1.0
 40
1.0
 40
1.0
 10
93.5352365983
 20
62.4030932533
 30
0.0
 10
93.5140717115
 20
62.4030932533
 30
0.0
 10
93.4681640788
 20
62.3914381972
 30
0.0
 10
93.407681648
 20
62.3448734197
 30
0.0
 10
93.3536331323
 20
62.2735428505
 30
0.0
 10
93.3159802744
 20
62.1981695911
 30
0.0
 10
93.2892520021
 20
62.1279655746
 30
0.0
 10
93.2641207791
 20
62.0473192084
 30
0.0
 10
93.2397903097
 20
61.9375119305
 30
0.0
 10
93.2222216443
 20
61.7980474124
 30
0.0
 10
93.218272902
 20
61.7018923728
 30
0.0
 10
93.218272902
 20
61.6530932533
 30
0.0
  0
LINE
  5
2D5
330
216
100
AcDbEntity
 67
     1
  8
3_ALL_AXES
  6
Continuous
 62
     7
100
AcDbLine
 10
106.4565894684
 20
62.4030932533
 30
0.0
 11
106.4954902411
 21
62.4030932533
 31
0.0
  0
LINE
  5
2D6
330
216
100
AcDbEntity
 67
     1
  8
3_ALL_AXES
  6
Continuous
 62
     7
100
AcDbLine
 10
61.5581718707
 20
62.4030932533
 30
0.0
 11
61.5571611771
 21
62.4030932533
 31
0.0
  0
LINE
  5
2D7
330
216
100
AcDbEntity
 67
     1
  8
3_ALL_AXES
  6
Continuous
 62
     7
100
AcDbLine
 10
61.5571611771
 20
62.4030932533
 30
0.0
 11
61.6614160117
 21
62.4030932533
 31
0.0
  0
SPLINE
  5
2D8
330
216
100
AcDbEntity
 67
     1
  8
3_ALL_AXES
  6
Continuous
 62
     7
100
AcDbSpline
 70
     0
 71
     3
 72
    16
 73
    12
 74
     0
 42
0.000000001
 43
0.0000001
 40
0.0
 40
0.0
 40
0.0
 40
0.0
 40
0.0728549479
 40
0.156837872
 40
0.2582114987
 40
0.3785882191
 40
0.4456056305
 40
0.5166919802
 40
0.6691871932
 40
0.8320209623
 40
1.0
 40
1.0
 40
1.0
 40
1.0
 10
74.51741482
 20
62.4030932533
 30
0.0
 10
74.5385797067
 20
62.4030932533
 30
0.0
 10
74.5844873395
 20
62.3914381972
 30
0.0
 10
74.6449697703
 20
62.3448734197
 30
0.0
 10
74.699018286
 20
62.2735428505
 30
0.0
 10
74.7366711439
 20
62.1981695911
 30
0.0
 10
74.7633994162
 20
62.1279655746
 30
0.0
 10
74.7885306391
 20
62.0473192084
 30
0.0
 10
74.8128611086
 20
61.9375119305
 30
0.0
 10
74.8304297739
 20
61.7980474124
 30
0.0
 10
74.8343785163
 20
61.7018923728
 30
0.0
 10
74.8343785163
 20
61.6530932533
 30
0.0
  0
SPLINE
  5
2D9
330
216
100
AcDbEntity
 67
     1
  8
3_ALL_AXES
  6
Continuous
 62
     7
100
AcDbSpline
 70
     0
 71
     3
 72
    16
 73
    12
 74
     0
 42
0.000000001
 43
0.0000001
 40
0.0
 40
0.0
 40
0.0
 40
0.0
 40
0.0728549479
 40
0.156837872
 40
0.2582114987
 40
0.3785882191
 40
0.4456056305
 40
0.5166919802
 40
0.6691871932
 40
0.8320209623
 40
1.0
 40
1.0
 40
1.0
 40
1.0
 10
93.5352365983
 20
60.9030932533
 30
0.0
 10
93.556401485
 20
60.9030932533
 30
0.0
 10
93.6023091178
 20
60.9147483094
 30
0.0
 10
93.6627915486
 20
60.9613130869
 30
0.0
 10
93.7168400643
 20
61.0326436561
 30
0.0
 10
93.7544929222
 20
61.1080169154
 30
0.0
 10
93.7812211945
 20
61.1782209319
 30
0.0
 10
93.8063524175
 20
61.2588672981
 30
0.0
 10
93.8306828869
 20
61.3686745761
 30
0.0
 10
93.8482515523
 20
61.5081390942
 30
0.0
 10
93.8522002946
 20
61.6042941338
 30
0.0
 10
93.8522002946
 20
61.6530932533
 30
0.0
  0
SPLINE
  5
2DA
330
216
100
AcDbEntity
 67
     1
  8
3_ALL_AXES
  6
Continuous
 62
     7
100
AcDbSpline
 70
     0
 71
     3
 72
    16
 73
    12
 74
     0
 42
0.000000001
 43
0.0000001
 40
0.0
 40
0.0
 40
0.0
 40
0.0
 40
0.1679790377
 40
0.3308128068
 40
0.4833080198
 40
0.5543943695
 40
0.6214117809
 40
0.7417885013
 40
0.843162128
 40
0.9271450521
 40
1.0
 40
1.0
 40
1.0
 40
1.0
 10
93.8522002946
 20
61.6530932533
 30
0.0
 10
93.8522002946
 20
61.7018923728
 30
0.0
 10
93.8482515523
 20
61.7980474124
 30
0.0
 10
93.8306828869
 20
61.9375119305
 30
0.0
 10
93.8063524175
 20
62.0473192084
 30
0.0
 10
93.7812211945
 20
62.1279655746
 30
0.0
 10
93.7544929222
 20
62.1981695911
 30
0.0
 10
93.7168400643
 20
62.2735428505
 30
0.0
 10
93.6627915486
 20
62.3448734197
 30
0.0
 10
93.6023091178
 20
62.3914381972
 30
0.0
 10
93.556401485
 20
62.4030932533
 30
0.0
 10
93.5352365983
 20
62.4030932533
 30
0.0
  0
SPLINE
  5
2DB
330
216
100
AcDbEntity
 67
     1
  8
3_ALL_AXES
  6
Continuous
 62
     7
100
AcDbSpline
 70
     0
 71
     3
 72
    16
 73
    12
 74
     0
 42
0.000000001
 43
0.0000001
 40
0.0
 40
0.0
 40
0.0
 40
0.0
 40
0.0728549479
 40
0.156837872
 40
0.2582114987
 40
0.3785882191
 40
0.4456056305
 40
0.5166919802
 40
0.6691871932
 40
0.8320209623
 40
1.0
 40
1.0
 40
1.0
 40
1.0
 10
74.51741482
 20
60.9030932533
 30
0.0
 10
74.4962499332
 20
60.9030932533
 30
0.0
 10
74.4503423005
 20
60.9147483094
 30
0.0
 10
74.3898598696
 20
60.9613130869
 30
0.0
 10
74.335811354
 20
61.0326436561
 30
0.0
 10
74.298158496
 20
61.1080169154
 30
0.0
 10
74.2714302237
 20
61.1782209319
 30
0.0
 10
74.2462990008
 20
61.2588672981
 30
0.0
 10
74.2219685313
 20
61.3686745761
 30
0.0
 10
74.204399866
 20
61.5081390942
 30
0.0
 10
74.2004511236
 20
61.6042941338
 30
0.0
 10
74.2004511236
 20
61.6530932533
 30
0.0
  0
SPLINE
  5
2DC
330
216
100
AcDbEntity
 67
     1
  8
3_ALL_AXES
  6
Continuous
 62
     7
100
AcDbSpline
 70
     0
 71
     3
 72
    16
 73
    12
 74
     0
 42
0.000000001
 43
0.0000001
 40
0.0
 40
0.0
 40
0.0
 40
0.0
 40
0.1679790377
 40
0.3308128068
 40
0.4833080198
 40
0.5543943695
 40
0.6214117809
 40
0.7417885013
 40
0.843162128
 40
0.9271450521
 40
1.0
 40
1.0
 40
1.0
 40
1.0
 10
74.2004511236
 20
61.6530932533
 30
0.0
 10
74.2004511236
 20
61.7018923728
 30
0.0
 10
74.204399866
 20
61.7980474124
 30
0.0
 10
74.2219685313
 20
61.9375119305
 30
0.0
 10
74.2462990008
 20
62.0473192084
 30
0.0
 10
74.2714302237
 20
62.1279655746
 30
0.0
 10
74.298158496
 20
62.1981695911
 30
0.0
 10
74.335811354
 20
62.2735428505
 30
0.0
 10
74.3898598696
 20
62.3448734197
 30
0.0
 10
74.4503423005
 20
62.3914381972
 30
0.0
 10
74.4962499332
 20
62.4030932533
 30
0.0
 10
74.51741482
 20
62.4030932533
 30
0.0
  0
LINE
  5
2DD
330
216
100
AcDbEntity
 67
     1
  8
7_ALL_FEATURES
  6
Continuous
 62
     7
100
AcDbLine
 10
59.4232168178
 20
58.2905288186
 30
0.0
 11
48.3232168178
 21
77.5162927826
 31
0.0
  0
LINE
  5
2DE
330
216
100
AcDbEntity
 67
     1
  8
7_ALL_FEATURES
  6
Continuous
 62
     7
100
AcDbLine
 10
60.0763257091
 20
70.0530932533
 30
0.0
 11
60.4263257091
 21
70.0530932533
 31
0.0
  0
ARC
  5
2DF
330
216
100
AcDbEntity
 67
     1
  8
7_ALL_FEATURES
  6
Continuous
 62
     7
100
AcDbCircle
 10
60.7763257091
 20
63.2530932533
 30
0.0
 40
0.7
100
AcDbArc
 50
180.0
 51
270.0
  0
LINE
  5
2E0
330
216
100
AcDbEntity
 67
     1
  8
7_ALL_FEATURES
  6
Continuous
 62
     7
100
AcDbLine
 10
60.0763257091
 20
63.2530932533
 30
0.0
 11
60.0763257091
 21
70.0530932533
 31
0.0
  0
LINE
  5
2E1
330
216
100
AcDbEntity
 67
     1
  8
7_ALL_FEATURES
  6
Continuous
 62
     7
100
AcDbLine
 10
60.0763257091
 20
60.0530932533
 30
0.0
 11
60.0763257091
 21
58.4655288186
 31
0.0
  0
ARC
  5
2E2
330
216
100
AcDbEntity
 67
     1
  8
7_ALL_FEATURES
  6
Continuous
 62
     7
100
AcDbCircle
 10
59.7263257091
 20
58.4655288186
 30
0.0
 40
0.35
100
AcDbArc
 50
210.0
 51
360.0
  0
ARC
  5
2E3
330
216
100
AcDbEntity
 67
     1
  8
7_ALL_FEATURES
  6
Continuous
 62
     7
100
AcDbCircle
 10
48.6263257091
 20
77.6912927826
 30
0.0
 40
0.35
100
AcDbArc
 50
180.0
 51
210.0
  0
LINE
  5
2E4
330
216
100
AcDbEntity
 67
     1
  8
7_ALL_FEATURES
  6
Continuous
 62
     7
100
AcDbLine
 10
48.2763257091
 20
77.6912927826
 30
0.0
 11
48.2763257091
 21
83.5037283479
 31
0.0
  0
LINE
  5
2E5
330
216
100
AcDbEntity
 67
     1
  8
7_ALL_FEATURES
  6
Continuous
 62
     7
100
AcDbLine
 10
60.7763257091
 20
60.7530932533
 30
0.0
 11
61.3763257091
 21
60.7530932533
 31
0.0
  0
LINE
  5
2E6
330
216
100
AcDbEntity
 67
     1
  8
7_ALL_FEATURES
  6
Continuous
 62
     7
100
AcDbLine
 10
47.9263257091
 20
83.5037283479
 30
0.0
 11
48.2763257091
 21
83.5037283479
 31
0.0
  0
ARC
  5
2E7
330
216
100
AcDbEntity
 67
     1
  8
7_ALL_FEATURES
  6
Continuous
 62
     7
100
AcDbCircle
 10
60.7763257091
 20
60.0530932533
 30
0.0
 40
0.7
100
AcDbArc
 50
90.0
 51
180.0
  0
ARC
  5
2E8
330
216
100
AcDbEntity
 67
     1
  8
7_ALL_FEATURES
  6
Continuous
 62
     7
100
AcDbCircle
 10
61.3763257091
 20
62.2030932533
 30
0.0
 40
0.35
100
AcDbArc
 50
38.5714285714
 51
90.0
  0
LINE
  5
2E9
330
216
100
AcDbEntity
 67
     1
  8
7_ALL_FEATURES
  6
Continuous
 62
     7
100
AcDbLine
 10
60.7763257091
 20
62.5530932533
 30
0.0
 11
61.3763257091
 21
62.5530932533
 31
0.0
  0
ARC
  5
2EA
330
216
100
AcDbEntity
 67
     1
  8
7_ALL_FEATURES
  6
Continuous
 62
     7
100
AcDbCircle
 10
61.3763257091
 20
61.1030932533
 30
0.0
 40
0.35
100
AcDbArc
 50
270.0
 51
321.4285714286
  0
LINE
  5
2EB
330
216
100
AcDbEntity
 67
     1
  8
7_ALL_FEATURES
  6
Continuous
 62
     9
100
AcDbLine
 10
60.0763257091
 20
60.0530932533
 30
0.0
 11
60.4263257091
 21
60.0530932533
 31
0.0
  0
LINE
  5
2EC
330
216
100
AcDbEntity
 67
     1
  8
7_ALL_FEATURES
  6
Continuous
 62
     9
100
AcDbLine
 10
60.4263257091
 20
58.4655288186
 30
0.0
 11
60.0763257091
 21
58.4655288186
 31
0.0
  0
LINE
  5
2ED
330
216
100
AcDbEntity
 67
     1
  8
7_ALL_FEATURES
  6
Continuous
 62
     9
100
AcDbLine
 10
47.9263257091
 20
77.6912927826
 30
0.0
 11
48.2763257091
 21
77.6912927826
 31
0.0
  0
LINE
  5
2EE
330
216
100
AcDbEntity
 67
     1
  8
7_ALL_FEATURES
  6
Continuous
 62
     9
100
AcDbLine
 10
61.3763257091
 20
62.9030932533
 30
0.0
 11
61.3763257091
 21
62.5530932533
 31
0.0
  0
LINE
  5
2EF
330
216
100
AcDbEntity
 67
     1
  8
7_ALL_FEATURES
  6
Continuous
 62
     9
100
AcDbLine
 10
60.0763257091
 20
63.2530932533
 30
0.0
 11
60.4263257091
 21
63.2530932533
 31
0.0
  0
LINE
  5
2F0
330
216
100
AcDbEntity
 67
     1
  8
7_ALL_FEATURES
  6
Continuous
 62
     9
100
AcDbLine
 10
59.1201079265
 20
58.1155288186
 30
0.0
 11
59.4232168178
 21
58.2905288186
 31
0.0
  0
LINE
  5
2F1
330
216
100
AcDbEntity
 67
     1
  8
7_ALL_FEATURES
  6
Continuous
 62
     9
100
AcDbLine
 10
60.7763257091
 20
62.5530932533
 30
0.0
 11
60.7763257091
 21
62.9030932533
 31
0.0
  0
LINE
  5
2F2
330
216
100
AcDbEntity
 67
     1
  8
7_ALL_FEATURES
  6
Continuous
 62
     9
100
AcDbLine
 10
60.7763257091
 20
60.7530932533
 30
0.0
 11
60.7763257091
 21
60.4030932533
 31
0.0
  0
LINE
  5
2F3
330
216
100
AcDbEntity
 67
     1
  8
7_ALL_FEATURES
  6
Continuous
 62
     9
100
AcDbLine
 10
61.3763257091
 20
60.4030932533
 30
0.0
 11
61.3763257091
 21
60.7530932533
 31
0.0
  0
LINE
  5
2F4
330
216
100
AcDbEntity
 67
     1
  8
7_ALL_FEATURES
  6
Continuous
 62
     9
100
AcDbLine
 10
48.0201079265
 20
77.3412927826
 30
0.0
 11
48.3232168178
 21
77.5162927826
 31
0.0
  0
ARC
  5
2F5
330
216
100
AcDbEntity
 67
     1
  8
5_ALL_CURVES
  6
Continuous
 62
    40
100
AcDbCircle
 10
59.7263257091
 20
58.4655288186
 30
0.0
 40
22.2
100
AcDbArc
 50
89.0966507355
 51
120.9032976444
  0
LINE
  5
2F6
330
216
100
AcDbEntity
 67
     1
  8
7_ALL_FEATURES
  6
Continuous
 62
     7
100
AcDbLine
 10
119.7294346004
 20
77.5162927826
 30
0.0
 11
108.6294346004
 21
58.2905288186
 31
0.0
  0
LINE
  5
2F7
330
216
100
AcDbEntity
 67
     1
  8
7_ALL_FEATURES
  6
Continuous
 62
     7
100
AcDbLine
 10
107.9763257091
 20
70.0530932533
 30
0.0
 11
107.6263257091
 21
70.0530932533
 31
0.0
  0
ARC
  5
2F8
330
216
100
AcDbEntity
 67
     1
  8
7_ALL_FEATURES
  6
Continuous
 62
     7
100
AcDbCircle
 10
107.2763257091
 20
63.2530932533
 30
0.0
 40
0.7
100
AcDbArc
 50
270.0
 51
360.0
  0
LINE
  5
2F9
330
216
100
AcDbEntity
 67
     1
  8
7_ALL_FEATURES
  6
Continuous
 62
     7
100
AcDbLine
 10
107.9763257091
 20
58.4655288186
 30
0.0
 11
107.9763257091
 21
60.0530932533
 31
0.0
  0
LINE
  5
2FA
330
216
100
AcDbEntity
 67
     1
  8
7_ALL_FEATURES
  6
Continuous
 62
     7
100
AcDbLine
 10
107.9763257091
 20
70.0530932533
 30
0.0
 11
107.9763257091
 21
63.2530932533
 31
0.0
  0
ARC
  5
2FB
330
216
100
AcDbEntity
 67
     1
  8
7_ALL_FEATURES
  6
Continuous
 62
     7
100
AcDbCircle
 10
119.4263257091
 20
77.6912927826
 30
0.0
 40
0.35
100
AcDbArc
 50
330.0
 51
360.0
  0
LINE
  5
2FC
330
216
100
AcDbEntity
 67
     1
  8
7_ALL_FEATURES
  6
Continuous
 62
     7
100
AcDbLine
 10
119.7763257091
 20
83.5037283479
 30
0.0
 11
119.7763257091
 21
77.6912927826
 31
0.0
  0
ARC
  5
2FD
330
216
100
AcDbEntity
 67
     1
  8
7_ALL_FEATURES
  6
Continuous
 62
     7
100
AcDbCircle
 10
108.3263257091
 20
58.4655288186
 30
0.0
 40
0.35
100
AcDbArc
 50
180.0
 51
330.0
  0
LINE
  5
2FE
330
216
100
AcDbEntity
 67
     1
  8
7_ALL_FEATURES
  6
Continuous
 62
     7
100
AcDbLine
 10
120.1263257091
 20
83.5037283479
 30
0.0
 11
119.7763257091
 21
83.5037283479
 31
0.0
  0
LINE
  5
2FF
330
216
100
AcDbEntity
 67
     1
  8
7_ALL_FEATURES
  6
Continuous
 62
     7
100
AcDbLine
 10
106.6763257091
 20
60.7530932533
 30
0.0
 11
107.2763257091
 21
60.7530932533
 31
0.0
  0
ARC
  5
300
330
216
100
AcDbEntity
 67
     1
  8
7_ALL_FEATURES
  6
Continuous
 62
     7
100
AcDbCircle
 10
106.6763257091
 20
62.2030932533
 30
0.0
 40
0.35
100
AcDbArc
 50
90.0
 51
154.2857142857
  0
ARC
  5
301
330
216
100
AcDbEntity
 67
     1
  8
7_ALL_FEATURES
  6
Continuous
 62
     7
100
AcDbCircle
 10
107.2763257091
 20
60.0530932533
 30
0.0
 40
0.7
100
AcDbArc
 50
0.0
 51
90.0
  0
LINE
  5
302
330
216
100
AcDbEntity
 67
     1
  8
7_ALL_FEATURES
  6
Continuous
 62
     7
100
AcDbLine
 10
106.6763257091
 20
62.5530932533
 30
0.0
 11
107.2763257091
 21
62.5530932533
 31
0.0
  0
ARC
  5
303
330
216
100
AcDbEntity
 67
     1
  8
7_ALL_FEATURES
  6
Continuous
 62
     7
100
AcDbCircle
 10
106.6763257091
 20
61.1030932533
 30
0.0
 40
0.35
100
AcDbArc
 50
205.7142857143
 51
270.0
  0
LINE
  5
304
330
216
100
AcDbEntity
 67
     1
  8
7_ALL_FEATURES
  6
Continuous
 62
     9
100
AcDbLine
 10
107.6263257091
 20
58.4655288186
 30
0.0
 11
107.9763257091
 21
58.4655288186
 31
0.0
  0
LINE
  5
305
330
216
100
AcDbEntity
 67
     1
  8
7_ALL_FEATURES
  6
Continuous
 62
     9
100
AcDbLine
 10
106.6763257091
 20
62.9030932533
 30
0.0
 11
106.6763257091
 21
62.5530932533
 31
0.0
  0
LINE
  5
306
330
216
100
AcDbEntity
 67
     1
  8
7_ALL_FEATURES
  6
Continuous
 62
     9
100
AcDbLine
 10
120.0325434918
 20
77.3412927826
 30
0.0
 11
119.7294346004
 21
77.5162927826
 31
0.0
  0
LINE
  5
307
330
216
100
AcDbEntity
 67
     1
  8
7_ALL_FEATURES
  6
Continuous
 62
     9
100
AcDbLine
 10
108.9325434918
 20
58.1155288186
 30
0.0
 11
108.6294346004
 21
58.2905288186
 31
0.0
  0
LINE
  5
308
330
216
100
AcDbEntity
 67
     1
  8
7_ALL_FEATURES
  6
Continuous
 62
     9
100
AcDbLine
 10
107.2763257091
 20
60.7530932533
 30
0.0
 11
107.2763257091
 21
60.4030932533
 31
0.0
  0
LINE
  5
309
330
216
100
AcDbEntity
 67
     1
  8
7_ALL_FEATURES
  6
Continuous
 62
     9
100
AcDbLine
 10
106.6763257091
 20
60.4030932533
 30
0.0
 11
106.6763257091
 21
60.7530932533
 31
0.0
  0
LINE
  5
30A
330
216
100
AcDbEntity
 67
     1
  8
7_ALL_FEATURES
  6
Continuous
 62
     9
100
AcDbLine
 10
107.2763257091
 20
62.5530932533
 30
0.0
 11
107.2763257091
 21
62.9030932533
 31
0.0
  0
LINE
  5
30B
330
216
100
AcDbEntity
 67
     1
  8
7_ALL_FEATURES
  6
Continuous
 62
     9
100
AcDbLine
 10
107.9763257091
 20
63.2530932533
 30
0.0
 11
107.6263257091
 21
63.2530932533
 31
0.0
  0
LINE
  5
30C
330
216
100
AcDbEntity
 67
     1
  8
7_ALL_FEATURES
  6
Continuous
 62
     9
100
AcDbLine
 10
120.1263257091
 20
77.6912927826
 30
0.0
 11
119.7763257091
 21
77.6912927826
 31
0.0
  0
LINE
  5
30D
330
216
100
AcDbEntity
 67
     1
  8
7_ALL_FEATURES
  6
Continuous
 62
     9
100
AcDbLine
 10
107.9763257091
 20
60.0530932533
 30
0.0
 11
107.6263257091
 21
60.0530932533
 31
0.0
  0
ARC
  5
30E
330
216
100
AcDbEntity
 67
     1
  8
5_ALL_CURVES
  6
Continuous
 62
    40
100
AcDbCircle
 10
108.3263257091
 20
58.4655288186
 30
0.0
 40
22.2
100
AcDbArc
 50
59.0967023556
 51
90.90334926450001
  0
LINE
  5
30F
330
216
100
AcDbEntity
 67
     1
  8
7_ALL_FEATURES
  6
Continuous
 62
     7
100
AcDbLine
 10
96.8759143344
 20
56.0530932533
 30
0.0
 11
96.8759143344
 21
44.5089774578
 31
0.0
  0
SPLINE
  5
310
330
216
100
AcDbEntity
 67
     1
  8
7_ALL_FEATURES
  6
Continuous
 62
     7
100
AcDbSpline
 70
     0
 71
     3
 72
    19
 73
    15
 74
     0
 42
0.000000001
 43
0.0000001
 40
0.0
 40
0.0
 40
0.0
 40
0.0
 40
0.1894937868
 40
0.3720099585
 40
0.540819865
 40
0.6897941385
 40
0.813515267
 40
0.8644880236
 40
0.9075845816
 40
0.9425026755
 40
0.9691139984
 40
0.9793938998
 40
0.9877864113
 40
1.0
 40
1.0
 40
1.0
 40
1.0
 10
71.5260311189
 20
44.5089774578
 30
0.0
 10
71.5260311189
 20
44.4080753441
 30
0.0
 10
71.5215319223
 20
44.2099552937
 30
0.0
 10
71.5018538586
 20
43.9225555872
 30
0.0
 10
71.4712749459
 20
43.6578058808
 30
0.0
 10
71.4327493992
 20
43.4257995352
 30
0.0
 10
71.3950951847
 20
43.2574657078
 30
0.0
 10
71.3630353408
 20
43.1459832139
 30
0.0
 10
71.340861117
 20
43.0809347939
 30
0.0
 10
71.3193658104
 20
43.0294874135
 30
0.0
 10
71.3012520906
 20
42.9956870662
 30
0.0
 10
71.2866903961
 20
42.9763038566
 30
0.0
 10
71.2752651957
 20
42.9646715061
 30
0.0
 10
71.2646639014
 20
42.9589853983
 30
0.0
 10
71.2581603799
 20
42.9589853797
 30
0.0
  0
LINE
  5
311
330
216
100
AcDbEntity
 67
     1
  8
7_ALL_FEATURES
  6
Continuous
 62
     7
100
AcDbLine
 10
71.5260311189
 20
56.0530932533
 30
0.0
 11
71.5260311189
 21
44.5089774578
 31
0.0
  0
LINE
  5
312
330
216
100
AcDbEntity
 67
     1
  8
7_ALL_FEATURES
  6
Continuous
 62
     7
100
AcDbLine
 10
71.1767370839
 20
56.0530932533
 30
0.0
 11
71.1767370839
 21
44.5089774578
 31
0.0
  0
LINE
  5
313
330
216
100
AcDbEntity
 67
     1
  8
3_ALL_AXES
  6
Continuous
 62
     7
100
AcDbLine
 10
69.5263481508
 20
40.2589774578
 30
0.0
 11
73.0763998127
 21
40.2589774578
 31
0.0
  0
LINE
  5
314
330
216
100
AcDbEntity
 67
     1
  8
3_ALL_AXES
  6
Continuous
 62
     7
100
AcDbLine
 10
73.0763998127
 20
40.2589774578
 30
0.0
 11
73.1460570648
 21
40.2589774578
 31
0.0
  0
LINE
  5
315
330
216
100
AcDbEntity
 67
     1
  8
3_ALL_AXES
  6
Continuous
 62
     7
100
AcDbLine
 10
73.1460570648
 20
40.2589774578
 30
0.0
 11
82.7925290369
 21
40.2589774578
 31
0.0
  0
LINE
  5
316
330
216
100
AcDbEntity
 67
     1
  8
3_ALL_AXES
  6
Continuous
 62
     7
100
AcDbLine
 10
82.7925290369
 20
40.2589774578
 30
0.0
 11
85.2601223814
 21
40.2589774578
 31
0.0
  0
LINE
  5
317
330
216
100
AcDbEntity
 67
     1
  8
3_ALL_AXES
  6
Continuous
 62
     7
100
AcDbLine
 10
85.2601223814
 20
40.2589774578
 30
0.0
 11
85.6601203892
 21
40.2589774578
 31
0.0
  0
LINE
  5
318
330
216
100
AcDbEntity
 67
     1
  8
3_ALL_AXES
  6
Continuous
 62
     7
100
AcDbLine
 10
69.5263481508
 20
41.7589774578
 30
0.0
 11
71.1763257091
 21
41.7589774578
 31
0.0
  0
LINE
  5
319
330
216
100
AcDbEntity
 67
     1
  8
3_ALL_AXES
  6
Continuous
 62
     7
100
AcDbLine
 10
71.1763257091
 20
41.7589774578
 30
0.0
 11
85.6601203892
 21
41.7589774578
 31
0.0
  0
LINE
  5
31A
330
216
100
AcDbEntity
 67
     1
  8
3_ALL_AXES
  6
Continuous
 62
     7
100
AcDbLine
 10
69.5263257091
 20
41.7589774578
 30
0.0
 11
69.5263257091
 21
40.2589774578
 31
0.0
  0
LINE
  5
31B
330
216
100
AcDbEntity
 67
     1
  8
7_ALL_FEATURES
  6
Continuous
 62
     7
100
AcDbLine
 10
71.1763241899
 20
43.9556753413
 30
0.0
 11
71.1767370839
 21
44.5089774578
 31
0.0
  0
LWPOLYLINE
  5
31C
330
216
100
AcDbEntity
 67
     1
  8
7_ALL_FEATURES
  6
Continuous
 62
     7
100
AcDbPolyline
 90
        3
 70
     0
 43
0.0
 10
71.1763257092
 20
43.9556905638
 10
71.1765101589
 20
44.187383666
 10
71.1767370839
 20
44.5089774578
  0
LINE
  5
31D
330
216
100
AcDbEntity
 67
     1
  8
3_ALL_AXES
  6
Continuous
 62
     7
100
AcDbLine
 10
71.1763257091
 20
43.95567539
 30
0.0
 11
71.1763257091
 21
41.7589774578
 31
0.0
  0
LINE
  5
31E
330
216
100
AcDbEntity
 67
     1
  8
3_ALL_AXES
  6
Continuous
 62
     7
100
AcDbLine
 10
98.5263032674
 20
40.2589774578
 30
0.0
 11
94.9762516055
 21
40.2589774578
 31
0.0
  0
LINE
  5
31F
330
216
100
AcDbEntity
 67
     1
  8
3_ALL_AXES
  6
Continuous
 62
     7
100
AcDbLine
 10
94.9762516055
 20
40.2589774578
 30
0.0
 11
94.9065943534
 21
40.2589774578
 31
0.0
  0
LINE
  5
320
330
216
100
AcDbEntity
 67
     1
  8
3_ALL_AXES
  6
Continuous
 62
     7
100
AcDbLine
 10
94.9065943534
 20
40.2589774578
 30
0.0
 11
85.6601203892
 21
40.2589774578
 31
0.0
  0
LINE
  5
321
330
216
100
AcDbEntity
 67
     1
  8
3_ALL_AXES
  6
Continuous
 62
     7
100
AcDbLine
 10
98.5263032674
 20
41.7589774578
 30
0.0
 11
96.8763257091
 21
41.7589774578
 31
0.0
  0
LINE
  5
322
330
216
100
AcDbEntity
 67
     1
  8
3_ALL_AXES
  6
Continuous
 62
     7
100
AcDbLine
 10
96.8763257091
 20
41.7589774578
 30
0.0
 11
85.6601203892
 21
41.7589774578
 31
0.0
  0
LINE
  5
323
330
216
100
AcDbEntity
 67
     1
  8
3_ALL_AXES
  6
Continuous
 62
     7
100
AcDbLine
 10
98.5263257091
 20
41.7589774578
 30
0.0
 11
98.5263257091
 21
40.2589774578
 31
0.0
  0
LINE
  5
324
330
216
100
AcDbEntity
 67
     1
  8
7_ALL_FEATURES
  6
Continuous
 62
     7
100
AcDbLine
 10
96.8763272235
 20
43.9556753508
 30
0.0
 11
96.8759143344
 21
44.5089774578
 31
0.0
  0
LWPOLYLINE
  5
325
330
216
100
AcDbEntity
 67
     1
  8
7_ALL_FEATURES
  6
Continuous
 62
     7
100
AcDbPolyline
 90
        3
 70
     0
 43
0.0
 10
96.876325709
 20
43.9556922656
 10
96.8761409489
 20
44.1876549923
 10
96.8759143344
 20
44.5089774578
  0
LINE
  5
326
330
216
100
AcDbEntity
 67
     1
  8
3_ALL_AXES
  6
Continuous
 62
     7
100
AcDbLine
 10
96.8763257091
 20
43.95567539
 30
0.0
 11
96.8763257091
 21
41.7589774578
 31
0.0
  0
SPLINE
  5
327
330
216
100
AcDbEntity
 67
     1
  8
7_ALL_FEATURES
  6
Continuous
 62
     7
100
AcDbSpline
 70
     0
 71
     3
 72
    19
 73
    15
 74
     0
 42
0.000000001
 43
0.0000001
 40
0.0
 40
0.0
 40
0.0
 40
0.0
 40
0.0131773337
 40
0.0304266878
 40
0.0542941476
 40
0.0856451292
 40
0.1247493373
 40
0.1715849508
 40
0.2259995178
 40
0.2877701501
 40
0.4320517216
 40
0.6014061954
 40
0.7921470039
 40
1.0
 40
1.0
 40
1.0
 40
1.0
 10
71.2581603799
 20
42.9589853797
 30
0.0
 10
71.2536990836
 20
42.958985367
 30
0.0
 10
71.2433941184
 20
42.9631438435
 30
0.0
 10
71.2321240434
 20
42.978185114
 30
0.0
 10
71.222167988
 20
43.0006647332
 30
0.0
 10
71.2133571565
 20
43.0314470133
 30
0.0
 10
71.2056088242
 20
43.0704108372
 30
0.0
 10
71.198929683
 20
43.117477657
 30
0.0
 10
71.1932796689
 20
43.1723881001
 30
0.0
 10
71.1867441605
 20
43.2603377911
 30
0.0
 10
71.1813489204
 20
43.387345157
 30
0.0
 10
71.1779100423
 20
43.5580759852
 30
0.0
 10
71.1764745312
 20
43.7503577146
 30
0.0
 10
71.1763256818
 20
43.8853049752
 30
0.0
 10
71.1763241899
 20
43.9556753413
 30
0.0
  0
LINE
  5
328
330
216
100
AcDbEntity
 67
     1
  8
7_ALL_FEATURES
  6
Continuous
 62
     9
100
AcDbLine
 10
71.1767370839
 20
44.5089774578
 30
0.0
 11
71.5260311189
 21
44.5089774578
 31
0.0
  0
LINE
  5
329
330
216
100
AcDbEntity
 67
     1
  8
7_ALL_FEATURES
  6
Continuous
 62
     7
100
AcDbLine
 10
69.2963677322
 20
88.7089774578
 30
0.0
 11
71.5901554768
 21
88.7089774578
 31
0.0
  0
LINE
  5
32A
330
216
100
AcDbEntity
 67
     1
  8
7_ALL_FEATURES
  6
Continuous
 62
     7
100
AcDbLine
 10
71.5901554768
 20
88.7089774578
 30
0.0
 11
73.8083185746
 21
88.7089774578
 31
0.0
  0
LINE
  5
32B
330
216
100
AcDbEntity
 67
     1
  8
7_ALL_FEATURES
  6
Continuous
 62
     7
100
AcDbLine
 10
73.8083185746
 20
88.7089774578
 30
0.0
 11
76.5898591483
 21
88.7089774578
 31
0.0
  0
LINE
  5
32C
330
216
100
AcDbEntity
 67
     1
  8
7_ALL_FEATURES
  6
Continuous
 62
     7
100
AcDbLine
 10
76.5898591483
 20
88.7089774578
 30
0.0
 11
78.7375632201
 21
88.7089774578
 31
0.0
  0
LINE
  5
32D
330
216
100
AcDbEntity
 67
     1
  8
7_ALL_FEATURES
  6
Continuous
 62
     7
100
AcDbLine
 10
78.7375632201
 20
88.7089774578
 30
0.0
 11
79.8023466495
 21
88.7089774578
 31
0.0
  0
LINE
  5
32E
330
216
100
AcDbEntity
 67
     1
  8
7_ALL_FEATURES
  6
Continuous
 62
     7
100
AcDbLine
 10
79.8023466495
 20
88.7089774578
 30
0.0
 11
84.2319755381
 21
88.7089774578
 31
0.0
  0
LINE
  5
32F
330
216
100
AcDbEntity
 67
     1
  8
7_ALL_FEATURES
  6
Continuous
 62
     7
100
AcDbLine
 10
84.2319755381
 20
88.7089774578
 30
0.0
 11
85.1192780124
 21
88.7089774578
 31
0.0
  0
LINE
  5
330
330
216
100
AcDbEntity
 67
     1
  8
7_ALL_FEATURES
  6
Continuous
 62
     7
100
AcDbLine
 10
85.1192780124
 20
88.7089774578
 30
0.0
 11
86.231931477
 21
88.7089774578
 31
0.0
  0
LINE
  5
331
330
216
100
AcDbEntity
 67
     1
  8
7_ALL_FEATURES
  6
Continuous
 62
     7
100
AcDbLine
 10
86.231931477
 20
88.7089774578
 30
0.0
 11
89.2418491263
 21
88.7089774578
 31
0.0
  0
LINE
  5
332
330
216
100
AcDbEntity
 67
     1
  8
7_ALL_FEATURES
  6
Continuous
 62
     7
100
AcDbLine
 10
89.2418491263
 20
88.7089774578
 30
0.0
 11
98.850656037
 21
88.7089774578
 31
0.0
  0
ARC
  5
333
330
216
100
AcDbEntity
 67
     1
  8
02___PRT_ALL_AXES
  6
Continuous
 62
     7
100
AcDbCircle
 10
84.0263257091
 20
81.0530932533
 30
0.0
 40
17.25
100
AcDbArc
 50
23.9473302601
 51
24.1792623579
  0
LINE
  5
334
330
216
100
AcDbEntity
 67
     1
  8
7_ALL_FEATURES
  6
Continuous
 62
     7
100
AcDbLine
 10
69.2019953813
 20
88.7089774578
 30
0.0
 11
69.2963677322
 21
88.7089774578
 31
0.0
  0
LINE
  5
335
330
216
100
AcDbEntity
 67
     1
  8
7_ALL_FEATURES
  6
Continuous
 62
     7
100
AcDbLine
 10
69.2019638188
 20
88.7089774578
 30
0.0
 11
68.3603254303
 21
88.1642810846
 31
0.0
  0
LINE
  5
336
330
216
100
AcDbEntity
 67
     1
  8
7_ALL_FEATURES
  6
Continuous
 62
     7
100
AcDbLine
 10
68.3603254303
 20
88.1642810846
 30
0.0
 11
68.2896953947
 21
88.1185703319
 31
0.0
  0
LINE
  5
337
330
216
100
AcDbEntity
 67
     1
  8
7_ALL_FEATURES
  6
Continuous
 62
     7
100
AcDbLine
 10
98.8506875995
 20
88.7089774578
 30
0.0
 11
99.7629560235
 21
88.1185703319
 31
0.0
  0
ARC
  5
338
330
216
100
AcDbEntity
 67
     1
  8
02___PRT_ALL_AXES
  6
Continuous
 62
     7
100
AcDbCircle
 10
84.0263257091
 20
81.0530932533
 30
0.0
 40
17.25
100
AcDbArc
 50
155.8207376421
 51
156.0526697399
  0
LINE
  5
339
330
216
100
AcDbEntity
 67
     1
  8
7_ALL_FEATURES
  6
Continuous
 62
     7
100
AcDbLine
 10
68.3899087781
 20
88.1185703319
 30
0.0
 11
99.7629560235
 21
88.1185703319
 31
0.0
  0
LINE
  5
33A
330
216
100
AcDbEntity
 67
     1
  8
7_ALL_FEATURES
  6
Continuous
 62
     7
100
AcDbLine
 10
68.2896953947
 20
88.1185703319
 30
0.0
 11
68.3899087821
 21
88.118570332
 31
0.0
  0
LINE
  5
33B
330
216
100
AcDbEntity
 67
     1
  8
7_ALL_FEATURES
  6
Continuous
 62
     7
100
AcDbLine
 10
62.1763257091
 20
63.1530932533
 30
0.0
 11
62.1763257091
 21
62.4030932533
 31
0.0
  0
LINE
  5
33C
330
216
100
AcDbEntity
 67
     1
  8
7_ALL_FEATURES
  6
Continuous
 62
     7
100
AcDbLine
 10
62.1763257091
 20
60.9030932533
 30
0.0
 11
62.1763257091
 21
60.1530932533
 31
0.0
  0
LINE
  5
33D
330
216
100
AcDbEntity
 67
     1
  8
7_ALL_FEATURES
  6
Continuous
 62
     7
100
AcDbLine
 10
105.8763257091
 20
63.1530932533
 30
0.0
 11
105.8763257091
 21
62.4030932533
 31
0.0
  0
LINE
  5
33E
330
216
100
AcDbEntity
 67
     1
  8
7_ALL_FEATURES
  6
Continuous
 62
     7
100
AcDbLine
 10
105.8763257091
 20
60.9030932533
 30
0.0
 11
105.8763257091
 21
60.1530932533
 31
0.0
  0
LINE
  5
33F
330
216
100
AcDbEntity
 67
     1
  8
7_ALL_FEATURES
  6
Continuous
 62
     7
100
AcDbLine
 10
62.1329274269
 20
56.0530932533
 30
0.0
 11
63.0263257091
 21
56.0530932533
 31
0.0
  0
LINE
  5
340
330
216
100
AcDbEntity
 67
     1
  8
7_ALL_FEATURES
  6
Continuous
 62
     7
100
AcDbLine
 10
63.0263257091
 20
56.0530932533
 30
0.0
 11
105.0263257091
 21
56.0530932533
 31
0.0
  0
LINE
  5
341
330
216
100
AcDbEntity
 67
     1
  8
7_ALL_FEATURES
  6
Continuous
 62
     7
100
AcDbLine
 10
105.0263257091
 20
56.0530932533
 30
0.0
 11
105.9197239913
 21
56.0530932533
 31
0.0
  0
LINE
  5
342
330
216
100
AcDbEntity
 67
     1
  8
7_ALL_FEATURES
  6
Continuous
 62
     7
100
AcDbLine
 10
61.4263257091
 20
88.0530932533
 30
0.0
 11
60.4263257091
 21
87.0530932533
 31
0.0
  0
LINE
  5
343
330
216
100
AcDbEntity
 67
     1
  8
7_ALL_FEATURES
  6
Continuous
 62
     7
100
AcDbLine
 10
106.6263257091
 20
88.0530932533
 30
0.0
 11
107.6263257091
 21
87.0530932533
 31
0.0
  0
LINE
  5
344
330
216
100
AcDbEntity
 67
     1
  8
02___PRT_ALL_AXES
  6
Continuous
 62
     7
100
AcDbLine
 10
113.0263257091
 20
57.5530932533
 30
0.0
 11
107.6263257091
 21
57.5530932533
 31
0.0
  0
LINE
  5
345
330
216
100
AcDbEntity
 67
     1
  8
02___PRT_ALL_AXES
  6
Continuous
 62
     7
100
AcDbLine
 10
107.6263257091
 20
57.5530932533
 30
0.0
 11
60.4263257091
 21
57.5530932533
 31
0.0
  0
LINE
  5
346
330
216
100
AcDbEntity
 67
     1
  8
02___PRT_ALL_AXES
  6
Continuous
 62
     7
100
AcDbLine
 10
60.4263257091
 20
57.5530932533
 30
0.0
 11
55.0263257091
 21
57.5530932533
 31
0.0
  0
LINE
  5
347
330
216
100
AcDbEntity
 67
     1
  8
7_ALL_FEATURES
  6
Continuous
 62
     7
100
AcDbLine
 10
61.4263257091
 20
88.0530932533
 30
0.0
 11
67.3935366025
 21
88.0530932533
 31
0.0
  0
LINE
  5
348
330
216
100
AcDbEntity
 67
     1
  8
7_ALL_FEATURES
  6
Continuous
 62
     7
100
AcDbLine
 10
67.3935366025
 20
88.0530932533
 30
0.0
 11
100.6591148157
 21
88.0530932533
 31
0.0
  0
LINE
  5
349
330
216
100
AcDbEntity
 67
     1
  8
7_ALL_FEATURES
  6
Continuous
 62
     7
100
AcDbLine
 10
100.6591148157
 20
88.0530932533
 30
0.0
 11
106.6263257091
 21
88.0530932533
 31
0.0
  0
ARC
  5
34A
330
216
100
AcDbEntity
 67
     1
  8
7_ALL_FEATURES
  6
Continuous
 62
     7
100
AcDbCircle
 10
62.1329274269
 20
57.5530932533
 30
0.0
 40
1.5
100
AcDbArc
 50
261.8698976458
 51
270.0
  0
ARC
  5
34B
330
216
100
AcDbEntity
 67
     1
  8
7_ALL_FEATURES
  6
Continuous
 62
     7
100
AcDbCircle
 10
105.9197239913
 20
57.5530932533
 30
0.0
 40
1.5
100
AcDbArc
 50
270.0
 51
278.1301023542
  0
LINE
  5
34C
330
216
100
AcDbEntity
 67
     1
  8
7_ALL_FEATURES
  6
Continuous
 62
     7
100
AcDbLine
 10
107.6263257091
 20
70.0530932533
 30
0.0
 11
107.6263257091
 21
73.4530932533
 31
0.0
  0
SPLINE
  5
34D
330
216
100
AcDbEntity
 67
     1
  8
7_ALL_FEATURES
  6
Continuous
 62
     7
100
AcDbSpline
 70
     0
 71
     3
 72
    57
 73
    53
 74
     0
 42
0.000000001
 43
0.0000001
 40
0.0
 40
0.0
 40
0.0
 40
0.0
 40
0.0001615081
 40
0.0003650247
 40
0.0006501729
 40
0.0014647332
 40
0.0026039283
 40
0.0040664972
 40
0.0058511787
 40
0.0079564887
 40
0.0103804207
 40
0.0161754724
 40
0.0232147263
 40
0.0314718606
 40
0.0409165404
 40
0.0515139036
 40
0.0632251303
 40
0.089815578
 40
0.1203094074
 40
0.1542883622
 40
0.1913105679
 40
0.2309270807
 40
0.2726969391
 40
0.3161987811
 40
0.3610379463
 40
0.4068482606
 40
0.5000390532
 40
0.5932288071
 40
0.6390377906
 40
0.6838750368
 40
0.7273743249
 40
0.769140947
 40
0.8087535016
 40
0.8457710044
 40
0.8797445087
 40
0.9102321661
 40
0.9368157732
 40
0.9485233703
 40
0.9591168484
 40
0.9685577347
 40
0.9768110457
 40
0.9838454532
 40
0.9896367348
 40
0.9920594731
 40
0.9941632772
 40
0.9959455725
 40
0.9974050638
 40
0.9985410008
 40
0.999352635
 40
0.9996366046
 40
0.9998392176
 40
1.0
 40
1.0
 40
1.0
 40
1.0
 10
107.6263257091
 20
73.4530932533
 30
0.0
 10
107.6264086284
 20
73.4528024412
 30
0.0
 10
107.6261230882
 20
73.4544143657
 30
0.0
 10
107.6260608304
 20
73.4551340552
 30
0.0
 10
107.625675774
 20
73.4578304881
 30
0.0
 10
107.6251572831
 20
73.4617777053
 30
0.0
 10
107.6242820742
 20
73.4682167674
 30
0.0
 10
107.623196264
 20
73.4763177944
 30
0.0
 10
107.621862758
 20
73.486265041
 30
0.0
 10
107.6202996276
 20
73.4979783191
 30
0.0
 10
107.6177531708
 20
73.5171428292
 30
0.0
 10
107.6140207214
 20
73.5454657206
 30
0.0
 10
107.6089268443
 20
73.5846272794
 30
0.0
 10
107.6030431163
 20
73.6305763316
 30
0.0
 10
107.5964349037
 20
73.683149206
 30
0.0
 10
107.5891751073
 20
73.7421581437
 30
0.0
 10
107.5782612016
 20
73.8330624031
 30
0.0
 10
107.5635509307
 20
73.9610312622
 30
0.0
 10
107.5453572691
 20
74.130563445
 30
0.0
 10
107.5266975578
 20
74.319683624
 30
0.0
 10
107.5083146493
 20
74.5259865128
 30
0.0
 10
107.4909077703
 20
74.7470106503
 30
0.0
 10
107.4751061425
 20
74.9803177224
 30
0.0
 10
107.4614501394
 20
75.2235555733
 30
0.0
 10
107.4503806152
 20
75.4744986077
 30
0.0
 10
107.4394600977
 20
75.818549256
 30
0.0
 10
107.433919014
 20
76.2533106997
 30
0.0
 10
107.4394692957
 20
76.6880695323
 30
0.0
 10
107.4503967312
 20
77.0321119264
 30
0.0
 10
107.4614708832
 20
77.2830438785
 30
0.0
 10
107.4751308624
 20
77.5262670478
 30
0.0
 10
107.4909356457
 20
77.7595556106
 30
0.0
 10
107.5083447005
 20
77.9805572301
 30
0.0
 10
107.5267286704
 20
78.1868334961
 30
0.0
 10
107.5453882309
 20
78.3759229731
 30
0.0
 10
107.5635804868
 20
78.5454205375
 30
0.0
 10
107.5782886919
 20
78.6733582677
 30
0.0
 10
107.5892003309
 20
78.7642357278
 30
0.0
 10
107.5964580806
 20
78.8232235844
 30
0.0
 10
107.6030640478
 20
78.8757750358
 30
0.0
 10
107.6089451482
 20
78.921700898
 30
0.0
 10
107.6140362409
 20
78.9608393309
 30
0.0
 10
107.6177664435
 20
78.989143991
 30
0.0
 10
107.6203114002
 20
79.0082964811
 30
0.0
 10
107.6218732906
 20
79.0200003175
 30
0.0
 10
107.6232051476
 20
79.0299346072
 30
0.0
 10
107.6242886531
 20
79.0380195399
 30
0.0
 10
107.6251619257
 20
79.0444410689
 30
0.0
 10
107.6256778681
 20
79.048375518
 30
0.0
 10
107.6260625971
 20
79.0510612754
 30
0.0
 10
107.6261225954
 20
79.0517784489
 30
0.0
 10
107.6264106874
 20
79.0533820542
 30
0.0
 10
107.6263257091
 20
79.0530932533
 30
0.0
  0
LINE
  5
34E
330
216
100
AcDbEntity
 67
     1
  8
7_ALL_FEATURES
  6
Continuous
 62
     7
100
AcDbLine
 10
107.6263257091
 20
79.0530932533
 30
0.0
 11
107.6263257091
 21
87.0530932533
 31
0.0
  0
LINE
  5
34F
330
216
100
AcDbEntity
 67
     1
  8
7_ALL_FEATURES
  6
Continuous
 62
     7
100
AcDbLine
 10
60.4263257091
 20
79.0530932533
 30
0.0
 11
60.4263257091
 21
87.0530932533
 31
0.0
  0
SPLINE
  5
350
330
216
100
AcDbEntity
 67
     1
  8
7_ALL_FEATURES
  6
Continuous
 62
     7
100
AcDbSpline
 70
     0
 71
     3
 72
    57
 73
    53
 74
     0
 42
0.000000001
 43
0.0000001
 40
0.0
 40
0.0
 40
0.0
 40
0.0
 40
0.0001615133
 40
0.0003650325
 40
0.0006501832
 40
0.0014647483
 40
0.0026039475
 40
0.0040665198
 40
0.0058512037
 40
0.0079565152
 40
0.0103804484
 40
0.016175505
 40
0.0232147638
 40
0.0314718988
 40
0.0409165792
 40
0.0515139426
 40
0.0632251677
 40
0.0898156095
 40
0.1203094292
 40
0.1542883714
 40
0.1913105619
 40
0.2309270571
 40
0.2726968964
 40
0.3161987181
 40
0.3610378624
 40
0.4068481556
 40
0.500038907
 40
0.5932286235
 40
0.6390375909
 40
0.6838748234
 40
0.7273741008
 40
0.7691407159
 40
0.8087532677
 40
0.8457707729
 40
0.879744285
 40
0.9102319561
 40
0.9368155828
 40
0.9485231927
 40
0.9591166832
 40
0.9685575852
 40
0.9768109163
 40
0.9838453396
 40
0.9896366357
 40
0.9920593834
 40
0.9941631997
 40
0.9959455107
 40
0.9974050197
 40
0.9985409741
 40
0.999352623
 40
0.9996365982
 40
0.9998392153
 40
1.0
 40
1.0
 40
1.0
 40
1.0
 10
60.4263257091
 20
79.0530932533
 30
0.0
 10
60.4262427011
 20
79.0533840502
 30
0.0
 10
60.4265283843
 20
79.0517721269
 30
0.0
 10
60.426590573
 20
79.0510524022
 30
0.0
 10
60.4269756722
 20
79.0483559631
 30
0.0
 10
60.427494136
 20
79.0444087152
 30
0.0
 10
60.4283693623
 20
79.0379696352
 30
0.0
 10
60.4294551694
 20
79.0298685878
 30
0.0
 10
60.4307886792
 20
79.0199213284
 30
0.0
 10
60.4323518101
 20
79.0082080404
 30
0.0
 10
60.4348982689
 20
78.9890435162
 30
0.0
 10
60.4386307206
 20
78.9607206042
 30
0.0
 10
60.4437245999
 20
78.921559026
 30
0.0
 10
60.449608329
 20
78.8756099622
 30
0.0
 10
60.4562165413
 20
78.8230370849
 30
0.0
 10
60.463476337
 20
78.7640281487
 30
0.0
 10
60.4743902401
 20
78.6731239028
 30
0.0
 10
60.4891005062
 20
78.5451550755
 30
0.0
 10
60.507294161
 20
78.375622945
 30
0.0
 10
60.5259538646
 20
78.1865028357
 30
0.0
 10
60.5443367655
 20
77.9802000316
 30
0.0
 10
60.5617436377
 20
77.7591759913
 30
0.0
 10
60.5775452604
 20
77.5258690258
 30
0.0
 10
60.5912012606
 20
77.282631288
 30
0.0
 10
60.6022707847
 20
77.0316883703
 30
0.0
 10
60.6131913061
 20
76.687637878
 30
0.0
 10
60.6187324024
 20
76.2528766211
 30
0.0
 10
60.6131821426
 20
75.8181179655
 30
0.0
 10
60.6022547291
 20
75.4740756964
 30
0.0
 10
60.5911805945
 20
75.2231438195
 30
0.0
 10
60.577520633
 20
74.9799207083
 30
0.0
 10
60.5617158667
 20
74.7466321828
 30
0.0
 10
60.5443068268
 20
74.525630576
 30
0.0
 10
60.5259228685
 20
74.319354295
 30
0.0
 10
60.5072633151
 20
74.1302647724
 30
0.0
 10
60.4890710607
 20
73.9607671307
 30
0.0
 10
60.4743628525
 20
73.8328293139
 30
0.0
 10
60.4634512079
 20
73.74195177
 30
0.0
 10
60.4561934516
 20
73.682963837
 30
0.0
 10
60.4495874751
 20
73.6304122957
 30
0.0
 10
60.4437063641
 20
73.5844863373
 30
0.0
 10
60.4386152605
 20
73.5453478106
 30
0.0
 10
60.4348850489
 20
73.5170430769
 30
0.0
 10
60.432340084
 20
73.4978905196
 30
0.0
 10
60.4307781843
 20
73.486186614
 30
0.0
 10
60.429446317
 20
73.4762522393
 30
0.0
 10
60.4283627964
 20
73.4681672136
 30
0.0
 10
60.4274895179
 20
73.4617455886
 30
0.0
 10
60.4269735528
 20
73.4578110776
 30
0.0
 10
60.4265888353
 20
73.4551252635
 30
0.0
 10
60.4265288033
 20
73.4544080876
 30
0.0
 10
60.4262407696
 20
73.4528044365
 30
0.0
 10
60.4263257091
 20
73.4530932533
 30
0.0
  0
LINE
  5
351
330
216
100
AcDbEntity
 67
     1
  8
7_ALL_FEATURES
  6
Continuous
 62
     7
100
AcDbLine
 10
60.4263257091
 20
70.0530932533
 30
0.0
 11
60.4263257091
 21
73.4530932533
 31
0.0
  0
LINE
  5
352
330
216
100
AcDbEntity
 67
     1
  8
7_ALL_FEATURES
  6
Continuous
 62
     7
100
AcDbLine
 10
107.6105006176
 20
63.1530932533
 30
0.0
 11
105.8763257091
 21
63.1530932533
 31
0.0
  0
LINE
  5
353
330
216
100
AcDbEntity
 67
     1
  8
7_ALL_FEATURES
  6
Continuous
 62
     7
100
AcDbLine
 10
105.8763257091
 20
63.1530932533
 30
0.0
 11
62.1763257091
 21
63.1530932533
 31
0.0
  0
LINE
  5
354
330
216
100
AcDbEntity
 67
     1
  8
7_ALL_FEATURES
  6
Continuous
 62
     7
100
AcDbLine
 10
62.1763257091
 20
63.1530932533
 30
0.0
 11
60.4421508006
 21
63.1530932533
 31
0.0
  0
LINE
  5
355
330
216
100
AcDbEntity
 67
     1
  8
7_ALL_FEATURES
  6
Continuous
 62
     7
100
AcDbLine
 10
61.9207953926
 20
56.0681690128
 30
0.0
 11
55.0263257091
 21
57.0530932533
 31
0.0
  0
LINE
  5
356
330
216
100
AcDbEntity
 67
     1
  8
7_ALL_FEATURES
  6
Continuous
 62
     7
100
AcDbLine
 10
106.1318560257
 20
56.0681690128
 30
0.0
 11
113.0263257091
 21
57.0530932533
 31
0.0
  0
LINE
  5
357
330
216
100
AcDbEntity
 67
     1
  8
02___PRT_ALL_AXES
  6
Continuous
 62
     7
100
AcDbLine
 10
113.0263257091
 20
57.0530932533
 30
0.0
 11
113.0263257091
 21
57.5530932533
 31
0.0
  0
LINE
  5
358
330
216
100
AcDbEntity
 67
     1
  8
02___PRT_ALL_AXES
  6
Continuous
 62
     7
100
AcDbLine
 10
55.0263257091
 20
57.0530932533
 30
0.0
 11
55.0263257091
 21
57.5530932533
 31
0.0
  0
LINE
  5
359
330
216
100
AcDbEntity
 67
     1
  8
7_ALL_FEATURES
  6
Continuous
 62
     7
100
AcDbLine
 10
60.4428402484
 20
60.1530932533
 30
0.0
 11
62.1763257091
 21
60.1530932533
 31
0.0
  0
LINE
  5
35A
330
216
100
AcDbEntity
 67
     1
  8
7_ALL_FEATURES
  6
Continuous
 62
     7
100
AcDbLine
 10
62.1763257091
 20
60.1530932533
 30
0.0
 11
105.8763257091
 21
60.1530932533
 31
0.0
  0
LINE
  5
35B
330
216
100
AcDbEntity
 67
     1
  8
7_ALL_FEATURES
  6
Continuous
 62
     7
100
AcDbLine
 10
105.8763257091
 20
60.1530932533
 30
0.0
 11
107.6098111698
 21
60.1530932533
 31
0.0
  0
LINE
  5
35C
330
216
100
AcDbEntity
 67
     1
  8
7_ALL_FEATURES
  6
Continuous
 62
     7
100
AcDbLine
 10
107.6263257091
 20
57.5530932533
 30
0.0
 11
107.6263257091
 21
58.4655288186
 31
0.0
  0
LINE
  5
35D
330
216
100
AcDbEntity
 67
     1
  8
7_ALL_FEATURES
  6
Continuous
 62
     7
100
AcDbLine
 10
60.4263257091
 20
57.5530932533
 30
0.0
 11
60.4263257091
 21
58.4655288186
 31
0.0
  0
LINE
  5
35E
330
216
100
AcDbEntity
 67
     1
  8
7_ALL_FEATURES
  6
Continuous
 62
     9
100
AcDbLine
 10
61.9207953926
 20
56.0681690128
 30
0.0
 11
106.1318560257
 21
56.0681690128
 31
0.0
  0
LINE
  5
35F
330
216
100
AcDbEntity
 67
     1
  8
02___PRT_ALL_AXES
  6
Continuous
 62
     7
100
AcDbLine
 10
113.0263257091
 20
57.0530932533
 30
0.0
 11
55.0263257091
 21
57.0530932533
 31
0.0
  0
LINE
  5
360
330
216
100
AcDbEntity
 67
     1
  8
7_ALL_FEATURES
  6
Continuous
 62
     7
100
AcDbLine
 10
60.4263257091
 20
87.0530932533
 30
0.0
 11
107.6263257091
 21
87.0530932533
 31
0.0
  0
LINE
  5
361
330
216
100
AcDbEntity
 67
     1
  8
7_ALL_FEATURES
  6
Continuous
 62
     3
100
AcDbLine
 10
59.1201079265
 20
58.1155288186
 30
0.0
 11
48.0201079265
 21
77.3412927826
 31
0.0
  0
ARC
  5
362
330
216
100
AcDbEntity
 67
     1
  8
7_ALL_FEATURES
  6
Continuous
 62
     3
100
AcDbCircle
 10
60.7763257091
 20
63.2530932533
 30
0.0
 40
0.35
100
AcDbArc
 50
180.0
 51
195.6717846261
  0
ARC
  5
363
330
216
100
AcDbEntity
 67
     1
  8
7_ALL_FEATURES
  6
Continuous
 62
     3
100
AcDbCircle
 10
60.7763257091
 20
63.2530932533
 30
0.0
 40
0.35
100
AcDbArc
 50
195.6717846261
 51
270.0
  0
LINE
  5
364
330
216
100
AcDbEntity
 67
     1
  8
7_ALL_FEATURES
  6
Continuous
 62
     3
100
AcDbLine
 10
60.4263257091
 20
63.2530932533
 30
0.0
 11
60.4263257091
 21
70.0530932533
 31
0.0
  0
LINE
  5
365
330
216
100
AcDbEntity
 67
     1
  8
7_ALL_FEATURES
  6
Continuous
 62
     3
100
AcDbLine
 10
60.4263257091
 20
60.0530932533
 30
0.0
 11
60.4263257091
 21
58.4655288186
 31
0.0
  0
ARC
  5
366
330
216
100
AcDbEntity
 67
     1
  8
7_ALL_FEATURES
  6
Continuous
 62
     3
100
AcDbCircle
 10
59.7263257091
 20
58.4655288186
 30
0.0
 40
0.7
100
AcDbArc
 50
210.0
 51
360.0
  0
ARC
  5
367
330
216
100
AcDbEntity
 67
     1
  8
7_ALL_FEATURES
  6
Continuous
 62
     3
100
AcDbCircle
 10
48.6263257091
 20
77.6912927826
 30
0.0
 40
0.7
100
AcDbArc
 50
180.0
 51
210.0
  0
LINE
  5
368
330
216
100
AcDbEntity
 67
     1
  8
7_ALL_FEATURES
  6
Continuous
 62
     3
100
AcDbLine
 10
47.9263257091
 20
77.6912927826
 30
0.0
 11
47.9263257091
 21
83.5037283479
 31
0.0
  0
LINE
  5
369
330
216
100
AcDbEntity
 67
     1
  8
7_ALL_FEATURES
  6
Continuous
 62
     3
100
AcDbLine
 10
60.7763257091
 20
60.4030932533
 30
0.0
 11
61.3763257091
 21
60.4030932533
 31
0.0
  0
ARC
  5
36A
330
216
100
AcDbEntity
 67
     1
  8
7_ALL_FEATURES
  6
Continuous
 62
     3
100
AcDbCircle
 10
61.3763257091
 20
62.2030932533
 30
0.0
 40
0.7
100
AcDbArc
 50
16.6920503368
 51
90.0
  0
ARC
  5
36B
330
216
100
AcDbEntity
 67
     1
  8
7_ALL_FEATURES
  6
Continuous
 62
     3
100
AcDbCircle
 10
60.7763257091
 20
60.0530932533
 30
0.0
 40
0.35
100
AcDbArc
 50
90.0
 51
164.2039496886
  0
ARC
  5
36C
330
216
100
AcDbEntity
 67
     1
  8
7_ALL_FEATURES
  6
Continuous
 62
     3
100
AcDbCircle
 10
60.7763257091
 20
60.0530932533
 30
0.0
 40
0.35
100
AcDbArc
 50
164.2039496886
 51
180.0
  0
LINE
  5
36D
330
216
100
AcDbEntity
 67
     1
  8
7_ALL_FEATURES
  6
Continuous
 62
     3
100
AcDbLine
 10
60.7763257091
 20
62.9030932533
 30
0.0
 11
61.3763257091
 21
62.9030932533
 31
0.0
  0
ARC
  5
36E
330
216
100
AcDbEntity
 67
     1
  8
7_ALL_FEATURES
  6
Continuous
 62
     3
100
AcDbCircle
 10
61.3763257091
 20
61.1030932533
 30
0.0
 40
0.7
100
AcDbArc
 50
270.0
 51
343.3079496632
  0
LINE
  5
36F
330
216
100
AcDbEntity
 67
     1
  8
7_ALL_FEATURES
  6
Continuous
 62
     3
100
AcDbLine
 10
120.0325434918
 20
77.3412927826
 30
0.0
 11
108.9325434918
 21
58.1155288186
 31
0.0
  0
ARC
  5
370
330
216
100
AcDbEntity
 67
     1
  8
7_ALL_FEATURES
  6
Continuous
 62
     3
100
AcDbCircle
 10
107.2763257091
 20
63.2530932533
 30
0.0
 40
0.35
100
AcDbArc
 50
344.3282153739
 51
360.0
  0
ARC
  5
371
330
216
100
AcDbEntity
 67
     1
  8
7_ALL_FEATURES
  6
Continuous
 62
     3
100
AcDbCircle
 10
107.2763257091
 20
63.2530932533
 30
0.0
 40
0.35
100
AcDbArc
 50
270.0
 51
344.3282153739
  0
LINE
  5
372
330
216
100
AcDbEntity
 67
     1
  8
7_ALL_FEATURES
  6
Continuous
 62
     3
100
AcDbLine
 10
107.6263257091
 20
58.4655288186
 30
0.0
 11
107.6263257091
 21
60.0530932533
 31
0.0
  0
LINE
  5
373
330
216
100
AcDbEntity
 67
     1
  8
7_ALL_FEATURES
  6
Continuous
 62
     3
100
AcDbLine
 10
107.6263257091
 20
70.0530932533
 30
0.0
 11
107.6263257091
 21
63.2530932533
 31
0.0
  0
ARC
  5
374
330
216
100
AcDbEntity
 67
     1
  8
7_ALL_FEATURES
  6
Continuous
 62
     3
100
AcDbCircle
 10
108.3263257091
 20
58.4655288186
 30
0.0
 40
0.7
100
AcDbArc
 50
180.0
 51
330.0
  0
ARC
  5
375
330
216
100
AcDbEntity
 67
     1
  8
7_ALL_FEATURES
  6
Continuous
 62
     3
100
AcDbCircle
 10
119.4263257091
 20
77.6912927826
 30
0.0
 40
0.7
100
AcDbArc
 50
330.0
 51
360.0
  0
LINE
  5
376
330
216
100
AcDbEntity
 67
     1
  8
7_ALL_FEATURES
  6
Continuous
 62
     3
100
AcDbLine
 10
120.1263257091
 20
83.5037283479
 30
0.0
 11
120.1263257091
 21
77.6912927826
 31
0.0
  0
LINE
  5
377
330
216
100
AcDbEntity
 67
     1
  8
7_ALL_FEATURES
  6
Continuous
 62
     3
100
AcDbLine
 10
106.6763257091
 20
60.4030932533
 30
0.0
 11
107.2763257091
 21
60.4030932533
 31
0.0
  0
ARC
  5
378
330
216
100
AcDbEntity
 67
     1
  8
7_ALL_FEATURES
  6
Continuous
 62
     3
100
AcDbCircle
 10
106.6763257091
 20
62.2030932533
 30
0.0
 40
0.7
100
AcDbArc
 50
90.0
 51
163.3079496632
  0
ARC
  5
379
330
216
100
AcDbEntity
 67
     1
  8
7_ALL_FEATURES
  6
Continuous
 62
     3
100
AcDbCircle
 10
107.2763257091
 20
60.0530932533
 30
0.0
 40
0.35
100
AcDbArc
 50
15.7960503114
 51
90.0
  0
ARC
  5
37A
330
216
100
AcDbEntity
 67
     1
  8
7_ALL_FEATURES
  6
Continuous
 62
     3
100
AcDbCircle
 10
107.2763257091
 20
60.0530932533
 30
0.0
 40
0.35
100
AcDbArc
 50
0.0
 51
15.7960503114
  0
LINE
  5
37B
330
216
100
AcDbEntity
 67
     1
  8
7_ALL_FEATURES
  6
Continuous
 62
     3
100
AcDbLine
 10
106.6763257091
 20
62.9030932533
 30
0.0
 11
107.2763257091
 21
62.9030932533
 31
0.0
  0
ARC
  5
37C
330
216
100
AcDbEntity
 67
     1
  8
7_ALL_FEATURES
  6
Continuous
 62
     3
100
AcDbCircle
 10
106.6763257091
 20
61.1030932533
 30
0.0
 40
0.7
100
AcDbArc
 50
196.6920503368
 51
270.0
  0
LINE
  5
37D
330
216
100
AcDbEntity
 67
     1
  8
3_ALL_AXES
  6
Continuous
 62
     7
100
AcDbLine
 10
63.1637395799
 20
146.6939915184
 30
0.0
 11
63.0671126698
 21
146.6939915184
 31
0.0
  0
LINE
  5
37E
330
216
100
AcDbEntity
 67
     1
  8
3_ALL_AXES
  6
Continuous
 62
     7
100
AcDbLine
 10
63.1637395799
 20
144.1939915184
 30
0.0
 11
63.0671126698
 21
144.1939915184
 31
0.0
  0
LINE
  5
37F
330
216
100
AcDbEntity
 67
     1
  8
3_ALL_AXES
  6
Continuous
 62
     7
100
AcDbLine
 10
104.8889118384
 20
144.1939915184
 30
0.0
 11
104.9855387484
 21
144.1939915184
 31
0.0
  0
LINE
  5
380
330
216
100
AcDbEntity
 67
     1
  8
3_ALL_AXES
  6
Continuous
 62
     7
100
AcDbLine
 10
104.8889118384
 20
146.6939915184
 30
0.0
 11
104.9855387484
 21
146.6939915184
 31
0.0
  0
ARC
  5
381
330
216
100
AcDbEntity
 67
     1
  8
02___PRT_ALL_AXES
  6
Continuous
 62
     7
100
AcDbCircle
 10
84.0263257091
 20
145.4439915184
 30
0.0
 40
8.35
100
AcDbArc
 50
180.0
 51
360.0
  0
ARC
  5
382
330
216
100
AcDbEntity
 67
     1
  8
02___PRT_ALL_AXES
  6
Continuous
 62
     7
100
AcDbCircle
 10
84.0263257091
 20
145.4439915184
 30
0.0
 40
8.35
100
AcDbArc
 50
0.0
 51
180.0
  0
ARC
  5
383
330
216
100
AcDbEntity
 67
     1
  8
3_ALL_AXES
  6
Continuous
 62
     7
100
AcDbCircle
 10
84.0263257091
 20
145.4439915184
 30
0.0
 40
14.5
100
AcDbArc
 50
263.5304307476
 51
83.5304307476
  0
ARC
  5
384
330
216
100
AcDbEntity
 67
     1
  8
3_ALL_AXES
  6
Continuous
 62
     7
100
AcDbCircle
 10
84.0263257091
 20
145.4439915184
 30
0.0
 40
14.5
100
AcDbArc
 50
83.5304307476
 51
263.5304307476
  0
ARC
  5
385
330
216
100
AcDbEntity
 67
     1
  8
7_ALL_FEATURES
  6
Continuous
 62
     7
100
AcDbCircle
 10
84.0263257091
 20
145.4439915184
 30
0.0
 40
8.95
100
AcDbArc
 50
263.5304307476
 51
83.5304307476
  0
ARC
  5
386
330
216
100
AcDbEntity
 67
     1
  8
7_ALL_FEATURES
  6
Continuous
 62
     7
100
AcDbCircle
 10
84.0263257091
 20
145.4439915184
 30
0.0
 40
8.95
100
AcDbArc
 50
83.5304307476
 51
263.5304307476
  0
ARC
  5
387
330
216
100
AcDbEntity
 67
     1
  8
7_ALL_FEATURES
  6
Continuous
 62
     9
100
AcDbCircle
 10
84.0263257091
 20
145.4439915184
 30
0.0
 40
10.95
100
AcDbArc
 50
263.5304307476
 51
83.5304307476
  0
ARC
  5
388
330
216
100
AcDbEntity
 67
     1
  8
7_ALL_FEATURES
  6
Continuous
 62
     9
100
AcDbCircle
 10
84.0263257091
 20
145.4439915184
 30
0.0
 40
10.95
100
AcDbArc
 50
83.5304307476
 51
263.5304307476
  0
ARC
  5
389
330
216
100
AcDbEntity
 67
     1
  8
7_ALL_FEATURES
  6
Continuous
 62
     9
100
AcDbCircle
 10
84.0263257091
 20
145.4439915184
 30
0.0
 40
14.72
100
AcDbArc
 50
353.5304307476001
 51
173.5304307476
  0
ARC
  5
38A
330
216
100
AcDbEntity
 67
     1
  8
7_ALL_FEATURES
  6
Continuous
 62
     9
100
AcDbCircle
 10
84.0263257091
 20
145.4439915184
 30
0.0
 40
14.72
100
AcDbArc
 50
173.5304307476
 51
353.5304307476001
  0
ARC
  5
38B
330
216
100
AcDbEntity
 67
     1
  8
3_ALL_AXES
  6
Continuous
 62
     7
100
AcDbCircle
 10
84.0263257091
 20
145.4439915184
 30
0.0
 40
20.9
100
AcDbArc
 50
180.0
 51
360.0
  0
ARC
  5
38C
330
216
100
AcDbEntity
 67
     1
  8
7_ALL_FEATURES
  6
Continuous
 62
     7
100
AcDbCircle
 10
84.0263257091
 20
145.4439915184
 30
0.0
 40
17.15
100
AcDbArc
 50
180.0
 51
360.0
  0
ARC
  5
38D
330
216
100
AcDbEntity
 67
     1
  8
3_ALL_AXES
  6
Continuous
 62
     7
100
AcDbCircle
 10
84.0263257091
 20
145.4439915184
 30
0.0
 40
20.9
100
AcDbArc
 50
0.0
 51
180.0
  0
ARC
  5
38E
330
216
100
AcDbEntity
 67
     1
  8
7_ALL_FEATURES
  6
Continuous
 62
     7
100
AcDbCircle
 10
84.0263257091
 20
145.4439915184
 30
0.0
 40
17.15
100
AcDbArc
 50
0.0
 51
180.0
  0
ARC
  5
38F
330
216
100
AcDbEntity
 67
     1
  8
7_ALL_FEATURES
  6
Continuous
 62
     9
100
AcDbCircle
 10
84.0263257091
 20
145.4439915184
 30
0.0
 40
18.3716889669
100
AcDbArc
 50
0.0
 51
179.9999999675
  0
ARC
  5
390
330
216
100
AcDbEntity
 67
     1
  8
7_ALL_FEATURES
  6
Continuous
 62
     9
100
AcDbCircle
 10
84.0263257091
 20
145.4439915184
 30
0.0
 40
18.3716889669
100
AcDbArc
 50
179.9999999675
 51
359.9999999675001
  0
ARC
  5
391
330
216
100
AcDbEntity
 67
     1
  8
7_ALL_FEATURES
  6
Continuous
 62
     9
100
AcDbCircle
 10
84.0263257091
 20
145.4439915184
 30
0.0
 40
18.6469556545
100
AcDbArc
 50
0.0000002374
 51
180.0000002374
  0
ARC
  5
392
330
216
100
AcDbEntity
 67
     1
  8
7_ALL_FEATURES
  6
Continuous
 62
     9
100
AcDbCircle
 10
84.0263257091
 20
145.4439915184
 30
0.0
 40
18.6469556545
100
AcDbArc
 50
180.0000002374
 51
0.0000002374
  0
ARC
  5
393
330
216
100
AcDbEntity
 67
     1
  8
02___PRT_ALL_AXES
  6
Continuous
 62
     7
100
AcDbCircle
 10
84.0263257091
 20
145.4439915184
 30
0.0
 40
21.0
100
AcDbArc
 50
180.0
 51
360.0
  0
ARC
  5
394
330
216
100
AcDbEntity
 67
     1
  8
02___PRT_ALL_AXES
  6
Continuous
 62
     7
100
AcDbCircle
 10
84.0263257091
 20
145.4439915184
 30
0.0
 40
21.0
100
AcDbArc
 50
0.0
 51
180.0
  0
ARC
  5
395
330
216
100
AcDbEntity
 67
     1
  8
02___PRT_ALL_AXES
  6
Continuous
 62
     7
100
AcDbCircle
 10
84.0263257091
 20
145.4439915184
 30
0.0
 40
29.0
100
AcDbArc
 50
180.0
 51
360.0
  0
ARC
  5
396
330
216
100
AcDbEntity
 67
     1
  8
02___PRT_ALL_AXES
  6
Continuous
 62
     7
100
AcDbCircle
 10
84.0263257091
 20
145.4439915184
 30
0.0
 40
29.0
100
AcDbArc
 50
0.0
 51
180.0
  0
ARC
  5
397
330
216
100
AcDbEntity
 67
     1
  8
7_ALL_FEATURES
  6
Continuous
 62
     9
100
AcDbCircle
 10
84.0263257091
 20
145.4439915184
 30
0.0
 40
21.8933982822
100
AcDbArc
 50
180.0
 51
360.0
  0
ARC
  5
398
330
216
100
AcDbEntity
 67
     1
  8
7_ALL_FEATURES
  6
Continuous
 62
     9
100
AcDbCircle
 10
84.0263257091
 20
145.4439915184
 30
0.0
 40
21.8933982822
100
AcDbArc
 50
0.0
 51
180.0
  0
ARC
  5
399
330
216
100
AcDbEntity
 67
     1
  8
7_ALL_FEATURES
  6
Continuous
 62
     9
100
AcDbCircle
 10
84.0263257091
 20
145.4439915184
 30
0.0
 40
22.1055303166
100
AcDbArc
 50
0.0
 51
180.0
  0
ARC
  5
39A
330
216
100
AcDbEntity
 67
     1
  8
7_ALL_FEATURES
  6
Continuous
 62
     9
100
AcDbCircle
 10
84.0263257091
 20
145.4439915184
 30
0.0
 40
22.1055303166
100
AcDbArc
 50
180.0
 51
360.0
  0
LINE
  5
39B
330
216
100
AcDbEntity
 67
     1
  8
7_ALL_FEATURES
  6
Continuous
 62
     3
100
AcDbLine
 10
48.0201079265
 20
141.4439915184
 30
0.0
 11
55.3065591721
 21
141.4439915184
 31
0.0
  0
LINE
  5
39C
330
216
100
AcDbEntity
 67
     1
  8
7_ALL_FEATURES
  6
Continuous
 62
     3
100
AcDbLine
 10
55.3065591721
 20
149.4439915184
 30
0.0
 11
48.0201079265
 21
149.4439915184
 31
0.0
  0
LINE
  5
39D
330
216
100
AcDbEntity
 67
     1
  8
7_ALL_FEATURES
  6
Continuous
 62
     3
100
AcDbLine
 10
47.9263257091
 20
141.4439915184
 30
0.0
 11
48.0201079265
 21
141.4439915184
 31
0.0
  0
LINE
  5
39E
330
216
100
AcDbEntity
 67
     1
  8
7_ALL_FEATURES
  6
Continuous
 62
     3
100
AcDbLine
 10
47.9263257091
 20
149.4439915184
 30
0.0
 11
48.0201079265
 21
149.4439915184
 31
0.0
  0
LINE
  5
39F
330
216
100
AcDbEntity
 67
     1
  8
7_ALL_FEATURES
  6
Continuous
 62
     3
100
AcDbLine
 10
47.9263257091
 20
141.4439915184
 30
0.0
 11
47.9263257091
 21
149.4439915184
 31
0.0
  0
LINE
  5
3A0
330
216
100
AcDbEntity
 67
     1
  8
7_ALL_FEATURES
  6
Continuous
 62
     9
100
AcDbLine
 10
48.0201079265
 20
141.4439915184
 30
0.0
 11
48.0201079265
 21
149.4439915184
 31
0.0
  0
LINE
  5
3A1
330
216
100
AcDbEntity
 67
     1
  8
7_ALL_FEATURES
  6
Continuous
 62
     3
100
AcDbLine
 10
120.0325434918
 20
149.4439915184
 30
0.0
 11
112.7460922462
 21
149.4439915184
 31
0.0
  0
LINE
  5
3A2
330
216
100
AcDbEntity
 67
     1
  8
7_ALL_FEATURES
  6
Continuous
 62
     3
100
AcDbLine
 10
112.7460922462
 20
141.4439915184
 30
0.0
 11
120.0325434918
 21
141.4439915184
 31
0.0
  0
LINE
  5
3A3
330
216
100
AcDbEntity
 67
     1
  8
7_ALL_FEATURES
  6
Continuous
 62
     3
100
AcDbLine
 10
120.1263257091
 20
149.4439915184
 30
0.0
 11
120.0325434918
 21
149.4439915184
 31
0.0
  0
LINE
  5
3A4
330
216
100
AcDbEntity
 67
     1
  8
7_ALL_FEATURES
  6
Continuous
 62
     3
100
AcDbLine
 10
120.1263257091
 20
141.4439915184
 30
0.0
 11
120.0325434918
 21
141.4439915184
 31
0.0
  0
LINE
  5
3A5
330
216
100
AcDbEntity
 67
     1
  8
7_ALL_FEATURES
  6
Continuous
 62
     3
100
AcDbLine
 10
120.1263257091
 20
149.4439915184
 30
0.0
 11
120.1263257091
 21
141.4439915184
 31
0.0
  0
LINE
  5
3A6
330
216
100
AcDbEntity
 67
     1
  8
7_ALL_FEATURES
  6
Continuous
 62
     9
100
AcDbLine
 10
120.0325434918
 20
149.4439915184
 30
0.0
 11
120.0325434918
 21
141.4439915184
 31
0.0
  0
LINE
  5
3A7
330
216
100
AcDbEntity
 67
     1
  8
3_ALL_AXES
  6
Continuous
 62
     7
100
AcDbLine
 10
178.8058207903
 20
138.3713746078
 30
0.0
 11
177.5830377995
 21
138.3713746078
 31
0.0
  0
LINE
  5
3A8
330
216
100
AcDbEntity
 67
     1
  8
3_ALL_AXES
  6
Continuous
 62
     7
100
AcDbLine
 10
176.6391553674
 20
141.5213746078
 30
0.0
 11
176.8776415131
 21
141.5213746078
 31
0.0
  0
SPLINE
  5
3A9
330
216
100
AcDbEntity
 67
     1
  8
3_ALL_AXES
  6
Continuous
 62
     7
100
AcDbSpline
 70
     0
 71
     3
 72
    14
 73
    10
 74
     0
 42
0.000000001
 43
0.0000001
 40
0.0
 40
0.0
 40
0.0
 40
0.0
 40
0.3799509066
 40
0.5515831282
 40
0.7020272295
 40
0.8254484769
 40
0.9173381866
 40
0.9749483193
 40
1.0
 40
1.0
 40
1.0
 40
1.0
 10
176.6391553674
 20
141.5913746078
 30
0.0
 10
176.6383178925
 20
141.5824681315
 30
0.0
 10
176.6373232485
 20
141.5695099719
 30
0.0
 10
176.6365719426
 20
141.5530097755
 30
0.0
 10
176.6363869831
 20
141.5424900892
 30
0.0
 10
176.6364743091
 20
141.5339634305
 30
0.0
 10
176.6370306988
 20
141.5273412001
 30
0.0
 10
176.6375067217
 20
141.5236707341
 30
0.0
 10
176.6385655375
 20
141.5213746078
 30
0.0
 10
176.6391553674
 20
141.5213746078
 30
0.0
  0
ARC
  5
3AA
330
216
100
AcDbEntity
 67
     1
  8
3_ALL_AXES
  6
Continuous
 62
     7
100
AcDbCircle
 10
181.1058207903
 20
141.1713746078
 30
0.0
 40
4.4863682417
100
AcDbArc
 50
160.4672167333
 51
174.6282793156
  0
ARC
  5
3AB
330
216
100
AcDbEntity
 67
     1
  8
3_ALL_AXES
  6
Continuous
 62
     7
100
AcDbCircle
 10
181.1058207903
 20
141.1713746078
 30
0.0
 40
4.5
100
AcDbArc
 50
199.5420648413
 51
218.4785951333
  0
ARC
  5
3AC
330
216
100
AcDbEntity
 67
     1
  8
3_ALL_AXES
  6
Continuous
 62
     7
100
AcDbCircle
 10
181.1058207903
 20
141.1713746078
 30
0.0
 40
4.5
100
AcDbArc
 50
199.4712206345
 51
199.5420648413
  0
ARC
  5
3AD
330
216
100
AcDbEntity
 67
     1
  8
3_ALL_AXES
  6
Continuous
 62
     7
100
AcDbCircle
 10
181.1058207903
 20
141.1713746078
 30
0.0
 40
4.2426406871
100
AcDbArc
 50
175.2679615959
 51
180.0
  0
LINE
  5
3AE
330
216
100
AcDbEntity
 67
     1
  8
3_ALL_AXES
  6
Continuous
 62
     7
100
AcDbLine
 10
180.2058207903
 20
139.7213746078
 30
0.0
 11
180.1058207903
 21
139.7213746078
 31
0.0
  0
LINE
  5
3AF
330
216
100
AcDbEntity
 67
     1
  8
3_ALL_AXES
  6
Continuous
 62
     7
100
AcDbLine
 10
178.8058207903
 20
143.9713746078
 30
0.0
 11
177.5830377995
 21
143.9713746078
 31
0.0
  0
LINE
  5
3B0
330
216
100
AcDbEntity
 67
     1
  8
3_ALL_AXES
  6
Continuous
 62
     7
100
AcDbLine
 10
176.8776415131
 20
139.6713746078
 30
0.0
 11
176.8631855482
 21
139.6713746078
 31
0.0
  0
ARC
  5
3B1
330
216
100
AcDbEntity
 67
     1
  8
3_ALL_AXES
  6
Continuous
 62
     7
100
AcDbCircle
 10
181.1058207903
 20
141.1713746078
 30
0.0
 40
4.4863682417
100
AcDbArc
 50
185.3717206844
 51
199.5327832667
  0
SPLINE
  5
3B2
330
216
100
AcDbEntity
 67
     1
  8
3_ALL_AXES
  6
Continuous
 62
     7
100
AcDbSpline
 70
     0
 71
     3
 72
    14
 73
    10
 74
     0
 42
0.000000001
 43
0.0000001
 40
0.0
 40
0.0
 40
0.0
 40
0.0
 40
0.0250522634
 40
0.0826614775
 40
0.1745543994
 40
0.29798062
 40
0.4484197279
 40
0.6200504974
 40
1.0
 40
1.0
 40
1.0
 40
1.0
 10
176.6391553674
 20
140.8213746078
 30
0.0
 10
176.6385655238
 20
140.8213746078
 30
0.0
 10
176.6375067601
 20
140.8190784473
 30
0.0
 10
176.6370306405
 20
140.8154079572
 30
0.0
 10
176.6364743317
 20
140.8087855225
 30
0.0
 10
176.636386974
 20
140.8002588031
 30
0.0
 10
176.6365719455
 20
140.7897391496
 30
0.0
 10
176.637323273
 20
140.7732391428
 30
0.0
 10
176.6383178957
 20
140.7602810502
 30
0.0
 10
176.6391553674
 20
140.7513746078
 30
0.0
  0
LINE
  5
3B3
330
216
100
AcDbEntity
 67
     1
  8
3_ALL_AXES
  6
Continuous
 62
     7
100
AcDbLine
 10
176.8776415131
 20
140.8213746078
 30
0.0
 11
176.6391553674
 21
140.8213746078
 31
0.0
  0
ARC
  5
3B4
330
216
100
AcDbEntity
 67
     1
  8
3_ALL_AXES
  6
Continuous
 62
     7
100
AcDbCircle
 10
181.1058207903
 20
141.1713746078
 30
0.0
 40
4.2426406871
100
AcDbArc
 50
180.0
 51
184.7320384041
  0
LINE
  5
3B5
330
216
100
AcDbEntity
 67
     1
  8
3_ALL_AXES
  6
Continuous
 62
     7
100
AcDbLine
 10
176.8631855482
 20
142.6713746078
 30
0.0
 11
176.8776415131
 21
142.6713746078
 31
0.0
  0
ARC
  5
3B6
330
216
100
AcDbEntity
 67
     1
  8
3_ALL_AXES
  6
Continuous
 62
     7
100
AcDbCircle
 10
181.1058207903
 20
141.1713746078
 30
0.0
 40
4.5
100
AcDbArc
 50
141.5214048667
 51
160.4579351587
  0
ARC
  5
3B7
330
216
100
AcDbEntity
 67
     1
  8
3_ALL_AXES
  6
Continuous
 62
     7
100
AcDbCircle
 10
181.1058207903
 20
141.1713746078
 30
0.0
 40
4.5
100
AcDbArc
 50
160.4579351587
 51
160.5287793655
  0
LINE
  5
3B8
330
216
100
AcDbEntity
 67
     1
  8
3_ALL_AXES
  6
Continuous
 62
     7
100
AcDbLine
 10
180.2058207903
 20
142.6213746078
 30
0.0
 11
180.1058207903
 21
142.6213746078
 31
0.0
  0
LINE
  5
3B9
330
216
100
AcDbEntity
 67
     1
  8
3_ALL_AXES
  6
Continuous
 62
     7
100
AcDbLine
 10
177.5830377995
 20
141.1713746078
 30
0.0
 11
177.5830377995
 21
138.3713746078
 31
0.0
  0
LINE
  5
3BA
330
216
100
AcDbEntity
 67
     1
  8
3_ALL_AXES
  6
Continuous
 62
     7
100
AcDbLine
 10
177.5830377995
 20
141.1713746078
 30
0.0
 11
177.5830377995
 21
143.9713746078
 31
0.0
  0
ARC
  5
3BB
330
216
100
AcDbEntity
 67
     1
  8
3_ALL_AXES
  6
Continuous
 62
     7
100
AcDbCircle
 10
208.5617049948
 20
122.9439915184
 30
0.0
 40
0.75
100
AcDbArc
 50
180.0
 51
270.0
  0
SPLINE
  5
3BC
330
216
100
AcDbEntity
 67
     1
  8
3_ALL_AXES
  6
Continuous
 62
     7
100
AcDbSpline
 70
     0
 71
     3
 72
    13
 73
     9
 74
     0
 42
0.000000001
 43
0.0000001
 40
0.0
 40
0.0
 40
0.0
 40
0.0
 40
0.2605653988
 40
0.5146747524
 40
0.6388189488
 40
0.7607026409
 40
0.8808311617
 40
1.0
 40
1.0
 40
1.0
 40
1.0
 10
208.5617049948
 20
166.515647567
 30
0.0
 10
208.4644849214
 20
166.515647567
 30
0.0
 10
208.2707356804
 20
166.481490516
 30
0.0
 10
208.0610856663
 20
166.355977674
 30
0.0
 10
207.9348647092
 20
166.2170370755
 30
0.0
 10
207.864736369
 20
166.0986152307
 30
0.0
 10
207.8214751772
 20
165.9699618596
 30
0.0
 10
207.8117049948
 20
165.8803800486
 30
0.0
 10
207.8117049948
 20
165.8359167267
 30
0.0
  0
LINE
  5
3BD
330
216
100
AcDbEntity
 67
     1
  8
3_ALL_AXES
  6
Continuous
 62
     7
100
AcDbLine
 10
209.3117049948
 20
122.9439915184
 30
0.0
 11
209.3117049948
 21
141.4439915184
 31
0.0
  0
LINE
  5
3BE
330
216
100
AcDbEntity
 67
     1
  8
3_ALL_AXES
  6
Continuous
 62
     7
100
AcDbLine
 10
209.3117049948
 20
149.4439915184
 30
0.0
 11
209.3117049948
 21
165.8359167267
 31
0.0
  0
SPLINE
  5
3BF
330
216
100
AcDbEntity
 67
     1
  8
3_ALL_AXES
  6
Continuous
 62
     7
100
AcDbSpline
 70
     0
 71
     3
 72
    13
 73
     9
 74
     0
 42
0.000000001
 43
0.0000001
 40
0.0
 40
0.0
 40
0.0
 40
0.0
 40
0.1191688383
 40
0.2392973591
 40
0.3611810512
 40
0.4853252476
 40
0.7394346012
 40
1.0
 40
1.0
 40
1.0
 40
1.0
 10
209.3117049948
 20
165.8359167267
 30
0.0
 10
209.3117049948
 20
165.8803800486
 30
0.0
 10
209.3019348123
 20
165.9699618596
 30
0.0
 10
209.2586736205
 20
166.0986152307
 30
0.0
 10
209.1885452803
 20
166.2170370755
 30
0.0
 10
209.0623243233
 20
166.355977674
 30
0.0
 10
208.8526743092
 20
166.481490516
 30
0.0
 10
208.6589250681
 20
166.515647567
 30
0.0
 10
208.5617049948
 20
166.515647567
 30
0.0
  0
LINE
  5
3C0
330
216
100
AcDbEntity
 67
     1
  8
3_ALL_AXES
  6
Continuous
 62
     7
100
AcDbLine
 10
207.8117049948
 20
122.9439915184
 30
0.0
 11
207.8117049948
 21
141.4439915184
 31
0.0
  0
LINE
  5
3C1
330
216
100
AcDbEntity
 67
     1
  8
3_ALL_AXES
  6
Continuous
 62
     7
100
AcDbLine
 10
207.8117049948
 20
149.4439915184
 30
0.0
 11
207.8117049948
 21
165.8359167267
 31
0.0
  0
ARC
  5
3C2
330
216
100
AcDbEntity
 67
     1
  8
3_ALL_AXES
  6
Continuous
 62
     7
100
AcDbCircle
 10
208.5617049948
 20
122.9439915184
 30
0.0
 40
0.75
100
AcDbArc
 50
270.0
 51
360.0
  0
LINE
  5
3C3
330
216
100
AcDbEntity
 67
     1
  8
7_ALL_FEATURES
  6
Continuous
 62
     7
100
AcDbLine
 10
181.5058207903
 20
135.6761507281
 30
0.0
 11
180.2058207903
 21
135.6761507281
 31
0.0
  0
LINE
  5
3C4
330
216
100
AcDbEntity
 67
     1
  8
7_ALL_FEATURES
  6
Continuous
 62
     7
100
AcDbLine
 10
180.1058207903
 20
135.6761828763
 30
0.0
 11
180.1058207903
 21
140.9613593302
 31
0.0
  0
LINE
  5
3C5
330
216
100
AcDbEntity
 67
     1
  8
7_ALL_FEATURES
  6
Continuous
 62
     7
100
AcDbLine
 10
180.1058207903
 20
135.6761507281
 30
0.0
 11
178.8058207903
 21
135.6761507281
 31
0.0
  0
SPLINE
  5
3C6
330
216
100
AcDbEntity
 67
     1
  8
7_ALL_FEATURES
  6
Continuous
 62
     7
100
AcDbSpline
 70
     0
 71
     3
 72
    13
 73
     9
 74
     0
 42
0.000000001
 43
0.0000001
 40
0.0
 40
0.0
 40
0.0
 40
0.0
 40
0.1255911255
 40
0.2511627476
 40
0.5009205644
 40
0.7501559761
 40
0.8751371781
 40
1.0
 40
1.0
 40
1.0
 40
1.0
 10
178.0109489954
 20
146.4605061381
 30
0.0
 10
178.0664869255
 20
146.4489403455
 30
0.0
 10
178.1758327386
 20
146.4162759392
 30
0.0
 10
178.3794166685
 20
146.3155822317
 30
0.0
 10
178.597134473
 20
146.1270533948
 30
0.0
 10
178.738548606
 20
145.8764029325
 30
0.0
 10
178.7960616403
 20
145.6575199751
 30
0.0
 10
178.8058207903
 20
145.5444042329
 30
0.0
 10
178.8058207903
 20
145.4880037682
 30
0.0
  0
LINE
  5
3C7
330
216
100
AcDbEntity
 67
     1
  8
7_ALL_FEATURES
  6
Continuous
 62
     7
100
AcDbLine
 10
178.8058207903
 20
146.5584209725
 30
0.0
 11
178.8058207903
 21
140.9613593302
 31
0.0
  0
SPLINE
  5
3C8
330
216
100
AcDbEntity
 67
     1
  8
7_ALL_FEATURES
  6
Continuous
 62
     7
100
AcDbSpline
 70
     0
 71
     3
 72
    27
 73
    23
 74
     0
 42
0.000000001
 43
0.0000001
 40
0.0
 40
0.0
 40
0.0
 40
0.0
 40
0.0622871388
 40
0.0934772541
 40
0.1246756411
 40
0.1870467806
 40
0.2494888417
 40
0.2807769389
 40
0.3120843007
 40
0.3746763249
 40
0.4373233254
 40
0.500000053
 40
0.5626767688
 40
0.6253237424
 40
0.6879157517
 40
0.7192230517
 40
0.750511177
 40
0.8129534672
 40
0.8753237533
 40
0.9065246742
 40
0.937714765
 40
1.0
 40
1.0
 40
1.0
 40
1.0
 10
181.5058207903
 20
150.351180215
 30
0.0
 10
181.5058207903
 20
150.5394905048
 30
0.0
 10
181.4776953473
 20
150.8231270732
 30
0.0
 10
181.3853846759
 20
151.1890275862
 30
0.0
 10
181.2574250429
 20
151.5444343981
 30
0.0
 10
181.0324766288
 20
151.9626896189
 30
0.0
 10
180.7297616106
 20
152.3289613659
 30
0.0
 10
180.4484458612
 20
152.582265923
 30
0.0
 10
180.1433523601
 20
152.807115347
 30
0.0
 10
179.7224683184
 20
153.0306642437
 30
0.0
 10
179.1751067054
 20
153.1955710817
 30
0.0
 10
178.605820761
 20
153.2512878031
 30
0.0
 10
178.0365353913
 20
153.1955682847
 30
0.0
 10
177.4891737814
 20
153.0306619654
 30
0.0
 10
177.0682904696
 20
152.8071128152
 30
0.0
 10
176.7631947686
 20
152.5822667552
 30
0.0
 10
176.4818784189
 20
152.3289613491
 30
0.0
 10
176.1791697635
 20
151.9626890296
 30
0.0
 10
175.9541996485
 20
151.544436668
 30
0.0
 10
175.8262653692
 20
151.1890152363
 30
0.0
 10
175.7339424276
 20
150.8231171027
 30
0.0
 10
175.70581529
 20
150.5394847526
 30
0.0
 10
175.7058221555
 20
150.3511802185
 30
0.0
  0
LINE
  5
3C9
330
216
100
AcDbEntity
 67
     1
  8
7_ALL_FEATURES
  6
Continuous
 62
     7
100
AcDbLine
 10
180.2058207903
 20
150.351180215
 30
0.0
 11
180.2058207903
 21
140.9613593302
 31
0.0
  0
SPLINE
  5
3CA
330
216
100
AcDbEntity
 67
     1
  8
7_ALL_FEATURES
  6
Continuous
 62
     7
100
AcDbSpline
 70
     0
 71
     3
 72
    15
 73
    11
 74
     0
 42
0.000000001
 43
0.0000001
 40
0.0
 40
0.0
 40
0.0
 40
0.0
 40
0.1253542116
 40
0.2506901816
 40
0.3759503649
 40
0.5010675966
 40
0.6260141448
 40
0.7507910685
 40
0.8754329033
 40
1.0
 40
1.0
 40
1.0
 40
1.0
 10
178.913513098
 20
148.7910436037
 30
0.0
 10
178.7982964046
 20
148.7686088959
 30
0.0
 10
178.5621383073
 20
148.7489944458
 30
0.0
 10
178.2107055688
 20
148.7972830895
 30
0.0
 10
177.8782102651
 20
148.9207542635
 30
0.0
 10
177.5809603706
 20
149.1135336736
 30
0.0
 10
177.3332989821
 20
149.3662649808
 30
0.0
 10
177.1472648457
 20
149.6667997194
 30
0.0
 10
177.0318896692
 20
150.0003552195
 30
0.0
 10
177.0058323273
 20
150.2345366938
 30
0.0
 10
177.0058271654
 20
150.3511802346
 30
0.0
  0
SPLINE
  5
3CB
330
216
100
AcDbEntity
 67
     1
  8
7_ALL_FEATURES
  6
Continuous
 62
     7
100
AcDbSpline
 70
     0
 71
     3
 72
    15
 73
    11
 74
     0
 42
0.000000001
 43
0.0000001
 40
0.0
 40
0.0
 40
0.0
 40
0.0
 40
0.1245535992
 40
0.2492178779
 40
0.373984671
 40
0.498932833
 40
0.6240523084
 40
0.749300048
 40
0.874663401
 40
1.0
 40
1.0
 40
1.0
 40
1.0
 10
180.1058207903
 20
147.8159582216
 30
0.0
 10
180.1058207903
 20
147.8888522899
 30
0.0
 10
180.0895166036
 20
148.0352170333
 30
0.0
 10
180.0174349347
 20
148.2436987673
 30
0.0
 10
179.9011296807
 20
148.4315205412
 30
0.0
 10
179.7463614636
 20
148.5894908097
 30
0.0
 10
179.5605710621
 20
148.7099519419
 30
0.0
 10
179.352766241
 20
148.7871605529
 30
0.0
 10
179.1331162291
 20
148.8173061052
 30
0.0
 10
178.9855131712
 20
148.8050632787
 30
0.0
 10
178.913513098
 20
148.7910436037
 30
0.0
  0
LINE
  5
3CC
330
216
100
AcDbEntity
 67
     1
  8
7_ALL_FEATURES
  6
Continuous
 62
     7
100
AcDbLine
 10
180.1058207903
 20
140.9613593302
 30
0.0
 11
180.1058207903
 21
147.8159582216
 31
0.0
  0
LINE
  5
3CD
330
216
100
AcDbEntity
 67
     1
  8
7_ALL_FEATURES
  6
Continuous
 62
     7
100
AcDbLine
 10
178.8058207903
 20
140.9613593302
 30
0.0
 11
178.8058207903
 21
138.371407416
 31
0.0
  0
LINE
  5
3CE
330
216
100
AcDbEntity
 67
     1
  8
7_ALL_FEATURES
  6
Continuous
 62
     7
100
AcDbLine
 10
178.8058207903
 20
138.371407416
 30
0.0
 11
178.8058207903
 21
135.6761828763
 31
0.0
  0
SPLINE
  5
3CF
330
216
100
AcDbEntity
 67
     1
  8
7_ALL_FEATURES
  6
Continuous
 62
     7
100
AcDbSpline
 70
     0
 71
     3
 72
    23
 73
    19
 74
     0
 42
0.000000001
 43
0.0000001
 40
0.0
 40
0.0
 40
0.0
 40
0.0
 40
0.0623466319
 40
0.1247531636
 40
0.1872280286
 40
0.2497713339
 40
0.3123750261
 40
0.3750238569
 40
0.4376971741
 40
0.5003713505
 40
0.5630225595
 40
0.6256295919
 40
0.688176651
 40
0.7506547408
 40
0.8130659516
 40
0.8754112713
 40
0.9377247716
 40
1.0
 40
1.0
 40
1.0
 40
1.0
 10
177.097579838
 20
149.8113967438
 30
0.0
 10
177.1287239557
 20
149.8987780246
 30
0.0
 10
177.2066074443
 20
150.0685146485
 30
0.0
 10
177.3660759157
 20
150.2985975272
 30
0.0
 10
177.5634690181
 20
150.4976256943
 30
0.0
 10
177.7927089704
 20
150.6594138145
 30
0.0
 10
178.0467910089
 20
150.7790559611
 30
0.0
 10
178.3179470634
 20
150.8528974592
 30
0.0
 10
178.5978953395
 20
150.8786901376
 30
0.0
 10
178.8780868616
 20
150.8556461972
 30
0.0
 10
179.1499639307
 20
150.7844653667
 30
0.0
 10
179.4052191985
 20
150.6673145782
 30
0.0
 10
179.636047428
 20
150.5077683978
 30
0.0
 10
179.8354009408
 20
150.3107012239
 30
0.0
 10
179.99715158
 20
150.0821301143
 30
0.0
 10
180.1164021974
 20
149.8290188902
 30
0.0
 10
180.189411617
 20
149.5592094468
 30
0.0
 10
180.2058207903
 20
149.3734223035
 30
0.0
 10
180.2058207903
 20
149.2807630107
 30
0.0
  0
SPLINE
  5
3D0
330
216
100
AcDbEntity
 67
     1
  8
7_ALL_FEATURES
  6
Continuous
 62
     7
100
AcDbSpline
 70
     0
 71
     3
 72
    15
 73
    11
 74
     0
 42
0.000000001
 43
0.0000001
 40
0.0
 40
0.0
 40
0.0
 40
0.0
 40
0.1246650235
 40
0.249375538
 40
0.3741717649
 40
0.4990838716
 40
0.6241290032
 40
0.7493077665
 40
0.8746084445
 40
1.0
 40
1.0
 40
1.0
 40
1.0
 10
175.7058221555
 20
149.2807630143
 30
0.0
 10
175.7058281202
 20
149.1171625417
 30
0.0
 10
175.7340089923
 20
148.7892088636
 30
0.0
 10
175.8596286961
 20
148.3121371095
 30
0.0
 10
176.0649225048
 20
147.8630422749
 30
0.0
 10
176.3439279962
 20
147.4551429327
 30
0.0
 10
176.6885235584
 20
147.1002229518
 30
0.0
 10
177.0887481034
 20
146.8085650718
 30
0.0
 10
177.5328085594
 20
146.588657429
 30
0.0
 10
177.8498512649
 20
146.4940547946
 30
0.0
 10
178.0109489954
 20
146.4605061381
 30
0.0
  0
LINE
  5
3D1
330
216
100
AcDbEntity
 67
     1
  8
7_ALL_FEATURES
  6
Continuous
 62
     7
100
AcDbLine
 10
175.7058207903
 20
149.2807630107
 30
0.0
 11
175.7058207903
 21
150.351180215
 31
0.0
  0
LINE
  5
3D2
330
216
100
AcDbEntity
 67
     1
  8
7_ALL_FEATURES
  6
Continuous
 62
     7
100
AcDbLine
 10
180.2058207903
 20
140.9613593302
 30
0.0
 11
180.2058207903
 21
135.6761828763
 31
0.0
  0
SPLINE
  5
3D3
330
216
100
AcDbEntity
 67
     1
  8
7_ALL_FEATURES
  6
Continuous
 62
     7
100
AcDbSpline
 70
     0
 71
     3
 72
    25
 73
    21
 74
     0
 42
0.000000001
 43
0.0000001
 40
0.0
 40
0.0
 40
0.0
 40
0.0
 40
0.0622945401
 40
0.1246189532
 40
0.1869985497
 40
0.2494501846
 40
0.3119797083
 40
0.3745811143
 40
0.4372374917
 40
0.4999236164
 40
0.5626097753
 40
0.6252662482
 40
0.6878678392
 40
0.7191800822
 40
0.7504726339
 40
0.8129248417
 40
0.8753038349
 40
0.9065055648
 40
0.9377064216
 40
1.0
 40
1.0
 40
1.0
 40
1.0
 10
177.0058271654
 20
150.3511802346
 30
0.0
 10
177.0058225678
 20
150.4550720142
 30
0.0
 10
177.0264694504
 20
150.6634881642
 30
0.0
 10
177.1181426111
 20
150.9636030499
 30
0.0
 10
177.2670011379
 20
151.2402796051
 30
0.0
 10
177.4673024335
 20
151.482725623
 30
0.0
 10
177.7113350744
 20
151.6816750399
 30
0.0
 10
177.989712525
 20
151.829486719
 30
0.0
 10
178.2917401749
 20
151.9204997049
 30
0.0
 10
178.6058181312
 20
151.9512321708
 30
0.0
 10
178.919909096
 20
151.9204956189
 30
0.0
 10
179.2218996961
 20
151.8295126398
 30
0.0
 10
179.4541176016
 20
151.706183482
 30
0.0
 10
179.6224350395
 20
151.5821164802
 30
0.0
 10
179.7776572944
 20
151.4423765906
 30
0.0
 10
179.9446603289
 20
151.2402875831
 30
0.0
 10
180.0687793065
 20
151.009536842
 30
0.0
 10
180.1393724752
 20
150.8134429027
 30
0.0
 10
180.1902994873
 20
150.6115638053
 30
0.0
 10
180.2058207903
 20
150.4550703908
 30
0.0
 10
180.2058207903
 20
150.351180215
 30
0.0
  0
LINE
  5
3D4
330
216
100
AcDbEntity
 67
     1
  8
7_ALL_FEATURES
  6
Continuous
 62
     9
100
AcDbLine
 10
180.2058207903
 20
140.9613593302
 30
0.0
 11
181.5058207903
 21
140.9613593302
 31
0.0
  0
SPLINE
  5
3D5
330
216
100
AcDbEntity
 67
     1
  8
7_ALL_FEATURES
  6
Continuous
 62
     7
100
AcDbSpline
 70
     0
 71
     3
 72
    13
 73
     9
 74
     0
 42
0.000000001
 43
0.0000001
 40
0.0
 40
0.0
 40
0.0
 40
0.0
 40
0.1255911255
 40
0.2511627476
 40
0.5009205644
 40
0.7501559761
 40
0.8751371781
 40
1.0
 40
1.0
 40
1.0
 40
1.0
 10
178.0109489954
 20
147.5309233423
 30
0.0
 10
178.0664869255
 20
147.5193575497
 30
0.0
 10
178.1758327386
 20
147.4866931434
 30
0.0
 10
178.3794166685
 20
147.3859994359
 30
0.0
 10
178.597134473
 20
147.1974705991
 30
0.0
 10
178.738548606
 20
146.9468201367
 30
0.0
 10
178.7960616403
 20
146.7279371793
 30
0.0
 10
178.8058207903
 20
146.6148214371
 30
0.0
 10
178.8058207903
 20
146.5584209725
 30
0.0
  0
SPLINE
  5
3D6
330
216
100
AcDbEntity
 67
     1
  8
7_ALL_FEATURES
  6
Continuous
 62
     7
100
AcDbSpline
 70
     0
 71
     3
 72
    15
 73
    11
 74
     0
 42
0.000000001
 43
0.0000001
 40
0.0
 40
0.0
 40
0.0
 40
0.0
 40
0.1246650235
 40
0.249375538
 40
0.3741717649
 40
0.4990838716
 40
0.6241290032
 40
0.7493077665
 40
0.8746084445
 40
1.0
 40
1.0
 40
1.0
 40
1.0
 10
175.7058221555
 20
150.3511802185
 30
0.0
 10
175.7058281202
 20
150.1875797459
 30
0.0
 10
175.7340089923
 20
149.8596260678
 30
0.0
 10
175.8596286961
 20
149.3825543137
 30
0.0
 10
176.0649225048
 20
148.9334594791
 30
0.0
 10
176.3439279962
 20
148.5255601369
 30
0.0
 10
176.6885235584
 20
148.170640156
 30
0.0
 10
177.0887481034
 20
147.878982276
 30
0.0
 10
177.5328085594
 20
147.6590746332
 30
0.0
 10
177.8498512649
 20
147.5644719988
 30
0.0
 10
178.0109489954
 20
147.5309233423
 30
0.0
  0
LINE
  5
3D7
330
216
100
AcDbEntity
 67
     1
  8
7_ALL_FEATURES
  6
Continuous
 62
     9
100
AcDbLine
 10
178.0109489954
 20
146.4605061381
 30
0.0
 11
178.0109489954
 21
147.5309233423
 31
0.0
  0
LINE
  5
3D8
330
216
100
AcDbEntity
 67
     1
  8
7_ALL_FEATURES
  6
Continuous
 62
     9
100
AcDbLine
 10
178.8058207903
 20
140.9613593302
 30
0.0
 11
180.1058207903
 21
140.9613593302
 31
0.0
  0
LINE
  5
3D9
330
216
100
AcDbEntity
 67
     1
  8
3_ALL_AXES
  6
Continuous
 62
     7
100
AcDbLine
 10
228.4558207903
 20
131.0363298433
 30
0.0
 11
228.4558207903
 21
130.9440013998
 31
0.0
  0
LINE
  5
3DA
330
216
100
AcDbEntity
 67
     1
  8
3_ALL_AXES
  6
Continuous
 62
     7
100
AcDbLine
 10
229.9558207903
 20
131.0363298433
 30
0.0
 11
229.9558207903
 21
130.9440013998
 31
0.0
  0
LINE
  5
3DB
330
216
100
AcDbEntity
 67
     1
  8
3_ALL_AXES
  6
Continuous
 62
     7
100
AcDbLine
 10
229.9558207903
 20
131.0363298433
 30
0.0
 11
229.9558207903
 21
134.4939942122
 31
0.0
  0
LINE
  5
3DC
330
216
100
AcDbEntity
 67
     1
  8
3_ALL_AXES
  6
Continuous
 62
     7
100
AcDbLine
 10
229.9558207903
 20
134.4939942122
 30
0.0
 11
229.9558207903
 21
134.498880747
 31
0.0
  0
LINE
  5
3DD
330
216
100
AcDbEntity
 67
     1
  8
3_ALL_AXES
  6
Continuous
 62
     7
100
AcDbLine
 10
229.9558207903
 20
134.498880747
 30
0.0
 11
229.9558207903
 21
134.5637228741
 31
0.0
  0
LINE
  5
3DE
330
216
100
AcDbEntity
 67
     1
  8
3_ALL_AXES
  6
Continuous
 62
     7
100
AcDbLine
 10
229.9558207903
 20
134.5637228741
 30
0.0
 11
229.9558207903
 21
156.3242601626
 31
0.0
  0
LINE
  5
3DF
330
216
100
AcDbEntity
 67
     1
  8
3_ALL_AXES
  6
Continuous
 62
     7
100
AcDbLine
 10
229.9558207903
 20
156.3242601626
 30
0.0
 11
229.9558207903
 21
156.3891022898
 31
0.0
  0
LINE
  5
3E0
330
216
100
AcDbEntity
 67
     1
  8
3_ALL_AXES
  6
Continuous
 62
     7
100
AcDbLine
 10
229.9558207903
 20
156.3891022898
 30
0.0
 11
229.9558207903
 21
156.3939888245
 31
0.0
  0
LINE
  5
3E1
330
216
100
AcDbEntity
 67
     1
  8
3_ALL_AXES
  6
Continuous
 62
     7
100
AcDbLine
 10
229.9558207903
 20
156.3939888245
 30
0.0
 11
229.9558207903
 21
159.9439816369
 31
0.0
  0
SPLINE
  5
3E2
330
216
100
AcDbEntity
 67
     1
  8
7_ALL_FEATURES
  6
Continuous
 62
     7
100
AcDbSpline
 70
     0
 71
     3
 72
    15
 73
    11
 74
     0
 42
0.000000001
 43
0.0000001
 40
0.0
 40
0.0
 40
0.0
 40
0.0
 40
0.1245161997
 40
0.249317634
 40
0.3743127831
 40
0.499412571
 40
0.6245525424
 40
0.7496991479
 40
0.8748553042
 40
1.0
 40
1.0
 40
1.0
 40
1.0
 10
227.2558128683
 20
146.8918711993
 30
0.0
 10
227.255812901
 20
146.7910084339
 30
0.0
 10
227.2357133361
 20
146.5884950044
 30
0.0
 10
227.1468087532
 20
146.2966735728
 30
0.0
 10
227.0026542929
 20
146.0271675738
 30
0.0
 10
226.8088450447
 20
145.7905200141
 30
0.0
 10
226.5727230657
 20
145.5958634445
 30
0.0
 10
226.3031520605
 20
145.4508385144
 30
0.0
 10
226.0105146121
 20
145.3613490406
 30
0.0
 10
225.807192661
 20
145.3411704988
 30
0.0
 10
225.7058207903
 20
145.3411704988
 30
0.0
  0
LINE
  5
3E3
330
216
100
AcDbEntity
 67
     1
  8
7_ALL_FEATURES
  6
Continuous
 62
     7
100
AcDbLine
 10
214.1617049948
 20
145.3411704988
 30
0.0
 11
225.7058207903
 21
145.3411704988
 31
0.0
  0
LINE
  5
3E4
330
216
100
AcDbEntity
 67
     1
  8
3_ALL_AXES
  6
Continuous
 62
     7
100
AcDbLine
 10
228.4558207903
 20
131.0363298433
 30
0.0
 11
228.4558207903
 21
132.5939915184
 31
0.0
  0
LINE
  5
3E5
330
216
100
AcDbEntity
 67
     1
  8
3_ALL_AXES
  6
Continuous
 62
     7
100
AcDbLine
 10
228.4558207903
 20
132.5939915184
 30
0.0
 11
228.4558207903
 21
158.2939915184
 31
0.0
  0
LINE
  5
3E6
330
216
100
AcDbEntity
 67
     1
  8
3_ALL_AXES
  6
Continuous
 62
     7
100
AcDbLine
 10
228.4558207903
 20
158.2939915184
 30
0.0
 11
228.4558207903
 21
159.9439816369
 31
0.0
  0
LINE
  5
3E7
330
216
100
AcDbEntity
 67
     1
  8
3_ALL_AXES
  6
Continuous
 62
     7
100
AcDbLine
 10
228.4558207903
 20
159.9439915184
 30
0.0
 11
229.9558207903
 21
159.9439915184
 31
0.0
  0
LINE
  5
3E8
330
216
100
AcDbEntity
 67
     1
  8
3_ALL_AXES
  6
Continuous
 62
     7
100
AcDbLine
 10
214.1617049948
 20
158.2939915184
 30
0.0
 11
228.4558207903
 21
158.2939915184
 31
0.0
  0
LINE
  5
3E9
330
216
100
AcDbEntity
 67
     1
  8
3_ALL_AXES
  6
Continuous
 62
     7
100
AcDbLine
 10
228.4558207903
 20
130.9439915184
 30
0.0
 11
229.9558207903
 21
130.9439915184
 31
0.0
  0
LINE
  5
3EA
330
216
100
AcDbEntity
 67
     1
  8
3_ALL_AXES
  6
Continuous
 62
     7
100
AcDbLine
 10
214.1617049948
 20
132.5939915184
 30
0.0
 11
228.4558207903
 21
132.5939915184
 31
0.0
  0
SPLINE
  5
3EB
330
216
100
AcDbEntity
 67
     1
  8
7_ALL_FEATURES
  6
Continuous
 62
     7
100
AcDbSpline
 70
     0
 71
     3
 72
    15
 73
    11
 74
     0
 42
0.000000001
 43
0.0000001
 40
0.0
 40
0.0
 40
0.0
 40
0.0
 40
0.125838319
 40
0.2514460099
 40
0.3766515992
 40
0.501460006
 40
0.6259971125
 40
0.7504707314
 40
0.8750916966
 40
1.0
 40
1.0
 40
1.0
 40
1.0
 10
225.7058207903
 20
148.4214292018
 30
0.0
 10
225.8071661785
 20
148.4214292018
 30
0.0
 10
226.0102120394
 20
148.4018513514
 30
0.0
 10
226.3026978319
 20
148.3148568108
 30
0.0
 10
226.5723171253
 20
148.1734500918
 30
0.0
 10
226.8086465496
 20
147.982883777
 30
0.0
 10
227.0026942408
 20
147.7501372798
 30
0.0
 10
227.1469851889
 20
147.4837906116
 30
0.0
 10
227.235861549
 20
147.194003239
 30
0.0
 10
227.2558128357
 20
146.9924675884
 30
0.0
 10
227.2558128683
 20
146.8918711993
 30
0.0
  0
LINE
  5
3EC
330
216
100
AcDbEntity
 67
     1
  8
7_ALL_FEATURES
  6
Continuous
 62
     7
100
AcDbLine
 10
214.1617049948
 20
148.4214292018
 30
0.0
 11
225.7058207903
 21
148.4214292018
 31
0.0
  0
ARC
  5
3ED
330
216
100
AcDbEntity
 67
     1
  8
7_ALL_FEATURES
  6
Continuous
 62
     7
100
AcDbCircle
 10
225.7201210057
 20
146.598232982
 30
0.0
 40
1.5357227538
100
AcDbArc
 50
4.0105665327
 51
10.9065448232
  0
SPLINE
  5
3EE
330
216
100
AcDbEntity
 67
     1
  8
7_ALL_FEATURES
  6
Continuous
 62
     7
100
AcDbSpline
 70
     0
 71
     3
 72
    11
 73
     7
 74
     0
 42
0.000000001
 43
0.0000001
 40
0.0
 40
0.0
 40
0.0
 40
0.0
 40
0.2492921787
 40
0.4990624953
 40
0.7493353151
 40
1.0
 40
1.0
 40
1.0
 40
1.0
 10
227.2281041624
 20
146.8888034133
 30
0.0
 10
227.1946892896
 20
147.0621737284
 30
0.0
 10
227.0659350915
 20
147.4003885703
 30
0.0
 10
226.712576266
 20
147.8100827293
 30
0.0
 10
226.2411306166
 20
148.0773471393
 30
0.0
 10
225.8833539612
 20
148.1390446954
 30
0.0
 10
225.7058207903
 20
148.1390446954
 30
0.0
  0
LINE
  5
3EF
330
216
100
AcDbEntity
 67
     1
  8
7_ALL_FEATURES
  6
Continuous
 62
     7
100
AcDbLine
 10
225.7058207903
 20
148.1390446954
 30
0.0
 11
214.1617049948
 21
148.1390446954
 31
0.0
  0
LINE
  5
3F0
330
216
100
AcDbEntity
 67
     1
  8
7_ALL_FEATURES
  6
Continuous
 62
     9
100
AcDbLine
 10
225.7058207903
 20
148.4214292018
 30
0.0
 11
225.7058207903
 21
148.1390446954
 31
0.0
  0
LINE
  5
3F1
330
216
100
AcDbEntity
 67
     1
  8
7_ALL_FEATURES
  6
Continuous
 62
     7
100
AcDbLine
 10
181.5058207903
 20
147.1143338351
 30
0.0
 11
181.5058207903
 21
149.0548260693
 31
0.0
  0
LINE
  5
3F2
330
216
100
AcDbEntity
 67
     1
  8
7_ALL_FEATURES
  6
Continuous
 62
     7
100
AcDbLine
 10
181.5058207903
 20
149.0548260693
 30
0.0
 11
181.5058207903
 21
149.0706039865
 31
0.0
  0
LINE
  5
3F3
330
216
100
AcDbEntity
 67
     1
  8
7_ALL_FEATURES
  6
Continuous
 62
     7
100
AcDbLine
 10
181.5058207903
 20
149.0706039865
 30
0.0
 11
181.5058207903
 21
149.2807630107
 31
0.0
  0
LINE
  5
3F4
330
216
100
AcDbEntity
 67
     1
  8
7_ALL_FEATURES
  6
Continuous
 62
     7
100
AcDbLine
 10
181.5058207903
 20
149.2807630107
 30
0.0
 11
181.5058207903
 21
150.351180215
 31
0.0
  0
LINE
  5
3F5
330
216
100
AcDbEntity
 67
     1
  8
7_ALL_FEATURES
  6
Continuous
 62
     7
100
AcDbLine
 10
181.5058207903
 20
150.351180215
 30
0.0
 11
181.5058207903
 21
160.2682901023
 31
0.0
  0
ARC
  5
3F6
330
216
100
AcDbEntity
 67
     1
  8
02___PRT_ALL_AXES
  6
Continuous
 62
     7
100
AcDbCircle
 10
189.1617049948
 20
145.4439915184
 30
0.0
 40
17.25
100
AcDbArc
 50
113.9473302601
 51
114.1792623579
  0
LINE
  5
3F7
330
216
100
AcDbEntity
 67
     1
  8
7_ALL_FEATURES
  6
Continuous
 62
     7
100
AcDbLine
 10
181.5058207903
 20
130.6196929344
 30
0.0
 11
181.5058207903
 21
133.812322477
 31
0.0
  0
LINE
  5
3F8
330
216
100
AcDbEntity
 67
     1
  8
7_ALL_FEATURES
  6
Continuous
 62
     7
100
AcDbLine
 10
181.5058207903
 20
133.812322477
 30
0.0
 11
181.5058207903
 21
135.6761828763
 31
0.0
  0
LINE
  5
3F9
330
216
100
AcDbEntity
 67
     1
  8
7_ALL_FEATURES
  6
Continuous
 62
     7
100
AcDbLine
 10
181.5058207903
 20
135.6761828763
 30
0.0
 11
181.5058207903
 21
135.8057626737
 31
0.0
  0
LINE
  5
3FA
330
216
100
AcDbEntity
 67
     1
  8
7_ALL_FEATURES
  6
Continuous
 62
     7
100
AcDbLine
 10
181.5058207903
 20
135.8057626737
 30
0.0
 11
181.5058207903
 21
135.811939191
 31
0.0
  0
LINE
  5
3FB
330
216
100
AcDbEntity
 67
     1
  8
7_ALL_FEATURES
  6
Continuous
 62
     7
100
AcDbLine
 10
181.5058207903
 20
135.811939191
 30
0.0
 11
181.5058207903
 21
139.0214149476
 31
0.0
  0
LINE
  5
3FC
330
216
100
AcDbEntity
 67
     1
  8
7_ALL_FEATURES
  6
Continuous
 62
     7
100
AcDbLine
 10
181.5058207903
 20
139.0214149476
 30
0.0
 11
181.5058207903
 21
139.8715410619
 31
0.0
  0
LINE
  5
3FD
330
216
100
AcDbEntity
 67
     1
  8
7_ALL_FEATURES
  6
Continuous
 62
     7
100
AcDbLine
 10
181.5058207903
 20
139.8715410619
 30
0.0
 11
181.5058207903
 21
140.9613593302
 31
0.0
  0
LINE
  5
3FE
330
216
100
AcDbEntity
 67
     1
  8
7_ALL_FEATURES
  6
Continuous
 62
     7
100
AcDbLine
 10
181.5058207903
 20
140.9613593302
 30
0.0
 11
181.5058207903
 21
142.4630959994
 31
0.0
  0
LINE
  5
3FF
330
216
100
AcDbEntity
 67
     1
  8
7_ALL_FEATURES
  6
Continuous
 62
     7
100
AcDbLine
 10
181.5058207903
 20
142.4630959994
 30
0.0
 11
181.5058207903
 21
142.4712081538
 31
0.0
  0
LINE
  5
400
330
216
100
AcDbEntity
 67
     1
  8
7_ALL_FEATURES
  6
Continuous
 62
     7
100
AcDbLine
 10
181.5058207903
 20
142.4712081538
 30
0.0
 11
181.5058207903
 21
143.3076830631
 31
0.0
  0
LINE
  5
401
330
216
100
AcDbEntity
 67
     1
  8
7_ALL_FEATURES
  6
Continuous
 62
     7
100
AcDbLine
 10
181.5058207903
 20
143.3076830631
 30
0.0
 11
181.5058207903
 21
143.321334268
 31
0.0
  0
LINE
  5
402
330
216
100
AcDbEntity
 67
     1
  8
7_ALL_FEATURES
  6
Continuous
 62
     7
100
AcDbLine
 10
181.5058207903
 20
143.321334268
 30
0.0
 11
181.5058207903
 21
144.0708889538
 31
0.0
  0
LINE
  5
403
330
216
100
AcDbEntity
 67
     1
  8
7_ALL_FEATURES
  6
Continuous
 62
     7
100
AcDbLine
 10
181.5058207903
 20
144.0708889538
 30
0.0
 11
181.5058207903
 21
147.1143338351
 31
0.0
  0
LINE
  5
404
330
216
100
AcDbEntity
 67
     1
  8
7_ALL_FEATURES
  6
Continuous
 62
     7
100
AcDbLine
 10
181.5058207903
 20
130.619629628
 30
0.0
 11
182.0962279162
 21
129.707361204
 31
0.0
  0
LINE
  5
405
330
216
100
AcDbEntity
 67
     1
  8
7_ALL_FEATURES
  6
Continuous
 62
     7
100
AcDbLine
 10
181.5058207903
 20
160.2683534087
 30
0.0
 11
182.0962279162
 21
161.1806218327
 31
0.0
  0
ARC
  5
406
330
216
100
AcDbEntity
 67
     1
  8
02___PRT_ALL_AXES
  6
Continuous
 62
     7
100
AcDbCircle
 10
189.1617049948
 20
145.4439915184
 30
0.0
 40
17.25
100
AcDbArc
 50
245.8207376421
 51
246.0526697399
  0
LINE
  5
407
330
216
100
AcDbEntity
 67
     1
  8
7_ALL_FEATURES
  6
Continuous
 62
     7
100
AcDbLine
 10
182.0962279161
 20
147.2171241162
 30
0.0
 11
182.0962279162
 21
161.1806218327
 31
0.0
  0
LINE
  5
408
330
216
100
AcDbEntity
 67
     1
  8
7_ALL_FEATURES
  6
Continuous
 62
     7
100
AcDbLine
 10
182.0962279162
 20
129.707361204
 30
0.0
 11
182.0962279161
 21
147.2171241512
 31
0.0
  0
LINE
  5
409
330
216
100
AcDbEntity
 67
     1
  8
7_ALL_FEATURES
  6
Continuous
 62
     7
100
AcDbLine
 10
182.1617049948
 20
168.0439915184
 30
0.0
 11
183.1617049948
 21
169.0439915184
 31
0.0
  0
LINE
  5
40A
330
216
100
AcDbEntity
 67
     1
  8
7_ALL_FEATURES
  6
Continuous
 62
     7
100
AcDbLine
 10
182.1617049948
 20
122.843993335
 30
0.0
 11
182.1617049948
 21
128.8112024118
 31
0.0
  0
LINE
  5
40B
330
216
100
AcDbEntity
 67
     1
  8
7_ALL_FEATURES
  6
Continuous
 62
     7
100
AcDbLine
 10
182.1617049948
 20
128.8112024118
 30
0.0
 11
182.1617049948
 21
145.4439915184
 31
0.0
  0
LINE
  5
40C
330
216
100
AcDbEntity
 67
     1
  8
7_ALL_FEATURES
  6
Continuous
 62
     7
100
AcDbLine
 10
182.1617049948
 20
122.8439915184
 30
0.0
 11
183.1617049948
 21
121.8439915184
 31
0.0
  0
ARC
  5
40D
330
216
100
AcDbEntity
 67
     1
  8
7_ALL_FEATURES
  6
Continuous
 62
     7
100
AcDbCircle
 10
212.6617049948
 20
167.3373898006
 30
0.0
 40
1.5
100
AcDbArc
 50
0.0
 51
8.1301023542
  0
LINE
  5
40E
330
216
100
AcDbEntity
 67
     1
  8
7_ALL_FEATURES
  6
Continuous
 62
     7
100
AcDbLine
 10
214.1617049948
 20
167.3176631088
 30
0.0
 11
214.1617049948
 21
167.3323215222
 31
0.0
  0
LINE
  5
40F
330
216
100
AcDbEntity
 67
     1
  8
7_ALL_FEATURES
  6
Continuous
 62
     7
100
AcDbLine
 10
214.1617049948
 20
145.4439915184
 30
0.0
 11
214.1617049948
 21
166.4439915184
 31
0.0
  0
LINE
  5
410
330
216
100
AcDbEntity
 67
     1
  8
7_ALL_FEATURES
  6
Continuous
 62
     7
100
AcDbLine
 10
214.1617049948
 20
166.4439915184
 30
0.0
 11
214.1617049948
 21
167.3176631088
 31
0.0
  0
LINE
  5
411
330
216
100
AcDbEntity
 67
     1
  8
7_ALL_FEATURES
  6
Continuous
 62
     7
100
AcDbLine
 10
214.1617049948
 20
167.3176631088
 30
0.0
 11
214.1617049948
 21
167.3323214206
 31
0.0
  0
LINE
  5
412
330
216
100
AcDbEntity
 67
     1
  8
7_ALL_FEATURES
  6
Continuous
 62
     7
100
AcDbLine
 10
214.1617049948
 20
167.3323214206
 30
0.0
 11
214.1617049948
 21
167.3373880407
 31
0.0
  0
LINE
  5
413
330
216
100
AcDbEntity
 67
     1
  8
7_ALL_FEATURES
  6
Continuous
 62
     7
100
AcDbLine
 10
214.1617049948
 20
145.4439915184
 30
0.0
 11
214.1617049948
 21
167.3176631088
 31
0.0
  0
LINE
  5
414
330
216
100
AcDbEntity
 67
     1
  8
7_ALL_FEATURES
  6
Continuous
 62
     7
100
AcDbLine
 10
214.1617049948
 20
123.550594996
 30
0.0
 11
214.1617049948
 21
124.4439915184
 31
0.0
  0
LINE
  5
415
330
216
100
AcDbEntity
 67
     1
  8
7_ALL_FEATURES
  6
Continuous
 62
     7
100
AcDbLine
 10
214.1617049948
 20
124.4439915184
 30
0.0
 11
214.1617049948
 21
145.4439915184
 31
0.0
  0
ARC
  5
416
330
216
100
AcDbEntity
 67
     1
  8
7_ALL_FEATURES
  6
Continuous
 62
     7
100
AcDbCircle
 10
212.6617049948
 20
123.5505932362
 30
0.0
 40
1.5
100
AcDbArc
 50
351.8698976458
 51
360.0
  0
LINE
  5
417
330
216
100
AcDbEntity
 67
     1
  8
7_ALL_FEATURES
  6
Continuous
 62
     7
100
AcDbLine
 10
207.0617049948
 20
141.4439915184
 30
0.0
 11
207.0617049948
 21
123.5939915184
 31
0.0
  0
LINE
  5
418
330
216
100
AcDbEntity
 67
     1
  8
7_ALL_FEATURES
  6
Continuous
 62
     7
100
AcDbLine
 10
207.0617049948
 20
123.5939915184
 30
0.0
 11
207.0617049948
 21
121.8439915184
 31
0.0
  0
LINE
  5
419
330
216
100
AcDbEntity
 67
     1
  8
7_ALL_FEATURES
  6
Continuous
 62
     7
100
AcDbLine
 10
214.1617049948
 20
123.5505932362
 30
0.0
 11
214.1617049948
 21
124.4439915184
 31
0.0
  0
LINE
  5
41A
330
216
100
AcDbEntity
 67
     1
  8
7_ALL_FEATURES
  6
Continuous
 62
     7
100
AcDbLine
 10
214.1617049948
 20
124.4439915184
 30
0.0
 11
214.1617049948
 21
145.4439915184
 31
0.0
  0
LINE
  5
41B
330
216
100
AcDbEntity
 67
     1
  8
7_ALL_FEATURES
  6
Continuous
 62
     7
100
AcDbLine
 10
182.1617049948
 20
145.4439915184
 30
0.0
 11
182.1617049948
 21
162.0767806249
 31
0.0
  0
LINE
  5
41C
330
216
100
AcDbEntity
 67
     1
  8
7_ALL_FEATURES
  6
Continuous
 62
     7
100
AcDbLine
 10
182.1617049948
 20
162.0767806249
 30
0.0
 11
182.1617049948
 21
168.0439897017
 31
0.0
  0
LINE
  5
41D
330
216
100
AcDbEntity
 67
     1
  8
7_ALL_FEATURES
  6
Continuous
 62
     7
100
AcDbLine
 10
207.0617049948
 20
169.0439915184
 30
0.0
 11
207.0617049948
 21
167.2939915184
 31
0.0
  0
LINE
  5
41E
330
216
100
AcDbEntity
 67
     1
  8
7_ALL_FEATURES
  6
Continuous
 62
     7
100
AcDbLine
 10
207.0617049948
 20
167.2939915184
 30
0.0
 11
207.0617049948
 21
149.4439915184
 31
0.0
  0
LINE
  5
41F
330
216
100
AcDbEntity
 67
     1
  8
02___PRT_ALL_AXES
  6
Continuous
 62
     7
100
AcDbLine
 10
207.0617049948
 20
169.0439915184
 30
0.0
 11
183.1617049948
 21
169.0439915184
 31
0.0
  0
LINE
  5
420
330
216
100
AcDbEntity
 67
     1
  8
02___PRT_ALL_AXES
  6
Continuous
 62
     7
100
AcDbLine
 10
212.6617049948
 20
169.0439915184
 30
0.0
 11
210.0617049948
 21
169.0439915184
 31
0.0
  0
LINE
  5
421
330
216
100
AcDbEntity
 67
     1
  8
02___PRT_ALL_AXES
  6
Continuous
 62
     7
100
AcDbLine
 10
212.6617049948
 20
174.4439907706
 30
0.0
 11
212.6617049948
 21
169.0439915184
 31
0.0
  0
LINE
  5
422
330
216
100
AcDbEntity
 67
     1
  8
02___PRT_ALL_AXES
  6
Continuous
 62
     7
100
AcDbLine
 10
212.6617049948
 20
169.0439915184
 30
0.0
 11
212.6617049948
 21
145.4439915184
 31
0.0
  0
LINE
  5
423
330
216
100
AcDbEntity
 67
     1
  8
02___PRT_ALL_AXES
  6
Continuous
 62
     7
100
AcDbLine
 10
213.1617049948
 20
174.4439915184
 30
0.0
 11
212.6617049948
 21
174.4439915184
 31
0.0
  0
LINE
  5
424
330
216
100
AcDbEntity
 67
     1
  8
7_ALL_FEATURES
  6
Continuous
 62
     7
100
AcDbLine
 10
210.0617049948
 20
149.4439915184
 30
0.0
 11
210.0617049948
 21
167.2939915184
 31
0.0
  0
LINE
  5
425
330
216
100
AcDbEntity
 67
     1
  8
7_ALL_FEATURES
  6
Continuous
 62
     7
100
AcDbLine
 10
210.0617049948
 20
167.2939915184
 30
0.0
 11
210.0617049948
 21
169.0439915184
 31
0.0
  0
LINE
  5
426
330
216
100
AcDbEntity
 67
     1
  8
02___PRT_ALL_AXES
  6
Continuous
 62
     7
100
AcDbLine
 10
214.1466292353
 20
167.5495218349
 30
0.0
 11
213.1617049948
 21
174.4439915184
 31
0.0
  0
LINE
  5
427
330
216
100
AcDbEntity
 67
     1
  8
02___PRT_ALL_AXES
  6
Continuous
 62
     7
100
AcDbLine
 10
207.0617049948
 20
121.8439915184
 30
0.0
 11
183.1617049948
 21
121.8439915184
 31
0.0
  0
LINE
  5
428
330
216
100
AcDbEntity
 67
     1
  8
7_ALL_FEATURES
  6
Continuous
 62
     7
100
AcDbLine
 10
210.0617049948
 20
121.8439915184
 30
0.0
 11
210.0617049948
 21
123.5939915184
 31
0.0
  0
LINE
  5
429
330
216
100
AcDbEntity
 67
     1
  8
7_ALL_FEATURES
  6
Continuous
 62
     7
100
AcDbLine
 10
210.0617049948
 20
123.5939915184
 30
0.0
 11
210.0617049948
 21
141.4439915184
 31
0.0
  0
LINE
  5
42A
330
216
100
AcDbEntity
 67
     1
  8
02___PRT_ALL_AXES
  6
Continuous
 62
     7
100
AcDbLine
 10
212.6617049948
 20
121.8439915184
 30
0.0
 11
210.0617049948
 21
121.8439915184
 31
0.0
  0
LINE
  5
42B
330
216
100
AcDbEntity
 67
     1
  8
02___PRT_ALL_AXES
  6
Continuous
 62
     7
100
AcDbLine
 10
212.6617049948
 20
116.4439922662
 30
0.0
 11
212.6617049948
 21
121.8439915184
 31
0.0
  0
LINE
  5
42C
330
216
100
AcDbEntity
 67
     1
  8
02___PRT_ALL_AXES
  6
Continuous
 62
     7
100
AcDbLine
 10
212.6617049948
 20
121.8439915184
 30
0.0
 11
212.6617049948
 21
145.4439915184
 31
0.0
  0
LINE
  5
42D
330
216
100
AcDbEntity
 67
     1
  8
02___PRT_ALL_AXES
  6
Continuous
 62
     7
100
AcDbLine
 10
213.1617049948
 20
116.4439915184
 30
0.0
 11
212.6617049948
 21
116.4439915184
 31
0.0
  0
LINE
  5
42E
330
216
100
AcDbEntity
 67
     1
  8
02___PRT_ALL_AXES
  6
Continuous
 62
     7
100
AcDbLine
 10
214.1466292353
 20
123.3384612018
 30
0.0
 11
213.1617049948
 21
116.4439915184
 31
0.0
  0
LINE
  5
42F
330
216
100
AcDbEntity
 67
     1
  8
7_ALL_FEATURES
  6
Continuous
 62
     7
100
AcDbLine
 10
207.0617049948
 20
167.2939915184
 30
0.0
 11
210.0617049948
 21
167.2939915184
 31
0.0
  0
LINE
  5
430
330
216
100
AcDbEntity
 67
     1
  8
7_ALL_FEATURES
  6
Continuous
 62
     7
100
AcDbLine
 10
207.0617049948
 20
123.5939915184
 30
0.0
 11
207.8117049948
 21
123.5939915184
 31
0.0
  0
LINE
  5
431
330
216
100
AcDbEntity
 67
     1
  8
7_ALL_FEATURES
  6
Continuous
 62
     7
100
AcDbLine
 10
209.3117049948
 20
123.5939915184
 30
0.0
 11
210.0617049948
 21
123.5939915184
 31
0.0
  0
LINE
  5
432
330
216
100
AcDbEntity
 67
     1
  8
7_ALL_FEATURES
  6
Continuous
 62
     9
100
AcDbLine
 10
214.1466292353
 20
145.4439915184
 30
0.0
 11
214.1466292353
 21
167.5495218349
 31
0.0
  0
LINE
  5
433
330
216
100
AcDbEntity
 67
     1
  8
02___PRT_ALL_AXES
  6
Continuous
 62
     7
100
AcDbLine
 10
213.1617049948
 20
174.4439915184
 30
0.0
 11
213.1617049948
 21
145.4439915184
 31
0.0
  0
LINE
  5
434
330
216
100
AcDbEntity
 67
     1
  8
7_ALL_FEATURES
  6
Continuous
 62
     7
100
AcDbLine
 10
183.1617049948
 20
145.4439915184
 30
0.0
 11
183.1617049948
 21
169.0439915184
 31
0.0
  0
LINE
  5
435
330
216
100
AcDbEntity
 67
     1
  8
7_ALL_FEATURES
  6
Continuous
 62
     7
100
AcDbLine
 10
183.1617049948
 20
121.8439915184
 30
0.0
 11
183.1617049948
 21
145.4439915184
 31
0.0
  0
LINE
  5
436
330
216
100
AcDbEntity
 67
     1
  8
02___PRT_ALL_AXES
  6
Continuous
 62
     7
100
AcDbLine
 10
213.1617049948
 20
116.4439915184
 30
0.0
 11
213.1617049948
 21
145.4439915184
 31
0.0
  0
LINE
  5
437
330
216
100
AcDbEntity
 67
     1
  8
7_ALL_FEATURES
  6
Continuous
 62
     9
100
AcDbLine
 10
214.1466292353
 20
123.3384612018
 30
0.0
 11
214.1466292353
 21
145.4439915184
 31
0.0
  0
LINE
  5
438
330
216
100
AcDbEntity
 67
     1
  8
7_ALL_FEATURES
  6
Continuous
 62
     3
100
AcDbLine
 10
192.8735054655
 20
141.4439915184
 30
0.0
 11
212.0992694295
 21
141.4439915184
 31
0.0
  0
LINE
  5
439
330
216
100
AcDbEntity
 67
     1
  8
7_ALL_FEATURES
  6
Continuous
 62
     3
100
AcDbLine
 10
212.0992694295
 20
149.4439915184
 30
0.0
 11
192.8735054655
 21
149.4439915184
 31
0.0
  0
LINE
  5
43A
330
216
100
AcDbEntity
 67
     1
  8
7_ALL_FEATURES
  6
Continuous
 62
     3
100
AcDbLine
 10
212.4492694295
 20
141.4439915184
 30
0.0
 11
212.0992694295
 21
141.4439915184
 31
0.0
  0
LINE
  5
43B
330
216
100
AcDbEntity
 67
     1
  8
7_ALL_FEATURES
  6
Continuous
 62
     3
100
AcDbLine
 10
212.4492694295
 20
149.4439915184
 30
0.0
 11
212.0992694295
 21
149.4439915184
 31
0.0
  0
LINE
  5
43C
330
216
100
AcDbEntity
 67
     1
  8
7_ALL_FEATURES
  6
Continuous
 62
     3
100
AcDbLine
 10
212.4492694295
 20
149.4439915184
 30
0.0
 11
212.4492694295
 21
141.4439915184
 31
0.0
  0
LINE
  5
43D
330
216
100
AcDbEntity
 67
     1
  8
7_ALL_FEATURES
  6
Continuous
 62
     3
100
AcDbLine
 10
192.5235054655
 20
141.4439915184
 30
0.0
 11
192.8735054655
 21
141.4439915184
 31
0.0
  0
LINE
  5
43E
330
216
100
AcDbEntity
 67
     1
  8
7_ALL_FEATURES
  6
Continuous
 62
     3
100
AcDbLine
 10
192.5235054655
 20
149.4439915184
 30
0.0
 11
192.8735054655
 21
149.4439915184
 31
0.0
  0
LINE
  5
43F
330
216
100
AcDbEntity
 67
     1
  8
7_ALL_FEATURES
  6
Continuous
 62
     3
100
AcDbLine
 10
186.7110699002
 20
149.4439915184
 30
0.0
 11
186.7110699002
 21
141.4439915184
 31
0.0
  0
LINE
  5
440
330
216
100
AcDbEntity
 67
     1
  8
7_ALL_FEATURES
  6
Continuous
 62
     3
100
AcDbLine
 10
186.7110699002
 20
141.4439915184
 30
0.0
 11
192.5235054655
 21
141.4439915184
 31
0.0
  0
LINE
  5
441
330
216
100
AcDbEntity
 67
     1
  8
7_ALL_FEATURES
  6
Continuous
 62
     3
100
AcDbLine
 10
192.5235054655
 20
149.4439915184
 30
0.0
 11
186.7110699002
 21
149.4439915184
 31
0.0
  0
LINE
  5
442
330
216
100
AcDbEntity
 67
     1
  8
7_ALL_FEATURES
  6
Continuous
 62
     9
100
AcDbLine
 10
192.8735054655
 20
141.4439915184
 30
0.0
 11
192.8735054655
 21
149.4439915184
 31
0.0
  0
LINE
  5
443
330
216
100
AcDbEntity
 67
     1
  8
7_ALL_FEATURES
  6
Continuous
 62
     9
100
AcDbLine
 10
192.5235054655
 20
141.4439915184
 30
0.0
 11
192.5235054655
 21
149.4439915184
 31
0.0
  0
LINE
  5
444
330
216
100
AcDbEntity
 67
     1
  8
7_ALL_FEATURES
  6
Continuous
 62
     9
100
AcDbLine
 10
212.0992694295
 20
149.4439915184
 30
0.0
 11
212.0992694295
 21
141.4439915184
 31
0.0
  0
DIMENSION
  5
445
330
216
100
AcDbEntity
 67
     1
  8
0
  6
Continuous
 62
     2
100
AcDbDimension
280
     0
  2
*D1
 10
41.8613704823
 20
56.0530932533
 30
0.0
 11
41.8613704823
 21
75.2746693603
 31
0.0
 70
   160
 71
     2
 42
38.4558842045
 73
     0
 74
     0
 75
     0
  3
DIMSTYLE_1
100
AcDbAlignedDimension
 13
79.8023466495
 23
94.5089774578
 33
0.0
 14
62.1329274269
 24
56.0530932533
 34
0.0
 50
270.0
100
AcDbRotatedDimension
  0
DIMENSION
  5
446
330
216
100
AcDbEntity
 67
     1
  8
0
  6
Continuous
 62
     2
100
AcDbDimension
280
     0
  2
*D2
 10
30.6000847304
 20
94.5089774578
 30
0.0
 11
30.6000847304
 21
67.3831881691
 31
0.0
 70
   160
 71
     2
 42
54.25
 73
     0
 74
     0
 75
     0
  3
DIMSTYLE_1
100
AcDbAlignedDimension
 13
69.5263257091
 23
40.2589774578
 33
0.0
 14
79.8023466495
 24
94.5089774578
 34
0.0
 50
90.0
100
AcDbRotatedDimension
  0
DIMENSION
  5
447
330
216
100
AcDbEntity
 67
     1
  8
0
  6
Continuous
 62
     2
100
AcDbDimension
280
     0
  2
*D3
 10
120.6359379732
 20
56.0530932533
 30
0.0
 11
120.6359379732
 21
48.7727634303
 31
0.0
 70
   160
 71
     3
 42
1.5
 73
     0
 74
     0
 75
     0
  3
DIMSTYLE_2
100
AcDbAlignedDimension
 13
113.0263257091
 23
57.5530932533
 33
0.0
 14
112.9346274485
 24
56.0530932533
 34
0.0
 50
270.0
100
AcDbRotatedDimension
  0
DIMENSION
  5
448
330
216
100
AcDbEntity
 67
     1
  8
0
  6
Continuous
 62
     2
100
AcDbDimension
280
     0
  2
*D4
 10
62.1790651728
 20
164.5148385645
 30
0.0
 11
56.3053675169
 21
172.6287340937
 31
0.0
 70
   163
  1
%%c<>
 71
     3
 42
58.0
 73
     0
 74
     0
 75
     0
  3
DIMSTYLE_3
100
AcDbDiametricDimension
 15
105.8735862454
 25
126.3731444722
 35
0.0
 40
0.0
  0
DIMENSION
  5
449
330
216
100
AcDbEntity
 67
     1
  8
0
  6
Continuous
 62
     2
100
AcDbDimension
280
     0
  2
*D5
 10
167.1039833952
 20
121.8439915184
 30
0.0
 11
167.1039833952
 21
145.4439915184
 31
0.0
 70
   160
  1
%%c<>
 71
     2
 42
47.2
 73
     0
 74
     0
 75
     0
  3
DIMSTYLE_1
100
AcDbAlignedDimension
 13
179.6222843051
 23
169.0439915184
 33
0.0
 14
179.0514100003
 24
121.8439915184
 34
0.0
 50
270.0
100
AcDbRotatedDimension
  0
LINE
  5
44A
330
216
100
AcDbEntity
 67
     1
  8
0
  6
Continuous
 62
     2
100
AcDbLine
 10
154.0072301476
 20
78.9839440915
 30
0.0
 11
284.0072301476
 21
78.9839440915
 31
0.0
  0
LINE
  5
44B
330
216
100
AcDbEntity
 67
     1
  8
0
  6
Continuous
 62
     2
100
AcDbLine
 10
154.0072301476
 20
78.9839440915
 30
0.0
 11
154.0072301476
 21
12.9839440915
 31
0.0
  0
LINE
  5
44C
330
216
100
AcDbEntity
 67
     1
  8
0
  6
Continuous
 62
     2
100
AcDbLine
 10
184.0072301476
 20
70.9839440915
 30
0.0
 11
284.0072301476
 21
70.9839440915
 31
0.0
  0
LINE
  5
44D
330
216
100
AcDbEntity
 67
     1
  8
0
  6
Continuous
 62
     2
100
AcDbLine
 10
154.0072301476
 20
62.9839440915
 30
0.0
 11
284.0072301476
 21
62.9839440915
 31
0.0
  0
LINE
  5
44E
330
216
100
AcDbEntity
 67
     1
  8
0
  6
Continuous
 62
     2
100
AcDbLine
 10
184.0072301476
 20
56.9839440915
 30
0.0
 11
284.0072301476
 21
56.9839440915
 31
0.0
  0
LINE
  5
44F
330
216
100
AcDbEntity
 67
     1
  8
0
  6
Continuous
 62
     2
100
AcDbLine
 10
184.0072301476
 20
50.9839440915
 30
0.0
 11
284.0072301476
 21
50.9839440915
 31
0.0
  0
LINE
  5
450
330
216
100
AcDbEntity
 67
     1
  8
0
  6
Continuous
 62
     2
100
AcDbLine
 10
184.0072301476
 20
44.9839440915
 30
0.0
 11
284.0072301476
 21
44.9839440915
 31
0.0
  0
LINE
  5
451
330
216
100
AcDbEntity
 67
     1
  8
0
  6
Continuous
 62
     2
100
AcDbLine
 10
184.0072301476
 20
38.9839440915
 30
0.0
 11
284.0072301476
 21
38.9839440915
 31
0.0
  0
LINE
  5
452
330
216
100
AcDbEntity
 67
     1
  8
0
  6
Continuous
 62
     2
100
AcDbLine
 10
184.0072301476
 20
32.9839440915
 30
0.0
 11
284.0072301476
 21
32.9839440915
 31
0.0
  0
LINE
  5
453
330
216
100
AcDbEntity
 67
     1
  8
0
  6
Continuous
 62
     2
100
AcDbLine
 10
154.0072301476
 20
26.9839440915
 30
0.0
 11
284.0072301476
 21
26.9839440915
 31
0.0
  0
LINE
  5
454
330
216
100
AcDbEntity
 67
     1
  8
0
  6
Continuous
 62
     2
100
AcDbLine
 10
154.0072301476
 20
20.9839440915
 30
0.0
 11
284.0072301476
 21
20.9839440915
 31
0.0
  0
LINE
  5
455
330
216
100
AcDbEntity
 67
     1
  8
0
  6
Continuous
 62
     2
100
AcDbLine
 10
154.0072301476
 20
16.9839440915
 30
0.0
 11
284.0072301476
 21
16.9839440915
 31
0.0
  0
LINE
  5
456
330
216
100
AcDbEntity
 67
     1
  8
0
  6
Continuous
 62
     2
100
AcDbLine
 10
154.0072301476
 20
12.9839440915
 30
0.0
 11
284.0072301476
 21
12.9839440915
 31
0.0
  0
LINE
  5
457
330
216
100
AcDbEntity
 67
     1
  8
0
  6
Continuous
 62
     2
100
AcDbLine
 10
184.0072301476
 20
78.9839440915
 30
0.0
 11
184.0072301476
 21
20.9839440915
 31
0.0
  0
LINE
  5
458
330
216
100
AcDbEntity
 67
     1
  8
0
  6
Continuous
 62
     2
100
AcDbLine
 10
204.0072301476
 20
62.9839440915
 30
0.0
 11
204.0072301476
 21
56.9839440915
 31
0.0
  0
LINE
  5
459
330
216
100
AcDbEntity
 67
     1
  8
0
  6
Continuous
 62
     2
100
AcDbLine
 10
234.0072301476
 20
32.9839440915
 30
0.0
 11
234.0072301476
 21
20.9839440915
 31
0.0
  0
LINE
  5
45A
330
216
100
AcDbEntity
 67
     1
  8
0
  6
Continuous
 62
     2
100
AcDbLine
 10
244.0072301476
 20
62.9839440915
 30
0.0
 11
244.0072301476
 21
56.9839440915
 31
0.0
  0
LINE
  5
45B
330
216
100
AcDbEntity
 67
     1
  8
0
  6
Continuous
 62
     2
100
AcDbLine
 10
244.0072301476
 20
50.9839440915
 30
0.0
 11
244.0072301476
 21
44.9839440915
 31
0.0
  0
LINE
  5
45C
330
216
100
AcDbEntity
 67
     1
  8
0
  6
Continuous
 62
     2
100
AcDbLine
 10
264.0072301476
 20
62.9839440915
 30
0.0
 11
264.0072301476
 21
56.9839440915
 31
0.0
  0
LINE
  5
45D
330
216
100
AcDbEntity
 67
     1
  8
0
  6
Continuous
 62
     2
100
AcDbLine
 10
274.0072301476
 20
50.9839440915
 30
0.0
 11
274.0072301476
 21
44.9839440915
 31
0.0
  0
LINE
  5
45E
330
216
100
AcDbEntity
 67
     1
  8
0
  6
Continuous
 62
     2
100
AcDbLine
 10
284.0072301476
 20
78.9839440915
 30
0.0
 11
284.0072301476
 21
12.9839440915
 31
0.0
  0
INSERT
  5
45F
330
216
100
AcDbEntity
 67
     1
  8
0
  6
Continuous
 62
     2
100
AcDbBlockReference
  2
PROIEZIONE_EU_BL0
 10
169.0072301476
 20
70.6089440915
 30
0.0
  0
MTEXT
  5
460
330
216
100
AcDbEntity
 67
     1
  8
9_SOLID
  6
Continuous
 62
     2
100
AcDbMText
 10
185.4947301476
 20
77.3589440915
 30
0.0
 40
1.9
 41
142.3642857143
 46
0.0
 71
     1
 72
     1
  1
EN: Chamfer/radii unlisted 0.3x45°. Remove sharp edges.\PGen. tol.: hole H11, shaft h11, lenght Js12. UNI EN 22768 Medium Grande.
  7
TEXTSTYLE_4
 73
     1
 44
0.9
  0
MTEXT
  5
461
330
216
100
AcDbEntity
 67
     1
  8
9_SOLID
  6
Continuous
 62
     2
100
AcDbMText
 10
185.4947301476
 20
69.3589440915
 30
0.0
 40
1.9
 41
148.2678571429
 46
0.0
 71
     1
 72
     1
  1
IT: Sm./rac. non quotati 0.3x45°. Eliminare spigoli taglienti.\PToll. gen.: foro H11, albero h11, lunghezza Js12. UNI EN 22768 Grado Medio.
  7
TEXTSTYLE_4
 73
     1
 44
0.9
  0
INSERT
  5
462
330
216
100
AcDbEntity
 67
     1
  8
0
  6
Continuous
 62
     2
100
AcDbBlockReference
  2
LOGO2_BL1
 10
167.8332771924
 20
44.9839440915
 30
0.0
  0
MTEXT
  5
463
330
216
100
AcDbEntity
 67
     1
  8
9_SOLID
  6
Continuous
 62
     2
100
AcDbMText
 10
185.4947301476
 20
61.2339440915
 30
0.0
 40
3.0
 41
26.25
 46
0.0
 71
     1
 72
     1
  1
Pj: A024
  7
TEXTSTYLE_4
 73
     1
 44
0.9
  0
MTEXT
  5
464
330
216
100
AcDbEntity
 67
     1
  8
9_SOLID
  6
Continuous
 62
     2
100
AcDbMText
 10
205.4947301476
 20
61.2339440915
 30
0.0
 40
3.0
 41
38.0357142857
 46
0.0
 71
     1
 72
     1
  1
% Check: %
  7
TEXTSTYLE_4
 73
     1
 44
0.9
  0
MTEXT
  5
465
330
216
100
AcDbEntity
 67
     1
  8
9_SOLID
  6
Continuous
 62
     2
100
AcDbMText
 10
245.4947301476
 20
61.2339440915
 30
0.0
 40
3.0
 41
19.5
 46
0.0
 71
     1
 72
     1
  1
Rev:00
  7
TEXTSTYLE_4
 73
     1
 44
0.9
  0
MTEXT
  5
466
330
216
100
AcDbEntity
 67
     1
  8
9_SOLID
  6
Continuous
 62
     2
100
AcDbMText
 10
265.4947301476
 20
61.4839440915
 30
0.0
 40
3.0
 41
19.7142857143
 46
0.0
 71
     1
 72
     1
  1
Ver: A
  7
TEXTSTYLE_4
 73
     1
 44
0.9
  0
MTEXT
  5
467
330
216
100
AcDbEntity
 67
     1
  8
9_SOLID
  6
Continuous
 62
     2
100
AcDbMText
 10
185.4947301476
 20
55.2339440915
 30
0.0
 40
3.0
 41
77.8928571429
 46
0.0
 71
     1
 72
     1
  1
Neutral code: A024_C_001
  7
TEXTSTYLE_4
 73
     1
 44
0.9
  0
MTEXT
  5
468
330
216
100
AcDbEntity
 67
     1
  8
9_SOLID
  6
Continuous
 62
     2
100
AcDbMText
 10
185.4947301476
 20
49.2339440915
 30
0.0
 40
3.0
 41
19.3928571429
 46
0.0
 71
     1
 72
     1
  1
Code: 
  7
TEXTSTYLE_4
 73
     1
 44
0.9
  0
MTEXT
  5
469
330
216
100
AcDbEntity
 67
     1
  8
9_SOLID
  6
Continuous
 62
     2
100
AcDbMText
 10
245.4947301476
 20
49.4839440915
 30
0.0
 40
3.0
 41
27.0
 46
0.0
 71
     1
 72
     1
  1
Scale: 1:1
  7
TEXTSTYLE_4
 73
     1
 44
0.9
  0
MTEXT
  5
46A
330
216
100
AcDbEntity
 67
     1
  8
9_SOLID
  6
Continuous
 62
     2
100
AcDbMText
 10
279.0072301476
 20
49.4839440915
 30
0.0
 40
3.0
 41
7.3928571429
 46
0.0
 71
     2
 72
     1
  1
A4
  7
TEXTSTYLE_4
 73
     1
 44
0.9
  0
MTEXT
  5
46B
330
216
100
AcDbEntity
 67
     1
  8
9_SOLID
  6
Continuous
 62
     2
100
AcDbMText
 10
185.4947301476
 20
43.4839440915
 30
0.0
 40
3.0
 41
82.3928571429
 46
0.0
 71
     1
 72
     1
  1
It descr.: CAMEO 1.2 - 1.8
  7
TEXTSTYLE_4
 73
     1
 44
0.9
  0
MTEXT
  5
46C
330
216
100
AcDbEntity
 67
     1
  8
9_SOLID
  6
Continuous
 62
     2
100
AcDbMText
 10
185.4947301476
 20
37.4839440915
 30
0.0
 40
3.0
 41
33.9642857143
 46
0.0
 71
     1
 72
     1
  1
En descr.: 
  7
TEXTSTYLE_4
 73
     1
 44
0.9
  0
MTEXT
  5
46D
330
216
100
AcDbEntity
 67
     1
  8
9_SOLID
  6
Continuous
 62
     2
100
AcDbMText
 10
185.4947301476
 20
31.4839440915
 30
0.0
 40
3.0
 41
31.6071428571
 46
0.0
 71
     1
 72
     1
  1
Des.: A.G.
  7
TEXTSTYLE_4
 73
     1
 44
0.9
  0
MTEXT
  5
46E
330
216
100
AcDbEntity
 67
     1
  8
9_SOLID
  6
Continuous
 62
     2
100
AcDbMText
 10
235.4947301476
 20
31.4839440915
 30
0.0
 40
3.0
 41
34.8214285714
 46
0.0
 71
     1
 72
     1
  1
Check: A.P.
  7
TEXTSTYLE_4
 73
     1
 44
0.9
  0
MTEXT
  5
46F
330
216
100
AcDbEntity
 67
     1
  8
9_SOLID
  6
Continuous
 62
     2
100
AcDbMText
 10
155.4947301476
 20
25.4839440915
 30
0.0
 40
3.0
 41
43.1785714286
 46
0.0
 71
     1
 72
     1
  1
Date: 16.05.19
  7
TEXTSTYLE_4
 73
     1
 44
0.9
  0
MTEXT
  5
470
330
216
100
AcDbEntity
 67
     1
  8
9_SOLID
  6
Continuous
 62
     2
100
AcDbMText
 10
185.4947301476
 20
25.4839440915
 30
0.0
 40
3.0
 41
18.2142857143
 46
0.0
 71
     1
 72
     1
  1
Mat.: 
  7
TEXTSTYLE_4
 73
     1
 44
0.9
  0
MTEXT
  5
471
330
216
100
AcDbEntity
 67
     1
  8
9_SOLID
  6
Continuous
 62
     2
100
AcDbMText
 10
235.4947301476
 20
24.9839440915
 30
0.0
 40
2.0
 41
42.3571428571
 46
0.0
 71
     1
 72
     1
  1
Disegno per catalogo
  7
TEXTSTYLE_4
 73
     1
 44
0.9
  0
MTEXT
  5
472
330
216
100
AcDbEntity
 67
     1
  8
9_SOLID
  6
Continuous
 62
     2
100
AcDbMText
 10
155.4947301476
 20
19.8839440915
 30
0.0
 40
1.8
 41
175.6928571429
 46
0.0
 71
     1
 72
     1
  1
It: A norma di legge si diffida da qualsiasi riproduzione senza nostra autorizzazione esplicita.
  7
TEXTSTYLE_4
 73
     1
 44
0.9
  0
MTEXT
  5
473
330
216
100
AcDbEntity
 67
     1
  8
9_SOLID
  6
Continuous
 62
     2
100
AcDbMText
 10
155.4947301476
 20
15.8839440915
 30
0.0
 40
1.8
 41
157.6285714286
 46
0.0
 71
     1
 72
     1
  1
En: According to the law, beware of any reproduction made without our authorization.
  7
TEXTSTYLE_4
 73
     1
 44
0.9
  0
ENDSEC
  0
SECTION
  2
OBJECTS
  0
DICTIONARY
  5
C
330
0
100
AcDbDictionary
281
     1
  3
ACAD_DETAILVIEWSTYLE
350
4C2
  3
ACAD_GROUP
350
D
  3
ACAD_LAYOUT
350
1A
  3
ACAD_MATERIAL
350
4B1
  3
ACAD_MLEADERSTYLE
350
4B7
  3
ACAD_MLINESTYLE
350
17
  3
ACAD_PLOTSETTINGS
350
19
  3
ACAD_PLOTSTYLENAME
350
E
  3
ACAD_SCALELIST
350
476
  3
ACAD_SECTIONVIEWSTYLE
350
4C3
  3
ACAD_TABLESTYLE
350
4B5
  3
ACAD_VISUALSTYLE
350
498
  3
ACDB_RECOMPOSE_DATA
350
4BE
  3
AcDbVariableDictionary
350
4BA
  3
APPDATA
350
4B9
  0
DICTIONARY
  5
4C2
102
{ACAD_REACTORS
330
C
102
}
330
C
100
AcDbDictionary
281
     1
  0
DICTIONARY
  5
D
102
{ACAD_REACTORS
330
C
102
}
330
C
100
AcDbDictionary
281
     1
  0
DICTIONARY
  5
1A
102
{ACAD_REACTORS
330
C
102
}
330
C
100
AcDbDictionary
281
     1
  3
168710_1
350
475
  3
Model
350
474
  0
DICTIONARY
  5
4B1
102
{ACAD_REACTORS
330
C
102
}
330
C
100
AcDbDictionary
281
     1
  3
ByBlock
350
4B3
  3
ByLayer
350
4B2
  3
Global
350
4B4
  0
DICTIONARY
  5
4B7
102
{ACAD_REACTORS
330
C
102
}
330
C
100
AcDbDictionary
281
     1
  3
Standard
350
4B8
  0
DICTIONARY
  5
17
102
{ACAD_REACTORS
330
C
102
}
330
C
100
AcDbDictionary
281
     1
  3
Standard
350
18
  0
DICTIONARY
  5
19
102
{ACAD_REACTORS
330
C
102
}
330
C
100
AcDbDictionary
281
     1
  0
ACDBDICTIONARYWDFLT
  5
E
102
{ACAD_REACTORS
330
C
102
}
330
C
100
AcDbDictionary
281
     1
  3
Normal
350
F
100
AcDbDictionaryWithDefault
340
F
  0
DICTIONARY
  5
476
102
{ACAD_REACTORS
330
C
102
}
330
C
100
AcDbDictionary
281
     1
  3
A0
350
477
  3
A1
350
478
  3
A2
350
479
  3
A3
350
47A
  3
A4
350
47B
  3
A5
350
47C
  3
A6
350
47D
  3
A7
350
47E
  3
A8
350
47F
  3
A9
350
480
  3
B0
350
481
  3
B1
350
482
  3
B2
350
483
  3
B3
350
484
  3
B4
350
485
  3
B5
350
486
  3
B6
350
487
  3
B7
350
488
  3
B8
350
489
  3
B9
350
48A
  3
C0
350
48B
  3
C1
350
48C
  3
C2
350
48D
  3
C3
350
48E
  3
C4
350
48F
  3
C5
350
490
  3
C6
350
491
  3
C7
350
492
  3
C8
350
493
  3
C9
350
494
  3
D0
350
495
  3
D1
350
496
  3
D2
350
497
  0
DICTIONARY
  5
4C3
102
{ACAD_REACTORS
330
C
102
}
330
C
100
AcDbDictionary
281
     1
  0
DICTIONARY
  5
4B5
102
{ACAD_REACTORS
330
C
102
}
330
C
100
AcDbDictionary
281
     1
  3
Standard
350
4B6
  0
DICTIONARY
  5
498
102
{ACAD_REACTORS
330
C
102
}
330
C
100
AcDbDictionary
281
     1
  3
2dWireframe
350
49D
  3
Basic
350
4A0
  3
Brighten
350
4A4
  3
ColorChange
350
4A8
  3
Conceptual
350
4A2
  3
Dim
350
4A3
  3
EdgeColorOff
350
4AB
  3
Facepattern
350
4A7
  3
Flat
350
499
  3
FlatWithEdges
350
49A
  3
Gouraud
350
49B
  3
GouraudWithEdges
350
49C
  3
Hidden
350
49F
  3
JitterOff
350
4A9
  3
Linepattern
350
4A6
  3
OverhangOff
350
4AA
  3
Realistic
350
4A1
  3
Shaded
350
4B0
  3
Shaded with edges
350
4AF
  3
Shades of Gray
350
4AC
  3
Sketchy
350
4AD
  3
Thicken
350
4A5
  3
Wireframe
350
49E
  3
X-Ray
350
4AE
  0
XRECORD
  5
4BE
102
{ACAD_REACTORS
330
C
102
}
330
C
100
AcDbXrecord
280
     1
 90
        1
330
4B6
  0
DICTIONARY
  5
4BA
102
{ACAD_REACTORS
330
C
102
}
330
C
100
AcDbDictionary
281
     1
  3
CANNOSCALE
350
4BB
  3
CMLEADERSTYLE
350
4C0
  3
CTABLESTYLE
350
4BF
  3
MSLTSCALE
350
4C1
  0
DICTIONARY
  5
4B9
102
{ACAD_REACTORS
330
C
102
}
330
C
100
AcDbDictionary
281
     1
  0
LAYOUT
  5
475
102
{ACAD_REACTORS
330
1A
102
}
330
1A
100
AcDbPlotSettings
  1

  2
none_device
  4
ISO_A4_(297.00_x_210.00_MM)
  6

 40
0.0
 41
0.0
 42
0.0
 43
0.0
 44
297.0
 45
210.0
 46
0.0
 47
0.0
 48
0.0
 49
0.0
140
0.0
141
0.0
142
1.0
143
1.0
 70
     0
 72
     1
 73
     0
 74
     0
  7

 75
     0
 76
     0
 77
     2
 78
   300
147
1.0
148
0.0
149
0.0
100
AcDbLayout
  1
168710_1
 70
     0
 71
     1
 10
0.0
 20
0.0
 11
297.0
 21
210.0
 12
0.0
 22
0.0
 32
0.0
 14
9.949999999999989
 24
9.950000000000003
 34
0.0
 15
291.5463968142666
 25
200.05
 35
0.0
146
0.0
 13
0.0
 23
0.0
 33
0.0
 16
1.0
 26
0.0
 36
0.0
 17
0.0
 27
1.0
 37
0.0
 76
     0
330
216
331
2A6
  0
LAYOUT
  5
474
102
{ACAD_REACTORS
330
1A
102
}
330
1A
100
AcDbPlotSettings
  1

  2
none_device
  4

  6

 40
0.0
 41
0.0
 42
0.0
 43
0.0
 44
297.0
 45
210.0
 46
0.0
 47
0.0
 48
0.0
 49
0.0
140
0.0
141
0.0
142
1.0
143
1.0
 70
  1024
 72
     1
 73
     0
 74
     0
  7

 75
     0
 76
     0
 77
     2
 78
   300
147
1.0
148
0.0
149
0.0
100
AcDbLayout
  1
Model
 70
     0
 71
     0
 10
0.0
 20
0.0
 11
297.0
 21
210.0
 12
0.0
 22
0.0
 32
0.0
 14
0.0
 24
0.0
 34
0.0
 15
0.0
 25
0.0
 35
0.0
146
0.0
 13
0.0
 23
0.0
 33
0.0
 16
1.0
 26
0.0
 36
0.0
 17
0.0
 27
1.0
 37
0.0
 76
     0
330
215
331
1F4
  0
MATERIAL
  5
4B3
102
{ACAD_REACTORS
330
4B1
102
}
330
4B1
100
AcDbMaterial
  1
ByBlock
 72
     1
 94
      127
  0
MATERIAL
  5
4B2
102
{ACAD_REACTORS
330
4B1
102
}
330
4B1
100
AcDbMaterial
  1
ByLayer
 72
     1
 94
      127
  0
MATERIAL
  5
4B4
102
{ACAD_REACTORS
330
4B1
102
}
330
4B1
100
AcDbMaterial
  1
Global
 72
     1
 94
      127
  0
MLEADERSTYLE
  5
4B8
102
{ACAD_REACTORS
330
4B7
102
}
330
4B7
100
AcDbMLeaderStyle
179
     2
170
     2
171
     1
172
     0
 90
        2
 40
0.0
 41
0.0
173
     1
 91
-1056964608
340
14
 92
       -2
290
     1
 42
2.0
291
     1
 43
8.0
  3
Standard
341
0
 44
4.0
300

342
11
174
     1
178
     1
175
     1
176
     0
 93
-1056964608
 45
4.0
292
     0
297
     0
 46
4.0
343
0
 94
-1056964608
 47
1.0
 49
1.0
140
1.0
293
     1
141
0.0
294
     1
177
     0
142
1.0
295
     0
296
     0
143
3.75
271
     0
272
     9
273
     9
298
     0
  0
MLINESTYLE
  5
18
102
{ACAD_REACTORS
330
17
102
}
330
17
100
AcDbMlineStyle
  2
STANDARD
 70
     0
  3

 62
   256
 51
90.0
 52
90.0
 71
     2
 49
0.5
 62
   256
  6
BYLAYER
 49
-0.5
 62
   256
  6
BYLAYER
  0
ACDBPLACEHOLDER
  5
F
102
{ACAD_REACTORS
330
E
102
}
330
E
  0
SCALE
  5
477
102
{ACAD_REACTORS
330
476
102
}
330
476
100
AcDbScale
 70
     0
300
1:1
140
1.0
141
1.0
290
     1
  0
SCALE
  5
478
102
{ACAD_REACTORS
330
476
102
}
330
476
100
AcDbScale
 70
     0
300
1:2
140
1.0
141
2.0
290
     0
  0
SCALE
  5
479
102
{ACAD_REACTORS
330
476
102
}
330
476
100
AcDbScale
 70
     0
300
1:4
140
1.0
141
4.0
290
     0
  0
SCALE
  5
47A
102
{ACAD_REACTORS
330
476
102
}
330
476
100
AcDbScale
 70
     0
300
1:5
140
1.0
141
5.0
290
     0
  0
SCALE
  5
47B
102
{ACAD_REACTORS
330
476
102
}
330
476
100
AcDbScale
 70
     0
300
1:8
140
1.0
141
8.0
290
     0
  0
SCALE
  5
47C
102
{ACAD_REACTORS
330
476
102
}
330
476
100
AcDbScale
 70
     0
300
1:10
140
1.0
141
10.0
290
     0
  0
SCALE
  5
47D
102
{ACAD_REACTORS
330
476
102
}
330
476
100
AcDbScale
 70
     0
300
1:16
140
1.0
141
16.0
290
     0
  0
SCALE
  5
47E
102
{ACAD_REACTORS
330
476
102
}
330
476
100
AcDbScale
 70
     0
300
1:20
140
1.0
141
20.0
290
     0
  0
SCALE
  5
47F
102
{ACAD_REACTORS
330
476
102
}
330
476
100
AcDbScale
 70
     0
300
1:30
140
1.0
141
30.0
290
     0
  0
SCALE
  5
480
102
{ACAD_REACTORS
330
476
102
}
330
476
100
AcDbScale
 70
     0
300
1:40
140
1.0
141
40.0
290
     0
  0
SCALE
  5
481
102
{ACAD_REACTORS
330
476
102
}
330
476
100
AcDbScale
 70
     0
300
1:50
140
1.0
141
50.0
290
     0
  0
SCALE
  5
482
102
{ACAD_REACTORS
330
476
102
}
330
476
100
AcDbScale
 70
     0
300
1:100
140
1.0
141
100.0
290
     0
  0
SCALE
  5
483
102
{ACAD_REACTORS
330
476
102
}
330
476
100
AcDbScale
 70
     0
300
2:1
140
2.0
141
1.0
290
     0
  0
SCALE
  5
484
102
{ACAD_REACTORS
330
476
102
}
330
476
100
AcDbScale
 70
     0
300
4:1
140
4.0
141
1.0
290
     0
  0
SCALE
  5
485
102
{ACAD_REACTORS
330
476
102
}
330
476
100
AcDbScale
 70
     0
300
8:1
140
8.0
141
1.0
290
     0
  0
SCALE
  5
486
102
{ACAD_REACTORS
330
476
102
}
330
476
100
AcDbScale
 70
     0
300
10:1
140
10.0
141
1.0
290
     0
  0
SCALE
  5
487
102
{ACAD_REACTORS
330
476
102
}
330
476
100
AcDbScale
 70
     0
300
100:1
140
100.0
141
1.0
290
     0
  0
SCALE
  5
488
102
{ACAD_REACTORS
330
476
102
}
330
476
100
AcDbScale
 70
     0
300
1/128" = 1'-0"
140
0.0078125
141
12.0
290
     0
  0
SCALE
  5
489
102
{ACAD_REACTORS
330
476
102
}
330
476
100
AcDbScale
 70
     0
300
1/64" = 1'-0"
140
0.015625
141
12.0
290
     0
  0
SCALE
  5
48A
102
{ACAD_REACTORS
330
476
102
}
330
476
100
AcDbScale
 70
     0
300
1/32" = 1'-0"
140
0.03125
141
12.0
290
     0
  0
SCALE
  5
48B
102
{ACAD_REACTORS
330
476
102
}
330
476
100
AcDbScale
 70
     0
300
1/16" = 1'-0"
140
0.0625
141
12.0
290
     0
  0
SCALE
  5
48C
102
{ACAD_REACTORS
330
476
102
}
330
476
100
AcDbScale
 70
     0
300
3/32" = 1'-0"
140
0.09375
141
12.0
290
     0
  0
SCALE
  5
48D
102
{ACAD_REACTORS
330
476
102
}
330
476
100
AcDbScale
 70
     0
300
1/8" = 1'-0"
140
0.125
141
12.0
290
     0
  0
SCALE
  5
48E
102
{ACAD_REACTORS
330
476
102
}
330
476
100
AcDbScale
 70
     0
300
3/16" = 1'-0"
140
0.1875
141
12.0
290
     0
  0
SCALE
  5
48F
102
{ACAD_REACTORS
330
476
102
}
330
476
100
AcDbScale
 70
     0
300
1/4" = 1'-0"
140
0.25
141
12.0
290
     0
  0
SCALE
  5
490
102
{ACAD_REACTORS
330
476
102
}
330
476
100
AcDbScale
 70
     0
300
3/8" = 1'-0"
140
0.375
141
12.0
290
     0
  0
SCALE
  5
491
102
{ACAD_REACTORS
330
476
102
}
330
476
100
AcDbScale
 70
     0
300
1/2" = 1'-0"
140
0.5
141
12.0
290
     0
  0
SCALE
  5
492
102
{ACAD_REACTORS
330
476
102
}
330
476
100
AcDbScale
 70
     0
300
3/4" = 1'-0"
140
0.75
141
12.0
290
     0
  0
SCALE
  5
493
102
{ACAD_REACTORS
330
476
102
}
330
476
100
AcDbScale
 70
     0
300
1" = 1'-0"
140
1.0
141
12.0
290
     0
  0
SCALE
  5
494
102
{ACAD_REACTORS
330
476
102
}
330
476
100
AcDbScale
 70
     0
300
1-1/2" = 1'-0"
140
1.5
141
12.0
290
     0
  0
SCALE
  5
495
102
{ACAD_REACTORS
330
476
102
}
330
476
100
AcDbScale
 70
     0
300
3" = 1'-0"
140
3.0
141
12.0
290
     0
  0
SCALE
  5
496
102
{ACAD_REACTORS
330
476
102
}
330
476
100
AcDbScale
 70
     0
300
6" = 1'-0"
140
6.0
141
12.0
290
     0
  0
SCALE
  5
497
102
{ACAD_REACTORS
330
476
102
}
330
476
100
AcDbScale
 70
     0
300
1'-0" = 1'-0"
140
12.0
141
12.0
290
     0
  0
TABLESTYLE
  5
4B6
102
{ACAD_REACTORS
330
4B5
102
}
102
{ACAD_XDICTIONARY
360
4BC
102
}
330
4B5
100
AcDbTableStyle
  3
Standard
 70
     0
 71
     0
 40
0.06
 41
0.06
280
     0
281
     0
  7
STANDARD
140
4.5
170
     2
 62
     0
 63
   257
283
     0
 90
        4
 91
        0
  1

274
    -2
284
     1
 64
     0
275
    -2
285
     1
 65
     0
276
    -2
286
     1
 66
     0
277
    -2
287
     1
 67
     0
278
    -2
288
     1
 68
     0
279
    -2
289
     1
 69
     0
  7
STANDARD
140
6.0
170
     5
 62
     0
 63
   257
283
     0
 90
        4
 91
        0
  1

274
    -2
284
     1
 64
     0
275
    -2
285
     1
 65
     0
276
    -2
286
     1
 66
     0
277
    -2
287
     1
 67
     0
278
    -2
288
     1
 68
     0
279
    -2
289
     1
 69
     0
  7
STANDARD
140
4.5
170
     5
 62
     0
 63
   257
283
     0
 90
        4
 91
        0
  1

274
    -2
284
     1
 64
     0
275
    -2
285
     1
 65
     0
276
    -2
286
     1
 66
     0
277
    -2
287
     1
 67
     0
278
    -2
288
     1
 68
     0
279
    -2
289
     1
 69
     0
  0
VISUALSTYLE
  5
49D
102
{ACAD_REACTORS
330
498
102
}
330
498
100
AcDbVisualStyle
  2
2dWireframe
 70
     4
177
     3
291
     0
 70
    58
 90
        0
176
     1
 90
        2
176
     1
 90
        0
176
     1
 90
        0
176
     1
 40
0.6
176
     1
 40
30.0
176
     1
 62
     7
420
 16777215
176
     1
 90
        1
176
     1
 90
        4
176
     1
 62
     7
176
     1
 62
   257
176
     1
 90
        1
176
     1
 90
        1
176
     1
 40
1.0
176
     1
 90
        0
176
     1
 62
   257
176
     1
 40
1.0
176
     1
 90
        1
176
     1
 90
        6
176
     1
 90
        2
176
     1
 62
     7
176
     1
 90
        5
176
     1
 90
        0
176
     1
 90
        0
176
     1
290
     0
176
     1
 90
        1
176
     1
 40
0.0
176
     1
 90
        0
176
     1
290
     1
176
     1
290
     1
176
     1
290
     0
176
     1
290
     0
176
     1
290
     0
176
     1
290
     0
176
     1
290
     0
176
     1
290
     0
176
     1
290
     0
176
     1
 90
       50
176
     1
 40
0.0
176
     1
 40
1.0
176
     1
 90
        0
176
     1
 62
    18
420
        0
176
     1
 90
       50
176
     1
 90
        3
176
     1
 62
     5
420
      255
176
     1
290
     0
176
     1
 90
       50
176
     1
 90
       50
176
     1
 90
       50
176
     1
290
     0
176
     1
 90
       50
176
     1
 62
   256
176
     0
 40
1.0
176
     0
 90
        2
176
     1
  1
strokes_ogs.tif
176
     1
290
     0
176
     1
 40
1.0
176
     1
 40
1.0
176
     1
  0
VISUALSTYLE
  5
4A0
102
{ACAD_REACTORS
330
498
102
}
330
498
100
AcDbVisualStyle
  2
Basic
 70
     7
177
     3
291
     1
 70
    58
 90
        1
176
     1
 90
        0
176
     1
 90
        1
176
     1
 90
        0
176
     1
 40
0.6
176
     1
 40
30.0
176
     1
 62
     7
420
 16777215
176
     1
 90
        0
176
     1
 90
        4
176
     1
 62
     7
176
     1
 62
   257
176
     1
 90
        1
176
     1
 90
        1
176
     1
 40
1.0
176
     1
 90
        8
176
     1
 62
     7
176
     1
 40
1.0
176
     1
 90
        1
176
     1
 90
        6
176
     1
 90
        2
176
     1
 62
     7
176
     1
 90
        5
176
     1
 90
        0
176
     1
 90
        0
176
     1
290
     0
176
     1
 90
        1
176
     1
 40
0.0
176
     1
 90
        0
176
     1
290
     0
176
     1
290
     1
176
     1
290
     1
176
     1
290
     0
176
     1
290
     0
176
     1
290
     0
176
     1
290
     0
176
     1
290
     0
176
     1
290
     0
176
     1
 90
       50
176
     1
 40
0.0
176
     1
 40
1.0
176
     1
 90
        0
176
     1
 62
    18
420
        0
176
     1
 90
       50
176
     1
 90
        3
176
     1
 62
     5
420
      255
176
     1
290
     0
176
     1
 90
       50
176
     1
 90
       50
176
     1
 90
       50
176
     1
290
     0
176
     1
 90
       50
176
     1
 62
   256
176
     0
 40
1.0
176
     0
 90
        2
176
     1
  1
strokes_ogs.tif
176
     1
290
     0
176
     1
 40
1.0
176
     1
 40
1.0
176
     1
  0
VISUALSTYLE
  5
4A4
102
{ACAD_REACTORS
330
498
102
}
330
498
100
AcDbVisualStyle
  2
Brighten
 70
    12
177
     3
291
     1
 70
    58
 90
        2
176
     1
 90
        2
176
     1
 90
        0
176
     1
 90
        0
176
     1
 40
0.6
176
     1
 40
30.0
176
     1
 62
     7
420
 16777215
176
     1
 90
        1
176
     1
 90
        4
176
     1
 62
     7
176
     1
 62
   257
176
     1
 90
        1
176
     1
 90
        1
176
     1
 40
1.0
176
     1
 90
        8
176
     1
 62
     7
176
     1
 40
1.0
176
     1
 90
        1
176
     1
 90
        6
176
     1
 90
        2
176
     1
 62
     7
176
     1
 90
        5
176
     1
 90
        0
176
     1
 90
        0
176
     1
290
     0
176
     1
 90
        1
176
     1
 40
50.0
176
     1
 90
        0
176
     1
290
     0
176
     1
290
     1
176
     1
290
     1
176
     1
290
     0
176
     1
290
     0
176
     1
290
     0
176
     1
290
     0
176
     1
290
     0
176
     1
290
     0
176
     1
 90
       50
176
     1
 40
0.0
176
     1
 40
1.0
176
     1
 90
        0
176
     1
 62
    18
420
        0
176
     1
 90
       50
176
     1
 90
        3
176
     1
 62
     5
420
      255
176
     1
290
     0
176
     1
 90
       50
176
     1
 90
       50
176
     1
 90
       50
176
     1
290
     0
176
     1
 90
       50
176
     1
 62
   256
176
     0
 40
1.0
176
     0
 90
        2
176
     1
  1
strokes_ogs.tif
176
     1
290
     0
176
     1
 40
1.0
176
     1
 40
1.0
176
     1
  0
VISUALSTYLE
  5
4A8
102
{ACAD_REACTORS
330
498
102
}
330
498
100
AcDbVisualStyle
  2
ColorChange
 70
    16
177
     3
291
     1
 70
    58
 90
        2
176
     1
 90
        2
176
     1
 90
        3
176
     1
 90
        0
176
     1
 40
0.6
176
     1
 40
30.0
176
     1
 62
     8
420
  8421504
176
     1
 90
        1
176
     1
 90
        4
176
     1
 62
     7
176
     1
 62
   257
176
     1
 90
        1
176
     1
 90
        1
176
     1
 40
1.0
176
     1
 90
        8
176
     1
 62
     8
420
  8421504
176
     1
 40
1.0
176
     1
 90
        1
176
     1
 90
        6
176
     1
 90
        2
176
     1
 62
     7
176
     1
 90
        5
176
     1
 90
        0
176
     1
 90
        0
176
     1
290
     0
176
     1
 90
        1
176
     1
 40
0.0
176
     1
 90
        0
176
     1
290
     0
176
     1
290
     1
176
     1
290
     1
176
     1
290
     0
176
     1
290
     0
176
     1
290
     0
176
     1
290
     0
176
     1
290
     0
176
     1
290
     0
176
     1
 90
       50
176
     1
 40
0.0
176
     1
 40
1.0
176
     1
 90
        0
176
     1
 62
    18
420
        0
176
     1
 90
       50
176
     1
 90
        3
176
     1
 62
     5
420
      255
176
     1
290
     0
176
     1
 90
       50
176
     1
 90
       50
176
     1
 90
       50
176
     1
290
     0
176
     1
 90
       50
176
     1
 62
   256
176
     0
 40
1.0
176
     0
 90
        2
176
     1
  1
strokes_ogs.tif
176
     1
290
     0
176
     1
 40
1.0
176
     1
 40
1.0
176
     1
  0
VISUALSTYLE
  5
4A2
102
{ACAD_REACTORS
330
498
102
}
330
498
100
AcDbVisualStyle
  2
Conceptual
 70
     9
177
     3
291
     0
 70
    58
 90
        3
176
     1
 90
        2
176
     1
 90
        0
176
     1
 90
        0
176
     1
 40
0.6
176
     1
 40
30.0
176
     1
 62
     7
420
 16777215
176
     1
 90
        2
176
     1
 90
        2
176
     1
 62
     7
176
     1
 62
   257
176
     1
 90
        1
176
     1
 90
        1
176
     1
 40
179.0
176
     1
 90
        8
176
     1
 62
     7
176
     1
 40
1.0
176
     1
 90
        1
176
     1
 90
        6
176
     1
 90
        2
176
     1
 62
     7
176
     1
 90
        3
176
     1
 90
        0
176
     1
 90
        0
176
     1
290
     0
176
     1
 90
        1
176
     1
 40
0.0
176
     1
 90
        0
176
     1
290
     0
176
     1
290
     1
176
     1
290
     1
176
     1
290
     0
176
     1
290
     0
176
     1
290
     0
176
     1
290
     0
176
     1
290
     0
176
     1
290
     0
176
     1
 90
       50
176
     1
 40
0.0
176
     1
 40
1.0
176
     1
 90
        0
176
     1
 62
    18
420
        0
176
     1
 90
       50
176
     1
 90
        3
176
     1
 62
     5
420
      255
176
     1
290
     0
176
     1
 90
       50
176
     1
 90
       50
176
     1
 90
       50
176
     1
290
     0
176
     1
 90
       50
176
     1
 62
   256
176
     0
 40
1.0
176
     0
 90
        2
176
     1
  1
strokes_ogs.tif
176
     1
290
     0
176
     1
 40
1.0
176
     1
 40
1.0
176
     1
  0
VISUALSTYLE
  5
4A3
102
{ACAD_REACTORS
330
498
102
}
330
498
100
AcDbVisualStyle
  2
Dim
 70
    11
177
     3
291
     1
 70
    58
 90
        2
176
     1
 90
        2
176
     1
 90
        0
176
     1
 90
        0
176
     1
 40
0.6
176
     1
 40
30.0
176
     1
 62
     7
420
 16777215
176
     1
 90
        1
176
     1
 90
        4
176
     1
 62
     7
176
     1
 62
   257
176
     1
 90
        1
176
     1
 90
        1
176
     1
 40
1.0
176
     1
 90
        8
176
     1
 62
     7
176
     1
 40
1.0
176
     1
 90
        1
176
     1
 90
        6
176
     1
 90
        2
176
     1
 62
     7
176
     1
 90
        5
176
     1
 90
        0
176
     1
 90
        0
176
     1
290
     0
176
     1
 90
        1
176
     1
 40
-50.0
176
     1
 90
        0
176
     1
290
     0
176
     1
290
     1
176
     1
290
     1
176
     1
290
     0
176
     1
290
     0
176
     1
290
     0
176
     1
290
     0
176
     1
290
     0
176
     1
290
     0
176
     1
 90
       50
176
     1
 40
0.0
176
     1
 40
1.0
176
     1
 90
        0
176
     1
 62
    18
420
        0
176
     1
 90
       50
176
     1
 90
        3
176
     1
 62
     5
420
      255
176
     1
290
     0
176
     1
 90
       50
176
     1
 90
       50
176
     1
 90
       50
176
     1
290
     0
176
     1
 90
       50
176
     1
 62
   256
176
     0
 40
1.0
176
     0
 90
        2
176
     1
  1
strokes_ogs.tif
176
     1
290
     0
176
     1
 40
1.0
176
     1
 40
1.0
176
     1
  0
VISUALSTYLE
  5
4AB
102
{ACAD_REACTORS
330
498
102
}
330
498
100
AcDbVisualStyle
  2
EdgeColorOff
 70
    22
177
     3
291
     1
 70
    58
 90
        2
176
     0
 90
        2
176
     0
 90
        0
176
     0
 90
        0
176
     0
 40
0.6
176
     0
 40
30.0
176
     0
 62
     7
420
 16777215
176
     0
 90
        1
176
     0
 90
        4
176
     0
 62
     7
176
     0
 62
   257
176
     0
 90
        1
176
     0
 90
        1
176
     0
 40
1.0
176
     0
 90
        8
176
     2
 62
     7
176
     0
 40
1.0
176
     0
 90
        1
176
     0
 90
        6
176
     0
 90
        2
176
     0
 62
     7
176
     0
 90
        5
176
     0
 90
        0
176
     0
 90
        0
176
     0
290
     0
176
     0
 90
        1
176
     0
 40
0.0
176
     0
 90
        0
176
     0
290
     0
176
     0
290
     1
176
     0
290
     1
176
     0
290
     0
176
     0
290
     0
176
     0
290
     0
176
     0
290
     0
176
     0
290
     0
176
     0
290
     0
176
     0
 90
       50
176
     0
 40
0.0
176
     0
 40
1.0
176
     0
 90
        0
176
     0
 62
    18
420
        0
176
     0
 90
       50
176
     0
 90
        3
176
     0
 62
     5
420
      255
176
     0
290
     0
176
     0
 90
       50
176
     0
 90
       50
176
     0
 90
       50
176
     0
290
     0
176
     0
 90
       50
176
     0
 62
   256
176
     0
 40
1.0
176
     0
 90
        2
176
     0
  1
strokes_ogs.tif
176
     0
290
     0
176
     0
 40
1.0
176
     0
 40
1.0
176
     0
  0
VISUALSTYLE
  5
4A7
102
{ACAD_REACTORS
330
498
102
}
330
498
100
AcDbVisualStyle
  2
Facepattern
 70
    15
177
     3
291
     1
 70
    58
 90
        2
176
     1
 90
        2
176
     1
 90
        0
176
     1
 90
        0
176
     1
 40
0.6
176
     1
 40
30.0
176
     1
 62
     7
420
 16777215
176
     1
 90
        1
176
     1
 90
        4
176
     1
 62
     7
176
     1
 62
   257
176
     1
 90
        1
176
     1
 90
        1
176
     1
 40
1.0
176
     1
 90
        8
176
     1
 62
     7
176
     1
 40
1.0
176
     1
 90
        1
176
     1
 90
        6
176
     1
 90
        2
176
     1
 62
     7
176
     1
 90
        5
176
     1
 90
        0
176
     1
 90
        0
176
     1
290
     0
176
     1
 90
        1
176
     1
 40
0.0
176
     1
 90
        0
176
     1
290
     0
176
     1
290
     1
176
     1
290
     1
176
     1
290
     0
176
     1
290
     0
176
     1
290
     0
176
     1
290
     0
176
     1
290
     0
176
     1
290
     0
176
     1
 90
       50
176
     1
 40
0.0
176
     1
 40
1.0
176
     1
 90
        0
176
     1
 62
    18
420
        0
176
     1
 90
       50
176
     1
 90
        3
176
     1
 62
     5
420
      255
176
     1
290
     0
176
     1
 90
       50
176
     1
 90
       50
176
     1
 90
       50
176
     1
290
     0
176
     1
 90
       50
176
     1
 62
   256
176
     0
 40
1.0
176
     0
 90
        2
176
     1
  1
strokes_ogs.tif
176
     1
290
     0
176
     1
 40
1.0
176
     1
 40
1.0
176
     1
  0
VISUALSTYLE
  5
499
102
{ACAD_REACTORS
330
498
102
}
330
498
100
AcDbVisualStyle
  2
Flat
 70
     0
177
     3
291
     1
 70
    58
 90
        2
176
     1
 90
        1
176
     1
 90
        1
176
     1
 90
        2
176
     1
 40
0.6
176
     1
 40
30.0
176
     1
 62
     7
420
 16777215
176
     1
 90
        0
176
     1
 90
        0
176
     1
 62
     7
176
     1
 62
   257
176
     1
 90
        1
176
     1
 90
        1
176
     1
 40
1.0
176
     1
 90
        8
176
     1
 62
     7
176
     1
 40
1.0
176
     1
 90
        1
176
     1
 90
        6
176
     1
 90
        2
176
     1
 62
     7
176
     1
 90
        5
176
     1
 90
        0
176
     1
 90
        0
176
     1
290
     0
176
     1
 90
       13
176
     1
 40
0.0
176
     1
 90
        0
176
     1
290
     0
176
     1
290
     1
176
     1
290
     1
176
     1
290
     0
176
     1
290
     0
176
     1
290
     0
176
     1
290
     0
176
     1
290
     0
176
     1
290
     0
176
     1
 90
       50
176
     1
 40
0.0
176
     1
 40
1.0
176
     1
 90
        0
176
     1
 62
    18
420
        0
176
     1
 90
       50
176
     1
 90
        3
176
     1
 62
     5
420
      255
176
     1
290
     0
176
     1
 90
       50
176
     1
 90
       50
176
     1
 90
       50
176
     1
290
     0
176
     1
 90
       50
176
     1
 62
   256
176
     0
 40
1.0
176
     0
 90
        2
176
     1
  1
strokes_ogs.tif
176
     1
290
     0
176
     1
 40
1.0
176
     1
 40
1.0
176
     1
  0
VISUALSTYLE
  5
49A
102
{ACAD_REACTORS
330
498
102
}
330
498
100
AcDbVisualStyle
  2
FlatWithEdges
 70
     1
177
     3
291
     1
 70
    58
 90
        2
176
     1
 90
        1
176
     1
 90
        1
176
     1
 90
        2
176
     1
 40
0.6
176
     1
 40
30.0
176
     1
 62
     7
420
 16777215
176
     1
 90
        1
176
     1
 90
        0
176
     1
 62
     7
176
     1
 62
   257
176
     1
 90
        1
176
     1
 90
        1
176
     1
 40
1.0
176
     1
 90
        0
176
     1
 62
   257
176
     1
 40
1.0
176
     1
 90
        1
176
     1
 90
        6
176
     1
 90
        2
176
     1
 62
     7
176
     1
 90
        5
176
     1
 90
        0
176
     1
 90
        0
176
     1
290
     0
176
     1
 90
       13
176
     1
 40
0.0
176
     1
 90
        0
176
     1
290
     0
176
     1
290
     1
176
     1
290
     1
176
     1
290
     0
176
     1
290
     0
176
     1
290
     0
176
     1
290
     0
176
     1
290
     0
176
     1
290
     0
176
     1
 90
       50
176
     1
 40
0.0
176
     1
 40
1.0
176
     1
 90
        0
176
     1
 62
    18
420
        0
176
     1
 90
       50
176
     1
 90
        3
176
     1
 62
     5
420
      255
176
     1
290
     0
176
     1
 90
       50
176
     1
 90
       50
176
     1
 90
       50
176
     1
290
     0
176
     1
 90
       50
176
     1
 62
   256
176
     0
 40
1.0
176
     0
 90
        2
176
     1
  1
strokes_ogs.tif
176
     1
290
     0
176
     1
 40
1.0
176
     1
 40
1.0
176
     1
  0
VISUALSTYLE
  5
49B
102
{ACAD_REACTORS
330
498
102
}
330
498
100
AcDbVisualStyle
  2
Gouraud
 70
     2
177
     3
291
     1
 70
    58
 90
        2
176
     1
 90
        2
176
     1
 90
        1
176
     1
 90
        2
176
     1
 40
0.6
176
     1
 40
30.0
176
     1
 62
     7
420
 16777215
176
     1
 90
        0
176
     1
 90
        0
176
     1
 62
     7
176
     1
 62
   257
176
     1
 90
        1
176
     1
 90
        1
176
     1
 40
1.0
176
     1
 90
        0
176
     1
 62
     7
176
     1
 40
1.0
176
     1
 90
        1
176
     1
 90
        6
176
     1
 90
        2
176
     1
 62
     7
176
     1
 90
        5
176
     1
 90
        0
176
     1
 90
        0
176
     1
290
     0
176
     1
 90
       13
176
     1
 40
0.0
176
     1
 90
        0
176
     1
290
     0
176
     1
290
     1
176
     1
290
     1
176
     1
290
     0
176
     1
290
     0
176
     1
290
     0
176
     1
290
     0
176
     1
290
     0
176
     1
290
     0
176
     1
 90
       50
176
     1
 40
0.0
176
     1
 40
1.0
176
     1
 90
        0
176
     1
 62
    18
420
        0
176
     1
 90
       50
176
     1
 90
        3
176
     1
 62
     5
420
      255
176
     1
290
     0
176
     1
 90
       50
176
     1
 90
       50
176
     1
 90
       50
176
     1
290
     0
176
     1
 90
       50
176
     1
 62
   256
176
     0
 40
1.0
176
     0
 90
        2
176
     1
  1
strokes_ogs.tif
176
     1
290
     0
176
     1
 40
1.0
176
     1
 40
1.0
176
     1
  0
VISUALSTYLE
  5
49C
102
{ACAD_REACTORS
330
498
102
}
330
498
100
AcDbVisualStyle
  2
GouraudWithEdges
 70
     3
177
     3
291
     1
 70
    58
 90
        2
176
     1
 90
        2
176
     1
 90
        1
176
     1
 90
        2
176
     1
 40
0.6
176
     1
 40
30.0
176
     1
 62
     7
420
 16777215
176
     1
 90
        1
176
     1
 90
        0
176
     1
 62
     7
176
     1
 62
   257
176
     1
 90
        1
176
     1
 90
        1
176
     1
 40
1.0
176
     1
 90
        0
176
     1
 62
   257
176
     1
 40
1.0
176
     1
 90
        1
176
     1
 90
        6
176
     1
 90
        2
176
     1
 62
     7
176
     1
 90
        5
176
     1
 90
        0
176
     1
 90
        0
176
     1
290
     0
176
     1
 90
       13
176
     1
 40
0.0
176
     1
 90
        0
176
     1
290
     0
176
     1
290
     1
176
     1
290
     1
176
     1
290
     0
176
     1
290
     0
176
     1
290
     0
176
     1
290
     0
176
     1
290
     0
176
     1
290
     0
176
     1
 90
       50
176
     1
 40
0.0
176
     1
 40
1.0
176
     1
 90
        0
176
     1
 62
    18
420
        0
176
     1
 90
       50
176
     1
 90
        3
176
     1
 62
     5
420
      255
176
     1
290
     0
176
     1
 90
       50
176
     1
 90
       50
176
     1
 90
       50
176
     1
290
     0
176
     1
 90
       50
176
     1
 62
   256
176
     0
 40
1.0
176
     0
 90
        2
176
     1
  1
strokes_ogs.tif
176
     1
290
     0
176
     1
 40
1.0
176
     1
 40
1.0
176
     1
  0
VISUALSTYLE
  5
49F
102
{ACAD_REACTORS
330
498
102
}
330
498
100
AcDbVisualStyle
  2
Hidden
 70
     6
177
     3
291
     0
 70
    58
 90
        1
176
     1
 90
        2
176
     1
 90
        2
176
     1
 90
        0
176
     1
 40
0.6
176
     1
 40
30.0
176
     1
 62
     7
420
 16777215
176
     1
 90
        2
176
     1
 90
        2
176
     1
 62
     7
176
     1
 62
   257
176
     1
 90
        2
176
     1
 90
        1
176
     1
 40
40.0
176
     1
 90
        0
176
     1
 62
   257
176
     1
 40
1.0
176
     1
 90
        1
176
     1
 90
        6
176
     1
 90
        2
176
     1
 62
     7
176
     1
 90
        3
176
     1
 90
        0
176
     1
 90
        0
176
     1
290
     0
176
     1
 90
        1
176
     1
 40
0.0
176
     1
 90
        0
176
     1
290
     0
176
     1
290
     1
176
     1
290
     1
176
     1
290
     0
176
     1
290
     0
176
     1
290
     0
176
     1
290
     0
176
     1
290
     0
176
     1
290
     0
176
     1
 90
       50
176
     1
 40
0.0
176
     1
 40
1.0
176
     1
 90
        0
176
     1
 62
    18
420
        0
176
     1
 90
       50
176
     1
 90
        3
176
     1
 62
     5
420
      255
176
     1
290
     0
176
     1
 90
       50
176
     1
 90
       50
176
     1
 90
       50
176
     1
290
     0
176
     1
 90
       50
176
     1
 62
   256
176
     0
 40
1.0
176
     0
 90
        2
176
     1
  1
strokes_ogs.tif
176
     1
290
     0
176
     1
 40
1.0
176
     1
 40
1.0
176
     1
  0
VISUALSTYLE
  5
4A9
102
{ACAD_REACTORS
330
498
102
}
330
498
100
AcDbVisualStyle
  2
JitterOff
 70
    20
177
     3
291
     1
 70
    58
 90
        2
176
     0
 90
        2
176
     0
 90
        0
176
     0
 90
        0
176
     0
 40
0.6
176
     0
 40
30.0
176
     0
 62
     7
420
 16777215
176
     0
 90
        1
176
     0
 90
        4
176
     0
 62
     7
176
     0
 62
   257
176
     0
 90
        1
176
     0
 90
        1
176
     0
 40
1.0
176
     0
 90
       10
176
     2
 62
     7
176
     0
 40
1.0
176
     0
 90
        1
176
     0
 90
        6
176
     0
 90
        2
176
     0
 62
     7
176
     0
 90
        5
176
     0
 90
        0
176
     0
 90
        0
176
     0
290
     0
176
     0
 90
        1
176
     0
 40
0.0
176
     0
 90
        0
176
     0
290
     0
176
     0
290
     1
176
     0
290
     1
176
     0
290
     0
176
     0
290
     0
176
     0
290
     0
176
     0
290
     0
176
     0
290
     0
176
     0
290
     0
176
     0
 90
       50
176
     0
 40
0.0
176
     0
 40
1.0
176
     0
 90
        0
176
     0
 62
    18
420
        0
176
     0
 90
       50
176
     0
 90
        3
176
     0
 62
     5
420
      255
176
     0
290
     0
176
     0
 90
       50
176
     0
 90
       50
176
     0
 90
       50
176
     0
290
     0
176
     0
 90
       50
176
     0
 62
   256
176
     0
 40
1.0
176
     0
 90
        2
176
     0
  1
strokes_ogs.tif
176
     0
290
     0
176
     0
 40
1.0
176
     0
 40
1.0
176
     0
  0
VISUALSTYLE
  5
4A6
102
{ACAD_REACTORS
330
498
102
}
330
498
100
AcDbVisualStyle
  2
Linepattern
 70
    14
177
     3
291
     1
 70
    58
 90
        2
176
     1
 90
        2
176
     1
 90
        0
176
     1
 90
        0
176
     1
 40
0.6
176
     1
 40
30.0
176
     1
 62
     7
420
 16777215
176
     1
 90
        1
176
     1
 90
        4
176
     1
 62
     7
176
     1
 62
   257
176
     1
 90
        7
176
     1
 90
        7
176
     1
 40
1.0
176
     1
 90
        8
176
     1
 62
     7
176
     1
 40
1.0
176
     1
 90
        1
176
     1
 90
        6
176
     1
 90
        2
176
     1
 62
     7
176
     1
 90
        5
176
     1
 90
        0
176
     1
 90
        0
176
     1
290
     0
176
     1
 90
        1
176
     1
 40
0.0
176
     1
 90
        0
176
     1
290
     0
176
     1
290
     1
176
     1
290
     1
176
     1
290
     0
176
     1
290
     0
176
     1
290
     0
176
     1
290
     0
176
     1
290
     0
176
     1
290
     0
176
     1
 90
       50
176
     1
 40
0.0
176
     1
 40
1.0
176
     1
 90
        0
176
     1
 62
    18
420
        0
176
     1
 90
       50
176
     1
 90
        3
176
     1
 62
     5
420
      255
176
     1
290
     0
176
     1
 90
       50
176
     1
 90
       50
176
     1
 90
       50
176
     1
290
     0
176
     1
 90
       50
176
     1
 62
   256
176
     0
 40
1.0
176
     0
 90
        2
176
     1
  1
strokes_ogs.tif
176
     1
290
     0
176
     1
 40
1.0
176
     1
 40
1.0
176
     1
  0
VISUALSTYLE
  5
4AA
102
{ACAD_REACTORS
330
498
102
}
330
498
100
AcDbVisualStyle
  2
OverhangOff
 70
    21
177
     3
291
     1
 70
    58
 90
        2
176
     0
 90
        2
176
     0
 90
        0
176
     0
 90
        0
176
     0
 40
0.6
176
     0
 40
30.0
176
     0
 62
     7
420
 16777215
176
     0
 90
        1
176
     0
 90
        4
176
     0
 62
     7
176
     0
 62
   257
176
     0
 90
        1
176
     0
 90
        1
176
     0
 40
1.0
176
     0
 90
        9
176
     2
 62
     7
176
     0
 40
1.0
176
     0
 90
        1
176
     0
 90
        6
176
     0
 90
        2
176
     0
 62
     7
176
     0
 90
        5
176
     0
 90
        0
176
     0
 90
        0
176
     0
290
     0
176
     0
 90
        1
176
     0
 40
0.0
176
     0
 90
        0
176
     0
290
     0
176
     0
290
     1
176
     0
290
     1
176
     0
290
     0
176
     0
290
     0
176
     0
290
     0
176
     0
290
     0
176
     0
290
     0
176
     0
290
     0
176
     0
 90
       50
176
     0
 40
0.0
176
     0
 40
1.0
176
     0
 90
        0
176
     0
 62
    18
420
        0
176
     0
 90
       50
176
     0
 90
        3
176
     0
 62
     5
420
      255
176
     0
290
     0
176
     0
 90
       50
176
     0
 90
       50
176
     0
 90
       50
176
     0
290
     0
176
     0
 90
       50
176
     0
 62
   256
176
     0
 40
1.0
176
     0
 90
        2
176
     0
  1
strokes_ogs.tif
176
     0
290
     0
176
     0
 40
1.0
176
     0
 40
1.0
176
     0
  0
VISUALSTYLE
  5
4A1
102
{ACAD_REACTORS
330
498
102
}
330
498
100
AcDbVisualStyle
  2
Realistic
 70
     8
177
     3
291
     0
 70
    58
 90
        2
176
     1
 90
        3
176
     1
 90
        0
176
     1
 90
        2
176
     1
 40
0.6
176
     1
 40
30.0
176
     1
 62
     7
420
 16777215
176
     1
 90
        0
176
     1
 90
        0
176
     1
 62
     7
176
     1
 62
   257
176
     1
 90
        1
176
     1
 90
        1
176
     1
 40
1.0
176
     1
 90
        8
176
     1
 62
   257
176
     1
 40
1.0
176
     1
 90
        1
176
     1
 90
        6
176
     1
 90
        2
176
     1
 62
     7
176
     1
 90
        3
176
     1
 90
        0
176
     1
 90
        0
176
     1
290
     0
176
     1
 90
       13
176
     1
 40
0.0
176
     1
 90
        0
176
     1
290
     0
176
     1
290
     1
176
     1
290
     1
176
     1
290
     0
176
     1
290
     0
176
     1
290
     0
176
     1
290
     0
176
     1
290
     0
176
     1
290
     0
176
     1
 90
       50
176
     1
 40
0.0
176
     1
 40
1.0
176
     1
 90
        0
176
     1
 62
    18
420
        0
176
     1
 90
       50
176
     1
 90
        3
176
     1
 62
     5
420
      255
176
     1
290
     0
176
     1
 90
       50
176
     1
 90
       50
176
     1
 90
       50
176
     1
290
     0
176
     1
 90
       50
176
     1
 62
   256
176
     0
 40
1.0
176
     0
 90
        2
176
     1
  1
strokes_ogs.tif
176
     1
290
     0
176
     1
 40
1.0
176
     1
 40
1.0
176
     1
  0
VISUALSTYLE
  5
4B0
102
{ACAD_REACTORS
330
498
102
}
330
498
100
AcDbVisualStyle
  2
Shaded
 70
    27
177
     3
291
     0
 70
    58
 90
        2
176
     1
 90
        2
176
     1
 90
        1
176
     1
 90
        2
176
     1
 40
0.6
176
     1
 40
30.0
176
     1
 62
     7
420
 16777215
176
     1
 90
        0
176
     1
 90
        4
176
     1
 62
     7
176
     1
 62
   257
176
     1
 90
        1
176
     1
 90
        1
176
     1
 40
1.0
176
     1
 90
        8
176
     1
 62
   257
176
     1
 40
1.0
176
     1
 90
        1
176
     1
 90
        6
176
     1
 90
        2
176
     1
 62
     8
420
  7895160
176
     1
 90
        3
176
     1
 90
        0
176
     1
 90
        0
176
     1
290
     0
176
     1
 90
        5
176
     1
 40
0.0
176
     1
 90
        0
176
     1
290
     0
176
     1
290
     1
176
     1
290
     1
176
     1
290
     0
176
     1
290
     0
176
     1
290
     0
176
     1
290
     0
176
     1
290
     0
176
     1
290
     0
176
     1
 90
       50
176
     1
 40
0.0
176
     1
 40
1.0
176
     1
 90
        0
176
     1
 62
    18
420
        0
176
     1
 90
       50
176
     1
 90
        3
176
     1
 62
     5
420
      255
176
     1
290
     0
176
     1
 90
       50
176
     1
 90
       50
176
     1
 90
       50
176
     1
290
     0
176
     1
 90
       50
176
     1
 62
   256
176
     0
 40
1.0
176
     0
 90
        2
176
     1
  1
strokes_ogs.tif
176
     1
290
     0
176
     1
 40
1.0
176
     1
 40
1.0
176
     1
  0
VISUALSTYLE
  5
4AF
102
{ACAD_REACTORS
330
498
102
}
330
498
100
AcDbVisualStyle
  2
Shaded with edges
 70
    26
177
     3
291
     0
 70
    58
 90
        2
176
     1
 90
        2
176
     1
 90
        1
176
     1
 90
        2
176
     1
 40
0.6
176
     1
 40
30.0
176
     1
 62
     7
420
 16777215
176
     1
 90
        1
176
     1
 90
       10
176
     1
 62
     7
176
     1
 62
   257
176
     1
 90
        2
176
     1
 90
        1
176
     1
 40
1.0
176
     1
 90
        8
176
     1
 62
   257
176
     1
 40
1.0
176
     1
 90
        1
176
     1
 90
        6
176
     1
 90
        2
176
     1
 62
     7
176
     1
 90
        3
176
     1
 90
        0
176
     1
 90
        0
176
     1
290
     0
176
     1
 90
        5
176
     1
 40
0.0
176
     1
 90
        0
176
     1
290
     0
176
     1
290
     1
176
     1
290
     1
176
     1
290
     0
176
     1
290
     0
176
     1
290
     0
176
     1
290
     0
176
     1
290
     0
176
     1
290
     0
176
     1
 90
       50
176
     1
 40
0.0
176
     1
 40
1.0
176
     1
 90
        0
176
     1
 62
    18
420
        0
176
     1
 90
       50
176
     1
 90
        3
176
     1
 62
     5
420
      255
176
     1
290
     0
176
     1
 90
       50
176
     1
 90
       50
176
     1
 90
       50
176
     1
290
     0
176
     1
 90
       50
176
     1
 62
   256
176
     0
 40
1.0
176
     0
 90
        2
176
     1
  1
strokes_ogs.tif
176
     1
290
     0
176
     1
 40
1.0
176
     1
 40
1.0
176
     1
  0
VISUALSTYLE
  5
4AC
102
{ACAD_REACTORS
330
498
102
}
330
498
100
AcDbVisualStyle
  2
Shades of Gray
 70
    23
177
     3
291
     0
 70
    58
 90
        2
176
     1
 90
        2
176
     1
 90
        3
176
     1
 90
        0
176
     1
 40
0.6
176
     1
 40
30.0
176
     1
 62
     7
420
 16777215
176
     1
 90
        2
176
     1
 90
        2
176
     1
 62
     7
176
     1
 62
     7
176
     1
 90
        1
176
     1
 90
        1
176
     1
 40
40.0
176
     1
 90
        8
176
     1
 62
     7
176
     1
 40
1.0
176
     1
 90
        1
176
     1
 90
        6
176
     1
 90
        2
176
     1
 62
     7
176
     1
 90
        3
176
     1
 90
        0
176
     1
 90
        0
176
     1
290
     0
176
     1
 90
        1
176
     1
 40
0.0
176
     1
 90
        0
176
     1
290
     0
176
     1
290
     1
176
     1
290
     1
176
     1
290
     0
176
     1
290
     0
176
     1
290
     0
176
     1
290
     0
176
     1
290
     0
176
     1
290
     0
176
     1
 90
       50
176
     1
 40
0.0
176
     1
 40
1.0
176
     1
 90
        0
176
     1
 62
    18
420
        0
176
     1
 90
       50
176
     1
 90
        3
176
     1
 62
     5
420
      255
176
     1
290
     0
176
     1
 90
       50
176
     1
 90
       50
176
     1
 90
       50
176
     1
290
     0
176
     1
 90
       50
176
     1
 62
   256
176
     0
 40
1.0
176
     0
 90
        2
176
     1
  1
strokes_ogs.tif
176
     1
290
     0
176
     1
 40
1.0
176
     1
 40
1.0
176
     1
  0
VISUALSTYLE
  5
4AD
102
{ACAD_REACTORS
330
498
102
}
330
498
100
AcDbVisualStyle
  2
Sketchy
 70
    24
177
     3
291
     0
 70
    58
 90
        1
176
     1
 90
        2
176
     1
 90
        2
176
     1
 90
        0
176
     1
 40
0.6
176
     1
 40
30.0
176
     1
 62
     7
420
 16777215
176
     1
 90
        2
176
     1
 90
        2
176
     1
 62
     7
176
     1
 62
     7
176
     1
 90
        1
176
     1
 90
        1
176
     1
 40
40.0
176
     1
 90
       11
176
     1
 62
     7
176
     1
 40
1.0
176
     1
 90
        1
176
     1
 90
        6
176
     1
 90
        2
176
     1
 62
     7
176
     1
 90
        6
176
     1
 90
        0
176
     1
 90
        0
176
     1
290
     0
176
     1
 90
        1
176
     1
 40
0.0
176
     1
 90
        0
176
     1
290
     0
176
     1
290
     1
176
     1
290
     1
176
     1
290
     0
176
     1
290
     0
176
     1
290
     0
176
     1
290
     0
176
     1
290
     0
176
     1
290
     0
176
     1
 90
       50
176
     1
 40
0.0
176
     1
 40
1.0
176
     1
 90
        0
176
     1
 62
    18
420
        0
176
     1
 90
       50
176
     1
 90
        3
176
     1
 62
     5
420
      255
176
     1
290
     0
176
     1
 90
       50
176
     1
 90
       50
176
     1
 90
       50
176
     1
290
     0
176
     1
 90
       50
176
     1
 62
   256
176
     0
 40
1.0
176
     0
 90
        2
176
     1
  1
strokes_ogs.tif
176
     1
290
     0
176
     1
 40
1.0
176
     1
 40
1.0
176
     1
  0
VISUALSTYLE
  5
4A5
102
{ACAD_REACTORS
330
498
102
}
330
498
100
AcDbVisualStyle
  2
Thicken
 70
    13
177
     3
291
     1
 70
    58
 90
        2
176
     1
 90
        2
176
     1
 90
        0
176
     1
 90
        0
176
     1
 40
0.6
176
     1
 40
30.0
176
     1
 62
     7
420
 16777215
176
     1
 90
        1
176
     1
 90
        4
176
     1
 62
     7
176
     1
 62
   257
176
     1
 90
        1
176
     1
 90
        1
176
     1
 40
1.0
176
     1
 90
       12
176
     1
 62
     7
176
     1
 40
1.0
176
     1
 90
        1
176
     1
 90
        6
176
     1
 90
        2
176
     1
 62
     7
176
     1
 90
        5
176
     1
 90
        0
176
     1
 90
        0
176
     1
290
     0
176
     1
 90
        1
176
     1
 40
0.0
176
     1
 90
        0
176
     1
290
     0
176
     1
290
     1
176
     1
290
     1
176
     1
290
     0
176
     1
290
     0
176
     1
290
     0
176
     1
290
     0
176
     1
290
     0
176
     1
290
     0
176
     1
 90
       50
176
     1
 40
0.0
176
     1
 40
1.0
176
     1
 90
        0
176
     1
 62
    18
420
        0
176
     1
 90
       50
176
     1
 90
        3
176
     1
 62
     5
420
      255
176
     1
290
     0
176
     1
 90
       50
176
     1
 90
       50
176
     1
 90
       50
176
     1
290
     0
176
     1
 90
       50
176
     1
 62
   256
176
     0
 40
1.0
176
     0
 90
        2
176
     1
  1
strokes_ogs.tif
176
     1
290
     0
176
     1
 40
1.0
176
     1
 40
1.0
176
     1
  0
VISUALSTYLE
  5
49E
102
{ACAD_REACTORS
330
498
102
}
330
498
100
AcDbVisualStyle
  2
Wireframe
 70
     5
177
     3
291
     0
 70
    58
 90
        0
176
     1
 90
        2
176
     1
 90
        0
176
     1
 90
        0
176
     1
 40
0.6
176
     1
 40
30.0
176
     1
 62
     7
420
 16777215
176
     1
 90
        1
176
     1
 90
        4
176
     1
 62
     7
176
     1
 62
   257
176
     1
 90
        1
176
     1
 90
        1
176
     1
 40
1.0
176
     1
 90
        0
176
     1
 62
   257
176
     1
 40
1.0
176
     1
 90
        1
176
     1
 90
        6
176
     1
 90
        2
176
     1
 62
     7
176
     1
 90
        3
176
     1
 90
        0
176
     1
 90
        0
176
     1
290
     0
176
     1
 90
        1
176
     1
 40
0.0
176
     1
 90
        0
176
     1
290
     0
176
     1
290
     1
176
     1
290
     1
176
     1
290
     0
176
     1
290
     0
176
     1
290
     0
176
     1
290
     0
176
     1
290
     0
176
     1
290
     0
176
     1
 90
       50
176
     1
 40
0.0
176
     1
 40
1.0
176
     1
 90
        0
176
     1
 62
    18
420
        0
176
     1
 90
       50
176
     1
 90
        3
176
     1
 62
     5
420
      255
176
     1
290
     0
176
     1
 90
       50
176
     1
 90
       50
176
     1
 90
       50
176
     1
290
     0
176
     1
 90
       50
176
     1
 62
   256
176
     0
 40
1.0
176
     0
 90
        2
176
     1
  1
strokes_ogs.tif
176
     1
290
     0
176
     1
 40
1.0
176
     1
 40
1.0
176
     1
  0
VISUALSTYLE
  5
4AE
102
{ACAD_REACTORS
330
498
102
}
330
498
100
AcDbVisualStyle
  2
X-Ray
 70
    25
177
     3
291
     0
 70
    58
 90
        2
176
     1
 90
        2
176
     1
 90
        1
176
     1
 90
        1
176
     1
 40
0.5
176
     1
 40
30.0
176
     1
 62
     7
420
 16777215
176
     1
 90
        1
176
     1
 90
        0
176
     1
 62
     7
176
     1
 62
   257
176
     1
 90
        1
176
     1
 90
        1
176
     1
 40
1.0
176
     1
 90
        8
176
     1
 62
     7
176
     1
 40
1.0
176
     1
 90
        1
176
     1
 90
        6
176
     1
 90
        2
176
     1
 62
     7
176
     1
 90
        3
176
     1
 90
        0
176
     1
 90
        0
176
     1
290
     0
176
     1
 90
       13
176
     1
 40
0.0
176
     1
 90
        0
176
     1
290
     0
176
     1
290
     1
176
     1
290
     1
176
     1
290
     0
176
     1
290
     0
176
     1
290
     0
176
     1
290
     0
176
     1
290
     0
176
     1
290
     0
176
     1
 90
       50
176
     1
 40
0.0
176
     1
 40
1.0
176
     1
 90
        0
176
     1
 62
    18
420
        0
176
     1
 90
       50
176
     1
 90
        3
176
     1
 62
     5
420
      255
176
     1
290
     0
176
     1
 90
       50
176
     1
 90
       50
176
     1
 90
       50
176
     1
290
     0
176
     1
 90
       50
176
     1
 62
   256
176
     0
 40
1.0
176
     0
 90
        2
176
     1
  1
strokes_ogs.tif
176
     1
290
     0
176
     1
 40
1.0
176
     1
 40
1.0
176
     1
  0
DICTIONARYVAR
  5
4BB
102
{ACAD_REACTORS
330
4BA
102
}
330
4BA
100
DictionaryVariables
280
     0
  1
1:1
  0
DICTIONARYVAR
  5
4C0
102
{ACAD_REACTORS
330
4BA
102
}
330
4BA
100
DictionaryVariables
280
     0
  1
Standard
  0
DICTIONARYVAR
  5
4BF
102
{ACAD_REACTORS
330
4BA
102
}
330
4BA
100
DictionaryVariables
280
     0
  1
Standard
  0
DICTIONARYVAR
  5
4C1
102
{ACAD_REACTORS
330
4BA
102
}
330
4BA
100
DictionaryVariables
280
     0
  1
0
  0
DICTIONARY
  5
4BC
330
4B6
100
AcDbDictionary
280
     1
281
     1
  3
ACAD_ROUNDTRIP_2008_TABLESTYLE_CELLSTYLEMAP
360
4BD
  0
CELLSTYLEMAP
  5
4BD
102
{ACAD_REACTORS
330
4BC
102
}
330
4BC
100
AcDbCellStyleMap
 90
        3
300
CELLSTYLE
  1
TABLEFORMAT_BEGIN
 90
        5
170
     1
 91
        0
 92
    32768
 62
   257
 93
        1
300
CONTENTFORMAT
  1
CONTENTFORMAT_BEGIN
 90
        0
 91
        0
 92
        4
 93
        0
300

 40
0.0
140
1.0
 94
        5
 62
     0
340
11
144
6.0
309
CONTENTFORMAT_END
171
     1
301
MARGIN
  1
CELLMARGIN_BEGIN
 40
1.5
 40
1.5
 40
1.5
 40
1.5
 40
1.5
 40
1.5
309
CELLMARGIN_END
 94
        6
 95
        1
302
GRIDFORMAT
  1
GRIDFORMAT_BEGIN
 90
        0
 91
        1
 62
     0
 92
       -2
340
14
 93
        0
 40
0.045
309
GRIDFORMAT_END
 95
        2
302
GRIDFORMAT
  1
GRIDFORMAT_BEGIN
 90
        0
 91
        1
 62
     0
 92
       -2
340
14
 93
        0
 40
0.045
309
GRIDFORMAT_END
 95
        4
302
GRIDFORMAT
  1
GRIDFORMAT_BEGIN
 90
        0
 91
        1
 62
     0
 92
       -2
340
14
 93
        0
 40
0.045
309
GRIDFORMAT_END
 95
        8
302
GRIDFORMAT
  1
GRIDFORMAT_BEGIN
 90
        0
 91
        1
 62
     0
 92
       -2
340
14
 93
        0
 40
0.045
309
GRIDFORMAT_END
 95
       16
302
GRIDFORMAT
  1
GRIDFORMAT_BEGIN
 90
        0
 91
        1
 62
     0
 92
       -2
340
14
 93
        0
 40
0.045
309
GRIDFORMAT_END
 95
       32
302
GRIDFORMAT
  1
GRIDFORMAT_BEGIN
 90
        0
 91
        1
 62
     0
 92
       -2
340
14
 93
        0
 40
0.045
309
GRIDFORMAT_END
309
TABLEFORMAT_END
  1
CELLSTYLE_BEGIN
 90
        1
 91
        1
300
_TITLE
309
CELLSTYLE_END
300
CELLSTYLE
  1
TABLEFORMAT_BEGIN
 90
        5
170
     1
 91
        0
 92
        0
 62
   257
 93
        1
300
CONTENTFORMAT
  1
CONTENTFORMAT_BEGIN
 90
        0
 91
        0
 92
        4
 93
        0
300

 40
0.0
140
1.0
 94
        5
 62
     0
340
11
144
4.5
309
CONTENTFORMAT_END
171
     1
301
MARGIN
  1
CELLMARGIN_BEGIN
 40
1.5
 40
1.5
 40
1.5
 40
1.5
 40
1.5
 40
1.5
309
CELLMARGIN_END
 94
        6
 95
        1
302
GRIDFORMAT
  1
GRIDFORMAT_BEGIN
 90
        0
 91
        1
 62
     0
 92
       -2
340
14
 93
        0
 40
0.045
309
GRIDFORMAT_END
 95
        2
302
GRIDFORMAT
  1
GRIDFORMAT_BEGIN
 90
        0
 91
        1
 62
     0
 92
       -2
340
14
 93
        0
 40
0.045
309
GRIDFORMAT_END
 95
        4
302
GRIDFORMAT
  1
GRIDFORMAT_BEGIN
 90
        0
 91
        1
 62
     0
 92
       -2
340
14
 93
        0
 40
0.045
309
GRIDFORMAT_END
 95
        8
302
GRIDFORMAT
  1
GRIDFORMAT_BEGIN
 90
        0
 91
        1
 62
     0
 92
       -2
340
14
 93
        0
 40
0.045
309
GRIDFORMAT_END
 95
       16
302
GRIDFORMAT
  1
GRIDFORMAT_BEGIN
 90
        0
 91
        1
 62
     0
 92
       -2
340
14
 93
        0
 40
0.045
309
GRIDFORMAT_END
 95
       32
302
GRIDFORMAT
  1
GRIDFORMAT_BEGIN
 90
        0
 91
        1
 62
     0
 92
       -2
340
14
 93
        0
 40
0.045
309
GRIDFORMAT_END
309
TABLEFORMAT_END
  1
CELLSTYLE_BEGIN
 90
        2
 91
        1
300
_HEADER
309
CELLSTYLE_END
300
CELLSTYLE
  1
TABLEFORMAT_BEGIN
 90
        5
170
     1
 91
        0
 92
        0
 62
   257
 93
        1
300
CONTENTFORMAT
  1
CONTENTFORMAT_BEGIN
 90
        0
 91
        0
 92
        4
 93
        0
300

 40
0.0
140
1.0
 94
        2
 62
     0
340
11
144
4.5
309
CONTENTFORMAT_END
171
     1
301
MARGIN
  1
CELLMARGIN_BEGIN
 40
1.5
 40
1.5
 40
1.5
 40
1.5
 40
1.5
 40
1.5
309
CELLMARGIN_END
 94
        6
 95
        1
302
GRIDFORMAT
  1
GRIDFORMAT_BEGIN
 90
        0
 91
        1
 62
     0
 92
       -2
340
14
 93
        0
 40
0.045
309
GRIDFORMAT_END
 95
        2
302
GRIDFORMAT
  1
GRIDFORMAT_BEGIN
 90
        0
 91
        1
 62
     0
 92
       -2
340
14
 93
        0
 40
0.045
309
GRIDFORMAT_END
 95
        4
302
GRIDFORMAT
  1
GRIDFORMAT_BEGIN
 90
        0
 91
        1
 62
     0
 92
       -2
340
14
 93
        0
 40
0.045
309
GRIDFORMAT_END
 95
        8
302
GRIDFORMAT
  1
GRIDFORMAT_BEGIN
 90
        0
 91
        1
 62
     0
 92
       -2
340
14
 93
        0
 40
0.045
309
GRIDFORMAT_END
 95
       16
302
GRIDFORMAT
  1
GRIDFORMAT_BEGIN
 90
        0
 91
        1
 62
     0
 92
       -2
340
14
 93
        0
 40
0.045
309
GRIDFORMAT_END
 95
       32
302
GRIDFORMAT
  1
GRIDFORMAT_BEGIN
 90
        0
 91
        1
 62
     0
 92
       -2
340
14
 93
        0
 40
0.045
309
GRIDFORMAT_END
309
TABLEFORMAT_END
  1
CELLSTYLE_BEGIN
 90
        3
 91
        2
300
_DATA
309
CELLSTYLE_END
  0
ENDSEC
  0
EOF
