  0
SECTION
  2
HEADER
  9
$ACADVER
  1
AC1027
  9
$ACADMAINTVER
 70
   105
  9
$DWGCODEPAGE
  3
ANSI_1252
  9
$REQUIREDVERSIONS
160
                 0
  9
$LASTSAVEDBY
  1
andrea.zolin
  9
$INSBASE
 10
0.0
 20
0.0
 30
0.0
  9
$EXTMIN
 10
0.0
 20
0.0
 30
0.0
  9
$EXTMAX
 10
297.0
 20
210.0
 30
0.0
  9
$LIMMIN
 10
0.0
 20
0.0
  9
$LIMMAX
 10
297.0
 20
210.0
  9
$ORTHOMODE
 70
     0
  9
$REGENMODE
 70
     1
  9
$FILLMODE
 70
     1
  9
$QTEXTMODE
 70
     0
  9
$MIRRTEXT
 70
     1
  9
$LTSCALE
 40
16.335
  9
$ATTMODE
 70
     1
  9
$TEXTSIZE
 40
0.2
  9
$TRACEWID
 40
0.05
  9
$TEXTSTYLE
  7
STANDARD
  9
$CLAYER
  8
0
  9
$CELTYPE
  6
BYLAYER
  9
$CECOLOR
 62
   256
  9
$CELTSCALE
 40
1.0
  9
$DISPSILH
 70
     0
  9
$DIMSCALE
 40
1.0
  9
$DIMASZ
 40
2.5
  9
$DIMEXO
 40
0.75
  9
$DIMDLI
 40
11.286
  9
$DIMRND
 40
0.0
  9
$DIMDLE
 40
0.0
  9
$DIMEXE
 40
0.75
  9
$DIMTP
 40
0.01
  9
$DIMTM
 40
0.01
  9
$DIMTXT
 40
3.0
  9
$DIMCEN
 40
2.673
  9
$DIMTSZ
 40
0.0
  9
$DIMTOL
 70
     1
  9
$DIMLIM
 70
     0
  9
$DIMTIH
 70
     1
  9
$DIMTOH
 70
     1
  9
$DIMSE1
 70
     0
  9
$DIMSE2
 70
     0
  9
$DIMTAD
 70
     0
  9
$DIMZIN
 70
     0
  9
$DIMBLK
  1
CLOSED
  9
$DIMASO
 70
     1
  9
$DIMSHO
 70
     1
  9
$DIMPOST
  1

  9
$DIMAPOST
  1

  9
$DIMALT
 70
     0
  9
$DIMALTD
 70
     2
  9
$DIMALTF
 40
25.4
  9
$DIMLFAC
 40
1.0
  9
$DIMTOFL
 70
     0
  9
$DIMTVP
 40
0.0
  9
$DIMTIX
 70
     0
  9
$DIMSOXD
 70
     0
  9
$DIMSAH
 70
     0
  9
$DIMBLK1
  1

  9
$DIMBLK2
  1

  9
$DIMSTYLE
  2
STANDARD
  9
$DIMCLRD
 70
     0
  9
$DIMCLRE
 70
     0
  9
$DIMCLRT
 70
     0
  9
$DIMTFAC
 40
1.0
  9
$DIMGAP
 40
0.625
  9
$DIMJUST
 70
     0
  9
$DIMSD1
 70
     0
  9
$DIMSD2
 70
     0
  9
$DIMTOLJ
 70
     1
  9
$DIMTZIN
 70
     0
  9
$DIMALTZ
 70
     0
  9
$DIMALTTZ
 70
     0
  9
$DIMUPT
 70
     0
  9
$DIMDEC
 70
     4
  9
$DIMTDEC
 70
     4
  9
$DIMALTU
 70
     2
  9
$DIMALTTD
 70
     2
  9
$DIMTXSTY
  7
STANDARD
  9
$DIMAUNIT
 70
     0
  9
$DIMADEC
 70
     0
  9
$DIMALTRND
 40
0.0
  9
$DIMAZIN
 70
     0
  9
$DIMDSEP
 70
    44
  9
$DIMATFIT
 70
     3
  9
$DIMFRAC
 70
     0
  9
$DIMLDRBLK
  1

  9
$DIMLUNIT
 70
     2
  9
$DIMLWD
 70
    -2
  9
$DIMLWE
 70
    -2
  9
$DIMTMOVE
 70
     0
  9
$DIMFXL
 40
1.0
  9
$DIMFXLON
 70
     0
  9
$DIMJOGANG
 40
0.7853981633974483
  9
$DIMTFILL
 70
     0
  9
$DIMTFILLCLR
 70
     0
  9
$DIMARCSYM
 70
     0
  9
$DIMLTYPE
  6

  9
$DIMLTEX1
  6

  9
$DIMLTEX2
  6

  9
$DIMTXTDIRECTION
 70
     0
  9
$LUNITS
 70
     2
  9
$LUPREC
 70
     4
  9
$SKETCHINC
 40
0.1
  9
$FILLETRAD
 40
0.5
  9
$AUNITS
 70
     0
  9
$AUPREC
 70
     0
  9
$MENU
  1
.
  9
$ELEVATION
 40
0.0
  9
$PELEVATION
 40
0.0
  9
$THICKNESS
 40
0.0
  9
$LIMCHECK
 70
     0
  9
$CHAMFERA
 40
0.0
  9
$CHAMFERB
 40
0.0
  9
$CHAMFERC
 40
0.0
  9
$CHAMFERD
 40
0.0
  9
$SKPOLY
 70
     0
  9
$TDCREATE
 40
2447893.083333333
  9
$TDUCREATE
 40
0.0
  9
$TDUPDATE
 40
2458620.592067905
  9
$TDUUPDATE
 40
2458620.508734572
  9
$TDINDWG
 40
0.000384456
  9
$TDUSRTIMER
 40
0.000384456
  9
$USRTIMER
 70
     1
  9
$ANGBASE
 50
0.0
  9
$ANGDIR
 70
     0
  9
$PDMODE
 70
     3
  9
$PDSIZE
 40
0.3125
  9
$PLINEWID
 40
0.0
  9
$SPLFRAME
 70
     0
  9
$SPLINETYPE
 70
     6
  9
$SPLINESEGS
 70
     8
  9
$HANDSEED
  5
4F1
  9
$SURFTAB1
 70
     6
  9
$SURFTAB2
 70
     6
  9
$SURFTYPE
 70
     6
  9
$SURFU
 70
     6
  9
$SURFV
 70
     6
  9
$UCSBASE
  2

  9
$UCSNAME
  2

  9
$UCSORG
 10
0.0
 20
0.0
 30
0.0
  9
$UCSXDIR
 10
1.0
 20
0.0
 30
0.0
  9
$UCSYDIR
 10
0.0
 20
1.0
 30
0.0
  9
$UCSORTHOREF
  2

  9
$UCSORTHOVIEW
 70
     0
  9
$UCSORGTOP
 10
0.0
 20
0.0
 30
0.0
  9
$UCSORGBOTTOM
 10
0.0
 20
0.0
 30
0.0
  9
$UCSORGLEFT
 10
0.0
 20
0.0
 30
0.0
  9
$UCSORGRIGHT
 10
0.0
 20
0.0
 30
0.0
  9
$UCSORGFRONT
 10
0.0
 20
0.0
 30
0.0
  9
$UCSORGBACK
 10
0.0
 20
0.0
 30
0.0
  9
$PUCSBASE
  2

  9
$PUCSNAME
  2

  9
$PUCSORG
 10
0.0
 20
0.0
 30
0.0
  9
$PUCSXDIR
 10
1.0
 20
0.0
 30
0.0
  9
$PUCSYDIR
 10
0.0
 20
1.0
 30
0.0
  9
$PUCSORTHOREF
  2

  9
$PUCSORTHOVIEW
 70
     0
  9
$PUCSORGTOP
 10
0.0
 20
0.0
 30
0.0
  9
$PUCSORGBOTTOM
 10
0.0
 20
0.0
 30
0.0
  9
$PUCSORGLEFT
 10
0.0
 20
0.0
 30
0.0
  9
$PUCSORGRIGHT
 10
0.0
 20
0.0
 30
0.0
  9
$PUCSORGFRONT
 10
0.0
 20
0.0
 30
0.0
  9
$PUCSORGBACK
 10
0.0
 20
0.0
 30
0.0
  9
$USERI1
 70
     0
  9
$USERI2
 70
     0
  9
$USERI3
 70
     0
  9
$USERI4
 70
     0
  9
$USERI5
 70
     0
  9
$USERR1
 40
0.0
  9
$USERR2
 40
0.0
  9
$USERR3
 40
0.0
  9
$USERR4
 40
0.0
  9
$USERR5
 40
0.0
  9
$WORLDVIEW
 70
     1
  9
$SHADEDGE
 70
     3
  9
$SHADEDIF
 70
    70
  9
$TILEMODE
 70
     0
  9
$MAXACTVP
 70
    64
  9
$PINSBASE
 10
0.0
 20
0.0
 30
0.0
  9
$PLIMCHECK
 70
     0
  9
$PEXTMIN
 10
9.949999999999989
 20
9.950000000000003
 30
0.0
  9
$PEXTMAX
 10
291.2278019546666
 20
200.05
 30
0.0
  9
$PLIMMIN
 10
0.0
 20
0.0
  9
$PLIMMAX
 10
297.0
 20
210.0
  9
$UNITMODE
 70
     0
  9
$VISRETAIN
 70
     1
  9
$PLINEGEN
 70
     0
  9
$PSLTSCALE
 70
     1
  9
$TREEDEPTH
 70
  3020
  9
$CMLSTYLE
  2
Standard
  9
$CMLJUST
 70
     0
  9
$CMLSCALE
 40
1.0
  9
$PROXYGRAPHICS
 70
     1
  9
$MEASUREMENT
 70
     1
  9
$CELWEIGHT
370
    -1
  9
$ENDCAPS
280
     0
  9
$JOINSTYLE
280
     0
  9
$LWDISPLAY
290
     0
  9
$INSUNITS
 70
     4
  9
$HYPERLINKBASE
  1

  9
$STYLESHEET
  1

  9
$XEDIT
290
     1
  9
$CEPSNTYPE
380
     0
  9
$PSTYLEMODE
290
     1
  9
$FINGERPRINTGUID
  2
{BA32E03E-5704-4FBE-8984-F911C82D7946}
  9
$VERSIONGUID
  2
{FAEB1C32-E019-11D5-929B-00C0DF256EC4}
  9
$EXTNAMES
290
     1
  9
$PSVPSCALE
 40
0.0
  9
$OLESTARTUP
290
     0
  9
$SORTENTS
280
   127
  9
$INDEXCTL
280
     0
  9
$HIDETEXT
280
     1
  9
$XCLIPFRAME
280
     2
  9
$HALOGAP
280
     0
  9
$OBSCOLOR
 70
   257
  9
$OBSLTYPE
280
     0
  9
$INTERSECTIONDISPLAY
280
     0
  9
$INTERSECTIONCOLOR
 70
   257
  9
$DIMASSOC
280
     2
  9
$PROJECTNAME
  1

  9
$CAMERADISPLAY
290
     0
  9
$LENSLENGTH
 40
50.0
  9
$CAMERAHEIGHT
 40
0.0
  9
$STEPSPERSEC
 40
2.0
  9
$STEPSIZE
 40
6.0
  9
$3DDWFPREC
 40
2.0
  9
$PSOLWIDTH
 40
0.25
  9
$PSOLHEIGHT
 40
4.0
  9
$LOFTANG1
 40
1.570796326794897
  9
$LOFTANG2
 40
1.570796326794897
  9
$LOFTMAG1
 40
0.0
  9
$LOFTMAG2
 40
0.0
  9
$LOFTPARAM
 70
     7
  9
$LOFTNORMALS
280
     1
  9
$LATITUDE
 40
37.795
  9
$LONGITUDE
 40
-122.394
  9
$NORTHDIRECTION
 40
0.0
  9
$TIMEZONE
 70
 -8000
  9
$LIGHTGLYPHDISPLAY
280
     1
  9
$TILEMODELIGHTSYNCH
280
     1
  9
$SOLIDHIST
280
     0
  9
$SHOWHIST
280
     1
  9
$DWFFRAME
280
     2
  9
$DGNFRAME
280
     2
  9
$REALWORLDSCALE
290
     1
  9
$INTERFERECOLOR
 62
   256
  9
$CSHADOW
280
     0
  9
$SHADOWPLANELOCATION
 40
0.0
  0
ENDSEC
  0
SECTION
  2
CLASSES
  0
CLASS
  1
ACDBDICTIONARYWDFLT
  2
AcDbDictionaryWithDefault
  3
ObjectDBX Classes
 90
        0
 91
        4
280
     0
281
     0
  0
CLASS
  1
ACDBPLACEHOLDER
  2
AcDbPlaceHolder
  3
ObjectDBX Classes
 90
        0
 91
        1
280
     0
281
     0
  0
CLASS
  1
LAYOUT
  2
AcDbLayout
  3
ObjectDBX Classes
 90
        0
 91
        1
280
     0
281
     0
  0
CLASS
  1
SCALE
  2
AcDbScale
  3
ObjectDBX Classes
 90
     1153
 91
        4
280
     0
281
     0
  0
CLASS
  1
VISUALSTYLE
  2
AcDbVisualStyle
  3
ObjectDBX Classes
 90
     4095
 91
        4
280
     0
281
     0
  0
CLASS
  1
MATERIAL
  2
AcDbMaterial
  3
ObjectDBX Classes
 90
     1153
 91
        4
280
     0
281
     0
  0
CLASS
  1
TABLESTYLE
  2
AcDbTableStyle
  3
ObjectDBX Classes
 90
     4095
 91
        4
280
     0
281
     0
  0
CLASS
  1
MLEADERSTYLE
  2
AcDbMLeaderStyle
  3
ACDB_MLEADERSTYLE_CLASS
 90
     4095
 91
        4
280
     0
281
     0
  0
CLASS
  1
DICTIONARYVAR
  2
AcDbDictionaryVar
  3
ObjectDBX Classes
 90
        0
 91
        4
280
     0
281
     0
  0
CLASS
  1
CELLSTYLEMAP
  2
AcDbCellStyleMap
  3
ObjectDBX Classes
 90
     1152
 91
        4
280
     0
281
     0
  0
ENDSEC
  0
SECTION
  2
TABLES
  0
TABLE
  2
VPORT
  5
8
330
0
100
AcDbSymbolTable
 70
     1
  0
VPORT
  5
1F4
330
8
100
AcDbSymbolTableRecord
100
AcDbViewportTableRecord
  2
*ACTIVE
 70
     0
 10
0.0
 20
0.0
 11
1.0
 21
1.0
 12
148.5
 22
105.0
 13
0.0
 23
0.0
 14
1.0
 24
1.0
 15
0.0
 25
0.0
 16
0.0
 26
0.0
 36
1.0
 17
0.0
 27
0.0
 37
0.0
 40
210.0
 41
1.4142857143
 42
50.0
 43
0.0
 44
0.0
 50
0.0
 51
0.0
 71
     0
 72
   100
 73
     1
 74
     1
 75
     0
 76
     0
 77
     0
 78
     0
281
     0
 65
     1
110
0.0
120
0.0
130
0.0
111
1.0
121
0.0
131
0.0
112
0.0
122
1.0
132
0.0
 79
     0
146
0.0
348
4CA
 60
     3
 61
     5
292
     1
282
     1
141
0.0
142
0.0
 63
   256
  0
ENDTAB
  0
TABLE
  2
LTYPE
  5
5
330
0
100
AcDbSymbolTable
 70
     6
  0
LTYPE
  5
14
330
5
100
AcDbSymbolTableRecord
100
AcDbLinetypeTableRecord
  2
BYBLOCK
 70
     0
  3

 72
    65
 73
     0
 40
0.0
  0
LTYPE
  5
15
330
5
100
AcDbSymbolTableRecord
100
AcDbLinetypeTableRecord
  2
BYLAYER
 70
     0
  3

 72
    65
 73
     0
 40
0.0
  0
LTYPE
  5
16
330
5
100
AcDbSymbolTableRecord
100
AcDbLinetypeTableRecord
  2
CONTINUOUS
 70
     0
  3
Solid line
 72
    65
 73
     0
 40
0.0
  0
LTYPE
  5
1F5
330
5
100
AcDbSymbolTableRecord
100
AcDbLinetypeTableRecord
  2
CENTER
 70
     0
  3
____ _ ____ _ ____ _ ____ _ ____ _ ____ _ ____
 72
    65
 73
     4
 40
0.6
 49
0.375
 74
     0
 49
-0.075
 74
     0
 49
0.075
 74
     0
 49
-0.075
 74
     0
  0
LTYPE
  5
1F6
330
5
100
AcDbSymbolTableRecord
100
AcDbLinetypeTableRecord
  2
HIDDEN
 70
     0
  3
- - - - - - - - - - - - - - - - - - - -
 72
    65
 73
     2
 40
0.2
 49
0.1
 74
     0
 49
-0.1
 74
     0
  0
LTYPE
  5
1F7
330
5
100
AcDbSymbolTableRecord
100
AcDbLinetypeTableRecord
  2
PHANTOM
 70
     0
  3
_____ _ _ _____ _ _ _____ _ _ _____
 72
    65
 73
     6
 40
0.8
 49
0.45
 74
     0
 49
-0.05
 74
     0
 49
0.1
 74
     0
 49
-0.05
 74
     0
 49
0.1
 74
     0
 49
-0.05
 74
     0
  0
LTYPE
  5
1F8
330
5
100
AcDbSymbolTableRecord
100
AcDbLinetypeTableRecord
  2
DOT
 70
     0
  3
. . . . . . . . . . . . . . . . . . . .
 72
    65
 73
     2
 40
0.2
 49
0.1
 74
     0
 49
-0.1
 74
     0
  0
LTYPE
  5
1F9
330
5
100
AcDbSymbolTableRecord
100
AcDbLinetypeTableRecord
  2
DASHED
 70
     0
  3
- - - - - - - - - - - - - - - - - - - -
 72
    65
 73
     2
 40
0.2
 49
0.1
 74
     0
 49
-0.1
 74
     0
  0
ENDTAB
  0
TABLE
  2
LAYER
  5
2
330
0
100
AcDbSymbolTable
 70
    23
  0
LAYER
  5
10
330
2
100
AcDbSymbolTableRecord
100
AcDbLayerTableRecord
  2
0
 70
     0
 62
     7
  6
CONTINUOUS
370
    -3
390
F
347
4E1
348
0
  0
LAYER
  5
1FA
330
2
100
AcDbSymbolTableRecord
100
AcDbLayerTableRecord
  2
DEFAULT_1
 70
     0
 62
     7
  6
CENTER
370
    -3
390
F
347
4E1
348
0
  0
LAYER
  5
1FB
330
2
100
AcDbSymbolTableRecord
100
AcDbLayerTableRecord
  2
DEFAULT_2
 70
     0
 62
     8
  6
HIDDEN
370
    -3
390
F
347
4E1
348
0
  0
LAYER
  5
1FC
330
2
100
AcDbSymbolTableRecord
100
AcDbLayerTableRecord
  2
DEFAULT_3
 70
     0
 62
     7
  6
PHANTOM
370
    -3
390
F
347
4E1
348
0
  0
LAYER
  5
1FD
330
2
100
AcDbSymbolTableRecord
100
AcDbLayerTableRecord
  2
01___PRT_ALL_DTM_PLN
 70
     0
 62
     7
  6
CONTINUOUS
370
    -3
390
F
347
4E1
348
0
  0
LAYER
  5
1FE
330
2
100
AcDbSymbolTableRecord
100
AcDbLayerTableRecord
  2
01___PRT_DEF_DTM_PLN
 70
     0
 62
     7
  6
CONTINUOUS
370
    -3
390
F
347
4E1
348
0
  0
LAYER
  5
1FF
330
2
100
AcDbSymbolTableRecord
100
AcDbLayerTableRecord
  2
02___PRT_ALL_AXES
 70
     0
 62
     7
  6
CONTINUOUS
370
    -3
390
F
347
4E1
348
0
  0
LAYER
  5
200
330
2
100
AcDbSymbolTableRecord
100
AcDbLayerTableRecord
  2
03___PRT_ALL_CURVES
 70
     0
 62
     7
  6
CONTINUOUS
370
    -3
390
F
347
4E1
348
0
  0
LAYER
  5
201
330
2
100
AcDbSymbolTableRecord
100
AcDbLayerTableRecord
  2
04___PRT_ALL_DTM_PNT
 70
     0
 62
     7
  6
CONTINUOUS
370
    -3
390
F
347
4E1
348
0
  0
LAYER
  5
202
330
2
100
AcDbSymbolTableRecord
100
AcDbLayerTableRecord
  2
05___PRT_ALL_DTM_CSYS
 70
     0
 62
     7
  6
CONTINUOUS
370
    -3
390
F
347
4E1
348
0
  0
LAYER
  5
203
330
2
100
AcDbSymbolTableRecord
100
AcDbLayerTableRecord
  2
05___PRT_DEF_DTM_CSYS
 70
     0
 62
     7
  6
CONTINUOUS
370
    -3
390
F
347
4E1
348
0
  0
LAYER
  5
204
330
2
100
AcDbSymbolTableRecord
100
AcDbLayerTableRecord
  2
06___PRT_ALL_SURFS
 70
     0
 62
     7
  6
CONTINUOUS
370
    -3
390
F
347
4E1
348
0
  0
LAYER
  5
205
330
2
100
AcDbSymbolTableRecord
100
AcDbLayerTableRecord
  2
1_ALL_PLANES
 70
     0
 62
     7
  6
CONTINUOUS
370
    -3
390
F
347
4E1
348
0
  0
LAYER
  5
206
330
2
100
AcDbSymbolTableRecord
100
AcDbLayerTableRecord
  2
2_ALL_CSYS
 70
     0
 62
     7
  6
CONTINUOUS
370
    -3
390
F
347
4E1
348
0
  0
LAYER
  5
207
330
2
100
AcDbSymbolTableRecord
100
AcDbLayerTableRecord
  2
3_ALL_AXES
 70
     0
 62
     7
  6
CONTINUOUS
370
    -3
390
F
347
4E1
348
0
  0
LAYER
  5
208
330
2
100
AcDbSymbolTableRecord
100
AcDbLayerTableRecord
  2
4_ALL_POINTS
 70
     0
 62
     7
  6
CONTINUOUS
370
    -3
390
F
347
4E1
348
0
  0
LAYER
  5
209
330
2
100
AcDbSymbolTableRecord
100
AcDbLayerTableRecord
  2
5_ALL_CURVES
 70
     0
 62
     7
  6
CONTINUOUS
370
    -3
390
F
347
4E1
348
0
  0
LAYER
  5
20A
330
2
100
AcDbSymbolTableRecord
100
AcDbLayerTableRecord
  2
5__COSTRUZIONE
 70
     0
 62
     7
  6
CONTINUOUS
370
    -3
390
F
347
4E1
348
0
  0
LAYER
  5
20B
330
2
100
AcDbSymbolTableRecord
100
AcDbLayerTableRecord
  2
6_ALL_SURFS
 70
     0
 62
     7
  6
CONTINUOUS
370
    -3
390
F
347
4E1
348
0
  0
LAYER
  5
20C
330
2
100
AcDbSymbolTableRecord
100
AcDbLayerTableRecord
  2
7_ALL_FEATURES
 70
     0
 62
     7
  6
CONTINUOUS
370
    -3
390
F
347
4E1
348
0
  0
LAYER
  5
20D
330
2
100
AcDbSymbolTableRecord
100
AcDbLayerTableRecord
  2
9_SOLID
 70
     0
 62
     7
  6
CONTINUOUS
370
    -3
390
F
347
4E1
348
0
  0
LAYER
  5
20E
330
2
100
AcDbSymbolTableRecord
100
AcDbLayerTableRecord
  2
WHITE
 70
     0
 62
     7
  6
CONTINUOUS
370
    -3
390
F
347
4E1
348
0
  0
LAYER
  5
20F
330
2
100
AcDbSymbolTableRecord
100
AcDbLayerTableRecord
  2
XXX_SOLIDO
 70
     0
 62
     7
  6
CONTINUOUS
370
    -3
390
F
347
4E1
348
0
  0
ENDTAB
  0
TABLE
  2
STYLE
  5
3
330
0
100
AcDbSymbolTable
 70
     5
  0
STYLE
  5
11
330
3
100
AcDbSymbolTableRecord
100
AcDbTextStyleTableRecord
  2
STANDARD
 70
     0
 40
0.0
 41
1.0
 50
0.0
 71
     0
 42
0.2
  3
arial.ttf
  4

  0
STYLE
  5
210
330
3
100
AcDbSymbolTableRecord
100
AcDbTextStyleTableRecord
  2
TEXTSTYLE_1
 70
     0
 40
0.0
 41
0.8
 50
0.0
 71
     0
 42
0.2
  3
gdt
  4

  0
STYLE
  5
211
330
3
100
AcDbSymbolTableRecord
100
AcDbTextStyleTableRecord
  2
TEXTSTYLE_2
 70
     0
 40
0.0
 41
0.85
 50
0.0
 71
     0
 42
0.2
  3
gdt
  4

  0
STYLE
  5
212
330
3
100
AcDbSymbolTableRecord
100
AcDbTextStyleTableRecord
  2
TEXTSTYLE_3
 70
     0
 40
0.0
 41
2.0
 50
0.0
 71
     0
 42
0.2
  3
txt
  4

  0
STYLE
  5
213
330
3
100
AcDbSymbolTableRecord
100
AcDbTextStyleTableRecord
  2
TEXTSTYLE_4
 70
     0
 40
0.0
 41
0.85
 50
0.0
 71
     0
 42
0.2
  3
txt
  4

  0
ENDTAB
  0
TABLE
  2
VIEW
  5
6
330
0
100
AcDbSymbolTable
 70
     0
  0
ENDTAB
  0
TABLE
  2
UCS
  5
7
330
0
100
AcDbSymbolTable
 70
     0
  0
ENDTAB
  0
TABLE
  2
APPID
  5
9
330
0
100
AcDbSymbolTable
 70
     1
  0
APPID
  5
214
330
9
100
AcDbSymbolTableRecord
100
AcDbRegAppTableRecord
  2
ACAD
 70
     0
  0
ENDTAB
  0
TABLE
  2
DIMSTYLE
  5
A
330
0
100
AcDbSymbolTable
 70
     5
100
AcDbDimStyleTable
  0
DIMSTYLE
105
21E
330
A
100
AcDbSymbolTableRecord
100
AcDbDimStyleTableRecord
  2
STANDARD
 70
     0
 41
2.5
 42
0.75
 44
0.75
 47
0.01
 48
0.01
 71
     1
 73
     0
 74
     0
 77
     1
 78
     8
 79
     2
140
3.0
147
0.625
171
     1
178
     0
179
     2
271
     2
272
     2
278
    44
284
     8
340
11
341
217
342
217
343
217
344
217
  0
DIMSTYLE
105
21F
330
A
100
AcDbSymbolTableRecord
100
AcDbDimStyleTableRecord
  2
DIMSTYLE_1
 70
     0
  3
<>
 41
2.5
 42
0.75
 44
0.75
 47
0.3
 48
0.3
 73
     0
 74
     0
 77
     1
 78
     8
 79
     2
140
3.0
147
0.625
171
     1
172
     1
178
     0
179
     2
271
     2
272
     2
278
    44
284
     8
288
     1
289
     2
340
11
341
217
342
217
343
217
344
217
  0
DIMSTYLE
105
220
330
A
100
AcDbSymbolTableRecord
100
AcDbDimStyleTableRecord
  2
DIMSTYLE_2
 70
     0
 41
2.5
 42
0.75
 44
0.75
 47
0.1
 48
0.1
 73
     0
 74
     0
 77
     1
 78
     8
 79
     2
140
3.0
147
0.75
171
     1
178
     0
179
     2
271
     2
272
     2
278
    44
284
     8
340
11
341
217
342
217
343
217
344
217
  0
DIMSTYLE
105
221
330
A
100
AcDbSymbolTableRecord
100
AcDbDimStyleTableRecord
  2
DIMSTYLE_3
 70
     0
 41
2.5
 42
0.75
 44
0.75
 47
0.3
 48
0.3
 73
     0
 74
     0
 77
     1
 78
     8
 79
     2
140
3.0
147
0.75
171
     1
178
     0
179
     2
271
     2
272
     2
278
    44
284
     8
340
11
341
217
342
217
343
217
344
217
  0
DIMSTYLE
105
222
330
A
100
AcDbSymbolTableRecord
100
AcDbDimStyleTableRecord
  2
DIMSTYLE_4
 70
     0
 41
2.5
 42
0.75
 44
0.75
 47
0.2
 48
0.2
 73
     0
 74
     0
 77
     1
 78
     8
 79
     2
140
3.0
147
0.75
171
     1
178
     0
179
     2
271
     2
272
     2
278
    44
284
     8
340
11
341
217
342
217
343
217
344
217
  0
ENDTAB
  0
TABLE
  2
BLOCK_RECORD
  5
1
330
0
100
AcDbSymbolTable
 70
     7
  0
BLOCK_RECORD
  5
215
330
1
100
AcDbSymbolTableRecord
100
AcDbBlockTableRecord
  2
*Model_Space
340
4A1
 70
     0
280
     1
281
     0
  0
BLOCK_RECORD
  5
216
330
1
100
AcDbSymbolTableRecord
100
AcDbBlockTableRecord
  2
*Paper_Space
340
4A2
 70
     0
280
     1
281
     0
  0
BLOCK_RECORD
  5
217
330
1
100
AcDbSymbolTableRecord
100
AcDbBlockTableRecord
  2
_CLOSED
340
0
102
{BLKREFS
331
272
331
27C
331
27D
331
285
331
286
331
28E
331
28F
102
}
 70
     0
280
     1
281
     0
  0
BLOCK_RECORD
  5
218
330
1
100
AcDbSymbolTableRecord
100
AcDbBlockTableRecord
  2
*D1
340
0
 70
     0
280
     1
281
     0
  0
BLOCK_RECORD
  5
219
330
1
100
AcDbSymbolTableRecord
100
AcDbBlockTableRecord
  2
*D2
340
0
 70
     0
280
     1
281
     0
  0
BLOCK_RECORD
  5
21A
330
1
100
AcDbSymbolTableRecord
100
AcDbBlockTableRecord
  2
*D3
340
0
 70
     0
280
     1
281
     0
  0
BLOCK_RECORD
  5
21B
330
1
100
AcDbSymbolTableRecord
100
AcDbBlockTableRecord
  2
*D4
340
0
 70
     0
280
     1
281
     0
  0
BLOCK_RECORD
  5
21C
330
1
100
AcDbSymbolTableRecord
100
AcDbBlockTableRecord
  2
LOGO2_BL1
340
0
102
{BLKREFS
331
48F
102
}
 70
     0
280
     1
281
     0
  0
BLOCK_RECORD
  5
21D
330
1
100
AcDbSymbolTableRecord
100
AcDbBlockTableRecord
  2
PROIEZIONE_EU_BL0
340
0
102
{BLKREFS
331
48C
102
}
 70
     0
280
     1
281
     0
  0
ENDTAB
  0
ENDSEC
  0
SECTION
  2
BLOCKS
  0
BLOCK
  5
20
330
215
100
AcDbEntity
  8
0
100
AcDbBlockBegin
  2
*Model_Space
 70
     0
 10
0.0
 20
0.0
 30
0.0
  3
*Model_Space
  1

  0
ENDBLK
  5
21
330
215
100
AcDbEntity
  8
0
100
AcDbBlockEnd
  0
BLOCK
  5
1C
330
216
100
AcDbEntity
 67
     1
  8
0
100
AcDbBlockBegin
  2
*Paper_Space
 70
     0
 10
0.0
 20
0.0
 30
0.0
  3
*Paper_Space
  1

  0
ENDBLK
  5
1D
330
216
100
AcDbEntity
 67
     1
  8
0
100
AcDbBlockEnd
  0
BLOCK
  5
269
330
217
100
AcDbEntity
  8
0
100
AcDbBlockBegin
  2
_CLOSED
 70
     0
 10
0.0
 20
0.0
 30
0.0
  3
_CLOSED
  1

  0
LINE
  5
26A
330
217
100
AcDbEntity
  8
0
  6
ByBlock
 62
     0
100
AcDbLine
 10
0.0
 20
0.0
 30
0.0
 11
-1.0
 21
0.2
 31
0.0
  0
LINE
  5
26B
330
217
100
AcDbEntity
  8
0
  6
ByBlock
 62
     0
100
AcDbLine
 10
-1.0
 20
0.2
 30
0.0
 11
-1.0
 21
-0.2
 31
0.0
  0
LINE
  5
26C
330
217
100
AcDbEntity
  8
0
  6
ByBlock
 62
     0
100
AcDbLine
 10
-1.0
 20
-0.2
 30
0.0
 11
0.0
 21
0.0
 31
0.0
  0
LINE
  5
26D
330
217
100
AcDbEntity
  8
0
  6
ByBlock
 62
     0
100
AcDbLine
 10
-1.0
 20
0.0
 30
0.0
 11
0.0
 21
0.0
 31
0.0
  0
ENDBLK
  5
26E
330
217
100
AcDbEntity
  8
0
  6
ByBlock
 62
     0
100
AcDbBlockEnd
  0
BLOCK
  5
26F
330
218
100
AcDbEntity
  8
0
100
AcDbBlockBegin
  2
*D1
 70
     1
 10
0.0
 20
0.0
 30
0.0
  3
*D1
  1

  0
MTEXT
  5
270
330
218
100
AcDbEntity
  8
0
  6
Continuous
 62
     2
100
AcDbMText
 10
71.9773164456
 20
161.8798083838
 30
0.0
 40
3.0
 41
8.6617100372
 46
0.0
 71
     3
 72
     1
  1
{\Fgdt;n}\Farial.ttf;39
  7
TEXTSTYLE_2
 11
0.8069063021
 21
-0.5906794559
 31
0.0
 73
     1
 44
0.9
  0
LINE
  5
271
330
218
100
AcDbEntity
  8
0
  6
Continuous
 62
     2
100
AcDbLine
 10
75.1777080945
 20
154.8896465983
 30
0.0
 11
62.7730800699
 21
163.9702039223
 31
0.0
  0
INSERT
  5
272
330
218
100
AcDbEntity
  8
0
  6
Continuous
 62
     2
100
AcDbBlockReference
  2
_CLOSED
 10
75.1777080945
 20
154.8896465983
 30
0.0
 41
2.5
 42
2.5
 43
2.5
 50
323.7947607138
  0
ENDBLK
  5
273
330
218
100
AcDbEntity
  8
0
  6
ByBlock
 62
     0
100
AcDbBlockEnd
  0
BLOCK
  5
274
330
219
100
AcDbEntity
  8
0
100
AcDbBlockBegin
  2
*D2
 70
     1
 10
0.0
 20
0.0
 30
0.0
  3
*D2
  1

  0
MTEXT
  5
275
330
219
100
AcDbEntity
  8
0
  6
Continuous
 62
     2
100
AcDbMText
 10
118.0043204581
 20
46.1234084799
 30
0.0
 40
3.0
 41
5.8215613383
 46
0.0
 71
     3
 72
     1
  1
1,5
 11
0.0
 21
1.0
 31
0.0
 73
     1
 44
0.9
  0
LINE
  5
276
330
219
100
AcDbEntity
  8
0
  6
Continuous
 62
     2
100
AcDbLine
 10
111.1623809862
 20
51.4825973435
 30
0.0
 11
122.5043204581
 21
51.4825973435
 31
0.0
  0
LINE
  5
277
330
219
100
AcDbEntity
  8
0
  6
Continuous
 62
     2
100
AcDbLine
 10
111.631188754
 20
49.9825973435
 30
0.0
 11
122.5043204581
 21
49.9825973435
 31
0.0
  0
LINE
  5
278
330
219
100
AcDbEntity
  8
0
  6
Continuous
 62
     2
100
AcDbLine
 10
121.7543204581
 20
51.4825973435
 30
0.0
 11
121.7543204581
 21
52.4825973435
 31
0.0
  0
LINE
  5
279
330
219
100
AcDbEntity
  8
0
  6
Continuous
 62
     2
100
AcDbLine
 10
121.7543204581
 20
52.4825973435
 30
0.0
 11
121.7543204581
 21
50.7325973435
 31
0.0
  0
LINE
  5
27A
330
219
100
AcDbEntity
  8
0
  6
Continuous
 62
     2
100
AcDbLine
 10
121.7543204581
 20
49.9825973435
 30
0.0
 11
121.7543204581
 21
40.3018471416
 31
0.0
  0
LINE
  5
27B
330
219
100
AcDbEntity
  8
0
  6
Continuous
 62
     2
100
AcDbLine
 10
121.7543204581
 20
40.3018471416
 30
0.0
 11
121.7543204581
 21
50.7325973435
 31
0.0
  0
INSERT
  5
27C
330
219
100
AcDbEntity
  8
0
  6
Continuous
 62
     2
100
AcDbBlockReference
  2
_CLOSED
 10
121.7543204581
 20
51.4825973435
 30
0.0
 41
2.5
 42
2.5
 43
2.5
 50
270.0
  0
INSERT
  5
27D
330
219
100
AcDbEntity
  8
0
  6
Continuous
 62
     2
100
AcDbBlockReference
  2
_CLOSED
 10
121.7543204581
 20
49.9825973435
 30
0.0
 41
2.5
 42
2.5
 43
2.5
 50
90.0
  0
ENDBLK
  5
27E
330
219
100
AcDbEntity
  8
0
  6
ByBlock
 62
     0
100
AcDbBlockEnd
  0
BLOCK
  5
27F
330
21A
100
AcDbEntity
  8
0
100
AcDbBlockBegin
  2
*D3
 70
     1
 10
0.0
 20
0.0
 30
0.0
  3
*D3
  1

  0
MTEXT
  5
280
330
21A
100
AcDbEntity
  8
0
  6
Continuous
 62
     2
100
AcDbMText
 10
51.9384580706
 20
66.1325973435
 30
0.0
 40
3.0
 41
8.1524163569
 46
0.0
 71
     2
 72
     1
  1
32,3
 11
0.0
 21
1.0
 31
0.0
 73
     1
 44
0.9
  0
LINE
  5
281
330
21A
100
AcDbEntity
  8
0
  6
Continuous
 62
     2
100
AcDbLine
 10
69.998774757
 20
82.2825973435
 30
0.0
 11
54.9384580706
 21
82.2825973435
 31
0.0
  0
LINE
  5
282
330
21A
100
AcDbEntity
  8
0
  6
Continuous
 62
     2
100
AcDbLine
 10
69.1659994698
 20
49.9825973435
 30
0.0
 11
54.9384580706
 21
49.9825973435
 31
0.0
  0
LINE
  5
283
330
21A
100
AcDbEntity
  8
0
  6
Continuous
 62
     2
100
AcDbLine
 10
55.6884580706
 20
82.2825973435
 30
0.0
 11
55.6884580706
 21
66.1325973435
 31
0.0
  0
LINE
  5
284
330
21A
100
AcDbEntity
  8
0
  6
Continuous
 62
     2
100
AcDbLine
 10
55.6884580706
 20
49.9825973435
 30
0.0
 11
55.6884580706
 21
66.1325973435
 31
0.0
  0
INSERT
  5
285
330
21A
100
AcDbEntity
  8
0
  6
Continuous
 62
     2
100
AcDbBlockReference
  2
_CLOSED
 10
55.6884580706
 20
82.2825973435
 30
0.0
 41
2.5
 42
2.5
 43
2.5
 50
90.0
  0
INSERT
  5
286
330
21A
100
AcDbEntity
  8
0
  6
Continuous
 62
     2
100
AcDbBlockReference
  2
_CLOSED
 10
55.6884580706
 20
49.9825973435
 30
0.0
 41
2.5
 42
2.5
 43
2.5
 50
270.0
  0
ENDBLK
  5
287
330
21A
100
AcDbEntity
  8
0
  6
ByBlock
 62
     0
100
AcDbBlockEnd
  0
BLOCK
  5
288
330
21B
100
AcDbEntity
  8
0
100
AcDbBlockBegin
  2
*D4
 70
     1
 10
0.0
 20
0.0
 30
0.0
  3
*D4
  1

  0
MTEXT
  5
289
330
21B
100
AcDbEntity
  8
0
  6
Continuous
 62
     2
100
AcDbMText
 10
163.4492365484
 20
143.3713972091
 30
0.0
 40
3.0
 41
8.6617100372
 46
0.0
 71
     2
 72
     1
  1
{\Fgdt;n}\Farial.ttf;30
  7
TEXTSTYLE_2
 11
0.0
 21
1.0
 31
0.0
 73
     1
 44
0.9
  0
LINE
  5
28A
330
21B
100
AcDbEntity
  8
0
  6
Continuous
 62
     2
100
AcDbLine
 10
179.4759017446
 20
158.3713972091
 30
0.0
 11
166.4492365484
 21
158.3713972091
 31
0.0
  0
LINE
  5
28B
330
21B
100
AcDbEntity
  8
0
  6
Continuous
 62
     2
100
AcDbLine
 10
179.2495661327
 20
128.3713972091
 30
0.0
 11
166.4492365484
 21
128.3713972091
 31
0.0
  0
LINE
  5
28C
330
21B
100
AcDbEntity
  8
0
  6
Continuous
 62
     2
100
AcDbLine
 10
167.1992365484
 20
158.3713972091
 30
0.0
 11
167.1992365484
 21
143.3713972091
 31
0.0
  0
LINE
  5
28D
330
21B
100
AcDbEntity
  8
0
  6
Continuous
 62
     2
100
AcDbLine
 10
167.1992365484
 20
128.3713972091
 30
0.0
 11
167.1992365484
 21
143.3713972091
 31
0.0
  0
INSERT
  5
28E
330
21B
100
AcDbEntity
  8
0
  6
Continuous
 62
     2
100
AcDbBlockReference
  2
_CLOSED
 10
167.1992365484
 20
158.3713972091
 30
0.0
 41
2.5
 42
2.5
 43
2.5
 50
90.0
  0
INSERT
  5
28F
330
21B
100
AcDbEntity
  8
0
  6
Continuous
 62
     2
100
AcDbBlockReference
  2
_CLOSED
 10
167.1992365484
 20
128.3713972091
 30
0.0
 41
2.5
 42
2.5
 43
2.5
 50
270.0
  0
ENDBLK
  5
290
330
21B
100
AcDbEntity
  8
0
  6
ByBlock
 62
     0
100
AcDbBlockEnd
  0
BLOCK
  5
223
330
21C
100
AcDbEntity
  8
0
100
AcDbBlockBegin
  2
LOGO2_BL1
 70
     0
 10
167.5146823328
 20
45.3508600793
 30
0.0
  3
LOGO2_BL1
  1

  0
LINE
  5
224
330
21C
100
AcDbEntity
  8
0
  6
Continuous
 62
     7
100
AcDbLine
 10
159.257607561
 20
48.5463514182
 30
0.0
 11
157.9532666316
 21
48.5463514182
 31
0.0
  0
LINE
  5
225
330
21C
100
AcDbEntity
  8
0
  6
Continuous
 62
     7
100
AcDbLine
 10
157.9532666316
 20
48.5463514182
 30
0.0
 11
157.9532666316
 21
38.0872853583
 31
0.0
  0
LINE
  5
226
330
21C
100
AcDbEntity
  8
0
  6
Continuous
 62
     7
100
AcDbLine
 10
157.9532666316
 20
38.0872853583
 30
0.0
 11
162.4343215199
 21
38.0872853583
 31
0.0
  0
LINE
  5
227
330
21C
100
AcDbEntity
  8
0
  6
Continuous
 62
     7
100
AcDbLine
 10
162.4343215199
 20
38.0872853583
 30
0.0
 11
162.4343215199
 21
39.2801396834
 31
0.0
  0
LINE
  5
228
330
21C
100
AcDbEntity
  8
0
  6
Continuous
 62
     7
100
AcDbLine
 10
162.4343215199
 20
39.2801396834
 30
0.0
 11
159.257607561
 21
39.2801396834
 31
0.0
  0
LINE
  5
229
330
21C
100
AcDbEntity
  8
0
  6
Continuous
 62
     7
100
AcDbLine
 10
159.257607561
 20
39.2801396834
 30
0.0
 11
159.257607561
 21
48.5463514182
 31
0.0
  0
LINE
  5
22A
330
21C
100
AcDbEntity
  8
0
  6
Continuous
 62
     7
100
AcDbLine
 10
174.1939337773
 20
48.5463514182
 30
0.0
 11
172.8901162592
 21
48.5463514182
 31
0.0
  0
LINE
  5
22B
330
21C
100
AcDbEntity
  8
0
  6
Continuous
 62
     7
100
AcDbLine
 10
172.8901162592
 20
48.5463514182
 30
0.0
 11
172.8901162592
 21
38.0872853583
 31
0.0
  0
LINE
  5
22C
330
21C
100
AcDbEntity
  8
0
  6
Continuous
 62
     7
100
AcDbLine
 10
172.8901162592
 20
38.0872853583
 30
0.0
 11
177.3713020003
 21
38.0872853583
 31
0.0
  0
LINE
  5
22D
330
21C
100
AcDbEntity
  8
0
  6
Continuous
 62
     7
100
AcDbLine
 10
177.3713020003
 20
38.0872853583
 30
0.0
 11
177.3713020003
 21
39.2801396834
 31
0.0
  0
LINE
  5
22E
330
21C
100
AcDbEntity
  8
0
  6
Continuous
 62
     7
100
AcDbLine
 10
177.3713020003
 20
39.2801396834
 30
0.0
 11
174.1939337773
 21
39.2801396834
 31
0.0
  0
LINE
  5
22F
330
21C
100
AcDbEntity
  8
0
  6
Continuous
 62
     7
100
AcDbLine
 10
174.1939337773
 20
39.2801396834
 30
0.0
 11
174.1939337773
 21
48.5463514182
 31
0.0
  0
LWPOLYLINE
  5
230
330
21C
100
AcDbEntity
  8
0
  6
Continuous
 62
     7
100
AcDbPolyline
 90
        2
 70
     0
 43
0.2
 10
156.3076615425
 20
34.7437340514
 10
156.3076615425
 20
32.8866708021
  0
LWPOLYLINE
  5
231
330
21C
100
AcDbEntity
  8
0
  6
Continuous
 62
     7
100
AcDbPolyline
 90
        2
 70
     0
 43
0.2
 10
156.3076615425
 20
32.8866708021
 10
157.1033775529
 20
32.8866708021
  0
LWPOLYLINE
  5
232
330
21C
100
AcDbEntity
  8
0
  6
Continuous
 62
     7
100
AcDbPolyline
 90
        2
 70
     0
 43
0.2
 10
157.1033775529
 20
32.8866708021
 10
157.1033775529
 20
33.0986523736
  0
LWPOLYLINE
  5
233
330
21C
100
AcDbEntity
  8
0
  6
Continuous
 62
     7
100
AcDbPolyline
 90
        2
 70
     0
 43
0.2
 10
157.1033775529
 20
33.0986523736
 10
156.5392710374
 20
33.0986523736
  0
LWPOLYLINE
  5
234
330
21C
100
AcDbEntity
  8
0
  6
Continuous
 62
     7
100
AcDbPolyline
 90
        2
 70
     0
 43
0.2
 10
156.5392710374
 20
33.0986523736
 10
156.5392710374
 20
34.7437340514
  0
LWPOLYLINE
  5
235
330
21C
100
AcDbEntity
  8
0
  6
Continuous
 62
     7
100
AcDbPolyline
 90
        2
 70
     0
 43
0.2
 10
156.5392710374
 20
34.7437340514
 10
156.3076615425
 20
34.7437340514
  0
SPLINE
  5
236
330
21C
100
AcDbEntity
  8
0
  6
Continuous
 62
     7
100
AcDbSpline
 70
     3
 71
     3
 72
    35
 73
    31
 74
     0
 42
0.000000001
 43
0.0000001
 40
0.0
 40
0.0
 40
0.0
 40
0.0
 40
1.0
 40
1.0
 40
1.0
 40
2.0
 40
2.0
 40
2.0
 40
3.0
 40
3.0
 40
3.0
 40
4.0
 40
4.0
 40
4.0
 40
5.0
 40
5.0
 40
5.0
 40
6.0
 40
6.0
 40
6.0
 40
7.0
 40
7.0
 40
7.0
 40
8.0
 40
8.0
 40
8.0
 40
9.0
 40
9.0
 40
9.0
 40
10.0
 40
10.0
 40
10.0
 40
10.0
 10
158.5016708085
 20
34.0392224579
 30
0.0
 10
158.5016708085
 20
34.0392224579
 30
0.0
 10
158.5016708085
 20
33.3771071788
 30
0.0
 10
158.5016708085
 20
33.3771071788
 30
0.0
 10
158.5016708085
 20
33.0620135835
 30
0.0
 10
158.6495344973
 20
32.8474149555
 30
0.0
 10
158.9896209816
 20
32.8474149555
 30
0.0
 10
159.3291840546
 20
32.8474149555
 30
0.0
 10
159.4773094491
 20
33.0620135835
 30
0.0
 10
159.4773094491
 20
33.3771071788
 30
0.0
 10
159.4773094491
 20
33.3771071788
 30
0.0
 10
159.4773094491
 20
34.0392224579
 30
0.0
 10
159.4773094491
 20
34.0392224579
 30
0.0
 10
159.4773094491
 20
34.0392224579
 30
0.0
 10
159.2552522102
 20
34.0392224579
 30
0.0
 10
159.2552522102
 20
34.0392224579
 30
0.0
 10
159.2552522102
 20
34.0392224579
 30
0.0
 10
159.2552522102
 20
33.4022309206
 30
0.0
 10
159.2552522102
 20
33.4022309206
 30
0.0
 10
159.2552522102
 20
33.2164199134
 30
0.0
 10
159.2085377527
 20
33.0536390029
 30
0.0
 10
158.9896209816
 20
33.0536390029
 30
0.0
 10
158.7701807991
 20
33.0536390029
 30
0.0
 10
158.7234663417
 20
33.2164199134
 30
0.0
 10
158.7234663417
 20
33.4022309206
 30
0.0
 10
158.7234663417
 20
33.4022309206
 30
0.0
 10
158.7234663417
 20
34.0392224579
 30
0.0
 10
158.7234663417
 20
34.0392224579
 30
0.0
 10
158.7234663417
 20
34.0392224579
 30
0.0
 10
158.5016708085
 20
34.0392224579
 30
0.0
 10
158.5016708085
 20
34.0392224579
 30
0.0
  0
SPLINE
  5
237
330
21C
100
AcDbEntity
  8
0
  6
Continuous
 62
     7
100
AcDbSpline
 70
     3
 71
     3
 72
    35
 73
    31
 74
     0
 42
0.000000001
 43
0.0000001
 40
0.0
 40
0.0
 40
0.0
 40
0.0
 40
1.0
 40
1.0
 40
1.0
 40
2.0
 40
2.0
 40
2.0
 40
3.0
 40
3.0
 40
3.0
 40
4.0
 40
4.0
 40
4.0
 40
5.0
 40
5.0
 40
5.0
 40
6.0
 40
6.0
 40
6.0
 40
7.0
 40
7.0
 40
7.0
 40
8.0
 40
8.0
 40
8.0
 40
9.0
 40
9.0
 40
9.0
 40
10.0
 40
10.0
 40
10.0
 40
10.0
 10
161.9004420062
 20
33.9978729662
 30
0.0
 10
161.8119854986
 20
34.0491672724
 30
0.0
 10
161.698536102
 20
34.0742910142
 30
0.0
 10
161.594900667
 20
34.0742910142
 30
0.0
 10
161.2400278138
 20
34.0742910142
 30
0.0
 10
160.9645826235
 20
33.8104917251
 30
0.0
 10
160.9645826235
 20
33.4530018155
 30
0.0
 10
160.9645826235
 20
33.1080737768
 30
0.0
 10
161.2430374287
 20
32.8479383667
 30
0.0
 10
161.5826005017
 20
32.8479383667
 30
0.0
 10
161.698536102
 20
32.8479383667
 30
0.0
 10
161.7992927749
 20
32.8699216408
 30
0.0
 10
161.9004420062
 20
32.9238330035
 30
0.0
 10
161.9004420062
 20
32.9238330035
 30
0.0
 10
161.9004420062
 20
33.2064750989
 30
0.0
 10
161.9004420062
 20
33.2064750989
 30
0.0
 10
161.8165653474
 20
33.1133078897
 30
0.0
 10
161.7130607652
 20
33.0541624142
 30
0.0
 10
161.5849558525
 20
33.0541624142
 30
0.0
 10
161.3512527124
 20
33.0541624142
 30
0.0
 10
161.1859855983
 20
33.2263647279
 30
0.0
 10
161.1859855983
 20
33.46294663
 30
0.0
 10
161.1859855983
 20
33.6749282016
 30
0.0
 10
161.3537389161
 20
33.8670201442
 30
0.0
 10
161.5705620421
 20
33.8670201442
 30
0.0
 10
161.7033776564
 20
33.8670201442
 30
0.0
 10
161.8119854986
 20
33.8131087816
 30
0.0
 10
161.9004420062
 20
33.712090403
 30
0.0
 10
161.9004420062
 20
33.712090403
 30
0.0
 10
161.9004420062
 20
33.9978729662
 30
0.0
 10
161.9004420062
 20
33.9978729662
 30
0.0
  0
SPLINE
  5
238
330
21C
100
AcDbEntity
  8
0
  6
Continuous
 62
     7
100
AcDbSpline
 70
     3
 71
     3
 72
    32
 73
    28
 74
     0
 42
0.000000001
 43
0.0000001
 40
0.0
 40
0.0
 40
0.0
 40
0.0
 40
1.0
 40
1.0
 40
1.0
 40
2.0
 40
2.0
 40
2.0
 40
3.0
 40
3.0
 40
3.0
 40
4.0
 40
4.0
 40
4.0
 40
5.0
 40
5.0
 40
5.0
 40
6.0
 40
6.0
 40
6.0
 40
7.0
 40
7.0
 40
7.0
 40
8.0
 40
8.0
 40
8.0
 40
9.0
 40
9.0
 40
9.0
 40
9.0
 10
164.4323132585
 20
33.4263078398
 30
0.0
 10
164.4323132585
 20
33.4263078398
 30
0.0
 10
164.4323132585
 20
33.4603295736
 30
0.0
 10
164.4323132585
 20
33.4603295736
 30
0.0
 10
164.4323132585
 20
33.8026405558
 30
0.0
 10
164.2594566807
 20
34.0742910142
 30
0.0
 10
163.8928070735
 20
34.0742910142
 30
0.0
 10
163.5211850591
 20
34.0742910142
 30
0.0
 10
163.3314484673
 20
33.8078746687
 30
0.0
 10
163.3314484673
 20
33.4530018155
 30
0.0
 10
163.3314484673
 20
33.1133078897
 30
0.0
 10
163.545523684
 20
32.8474149555
 30
0.0
 10
163.8976486279
 20
32.8474149555
 30
0.0
 10
164.1216686591
 20
32.8474149555
 30
0.0
 10
164.3238362691
 20
32.9630888501
 30
0.0
 10
164.4323132585
 20
33.1625085508
 30
0.0
 10
164.4323132585
 20
33.1625085508
 30
0.0
 10
164.2446703118
 20
33.2692844535
 30
0.0
 10
164.2446703118
 20
33.2692844535
 30
0.0
 10
164.1611862114
 20
33.1305804622
 30
0.0
 10
164.0699817945
 20
33.044741011
 30
0.0
 10
163.9003965372
 20
33.044741011
 30
0.0
 10
163.6884149656
 20
33.044741011
 30
0.0
 10
163.5554684985
 20
33.2295051956
 30
0.0
 10
163.5531131477
 20
33.4263078398
 30
0.0
 10
163.5531131477
 20
33.4263078398
 30
0.0
 10
164.4323132585
 20
33.4263078398
 30
0.0
 10
164.4323132585
 20
33.4263078398
 30
0.0
  0
SPLINE
  5
239
330
21C
100
AcDbEntity
  8
0
  6
Continuous
 62
     7
100
AcDbSpline
 70
     3
 71
     3
 72
    14
 73
    10
 74
     0
 42
0.000000001
 43
0.0000001
 40
0.0
 40
0.0
 40
0.0
 40
0.0
 40
1.0
 40
1.0
 40
1.0
 40
2.0
 40
2.0
 40
2.0
 40
3.0
 40
3.0
 40
3.0
 40
3.0
 10
163.5651516073
 20
33.593799452
 30
0.0
 10
163.5927615528
 20
33.7586740076
 30
0.0
 10
163.7206047598
 20
33.8816756603
 30
0.0
 10
163.8928070735
 20
33.8816756603
 30
0.0
 10
164.0699817945
 20
33.8816756603
 30
0.0
 10
164.1834311911
 20
33.7660017657
 30
0.0
 10
164.2106485781
 20
33.593799452
 30
0.0
 10
164.2106485781
 20
33.593799452
 30
0.0
 10
163.5651516073
 20
33.593799452
 30
0.0
 10
163.5651516073
 20
33.593799452
 30
0.0
  0
SPLINE
  5
23A
330
21C
100
AcDbEntity
  8
0
  6
Continuous
 62
     7
100
AcDbSpline
 70
     3
 71
     3
 72
    20
 73
    16
 74
     0
 42
0.000000001
 43
0.0000001
 40
0.0
 40
0.0
 40
0.0
 40
0.0
 40
1.0
 40
1.0
 40
1.0
 40
2.0
 40
2.0
 40
2.0
 40
3.0
 40
3.0
 40
3.0
 40
4.0
 40
4.0
 40
4.0
 40
5.0
 40
5.0
 40
5.0
 40
5.0
 10
166.4563447087
 20
33.8031639671
 30
0.0
 10
166.4563447087
 20
33.8031639671
 30
0.0
 10
166.8674842753
 20
33.3006891308
 30
0.0
 10
166.8674842753
 20
33.3006891308
 30
0.0
 10
166.7514178222
 20
33.1850152361
 30
0.0
 10
166.6136298007
 20
33.0546858255
 30
0.0
 10
166.4416891926
 20
33.0546858255
 30
0.0
 10
166.264252766
 20
33.0546858255
 30
0.0
 10
166.0967611539
 20
33.2190369698
 30
0.0
 10
166.0967611539
 20
33.3959499851
 30
0.0
 10
166.0967611539
 20
33.573909823
 30
0.0
 10
166.3065182275
 20
33.7000519434
 30
0.0
 10
166.434099729
 20
33.7879850398
 30
0.0
 10
166.434099729
 20
33.7879850398
 30
0.0
 10
166.4563447087
 20
33.8031639671
 30
0.0
 10
166.4563447087
 20
33.8031639671
 30
0.0
  0
SPLINE
  5
23B
330
21C
100
AcDbEntity
  8
0
  6
Continuous
 62
     7
100
AcDbSpline
 70
     3
 71
     3
 72
    23
 73
    19
 74
     0
 42
0.000000001
 43
0.0000001
 40
0.0
 40
0.0
 40
0.0
 40
0.0
 40
1.0
 40
1.0
 40
1.0
 40
2.0
 40
2.0
 40
2.0
 40
3.0
 40
3.0
 40
3.0
 40
4.0
 40
4.0
 40
4.0
 40
5.0
 40
5.0
 40
5.0
 40
6.0
 40
6.0
 40
6.0
 40
6.0
 10
166.5056762226
 20
34.0941806432
 30
0.0
 10
166.5056762226
 20
34.0941806432
 30
0.0
 10
166.4440445434
 20
34.1726923363
 30
0.0
 10
166.4440445434
 20
34.1726923363
 30
0.0
 10
166.3901331808
 20
34.2412592151
 30
0.0
 10
166.333343056
 20
34.3103495051
 30
0.0
 10
166.333343056
 20
34.4040401256
 30
0.0
 10
166.333343056
 20
34.5228544879
 30
0.0
 10
166.4292581745
 20
34.6003193585
 30
0.0
 10
166.5402213676
 20
34.6003193585
 30
0.0
 10
166.6634847259
 20
34.6003193585
 30
0.0
 10
166.7567827879
 20
34.5291354234
 30
0.0
 10
166.7567827879
 20
34.3988060127
 30
0.0
 10
166.7567827879
 20
34.2637659004
 30
0.0
 10
166.6286778752
 20
34.1873478524
 30
0.0
 10
166.5351181075
 20
34.1135468608
 30
0.0
 10
166.5351181075
 20
34.1135468608
 30
0.0
 10
166.5056762226
 20
34.0941806432
 30
0.0
 10
166.5056762226
 20
34.0941806432
 30
0.0
  0
SPLINE
  5
23C
330
21C
100
AcDbEntity
  8
0
  6
Continuous
 62
     7
100
AcDbSpline
 70
     3
 71
     3
 72
    50
 73
    46
 74
     0
 42
0.000000001
 43
0.0000001
 40
0.0
 40
0.0
 40
0.0
 40
0.0
 40
1.0
 40
1.0
 40
1.0
 40
2.0
 40
2.0
 40
2.0
 40
3.0
 40
3.0
 40
3.0
 40
4.0
 40
4.0
 40
4.0
 40
5.0
 40
5.0
 40
5.0
 40
6.0
 40
6.0
 40
6.0
 40
7.0
 40
7.0
 40
7.0
 40
8.0
 40
8.0
 40
8.0
 40
9.0
 40
9.0
 40
9.0
 40
10.0
 40
10.0
 40
10.0
 40
11.0
 40
11.0
 40
11.0
 40
12.0
 40
12.0
 40
12.0
 40
13.0
 40
13.0
 40
13.0
 40
14.0
 40
14.0
 40
14.0
 40
15.0
 40
15.0
 40
15.0
 40
15.0
 10
167.2078324653
 20
32.8871942133
 30
0.0
 10
167.2078324653
 20
32.8871942133
 30
0.0
 10
167.49322247
 20
32.8871942133
 30
0.0
 10
167.49322247
 20
32.8871942133
 30
0.0
 10
167.49322247
 20
32.8871942133
 30
0.0
 10
167.1608563022
 20
33.2980720743
 30
0.0
 10
167.1608563022
 20
33.2980720743
 30
0.0
 10
167.1608563022
 20
33.2980720743
 30
0.0
 10
167.387362537
 20
33.5639650086
 30
0.0
 10
167.387362537
 20
33.5639650086
 30
0.0
 10
167.387362537
 20
33.5639650086
 30
0.0
 10
167.2391062897
 20
33.7168011046
 30
0.0
 10
167.2391062897
 20
33.7168011046
 30
0.0
 10
167.2391062897
 20
33.7168011046
 30
0.0
 10
167.0231991335
 20
33.4655636864
 30
0.0
 10
167.0231991335
 20
33.4655636864
 30
0.0
 10
167.0231991335
 20
33.4655636864
 30
0.0
 10
166.6361364861
 20
33.9334933778
 30
0.0
 10
166.6361364861
 20
33.9334933778
 30
0.0
 10
166.7915896386
 20
34.0475970385
 30
0.0
 10
166.9738676196
 20
34.1873478524
 30
0.0
 10
166.9738676196
 20
34.3967123676
 30
0.0
 10
166.9738676196
 20
34.6406220277
 30
0.0
 10
166.7718308625
 20
34.7840367206
 30
0.0
 10
166.5453246276
 20
34.7840367206
 30
0.0
 10
166.3011532618
 20
34.7840367206
 30
0.0
 10
166.1167816357
 20
34.6332942697
 30
0.0
 10
166.1167816357
 20
34.3768227386
 30
0.0
 10
166.1167816357
 20
34.219275941
 30
0.0
 10
166.2154446634
 20
34.0816187723
 30
0.0
 10
166.3207811851
 20
33.9706555792
 30
0.0
 10
166.3207811851
 20
33.9706555792
 30
0.0
 10
166.2052381433
 20
33.8869097732
 30
0.0
 10
166.2052381433
 20
33.8869097732
 30
0.0
 10
166.0275400111
 20
33.7586740076
 30
0.0
 10
165.8801997336
 20
33.6309616534
 30
0.0
 10
165.8801997336
 20
33.39385634
 30
0.0
 10
165.8801997336
 20
33.0735286318
 30
0.0
 10
166.1387649098
 20
32.8474149555
 30
0.0
 10
166.4491478035
 20
32.8474149555
 30
0.0
 10
166.6680645746
 20
32.8474149555
 30
0.0
 10
166.8652597773
 20
32.9725102533
 30
0.0
 10
167.0055340025
 20
33.1384316315
 30
0.0
 10
167.0055340025
 20
33.1384316315
 30
0.0
 10
167.2078324653
 20
32.8871942133
 30
0.0
 10
167.2078324653
 20
32.8871942133
 30
0.0
  0
LWPOLYLINE
  5
23D
330
21C
100
AcDbEntity
  8
0
  6
Continuous
 62
     7
100
AcDbPolyline
 90
        2
 70
     0
 43
0.2
 10
169.143276555
 20
34.7437340514
 10
168.9119287657
 20
34.7437340514
  0
LWPOLYLINE
  5
23E
330
21C
100
AcDbEntity
  8
0
  6
Continuous
 62
     7
100
AcDbPolyline
 90
        2
 70
     0
 43
0.2
 10
168.9119287657
 20
34.7437340514
 10
168.9119287657
 20
32.8866708021
  0
LWPOLYLINE
  5
23F
330
21C
100
AcDbEntity
  8
0
  6
Continuous
 62
     7
100
AcDbPolyline
 90
        2
 70
     0
 43
0.2
 10
168.9119287657
 20
32.8866708021
 10
169.7072522177
 20
32.8866708021
  0
LWPOLYLINE
  5
240
330
21C
100
AcDbEntity
  8
0
  6
Continuous
 62
     7
100
AcDbPolyline
 90
        2
 70
     0
 43
0.2
 10
169.7072522177
 20
32.8866708021
 10
169.7072522177
 20
33.0986523736
  0
LWPOLYLINE
  5
241
330
21C
100
AcDbEntity
  8
0
  6
Continuous
 62
     7
100
AcDbPolyline
 90
        2
 70
     0
 43
0.2
 10
169.7072522177
 20
33.0986523736
 10
169.143276555
 20
33.0986523736
  0
LWPOLYLINE
  5
242
330
21C
100
AcDbEntity
  8
0
  6
Continuous
 62
     7
100
AcDbPolyline
 90
        2
 70
     0
 43
0.2
 10
169.143276555
 20
33.0986523736
 10
169.143276555
 20
34.7437340514
  0
LWPOLYLINE
  5
243
330
21C
100
AcDbEntity
  8
0
  6
Continuous
 62
     7
100
AcDbPolyline
 90
        2
 70
     0
 43
0.2
 10
171.3863556291
 20
34.0392224579
 10
171.16521436
 20
34.0392224579
  0
LWPOLYLINE
  5
244
330
21C
100
AcDbEntity
  8
0
  6
Continuous
 62
     7
100
AcDbPolyline
 90
        2
 70
     0
 43
0.2
 10
171.16521436
 20
34.0392224579
 10
171.16521436
 20
32.8871942133
  0
LWPOLYLINE
  5
245
330
21C
100
AcDbEntity
  8
0
  6
Continuous
 62
     7
100
AcDbPolyline
 90
        2
 70
     0
 43
0.2
 10
171.16521436
 20
32.8871942133
 10
171.3863556291
 20
32.8871942133
  0
LWPOLYLINE
  5
246
330
21C
100
AcDbEntity
  8
0
  6
Continuous
 62
     7
100
AcDbPolyline
 90
        2
 70
     0
 43
0.2
 10
171.3863556291
 20
32.8871942133
 10
171.3863556291
 20
34.0392224579
  0
SPLINE
  5
247
330
21C
100
AcDbEntity
  8
0
  6
Continuous
 62
     7
100
AcDbSpline
 70
     3
 71
     3
 72
    17
 73
    13
 74
     0
 42
0.000000001
 43
0.0000001
 40
0.0
 40
0.0
 40
0.0
 40
0.0
 40
1.0
 40
1.0
 40
1.0
 40
2.0
 40
2.0
 40
2.0
 40
3.0
 40
3.0
 40
3.0
 40
4.0
 40
4.0
 40
4.0
 40
4.0
 10
171.2759158474
 20
34.7217507773
 30
0.0
 10
171.1919083357
 20
34.7217507773
 30
0.0
 10
171.123341457
 20
34.6526604873
 30
0.0
 10
171.123341457
 20
34.5668210361
 30
0.0
 10
171.123341457
 20
34.4825518188
 30
0.0
 10
171.1919083357
 20
34.4166019965
 30
0.0
 10
171.2759158474
 20
34.4166019965
 30
0.0
 10
171.3596616535
 20
34.4166019965
 30
0.0
 10
171.4284902378
 20
34.4825518188
 30
0.0
 10
171.4284902378
 20
34.5668210361
 30
0.0
 10
171.4284902378
 20
34.6526604873
 30
0.0
 10
171.3596616535
 20
34.7217507773
 30
0.0
 10
171.2759158474
 20
34.7217507773
 30
0.0
  0
SPLINE
  5
248
330
21C
100
AcDbEntity
  8
0
  6
Continuous
 62
     7
100
AcDbSpline
 70
     3
 71
     3
 72
    17
 73
    13
 74
     0
 42
0.000000001
 43
0.0000001
 40
0.0
 40
0.0
 40
0.0
 40
0.0
 40
1.0
 40
1.0
 40
1.0
 40
2.0
 40
2.0
 40
2.0
 40
3.0
 40
3.0
 40
3.0
 40
4.0
 40
4.0
 40
4.0
 40
4.0
 10
173.5166395708
 20
33.044741011
 30
0.0
 10
173.2826747251
 20
33.044741011
 30
0.0
 10
173.1523453144
 20
33.2467777681
 30
0.0
 10
173.1523453144
 20
33.46294663
 30
0.0
 10
173.1523453144
 20
33.677545258
 30
0.0
 10
173.2881705436
 20
33.8764415474
 30
0.0
 10
173.5166395708
 20
33.8764415474
 30
0.0
 10
173.756100235
 20
33.8764415474
 30
0.0
 10
173.8916637585
 20
33.6874900725
 30
0.0
 10
173.8916637585
 20
33.46294663
 30
0.0
 10
173.8916637585
 20
33.2368329536
 30
0.0
 10
173.7584555858
 20
33.044741011
 30
0.0
 10
173.5166395708
 20
33.044741011
 30
0.0
  0
SPLINE
  5
249
330
21C
100
AcDbEntity
  8
0
  6
Continuous
 62
     7
100
AcDbSpline
 70
     3
 71
     3
 72
    50
 73
    46
 74
     0
 42
0.000000001
 43
0.0000001
 40
0.0
 40
0.0
 40
0.0
 40
0.0
 40
1.0
 40
1.0
 40
1.0
 40
2.0
 40
2.0
 40
2.0
 40
3.0
 40
3.0
 40
3.0
 40
4.0
 40
4.0
 40
4.0
 40
5.0
 40
5.0
 40
5.0
 40
6.0
 40
6.0
 40
6.0
 40
7.0
 40
7.0
 40
7.0
 40
8.0
 40
8.0
 40
8.0
 40
9.0
 40
9.0
 40
9.0
 40
10.0
 40
10.0
 40
10.0
 40
11.0
 40
11.0
 40
11.0
 40
12.0
 40
12.0
 40
12.0
 40
13.0
 40
13.0
 40
13.0
 40
14.0
 40
14.0
 40
14.0
 40
15.0
 40
15.0
 40
15.0
 40
15.0
 10
174.100766568
 20
34.0397458692
 30
0.0
 10
174.100766568
 20
34.0397458692
 30
0.0
 10
173.8791018876
 20
34.0397458692
 30
0.0
 10
173.8791018876
 20
34.0397458692
 30
0.0
 10
173.8791018876
 20
34.0397458692
 30
0.0
 10
173.8791018876
 20
33.8424198137
 30
0.0
 10
173.8791018876
 20
33.8424198137
 30
0.0
 10
173.8791018876
 20
33.8424198137
 30
0.0
 10
173.874391186
 20
33.8424198137
 30
0.0
 10
173.874391186
 20
33.8424198137
 30
0.0
 10
173.7830559163
 20
33.9853110953
 30
0.0
 10
173.6451370419
 20
34.0737676029
 30
0.0
 10
173.4724113169
 20
34.0737676029
 30
0.0
 10
173.1400451491
 20
34.0737676029
 30
0.0
 10
172.9309423396
 20
33.7858913946
 30
0.0
 10
172.9309423396
 20
33.470274388
 30
0.0
 10
172.9309423396
 20
33.1405252767
 30
0.0
 10
173.1280066895
 20
32.8474149555
 30
0.0
 10
173.4828795427
 20
32.8474149555
 30
0.0
 10
173.6451370419
 20
32.8474149555
 30
0.0
 10
173.7851495614
 20
32.9358714631
 30
0.0
 10
173.874391186
 20
33.0667242851
 30
0.0
 10
173.874391186
 20
33.0667242851
 30
0.0
 10
173.8791018876
 20
33.0667242851
 30
0.0
 10
173.8791018876
 20
33.0667242851
 30
0.0
 10
173.8791018876
 20
33.0667242851
 30
0.0
 10
173.8791018876
 20
32.8474149555
 30
0.0
 10
173.8791018876
 20
32.8474149555
 30
0.0
 10
173.8791018876
 20
32.6108330533
 30
0.0
 10
173.8225734685
 20
32.4239752236
 30
0.0
 10
173.5493527763
 20
32.4239752236
 30
0.0
 10
173.3470543135
 20
32.4239752236
 30
0.0
 10
173.2044247376
 20
32.5422661746
 30
0.0
 10
173.2044247376
 20
32.7484902221
 30
0.0
 10
173.2044247376
 20
32.7484902221
 30
0.0
 10
172.9827600571
 20
32.7484902221
 30
0.0
 10
172.9827600571
 20
32.7484902221
 30
0.0
 10
172.9877324644
 20
32.4239752236
 30
0.0
 10
173.218818548
 20
32.2271725793
 30
0.0
 10
173.5391462561
 20
32.2271725793
 30
0.0
 10
173.9871863186
 20
32.2271725793
 30
0.0
 10
174.100766568
 20
32.5124317312
 30
0.0
 10
174.100766568
 20
32.9091774874
 30
0.0
 10
174.100766568
 20
32.9091774874
 30
0.0
 10
174.100766568
 20
34.0397458692
 30
0.0
 10
174.100766568
 20
34.0397458692
 30
0.0
  0
SPLINE
  5
24A
330
21C
100
AcDbEntity
  8
0
  6
Continuous
 62
     7
100
AcDbSpline
 70
     3
 71
     3
 72
    44
 73
    40
 74
     0
 42
0.000000001
 43
0.0000001
 40
0.0
 40
0.0
 40
0.0
 40
0.0
 40
1.0
 40
1.0
 40
1.0
 40
2.0
 40
2.0
 40
2.0
 40
3.0
 40
3.0
 40
3.0
 40
4.0
 40
4.0
 40
4.0
 40
5.0
 40
5.0
 40
5.0
 40
6.0
 40
6.0
 40
6.0
 40
7.0
 40
7.0
 40
7.0
 40
8.0
 40
8.0
 40
8.0
 40
9.0
 40
9.0
 40
9.0
 40
10.0
 40
10.0
 40
10.0
 40
11.0
 40
11.0
 40
11.0
 40
12.0
 40
12.0
 40
12.0
 40
13.0
 40
13.0
 40
13.0
 40
13.0
 10
175.6696919034
 20
35.024805913
 30
0.0
 10
175.6696919034
 20
35.024805913
 30
0.0
 10
175.6696919034
 20
32.8866708021
 30
0.0
 10
175.6696919034
 20
32.8866708021
 30
0.0
 10
175.6696919034
 20
32.8866708021
 30
0.0
 10
175.8910948782
 20
32.8866708021
 30
0.0
 10
175.8910948782
 20
32.8866708021
 30
0.0
 10
175.8910948782
 20
32.8866708021
 30
0.0
 10
175.8910948782
 20
33.4163630254
 30
0.0
 10
175.8910948782
 20
33.4163630254
 30
0.0
 10
175.8910948782
 20
33.6262509518
 30
0.0
 10
175.8910948782
 20
33.8769649587
 30
0.0
 10
176.1763540301
 20
33.8769649587
 30
0.0
 10
176.4032528234
 20
33.8769649587
 30
0.0
 10
176.4302085047
 20
33.7440184916
 30
0.0
 10
176.4302085047
 20
33.5477392586
 30
0.0
 10
176.4302085047
 20
33.5477392586
 30
0.0
 10
176.4302085047
 20
32.8866708021
 30
0.0
 10
176.4302085047
 20
32.8866708021
 30
0.0
 10
176.4302085047
 20
32.8866708021
 30
0.0
 10
176.6521348908
 20
32.8866708021
 30
0.0
 10
176.6521348908
 20
32.8866708021
 30
0.0
 10
176.6521348908
 20
32.8866708021
 30
0.0
 10
176.6521348908
 20
33.573909823
 30
0.0
 10
176.6521348908
 20
33.573909823
 30
0.0
 10
176.6521348908
 20
33.8544582733
 30
0.0
 10
176.5681273791
 20
34.0742910142
 30
0.0
 10
176.2430889693
 20
34.0742910142
 30
0.0
 10
176.1033381554
 20
34.0742910142
 30
0.0
 10
175.9651575754
 20
34.0078177807
 30
0.0
 10
175.8958055798
 20
33.884816128
 30
0.0
 10
175.8958055798
 20
33.884816128
 30
0.0
 10
175.8910948782
 20
33.884816128
 30
0.0
 10
175.8910948782
 20
33.884816128
 30
0.0
 10
175.8910948782
 20
33.884816128
 30
0.0
 10
175.8910948782
 20
35.024805913
 30
0.0
 10
175.8910948782
 20
35.024805913
 30
0.0
 10
175.8910948782
 20
35.024805913
 30
0.0
 10
175.6696919034
 20
35.024805913
 30
0.0
 10
175.6696919034
 20
35.024805913
 30
0.0
  0
LWPOLYLINE
  5
24B
330
21C
100
AcDbEntity
  8
0
  6
Continuous
 62
     7
100
AcDbPolyline
 90
        2
 70
     0
 43
0.2
 10
178.4919255676
 20
33.8324749992
 10
178.7083561352
 20
33.8324749992
  0
LWPOLYLINE
  5
24C
330
21C
100
AcDbEntity
  8
0
  6
Continuous
 62
     7
100
AcDbPolyline
 90
        2
 70
     0
 43
0.2
 10
178.7083561352
 20
33.8324749992
 10
178.7083561352
 20
34.0392224579
  0
LWPOLYLINE
  5
24D
330
21C
100
AcDbEntity
  8
0
  6
Continuous
 62
     7
100
AcDbPolyline
 90
        2
 70
     0
 43
0.2
 10
178.7083561352
 20
34.0392224579
 10
178.4919255676
 20
34.0392224579
  0
LWPOLYLINE
  5
24E
330
21C
100
AcDbEntity
  8
0
  6
Continuous
 62
     7
100
AcDbPolyline
 90
        2
 70
     0
 43
0.2
 10
178.4919255676
 20
34.0392224579
 10
178.4919255676
 20
34.4799347623
  0
LWPOLYLINE
  5
24F
330
21C
100
AcDbEntity
  8
0
  6
Continuous
 62
     7
100
AcDbPolyline
 90
        2
 70
     0
 43
0.2
 10
178.4919255676
 20
34.4799347623
 10
178.2702608872
 20
34.4799347623
  0
LWPOLYLINE
  5
250
330
21C
100
AcDbEntity
  8
0
  6
Continuous
 62
     7
100
AcDbPolyline
 90
        2
 70
     0
 43
0.2
 10
178.2702608872
 20
34.4799347623
 10
178.2702608872
 20
34.0392224579
  0
LWPOLYLINE
  5
251
330
21C
100
AcDbEntity
  8
0
  6
Continuous
 62
     7
100
AcDbPolyline
 90
        2
 70
     0
 43
0.2
 10
178.2702608872
 20
34.0392224579
 10
178.1496145854
 20
34.0392224579
  0
LWPOLYLINE
  5
252
330
21C
100
AcDbEntity
  8
0
  6
Continuous
 62
     7
100
AcDbPolyline
 90
        2
 70
     0
 43
0.2
 10
178.1496145854
 20
34.0392224579
 10
178.1496145854
 20
33.8324749992
  0
LWPOLYLINE
  5
253
330
21C
100
AcDbEntity
  8
0
  6
Continuous
 62
     7
100
AcDbPolyline
 90
        2
 70
     0
 43
0.2
 10
178.1496145854
 20
33.8324749992
 10
178.2702608872
 20
33.8324749992
  0
LWPOLYLINE
  5
254
330
21C
100
AcDbEntity
  8
0
  6
Continuous
 62
     7
100
AcDbPolyline
 90
        2
 70
     0
 43
0.2
 10
178.2702608872
 20
33.8324749992
 10
178.2702608872
 20
32.8866708021
  0
LWPOLYLINE
  5
255
330
21C
100
AcDbEntity
  8
0
  6
Continuous
 62
     7
100
AcDbPolyline
 90
        2
 70
     0
 43
0.2
 10
178.2702608872
 20
32.8866708021
 10
178.4919255676
 20
32.8866708021
  0
LWPOLYLINE
  5
256
330
21C
100
AcDbEntity
  8
0
  6
Continuous
 62
     7
100
AcDbPolyline
 90
        2
 70
     0
 43
0.2
 10
178.4919255676
 20
32.8866708021
 10
178.4919255676
 20
33.8324749992
  0
SPLINE
  5
257
330
21C
100
AcDbEntity
  8
0
  6
Continuous
 62
     7
100
AcDbSpline
 70
     3
 71
     3
 72
    20
 73
    16
 74
     0
 42
0.000000001
 43
0.0000001
 40
0.0
 40
0.0
 40
0.0
 40
0.0
 40
1.0
 40
1.0
 40
1.0
 40
2.0
 40
2.0
 40
2.0
 40
3.0
 40
3.0
 40
3.0
 40
4.0
 40
4.0
 40
4.0
 40
5.0
 40
5.0
 40
5.0
 40
5.0
 10
166.2739358749
 20
43.2475972454
 30
0.0
 10
166.2739358749
 20
43.2475972454
 30
0.0
 10
168.5902925293
 20
40.4180358232
 30
0.0
 10
168.5902925293
 20
40.4180358232
 30
0.0
 10
167.9386454759
 20
39.7658653585
 30
0.0
 10
167.1617722719
 20
39.0299490878
 30
0.0
 10
166.1905826273
 20
39.0299490878
 30
0.0
 10
165.1920447428
 20
39.0299490878
 30
0.0
 10
164.2487267493
 20
39.959527535
 30
0.0
 10
164.2487267493
 20
40.9587196836
 30
0.0
 10
164.2487267493
 20
41.9579118321
 30
0.0
 10
165.4275798224
 20
42.6645170708
 30
0.0
 10
166.1491022827
 20
43.1643748507
 30
0.0
 10
166.1491022827
 20
43.1643748507
 30
0.0
 10
166.2739358749
 20
43.2475972454
 30
0.0
 10
166.2739358749
 20
43.2475972454
 30
0.0
  0
SPLINE
  5
258
330
21C
100
AcDbEntity
  8
0
  6
Continuous
 62
     7
100
AcDbSpline
 70
     3
 71
     3
 72
    23
 73
    19
 74
     0
 42
0.000000001
 43
0.0000001
 40
0.0
 40
0.0
 40
0.0
 40
0.0
 40
1.0
 40
1.0
 40
1.0
 40
2.0
 40
2.0
 40
2.0
 40
3.0
 40
3.0
 40
3.0
 40
4.0
 40
4.0
 40
4.0
 40
5.0
 40
5.0
 40
5.0
 40
6.0
 40
6.0
 40
6.0
 40
6.0
 10
166.5513438574
 20
44.8853511652
 30
0.0
 10
166.5513438574
 20
44.8853511652
 30
0.0
 10
166.2048455849
 20
45.328680526
 30
0.0
 10
166.2048455849
 20
45.328680526
 30
0.0
 10
165.8990425399
 20
45.716789996
 30
0.0
 10
165.5801542128
 20
46.1052920244
 30
0.0
 10
165.5801542128
 20
46.6322363385
 30
0.0
 10
165.5801542128
 20
47.2984080551
 30
0.0
 10
166.1214923373
 20
47.7421299744
 30
0.0
 10
166.7453985924
 20
47.7421299744
 30
0.0
 10
167.4391802545
 20
47.7421299744
 30
0.0
 10
167.9663862742
 20
47.3398883997
 30
0.0
 10
167.9663862742
 20
46.6048880987
 30
0.0
 10
167.9663862742
 20
45.8416235881
 30
0.0
 10
167.2451255195
 20
45.4115103623
 30
0.0
 10
166.7180503526
 20
44.9957909469
 30
0.0
 10
166.7180503526
 20
44.9957909469
 30
0.0
 10
166.5513438574
 20
44.8853511652
 30
0.0
 10
166.5513438574
 20
44.8853511652
 30
0.0
  0
SPLINE
  5
259
330
21C
100
AcDbEntity
  8
0
  6
Continuous
 62
     7
100
AcDbSpline
 70
     3
 71
     3
 72
    50
 73
    46
 74
     0
 42
0.000000001
 43
0.0000001
 40
0.0
 40
0.0
 40
0.0
 40
0.0
 40
1.0
 40
1.0
 40
1.0
 40
2.0
 40
2.0
 40
2.0
 40
3.0
 40
3.0
 40
3.0
 40
4.0
 40
4.0
 40
4.0
 40
5.0
 40
5.0
 40
5.0
 40
6.0
 40
6.0
 40
6.0
 40
7.0
 40
7.0
 40
7.0
 40
8.0
 40
8.0
 40
8.0
 40
9.0
 40
9.0
 40
9.0
 40
10.0
 40
10.0
 40
10.0
 40
11.0
 40
11.0
 40
11.0
 40
12.0
 40
12.0
 40
12.0
 40
13.0
 40
13.0
 40
13.0
 40
14.0
 40
14.0
 40
14.0
 40
15.0
 40
15.0
 40
15.0
 40
15.0
 10
170.5049310204
 20
38.086761947
 30
0.0
 10
170.5049310204
 20
38.086761947
 30
0.0
 10
172.1141590249
 20
38.086761947
 30
0.0
 10
172.1141590249
 20
38.086761947
 30
0.0
 10
172.1141590249
 20
38.086761947
 30
0.0
 10
170.2411317313
 20
40.4039037184
 30
0.0
 10
170.2411317313
 20
40.4039037184
 30
0.0
 10
170.2411317313
 20
40.4039037184
 30
0.0
 10
171.5174701568
 20
41.901383413
 30
0.0
 10
171.5174701568
 20
41.901383413
 30
0.0
 10
171.5174701568
 20
41.901383413
 30
0.0
 10
170.685246209
 20
42.7623949816
 30
0.0
 10
170.685246209
 20
42.7623949816
 30
0.0
 10
170.685246209
 20
42.7623949816
 30
0.0
 10
169.4646510857
 20
41.3470908592
 30
0.0
 10
169.4646510857
 20
41.3470908592
 30
0.0
 10
169.4646510857
 20
41.3470908592
 30
0.0
 10
167.2867367169
 20
43.9824666936
 30
0.0
 10
167.2867367169
 20
43.9824666936
 30
0.0
 10
168.1603101564
 20
44.6205050535
 30
0.0
 10
169.1869813975
 20
45.4115103623
 30
0.0
 10
169.1869813975
 20
46.5903634354
 30
0.0
 10
169.1869813975
 20
47.9640563604
 30
0.0
 10
168.0490852577
 20
48.7685395099
 30
0.0
 10
166.7737936548
 20
48.7685395099
 30
0.0
 10
165.4003624354
 20
48.7685395099
 30
0.0
 10
164.3594282367
 20
47.9223143102
 30
0.0
 10
164.3594282367
 20
46.479661948
 30
0.0
 10
164.3594282367
 20
45.5920872566
 30
0.0
 10
164.9147676131
 20
44.8152140526
 30
0.0
 10
165.51093307
 20
44.1907843862
 30
0.0
 10
165.51093307
 20
44.1907843862
 30
0.0
 10
164.8590243109
 20
43.7191908158
 30
0.0
 10
164.8590243109
 20
43.7191908158
 30
0.0
 10
163.8604864265
 20
42.9979300611
 30
0.0
 10
163.0276082147
 20
42.2766693064
 30
0.0
 10
163.0276082147
 20
40.9451109901
 30
0.0
 10
163.0276082147
 20
39.1414356921
 30
0.0
 10
164.4846543873
 20
37.864835561
 30
0.0
 10
166.2321938247
 20
37.864835561
 30
0.0
 10
167.4670519056
 20
37.864835561
 30
0.0
 10
168.5764221302
 20
38.5730110335
 30
0.0
 10
169.3672965862
 20
39.5015426582
 30
0.0
 10
169.3672965862
 20
39.5015426582
 30
0.0
 10
170.5049310204
 20
38.086761947
 30
0.0
 10
170.5049310204
 20
38.086761947
 30
0.0
  0
LINE
  5
25A
330
21C
100
AcDbEntity
  8
0
  6
Continuous
 62
     7
100
AcDbLine
 10
156.3077923954
 20
36.0606368517
 30
0.0
 11
178.721703123
 21
36.0606368517
 31
0.0
  0
LINE
  5
25B
330
21C
100
AcDbEntity
  8
0
  6
Continuous
 62
     7
100
AcDbLine
 10
178.721703123
 20
36.0606368517
 30
0.0
 11
178.721703123
 21
58.4745475793
 31
0.0
  0
LINE
  5
25C
330
21C
100
AcDbEntity
  8
0
  6
Continuous
 62
     7
100
AcDbLine
 10
178.721703123
 20
58.4745475793
 30
0.0
 11
156.3077923954
 21
58.4745475793
 31
0.0
  0
LINE
  5
25D
330
21C
100
AcDbEntity
  8
0
  6
Continuous
 62
     7
100
AcDbLine
 10
156.3077923954
 20
58.4745475793
 30
0.0
 11
156.3077923954
 21
36.0606368517
 31
0.0
  0
ENDBLK
  5
25E
330
21C
100
AcDbEntity
  8
0
  6
ByBlock
 62
     0
100
AcDbBlockEnd
  0
BLOCK
  5
25F
330
21D
100
AcDbEntity
  8
0
100
AcDbBlockBegin
  2
PROIEZIONE_EU_BL0
 70
     0
 10
168.688635288
 20
70.9758600793
 30
0.0
  3
PROIEZIONE_EU_BL0
  1

  0
LWPOLYLINE
  5
260
330
21D
100
AcDbEntity
  8
DEFAULT_1
  6
CENTER
 62
     7
100
AcDbPolyline
 90
        2
 70
     0
 43
0.25
 10
174.8152559497
 20
75.9755542112
 10
174.815296932
 20
65.9761659475
  0
LWPOLYLINE
  5
261
330
21D
100
AcDbEntity
  8
DEFAULT_1
  6
CENTER
 62
     7
100
AcDbPolyline
 90
        2
 70
     0
 43
0.25
 10
180.8152857747
 20
70.9761312145
 10
156.5619848013
 20
70.975860554
  0
LWPOLYLINE
  5
262
330
21D
100
AcDbEntity
  8
0
  6
Continuous
 62
     7
100
AcDbPolyline
 90
        2
 70
     1
 43
0.25
 10
171.2681457739
 20
70.9573123251
 42
1.0
 10
178.3744748725
 20
70.9573123251
 42
1.0
  0
LWPOLYLINE
  5
263
330
21D
100
AcDbEntity
  8
0
  6
Continuous
 62
     7
100
AcDbPolyline
 90
        2
 70
     1
 43
0.25
 10
172.8178896022
 20
70.9752103697
 42
1.0
 10
176.8296413523
 20
70.9752103697
 42
1.0
  0
LWPOLYLINE
  5
264
330
21D
100
AcDbEntity
  8
0
  6
Continuous
 62
     7
100
AcDbPolyline
 90
        2
 70
     0
 43
0.25
 10
168.8152835687
 20
74.5510635746
 10
168.8152832141
 20
67.4508606662
  0
LWPOLYLINE
  5
265
330
21D
100
AcDbEntity
  8
0
  6
Continuous
 62
     7
100
AcDbPolyline
 90
        2
 70
     0
 43
0.25
 10
168.8153116505
 20
67.4508322299
 10
158.8207543793
 20
68.9709256427
  0
LWPOLYLINE
  5
266
330
21D
100
AcDbEntity
  8
0
  6
Continuous
 62
     7
100
AcDbPolyline
 90
        2
 70
     0
 43
0.25
 10
158.8184443937
 20
68.9702481012
 10
158.8157774896
 20
72.9758867126
  0
LWPOLYLINE
  5
267
330
21D
100
AcDbEntity
  8
0
  6
Continuous
 62
     7
100
AcDbPolyline
 90
        2
 70
     0
 43
0.25
 10
158.8157692136
 20
72.9758784365
 10
168.8155124509
 20
74.5510356566
  0
ENDBLK
  5
268
330
21D
100
AcDbEntity
  8
0
  6
ByBlock
 62
     0
100
AcDbBlockEnd
  0
ENDSEC
  0
SECTION
  2
ENTITIES
  0
LWPOLYLINE
  5
291
330
216
100
AcDbEntity
 67
     1
  8
0
  6
Continuous
 62
     7
100
AcDbPolyline
 90
        2
 70
     0
 43
0.5
 10
284.0
 20
13.0
 10
284.0
 20
197.0
  0
LWPOLYLINE
  5
292
330
216
100
AcDbEntity
 67
     1
  8
0
  6
Continuous
 62
     7
100
AcDbPolyline
 90
        2
 70
     0
 43
0.5
 10
13.0
 20
13.0
 10
13.0
 20
197.0
  0
LWPOLYLINE
  5
293
330
216
100
AcDbEntity
 67
     1
  8
0
  6
Continuous
 62
     7
100
AcDbPolyline
 90
        2
 70
     0
 43
0.5
 10
13.0
 20
13.0
 10
284.0
 20
13.0
  0
LWPOLYLINE
  5
294
330
216
100
AcDbEntity
 67
     1
  8
0
  6
Continuous
 62
     7
100
AcDbPolyline
 90
        2
 70
     0
 43
0.1
 10
148.5
 20
197.0
 10
148.5
 20
200.0
  0
LWPOLYLINE
  5
295
330
216
100
AcDbEntity
 67
     1
  8
0
  6
Continuous
 62
     7
100
AcDbPolyline
 90
        2
 70
     0
 43
0.1
 10
284.0
 20
105.0
 10
287.0
 20
105.0
  0
LWPOLYLINE
  5
296
330
216
100
AcDbEntity
 67
     1
  8
0
  6
Continuous
 62
     7
100
AcDbPolyline
 90
        2
 70
     0
 43
0.1
 10
13.0
 20
105.0
 10
10.0
 20
105.0
  0
LWPOLYLINE
  5
297
330
216
100
AcDbEntity
 67
     1
  8
0
  6
Continuous
 62
     7
100
AcDbPolyline
 90
        2
 70
     0
 43
0.5
 10
13.0
 20
197.0
 10
284.0
 20
197.0
  0
LWPOLYLINE
  5
298
330
216
100
AcDbEntity
 67
     1
  8
0
  6
Continuous
 62
     7
100
AcDbPolyline
 90
        2
 70
     0
 43
0.1
 10
10.0
 20
200.0
 10
287.0
 20
200.0
  0
LWPOLYLINE
  5
299
330
216
100
AcDbEntity
 67
     1
  8
0
  6
Continuous
 62
     7
100
AcDbPolyline
 90
        2
 70
     0
 43
0.1
 10
10.0
 20
10.0
 10
10.0
 20
200.0
  0
LWPOLYLINE
  5
29A
330
216
100
AcDbEntity
 67
     1
  8
0
  6
Continuous
 62
     7
100
AcDbPolyline
 90
        2
 70
     0
 43
0.1
 10
287.0
 20
10.0
 10
287.0
 20
200.0
  0
LWPOLYLINE
  5
29B
330
216
100
AcDbEntity
 67
     1
  8
0
  6
Continuous
 62
     7
100
AcDbPolyline
 90
        2
 70
     0
 43
0.1
 10
10.0
 20
10.0
 10
287.0
 20
10.0
  0
LWPOLYLINE
  5
29C
330
216
100
AcDbEntity
 67
     1
  8
0
  6
Continuous
 62
     7
100
AcDbPolyline
 90
        2
 70
     0
 43
0.1
 10
148.5
 20
13.0
 10
148.5
 20
10.0
  0
VIEWPORT
  5
29D
330
216
100
AcDbEntity
 67
     1
  8
0
100
AcDbViewport
 10
148.5
 20
105.0
 30
0.0
 40
297.0
 41
210.0
 68
     1
 69
     1
 12
148.5
 22
105.0
 13
0.0
 23
0.0
 14
10.0
 24
10.0
 15
10.0
 25
10.0
 16
0.0
 26
0.0
 36
1.0
 17
0.0
 27
0.0
 37
0.0
 42
50.0
 43
0.0
 44
0.0
 45
210.0
 50
0.0
 51
0.0
 72
   100
 90
    32864
  1

281
     0
 71
     1
 74
     0
110
0.0
120
0.0
130
0.0
111
1.0
121
0.0
131
0.0
112
0.0
122
1.0
132
0.0
 79
     0
146
0.0
170
     0
 61
     5
348
4CA
292
     1
282
     1
141
0.0
142
0.0
 63
   256
  0
LINE
  5
29E
330
216
100
AcDbEntity
 67
     1
  8
3_ALL_AXES
  6
Continuous
 62
     7
100
AcDbLine
 10
90.4071995006
 20
67.4825973435
 30
0.0
 11
90.9123809862
 21
68.3575973435
 31
0.0
  0
LINE
  5
29F
330
216
100
AcDbEntity
 67
     1
  8
3_ALL_AXES
  6
Continuous
 62
     7
100
AcDbLine
 10
91.4175624717
 20
67.4825973435
 30
0.0
 11
90.9123809862
 21
68.3575973435
 31
0.0
  0
LINE
  5
2A0
330
216
100
AcDbEntity
 67
     1
  8
3_ALL_AXES
  6
Continuous
 62
     7
100
AcDbLine
 10
88.1123809862
 20
80.4053803342
 30
0.0
 11
88.1123809862
 21
79.1825973435
 31
0.0
  0
LINE
  5
2A1
330
216
100
AcDbEntity
 67
     1
  8
3_ALL_AXES
  6
Continuous
 62
     7
100
AcDbLine
 10
92.3623809862
 20
77.8825973435
 30
0.0
 11
92.3623809862
 21
77.7825973435
 31
0.0
  0
LINE
  5
2A2
330
216
100
AcDbEntity
 67
     1
  8
3_ALL_AXES
  6
Continuous
 62
     7
100
AcDbLine
 10
89.4623809862
 20
77.8825973435
 30
0.0
 11
89.4623809862
 21
77.7825973435
 31
0.0
  0
LINE
  5
2A3
330
216
100
AcDbEntity
 67
     1
  8
3_ALL_AXES
  6
Continuous
 62
     7
100
AcDbLine
 10
93.7123809862
 20
80.4053803342
 30
0.0
 11
93.7123809862
 21
79.1825973435
 31
0.0
  0
LINE
  5
2A4
330
216
100
AcDbEntity
 67
     1
  8
3_ALL_AXES
  6
Continuous
 62
     7
100
AcDbLine
 10
89.4123809862
 20
81.1107766207
 30
0.0
 11
89.4123809862
 21
81.1252380306
 31
0.0
  0
ARC
  5
2A5
330
216
100
AcDbEntity
 67
     1
  8
3_ALL_AXES
  6
Continuous
 62
     7
100
AcDbCircle
 10
90.9123809862
 20
76.8825973435
 30
0.0
 40
4.4863682417
100
AcDbArc
 50
95.37172068440002
 51
109.5327832667
  0
SPLINE
  5
2A6
330
216
100
AcDbEntity
 67
     1
  8
3_ALL_AXES
  6
Continuous
 62
     7
100
AcDbSpline
 70
     0
 71
     3
 72
    14
 73
    10
 74
     0
 42
0.000000001
 43
0.0000001
 40
0.0
 40
0.0
 40
0.0
 40
0.0
 40
0.0250522634
 40
0.0826614775
 40
0.1745543994
 40
0.29798062
 40
0.4484197279
 40
0.6200504974
 40
1.0
 40
1.0
 40
1.0
 40
1.0
 10
90.5623809862
 20
81.3492627664
 30
0.0
 10
90.5623809862
 20
81.3498526099
 30
0.0
 10
90.5600848257
 20
81.3509113737
 30
0.0
 10
90.5564143355
 20
81.3513874932
 30
0.0
 10
90.5497919009
 20
81.351943802
 30
0.0
 10
90.5412651815
 20
81.3520311598
 30
0.0
 10
90.530745528
 20
81.3518461883
 30
0.0
 10
90.5142455211
 20
81.3510948608
 30
0.0
 10
90.5012874285
 20
81.350100238
 30
0.0
 10
90.4923809862
 20
81.3492627664
 30
0.0
  0
LINE
  5
2A7
330
216
100
AcDbEntity
 67
     1
  8
3_ALL_AXES
  6
Continuous
 62
     7
100
AcDbLine
 10
90.5623809862
 20
81.1107766207
 30
0.0
 11
90.5623809862
 21
81.3492627664
 31
0.0
  0
ARC
  5
2A8
330
216
100
AcDbEntity
 67
     1
  8
3_ALL_AXES
  6
Continuous
 62
     7
100
AcDbCircle
 10
90.9123809862
 20
76.8825973435
 30
0.0
 40
4.2426406871
100
AcDbArc
 50
85.26796159589999
 51
94.73203840409998
  0
LINE
  5
2A9
330
216
100
AcDbEntity
 67
     1
  8
3_ALL_AXES
  6
Continuous
 62
     7
100
AcDbLine
 10
91.2623809862
 20
81.3492627664
 30
0.0
 11
91.2623809862
 21
81.1107766207
 31
0.0
  0
SPLINE
  5
2AA
330
216
100
AcDbEntity
 67
     1
  8
3_ALL_AXES
  6
Continuous
 62
     7
100
AcDbSpline
 70
     0
 71
     3
 72
    14
 73
    10
 74
     0
 42
0.000000001
 43
0.0000001
 40
0.0
 40
0.0
 40
0.0
 40
0.0
 40
0.3799509066
 40
0.5515831282
 40
0.7020272295
 40
0.8254484769
 40
0.9173381866
 40
0.9749483193
 40
1.0
 40
1.0
 40
1.0
 40
1.0
 10
91.3323809862
 20
81.3492627664
 30
0.0
 10
91.3234745099
 20
81.3501002412
 30
0.0
 10
91.3105163502
 20
81.3510948853
 30
0.0
 10
91.2940161538
 20
81.3518461912
 30
0.0
 10
91.2834964676
 20
81.3520311507
 30
0.0
 10
91.2749698088
 20
81.3519438247
 30
0.0
 10
91.2683475784
 20
81.3513874349
 30
0.0
 10
91.2646771125
 20
81.3509114121
 30
0.0
 10
91.2623809862
 20
81.3498525963
 30
0.0
 10
91.2623809862
 20
81.3492627664
 30
0.0
  0
ARC
  5
2AB
330
216
100
AcDbEntity
 67
     1
  8
3_ALL_AXES
  6
Continuous
 62
     7
100
AcDbCircle
 10
90.9123809862
 20
76.8825973435
 30
0.0
 40
4.4863682417
100
AcDbArc
 50
70.4672167333
 51
84.62827931560001
  0
LINE
  5
2AC
330
216
100
AcDbEntity
 67
     1
  8
3_ALL_AXES
  6
Continuous
 62
     7
100
AcDbLine
 10
92.4123809862
 20
81.1252380306
 30
0.0
 11
92.4123809862
 21
81.1107766207
 31
0.0
  0
ARC
  5
2AD
330
216
100
AcDbEntity
 67
     1
  8
3_ALL_AXES
  6
Continuous
 62
     7
100
AcDbCircle
 10
90.9123809862
 20
76.8825973435
 30
0.0
 40
4.5
100
AcDbArc
 50
70.4578675255
 51
70.5287793655
  0
ARC
  5
2AE
330
216
100
AcDbEntity
 67
     1
  8
3_ALL_AXES
  6
Continuous
 62
     7
100
AcDbCircle
 10
90.9123809862
 20
76.8825973435
 30
0.0
 40
4.5
100
AcDbArc
 50
51.52140486670001
 51
70.4578675255
  0
ARC
  5
2AF
330
216
100
AcDbEntity
 67
     1
  8
3_ALL_AXES
  6
Continuous
 62
     7
100
AcDbCircle
 10
90.9123809862
 20
76.8825973435
 30
0.0
 40
4.5
100
AcDbArc
 50
109.4712206345
 51
109.5421324745
  0
ARC
  5
2B0
330
216
100
AcDbEntity
 67
     1
  8
3_ALL_AXES
  6
Continuous
 62
     7
100
AcDbCircle
 10
90.9123809862
 20
76.8825973435
 30
0.0
 40
4.5
100
AcDbArc
 50
109.5421324745
 51
128.4785951333
  0
LINE
  5
2B1
330
216
100
AcDbEntity
 67
     1
  8
3_ALL_AXES
  6
Continuous
 62
     7
100
AcDbLine
 10
93.7123809862
 20
80.4053803342
 30
0.0
 11
88.1123809862
 21
80.4053803342
 31
0.0
  0
LINE
  5
2B2
330
216
100
AcDbEntity
 67
     1
  8
7_ALL_FEATURES
  6
Continuous
 62
     7
100
AcDbLine
 10
86.1623809862
 20
77.8825973435
 30
0.0
 11
86.1623809862
 21
79.1825973435
 31
0.0
  0
LINE
  5
2B3
330
216
100
AcDbEntity
 67
     1
  8
7_ALL_FEATURES
  6
Continuous
 62
     7
100
AcDbLine
 10
86.1623809862
 20
76.4825973435
 30
0.0
 11
86.1623809862
 21
77.7825973435
 31
0.0
  0
LINE
  5
2B4
330
216
100
AcDbEntity
 67
     1
  8
7_ALL_FEATURES
  6
Continuous
 62
     7
100
AcDbLine
 10
95.6623809862
 20
77.8825973435
 30
0.0
 11
95.6623809862
 21
77.7825973435
 31
0.0
  0
LINE
  5
2B5
330
216
100
AcDbEntity
 67
     1
  8
7_ALL_FEATURES
  6
Continuous
 62
     7
100
AcDbLine
 10
86.1623809862
 20
77.8825973435
 30
0.0
 11
86.1623809862
 21
77.7825973435
 31
0.0
  0
LINE
  5
2B6
330
216
100
AcDbEntity
 67
     1
  8
7_ALL_FEATURES
  6
Continuous
 62
     7
100
AcDbLine
 10
86.1623809862
 20
79.9774691384
 30
0.0
 11
86.1623809862
 21
79.1825973435
 31
0.0
  0
LINE
  5
2B7
330
216
100
AcDbEntity
 67
     1
  8
7_ALL_FEATURES
  6
Continuous
 62
     7
100
AcDbLine
 10
95.6623809862
 20
82.2825850898
 30
0.0
 11
95.6623809862
 21
80.9825407227
 31
0.0
  0
LINE
  5
2B8
330
216
100
AcDbEntity
 67
     1
  8
7_ALL_FEATURES
  6
Continuous
 62
     7
100
AcDbLine
 10
95.6623809862
 20
80.9825407227
 30
0.0
 11
95.6623809862
 21
79.9774691384
 31
0.0
  0
LINE
  5
2B9
330
216
100
AcDbEntity
 67
     1
  8
7_ALL_FEATURES
  6
Continuous
 62
     7
100
AcDbLine
 10
95.6623809862
 20
79.1825973435
 30
0.0
 11
95.6623809862
 21
77.8825973435
 31
0.0
  0
LINE
  5
2BA
330
216
100
AcDbEntity
 67
     1
  8
7_ALL_FEATURES
  6
Continuous
 62
     7
100
AcDbLine
 10
86.1623809862
 20
82.2825850898
 30
0.0
 11
86.1623809862
 21
80.9825407227
 31
0.0
  0
LINE
  5
2BB
330
216
100
AcDbEntity
 67
     1
  8
7_ALL_FEATURES
  6
Continuous
 62
     7
100
AcDbLine
 10
86.1623809862
 20
80.9825407227
 30
0.0
 11
86.1623809862
 21
79.9774691384
 31
0.0
  0
LINE
  5
2BC
330
216
100
AcDbEntity
 67
     1
  8
7_ALL_FEATURES
  6
Continuous
 62
     7
100
AcDbLine
 10
95.6623809862
 20
79.9774691384
 30
0.0
 11
95.6623809862
 21
79.1825973435
 31
0.0
  0
LINE
  5
2BD
330
216
100
AcDbEntity
 67
     1
  8
7_ALL_FEATURES
  6
Continuous
 62
     7
100
AcDbLine
 10
86.1623809862
 20
82.2825973435
 30
0.0
 11
95.6623809862
 21
82.2825973435
 31
0.0
  0
LINE
  5
2BE
330
216
100
AcDbEntity
 67
     1
  8
7_ALL_FEATURES
  6
Continuous
 62
     7
100
AcDbLine
 10
95.6623809862
 20
77.7825973435
 30
0.0
 11
95.6623809862
 21
76.4825973435
 31
0.0
  0
LINE
  5
2BF
330
216
100
AcDbEntity
 67
     1
  8
7_ALL_FEATURES
  6
Continuous
 62
     7
100
AcDbLine
 10
95.6623809862
 20
79.1825973435
 30
0.0
 11
93.7123809862
 21
79.1825973435
 31
0.0
  0
LINE
  5
2C0
330
216
100
AcDbEntity
 67
     1
  8
7_ALL_FEATURES
  6
Continuous
 62
     7
100
AcDbLine
 10
93.7123809862
 20
79.1825973435
 30
0.0
 11
88.1123809862
 21
79.1825973435
 31
0.0
  0
LINE
  5
2C1
330
216
100
AcDbEntity
 67
     1
  8
7_ALL_FEATURES
  6
Continuous
 62
     7
100
AcDbLine
 10
88.1123809862
 20
79.1825973435
 30
0.0
 11
86.1623809862
 21
79.1825973435
 31
0.0
  0
LINE
  5
2C2
330
216
100
AcDbEntity
 67
     1
  8
7_ALL_FEATURES
  6
Continuous
 62
     7
100
AcDbLine
 10
86.1623809862
 20
77.8825973435
 30
0.0
 11
95.6623809862
 21
77.8825973435
 31
0.0
  0
LINE
  5
2C3
330
216
100
AcDbEntity
 67
     1
  8
7_ALL_FEATURES
  6
Continuous
 62
     7
100
AcDbLine
 10
95.6623809862
 20
77.7825973435
 30
0.0
 11
86.1623809862
 21
77.7825973435
 31
0.0
  0
LINE
  5
2C4
330
216
100
AcDbEntity
 67
     1
  8
7_ALL_FEATURES
  6
Continuous
 62
     9
100
AcDbLine
 10
86.1623809862
 20
79.9774691384
 30
0.0
 11
88.1123809862
 21
79.9774691384
 31
0.0
  0
LINE
  5
2C5
330
216
100
AcDbEntity
 67
     1
  8
7_ALL_FEATURES
  6
Continuous
 62
     9
100
AcDbLine
 10
93.7123809862
 20
79.9774691384
 30
0.0
 11
95.6623809862
 21
79.9774691384
 31
0.0
  0
ARC
  5
2C6
330
216
100
AcDbEntity
 67
     1
  8
3_ALL_AXES
  6
Continuous
 62
     7
100
AcDbCircle
 10
105.0623809862
 20
55.5325973435
 30
0.0
 40
0.75
100
AcDbArc
 50
270.0
 51
360.0
  0
ARC
  5
2C7
330
216
100
AcDbEntity
 67
     1
  8
3_ALL_AXES
  6
Continuous
 62
     7
100
AcDbCircle
 10
76.7623809862
 20
55.5325973435
 30
0.0
 40
0.75
100
AcDbArc
 50
180.0
 51
270.0
  0
LINE
  5
2C8
330
216
100
AcDbEntity
 67
     1
  8
3_ALL_AXES
  6
Continuous
 62
     7
100
AcDbLine
 10
77.1474712888
 20
56.2825973435
 30
0.0
 11
76.8109791258
 21
56.2825973435
 31
0.0
  0
LINE
  5
2C9
330
216
100
AcDbEntity
 67
     1
  8
3_ALL_AXES
  6
Continuous
 62
     7
100
AcDbLine
 10
76.8109791258
 20
56.2825973435
 30
0.0
 11
76.7666670183
 21
56.2825973435
 31
0.0
  0
LINE
  5
2CA
330
216
100
AcDbEntity
 67
     1
  8
3_ALL_AXES
  6
Continuous
 62
     7
100
AcDbLine
 10
76.8109791258
 20
54.7825973435
 30
0.0
 11
76.7666670183
 21
54.7825973435
 31
0.0
  0
LINE
  5
2CB
330
216
100
AcDbEntity
 67
     1
  8
3_ALL_AXES
  6
Continuous
 62
     7
100
AcDbLine
 10
77.1474712888
 20
54.7825973435
 30
0.0
 11
76.8109791258
 21
54.7825973435
 31
0.0
  0
ARC
  5
2CC
330
216
100
AcDbEntity
 67
     1
  8
3_ALL_AXES
  6
Continuous
 62
     7
100
AcDbCircle
 10
76.7623809862
 20
55.5325973435
 30
0.0
 40
0.75
100
AcDbArc
 50
90.0
 51
180.0
  0
ARC
  5
2CD
330
216
100
AcDbEntity
 67
     1
  8
3_ALL_AXES
  6
Continuous
 62
     7
100
AcDbCircle
 10
105.0623809862
 20
55.5325973435
 30
0.0
 40
0.75
100
AcDbArc
 50
0.0
 51
90.0
  0
LINE
  5
2CE
330
216
100
AcDbEntity
 67
     1
  8
7_ALL_FEATURES
  6
Continuous
 62
     7
100
AcDbLine
 10
118.0154898775
 20
71.3957968728
 30
0.0
 11
106.9154898775
 21
52.1700329088
 31
0.0
  0
LINE
  5
2CF
330
216
100
AcDbEntity
 67
     1
  8
7_ALL_FEATURES
  6
Continuous
 62
     7
100
AcDbLine
 10
106.2623809862
 20
63.9325973435
 30
0.0
 11
105.9123809862
 21
63.9325973435
 31
0.0
  0
ARC
  5
2D0
330
216
100
AcDbEntity
 67
     1
  8
7_ALL_FEATURES
  6
Continuous
 62
     7
100
AcDbCircle
 10
105.5623809862
 20
57.1325973435
 30
0.0
 40
0.7
100
AcDbArc
 50
270.0
 51
360.0
  0
LINE
  5
2D1
330
216
100
AcDbEntity
 67
     1
  8
7_ALL_FEATURES
  6
Continuous
 62
     7
100
AcDbLine
 10
106.2623809862
 20
63.9325973435
 30
0.0
 11
106.2623809862
 21
57.1325973435
 31
0.0
  0
LINE
  5
2D2
330
216
100
AcDbEntity
 67
     1
  8
7_ALL_FEATURES
  6
Continuous
 62
     7
100
AcDbLine
 10
106.2623809862
 20
52.3450329088
 30
0.0
 11
106.2623809862
 21
53.9325973435
 31
0.0
  0
ARC
  5
2D3
330
216
100
AcDbEntity
 67
     1
  8
7_ALL_FEATURES
  6
Continuous
 62
     7
100
AcDbCircle
 10
117.7123809862
 20
71.5707968728
 30
0.0
 40
0.35
100
AcDbArc
 50
330.0
 51
360.0
  0
LINE
  5
2D4
330
216
100
AcDbEntity
 67
     1
  8
7_ALL_FEATURES
  6
Continuous
 62
     7
100
AcDbLine
 10
118.0623809862
 20
77.3832324381
 30
0.0
 11
118.0623809862
 21
71.5707968728
 31
0.0
  0
LINE
  5
2D5
330
216
100
AcDbEntity
 67
     1
  8
7_ALL_FEATURES
  6
Continuous
 62
     7
100
AcDbLine
 10
118.4123809862
 20
77.3832324381
 30
0.0
 11
118.0623809862
 21
77.3832324381
 31
0.0
  0
ARC
  5
2D6
330
216
100
AcDbEntity
 67
     1
  8
7_ALL_FEATURES
  6
Continuous
 62
     7
100
AcDbCircle
 10
106.6123809862
 20
52.3450329088
 30
0.0
 40
0.35
100
AcDbArc
 50
180.0
 51
330.0
  0
LINE
  5
2D7
330
216
100
AcDbEntity
 67
     1
  8
7_ALL_FEATURES
  6
Continuous
 62
     7
100
AcDbLine
 10
104.9623809862
 20
54.6325973435
 30
0.0
 11
105.5623809862
 21
54.6325973435
 31
0.0
  0
ARC
  5
2D8
330
216
100
AcDbEntity
 67
     1
  8
7_ALL_FEATURES
  6
Continuous
 62
     7
100
AcDbCircle
 10
104.9623809862
 20
56.0825973435
 30
0.0
 40
0.35
100
AcDbArc
 50
90.0
 51
180.0
  0
LINE
  5
2D9
330
216
100
AcDbEntity
 67
     1
  8
7_ALL_FEATURES
  6
Continuous
 62
     7
100
AcDbLine
 10
104.9623809862
 20
56.4325973435
 30
0.0
 11
105.5623809862
 21
56.4325973435
 31
0.0
  0
ARC
  5
2DA
330
216
100
AcDbEntity
 67
     1
  8
7_ALL_FEATURES
  6
Continuous
 62
     7
100
AcDbCircle
 10
105.5623809862
 20
53.9325973435
 30
0.0
 40
0.7
100
AcDbArc
 50
0.0
 51
90.0
  0
ARC
  5
2DB
330
216
100
AcDbEntity
 67
     1
  8
7_ALL_FEATURES
  6
Continuous
 62
     7
100
AcDbCircle
 10
104.9623809862
 20
54.9825973435
 30
0.0
 40
0.35
100
AcDbArc
 50
180.0
 51
270.0
  0
LINE
  5
2DC
330
216
100
AcDbEntity
 67
     1
  8
7_ALL_FEATURES
  6
Continuous
 62
     9
100
AcDbLine
 10
118.3185987688
 20
71.2207968728
 30
0.0
 11
118.0154898775
 21
71.3957968728
 31
0.0
  0
LINE
  5
2DD
330
216
100
AcDbEntity
 67
     1
  8
7_ALL_FEATURES
  6
Continuous
 62
     9
100
AcDbLine
 10
105.5623809862
 20
56.4325973435
 30
0.0
 11
105.5623809862
 21
56.7825973435
 31
0.0
  0
LINE
  5
2DE
330
216
100
AcDbEntity
 67
     1
  8
7_ALL_FEATURES
  6
Continuous
 62
     9
100
AcDbLine
 10
107.2185987688
 20
51.9950329088
 30
0.0
 11
106.9154898775
 21
52.1700329088
 31
0.0
  0
LINE
  5
2DF
330
216
100
AcDbEntity
 67
     1
  8
7_ALL_FEATURES
  6
Continuous
 62
     9
100
AcDbLine
 10
105.9123809862
 20
52.3450329088
 30
0.0
 11
106.2623809862
 21
52.3450329088
 31
0.0
  0
LINE
  5
2E0
330
216
100
AcDbEntity
 67
     1
  8
7_ALL_FEATURES
  6
Continuous
 62
     9
100
AcDbLine
 10
118.4123809862
 20
71.5707968728
 30
0.0
 11
118.0623809862
 21
71.5707968728
 31
0.0
  0
LINE
  5
2E1
330
216
100
AcDbEntity
 67
     1
  8
7_ALL_FEATURES
  6
Continuous
 62
     9
100
AcDbLine
 10
105.5623809862
 20
54.6325973435
 30
0.0
 11
105.5623809862
 21
54.2825973435
 31
0.0
  0
LINE
  5
2E2
330
216
100
AcDbEntity
 67
     1
  8
7_ALL_FEATURES
  6
Continuous
 62
     9
100
AcDbLine
 10
104.9623809862
 20
54.2825973435
 30
0.0
 11
104.9623809862
 21
54.6325973435
 31
0.0
  0
LINE
  5
2E3
330
216
100
AcDbEntity
 67
     1
  8
7_ALL_FEATURES
  6
Continuous
 62
     9
100
AcDbLine
 10
106.2623809862
 20
57.1325973435
 30
0.0
 11
105.9123809862
 21
57.1325973435
 31
0.0
  0
LINE
  5
2E4
330
216
100
AcDbEntity
 67
     1
  8
7_ALL_FEATURES
  6
Continuous
 62
     9
100
AcDbLine
 10
104.9623809862
 20
56.7825973435
 30
0.0
 11
104.9623809862
 21
56.4325973435
 31
0.0
  0
LINE
  5
2E5
330
216
100
AcDbEntity
 67
     1
  8
7_ALL_FEATURES
  6
Continuous
 62
     9
100
AcDbLine
 10
106.2623809862
 20
53.9325973435
 30
0.0
 11
105.9123809862
 21
53.9325973435
 31
0.0
  0
LINE
  5
2E6
330
216
100
AcDbEntity
 67
     1
  8
7_ALL_FEATURES
  6
Continuous
 62
     7
100
AcDbLine
 10
74.9092720949
 20
52.1700329088
 30
0.0
 11
63.8092720949
 21
71.3957968728
 31
0.0
  0
LINE
  5
2E7
330
216
100
AcDbEntity
 67
     1
  8
7_ALL_FEATURES
  6
Continuous
 62
     7
100
AcDbLine
 10
75.5623809862
 20
63.9325973435
 30
0.0
 11
75.9123809862
 21
63.9325973435
 31
0.0
  0
ARC
  5
2E8
330
216
100
AcDbEntity
 67
     1
  8
7_ALL_FEATURES
  6
Continuous
 62
     7
100
AcDbCircle
 10
76.2623809862
 20
57.1325973435
 30
0.0
 40
0.7
100
AcDbArc
 50
180.0
 51
270.0
  0
LINE
  5
2E9
330
216
100
AcDbEntity
 67
     1
  8
7_ALL_FEATURES
  6
Continuous
 62
     7
100
AcDbLine
 10
75.5623809862
 20
57.1325973435
 30
0.0
 11
75.5623809862
 21
63.9325973435
 31
0.0
  0
LINE
  5
2EA
330
216
100
AcDbEntity
 67
     1
  8
7_ALL_FEATURES
  6
Continuous
 62
     7
100
AcDbLine
 10
75.5623809862
 20
53.9325973435
 30
0.0
 11
75.5623809862
 21
52.3450329088
 31
0.0
  0
ARC
  5
2EB
330
216
100
AcDbEntity
 67
     1
  8
7_ALL_FEATURES
  6
Continuous
 62
     7
100
AcDbCircle
 10
64.1123809862
 20
71.5707968728
 30
0.0
 40
0.35
100
AcDbArc
 50
180.0
 51
210.0
  0
ARC
  5
2EC
330
216
100
AcDbEntity
 67
     1
  8
7_ALL_FEATURES
  6
Continuous
 62
     7
100
AcDbCircle
 10
75.2123809862
 20
52.3450329088
 30
0.0
 40
0.35
100
AcDbArc
 50
210.0
 51
360.0
  0
LINE
  5
2ED
330
216
100
AcDbEntity
 67
     1
  8
7_ALL_FEATURES
  6
Continuous
 62
     7
100
AcDbLine
 10
63.7623809862
 20
71.5707968728
 30
0.0
 11
63.7623809862
 21
77.3832324381
 31
0.0
  0
LINE
  5
2EE
330
216
100
AcDbEntity
 67
     1
  8
7_ALL_FEATURES
  6
Continuous
 62
     7
100
AcDbLine
 10
76.2623809862
 20
54.6325973435
 30
0.0
 11
76.8623809862
 21
54.6325973435
 31
0.0
  0
LINE
  5
2EF
330
216
100
AcDbEntity
 67
     1
  8
7_ALL_FEATURES
  6
Continuous
 62
     7
100
AcDbLine
 10
63.4123809862
 20
77.3832324381
 30
0.0
 11
63.7623809862
 21
77.3832324381
 31
0.0
  0
ARC
  5
2F0
330
216
100
AcDbEntity
 67
     1
  8
7_ALL_FEATURES
  6
Continuous
 62
     7
100
AcDbCircle
 10
76.2623809862
 20
53.9325973435
 30
0.0
 40
0.7
100
AcDbArc
 50
90.0
 51
180.0
  0
ARC
  5
2F1
330
216
100
AcDbEntity
 67
     1
  8
7_ALL_FEATURES
  6
Continuous
 62
     7
100
AcDbCircle
 10
76.8623809862
 20
56.0825973435
 30
0.0
 40
0.35
100
AcDbArc
 50
0.0
 51
90.0
  0
LINE
  5
2F2
330
216
100
AcDbEntity
 67
     1
  8
7_ALL_FEATURES
  6
Continuous
 62
     7
100
AcDbLine
 10
76.2623809862
 20
56.4325973435
 30
0.0
 11
76.8623809862
 21
56.4325973435
 31
0.0
  0
ARC
  5
2F3
330
216
100
AcDbEntity
 67
     1
  8
7_ALL_FEATURES
  6
Continuous
 62
     7
100
AcDbCircle
 10
76.8623809862
 20
54.9825973435
 30
0.0
 40
0.35
100
AcDbArc
 50
270.0
 51
360.0
  0
LINE
  5
2F4
330
216
100
AcDbEntity
 67
     1
  8
7_ALL_FEATURES
  6
Continuous
 62
     9
100
AcDbLine
 10
75.5623809862
 20
53.9325973435
 30
0.0
 11
75.9123809862
 21
53.9325973435
 31
0.0
  0
LINE
  5
2F5
330
216
100
AcDbEntity
 67
     1
  8
7_ALL_FEATURES
  6
Continuous
 62
     9
100
AcDbLine
 10
75.5623809862
 20
57.1325973435
 30
0.0
 11
75.9123809862
 21
57.1325973435
 31
0.0
  0
LINE
  5
2F6
330
216
100
AcDbEntity
 67
     1
  8
7_ALL_FEATURES
  6
Continuous
 62
     9
100
AcDbLine
 10
76.2623809862
 20
56.4325973435
 30
0.0
 11
76.2623809862
 21
56.7825973435
 31
0.0
  0
LINE
  5
2F7
330
216
100
AcDbEntity
 67
     1
  8
7_ALL_FEATURES
  6
Continuous
 62
     9
100
AcDbLine
 10
74.6061632035
 20
51.9950329088
 30
0.0
 11
74.9092720949
 21
52.1700329088
 31
0.0
  0
LINE
  5
2F8
330
216
100
AcDbEntity
 67
     1
  8
7_ALL_FEATURES
  6
Continuous
 62
     9
100
AcDbLine
 10
76.8623809862
 20
56.7825973435
 30
0.0
 11
76.8623809862
 21
56.4325973435
 31
0.0
  0
LINE
  5
2F9
330
216
100
AcDbEntity
 67
     1
  8
7_ALL_FEATURES
  6
Continuous
 62
     9
100
AcDbLine
 10
63.4123809862
 20
71.5707968728
 30
0.0
 11
63.7623809862
 21
71.5707968728
 31
0.0
  0
LINE
  5
2FA
330
216
100
AcDbEntity
 67
     1
  8
7_ALL_FEATURES
  6
Continuous
 62
     9
100
AcDbLine
 10
63.5061632035
 20
71.2207968728
 30
0.0
 11
63.8092720949
 21
71.3957968728
 31
0.0
  0
LINE
  5
2FB
330
216
100
AcDbEntity
 67
     1
  8
7_ALL_FEATURES
  6
Continuous
 62
     9
100
AcDbLine
 10
76.2623809862
 20
54.6325973435
 30
0.0
 11
76.2623809862
 21
54.2825973435
 31
0.0
  0
LINE
  5
2FC
330
216
100
AcDbEntity
 67
     1
  8
7_ALL_FEATURES
  6
Continuous
 62
     9
100
AcDbLine
 10
76.8623809862
 20
54.2825973435
 30
0.0
 11
76.8623809862
 21
54.6325973435
 31
0.0
  0
LINE
  5
2FD
330
216
100
AcDbEntity
 67
     1
  8
7_ALL_FEATURES
  6
Continuous
 62
     9
100
AcDbLine
 10
75.9123809862
 20
52.3450329088
 30
0.0
 11
75.5623809862
 21
52.3450329088
 31
0.0
  0
LINE
  5
2FE
330
216
100
AcDbEntity
 67
     1
  8
7_ALL_FEATURES
  6
Continuous
 62
     7
100
AcDbLine
 10
90.9123809862
 20
65.4825973435
 30
0.0
 11
92.2123809862
 21
65.4825973435
 31
0.0
  0
LINE
  5
2FF
330
216
100
AcDbEntity
 67
     1
  8
7_ALL_FEATURES
  6
Continuous
 62
     7
100
AcDbLine
 10
92.2123809862
 20
65.4825973435
 30
0.0
 11
92.4623809862
 21
65.4825973435
 31
0.0
  0
LINE
  5
300
330
216
100
AcDbEntity
 67
     1
  8
7_ALL_FEATURES
  6
Continuous
 62
     7
100
AcDbLine
 10
92.4623809862
 20
65.4825973435
 30
0.0
 11
104.4123809862
 21
65.4825973435
 31
0.0
  0
LINE
  5
301
330
216
100
AcDbEntity
 67
     1
  8
7_ALL_FEATURES
  6
Continuous
 62
     7
100
AcDbLine
 10
104.4123809862
 20
65.4825973435
 30
0.0
 11
104.9123809862
 21
65.4825973435
 31
0.0
  0
LINE
  5
302
330
216
100
AcDbEntity
 67
     1
  8
7_ALL_FEATURES
  6
Continuous
 62
     7
100
AcDbLine
 10
104.9123809862
 20
65.4825973435
 30
0.0
 11
105.6122612241
 21
65.4825973435
 31
0.0
  0
LINE
  5
303
330
216
100
AcDbEntity
 67
     1
  8
7_ALL_FEATURES
  6
Continuous
 62
     7
100
AcDbLine
 10
90.9123809862
 20
67.4825973435
 30
0.0
 11
91.9123809862
 21
67.4825973435
 31
0.0
  0
LINE
  5
304
330
216
100
AcDbEntity
 67
     1
  8
7_ALL_FEATURES
  6
Continuous
 62
     7
100
AcDbLine
 10
91.9123809862
 20
67.4825973435
 30
0.0
 11
99.9123809862
 21
67.4825973435
 31
0.0
  0
LINE
  5
305
330
216
100
AcDbEntity
 67
     1
  8
7_ALL_FEATURES
  6
Continuous
 62
     7
100
AcDbLine
 10
99.9123809862
 20
67.4825973435
 30
0.0
 11
105.6122612241
 21
67.4825973435
 31
0.0
  0
LINE
  5
306
330
216
100
AcDbEntity
 67
     1
  8
7_ALL_FEATURES
  6
Continuous
 62
     7
100
AcDbLine
 10
76.2125007483
 20
67.4825973435
 30
0.0
 11
79.4123809862
 21
67.4825973435
 31
0.0
  0
LINE
  5
307
330
216
100
AcDbEntity
 67
     1
  8
7_ALL_FEATURES
  6
Continuous
 62
     7
100
AcDbLine
 10
79.4123809862
 20
67.4825973435
 30
0.0
 11
82.1097494072
 21
67.4825973435
 31
0.0
  0
LINE
  5
308
330
216
100
AcDbEntity
 67
     1
  8
7_ALL_FEATURES
  6
Continuous
 62
     7
100
AcDbLine
 10
82.1097494072
 20
67.4825973435
 30
0.0
 11
89.9123809862
 21
67.4825973435
 31
0.0
  0
LINE
  5
309
330
216
100
AcDbEntity
 67
     1
  8
7_ALL_FEATURES
  6
Continuous
 62
     7
100
AcDbLine
 10
89.9123809862
 20
67.4825973435
 30
0.0
 11
90.9123809862
 21
67.4825973435
 31
0.0
  0
LINE
  5
30A
330
216
100
AcDbEntity
 67
     1
  8
7_ALL_FEATURES
  6
Continuous
 62
     7
100
AcDbLine
 10
76.2123809862
 20
67.4825973435
 30
0.0
 11
75.9123809862
 21
67.1825973435
 31
0.0
  0
LINE
  5
30B
330
216
100
AcDbEntity
 67
     1
  8
7_ALL_FEATURES
  6
Continuous
 62
     7
100
AcDbLine
 10
105.6123809862
 20
67.4825973435
 30
0.0
 11
105.9123809862
 21
67.1825973435
 31
0.0
  0
LINE
  5
30C
330
216
100
AcDbEntity
 67
     1
  8
7_ALL_FEATURES
  6
Continuous
 62
     7
100
AcDbLine
 10
76.2125007483
 20
65.4825973435
 30
0.0
 11
76.9123809862
 21
65.4825973435
 31
0.0
  0
LINE
  5
30D
330
216
100
AcDbEntity
 67
     1
  8
7_ALL_FEATURES
  6
Continuous
 62
     7
100
AcDbLine
 10
76.9123809862
 20
65.4825973435
 30
0.0
 11
77.4123809862
 21
65.4825973435
 31
0.0
  0
LINE
  5
30E
330
216
100
AcDbEntity
 67
     1
  8
7_ALL_FEATURES
  6
Continuous
 62
     7
100
AcDbLine
 10
77.4123809862
 20
65.4825973435
 30
0.0
 11
79.1123809862
 21
65.4825973435
 31
0.0
  0
LINE
  5
30F
330
216
100
AcDbEntity
 67
     1
  8
7_ALL_FEATURES
  6
Continuous
 62
     7
100
AcDbLine
 10
79.1123809862
 20
65.4825973435
 30
0.0
 11
83.7123809862
 21
65.4825973435
 31
0.0
  0
LINE
  5
310
330
216
100
AcDbEntity
 67
     1
  8
7_ALL_FEATURES
  6
Continuous
 62
     7
100
AcDbLine
 10
83.7123809862
 20
65.4825973435
 30
0.0
 11
89.3623809862
 21
65.4825973435
 31
0.0
  0
LINE
  5
311
330
216
100
AcDbEntity
 67
     1
  8
7_ALL_FEATURES
  6
Continuous
 62
     7
100
AcDbLine
 10
89.3623809862
 20
65.4825973435
 30
0.0
 11
89.6123809862
 21
65.4825973435
 31
0.0
  0
LINE
  5
312
330
216
100
AcDbEntity
 67
     1
  8
7_ALL_FEATURES
  6
Continuous
 62
     7
100
AcDbLine
 10
89.6123809862
 20
65.4825973435
 30
0.0
 11
90.9123809862
 21
65.4825973435
 31
0.0
  0
LINE
  5
313
330
216
100
AcDbEntity
 67
     1
  8
7_ALL_FEATURES
  6
Continuous
 62
     7
100
AcDbLine
 10
76.2123809862
 20
65.4825973435
 30
0.0
 11
75.9123809862
 21
65.7825973435
 31
0.0
  0
LINE
  5
314
330
216
100
AcDbEntity
 67
     1
  8
7_ALL_FEATURES
  6
Continuous
 62
     7
100
AcDbLine
 10
105.6123809862
 20
65.4825973435
 30
0.0
 11
105.9123809862
 21
65.7825973435
 31
0.0
  0
LINE
  5
315
330
216
100
AcDbEntity
 67
     1
  8
02___PRT_ALL_AXES
  6
Continuous
 62
     7
100
AcDbLine
 10
98.9123809862
 20
71.9825973435
 30
0.0
 11
98.9123809862
 21
74.4825973435
 31
0.0
  0
LINE
  5
316
330
216
100
AcDbEntity
 67
     1
  8
02___PRT_ALL_AXES
  6
Continuous
 62
     7
100
AcDbLine
 10
99.9123809862
 20
67.4825973435
 30
0.0
 11
99.9123809862
 21
69.9825973435
 31
0.0
  0
LINE
  5
317
330
216
100
AcDbEntity
 67
     1
  8
02___PRT_ALL_AXES
  6
Continuous
 62
     7
100
AcDbLine
 10
82.1097494072
 20
67.4825973435
 30
0.0
 11
82.1097494072
 21
69.9825973435
 31
0.0
  0
LINE
  5
318
330
216
100
AcDbEntity
 67
     1
  8
7_ALL_FEATURES
  6
Continuous
 62
     7
100
AcDbLine
 10
76.7123809862
 20
69.9825973435
 30
0.0
 11
79.4123809862
 21
69.9825973435
 31
0.0
  0
LINE
  5
319
330
216
100
AcDbEntity
 67
     1
  8
7_ALL_FEATURES
  6
Continuous
 62
     7
100
AcDbLine
 10
79.4123809862
 20
69.9825973435
 30
0.0
 11
82.1097494072
 21
69.9825973435
 31
0.0
  0
LINE
  5
31A
330
216
100
AcDbEntity
 67
     1
  8
7_ALL_FEATURES
  6
Continuous
 62
     7
100
AcDbLine
 10
82.1097494072
 20
69.9825973435
 30
0.0
 11
99.9123809862
 21
69.9825973435
 31
0.0
  0
LINE
  5
31B
330
216
100
AcDbEntity
 67
     1
  8
7_ALL_FEATURES
  6
Continuous
 62
     7
100
AcDbLine
 10
99.9123809862
 20
69.9825973435
 30
0.0
 11
105.1123809862
 21
69.9825973435
 31
0.0
  0
LINE
  5
31C
330
216
100
AcDbEntity
 67
     1
  8
02___PRT_ALL_AXES
  6
Continuous
 62
     7
100
AcDbLine
 10
75.9123809862
 20
65.7825973435
 30
0.0
 11
75.9123809862
 21
67.1825973435
 31
0.0
  0
LINE
  5
31D
330
216
100
AcDbEntity
 67
     1
  8
7_ALL_FEATURES
  6
Continuous
 62
     7
100
AcDbLine
 10
76.7123809862
 20
71.9825973435
 30
0.0
 11
79.4123809862
 21
71.9825973435
 31
0.0
  0
LINE
  5
31E
330
216
100
AcDbEntity
 67
     1
  8
7_ALL_FEATURES
  6
Continuous
 62
     7
100
AcDbLine
 10
79.4123809862
 20
71.9825973435
 30
0.0
 11
83.0044862493
 21
71.9825973435
 31
0.0
  0
LINE
  5
31F
330
216
100
AcDbEntity
 67
     1
  8
7_ALL_FEATURES
  6
Continuous
 62
     7
100
AcDbLine
 10
83.0044862493
 20
71.9825973435
 30
0.0
 11
98.9123809862
 21
71.9825973435
 31
0.0
  0
LINE
  5
320
330
216
100
AcDbEntity
 67
     1
  8
7_ALL_FEATURES
  6
Continuous
 62
     7
100
AcDbLine
 10
98.9123809862
 20
71.9825973435
 30
0.0
 11
105.1123809862
 21
71.9825973435
 31
0.0
  0
LINE
  5
321
330
216
100
AcDbEntity
 67
     1
  8
02___PRT_ALL_AXES
  6
Continuous
 62
     7
100
AcDbLine
 10
76.9123809862
 20
64.9825973435
 30
0.0
 11
76.9123809862
 21
65.4825973435
 31
0.0
  0
LINE
  5
322
330
216
100
AcDbEntity
 67
     1
  8
02___PRT_ALL_AXES
  6
Continuous
 62
     7
100
AcDbLine
 10
105.9123809862
 20
65.7825973435
 30
0.0
 11
105.9123809862
 21
67.1825973435
 31
0.0
  0
LINE
  5
323
330
216
100
AcDbEntity
 67
     1
  8
02___PRT_ALL_AXES
  6
Continuous
 62
     7
100
AcDbLine
 10
104.9123809862
 20
64.9825973435
 30
0.0
 11
104.9123809862
 21
65.4825973435
 31
0.0
  0
LINE
  5
324
330
216
100
AcDbEntity
 67
     1
  8
02___PRT_ALL_AXES
  6
Continuous
 62
     7
100
AcDbLine
 10
83.0044862493
 20
71.9825973435
 30
0.0
 11
83.0044862493
 21
74.4825973435
 31
0.0
  0
LINE
  5
325
330
216
100
AcDbEntity
 67
     1
  8
7_ALL_FEATURES
  6
Continuous
 62
     7
100
AcDbLine
 10
77.7123809862
 20
74.4825973435
 30
0.0
 11
79.4123809862
 21
74.4825973435
 31
0.0
  0
LINE
  5
326
330
216
100
AcDbEntity
 67
     1
  8
7_ALL_FEATURES
  6
Continuous
 62
     7
100
AcDbLine
 10
79.4123809862
 20
74.4825973435
 30
0.0
 11
83.0044862493
 21
74.4825973435
 31
0.0
  0
LINE
  5
327
330
216
100
AcDbEntity
 67
     1
  8
7_ALL_FEATURES
  6
Continuous
 62
     7
100
AcDbLine
 10
83.0044862493
 20
74.4825973435
 30
0.0
 11
98.9123809862
 21
74.4825973435
 31
0.0
  0
LINE
  5
328
330
216
100
AcDbEntity
 67
     1
  8
7_ALL_FEATURES
  6
Continuous
 62
     7
100
AcDbLine
 10
98.9123809862
 20
74.4825973435
 30
0.0
 11
104.1123809862
 21
74.4825973435
 31
0.0
  0
LINE
  5
329
330
216
100
AcDbEntity
 67
     1
  8
7_ALL_FEATURES
  6
Continuous
 62
     7
100
AcDbLine
 10
77.7123809862
 20
76.4825973435
 30
0.0
 11
79.4123809862
 21
76.4825973435
 31
0.0
  0
LINE
  5
32A
330
216
100
AcDbEntity
 67
     1
  8
7_ALL_FEATURES
  6
Continuous
 62
     7
100
AcDbLine
 10
79.4123809862
 20
76.4825973435
 30
0.0
 11
83.4123809862
 21
76.4825973435
 31
0.0
  0
LINE
  5
32B
330
216
100
AcDbEntity
 67
     1
  8
7_ALL_FEATURES
  6
Continuous
 62
     7
100
AcDbLine
 10
83.4123809862
 20
76.4825973435
 30
0.0
 11
86.1623809862
 21
76.4825973435
 31
0.0
  0
LINE
  5
32C
330
216
100
AcDbEntity
 67
     1
  8
7_ALL_FEATURES
  6
Continuous
 62
     7
100
AcDbLine
 10
86.1623809862
 20
76.4825973435
 30
0.0
 11
88.7624395889
 21
76.4825973435
 31
0.0
  0
LINE
  5
32D
330
216
100
AcDbEntity
 67
     1
  8
7_ALL_FEATURES
  6
Continuous
 62
     7
100
AcDbLine
 10
88.7624395889
 20
76.4825973435
 30
0.0
 11
89.6623809862
 21
76.4825973435
 31
0.0
  0
LINE
  5
32E
330
216
100
AcDbEntity
 67
     1
  8
7_ALL_FEATURES
  6
Continuous
 62
     7
100
AcDbLine
 10
89.6623809862
 20
76.4825973435
 30
0.0
 11
90.9123803715
 21
76.4825973435
 31
0.0
  0
LINE
  5
32F
330
216
100
AcDbEntity
 67
     1
  8
7_ALL_FEATURES
  6
Continuous
 62
     7
100
AcDbLine
 10
90.9123803715
 20
76.4825973435
 30
0.0
 11
92.1623809862
 21
76.4825973435
 31
0.0
  0
LINE
  5
330
330
216
100
AcDbEntity
 67
     1
  8
7_ALL_FEATURES
  6
Continuous
 62
     7
100
AcDbLine
 10
92.1623809862
 20
76.4825973435
 30
0.0
 11
93.0623223835
 21
76.4825973435
 31
0.0
  0
LINE
  5
331
330
216
100
AcDbEntity
 67
     1
  8
7_ALL_FEATURES
  6
Continuous
 62
     7
100
AcDbLine
 10
93.0623223835
 20
76.4825973435
 30
0.0
 11
95.6623809862
 21
76.4825973435
 31
0.0
  0
LINE
  5
332
330
216
100
AcDbEntity
 67
     1
  8
7_ALL_FEATURES
  6
Continuous
 62
     7
100
AcDbLine
 10
95.6623809862
 20
76.4825973435
 30
0.0
 11
104.1123809862
 21
76.4825973435
 31
0.0
  0
LINE
  5
333
330
216
100
AcDbEntity
 67
     1
  8
7_ALL_FEATURES
  6
Continuous
 62
     7
100
AcDbLine
 10
76.4123809862
 20
70.2825973435
 30
0.0
 11
76.4123809862
 21
71.6825973435
 31
0.0
  0
LINE
  5
334
330
216
100
AcDbEntity
 67
     1
  8
7_ALL_FEATURES
  6
Continuous
 62
     7
100
AcDbLine
 10
105.4123809862
 20
70.2825973435
 30
0.0
 11
105.4123809862
 21
71.6825973435
 31
0.0
  0
LINE
  5
335
330
216
100
AcDbEntity
 67
     1
  8
7_ALL_FEATURES
  6
Continuous
 62
     7
100
AcDbLine
 10
77.4123809862
 20
74.7825973435
 30
0.0
 11
77.4123809862
 21
76.1825973435
 31
0.0
  0
LINE
  5
336
330
216
100
AcDbEntity
 67
     1
  8
7_ALL_FEATURES
  6
Continuous
 62
     7
100
AcDbLine
 10
104.4123809862
 20
74.7825973435
 30
0.0
 11
104.4123809862
 21
76.1825973435
 31
0.0
  0
LINE
  5
337
330
216
100
AcDbEntity
 67
     1
  8
7_ALL_FEATURES
  6
Continuous
 62
     7
100
AcDbLine
 10
104.1123809861
 20
76.4825973435
 30
0.0
 11
104.4123809861
 21
76.1825973435
 31
0.0
  0
LINE
  5
338
330
216
100
AcDbEntity
 67
     1
  8
7_ALL_FEATURES
  6
Continuous
 62
     7
100
AcDbLine
 10
77.7123809862
 20
76.4825973435
 30
0.0
 11
77.4123809862
 21
76.1825973435
 31
0.0
  0
LINE
  5
339
330
216
100
AcDbEntity
 67
     1
  8
7_ALL_FEATURES
  6
Continuous
 62
     7
100
AcDbLine
 10
104.4123809861
 20
74.7825973434
 30
0.0
 11
104.1123809861
 21
74.4825973434
 31
0.0
  0
LINE
  5
33A
330
216
100
AcDbEntity
 67
     1
  8
7_ALL_FEATURES
  6
Continuous
 62
     7
100
AcDbLine
 10
77.4123809863
 20
74.7825973434
 30
0.0
 11
77.7123809862
 21
74.4825973434
 31
0.0
  0
LINE
  5
33B
330
216
100
AcDbEntity
 67
     1
  8
7_ALL_FEATURES
  6
Continuous
 62
     7
100
AcDbLine
 10
76.4123809862
 20
70.2825973434
 30
0.0
 11
76.7123809862
 21
69.9825973434
 31
0.0
  0
LINE
  5
33C
330
216
100
AcDbEntity
 67
     1
  8
7_ALL_FEATURES
  6
Continuous
 62
     7
100
AcDbLine
 10
105.4123809861
 20
70.2825973434
 30
0.0
 11
105.1123809861
 21
69.9825973434
 31
0.0
  0
LINE
  5
33D
330
216
100
AcDbEntity
 67
     1
  8
7_ALL_FEATURES
  6
Continuous
 62
     7
100
AcDbLine
 10
76.7123809862
 20
71.9825973435
 30
0.0
 11
76.4123809862
 21
71.6825973435
 31
0.0
  0
LINE
  5
33E
330
216
100
AcDbEntity
 67
     1
  8
7_ALL_FEATURES
  6
Continuous
 62
     7
100
AcDbLine
 10
105.1123809861
 20
71.9825973435
 30
0.0
 11
105.4123809861
 21
71.6825973435
 31
0.0
  0
LINE
  5
33F
330
216
100
AcDbEntity
 67
     1
  8
7_ALL_FEATURES
  6
Continuous
 62
     7
100
AcDbLine
 10
90.9123809862
 20
67.1825973435
 30
0.0
 11
105.9123809862
 21
67.1825973435
 31
0.0
  0
LINE
  5
340
330
216
100
AcDbEntity
 67
     1
  8
7_ALL_FEATURES
  6
Continuous
 62
     7
100
AcDbLine
 10
77.4123809862
 20
76.1825973435
 30
0.0
 11
104.4123809862
 21
76.1825973435
 31
0.0
  0
LINE
  5
341
330
216
100
AcDbEntity
 67
     1
  8
7_ALL_FEATURES
  6
Continuous
 62
     7
100
AcDbLine
 10
77.4123809862
 20
74.7825973435
 30
0.0
 11
104.4123809862
 21
74.7825973435
 31
0.0
  0
LINE
  5
342
330
216
100
AcDbEntity
 67
     1
  8
7_ALL_FEATURES
  6
Continuous
 62
     7
100
AcDbLine
 10
75.9123809862
 20
65.7825973435
 30
0.0
 11
90.9123809862
 21
65.7825973435
 31
0.0
  0
LINE
  5
343
330
216
100
AcDbEntity
 67
     1
  8
7_ALL_FEATURES
  6
Continuous
 62
     7
100
AcDbLine
 10
76.4123809862
 20
71.6825973435
 30
0.0
 11
105.4123809862
 21
71.6825973435
 31
0.0
  0
LINE
  5
344
330
216
100
AcDbEntity
 67
     1
  8
7_ALL_FEATURES
  6
Continuous
 62
     7
100
AcDbLine
 10
76.4123809862
 20
70.2825973435
 30
0.0
 11
105.4123809862
 21
70.2825973435
 31
0.0
  0
LINE
  5
345
330
216
100
AcDbEntity
 67
     1
  8
7_ALL_FEATURES
  6
Continuous
 62
     7
100
AcDbLine
 10
90.9123809862
 20
65.7825973435
 30
0.0
 11
105.9123809862
 21
65.7825973435
 31
0.0
  0
LINE
  5
346
330
216
100
AcDbEntity
 67
     1
  8
7_ALL_FEATURES
  6
Continuous
 62
     7
100
AcDbLine
 10
75.9123809862
 20
67.1825973435
 30
0.0
 11
90.9123809862
 21
67.1825973435
 31
0.0
  0
LINE
  5
347
330
216
100
AcDbEntity
 67
     1
  8
7_ALL_FEATURES
  6
Continuous
 62
     7
100
AcDbLine
 10
75.9672671005
 20
49.9825973435
 30
0.0
 11
76.2943469974
 21
49.9825973435
 31
0.0
  0
LINE
  5
348
330
216
100
AcDbEntity
 67
     1
  8
7_ALL_FEATURES
  6
Continuous
 62
     7
100
AcDbLine
 10
76.2943469974
 20
49.9825973435
 30
0.0
 11
76.3026656752
 21
49.9825973435
 31
0.0
  0
LINE
  5
349
330
216
100
AcDbEntity
 67
     1
  8
7_ALL_FEATURES
  6
Continuous
 62
     7
100
AcDbLine
 10
76.3026656752
 20
49.9825973435
 30
0.0
 11
105.5220962906
 21
49.9825973435
 31
0.0
  0
LINE
  5
34A
330
216
100
AcDbEntity
 67
     1
  8
7_ALL_FEATURES
  6
Continuous
 62
     7
100
AcDbLine
 10
105.5220962906
 20
49.9825973435
 30
0.0
 11
105.5304149749
 21
49.9825973435
 31
0.0
  0
LINE
  5
34B
330
216
100
AcDbEntity
 67
     1
  8
7_ALL_FEATURES
  6
Continuous
 62
     7
100
AcDbLine
 10
105.5304149749
 20
49.9825973435
 30
0.0
 11
105.8574948719
 21
49.9825973435
 31
0.0
  0
LINE
  5
34C
330
216
100
AcDbEntity
 67
     1
  8
02___PRT_ALL_AXES
  6
Continuous
 62
     7
100
AcDbLine
 10
71.4123809862
 20
51.4825973435
 30
0.0
 11
75.9123809862
 21
51.4825973435
 31
0.0
  0
LINE
  5
34D
330
216
100
AcDbEntity
 67
     1
  8
02___PRT_ALL_AXES
  6
Continuous
 62
     7
100
AcDbLine
 10
75.9123809862
 20
51.4825973435
 30
0.0
 11
105.9123809862
 21
51.4825973435
 31
0.0
  0
LINE
  5
34E
330
216
100
AcDbEntity
 67
     1
  8
02___PRT_ALL_AXES
  6
Continuous
 62
     7
100
AcDbLine
 10
105.9123809862
 20
51.4825973435
 30
0.0
 11
110.4123809862
 21
51.4825973435
 31
0.0
  0
LINE
  5
34F
330
216
100
AcDbEntity
 67
     1
  8
7_ALL_FEATURES
  6
Continuous
 62
     7
100
AcDbLine
 10
75.9282060777
 20
57.0325973435
 30
0.0
 11
77.6123809862
 21
57.0325973435
 31
0.0
  0
LINE
  5
350
330
216
100
AcDbEntity
 67
     1
  8
7_ALL_FEATURES
  6
Continuous
 62
     7
100
AcDbLine
 10
77.6123809862
 20
57.0325973435
 30
0.0
 11
104.2123809862
 21
57.0325973435
 31
0.0
  0
LINE
  5
351
330
216
100
AcDbEntity
 67
     1
  8
7_ALL_FEATURES
  6
Continuous
 62
     7
100
AcDbLine
 10
104.2123809862
 20
57.0325973435
 30
0.0
 11
105.8965558947
 21
57.0325973435
 31
0.0
  0
LINE
  5
352
330
216
100
AcDbEntity
 67
     1
  8
7_ALL_FEATURES
  6
Continuous
 62
     7
100
AcDbLine
 10
75.9288955255
 20
54.0325973435
 30
0.0
 11
77.6123809862
 21
54.0325973435
 31
0.0
  0
LINE
  5
353
330
216
100
AcDbEntity
 67
     1
  8
7_ALL_FEATURES
  6
Continuous
 62
     7
100
AcDbLine
 10
77.6123809862
 20
54.0325973435
 30
0.0
 11
104.2123809862
 21
54.0325973435
 31
0.0
  0
LINE
  5
354
330
216
100
AcDbEntity
 67
     1
  8
7_ALL_FEATURES
  6
Continuous
 62
     7
100
AcDbLine
 10
104.2123809862
 20
54.0325973435
 30
0.0
 11
105.8958664469
 21
54.0325973435
 31
0.0
  0
LINE
  5
355
330
216
100
AcDbEntity
 67
     1
  8
7_ALL_FEATURES
  6
Continuous
 62
     7
100
AcDbLine
 10
76.2123809862
 20
64.9825973435
 30
0.0
 11
76.9123809862
 21
64.9825973435
 31
0.0
  0
LINE
  5
356
330
216
100
AcDbEntity
 67
     1
  8
7_ALL_FEATURES
  6
Continuous
 62
     7
100
AcDbLine
 10
76.9123809862
 20
64.9825973435
 30
0.0
 11
77.2623809862
 21
64.9825973435
 31
0.0
  0
LINE
  5
357
330
216
100
AcDbEntity
 67
     1
  8
7_ALL_FEATURES
  6
Continuous
 62
     7
100
AcDbLine
 10
77.2623809862
 20
64.9825973435
 30
0.0
 11
104.5623809862
 21
64.9825973435
 31
0.0
  0
LINE
  5
358
330
216
100
AcDbEntity
 67
     1
  8
7_ALL_FEATURES
  6
Continuous
 62
     7
100
AcDbLine
 10
104.5623809862
 20
64.9825973435
 30
0.0
 11
104.9123809862
 21
64.9825973435
 31
0.0
  0
LINE
  5
359
330
216
100
AcDbEntity
 67
     1
  8
7_ALL_FEATURES
  6
Continuous
 62
     7
100
AcDbLine
 10
104.9123809862
 20
64.9825973435
 30
0.0
 11
105.6123809862
 21
64.9825973435
 31
0.0
  0
ARC
  5
35A
330
216
100
AcDbEntity
 67
     1
  8
7_ALL_FEATURES
  6
Continuous
 62
     7
100
AcDbCircle
 10
75.9672671005
 20
50.4825973435
 30
0.0
 40
0.5
100
AcDbArc
 50
257.4711922908
 51
270.0
  0
ARC
  5
35B
330
216
100
AcDbEntity
 67
     1
  8
7_ALL_FEATURES
  6
Continuous
 62
     7
100
AcDbCircle
 10
105.8574948719
 20
50.4825973435
 30
0.0
 40
0.5
100
AcDbArc
 50
270.0
 51
282.5288077092
  0
LINE
  5
35C
330
216
100
AcDbEntity
 67
     1
  8
7_ALL_FEATURES
  6
Continuous
 62
     7
100
AcDbLine
 10
104.2123809862
 20
57.0325973435
 30
0.0
 11
104.2123809862
 21
56.2825973435
 31
0.0
  0
LINE
  5
35D
330
216
100
AcDbEntity
 67
     1
  8
7_ALL_FEATURES
  6
Continuous
 62
     7
100
AcDbLine
 10
104.2123809862
 20
54.7825973435
 30
0.0
 11
104.2123809862
 21
54.0325973435
 31
0.0
  0
LINE
  5
35E
330
216
100
AcDbEntity
 67
     1
  8
7_ALL_FEATURES
  6
Continuous
 62
     7
100
AcDbLine
 10
77.6123809862
 20
57.0325973435
 30
0.0
 11
77.6123809862
 21
56.2825973435
 31
0.0
  0
LINE
  5
35F
330
216
100
AcDbEntity
 67
     1
  8
7_ALL_FEATURES
  6
Continuous
 62
     7
100
AcDbLine
 10
77.6123809862
 20
54.7825973435
 30
0.0
 11
77.6123809862
 21
54.0325973435
 31
0.0
  0
LINE
  5
360
330
216
100
AcDbEntity
 67
     1
  8
7_ALL_FEATURES
  6
Continuous
 62
     7
100
AcDbLine
 10
105.6123809862
 20
64.9825973435
 30
0.0
 11
105.9123809862
 21
64.6825973435
 31
0.0
  0
LINE
  5
361
330
216
100
AcDbEntity
 67
     1
  8
7_ALL_FEATURES
  6
Continuous
 62
     7
100
AcDbLine
 10
105.9659601008
 20
49.9945038134
 30
0.0
 11
110.4123809862
 21
50.9825973435
 31
0.0
  0
LINE
  5
362
330
216
100
AcDbEntity
 67
     1
  8
7_ALL_FEATURES
  6
Continuous
 62
     7
100
AcDbLine
 10
75.8588018716
 20
49.9945038134
 30
0.0
 11
71.4123809862
 21
50.9825973435
 31
0.0
  0
LINE
  5
363
330
216
100
AcDbEntity
 67
     1
  8
02___PRT_ALL_AXES
  6
Continuous
 62
     7
100
AcDbLine
 10
71.4123809862
 20
50.9825973435
 30
0.0
 11
71.4123809862
 21
51.4825973435
 31
0.0
  0
LINE
  5
364
330
216
100
AcDbEntity
 67
     1
  8
7_ALL_FEATURES
  6
Continuous
 62
     7
100
AcDbLine
 10
76.2123809862
 20
64.9825973435
 30
0.0
 11
75.9123809862
 21
64.6825973435
 31
0.0
  0
LINE
  5
365
330
216
100
AcDbEntity
 67
     1
  8
02___PRT_ALL_AXES
  6
Continuous
 62
     7
100
AcDbLine
 10
110.4123809862
 20
50.9825973435
 30
0.0
 11
110.4123809862
 21
51.4825973435
 31
0.0
  0
LINE
  5
366
330
216
100
AcDbEntity
 67
     1
  8
7_ALL_FEATURES
  6
Continuous
 62
     7
100
AcDbLine
 10
105.9123809862
 20
63.9325973435
 30
0.0
 11
105.9123809862
 21
64.6825973435
 31
0.0
  0
LINE
  5
367
330
216
100
AcDbEntity
 67
     1
  8
7_ALL_FEATURES
  6
Continuous
 62
     7
100
AcDbLine
 10
75.9123809862
 20
63.9325973435
 30
0.0
 11
75.9123809862
 21
64.6825973435
 31
0.0
  0
LINE
  5
368
330
216
100
AcDbEntity
 67
     1
  8
7_ALL_FEATURES
  6
Continuous
 62
     7
100
AcDbLine
 10
75.9123809862
 20
51.4825973435
 30
0.0
 11
75.9123809862
 21
52.3450329088
 31
0.0
  0
LINE
  5
369
330
216
100
AcDbEntity
 67
     1
  8
7_ALL_FEATURES
  6
Continuous
 62
     7
100
AcDbLine
 10
105.9123809862
 20
51.4825973435
 30
0.0
 11
105.9123809862
 21
52.3450329088
 31
0.0
  0
LINE
  5
36A
330
216
100
AcDbEntity
 67
     1
  8
02___PRT_ALL_AXES
  6
Continuous
 62
     7
100
AcDbLine
 10
71.4123809862
 20
50.9825973435
 30
0.0
 11
110.4123809862
 21
50.9825973435
 31
0.0
  0
LINE
  5
36B
330
216
100
AcDbEntity
 67
     1
  8
7_ALL_FEATURES
  6
Continuous
 62
     9
100
AcDbLine
 10
75.8588018716
 20
49.9945038134
 30
0.0
 11
105.9659601008
 21
49.9945038134
 31
0.0
  0
LINE
  5
36C
330
216
100
AcDbEntity
 67
     1
  8
7_ALL_FEATURES
  6
Continuous
 62
     7
100
AcDbLine
 10
75.9123809862
 20
64.6825973435
 30
0.0
 11
105.9123809862
 21
64.6825973435
 31
0.0
  0
LINE
  5
36D
330
216
100
AcDbEntity
 67
     1
  8
7_ALL_FEATURES
  6
Continuous
 62
     3
100
AcDbLine
 10
118.3185987688
 20
71.2207968728
 30
0.0
 11
107.2185987688
 21
51.9950329088
 31
0.0
  0
ARC
  5
36E
330
216
100
AcDbEntity
 67
     1
  8
7_ALL_FEATURES
  6
Continuous
 62
     3
100
AcDbCircle
 10
105.5623809862
 20
57.1325973435
 30
0.0
 40
0.35
100
AcDbArc
 50
344.3282153739
 51
360.0
  0
ARC
  5
36F
330
216
100
AcDbEntity
 67
     1
  8
7_ALL_FEATURES
  6
Continuous
 62
     3
100
AcDbCircle
 10
105.5623809862
 20
57.1325973435
 30
0.0
 40
0.35
100
AcDbArc
 50
270.0
 51
344.3282153739
  0
LINE
  5
370
330
216
100
AcDbEntity
 67
     1
  8
7_ALL_FEATURES
  6
Continuous
 62
     3
100
AcDbLine
 10
105.9123809862
 20
63.9325973435
 30
0.0
 11
105.9123809862
 21
57.1325973435
 31
0.0
  0
LINE
  5
371
330
216
100
AcDbEntity
 67
     1
  8
7_ALL_FEATURES
  6
Continuous
 62
     3
100
AcDbLine
 10
105.9123809862
 20
52.3450329088
 30
0.0
 11
105.9123809862
 21
53.9325973435
 31
0.0
  0
ARC
  5
372
330
216
100
AcDbEntity
 67
     1
  8
7_ALL_FEATURES
  6
Continuous
 62
     3
100
AcDbCircle
 10
106.6123809862
 20
52.3450329088
 30
0.0
 40
0.7
100
AcDbArc
 50
180.0
 51
330.0
  0
ARC
  5
373
330
216
100
AcDbEntity
 67
     1
  8
7_ALL_FEATURES
  6
Continuous
 62
     3
100
AcDbCircle
 10
117.7123809862
 20
71.5707968728
 30
0.0
 40
0.7
100
AcDbArc
 50
330.0
 51
360.0
  0
LINE
  5
374
330
216
100
AcDbEntity
 67
     1
  8
7_ALL_FEATURES
  6
Continuous
 62
     3
100
AcDbLine
 10
118.4123809862
 20
77.3832324381
 30
0.0
 11
118.4123809862
 21
71.5707968728
 31
0.0
  0
ARC
  5
375
330
216
100
AcDbEntity
 67
     1
  8
7_ALL_FEATURES
  6
Continuous
 62
     3
100
AcDbCircle
 10
104.9623809862
 20
56.0825973435
 30
0.0
 40
0.7
100
AcDbArc
 50
90.0
 51
163.3079496632
  0
LINE
  5
376
330
216
100
AcDbEntity
 67
     1
  8
7_ALL_FEATURES
  6
Continuous
 62
     3
100
AcDbLine
 10
104.9623809862
 20
54.2825973435
 30
0.0
 11
105.5623809862
 21
54.2825973435
 31
0.0
  0
LINE
  5
377
330
216
100
AcDbEntity
 67
     1
  8
7_ALL_FEATURES
  6
Continuous
 62
     3
100
AcDbLine
 10
104.9623809862
 20
56.7825973435
 30
0.0
 11
105.5623809862
 21
56.7825973435
 31
0.0
  0
ARC
  5
378
330
216
100
AcDbEntity
 67
     1
  8
7_ALL_FEATURES
  6
Continuous
 62
     3
100
AcDbCircle
 10
105.5623809862
 20
53.9325973435
 30
0.0
 40
0.35
100
AcDbArc
 50
15.7960503114
 51
90.0
  0
ARC
  5
379
330
216
100
AcDbEntity
 67
     1
  8
7_ALL_FEATURES
  6
Continuous
 62
     3
100
AcDbCircle
 10
105.5623809862
 20
53.9325973435
 30
0.0
 40
0.35
100
AcDbArc
 50
0.0
 51
15.7960503114
  0
ARC
  5
37A
330
216
100
AcDbEntity
 67
     1
  8
7_ALL_FEATURES
  6
Continuous
 62
     3
100
AcDbCircle
 10
104.9623809862
 20
54.9825973435
 30
0.0
 40
0.7
100
AcDbArc
 50
196.6920503368
 51
270.0
  0
ARC
  5
37B
330
216
100
AcDbEntity
 67
     1
  8
7_ALL_FEATURES
  6
Continuous
 62
     3
100
AcDbCircle
 10
76.2623809862
 20
57.1325973435
 30
0.0
 40
0.35
100
AcDbArc
 50
180.0
 51
195.6717846261
  0
ARC
  5
37C
330
216
100
AcDbEntity
 67
     1
  8
7_ALL_FEATURES
  6
Continuous
 62
     3
100
AcDbCircle
 10
76.2623809862
 20
57.1325973435
 30
0.0
 40
0.35
100
AcDbArc
 50
195.6717846261
 51
270.0
  0
LINE
  5
37D
330
216
100
AcDbEntity
 67
     1
  8
7_ALL_FEATURES
  6
Continuous
 62
     3
100
AcDbLine
 10
74.6061632035
 20
51.9950329088
 30
0.0
 11
63.5061632035
 21
71.2207968728
 31
0.0
  0
LINE
  5
37E
330
216
100
AcDbEntity
 67
     1
  8
7_ALL_FEATURES
  6
Continuous
 62
     3
100
AcDbLine
 10
75.9123809862
 20
57.1325973435
 30
0.0
 11
75.9123809862
 21
63.9325973435
 31
0.0
  0
LINE
  5
37F
330
216
100
AcDbEntity
 67
     1
  8
7_ALL_FEATURES
  6
Continuous
 62
     3
100
AcDbLine
 10
75.9123809862
 20
53.9325973435
 30
0.0
 11
75.9123809862
 21
52.3450329088
 31
0.0
  0
ARC
  5
380
330
216
100
AcDbEntity
 67
     1
  8
7_ALL_FEATURES
  6
Continuous
 62
     3
100
AcDbCircle
 10
75.2123809862
 20
52.3450329088
 30
0.0
 40
0.7
100
AcDbArc
 50
210.0
 51
360.0
  0
ARC
  5
381
330
216
100
AcDbEntity
 67
     1
  8
7_ALL_FEATURES
  6
Continuous
 62
     3
100
AcDbCircle
 10
64.1123809862
 20
71.5707968728
 30
0.0
 40
0.7
100
AcDbArc
 50
180.0
 51
210.0
  0
LINE
  5
382
330
216
100
AcDbEntity
 67
     1
  8
7_ALL_FEATURES
  6
Continuous
 62
     3
100
AcDbLine
 10
63.4123809862
 20
71.5707968728
 30
0.0
 11
63.4123809862
 21
77.3832324381
 31
0.0
  0
LINE
  5
383
330
216
100
AcDbEntity
 67
     1
  8
7_ALL_FEATURES
  6
Continuous
 62
     3
100
AcDbLine
 10
76.2623809862
 20
54.2825973435
 30
0.0
 11
76.8623809862
 21
54.2825973435
 31
0.0
  0
ARC
  5
384
330
216
100
AcDbEntity
 67
     1
  8
7_ALL_FEATURES
  6
Continuous
 62
     3
100
AcDbCircle
 10
76.8623809862
 20
56.0825973435
 30
0.0
 40
0.7
100
AcDbArc
 50
16.6920503368
 51
90.0
  0
LINE
  5
385
330
216
100
AcDbEntity
 67
     1
  8
7_ALL_FEATURES
  6
Continuous
 62
     3
100
AcDbLine
 10
76.2623809862
 20
56.7825973435
 30
0.0
 11
76.8623809862
 21
56.7825973435
 31
0.0
  0
ARC
  5
386
330
216
100
AcDbEntity
 67
     1
  8
7_ALL_FEATURES
  6
Continuous
 62
     3
100
AcDbCircle
 10
76.2623809862
 20
53.9325973435
 30
0.0
 40
0.35
100
AcDbArc
 50
90.0
 51
164.2039496886
  0
ARC
  5
387
330
216
100
AcDbEntity
 67
     1
  8
7_ALL_FEATURES
  6
Continuous
 62
     3
100
AcDbCircle
 10
76.2623809862
 20
53.9325973435
 30
0.0
 40
0.35
100
AcDbArc
 50
164.2039496886
 51
180.0
  0
ARC
  5
388
330
216
100
AcDbEntity
 67
     1
  8
7_ALL_FEATURES
  6
Continuous
 62
     3
100
AcDbCircle
 10
76.8623809862
 20
54.9825973435
 30
0.0
 40
0.7
100
AcDbArc
 50
270.0
 51
343.3079496632
  0
ARC
  5
389
330
216
100
AcDbEntity
 67
     1
  8
02___PRT_ALL_AXES
  6
Continuous
 62
     7
100
AcDbCircle
 10
90.9123809862
 20
143.3713972091
 30
0.0
 40
7.4
100
AcDbArc
 50
90.0
 51
270.0
  0
ARC
  5
38A
330
216
100
AcDbEntity
 67
     1
  8
02___PRT_ALL_AXES
  6
Continuous
 62
     7
100
AcDbCircle
 10
90.9123809862
 20
143.3713972091
 30
0.0
 40
7.4
100
AcDbArc
 50
270.0
 51
90.0
  0
ARC
  5
38B
330
216
100
AcDbEntity
 67
     1
  8
02___PRT_ALL_AXES
  6
Continuous
 62
     7
100
AcDbCircle
 10
90.9123809862
 20
143.3713972091
 30
0.0
 40
6.0
100
AcDbArc
 50
270.0
 51
90.0
  0
ARC
  5
38C
330
216
100
AcDbEntity
 67
     1
  8
02___PRT_ALL_AXES
  6
Continuous
 62
     7
100
AcDbCircle
 10
90.9123809862
 20
143.3713972091
 30
0.0
 40
6.0
100
AcDbArc
 50
90.0
 51
270.0
  0
ARC
  5
38D
330
216
100
AcDbEntity
 67
     1
  8
7_ALL_FEATURES
  6
Continuous
 62
     9
100
AcDbCircle
 10
90.9123809862
 20
143.3713972091
 30
0.0
 40
7.144083855
100
AcDbArc
 50
270.0
 51
90.0
  0
ARC
  5
38E
330
216
100
AcDbEntity
 67
     1
  8
7_ALL_FEATURES
  6
Continuous
 62
     9
100
AcDbCircle
 10
90.9123809862
 20
143.3713972091
 30
0.0
 40
6.788368734
100
AcDbArc
 50
270.0
 51
90.0
  0
ARC
  5
38F
330
216
100
AcDbEntity
 67
     1
  8
7_ALL_FEATURES
  6
Continuous
 62
     9
100
AcDbCircle
 10
90.9123809862
 20
143.3713972091
 30
0.0
 40
7.144083855
100
AcDbArc
 50
90.0
 51
270.0
  0
ARC
  5
390
330
216
100
AcDbEntity
 67
     1
  8
7_ALL_FEATURES
  6
Continuous
 62
     9
100
AcDbCircle
 10
90.9123809862
 20
143.3713972091
 30
0.0
 40
6.788368734
100
AcDbArc
 50
90.0
 51
270.0
  0
ARC
  5
391
330
216
100
AcDbEntity
 67
     1
  8
02___PRT_ALL_AXES
  6
Continuous
 62
     7
100
AcDbCircle
 10
90.9123809862
 20
143.3713972091
 30
0.0
 40
19.5
100
AcDbArc
 50
0.0
 51
180.0
  0
ARC
  5
392
330
216
100
AcDbEntity
 67
     1
  8
02___PRT_ALL_AXES
  6
Continuous
 62
     7
100
AcDbCircle
 10
90.9123809862
 20
143.3713972091
 30
0.0
 40
7.5
100
AcDbArc
 50
180.0
 51
360.0
  0
ARC
  5
393
330
216
100
AcDbEntity
 67
     1
  8
02___PRT_ALL_AXES
  6
Continuous
 62
     7
100
AcDbCircle
 10
90.9123809862
 20
143.3713972091
 30
0.0
 40
7.5
100
AcDbArc
 50
0.0
 51
180.0
  0
ARC
  5
394
330
216
100
AcDbEntity
 67
     1
  8
02___PRT_ALL_AXES
  6
Continuous
 62
     7
100
AcDbCircle
 10
90.9123809862
 20
143.3713972091
 30
0.0
 40
19.5
100
AcDbArc
 50
180.0
 51
360.0
  0
ARC
  5
395
330
216
100
AcDbEntity
 67
     1
  8
7_ALL_FEATURES
  6
Continuous
 62
     9
100
AcDbCircle
 10
90.9123809862
 20
143.3713972091
 30
0.0
 40
14.9451138857
100
AcDbArc
 50
180.0
 51
360.0
  0
ARC
  5
396
330
216
100
AcDbEntity
 67
     1
  8
7_ALL_FEATURES
  6
Continuous
 62
     9
100
AcDbCircle
 10
90.9123809862
 20
143.3713972091
 30
0.0
 40
14.9451138857
100
AcDbArc
 50
0.0
 51
180.0
  0
ARC
  5
397
330
216
100
AcDbEntity
 67
     1
  8
7_ALL_FEATURES
  6
Continuous
 62
     9
100
AcDbCircle
 10
90.9123809862
 20
143.3713972091
 30
0.0
 40
14.394427191
100
AcDbArc
 50
0.0
 51
180.0
  0
ARC
  5
398
330
216
100
AcDbEntity
 67
     1
  8
7_ALL_FEATURES
  6
Continuous
 62
     9
100
AcDbCircle
 10
90.9123809862
 20
143.3713972091
 30
0.0
 40
15.0535791146
100
AcDbArc
 50
0.0
 51
180.0
  0
ARC
  5
399
330
216
100
AcDbEntity
 67
     1
  8
7_ALL_FEATURES
  6
Continuous
 62
     9
100
AcDbCircle
 10
90.9123809862
 20
143.3713972091
 30
0.0
 40
15.0535791146
100
AcDbArc
 50
180.0
 51
360.0
  0
ARC
  5
39A
330
216
100
AcDbEntity
 67
     1
  8
7_ALL_FEATURES
  6
Continuous
 62
     9
100
AcDbCircle
 10
90.9123809862
 20
143.3713972091
 30
0.0
 40
14.6180339887
100
AcDbArc
 50
180.0
 51
360.0
  0
ARC
  5
39B
330
216
100
AcDbEntity
 67
     1
  8
7_ALL_FEATURES
  6
Continuous
 62
     9
100
AcDbCircle
 10
90.9123809862
 20
143.3713972091
 30
0.0
 40
14.394427191
100
AcDbArc
 50
180.0
 51
360.0
  0
ARC
  5
39C
330
216
100
AcDbEntity
 67
     1
  8
7_ALL_FEATURES
  6
Continuous
 62
     9
100
AcDbCircle
 10
90.9123809862
 20
143.3713972091
 30
0.0
 40
14.6180339887
100
AcDbArc
 50
0.0
 51
180.0
  0
LINE
  5
39D
330
216
100
AcDbEntity
 67
     1
  8
7_ALL_FEATURES
  6
Continuous
 62
     3
100
AcDbLine
 10
63.5061632035
 20
139.3713972091
 30
0.0
 11
71.827294629
 21
139.3713972091
 31
0.0
  0
LINE
  5
39E
330
216
100
AcDbEntity
 67
     1
  8
7_ALL_FEATURES
  6
Continuous
 62
     3
100
AcDbLine
 10
71.827294629
 20
147.3713972091
 30
0.0
 11
63.5061632035
 21
147.3713972091
 31
0.0
  0
LINE
  5
39F
330
216
100
AcDbEntity
 67
     1
  8
7_ALL_FEATURES
  6
Continuous
 62
     3
100
AcDbLine
 10
63.4123809862
 20
139.3713972091
 30
0.0
 11
63.5061632035
 21
139.3713972091
 31
0.0
  0
LINE
  5
3A0
330
216
100
AcDbEntity
 67
     1
  8
7_ALL_FEATURES
  6
Continuous
 62
     3
100
AcDbLine
 10
63.4123809862
 20
147.3713972091
 30
0.0
 11
63.5061632035
 21
147.3713972091
 31
0.0
  0
LINE
  5
3A1
330
216
100
AcDbEntity
 67
     1
  8
7_ALL_FEATURES
  6
Continuous
 62
     3
100
AcDbLine
 10
63.4123809862
 20
139.3713972091
 30
0.0
 11
63.4123809862
 21
147.3713972091
 31
0.0
  0
LINE
  5
3A2
330
216
100
AcDbEntity
 67
     1
  8
7_ALL_FEATURES
  6
Continuous
 62
     9
100
AcDbLine
 10
63.5061632035
 20
139.3713972091
 30
0.0
 11
63.5061632035
 21
147.3713972091
 31
0.0
  0
LINE
  5
3A3
330
216
100
AcDbEntity
 67
     1
  8
7_ALL_FEATURES
  6
Continuous
 62
     3
100
AcDbLine
 10
118.3185987688
 20
147.3713972091
 30
0.0
 11
109.9974673434
 21
147.3713972091
 31
0.0
  0
LINE
  5
3A4
330
216
100
AcDbEntity
 67
     1
  8
7_ALL_FEATURES
  6
Continuous
 62
     3
100
AcDbLine
 10
109.9974673434
 20
139.3713972091
 30
0.0
 11
118.3185987688
 21
139.3713972091
 31
0.0
  0
LINE
  5
3A5
330
216
100
AcDbEntity
 67
     1
  8
7_ALL_FEATURES
  6
Continuous
 62
     3
100
AcDbLine
 10
118.4123809862
 20
147.3713972091
 30
0.0
 11
118.3185987688
 21
147.3713972091
 31
0.0
  0
LINE
  5
3A6
330
216
100
AcDbEntity
 67
     1
  8
7_ALL_FEATURES
  6
Continuous
 62
     3
100
AcDbLine
 10
118.4123809862
 20
139.3713972091
 30
0.0
 11
118.3185987688
 21
139.3713972091
 31
0.0
  0
LINE
  5
3A7
330
216
100
AcDbEntity
 67
     1
  8
7_ALL_FEATURES
  6
Continuous
 62
     3
100
AcDbLine
 10
118.4123809862
 20
147.3713972091
 30
0.0
 11
118.4123809862
 21
139.3713972091
 31
0.0
  0
LINE
  5
3A8
330
216
100
AcDbEntity
 67
     1
  8
7_ALL_FEATURES
  6
Continuous
 62
     9
100
AcDbLine
 10
118.3185987688
 20
147.3713972091
 30
0.0
 11
118.3185987688
 21
139.3713972091
 31
0.0
  0
LINE
  5
3A9
330
216
100
AcDbEntity
 67
     1
  8
3_ALL_AXES
  6
Continuous
 62
     7
100
AcDbLine
 10
190.6968774888
 20
153.6713972091
 30
0.0
 11
191.5718774888
 21
154.1765786946
 31
0.0
  0
LINE
  5
3AA
330
216
100
AcDbEntity
 67
     1
  8
3_ALL_AXES
  6
Continuous
 62
     7
100
AcDbLine
 10
190.6968774888
 20
153.6713972091
 30
0.0
 11
191.5718774888
 21
153.1662157235
 31
0.0
  0
LINE
  5
3AB
330
216
100
AcDbEntity
 67
     1
  8
3_ALL_AXES
  6
Continuous
 62
     7
100
AcDbLine
 10
190.7968774888
 20
133.0713972091
 30
0.0
 11
191.5718774888
 21
133.5188436677
 31
0.0
  0
LINE
  5
3AC
330
216
100
AcDbEntity
 67
     1
  8
3_ALL_AXES
  6
Continuous
 62
     7
100
AcDbLine
 10
190.7968774888
 20
133.0713972091
 30
0.0
 11
191.5718774888
 21
132.6239507505
 31
0.0
  0
LINE
  5
3AD
330
216
100
AcDbEntity
 67
     1
  8
3_ALL_AXES
  6
Continuous
 62
     7
100
AcDbLine
 10
179.8718774888
 20
146.1713972091
 30
0.0
 11
178.6490944981
 21
146.1713972091
 31
0.0
  0
LINE
  5
3AE
330
216
100
AcDbEntity
 67
     1
  8
3_ALL_AXES
  6
Continuous
 62
     7
100
AcDbLine
 10
177.9292422468
 20
144.8713972091
 30
0.0
 11
177.9436982116
 21
144.8713972091
 31
0.0
  0
ARC
  5
3AF
330
216
100
AcDbEntity
 67
     1
  8
3_ALL_AXES
  6
Continuous
 62
     7
100
AcDbCircle
 10
182.1718774888
 20
143.3713972091
 30
0.0
 40
4.5
100
AcDbArc
 50
141.5214048667
 51
160.4579351587
  0
ARC
  5
3B0
330
216
100
AcDbEntity
 67
     1
  8
3_ALL_AXES
  6
Continuous
 62
     7
100
AcDbCircle
 10
182.1718774888
 20
143.3713972091
 30
0.0
 40
4.5
100
AcDbArc
 50
160.4579351587
 51
160.5287793655
  0
LINE
  5
3B1
330
216
100
AcDbEntity
 67
     1
  8
3_ALL_AXES
  6
Continuous
 62
     7
100
AcDbLine
 10
177.9436982116
 20
141.8713972091
 30
0.0
 11
177.9292422468
 21
141.8713972091
 31
0.0
  0
ARC
  5
3B2
330
216
100
AcDbEntity
 67
     1
  8
3_ALL_AXES
  6
Continuous
 62
     7
100
AcDbCircle
 10
182.1718774888
 20
143.3713972091
 30
0.0
 40
4.4863682417
100
AcDbArc
 50
185.3717206844
 51
199.5327832667
  0
SPLINE
  5
3B3
330
216
100
AcDbEntity
 67
     1
  8
3_ALL_AXES
  6
Continuous
 62
     7
100
AcDbSpline
 70
     0
 71
     3
 72
    14
 73
    10
 74
     0
 42
0.000000001
 43
0.0000001
 40
0.0
 40
0.0
 40
0.0
 40
0.0
 40
0.0250522634
 40
0.0826614775
 40
0.1745543994
 40
0.29798062
 40
0.4484197279
 40
0.6200504974
 40
1.0
 40
1.0
 40
1.0
 40
1.0
 10
177.7052120659
 20
143.0213972091
 30
0.0
 10
177.7046222224
 20
143.0213972091
 30
0.0
 10
177.7035634586
 20
143.0191010486
 30
0.0
 10
177.7030873391
 20
143.0154305584
 30
0.0
 10
177.7025310303
 20
143.0088081238
 30
0.0
 10
177.7024436725
 20
143.0002814044
 30
0.0
 10
177.702628644
 20
142.9897617509
 30
0.0
 10
177.7033799715
 20
142.973261744
 30
0.0
 10
177.7043745943
 20
142.9603036514
 30
0.0
 10
177.7052120659
 20
142.9513972091
 30
0.0
  0
LINE
  5
3B4
330
216
100
AcDbEntity
 67
     1
  8
3_ALL_AXES
  6
Continuous
 62
     7
100
AcDbLine
 10
177.9436982116
 20
143.0213972091
 30
0.0
 11
177.7052120659
 21
143.0213972091
 31
0.0
  0
ARC
  5
3B5
330
216
100
AcDbEntity
 67
     1
  8
3_ALL_AXES
  6
Continuous
 62
     7
100
AcDbCircle
 10
182.1718774888
 20
143.3713972091
 30
0.0
 40
4.2426406871
100
AcDbArc
 50
180.0
 51
184.7320384041
  0
LINE
  5
3B6
330
216
100
AcDbEntity
 67
     1
  8
3_ALL_AXES
  6
Continuous
 62
     7
100
AcDbLine
 10
181.2718774888
 20
144.8213972091
 30
0.0
 11
181.1718774888
 21
144.8213972091
 31
0.0
  0
ARC
  5
3B7
330
216
100
AcDbEntity
 67
     1
  8
3_ALL_AXES
  6
Continuous
 62
     7
100
AcDbCircle
 10
182.1718774888
 20
143.3713972091
 30
0.0
 40
4.2426406871
100
AcDbArc
 50
175.2679615959
 51
180.0
  0
LINE
  5
3B8
330
216
100
AcDbEntity
 67
     1
  8
3_ALL_AXES
  6
Continuous
 62
     7
100
AcDbLine
 10
177.7052120659
 20
143.7213972091
 30
0.0
 11
177.9436982116
 21
143.7213972091
 31
0.0
  0
SPLINE
  5
3B9
330
216
100
AcDbEntity
 67
     1
  8
3_ALL_AXES
  6
Continuous
 62
     7
100
AcDbSpline
 70
     0
 71
     3
 72
    14
 73
    10
 74
     0
 42
0.000000001
 43
0.0000001
 40
0.0
 40
0.0
 40
0.0
 40
0.0
 40
0.3799509066
 40
0.5515831282
 40
0.7020272295
 40
0.8254484769
 40
0.9173381866
 40
0.9749483193
 40
1.0
 40
1.0
 40
1.0
 40
1.0
 10
177.7052120659
 20
143.7913972091
 30
0.0
 10
177.7043745911
 20
143.7824907328
 30
0.0
 10
177.703379947
 20
143.7695325731
 30
0.0
 10
177.7026286412
 20
143.7530323767
 30
0.0
 10
177.7024436816
 20
143.7425126905
 30
0.0
 10
177.7025310076
 20
143.7339860317
 30
0.0
 10
177.7030873974
 20
143.7273638013
 30
0.0
 10
177.7035634202
 20
143.7236933354
 30
0.0
 10
177.704622236
 20
143.7213972091
 30
0.0
 10
177.7052120659
 20
143.7213972091
 30
0.0
  0
ARC
  5
3BA
330
216
100
AcDbEntity
 67
     1
  8
3_ALL_AXES
  6
Continuous
 62
     7
100
AcDbCircle
 10
182.1718774888
 20
143.3713972091
 30
0.0
 40
4.4863682417
100
AcDbArc
 50
160.4672167333
 51
174.6282793156
  0
LINE
  5
3BB
330
216
100
AcDbEntity
 67
     1
  8
3_ALL_AXES
  6
Continuous
 62
     7
100
AcDbLine
 10
179.8718774888
 20
140.5713972091
 30
0.0
 11
178.6490944981
 21
140.5713972091
 31
0.0
  0
ARC
  5
3BC
330
216
100
AcDbEntity
 67
     1
  8
3_ALL_AXES
  6
Continuous
 62
     7
100
AcDbCircle
 10
182.1718774888
 20
143.3713972091
 30
0.0
 40
4.5
100
AcDbArc
 50
199.5420648413
 51
218.4785951333
  0
ARC
  5
3BD
330
216
100
AcDbEntity
 67
     1
  8
3_ALL_AXES
  6
Continuous
 62
     7
100
AcDbCircle
 10
182.1718774888
 20
143.3713972091
 30
0.0
 40
4.5
100
AcDbArc
 50
199.4712206345
 51
199.5420648413
  0
LINE
  5
3BE
330
216
100
AcDbEntity
 67
     1
  8
3_ALL_AXES
  6
Continuous
 62
     7
100
AcDbLine
 10
181.2718774888
 20
141.9213972091
 30
0.0
 11
181.1718774888
 21
141.9213972091
 31
0.0
  0
LINE
  5
3BF
330
216
100
AcDbEntity
 67
     1
  8
3_ALL_AXES
  6
Continuous
 62
     7
100
AcDbLine
 10
178.6490944981
 20
140.5713972091
 30
0.0
 11
178.6490944981
 21
143.3713972091
 31
0.0
  0
LINE
  5
3C0
330
216
100
AcDbEntity
 67
     1
  8
3_ALL_AXES
  6
Continuous
 62
     7
100
AcDbLine
 10
178.6490944981
 20
146.1713972091
 30
0.0
 11
178.6490944981
 21
143.3713972091
 31
0.0
  0
ARC
  5
3C1
330
216
100
AcDbEntity
 67
     1
  8
3_ALL_AXES
  6
Continuous
 62
     7
100
AcDbCircle
 10
203.5218774888
 20
157.5213972091
 30
0.0
 40
0.75
100
AcDbArc
 50
0.0
 51
90.0
  0
SPLINE
  5
3C2
330
216
100
AcDbEntity
 67
     1
  8
3_ALL_AXES
  6
Continuous
 62
     7
100
AcDbSpline
 70
     0
 71
     3
 72
    13
 73
     9
 74
     0
 42
0.000000001
 43
0.0000001
 40
0.0
 40
0.0
 40
0.0
 40
0.0
 40
0.2605585159
 40
0.5146739203
 40
0.6388170411
 40
0.7607036325
 40
0.880832895
 40
1.0
 40
1.0
 40
1.0
 40
1.0
 10
203.5218774888
 20
129.8674111822
 30
0.0
 10
203.6190950854
 20
129.8674111822
 30
0.0
 10
203.8128457118
 20
129.9015650229
 30
0.0
 10
204.0224902038
 20
130.0270845419
 30
0.0
 10
204.1487209234
 20
130.1660191631
 30
0.0
 10
204.2188566904
 20
130.2844390244
 30
0.0
 10
204.2621075992
 20
130.4130977748
 30
0.0
 10
204.2718706786
 20
130.5026793056
 30
0.0
 10
204.2718706786
 20
130.5471420225
 30
0.0
  0
LINE
  5
3C3
330
216
100
AcDbEntity
 67
     1
  8
3_ALL_AXES
  6
Continuous
 62
     7
100
AcDbLine
 10
202.7718774888
 20
157.5213972091
 30
0.0
 11
202.7718774888
 21
147.3713972091
 31
0.0
  0
LINE
  5
3C4
330
216
100
AcDbEntity
 67
     1
  8
3_ALL_AXES
  6
Continuous
 62
     7
100
AcDbLine
 10
202.7718774888
 20
139.3713972091
 30
0.0
 11
202.7718774888
 21
130.5471420225
 31
0.0
  0
SPLINE
  5
3C5
330
216
100
AcDbEntity
 67
     1
  8
3_ALL_AXES
  6
Continuous
 62
     7
100
AcDbSpline
 70
     0
 71
     3
 72
    13
 73
     9
 74
     0
 42
0.000000001
 43
0.0000001
 40
0.0
 40
0.0
 40
0.0
 40
0.0
 40
0.119167105
 40
0.2392963675
 40
0.3611829589
 40
0.4853260797
 40
0.7394414841
 40
1.0
 40
1.0
 40
1.0
 40
1.0
 10
202.7718842991
 20
130.5471420225
 30
0.0
 10
202.7718842991
 20
130.5026793056
 30
0.0
 10
202.7816473785
 20
130.4130977748
 30
0.0
 10
202.8248982873
 20
130.2844390244
 30
0.0
 10
202.8950340542
 20
130.1660191631
 30
0.0
 10
203.0212647739
 20
130.0270845419
 30
0.0
 10
203.2309092659
 20
129.9015650229
 30
0.0
 10
203.4246598923
 20
129.8674111822
 30
0.0
 10
203.5218774888
 20
129.8674111822
 30
0.0
  0
LINE
  5
3C6
330
216
100
AcDbEntity
 67
     1
  8
3_ALL_AXES
  6
Continuous
 62
     7
100
AcDbLine
 10
204.2718774888
 20
157.5213972091
 30
0.0
 11
204.2718774888
 21
147.3713972091
 31
0.0
  0
LINE
  5
3C7
330
216
100
AcDbEntity
 67
     1
  8
3_ALL_AXES
  6
Continuous
 62
     7
100
AcDbLine
 10
204.2718774888
 20
139.3713972091
 30
0.0
 11
204.2718774888
 21
130.5471420225
 31
0.0
  0
ARC
  5
3C8
330
216
100
AcDbEntity
 67
     1
  8
3_ALL_AXES
  6
Continuous
 62
     7
100
AcDbCircle
 10
203.5218774888
 20
157.5213972091
 30
0.0
 40
0.75
100
AcDbArc
 50
90.0
 51
180.0
  0
LINE
  5
3C9
330
216
100
AcDbEntity
 67
     1
  8
7_ALL_FEATURES
  6
Continuous
 62
     7
100
AcDbLine
 10
181.1718774888
 20
144.1213972091
 30
0.0
 11
181.1718774888
 21
137.2228673735
 31
0.0
  0
ARC
  5
3CA
330
216
100
AcDbEntity
 67
     1
  8
7_ALL_FEATURES
  6
Continuous
 62
     7
100
AcDbCircle
 10
180.1718774888
 20
137.2228673735
 30
0.0
 40
1.0
100
AcDbArc
 50
258.9125107890001
 51
360.0
  0
ARC
  5
3CB
330
216
100
AcDbEntity
 67
     1
  8
7_ALL_FEATURES
  6
Continuous
 62
     7
100
AcDbCircle
 10
179.6718774888
 20
134.6713972091
 30
0.0
 40
1.6
100
AcDbArc
 50
78.912510789
 51
266.304170263
  0
LINE
  5
3CC
330
216
100
AcDbEntity
 67
     1
  8
7_ALL_FEATURES
  6
Continuous
 62
     7
100
AcDbLine
 10
181.2718774888
 20
134.6713972091
 30
0.0
 11
181.2718774888
 21
144.1213972091
 31
0.0
  0
ARC
  5
3CD
330
216
100
AcDbEntity
 67
     1
  8
7_ALL_FEATURES
  6
Continuous
 62
     7
100
AcDbCircle
 10
179.6718774888
 20
134.6713972091
 30
0.0
 40
2.9
100
AcDbArc
 50
171.3424261139
 51
360.0
  0
ARC
  5
3CE
330
216
100
AcDbEntity
 67
     1
  8
7_ALL_FEATURES
  6
Continuous
 62
     7
100
AcDbCircle
 10
178.8718774888
 20
138.4884641459
 30
0.0
 40
1.0
100
AcDbArc
 50
281.8370041559
 51
360.0
  0
LINE
  5
3CF
330
216
100
AcDbEntity
 67
     1
  8
7_ALL_FEATURES
  6
Continuous
 62
     7
100
AcDbLine
 10
179.8718774888
 20
138.4884641459
 30
0.0
 11
179.8718774888
 21
144.1213972091
 31
0.0
  0
LINE
  5
3D0
330
216
100
AcDbEntity
 67
     1
  8
7_ALL_FEATURES
  6
Continuous
 62
     7
100
AcDbLine
 10
181.2718774888
 20
148.8713415377
 30
0.0
 11
181.2718774888
 21
145.5214458518
 31
0.0
  0
LINE
  5
3D1
330
216
100
AcDbEntity
 67
     1
  8
7_ALL_FEATURES
  6
Continuous
 62
     7
100
AcDbLine
 10
181.2718774888
 20
145.5214458518
 30
0.0
 11
181.2718774888
 21
144.1213972091
 31
0.0
  0
LINE
  5
3D2
330
216
100
AcDbEntity
 67
     1
  8
7_ALL_FEATURES
  6
Continuous
 62
     7
100
AcDbLine
 10
182.5718774888
 20
148.8713972091
 30
0.0
 11
181.2718774888
 21
148.8713972091
 31
0.0
  0
LINE
  5
3D3
330
216
100
AcDbEntity
 67
     1
  8
7_ALL_FEATURES
  6
Continuous
 62
     7
100
AcDbLine
 10
179.8718774888
 20
148.8713415377
 30
0.0
 11
179.8718774888
 21
146.1822995153
 31
0.0
  0
LINE
  5
3D4
330
216
100
AcDbEntity
 67
     1
  8
7_ALL_FEATURES
  6
Continuous
 62
     7
100
AcDbLine
 10
179.8718774888
 20
146.1822995153
 30
0.0
 11
179.8718774888
 21
146.1713644009
 31
0.0
  0
LINE
  5
3D5
330
216
100
AcDbEntity
 67
     1
  8
7_ALL_FEATURES
  6
Continuous
 62
     7
100
AcDbLine
 10
179.8718774888
 20
146.1713644009
 30
0.0
 11
179.8718774888
 21
145.5214458518
 31
0.0
  0
LINE
  5
3D6
330
216
100
AcDbEntity
 67
     1
  8
7_ALL_FEATURES
  6
Continuous
 62
     7
100
AcDbLine
 10
179.8718774888
 20
145.5214458518
 30
0.0
 11
179.8718774888
 21
144.829324586
 31
0.0
  0
LINE
  5
3D7
330
216
100
AcDbEntity
 67
     1
  8
7_ALL_FEATURES
  6
Continuous
 62
     7
100
AcDbLine
 10
179.8718774888
 20
144.829324586
 30
0.0
 11
179.8718774888
 21
144.8213972091
 31
0.0
  0
LINE
  5
3D8
330
216
100
AcDbEntity
 67
     1
  8
7_ALL_FEATURES
  6
Continuous
 62
     7
100
AcDbLine
 10
179.8718774888
 20
144.8213972091
 30
0.0
 11
179.8718774888
 21
144.1213972091
 31
0.0
  0
LINE
  5
3D9
330
216
100
AcDbEntity
 67
     1
  8
7_ALL_FEATURES
  6
Continuous
 62
     7
100
AcDbLine
 10
181.1718774888
 20
148.8713972091
 30
0.0
 11
179.8718774888
 21
148.8713972091
 31
0.0
  0
LINE
  5
3DA
330
216
100
AcDbEntity
 67
     1
  8
7_ALL_FEATURES
  6
Continuous
 62
     7
100
AcDbLine
 10
181.1718774888
 20
144.1213972091
 30
0.0
 11
181.1718774888
 21
145.5213972091
 31
0.0
  0
LINE
  5
3DB
330
216
100
AcDbEntity
 67
     1
  8
7_ALL_FEATURES
  6
Continuous
 62
     7
100
AcDbLine
 10
181.1718774888
 20
145.5213972091
 30
0.0
 11
181.1718774888
 21
148.8713415377
 31
0.0
  0
ARC
  5
3DC
330
216
100
AcDbEntity
 67
     1
  8
7_ALL_FEATURES
  6
Continuous
 62
     7
100
AcDbCircle
 10
179.6718774888
 20
134.6713972091
 30
0.0
 40
1.6
100
AcDbArc
 50
266.304170263
 51
360.0
  0
ARC
  5
3DD
330
216
100
AcDbEntity
 67
     1
  8
7_ALL_FEATURES
  6
Continuous
 62
     7
100
AcDbCircle
 10
179.6718774888
 20
134.6713972091
 30
0.0
 40
2.9
100
AcDbArc
 50
101.8370041559
 51
171.3424261139
  0
LINE
  5
3DE
330
216
100
AcDbEntity
 67
     1
  8
7_ALL_FEATURES
  6
Continuous
 62
     9
100
AcDbLine
 10
181.1718774888
 20
144.1213972091
 30
0.0
 11
179.8718774888
 21
144.1213972091
 31
0.0
  0
LINE
  5
3DF
330
216
100
AcDbEntity
 67
     1
  8
7_ALL_FEATURES
  6
Continuous
 62
     9
100
AcDbLine
 10
181.6712423942
 20
144.1213972091
 30
0.0
 11
181.2718774888
 21
144.1213972091
 31
0.0
  0
LINE
  5
3E0
330
216
100
AcDbEntity
 67
     1
  8
7_ALL_FEATURES
  6
Continuous
 62
     7
100
AcDbLine
 10
193.5718774888
 20
128.6713972091
 30
0.0
 11
193.5718774888
 21
129.3713972091
 31
0.0
  0
LINE
  5
3E1
330
216
100
AcDbEntity
 67
     1
  8
7_ALL_FEATURES
  6
Continuous
 62
     7
100
AcDbLine
 10
193.5718774888
 20
129.3713972091
 30
0.0
 11
193.5718774888
 21
129.8713972091
 31
0.0
  0
LINE
  5
3E2
330
216
100
AcDbEntity
 67
     1
  8
7_ALL_FEATURES
  6
Continuous
 62
     7
100
AcDbLine
 10
193.5718774888
 20
129.8713972091
 30
0.0
 11
193.5718774888
 21
129.8883409329
 31
0.0
  0
LINE
  5
3E3
330
216
100
AcDbEntity
 67
     1
  8
7_ALL_FEATURES
  6
Continuous
 62
     7
100
AcDbLine
 10
193.5718774888
 20
129.8883409329
 30
0.0
 11
193.5718774888
 21
131.7715005442
 31
0.0
  0
LINE
  5
3E4
330
216
100
AcDbEntity
 67
     1
  8
7_ALL_FEATURES
  6
Continuous
 62
     7
100
AcDbLine
 10
193.5718774888
 20
131.7715005442
 30
0.0
 11
193.5718774888
 21
133.0713972091
 31
0.0
  0
LINE
  5
3E5
330
216
100
AcDbEntity
 67
     1
  8
7_ALL_FEATURES
  6
Continuous
 62
     7
100
AcDbLine
 10
193.5718774888
 20
133.0713972091
 30
0.0
 11
193.5718774888
 21
134.371293874
 31
0.0
  0
LINE
  5
3E6
330
216
100
AcDbEntity
 67
     1
  8
7_ALL_FEATURES
  6
Continuous
 62
     7
100
AcDbLine
 10
193.5718774888
 20
134.371293874
 30
0.0
 11
193.5718774888
 21
139.3713972091
 31
0.0
  0
LINE
  5
3E7
330
216
100
AcDbEntity
 67
     1
  8
7_ALL_FEATURES
  6
Continuous
 62
     7
100
AcDbLine
 10
193.5718774888
 20
147.3713972091
 30
0.0
 11
193.5718774888
 21
152.3715005442
 31
0.0
  0
LINE
  5
3E8
330
216
100
AcDbEntity
 67
     1
  8
7_ALL_FEATURES
  6
Continuous
 62
     7
100
AcDbLine
 10
193.5718774888
 20
152.3715005442
 30
0.0
 11
193.5718774888
 21
153.6713972091
 31
0.0
  0
LINE
  5
3E9
330
216
100
AcDbEntity
 67
     1
  8
7_ALL_FEATURES
  6
Continuous
 62
     7
100
AcDbLine
 10
193.5718774888
 20
153.6713972091
 30
0.0
 11
193.5718774888
 21
154.971293874
 31
0.0
  0
LINE
  5
3EA
330
216
100
AcDbEntity
 67
     1
  8
7_ALL_FEATURES
  6
Continuous
 62
     7
100
AcDbLine
 10
193.5718774888
 20
154.971293874
 30
0.0
 11
193.5718774888
 21
156.8544536321
 31
0.0
  0
LINE
  5
3EB
330
216
100
AcDbEntity
 67
     1
  8
7_ALL_FEATURES
  6
Continuous
 62
     7
100
AcDbLine
 10
193.5718774888
 20
156.8544536321
 30
0.0
 11
193.5718774888
 21
156.8713972091
 31
0.0
  0
LINE
  5
3EC
330
216
100
AcDbEntity
 67
     1
  8
7_ALL_FEATURES
  6
Continuous
 62
     7
100
AcDbLine
 10
193.5718774888
 20
156.8713972091
 30
0.0
 11
193.5718774888
 21
157.3713972091
 31
0.0
  0
LINE
  5
3ED
330
216
100
AcDbEntity
 67
     1
  8
7_ALL_FEATURES
  6
Continuous
 62
     7
100
AcDbLine
 10
193.5718774888
 20
157.3713972091
 30
0.0
 11
193.5718774888
 21
158.0713972091
 31
0.0
  0
LINE
  5
3EE
330
216
100
AcDbEntity
 67
     1
  8
7_ALL_FEATURES
  6
Continuous
 62
     7
100
AcDbLine
 10
191.5718774888
 20
128.6713972091
 30
0.0
 11
191.5718774888
 21
132.0713972091
 31
0.0
  0
LINE
  5
3EF
330
216
100
AcDbEntity
 67
     1
  8
7_ALL_FEATURES
  6
Continuous
 62
     7
100
AcDbLine
 10
191.5718774888
 20
132.0713972091
 30
0.0
 11
191.5718774888
 21
133.0713972091
 31
0.0
  0
LINE
  5
3F0
330
216
100
AcDbEntity
 67
     1
  8
7_ALL_FEATURES
  6
Continuous
 62
     7
100
AcDbLine
 10
191.5718774888
 20
133.0713972091
 30
0.0
 11
191.5718774888
 21
134.0713972091
 31
0.0
  0
LINE
  5
3F1
330
216
100
AcDbEntity
 67
     1
  8
7_ALL_FEATURES
  6
Continuous
 62
     7
100
AcDbLine
 10
191.5718774888
 20
134.0713972091
 30
0.0
 11
191.5718774888
 21
134.3713972091
 31
0.0
  0
LINE
  5
3F2
330
216
100
AcDbEntity
 67
     1
  8
7_ALL_FEATURES
  6
Continuous
 62
     7
100
AcDbLine
 10
191.5718774888
 20
134.3713972091
 30
0.0
 11
191.5718774888
 21
139.3713972091
 31
0.0
  0
LINE
  5
3F3
330
216
100
AcDbEntity
 67
     1
  8
7_ALL_FEATURES
  6
Continuous
 62
     7
100
AcDbLine
 10
191.5718774888
 20
147.3713972091
 30
0.0
 11
191.5718774888
 21
152.3713972091
 31
0.0
  0
LINE
  5
3F4
330
216
100
AcDbEntity
 67
     1
  8
7_ALL_FEATURES
  6
Continuous
 62
     7
100
AcDbLine
 10
191.5718774888
 20
152.3713972091
 30
0.0
 11
191.5718774888
 21
152.6713972091
 31
0.0
  0
LINE
  5
3F5
330
216
100
AcDbEntity
 67
     1
  8
7_ALL_FEATURES
  6
Continuous
 62
     7
100
AcDbLine
 10
191.5718774888
 20
152.6713972091
 30
0.0
 11
191.5718774888
 21
153.6713972091
 31
0.0
  0
LINE
  5
3F6
330
216
100
AcDbEntity
 67
     1
  8
7_ALL_FEATURES
  6
Continuous
 62
     7
100
AcDbLine
 10
191.5718774888
 20
153.6713972091
 30
0.0
 11
191.5718774888
 21
154.6713972091
 31
0.0
  0
LINE
  5
3F7
330
216
100
AcDbEntity
 67
     1
  8
7_ALL_FEATURES
  6
Continuous
 62
     7
100
AcDbLine
 10
191.5718774888
 20
154.6713972091
 30
0.0
 11
191.5718774888
 21
158.0713972091
 31
0.0
  0
LINE
  5
3F8
330
216
100
AcDbEntity
 67
     1
  8
7_ALL_FEATURES
  6
Continuous
 62
     7
100
AcDbLine
 10
182.5718774888
 20
130.1713972091
 30
0.0
 11
182.5718774888
 21
134.6713972091
 31
0.0
  0
LINE
  5
3F9
330
216
100
AcDbEntity
 67
     1
  8
7_ALL_FEATURES
  6
Continuous
 62
     7
100
AcDbLine
 10
182.5718774888
 20
134.6713972091
 30
0.0
 11
182.5718774888
 21
134.7273779955
 31
0.0
  0
LINE
  5
3FA
330
216
100
AcDbEntity
 67
     1
  8
7_ALL_FEATURES
  6
Continuous
 62
     7
100
AcDbLine
 10
182.5718774888
 20
134.7273779955
 30
0.0
 11
182.5718774888
 21
139.3713972091
 31
0.0
  0
LINE
  5
3FB
330
216
100
AcDbEntity
 67
     1
  8
7_ALL_FEATURES
  6
Continuous
 62
     7
100
AcDbLine
 10
194.0718774888
 20
129.3713972091
 30
0.0
 11
193.5718774888
 21
129.3713972091
 31
0.0
  0
LINE
  5
3FC
330
216
100
AcDbEntity
 67
     1
  8
7_ALL_FEATURES
  6
Continuous
 62
     7
100
AcDbLine
 10
194.0718774888
 20
157.3713972091
 30
0.0
 11
193.5718774888
 21
157.3713972091
 31
0.0
  0
LINE
  5
3FD
330
216
100
AcDbEntity
 67
     1
  8
7_ALL_FEATURES
  6
Continuous
 62
     7
100
AcDbLine
 10
193.2718774888
 20
128.3713972091
 30
0.0
 11
191.8718774888
 21
128.3713972091
 31
0.0
  0
LINE
  5
3FE
330
216
100
AcDbEntity
 67
     1
  8
7_ALL_FEATURES
  6
Continuous
 62
     7
100
AcDbLine
 10
193.2718774888
 20
158.3713972091
 30
0.0
 11
191.8718774888
 21
158.3713972091
 31
0.0
  0
LINE
  5
3FF
330
216
100
AcDbEntity
 67
     1
  8
7_ALL_FEATURES
  6
Continuous
 62
     7
100
AcDbLine
 10
182.5718774888
 20
130.1713972091
 30
0.0
 11
182.8718774888
 21
129.8713972091
 31
0.0
  0
LINE
  5
400
330
216
100
AcDbEntity
 67
     1
  8
7_ALL_FEATURES
  6
Continuous
 62
     7
100
AcDbLine
 10
182.5718774888
 20
156.5713972091
 30
0.0
 11
182.8718774888
 21
156.8713972091
 31
0.0
  0
LINE
  5
401
330
216
100
AcDbEntity
 67
     1
  8
7_ALL_FEATURES
  6
Continuous
 62
     7
100
AcDbLine
 10
189.0718774888
 20
147.3713972091
 30
0.0
 11
189.0718774888
 21
152.3327729256
 31
0.0
  0
LINE
  5
402
330
216
100
AcDbEntity
 67
     1
  8
7_ALL_FEATURES
  6
Continuous
 62
     7
100
AcDbLine
 10
189.0718774888
 20
152.3327729256
 30
0.0
 11
189.0718774888
 21
152.3713972091
 31
0.0
  0
LINE
  5
403
330
216
100
AcDbEntity
 67
     1
  8
7_ALL_FEATURES
  6
Continuous
 62
     7
100
AcDbLine
 10
189.0718774888
 20
152.3713972091
 30
0.0
 11
189.0718774888
 21
157.571281524
 31
0.0
  0
LINE
  5
404
330
216
100
AcDbEntity
 67
     1
  8
7_ALL_FEATURES
  6
Continuous
 62
     7
100
AcDbLine
 10
184.5718774888
 20
130.1713972091
 30
0.0
 11
184.5718774888
 21
135.3713972091
 31
0.0
  0
LINE
  5
405
330
216
100
AcDbEntity
 67
     1
  8
7_ALL_FEATURES
  6
Continuous
 62
     7
100
AcDbLine
 10
184.5718774888
 20
135.3713972091
 30
0.0
 11
184.5718774888
 21
139.3713972091
 31
0.0
  0
LINE
  5
406
330
216
100
AcDbEntity
 67
     1
  8
7_ALL_FEATURES
  6
Continuous
 62
     7
100
AcDbLine
 10
187.0718774888
 20
147.3713972091
 30
0.0
 11
187.0718774888
 21
151.3713972091
 31
0.0
  0
LINE
  5
407
330
216
100
AcDbEntity
 67
     1
  8
7_ALL_FEATURES
  6
Continuous
 62
     7
100
AcDbLine
 10
187.0718774888
 20
151.3713972091
 30
0.0
 11
187.0718774888
 21
157.5712815238
 31
0.0
  0
LINE
  5
408
330
216
100
AcDbEntity
 67
     1
  8
7_ALL_FEATURES
  6
Continuous
 62
     7
100
AcDbLine
 10
184.5718774888
 20
130.1713972091
 30
0.0
 11
184.2718774888
 21
129.8713972091
 31
0.0
  0
LINE
  5
409
330
216
100
AcDbEntity
 67
     1
  8
7_ALL_FEATURES
  6
Continuous
 62
     7
100
AcDbLine
 10
184.5718774888
 20
156.5713972091
 30
0.0
 11
184.2718774888
 21
156.8713972091
 31
0.0
  0
LINE
  5
40A
330
216
100
AcDbEntity
 67
     1
  8
7_ALL_FEATURES
  6
Continuous
 62
     7
100
AcDbLine
 10
187.0718774888
 20
129.1715128943
 30
0.0
 11
187.0718774888
 21
135.3713972091
 31
0.0
  0
LINE
  5
40B
330
216
100
AcDbEntity
 67
     1
  8
7_ALL_FEATURES
  6
Continuous
 62
     7
100
AcDbLine
 10
187.0718774888
 20
135.3713972091
 30
0.0
 11
187.0718774888
 21
139.3713972091
 31
0.0
  0
LINE
  5
40C
330
216
100
AcDbEntity
 67
     1
  8
7_ALL_FEATURES
  6
Continuous
 62
     7
100
AcDbLine
 10
187.0718774888
 20
129.1713972091
 30
0.0
 11
187.3718774888
 21
128.8713972091
 31
0.0
  0
LINE
  5
40D
330
216
100
AcDbEntity
 67
     1
  8
7_ALL_FEATURES
  6
Continuous
 62
     7
100
AcDbLine
 10
184.5718774888
 20
147.3713972091
 30
0.0
 11
184.5718774888
 21
151.3713972091
 31
0.0
  0
LINE
  5
40E
330
216
100
AcDbEntity
 67
     1
  8
7_ALL_FEATURES
  6
Continuous
 62
     7
100
AcDbLine
 10
184.5718774888
 20
151.3713972091
 30
0.0
 11
184.5718774888
 21
156.5713972091
 31
0.0
  0
LINE
  5
40F
330
216
100
AcDbEntity
 67
     1
  8
7_ALL_FEATURES
  6
Continuous
 62
     7
100
AcDbLine
 10
187.0718774888
 20
157.5713972091
 30
0.0
 11
187.3718774888
 21
157.8713972091
 31
0.0
  0
LINE
  5
410
330
216
100
AcDbEntity
 67
     1
  8
7_ALL_FEATURES
  6
Continuous
 62
     7
100
AcDbLine
 10
182.5718774888
 20
147.3713972091
 30
0.0
 11
182.5718774888
 21
148.8546884203
 31
0.0
  0
LINE
  5
411
330
216
100
AcDbEntity
 67
     1
  8
7_ALL_FEATURES
  6
Continuous
 62
     7
100
AcDbLine
 10
182.5718774888
 20
148.8546884203
 30
0.0
 11
182.5718774888
 21
148.8713972091
 31
0.0
  0
LINE
  5
412
330
216
100
AcDbEntity
 67
     1
  8
7_ALL_FEATURES
  6
Continuous
 62
     7
100
AcDbLine
 10
182.5718774888
 20
148.8713972091
 30
0.0
 11
182.5718774888
 21
156.5713972091
 31
0.0
  0
LINE
  5
413
330
216
100
AcDbEntity
 67
     1
  8
7_ALL_FEATURES
  6
Continuous
 62
     7
100
AcDbLine
 10
189.0718774888
 20
129.1715128942
 30
0.0
 11
189.0718774888
 21
134.3713972091
 31
0.0
  0
LINE
  5
414
330
216
100
AcDbEntity
 67
     1
  8
7_ALL_FEATURES
  6
Continuous
 62
     7
100
AcDbLine
 10
189.0718774888
 20
134.3713972091
 30
0.0
 11
189.0718774888
 21
134.4100217766
 31
0.0
  0
LINE
  5
415
330
216
100
AcDbEntity
 67
     1
  8
7_ALL_FEATURES
  6
Continuous
 62
     7
100
AcDbLine
 10
189.0718774888
 20
134.4100217766
 30
0.0
 11
189.0718774888
 21
139.3713972091
 31
0.0
  0
LINE
  5
416
330
216
100
AcDbEntity
 67
     1
  8
7_ALL_FEATURES
  6
Continuous
 62
     7
100
AcDbLine
 10
189.0718774888
 20
129.1713972091
 30
0.0
 11
188.7718774888
 21
128.8713972091
 31
0.0
  0
LINE
  5
417
330
216
100
AcDbEntity
 67
     1
  8
7_ALL_FEATURES
  6
Continuous
 62
     7
100
AcDbLine
 10
189.0718774888
 20
157.5713972091
 30
0.0
 11
188.7718774888
 21
157.8713972091
 31
0.0
  0
LINE
  5
418
330
216
100
AcDbEntity
 67
     1
  8
02___PRT_ALL_AXES
  6
Continuous
 62
     7
100
AcDbLine
 10
184.2718774888
 20
129.8713972091
 30
0.0
 11
182.8718774888
 21
129.8713972091
 31
0.0
  0
LINE
  5
419
330
216
100
AcDbEntity
 67
     1
  8
7_ALL_FEATURES
  6
Continuous
 62
     7
100
AcDbLine
 10
193.2718774889
 20
158.371397209
 30
0.0
 11
193.5718774889
 21
158.071397209
 31
0.0
  0
LINE
  5
41A
330
216
100
AcDbEntity
 67
     1
  8
7_ALL_FEATURES
  6
Continuous
 62
     7
100
AcDbLine
 10
193.2718774889
 20
128.3713972091
 30
0.0
 11
193.5718774889
 21
128.6713972091
 31
0.0
  0
LINE
  5
41B
330
216
100
AcDbEntity
 67
     1
  8
7_ALL_FEATURES
  6
Continuous
 62
     7
100
AcDbLine
 10
191.5718774888
 20
158.071397209
 30
0.0
 11
191.8718774888
 21
158.371397209
 31
0.0
  0
LINE
  5
41C
330
216
100
AcDbEntity
 67
     1
  8
7_ALL_FEATURES
  6
Continuous
 62
     7
100
AcDbLine
 10
191.5718774888
 20
128.6713972091
 30
0.0
 11
191.8718774888
 21
128.3713972091
 31
0.0
  0
LINE
  5
41D
330
216
100
AcDbEntity
 67
     1
  8
02___PRT_ALL_AXES
  6
Continuous
 62
     7
100
AcDbLine
 10
188.7718774888
 20
128.8713972091
 30
0.0
 11
187.3718774888
 21
128.8713972091
 31
0.0
  0
LINE
  5
41E
330
216
100
AcDbEntity
 67
     1
  8
02___PRT_ALL_AXES
  6
Continuous
 62
     7
100
AcDbLine
 10
191.5718774888
 20
134.3713972091
 30
0.0
 11
189.0718774888
 21
134.3713972091
 31
0.0
  0
LINE
  5
41F
330
216
100
AcDbEntity
 67
     1
  8
02___PRT_ALL_AXES
  6
Continuous
 62
     7
100
AcDbLine
 10
184.2718774888
 20
156.8713972091
 30
0.0
 11
182.8718774888
 21
156.8713972091
 31
0.0
  0
LINE
  5
420
330
216
100
AcDbEntity
 67
     1
  8
02___PRT_ALL_AXES
  6
Continuous
 62
     7
100
AcDbLine
 10
187.0718774888
 20
151.3713972091
 30
0.0
 11
184.5718774888
 21
151.3713972091
 31
0.0
  0
LINE
  5
421
330
216
100
AcDbEntity
 67
     1
  8
02___PRT_ALL_AXES
  6
Continuous
 62
     7
100
AcDbLine
 10
191.5718774888
 20
152.3713972091
 30
0.0
 11
189.0718774888
 21
152.3713972091
 31
0.0
  0
LINE
  5
422
330
216
100
AcDbEntity
 67
     1
  8
02___PRT_ALL_AXES
  6
Continuous
 62
     7
100
AcDbLine
 10
187.0718774888
 20
135.3713972091
 30
0.0
 11
184.5718774888
 21
135.3713972091
 31
0.0
  0
LINE
  5
423
330
216
100
AcDbEntity
 67
     1
  8
02___PRT_ALL_AXES
  6
Continuous
 62
     7
100
AcDbLine
 10
188.7718774888
 20
157.8713972091
 30
0.0
 11
187.3718774888
 21
157.8713972091
 31
0.0
  0
LINE
  5
424
330
216
100
AcDbEntity
 67
     1
  8
7_ALL_FEATURES
  6
Continuous
 62
     7
100
AcDbLine
 10
182.8718774888
 20
129.8713972091
 30
0.0
 11
182.8718774888
 21
139.3713972091
 31
0.0
  0
LINE
  5
425
330
216
100
AcDbEntity
 67
     1
  8
7_ALL_FEATURES
  6
Continuous
 62
     7
100
AcDbLine
 10
184.2718774888
 20
129.8713972091
 30
0.0
 11
184.2718774888
 21
139.3713972091
 31
0.0
  0
LINE
  5
426
330
216
100
AcDbEntity
 67
     1
  8
7_ALL_FEATURES
  6
Continuous
 62
     7
100
AcDbLine
 10
191.8718774888
 20
128.3713972091
 30
0.0
 11
191.8718774888
 21
139.3713972091
 31
0.0
  0
LINE
  5
427
330
216
100
AcDbEntity
 67
     1
  8
7_ALL_FEATURES
  6
Continuous
 62
     7
100
AcDbLine
 10
191.8718774888
 20
147.3713972091
 30
0.0
 11
191.8718774888
 21
158.3713972091
 31
0.0
  0
LINE
  5
428
330
216
100
AcDbEntity
 67
     1
  8
7_ALL_FEATURES
  6
Continuous
 62
     7
100
AcDbLine
 10
187.3718774888
 20
128.8713972091
 30
0.0
 11
187.3718774888
 21
139.3713972091
 31
0.0
  0
LINE
  5
429
330
216
100
AcDbEntity
 67
     1
  8
7_ALL_FEATURES
  6
Continuous
 62
     7
100
AcDbLine
 10
187.3718774888
 20
147.3713972091
 30
0.0
 11
187.3718774888
 21
157.8713972091
 31
0.0
  0
LINE
  5
42A
330
216
100
AcDbEntity
 67
     1
  8
7_ALL_FEATURES
  6
Continuous
 62
     7
100
AcDbLine
 10
188.7718774888
 20
147.3713972091
 30
0.0
 11
188.7718774888
 21
157.8713972091
 31
0.0
  0
LINE
  5
42B
330
216
100
AcDbEntity
 67
     1
  8
7_ALL_FEATURES
  6
Continuous
 62
     7
100
AcDbLine
 10
182.8718774888
 20
147.3713972091
 30
0.0
 11
182.8718774888
 21
156.8713972091
 31
0.0
  0
LINE
  5
42C
330
216
100
AcDbEntity
 67
     1
  8
7_ALL_FEATURES
  6
Continuous
 62
     7
100
AcDbLine
 10
184.2718774888
 20
147.3713972091
 30
0.0
 11
184.2718774888
 21
156.8713972091
 31
0.0
  0
LINE
  5
42D
330
216
100
AcDbEntity
 67
     1
  8
7_ALL_FEATURES
  6
Continuous
 62
     7
100
AcDbLine
 10
188.7718774888
 20
128.8713972091
 30
0.0
 11
188.7718774888
 21
139.3713972091
 31
0.0
  0
LINE
  5
42E
330
216
100
AcDbEntity
 67
     1
  8
7_ALL_FEATURES
  6
Continuous
 62
     7
100
AcDbLine
 10
193.2718774888
 20
128.3713972091
 30
0.0
 11
193.2718774888
 21
139.3713972091
 31
0.0
  0
LINE
  5
42F
330
216
100
AcDbEntity
 67
     1
  8
7_ALL_FEATURES
  6
Continuous
 62
     7
100
AcDbLine
 10
193.2718774888
 20
147.3713972091
 30
0.0
 11
193.2718774888
 21
158.3713972091
 31
0.0
  0
LINE
  5
430
330
216
100
AcDbEntity
 67
     1
  8
02___PRT_ALL_AXES
  6
Continuous
 62
     7
100
AcDbLine
 10
207.5718774888
 20
143.3713972091
 30
0.0
 11
207.5718774888
 21
158.3713972091
 31
0.0
  0
LINE
  5
431
330
216
100
AcDbEntity
 67
     1
  8
02___PRT_ALL_AXES
  6
Continuous
 62
     7
100
AcDbLine
 10
207.5718774888
 20
158.3713972091
 30
0.0
 11
207.5718774888
 21
162.8713972091
 31
0.0
  0
LINE
  5
432
330
216
100
AcDbEntity
 67
     1
  8
02___PRT_ALL_AXES
  6
Continuous
 62
     7
100
AcDbLine
 10
207.5718774888
 20
143.3713972091
 30
0.0
 11
207.5718774888
 21
128.3713972091
 31
0.0
  0
LINE
  5
433
330
216
100
AcDbEntity
 67
     1
  8
02___PRT_ALL_AXES
  6
Continuous
 62
     7
100
AcDbLine
 10
207.5718774888
 20
128.3713972091
 30
0.0
 11
207.5718774888
 21
123.8713972091
 31
0.0
  0
LINE
  5
434
330
216
100
AcDbEntity
 67
     1
  8
7_ALL_FEATURES
  6
Continuous
 62
     7
100
AcDbLine
 10
202.0218774888
 20
147.3713972091
 30
0.0
 11
202.0218774888
 21
156.6713972091
 31
0.0
  0
LINE
  5
435
330
216
100
AcDbEntity
 67
     1
  8
7_ALL_FEATURES
  6
Continuous
 62
     7
100
AcDbLine
 10
202.0218774888
 20
156.6713972091
 30
0.0
 11
202.0218774888
 21
158.3713972091
 31
0.0
  0
LINE
  5
436
330
216
100
AcDbEntity
 67
     1
  8
7_ALL_FEATURES
  6
Continuous
 62
     7
100
AcDbLine
 10
205.0218774888
 20
147.3713972091
 30
0.0
 11
205.0218774888
 21
156.6713972091
 31
0.0
  0
LINE
  5
437
330
216
100
AcDbEntity
 67
     1
  8
7_ALL_FEATURES
  6
Continuous
 62
     7
100
AcDbLine
 10
205.0218774888
 20
156.6713972091
 30
0.0
 11
205.0218774888
 21
158.3713972091
 31
0.0
  0
LINE
  5
438
330
216
100
AcDbEntity
 67
     1
  8
7_ALL_FEATURES
  6
Continuous
 62
     7
100
AcDbLine
 10
194.0718774888
 20
147.3713972091
 30
0.0
 11
194.0718774888
 21
157.0213972091
 31
0.0
  0
LINE
  5
439
330
216
100
AcDbEntity
 67
     1
  8
7_ALL_FEATURES
  6
Continuous
 62
     7
100
AcDbLine
 10
194.0718774888
 20
157.0213972091
 30
0.0
 11
194.0718774888
 21
157.3713972091
 31
0.0
  0
LINE
  5
43A
330
216
100
AcDbEntity
 67
     1
  8
7_ALL_FEATURES
  6
Continuous
 62
     7
100
AcDbLine
 10
194.0718774888
 20
157.3713972091
 30
0.0
 11
194.0718774888
 21
158.0713960275
 31
0.0
  0
ARC
  5
43B
330
216
100
AcDbEntity
 67
     1
  8
7_ALL_FEATURES
  6
Continuous
 62
     7
100
AcDbCircle
 10
208.5718774888
 20
158.3165110948
 30
0.0
 40
0.5
100
AcDbArc
 50
0.0
 51
12.5288077091
  0
LINE
  5
43C
330
216
100
AcDbEntity
 67
     1
  8
7_ALL_FEATURES
  6
Continuous
 62
     7
100
AcDbLine
 10
209.0718774888
 20
158.3132333843
 30
0.0
 11
209.0718774888
 21
158.3165110948
 31
0.0
  0
LINE
  5
43D
330
216
100
AcDbEntity
 67
     1
  8
7_ALL_FEATURES
  6
Continuous
 62
     7
100
AcDbLine
 10
209.0718774888
 20
143.3713972091
 30
0.0
 11
209.0718774888
 21
157.9810651923
 31
0.0
  0
LINE
  5
43E
330
216
100
AcDbEntity
 67
     1
  8
7_ALL_FEATURES
  6
Continuous
 62
     7
100
AcDbLine
 10
209.0718774888
 20
157.9810651923
 30
0.0
 11
209.0718774888
 21
157.9894300228
 31
0.0
  0
LINE
  5
43F
330
216
100
AcDbEntity
 67
     1
  8
7_ALL_FEATURES
  6
Continuous
 62
     7
100
AcDbLine
 10
209.0718774888
 20
157.9894300228
 30
0.0
 11
209.0718774888
 21
158.303044784
 31
0.0
  0
LINE
  5
440
330
216
100
AcDbEntity
 67
     1
  8
7_ALL_FEATURES
  6
Continuous
 62
     7
100
AcDbLine
 10
209.0718774888
 20
158.303044784
 30
0.0
 11
209.0718774888
 21
158.3165110948
 31
0.0
  0
LINE
  5
441
330
216
100
AcDbEntity
 67
     1
  8
7_ALL_FEATURES
  6
Continuous
 62
     7
100
AcDbLine
 10
209.0718774888
 20
143.3713972091
 30
0.0
 11
209.0718774888
 21
157.9810715847
 31
0.0
  0
LINE
  5
442
330
216
100
AcDbEntity
 67
     1
  8
7_ALL_FEATURES
  6
Continuous
 62
     7
100
AcDbLine
 10
209.0718774888
 20
157.9810715847
 30
0.0
 11
209.0718774888
 21
157.9894311978
 31
0.0
  0
LINE
  5
443
330
216
100
AcDbEntity
 67
     1
  8
7_ALL_FEATURES
  6
Continuous
 62
     7
100
AcDbLine
 10
209.0718774888
 20
157.9894311978
 30
0.0
 11
209.0718774888
 21
158.3132333843
 31
0.0
  0
LINE
  5
444
330
216
100
AcDbEntity
 67
     1
  8
7_ALL_FEATURES
  6
Continuous
 62
     7
100
AcDbLine
 10
209.0718774888
 20
128.4262833234
 30
0.0
 11
209.0718774888
 21
128.7533632203
 31
0.0
  0
LINE
  5
445
330
216
100
AcDbEntity
 67
     1
  8
7_ALL_FEATURES
  6
Continuous
 62
     7
100
AcDbLine
 10
209.0718774888
 20
128.7533632203
 30
0.0
 11
209.0718774888
 21
128.7617292191
 31
0.0
  0
LINE
  5
446
330
216
100
AcDbEntity
 67
     1
  8
7_ALL_FEATURES
  6
Continuous
 62
     7
100
AcDbLine
 10
209.0718774888
 20
128.7617292191
 30
0.0
 11
209.0718774888
 21
143.3713972091
 31
0.0
  0
ARC
  5
447
330
216
100
AcDbEntity
 67
     1
  8
7_ALL_FEATURES
  6
Continuous
 62
     7
100
AcDbCircle
 10
208.5718774888
 20
128.4262833234
 30
0.0
 40
0.5
100
AcDbArc
 50
347.4711922907999
 51
360.0
  0
LINE
  5
448
330
216
100
AcDbEntity
 67
     1
  8
7_ALL_FEATURES
  6
Continuous
 62
     7
100
AcDbLine
 10
209.0718774888
 20
128.4262833234
 30
0.0
 11
209.0718774888
 21
128.7533632203
 31
0.0
  0
LINE
  5
449
330
216
100
AcDbEntity
 67
     1
  8
7_ALL_FEATURES
  6
Continuous
 62
     7
100
AcDbLine
 10
209.0718774888
 20
128.7533632203
 30
0.0
 11
209.0718774888
 21
128.7617228335
 31
0.0
  0
LINE
  5
44A
330
216
100
AcDbEntity
 67
     1
  8
7_ALL_FEATURES
  6
Continuous
 62
     7
100
AcDbLine
 10
209.0718774888
 20
128.7617228335
 30
0.0
 11
209.0718774888
 21
143.3713972091
 31
0.0
  0
LINE
  5
44B
330
216
100
AcDbEntity
 67
     1
  8
7_ALL_FEATURES
  6
Continuous
 62
     7
100
AcDbLine
 10
205.0218774888
 20
130.0713972091
 30
0.0
 11
204.0515173349
 21
130.0713972091
 31
0.0
  0
LINE
  5
44C
330
216
100
AcDbEntity
 67
     1
  8
7_ALL_FEATURES
  6
Continuous
 62
     7
100
AcDbLine
 10
202.9922376428
 20
130.0713972091
 30
0.0
 11
202.0218774888
 21
130.0713972091
 31
0.0
  0
LINE
  5
44D
330
216
100
AcDbEntity
 67
     1
  8
7_ALL_FEATURES
  6
Continuous
 62
     7
100
AcDbLine
 10
205.0218774888
 20
156.6713972091
 30
0.0
 11
204.2718774888
 21
156.6713972091
 31
0.0
  0
LINE
  5
44E
330
216
100
AcDbEntity
 67
     1
  8
7_ALL_FEATURES
  6
Continuous
 62
     7
100
AcDbLine
 10
202.7718774888
 20
156.6713972091
 30
0.0
 11
202.0218774888
 21
156.6713972091
 31
0.0
  0
LINE
  5
44F
330
216
100
AcDbEntity
 67
     1
  8
02___PRT_ALL_AXES
  6
Continuous
 62
     7
100
AcDbLine
 10
209.0599710189
 20
158.4249763237
 30
0.0
 11
208.0718774888
 21
162.8713972091
 31
0.0
  0
LINE
  5
450
330
216
100
AcDbEntity
 67
     1
  8
7_ALL_FEATURES
  6
Continuous
 62
     7
100
AcDbLine
 10
194.0718774888
 20
128.6713983907
 30
0.0
 11
194.0718774888
 21
129.3713972091
 31
0.0
  0
LINE
  5
451
330
216
100
AcDbEntity
 67
     1
  8
7_ALL_FEATURES
  6
Continuous
 62
     7
100
AcDbLine
 10
194.0718774888
 20
129.3713972091
 30
0.0
 11
194.0718774888
 21
129.7213972091
 31
0.0
  0
LINE
  5
452
330
216
100
AcDbEntity
 67
     1
  8
7_ALL_FEATURES
  6
Continuous
 62
     7
100
AcDbLine
 10
194.0718774888
 20
129.7213972091
 30
0.0
 11
194.0718774888
 21
139.3713972091
 31
0.0
  0
LINE
  5
453
330
216
100
AcDbEntity
 67
     1
  8
7_ALL_FEATURES
  6
Continuous
 62
     7
100
AcDbLine
 10
194.0718774888
 20
128.6713972091
 30
0.0
 11
194.3718774888
 21
128.3713972091
 31
0.0
  0
LINE
  5
454
330
216
100
AcDbEntity
 67
     1
  8
02___PRT_ALL_AXES
  6
Continuous
 62
     7
100
AcDbLine
 10
208.0718774888
 20
162.8713972091
 30
0.0
 11
207.5718774888
 21
162.8713972091
 31
0.0
  0
LINE
  5
455
330
216
100
AcDbEntity
 67
     1
  8
7_ALL_FEATURES
  6
Continuous
 62
     7
100
AcDbLine
 10
194.0718774888
 20
158.0713972091
 30
0.0
 11
194.3718774888
 21
158.3713972091
 31
0.0
  0
LINE
  5
456
330
216
100
AcDbEntity
 67
     1
  8
02___PRT_ALL_AXES
  6
Continuous
 62
     7
100
AcDbLine
 10
207.5718774888
 20
158.3713972091
 30
0.0
 11
205.0218774888
 21
158.3713972091
 31
0.0
  0
LINE
  5
457
330
216
100
AcDbEntity
 67
     1
  8
02___PRT_ALL_AXES
  6
Continuous
 62
     7
100
AcDbLine
 10
202.0218774888
 20
158.3713972091
 30
0.0
 11
194.3718774888
 21
158.3713972091
 31
0.0
  0
LINE
  5
458
330
216
100
AcDbEntity
 67
     1
  8
7_ALL_FEATURES
  6
Continuous
 62
     7
100
AcDbLine
 10
202.0218774888
 20
128.3713972091
 30
0.0
 11
202.0218774888
 21
130.0713972091
 31
0.0
  0
LINE
  5
459
330
216
100
AcDbEntity
 67
     1
  8
7_ALL_FEATURES
  6
Continuous
 62
     7
100
AcDbLine
 10
202.0218774888
 20
130.0713972091
 30
0.0
 11
202.0218774888
 21
139.3713972091
 31
0.0
  0
LINE
  5
45A
330
216
100
AcDbEntity
 67
     1
  8
02___PRT_ALL_AXES
  6
Continuous
 62
     7
100
AcDbLine
 10
202.0218774888
 20
128.3713972091
 30
0.0
 11
194.3718774888
 21
128.3713972091
 31
0.0
  0
LINE
  5
45B
330
216
100
AcDbEntity
 67
     1
  8
7_ALL_FEATURES
  6
Continuous
 62
     7
100
AcDbLine
 10
205.0218774888
 20
128.3713972091
 30
0.0
 11
205.0218774888
 21
130.0713972091
 31
0.0
  0
LINE
  5
45C
330
216
100
AcDbEntity
 67
     1
  8
7_ALL_FEATURES
  6
Continuous
 62
     7
100
AcDbLine
 10
205.0218774888
 20
130.0713972091
 30
0.0
 11
205.0218774888
 21
139.3713972091
 31
0.0
  0
LINE
  5
45D
330
216
100
AcDbEntity
 67
     1
  8
02___PRT_ALL_AXES
  6
Continuous
 62
     7
100
AcDbLine
 10
207.5718774888
 20
128.3713972091
 30
0.0
 11
205.0218774888
 21
128.3713972091
 31
0.0
  0
LINE
  5
45E
330
216
100
AcDbEntity
 67
     1
  8
02___PRT_ALL_AXES
  6
Continuous
 62
     7
100
AcDbLine
 10
208.0718774888
 20
123.8713972091
 30
0.0
 11
207.5718774888
 21
123.8713972091
 31
0.0
  0
LINE
  5
45F
330
216
100
AcDbEntity
 67
     1
  8
02___PRT_ALL_AXES
  6
Continuous
 62
     7
100
AcDbLine
 10
209.0599710189
 20
128.3178180945
 30
0.0
 11
208.0718774888
 21
123.8713972091
 31
0.0
  0
LINE
  5
460
330
216
100
AcDbEntity
 67
     1
  8
02___PRT_ALL_AXES
  6
Continuous
 62
     7
100
AcDbLine
 10
208.0718774888
 20
143.3713972091
 30
0.0
 11
208.0718774888
 21
123.8713972091
 31
0.0
  0
LINE
  5
461
330
216
100
AcDbEntity
 67
     1
  8
02___PRT_ALL_AXES
  6
Continuous
 62
     7
100
AcDbLine
 10
208.0718774888
 20
143.3713972091
 30
0.0
 11
208.0718774888
 21
162.8713972091
 31
0.0
  0
LINE
  5
462
330
216
100
AcDbEntity
 67
     1
  8
7_ALL_FEATURES
  6
Continuous
 62
     9
100
AcDbLine
 10
209.0599710189
 20
143.3713972091
 30
0.0
 11
209.0599710189
 21
158.4249763237
 31
0.0
  0
LINE
  5
463
330
216
100
AcDbEntity
 67
     1
  8
7_ALL_FEATURES
  6
Continuous
 62
     7
100
AcDbLine
 10
194.3718774888
 20
147.3713972091
 30
0.0
 11
194.3718774888
 21
158.3713972091
 31
0.0
  0
LINE
  5
464
330
216
100
AcDbEntity
 67
     1
  8
7_ALL_FEATURES
  6
Continuous
 62
     7
100
AcDbLine
 10
194.3718774888
 20
128.3713972091
 30
0.0
 11
194.3718774888
 21
139.3713972091
 31
0.0
  0
LINE
  5
465
330
216
100
AcDbEntity
 67
     1
  8
7_ALL_FEATURES
  6
Continuous
 62
     9
100
AcDbLine
 10
209.0599710189
 20
128.3178180945
 30
0.0
 11
209.0599710189
 21
143.3713972091
 31
0.0
  0
LINE
  5
466
330
216
100
AcDbEntity
 67
     1
  8
7_ALL_FEATURES
  6
Continuous
 62
     3
100
AcDbLine
 10
187.8336779595
 20
139.3713972091
 30
0.0
 11
207.0594419235
 21
139.3713972091
 31
0.0
  0
LINE
  5
467
330
216
100
AcDbEntity
 67
     1
  8
7_ALL_FEATURES
  6
Continuous
 62
     3
100
AcDbLine
 10
207.0594419235
 20
147.3713972091
 30
0.0
 11
187.8336779595
 21
147.3713972091
 31
0.0
  0
LINE
  5
468
330
216
100
AcDbEntity
 67
     1
  8
7_ALL_FEATURES
  6
Continuous
 62
     3
100
AcDbLine
 10
207.4094419235
 20
139.3713972091
 30
0.0
 11
207.0594419235
 21
139.3713972091
 31
0.0
  0
LINE
  5
469
330
216
100
AcDbEntity
 67
     1
  8
7_ALL_FEATURES
  6
Continuous
 62
     3
100
AcDbLine
 10
207.4094419235
 20
147.3713972091
 30
0.0
 11
207.0594419235
 21
147.3713972091
 31
0.0
  0
LINE
  5
46A
330
216
100
AcDbEntity
 67
     1
  8
7_ALL_FEATURES
  6
Continuous
 62
     3
100
AcDbLine
 10
207.4094419235
 20
147.3713972091
 30
0.0
 11
207.4094419235
 21
139.3713972091
 31
0.0
  0
LINE
  5
46B
330
216
100
AcDbEntity
 67
     1
  8
7_ALL_FEATURES
  6
Continuous
 62
     3
100
AcDbLine
 10
187.4836779595
 20
139.3713972091
 30
0.0
 11
187.8336779595
 21
139.3713972091
 31
0.0
  0
LINE
  5
46C
330
216
100
AcDbEntity
 67
     1
  8
7_ALL_FEATURES
  6
Continuous
 62
     3
100
AcDbLine
 10
187.4836779595
 20
147.3713972091
 30
0.0
 11
187.8336779595
 21
147.3713972091
 31
0.0
  0
LINE
  5
46D
330
216
100
AcDbEntity
 67
     1
  8
7_ALL_FEATURES
  6
Continuous
 62
     3
100
AcDbLine
 10
181.6712423942
 20
147.3713972091
 30
0.0
 11
181.6712423942
 21
139.3713972091
 31
0.0
  0
LINE
  5
46E
330
216
100
AcDbEntity
 67
     1
  8
7_ALL_FEATURES
  6
Continuous
 62
     3
100
AcDbLine
 10
181.6712423942
 20
139.3713972091
 30
0.0
 11
187.4836779595
 21
139.3713972091
 31
0.0
  0
LINE
  5
46F
330
216
100
AcDbEntity
 67
     1
  8
7_ALL_FEATURES
  6
Continuous
 62
     3
100
AcDbLine
 10
187.4836779595
 20
147.3713972091
 30
0.0
 11
181.6712423942
 21
147.3713972091
 31
0.0
  0
LINE
  5
470
330
216
100
AcDbEntity
 67
     1
  8
7_ALL_FEATURES
  6
Continuous
 62
     9
100
AcDbLine
 10
187.4836779595
 20
139.3713972091
 30
0.0
 11
187.4836779595
 21
147.3713972091
 31
0.0
  0
LINE
  5
471
330
216
100
AcDbEntity
 67
     1
  8
7_ALL_FEATURES
  6
Continuous
 62
     9
100
AcDbLine
 10
187.8336779595
 20
139.3713972091
 30
0.0
 11
187.8336779595
 21
147.3713972091
 31
0.0
  0
LINE
  5
472
330
216
100
AcDbEntity
 67
     1
  8
7_ALL_FEATURES
  6
Continuous
 62
     9
100
AcDbLine
 10
207.0594419235
 20
147.3713972091
 30
0.0
 11
207.0594419235
 21
139.3713972091
 31
0.0
  0
DIMENSION
  5
473
330
216
100
AcDbEntity
 67
     1
  8
0
  6
Continuous
 62
     2
100
AcDbDimension
280
     0
  2
*D1
 10
75.1777080945
 20
154.8896465983
 30
0.0
 11
67.5967030537
 21
163.2275960164
 31
0.0
 70
   163
  1
%%c<>
 71
     3
 42
39.0
 73
     0
 74
     0
 75
     0
  3
DIMSTYLE_1
100
AcDbDiametricDimension
 15
106.6470538779
 25
131.8531478199
 35
0.0
 40
0.0
  0
DIMENSION
  5
474
330
216
100
AcDbEntity
 67
     1
  8
0
  6
Continuous
 62
     2
100
AcDbDimension
280
     0
  2
*D2
 10
121.7543204581
 20
49.9825973435
 30
0.0
 11
121.7543204581
 21
43.3561841389
 31
0.0
 70
   160
 71
     3
 42
1.5
 73
     0
 74
     0
 75
     0
  3
DIMSTYLE_2
100
AcDbAlignedDimension
 13
110.4123809862
 23
51.4825973435
 33
0.0
 14
110.881188754
 24
49.9825973435
 34
0.0
 50
270.0
100
AcDbRotatedDimension
  0
DIMENSION
  5
475
330
216
100
AcDbEntity
 67
     1
  8
0
  6
Continuous
 62
     2
100
AcDbDimension
280
     0
  2
*D3
 10
55.6884580706
 20
49.9825973435
 30
0.0
 11
55.6884580706
 21
66.1287009385
 31
0.0
 70
   160
 71
     2
 42
32.3
 73
     0
 74
     0
 75
     0
  3
DIMSTYLE_3
100
AcDbAlignedDimension
 13
70.748774757
 23
82.2825973435
 33
0.0
 14
69.9159994698
 24
49.9825973435
 34
0.0
 50
270.0
100
AcDbRotatedDimension
  0
DIMENSION
  5
476
330
216
100
AcDbEntity
 67
     1
  8
0
  6
Continuous
 62
     2
100
AcDbDimension
280
     0
  2
*D4
 10
167.1992365484
 20
128.3713972091
 30
0.0
 11
167.1992365484
 21
143.3713972091
 31
0.0
 70
   160
  1
%%c<>
 71
     2
 42
30.0
 73
     0
 74
     0
 75
     0
  3
DIMSTYLE_4
100
AcDbAlignedDimension
 13
180.2259017446
 23
158.3713972091
 33
0.0
 14
179.9995661327
 24
128.3713972091
 34
0.0
 50
270.0
100
AcDbRotatedDimension
  0
LINE
  5
477
330
216
100
AcDbEntity
 67
     1
  8
0
  6
Continuous
 62
     2
100
AcDbLine
 10
153.688635288
 20
79.3508600793
 30
0.0
 11
283.688635288
 21
79.3508600793
 31
0.0
  0
LINE
  5
478
330
216
100
AcDbEntity
 67
     1
  8
0
  6
Continuous
 62
     2
100
AcDbLine
 10
153.688635288
 20
79.3508600793
 30
0.0
 11
153.688635288
 21
13.3508600793
 31
0.0
  0
LINE
  5
479
330
216
100
AcDbEntity
 67
     1
  8
0
  6
Continuous
 62
     2
100
AcDbLine
 10
183.688635288
 20
71.3508600793
 30
0.0
 11
283.688635288
 21
71.3508600793
 31
0.0
  0
LINE
  5
47A
330
216
100
AcDbEntity
 67
     1
  8
0
  6
Continuous
 62
     2
100
AcDbLine
 10
153.688635288
 20
63.3508600793
 30
0.0
 11
283.688635288
 21
63.3508600793
 31
0.0
  0
LINE
  5
47B
330
216
100
AcDbEntity
 67
     1
  8
0
  6
Continuous
 62
     2
100
AcDbLine
 10
183.688635288
 20
57.3508600793
 30
0.0
 11
283.688635288
 21
57.3508600793
 31
0.0
  0
LINE
  5
47C
330
216
100
AcDbEntity
 67
     1
  8
0
  6
Continuous
 62
     2
100
AcDbLine
 10
183.688635288
 20
51.3508600793
 30
0.0
 11
283.688635288
 21
51.3508600793
 31
0.0
  0
LINE
  5
47D
330
216
100
AcDbEntity
 67
     1
  8
0
  6
Continuous
 62
     2
100
AcDbLine
 10
183.688635288
 20
45.3508600793
 30
0.0
 11
283.688635288
 21
45.3508600793
 31
0.0
  0
LINE
  5
47E
330
216
100
AcDbEntity
 67
     1
  8
0
  6
Continuous
 62
     2
100
AcDbLine
 10
183.688635288
 20
39.3508600793
 30
0.0
 11
283.688635288
 21
39.3508600793
 31
0.0
  0
LINE
  5
47F
330
216
100
AcDbEntity
 67
     1
  8
0
  6
Continuous
 62
     2
100
AcDbLine
 10
183.688635288
 20
33.3508600793
 30
0.0
 11
283.688635288
 21
33.3508600793
 31
0.0
  0
LINE
  5
480
330
216
100
AcDbEntity
 67
     1
  8
0
  6
Continuous
 62
     2
100
AcDbLine
 10
153.688635288
 20
27.3508600793
 30
0.0
 11
283.688635288
 21
27.3508600793
 31
0.0
  0
LINE
  5
481
330
216
100
AcDbEntity
 67
     1
  8
0
  6
Continuous
 62
     2
100
AcDbLine
 10
153.688635288
 20
21.3508600793
 30
0.0
 11
283.688635288
 21
21.3508600793
 31
0.0
  0
LINE
  5
482
330
216
100
AcDbEntity
 67
     1
  8
0
  6
Continuous
 62
     2
100
AcDbLine
 10
153.688635288
 20
17.3508600793
 30
0.0
 11
283.688635288
 21
17.3508600793
 31
0.0
  0
LINE
  5
483
330
216
100
AcDbEntity
 67
     1
  8
0
  6
Continuous
 62
     2
100
AcDbLine
 10
153.688635288
 20
13.3508600793
 30
0.0
 11
283.688635288
 21
13.3508600793
 31
0.0
  0
LINE
  5
484
330
216
100
AcDbEntity
 67
     1
  8
0
  6
Continuous
 62
     2
100
AcDbLine
 10
183.688635288
 20
79.3508600793
 30
0.0
 11
183.688635288
 21
21.3508600793
 31
0.0
  0
LINE
  5
485
330
216
100
AcDbEntity
 67
     1
  8
0
  6
Continuous
 62
     2
100
AcDbLine
 10
203.688635288
 20
63.3508600793
 30
0.0
 11
203.688635288
 21
57.3508600793
 31
0.0
  0
LINE
  5
486
330
216
100
AcDbEntity
 67
     1
  8
0
  6
Continuous
 62
     2
100
AcDbLine
 10
233.688635288
 20
33.3508600793
 30
0.0
 11
233.688635288
 21
21.3508600793
 31
0.0
  0
LINE
  5
487
330
216
100
AcDbEntity
 67
     1
  8
0
  6
Continuous
 62
     2
100
AcDbLine
 10
243.688635288
 20
63.3508600793
 30
0.0
 11
243.688635288
 21
57.3508600793
 31
0.0
  0
LINE
  5
488
330
216
100
AcDbEntity
 67
     1
  8
0
  6
Continuous
 62
     2
100
AcDbLine
 10
243.688635288
 20
51.3508600793
 30
0.0
 11
243.688635288
 21
45.3508600793
 31
0.0
  0
LINE
  5
489
330
216
100
AcDbEntity
 67
     1
  8
0
  6
Continuous
 62
     2
100
AcDbLine
 10
263.688635288
 20
63.3508600793
 30
0.0
 11
263.688635288
 21
57.3508600793
 31
0.0
  0
LINE
  5
48A
330
216
100
AcDbEntity
 67
     1
  8
0
  6
Continuous
 62
     2
100
AcDbLine
 10
273.688635288
 20
51.3508600793
 30
0.0
 11
273.688635288
 21
45.3508600793
 31
0.0
  0
LINE
  5
48B
330
216
100
AcDbEntity
 67
     1
  8
0
  6
Continuous
 62
     2
100
AcDbLine
 10
283.688635288
 20
79.3508600793
 30
0.0
 11
283.688635288
 21
13.3508600793
 31
0.0
  0
INSERT
  5
48C
330
216
100
AcDbEntity
 67
     1
  8
0
  6
Continuous
 62
     2
100
AcDbBlockReference
  2
PROIEZIONE_EU_BL0
 10
168.688635288
 20
70.9758600793
 30
0.0
  0
MTEXT
  5
48D
330
216
100
AcDbEntity
 67
     1
  8
9_SOLID
  6
Continuous
 62
     2
100
AcDbMText
 10
185.176135288
 20
77.7258600793
 30
0.0
 40
1.9
 41
142.3642857143
 46
0.0
 71
     1
 72
     1
  1
EN: Chamfer/radii unlisted 0.3x45°. Remove sharp edges.\PGen. tol.: hole H11, shaft h11, lenght Js12. UNI EN 22768 Medium Grande.
  7
TEXTSTYLE_4
 73
     1
 44
0.9
  0
MTEXT
  5
48E
330
216
100
AcDbEntity
 67
     1
  8
9_SOLID
  6
Continuous
 62
     2
100
AcDbMText
 10
185.176135288
 20
69.7258600793
 30
0.0
 40
1.9
 41
148.2678571429
 46
0.0
 71
     1
 72
     1
  1
IT: Sm./rac. non quotati 0.3x45°. Eliminare spigoli taglienti.\PToll. gen.: foro H11, albero h11, lunghezza Js12. UNI EN 22768 Grado Medio.
  7
TEXTSTYLE_4
 73
     1
 44
0.9
  0
INSERT
  5
48F
330
216
100
AcDbEntity
 67
     1
  8
0
  6
Continuous
 62
     2
100
AcDbBlockReference
  2
LOGO2_BL1
 10
167.5146823328
 20
45.3508600793
 30
0.0
  0
MTEXT
  5
490
330
216
100
AcDbEntity
 67
     1
  8
9_SOLID
  6
Continuous
 62
     2
100
AcDbMText
 10
185.176135288
 20
61.6008600793
 30
0.0
 40
3.0
 41
26.25
 46
0.0
 71
     1
 72
     1
  1
Pj: A022
  7
TEXTSTYLE_4
 73
     1
 44
0.9
  0
MTEXT
  5
491
330
216
100
AcDbEntity
 67
     1
  8
9_SOLID
  6
Continuous
 62
     2
100
AcDbMText
 10
205.176135288
 20
61.6008600793
 30
0.0
 40
3.0
 41
38.0357142857
 46
0.0
 71
     1
 72
     1
  1
% Check: %
  7
TEXTSTYLE_4
 73
     1
 44
0.9
  0
MTEXT
  5
492
330
216
100
AcDbEntity
 67
     1
  8
9_SOLID
  6
Continuous
 62
     2
100
AcDbMText
 10
245.176135288
 20
61.6008600793
 30
0.0
 40
3.0
 41
19.5
 46
0.0
 71
     1
 72
     1
  1
Rev:00
  7
TEXTSTYLE_4
 73
     1
 44
0.9
  0
MTEXT
  5
493
330
216
100
AcDbEntity
 67
     1
  8
9_SOLID
  6
Continuous
 62
     2
100
AcDbMText
 10
265.176135288
 20
61.8508600793
 30
0.0
 40
3.0
 41
19.7142857143
 46
0.0
 71
     1
 72
     1
  1
Ver: A
  7
TEXTSTYLE_4
 73
     1
 44
0.9
  0
MTEXT
  5
494
330
216
100
AcDbEntity
 67
     1
  8
9_SOLID
  6
Continuous
 62
     2
100
AcDbMText
 10
185.176135288
 20
55.6008600793
 30
0.0
 40
3.0
 41
77.8928571429
 46
0.0
 71
     1
 72
     1
  1
Neutral code: A022_C_001
  7
TEXTSTYLE_4
 73
     1
 44
0.9
  0
MTEXT
  5
495
330
216
100
AcDbEntity
 67
     1
  8
9_SOLID
  6
Continuous
 62
     2
100
AcDbMText
 10
185.176135288
 20
49.6008600793
 30
0.0
 40
3.0
 41
54.3214285714
 46
0.0
 71
     1
 72
     1
  1
Code: A022_C_001
  7
TEXTSTYLE_4
 73
     1
 44
0.9
  0
MTEXT
  5
496
330
216
100
AcDbEntity
 67
     1
  8
9_SOLID
  6
Continuous
 62
     2
100
AcDbMText
 10
245.176135288
 20
49.8508600793
 30
0.0
 40
3.0
 41
27.8571428571
 46
0.0
 71
     1
 72
     1
  1
Scale: 1:1
  7
TEXTSTYLE_4
 73
     1
 44
0.9
  0
MTEXT
  5
497
330
216
100
AcDbEntity
 67
     1
  8
9_SOLID
  6
Continuous
 62
     2
100
AcDbMText
 10
278.688635288
 20
49.8508600793
 30
0.0
 40
3.0
 41
8.25
 46
0.0
 71
     2
 72
     1
  1
A4
  7
TEXTSTYLE_4
 73
     1
 44
0.9
  0
MTEXT
  5
498
330
216
100
AcDbEntity
 67
     1
  8
9_SOLID
  6
Continuous
 62
     2
100
AcDbMText
 10
185.176135288
 20
43.8508600793
 30
0.0
 40
3.0
 41
82.3928571429
 46
0.0
 71
     1
 72
     1
  1
It descr.: CAMEO 1.0 - 1.6
  7
TEXTSTYLE_4
 73
     1
 44
0.9
  0
MTEXT
  5
499
330
216
100
AcDbEntity
 67
     1
  8
9_SOLID
  6
Continuous
 62
     2
100
AcDbMText
 10
185.176135288
 20
37.8508600793
 30
0.0
 40
3.0
 41
33.9642857143
 46
0.0
 71
     1
 72
     1
  1
En descr.: 
  7
TEXTSTYLE_4
 73
     1
 44
0.9
  0
MTEXT
  5
49A
330
216
100
AcDbEntity
 67
     1
  8
9_SOLID
  6
Continuous
 62
     2
100
AcDbMText
 10
185.176135288
 20
31.8508600793
 30
0.0
 40
3.0
 41
31.6071428571
 46
0.0
 71
     1
 72
     1
  1
Des.: A.G.
  7
TEXTSTYLE_4
 73
     1
 44
0.9
  0
MTEXT
  5
49B
330
216
100
AcDbEntity
 67
     1
  8
9_SOLID
  6
Continuous
 62
     2
100
AcDbMText
 10
235.176135288
 20
31.8508600793
 30
0.0
 40
3.0
 41
34.8214285714
 46
0.0
 71
     1
 72
     1
  1
Check: A.P.
  7
TEXTSTYLE_4
 73
     1
 44
0.9
  0
MTEXT
  5
49C
330
216
100
AcDbEntity
 67
     1
  8
9_SOLID
  6
Continuous
 62
     2
100
AcDbMText
 10
155.176135288
 20
25.8508600793
 30
0.0
 40
3.0
 41
43.1785714286
 46
0.0
 71
     1
 72
     1
  1
Date: 16.05.19
  7
TEXTSTYLE_4
 73
     1
 44
0.9
  0
MTEXT
  5
49D
330
216
100
AcDbEntity
 67
     1
  8
9_SOLID
  6
Continuous
 62
     2
100
AcDbMText
 10
185.176135288
 20
25.8508600793
 30
0.0
 40
3.0
 41
18.2142857143
 46
0.0
 71
     1
 72
     1
  1
Mat.: 
  7
TEXTSTYLE_4
 73
     1
 44
0.9
  0
MTEXT
  5
49E
330
216
100
AcDbEntity
 67
     1
  8
9_SOLID
  6
Continuous
 62
     2
100
AcDbMText
 10
235.176135288
 20
25.3508600793
 30
0.0
 40
2.0
 41
42.3571428571
 46
0.0
 71
     1
 72
     1
  1
Disegno per catalogo
  7
TEXTSTYLE_4
 73
     1
 44
0.9
  0
MTEXT
  5
49F
330
216
100
AcDbEntity
 67
     1
  8
9_SOLID
  6
Continuous
 62
     2
100
AcDbMText
 10
155.176135288
 20
20.2508600793
 30
0.0
 40
1.8
 41
176.2071428571
 46
0.0
 71
     1
 72
     1
  1
It: A norma di legge si diffida da qualsiasi riproduzione senza nostra autorizzazione esplicita.
  7
TEXTSTYLE_4
 73
     1
 44
0.9
  0
MTEXT
  5
4A0
330
216
100
AcDbEntity
 67
     1
  8
9_SOLID
  6
Continuous
 62
     2
100
AcDbMText
 10
155.176135288
 20
16.2508600793
 30
0.0
 40
1.8
 41
158.1428571429
 46
0.0
 71
     1
 72
     1
  1
En: According to the law, beware of any reproduction made without our authorization.
  7
TEXTSTYLE_4
 73
     1
 44
0.9
  0
ENDSEC
  0
SECTION
  2
OBJECTS
  0
DICTIONARY
  5
C
330
0
100
AcDbDictionary
281
     1
  3
ACAD_DETAILVIEWSTYLE
350
4EF
  3
ACAD_GROUP
350
D
  3
ACAD_LAYOUT
350
1A
  3
ACAD_MATERIAL
350
4DE
  3
ACAD_MLEADERSTYLE
350
4E4
  3
ACAD_MLINESTYLE
350
17
  3
ACAD_PLOTSETTINGS
350
19
  3
ACAD_PLOTSTYLENAME
350
E
  3
ACAD_SCALELIST
350
4A3
  3
ACAD_SECTIONVIEWSTYLE
350
4F0
  3
ACAD_TABLESTYLE
350
4E2
  3
ACAD_VISUALSTYLE
350
4C5
  3
ACDB_RECOMPOSE_DATA
350
4EB
  3
AcDbVariableDictionary
350
4E7
  3
APPDATA
350
4E6
  0
DICTIONARY
  5
4EF
102
{ACAD_REACTORS
330
C
102
}
330
C
100
AcDbDictionary
281
     1
  0
DICTIONARY
  5
D
102
{ACAD_REACTORS
330
C
102
}
330
C
100
AcDbDictionary
281
     1
  0
DICTIONARY
  5
1A
102
{ACAD_REACTORS
330
C
102
}
330
C
100
AcDbDictionary
281
     1
  3
168706_1
350
4A2
  3
Model
350
4A1
  0
DICTIONARY
  5
4DE
102
{ACAD_REACTORS
330
C
102
}
330
C
100
AcDbDictionary
281
     1
  3
ByBlock
350
4E0
  3
ByLayer
350
4DF
  3
Global
350
4E1
  0
DICTIONARY
  5
4E4
102
{ACAD_REACTORS
330
C
102
}
330
C
100
AcDbDictionary
281
     1
  3
Standard
350
4E5
  0
DICTIONARY
  5
17
102
{ACAD_REACTORS
330
C
102
}
330
C
100
AcDbDictionary
281
     1
  3
Standard
350
18
  0
DICTIONARY
  5
19
102
{ACAD_REACTORS
330
C
102
}
330
C
100
AcDbDictionary
281
     1
  0
ACDBDICTIONARYWDFLT
  5
E
102
{ACAD_REACTORS
330
C
102
}
330
C
100
AcDbDictionary
281
     1
  3
Normal
350
F
100
AcDbDictionaryWithDefault
340
F
  0
DICTIONARY
  5
4A3
102
{ACAD_REACTORS
330
C
102
}
330
C
100
AcDbDictionary
281
     1
  3
A0
350
4A4
  3
A1
350
4A5
  3
A2
350
4A6
  3
A3
350
4A7
  3
A4
350
4A8
  3
A5
350
4A9
  3
A6
350
4AA
  3
A7
350
4AB
  3
A8
350
4AC
  3
A9
350
4AD
  3
B0
350
4AE
  3
B1
350
4AF
  3
B2
350
4B0
  3
B3
350
4B1
  3
B4
350
4B2
  3
B5
350
4B3
  3
B6
350
4B4
  3
B7
350
4B5
  3
B8
350
4B6
  3
B9
350
4B7
  3
C0
350
4B8
  3
C1
350
4B9
  3
C2
350
4BA
  3
C3
350
4BB
  3
C4
350
4BC
  3
C5
350
4BD
  3
C6
350
4BE
  3
C7
350
4BF
  3
C8
350
4C0
  3
C9
350
4C1
  3
D0
350
4C2
  3
D1
350
4C3
  3
D2
350
4C4
  0
DICTIONARY
  5
4F0
102
{ACAD_REACTORS
330
C
102
}
330
C
100
AcDbDictionary
281
     1
  0
DICTIONARY
  5
4E2
102
{ACAD_REACTORS
330
C
102
}
330
C
100
AcDbDictionary
281
     1
  3
Standard
350
4E3
  0
DICTIONARY
  5
4C5
102
{ACAD_REACTORS
330
C
102
}
330
C
100
AcDbDictionary
281
     1
  3
2dWireframe
350
4CA
  3
Basic
350
4CD
  3
Brighten
350
4D1
  3
ColorChange
350
4D5
  3
Conceptual
350
4CF
  3
Dim
350
4D0
  3
EdgeColorOff
350
4D8
  3
Facepattern
350
4D4
  3
Flat
350
4C6
  3
FlatWithEdges
350
4C7
  3
Gouraud
350
4C8
  3
GouraudWithEdges
350
4C9
  3
Hidden
350
4CC
  3
JitterOff
350
4D6
  3
Linepattern
350
4D3
  3
OverhangOff
350
4D7
  3
Realistic
350
4CE
  3
Shaded
350
4DD
  3
Shaded with edges
350
4DC
  3
Shades of Gray
350
4D9
  3
Sketchy
350
4DA
  3
Thicken
350
4D2
  3
Wireframe
350
4CB
  3
X-Ray
350
4DB
  0
XRECORD
  5
4EB
102
{ACAD_REACTORS
330
C
102
}
330
C
100
AcDbXrecord
280
     1
 90
        1
330
4E3
  0
DICTIONARY
  5
4E7
102
{ACAD_REACTORS
330
C
102
}
330
C
100
AcDbDictionary
281
     1
  3
CANNOSCALE
350
4E8
  3
CMLEADERSTYLE
350
4ED
  3
CTABLESTYLE
350
4EC
  3
MSLTSCALE
350
4EE
  0
DICTIONARY
  5
4E6
102
{ACAD_REACTORS
330
C
102
}
330
C
100
AcDbDictionary
281
     1
  0
LAYOUT
  5
4A2
102
{ACAD_REACTORS
330
1A
102
}
330
1A
100
AcDbPlotSettings
  1

  2
none_device
  4
ISO_A4_(297.00_x_210.00_MM)
  6

 40
0.0
 41
0.0
 42
0.0
 43
0.0
 44
297.0
 45
210.0
 46
0.0
 47
0.0
 48
0.0
 49
0.0
140
0.0
141
0.0
142
1.0
143
1.0
 70
     0
 72
     1
 73
     0
 74
     0
  7

 75
     0
 76
     0
 77
     2
 78
   300
147
1.0
148
0.0
149
0.0
100
AcDbLayout
  1
168706_1
 70
     0
 71
     1
 10
0.0
 20
0.0
 11
297.0
 21
210.0
 12
0.0
 22
0.0
 32
0.0
 14
9.949999999999989
 24
9.950000000000003
 34
0.0
 15
291.2278019546666
 25
200.05
 35
0.0
146
0.0
 13
0.0
 23
0.0
 33
0.0
 16
1.0
 26
0.0
 36
0.0
 17
0.0
 27
1.0
 37
0.0
 76
     0
330
216
331
29D
  0
LAYOUT
  5
4A1
102
{ACAD_REACTORS
330
1A
102
}
330
1A
100
AcDbPlotSettings
  1

  2
none_device
  4

  6

 40
0.0
 41
0.0
 42
0.0
 43
0.0
 44
297.0
 45
210.0
 46
0.0
 47
0.0
 48
0.0
 49
0.0
140
0.0
141
0.0
142
1.0
143
1.0
 70
  1024
 72
     1
 73
     0
 74
     0
  7

 75
     0
 76
     0
 77
     2
 78
   300
147
1.0
148
0.0
149
0.0
100
AcDbLayout
  1
Model
 70
     0
 71
     0
 10
0.0
 20
0.0
 11
297.0
 21
210.0
 12
0.0
 22
0.0
 32
0.0
 14
0.0
 24
0.0
 34
0.0
 15
0.0
 25
0.0
 35
0.0
146
0.0
 13
0.0
 23
0.0
 33
0.0
 16
1.0
 26
0.0
 36
0.0
 17
0.0
 27
1.0
 37
0.0
 76
     0
330
215
331
1F4
  0
MATERIAL
  5
4E0
102
{ACAD_REACTORS
330
4DE
102
}
330
4DE
100
AcDbMaterial
  1
ByBlock
 72
     1
 94
      127
  0
MATERIAL
  5
4DF
102
{ACAD_REACTORS
330
4DE
102
}
330
4DE
100
AcDbMaterial
  1
ByLayer
 72
     1
 94
      127
  0
MATERIAL
  5
4E1
102
{ACAD_REACTORS
330
4DE
102
}
330
4DE
100
AcDbMaterial
  1
Global
 72
     1
 94
      127
  0
MLEADERSTYLE
  5
4E5
102
{ACAD_REACTORS
330
4E4
102
}
330
4E4
100
AcDbMLeaderStyle
179
     2
170
     2
171
     1
172
     0
 90
        2
 40
0.0
 41
0.0
173
     1
 91
-1056964608
340
14
 92
       -2
290
     1
 42
2.0
291
     1
 43
8.0
  3
Standard
341
0
 44
4.0
300

342
11
174
     1
178
     1
175
     1
176
     0
 93
-1056964608
 45
4.0
292
     0
297
     0
 46
4.0
343
0
 94
-1056964608
 47
1.0
 49
1.0
140
1.0
293
     1
141
0.0
294
     1
177
     0
142
1.0
295
     0
296
     0
143
3.75
271
     0
272
     9
273
     9
298
     0
  0
MLINESTYLE
  5
18
102
{ACAD_REACTORS
330
17
102
}
330
17
100
AcDbMlineStyle
  2
STANDARD
 70
     0
  3

 62
   256
 51
90.0
 52
90.0
 71
     2
 49
0.5
 62
   256
  6
BYLAYER
 49
-0.5
 62
   256
  6
BYLAYER
  0
ACDBPLACEHOLDER
  5
F
102
{ACAD_REACTORS
330
E
102
}
330
E
  0
SCALE
  5
4A4
102
{ACAD_REACTORS
330
4A3
102
}
330
4A3
100
AcDbScale
 70
     0
300
1:1
140
1.0
141
1.0
290
     1
  0
SCALE
  5
4A5
102
{ACAD_REACTORS
330
4A3
102
}
330
4A3
100
AcDbScale
 70
     0
300
1:2
140
1.0
141
2.0
290
     0
  0
SCALE
  5
4A6
102
{ACAD_REACTORS
330
4A3
102
}
330
4A3
100
AcDbScale
 70
     0
300
1:4
140
1.0
141
4.0
290
     0
  0
SCALE
  5
4A7
102
{ACAD_REACTORS
330
4A3
102
}
330
4A3
100
AcDbScale
 70
     0
300
1:5
140
1.0
141
5.0
290
     0
  0
SCALE
  5
4A8
102
{ACAD_REACTORS
330
4A3
102
}
330
4A3
100
AcDbScale
 70
     0
300
1:8
140
1.0
141
8.0
290
     0
  0
SCALE
  5
4A9
102
{ACAD_REACTORS
330
4A3
102
}
330
4A3
100
AcDbScale
 70
     0
300
1:10
140
1.0
141
10.0
290
     0
  0
SCALE
  5
4AA
102
{ACAD_REACTORS
330
4A3
102
}
330
4A3
100
AcDbScale
 70
     0
300
1:16
140
1.0
141
16.0
290
     0
  0
SCALE
  5
4AB
102
{ACAD_REACTORS
330
4A3
102
}
330
4A3
100
AcDbScale
 70
     0
300
1:20
140
1.0
141
20.0
290
     0
  0
SCALE
  5
4AC
102
{ACAD_REACTORS
330
4A3
102
}
330
4A3
100
AcDbScale
 70
     0
300
1:30
140
1.0
141
30.0
290
     0
  0
SCALE
  5
4AD
102
{ACAD_REACTORS
330
4A3
102
}
330
4A3
100
AcDbScale
 70
     0
300
1:40
140
1.0
141
40.0
290
     0
  0
SCALE
  5
4AE
102
{ACAD_REACTORS
330
4A3
102
}
330
4A3
100
AcDbScale
 70
     0
300
1:50
140
1.0
141
50.0
290
     0
  0
SCALE
  5
4AF
102
{ACAD_REACTORS
330
4A3
102
}
330
4A3
100
AcDbScale
 70
     0
300
1:100
140
1.0
141
100.0
290
     0
  0
SCALE
  5
4B0
102
{ACAD_REACTORS
330
4A3
102
}
330
4A3
100
AcDbScale
 70
     0
300
2:1
140
2.0
141
1.0
290
     0
  0
SCALE
  5
4B1
102
{ACAD_REACTORS
330
4A3
102
}
330
4A3
100
AcDbScale
 70
     0
300
4:1
140
4.0
141
1.0
290
     0
  0
SCALE
  5
4B2
102
{ACAD_REACTORS
330
4A3
102
}
330
4A3
100
AcDbScale
 70
     0
300
8:1
140
8.0
141
1.0
290
     0
  0
SCALE
  5
4B3
102
{ACAD_REACTORS
330
4A3
102
}
330
4A3
100
AcDbScale
 70
     0
300
10:1
140
10.0
141
1.0
290
     0
  0
SCALE
  5
4B4
102
{ACAD_REACTORS
330
4A3
102
}
330
4A3
100
AcDbScale
 70
     0
300
100:1
140
100.0
141
1.0
290
     0
  0
SCALE
  5
4B5
102
{ACAD_REACTORS
330
4A3
102
}
330
4A3
100
AcDbScale
 70
     0
300
1/128" = 1'-0"
140
0.0078125
141
12.0
290
     0
  0
SCALE
  5
4B6
102
{ACAD_REACTORS
330
4A3
102
}
330
4A3
100
AcDbScale
 70
     0
300
1/64" = 1'-0"
140
0.015625
141
12.0
290
     0
  0
SCALE
  5
4B7
102
{ACAD_REACTORS
330
4A3
102
}
330
4A3
100
AcDbScale
 70
     0
300
1/32" = 1'-0"
140
0.03125
141
12.0
290
     0
  0
SCALE
  5
4B8
102
{ACAD_REACTORS
330
4A3
102
}
330
4A3
100
AcDbScale
 70
     0
300
1/16" = 1'-0"
140
0.0625
141
12.0
290
     0
  0
SCALE
  5
4B9
102
{ACAD_REACTORS
330
4A3
102
}
330
4A3
100
AcDbScale
 70
     0
300
3/32" = 1'-0"
140
0.09375
141
12.0
290
     0
  0
SCALE
  5
4BA
102
{ACAD_REACTORS
330
4A3
102
}
330
4A3
100
AcDbScale
 70
     0
300
1/8" = 1'-0"
140
0.125
141
12.0
290
     0
  0
SCALE
  5
4BB
102
{ACAD_REACTORS
330
4A3
102
}
330
4A3
100
AcDbScale
 70
     0
300
3/16" = 1'-0"
140
0.1875
141
12.0
290
     0
  0
SCALE
  5
4BC
102
{ACAD_REACTORS
330
4A3
102
}
330
4A3
100
AcDbScale
 70
     0
300
1/4" = 1'-0"
140
0.25
141
12.0
290
     0
  0
SCALE
  5
4BD
102
{ACAD_REACTORS
330
4A3
102
}
330
4A3
100
AcDbScale
 70
     0
300
3/8" = 1'-0"
140
0.375
141
12.0
290
     0
  0
SCALE
  5
4BE
102
{ACAD_REACTORS
330
4A3
102
}
330
4A3
100
AcDbScale
 70
     0
300
1/2" = 1'-0"
140
0.5
141
12.0
290
     0
  0
SCALE
  5
4BF
102
{ACAD_REACTORS
330
4A3
102
}
330
4A3
100
AcDbScale
 70
     0
300
3/4" = 1'-0"
140
0.75
141
12.0
290
     0
  0
SCALE
  5
4C0
102
{ACAD_REACTORS
330
4A3
102
}
330
4A3
100
AcDbScale
 70
     0
300
1" = 1'-0"
140
1.0
141
12.0
290
     0
  0
SCALE
  5
4C1
102
{ACAD_REACTORS
330
4A3
102
}
330
4A3
100
AcDbScale
 70
     0
300
1-1/2" = 1'-0"
140
1.5
141
12.0
290
     0
  0
SCALE
  5
4C2
102
{ACAD_REACTORS
330
4A3
102
}
330
4A3
100
AcDbScale
 70
     0
300
3" = 1'-0"
140
3.0
141
12.0
290
     0
  0
SCALE
  5
4C3
102
{ACAD_REACTORS
330
4A3
102
}
330
4A3
100
AcDbScale
 70
     0
300
6" = 1'-0"
140
6.0
141
12.0
290
     0
  0
SCALE
  5
4C4
102
{ACAD_REACTORS
330
4A3
102
}
330
4A3
100
AcDbScale
 70
     0
300
1'-0" = 1'-0"
140
12.0
141
12.0
290
     0
  0
TABLESTYLE
  5
4E3
102
{ACAD_REACTORS
330
4E2
102
}
102
{ACAD_XDICTIONARY
360
4E9
102
}
330
4E2
100
AcDbTableStyle
  3
Standard
 70
     0
 71
     0
 40
0.06
 41
0.06
280
     0
281
     0
  7
STANDARD
140
4.5
170
     2
 62
     0
 63
   257
283
     0
 90
        4
 91
        0
  1

274
    -2
284
     1
 64
     0
275
    -2
285
     1
 65
     0
276
    -2
286
     1
 66
     0
277
    -2
287
     1
 67
     0
278
    -2
288
     1
 68
     0
279
    -2
289
     1
 69
     0
  7
STANDARD
140
6.0
170
     5
 62
     0
 63
   257
283
     0
 90
        4
 91
        0
  1

274
    -2
284
     1
 64
     0
275
    -2
285
     1
 65
     0
276
    -2
286
     1
 66
     0
277
    -2
287
     1
 67
     0
278
    -2
288
     1
 68
     0
279
    -2
289
     1
 69
     0
  7
STANDARD
140
4.5
170
     5
 62
     0
 63
   257
283
     0
 90
        4
 91
        0
  1

274
    -2
284
     1
 64
     0
275
    -2
285
     1
 65
     0
276
    -2
286
     1
 66
     0
277
    -2
287
     1
 67
     0
278
    -2
288
     1
 68
     0
279
    -2
289
     1
 69
     0
  0
VISUALSTYLE
  5
4CA
102
{ACAD_REACTORS
330
4C5
102
}
330
4C5
100
AcDbVisualStyle
  2
2dWireframe
 70
     4
177
     3
291
     0
 70
    58
 90
        0
176
     1
 90
        2
176
     1
 90
        0
176
     1
 90
        0
176
     1
 40
0.6
176
     1
 40
30.0
176
     1
 62
     7
420
 16777215
176
     1
 90
        1
176
     1
 90
        4
176
     1
 62
     7
176
     1
 62
   257
176
     1
 90
        1
176
     1
 90
        1
176
     1
 40
1.0
176
     1
 90
        0
176
     1
 62
   257
176
     1
 40
1.0
176
     1
 90
        1
176
     1
 90
        6
176
     1
 90
        2
176
     1
 62
     7
176
     1
 90
        5
176
     1
 90
        0
176
     1
 90
        0
176
     1
290
     0
176
     1
 90
        1
176
     1
 40
0.0
176
     1
 90
        0
176
     1
290
     1
176
     1
290
     1
176
     1
290
     0
176
     1
290
     0
176
     1
290
     0
176
     1
290
     0
176
     1
290
     0
176
     1
290
     0
176
     1
290
     0
176
     1
 90
       50
176
     1
 40
0.0
176
     1
 40
1.0
176
     1
 90
        0
176
     1
 62
    18
420
        0
176
     1
 90
       50
176
     1
 90
        3
176
     1
 62
     5
420
      255
176
     1
290
     0
176
     1
 90
       50
176
     1
 90
       50
176
     1
 90
       50
176
     1
290
     0
176
     1
 90
       50
176
     1
 62
   256
176
     0
 40
1.0
176
     0
 90
        2
176
     1
  1
strokes_ogs.tif
176
     1
290
     0
176
     1
 40
1.0
176
     1
 40
1.0
176
     1
  0
VISUALSTYLE
  5
4CD
102
{ACAD_REACTORS
330
4C5
102
}
330
4C5
100
AcDbVisualStyle
  2
Basic
 70
     7
177
     3
291
     1
 70
    58
 90
        1
176
     1
 90
        0
176
     1
 90
        1
176
     1
 90
        0
176
     1
 40
0.6
176
     1
 40
30.0
176
     1
 62
     7
420
 16777215
176
     1
 90
        0
176
     1
 90
        4
176
     1
 62
     7
176
     1
 62
   257
176
     1
 90
        1
176
     1
 90
        1
176
     1
 40
1.0
176
     1
 90
        8
176
     1
 62
     7
176
     1
 40
1.0
176
     1
 90
        1
176
     1
 90
        6
176
     1
 90
        2
176
     1
 62
     7
176
     1
 90
        5
176
     1
 90
        0
176
     1
 90
        0
176
     1
290
     0
176
     1
 90
        1
176
     1
 40
0.0
176
     1
 90
        0
176
     1
290
     0
176
     1
290
     1
176
     1
290
     1
176
     1
290
     0
176
     1
290
     0
176
     1
290
     0
176
     1
290
     0
176
     1
290
     0
176
     1
290
     0
176
     1
 90
       50
176
     1
 40
0.0
176
     1
 40
1.0
176
     1
 90
        0
176
     1
 62
    18
420
        0
176
     1
 90
       50
176
     1
 90
        3
176
     1
 62
     5
420
      255
176
     1
290
     0
176
     1
 90
       50
176
     1
 90
       50
176
     1
 90
       50
176
     1
290
     0
176
     1
 90
       50
176
     1
 62
   256
176
     0
 40
1.0
176
     0
 90
        2
176
     1
  1
strokes_ogs.tif
176
     1
290
     0
176
     1
 40
1.0
176
     1
 40
1.0
176
     1
  0
VISUALSTYLE
  5
4D1
102
{ACAD_REACTORS
330
4C5
102
}
330
4C5
100
AcDbVisualStyle
  2
Brighten
 70
    12
177
     3
291
     1
 70
    58
 90
        2
176
     1
 90
        2
176
     1
 90
        0
176
     1
 90
        0
176
     1
 40
0.6
176
     1
 40
30.0
176
     1
 62
     7
420
 16777215
176
     1
 90
        1
176
     1
 90
        4
176
     1
 62
     7
176
     1
 62
   257
176
     1
 90
        1
176
     1
 90
        1
176
     1
 40
1.0
176
     1
 90
        8
176
     1
 62
     7
176
     1
 40
1.0
176
     1
 90
        1
176
     1
 90
        6
176
     1
 90
        2
176
     1
 62
     7
176
     1
 90
        5
176
     1
 90
        0
176
     1
 90
        0
176
     1
290
     0
176
     1
 90
        1
176
     1
 40
50.0
176
     1
 90
        0
176
     1
290
     0
176
     1
290
     1
176
     1
290
     1
176
     1
290
     0
176
     1
290
     0
176
     1
290
     0
176
     1
290
     0
176
     1
290
     0
176
     1
290
     0
176
     1
 90
       50
176
     1
 40
0.0
176
     1
 40
1.0
176
     1
 90
        0
176
     1
 62
    18
420
        0
176
     1
 90
       50
176
     1
 90
        3
176
     1
 62
     5
420
      255
176
     1
290
     0
176
     1
 90
       50
176
     1
 90
       50
176
     1
 90
       50
176
     1
290
     0
176
     1
 90
       50
176
     1
 62
   256
176
     0
 40
1.0
176
     0
 90
        2
176
     1
  1
strokes_ogs.tif
176
     1
290
     0
176
     1
 40
1.0
176
     1
 40
1.0
176
     1
  0
VISUALSTYLE
  5
4D5
102
{ACAD_REACTORS
330
4C5
102
}
330
4C5
100
AcDbVisualStyle
  2
ColorChange
 70
    16
177
     3
291
     1
 70
    58
 90
        2
176
     1
 90
        2
176
     1
 90
        3
176
     1
 90
        0
176
     1
 40
0.6
176
     1
 40
30.0
176
     1
 62
     8
420
  8421504
176
     1
 90
        1
176
     1
 90
        4
176
     1
 62
     7
176
     1
 62
   257
176
     1
 90
        1
176
     1
 90
        1
176
     1
 40
1.0
176
     1
 90
        8
176
     1
 62
     8
420
  8421504
176
     1
 40
1.0
176
     1
 90
        1
176
     1
 90
        6
176
     1
 90
        2
176
     1
 62
     7
176
     1
 90
        5
176
     1
 90
        0
176
     1
 90
        0
176
     1
290
     0
176
     1
 90
        1
176
     1
 40
0.0
176
     1
 90
        0
176
     1
290
     0
176
     1
290
     1
176
     1
290
     1
176
     1
290
     0
176
     1
290
     0
176
     1
290
     0
176
     1
290
     0
176
     1
290
     0
176
     1
290
     0
176
     1
 90
       50
176
     1
 40
0.0
176
     1
 40
1.0
176
     1
 90
        0
176
     1
 62
    18
420
        0
176
     1
 90
       50
176
     1
 90
        3
176
     1
 62
     5
420
      255
176
     1
290
     0
176
     1
 90
       50
176
     1
 90
       50
176
     1
 90
       50
176
     1
290
     0
176
     1
 90
       50
176
     1
 62
   256
176
     0
 40
1.0
176
     0
 90
        2
176
     1
  1
strokes_ogs.tif
176
     1
290
     0
176
     1
 40
1.0
176
     1
 40
1.0
176
     1
  0
VISUALSTYLE
  5
4CF
102
{ACAD_REACTORS
330
4C5
102
}
330
4C5
100
AcDbVisualStyle
  2
Conceptual
 70
     9
177
     3
291
     0
 70
    58
 90
        3
176
     1
 90
        2
176
     1
 90
        0
176
     1
 90
        0
176
     1
 40
0.6
176
     1
 40
30.0
176
     1
 62
     7
420
 16777215
176
     1
 90
        2
176
     1
 90
        2
176
     1
 62
     7
176
     1
 62
   257
176
     1
 90
        1
176
     1
 90
        1
176
     1
 40
179.0
176
     1
 90
        8
176
     1
 62
     7
176
     1
 40
1.0
176
     1
 90
        1
176
     1
 90
        6
176
     1
 90
        2
176
     1
 62
     7
176
     1
 90
        3
176
     1
 90
        0
176
     1
 90
        0
176
     1
290
     0
176
     1
 90
        1
176
     1
 40
0.0
176
     1
 90
        0
176
     1
290
     0
176
     1
290
     1
176
     1
290
     1
176
     1
290
     0
176
     1
290
     0
176
     1
290
     0
176
     1
290
     0
176
     1
290
     0
176
     1
290
     0
176
     1
 90
       50
176
     1
 40
0.0
176
     1
 40
1.0
176
     1
 90
        0
176
     1
 62
    18
420
        0
176
     1
 90
       50
176
     1
 90
        3
176
     1
 62
     5
420
      255
176
     1
290
     0
176
     1
 90
       50
176
     1
 90
       50
176
     1
 90
       50
176
     1
290
     0
176
     1
 90
       50
176
     1
 62
   256
176
     0
 40
1.0
176
     0
 90
        2
176
     1
  1
strokes_ogs.tif
176
     1
290
     0
176
     1
 40
1.0
176
     1
 40
1.0
176
     1
  0
VISUALSTYLE
  5
4D0
102
{ACAD_REACTORS
330
4C5
102
}
330
4C5
100
AcDbVisualStyle
  2
Dim
 70
    11
177
     3
291
     1
 70
    58
 90
        2
176
     1
 90
        2
176
     1
 90
        0
176
     1
 90
        0
176
     1
 40
0.6
176
     1
 40
30.0
176
     1
 62
     7
420
 16777215
176
     1
 90
        1
176
     1
 90
        4
176
     1
 62
     7
176
     1
 62
   257
176
     1
 90
        1
176
     1
 90
        1
176
     1
 40
1.0
176
     1
 90
        8
176
     1
 62
     7
176
     1
 40
1.0
176
     1
 90
        1
176
     1
 90
        6
176
     1
 90
        2
176
     1
 62
     7
176
     1
 90
        5
176
     1
 90
        0
176
     1
 90
        0
176
     1
290
     0
176
     1
 90
        1
176
     1
 40
-50.0
176
     1
 90
        0
176
     1
290
     0
176
     1
290
     1
176
     1
290
     1
176
     1
290
     0
176
     1
290
     0
176
     1
290
     0
176
     1
290
     0
176
     1
290
     0
176
     1
290
     0
176
     1
 90
       50
176
     1
 40
0.0
176
     1
 40
1.0
176
     1
 90
        0
176
     1
 62
    18
420
        0
176
     1
 90
       50
176
     1
 90
        3
176
     1
 62
     5
420
      255
176
     1
290
     0
176
     1
 90
       50
176
     1
 90
       50
176
     1
 90
       50
176
     1
290
     0
176
     1
 90
       50
176
     1
 62
   256
176
     0
 40
1.0
176
     0
 90
        2
176
     1
  1
strokes_ogs.tif
176
     1
290
     0
176
     1
 40
1.0
176
     1
 40
1.0
176
     1
  0
VISUALSTYLE
  5
4D8
102
{ACAD_REACTORS
330
4C5
102
}
330
4C5
100
AcDbVisualStyle
  2
EdgeColorOff
 70
    22
177
     3
291
     1
 70
    58
 90
        2
176
     0
 90
        2
176
     0
 90
        0
176
     0
 90
        0
176
     0
 40
0.6
176
     0
 40
30.0
176
     0
 62
     7
420
 16777215
176
     0
 90
        1
176
     0
 90
        4
176
     0
 62
     7
176
     0
 62
   257
176
     0
 90
        1
176
     0
 90
        1
176
     0
 40
1.0
176
     0
 90
        8
176
     2
 62
     7
176
     0
 40
1.0
176
     0
 90
        1
176
     0
 90
        6
176
     0
 90
        2
176
     0
 62
     7
176
     0
 90
        5
176
     0
 90
        0
176
     0
 90
        0
176
     0
290
     0
176
     0
 90
        1
176
     0
 40
0.0
176
     0
 90
        0
176
     0
290
     0
176
     0
290
     1
176
     0
290
     1
176
     0
290
     0
176
     0
290
     0
176
     0
290
     0
176
     0
290
     0
176
     0
290
     0
176
     0
290
     0
176
     0
 90
       50
176
     0
 40
0.0
176
     0
 40
1.0
176
     0
 90
        0
176
     0
 62
    18
420
        0
176
     0
 90
       50
176
     0
 90
        3
176
     0
 62
     5
420
      255
176
     0
290
     0
176
     0
 90
       50
176
     0
 90
       50
176
     0
 90
       50
176
     0
290
     0
176
     0
 90
       50
176
     0
 62
   256
176
     0
 40
1.0
176
     0
 90
        2
176
     0
  1
strokes_ogs.tif
176
     0
290
     0
176
     0
 40
1.0
176
     0
 40
1.0
176
     0
  0
VISUALSTYLE
  5
4D4
102
{ACAD_REACTORS
330
4C5
102
}
330
4C5
100
AcDbVisualStyle
  2
Facepattern
 70
    15
177
     3
291
     1
 70
    58
 90
        2
176
     1
 90
        2
176
     1
 90
        0
176
     1
 90
        0
176
     1
 40
0.6
176
     1
 40
30.0
176
     1
 62
     7
420
 16777215
176
     1
 90
        1
176
     1
 90
        4
176
     1
 62
     7
176
     1
 62
   257
176
     1
 90
        1
176
     1
 90
        1
176
     1
 40
1.0
176
     1
 90
        8
176
     1
 62
     7
176
     1
 40
1.0
176
     1
 90
        1
176
     1
 90
        6
176
     1
 90
        2
176
     1
 62
     7
176
     1
 90
        5
176
     1
 90
        0
176
     1
 90
        0
176
     1
290
     0
176
     1
 90
        1
176
     1
 40
0.0
176
     1
 90
        0
176
     1
290
     0
176
     1
290
     1
176
     1
290
     1
176
     1
290
     0
176
     1
290
     0
176
     1
290
     0
176
     1
290
     0
176
     1
290
     0
176
     1
290
     0
176
     1
 90
       50
176
     1
 40
0.0
176
     1
 40
1.0
176
     1
 90
        0
176
     1
 62
    18
420
        0
176
     1
 90
       50
176
     1
 90
        3
176
     1
 62
     5
420
      255
176
     1
290
     0
176
     1
 90
       50
176
     1
 90
       50
176
     1
 90
       50
176
     1
290
     0
176
     1
 90
       50
176
     1
 62
   256
176
     0
 40
1.0
176
     0
 90
        2
176
     1
  1
strokes_ogs.tif
176
     1
290
     0
176
     1
 40
1.0
176
     1
 40
1.0
176
     1
  0
VISUALSTYLE
  5
4C6
102
{ACAD_REACTORS
330
4C5
102
}
330
4C5
100
AcDbVisualStyle
  2
Flat
 70
     0
177
     3
291
     1
 70
    58
 90
        2
176
     1
 90
        1
176
     1
 90
        1
176
     1
 90
        2
176
     1
 40
0.6
176
     1
 40
30.0
176
     1
 62
     7
420
 16777215
176
     1
 90
        0
176
     1
 90
        0
176
     1
 62
     7
176
     1
 62
   257
176
     1
 90
        1
176
     1
 90
        1
176
     1
 40
1.0
176
     1
 90
        8
176
     1
 62
     7
176
     1
 40
1.0
176
     1
 90
        1
176
     1
 90
        6
176
     1
 90
        2
176
     1
 62
     7
176
     1
 90
        5
176
     1
 90
        0
176
     1
 90
        0
176
     1
290
     0
176
     1
 90
       13
176
     1
 40
0.0
176
     1
 90
        0
176
     1
290
     0
176
     1
290
     1
176
     1
290
     1
176
     1
290
     0
176
     1
290
     0
176
     1
290
     0
176
     1
290
     0
176
     1
290
     0
176
     1
290
     0
176
     1
 90
       50
176
     1
 40
0.0
176
     1
 40
1.0
176
     1
 90
        0
176
     1
 62
    18
420
        0
176
     1
 90
       50
176
     1
 90
        3
176
     1
 62
     5
420
      255
176
     1
290
     0
176
     1
 90
       50
176
     1
 90
       50
176
     1
 90
       50
176
     1
290
     0
176
     1
 90
       50
176
     1
 62
   256
176
     0
 40
1.0
176
     0
 90
        2
176
     1
  1
strokes_ogs.tif
176
     1
290
     0
176
     1
 40
1.0
176
     1
 40
1.0
176
     1
  0
VISUALSTYLE
  5
4C7
102
{ACAD_REACTORS
330
4C5
102
}
330
4C5
100
AcDbVisualStyle
  2
FlatWithEdges
 70
     1
177
     3
291
     1
 70
    58
 90
        2
176
     1
 90
        1
176
     1
 90
        1
176
     1
 90
        2
176
     1
 40
0.6
176
     1
 40
30.0
176
     1
 62
     7
420
 16777215
176
     1
 90
        1
176
     1
 90
        0
176
     1
 62
     7
176
     1
 62
   257
176
     1
 90
        1
176
     1
 90
        1
176
     1
 40
1.0
176
     1
 90
        0
176
     1
 62
   257
176
     1
 40
1.0
176
     1
 90
        1
176
     1
 90
        6
176
     1
 90
        2
176
     1
 62
     7
176
     1
 90
        5
176
     1
 90
        0
176
     1
 90
        0
176
     1
290
     0
176
     1
 90
       13
176
     1
 40
0.0
176
     1
 90
        0
176
     1
290
     0
176
     1
290
     1
176
     1
290
     1
176
     1
290
     0
176
     1
290
     0
176
     1
290
     0
176
     1
290
     0
176
     1
290
     0
176
     1
290
     0
176
     1
 90
       50
176
     1
 40
0.0
176
     1
 40
1.0
176
     1
 90
        0
176
     1
 62
    18
420
        0
176
     1
 90
       50
176
     1
 90
        3
176
     1
 62
     5
420
      255
176
     1
290
     0
176
     1
 90
       50
176
     1
 90
       50
176
     1
 90
       50
176
     1
290
     0
176
     1
 90
       50
176
     1
 62
   256
176
     0
 40
1.0
176
     0
 90
        2
176
     1
  1
strokes_ogs.tif
176
     1
290
     0
176
     1
 40
1.0
176
     1
 40
1.0
176
     1
  0
VISUALSTYLE
  5
4C8
102
{ACAD_REACTORS
330
4C5
102
}
330
4C5
100
AcDbVisualStyle
  2
Gouraud
 70
     2
177
     3
291
     1
 70
    58
 90
        2
176
     1
 90
        2
176
     1
 90
        1
176
     1
 90
        2
176
     1
 40
0.6
176
     1
 40
30.0
176
     1
 62
     7
420
 16777215
176
     1
 90
        0
176
     1
 90
        0
176
     1
 62
     7
176
     1
 62
   257
176
     1
 90
        1
176
     1
 90
        1
176
     1
 40
1.0
176
     1
 90
        0
176
     1
 62
     7
176
     1
 40
1.0
176
     1
 90
        1
176
     1
 90
        6
176
     1
 90
        2
176
     1
 62
     7
176
     1
 90
        5
176
     1
 90
        0
176
     1
 90
        0
176
     1
290
     0
176
     1
 90
       13
176
     1
 40
0.0
176
     1
 90
        0
176
     1
290
     0
176
     1
290
     1
176
     1
290
     1
176
     1
290
     0
176
     1
290
     0
176
     1
290
     0
176
     1
290
     0
176
     1
290
     0
176
     1
290
     0
176
     1
 90
       50
176
     1
 40
0.0
176
     1
 40
1.0
176
     1
 90
        0
176
     1
 62
    18
420
        0
176
     1
 90
       50
176
     1
 90
        3
176
     1
 62
     5
420
      255
176
     1
290
     0
176
     1
 90
       50
176
     1
 90
       50
176
     1
 90
       50
176
     1
290
     0
176
     1
 90
       50
176
     1
 62
   256
176
     0
 40
1.0
176
     0
 90
        2
176
     1
  1
strokes_ogs.tif
176
     1
290
     0
176
     1
 40
1.0
176
     1
 40
1.0
176
     1
  0
VISUALSTYLE
  5
4C9
102
{ACAD_REACTORS
330
4C5
102
}
330
4C5
100
AcDbVisualStyle
  2
GouraudWithEdges
 70
     3
177
     3
291
     1
 70
    58
 90
        2
176
     1
 90
        2
176
     1
 90
        1
176
     1
 90
        2
176
     1
 40
0.6
176
     1
 40
30.0
176
     1
 62
     7
420
 16777215
176
     1
 90
        1
176
     1
 90
        0
176
     1
 62
     7
176
     1
 62
   257
176
     1
 90
        1
176
     1
 90
        1
176
     1
 40
1.0
176
     1
 90
        0
176
     1
 62
   257
176
     1
 40
1.0
176
     1
 90
        1
176
     1
 90
        6
176
     1
 90
        2
176
     1
 62
     7
176
     1
 90
        5
176
     1
 90
        0
176
     1
 90
        0
176
     1
290
     0
176
     1
 90
       13
176
     1
 40
0.0
176
     1
 90
        0
176
     1
290
     0
176
     1
290
     1
176
     1
290
     1
176
     1
290
     0
176
     1
290
     0
176
     1
290
     0
176
     1
290
     0
176
     1
290
     0
176
     1
290
     0
176
     1
 90
       50
176
     1
 40
0.0
176
     1
 40
1.0
176
     1
 90
        0
176
     1
 62
    18
420
        0
176
     1
 90
       50
176
     1
 90
        3
176
     1
 62
     5
420
      255
176
     1
290
     0
176
     1
 90
       50
176
     1
 90
       50
176
     1
 90
       50
176
     1
290
     0
176
     1
 90
       50
176
     1
 62
   256
176
     0
 40
1.0
176
     0
 90
        2
176
     1
  1
strokes_ogs.tif
176
     1
290
     0
176
     1
 40
1.0
176
     1
 40
1.0
176
     1
  0
VISUALSTYLE
  5
4CC
102
{ACAD_REACTORS
330
4C5
102
}
330
4C5
100
AcDbVisualStyle
  2
Hidden
 70
     6
177
     3
291
     0
 70
    58
 90
        1
176
     1
 90
        2
176
     1
 90
        2
176
     1
 90
        0
176
     1
 40
0.6
176
     1
 40
30.0
176
     1
 62
     7
420
 16777215
176
     1
 90
        2
176
     1
 90
        2
176
     1
 62
     7
176
     1
 62
   257
176
     1
 90
        2
176
     1
 90
        1
176
     1
 40
40.0
176
     1
 90
        0
176
     1
 62
   257
176
     1
 40
1.0
176
     1
 90
        1
176
     1
 90
        6
176
     1
 90
        2
176
     1
 62
     7
176
     1
 90
        3
176
     1
 90
        0
176
     1
 90
        0
176
     1
290
     0
176
     1
 90
        1
176
     1
 40
0.0
176
     1
 90
        0
176
     1
290
     0
176
     1
290
     1
176
     1
290
     1
176
     1
290
     0
176
     1
290
     0
176
     1
290
     0
176
     1
290
     0
176
     1
290
     0
176
     1
290
     0
176
     1
 90
       50
176
     1
 40
0.0
176
     1
 40
1.0
176
     1
 90
        0
176
     1
 62
    18
420
        0
176
     1
 90
       50
176
     1
 90
        3
176
     1
 62
     5
420
      255
176
     1
290
     0
176
     1
 90
       50
176
     1
 90
       50
176
     1
 90
       50
176
     1
290
     0
176
     1
 90
       50
176
     1
 62
   256
176
     0
 40
1.0
176
     0
 90
        2
176
     1
  1
strokes_ogs.tif
176
     1
290
     0
176
     1
 40
1.0
176
     1
 40
1.0
176
     1
  0
VISUALSTYLE
  5
4D6
102
{ACAD_REACTORS
330
4C5
102
}
330
4C5
100
AcDbVisualStyle
  2
JitterOff
 70
    20
177
     3
291
     1
 70
    58
 90
        2
176
     0
 90
        2
176
     0
 90
        0
176
     0
 90
        0
176
     0
 40
0.6
176
     0
 40
30.0
176
     0
 62
     7
420
 16777215
176
     0
 90
        1
176
     0
 90
        4
176
     0
 62
     7
176
     0
 62
   257
176
     0
 90
        1
176
     0
 90
        1
176
     0
 40
1.0
176
     0
 90
       10
176
     2
 62
     7
176
     0
 40
1.0
176
     0
 90
        1
176
     0
 90
        6
176
     0
 90
        2
176
     0
 62
     7
176
     0
 90
        5
176
     0
 90
        0
176
     0
 90
        0
176
     0
290
     0
176
     0
 90
        1
176
     0
 40
0.0
176
     0
 90
        0
176
     0
290
     0
176
     0
290
     1
176
     0
290
     1
176
     0
290
     0
176
     0
290
     0
176
     0
290
     0
176
     0
290
     0
176
     0
290
     0
176
     0
290
     0
176
     0
 90
       50
176
     0
 40
0.0
176
     0
 40
1.0
176
     0
 90
        0
176
     0
 62
    18
420
        0
176
     0
 90
       50
176
     0
 90
        3
176
     0
 62
     5
420
      255
176
     0
290
     0
176
     0
 90
       50
176
     0
 90
       50
176
     0
 90
       50
176
     0
290
     0
176
     0
 90
       50
176
     0
 62
   256
176
     0
 40
1.0
176
     0
 90
        2
176
     0
  1
strokes_ogs.tif
176
     0
290
     0
176
     0
 40
1.0
176
     0
 40
1.0
176
     0
  0
VISUALSTYLE
  5
4D3
102
{ACAD_REACTORS
330
4C5
102
}
330
4C5
100
AcDbVisualStyle
  2
Linepattern
 70
    14
177
     3
291
     1
 70
    58
 90
        2
176
     1
 90
        2
176
     1
 90
        0
176
     1
 90
        0
176
     1
 40
0.6
176
     1
 40
30.0
176
     1
 62
     7
420
 16777215
176
     1
 90
        1
176
     1
 90
        4
176
     1
 62
     7
176
     1
 62
   257
176
     1
 90
        7
176
     1
 90
        7
176
     1
 40
1.0
176
     1
 90
        8
176
     1
 62
     7
176
     1
 40
1.0
176
     1
 90
        1
176
     1
 90
        6
176
     1
 90
        2
176
     1
 62
     7
176
     1
 90
        5
176
     1
 90
        0
176
     1
 90
        0
176
     1
290
     0
176
     1
 90
        1
176
     1
 40
0.0
176
     1
 90
        0
176
     1
290
     0
176
     1
290
     1
176
     1
290
     1
176
     1
290
     0
176
     1
290
     0
176
     1
290
     0
176
     1
290
     0
176
     1
290
     0
176
     1
290
     0
176
     1
 90
       50
176
     1
 40
0.0
176
     1
 40
1.0
176
     1
 90
        0
176
     1
 62
    18
420
        0
176
     1
 90
       50
176
     1
 90
        3
176
     1
 62
     5
420
      255
176
     1
290
     0
176
     1
 90
       50
176
     1
 90
       50
176
     1
 90
       50
176
     1
290
     0
176
     1
 90
       50
176
     1
 62
   256
176
     0
 40
1.0
176
     0
 90
        2
176
     1
  1
strokes_ogs.tif
176
     1
290
     0
176
     1
 40
1.0
176
     1
 40
1.0
176
     1
  0
VISUALSTYLE
  5
4D7
102
{ACAD_REACTORS
330
4C5
102
}
330
4C5
100
AcDbVisualStyle
  2
OverhangOff
 70
    21
177
     3
291
     1
 70
    58
 90
        2
176
     0
 90
        2
176
     0
 90
        0
176
     0
 90
        0
176
     0
 40
0.6
176
     0
 40
30.0
176
     0
 62
     7
420
 16777215
176
     0
 90
        1
176
     0
 90
        4
176
     0
 62
     7
176
     0
 62
   257
176
     0
 90
        1
176
     0
 90
        1
176
     0
 40
1.0
176
     0
 90
        9
176
     2
 62
     7
176
     0
 40
1.0
176
     0
 90
        1
176
     0
 90
        6
176
     0
 90
        2
176
     0
 62
     7
176
     0
 90
        5
176
     0
 90
        0
176
     0
 90
        0
176
     0
290
     0
176
     0
 90
        1
176
     0
 40
0.0
176
     0
 90
        0
176
     0
290
     0
176
     0
290
     1
176
     0
290
     1
176
     0
290
     0
176
     0
290
     0
176
     0
290
     0
176
     0
290
     0
176
     0
290
     0
176
     0
290
     0
176
     0
 90
       50
176
     0
 40
0.0
176
     0
 40
1.0
176
     0
 90
        0
176
     0
 62
    18
420
        0
176
     0
 90
       50
176
     0
 90
        3
176
     0
 62
     5
420
      255
176
     0
290
     0
176
     0
 90
       50
176
     0
 90
       50
176
     0
 90
       50
176
     0
290
     0
176
     0
 90
       50
176
     0
 62
   256
176
     0
 40
1.0
176
     0
 90
        2
176
     0
  1
strokes_ogs.tif
176
     0
290
     0
176
     0
 40
1.0
176
     0
 40
1.0
176
     0
  0
VISUALSTYLE
  5
4CE
102
{ACAD_REACTORS
330
4C5
102
}
330
4C5
100
AcDbVisualStyle
  2
Realistic
 70
     8
177
     3
291
     0
 70
    58
 90
        2
176
     1
 90
        3
176
     1
 90
        0
176
     1
 90
        2
176
     1
 40
0.6
176
     1
 40
30.0
176
     1
 62
     7
420
 16777215
176
     1
 90
        0
176
     1
 90
        0
176
     1
 62
     7
176
     1
 62
   257
176
     1
 90
        1
176
     1
 90
        1
176
     1
 40
1.0
176
     1
 90
        8
176
     1
 62
   257
176
     1
 40
1.0
176
     1
 90
        1
176
     1
 90
        6
176
     1
 90
        2
176
     1
 62
     7
176
     1
 90
        3
176
     1
 90
        0
176
     1
 90
        0
176
     1
290
     0
176
     1
 90
       13
176
     1
 40
0.0
176
     1
 90
        0
176
     1
290
     0
176
     1
290
     1
176
     1
290
     1
176
     1
290
     0
176
     1
290
     0
176
     1
290
     0
176
     1
290
     0
176
     1
290
     0
176
     1
290
     0
176
     1
 90
       50
176
     1
 40
0.0
176
     1
 40
1.0
176
     1
 90
        0
176
     1
 62
    18
420
        0
176
     1
 90
       50
176
     1
 90
        3
176
     1
 62
     5
420
      255
176
     1
290
     0
176
     1
 90
       50
176
     1
 90
       50
176
     1
 90
       50
176
     1
290
     0
176
     1
 90
       50
176
     1
 62
   256
176
     0
 40
1.0
176
     0
 90
        2
176
     1
  1
strokes_ogs.tif
176
     1
290
     0
176
     1
 40
1.0
176
     1
 40
1.0
176
     1
  0
VISUALSTYLE
  5
4DD
102
{ACAD_REACTORS
330
4C5
102
}
330
4C5
100
AcDbVisualStyle
  2
Shaded
 70
    27
177
     3
291
     0
 70
    58
 90
        2
176
     1
 90
        2
176
     1
 90
        1
176
     1
 90
        2
176
     1
 40
0.6
176
     1
 40
30.0
176
     1
 62
     7
420
 16777215
176
     1
 90
        0
176
     1
 90
        4
176
     1
 62
     7
176
     1
 62
   257
176
     1
 90
        1
176
     1
 90
        1
176
     1
 40
1.0
176
     1
 90
        8
176
     1
 62
   257
176
     1
 40
1.0
176
     1
 90
        1
176
     1
 90
        6
176
     1
 90
        2
176
     1
 62
     8
420
  7895160
176
     1
 90
        3
176
     1
 90
        0
176
     1
 90
        0
176
     1
290
     0
176
     1
 90
        5
176
     1
 40
0.0
176
     1
 90
        0
176
     1
290
     0
176
     1
290
     1
176
     1
290
     1
176
     1
290
     0
176
     1
290
     0
176
     1
290
     0
176
     1
290
     0
176
     1
290
     0
176
     1
290
     0
176
     1
 90
       50
176
     1
 40
0.0
176
     1
 40
1.0
176
     1
 90
        0
176
     1
 62
    18
420
        0
176
     1
 90
       50
176
     1
 90
        3
176
     1
 62
     5
420
      255
176
     1
290
     0
176
     1
 90
       50
176
     1
 90
       50
176
     1
 90
       50
176
     1
290
     0
176
     1
 90
       50
176
     1
 62
   256
176
     0
 40
1.0
176
     0
 90
        2
176
     1
  1
strokes_ogs.tif
176
     1
290
     0
176
     1
 40
1.0
176
     1
 40
1.0
176
     1
  0
VISUALSTYLE
  5
4DC
102
{ACAD_REACTORS
330
4C5
102
}
330
4C5
100
AcDbVisualStyle
  2
Shaded with edges
 70
    26
177
     3
291
     0
 70
    58
 90
        2
176
     1
 90
        2
176
     1
 90
        1
176
     1
 90
        2
176
     1
 40
0.6
176
     1
 40
30.0
176
     1
 62
     7
420
 16777215
176
     1
 90
        1
176
     1
 90
       10
176
     1
 62
     7
176
     1
 62
   257
176
     1
 90
        2
176
     1
 90
        1
176
     1
 40
1.0
176
     1
 90
        8
176
     1
 62
   257
176
     1
 40
1.0
176
     1
 90
        1
176
     1
 90
        6
176
     1
 90
        2
176
     1
 62
     7
176
     1
 90
        3
176
     1
 90
        0
176
     1
 90
        0
176
     1
290
     0
176
     1
 90
        5
176
     1
 40
0.0
176
     1
 90
        0
176
     1
290
     0
176
     1
290
     1
176
     1
290
     1
176
     1
290
     0
176
     1
290
     0
176
     1
290
     0
176
     1
290
     0
176
     1
290
     0
176
     1
290
     0
176
     1
 90
       50
176
     1
 40
0.0
176
     1
 40
1.0
176
     1
 90
        0
176
     1
 62
    18
420
        0
176
     1
 90
       50
176
     1
 90
        3
176
     1
 62
     5
420
      255
176
     1
290
     0
176
     1
 90
       50
176
     1
 90
       50
176
     1
 90
       50
176
     1
290
     0
176
     1
 90
       50
176
     1
 62
   256
176
     0
 40
1.0
176
     0
 90
        2
176
     1
  1
strokes_ogs.tif
176
     1
290
     0
176
     1
 40
1.0
176
     1
 40
1.0
176
     1
  0
VISUALSTYLE
  5
4D9
102
{ACAD_REACTORS
330
4C5
102
}
330
4C5
100
AcDbVisualStyle
  2
Shades of Gray
 70
    23
177
     3
291
     0
 70
    58
 90
        2
176
     1
 90
        2
176
     1
 90
        3
176
     1
 90
        0
176
     1
 40
0.6
176
     1
 40
30.0
176
     1
 62
     7
420
 16777215
176
     1
 90
        2
176
     1
 90
        2
176
     1
 62
     7
176
     1
 62
     7
176
     1
 90
        1
176
     1
 90
        1
176
     1
 40
40.0
176
     1
 90
        8
176
     1
 62
     7
176
     1
 40
1.0
176
     1
 90
        1
176
     1
 90
        6
176
     1
 90
        2
176
     1
 62
     7
176
     1
 90
        3
176
     1
 90
        0
176
     1
 90
        0
176
     1
290
     0
176
     1
 90
        1
176
     1
 40
0.0
176
     1
 90
        0
176
     1
290
     0
176
     1
290
     1
176
     1
290
     1
176
     1
290
     0
176
     1
290
     0
176
     1
290
     0
176
     1
290
     0
176
     1
290
     0
176
     1
290
     0
176
     1
 90
       50
176
     1
 40
0.0
176
     1
 40
1.0
176
     1
 90
        0
176
     1
 62
    18
420
        0
176
     1
 90
       50
176
     1
 90
        3
176
     1
 62
     5
420
      255
176
     1
290
     0
176
     1
 90
       50
176
     1
 90
       50
176
     1
 90
       50
176
     1
290
     0
176
     1
 90
       50
176
     1
 62
   256
176
     0
 40
1.0
176
     0
 90
        2
176
     1
  1
strokes_ogs.tif
176
     1
290
     0
176
     1
 40
1.0
176
     1
 40
1.0
176
     1
  0
VISUALSTYLE
  5
4DA
102
{ACAD_REACTORS
330
4C5
102
}
330
4C5
100
AcDbVisualStyle
  2
Sketchy
 70
    24
177
     3
291
     0
 70
    58
 90
        1
176
     1
 90
        2
176
     1
 90
        2
176
     1
 90
        0
176
     1
 40
0.6
176
     1
 40
30.0
176
     1
 62
     7
420
 16777215
176
     1
 90
        2
176
     1
 90
        2
176
     1
 62
     7
176
     1
 62
     7
176
     1
 90
        1
176
     1
 90
        1
176
     1
 40
40.0
176
     1
 90
       11
176
     1
 62
     7
176
     1
 40
1.0
176
     1
 90
        1
176
     1
 90
        6
176
     1
 90
        2
176
     1
 62
     7
176
     1
 90
        6
176
     1
 90
        0
176
     1
 90
        0
176
     1
290
     0
176
     1
 90
        1
176
     1
 40
0.0
176
     1
 90
        0
176
     1
290
     0
176
     1
290
     1
176
     1
290
     1
176
     1
290
     0
176
     1
290
     0
176
     1
290
     0
176
     1
290
     0
176
     1
290
     0
176
     1
290
     0
176
     1
 90
       50
176
     1
 40
0.0
176
     1
 40
1.0
176
     1
 90
        0
176
     1
 62
    18
420
        0
176
     1
 90
       50
176
     1
 90
        3
176
     1
 62
     5
420
      255
176
     1
290
     0
176
     1
 90
       50
176
     1
 90
       50
176
     1
 90
       50
176
     1
290
     0
176
     1
 90
       50
176
     1
 62
   256
176
     0
 40
1.0
176
     0
 90
        2
176
     1
  1
strokes_ogs.tif
176
     1
290
     0
176
     1
 40
1.0
176
     1
 40
1.0
176
     1
  0
VISUALSTYLE
  5
4D2
102
{ACAD_REACTORS
330
4C5
102
}
330
4C5
100
AcDbVisualStyle
  2
Thicken
 70
    13
177
     3
291
     1
 70
    58
 90
        2
176
     1
 90
        2
176
     1
 90
        0
176
     1
 90
        0
176
     1
 40
0.6
176
     1
 40
30.0
176
     1
 62
     7
420
 16777215
176
     1
 90
        1
176
     1
 90
        4
176
     1
 62
     7
176
     1
 62
   257
176
     1
 90
        1
176
     1
 90
        1
176
     1
 40
1.0
176
     1
 90
       12
176
     1
 62
     7
176
     1
 40
1.0
176
     1
 90
        1
176
     1
 90
        6
176
     1
 90
        2
176
     1
 62
     7
176
     1
 90
        5
176
     1
 90
        0
176
     1
 90
        0
176
     1
290
     0
176
     1
 90
        1
176
     1
 40
0.0
176
     1
 90
        0
176
     1
290
     0
176
     1
290
     1
176
     1
290
     1
176
     1
290
     0
176
     1
290
     0
176
     1
290
     0
176
     1
290
     0
176
     1
290
     0
176
     1
290
     0
176
     1
 90
       50
176
     1
 40
0.0
176
     1
 40
1.0
176
     1
 90
        0
176
     1
 62
    18
420
        0
176
     1
 90
       50
176
     1
 90
        3
176
     1
 62
     5
420
      255
176
     1
290
     0
176
     1
 90
       50
176
     1
 90
       50
176
     1
 90
       50
176
     1
290
     0
176
     1
 90
       50
176
     1
 62
   256
176
     0
 40
1.0
176
     0
 90
        2
176
     1
  1
strokes_ogs.tif
176
     1
290
     0
176
     1
 40
1.0
176
     1
 40
1.0
176
     1
  0
VISUALSTYLE
  5
4CB
102
{ACAD_REACTORS
330
4C5
102
}
330
4C5
100
AcDbVisualStyle
  2
Wireframe
 70
     5
177
     3
291
     0
 70
    58
 90
        0
176
     1
 90
        2
176
     1
 90
        0
176
     1
 90
        0
176
     1
 40
0.6
176
     1
 40
30.0
176
     1
 62
     7
420
 16777215
176
     1
 90
        1
176
     1
 90
        4
176
     1
 62
     7
176
     1
 62
   257
176
     1
 90
        1
176
     1
 90
        1
176
     1
 40
1.0
176
     1
 90
        0
176
     1
 62
   257
176
     1
 40
1.0
176
     1
 90
        1
176
     1
 90
        6
176
     1
 90
        2
176
     1
 62
     7
176
     1
 90
        3
176
     1
 90
        0
176
     1
 90
        0
176
     1
290
     0
176
     1
 90
        1
176
     1
 40
0.0
176
     1
 90
        0
176
     1
290
     0
176
     1
290
     1
176
     1
290
     1
176
     1
290
     0
176
     1
290
     0
176
     1
290
     0
176
     1
290
     0
176
     1
290
     0
176
     1
290
     0
176
     1
 90
       50
176
     1
 40
0.0
176
     1
 40
1.0
176
     1
 90
        0
176
     1
 62
    18
420
        0
176
     1
 90
       50
176
     1
 90
        3
176
     1
 62
     5
420
      255
176
     1
290
     0
176
     1
 90
       50
176
     1
 90
       50
176
     1
 90
       50
176
     1
290
     0
176
     1
 90
       50
176
     1
 62
   256
176
     0
 40
1.0
176
     0
 90
        2
176
     1
  1
strokes_ogs.tif
176
     1
290
     0
176
     1
 40
1.0
176
     1
 40
1.0
176
     1
  0
VISUALSTYLE
  5
4DB
102
{ACAD_REACTORS
330
4C5
102
}
330
4C5
100
AcDbVisualStyle
  2
X-Ray
 70
    25
177
     3
291
     0
 70
    58
 90
        2
176
     1
 90
        2
176
     1
 90
        1
176
     1
 90
        1
176
     1
 40
0.5
176
     1
 40
30.0
176
     1
 62
     7
420
 16777215
176
     1
 90
        1
176
     1
 90
        0
176
     1
 62
     7
176
     1
 62
   257
176
     1
 90
        1
176
     1
 90
        1
176
     1
 40
1.0
176
     1
 90
        8
176
     1
 62
     7
176
     1
 40
1.0
176
     1
 90
        1
176
     1
 90
        6
176
     1
 90
        2
176
     1
 62
     7
176
     1
 90
        3
176
     1
 90
        0
176
     1
 90
        0
176
     1
290
     0
176
     1
 90
       13
176
     1
 40
0.0
176
     1
 90
        0
176
     1
290
     0
176
     1
290
     1
176
     1
290
     1
176
     1
290
     0
176
     1
290
     0
176
     1
290
     0
176
     1
290
     0
176
     1
290
     0
176
     1
290
     0
176
     1
 90
       50
176
     1
 40
0.0
176
     1
 40
1.0
176
     1
 90
        0
176
     1
 62
    18
420
        0
176
     1
 90
       50
176
     1
 90
        3
176
     1
 62
     5
420
      255
176
     1
290
     0
176
     1
 90
       50
176
     1
 90
       50
176
     1
 90
       50
176
     1
290
     0
176
     1
 90
       50
176
     1
 62
   256
176
     0
 40
1.0
176
     0
 90
        2
176
     1
  1
strokes_ogs.tif
176
     1
290
     0
176
     1
 40
1.0
176
     1
 40
1.0
176
     1
  0
DICTIONARYVAR
  5
4E8
102
{ACAD_REACTORS
330
4E7
102
}
330
4E7
100
DictionaryVariables
280
     0
  1
1:1
  0
DICTIONARYVAR
  5
4ED
102
{ACAD_REACTORS
330
4E7
102
}
330
4E7
100
DictionaryVariables
280
     0
  1
Standard
  0
DICTIONARYVAR
  5
4EC
102
{ACAD_REACTORS
330
4E7
102
}
330
4E7
100
DictionaryVariables
280
     0
  1
Standard
  0
DICTIONARYVAR
  5
4EE
102
{ACAD_REACTORS
330
4E7
102
}
330
4E7
100
DictionaryVariables
280
     0
  1
0
  0
DICTIONARY
  5
4E9
330
4E3
100
AcDbDictionary
280
     1
281
     1
  3
ACAD_ROUNDTRIP_2008_TABLESTYLE_CELLSTYLEMAP
360
4EA
  0
CELLSTYLEMAP
  5
4EA
102
{ACAD_REACTORS
330
4E9
102
}
330
4E9
100
AcDbCellStyleMap
 90
        3
300
CELLSTYLE
  1
TABLEFORMAT_BEGIN
 90
        5
170
     1
 91
        0
 92
    32768
 62
   257
 93
        1
300
CONTENTFORMAT
  1
CONTENTFORMAT_BEGIN
 90
        0
 91
        0
 92
        4
 93
        0
300

 40
0.0
140
1.0
 94
        5
 62
     0
340
11
144
6.0
309
CONTENTFORMAT_END
171
     1
301
MARGIN
  1
CELLMARGIN_BEGIN
 40
1.5
 40
1.5
 40
1.5
 40
1.5
 40
1.5
 40
1.5
309
CELLMARGIN_END
 94
        6
 95
        1
302
GRIDFORMAT
  1
GRIDFORMAT_BEGIN
 90
        0
 91
        1
 62
     0
 92
       -2
340
14
 93
        0
 40
0.045
309
GRIDFORMAT_END
 95
        2
302
GRIDFORMAT
  1
GRIDFORMAT_BEGIN
 90
        0
 91
        1
 62
     0
 92
       -2
340
14
 93
        0
 40
0.045
309
GRIDFORMAT_END
 95
        4
302
GRIDFORMAT
  1
GRIDFORMAT_BEGIN
 90
        0
 91
        1
 62
     0
 92
       -2
340
14
 93
        0
 40
0.045
309
GRIDFORMAT_END
 95
        8
302
GRIDFORMAT
  1
GRIDFORMAT_BEGIN
 90
        0
 91
        1
 62
     0
 92
       -2
340
14
 93
        0
 40
0.045
309
GRIDFORMAT_END
 95
       16
302
GRIDFORMAT
  1
GRIDFORMAT_BEGIN
 90
        0
 91
        1
 62
     0
 92
       -2
340
14
 93
        0
 40
0.045
309
GRIDFORMAT_END
 95
       32
302
GRIDFORMAT
  1
GRIDFORMAT_BEGIN
 90
        0
 91
        1
 62
     0
 92
       -2
340
14
 93
        0
 40
0.045
309
GRIDFORMAT_END
309
TABLEFORMAT_END
  1
CELLSTYLE_BEGIN
 90
        1
 91
        1
300
_TITLE
309
CELLSTYLE_END
300
CELLSTYLE
  1
TABLEFORMAT_BEGIN
 90
        5
170
     1
 91
        0
 92
        0
 62
   257
 93
        1
300
CONTENTFORMAT
  1
CONTENTFORMAT_BEGIN
 90
        0
 91
        0
 92
        4
 93
        0
300

 40
0.0
140
1.0
 94
        5
 62
     0
340
11
144
4.5
309
CONTENTFORMAT_END
171
     1
301
MARGIN
  1
CELLMARGIN_BEGIN
 40
1.5
 40
1.5
 40
1.5
 40
1.5
 40
1.5
 40
1.5
309
CELLMARGIN_END
 94
        6
 95
        1
302
GRIDFORMAT
  1
GRIDFORMAT_BEGIN
 90
        0
 91
        1
 62
     0
 92
       -2
340
14
 93
        0
 40
0.045
309
GRIDFORMAT_END
 95
        2
302
GRIDFORMAT
  1
GRIDFORMAT_BEGIN
 90
        0
 91
        1
 62
     0
 92
       -2
340
14
 93
        0
 40
0.045
309
GRIDFORMAT_END
 95
        4
302
GRIDFORMAT
  1
GRIDFORMAT_BEGIN
 90
        0
 91
        1
 62
     0
 92
       -2
340
14
 93
        0
 40
0.045
309
GRIDFORMAT_END
 95
        8
302
GRIDFORMAT
  1
GRIDFORMAT_BEGIN
 90
        0
 91
        1
 62
     0
 92
       -2
340
14
 93
        0
 40
0.045
309
GRIDFORMAT_END
 95
       16
302
GRIDFORMAT
  1
GRIDFORMAT_BEGIN
 90
        0
 91
        1
 62
     0
 92
       -2
340
14
 93
        0
 40
0.045
309
GRIDFORMAT_END
 95
       32
302
GRIDFORMAT
  1
GRIDFORMAT_BEGIN
 90
        0
 91
        1
 62
     0
 92
       -2
340
14
 93
        0
 40
0.045
309
GRIDFORMAT_END
309
TABLEFORMAT_END
  1
CELLSTYLE_BEGIN
 90
        2
 91
        1
300
_HEADER
309
CELLSTYLE_END
300
CELLSTYLE
  1
TABLEFORMAT_BEGIN
 90
        5
170
     1
 91
        0
 92
        0
 62
   257
 93
        1
300
CONTENTFORMAT
  1
CONTENTFORMAT_BEGIN
 90
        0
 91
        0
 92
        4
 93
        0
300

 40
0.0
140
1.0
 94
        2
 62
     0
340
11
144
4.5
309
CONTENTFORMAT_END
171
     1
301
MARGIN
  1
CELLMARGIN_BEGIN
 40
1.5
 40
1.5
 40
1.5
 40
1.5
 40
1.5
 40
1.5
309
CELLMARGIN_END
 94
        6
 95
        1
302
GRIDFORMAT
  1
GRIDFORMAT_BEGIN
 90
        0
 91
        1
 62
     0
 92
       -2
340
14
 93
        0
 40
0.045
309
GRIDFORMAT_END
 95
        2
302
GRIDFORMAT
  1
GRIDFORMAT_BEGIN
 90
        0
 91
        1
 62
     0
 92
       -2
340
14
 93
        0
 40
0.045
309
GRIDFORMAT_END
 95
        4
302
GRIDFORMAT
  1
GRIDFORMAT_BEGIN
 90
        0
 91
        1
 62
     0
 92
       -2
340
14
 93
        0
 40
0.045
309
GRIDFORMAT_END
 95
        8
302
GRIDFORMAT
  1
GRIDFORMAT_BEGIN
 90
        0
 91
        1
 62
     0
 92
       -2
340
14
 93
        0
 40
0.045
309
GRIDFORMAT_END
 95
       16
302
GRIDFORMAT
  1
GRIDFORMAT_BEGIN
 90
        0
 91
        1
 62
     0
 92
       -2
340
14
 93
        0
 40
0.045
309
GRIDFORMAT_END
 95
       32
302
GRIDFORMAT
  1
GRIDFORMAT_BEGIN
 90
        0
 91
        1
 62
     0
 92
       -2
340
14
 93
        0
 40
0.045
309
GRIDFORMAT_END
309
TABLEFORMAT_END
  1
CELLSTYLE_BEGIN
 90
        3
 91
        2
300
_DATA
309
CELLSTYLE_END
  0
ENDSEC
  0
EOF
