  0
SECTION
  2
HEADER
  9
$ACADVER
  1
AC1015
  9
$ACADMAINTVER
 70
     6
  9
$DWGCODEPAGE
  3
ANSI_1252
  9
$INSBASE
 10
0.0
 20
0.0
 30
0.0
  9
$EXTMIN
 10
0.0
 20
0.0
 30
0.0
  9
$EXTMAX
 10
420.0
 20
297.0
 30
0.0
  9
$LIMMIN
 10
0.0
 20
0.0
  9
$LIMMAX
 10
420.0
 20
297.0
  9
$ORTHOMODE
 70
     0
  9
$REGENMODE
 70
     1
  9
$FILLMODE
 70
     1
  9
$QTEXTMODE
 70
     0
  9
$MIRRTEXT
 70
     1
  9
$LTSCALE
 40
23.1
  9
$ATTMODE
 70
     1
  9
$TEXTSIZE
 40
0.2
  9
$TRACEWID
 40
0.05
  9
$TEXTSTYLE
  7
STANDARD
  9
$CLAYER
  8
0
  9
$CELTYPE
  6
BYLAYER
  9
$CECOLOR
 62
   256
  9
$CELTSCALE
 40
1.0
  9
$DISPSILH
 70
     0
  9
$DIMSCALE
 40
1.0
  9
$DIMASZ
 40
2.5
  9
$DIMEXO
 40
2.625
  9
$DIMDLI
 40
15.96
  9
$DIMRND
 40
0.0
  9
$DIMDLE
 40
0.0
  9
$DIMEXE
 40
7.56
  9
$DIMTP
 40
0.01
  9
$DIMTM
 40
0.01
  9
$DIMTXT
 40
3.0
  9
$DIMCEN
 40
3.78
  9
$DIMTSZ
 40
0.0
  9
$DIMTOL
 70
     1
  9
$DIMLIM
 70
     0
  9
$DIMTIH
 70
     1
  9
$DIMTOH
 70
     1
  9
$DIMSE1
 70
     0
  9
$DIMSE2
 70
     0
  9
$DIMTAD
 70
     0
  9
$DIMZIN
 70
     0
  9
$DIMBLK
  1
CLOSED
  9
$DIMASO
 70
     1
  9
$DIMSHO
 70
     1
  9
$DIMPOST
  1

  9
$DIMAPOST
  1

  9
$DIMALT
 70
     0
  9
$DIMALTD
 70
     2
  9
$DIMALTF
 40
25.4
  9
$DIMLFAC
 40
1.0
  9
$DIMTOFL
 70
     0
  9
$DIMTVP
 40
0.0
  9
$DIMTIX
 70
     0
  9
$DIMSOXD
 70
     0
  9
$DIMSAH
 70
     0
  9
$DIMBLK1
  1

  9
$DIMBLK2
  1

  9
$DIMSTYLE
  2
STANDARD
  9
$DIMCLRD
 70
     0
  9
$DIMCLRE
 70
     0
  9
$DIMCLRT
 70
     0
  9
$DIMTFAC
 40
1.0
  9
$DIMGAP
 40
0.09
  9
$DIMJUST
 70
     0
  9
$DIMSD1
 70
     0
  9
$DIMSD2
 70
     0
  9
$DIMTOLJ
 70
     1
  9
$DIMTZIN
 70
     0
  9
$DIMALTZ
 70
     0
  9
$DIMALTTZ
 70
     0
  9
$DIMUPT
 70
     0
  9
$DIMDEC
 70
     4
  9
$DIMTDEC
 70
     4
  9
$DIMALTU
 70
     2
  9
$DIMALTTD
 70
     2
  9
$DIMTXSTY
  7
STANDARD
  9
$DIMAUNIT
 70
     0
  9
$DIMADEC
 70
     0
  9
$DIMALTRND
 40
0.0
  9
$DIMAZIN
 70
     0
  9
$DIMDSEP
 70
    46
  9
$DIMATFIT
 70
     3
  9
$DIMFRAC
 70
     0
  9
$DIMLDRBLK
  1

  9
$DIMLUNIT
 70
     2
  9
$DIMLWD
 70
    -2
  9
$DIMLWE
 70
    -2
  9
$DIMTMOVE
 70
     0
  9
$LUNITS
 70
     2
  9
$LUPREC
 70
     4
  9
$SKETCHINC
 40
0.1
  9
$FILLETRAD
 40
0.5
  9
$AUNITS
 70
     0
  9
$AUPREC
 70
     0
  9
$MENU
  1
.
  9
$ELEVATION
 40
0.0
  9
$PELEVATION
 40
0.0
  9
$THICKNESS
 40
0.0
  9
$LIMCHECK
 70
     0
  9
$CHAMFERA
 40
0.0
  9
$CHAMFERB
 40
0.0
  9
$CHAMFERC
 40
0.0
  9
$CHAMFERD
 40
0.0
  9
$SKPOLY
 70
     0
  9
$TDCREATE
 40
2447893.083333333
  9
$TDUCREATE
 40
0.0
  9
$TDUPDATE
 40
2456748.509433854
  9
$TDUUPDATE
 40
2456748.426100521
  9
$TDINDWG
 40
0.0014460764
  9
$TDUSRTIMER
 40
2456748.42465456
  9
$USRTIMER
 70
     1
  9
$ANGBASE
 50
0.0
  9
$ANGDIR
 70
     0
  9
$PDMODE
 70
     3
  9
$PDSIZE
 40
0.3125
  9
$PLINEWID
 40
0.0
  9
$SPLFRAME
 70
     0
  9
$SPLINETYPE
 70
     6
  9
$SPLINESEGS
 70
     8
  9
$HANDSEED
  5
4D2
  9
$SURFTAB1
 70
     6
  9
$SURFTAB2
 70
     6
  9
$SURFTYPE
 70
     6
  9
$SURFU
 70
     6
  9
$SURFV
 70
     6
  9
$UCSBASE
  2

  9
$UCSNAME
  2

  9
$UCSORG
 10
0.0
 20
0.0
 30
0.0
  9
$UCSXDIR
 10
1.0
 20
0.0
 30
0.0
  9
$UCSYDIR
 10
0.0
 20
1.0
 30
0.0
  9
$UCSORTHOREF
  2

  9
$UCSORTHOVIEW
 70
     0
  9
$UCSORGTOP
 10
0.0
 20
0.0
 30
0.0
  9
$UCSORGBOTTOM
 10
0.0
 20
0.0
 30
0.0
  9
$UCSORGLEFT
 10
0.0
 20
0.0
 30
0.0
  9
$UCSORGRIGHT
 10
0.0
 20
0.0
 30
0.0
  9
$UCSORGFRONT
 10
0.0
 20
0.0
 30
0.0
  9
$UCSORGBACK
 10
0.0
 20
0.0
 30
0.0
  9
$PUCSBASE
  2

  9
$PUCSNAME
  2

  9
$PUCSORG
 10
0.0
 20
0.0
 30
0.0
  9
$PUCSXDIR
 10
1.0
 20
0.0
 30
0.0
  9
$PUCSYDIR
 10
0.0
 20
1.0
 30
0.0
  9
$PUCSORTHOREF
  2

  9
$PUCSORTHOVIEW
 70
     0
  9
$PUCSORGTOP
 10
0.0
 20
0.0
 30
0.0
  9
$PUCSORGBOTTOM
 10
0.0
 20
0.0
 30
0.0
  9
$PUCSORGLEFT
 10
0.0
 20
0.0
 30
0.0
  9
$PUCSORGRIGHT
 10
0.0
 20
0.0
 30
0.0
  9
$PUCSORGFRONT
 10
0.0
 20
0.0
 30
0.0
  9
$PUCSORGBACK
 10
0.0
 20
0.0
 30
0.0
  9
$USERI1
 70
     0
  9
$USERI2
 70
     0
  9
$USERI3
 70
     0
  9
$USERI4
 70
     0
  9
$USERI5
 70
     0
  9
$USERR1
 40
0.0
  9
$USERR2
 40
0.0
  9
$USERR3
 40
0.0
  9
$USERR4
 40
0.0
  9
$USERR5
 40
0.0
  9
$WORLDVIEW
 70
     1
  9
$SHADEDGE
 70
     3
  9
$SHADEDIF
 70
    70
  9
$TILEMODE
 70
     1
  9
$MAXACTVP
 70
    64
  9
$PINSBASE
 10
0.0
 20
0.0
 30
0.0
  9
$PLIMCHECK
 70
     0
  9
$PEXTMIN
 10
1.000000000000000E+20
 20
1.000000000000000E+20
 30
1.000000000000000E+20
  9
$PEXTMAX
 10
-1.000000000000000E+20
 20
-1.000000000000000E+20
 30
-1.000000000000000E+20
  9
$PLIMMIN
 10
0.0
 20
0.0
  9
$PLIMMAX
 10
420.0
 20
297.0
  9
$UNITMODE
 70
     0
  9
$VISRETAIN
 70
     1
  9
$PLINEGEN
 70
     0
  9
$PSLTSCALE
 70
     1
  9
$TREEDEPTH
 70
  3020
  9
$CMLSTYLE
  2

  9
$CMLJUST
 70
     0
  9
$CMLSCALE
 40
1.0
  9
$PROXYGRAPHICS
 70
     1
  9
$MEASUREMENT
 70
     1
  9
$CELWEIGHT
370
    -1
  9
$ENDCAPS
280
     0
  9
$JOINSTYLE
280
     0
  9
$LWDISPLAY
290
     0
  9
$INSUNITS
 70
     4
  9
$HYPERLINKBASE
  1

  9
$STYLESHEET
  1

  9
$XEDIT
290
     1
  9
$CEPSNTYPE
380
     0
  9
$PSTYLEMODE
290
     1
  9
$FINGERPRINTGUID
  2
{B971E499-278C-47B9-8F97-2CE00C3997ED}
  9
$VERSIONGUID
  2
{FAEB1C32-E019-11D5-929B-00C0DF256EC4}
  9
$EXTNAMES
290
     1
  9
$PSVPSCALE
 40
0.0
  9
$OLESTARTUP
290
     0
  0
ENDSEC
  0
SECTION
  2
CLASSES
  0
CLASS
  1
ACDBDICTIONARYWDFLT
  2
AcDbDictionaryWithDefault
  3
ObjectDBX Classes
 90
        0
280
     0
281
     0
  0
CLASS
  1
ACDBPLACEHOLDER
  2
AcDbPlaceHolder
  3
ObjectDBX Classes
 90
        0
280
     0
281
     0
  0
CLASS
  1
LAYOUT
  2
AcDbLayout
  3
ObjectDBX Classes
 90
        0
280
     0
281
     0
  0
CLASS
  1
TABLESTYLE
  2
AcDbTableStyle
  3
ObjectDBX Classes
 90
     4095
280
     0
281
     0
  0
CLASS
  1
ACAD_TABLE
  2
AcDbTable
  3
ObjectDBX Classes
 90
     1025
280
     0
281
     1
  0
CLASS
  1
SCALE
  2
AcDbScale
  3
ObjectDBX Classes
 90
     1153
280
     0
281
     0
  0
CLASS
  1
TABLEGEOMETRY
  2
AcDbTableGeometry
  3
ObjectDBX Classes
 90
     1152
280
     0
281
     0
  0
CLASS
  1
VISUALSTYLE
  2
AcDbVisualStyle
  3
ObjectDBX Classes
 90
     4095
280
     0
281
     0
  0
CLASS
  1
MATERIAL
  2
AcDbMaterial
  3
ObjectDBX Classes
 90
     1153
280
     0
281
     0
  0
CLASS
  1
SUN
  2
AcDbSun
  3
SCENEOE
 90
     1153
280
     0
281
     0
  0
CLASS
  1
RASTERVARIABLES
  2
AcDbRasterVariables
  3
ISM
 90
        0
280
     0
281
     0
  0
ENDSEC
  0
SECTION
  2
TABLES
  0
TABLE
  2
VPORT
  5
8
330
0
100
AcDbSymbolTable
 70
     1
  0
VPORT
  5
1F4
330
8
100
AcDbSymbolTableRecord
100
AcDbViewportTableRecord
  2
*ACTIVE
 70
     0
 10
0.0
 20
0.0
 11
1.0
 21
1.0
 12
211.4489062500002
 22
177.4797115384616
 13
0.0
 23
0.0
 14
1.0
 24
1.0
 15
0.0
 25
0.0
 16
0.0
 26
0.0
 36
1.0
 17
0.0
 27
0.0
 37
0.0
 40
464.0625
 41
1.732905982905983
 42
50.0
 43
0.0
 44
0.0
 50
0.0
 51
0.0
 71
    16
 72
   100
 73
     1
 74
     1
 75
     0
 76
     0
 77
     0
 78
     0
281
     0
 65
     1
110
0.0
120
0.0
130
0.0
111
1.0
121
0.0
131
0.0
112
0.0
122
1.0
132
0.0
 79
     0
146
0.0
  0
ENDTAB
  0
TABLE
  2
LTYPE
  5
5
330
0
100
AcDbSymbolTable
 70
     6
  0
LTYPE
  5
14
330
5
100
AcDbSymbolTableRecord
100
AcDbLinetypeTableRecord
  2
BYBLOCK
 70
     0
  3

 72
    65
 73
     0
 40
0.0
  0
LTYPE
  5
15
330
5
100
AcDbSymbolTableRecord
100
AcDbLinetypeTableRecord
  2
BYLAYER
 70
     0
  3

 72
    65
 73
     0
 40
0.0
  0
LTYPE
  5
16
330
5
100
AcDbSymbolTableRecord
100
AcDbLinetypeTableRecord
  2
CONTINUOUS
 70
     0
  3
Solid line
 72
    65
 73
     0
 40
0.0
  0
LTYPE
  5
1F5
330
5
100
AcDbSymbolTableRecord
100
AcDbLinetypeTableRecord
  2
CENTER
 70
     0
  3
____ _ ____ _ ____ _ ____ _ ____ _ ____ _ ____
 72
    65
 73
     4
 40
0.6
 49
0.375
 74
     0
 49
-0.075
 74
     0
 49
0.075
 74
     0
 49
-0.075
 74
     0
  0
LTYPE
  5
1F6
330
5
100
AcDbSymbolTableRecord
100
AcDbLinetypeTableRecord
  2
HIDDEN
 70
     0
  3
- - - - - - - - - - - - - - - - - - - -
 72
    65
 73
     2
 40
0.2
 49
0.1
 74
     0
 49
-0.1
 74
     0
  0
LTYPE
  5
1F7
330
5
100
AcDbSymbolTableRecord
100
AcDbLinetypeTableRecord
  2
PHANTOM
 70
     0
  3
_____ _ _ _____ _ _ _____ _ _ _____
 72
    65
 73
     6
 40
0.8
 49
0.45
 74
     0
 49
-0.05
 74
     0
 49
0.1
 74
     0
 49
-0.05
 74
     0
 49
0.1
 74
     0
 49
-0.05
 74
     0
  0
LTYPE
  5
1F8
330
5
100
AcDbSymbolTableRecord
100
AcDbLinetypeTableRecord
  2
DOT
 70
     0
  3
. . . . . . . . . . . . . . . . . . . .
 72
    65
 73
     2
 40
0.2
 49
0.1
 74
     0
 49
-0.1
 74
     0
  0
LTYPE
  5
1F9
330
5
100
AcDbSymbolTableRecord
100
AcDbLinetypeTableRecord
  2
DASHED
 70
     0
  3
- - - - - - - - - - - - - - - - - - - -
 72
    65
 73
     2
 40
0.2
 49
0.1
 74
     0
 49
-0.1
 74
     0
  0
ENDTAB
  0
TABLE
  2
LAYER
  5
2
330
0
100
AcDbSymbolTable
 70
    35
  0
LAYER
  5
10
330
2
100
AcDbSymbolTableRecord
100
AcDbLayerTableRecord
  2
0
 70
     0
 62
     7
  6
CONTINUOUS
370
    -3
390
F
  0
LAYER
  5
1FA
330
2
100
AcDbSymbolTableRecord
100
AcDbLayerTableRecord
  2
DEFAULT_1
 70
     0
 62
     7
  6
CENTER
370
    -3
390
F
  0
LAYER
  5
1FB
330
2
100
AcDbSymbolTableRecord
100
AcDbLayerTableRecord
  2
DEFAULT_2
 70
     0
 62
     8
  6
HIDDEN
370
    -3
390
F
  0
LAYER
  5
1FC
330
2
100
AcDbSymbolTableRecord
100
AcDbLayerTableRecord
  2
DEFAULT_3
 70
     0
 62
     7
  6
PHANTOM
370
    -3
390
F
  0
LAYER
  5
1FD
330
2
100
AcDbSymbolTableRecord
100
AcDbLayerTableRecord
  2
01_ALL_DTM_PLN
 70
     0
 62
     7
  6
CONTINUOUS
370
    -3
390
F
  0
LAYER
  5
1FE
330
2
100
AcDbSymbolTableRecord
100
AcDbLayerTableRecord
  2
01__ASM_ALL_DTM_PLN
 70
     0
 62
     7
  6
CONTINUOUS
370
    -3
390
F
  0
LAYER
  5
1FF
330
2
100
AcDbSymbolTableRecord
100
AcDbLayerTableRecord
  2
01__ASM_DEF_DTM_PLN
 70
     0
 62
     7
  6
CONTINUOUS
370
    -3
390
F
  0
LAYER
  5
200
330
2
100
AcDbSymbolTableRecord
100
AcDbLayerTableRecord
  2
01___PRT_ALL_DTM_PLN
 70
     0
 62
     7
  6
CONTINUOUS
370
    -3
390
F
  0
LAYER
  5
201
330
2
100
AcDbSymbolTableRecord
100
AcDbLayerTableRecord
  2
01___PRT_DEF_DTM_PLN
 70
     0
 62
     7
  6
CONTINUOUS
370
    -3
390
F
  0
LAYER
  5
202
330
2
100
AcDbSymbolTableRecord
100
AcDbLayerTableRecord
  2
02_ALL_AXES
 70
     0
 62
     7
  6
CONTINUOUS
370
    -3
390
F
  0
LAYER
  5
203
330
2
100
AcDbSymbolTableRecord
100
AcDbLayerTableRecord
  2
02__ASM_ALL_AXES
 70
     0
 62
     7
  6
CONTINUOUS
370
    -3
390
F
  0
LAYER
  5
204
330
2
100
AcDbSymbolTableRecord
100
AcDbLayerTableRecord
  2
02___PRT_ALL_AXES
 70
     0
 62
     7
  6
CONTINUOUS
370
    -3
390
F
  0
LAYER
  5
205
330
2
100
AcDbSymbolTableRecord
100
AcDbLayerTableRecord
  2
03_ALL_CURVES
 70
     0
 62
     7
  6
CONTINUOUS
370
    -3
390
F
  0
LAYER
  5
206
330
2
100
AcDbSymbolTableRecord
100
AcDbLayerTableRecord
  2
03__ASM_ALL_CURVES
 70
     0
 62
     7
  6
CONTINUOUS
370
    -3
390
F
  0
LAYER
  5
207
330
2
100
AcDbSymbolTableRecord
100
AcDbLayerTableRecord
  2
03___PRT_ALL_CURVES
 70
     0
 62
     7
  6
CONTINUOUS
370
    -3
390
F
  0
LAYER
  5
208
330
2
100
AcDbSymbolTableRecord
100
AcDbLayerTableRecord
  2
04_ALL_DTM_PNT
 70
     0
 62
     7
  6
CONTINUOUS
370
    -3
390
F
  0
LAYER
  5
209
330
2
100
AcDbSymbolTableRecord
100
AcDbLayerTableRecord
  2
04__ASM_ALL_DTM_PNT
 70
     0
 62
     7
  6
CONTINUOUS
370
    -3
390
F
  0
LAYER
  5
20A
330
2
100
AcDbSymbolTableRecord
100
AcDbLayerTableRecord
  2
04___PRT_ALL_DTM_PNT
 70
     0
 62
     7
  6
CONTINUOUS
370
    -3
390
F
  0
LAYER
  5
20B
330
2
100
AcDbSymbolTableRecord
100
AcDbLayerTableRecord
  2
05_ALL_DTM_CSYS
 70
     0
 62
     7
  6
CONTINUOUS
370
    -3
390
F
  0
LAYER
  5
20C
330
2
100
AcDbSymbolTableRecord
100
AcDbLayerTableRecord
  2
05__ASM_ALL_DTM_CSYS
 70
     0
 62
     7
  6
CONTINUOUS
370
    -3
390
F
  0
LAYER
  5
20D
330
2
100
AcDbSymbolTableRecord
100
AcDbLayerTableRecord
  2
05__ASM_DEF_DTM_CSYS
 70
     0
 62
     7
  6
CONTINUOUS
370
    -3
390
F
  0
LAYER
  5
20E
330
2
100
AcDbSymbolTableRecord
100
AcDbLayerTableRecord
  2
05___PRT_ALL_DTM_CSYS
 70
     0
 62
     7
  6
CONTINUOUS
370
    -3
390
F
  0
LAYER
  5
20F
330
2
100
AcDbSymbolTableRecord
100
AcDbLayerTableRecord
  2
05___PRT_DEF_DTM_CSYS
 70
     0
 62
     7
  6
CONTINUOUS
370
    -3
390
F
  0
LAYER
  5
210
330
2
100
AcDbSymbolTableRecord
100
AcDbLayerTableRecord
  2
06_ALL_SURFS
 70
     0
 62
     7
  6
CONTINUOUS
370
    -3
390
F
  0
LAYER
  5
211
330
2
100
AcDbSymbolTableRecord
100
AcDbLayerTableRecord
  2
06__ASM_ALL_SURFS
 70
     0
 62
     7
  6
CONTINUOUS
370
    -3
390
F
  0
LAYER
  5
212
330
2
100
AcDbSymbolTableRecord
100
AcDbLayerTableRecord
  2
06___PRT_ALL_SURFS
 70
     0
 62
     7
  6
CONTINUOUS
370
    -3
390
F
  0
LAYER
  5
213
330
2
100
AcDbSymbolTableRecord
100
AcDbLayerTableRecord
  2
07__ASM_ALL_SKELETONS
 70
     0
 62
     7
  6
CONTINUOUS
370
    -3
390
F
  0
LAYER
  5
214
330
2
100
AcDbSymbolTableRecord
100
AcDbLayerTableRecord
  2
1_ALL_PLANES
 70
     0
 62
     7
  6
CONTINUOUS
370
    -3
390
F
  0
LAYER
  5
215
330
2
100
AcDbSymbolTableRecord
100
AcDbLayerTableRecord
  2
2_ALL_CSYS
 70
     0
 62
     7
  6
CONTINUOUS
370
    -3
390
F
  0
LAYER
  5
216
330
2
100
AcDbSymbolTableRecord
100
AcDbLayerTableRecord
  2
3_ALL_AXES
 70
     0
 62
     7
  6
CONTINUOUS
370
    -3
390
F
  0
LAYER
  5
217
330
2
100
AcDbSymbolTableRecord
100
AcDbLayerTableRecord
  2
4_ALL_POINTS
 70
     0
 62
     7
  6
CONTINUOUS
370
    -3
390
F
  0
LAYER
  5
218
330
2
100
AcDbSymbolTableRecord
100
AcDbLayerTableRecord
  2
5_ALL_CURVES
 70
     0
 62
     7
  6
CONTINUOUS
370
    -3
390
F
  0
LAYER
  5
219
330
2
100
AcDbSymbolTableRecord
100
AcDbLayerTableRecord
  2
7_ALL_FEATURES
 70
     0
 62
     7
  6
CONTINUOUS
370
    -3
390
F
  0
LAYER
  5
21A
330
2
100
AcDbSymbolTableRecord
100
AcDbLayerTableRecord
  2
8_ALL_NOTES_BALLOONS_SYMBOLS_GT
 70
     0
 62
     7
  6
CONTINUOUS
370
    -3
390
F
  0
LAYER
  5
4AE
330
2
100
AcDbSymbolTableRecord
100
AcDbLayerTableRecord
  2
Defpoints
 70
     0
 62
     7
  6
CONTINUOUS
290
     0
370
    -3
390
F
  0
ENDTAB
  0
TABLE
  2
STYLE
  5
3
330
0
100
AcDbSymbolTable
 70
     5
  0
STYLE
  5
11
330
3
100
AcDbSymbolTableRecord
100
AcDbTextStyleTableRecord
  2
STANDARD
 70
     0
 40
0.0
 41
0.85
 50
0.0
 71
     0
 42
0.2
  3
txt
  4

  0
STYLE
  5
21B
330
3
100
AcDbSymbolTableRecord
100
AcDbTextStyleTableRecord
  2
TEXTSTYLE_1
 70
     0
 40
0.0
 41
0.8
 50
0.0
 71
     0
 42
0.2
  3
gdt
  4

  0
STYLE
  5
21C
330
3
100
AcDbSymbolTableRecord
100
AcDbTextStyleTableRecord
  2
TEXTSTYLE_2
 70
     0
 40
0.0
 41
0.9
 50
0.0
 71
     0
 42
0.2
  3
txt
  4

  0
STYLE
  5
21D
330
3
100
AcDbSymbolTableRecord
100
AcDbTextStyleTableRecord
  2
TEXTSTYLE_3
 70
     0
 40
0.0
 41
0.9
 50
0.0
 71
     0
 42
0.2
  3
txt
  4

  0
STYLE
  5
21E
330
3
100
AcDbSymbolTableRecord
100
AcDbTextStyleTableRecord
  2
TEXTSTYLE_4
 70
     0
 40
0.0
 41
0.85
 50
0.0
 71
     0
 42
0.2
  3
txt
  4

  0
ENDTAB
  0
TABLE
  2
VIEW
  5
6
330
0
100
AcDbSymbolTable
 70
     0
  0
ENDTAB
  0
TABLE
  2
UCS
  5
7
330
0
100
AcDbSymbolTable
 70
     0
  0
ENDTAB
  0
TABLE
  2
APPID
  5
9
330
0
100
AcDbSymbolTable
 70
     1
  0
APPID
  5
21F
330
9
100
AcDbSymbolTableRecord
100
AcDbRegAppTableRecord
  2
ACAD
 70
     0
  0
ENDTAB
  0
TABLE
  2
DIMSTYLE
  5
A
330
0
100
AcDbSymbolTable
 70
     2
100
AcDbDimStyleTable
  0
DIMSTYLE
105
228
330
A
100
AcDbSymbolTableRecord
100
AcDbDimStyleTableRecord
  2
STANDARD
 70
     0
 41
2.5
 47
0.01
 48
0.01
 71
     1
 73
     0
 74
     0
 77
     1
 78
     8
140
3.0
178
     0
271
     2
272
     2
284
     8
340
11
341
222
342
222
343
222
344
222
  0
DIMSTYLE
105
229
330
A
100
AcDbSymbolTableRecord
100
AcDbDimStyleTableRecord
  2
DIMSTYLE_1
 70
     0
 41
2.5
 47
0.3
 48
0.3
 73
     0
 74
     0
 77
     1
 78
     8
140
3.0
178
     0
271
     2
272
     2
284
     8
340
11
341
222
342
222
343
222
344
222
  0
ENDTAB
  0
TABLE
  2
BLOCK_RECORD
  5
1
330
0
100
AcDbSymbolTable
 70
     6
  0
BLOCK_RECORD
  5
220
330
1
100
AcDbSymbolTableRecord
100
AcDbBlockTableRecord
  2
*Model_Space
340
465
  0
BLOCK_RECORD
  5
221
330
1
100
AcDbSymbolTableRecord
100
AcDbBlockTableRecord
  2
*Paper_Space
340
466
  0
BLOCK_RECORD
  5
222
330
1
100
AcDbSymbolTableRecord
100
AcDbBlockTableRecord
  2
_CLOSED
340
0
102
{BLKREFS
331
0
331
0
331
0
331
0
331
0
331
0
331
283
331
282
331
27A
331
279
331
271
331
270
102
}
  0
BLOCK_RECORD
  5
223
330
1
100
AcDbSymbolTableRecord
100
AcDbBlockTableRecord
  2
*D1
340
0
  0
BLOCK_RECORD
  5
224
330
1
100
AcDbSymbolTableRecord
100
AcDbBlockTableRecord
  2
*D2
340
0
  0
BLOCK_RECORD
  5
225
330
1
100
AcDbSymbolTableRecord
100
AcDbBlockTableRecord
  2
*D3
340
0
  0
BLOCK_RECORD
  5
226
330
1
100
AcDbSymbolTableRecord
100
AcDbBlockTableRecord
  2
LOGO2_BL0
340
0
102
{BLKREFS
331
2AB
102
}
  0
BLOCK_RECORD
  5
227
330
1
100
AcDbSymbolTableRecord
100
AcDbBlockTableRecord
  2
*T5
340
0
102
{BLKREFS
331
2AC
331
2AC
102
}
  0
ENDTAB
  0
ENDSEC
  0
SECTION
  2
BLOCKS
  0
BLOCK
  5
20
330
220
100
AcDbEntity
  8
0
100
AcDbBlockBegin
  2
*Model_Space
 70
     0
 10
0.0
 20
0.0
 30
0.0
  3
*Model_Space
  1
*Model_Space
  0
ENDBLK
  5
21
330
220
100
AcDbEntity
  8
0
100
AcDbBlockEnd
  0
BLOCK
  5
1C
330
221
100
AcDbEntity
 67
     1
  8
0
100
AcDbBlockBegin
  2
*Paper_Space
 70
     0
 10
0.0
 20
0.0
 30
0.0
  3
*Paper_Space
  1
*Paper_Space
  0
ENDBLK
  5
1D
330
221
100
AcDbEntity
 67
     1
  8
0
100
AcDbBlockEnd
  0
BLOCK
  5
266
330
222
100
AcDbEntity
  8
0
100
AcDbBlockBegin
  2
_CLOSED
 70
     0
 10
0.0
 20
0.0
 30
0.0
  3
_CLOSED
  1
_CLOSED
  0
LINE
  5
267
330
222
100
AcDbEntity
  8
0
  6
ByBlock
 62
     0
100
AcDbLine
 10
0.0
 20
0.0
 30
0.0
 11
-1.0
 21
0.2
 31
0.0
  0
LINE
  5
268
330
222
100
AcDbEntity
  8
0
  6
ByBlock
 62
     0
100
AcDbLine
 10
-1.0
 20
0.2
 30
0.0
 11
-1.0
 21
-0.2
 31
0.0
  0
LINE
  5
269
330
222
100
AcDbEntity
  8
0
  6
ByBlock
 62
     0
100
AcDbLine
 10
-1.0
 20
-0.2
 30
0.0
 11
0.0
 21
0.0
 31
0.0
  0
LINE
  5
26A
330
222
100
AcDbEntity
  8
0
  6
ByBlock
 62
     0
100
AcDbLine
 10
-1.0
 20
0.0
 30
0.0
 11
0.0
 21
0.0
 31
0.0
  0
ENDBLK
  5
26B
330
222
100
AcDbEntity
  8
0
  6
ByBlock
 62
     0
100
AcDbBlockEnd
  0
BLOCK
  5
26C
330
223
100
AcDbEntity
  8
0
100
AcDbBlockBegin
  2
*D1
 70
     1
 10
0.0
 20
0.0
 30
0.0
  3
*D1
  1
*D1
  0
LINE
  5
26D
330
223
100
AcDbEntity
  8
0
  6
Continuous
 62
     0
370
    -2
100
AcDbLine
 10
51.1573841682
 20
49.7776042896
 30
0.0
 11
51.1573841682
 21
38.7513572108
 31
0.0
  0
LINE
  5
26E
330
223
100
AcDbEntity
  8
0
  6
Continuous
 62
     0
370
    -2
100
AcDbLine
 10
101.1573841682
 20
49.4634224715
 30
0.0
 11
101.1573841682
 21
38.7513572108
 31
0.0
  0
LINE
  5
26F
330
223
100
AcDbEntity
  8
0
  6
Continuous
 62
     0
370
    -2
100
AcDbLine
 10
53.6573841682
 20
38.9313572108
 30
0.0
 11
98.6573841682
 21
38.9313572108
 31
0.0
  0
INSERT
  5
270
330
223
100
AcDbEntity
  8
0
 62
     0
370
    -2
100
AcDbBlockReference
  2
_CLOSED
 10
51.1573841682
 20
38.9313572108
 30
0.0
 41
2.5
 42
2.5
 43
2.5
 50
180.0
  0
INSERT
  5
271
330
223
100
AcDbEntity
  8
0
 62
     0
370
    -2
100
AcDbBlockReference
  2
_CLOSED
 10
101.1573841682
 20
38.9313572108
 30
0.0
 41
2.5
 42
2.5
 43
2.5
  0
MTEXT
  5
272
330
223
100
AcDbEntity
  8
0
 62
     0
100
AcDbMText
 10
76.1573841682
 20
43.9313572108
 30
0.0
 40
3.0
 41
0.0
 71
     2
 72
     1
  1
\A1;50
 73
     1
 44
1.0
  0
POINT
  5
273
330
223
100
AcDbEntity
  8
Defpoints
 62
     0
100
AcDbPoint
 10
51.1573841682
 20
49.8401042896
 30
0.0
  0
POINT
  5
4B3
330
223
100
AcDbEntity
  8
Defpoints
 62
     0
100
AcDbPoint
 10
101.1573841682
 20
49.5259224715
 30
0.0
  0
POINT
  5
4B4
330
223
100
AcDbEntity
  8
Defpoints
 62
     0
100
AcDbPoint
 10
101.1573841682
 20
38.9313572108
 30
0.0
  0
ENDBLK
  5
274
330
223
100
AcDbEntity
  8
0
  6
ByBlock
 62
     0
100
AcDbBlockEnd
  0
BLOCK
  5
275
330
224
100
AcDbEntity
  8
0
100
AcDbBlockBegin
  2
*D2
 70
     1
 10
0.0
 20
0.0
 30
0.0
  3
*D2
  1
*D2
  0
LINE
  5
276
330
224
100
AcDbEntity
  8
0
  6
Continuous
 62
     0
370
    -2
100
AcDbLine
 10
103.3336966838
 20
101.6813572108
 30
0.0
 11
117.2955498045
 21
101.6813572108
 31
0.0
  0
LINE
  5
277
330
224
100
AcDbEntity
  8
0
  6
Continuous
 62
     0
370
    -2
100
AcDbLine
 10
103.3336966838
 20
51.6813572108
 30
0.0
 11
117.2955498045
 21
51.6813572108
 31
0.0
  0
LINE
  5
278
330
224
100
AcDbEntity
  8
0
  6
Continuous
 62
     0
370
    -2
100
AcDbLine
 10
117.1155498045
 20
99.1813572108
 30
0.0
 11
117.1155498045
 21
54.1813572108
 31
0.0
  0
INSERT
  5
279
330
224
100
AcDbEntity
  8
0
 62
     0
370
    -2
100
AcDbBlockReference
  2
_CLOSED
 10
117.1155498045
 20
101.6813572108
 30
0.0
 41
2.5
 42
2.5
 43
2.5
 50
89.99999999999999
  0
INSERT
  5
27A
330
224
100
AcDbEntity
  8
0
 62
     0
370
    -2
100
AcDbBlockReference
  2
_CLOSED
 10
117.1155498045
 20
51.6813572108
 30
0.0
 41
2.5
 42
2.5
 43
2.5
 50
270.0
  0
MTEXT
  5
27B
330
224
100
AcDbEntity
  8
0
 62
     0
100
AcDbMText
 10
112.1155498045
 20
76.6813572108
 30
0.0
 40
3.0
 41
0.0
 71
     2
 72
     1
  1
\A1;50
 11
2.842170943040401E-16
 21
1.0
 31
0.0
 73
     1
 44
1.0
  0
POINT
  5
27C
330
224
100
AcDbEntity
  8
Defpoints
 62
     0
100
AcDbPoint
 10
103.2711966838
 20
101.6813572108
 30
0.0
  0
POINT
  5
4B1
330
224
100
AcDbEntity
  8
Defpoints
 62
     0
100
AcDbPoint
 10
103.2711966838
 20
51.6813572108
 30
0.0
  0
POINT
  5
4B2
330
224
100
AcDbEntity
  8
Defpoints
 62
     0
100
AcDbPoint
 10
117.1155498045
 20
51.6813572108
 30
0.0
  0
ENDBLK
  5
27D
330
224
100
AcDbEntity
  8
0
  6
ByBlock
 62
     0
100
AcDbBlockEnd
  0
BLOCK
  5
27E
330
225
100
AcDbEntity
  8
0
100
AcDbBlockBegin
  2
*D3
 70
     1
 10
0.0
 20
0.0
 30
0.0
  3
*D3
  1
*D3
  0
LINE
  5
27F
330
225
100
AcDbEntity
  8
0
  6
Continuous
 62
     0
370
    -2
100
AcDbLine
 10
103.3336966838
 20
270.7551764579
 30
0.0
 11
117.6796129041
 21
270.7551764579
 31
0.0
  0
LINE
  5
280
330
225
100
AcDbEntity
  8
0
  6
Continuous
 62
     0
370
    -2
100
AcDbLine
 10
103.3336966838
 20
165.7551764579
 30
0.0
 11
117.6796129041
 21
165.7551764579
 31
0.0
  0
LINE
  5
281
330
225
100
AcDbEntity
  8
0
  6
Continuous
 62
     0
370
    -2
100
AcDbLine
 10
117.4996129041
 20
268.2551764579
 30
0.0
 11
117.4996129041
 21
168.2551764579
 31
0.0
  0
INSERT
  5
282
330
225
100
AcDbEntity
  8
0
 62
     0
370
    -2
100
AcDbBlockReference
  2
_CLOSED
 10
117.4996129041
 20
270.7551764579
 30
0.0
 41
2.5
 42
2.5
 43
2.5
 50
90.0
  0
INSERT
  5
283
330
225
100
AcDbEntity
  8
0
 62
     0
370
    -2
100
AcDbBlockReference
  2
_CLOSED
 10
117.4996129041
 20
165.7551764579
 30
0.0
 41
2.5
 42
2.5
 43
2.5
 50
270.0
  0
MTEXT
  5
284
330
225
100
AcDbEntity
  8
0
 62
     0
100
AcDbMText
 10
112.4996129041
 20
218.2551764579
 30
0.0
 40
3.0
 41
0.0
 71
     2
 72
     1
  1
\A1;105
 11
1.353414734781143E-16
 21
1.0
 31
0.0
 73
     1
 44
1.0
  0
POINT
  5
285
330
225
100
AcDbEntity
  8
Defpoints
 62
     0
100
AcDbPoint
 10
103.2711966838
 20
270.7551764579
 30
0.0
  0
POINT
  5
4AF
330
225
100
AcDbEntity
  8
Defpoints
 62
     0
100
AcDbPoint
 10
103.2711966838
 20
165.7551764579
 30
0.0
  0
POINT
  5
4B0
330
225
100
AcDbEntity
  8
Defpoints
 62
     0
100
AcDbPoint
 10
117.4996129041
 20
165.7551764579
 30
0.0
  0
ENDBLK
  5
286
330
225
100
AcDbEntity
  8
0
  6
ByBlock
 62
     0
100
AcDbBlockEnd
  0
BLOCK
  5
22A
330
226
100
AcDbEntity
  8
0
100
AcDbBlockBegin
  2
LOGO2_BL0
 70
     0
 10
333.1473869546
 20
37.5239270671
 30
0.0
  3
LOGO2_BL0
  1
LOGO2_BL0
  0
LINE
  5
22B
330
226
100
AcDbEntity
  8
0
  6
Continuous
 62
     7
100
AcDbLine
 10
324.8903121828
 20
40.7194184059
 30
0.0
 11
323.5859712535
 21
40.7194184059
 31
0.0
  0
LINE
  5
22C
330
226
100
AcDbEntity
  8
0
  6
Continuous
 62
     7
100
AcDbLine
 10
323.5859712535
 20
40.7194184059
 30
0.0
 11
323.5859712535
 21
30.260352346
 31
0.0
  0
LINE
  5
22D
330
226
100
AcDbEntity
  8
0
  6
Continuous
 62
     7
100
AcDbLine
 10
323.5859712535
 20
30.260352346
 30
0.0
 11
328.0670261417
 21
30.260352346
 31
0.0
  0
LINE
  5
22E
330
226
100
AcDbEntity
  8
0
  6
Continuous
 62
     7
100
AcDbLine
 10
328.0670261417
 20
30.260352346
 30
0.0
 11
328.0670261417
 21
31.4532066711
 31
0.0
  0
LINE
  5
22F
330
226
100
AcDbEntity
  8
0
  6
Continuous
 62
     7
100
AcDbLine
 10
328.0670261417
 20
31.4532066711
 30
0.0
 11
324.8903121828
 21
31.4532066711
 31
0.0
  0
LINE
  5
230
330
226
100
AcDbEntity
  8
0
  6
Continuous
 62
     7
100
AcDbLine
 10
324.8903121828
 20
31.4532066711
 30
0.0
 11
324.8903121828
 21
40.7194184059
 31
0.0
  0
LINE
  5
231
330
226
100
AcDbEntity
  8
0
  6
Continuous
 62
     7
100
AcDbLine
 10
339.8266383991
 20
40.7194184059
 30
0.0
 11
338.522820881
 21
40.7194184059
 31
0.0
  0
LINE
  5
232
330
226
100
AcDbEntity
  8
0
  6
Continuous
 62
     7
100
AcDbLine
 10
338.522820881
 20
40.7194184059
 30
0.0
 11
338.522820881
 21
30.260352346
 31
0.0
  0
LINE
  5
233
330
226
100
AcDbEntity
  8
0
  6
Continuous
 62
     7
100
AcDbLine
 10
338.522820881
 20
30.260352346
 30
0.0
 11
343.0040066221
 21
30.260352346
 31
0.0
  0
LINE
  5
234
330
226
100
AcDbEntity
  8
0
  6
Continuous
 62
     7
100
AcDbLine
 10
343.0040066221
 20
30.260352346
 30
0.0
 11
343.0040066221
 21
31.4532066711
 31
0.0
  0
LINE
  5
235
330
226
100
AcDbEntity
  8
0
  6
Continuous
 62
     7
100
AcDbLine
 10
343.0040066221
 20
31.4532066711
 30
0.0
 11
339.8266383991
 21
31.4532066711
 31
0.0
  0
LINE
  5
236
330
226
100
AcDbEntity
  8
0
  6
Continuous
 62
     7
100
AcDbLine
 10
339.8266383991
 20
31.4532066711
 30
0.0
 11
339.8266383991
 21
40.7194184059
 31
0.0
  0
LWPOLYLINE
  5
237
330
226
100
AcDbEntity
  8
0
  6
Continuous
 62
     7
100
AcDbPolyline
 90
        2
 70
     0
 43
0.2
 10
321.9403661644
 20
26.9168010391
 10
321.9403661644
 20
25.0597377898
  0
LWPOLYLINE
  5
238
330
226
100
AcDbEntity
  8
0
  6
Continuous
 62
     7
100
AcDbPolyline
 90
        2
 70
     0
 43
0.2
 10
321.9403661644
 20
25.0597377898
 10
322.7360821748
 20
25.0597377898
  0
LWPOLYLINE
  5
239
330
226
100
AcDbEntity
  8
0
  6
Continuous
 62
     7
100
AcDbPolyline
 90
        2
 70
     0
 43
0.2
 10
322.7360821748
 20
25.0597377898
 10
322.7360821748
 20
25.2717193614
  0
LWPOLYLINE
  5
23A
330
226
100
AcDbEntity
  8
0
  6
Continuous
 62
     7
100
AcDbPolyline
 90
        2
 70
     0
 43
0.2
 10
322.7360821748
 20
25.2717193614
 10
322.1719756593
 20
25.2717193614
  0
LWPOLYLINE
  5
23B
330
226
100
AcDbEntity
  8
0
  6
Continuous
 62
     7
100
AcDbPolyline
 90
        2
 70
     0
 43
0.2
 10
322.1719756593
 20
25.2717193614
 10
322.1719756593
 20
26.9168010391
  0
LWPOLYLINE
  5
23C
330
226
100
AcDbEntity
  8
0
  6
Continuous
 62
     7
100
AcDbPolyline
 90
        2
 70
     0
 43
0.2
 10
322.1719756593
 20
26.9168010391
 10
321.9403661644
 20
26.9168010391
  0
SPLINE
  5
23D
330
226
100
AcDbEntity
  8
0
  6
Continuous
 62
     7
100
AcDbSpline
210
0.0
220
0.0
230
1.0
 70
    11
 71
     3
 72
    35
 73
    31
 74
     0
 42
0.000000001
 43
0.0000001
 40
0.0
 40
0.0
 40
0.0
 40
0.0
 40
1.0
 40
1.0
 40
1.0
 40
2.0
 40
2.0
 40
2.0
 40
3.0
 40
3.0
 40
3.0
 40
4.0
 40
4.0
 40
4.0
 40
5.0
 40
5.0
 40
5.0
 40
6.0
 40
6.0
 40
6.0
 40
7.0
 40
7.0
 40
7.0
 40
8.0
 40
8.0
 40
8.0
 40
9.0
 40
9.0
 40
9.0
 40
10.0
 40
10.0
 40
10.0
 40
10.0
 10
324.1343754303
 20
26.2122894457
 30
0.0
 10
324.1343754303
 20
26.2122894457
 30
0.0
 10
324.1343754303
 20
25.5501741665
 30
0.0
 10
324.1343754303
 20
25.5501741665
 30
0.0
 10
324.1343754303
 20
25.2350805712
 30
0.0
 10
324.2822391191
 20
25.0204819432
 30
0.0
 10
324.6223256034
 20
25.0204819432
 30
0.0
 10
324.9618886764
 20
25.0204819432
 30
0.0
 10
325.1100140709
 20
25.2350805712
 30
0.0
 10
325.1100140709
 20
25.5501741665
 30
0.0
 10
325.1100140709
 20
25.5501741665
 30
0.0
 10
325.1100140709
 20
26.2122894457
 30
0.0
 10
325.1100140709
 20
26.2122894457
 30
0.0
 10
325.1100140709
 20
26.2122894457
 30
0.0
 10
324.887956832
 20
26.2122894457
 30
0.0
 10
324.887956832
 20
26.2122894457
 30
0.0
 10
324.887956832
 20
26.2122894457
 30
0.0
 10
324.887956832
 20
25.5752979083
 30
0.0
 10
324.887956832
 20
25.5752979083
 30
0.0
 10
324.887956832
 20
25.3894869011
 30
0.0
 10
324.8412423746
 20
25.2267059906
 30
0.0
 10
324.6223256034
 20
25.2267059906
 30
0.0
 10
324.402885421
 20
25.2267059906
 30
0.0
 10
324.3561709636
 20
25.3894869011
 30
0.0
 10
324.3561709636
 20
25.5752979083
 30
0.0
 10
324.3561709636
 20
25.5752979083
 30
0.0
 10
324.3561709636
 20
26.2122894457
 30
0.0
 10
324.3561709636
 20
26.2122894457
 30
0.0
 10
324.3561709636
 20
26.2122894457
 30
0.0
 10
324.1343754303
 20
26.2122894457
 30
0.0
 10
324.1343754303
 20
26.2122894457
 30
0.0
  0
SPLINE
  5
23E
330
226
100
AcDbEntity
  8
0
  6
Continuous
 62
     7
100
AcDbSpline
210
0.0
220
0.0
230
1.0
 70
    11
 71
     3
 72
    35
 73
    31
 74
     0
 42
0.000000001
 43
0.0000001
 40
0.0
 40
0.0
 40
0.0
 40
0.0
 40
1.0
 40
1.0
 40
1.0
 40
2.0
 40
2.0
 40
2.0
 40
3.0
 40
3.0
 40
3.0
 40
4.0
 40
4.0
 40
4.0
 40
5.0
 40
5.0
 40
5.0
 40
6.0
 40
6.0
 40
6.0
 40
7.0
 40
7.0
 40
7.0
 40
8.0
 40
8.0
 40
8.0
 40
9.0
 40
9.0
 40
9.0
 40
10.0
 40
10.0
 40
10.0
 40
10.0
 10
327.5331466281
 20
26.1709399539
 30
0.0
 10
327.4446901205
 20
26.2222342601
 30
0.0
 10
327.3312407238
 20
26.2473580019
 30
0.0
 10
327.2276052888
 20
26.2473580019
 30
0.0
 10
326.8727324356
 20
26.2473580019
 30
0.0
 10
326.5972872454
 20
25.9835587129
 30
0.0
 10
326.5972872454
 20
25.6260688032
 30
0.0
 10
326.5972872454
 20
25.2811407645
 30
0.0
 10
326.8757420505
 20
25.0210053545
 30
0.0
 10
327.2153051235
 20
25.0210053545
 30
0.0
 10
327.3312407238
 20
25.0210053545
 30
0.0
 10
327.4319973967
 20
25.0429886286
 30
0.0
 10
327.5331466281
 20
25.0968999912
 30
0.0
 10
327.5331466281
 20
25.0968999912
 30
0.0
 10
327.5331466281
 20
25.3795420867
 30
0.0
 10
327.5331466281
 20
25.3795420867
 30
0.0
 10
327.4492699692
 20
25.2863748774
 30
0.0
 10
327.345765387
 20
25.2272294019
 30
0.0
 10
327.2176604743
 20
25.2272294019
 30
0.0
 10
326.9839573343
 20
25.2272294019
 30
0.0
 10
326.8186902202
 20
25.3994317156
 30
0.0
 10
326.8186902202
 20
25.6360136177
 30
0.0
 10
326.8186902202
 20
25.8479951893
 30
0.0
 10
326.9864435379
 20
26.040087132
 30
0.0
 10
327.2032666639
 20
26.040087132
 30
0.0
 10
327.3360822782
 20
26.040087132
 30
0.0
 10
327.4446901205
 20
25.9861757693
 30
0.0
 10
327.5331466281
 20
25.8851573907
 30
0.0
 10
327.5331466281
 20
25.8851573907
 30
0.0
 10
327.5331466281
 20
26.1709399539
 30
0.0
 10
327.5331466281
 20
26.1709399539
 30
0.0
  0
SPLINE
  5
23F
330
226
100
AcDbEntity
  8
0
  6
Continuous
 62
     7
100
AcDbSpline
210
0.0
220
0.0
230
1.0
 70
    11
 71
     3
 72
    32
 73
    28
 74
     0
 42
0.000000001
 43
0.0000001
 40
0.0
 40
0.0
 40
0.0
 40
0.0
 40
1.0
 40
1.0
 40
1.0
 40
2.0
 40
2.0
 40
2.0
 40
3.0
 40
3.0
 40
3.0
 40
4.0
 40
4.0
 40
4.0
 40
5.0
 40
5.0
 40
5.0
 40
6.0
 40
6.0
 40
6.0
 40
7.0
 40
7.0
 40
7.0
 40
8.0
 40
8.0
 40
8.0
 40
9.0
 40
9.0
 40
9.0
 40
9.0
 10
330.0650178804
 20
25.5993748276
 30
0.0
 10
330.0650178804
 20
25.5993748276
 30
0.0
 10
330.0650178804
 20
25.6333965613
 30
0.0
 10
330.0650178804
 20
25.6333965613
 30
0.0
 10
330.0650178804
 20
25.9757075435
 30
0.0
 10
329.8921613025
 20
26.2473580019
 30
0.0
 10
329.5255116954
 20
26.2473580019
 30
0.0
 10
329.153889681
 20
26.2473580019
 30
0.0
 10
328.9641530891
 20
25.9809416564
 30
0.0
 10
328.9641530891
 20
25.6260688032
 30
0.0
 10
328.9641530891
 20
25.2863748774
 30
0.0
 10
329.1782283059
 20
25.0204819432
 30
0.0
 10
329.5303532498
 20
25.0204819432
 30
0.0
 10
329.754373281
 20
25.0204819432
 30
0.0
 10
329.9565408909
 20
25.1361558378
 30
0.0
 10
330.0650178804
 20
25.3355755385
 30
0.0
 10
330.0650178804
 20
25.3355755385
 30
0.0
 10
329.8773749337
 20
25.4423514412
 30
0.0
 10
329.8773749337
 20
25.4423514412
 30
0.0
 10
329.7938908332
 20
25.3036474499
 30
0.0
 10
329.7026864163
 20
25.2178079987
 30
0.0
 10
329.5331011591
 20
25.2178079987
 30
0.0
 10
329.3211195875
 20
25.2178079987
 30
0.0
 10
329.1881731204
 20
25.4025721833
 30
0.0
 10
329.1858177696
 20
25.5993748276
 30
0.0
 10
329.1858177696
 20
25.5993748276
 30
0.0
 10
330.0650178804
 20
25.5993748276
 30
0.0
 10
330.0650178804
 20
25.5993748276
 30
0.0
  0
SPLINE
  5
240
330
226
100
AcDbEntity
  8
0
  6
Continuous
 62
     7
100
AcDbSpline
210
0.0
220
0.0
230
1.0
 70
    11
 71
     3
 72
    14
 73
    10
 74
     0
 42
0.000000001
 43
0.0000001
 40
0.0
 40
0.0
 40
0.0
 40
0.0
 40
1.0
 40
1.0
 40
1.0
 40
2.0
 40
2.0
 40
2.0
 40
3.0
 40
3.0
 40
3.0
 40
3.0
 10
329.1978562292
 20
25.7668664397
 30
0.0
 10
329.2254661746
 20
25.9317409954
 30
0.0
 10
329.3533093817
 20
26.054742648
 30
0.0
 10
329.5255116954
 20
26.054742648
 30
0.0
 10
329.7026864163
 20
26.054742648
 30
0.0
 10
329.816135813
 20
25.9390687534
 30
0.0
 10
329.8433531999
 20
25.7668664397
 30
0.0
 10
329.8433531999
 20
25.7668664397
 30
0.0
 10
329.1978562292
 20
25.7668664397
 30
0.0
 10
329.1978562292
 20
25.7668664397
 30
0.0
  0
SPLINE
  5
241
330
226
100
AcDbEntity
  8
0
  6
Continuous
 62
     7
100
AcDbSpline
210
0.0
220
0.0
230
1.0
 70
    11
 71
     3
 72
    20
 73
    16
 74
     0
 42
0.000000001
 43
0.0000001
 40
0.0
 40
0.0
 40
0.0
 40
0.0
 40
1.0
 40
1.0
 40
1.0
 40
2.0
 40
2.0
 40
2.0
 40
3.0
 40
3.0
 40
3.0
 40
4.0
 40
4.0
 40
4.0
 40
5.0
 40
5.0
 40
5.0
 40
5.0
 10
332.0890493306
 20
25.9762309548
 30
0.0
 10
332.0890493306
 20
25.9762309548
 30
0.0
 10
332.5001888972
 20
25.4737561185
 30
0.0
 10
332.5001888972
 20
25.4737561185
 30
0.0
 10
332.3841224441
 20
25.3580822239
 30
0.0
 10
332.2463344226
 20
25.2277528132
 30
0.0
 10
332.0743938145
 20
25.2277528132
 30
0.0
 10
331.8969573879
 20
25.2277528132
 30
0.0
 10
331.7294657758
 20
25.3921039576
 30
0.0
 10
331.7294657758
 20
25.5690169729
 30
0.0
 10
331.7294657758
 20
25.7469768107
 30
0.0
 10
331.9392228494
 20
25.8731189311
 30
0.0
 10
332.0668043508
 20
25.9610520275
 30
0.0
 10
332.0668043508
 20
25.9610520275
 30
0.0
 10
332.0890493306
 20
25.9762309548
 30
0.0
 10
332.0890493306
 20
25.9762309548
 30
0.0
  0
SPLINE
  5
242
330
226
100
AcDbEntity
  8
0
  6
Continuous
 62
     7
100
AcDbSpline
210
0.0
220
0.0
230
1.0
 70
    11
 71
     3
 72
    23
 73
    19
 74
     0
 42
0.000000001
 43
0.0000001
 40
0.0
 40
0.0
 40
0.0
 40
0.0
 40
1.0
 40
1.0
 40
1.0
 40
2.0
 40
2.0
 40
2.0
 40
3.0
 40
3.0
 40
3.0
 40
4.0
 40
4.0
 40
4.0
 40
5.0
 40
5.0
 40
5.0
 40
6.0
 40
6.0
 40
6.0
 40
6.0
 10
332.1383808444
 20
26.2672476309
 30
0.0
 10
332.1383808444
 20
26.2672476309
 30
0.0
 10
332.0767491653
 20
26.3457593241
 30
0.0
 10
332.0767491653
 20
26.3457593241
 30
0.0
 10
332.0228378026
 20
26.4143262028
 30
0.0
 10
331.9660476779
 20
26.4834164928
 30
0.0
 10
331.9660476779
 20
26.5771071133
 30
0.0
 10
331.9660476779
 20
26.6959214757
 30
0.0
 10
332.0619627964
 20
26.7733863463
 30
0.0
 10
332.1729259894
 20
26.7733863463
 30
0.0
 10
332.2961893477
 20
26.7733863463
 30
0.0
 10
332.3894874098
 20
26.7022024111
 30
0.0
 10
332.3894874098
 20
26.5718730004
 30
0.0
 10
332.3894874098
 20
26.4368328882
 30
0.0
 10
332.2613824971
 20
26.3604148401
 30
0.0
 10
332.1678227294
 20
26.2866138485
 30
0.0
 10
332.1678227294
 20
26.2866138485
 30
0.0
 10
332.1383808444
 20
26.2672476309
 30
0.0
 10
332.1383808444
 20
26.2672476309
 30
0.0
  0
SPLINE
  5
243
330
226
100
AcDbEntity
  8
0
  6
Continuous
 62
     7
100
AcDbSpline
210
0.0
220
0.0
230
1.0
 70
    11
 71
     3
 72
    50
 73
    46
 74
     0
 42
0.000000001
 43
0.0000001
 40
0.0
 40
0.0
 40
0.0
 40
0.0
 40
1.0
 40
1.0
 40
1.0
 40
2.0
 40
2.0
 40
2.0
 40
3.0
 40
3.0
 40
3.0
 40
4.0
 40
4.0
 40
4.0
 40
5.0
 40
5.0
 40
5.0
 40
6.0
 40
6.0
 40
6.0
 40
7.0
 40
7.0
 40
7.0
 40
8.0
 40
8.0
 40
8.0
 40
9.0
 40
9.0
 40
9.0
 40
10.0
 40
10.0
 40
10.0
 40
11.0
 40
11.0
 40
11.0
 40
12.0
 40
12.0
 40
12.0
 40
13.0
 40
13.0
 40
13.0
 40
14.0
 40
14.0
 40
14.0
 40
15.0
 40
15.0
 40
15.0
 40
15.0
 10
332.8405370871
 20
25.0602612011
 30
0.0
 10
332.8405370871
 20
25.0602612011
 30
0.0
 10
333.1259270918
 20
25.0602612011
 30
0.0
 10
333.1259270918
 20
25.0602612011
 30
0.0
 10
333.1259270918
 20
25.0602612011
 30
0.0
 10
332.793560924
 20
25.471139062
 30
0.0
 10
332.793560924
 20
25.471139062
 30
0.0
 10
332.793560924
 20
25.471139062
 30
0.0
 10
333.0200671588
 20
25.7370319963
 30
0.0
 10
333.0200671588
 20
25.7370319963
 30
0.0
 10
333.0200671588
 20
25.7370319963
 30
0.0
 10
332.8718109116
 20
25.8898680923
 30
0.0
 10
332.8718109116
 20
25.8898680923
 30
0.0
 10
332.8718109116
 20
25.8898680923
 30
0.0
 10
332.6559037553
 20
25.6386306742
 30
0.0
 10
332.6559037553
 20
25.6386306742
 30
0.0
 10
332.6559037553
 20
25.6386306742
 30
0.0
 10
332.2688411079
 20
26.1065603655
 30
0.0
 10
332.2688411079
 20
26.1065603655
 30
0.0
 10
332.4242942604
 20
26.2206640263
 30
0.0
 10
332.6065722414
 20
26.3604148401
 30
0.0
 10
332.6065722414
 20
26.5697793553
 30
0.0
 10
332.6065722414
 20
26.8136890154
 30
0.0
 10
332.4045354843
 20
26.9571037083
 30
0.0
 10
332.1780292495
 20
26.9571037083
 30
0.0
 10
331.9338578837
 20
26.9571037083
 30
0.0
 10
331.7494862575
 20
26.8063612574
 30
0.0
 10
331.7494862575
 20
26.5498897263
 30
0.0
 10
331.7494862575
 20
26.3923429287
 30
0.0
 10
331.8481492853
 20
26.25468576
 30
0.0
 10
331.953485807
 20
26.1437225669
 30
0.0
 10
331.953485807
 20
26.1437225669
 30
0.0
 10
331.8379427652
 20
26.0599767609
 30
0.0
 10
331.8379427652
 20
26.0599767609
 30
0.0
 10
331.660244633
 20
25.9317409954
 30
0.0
 10
331.5129043554
 20
25.8040286411
 30
0.0
 10
331.5129043554
 20
25.5669233277
 30
0.0
 10
331.5129043554
 20
25.2465956195
 30
0.0
 10
331.7714695316
 20
25.0204819432
 30
0.0
 10
332.0818524253
 20
25.0204819432
 30
0.0
 10
332.3007691965
 20
25.0204819432
 30
0.0
 10
332.4979643992
 20
25.145577241
 30
0.0
 10
332.6382386243
 20
25.3114986192
 30
0.0
 10
332.6382386243
 20
25.3114986192
 30
0.0
 10
332.8405370871
 20
25.0602612011
 30
0.0
 10
332.8405370871
 20
25.0602612011
 30
0.0
  0
LWPOLYLINE
  5
244
330
226
100
AcDbEntity
  8
0
  6
Continuous
 62
     7
100
AcDbPolyline
 90
        2
 70
     0
 43
0.2
 10
334.7759811768
 20
26.9168010391
 10
334.5446333876
 20
26.9168010391
  0
LWPOLYLINE
  5
245
330
226
100
AcDbEntity
  8
0
  6
Continuous
 62
     7
100
AcDbPolyline
 90
        2
 70
     0
 43
0.2
 10
334.5446333876
 20
26.9168010391
 10
334.5446333876
 20
25.0597377898
  0
LWPOLYLINE
  5
246
330
226
100
AcDbEntity
  8
0
  6
Continuous
 62
     7
100
AcDbPolyline
 90
        2
 70
     0
 43
0.2
 10
334.5446333876
 20
25.0597377898
 10
335.3399568395
 20
25.0597377898
  0
LWPOLYLINE
  5
247
330
226
100
AcDbEntity
  8
0
  6
Continuous
 62
     7
100
AcDbPolyline
 90
        2
 70
     0
 43
0.2
 10
335.3399568395
 20
25.0597377898
 10
335.3399568395
 20
25.2717193614
  0
LWPOLYLINE
  5
248
330
226
100
AcDbEntity
  8
0
  6
Continuous
 62
     7
100
AcDbPolyline
 90
        2
 70
     0
 43
0.2
 10
335.3399568395
 20
25.2717193614
 10
334.7759811768
 20
25.2717193614
  0
LWPOLYLINE
  5
249
330
226
100
AcDbEntity
  8
0
  6
Continuous
 62
     7
100
AcDbPolyline
 90
        2
 70
     0
 43
0.2
 10
334.7759811768
 20
25.2717193614
 10
334.7759811768
 20
26.9168010391
  0
LWPOLYLINE
  5
24A
330
226
100
AcDbEntity
  8
0
  6
Continuous
 62
     7
100
AcDbPolyline
 90
        2
 70
     0
 43
0.2
 10
337.019060251
 20
26.2122894457
 10
336.7979189819
 20
26.2122894457
  0
LWPOLYLINE
  5
24B
330
226
100
AcDbEntity
  8
0
  6
Continuous
 62
     7
100
AcDbPolyline
 90
        2
 70
     0
 43
0.2
 10
336.7979189819
 20
26.2122894457
 10
336.7979189819
 20
25.0602612011
  0
LWPOLYLINE
  5
24C
330
226
100
AcDbEntity
  8
0
  6
Continuous
 62
     7
100
AcDbPolyline
 90
        2
 70
     0
 43
0.2
 10
336.7979189819
 20
25.0602612011
 10
337.019060251
 20
25.0602612011
  0
LWPOLYLINE
  5
24D
330
226
100
AcDbEntity
  8
0
  6
Continuous
 62
     7
100
AcDbPolyline
 90
        2
 70
     0
 43
0.2
 10
337.019060251
 20
25.0602612011
 10
337.019060251
 20
26.2122894457
  0
SPLINE
  5
24E
330
226
100
AcDbEntity
  8
0
  6
Continuous
 62
     7
100
AcDbSpline
210
0.0
220
0.0
230
1.0
 70
    11
 71
     3
 72
    17
 73
    13
 74
     0
 42
0.000000001
 43
0.0000001
 40
0.0
 40
0.0
 40
0.0
 40
0.0
 40
1.0
 40
1.0
 40
1.0
 40
2.0
 40
2.0
 40
2.0
 40
3.0
 40
3.0
 40
3.0
 40
4.0
 40
4.0
 40
4.0
 40
4.0
 10
336.9086204693
 20
26.894817765
 30
0.0
 10
336.8246129576
 20
26.894817765
 30
0.0
 10
336.7560460788
 20
26.825727475
 30
0.0
 10
336.7560460788
 20
26.7398880238
 30
0.0
 10
336.7560460788
 20
26.6556188065
 30
0.0
 10
336.8246129576
 20
26.5896689842
 30
0.0
 10
336.9086204693
 20
26.5896689842
 30
0.0
 10
336.9923662753
 20
26.5896689842
 30
0.0
 10
337.0611948597
 20
26.6556188065
 30
0.0
 10
337.0611948597
 20
26.7398880238
 30
0.0
 10
337.0611948597
 20
26.825727475
 30
0.0
 10
336.9923662753
 20
26.894817765
 30
0.0
 10
336.9086204693
 20
26.894817765
 30
0.0
  0
SPLINE
  5
24F
330
226
100
AcDbEntity
  8
0
  6
Continuous
 62
     7
100
AcDbSpline
210
0.0
220
0.0
230
1.0
 70
    11
 71
     3
 72
    17
 73
    13
 74
     0
 42
0.000000001
 43
0.0000001
 40
0.0
 40
0.0
 40
0.0
 40
0.0
 40
1.0
 40
1.0
 40
1.0
 40
2.0
 40
2.0
 40
2.0
 40
3.0
 40
3.0
 40
3.0
 40
4.0
 40
4.0
 40
4.0
 40
4.0
 10
339.1493441926
 20
25.2178079987
 30
0.0
 10
338.915379347
 20
25.2178079987
 30
0.0
 10
338.7850499363
 20
25.4198447558
 30
0.0
 10
338.7850499363
 20
25.6360136177
 30
0.0
 10
338.7850499363
 20
25.8506122457
 30
0.0
 10
338.9208751655
 20
26.0495085351
 30
0.0
 10
339.1493441926
 20
26.0495085351
 30
0.0
 10
339.3888048568
 20
26.0495085351
 30
0.0
 10
339.5243683804
 20
25.8605570602
 30
0.0
 10
339.5243683804
 20
25.6360136177
 30
0.0
 10
339.5243683804
 20
25.4098999414
 30
0.0
 10
339.3911602076
 20
25.2178079987
 30
0.0
 10
339.1493441926
 20
25.2178079987
 30
0.0
  0
SPLINE
  5
250
330
226
100
AcDbEntity
  8
0
  6
Continuous
 62
     7
100
AcDbSpline
210
0.0
220
0.0
230
1.0
 70
    11
 71
     3
 72
    50
 73
    46
 74
     0
 42
0.000000001
 43
0.0000001
 40
0.0
 40
0.0
 40
0.0
 40
0.0
 40
1.0
 40
1.0
 40
1.0
 40
2.0
 40
2.0
 40
2.0
 40
3.0
 40
3.0
 40
3.0
 40
4.0
 40
4.0
 40
4.0
 40
5.0
 40
5.0
 40
5.0
 40
6.0
 40
6.0
 40
6.0
 40
7.0
 40
7.0
 40
7.0
 40
8.0
 40
8.0
 40
8.0
 40
9.0
 40
9.0
 40
9.0
 40
10.0
 40
10.0
 40
10.0
 40
11.0
 40
11.0
 40
11.0
 40
12.0
 40
12.0
 40
12.0
 40
13.0
 40
13.0
 40
13.0
 40
14.0
 40
14.0
 40
14.0
 40
15.0
 40
15.0
 40
15.0
 40
15.0
 10
339.7334711899
 20
26.2128128569
 30
0.0
 10
339.7334711899
 20
26.2128128569
 30
0.0
 10
339.5118065095
 20
26.2128128569
 30
0.0
 10
339.5118065095
 20
26.2128128569
 30
0.0
 10
339.5118065095
 20
26.2128128569
 30
0.0
 10
339.5118065095
 20
26.0154868014
 30
0.0
 10
339.5118065095
 20
26.0154868014
 30
0.0
 10
339.5118065095
 20
26.0154868014
 30
0.0
 10
339.5070958079
 20
26.0154868014
 30
0.0
 10
339.5070958079
 20
26.0154868014
 30
0.0
 10
339.4157605382
 20
26.158378083
 30
0.0
 10
339.2778416638
 20
26.2468345907
 30
0.0
 10
339.1051159388
 20
26.2468345907
 30
0.0
 10
338.772749771
 20
26.2468345907
 30
0.0
 10
338.5636469615
 20
25.9589583823
 30
0.0
 10
338.5636469615
 20
25.6433413757
 30
0.0
 10
338.5636469615
 20
25.3135922644
 30
0.0
 10
338.7607113114
 20
25.0204819432
 30
0.0
 10
339.1155841646
 20
25.0204819432
 30
0.0
 10
339.2778416638
 20
25.0204819432
 30
0.0
 10
339.4178541833
 20
25.1089384508
 30
0.0
 10
339.5070958079
 20
25.2397912728
 30
0.0
 10
339.5070958079
 20
25.2397912728
 30
0.0
 10
339.5118065095
 20
25.2397912728
 30
0.0
 10
339.5118065095
 20
25.2397912728
 30
0.0
 10
339.5118065095
 20
25.2397912728
 30
0.0
 10
339.5118065095
 20
25.0204819432
 30
0.0
 10
339.5118065095
 20
25.0204819432
 30
0.0
 10
339.5118065095
 20
24.7839000411
 30
0.0
 10
339.4552780904
 20
24.5970422113
 30
0.0
 10
339.1820573981
 20
24.5970422113
 30
0.0
 10
338.9797589354
 20
24.5970422113
 30
0.0
 10
338.8371293594
 20
24.7153331624
 30
0.0
 10
338.8371293594
 20
24.9215572098
 30
0.0
 10
338.8371293594
 20
24.9215572098
 30
0.0
 10
338.615464679
 20
24.9215572098
 30
0.0
 10
338.615464679
 20
24.9215572098
 30
0.0
 10
338.6204370862
 20
24.5970422113
 30
0.0
 10
338.8515231698
 20
24.4002395671
 30
0.0
 10
339.171850878
 20
24.4002395671
 30
0.0
 10
339.6198909404
 20
24.4002395671
 30
0.0
 10
339.7334711899
 20
24.6854987189
 30
0.0
 10
339.7334711899
 20
25.0822444751
 30
0.0
 10
339.7334711899
 20
25.0822444751
 30
0.0
 10
339.7334711899
 20
26.2128128569
 30
0.0
 10
339.7334711899
 20
26.2128128569
 30
0.0
  0
SPLINE
  5
251
330
226
100
AcDbEntity
  8
0
  6
Continuous
 62
     7
100
AcDbSpline
210
0.0
220
0.0
230
1.0
 70
    11
 71
     3
 72
    44
 73
    40
 74
     0
 42
0.000000001
 43
0.0000001
 40
0.0
 40
0.0
 40
0.0
 40
0.0
 40
1.0
 40
1.0
 40
1.0
 40
2.0
 40
2.0
 40
2.0
 40
3.0
 40
3.0
 40
3.0
 40
4.0
 40
4.0
 40
4.0
 40
5.0
 40
5.0
 40
5.0
 40
6.0
 40
6.0
 40
6.0
 40
7.0
 40
7.0
 40
7.0
 40
8.0
 40
8.0
 40
8.0
 40
9.0
 40
9.0
 40
9.0
 40
10.0
 40
10.0
 40
10.0
 40
11.0
 40
11.0
 40
11.0
 40
12.0
 40
12.0
 40
12.0
 40
13.0
 40
13.0
 40
13.0
 40
13.0
 10
341.3023965253
 20
27.1978729007
 30
0.0
 10
341.3023965253
 20
27.1978729007
 30
0.0
 10
341.3023965253
 20
25.0597377898
 30
0.0
 10
341.3023965253
 20
25.0597377898
 30
0.0
 10
341.3023965253
 20
25.0597377898
 30
0.0
 10
341.5237995001
 20
25.0597377898
 30
0.0
 10
341.5237995001
 20
25.0597377898
 30
0.0
 10
341.5237995001
 20
25.0597377898
 30
0.0
 10
341.5237995001
 20
25.5894300131
 30
0.0
 10
341.5237995001
 20
25.5894300131
 30
0.0
 10
341.5237995001
 20
25.7993179395
 30
0.0
 10
341.5237995001
 20
26.0500319464
 30
0.0
 10
341.8090586519
 20
26.0500319464
 30
0.0
 10
342.0359574452
 20
26.0500319464
 30
0.0
 10
342.0629131266
 20
25.9170854793
 30
0.0
 10
342.0629131266
 20
25.7208062464
 30
0.0
 10
342.0629131266
 20
25.7208062464
 30
0.0
 10
342.0629131266
 20
25.0597377898
 30
0.0
 10
342.0629131266
 20
25.0597377898
 30
0.0
 10
342.0629131266
 20
25.0597377898
 30
0.0
 10
342.2848395126
 20
25.0597377898
 30
0.0
 10
342.2848395126
 20
25.0597377898
 30
0.0
 10
342.2848395126
 20
25.0597377898
 30
0.0
 10
342.2848395126
 20
25.7469768107
 30
0.0
 10
342.2848395126
 20
25.7469768107
 30
0.0
 10
342.2848395126
 20
26.027525261
 30
0.0
 10
342.2008320009
 20
26.2473580019
 30
0.0
 10
341.8757935911
 20
26.2473580019
 30
0.0
 10
341.7360427773
 20
26.2473580019
 30
0.0
 10
341.5978621973
 20
26.1808847684
 30
0.0
 10
341.5285102016
 20
26.0578831157
 30
0.0
 10
341.5285102016
 20
26.0578831157
 30
0.0
 10
341.5237995001
 20
26.0578831157
 30
0.0
 10
341.5237995001
 20
26.0578831157
 30
0.0
 10
341.5237995001
 20
26.0578831157
 30
0.0
 10
341.5237995001
 20
27.1978729007
 30
0.0
 10
341.5237995001
 20
27.1978729007
 30
0.0
 10
341.5237995001
 20
27.1978729007
 30
0.0
 10
341.3023965253
 20
27.1978729007
 30
0.0
 10
341.3023965253
 20
27.1978729007
 30
0.0
  0
LWPOLYLINE
  5
252
330
226
100
AcDbEntity
  8
0
  6
Continuous
 62
     7
100
AcDbPolyline
 90
        2
 70
     0
 43
0.2
 10
344.1246301895
 20
26.005541987
 10
344.341060757
 20
26.005541987
  0
LWPOLYLINE
  5
253
330
226
100
AcDbEntity
  8
0
  6
Continuous
 62
     7
100
AcDbPolyline
 90
        2
 70
     0
 43
0.2
 10
344.341060757
 20
26.005541987
 10
344.341060757
 20
26.2122894457
  0
LWPOLYLINE
  5
254
330
226
100
AcDbEntity
  8
0
  6
Continuous
 62
     7
100
AcDbPolyline
 90
        2
 70
     0
 43
0.2
 10
344.341060757
 20
26.2122894457
 10
344.1246301895
 20
26.2122894457
  0
LWPOLYLINE
  5
255
330
226
100
AcDbEntity
  8
0
  6
Continuous
 62
     7
100
AcDbPolyline
 90
        2
 70
     0
 43
0.2
 10
344.1246301895
 20
26.2122894457
 10
344.1246301895
 20
26.65300175
  0
LWPOLYLINE
  5
256
330
226
100
AcDbEntity
  8
0
  6
Continuous
 62
     7
100
AcDbPolyline
 90
        2
 70
     0
 43
0.2
 10
344.1246301895
 20
26.65300175
 10
343.9029655091
 20
26.65300175
  0
LWPOLYLINE
  5
257
330
226
100
AcDbEntity
  8
0
  6
Continuous
 62
     7
100
AcDbPolyline
 90
        2
 70
     0
 43
0.2
 10
343.9029655091
 20
26.65300175
 10
343.9029655091
 20
26.2122894457
  0
LWPOLYLINE
  5
258
330
226
100
AcDbEntity
  8
0
  6
Continuous
 62
     7
100
AcDbPolyline
 90
        2
 70
     0
 43
0.2
 10
343.9029655091
 20
26.2122894457
 10
343.7823192072
 20
26.2122894457
  0
LWPOLYLINE
  5
259
330
226
100
AcDbEntity
  8
0
  6
Continuous
 62
     7
100
AcDbPolyline
 90
        2
 70
     0
 43
0.2
 10
343.7823192072
 20
26.2122894457
 10
343.7823192072
 20
26.005541987
  0
LWPOLYLINE
  5
25A
330
226
100
AcDbEntity
  8
0
  6
Continuous
 62
     7
100
AcDbPolyline
 90
        2
 70
     0
 43
0.2
 10
343.7823192072
 20
26.005541987
 10
343.9029655091
 20
26.005541987
  0
LWPOLYLINE
  5
25B
330
226
100
AcDbEntity
  8
0
  6
Continuous
 62
     7
100
AcDbPolyline
 90
        2
 70
     0
 43
0.2
 10
343.9029655091
 20
26.005541987
 10
343.9029655091
 20
25.0597377898
  0
LWPOLYLINE
  5
25C
330
226
100
AcDbEntity
  8
0
  6
Continuous
 62
     7
100
AcDbPolyline
 90
        2
 70
     0
 43
0.2
 10
343.9029655091
 20
25.0597377898
 10
344.1246301895
 20
25.0597377898
  0
LWPOLYLINE
  5
25D
330
226
100
AcDbEntity
  8
0
  6
Continuous
 62
     7
100
AcDbPolyline
 90
        2
 70
     0
 43
0.2
 10
344.1246301895
 20
25.0597377898
 10
344.1246301895
 20
26.005541987
  0
SPLINE
  5
25E
330
226
100
AcDbEntity
  8
0
  6
Continuous
 62
     7
100
AcDbSpline
210
0.0
220
0.0
230
1.0
 70
    11
 71
     3
 72
    20
 73
    16
 74
     0
 42
0.000000001
 43
0.0000001
 40
0.0
 40
0.0
 40
0.0
 40
0.0
 40
1.0
 40
1.0
 40
1.0
 40
2.0
 40
2.0
 40
2.0
 40
3.0
 40
3.0
 40
3.0
 40
4.0
 40
4.0
 40
4.0
 40
5.0
 40
5.0
 40
5.0
 40
5.0
 10
331.9066404967
 20
35.4206642332
 30
0.0
 10
331.9066404967
 20
35.4206642332
 30
0.0
 10
334.2229971512
 20
32.5911028109
 30
0.0
 10
334.2229971512
 20
32.5911028109
 30
0.0
 10
333.5713500978
 20
31.9389323462
 30
0.0
 10
332.7944768938
 20
31.2030160755
 30
0.0
 10
331.8232872491
 20
31.2030160755
 30
0.0
 10
330.8247493647
 20
31.2030160755
 30
0.0
 10
329.8814313711
 20
32.1325945228
 30
0.0
 10
329.8814313711
 20
33.1317866713
 30
0.0
 10
329.8814313711
 20
34.1309788198
 30
0.0
 10
331.0602844442
 20
34.8375840585
 30
0.0
 10
331.7818069046
 20
35.3374418384
 30
0.0
 10
331.7818069046
 20
35.3374418384
 30
0.0
 10
331.9066404967
 20
35.4206642332
 30
0.0
 10
331.9066404967
 20
35.4206642332
 30
0.0
  0
SPLINE
  5
25F
330
226
100
AcDbEntity
  8
0
  6
Continuous
 62
     7
100
AcDbSpline
210
0.0
220
0.0
230
1.0
 70
    11
 71
     3
 72
    23
 73
    19
 74
     0
 42
0.000000001
 43
0.0000001
 40
0.0
 40
0.0
 40
0.0
 40
0.0
 40
1.0
 40
1.0
 40
1.0
 40
2.0
 40
2.0
 40
2.0
 40
3.0
 40
3.0
 40
3.0
 40
4.0
 40
4.0
 40
4.0
 40
5.0
 40
5.0
 40
5.0
 40
6.0
 40
6.0
 40
6.0
 40
6.0
 10
332.1840484793
 20
37.0584181529
 30
0.0
 10
332.1840484793
 20
37.0584181529
 30
0.0
 10
331.8375502067
 20
37.5017475137
 30
0.0
 10
331.8375502067
 20
37.5017475137
 30
0.0
 10
331.5317471618
 20
37.8898569837
 30
0.0
 10
331.2128588347
 20
38.2783590121
 30
0.0
 10
331.2128588347
 20
38.8053033262
 30
0.0
 10
331.2128588347
 20
39.4714750428
 30
0.0
 10
331.7541969591
 20
39.9151969621
 30
0.0
 10
332.3781032143
 20
39.9151969621
 30
0.0
 10
333.0718848763
 20
39.9151969621
 30
0.0
 10
333.5990908961
 20
39.5129553874
 30
0.0
 10
333.5990908961
 20
38.7779550864
 30
0.0
 10
333.5990908961
 20
38.0146905758
 30
0.0
 10
332.8778301414
 20
37.58457735
 30
0.0
 10
332.3507549745
 20
37.1688579346
 30
0.0
 10
332.3507549745
 20
37.1688579346
 30
0.0
 10
332.1840484793
 20
37.0584181529
 30
0.0
 10
332.1840484793
 20
37.0584181529
 30
0.0
  0
SPLINE
  5
260
330
226
100
AcDbEntity
  8
0
  6
Continuous
 62
     7
100
AcDbSpline
210
0.0
220
0.0
230
1.0
 70
    11
 71
     3
 72
    50
 73
    46
 74
     0
 42
0.000000001
 43
0.0000001
 40
0.0
 40
0.0
 40
0.0
 40
0.0
 40
1.0
 40
1.0
 40
1.0
 40
2.0
 40
2.0
 40
2.0
 40
3.0
 40
3.0
 40
3.0
 40
4.0
 40
4.0
 40
4.0
 40
5.0
 40
5.0
 40
5.0
 40
6.0
 40
6.0
 40
6.0
 40
7.0
 40
7.0
 40
7.0
 40
8.0
 40
8.0
 40
8.0
 40
9.0
 40
9.0
 40
9.0
 40
10.0
 40
10.0
 40
10.0
 40
11.0
 40
11.0
 40
11.0
 40
12.0
 40
12.0
 40
12.0
 40
13.0
 40
13.0
 40
13.0
 40
14.0
 40
14.0
 40
14.0
 40
15.0
 40
15.0
 40
15.0
 40
15.0
 10
336.1376356422
 20
30.2598289348
 30
0.0
 10
336.1376356422
 20
30.2598289348
 30
0.0
 10
337.7468636468
 20
30.2598289348
 30
0.0
 10
337.7468636468
 20
30.2598289348
 30
0.0
 10
337.7468636468
 20
30.2598289348
 30
0.0
 10
335.8738363531
 20
32.5769707062
 30
0.0
 10
335.8738363531
 20
32.5769707062
 30
0.0
 10
335.8738363531
 20
32.5769707062
 30
0.0
 10
337.1501747786
 20
34.0744504008
 30
0.0
 10
337.1501747786
 20
34.0744504008
 30
0.0
 10
337.1501747786
 20
34.0744504008
 30
0.0
 10
336.3179508309
 20
34.9354619693
 30
0.0
 10
336.3179508309
 20
34.9354619693
 30
0.0
 10
336.3179508309
 20
34.9354619693
 30
0.0
 10
335.0973557076
 20
33.5201578469
 30
0.0
 10
335.0973557076
 20
33.5201578469
 30
0.0
 10
335.0973557076
 20
33.5201578469
 30
0.0
 10
332.9194413388
 20
36.1555336813
 30
0.0
 10
332.9194413388
 20
36.1555336813
 30
0.0
 10
333.7930147782
 20
36.7935720412
 30
0.0
 10
334.8196860194
 20
37.58457735
 30
0.0
 10
334.8196860194
 20
38.7634304231
 30
0.0
 10
334.8196860194
 20
40.1371233482
 30
0.0
 10
333.6817898795
 20
40.9416064976
 30
0.0
 10
332.4064982766
 20
40.9416064976
 30
0.0
 10
331.0330670573
 20
40.9416064976
 30
0.0
 10
329.9921328585
 20
40.0953812979
 30
0.0
 10
329.9921328585
 20
38.6527289358
 30
0.0
 10
329.9921328585
 20
37.7651542444
 30
0.0
 10
330.547472235
 20
36.9882810403
 30
0.0
 10
331.1436376918
 20
36.3638513739
 30
0.0
 10
331.1436376918
 20
36.3638513739
 30
0.0
 10
330.4917289328
 20
35.8922578035
 30
0.0
 10
330.4917289328
 20
35.8922578035
 30
0.0
 10
329.4931910484
 20
35.1709970488
 30
0.0
 10
328.6603128365
 20
34.4497362942
 30
0.0
 10
328.6603128365
 20
33.1181779778
 30
0.0
 10
328.6603128365
 20
31.3145026798
 30
0.0
 10
330.1173590091
 20
30.0379025487
 30
0.0
 10
331.8648984465
 20
30.0379025487
 30
0.0
 10
333.0997565274
 20
30.0379025487
 30
0.0
 10
334.2091267521
 20
30.7460780212
 30
0.0
 10
335.000001208
 20
31.6746096459
 30
0.0
 10
335.000001208
 20
31.6746096459
 30
0.0
 10
336.1376356422
 20
30.2598289348
 30
0.0
 10
336.1376356422
 20
30.2598289348
 30
0.0
  0
LINE
  5
261
330
226
100
AcDbEntity
  8
0
  6
Continuous
 62
     7
100
AcDbLine
 10
321.9404970172
 20
28.2337038394
 30
0.0
 11
344.3544077449
 21
28.2337038394
 31
0.0
  0
LINE
  5
262
330
226
100
AcDbEntity
  8
0
  6
Continuous
 62
     7
100
AcDbLine
 10
344.3544077449
 20
28.2337038394
 30
0.0
 11
344.3544077449
 21
50.6476145671
 31
0.0
  0
LINE
  5
263
330
226
100
AcDbEntity
  8
0
  6
Continuous
 62
     7
100
AcDbLine
 10
344.3544077449
 20
50.6476145671
 30
0.0
 11
321.9404970172
 21
50.6476145671
 31
0.0
  0
LINE
  5
264
330
226
100
AcDbEntity
  8
0
  6
Continuous
 62
     7
100
AcDbLine
 10
321.9404970172
 20
50.6476145671
 30
0.0
 11
321.9404970172
 21
28.2337038394
 31
0.0
  0
ENDBLK
  5
265
330
226
100
AcDbEntity
  8
0
  6
ByBlock
 62
     0
100
AcDbBlockEnd
  0
BLOCK
  5
287
330
227
100
AcDbEntity
  8
0
100
AcDbBlockBegin
  2
*T5
 70
     1
 10
0.0
 20
0.0
 30
0.0
  3
*T5
  1
*T5
  0
MTEXT
  5
288
330
227
100
AcDbEntity
  8
0
  6
Continuous
 62
     0
100
AcDbMText
 10
30.28622003006668
 20
-3.0
 30
0.0
 40
3.0
 41
40.18162670675557
 71
     4
 72
     5
  1
3A1_C_001
 73
     1
 44
1.0
  0
MTEXT
  5
289
330
227
100
AcDbEntity
  8
0
  6
Continuous
 62
     0
100
AcDbMText
 10
70.58784673682226
 20
-0.06
 30
0.0
 40
3.5
 41
20.03081335337778
 71
     1
 72
     5
  1
Rev:00
 73
     1
 44
1.0
  0
MTEXT
  5
28A
330
227
100
AcDbEntity
  8
0
  6
Continuous
 62
     0
100
AcDbMText
 10
30.28622003006668
 20
-6.06
 30
0.0
 40
3.5
 41
40.18162670675557
 71
     1
 72
     5
  1
Scale:1:1
 73
     1
 44
1.0
  0
MTEXT
  5
28B
330
227
100
AcDbEntity
  8
0
  6
Continuous
 62
     0
100
AcDbMText
 10
70.58784673682226
 20
-9.0
 30
0.0
 40
3.5
 41
20.03081335337778
 71
     4
 72
     5
  1
A3
 73
     1
 44
1.0
  0
MTEXT
  5
28C
330
227
100
AcDbEntity
  8
0
  6
Continuous
 62
     0
100
AcDbMText
 10
30.28622003006668
 20
-17.0
 30
0.0
 40
3.5
 41
60.33244006013336
 71
     4
 72
     5
  1
BROM 2.0 
 73
     1
 44
1.0
  0
MTEXT
  5
28D
330
227
100
AcDbEntity
  8
0
  6
Continuous
 62
     0
100
AcDbMText
 10
30.28622003006668
 20
-24.5
 30
0.0
 40
2.5
 41
60.33244006013336
 71
     4
 72
     5
  1
DATE:31/03/2014
 73
     1
 44
1.0
  0
MTEXT
  5
28E
330
227
100
AcDbEntity
  8
0
  6
Continuous
 62
     0
100
AcDbMText
 10
0.06
 20
-27.06
 30
0.0
 40
1.85
 41
90.55866009020004
 71
     1
 72
     5
  1
Any integral or partial reproductions are prohibited \Pwithout prior authorisation of L & L Luce & Light s.r.l., \Pin accordance with the law in force. \PAll rights reserved.
 73
     1
 44
1.0
  0
LINE
  5
28F
330
227
100
AcDbEntity
  8
0
  6
Continuous
 62
     0
370
    -2
100
AcDbLine
 10
0.0
 20
0.0
 30
0.0
 11
10.07540667668889
 21
0.0
 31
0.0
  0
LINE
  5
290
330
227
100
AcDbEntity
  8
0
  6
Continuous
 62
     0
370
    -2
100
AcDbLine
 10
10.07540667668889
 20
0.0
 30
0.0
 11
20.15081335337779
 21
0.0
 31
0.0
  0
LINE
  5
291
330
227
100
AcDbEntity
  8
0
  6
Continuous
 62
     0
370
    -2
100
AcDbLine
 10
20.15081335337779
 20
0.0
 30
0.0
 11
30.22622003006668
 21
0.0
 31
0.0
  0
LINE
  5
292
330
227
100
AcDbEntity
  8
0
  6
Continuous
 62
     0
370
    -2
100
AcDbLine
 10
0.0
 20
0.0
 30
0.0
 11
0.0
 21
-6.0
 31
0.0
  0
LINE
  5
293
330
227
100
AcDbEntity
  8
0
  6
Continuous
 62
     0
370
    -2
100
AcDbLine
 10
0.0
 20
-6.0
 30
0.0
 11
0.0
 21
-12.0
 31
0.0
  0
LINE
  5
294
330
227
100
AcDbEntity
  8
0
  6
Continuous
 62
     0
370
    -2
100
AcDbLine
 10
0.0
 20
-12.0
 30
0.0
 11
0.0
 21
-22.0
 31
0.0
  0
LINE
  5
295
330
227
100
AcDbEntity
  8
0
  6
Continuous
 62
     0
370
    -2
100
AcDbLine
 10
0.0
 20
-22.0
 30
0.0
 11
0.0
 21
-27.0
 31
0.0
  0
LINE
  5
296
330
227
100
AcDbEntity
  8
0
  6
Continuous
 62
     0
370
    -2
100
AcDbLine
 10
30.22622003006668
 20
0.0
 30
0.0
 11
70.52784673682226
 21
0.0
 31
0.0
  0
LINE
  5
297
330
227
100
AcDbEntity
  8
0
  6
Continuous
 62
     0
370
    -2
100
AcDbLine
 10
30.22622003006668
 20
0.0
 30
0.0
 11
30.22622003006668
 21
-6.0
 31
0.0
  0
LINE
  5
298
330
227
100
AcDbEntity
  8
0
  6
Continuous
 62
     0
370
    -2
100
AcDbLine
 10
70.52784673682226
 20
0.0
 30
0.0
 11
90.67866009020004
 21
0.0
 31
0.0
  0
LINE
  5
4B5
330
227
100
AcDbEntity
  8
0
  6
Continuous
 62
     0
370
    -2
100
AcDbLine
 10
70.52784673682226
 20
0.0
 30
0.0
 11
70.52784673682226
 21
-6.0
 31
0.0
  0
LINE
  5
4B6
330
227
100
AcDbEntity
  8
0
  6
Continuous
 62
     0
370
    -2
100
AcDbLine
 10
90.67866009020004
 20
0.0
 30
0.0
 11
90.67866009020004
 21
-6.0
 31
0.0
  0
LINE
  5
4B7
330
227
100
AcDbEntity
  8
0
  6
Continuous
 62
     0
370
    -2
100
AcDbLine
 10
30.22622003006668
 20
-6.0
 30
0.0
 11
70.52784673682226
 21
-6.0
 31
0.0
  0
LINE
  5
4B8
330
227
100
AcDbEntity
  8
0
  6
Continuous
 62
     0
370
    -2
100
AcDbLine
 10
30.22622003006668
 20
-6.0
 30
0.0
 11
30.22622003006668
 21
-12.0
 31
0.0
  0
LINE
  5
4B9
330
227
100
AcDbEntity
  8
0
  6
Continuous
 62
     0
370
    -2
100
AcDbLine
 10
70.52784673682226
 20
-6.0
 30
0.0
 11
90.67866009020004
 21
-6.0
 31
0.0
  0
LINE
  5
4BA
330
227
100
AcDbEntity
  8
0
  6
Continuous
 62
     0
370
    -2
100
AcDbLine
 10
70.52784673682226
 20
-6.0
 30
0.0
 11
70.52784673682226
 21
-12.0
 31
0.0
  0
LINE
  5
4BB
330
227
100
AcDbEntity
  8
0
  6
Continuous
 62
     0
370
    -2
100
AcDbLine
 10
90.67866009020004
 20
-6.0
 30
0.0
 11
90.67866009020004
 21
-12.0
 31
0.0
  0
LINE
  5
4BC
330
227
100
AcDbEntity
  8
0
  6
Continuous
 62
     0
370
    -2
100
AcDbLine
 10
30.22622003006668
 20
-12.0
 30
0.0
 11
70.52784673682226
 21
-12.0
 31
0.0
  0
LINE
  5
4BD
330
227
100
AcDbEntity
  8
0
  6
Continuous
 62
     0
370
    -2
100
AcDbLine
 10
70.52784673682226
 20
-12.0
 30
0.0
 11
90.67866009020003
 21
-12.0
 31
0.0
  0
LINE
  5
4BE
330
227
100
AcDbEntity
  8
0
  6
Continuous
 62
     0
370
    -2
100
AcDbLine
 10
30.22622003006668
 20
-12.0
 30
0.0
 11
30.22622003006668
 21
-22.0
 31
0.0
  0
LINE
  5
4BF
330
227
100
AcDbEntity
  8
0
  6
Continuous
 62
     0
370
    -2
100
AcDbLine
 10
90.67866009020004
 20
-12.0
 30
0.0
 11
90.67866009020004
 21
-22.0
 31
0.0
  0
LINE
  5
4C0
330
227
100
AcDbEntity
  8
0
  6
Continuous
 62
     0
370
    -2
100
AcDbLine
 10
30.22622003006668
 20
-22.0
 30
0.0
 11
70.52784673682226
 21
-22.0
 31
0.0
  0
LINE
  5
4C1
330
227
100
AcDbEntity
  8
0
  6
Continuous
 62
     0
370
    -2
100
AcDbLine
 10
70.52784673682226
 20
-22.0
 30
0.0
 11
90.67866009020003
 21
-22.0
 31
0.0
  0
LINE
  5
4C2
330
227
100
AcDbEntity
  8
0
  6
Continuous
 62
     0
370
    -2
100
AcDbLine
 10
30.22622003006668
 20
-22.0
 30
0.0
 11
30.22622003006668
 21
-27.0
 31
0.0
  0
LINE
  5
4C3
330
227
100
AcDbEntity
  8
0
  6
Continuous
 62
     0
370
    -2
100
AcDbLine
 10
90.67866009020004
 20
-22.0
 30
0.0
 11
90.67866009020004
 21
-27.0
 31
0.0
  0
LINE
  5
4C4
330
227
100
AcDbEntity
  8
0
  6
Continuous
 62
     0
370
    -2
100
AcDbLine
 10
0.0
 20
-27.0
 30
0.0
 11
10.07540667668889
 21
-27.0
 31
0.0
  0
LINE
  5
4C5
330
227
100
AcDbEntity
  8
0
  6
Continuous
 62
     0
370
    -2
100
AcDbLine
 10
10.07540667668889
 20
-27.0
 30
0.0
 11
20.15081335337779
 21
-27.0
 31
0.0
  0
LINE
  5
4C6
330
227
100
AcDbEntity
  8
0
  6
Continuous
 62
     0
370
    -2
100
AcDbLine
 10
20.15081335337779
 20
-27.0
 30
0.0
 11
30.22622003006668
 21
-27.0
 31
0.0
  0
LINE
  5
4C7
330
227
100
AcDbEntity
  8
0
  6
Continuous
 62
     0
370
    -2
100
AcDbLine
 10
30.22622003006668
 20
-27.0
 30
0.0
 11
70.52784673682226
 21
-27.0
 31
0.0
  0
LINE
  5
4C8
330
227
100
AcDbEntity
  8
0
  6
Continuous
 62
     0
370
    -2
100
AcDbLine
 10
70.52784673682226
 20
-27.0
 30
0.0
 11
90.67866009020004
 21
-27.0
 31
0.0
  0
LINE
  5
4C9
330
227
100
AcDbEntity
  8
0
  6
Continuous
 62
     0
370
    -2
100
AcDbLine
 10
0.0
 20
-27.0
 30
0.0
 11
0.0
 21
-40.0
 31
0.0
  0
LINE
  5
4CA
330
227
100
AcDbEntity
  8
0
  6
Continuous
 62
     0
370
    -2
100
AcDbLine
 10
90.67866009020004
 20
-27.0
 30
0.0
 11
90.67866009020004
 21
-40.0
 31
0.0
  0
LINE
  5
4CB
330
227
100
AcDbEntity
  8
0
  6
Continuous
 62
     0
370
    -2
100
AcDbLine
 10
0.0
 20
-40.0
 30
0.0
 11
10.07540667668889
 21
-40.0
 31
0.0
  0
LINE
  5
4CC
330
227
100
AcDbEntity
  8
0
  6
Continuous
 62
     0
370
    -2
100
AcDbLine
 10
10.07540667668889
 20
-40.0
 30
0.0
 11
20.15081335337779
 21
-40.0
 31
0.0
  0
LINE
  5
4CD
330
227
100
AcDbEntity
  8
0
  6
Continuous
 62
     0
370
    -2
100
AcDbLine
 10
20.15081335337779
 20
-40.0
 30
0.0
 11
30.22622003006668
 21
-40.0
 31
0.0
  0
LINE
  5
4CE
330
227
100
AcDbEntity
  8
0
  6
Continuous
 62
     0
370
    -2
100
AcDbLine
 10
30.22622003006668
 20
-40.0
 30
0.0
 11
70.52784673682226
 21
-40.0
 31
0.0
  0
LINE
  5
4CF
330
227
100
AcDbEntity
  8
0
  6
Continuous
 62
     0
370
    -2
100
AcDbLine
 10
70.52784673682226
 20
-40.0
 30
0.0
 11
90.67866009020004
 21
-40.0
 31
0.0
  0
ENDBLK
  5
299
330
227
100
AcDbEntity
  8
0
100
AcDbBlockEnd
  0
ENDSEC
  0
SECTION
  2
ENTITIES
  0
MTEXT
  5
29A
330
220
100
AcDbEntity
  8
0
  6
Continuous
 62
     2
100
AcDbMText
 10
1.6467220993
 20
53.595027386
 30
0.0
 40
4.0
 41
2.2857142857
 71
     1
 72
     1
  1
1
  7
TEXTSTYLE_2
 73
     1
 44
0.9
  0
MTEXT
  5
29B
330
220
100
AcDbEntity
  8
0
  6
Continuous
 62
     2
100
AcDbMText
 10
1.6467220993
 20
153.595027386
 30
0.0
 40
4.0
 41
3.1428571429
 71
     1
 72
     1
  1
2
  7
TEXTSTYLE_2
 73
     1
 44
0.9
  0
MTEXT
  5
29C
330
220
100
AcDbEntity
  8
0
  6
Continuous
 62
     2
100
AcDbMText
 10
1.6467220993
 20
253.595027386
 30
0.0
 40
4.0
 41
2.8571428571
 71
     1
 72
     1
  1
3
  7
TEXTSTYLE_2
 73
     1
 44
0.9
  0
MTEXT
  5
29D
330
220
100
AcDbEntity
  8
0
  6
Continuous
 62
     2
100
AcDbMText
 10
414.6467220993
 20
60.6268709614
 30
0.0
 40
4.0
 41
2.2857142857
 71
     1
 72
     1
  1
1
  7
TEXTSTYLE_2
 73
     1
 44
0.9
  0
MTEXT
  5
29E
330
220
100
AcDbEntity
  8
0
  6
Continuous
 62
     2
100
AcDbMText
 10
414.6467220993
 20
160.6268709614
 30
0.0
 40
4.0
 41
3.1428571429
 71
     1
 72
     1
  1
2
  7
TEXTSTYLE_2
 73
     1
 44
0.9
  0
MTEXT
  5
29F
330
220
100
AcDbEntity
  8
0
  6
Continuous
 62
     2
100
AcDbMText
 10
414.6467220993
 20
260.6268709614
 30
0.0
 40
4.0
 41
2.8571428571
 71
     1
 72
     1
  1
3
  7
TEXTSTYLE_2
 73
     1
 44
0.9
  0
MTEXT
  5
2A0
330
220
100
AcDbEntity
  8
0
  6
Continuous
 62
     2
100
AcDbMText
 10
362.154890719
 20
5.35876025
 30
0.0
 40
4.0
 41
3.6
 71
     1
 72
     1
  1
A
  7
TEXTSTYLE_3
 73
     1
 44
0.9
  0
MTEXT
  5
2A1
330
220
100
AcDbEntity
  8
0
  6
Continuous
 62
     2
100
AcDbMText
 10
262.154890719
 20
5.35876025
 30
0.0
 40
4.0
 41
3.6
 71
     1
 72
     1
  1
B
  7
TEXTSTYLE_3
 73
     1
 44
0.9
  0
MTEXT
  5
2A2
330
220
100
AcDbEntity
  8
0
  6
Continuous
 62
     2
100
AcDbMText
 10
162.154890719
 20
5.35876025
 30
0.0
 40
4.0
 41
3.6
 71
     1
 72
     1
  1
C
  7
TEXTSTYLE_3
 73
     1
 44
0.9
  0
MTEXT
  5
2A3
330
220
100
AcDbEntity
  8
0
  6
Continuous
 62
     2
100
AcDbMText
 10
55.7978688212
 20
5.5353441916
 30
0.0
 40
4.0
 41
3.6
 71
     1
 72
     1
  1
D
  7
TEXTSTYLE_3
 73
     1
 44
0.9
  0
MTEXT
  5
2A4
330
220
100
AcDbEntity
  8
0
  6
Continuous
 62
     2
100
AcDbMText
 10
362.154890719
 20
295.35876025
 30
0.0
 40
4.0
 41
3.6
 71
     1
 72
     1
  1
A
  7
TEXTSTYLE_3
 73
     1
 44
0.9
  0
MTEXT
  5
2A5
330
220
100
AcDbEntity
  8
0
  6
Continuous
 62
     2
100
AcDbMText
 10
262.154890719
 20
295.35876025
 30
0.0
 40
4.0
 41
3.6
 71
     1
 72
     1
  1
B
  7
TEXTSTYLE_3
 73
     1
 44
0.9
  0
MTEXT
  5
2A6
330
220
100
AcDbEntity
  8
0
  6
Continuous
 62
     2
100
AcDbMText
 10
162.154890719
 20
295.35876025
 30
0.0
 40
4.0
 41
3.6
 71
     1
 72
     1
  1
C
  7
TEXTSTYLE_3
 73
     1
 44
0.9
  0
MTEXT
  5
2A7
330
220
100
AcDbEntity
  8
0
  6
Continuous
 62
     2
100
AcDbMText
 10
53.9878834197
 20
295.579490177
 30
0.0
 40
4.0
 41
3.6
 71
     1
 72
     1
  1
D
  7
TEXTSTYLE_3
 73
     1
 44
0.9
  0
DIMENSION
  5
2A8
330
220
100
AcDbEntity
  8
0
  6
Continuous
 62
     2
100
AcDbDimension
  2
*D1
 10
101.1573841682
 20
38.9313572108
 30
0.0
 11
76.1573841682
 21
38.9313572108
 31
0.0
 70
   160
 71
     2
 42
50.0
  3
DIMSTYLE_1
100
AcDbAlignedDimension
 13
51.1573841682
 23
49.8401042896
 33
0.0
 14
101.1573841682
 24
49.5259224715
 34
0.0
100
AcDbRotatedDimension
1001
ACAD
1000
DSTYLE
1002
{
1070
   147
1040
2.0
1002
}
  0
DIMENSION
  5
2A9
330
220
100
AcDbEntity
  8
0
  6
Continuous
 62
     2
100
AcDbDimension
  2
*D2
 10
117.1155498045
 20
51.6813572108
 30
0.0
 11
117.1155498045
 21
76.6813572108
 31
0.0
 70
   160
 71
     2
 42
50.0
  3
DIMSTYLE_1
100
AcDbAlignedDimension
 13
103.2711966838
 23
101.6813572108
 33
0.0
 14
103.2711966838
 24
51.6813572108
 34
0.0
 50
270.0
100
AcDbRotatedDimension
1001
ACAD
1000
DSTYLE
1002
{
1070
   147
1040
2.0
1002
}
  0
DIMENSION
  5
2AA
330
220
100
AcDbEntity
  8
0
  6
Continuous
 62
     2
100
AcDbDimension
  2
*D3
 10
117.4996129041
 20
165.7551764579
 30
0.0
 11
117.4996129041
 21
218.2551764579
 31
0.0
 70
   160
 71
     2
 42
105.0
  3
DIMSTYLE_1
100
AcDbAlignedDimension
 13
103.2711966838
 23
270.7551764579
 33
0.0
 14
103.2711966838
 24
165.7551764579
 34
0.0
 50
270.0
100
AcDbRotatedDimension
1001
ACAD
1000
DSTYLE
1002
{
1070
   147
1040
2.0
1002
}
  0
INSERT
  5
2AB
330
220
100
AcDbEntity
  8
0
  6
Continuous
 62
     2
100
AcDbBlockReference
  2
LOGO2_BL0
 10
333.1473869546
 20
37.5239270671
 30
0.0
  0
INSERT
  5
2AC
330
220
100
AcDbEntity
  8
0
  6
Continuous
 62
     2
100
AcDbBlockReference
  2
*T5
 10
319.3213399098
 20
51.0239270671
 30
0.0
  0
LINE
  5
2AD
330
220
100
AcDbEntity
  8
0
  6
Continuous
 62
     7
100
AcDbLine
 10
0.0
 20
0.0
 30
0.0
 11
0.0
 21
297.0
 31
0.0
  0
LWPOLYLINE
  5
2AE
330
220
100
AcDbEntity
  8
0
  6
Continuous
 62
     7
100
AcDbPolyline
 90
        2
 70
     0
 43
0.1000000003
 10
7.0536312849
 20
0.0
 10
7.0536312849
 20
297.0
  0
LWPOLYLINE
  5
2AF
330
220
100
AcDbEntity
  8
0
  6
Continuous
 62
     7
100
AcDbPolyline
 90
        2
 70
     0
 43
0.4999999952
 10
10.0536312849
 20
10.0318435754
 10
10.0536312849
 20
287.0
  0
LINE
  5
2B0
330
220
100
AcDbEntity
  8
0
  6
Continuous
 62
     7
100
AcDbLine
 10
0.0
 20
0.0
 30
0.0
 11
420.0
 21
0.0
 31
0.0
  0
LWPOLYLINE
  5
2B1
330
220
100
AcDbEntity
  8
0
  6
Continuous
 62
     7
100
AcDbPolyline
 90
        2
 70
     0
 43
0.1000000003
 10
0.0
 20
7.0318435754
 10
420.0
 20
7.0318435754
  0
LWPOLYLINE
  5
2B2
330
220
100
AcDbEntity
  8
0
  6
Continuous
 62
     7
100
AcDbPolyline
 90
        2
 70
     0
 43
0.4999999952
 10
10.0536312849
 20
10.0318435754
 10
410.0
 20
10.0318435754
  0
LINE
  5
2B3
330
220
100
AcDbEntity
  8
0
  6
Continuous
 62
     7
100
AcDbLine
 10
113.0
 20
297.0
 30
0.0
 11
113.0
 21
290.0
 31
0.0
  0
LINE
  5
2B4
330
220
100
AcDbEntity
  8
0
  6
Continuous
 62
     7
100
AcDbLine
 10
113.0
 20
7.0
 30
0.0
 11
113.0
 21
0.0
 31
0.0
  0
LWPOLYLINE
  5
2B5
330
220
100
AcDbEntity
  8
0
  6
Continuous
 62
     7
100
AcDbPolyline
 90
        2
 70
     0
 43
0.1000000003
 10
123.0
 20
10.0
 10
123.0
 20
0.0
  0
LWPOLYLINE
  5
2B6
330
220
100
AcDbEntity
  8
0
  6
Continuous
 62
     7
100
AcDbPolyline
 90
        2
 70
     0
 43
0.1000000003
 10
123.0
 20
287.0
 10
123.0
 20
297.0
  0
LINE
  5
2B7
330
220
100
AcDbEntity
  8
0
  6
Continuous
 62
     7
100
AcDbLine
 10
0.0
 20
99.9681564246
 30
0.0
 11
7.0
 21
99.9681564246
 31
0.0
  0
LINE
  5
2B8
330
220
100
AcDbEntity
  8
0
  6
Continuous
 62
     7
100
AcDbLine
 10
413.0
 20
107.0
 30
0.0
 11
420.0
 21
107.0
 31
0.0
  0
LWPOLYLINE
  5
2B9
330
220
100
AcDbEntity
  8
0
  6
Continuous
 62
     7
100
AcDbPolyline
 90
        2
 70
     0
 43
0.1000000003
 10
210.0
 20
10.0
 10
210.0
 20
0.0
  0
LWPOLYLINE
  5
2BA
330
220
100
AcDbEntity
  8
0
  6
Continuous
 62
     7
100
AcDbPolyline
 90
        2
 70
     0
 43
0.1000000003
 10
210.0
 20
287.0
 10
210.0
 20
297.0
  0
LWPOLYLINE
  5
2BB
330
220
100
AcDbEntity
  8
0
  6
Continuous
 62
     7
100
AcDbPolyline
 90
        2
 70
     0
 43
0.1000000003
 10
10.0
 20
148.5
 10
0.0
 20
148.5
  0
LWPOLYLINE
  5
2BC
330
220
100
AcDbEntity
  8
0
  6
Continuous
 62
     7
100
AcDbPolyline
 90
        2
 70
     0
 43
0.1000000003
 10
410.0
 20
148.5
 10
420.0
 20
148.5
  0
LINE
  5
2BD
330
220
100
AcDbEntity
  8
0
  6
Continuous
 62
     7
100
AcDbLine
 10
0.0
 20
199.9681564246
 30
0.0
 11
7.0
 21
199.9681564246
 31
0.0
  0
LWPOLYLINE
  5
2BE
330
220
100
AcDbEntity
  8
0
  6
Continuous
 62
     7
100
AcDbPolyline
 90
        2
 70
     0
 43
0.1000000003
 10
10.0
 20
202.9681564246
 10
0.0
 20
202.9681564246
  0
LWPOLYLINE
  5
2BF
330
220
100
AcDbEntity
  8
0
  6
Continuous
 62
     7
100
AcDbPolyline
 90
        2
 70
     0
 43
0.1000000003
 10
410.0
 20
210.0
 10
420.0
 20
210.0
  0
LINE
  5
2C0
330
220
100
AcDbEntity
  8
0
  6
Continuous
 62
     7
100
AcDbLine
 10
313.0
 20
297.0
 30
0.0
 11
313.0
 21
290.0
 31
0.0
  0
LINE
  5
2C1
330
220
100
AcDbEntity
  8
0
  6
Continuous
 62
     7
100
AcDbLine
 10
313.0
 20
7.0
 30
0.0
 11
313.0
 21
0.0
 31
0.0
  0
LWPOLYLINE
  5
2C2
330
220
100
AcDbEntity
  8
0
  6
Continuous
 62
     7
100
AcDbPolyline
 90
        2
 70
     0
 43
0.4999999952
 10
10.0536312849
 20
287.0
 10
410.0
 20
287.0
  0
LWPOLYLINE
  5
2C3
330
220
100
AcDbEntity
  8
0
  6
Continuous
 62
     7
100
AcDbPolyline
 90
        2
 70
     0
 43
0.1000000003
 10
0.0
 20
290.0
 10
420.0
 20
290.0
  0
LINE
  5
2C4
330
220
100
AcDbEntity
  8
0
  6
Continuous
 62
     7
100
AcDbLine
 10
0.0
 20
297.0
 30
0.0
 11
420.0
 21
297.0
 31
0.0
  0
LWPOLYLINE
  5
2C5
330
220
100
AcDbEntity
  8
0
  6
Continuous
 62
     7
100
AcDbPolyline
 90
        2
 70
     0
 43
0.4999999952
 10
410.0
 20
10.0318435754
 10
410.0
 20
287.0
  0
LWPOLYLINE
  5
2C6
330
220
100
AcDbEntity
  8
0
  6
Continuous
 62
     7
100
AcDbPolyline
 90
        2
 70
     0
 43
0.1000000003
 10
413.0
 20
0.0
 10
413.0
 20
297.0
  0
LINE
  5
2C7
330
220
100
AcDbEntity
  8
0
  6
Continuous
 62
     7
100
AcDbLine
 10
420.0
 20
0.0
 30
0.0
 11
420.0
 21
297.0
 31
0.0
  0
LINE
  5
2C8
330
220
100
AcDbEntity
  8
02___PRT_ALL_AXES
  6
Continuous
 62
     7
100
AcDbLine
 10
48.9573841682
 20
59.7163572108
 30
0.0
 11
48.9573841682
 21
63.6463572108
 31
0.0
  0
LINE
  5
2C9
330
220
100
AcDbEntity
  8
02___PRT_ALL_AXES
  6
Continuous
 62
     7
100
AcDbLine
 10
50.7773841682
 20
57.8813572108
 30
0.0
 11
50.7773841682
 21
65.4813572108
 31
0.0
  0
LINE
  5
2CA
330
220
100
AcDbEntity
  8
02___PRT_ALL_AXES
  6
Continuous
 62
     7
100
AcDbLine
 10
51.1573841682
 20
51.6813572108
 30
0.0
 11
51.1573841682
 21
99.5813572108
 31
0.0
  0
LINE
  5
2CB
330
220
100
AcDbEntity
  8
02___PRT_ALL_AXES
  6
Continuous
 62
     7
100
AcDbLine
 10
101.1573841682
 20
51.6813572108
 30
0.0
 11
100.1573841682
 21
51.6813572108
 31
0.0
  0
LINE
  5
2CC
330
220
100
AcDbEntity
  8
7_ALL_FEATURES
  6
Continuous
 62
     7
100
AcDbLine
 10
99.8573841682
 20
51.6813572108
 30
0.0
 11
52.4573841682
 21
51.6813572108
 31
0.0
  0
LINE
  5
2CD
330
220
100
AcDbEntity
  8
02___PRT_ALL_AXES
  6
Continuous
 62
     7
100
AcDbLine
 10
52.1573841682
 20
51.6813572108
 30
0.0
 11
51.1573841682
 21
51.6813572108
 31
0.0
  0
LINE
  5
2CE
330
220
100
AcDbEntity
  8
02___PRT_ALL_AXES
  6
Continuous
 62
     7
100
AcDbLine
 10
52.1573841682
 20
51.6813572108
 30
0.0
 11
52.1573841682
 21
99.5813572108
 31
0.0
  0
LINE
  5
2CF
330
220
100
AcDbEntity
  8
7_ALL_FEATURES
  6
Continuous
 62
     7
100
AcDbLine
 10
52.4573841682
 20
51.6813572108
 30
0.0
 11
52.4573841682
 21
53.7813572108
 31
0.0
  0
LINE
  5
2D0
330
220
100
AcDbEntity
  8
02___PRT_ALL_AXES
  6
Continuous
 62
     7
100
AcDbLine
 10
52.4573841682
 20
53.7813572108
 30
0.0
 11
52.4573841682
 21
98.9313572108
 31
0.0
  0
LINE
  5
2D1
330
220
100
AcDbEntity
  8
02___PRT_ALL_AXES
  6
Continuous
 62
     9
100
AcDbLine
 10
53.2573841682
 20
101.6813572108
 30
0.0
 11
53.2573841682
 21
100.6813572108
 31
0.0
  0
LINE
  5
2D2
330
220
100
AcDbEntity
  8
02___PRT_ALL_AXES
  6
Continuous
 62
     9
100
AcDbLine
 10
101.1573841682
 20
53.6813572108
 30
0.0
 11
100.1573841682
 21
53.6813572108
 31
0.0
  0
LINE
  5
2D3
330
220
100
AcDbEntity
  8
02___PRT_ALL_AXES
  6
Continuous
 62
     9
100
AcDbLine
 10
51.1573841682
 20
53.6813572108
 30
0.0
 11
52.1573841682
 21
53.6813572108
 31
0.0
  0
LINE
  5
2D4
330
220
100
AcDbEntity
  8
7_ALL_FEATURES
  6
Continuous
 62
     9
100
AcDbLine
 10
99.8573841682
 20
53.7813572108
 30
0.0
 11
52.4573841682
 21
53.7813572108
 31
0.0
  0
LINE
  5
2D5
330
220
100
AcDbEntity
  8
02___PRT_ALL_AXES
  6
Continuous
 62
     7
100
AcDbLine
 10
51.1573841682
 20
57.8813572108
 30
0.0
 11
50.7773841682
 21
57.8813572108
 31
0.0
  0
LINE
  5
2D6
330
220
100
AcDbEntity
  8
02___PRT_ALL_AXES
  6
Continuous
 62
     7
100
AcDbLine
 10
101.1573841682
 20
57.8813572108
 30
0.0
 11
101.5373841682
 21
57.8813572108
 31
0.0
  0
LINE
  5
2D7
330
220
100
AcDbEntity
  8
02___PRT_ALL_AXES
  6
Continuous
 62
     7
100
AcDbLine
 10
52.4573841682
 20
58.1813572108
 30
0.0
 11
52.1573841682
 21
58.1813572108
 31
0.0
  0
LINE
  5
2D8
330
220
100
AcDbEntity
  8
02___PRT_ALL_AXES
  6
Continuous
 62
     7
100
AcDbLine
 10
99.8573841682
 20
58.1813572108
 30
0.0
 11
100.1573841682
 21
58.1813572108
 31
0.0
  0
LINE
  5
2D9
330
220
100
AcDbEntity
  8
02___PRT_ALL_AXES
  6
Continuous
 62
     7
100
AcDbLine
 10
52.4573841682
 20
65.1813572108
 30
0.0
 11
52.1573841682
 21
65.1813572108
 31
0.0
  0
LINE
  5
2DA
330
220
100
AcDbEntity
  8
02___PRT_ALL_AXES
  6
Continuous
 62
     7
100
AcDbLine
 10
99.8573841682
 20
65.1813572108
 30
0.0
 11
100.1573841682
 21
65.1813572108
 31
0.0
  0
LINE
  5
2DB
330
220
100
AcDbEntity
  8
02___PRT_ALL_AXES
  6
Continuous
 62
     7
100
AcDbLine
 10
51.1573841682
 20
65.4813572108
 30
0.0
 11
50.7773841682
 21
65.4813572108
 31
0.0
  0
LINE
  5
2DC
330
220
100
AcDbEntity
  8
02___PRT_ALL_AXES
  6
Continuous
 62
     7
100
AcDbLine
 10
101.1573841682
 20
65.4813572108
 30
0.0
 11
101.5373841682
 21
65.4813572108
 31
0.0
  0
LWPOLYLINE
  5
2DD
330
220
100
AcDbEntity
  8
7_ALL_FEATURES
  6
Continuous
 62
     7
100
AcDbPolyline
 90
        3
 70
     0
 43
0.0
 10
99.8573841682
 20
94.7021832518
 10
100.1000372242
 20
95.0089758842
 10
100.1573841682
 20
95.0806557313
  0
LINE
  5
2DE
330
220
100
AcDbEntity
  8
02___PRT_ALL_AXES
  6
Continuous
 62
     9
100
AcDbLine
 10
99.0573841682
 20
101.6813572108
 30
0.0
 11
99.0573841682
 21
100.6813572108
 31
0.0
  0
LINE
  5
2DF
330
220
100
AcDbEntity
  8
7_ALL_FEATURES
  6
Continuous
 62
     7
100
AcDbLine
 10
99.8573841682
 20
53.7813572108
 30
0.0
 11
99.8573841682
 21
51.6813572108
 31
0.0
  0
LINE
  5
2E0
330
220
100
AcDbEntity
  8
02___PRT_ALL_AXES
  6
Continuous
 62
     7
100
AcDbLine
 10
99.8573841682
 20
53.7813572108
 30
0.0
 11
99.8573841682
 21
98.9313572108
 31
0.0
  0
LINE
  5
2E1
330
220
100
AcDbEntity
  8
02___PRT_ALL_AXES
  6
Continuous
 62
     7
100
AcDbLine
 10
100.1573841682
 20
99.5813572108
 30
0.0
 11
100.1573841682
 21
51.6813572108
 31
0.0
  0
LINE
  5
2E2
330
220
100
AcDbEntity
  8
02___PRT_ALL_AXES
  6
Continuous
 62
     9
100
AcDbLine
 10
101.1573841682
 20
99.5813572108
 30
0.0
 11
100.1573841682
 21
99.5813572108
 31
0.0
  0
LINE
  5
2E3
330
220
100
AcDbEntity
  8
02___PRT_ALL_AXES
  6
Continuous
 62
     9
100
AcDbLine
 10
51.1573841682
 20
99.5813572108
 30
0.0
 11
52.1573841682
 21
99.5813572108
 31
0.0
  0
LINE
  5
2E4
330
220
100
AcDbEntity
  8
02___PRT_ALL_AXES
  6
Continuous
 62
     7
100
AcDbLine
 10
53.9573841682
 20
100.4313572108
 30
0.0
 11
98.3573841682
 21
100.4313572108
 31
0.0
  0
LINE
  5
2E5
330
220
100
AcDbEntity
  8
02___PRT_ALL_AXES
  6
Continuous
 62
     7
100
AcDbLine
 10
99.0573841682
 20
100.6813572108
 30
0.0
 11
53.2573841682
 21
100.6813572108
 31
0.0
  0
LINE
  5
2E6
330
220
100
AcDbEntity
  8
02___PRT_ALL_AXES
  6
Continuous
 62
     7
100
AcDbLine
 10
101.1573841682
 20
99.5813572108
 30
0.0
 11
101.1573841682
 21
51.6813572108
 31
0.0
  0
LINE
  5
2E7
330
220
100
AcDbEntity
  8
02___PRT_ALL_AXES
  6
Continuous
 62
     7
100
AcDbLine
 10
101.5373841682
 20
57.8813572108
 30
0.0
 11
101.5373841682
 21
65.4813572108
 31
0.0
  0
LINE
  5
2E8
330
220
100
AcDbEntity
  8
02___PRT_ALL_AXES
  6
Continuous
 62
     7
100
AcDbLine
 10
103.3573841682
 20
59.7163572108
 30
0.0
 11
103.3573841682
 21
63.6463572108
 31
0.0
  0
LINE
  5
2E9
330
220
100
AcDbEntity
  8
02___PRT_ALL_AXES
  6
Continuous
 62
     7
100
AcDbLine
 10
99.0573841682
 20
101.6813572108
 30
0.0
 11
53.2573841682
 21
101.6813572108
 31
0.0
  0
LINE
  5
2EA
330
220
100
AcDbEntity
  8
02___PRT_ALL_AXES
  6
Continuous
 62
     7
100
AcDbLine
 10
51.1573841682
 20
165.7551764579
 30
0.0
 11
101.1573841682
 21
165.7551764579
 31
0.0
  0
LINE
  5
2EB
330
220
100
AcDbEntity
  8
02___PRT_ALL_AXES
  6
Continuous
 62
     9
100
AcDbLine
 10
101.1573841682
 20
167.7551764579
 30
0.0
 11
100.1573841682
 21
167.7551764579
 31
0.0
  0
LINE
  5
2EC
330
220
100
AcDbEntity
  8
02___PRT_ALL_AXES
  6
Continuous
 62
     9
100
AcDbLine
 10
51.1573841682
 20
167.7551764579
 30
0.0
 11
52.1573841682
 21
167.7551764579
 31
0.0
  0
LINE
  5
2ED
330
220
100
AcDbEntity
  8
7_ALL_FEATURES
  6
Continuous
 62
     7
100
AcDbLine
 10
85.8073841682
 20
169.7551764579
 30
0.0
 11
66.5073841682
 21
169.7551764579
 31
0.0
  0
LINE
  5
2EE
330
220
100
AcDbEntity
  8
7_ALL_FEATURES
  6
Continuous
 62
     7
100
AcDbLine
 10
85.9073841682
 20
169.8551764579
 30
0.0
 11
66.4073841682
 21
169.8551764579
 31
0.0
  0
LINE
  5
2EF
330
220
100
AcDbEntity
  8
7_ALL_FEATURES
  6
Continuous
 62
     7
100
AcDbLine
 10
52.4573841682
 20
170.7551764579
 30
0.0
 11
99.8573841682
 21
170.7551764579
 31
0.0
  0
LINE
  5
2F0
330
220
100
AcDbEntity
  8
7_ALL_FEATURES
  6
Continuous
 62
     9
100
AcDbLine
 10
52.4573841682
 20
172.8551764579
 30
0.0
 11
99.8573841682
 21
172.8551764579
 31
0.0
  0
LINE
  5
2F1
330
220
100
AcDbEntity
  8
7_ALL_FEATURES
  6
Continuous
 62
     7
100
AcDbLine
 10
66.4073841682
 20
266.6551764579
 30
0.0
 11
66.5073841682
 21
266.7551764579
 31
0.0
  0
LINE
  5
2F2
330
220
100
AcDbEntity
  8
7_ALL_FEATURES
  6
Continuous
 62
     7
100
AcDbLine
 10
66.4073841682
 20
169.8551764579
 30
0.0
 11
66.5073841682
 21
169.7551764579
 31
0.0
  0
LINE
  5
2F3
330
220
100
AcDbEntity
  8
7_ALL_FEATURES
  6
Continuous
 62
     7
100
AcDbLine
 10
92.4073841682
 20
180.8551764579
 30
0.0
 11
91.4271320429
 21
180.8551764579
 31
0.0
  0
LINE
  5
2F4
330
220
100
AcDbEntity
  8
7_ALL_FEATURES
  6
Continuous
 62
     7
100
AcDbLine
 10
91.4073841682
 20
183.1551764579
 30
0.0
 11
92.4073841682
 21
183.1551764579
 31
0.0
  0
LINE
  5
2F5
330
220
100
AcDbEntity
  8
7_ALL_FEATURES
  6
Continuous
 62
     7
100
AcDbLine
 10
92.4073841682
 20
185.1551764579
 30
0.0
 11
91.4073841682
 21
185.1551764579
 31
0.0
  0
LINE
  5
2F6
330
220
100
AcDbEntity
  8
7_ALL_FEATURES
  6
Continuous
 62
     7
100
AcDbLine
 10
91.9868292295
 20
187.1551764579
 30
0.0
 11
92.4073841682
 21
187.1551764579
 31
0.0
  0
LINE
  5
2F7
330
220
100
AcDbEntity
  8
02___PRT_ALL_AXES
  6
Continuous
 62
     7
100
AcDbLine
 10
48.9573841682
 20
220.2201764579
 30
0.0
 11
48.9573841682
 21
216.2901764579
 31
0.0
  0
LINE
  5
2F8
330
220
100
AcDbEntity
  8
7_ALL_FEATURES
  6
Continuous
 62
     7
100
AcDbLine
 10
49.1573841682
 20
221.3472210693
 30
0.0
 11
49.1573841682
 21
221.3630551676
 31
0.0
  0
LINE
  5
2F9
330
220
100
AcDbEntity
  8
02___PRT_ALL_AXES
  6
Continuous
 62
     7
100
AcDbLine
 10
50.7773841682
 20
222.0551764579
 30
0.0
 11
50.7773841682
 21
214.4551764579
 31
0.0
  0
LINE
  5
2FA
330
220
100
AcDbEntity
  8
02___PRT_ALL_AXES
  6
Continuous
 62
     7
100
AcDbLine
 10
51.1573841682
 20
165.7551764579
 30
0.0
 11
51.1573841682
 21
270.7551764579
 31
0.0
  0
LINE
  5
2FB
330
220
100
AcDbEntity
  8
02___PRT_ALL_AXES
  6
Continuous
 62
     7
100
AcDbLine
 10
52.1573841682
 20
165.7551764579
 30
0.0
 11
52.1573841682
 21
270.7551764579
 31
0.0
  0
LINE
  5
2FC
330
220
100
AcDbEntity
  8
7_ALL_FEATURES
  6
Continuous
 62
     7
100
AcDbLine
 10
52.4573841682
 20
170.7551764579
 30
0.0
 11
52.4573841682
 21
172.8551764579
 31
0.0
  0
LINE
  5
2FD
330
220
100
AcDbEntity
  8
02___PRT_ALL_AXES
  6
Continuous
 62
     7
100
AcDbLine
 10
52.4573841682
 20
172.8551764579
 30
0.0
 11
52.4573841682
 21
207.7551764579
 31
0.0
  0
LINE
  5
2FE
330
220
100
AcDbEntity
  8
02___PRT_ALL_AXES
  6
Continuous
 62
     7
100
AcDbLine
 10
52.4573841682
 20
228.7551764579
 30
0.0
 11
52.4573841682
 21
263.6551764579
 31
0.0
  0
LINE
  5
2FF
330
220
100
AcDbEntity
  8
7_ALL_FEATURES
  6
Continuous
 62
     7
100
AcDbLine
 10
52.4573841682
 20
263.6551764579
 30
0.0
 11
52.4573841682
 21
265.7551764579
 31
0.0
  0
LINE
  5
300
330
220
100
AcDbEntity
  8
7_ALL_FEATURES
  6
Continuous
 62
     7
100
AcDbLine
 10
52.6573841682
 20
225.7551764579
 30
0.0
 11
52.6573841682
 21
210.7551764579
 31
0.0
  0
LINE
  5
301
330
220
100
AcDbEntity
  8
02___PRT_ALL_AXES
  6
Continuous
 62
     7
100
AcDbLine
 10
96.8573841682
 20
193.5051764579
 30
0.0
 11
91.3573841682
 21
193.5051764579
 31
0.0
  0
LINE
  5
302
330
220
100
AcDbEntity
  8
7_ALL_FEATURES
  6
Continuous
 62
     7
100
AcDbLine
 10
93.5573841682
 20
194.5051764579
 30
0.0
 11
91.4573841682
 21
194.5051764579
 31
0.0
  0
LINE
  5
303
330
220
100
AcDbEntity
  8
02___PRT_ALL_AXES
  6
Continuous
 62
     7
100
AcDbLine
 10
91.3573841682
 20
194.5051764579
 30
0.0
 11
91.4573841682
 21
194.5051764579
 31
0.0
  0
LINE
  5
304
330
220
100
AcDbEntity
  8
7_ALL_FEATURES
  6
Continuous
 62
     7
100
AcDbLine
 10
53.1792335481
 20
212.7551764579
 30
0.0
 11
53.1792335481
 21
223.7551764579
 31
0.0
  0
LINE
  5
305
330
220
100
AcDbEntity
  8
02___PRT_ALL_AXES
  6
Continuous
 62
     9
100
AcDbLine
 10
53.2573841682
 20
165.7551764579
 30
0.0
 11
53.2573841682
 21
170.7551764579
 31
0.0
  0
LINE
  5
306
330
220
100
AcDbEntity
  8
02___PRT_ALL_AXES
  6
Continuous
 62
     9
100
AcDbLine
 10
53.2573841682
 20
209.3337618679
 30
0.0
 11
53.2573841682
 21
210.7551764579
 31
0.0
  0
LINE
  5
307
330
220
100
AcDbEntity
  8
02___PRT_ALL_AXES
  6
Continuous
 62
     9
100
AcDbLine
 10
53.2573841682
 20
225.7551764579
 30
0.0
 11
53.2573841682
 21
227.1765910479
 31
0.0
  0
LINE
  5
308
330
220
100
AcDbEntity
  8
02___PRT_ALL_AXES
  6
Continuous
 62
     9
100
AcDbLine
 10
53.2573841682
 20
265.7551764579
 30
0.0
 11
53.2573841682
 21
270.7551764579
 31
0.0
  0
LINE
  5
309
330
220
100
AcDbEntity
  8
7_ALL_FEATURES
  6
Continuous
 62
     7
100
AcDbLine
 10
53.3719453857
 20
223.7551764579
 30
0.0
 11
53.3719453857
 21
212.7551764579
 31
0.0
  0
LINE
  5
30A
330
220
100
AcDbEntity
  8
7_ALL_FEATURES
  6
Continuous
 62
     9
100
AcDbLine
 10
54.7573841682
 20
225.7551764579
 30
0.0
 11
54.7573841682
 21
210.7551764579
 31
0.0
  0
LINE
  5
30B
330
220
100
AcDbEntity
  8
02___PRT_ALL_AXES
  6
Continuous
 62
     7
100
AcDbLine
 10
54.8573841682
 20
226.7551764579
 30
0.0
 11
54.8573841682
 21
225.7551764579
 31
0.0
  0
LINE
  5
30C
330
220
100
AcDbEntity
  8
02___PRT_ALL_AXES
  6
Continuous
 62
     7
100
AcDbLine
 10
54.8573841682
 20
210.7551764579
 30
0.0
 11
54.8573841682
 21
209.7551764579
 31
0.0
  0
LINE
  5
30D
330
220
100
AcDbEntity
  8
7_ALL_FEATURES
  6
Continuous
 62
     7
100
AcDbLine
 10
93.0355347884
 20
196.5051764579
 30
0.0
 11
92.8428229508
 21
196.5051764579
 31
0.0
  0
LINE
  5
30E
330
220
100
AcDbEntity
  8
02___PRT_ALL_AXES
  6
Continuous
 62
     7
100
AcDbLine
 10
93.9373841682
 20
198.1051764579
 30
0.0
 11
93.5573841682
 21
198.1051764579
 31
0.0
  0
LINE
  5
30F
330
220
100
AcDbEntity
  8
7_ALL_FEATURES
  6
Continuous
 62
     7
100
AcDbLine
 10
59.9073841682
 20
250.5051764579
 30
0.0
 11
59.9073841682
 21
251.3551764579
 31
0.0
  0
LINE
  5
310
330
220
100
AcDbEntity
  8
7_ALL_FEATURES
  6
Continuous
 62
     7
100
AcDbLine
 10
59.9073841682
 20
253.3551764579
 30
0.0
 11
59.9073841682
 21
255.6551764579
 31
0.0
  0
LINE
  5
311
330
220
100
AcDbEntity
  8
7_ALL_FEATURES
  6
Continuous
 62
     7
100
AcDbLine
 10
61.2573841682
 20
256.0051764579
 30
0.0
 11
61.2573841682
 21
255.9051764579
 31
0.0
  0
LINE
  5
312
330
220
100
AcDbEntity
  8
02___PRT_ALL_AXES
  6
Continuous
 62
     7
100
AcDbLine
 10
61.2573841682
 20
255.9051764579
 30
0.0
 11
61.2573841682
 21
256.0051764579
 31
0.0
  0
LINE
  5
313
330
220
100
AcDbEntity
  8
7_ALL_FEATURES
  6
Continuous
 62
     7
100
AcDbLine
 10
63.6573841682
 20
251.3551764579
 30
0.0
 11
63.6573841682
 21
253.3551764579
 31
0.0
  0
LINE
  5
314
330
220
100
AcDbEntity
  8
7_ALL_FEATURES
  6
Continuous
 62
     7
100
AcDbLine
 10
98.1206480652
 20
207.1650879419
 30
0.0
 11
100.1573841682
 21
207.2543223359
 31
0.0
  0
LINE
  5
315
330
220
100
AcDbEntity
  8
02___PRT_ALL_AXES
  6
Continuous
 62
     7
100
AcDbLine
 10
93.9373841682
 20
205.7051764579
 30
0.0
 11
93.5573841682
 21
205.7051764579
 31
0.0
  0
LINE
  5
316
330
220
100
AcDbEntity
  8
7_ALL_FEATURES
  6
Continuous
 62
     7
100
AcDbLine
 10
79.1120237079
 20
206.155164574
 30
0.0
 11
73.2027446286
 21
206.155164574
 31
0.0
  0
LINE
  5
317
330
220
100
AcDbEntity
  8
7_ALL_FEATURES
  6
Continuous
 62
     7
100
AcDbLine
 10
71.027527567
 20
206.9051764579
 30
0.0
 11
81.2872407695
 21
206.9051764579
 31
0.0
  0
LINE
  5
318
330
220
100
AcDbEntity
  8
7_ALL_FEATURES
  6
Continuous
 62
     7
100
AcDbLine
 10
66.4073841682
 20
266.6551764579
 30
0.0
 11
66.4073841682
 21
265.7551764579
 31
0.0
  0
LINE
  5
319
330
220
100
AcDbEntity
  8
02___PRT_ALL_AXES
  6
Continuous
 62
     7
100
AcDbLine
 10
66.4073841682
 20
170.7551764579
 30
0.0
 11
66.4073841682
 21
169.8551764579
 31
0.0
  0
LINE
  5
31A
330
220
100
AcDbEntity
  8
7_ALL_FEATURES
  6
Continuous
 62
     7
100
AcDbLine
 10
66.4073841682
 20
169.8551764579
 30
0.0
 11
66.4073841682
 21
170.7551764579
 31
0.0
  0
LINE
  5
31B
330
220
100
AcDbEntity
  8
02___PRT_ALL_AXES
  6
Continuous
 62
     7
100
AcDbLine
 10
66.4073841682
 20
265.7551764579
 30
0.0
 11
66.4073841682
 21
266.6551764579
 31
0.0
  0
LWPOLYLINE
  5
31C
330
220
100
AcDbEntity
  8
7_ALL_FEATURES
  6
Continuous
 62
     7
100
AcDbPolyline
 90
        6
 70
     0
 43
0.0
 10
70.8559602135
 20
226.0269329714
 10
69.7030853247
 20
225.6107870535
 10
68.4850486597
 20
225.1378765333
 10
67.1832701518
 20
224.6111410646
 10
65.7955680688
 20
224.0415020871
 10
64.912285537
 20
223.6834954938
  0
LINE
  5
31D
330
220
100
AcDbEntity
  8
7_ALL_FEATURES
  6
Continuous
 62
     7
100
AcDbLine
 10
71.099781971
 20
226.1051764579
 30
0.0
 11
70.8559602135
 21
226.0269329714
 31
0.0
  0
LINE
  5
31E
330
220
100
AcDbEntity
  8
7_ALL_FEATURES
  6
Continuous
 62
     7
100
AcDbLine
 10
100.1000720368
 20
209.2532877301
 30
0.0
 11
100.1168669636
 21
209.2542533932
 31
0.0
  0
LINE
  5
31F
330
220
100
AcDbEntity
  8
7_ALL_FEATURES
  6
Continuous
 62
     7
100
AcDbLine
 10
100.1000569362
 20
209.2535189326
 30
0.0
 11
98.0623429697
 21
209.1642395417
 31
0.0
  0
LWPOLYLINE
  5
320
330
220
100
AcDbEntity
  8
7_ALL_FEATURES
  6
Continuous
 62
     7
100
AcDbPolyline
 90
       13
 70
     0
 43
0.0
 10
98.0695507705
 20
209.1644495047
 10
97.8783924609
 20
209.1591405538
 10
97.4204321302
 20
209.1486289549
 10
96.9739119835
 20
209.141413186
 10
96.5383216662
 20
209.1373032568
 10
96.1131652087
 20
209.1361254206
 10
95.6979227805
 20
209.1377214656
 10
95.2920848562
 20
209.1419484439
 10
94.8951591888
 20
209.14867767
 10
94.5066690871
 20
209.1577941674
 10
94.1261518256
 20
209.1691959905
 10
93.7531574884
 20
209.1827936106
 10
93.5573841682
 20
209.1912020591
  0
LINE
  5
321
330
220
100
AcDbEntity
  8
7_ALL_FEATURES
  6
Continuous
 62
     7
100
AcDbLine
 10
92.8428229508
 20
207.7551764579
 30
0.0
 11
93.0355347884
 21
207.7551764579
 31
0.0
  0
LINE
  5
322
330
220
100
AcDbEntity
  8
02___PRT_ALL_AXES
  6
Continuous
 62
     7
100
AcDbLine
 10
91.4573841682
 20
209.7551764579
 30
0.0
 11
91.3573841682
 21
209.7551764579
 31
0.0
  0
LINE
  5
323
330
220
100
AcDbEntity
  8
02___PRT_ALL_AXES
  6
Continuous
 62
     7
100
AcDbLine
 10
54.4573841682
 20
209.7551764579
 30
0.0
 11
54.8573841682
 21
209.7551764579
 31
0.0
  0
LINE
  5
324
330
220
100
AcDbEntity
  8
7_ALL_FEATURES
  6
Continuous
 62
     7
100
AcDbLine
 10
91.4573841682
 20
209.7551764579
 30
0.0
 11
93.5573841682
 21
209.7551764579
 31
0.0
  0
LINE
  5
325
330
220
100
AcDbEntity
  8
02___PRT_ALL_AXES
  6
Continuous
 62
     7
100
AcDbLine
 10
70.792014537
 20
210.4051764579
 30
0.0
 11
80.0718699152
 21
210.4051764579
 31
0.0
  0
LINE
  5
326
330
220
100
AcDbEntity
  8
7_ALL_FEATURES
  6
Continuous
 62
     7
100
AcDbLine
 10
99.6573841682
 20
210.7551764579
 30
0.0
 11
97.5573841682
 21
210.7551764579
 31
0.0
  0
LINE
  5
327
330
220
100
AcDbEntity
  8
7_ALL_FEATURES
  6
Continuous
 62
     7
100
AcDbLine
 10
54.7573841682
 20
210.7551764579
 30
0.0
 11
52.6573841682
 21
210.7551764579
 31
0.0
  0
LINE
  5
328
330
220
100
AcDbEntity
  8
02___PRT_ALL_AXES
  6
Continuous
 62
     7
100
AcDbLine
 10
54.7573841682
 20
210.7551764579
 30
0.0
 11
54.8573841682
 21
210.7551764579
 31
0.0
  0
LINE
  5
329
330
220
100
AcDbEntity
  8
02___PRT_ALL_AXES
  6
Continuous
 62
     7
100
AcDbLine
 10
91.3573841682
 20
210.7551764579
 30
0.0
 11
97.5573841682
 21
210.7551764579
 31
0.0
  0
LWPOLYLINE
  5
32A
330
220
100
AcDbEntity
  8
7_ALL_FEATURES
  6
Continuous
 62
     7
100
AcDbPolyline
 90
        6
 70
     0
 43
0.0
 10
93.5573841682
 20
207.1914239885
 10
93.8370385735
 20
207.1782411713
 10
95.0859293798
 20
207.1449022293
 10
96.4219390717
 20
207.1367031175
 10
97.8609857119
 20
207.1580212441
 10
98.1278329778
 20
207.1652972378
  0
LINE
  5
32B
330
220
100
AcDbEntity
  8
02___PRT_ALL_AXES
  6
Continuous
 62
     7
100
AcDbLine
 10
70.792014537
 20
229.4879049034
 30
0.0
 11
70.792014537
 21
226.1051764579
 31
0.0
  0
LINE
  5
32C
330
220
100
AcDbEntity
  8
02___PRT_ALL_AXES
  6
Continuous
 62
     7
100
AcDbLine
 10
70.792014537
 20
207.0224480125
 30
0.0
 11
70.792014537
 21
210.4051764579
 31
0.0
  0
LINE
  5
32D
330
220
100
AcDbEntity
  8
02___PRT_ALL_AXES
  6
Continuous
 62
     7
100
AcDbLine
 10
70.792014537
 20
214.7344548197
 30
0.0
 11
70.792014537
 21
223.1051764579
 31
0.0
  0
LINE
  5
32E
330
220
100
AcDbEntity
  8
02___PRT_ALL_AXES
  6
Continuous
 62
     7
100
AcDbLine
 10
71.7202177672
 20
212.2287031868
 30
0.0
 11
71.7202177672
 21
210.4051764579
 31
0.0
  0
LINE
  5
32F
330
220
100
AcDbEntity
  8
02___PRT_ALL_AXES
  6
Continuous
 62
     7
100
AcDbLine
 10
71.7202177672
 20
223.1051764579
 30
0.0
 11
71.7202177672
 21
226.1051764579
 31
0.0
  0
LWPOLYLINE
  5
330
330
220
100
AcDbEntity
  8
7_ALL_FEATURES
  6
Continuous
 62
     7
100
AcDbPolyline
 90
        8
 70
     0
 43
0.0
 10
67.8328236849
 20
222.7160603134
 10
68.4815666003
 20
222.9807865931
 10
69.1088301846
 20
223.2335643761
 10
69.7160179304
 20
223.473602551
 10
70.3053003135
 20
223.700451952
 10
70.878230876
 20
223.9133890386
 10
71.4355938247
 20
224.1113512066
 10
71.7202177672
 20
224.2067061453
  0
LWPOLYLINE
  5
331
330
220
100
AcDbEntity
  8
7_ALL_FEATURES
  6
Continuous
 62
     7
100
AcDbPolyline
 90
        6
 70
     0
 43
0.0
 10
64.04331231
 20
221.1878123952
 10
64.2043481741
 20
221.2489857938
 10
64.9894858974
 20
221.5573471269
 10
65.741990267
 20
221.8597542047
 10
66.4650467697
 20
222.1545326747
 10
67.8328236849
 20
222.7160603134
  0
LINE
  5
332
330
220
100
AcDbEntity
  8
7_ALL_FEATURES
  6
Continuous
 62
     7
100
AcDbLine
 10
99.1355347884
 20
212.7551764579
 30
0.0
 11
98.9428229508
 21
212.7551764579
 31
0.0
  0
LINE
  5
333
330
220
100
AcDbEntity
  8
7_ALL_FEATURES
  6
Continuous
 62
     7
100
AcDbLine
 10
53.3719453857
 20
212.7551764579
 30
0.0
 11
53.1792335481
 21
212.7551764579
 31
0.0
  0
LINE
  5
334
330
220
100
AcDbEntity
  8
02___PRT_ALL_AXES
  6
Continuous
 62
     7
100
AcDbLine
 10
74.5241086404
 20
213.4051764579
 30
0.0
 11
76.7060780262
 21
213.4051764579
 31
0.0
  0
LINE
  5
335
330
220
100
AcDbEntity
  8
02___PRT_ALL_AXES
  6
Continuous
 62
     7
100
AcDbLine
 10
80.140138945
 20
213.4051764579
 30
0.0
 11
84.6484209975
 21
213.4051764579
 31
0.0
  0
LINE
  5
336
330
220
100
AcDbEntity
  8
02___PRT_ALL_AXES
  6
Continuous
 62
     7
100
AcDbLine
 10
74.2202177672
 20
213.6051764579
 30
0.0
 11
81.2202177672
 21
213.6051764579
 31
0.0
  0
LINE
  5
337
330
220
100
AcDbEntity
  8
7_ALL_FEATURES
  6
Continuous
 62
     7
100
AcDbLine
 10
74.2202177672
 20
213.6051764579
 30
0.0
 11
81.2202177672
 21
213.6051764579
 31
0.0
  0
LINE
  5
338
330
220
100
AcDbEntity
  8
02___PRT_ALL_AXES
  6
Continuous
 62
     7
100
AcDbLine
 10
101.5373841682
 20
214.4551764579
 30
0.0
 11
101.1573841682
 21
214.4551764579
 31
0.0
  0
LINE
  5
339
330
220
100
AcDbEntity
  8
02___PRT_ALL_AXES
  6
Continuous
 62
     7
100
AcDbLine
 10
51.1573841682
 20
214.4551764579
 30
0.0
 11
50.7773841682
 21
214.4551764579
 31
0.0
  0
LINE
  5
33A
330
220
100
AcDbEntity
  8
02___PRT_ALL_AXES
  6
Continuous
 62
     7
100
AcDbLine
 10
100.1573841682
 20
214.7551764579
 30
0.0
 11
99.6573841682
 21
214.7551764579
 31
0.0
  0
LINE
  5
33B
330
220
100
AcDbEntity
  8
02___PRT_ALL_AXES
  6
Continuous
 62
     7
100
AcDbLine
 10
52.6573841682
 20
214.7551764579
 30
0.0
 11
52.1573841682
 21
214.7551764579
 31
0.0
  0
LWPOLYLINE
  5
33C
330
220
100
AcDbEntity
  8
7_ALL_FEATURES
  6
Continuous
 62
     7
100
AcDbPolyline
 90
       41
 70
     0
 43
0.0
 10
85.6755181992
 20
210.2208491908
 10
85.6452395745
 20
210.2282441874
 10
85.423612405
 20
210.2845073144
 10
85.2060072585
 20
210.3419090385
 10
84.9923952667
 20
210.400443439
 10
84.7826524618
 20
210.4601340556
 10
84.5766817033
 20
210.5210034225
 10
84.3744154924
 20
210.5830713016
 10
84.1758136003
 20
210.6463543259
 10
83.9808594597
 20
210.7108660443
 10
83.7895555537
 20
210.7766160406
 10
83.6019331383
 20
210.8436059306
 10
83.4180434698
 20
210.9118326021
 10
83.2380086992
 20
210.9812672032
 10
83.061831331
 20
211.0519278779
 10
82.8893395034
 20
211.1239127413
 10
82.7204192308
 20
211.1973099859
 10
82.5550400169
 20
211.2721840031
 10
82.3932344805
 20
211.3485835016
 10
82.2350902518
 20
211.4265419489
 10
82.080744579
 20
211.5060768427
 10
81.9303595026
 20
211.5871980388
 10
81.7841918876
 20
211.6698512923
 10
81.6426022497
 20
211.7539087858
 10
81.5051959159
 20
211.8397127306
 10
81.3717158373
 20
211.9276034494
 10
81.2421240009
 20
212.0178608178
 10
81.1164958419
 20
212.1107405702
 10
80.995238683
 20
212.2062871639
 10
80.8789707558
 20
212.3044253829
 10
80.7684879071
 20
212.4049590295
 10
80.6643006658
 20
212.5079804063
 10
80.5656295838
 20
212.6148592256
 10
80.4733330341
 20
212.7255112362
 10
80.3891631226
 20
212.8390049867
 10
80.3148735657
 20
212.954415058
 10
80.2508685104
 20
213.0723783456
 10
80.1981785558
 20
213.1930128449
 10
80.1566410214
 20
213.32130284
 10
80.1283394618
 20
213.4651486284
 10
80.1193954087
 20
213.6051764579
  0
LWPOLYLINE
  5
33D
330
220
100
AcDbEntity
  8
7_ALL_FEATURES
  6
Continuous
 62
     7
100
AcDbPolyline
 90
       16
 70
     0
 43
0.0
 10
72.447659019
 20
214.0898833503
 10
72.3729076857
 20
214.1176626256
 10
72.2357994241
 20
214.1691177101
 10
72.0977172078
 20
214.2214159401
 10
71.9586489701
 20
214.2745413218
 10
71.8185791137
 20
214.3284800212
 10
71.6774867469
 20
214.383220606
 10
71.5353461428
 20
214.4387533865
 10
71.3921281576
 20
214.4950705538
 10
71.2477999442
 20
214.552166346
 10
71.1023248591
 20
214.6100370323
 10
70.9556623612
 20
214.6686808992
 10
70.8077678992
 20
214.7280982385
 10
70.6585927915
 20
214.7882913366
 10
70.508084097
 20
214.8492644636
 10
70.3561844774
 20
214.9110238621
  0
LWPOLYLINE
  5
33E
330
220
100
AcDbEntity
  8
7_ALL_FEATURES
  6
Continuous
 62
     7
100
AcDbPolyline
 90
       18
 70
     0
 43
0.0
 10
64.0461965849
 20
215.3071110127
 10
65.2475817279
 20
214.8418702821
 10
66.5710792173
 20
214.3074126115
 10
67.8007175563
 20
213.8007660178
 10
68.9457238424
 20
213.3276314977
 10
70.0149724908
 20
212.8914061393
 10
71.0170263927
 20
212.4942773304
 10
71.9619495369
 20
212.1374083984
 10
72.8646808981
 20
211.8209572849
 10
73.7325575139
 20
211.5498986109
 10
74.5429347726
 20
211.3393859873
 10
75.269316244
 20
211.2019234143
 10
75.9298617638
 20
211.1377039857
 10
76.5451564538
 20
211.1539049007
 10
77.1295923821
 20
211.2695290202
 10
77.6713790802
 20
211.510745051
 10
78.1352041933
 20
211.8940275736
 10
78.4126176679
 20
212.3113972538
  0
LWPOLYLINE
  5
33F
330
220
100
AcDbEntity
  8
7_ALL_FEATURES
  6
Continuous
 62
     7
100
AcDbPolyline
 90
       19
 70
     0
 43
0.0
 10
67.3613945973
 20
216.1448474008
 10
67.1789900645
 20
216.2194247534
 10
66.9946737254
 20
216.2945537027
 10
66.8083963273
 20
216.3702218231
 10
66.6201064354
 20
216.4464156631
 10
66.4297490907
 20
216.5231205706
 10
66.2372676246
 20
216.6003203149
 10
66.0426038641
 20
216.677996988
 10
65.8456981225
 20
216.7561308066
 10
65.6464891963
 20
216.8346998932
 10
65.4449143693
 20
216.9136800379
 10
65.2409094252
 20
216.9930444352
 10
65.0344086702
 20
217.0727633951
 10
64.8253449673
 20
217.1528040255
 10
64.6136497836
 20
217.2331298818
 10
64.3992555628
 20
217.3136997187
 10
64.1820779257
 20
217.3944737255
 10
63.962016859
 20
217.4754123353
 10
63.7107069646
 20
217.5666099775
  0
LINE
  5
340
330
220
100
AcDbEntity
  8
7_ALL_FEATURES
  6
Continuous
 62
     7
100
AcDbLine
 10
70.3561844774
 20
214.9110238621
 30
0.0
 11
70.0480456618
 21
215.0369009985
 31
0.0
  0
LINE
  5
341
330
220
100
AcDbEntity
  8
7_ALL_FEATURES
  6
Continuous
 62
     7
100
AcDbLine
 10
67.7206387822
 20
215.9974003086
 30
0.0
 11
67.3613945973
 21
216.1448474008
 31
0.0
  0
LINE
  5
342
330
220
100
AcDbEntity
  8
7_ALL_FEATURES
  6
Continuous
 62
     7
100
AcDbLine
 10
70.0480456618
 20
215.0369009985
 30
0.0
 11
69.7341103228
 21
215.1658082338
 31
0.0
  0
LINE
  5
343
330
220
100
AcDbEntity
  8
7_ALL_FEATURES
  6
Continuous
 62
     7
100
AcDbLine
 10
68.072680196
 20
215.8523321896
 30
0.0
 11
67.7206387822
 21
215.9974003086
 31
0.0
  0
LINE
  5
344
330
220
100
AcDbEntity
  8
7_ALL_FEATURES
  6
Continuous
 62
     7
100
AcDbLine
 10
69.7341103228
 20
215.1658082338
 30
0.0
 11
69.4142739537
 21
215.297640217
 31
0.0
  0
LINE
  5
345
330
220
100
AcDbEntity
  8
7_ALL_FEATURES
  6
Continuous
 62
     7
100
AcDbLine
 10
68.9231402956
 20
215.5006613631
 30
0.0
 11
68.072680196
 21
215.8523321896
 31
0.0
  0
LINE
  5
346
330
220
100
AcDbEntity
  8
7_ALL_FEATURES
  6
Continuous
 62
     7
100
AcDbLine
 10
69.4142739537
 20
215.297640217
 30
0.0
 11
68.9231402956
 21
215.5006613631
 31
0.0
  0
LINE
  5
347
330
220
100
AcDbEntity
  8
02___PRT_ALL_AXES
  6
Continuous
 62
     7
100
AcDbLine
 10
73.3900907483
 20
217.1051764579
 30
0.0
 11
73.3900907483
 21
217.6051764579
 31
0.0
  0
LINE
  5
348
330
220
100
AcDbEntity
  8
02___PRT_ALL_AXES
  6
Continuous
 62
     7
100
AcDbLine
 10
75.1221415559
 20
217.1051764579
 30
0.0
 11
75.1221415559
 21
217.6051764579
 31
0.0
  0
LINE
  5
349
330
220
100
AcDbEntity
  8
02___PRT_ALL_AXES
  6
Continuous
 62
     9
100
AcDbLine
 10
84.6484209975
 20
217.1051764579
 30
0.0
 11
82.0503447862
 21
217.1051764579
 31
0.0
  0
LINE
  5
34A
330
220
100
AcDbEntity
  8
02___PRT_ALL_AXES
  6
Continuous
 62
     9
100
AcDbLine
 10
70.792014537
 20
217.1051764579
 30
0.0
 11
73.3900907483
 21
217.1051764579
 31
0.0
  0
LINE
  5
34B
330
220
100
AcDbEntity
  8
02___PRT_ALL_AXES
  6
Continuous
 62
     9
100
AcDbLine
 10
75.1221415559
 20
217.1051764579
 30
0.0
 11
80.3182939786
 21
217.1051764579
 31
0.0
  0
LINE
  5
34C
330
220
100
AcDbEntity
  8
02___PRT_ALL_AXES
  6
Continuous
 62
     7
100
AcDbLine
 10
84.6484209975
 20
217.6051764579
 30
0.0
 11
82.0503447862
 21
217.6051764579
 31
0.0
  0
LINE
  5
34D
330
220
100
AcDbEntity
  8
02___PRT_ALL_AXES
  6
Continuous
 62
     7
100
AcDbLine
 10
70.792014537
 20
217.6051764579
 30
0.0
 11
73.3900907483
 21
217.6051764579
 31
0.0
  0
LINE
  5
34E
330
220
100
AcDbEntity
  8
02___PRT_ALL_AXES
  6
Continuous
 62
     7
100
AcDbLine
 10
75.1221415559
 20
217.6051764579
 30
0.0
 11
80.3182939786
 21
217.6051764579
 31
0.0
  0
LWPOLYLINE
  5
34F
330
220
100
AcDbEntity
  8
7_ALL_FEATURES
  6
Continuous
 62
     7
100
AcDbPolyline
 90
       15
 70
     0
 43
0.0
 10
78.1210401294
 20
213.6051764579
 10
78.1661563171
 20
213.0775376478
 10
78.3139575225
 20
212.5240474203
 10
78.5589651597
 20
211.9959627049
 10
78.8934543014
 20
211.4986256088
 10
79.3019043972
 20
211.0423297617
 10
79.7572552596
 20
210.6371131372
 10
80.2463801463
 20
210.2765259874
 10
80.7646577406
 20
209.9516259632
 10
81.3124152661
 20
209.6545253198
 10
81.8888633223
 20
209.3807474501
 10
82.4936821705
 20
209.1272275249
 10
83.1290312854
 20
208.8909799299
 10
83.7957387912
 20
208.6704704554
 10
84.028283769
 20
208.6020007852
  0
LINE
  5
350
330
220
100
AcDbEntity
  8
02___PRT_ALL_AXES
  6
Continuous
 62
     7
100
AcDbLine
 10
77.7202177672
 20
229.6051764579
 30
0.0
 11
77.7202177672
 21
226.1051764579
 31
0.0
  0
LINE
  5
351
330
220
100
AcDbEntity
  8
02___PRT_ALL_AXES
  6
Continuous
 62
     7
100
AcDbLine
 10
77.7202177672
 20
223.1051764579
 30
0.0
 11
77.7202177672
 21
218.6051764579
 31
0.0
  0
LINE
  5
352
330
220
100
AcDbEntity
  8
02___PRT_ALL_AXES
  6
Continuous
 62
     7
100
AcDbLine
 10
77.7202177672
 20
206.9051764579
 30
0.0
 11
77.7202177672
 21
210.4051764579
 31
0.0
  0
LINE
  5
353
330
220
100
AcDbEntity
  8
02___PRT_ALL_AXES
  6
Continuous
 62
     7
100
AcDbLine
 10
80.3182939786
 20
217.1051764579
 30
0.0
 11
80.3182939786
 21
217.6051764579
 31
0.0
  0
LWPOLYLINE
  5
354
330
220
100
AcDbEntity
  8
7_ALL_FEATURES
  6
Continuous
 62
     7
100
AcDbPolyline
 90
       40
 70
     0
 43
0.0
 10
76.7202810733
 20
213.6051764579
 10
76.7188394846
 20
213.5350735965
 10
76.7126035818
 20
213.4500222576
 10
76.7015912189
 20
213.374341618
 10
76.685822983
 20
213.3091245521
 10
76.6669312067
 20
213.2598044616
 10
76.6536459512
 20
213.2377064687
 10
76.6450989898
 20
213.2288849158
 10
76.6276539334
 20
213.2167227853
 10
76.5935158366
 20
213.1997523998
 10
76.5444454912
 20
213.1818954306
 10
76.4856872626
 20
213.1663476825
 10
76.4207480113
 20
213.1539048408
 10
76.3529195586
 20
213.1446991284
 10
76.2821754805
 20
213.1383873611
 10
76.2055210704
 20
213.1346367611
 10
76.1238975375
 20
213.1335226846
 10
76.039529007
 20
213.1350095877
 10
75.9530368549
 20
213.1389578019
 10
75.8647146992
 20
213.1452067613
 10
75.7748537103
 20
213.1535850881
 10
75.6835991576
 20
213.1639567516
 10
75.5909347713
 20
213.1762297246
 10
75.4966398224
 20
213.1903613852
 10
75.4003454339
 20
213.2063391506
 10
75.3015744517
 20
213.2242005314
 10
75.1996849349
 20
213.24405164
 10
75.0948291456
 20
213.2658667472
 10
74.987653292
 20
213.2895027594
 10
74.8783427734
 20
213.3148987129
 10
74.7670258625
 20
213.342003867
 10
74.6536573658
 20
213.3708112001
 10
74.5383557536
 20
213.4012752691
 10
74.4212582525
 20
213.4333392707
 10
74.3024907878
 20
213.4669366242
 10
74.1821763179
 20
213.5019985899
 10
74.0604258826
 20
213.5384588175
 10
73.9373377545
 20
213.5762542266
 10
73.8129967215
 20
213.6153257888
 10
73.703890728
 20
213.6503492205
  0
LINE
  5
355
330
220
100
AcDbEntity
  8
02___PRT_ALL_AXES
  6
Continuous
 62
     7
100
AcDbLine
 10
100.1573841682
 20
221.7551764579
 30
0.0
 11
99.6573841682
 21
221.7551764579
 31
0.0
  0
LINE
  5
356
330
220
100
AcDbEntity
  8
02___PRT_ALL_AXES
  6
Continuous
 62
     7
100
AcDbLine
 10
52.6573841682
 20
221.7551764579
 30
0.0
 11
52.1573841682
 21
221.7551764579
 31
0.0
  0
LINE
  5
357
330
220
100
AcDbEntity
  8
02___PRT_ALL_AXES
  6
Continuous
 62
     7
100
AcDbLine
 10
101.5373841682
 20
222.0551764579
 30
0.0
 11
101.1573841682
 21
222.0551764579
 31
0.0
  0
LINE
  5
358
330
220
100
AcDbEntity
  8
02___PRT_ALL_AXES
  6
Continuous
 62
     7
100
AcDbLine
 10
51.1573841682
 20
222.0551764579
 30
0.0
 11
50.7773841682
 21
222.0551764579
 31
0.0
  0
LINE
  5
359
330
220
100
AcDbEntity
  8
02___PRT_ALL_AXES
  6
Continuous
 62
     7
100
AcDbLine
 10
82.0503447862
 20
217.1051764579
 30
0.0
 11
82.0503447862
 21
217.6051764579
 31
0.0
  0
LINE
  5
35A
330
220
100
AcDbEntity
  8
02___PRT_ALL_AXES
  6
Continuous
 62
     7
100
AcDbLine
 10
83.7202177672
 20
213.4051764579
 30
0.0
 11
83.7202177672
 21
210.801372841
 31
0.0
  0
LINE
  5
35B
330
220
100
AcDbEntity
  8
02___PRT_ALL_AXES
  6
Continuous
 62
     7
100
AcDbLine
 10
83.7202177672
 20
223.1051764579
 30
0.0
 11
83.7202177672
 21
226.1051764579
 31
0.0
  0
LINE
  5
35C
330
220
100
AcDbEntity
  8
7_ALL_FEATURES
  6
Continuous
 62
     7
100
AcDbLine
 10
100.0185786084
 20
227.2657678174
 30
0.0
 11
100.0755333198
 21
227.2698887883
 31
0.0
  0
LINE
  5
35D
330
220
100
AcDbEntity
  8
02___PRT_ALL_AXES
  6
Continuous
 62
     7
100
AcDbLine
 10
84.6484209975
 20
223.1051764579
 30
0.0
 11
70.792014537
 21
223.1051764579
 31
0.0
  0
LINE
  5
35E
330
220
100
AcDbEntity
  8
7_ALL_FEATURES
  6
Continuous
 62
     7
100
AcDbLine
 10
53.1792335481
 20
223.7551764579
 30
0.0
 11
53.3719453857
 21
223.7551764579
 31
0.0
  0
LINE
  5
35F
330
220
100
AcDbEntity
  8
7_ALL_FEATURES
  6
Continuous
 62
     7
100
AcDbLine
 10
98.9428229508
 20
223.7551764579
 30
0.0
 11
99.1355347884
 21
223.7551764579
 31
0.0
  0
LINE
  5
360
330
220
100
AcDbEntity
  8
02___PRT_ALL_AXES
  6
Continuous
 62
     7
100
AcDbLine
 10
97.5573841682
 20
225.7551764579
 30
0.0
 11
91.3573841682
 21
225.7551764579
 31
0.0
  0
LINE
  5
361
330
220
100
AcDbEntity
  8
7_ALL_FEATURES
  6
Continuous
 62
     7
100
AcDbLine
 10
52.6573841682
 20
225.7551764579
 30
0.0
 11
54.7573841682
 21
225.7551764579
 31
0.0
  0
LINE
  5
362
330
220
100
AcDbEntity
  8
02___PRT_ALL_AXES
  6
Continuous
 62
     7
100
AcDbLine
 10
54.7573841682
 20
225.7551764579
 30
0.0
 11
54.8573841682
 21
225.7551764579
 31
0.0
  0
LINE
  5
363
330
220
100
AcDbEntity
  8
7_ALL_FEATURES
  6
Continuous
 62
     7
100
AcDbLine
 10
97.5573841682
 20
225.7551764579
 30
0.0
 11
99.6573841682
 21
225.7551764579
 31
0.0
  0
LINE
  5
364
330
220
100
AcDbEntity
  8
02___PRT_ALL_AXES
  6
Continuous
 62
     7
100
AcDbLine
 10
84.6484209975
 20
226.1051764579
 30
0.0
 11
70.792014537
 21
226.1051764579
 31
0.0
  0
LINE
  5
365
330
220
100
AcDbEntity
  8
02___PRT_ALL_AXES
  6
Continuous
 62
     7
100
AcDbLine
 10
84.6484209975
 20
227.4161756845
 30
0.0
 11
84.6484209975
 21
226.1051764579
 31
0.0
  0
LINE
  5
366
330
220
100
AcDbEntity
  8
02___PRT_ALL_AXES
  6
Continuous
 62
     7
100
AcDbLine
 10
84.6484209975
 20
213.4051764579
 30
0.0
 11
84.6484209975
 21
223.1051764579
 31
0.0
  0
LINE
  5
367
330
220
100
AcDbEntity
  8
7_ALL_FEATURES
  6
Continuous
 62
     7
100
AcDbLine
 10
85.9073841682
 20
266.6551764579
 30
0.0
 11
85.9073841682
 21
265.7551764579
 31
0.0
  0
LINE
  5
368
330
220
100
AcDbEntity
  8
02___PRT_ALL_AXES
  6
Continuous
 62
     7
100
AcDbLine
 10
85.9073841682
 20
170.7551764579
 30
0.0
 11
85.9073841682
 21
169.8551764579
 31
0.0
  0
LINE
  5
369
330
220
100
AcDbEntity
  8
7_ALL_FEATURES
  6
Continuous
 62
     7
100
AcDbLine
 10
85.9073841682
 20
169.8551764579
 30
0.0
 11
85.9073841682
 21
170.7551764579
 31
0.0
  0
LINE
  5
36A
330
220
100
AcDbEntity
  8
02___PRT_ALL_AXES
  6
Continuous
 62
     7
100
AcDbLine
 10
85.9073841682
 20
265.7551764579
 30
0.0
 11
85.9073841682
 21
266.6551764579
 31
0.0
  0
LINE
  5
36B
330
220
100
AcDbEntity
  8
7_ALL_FEATURES
  6
Continuous
 62
     7
100
AcDbLine
 10
93.5573841682
 20
226.7551764579
 30
0.0
 11
91.4573841682
 21
226.7551764579
 31
0.0
  0
LINE
  5
36C
330
220
100
AcDbEntity
  8
02___PRT_ALL_AXES
  6
Continuous
 62
     7
100
AcDbLine
 10
54.4573841682
 20
226.7551764579
 30
0.0
 11
54.8573841682
 21
226.7551764579
 31
0.0
  0
LINE
  5
36D
330
220
100
AcDbEntity
  8
02___PRT_ALL_AXES
  6
Continuous
 62
     7
100
AcDbLine
 10
91.3573841682
 20
226.7551764579
 30
0.0
 11
91.4573841682
 21
226.7551764579
 31
0.0
  0
LINE
  5
36E
330
220
100
AcDbEntity
  8
7_ALL_FEATURES
  6
Continuous
 62
     7
100
AcDbLine
 10
93.0355347884
 20
228.7551764579
 30
0.0
 11
92.8428229508
 21
228.7551764579
 31
0.0
  0
LINE
  5
36F
330
220
100
AcDbEntity
  8
7_ALL_FEATURES
  6
Continuous
 62
     7
100
AcDbLine
 10
81.2872407695
 20
229.6051764579
 30
0.0
 11
78.1998228084
 21
229.6051764579
 31
0.0
  0
LINE
  5
370
330
220
100
AcDbEntity
  8
02___PRT_ALL_AXES
  6
Continuous
 62
     7
100
AcDbLine
 10
78.1998228084
 20
229.6051764579
 30
0.0
 11
77.4283293477
 21
229.6051764579
 31
0.0
  0
LINE
  5
371
330
220
100
AcDbEntity
  8
7_ALL_FEATURES
  6
Continuous
 62
     7
100
AcDbLine
 10
77.4283293477
 20
229.6051764579
 30
0.0
 11
71.027527567
 21
229.6051764579
 31
0.0
  0
LINE
  5
372
330
220
100
AcDbEntity
  8
7_ALL_FEATURES
  6
Continuous
 62
     7
100
AcDbLine
 10
73.2027446286
 20
230.3551883419
 30
0.0
 11
79.1120237079
 21
230.3551883419
 31
0.0
  0
LWPOLYLINE
  5
373
330
220
100
AcDbEntity
  8
7_ALL_FEATURES
  6
Continuous
 62
     7
100
AcDbPolyline
 90
        6
 70
     0
 43
0.0
 10
93.5573841682
 20
228.017161406
 10
93.916428944
 20
227.989155104
 10
95.4948390513
 20
227.8345414699
 10
97.0853096568
 20
227.6529672742
 10
98.6793302587
 20
227.449787496
 10
100.0185187239
 20
227.2653423807
  0
LINE
  5
374
330
220
100
AcDbEntity
  8
02___PRT_ALL_AXES
  6
Continuous
 62
     7
100
AcDbLine
 10
91.3573841682
 20
193.5051764579
 30
0.0
 11
91.3573841682
 21
194.5051764579
 31
0.0
  0
LINE
  5
375
330
220
100
AcDbEntity
  8
02___PRT_ALL_AXES
  6
Continuous
 62
     7
100
AcDbLine
 10
91.3573841682
 20
209.7551764579
 30
0.0
 11
91.3573841682
 21
210.7551764579
 31
0.0
  0
LINE
  5
376
330
220
100
AcDbEntity
  8
02___PRT_ALL_AXES
  6
Continuous
 62
     7
100
AcDbLine
 10
91.3573841682
 20
225.7551764579
 30
0.0
 11
91.3573841682
 21
226.7551764579
 31
0.0
  0
LINE
  5
377
330
220
100
AcDbEntity
  8
02___PRT_ALL_AXES
  6
Continuous
 62
     7
100
AcDbLine
 10
91.3573841682
 20
242.0051764579
 30
0.0
 11
91.3573841682
 21
243.0051764579
 31
0.0
  0
LINE
  5
378
330
220
100
AcDbEntity
  8
02___PRT_ALL_AXES
  6
Continuous
 62
     7
100
AcDbLine
 10
91.4073841682
 20
181.0051764579
 30
0.0
 11
91.4073841682
 21
185.5051764579
 31
0.0
  0
LINE
  5
379
330
220
100
AcDbEntity
  8
7_ALL_FEATURES
  6
Continuous
 62
     9
100
AcDbLine
 10
91.4573841682
 20
194.5051764579
 30
0.0
 11
91.4573841682
 21
209.7551764579
 31
0.0
  0
LINE
  5
37A
330
220
100
AcDbEntity
  8
7_ALL_FEATURES
  6
Continuous
 62
     9
100
AcDbLine
 10
91.4573841682
 20
226.7551764579
 30
0.0
 11
91.4573841682
 21
242.0051764579
 31
0.0
  0
LINE
  5
37B
330
220
100
AcDbEntity
  8
7_ALL_FEATURES
  6
Continuous
 62
     7
100
AcDbLine
 10
92.4073841682
 20
194.5051764579
 30
0.0
 11
92.4073841682
 21
193.5051764579
 31
0.0
  0
LINE
  5
37C
330
220
100
AcDbEntity
  8
7_ALL_FEATURES
  6
Continuous
 62
     7
100
AcDbLine
 10
92.4073841682
 20
187.1551764579
 30
0.0
 11
92.4073841682
 21
185.1551764579
 31
0.0
  0
LINE
  5
37D
330
220
100
AcDbEntity
  8
7_ALL_FEATURES
  6
Continuous
 62
     7
100
AcDbLine
 10
92.4073841682
 20
183.1551764579
 30
0.0
 11
92.4073841682
 21
180.8551764579
 31
0.0
  0
LINE
  5
37E
330
220
100
AcDbEntity
  8
7_ALL_FEATURES
  6
Continuous
 62
     7
100
AcDbLine
 10
92.4073841682
 20
242.0051764579
 30
0.0
 11
92.4073841682
 21
243.0051764579
 31
0.0
  0
LINE
  5
37F
330
220
100
AcDbEntity
  8
02___PRT_ALL_AXES
  6
Continuous
 62
     7
100
AcDbLine
 10
93.9373841682
 20
230.8051764579
 30
0.0
 11
93.5573841682
 21
230.8051764579
 31
0.0
  0
LWPOLYLINE
  5
380
330
220
100
AcDbEntity
  8
7_ALL_FEATURES
  6
Continuous
 62
     7
100
AcDbPolyline
 90
        5
 70
     0
 43
0.0
 10
100.1573841682
 20
229.2639480634
 10
98.5268678521
 20
229.4863068235
 10
96.5618100681
 20
229.7277707755
 10
94.6077443446
 20
229.9332896428
 10
93.5573841682
 20
230.0201380468
  0
LINE
  5
381
330
220
100
AcDbEntity
  8
7_ALL_FEATURES
  6
Continuous
 62
     7
100
AcDbLine
 10
61.5073851788
 20
255.6551774682
 30
0.0
 11
61.257385196
 21
255.9051774855
 31
0.0
  0
LINE
  5
382
330
220
100
AcDbEntity
  8
02___PRT_ALL_AXES
  6
Continuous
 62
     7
100
AcDbLine
 10
92.5573841682
 20
226.7551764579
 30
0.0
 11
92.5573841682
 21
225.7551764579
 31
0.0
  0
LINE
  5
383
330
220
100
AcDbEntity
  8
02___PRT_ALL_AXES
  6
Continuous
 62
     7
100
AcDbLine
 10
92.5573841682
 20
210.7551764579
 30
0.0
 11
92.5573841682
 21
209.7551764579
 31
0.0
  0
LINE
  5
384
330
220
100
AcDbEntity
  8
7_ALL_FEATURES
  6
Continuous
 62
     7
100
AcDbLine
 10
92.8428229508
 20
196.5051764579
 30
0.0
 11
92.8428229508
 21
207.7551764579
 31
0.0
  0
LINE
  5
385
330
220
100
AcDbEntity
  8
7_ALL_FEATURES
  6
Continuous
 62
     7
100
AcDbLine
 10
92.8428229508
 20
228.7551764579
 30
0.0
 11
92.8428229508
 21
240.0051764579
 31
0.0
  0
LINE
  5
386
330
220
100
AcDbEntity
  8
7_ALL_FEATURES
  6
Continuous
 62
     7
100
AcDbLine
 10
93.0355347884
 20
240.0051764579
 30
0.0
 11
93.0355347884
 21
228.7551764579
 31
0.0
  0
LINE
  5
387
330
220
100
AcDbEntity
  8
7_ALL_FEATURES
  6
Continuous
 62
     7
100
AcDbLine
 10
93.0355347884
 20
207.7551764579
 30
0.0
 11
93.0355347884
 21
196.5051764579
 31
0.0
  0
LINE
  5
388
330
220
100
AcDbEntity
  8
02___PRT_ALL_AXES
  6
Continuous
 62
     7
100
AcDbLine
 10
93.5573841682
 20
226.7551764579
 30
0.0
 11
93.5573841682
 21
225.7551764579
 31
0.0
  0
LINE
  5
389
330
220
100
AcDbEntity
  8
02___PRT_ALL_AXES
  6
Continuous
 62
     7
100
AcDbLine
 10
93.5573841682
 20
210.7551764579
 30
0.0
 11
93.5573841682
 21
209.7551764579
 31
0.0
  0
LINE
  5
38A
330
220
100
AcDbEntity
  8
7_ALL_FEATURES
  6
Continuous
 62
     7
100
AcDbLine
 10
93.5573841682
 20
194.5051764579
 30
0.0
 11
93.5573841682
 21
209.7551764579
 31
0.0
  0
LINE
  5
38B
330
220
100
AcDbEntity
  8
7_ALL_FEATURES
  6
Continuous
 62
     7
100
AcDbLine
 10
93.5573841682
 20
226.7551764579
 30
0.0
 11
93.5573841682
 21
242.0051764579
 31
0.0
  0
LINE
  5
38C
330
220
100
AcDbEntity
  8
02___PRT_ALL_AXES
  6
Continuous
 62
     7
100
AcDbLine
 10
93.9373841682
 20
198.1051764579
 30
0.0
 11
93.9373841682
 21
205.7051764579
 31
0.0
  0
LINE
  5
38D
330
220
100
AcDbEntity
  8
02___PRT_ALL_AXES
  6
Continuous
 62
     7
100
AcDbLine
 10
93.9373841682
 20
230.8051764579
 30
0.0
 11
93.9373841682
 21
238.4051764579
 31
0.0
  0
LINE
  5
38E
330
220
100
AcDbEntity
  8
02___PRT_ALL_AXES
  6
Continuous
 62
     7
100
AcDbLine
 10
95.7573841682
 20
199.9401764579
 30
0.0
 11
95.7573841682
 21
203.8701764579
 31
0.0
  0
LINE
  5
38F
330
220
100
AcDbEntity
  8
02___PRT_ALL_AXES
  6
Continuous
 62
     7
100
AcDbLine
 10
95.7573841682
 20
232.6401764579
 30
0.0
 11
95.7573841682
 21
236.5701764579
 31
0.0
  0
LINE
  5
390
330
220
100
AcDbEntity
  8
02___PRT_ALL_AXES
  6
Continuous
 62
     7
100
AcDbLine
 10
93.9373841682
 20
238.4051764579
 30
0.0
 11
93.5573841682
 21
238.4051764579
 31
0.0
  0
LINE
  5
391
330
220
100
AcDbEntity
  8
02___PRT_ALL_AXES
  6
Continuous
 62
     7
100
AcDbLine
 10
96.9073841682
 20
185.5051764579
 30
0.0
 11
96.9073841682
 21
181.0051764579
 31
0.0
  0
LINE
  5
392
330
220
100
AcDbEntity
  8
7_ALL_FEATURES
  6
Continuous
 62
     9
100
AcDbLine
 10
97.5573841682
 20
210.7551764579
 30
0.0
 11
97.5573841682
 21
225.7551764579
 31
0.0
  0
LINE
  5
393
330
220
100
AcDbEntity
  8
7_ALL_FEATURES
  6
Continuous
 62
     7
100
AcDbLine
 10
98.9428229508
 20
212.7551764579
 30
0.0
 11
98.9428229508
 21
223.7551764579
 31
0.0
  0
LINE
  5
394
330
220
100
AcDbEntity
  8
02___PRT_ALL_AXES
  6
Continuous
 62
     9
100
AcDbLine
 10
99.0573841682
 20
270.7551764579
 30
0.0
 11
99.0573841682
 21
265.7551764579
 31
0.0
  0
LINE
  5
395
330
220
100
AcDbEntity
  8
02___PRT_ALL_AXES
  6
Continuous
 62
     9
100
AcDbLine
 10
99.0573841682
 20
243.986393439
 30
0.0
 11
99.0573841682
 21
229.4139586053
 31
0.0
  0
LINE
  5
396
330
220
100
AcDbEntity
  8
02___PRT_ALL_AXES
  6
Continuous
 62
     9
100
AcDbLine
 10
99.0573841682
 20
227.3977185014
 30
0.0
 11
99.0573841682
 21
225.7551764579
 31
0.0
  0
LINE
  5
397
330
220
100
AcDbEntity
  8
02___PRT_ALL_AXES
  6
Continuous
 62
     9
100
AcDbLine
 10
99.0573841682
 20
210.7551764579
 30
0.0
 11
99.0573841682
 21
209.2078357841
 31
0.0
  0
LINE
  5
398
330
220
100
AcDbEntity
  8
02___PRT_ALL_AXES
  6
Continuous
 62
     9
100
AcDbLine
 10
99.0573841682
 20
207.2061286434
 30
0.0
 11
99.0573841682
 21
192.5239594769
 31
0.0
  0
LINE
  5
399
330
220
100
AcDbEntity
  8
02___PRT_ALL_AXES
  6
Continuous
 62
     9
100
AcDbLine
 10
99.0573841682
 20
170.7551764579
 30
0.0
 11
99.0573841682
 21
165.7551764579
 31
0.0
  0
LINE
  5
39A
330
220
100
AcDbEntity
  8
7_ALL_FEATURES
  6
Continuous
 62
     7
100
AcDbLine
 10
99.1355347884
 20
223.7551764579
 30
0.0
 11
99.1355347884
 21
212.7551764579
 31
0.0
  0
LINE
  5
39B
330
220
100
AcDbEntity
  8
7_ALL_FEATURES
  6
Continuous
 62
     7
100
AcDbLine
 10
99.6573841682
 20
210.7551764579
 30
0.0
 11
99.6573841682
 21
225.7551764579
 31
0.0
  0
LINE
  5
39C
330
220
100
AcDbEntity
  8
7_ALL_FEATURES
  6
Continuous
 62
     7
100
AcDbLine
 10
99.8573841682
 20
265.7551764579
 30
0.0
 11
99.8573841682
 21
263.6551764579
 31
0.0
  0
LINE
  5
39D
330
220
100
AcDbEntity
  8
02___PRT_ALL_AXES
  6
Continuous
 62
     7
100
AcDbLine
 10
99.8573841682
 20
263.6551764579
 30
0.0
 11
99.8573841682
 21
246.0051764579
 31
0.0
  0
LINE
  5
39E
330
220
100
AcDbEntity
  8
02___PRT_ALL_AXES
  6
Continuous
 62
     7
100
AcDbLine
 10
99.8573841682
 20
190.5051764579
 30
0.0
 11
99.8573841682
 21
172.8551764579
 31
0.0
  0
LINE
  5
39F
330
220
100
AcDbEntity
  8
7_ALL_FEATURES
  6
Continuous
 62
     7
100
AcDbLine
 10
99.8573841682
 20
172.8551764579
 30
0.0
 11
99.8573841682
 21
170.7551764579
 31
0.0
  0
LINE
  5
3A0
330
220
100
AcDbEntity
  8
02___PRT_ALL_AXES
  6
Continuous
 62
     7
100
AcDbLine
 10
100.1573841682
 20
165.7551764579
 30
0.0
 11
100.1573841682
 21
270.7551764579
 31
0.0
  0
LINE
  5
3A1
330
220
100
AcDbEntity
  8
7_ALL_FEATURES
  6
Continuous
 62
     7
100
AcDbLine
 10
92.8428229508
 20
240.0051764579
 30
0.0
 11
93.0355347884
 21
240.0051764579
 31
0.0
  0
LINE
  5
3A2
330
220
100
AcDbEntity
  8
02___PRT_ALL_AXES
  6
Continuous
 62
     7
100
AcDbLine
 10
91.4573841682
 20
242.0051764579
 30
0.0
 11
91.3573841682
 21
242.0051764579
 31
0.0
  0
LINE
  5
3A3
330
220
100
AcDbEntity
  8
7_ALL_FEATURES
  6
Continuous
 62
     7
100
AcDbLine
 10
91.4573841682
 20
242.0051764579
 30
0.0
 11
93.5573841682
 21
242.0051764579
 31
0.0
  0
LINE
  5
3A4
330
220
100
AcDbEntity
  8
02___PRT_ALL_AXES
  6
Continuous
 62
     7
100
AcDbLine
 10
101.1573841682
 20
165.7551764579
 30
0.0
 11
101.1573841682
 21
270.7551764579
 31
0.0
  0
LINE
  5
3A5
330
220
100
AcDbEntity
  8
02___PRT_ALL_AXES
  6
Continuous
 62
     7
100
AcDbLine
 10
101.5373841682
 20
214.4551764579
 30
0.0
 11
101.5373841682
 21
222.0551764579
 31
0.0
  0
LINE
  5
3A6
330
220
100
AcDbEntity
  8
02___PRT_ALL_AXES
  6
Continuous
 62
     7
100
AcDbLine
 10
103.3573841682
 20
216.2901764579
 30
0.0
 11
103.3573841682
 21
220.2201764579
 31
0.0
  0
LINE
  5
3A7
330
220
100
AcDbEntity
  8
02___PRT_ALL_AXES
  6
Continuous
 62
     7
100
AcDbLine
 10
96.8573841682
 20
243.0051764579
 30
0.0
 11
91.3573841682
 21
243.0051764579
 31
0.0
  0
LINE
  5
3A8
330
220
100
AcDbEntity
  8
02___PRT_ALL_AXES
  6
Continuous
 62
     7
100
AcDbLine
 10
62.4073841682
 20
250.5051764579
 30
0.0
 11
57.9073841682
 21
250.5051764579
 31
0.0
  0
LINE
  5
3A9
330
220
100
AcDbEntity
  8
7_ALL_FEATURES
  6
Continuous
 62
     7
100
AcDbLine
 10
59.9073841682
 20
251.3551764579
 30
0.0
 11
64.38610736
 21
251.3551764579
 31
0.0
  0
LINE
  5
3AA
330
220
100
AcDbEntity
  8
7_ALL_FEATURES
  6
Continuous
 62
     7
100
AcDbLine
 10
65.1442189185
 20
253.3551764579
 30
0.0
 11
59.9073841682
 21
253.3551764579
 31
0.0
  0
LINE
  5
3AB
330
220
100
AcDbEntity
  8
7_ALL_FEATURES
  6
Continuous
 62
     7
100
AcDbLine
 10
64.5779482605
 20
254.9051645288
 30
0.0
 11
59.9073841682
 21
254.9051764579
 31
0.0
  0
LINE
  5
3AC
330
220
100
AcDbEntity
  8
7_ALL_FEATURES
  6
Continuous
 62
     7
100
AcDbLine
 10
59.9073841682
 20
255.6551764579
 30
0.0
 11
63.7378898753
 21
255.6551764579
 31
0.0
  0
LINE
  5
3AD
330
220
100
AcDbEntity
  8
7_ALL_FEATURES
  6
Continuous
 62
     7
100
AcDbLine
 10
63.1343381271
 20
255.9051757776
 30
0.0
 11
61.2573841682
 21
255.9051764579
 31
0.0
  0
LINE
  5
3AE
330
220
100
AcDbEntity
  8
02___PRT_ALL_AXES
  6
Continuous
 62
     7
100
AcDbLine
 10
57.9073841682
 20
256.0051764579
 30
0.0
 11
62.4073841682
 21
256.0051764579
 31
0.0
  0
LINE
  5
3AF
330
220
100
AcDbEntity
  8
7_ALL_FEATURES
  6
Continuous
 62
     7
100
AcDbLine
 10
85.9073841682
 20
169.8551764579
 30
0.0
 11
85.8073841682
 21
169.7551764579
 31
0.0
  0
LINE
  5
3B0
330
220
100
AcDbEntity
  8
7_ALL_FEATURES
  6
Continuous
 62
     7
100
AcDbLine
 10
85.9073841682
 20
266.6551764579
 30
0.0
 11
85.8073841682
 21
266.7551764579
 31
0.0
  0
LINE
  5
3B1
330
220
100
AcDbEntity
  8
7_ALL_FEATURES
  6
Continuous
 62
     9
100
AcDbLine
 10
99.8573841682
 20
263.6551764579
 30
0.0
 11
52.4573841682
 21
263.6551764579
 31
0.0
  0
LINE
  5
3B2
330
220
100
AcDbEntity
  8
7_ALL_FEATURES
  6
Continuous
 62
     7
100
AcDbLine
 10
99.8573841682
 20
265.7551764579
 30
0.0
 11
52.4573841682
 21
265.7551764579
 31
0.0
  0
LINE
  5
3B3
330
220
100
AcDbEntity
  8
7_ALL_FEATURES
  6
Continuous
 62
     7
100
AcDbLine
 10
85.9073841682
 20
266.6551764579
 30
0.0
 11
66.4073841682
 21
266.6551764579
 31
0.0
  0
LINE
  5
3B4
330
220
100
AcDbEntity
  8
7_ALL_FEATURES
  6
Continuous
 62
     7
100
AcDbLine
 10
85.8073841682
 20
266.7551764579
 30
0.0
 11
66.5073841682
 21
266.7551764579
 31
0.0
  0
LINE
  5
3B5
330
220
100
AcDbEntity
  8
02___PRT_ALL_AXES
  6
Continuous
 62
     9
100
AcDbLine
 10
101.1573841682
 20
268.7551764579
 30
0.0
 11
100.1573841682
 21
268.7551764579
 31
0.0
  0
LINE
  5
3B6
330
220
100
AcDbEntity
  8
02___PRT_ALL_AXES
  6
Continuous
 62
     9
100
AcDbLine
 10
51.1573841682
 20
268.7551764579
 30
0.0
 11
52.1573841682
 21
268.7551764579
 31
0.0
  0
LINE
  5
3B7
330
220
100
AcDbEntity
  8
02___PRT_ALL_AXES
  6
Continuous
 62
     7
100
AcDbLine
 10
101.1573841682
 20
270.7551764579
 30
0.0
 11
51.1573841682
 21
270.7551764579
 31
0.0
  0
LINE
  5
3B8
330
220
100
AcDbEntity
  8
02___PRT_ALL_AXES
  6
Continuous
 62
     7
100
AcDbLine
 10
228.7461181881
 20
165.7551764579
 30
0.0
 11
180.7461181881
 21
165.7551764579
 31
0.0
  0
LINE
  5
3B9
330
220
100
AcDbEntity
  8
02___PRT_ALL_AXES
  6
Continuous
 62
     7
100
AcDbLine
 10
180.7461181881
 20
165.7551764579
 30
0.0
 11
180.7461181881
 21
270.7551764579
 31
0.0
  0
LINE
  5
3BA
330
220
100
AcDbEntity
  8
02___PRT_ALL_AXES
  6
Continuous
 62
     9
100
AcDbLine
 10
182.8461181881
 20
165.7551764579
 30
0.0
 11
182.8461181881
 21
270.7551764579
 31
0.0
  0
LINE
  5
3BB
330
220
100
AcDbEntity
  8
7_ALL_FEATURES
  6
Continuous
 62
     7
100
AcDbLine
 10
220.7461181881
 20
219.6985521309
 30
0.0
 11
219.4961181881
 21
218.9768642944
 31
0.0
  0
LINE
  5
3BC
330
220
100
AcDbEntity
  8
7_ALL_FEATURES
  6
Continuous
 62
     7
100
AcDbLine
 10
219.4961181881
 20
217.5334886214
 30
0.0
 11
220.7461181881
 21
216.8118007849
 31
0.0
  0
LINE
  5
3BD
330
220
100
AcDbEntity
  8
7_ALL_FEATURES
  6
Continuous
 62
     7
100
AcDbLine
 10
220.7461181881
 20
216.8118007849
 30
0.0
 11
221.9961181881
 21
217.5334886214
 31
0.0
  0
LINE
  5
3BE
330
220
100
AcDbEntity
  8
7_ALL_FEATURES
  6
Continuous
 62
     7
100
AcDbLine
 10
221.9961181881
 20
218.9768642944
 30
0.0
 11
220.7461181881
 21
219.6985521309
 31
0.0
  0
LINE
  5
3BF
330
220
100
AcDbEntity
  8
7_ALL_FEATURES
  6
Continuous
 62
     7
100
AcDbLine
 10
219.4961181881
 20
218.9768642944
 30
0.0
 11
219.4961181881
 21
217.5334886214
 31
0.0
  0
LINE
  5
3C0
330
220
100
AcDbEntity
  8
7_ALL_FEATURES
  6
Continuous
 62
     7
100
AcDbLine
 10
221.9961181881
 20
217.5334886214
 30
0.0
 11
221.9961181881
 21
218.9768642944
 31
0.0
  0
LINE
  5
3C1
330
220
100
AcDbEntity
  8
02___PRT_ALL_AXES
  6
Continuous
 62
     7
100
AcDbLine
 10
230.7461181881
 20
268.7551764579
 30
0.0
 11
230.7461181881
 21
167.7551764579
 31
0.0
  0
LINE
  5
3C2
330
220
100
AcDbEntity
  8
02___PRT_ALL_AXES
  6
Continuous
 62
     7
100
AcDbLine
 10
180.7461181881
 20
270.7551764579
 30
0.0
 11
228.7461181881
 21
270.7551764579
 31
0.0
  0
LINE
  5
3C3
330
220
100
AcDbEntity
  8
02___PRT_ALL_AXES
  6
Continuous
 62
     7
100
AcDbLine
 10
297.1469235815
 20
189.3411395161
 30
0.0
 11
296.4398168003
 21
188.9875861255
 31
0.0
  0
LINE
  5
3C4
330
220
100
AcDbEntity
  8
02___PRT_ALL_AXES
  6
Continuous
 62
     7
100
AcDbLine
 10
331.0880490785
 20
206.3117022646
 30
0.0
 11
331.7951558597
 21
206.6652556552
 31
0.0
  0
LINE
  5
3C5
330
220
100
AcDbEntity
  8
02___PRT_ALL_AXES
  6
Continuous
 62
     9
100
AcDbLine
 10
332.6895830507
 20
206.6084520808
 30
0.0
 11
331.9824762695
 21
206.2548986902
 31
0.0
  0
LINE
  5
3C6
330
220
100
AcDbEntity
  8
02___PRT_ALL_AXES
  6
Continuous
 62
     9
100
AcDbLine
 10
297.3342439913
 20
188.9307825511
 30
0.0
 11
298.0413507725
 21
189.2843359417
 31
0.0
  0
LINE
  5
3C7
330
220
100
AcDbEntity
  8
02___PRT_ALL_AXES
  6
Continuous
 62
     7
100
AcDbLine
 10
297.3342439913
 20
97.9981151538
 30
0.0
 11
329.7904452478
 21
81.7700145255
 31
0.0
  0
LINE
  5
3C8
330
220
100
AcDbEntity
  8
7_ALL_FEATURES
  6
Continuous
 62
     7
100
AcDbLine
 10
301.9129704411
 20
187.3485261074
 30
0.0
 11
330.9019063627
 21
201.8429940682
 31
0.0
  0
LINE
  5
3C9
330
220
100
AcDbEntity
  8
7_ALL_FEATURES
  6
Continuous
 62
     9
100
AcDbLine
 10
302.4421884696
 20
187.0839170932
 30
0.0
 11
331.8410549132
 21
201.783350315
 31
0.0
  0
LINE
  5
3CA
330
220
100
AcDbEntity
  8
02___PRT_ALL_AXES
  6
Continuous
 62
     7
100
AcDbLine
 10
295.920030429
 20
100.4372727425
 30
0.0
 11
295.920030429
 21
187.9058385247
 31
0.0
  0
LINE
  5
3CB
330
220
100
AcDbEntity
  8
7_ALL_FEATURES
  6
Continuous
 62
     7
100
AcDbLine
 10
300.5515798457
 20
140.9251460066
 30
0.0
 11
300.5515798457
 21
139.6751460066
 31
0.0
  0
LINE
  5
3CC
330
220
100
AcDbEntity
  8
7_ALL_FEATURES
  6
Continuous
 62
     7
100
AcDbLine
 10
301.9657934081
 20
140.4680392254
 30
0.0
 11
301.9657934081
 21
140.3822527878
 31
0.0
  0
LINE
  5
3CD
330
220
100
AcDbEntity
  8
7_ALL_FEATURES
  6
Continuous
 62
     7
100
AcDbLine
 10
302.3193467987
 20
138.7912625301
 30
0.0
 11
302.3193467987
 21
140.0412625301
 31
0.0
  0
LINE
  5
3CE
330
220
100
AcDbEntity
  8
02___PRT_ALL_AXES
  6
Continuous
 62
     9
100
AcDbLine
 10
365.1457843071
 20
190.3803514525
 30
0.0
 11
364.4386775259
 21
190.026798062
 31
0.0
  0
LINE
  5
3CF
330
220
100
AcDbEntity
  8
02___PRT_ALL_AXES
  6
Continuous
 62
     9
100
AcDbLine
 10
329.7904452478
 20
172.7026819229
 30
0.0
 11
330.497552029
 21
173.0562353135
 31
0.0
  0
LINE
  5
3D0
330
220
100
AcDbEntity
  8
02___PRT_ALL_AXES
  6
Continuous
 62
     7
100
AcDbLine
 10
332.0531869476
 20
173.0562353135
 30
0.0
 11
364.4386775259
 21
189.2489806027
 31
0.0
  0
LINE
  5
3D1
330
220
100
AcDbEntity
  8
02___PRT_ALL_AXES
  6
Continuous
 62
     7
100
AcDbLine
 10
332.7602937288
 20
172.7026819229
 30
0.0
 11
365.1457843071
 21
188.8954272121
 31
0.0
  0
LINE
  5
3D2
330
220
100
AcDbEntity
  8
7_ALL_FEATURES
  6
Continuous
 62
     7
100
AcDbLine
 10
300.5515798457
 20
139.6751460066
 30
0.0
 11
301.4354633222
 21
138.6082042684
 31
0.0
  0
LINE
  5
3D3
330
220
100
AcDbEntity
  8
7_ALL_FEATURES
  6
Continuous
 62
     7
100
AcDbLine
 10
301.9657934081
 20
140.3822527878
 30
0.0
 11
302.3193467987
 21
139.9554760925
 31
0.0
  0
LINE
  5
3D4
330
220
100
AcDbEntity
  8
7_ALL_FEATURES
  6
Continuous
 62
     7
100
AcDbLine
 10
302.3193467987
 20
140.0412625301
 30
0.0
 11
301.4354633222
 21
141.1082042684
 31
0.0
  0
LINE
  5
3D5
330
220
100
AcDbEntity
  8
02___PRT_ALL_AXES
  6
Continuous
 62
     7
100
AcDbLine
 10
321.8789228789
 20
184.06017644
 30
0.0
 11
321.8789228789
 21
185.9104084815
 31
0.0
  0
LINE
  5
3D6
330
220
100
AcDbEntity
  8
02___PRT_ALL_AXES
  6
Continuous
 62
     7
100
AcDbLine
 10
301.2916865779
 20
144.0348450535
 30
0.0
 11
301.0229860011
 21
143.9004947651
 31
0.0
  0
LINE
  5
3D7
330
220
100
AcDbEntity
  8
7_ALL_FEATURES
  6
Continuous
 62
     7
100
AcDbLine
 10
300.5515798457
 20
139.6751460066
 30
0.0
 11
301.9657934081
 21
140.3822527878
 31
0.0
  0
LINE
  5
3D8
330
220
100
AcDbEntity
  8
7_ALL_FEATURES
  6
Continuous
 62
     7
100
AcDbLine
 10
301.4354633222
 20
138.6082042684
 30
0.0
 11
302.3193467987
 21
139.0501460066
 31
0.0
  0
LINE
  5
3D9
330
220
100
AcDbEntity
  8
02___PRT_ALL_AXES
  6
Continuous
 62
     7
100
AcDbLine
 10
304.6905099037
 20
137.2371984019
 30
0.0
 11
304.4218093269
 21
137.1028481135
 31
0.0
  0
LINE
  5
3DA
330
220
100
AcDbEntity
  8
02___PRT_ALL_AXES
  6
Continuous
 62
     9
100
AcDbLine
 10
329.7904452478
 20
172.7026819229
 30
0.0
 11
329.7904452478
 21
81.7700145255
 31
0.0
  0
LINE
  5
3DB
330
220
100
AcDbEntity
  8
02___PRT_ALL_AXES
  6
Continuous
 62
     7
100
AcDbLine
 10
330.5682627071
 20
205.2299546638
 30
0.0
 11
330.5682627071
 21
201.6761722404
 31
0.0
  0
LINE
  5
3DC
330
220
100
AcDbEntity
  8
7_ALL_FEATURES
  6
Continuous
 62
     7
100
AcDbLine
 10
301.4354633222
 20
138.6082042684
 30
0.0
 11
302.3193467987
 21
138.7912625301
 31
0.0
  0
LINE
  5
3DD
330
220
100
AcDbEntity
  8
02___PRT_ALL_AXES
  6
Continuous
 62
     9
100
AcDbLine
 10
332.7602937288
 20
172.7026819229
 30
0.0
 11
332.7602937288
 21
81.7700145255
 31
0.0
  0
LINE
  5
3DE
330
220
100
AcDbEntity
  8
7_ALL_FEATURES
  6
Continuous
 62
     7
100
AcDbLine
 10
301.4354633222
 20
141.1082042684
 30
0.0
 11
300.5515798457
 21
140.9251460066
 31
0.0
  0
LINE
  5
3DF
330
220
100
AcDbEntity
  8
02___PRT_ALL_AXES
  6
Continuous
 62
     7
100
AcDbLine
 10
341.3789228789
 20
184.06017644
 30
0.0
 11
341.3789228789
 21
185.9104084815
 31
0.0
  0
LINE
  5
3E0
330
220
100
AcDbEntity
  8
02___PRT_ALL_AXES
  6
Continuous
 62
     7
100
AcDbLine
 10
329.7904452478
 20
172.7026819229
 30
0.0
 11
297.3342439913
 21
188.9307825511
 31
0.0
  0
LINE
  5
3E1
330
220
100
AcDbEntity
  8
02___PRT_ALL_AXES
  6
Continuous
 62
     7
100
AcDbLine
 10
330.497552029
 20
173.0562353135
 30
0.0
 11
298.0413507725
 21
189.2843359417
 31
0.0
  0
LINE
  5
3E2
330
220
100
AcDbEntity
  8
02___PRT_ALL_AXES
  6
Continuous
 62
     9
100
AcDbLine
 10
332.7602937288
 20
172.7026819229
 30
0.0
 11
332.0531869476
 21
173.0562353135
 31
0.0
  0
LINE
  5
3E3
330
220
100
AcDbEntity
  8
02___PRT_ALL_AXES
  6
Continuous
 62
     9
100
AcDbLine
 10
364.4386775259
 20
189.2489806027
 30
0.0
 11
364.4386775259
 21
190.026798062
 31
0.0
  0
LINE
  5
3E4
330
220
100
AcDbEntity
  8
02___PRT_ALL_AXES
  6
Continuous
 62
     9
100
AcDbLine
 10
365.1457843071
 20
97.9627598147
 30
0.0
 11
365.1457843071
 21
188.8954272121
 31
0.0
  0
LINE
  5
3E5
330
220
100
AcDbEntity
  8
02___PRT_ALL_AXES
  6
Continuous
 62
     7
100
AcDbLine
 10
365.7608600666
 20
98.7052219349
 30
0.0
 11
365.7608600666
 21
189.6378893323
 31
0.0
  0
LINE
  5
3E6
330
220
100
AcDbEntity
  8
02___PRT_ALL_AXES
  6
Continuous
 62
     7
100
AcDbLine
 10
331.8410549132
 20
201.783350315
 30
0.0
 11
360.674235932
 21
187.3667598057
 31
0.0
  0
LINE
  5
3E7
330
220
100
AcDbEntity
  8
02___PRT_ALL_AXES
  6
Continuous
 62
     7
100
AcDbLine
 10
365.1457843071
 20
97.9627598147
 30
0.0
 11
332.7602937288
 21
81.7700145255
 31
0.0
  0
LINE
  5
3E8
330
220
100
AcDbEntity
  8
02___PRT_ALL_AXES
  6
Continuous
 62
     9
100
AcDbLine
 10
365.1457843071
 20
188.8954272121
 30
0.0
 11
364.4386775259
 21
189.2489806027
 31
0.0
  0
LINE
  5
3E9
330
220
100
AcDbEntity
  8
02___PRT_ALL_AXES
  6
Continuous
 62
     7
100
AcDbLine
 10
364.4386775259
 20
190.026798062
 30
0.0
 11
331.9824762695
 21
206.2548986902
 31
0.0
  0
LINE
  5
3EA
330
220
100
AcDbEntity
  8
02___PRT_ALL_AXES
  6
Continuous
 62
     7
100
AcDbLine
 10
365.1457843071
 20
190.3803514525
 30
0.0
 11
332.6895830507
 21
206.6084520808
 31
0.0
  0
ARC
  5
3EB
330
220
100
AcDbEntity
  8
7_ALL_FEATURES
  6
Continuous
 62
     7
100
AcDbCircle
 10
83.5696464922
 20
76.0621782649
 30
0.0
 40
26.499775596
100
AcDbArc
 50
51.24752481199999
 51
51.529122847
  0
ARC
  5
3EC
330
220
100
AcDbEntity
  8
7_ALL_FEATURES
  6
Continuous
 62
     7
100
AcDbCircle
 10
116.5161214401
 20
117.0153507892
 30
0.0
 40
26.1340272215
100
AcDbArc
 50
231.1336539242
 51
231.2476867108
  0
ARC
  5
3ED
330
220
100
AcDbEntity
  8
7_ALL_FEATURES
  6
Continuous
 62
     7
100
AcDbCircle
 10
116.5031882959
 20
116.9990613681
 30
0.0
 40
26.113228462
100
AcDbArc
 50
230.8307719142
 51
231.1333208396
  0
ARC
  5
3EE
330
220
100
AcDbEntity
  8
7_ALL_FEATURES
  6
Continuous
 62
     7
100
AcDbCircle
 10
84.6115988068
 20
77.3761998439
 30
0.0
 40
24.8227799987
100
AcDbArc
 50
51.5251876398
 51
52.11765439309999
  0
CIRCLE
  5
3EF
330
220
100
AcDbEntity
  8
02___PRT_ALL_AXES
  6
Continuous
 62
     7
100
AcDbCircle
 10
76.1573841682
 20
77.1813572108
 30
0.0
 40
10.0
  0
CIRCLE
  5
3F0
330
220
100
AcDbEntity
  8
7_ALL_FEATURES
  6
Continuous
 62
     7
100
AcDbCircle
 10
76.1573841682
 20
77.1813572108
 30
0.0
 40
9.75
  0
CIRCLE
  5
3F1
330
220
100
AcDbEntity
  8
7_ALL_FEATURES
  6
Continuous
 62
     7
100
AcDbCircle
 10
76.1573841682
 20
77.1813572108
 30
0.0
 40
9.65
  0
ARC
  5
3F2
330
220
100
AcDbEntity
  8
7_ALL_FEATURES
  6
Continuous
 62
     7
100
AcDbCircle
 10
106.5359349268
 20
94.2257299848
 30
0.0
 40
6.9660772571
100
AcDbArc
 50
156.2991260335
 51
158.0344364895
  0
ARC
  5
3F3
330
220
100
AcDbEntity
  8
02___PRT_ALL_AXES
  6
Continuous
 62
     7
100
AcDbCircle
 10
52.6300242599
 20
61.5389144134
 30
0.0
 40
4.1
100
AcDbArc
 50
206.3930257743
 51
243.1366968699
  0
ARC
  5
3F4
330
220
100
AcDbEntity
  8
02___PRT_ALL_AXES
  6
Continuous
 62
     7
100
AcDbCircle
 10
52.6300242599
 20
61.8238000081
 30
0.0
 40
4.1
100
AcDbArc
 50
116.8633031301
 51
153.6069742257
  0
ARC
  5
3F5
330
220
100
AcDbEntity
  8
02___PRT_ALL_AXES
  6
Continuous
 62
     7
100
AcDbCircle
 10
99.6847440766
 20
61.5389144134
 30
0.0
 40
4.1
100
AcDbArc
 50
296.8633031301
 51
333.6069742257001
  0
ARC
  5
3F6
330
220
100
AcDbEntity
  8
02___PRT_ALL_AXES
  6
Continuous
 62
     7
100
AcDbCircle
 10
99.6847440766
 20
61.8238000081
 30
0.0
 40
4.1
100
AcDbArc
 50
26.3930257743
 51
63.13669686989999
  0
ARC
  5
3F7
330
220
100
AcDbEntity
  8
02___PRT_ALL_AXES
  6
Continuous
 62
     7
100
AcDbCircle
 10
99.0573841682
 20
99.5813572108
 30
0.0
 40
2.1
100
AcDbArc
 50
0.0
 51
90.0
  0
ARC
  5
3F8
330
220
100
AcDbEntity
  8
02___PRT_ALL_AXES
  6
Continuous
 62
     7
100
AcDbCircle
 10
53.2573841682
 20
99.5813572108
 30
0.0
 40
2.1
100
AcDbArc
 50
90.0
 51
180.0
  0
ARC
  5
3F9
330
220
100
AcDbEntity
  8
02___PRT_ALL_AXES
  6
Continuous
 62
     7
100
AcDbCircle
 10
53.9573841682
 20
98.9313572108
 30
0.0
 40
1.5
100
AcDbArc
 50
90.0
 51
180.0
  0
ARC
  5
3FA
330
220
100
AcDbEntity
  8
02___PRT_ALL_AXES
  6
Continuous
 62
     7
100
AcDbCircle
 10
98.3573841682
 20
98.9313572108
 30
0.0
 40
1.5
100
AcDbArc
 50
0.0
 51
90.0
  0
ARC
  5
3FB
330
220
100
AcDbEntity
  8
02___PRT_ALL_AXES
  6
Continuous
 62
     7
100
AcDbCircle
 10
99.0573841682
 20
99.5813572108
 30
0.0
 40
1.1
100
AcDbArc
 50
0.0
 51
90.0
  0
ARC
  5
3FC
330
220
100
AcDbEntity
  8
02___PRT_ALL_AXES
  6
Continuous
 62
     7
100
AcDbCircle
 10
53.2573841682
 20
99.5813572108
 30
0.0
 40
1.1
100
AcDbArc
 50
90.0
 51
180.0
  0
ARC
  5
3FD
330
220
100
AcDbEntity
  8
02___PRT_ALL_AXES
  6
Continuous
 62
     7
100
AcDbCircle
 10
74.2202177672
 20
217.1051764579
 30
0.0
 40
3.5
100
AcDbArc
 50
191.5683651059
 51
270.0
  0
ARC
  5
3FE
330
220
100
AcDbEntity
  8
02___PRT_ALL_AXES
  6
Continuous
 62
     7
100
AcDbCircle
 10
54.4573841682
 20
207.7551764579
 30
0.0
 40
2.0
100
AcDbArc
 50
90.0
 51
180.0
  0
CIRCLE
  5
3FF
330
220
100
AcDbEntity
  8
02___PRT_ALL_AXES
  6
Continuous
 62
     7
100
AcDbCircle
 10
76.1573841682
 20
218.2551764579
 30
0.0
 40
12.5
  0
ARC
  5
400
330
220
100
AcDbEntity
  8
02___PRT_ALL_AXES
  6
Continuous
 62
     7
100
AcDbCircle
 10
52.6300242599
 20
218.3976192553
 30
0.0
 40
4.1
100
AcDbArc
 50
116.8633031301
 51
153.6069742257
  0
ARC
  5
401
330
220
100
AcDbEntity
  8
02___PRT_ALL_AXES
  6
Continuous
 62
     7
100
AcDbCircle
 10
52.6300242599
 20
218.1127336606
 30
0.0
 40
4.1
100
AcDbArc
 50
206.3930257743
 51
243.1366968699
  0
ARC
  5
402
330
220
100
AcDbEntity
  8
02___PRT_ALL_AXES
  6
Continuous
 62
     7
100
AcDbCircle
 10
62.4073841682
 20
253.2551764579
 30
0.0
 40
2.75
100
AcDbArc
 50
270.0
 51
90.0
  0
ARC
  5
403
330
220
100
AcDbEntity
  8
02___PRT_ALL_AXES
  6
Continuous
 62
     7
100
AcDbCircle
 10
57.9073841682
 20
253.2551764579
 30
0.0
 40
2.75
100
AcDbArc
 50
90.0
 51
270.0
  0
ARC
  5
404
330
220
100
AcDbEntity
  8
02___PRT_ALL_AXES
  6
Continuous
 62
     7
100
AcDbCircle
 10
54.4573841682
 20
228.7551764579
 30
0.0
 40
2.0
100
AcDbArc
 50
180.0
 51
270.0
  0
ARC
  5
405
330
220
100
AcDbEntity
  8
02___PRT_ALL_AXES
  6
Continuous
 62
     7
100
AcDbCircle
 10
92.0847440766
 20
201.7627336606
 30
0.0
 40
4.1
100
AcDbArc
 50
296.8633031301
 51
333.6069742257001
  0
ARC
  5
406
330
220
100
AcDbEntity
  8
02___PRT_ALL_AXES
  6
Continuous
 62
     7
100
AcDbCircle
 10
92.0847440766
 20
202.0476192553
 30
0.0
 40
4.1
100
AcDbArc
 50
26.3930257743
 51
63.13669686989999
  0
ARC
  5
407
330
220
100
AcDbEntity
  8
02___PRT_ALL_AXES
  6
Continuous
 62
     7
100
AcDbCircle
 10
81.2202177672
 20
217.1051764579
 30
0.0
 40
3.5
100
AcDbArc
 50
270.0
 51
348.4316348940999
  0
ARC
  5
408
330
220
100
AcDbEntity
  8
02___PRT_ALL_AXES
  6
Continuous
 62
     7
100
AcDbCircle
 10
96.8573841682
 20
190.5051764579
 30
0.0
 40
3.0
100
AcDbArc
 50
0.0
 51
90.0
  0
ARC
  5
409
330
220
100
AcDbEntity
  8
02___PRT_ALL_AXES
  6
Continuous
 62
     7
100
AcDbCircle
 10
94.1573841682
 20
181.0051764579
 30
0.0
 40
2.75
100
AcDbArc
 50
180.0
 51
360.0
  0
ARC
  5
40A
330
220
100
AcDbEntity
  8
02___PRT_ALL_AXES
  6
Continuous
 62
     7
100
AcDbCircle
 10
94.1573841682
 20
185.5051764579
 30
0.0
 40
2.75
100
AcDbArc
 50
0.0
 51
180.0
  0
ARC
  5
40B
330
220
100
AcDbEntity
  8
7_ALL_FEATURES
  6
Continuous
 62
     7
100
AcDbCircle
 10
100.1336360626
 20
208.6738416082
 30
0.0
 40
0.5806539786
100
AcDbArc
 50
87.6546957073
 51
91.6549136613
  0
ARC
  5
40C
330
220
100
AcDbEntity
  8
02___PRT_ALL_AXES
  6
Continuous
 62
     7
100
AcDbCircle
 10
92.0847440766
 20
234.4627336606
 30
0.0
 40
4.1
100
AcDbArc
 50
296.8633031301
 51
333.6069742257001
  0
ARC
  5
40D
330
220
100
AcDbEntity
  8
02___PRT_ALL_AXES
  6
Continuous
 62
     7
100
AcDbCircle
 10
92.0847440766
 20
234.7476192553
 30
0.0
 40
4.1
100
AcDbArc
 50
26.3930257743
 51
63.13669686989999
  0
ARC
  5
40E
330
220
100
AcDbEntity
  8
02___PRT_ALL_AXES
  6
Continuous
 62
     7
100
AcDbCircle
 10
99.6847440766
 20
218.1127336606
 30
0.0
 40
4.1
100
AcDbArc
 50
296.8633031301
 51
333.6069742257001
  0
ARC
  5
40F
330
220
100
AcDbEntity
  8
02___PRT_ALL_AXES
  6
Continuous
 62
     7
100
AcDbCircle
 10
99.6847440766
 20
218.3976192553
 30
0.0
 40
4.1
100
AcDbArc
 50
26.3930257743
 51
63.13669686989999
  0
ARC
  5
410
330
220
100
AcDbEntity
  8
02___PRT_ALL_AXES
  6
Continuous
 62
     7
100
AcDbCircle
 10
96.8573841682
 20
246.0051764579
 30
0.0
 40
3.0
100
AcDbArc
 50
270.0
 51
360.0
  0
CIRCLE
  5
411
330
220
100
AcDbEntity
  8
02___PRT_ALL_AXES
  6
Continuous
 62
     7
100
AcDbCircle
 10
220.7461181881
 20
218.2551764579
 30
0.0
 40
3.8
  0
ARC
  5
412
330
220
100
AcDbEntity
  8
02___PRT_ALL_AXES
  6
Continuous
 62
     7
100
AcDbCircle
 10
228.7461181881
 20
167.7551764579
 30
0.0
 40
2.0
100
AcDbArc
 50
270.0
 51
360.0
  0
ARC
  5
413
330
220
100
AcDbEntity
  8
02___PRT_ALL_AXES
  6
Continuous
 62
     7
100
AcDbCircle
 10
228.7461181881
 20
268.7551764579
 30
0.0
 40
2.0
100
AcDbArc
 50
0.0
 51
90.0
  0
CIRCLE
  5
414
330
220
100
AcDbEntity
  8
02___PRT_ALL_AXES
  6
Continuous
 62
     7
100
AcDbCircle
 10
220.7461181881
 20
218.2551764579
 30
0.0
 40
1.965
  0
ARC
  5
415
330
220
100
AcDbEntity
  8
7_ALL_FEATURES
  6
Continuous
 62
     7
100
AcDbCircle
 10
327.6289858827
 20
183.295959489
 30
0.0
 40
6.7196074045
100
AcDbArc
 50
125.263083695
 51
126.1257689449
  0
ARC
  5
416
330
220
100
AcDbEntity
  8
7_ALL_FEATURES
  6
Continuous
 62
     7
100
AcDbCircle
 10
335.6351208648
 20
183.3049640828
 30
0.0
 40
6.7086506676
100
AcDbArc
 50
53.8510524986
 51
54.74094674410001
  0
ARC
  5
417
330
220
100
AcDbEntity
  8
02___PRT_ALL_AXES
  6
Continuous
 62
     7
100
AcDbCircle
 10
304.0746181181
 20
141.115157202
 30
0.0
 40
4.1920731183
100
AcDbArc
 50
243.4192125174
 51
261.6924933361
  0
ARC
  5
418
330
220
100
AcDbEntity
  8
7_ALL_FEATURES
  6
Continuous
 62
     9
100
AcDbCircle
 10
324.6166965452
 20
183.2459435908
 30
0.0
 40
3.0621024043
100
AcDbArc
 50
154.3559873007
 51
158.5382393787
  0
ARC
  5
419
330
220
100
AcDbEntity
  8
7_ALL_FEATURES
  6
Continuous
 62
     9
100
AcDbCircle
 10
338.6661273454
 20
183.2575129308
 30
0.0
 40
3.0346155092
100
AcDbArc
 50
21.1562251272
 51
26.4994801731
  0
ARC
  5
41A
330
220
100
AcDbEntity
  8
02___PRT_ALL_AXES
  6
Continuous
 62
     7
100
AcDbCircle
 10
338.6483216372
 20
184.1304712068
 30
0.0
 40
3.0012424241
100
AcDbArc
 50
21.9728533397
 51
24.1415764373
  0
ARC
  5
41B
330
220
100
AcDbEntity
  8
02___PRT_ALL_AXES
  6
Continuous
 62
     7
100
AcDbCircle
 10
301.3817770322
 20
141.1120029851
 30
0.0
 40
2.9971140012
100
AcDbArc
 50
63.4291670937
 51
64.8220165581
  0
ARC
  5
41C
330
220
100
AcDbEntity
  8
02___PRT_ALL_AXES
  6
Continuous
 62
     7
100
AcDbCircle
 10
338.6678611051
 20
184.1385568395
 30
0.0
 40
2.9800960298
100
AcDbArc
 50
21.6994649215
 51
23.7263227691
  0
ARC
  5
41D
330
220
100
AcDbEntity
  8
02___PRT_ALL_AXES
  6
Continuous
 62
     7
100
AcDbCircle
 10
324.5896550538
 20
184.1385775521
 30
0.0
 40
2.9797821312
100
AcDbArc
 50
156.2714647469
 51
158.2985618745
  0
ARC
  5
41E
330
220
100
AcDbEntity
  8
02___PRT_ALL_AXES
  6
Continuous
 62
     7
100
AcDbCircle
 10
324.5725171531
 20
184.1461845491
 30
0.0
 40
2.9610348128
100
AcDbArc
 50
156.4359653749
 51
159.9167752681
  0
ARC
  5
41F
330
220
100
AcDbEntity
  8
02___PRT_ALL_AXES
  6
Continuous
 62
     7
100
AcDbCircle
 10
338.7183187599
 20
184.1589876765
 30
0.0
 40
2.9256598877
100
AcDbArc
 50
20.8312155838
 51
21.9678704647
  0
ARC
  5
420
330
220
100
AcDbEntity
  8
02___PRT_ALL_AXES
  6
Continuous
 62
     7
100
AcDbCircle
 10
338.767242734
 20
184.1779062465
 30
0.0
 40
2.8732080099
100
AcDbArc
 50
18.7323925198
 51
21.7031385485
  0
ARC
  5
421
330
220
100
AcDbEntity
  8
02___PRT_ALL_AXES
  6
Continuous
 62
     7
100
AcDbCircle
 10
324.4900366801
 20
184.1780264363
 30
0.0
 40
2.8726373688
100
AcDbArc
 50
158.2949115391
 51
161.2662681384
  0
ARC
  5
422
330
220
100
AcDbEntity
  8
02___PRT_ALL_AXES
  6
Continuous
 62
     7
100
AcDbCircle
 10
338.7833420598
 20
184.1834852635
 30
0.0
 40
2.856175296
100
AcDbArc
 50
18.4614688524
 51
20.8357714711
  0
ARC
  5
423
330
220
100
AcDbEntity
  8
02___PRT_ALL_AXES
  6
Continuous
 62
     7
100
AcDbCircle
 10
324.4548571467
 20
184.1902069014
 30
0.0
 40
2.8354126964
100
AcDbArc
 50
159.9358289782
 51
161.8421347646
  0
ARC
  5
424
330
220
100
AcDbEntity
  8
02___PRT_ALL_AXES
  6
Continuous
 62
     7
100
AcDbCircle
 10
302.5969394149
 20
139.0212339302
 30
0.0
 40
2.8019574538
100
AcDbArc
 50
344.7755489729001
 51
348.2317402759
  0
ARC
  5
425
330
220
100
AcDbEntity
  8
02___PRT_ALL_AXES
  6
Continuous
 62
     7
100
AcDbCircle
 10
324.3905480021
 20
184.2113381122
 30
0.0
 40
2.7677208012
100
AcDbArc
 50
161.8429182757
 51
163.6681989582
  0
ARC
  5
426
330
220
100
AcDbEntity
  8
02___PRT_ALL_AXES
  6
Continuous
 62
     7
100
AcDbCircle
 10
338.905361678
 20
184.2235897951
 30
0.0
 40
2.727735485
100
AcDbArc
 50
12.1252715926
 51
18.4740495616
  0
ARC
  5
427
330
220
100
AcDbEntity
  8
02___PRT_ALL_AXES
  6
Continuous
 62
     7
100
AcDbCircle
 10
324.3114556949
 20
184.2342653743
 30
0.0
 40
2.6853727973
100
AcDbArc
 50
163.663108642
 51
168.2431733885
  0
ARC
  5
428
330
220
100
AcDbEntity
  8
02___PRT_ALL_AXES
  6
Continuous
 62
     7
100
AcDbCircle
 10
302.9893508512
 20
139.1224962409
 30
0.0
 40
2.6738994101
100
AcDbArc
 50
344.0116722481
 51
344.7635525467
  0
ARC
  5
429
330
220
100
AcDbEntity
  8
02___PRT_ALL_AXES
  6
Continuous
 62
     7
100
AcDbCircle
 10
301.6657062213
 20
142.6142501282
 30
0.0
 40
1.4378835838
100
AcDbArc
 50
104.8917806584
 51
116.5507201948
  0
ARC
  5
42A
330
220
100
AcDbEntity
  8
02___PRT_ALL_AXES
  6
Continuous
 62
     7
100
AcDbCircle
 10
303.7789233219
 20
138.3880384902
 30
0.0
 40
1.4370147447
100
AcDbArc
 50
296.5754222965999
 51
308.4120634604
  0
SPLINE
  5
42B
330
220
100
AcDbEntity
  8
7_ALL_FEATURES
  6
Continuous
 62
     7
100
AcDbSpline
210
0.0
220
0.0
230
1.0
 70
     8
 71
     3
 72
    11
 73
     7
 74
     0
 42
0.000000001
 43
0.0000001
 40
0.0
 40
0.0
 40
0.0
 40
0.0
 40
0.328799351
 40
0.6149192019
 40
0.8419115823
 40
1.0
 40
1.0
 40
1.0
 40
1.0
 10
100.1573670656
 20
96.3368878753
 30
0.0
 10
100.1294109128
 20
96.2732648906
 30
0.0
 10
100.0752492587
 20
96.1551081605
 30
0.0
 10
99.9949756371
 20
95.9961584061
 30
0.0
 10
99.9238414818
 20
95.873480096
 30
0.0
 10
99.8766796951
 20
95.8065775544
 30
0.0
 10
99.8539683045
 20
95.7820698103
 30
0.0
  0
SPLINE
  5
42C
330
220
100
AcDbEntity
  8
02___PRT_ALL_AXES
  6
Continuous
 62
     7
100
AcDbSpline
210
0.0
220
0.0
230
1.0
 70
     8
 71
     3
 72
    11
 73
     7
 74
     0
 42
0.000000001
 43
0.0000001
 40
0.0
 40
0.0
 40
0.0
 40
0.0
 40
0.2528641712
 40
0.5038317346
 40
0.7528115376
 40
1.0
 40
1.0
 40
1.0
 40
1.0
 10
77.7202177672
 20
218.6051764579
 30
0.0
 10
77.9244640642
 20
218.4872548034
 30
0.0
 10
78.3382913277
 20
218.2638439257
 30
0.0
 10
78.9792028522
 20
217.9752549235
 30
0.0
 10
79.6385617845
 20
217.7465655301
 30
0.0
 10
80.0908184663
 20
217.642700186
 30
0.0
 10
80.3182939786
 20
217.6051764579
 30
0.0
  0
SPLINE
  5
42D
330
220
100
AcDbEntity
  8
02___PRT_ALL_AXES
  6
Continuous
 62
     7
100
AcDbSpline
210
0.0
220
0.0
230
1.0
 70
     8
 71
     3
 72
    11
 73
     7
 74
     0
 42
0.000000001
 43
0.0000001
 40
0.0
 40
0.0
 40
0.0
 40
0.0
 40
0.2528641712
 40
0.5038317346
 40
0.7528115376
 40
1.0
 40
1.0
 40
1.0
 40
1.0
 10
70.792014537
 20
218.6051764579
 30
0.0
 10
70.9962608339
 20
218.4872548034
 30
0.0
 10
71.4100880974
 20
218.2638439257
 30
0.0
 10
72.0509996219
 20
217.9752549235
 30
0.0
 10
72.7103585542
 20
217.7465655301
 30
0.0
 10
73.162615236
 20
217.642700186
 30
0.0
 10
73.3900907483
 20
217.6051764579
 30
0.0
  0
SPLINE
  5
42E
330
220
100
AcDbEntity
  8
02___PRT_ALL_AXES
  6
Continuous
 62
     7
100
AcDbSpline
210
0.0
220
0.0
230
1.0
 70
     8
 71
     3
 72
    11
 73
     7
 74
     0
 42
0.000000001
 43
0.0000001
 40
0.0
 40
0.0
 40
0.0
 40
0.0
 40
0.2471884812
 40
0.4961682871
 40
0.7471358372
 40
1.0
 40
1.0
 40
1.0
 40
1.0
 10
75.1221415559
 20
217.6051764579
 30
0.0
 10
75.3496170855
 20
217.6427001888
 30
0.0
 10
75.8018737868
 20
217.7465655392
 30
0.0
 10
76.4612327238
 20
217.9752549425
 30
0.0
 10
77.1021442303
 20
218.2638439413
 30
0.0
 10
77.5159714771
 20
218.4872548073
 30
0.0
 10
77.7202177672
 20
218.6051764579
 30
0.0
  0
SPLINE
  5
42F
330
220
100
AcDbEntity
  8
02___PRT_ALL_AXES
  6
Continuous
 62
     7
100
AcDbSpline
210
0.0
220
0.0
230
1.0
 70
     8
 71
     3
 72
    19
 73
    15
 74
     0
 42
0.000000001
 43
0.0000001
 40
0.0
 40
0.0
 40
0.0
 40
0.0
 40
0.067939647
 40
0.1343369129
 40
0.1986396402
 40
0.2610648807
 40
0.3817414899
 40
0.5000607139
 40
0.6183763092
 40
0.739024176
 40
0.8014382043
 40
0.865725454
 40
0.9320917545
 40
1.0
 40
1.0
 40
1.0
 40
1.0
 10
73.3900907483
 20
217.1051764579
 30
0.0
 10
73.3900907483
 20
217.0492908074
 30
0.0
 10
73.4064775852
 20
216.9381458426
 30
0.0
 10
73.4746523655
 20
216.7876859553
 30
0.0
 10
73.5740654003
 20
216.6619991917
 30
0.0
 10
73.7315092819
 20
216.5312573581
 30
0.0
 10
73.9615004965
 20
216.4266170532
 30
0.0
 10
74.2562657175
 20
216.3866385688
 30
0.0
 10
74.5509944411
 20
216.4267029935
 30
0.0
 10
74.780925254
 20
216.5313823967
 30
0.0
 10
74.9383043432
 20
216.6621322847
 30
0.0
 10
75.0376472691
 20
216.7878132754
 30
0.0
 10
75.1057682773
 20
216.9382236668
 30
0.0
 10
75.1221415559
 20
217.0493166376
 30
0.0
 10
75.1221415559
 20
217.1051764579
 30
0.0
  0
SPLINE
  5
430
330
220
100
AcDbEntity
  8
02___PRT_ALL_AXES
  6
Continuous
 62
     7
100
AcDbSpline
210
0.0
220
0.0
230
1.0
 70
     8
 71
     3
 72
    11
 73
     7
 74
     0
 42
0.000000001
 43
0.0000001
 40
0.0
 40
0.0
 40
0.0
 40
0.0
 40
0.2471884812
 40
0.4961682871
 40
0.7471358372
 40
1.0
 40
1.0
 40
1.0
 40
1.0
 10
82.0503447862
 20
217.6051764579
 30
0.0
 10
82.2778203157
 20
217.6427001888
 30
0.0
 10
82.730077017
 20
217.7465655392
 30
0.0
 10
83.3894359541
 20
217.9752549425
 30
0.0
 10
84.0303474606
 20
218.2638439413
 30
0.0
 10
84.4441747074
 20
218.4872548073
 30
0.0
 10
84.6484209975
 20
218.6051764579
 30
0.0
  0
SPLINE
  5
431
330
220
100
AcDbEntity
  8
02___PRT_ALL_AXES
  6
Continuous
 62
     7
100
AcDbSpline
210
0.0
220
0.0
230
1.0
 70
     8
 71
     3
 72
    19
 73
    15
 74
     0
 42
0.000000001
 43
0.0000001
 40
0.0
 40
0.0
 40
0.0
 40
0.0
 40
0.0679313718
 40
0.134330414
 40
0.1986328954
 40
0.2610542132
 40
0.3817238737
 40
0.5000536105
 40
0.6183773004
 40
0.7390372629
 40
0.8014553941
 40
0.8657396837
 40
0.9320963707
 40
1.0
 40
1.0
 40
1.0
 40
1.0
 10
80.3182939786
 20
217.1051764579
 30
0.0
 10
80.3182939786
 20
217.0492976064
 30
0.0
 10
80.3346797193
 20
216.9381585945
 30
0.0
 10
80.402845021
 20
216.7877005183
 30
0.0
 10
80.5022545836
 20
216.6620130316
 30
0.0
 10
80.6596889111
 20
216.5312746816
 30
0.0
 10
80.8896735772
 20
216.4266215359
 30
0.0
 10
81.1844492473
 20
216.386637829
 30
0.0
 10
81.4792035942
 20
216.4267016436
 30
0.0
 10
81.7091531864
 20
216.5313924262
 30
0.0
 10
81.8665341911
 20
216.6621580366
 30
0.0
 10
81.9658629239
 20
216.7878409269
 30
0.0
 10
82.0339751128
 20
216.938238914
 30
0.0
 10
82.0503447862
 20
217.0493204268
 30
0.0
 10
82.0503447862
 20
217.1051764579
 30
0.0
  0
SPLINE
  5
432
330
220
100
AcDbEntity
  8
7_ALL_FEATURES
  6
Continuous
 62
     7
100
AcDbSpline
210
0.0
220
0.0
230
1.0
 70
     8
 71
     3
 72
     9
 73
     5
 74
     0
 42
0.000000001
 43
0.0000001
 40
0.0
 40
0.0
 40
0.0
 40
0.0
 40
0.2271191067
 40
1.0
 40
1.0
 40
1.0
 40
1.0
 10
100.0755333198
 20
227.2698887883
 30
0.0
 10
100.08242845
 20
227.271918676
 30
0.0
 10
100.1121666074
 20
227.282996208
 30
0.0
 10
100.1387426786
 20
227.3013405389
 30
0.0
 10
100.1574012709
 20
227.3171560461
 30
0.0
  0
SPLINE
  5
433
330
220
100
AcDbEntity
  8
7_ALL_FEATURES
  6
Continuous
 62
     7
100
AcDbSpline
210
0.0
220
0.0
230
1.0
 70
     8
 71
     3
 72
    19
 73
    15
 74
     0
 42
0.000000001
 43
0.0000001
 40
0.0
 40
0.0
 40
0.0
 40
0.0
 40
0.0455002296
 40
0.099884917
 40
0.2329652111
 40
0.3897107471
 40
0.5536867431
 40
0.7082789348
 40
0.7774585359
 40
0.8389139881
 40
0.8913065514
 40
0.9345378394
 40
0.9698213882
 40
1.0
 40
1.0
 40
1.0
 40
1.0
 10
100.1573670656
 20
229.1931968698
 30
0.0
 10
100.1331103111
 20
229.1726362149
 30
0.0
 10
100.0857463709
 20
229.1205985298
 30
0.0
 10
99.9961521496
 20
228.9842124849
 30
0.0
 10
99.9020994172
 20
228.7608814166
 30
0.0
 10
99.8223196575
 20
228.4533115119
 30
0.0
 10
99.7766593781
 20
228.1234729396
 30
0.0
 10
99.7738695687
 20
227.8515246925
 30
0.0
 10
99.7948289776
 20
227.6530905789
 30
0.0
 10
99.8201044877
 20
227.5274530229
 30
0.0
 10
99.8554586786
 20
227.4230747589
 30
0.0
 10
99.9003129938
 20
227.3425797032
 30
0.0
 10
99.9537945248
 20
227.2868989732
 30
0.0
 10
99.9976369219
 20
227.2683063913
 30
0.0
 10
100.0185182349
 20
227.2653424501
 30
0.0
  0
SPLINE
  5
434
330
220
100
AcDbEntity
  8
02___PRT_ALL_AXES
  6
Continuous
 62
     7
100
AcDbSpline
210
0.0
220
0.0
230
1.0
 70
     8
 71
     3
 72
    13
 73
     9
 74
     0
 42
0.000000001
 43
0.0000001
 40
0.0
 40
0.0
 40
0.0
 40
0.0
 40
0.1130318083
 40
0.2274217246
 40
0.3444445056
 40
0.4652191182
 40
0.7210476959
 40
1.0
 40
1.0
 40
1.0
 40
1.0
 10
301.2915901853
 20
144.0347947787
 30
0.0
 10
301.3510461068
 20
144.0645254441
 30
0.0
 10
301.4750461357
 20
144.1160116453
 30
0.0
 10
301.6716616241
 20
144.1671940933
 30
0.0
 10
301.8778725782
 20
144.1922540706
 30
0.0
 10
302.1688464265
 20
144.1906168271
 30
0.0
 10
302.5510453988
 20
144.118934186
 30
0.0
 10
302.8443637214
 20
144.0002855218
 30
0.0
 10
302.9910982408
 20
143.9269182621
 30
0.0
  0
SPLINE
  5
435
330
220
100
AcDbEntity
  8
02___PRT_ALL_AXES
  6
Continuous
 62
     7
100
AcDbSpline
210
0.0
220
0.0
230
1.0
 70
     8
 71
     3
 72
    11
 73
     7
 74
     0
 42
0.000000001
 43
0.0000001
 40
0.0
 40
0.0
 40
0.0
 40
0.0
 40
0.2628149639
 40
0.5149612138
 40
0.7594745018
 40
1.0
 40
1.0
 40
1.0
 40
1.0
 10
300.3426356066
 20
143.2196486208
 30
0.0
 10
300.3835686054
 20
143.294798721
 30
0.0
 10
300.4733294884
 20
143.437150908
 30
0.0
 10
300.6344365258
 20
143.6259497656
 30
0.0
 10
300.8172891274
 20
143.7829536269
 30
0.0
 10
300.9529364311
 20
143.8654713945
 30
0.0
 10
301.0229868325
 20
143.9004931021
 30
0.0
  0
SPLINE
  5
436
330
220
100
AcDbEntity
  8
02___PRT_ALL_AXES
  6
Continuous
 62
     7
100
AcDbSpline
210
0.0
220
0.0
230
1.0
 70
     8
 71
     3
 72
    15
 73
    11
 74
     0
 42
0.000000001
 43
0.0000001
 40
0.0
 40
0.0
 40
0.0
 40
0.0
 40
0.1250014395
 40
0.2500131645
 40
0.3750241634
 40
0.5000289747
 40
0.6250377494
 40
0.7500358608
 40
0.8750156828
 40
1.0
 40
1.0
 40
1.0
 40
1.0
 10
300.3426333023
 20
143.2196512526
 30
0.0
 10
300.2063966047
 20
142.9695197422
 30
0.0
 10
299.9846614353
 20
142.4396564335
 30
0.0
 10
299.8204342237
 20
141.5953286512
 30
0.0
 10
299.8290939126
 20
140.7349813725
 30
0.0
 10
300.0086340463
 20
139.8937586458
 30
0.0
 10
300.3500690175
 20
139.1043853876
 30
0.0
 10
300.8397768367
 20
138.3973087664
 30
0.0
 10
301.4592017325
 20
137.8009826953
 30
0.0
 10
301.9441145056
 20
137.4935289554
 30
0.0
 10
302.1988362943
 20
137.366168061
 30
0.0
  0
SPLINE
  5
437
330
220
100
AcDbEntity
  8
02___PRT_ALL_AXES
  6
Continuous
 62
     7
100
AcDbSpline
210
0.0
220
0.0
230
1.0
 70
     8
 71
     3
 72
    11
 73
     7
 74
     0
 42
0.000000001
 43
0.0000001
 40
0.0
 40
0.0
 40
0.0
 40
0.0
 40
0.2319342464
 40
0.4718691243
 40
0.7264155721
 40
1.0
 40
1.0
 40
1.0
 40
1.0
 10
304.6906062963
 20
137.2372486766
 30
0.0
 10
304.7929929695
 20
137.2884466707
 30
0.0
 10
304.9892987677
 20
137.4186003556
 30
0.0
 10
305.2357308207
 20
137.6829586175
 30
0.0
 10
305.4315362758
 20
138.010397551
 30
0.0
 10
305.5226223952
 20
138.2561865305
 30
0.0
 10
305.559818026
 20
138.385993316
 30
0.0
  0
SPLINE
  5
438
330
220
100
AcDbEntity
  8
02___PRT_ALL_AXES
  6
Continuous
 62
     7
100
AcDbSpline
210
0.0
220
0.0
230
1.0
 70
     8
 71
     3
 72
    17
 73
    13
 74
     0
 42
0.000000001
 43
0.0000001
 40
0.0
 40
0.0
 40
0.0
 40
0.0
 40
0.1091319744
 40
0.1681975598
 40
0.2298934127
 40
0.3595316514
 40
0.4944035581
 40
0.6301013213
 40
0.7621207714
 40
0.8255021468
 40
0.8865077126
 40
1.0
 40
1.0
 40
1.0
 40
1.0
 10
305.5692613958
 20
138.4197874553
 30
0.0
 10
305.6311438149
 20
138.6469638735
 30
0.0
 10
305.6813380722
 20
139.0102497234
 30
0.0
 10
305.6784211794
 20
139.5065197107
 30
0.0
 10
305.6267452086
 20
140.0450096168
 30
0.0
 10
305.4715743083
 20
140.734666034
 30
0.0
 10
305.1599761206
 20
141.5429783576
 30
0.0
 10
304.735955478
 20
142.3042524829
 30
0.0
 10
304.3010868798
 20
142.8746591954
 30
0.0
 10
303.9151970505
 20
143.2719496823
 30
0.0
 10
303.5275629911
 20
143.6087359976
 30
0.0
 10
303.2101089221
 20
143.8174129214
 30
0.0
 10
302.9910982408
 20
143.9269182621
 30
0.0
  0
SPLINE
  5
439
330
220
100
AcDbEntity
  8
02___PRT_ALL_AXES
  6
Continuous
 62
     7
100
AcDbSpline
210
0.0
220
0.0
230
1.0
 70
     8
 71
     3
 72
    11
 73
     7
 74
     0
 42
0.000000001
 43
0.0000001
 40
0.0
 40
0.0
 40
0.0
 40
0.0
 40
0.2628101541
 40
0.5149601561
 40
0.7594739372
 40
1.0
 40
1.0
 40
1.0
 40
1.0
 10
303.4689229415
 20
136.9670718546
 30
0.0
 10
303.5536011381
 20
136.9547282401
 30
0.0
 10
303.721339907
 20
136.9411366368
 30
0.0
 10
303.9690415322
 20
136.9567375624
 30
0.0
 10
304.2043616964
 20
137.008806557
 30
0.0
 10
304.3517580162
 20
137.0678280299
 30
0.0
 10
304.4218084954
 20
137.1028497764
 30
0.0
  0
SPLINE
  5
43A
330
220
100
AcDbEntity
  8
02___PRT_ALL_AXES
  6
Continuous
 62
     7
100
AcDbSpline
210
0.0
220
0.0
230
1.0
 70
     8
 71
     3
 72
    11
 73
     7
 74
     0
 42
0.000000001
 43
0.0000001
 40
0.0
 40
0.0
 40
0.0
 40
0.0
 40
0.2289811959
 40
0.4695489333
 40
0.7257514972
 40
1.0
 40
1.0
 40
1.0
 40
1.0
 10
301.2961785383
 20
144.0038394532
 30
0.0
 10
301.3993565548
 20
144.0313902551
 30
0.0
 10
301.6176494363
 20
144.064867145
 30
0.0
 10
301.9576338965
 20
144.0491361957
 30
0.0
 10
302.3099822706
 20
143.969749968
 30
0.0
 10
302.5410893173
 20
143.8787738163
 30
0.0
 10
302.6568439472
 20
143.824362972
 30
0.0
  0
SPLINE
  5
43B
330
220
100
AcDbEntity
  8
02___PRT_ALL_AXES
  6
Continuous
 62
     7
100
AcDbSpline
210
0.0
220
0.0
230
1.0
 70
     8
 71
     3
 72
    26
 73
    22
 74
     0
 42
0.000000001
 43
0.0000001
 40
0.0
 40
0.0
 40
0.0
 40
0.0
 40
0.0632647468
 40
0.1318235424
 40
0.2045852783
 40
0.2800325945
 40
0.3564173132
 40
0.4319112073
 40
0.504760785
 40
0.5734449702
 40
0.6368519666
 40
0.6944887079
 40
0.7467237011
 40
0.7712872296
 40
0.7951337712
 40
0.8186017946
 40
0.8420602105
 40
0.8658792758
 40
0.8903991154
 40
0.942507939
 40
1.0
 40
1.0
 40
1.0
 40
1.0
 10
301.4354633222
 20
138.1564643499
 30
0.0
 10
301.3403432289
 20
138.2040243966
 30
0.0
 10
301.1518128015
 20
138.3230482552
 30
0.0
 10
300.892912048
 20
138.5511280286
 30
0.0
 10
300.6545155659
 20
138.8281246211
 30
0.0
 10
300.4455485949
 20
139.1436760869
 30
0.0
 10
300.2737264527
 20
139.486016581
 30
0.0
 10
300.145487728
 20
139.8423452822
 30
0.0
 10
300.0656371802
 20
140.1993874421
 30
0.0
 10
300.0371974277
 20
140.5439479805
 30
0.0
 10
300.061514035
 20
140.8635496243
 30
0.0
 10
300.138206232
 20
141.1466265861
 30
0.0
 10
300.2473713906
 20
141.3476963748
 30
0.0
 10
300.3583513205
 20
141.4761378593
 30
0.0
 10
300.4505902536
 20
141.5549437911
 30
0.0
 10
300.552540297
 20
141.6172457803
 30
0.0
 10
300.6631428351
 20
141.6623209231
 30
0.0
 10
300.7811865983
 20
141.6897309077
 30
0.0
 10
300.9501136674
 20
141.7026926957
 30
0.0
 10
301.1761192595
 20
141.6709855037
 30
0.0
 10
301.3490226031
 20
141.6031645464
 30
0.0
 10
301.4354633222
 20
141.5599441868
 30
0.0
  0
SPLINE
  5
43C
330
220
100
AcDbEntity
  8
02___PRT_ALL_AXES
  6
Continuous
 62
     7
100
AcDbSpline
210
0.0
220
0.0
230
1.0
 70
     8
 71
     3
 72
    11
 73
     7
 74
     0
 42
0.000000001
 43
0.0000001
 40
0.0
 40
0.0
 40
0.0
 40
0.0
 40
0.2319225105
 40
0.4738059963
 40
0.7290844434
 40
1.0
 40
1.0
 40
1.0
 40
1.0
 10
304.6717589347
 20
137.2620473957
 30
0.0
 10
304.7457551264
 20
137.3205747166
 30
0.0
 10
304.8857018971
 20
137.4549662129
 30
0.0
 10
305.0608856258
 20
137.6959354197
 30
0.0
 10
305.2026332153
 20
137.9756867252
 30
0.0
 10
305.2715961265
 20
138.1791049458
 30
0.0
 10
305.3005608189
 20
138.2854371669
 30
0.0
  0
SPLINE
  5
43D
330
220
100
AcDbEntity
  8
02___PRT_ALL_AXES
  6
Continuous
 62
     7
100
AcDbSpline
210
0.0
220
0.0
230
1.0
 70
     8
 71
     3
 72
    17
 73
    13
 74
     0
 42
0.000000001
 43
0.0000001
 40
0.0
 40
0.0
 40
0.0
 40
0.0
 40
0.1113759969
 40
0.1712707349
 40
0.233567797
 40
0.3637217454
 40
0.4982869639
 40
0.6331018449
 40
0.7639780494
 40
0.8267886845
 40
0.8872744198
 40
1.0
 40
1.0
 40
1.0
 40
1.0
 10
305.3400011905
 20
138.449764186
 30
0.0
 10
305.3878884711
 20
138.6788592208
 30
0.0
 10
305.4200985753
 20
139.0405735211
 30
0.0
 10
305.3982735927
 20
139.5311697835
 30
0.0
 10
305.3301929765
 20
140.0576844892
 30
0.0
 10
305.1614549349
 20
140.726665447
 30
0.0
 10
304.8430776623
 20
141.506322058
 30
0.0
 10
304.421269829
 20
142.2369709934
 30
0.0
 10
303.9946566787
 20
142.7831002372
 30
0.0
 10
303.6186540741
 20
143.1632906232
 30
0.0
 10
303.2417881323
 20
143.486126196
 30
0.0
 10
302.9342717638
 20
143.6866309237
 30
0.0
 10
302.722397664
 20
143.7925679736
 30
0.0
  0
SPLINE
  5
43E
330
220
100
AcDbEntity
  8
02___PRT_ALL_AXES
  6
Continuous
 62
     7
100
AcDbSpline
210
0.0
220
0.0
230
1.0
 70
     8
 71
     3
 72
    26
 73
    22
 74
     0
 42
0.000000001
 43
0.0000001
 40
0.0
 40
0.0
 40
0.0
 40
0.0
 40
0.057492061
 40
0.1096008846
 40
0.1341207242
 40
0.1579397895
 40
0.1813982054
 40
0.2048662288
 40
0.2287127704
 40
0.2532762989
 40
0.3055112921
 40
0.3631480334
 40
0.4265550298
 40
0.495239215
 40
0.5680887927
 40
0.6435826868
 40
0.7199674055
 40
0.7954147217
 40
0.8681764576
 40
0.9367352532
 40
1.0
 40
1.0
 40
1.0
 40
1.0
 10
301.4354633222
 20
138.1564643499
 30
0.0
 10
301.5219040413
 20
138.1132439904
 30
0.0
 10
301.6948073849
 20
138.0454230331
 30
0.0
 10
301.9208129771
 20
138.013715841
 30
0.0
 10
302.0897400461
 20
138.0266776291
 30
0.0
 10
302.2077838093
 20
138.0540876136
 30
0.0
 10
302.3183863474
 20
138.0991627565
 30
0.0
 10
302.4203363909
 20
138.1614647457
 30
0.0
 10
302.5125753239
 20
138.2402706774
 30
0.0
 10
302.6235552538
 20
138.3687121619
 30
0.0
 10
302.7327204125
 20
138.5697819507
 30
0.0
 10
302.8094126094
 20
138.8528589125
 30
0.0
 10
302.8337292167
 20
139.1724605562
 30
0.0
 10
302.8052894642
 20
139.5170210946
 30
0.0
 10
302.7254389164
 20
139.8740632545
 30
0.0
 10
302.5972001917
 20
140.2303919558
 30
0.0
 10
302.4253780495
 20
140.5727324498
 30
0.0
 10
302.2164110785
 20
140.8882839157
 30
0.0
 10
301.9780145964
 20
141.1652805082
 30
0.0
 10
301.7191138429
 20
141.3933602816
 30
0.0
 10
301.5305834155
 20
141.5123841402
 30
0.0
 10
301.4354633222
 20
141.5599441868
 30
0.0
  0
SPLINE
  5
43F
330
220
100
AcDbEntity
  8
7_ALL_FEATURES
  6
Continuous
 62
     7
100
AcDbSpline
210
0.0
220
0.0
230
1.0
 70
     8
 71
     3
 72
    14
 73
    10
 74
     0
 42
0.000000001
 43
0.0000001
 40
0.0
 40
0.0
 40
0.0
 40
0.0
 40
0.1085054469
 40
0.2189033999
 40
0.332948184
 40
0.4521540014
 40
0.5777380408
 40
0.7105937585
 40
1.0
 40
1.0
 40
1.0
 40
1.0
 10
341.3789158914
 20
185.9104084816
 30
0.0
 10
341.3789224159
 20
186.0356745811
 30
0.0
 10
341.3592633704
 20
186.2888088484
 30
0.0
 10
341.2714208486
 20
186.6643991843
 30
0.0
 10
341.1259440874
 20
187.0348930825
 30
0.0
 10
340.9240973227
 20
187.3979147182
 30
0.0
 10
340.6673062357
 20
187.7514566593
 30
0.0
 10
340.2420128347
 20
188.2208253604
 30
0.0
 10
339.8625682463
 20
188.532094483
 30
0.0
 10
339.5897675451
 20
188.7249921052
 30
0.0
  0
SPLINE
  5
440
330
220
100
AcDbEntity
  8
7_ALL_FEATURES
  6
Continuous
 62
     7
100
AcDbSpline
210
0.0
220
0.0
230
1.0
 70
     8
 71
     3
 72
    14
 73
    10
 74
     0
 42
0.000000001
 43
0.0000001
 40
0.0
 40
0.0
 40
0.0
 40
0.0
 40
0.1085047698
 40
0.2189015335
 40
0.3329458721
 40
0.4521511528
 40
0.5777303385
 40
0.7105856439
 40
1.0
 40
1.0
 40
1.0
 40
1.0
 10
321.8789298663
 20
185.9104084814
 30
0.0
 10
321.8789363907
 20
186.0356740373
 30
0.0
 10
321.8985719483
 20
186.2888073356
 30
0.0
 10
321.9864302565
 20
186.6643933514
 30
0.0
 10
322.1318923029
 20
187.0348908049
 30
0.0
 10
322.3337539099
 20
187.3978972038
 30
0.0
 10
322.5905150439
 20
187.7514530428
 30
0.0
 10
323.0158329501
 20
188.2208076419
 30
0.0
 10
323.3952786504
 20
188.5320882288
 30
0.0
 10
323.6680901698
 20
188.7249878776
 30
0.0
  0
SPLINE
  5
441
330
220
100
AcDbEntity
  8
7_ALL_FEATURES
  6
Continuous
 62
     7
100
AcDbSpline
210
0.0
220
0.0
230
1.0
 70
     8
 71
     3
 72
     9
 73
     5
 74
     0
 42
0.000000001
 43
0.0000001
 40
0.0
 40
0.0
 40
0.0
 40
0.0
 40
0.2396360484
 40
1.0
 40
1.0
 40
1.0
 40
1.0
 10
339.5078519438
 20
188.7829151386
 30
0.0
 10
339.4277800241
 20
188.8395283273
 30
0.0
 10
339.0885408534
 20
189.0685382701
 30
0.0
 10
338.7308104643
 20
189.2696476676
 30
0.0
 10
338.4525033173
 20
189.4088012411
 30
0.0
  0
SPLINE
  5
442
330
220
100
AcDbEntity
  8
7_ALL_FEATURES
  6
Continuous
 62
     7
100
AcDbSpline
210
0.0
220
0.0
230
1.0
 70
     8
 71
     3
 72
    19
 73
    15
 74
     0
 42
0.000000001
 43
0.0000001
 40
0.0
 40
0.0
 40
0.0
 40
0.0
 40
0.0504335072
 40
0.1045162864
 40
0.1620266351
 40
0.222631696
 40
0.3513187161
 40
0.4865720869
 40
0.6237173688
 40
0.7579194824
 40
0.8224938168
 40
0.8846554203
 40
0.9439618901
 40
1.0
 40
1.0
 40
1.0
 40
1.0
 10
323.7495437988
 20
188.7825843885
 30
0.0
 10
323.9592398516
 20
188.9308673886
 30
0.0
 10
324.4112499923
 20
189.2139229678
 30
0.0
 10
325.1491606618
 20
189.5852114987
 30
0.0
 10
325.9628973329
 20
189.9144294155
 30
0.0
 10
327.1601540514
 20
190.2997015762
 30
0.0
 10
328.7809451927
 20
190.646086942
 30
0.0
 10
330.817956837
 20
190.8424122582
 30
0.0
 10
332.8922710385
 20
190.8181011909
 30
0.0
 10
334.5945838315
 20
190.6124687862
 30
0.0
 10
335.8949331564
 20
190.3354877861
 30
0.0
 10
336.8078521526
 20
190.0795106513
 30
0.0
 10
337.6599727535
 20
189.7757046206
 30
0.0
 10
338.1972622478
 20
189.5364217759
 30
0.0
 10
338.4525033173
 20
189.4088012411
 30
0.0
  0
SPLINE
  5
443
330
220
100
AcDbEntity
  8
7_ALL_FEATURES
  6
Continuous
 62
     7
100
AcDbSpline
210
0.0
220
0.0
230
1.0
 70
     8
 71
     3
 72
    25
 73
    21
 74
     0
 42
0.000000001
 43
0.0000001
 40
0.0
 40
0.0
 40
0.0
 40
0.0
 40
0.0625943153
 40
0.129861595
 40
0.2009391054
 40
0.2747922856
 40
0.3502702406
 40
0.4261588076
 40
0.5012279293
 40
0.574279135
 40
0.6441942938
 40
0.7099889572
 40
0.7708745921
 40
0.8263367739
 40
0.876239266
 40
0.9209620137
 40
0.9417191429
 40
0.9616399461
 40
0.9809721383
 40
1.0
 40
1.0
 40
1.0
 40
1.0
 10
324.7346317623
 20
182.4632629232
 30
0.0
 10
325.0873171295
 20
182.2869202396
 30
0.0
 10
325.8416453301
 20
181.9654176082
 30
0.0
 10
327.0511276223
 20
181.5864092004
 30
0.0
 10
328.3583122445
 20
181.2993454769
 30
0.0
 10
329.7352515272
 20
181.1104447036
 30
0.0
 10
331.152677525
 20
181.0237457391
 30
0.0
 10
332.5802819919
 20
181.0411275832
 30
0.0
 10
333.9875472138
 20
181.1622131183
 30
0.0
 10
335.3444219778
 20
181.3843897271
 30
0.0
 10
336.6220336883
 20
181.7028843324
 30
0.0
 10
337.7933843169
 20
182.1109553176
 30
0.0
 10
338.8339665205
 20
182.6001015528
 30
0.0
 10
339.7224087552
 20
183.1608073109
 30
0.0
 10
340.4403086805
 20
183.7823994229
 30
0.0
 10
340.8945649865
 20
184.3577103028
 30
0.0
 10
341.1473810399
 20
184.8340378005
 30
0.0
 10
341.2805776612
 20
185.1890757703
 30
0.0
 10
341.3609535749
 20
185.5485247445
 30
0.0
 10
341.3789096482
 20
185.79054206
 30
0.0
 10
341.3789158914
 20
185.9104084816
 30
0.0
  0
SPLINE
  5
444
330
220
100
AcDbEntity
  8
7_ALL_FEATURES
  6
Continuous
 62
     7
100
AcDbSpline
210
0.0
220
0.0
230
1.0
 70
     8
 71
     3
 72
    30
 73
    26
 74
     0
 42
0.000000001
 43
0.0000001
 40
0.0
 40
0.0
 40
0.0
 40
0.0
 40
0.0673381382
 40
0.1406416518
 40
0.2183545572
 40
0.2986081972
 40
0.3793790519
 40
0.4586112886
 40
0.5343435869
 40
0.6048421832
 40
0.6377064961
 40
0.6688002327
 40
0.6980482946
 40
0.7254308773
 40
0.7509942727
 40
0.774862946
 40
0.7972552301
 40
0.8184887436
 40
0.8389775371
 40
0.85920793
 40
0.8796932235
 40
0.9009195853
 40
0.9233020866
 40
0.9471602047
 40
1.0
 40
1.0
 40
1.0
 40
1.0
 10
324.8053424404
 20
182.5852208026
 30
0.0
 10
325.2475567304
 20
182.3641136576
 30
0.0
 10
326.2071625305
 20
181.9728903721
 30
0.0
 10
327.7561245304
 20
181.5481439411
 30
0.0
 10
329.4342224869
 20
181.2706643355
 30
0.0
 10
331.1854267024
 20
181.1500153595
 30
0.0
 10
332.9514469516
 20
181.1902178721
 30
0.0
 10
334.6733853543
 20
181.389929922
 30
0.0
 10
336.2936814422
 20
181.7423713002
 30
0.0
 10
337.543373585
 20
182.1629959304
 30
0.0
 10
338.4431683735
 20
182.5709106696
 30
0.0
 10
339.0446113072
 20
182.8988527434
 30
0.0
 10
339.5834211286
 20
183.253252969
 30
0.0
 10
340.0551144255
 20
183.6312987541
 30
0.0
 10
340.4557251166
 20
184.030046559
 30
0.0
 10
340.7816788899
 20
184.446549616
 30
0.0
 10
341.0298889342
 20
184.8776343565
 30
0.0
 10
341.1974989444
 20
185.3199137434
 30
0.0
 10
341.2821441535
 20
185.7693869632
 30
0.0
 10
341.2824775644
 20
186.2213761542
 30
0.0
 10
341.1983939465
 20
186.6708830004
 30
0.0
 10
341.0313931133
 20
187.1132166646
 30
0.0
 10
340.7837521015
 20
187.5444612904
 30
0.0
 10
340.3347225568
 20
188.119148614
 30
0.0
 10
339.9057261204
 20
188.4932413627
 30
0.0
 10
339.592462683
 20
188.7221071965
 30
0.0
  0
SPLINE
  5
445
330
220
100
AcDbEntity
  8
7_ALL_FEATURES
  6
Continuous
 62
     7
100
AcDbSpline
210
0.0
220
0.0
230
1.0
 70
     8
 71
     3
 72
    15
 73
    11
 74
     0
 42
0.000000001
 43
0.0000001
 40
0.0
 40
0.0
 40
0.0
 40
0.0
 40
0.155983066
 40
0.3021567485
 40
0.4383320197
 40
0.5648862974
 40
0.6826431405
 40
0.792989111
 40
0.897927463
 40
1.0
 40
1.0
 40
1.0
 40
1.0
 10
324.7346317623
 20
182.4632629232
 30
0.0
 10
324.5158781994
 20
182.5726397047
 30
0.0
 10
324.0999127092
 20
182.800737927
 30
0.0
 10
323.5279578723
 20
183.1835961898
 30
0.0
 10
323.033027634
 20
183.5931528111
 30
0.0
 10
322.6199628081
 20
184.0257911587
 30
0.0
 10
322.2928488825
 20
184.4779143095
 30
0.0
 10
322.0555012994
 20
184.9458231202
 30
0.0
 10
321.9113609225
 20
185.4249310176
 30
0.0
 10
321.8789215304
 20
185.7503636705
 30
0.0
 10
321.8789298663
 20
185.9104084814
 30
0.0
  0
SPLINE
  5
446
330
220
100
AcDbEntity
  8
7_ALL_FEATURES
  6
Continuous
 62
     7
100
AcDbSpline
210
0.0
220
0.0
230
1.0
 70
     8
 71
     3
 72
    20
 73
    16
 74
     0
 42
0.000000001
 43
0.0000001
 40
0.0
 40
0.0
 40
0.0
 40
0.0
 40
0.156650677
 40
0.228265553
 40
0.2954259905
 40
0.4173200674
 40
0.4733745943
 40
0.5271578411
 40
0.5797112303
 40
0.6321859393
 40
0.6857407143
 40
0.7414359067
 40
0.8001581213
 40
0.8625791776
 40
1.0
 40
1.0
 40
1.0
 40
1.0
 10
324.8053424404
 20
182.5852208026
 30
0.0
 10
324.4326890461
 20
182.7715474998
 30
0.0
 10
323.9054045915
 20
183.0789399333
 30
0.0
 10
323.2841401546
 20
183.5618752769
 30
0.0
 10
322.7807319412
 20
184.0393516614
 30
0.0
 10
322.3813061014
 20
184.565347371
 30
0.0
 10
322.124336114
 20
185.1279584514
 30
0.0
 10
322.0088534132
 20
185.546213243
 30
0.0
 10
321.9668342547
 20
185.9686268359
 30
0.0
 10
321.9989172746
 20
186.3913241381
 30
0.0
 10
322.1046376453
 20
186.810321624
 30
0.0
 10
322.2825406968
 20
187.2220260472
 30
0.0
 10
322.5307596185
 20
187.6233243666
 30
0.0
 10
322.9660019675
 20
188.1576312295
 30
0.0
 10
323.3721662839
 20
188.5080605639
 30
0.0
 10
323.6673762004
 20
188.723553099
 30
0.0
  0
SPLINE
  5
447
330
220
100
AcDbEntity
  8
7_ALL_FEATURES
  6
Continuous
 62
     7
100
AcDbSpline
210
0.0
220
0.0
230
1.0
 70
     8
 71
     3
 72
     9
 73
     5
 74
     0
 42
0.000000001
 43
0.0000001
 40
0.0
 40
0.0
 40
0.0
 40
0.0
 40
0.2451651723
 40
1.0
 40
1.0
 40
1.0
 40
1.0
 10
341.5176710285
 20
184.5188863218
 30
0.0
 10
341.5095111272
 20
184.5440345214
 30
0.0
 10
341.4745586839
 20
184.6460645401
 30
0.0
 10
341.4329992701
 20
184.7458100636
 30
0.0
 10
341.3983917207
 20
184.8194894534
 30
0.0
  0
SPLINE
  5
448
330
220
100
AcDbEntity
  8
7_ALL_FEATURES
  6
Continuous
 62
     7
100
AcDbSpline
210
0.0
220
0.0
230
1.0
 70
     8
 71
     3
 72
     9
 73
     5
 74
     0
 42
0.000000001
 43
0.0000001
 40
0.0
 40
0.0
 40
0.0
 40
0.0
 40
0.2545944876
 40
1.0
 40
1.0
 40
1.0
 40
1.0
 10
321.8521289739
 20
184.8037797575
 30
0.0
 10
321.8418625123
 20
184.7815493171
 30
0.0
 10
321.802709998
 20
184.6936972456
 30
0.0
 10
321.7683307961
 20
184.6037054479
 30
0.0
 10
321.7457104136
 20
184.5356754049
 30
0.0
  0
LINE
  5
449
330
220
100
AcDbEntity
  8
02___PRT_ALL_AXES
  6
Continuous
 62
     7
100
AcDbLine
 10
321.8632665522
 20
185.3410492475
 30
0.0
 11
321.8583916221
 21
185.3299285099
 31
0.0
  0
SPLINE
  5
44A
330
220
100
AcDbEntity
  8
7_ALL_FEATURES
  6
Continuous
 62
     9
100
AcDbSpline
210
0.0
220
0.0
230
1.0
 70
     8
 71
     3
 72
     9
 73
     5
 74
     0
 42
0.000000001
 43
0.0000001
 40
0.0
 40
0.0
 40
0.0
 40
0.0
 40
0.2469723301
 40
1.0
 40
1.0
 40
1.0
 40
1.0
 10
321.7287892083
 20
184.5367965153
 30
0.0
 10
321.7372261347
 20
184.5664165301
 30
0.0
 10
321.7734160265
 20
184.6857647629
 30
0.0
 10
321.8176187539
 20
184.8026605958
 30
0.0
 10
321.8548947663
 20
184.8888499102
 30
0.0
  0
SPLINE
  5
44B
330
220
100
AcDbEntity
  8
7_ALL_FEATURES
  6
Continuous
 62
     9
100
AcDbSpline
210
0.0
220
0.0
230
1.0
 70
     8
 71
     3
 72
     9
 73
     5
 74
     0
 42
0.000000001
 43
0.0000001
 40
0.0
 40
0.0
 40
0.0
 40
0.0
 40
0.2536542758
 40
1.0
 40
1.0
 40
1.0
 40
1.0
 10
341.3960983369
 20
184.904584291
 30
0.0
 10
341.4099006274
 20
184.8731677192
 30
0.0
 10
341.4622127766
 20
184.7484026498
 30
0.0
 10
341.5058864685
 20
184.6199879636
 30
0.0
 10
341.5330150343
 20
184.5227338674
 30
0.0
  0
SPLINE
  5
44C
330
220
100
AcDbEntity
  8
02___PRT_ALL_AXES
  6
Continuous
 62
     7
100
AcDbSpline
210
0.0
220
0.0
230
1.0
 70
     8
 71
     3
 72
     9
 73
     5
 74
     0
 42
0.000000001
 43
0.0000001
 40
0.0
 40
0.0
 40
0.0
 40
0.0
 40
0.2529545357
 40
1.0
 40
1.0
 40
1.0
 40
1.0
 10
321.7695877367
 20
185.1006330692
 30
0.0
 10
321.7583881949
 20
185.0675906235
 30
0.0
 10
321.7165396841
 20
184.9361577519
 30
0.0
 10
321.6846204705
 20
184.8015393788
 30
0.0
 10
321.66688632
 20
184.7000404346
 30
0.0
  0
SPLINE
  5
44D
330
220
100
AcDbEntity
  8
02___PRT_ALL_AXES
  6
Continuous
 62
     7
100
AcDbSpline
210
0.0
220
0.0
230
1.0
 70
     8
 71
     3
 72
     9
 73
     5
 74
     0
 42
0.000000001
 43
0.0000001
 40
0.0
 40
0.0
 40
0.0
 40
0.0
 40
0.247502134
 40
1.0
 40
1.0
 40
1.0
 40
1.0
 10
341.5909517125
 20
184.7000401864
 30
0.0
 10
341.5850759728
 20
184.7336677139
 30
0.0
 10
341.5586550178
 20
184.8690568685
 30
0.0
 10
341.5215683096
 20
185.0023355008
 30
0.0
 10
341.488253657
 20
185.1006325467
 30
0.0
  0
SPLINE
  5
44E
330
220
100
AcDbEntity
  8
02___PRT_ALL_AXES
  6
Continuous
 62
     7
100
AcDbSpline
210
0.0
220
0.0
230
1.0
 70
     8
 71
     3
 72
    11
 73
     7
 74
     0
 42
0.000000001
 43
0.0000001
 40
0.0
 40
0.0
 40
0.0
 40
0.0
 40
0.2353891693
 40
0.5
 40
0.7646108307
 40
1.0
 40
1.0
 40
1.0
 40
1.0
 10
330.497552029
 20
173.0562353135
 30
0.0
 10
330.6097386156
 20
173.0001420202
 30
0.0
 10
330.8675477012
 20
172.9201358441
 30
0.0
 10
331.2753694883
 20
172.8819178407
 30
0.0
 10
331.6831912754
 20
172.9201358441
 30
0.0
 10
331.9410003609
 20
173.0001420202
 30
0.0
 10
332.0531869476
 20
173.0562353135
 30
0.0
  0
SPLINE
  5
44F
330
220
100
AcDbEntity
  8
02___PRT_ALL_AXES
  6
Continuous
 62
     7
100
AcDbSpline
210
0.0
220
0.0
230
1.0
 70
     8
 71
     3
 72
    11
 73
     7
 74
     0
 42
0.000000001
 43
0.0000001
 40
0.0
 40
0.0
 40
0.0
 40
0.0
 40
0.3024673256
 40
0.5655230414
 40
0.7934184043
 40
1.0
 40
1.0
 40
1.0
 40
1.0
 10
364.4386775259
 20
189.2489806027
 30
0.0
 10
364.4864193359
 20
189.2728515076
 30
0.0
 10
364.5727276883
 20
189.3240915873
 30
0.0
 10
364.6775324031
 20
189.4187441465
 30
0.0
 10
364.7447391696
 20
189.5241775167
 30
0.0
 10
364.7608600666
 20
189.6014334975
 30
0.0
 10
364.7608600666
 20
189.6378893323
 30
0.0
  0
SPLINE
  5
450
330
220
100
AcDbEntity
  8
02___PRT_ALL_AXES
  6
Continuous
 62
     7
100
AcDbSpline
210
0.0
220
0.0
230
1.0
 70
     8
 71
     3
 72
    11
 73
     7
 74
     0
 42
0.000000001
 43
0.0000001
 40
0.0
 40
0.0
 40
0.0
 40
0.0
 40
0.2896875982
 40
0.5496054903
 40
0.7828341432
 40
1.0
 40
1.0
 40
1.0
 40
1.0
 10
330.5682627071
 20
205.2299546638
 30
0.0
 10
330.5682627071
 20
205.3515488367
 30
0.0
 10
330.5879185572
 20
205.5831096022
 30
0.0
 10
330.6868093643
 20
205.8998366029
 30
0.0
 10
330.852141335
 20
206.1533881832
 30
0.0
 10
331.0063540268
 20
206.2708161325
 30
0.0
 10
331.0878811512
 20
206.3115878015
 30
0.0
  0
SPLINE
  5
451
330
220
100
AcDbEntity
  8
02___PRT_ALL_AXES
  6
Continuous
 62
     7
100
AcDbSpline
210
0.0
220
0.0
230
1.0
 70
     8
 71
     3
 72
    10
 73
     6
 74
     0
 42
0.000000001
 43
0.0000001
 40
0.0
 40
0.0
 40
0.0
 40
0.0
 40
0.5341393245
 40
0.7722951201
 40
1.0
 40
1.0
 40
1.0
 40
1.0
 10
298.0413507725
 20
189.2843359417
 30
0.0
 10
297.8939932367
 20
189.3580147096
 30
0.0
 10
297.6589422562
 20
189.434250612
 30
0.0
 10
297.3480138353
 20
189.4185820661
 30
0.0
 10
297.2095720279
 20
189.372439486
 30
0.0
 10
297.1467556543
 20
189.341025053
 30
0.0
  0
SPLINE
  5
452
330
220
100
AcDbEntity
  8
02___PRT_ALL_AXES
  6
Continuous
 62
     7
100
AcDbSpline
210
0.0
220
0.0
230
1.0
 70
     8
 71
     3
 72
    11
 73
     7
 74
     0
 42
0.000000001
 43
0.0000001
 40
0.0
 40
0.0
 40
0.0
 40
0.0
 40
0.2065815957
 40
0.4344769586
 40
0.6975326744
 40
1.0
 40
1.0
 40
1.0
 40
1.0
 10
364.7608600666
 20
189.6378893323
 30
0.0
 10
364.7608600666
 20
189.6743451671
 30
0.0
 10
364.7447391696
 20
189.7516011479
 30
0.0
 10
364.6775324031
 20
189.8570345181
 30
0.0
 10
364.5727276883
 20
189.9516870773
 30
0.0
 10
364.4864193359
 20
190.002927157
 30
0.0
 10
364.4386775259
 20
190.026798062
 30
0.0
  0
SPLINE
  5
453
330
220
100
AcDbEntity
  8
02___PRT_ALL_AXES
  6
Continuous
 62
     7
100
AcDbSpline
210
0.0
220
0.0
230
1.0
 70
     8
 71
     3
 72
    10
 73
     6
 74
     0
 42
0.000000001
 43
0.0000001
 40
0.0
 40
0.0
 40
0.0
 40
0.0
 40
0.2277048799
 40
0.4658606755
 40
1.0
 40
1.0
 40
1.0
 40
1.0
 10
331.0878811512
 20
206.3115878015
 30
0.0
 10
331.1506975248
 20
206.3430022345
 30
0.0
 10
331.2891393322
 20
206.3891448146
 30
0.0
 10
331.6000677532
 20
206.4048133604
 30
0.0
 10
331.8351187336
 20
206.3285774581
 30
0.0
 10
331.9824762695
 20
206.2548986902
 30
0.0
  0
SPLINE
  5
454
330
220
100
AcDbEntity
  8
02___PRT_ALL_AXES
  6
Continuous
 62
     7
100
AcDbSpline
210
0.0
220
0.0
230
1.0
 70
     8
 71
     3
 72
     9
 73
     5
 74
     0
 42
0.000000001
 43
0.0000001
 40
0.0
 40
0.0
 40
0.0
 40
0.0
 40
0.546297226
 40
1.0
 40
1.0
 40
1.0
 40
1.0
 10
338.6999906907
 20
181.5954517122
 30
0.0
 10
339.2499672795
 20
181.8704400065
 30
0.0
 10
340.2165660463
 20
182.4648643146
 30
0.0
 10
340.9928545428
 20
183.3167215778
 30
0.0
 10
341.2458015693
 20
183.7603466629
 30
0.0
  0
SPLINE
  5
455
330
220
100
AcDbEntity
  8
02___PRT_ALL_AXES
  6
Continuous
 62
     7
100
AcDbSpline
210
0.0
220
0.0
230
1.0
 70
     8
 71
     3
 72
     9
 73
     5
 74
     0
 42
0.000000001
 43
0.0000001
 40
0.0
 40
0.0
 40
0.0
 40
0.0
 40
0.5132971223
 40
1.0
 40
1.0
 40
1.0
 40
1.0
 10
341.2458015693
 20
183.7603466629
 30
0.0
 10
341.3674539932
 20
183.9737038531
 30
0.0
 10
341.5602482926
 20
184.417525775
 30
0.0
 10
341.6289255905
 20
184.8981079084
 30
0.0
 10
341.6289228789
 20
185.1309856181
 30
0.0
  0
SPLINE
  5
456
330
220
100
AcDbEntity
  8
7_ALL_FEATURES
  6
Continuous
 62
     7
100
AcDbSpline
210
0.0
220
0.0
230
1.0
 70
     8
 71
     3
 72
     9
 73
     5
 74
     0
 42
0.000000001
 43
0.0000001
 40
0.0
 40
0.0
 40
0.0
 40
0.0
 40
0.4636666175
 40
1.0
 40
1.0
 40
1.0
 40
1.0
 10
330.9026036667
 20
201.8432916376
 30
0.0
 10
331.0362497209
 20
201.9100734368
 30
0.0
 10
331.3717704068
 20
201.9655710682
 30
0.0
 10
331.6864826515
 20
201.8606364459
 30
0.0
 10
331.8410549132
 20
201.783350315
 30
0.0
  0
SPLINE
  5
457
330
220
100
AcDbEntity
  8
02___PRT_ALL_AXES
  6
Continuous
 62
     7
100
AcDbSpline
210
0.0
220
0.0
230
1.0
 70
     8
 71
     3
 72
     9
 73
     5
 74
     0
 42
0.000000001
 43
0.0000001
 40
0.0
 40
0.0
 40
0.0
 40
0.0
 40
0.4867123903
 40
1.0
 40
1.0
 40
1.0
 40
1.0
 10
321.6289228789
 20
185.1309856181
 30
0.0
 10
321.6289255906
 20
184.8981043442
 30
0.0
 10
321.6976134008
 20
184.4175284315
 30
0.0
 10
321.8903835637
 20
183.973699617
 30
0.0
 10
322.0120288214
 20
183.760344779
 30
0.0
  0
SPLINE
  5
458
330
220
100
AcDbEntity
  8
02___PRT_ALL_AXES
  6
Continuous
 62
     7
100
AcDbSpline
210
0.0
220
0.0
230
1.0
 70
     8
 71
     3
 72
    16
 73
    12
 74
     0
 42
0.000000001
 43
0.0000001
 40
0.0
 40
0.0
 40
0.0
 40
0.0
 40
0.0876383998
 40
0.1383625959
 40
0.1937521742
 40
0.3172071919
 40
0.4538977561
 40
0.5975646753
 40
0.7410658062
 40
0.8772689285
 40
1.0
 40
1.0
 40
1.0
 40
1.0
 10
322.0120288214
 20
183.760344779
 30
0.0
 10
322.2714607927
 20
183.3053244414
 30
0.0
 10
322.846729267
 20
182.6803929284
 30
0.0
 10
323.7877646289
 20
182.0055795785
 30
0.0
 10
324.9930725524
 20
181.3425493121
 30
0.0
 10
326.7764537218
 20
180.6970413571
 30
0.0
 10
329.1519255293
 20
180.23038556
 30
0.0
 10
331.6876324493
 20
180.076342969
 30
0.0
 10
334.2196293487
 20
180.2452218315
 30
0.0
 10
336.5836989971
 20
180.7251159954
 30
0.0
 10
338.0439113843
 20
181.2674120589
 30
0.0
 10
338.6999906907
 20
181.5954517122
 30
0.0
  0
SPLINE
  5
459
330
220
100
AcDbEntity
  8
02___PRT_ALL_AXES
  6
Continuous
 62
     7
100
AcDbSpline
210
0.0
220
0.0
230
1.0
 70
     8
 71
     3
 72
     9
 73
     5
 74
     0
 42
0.000000001
 43
0.0000001
 40
0.0
 40
0.0
 40
0.0
 40
0.0
 40
0.5093598237
 40
1.0
 40
1.0
 40
1.0
 40
1.0
 10
321.8923950767
 20
186.2711216872
 30
0.0
 10
321.8075797964
 20
186.0901108826
 30
0.0
 10
321.675146266
 20
185.7172098068
 30
0.0
 10
321.6289206368
 20
185.3235354944
 30
0.0
 10
321.6289228789
 20
185.1309856181
 30
0.0
  0
SPLINE
  5
45A
330
220
100
AcDbEntity
  8
02___PRT_ALL_AXES
  6
Continuous
 62
     7
100
AcDbSpline
210
0.0
220
0.0
230
1.0
 70
     8
 71
     3
 72
     9
 73
     5
 74
     0
 42
0.000000001
 43
0.0000001
 40
0.0
 40
0.0
 40
0.0
 40
0.0
 40
0.4903861384
 40
1.0
 40
1.0
 40
1.0
 40
1.0
 10
341.6289228789
 20
185.1309856181
 30
0.0
 10
341.6289206035
 20
185.3263905216
 30
0.0
 10
341.5812581748
 20
185.7261411338
 30
0.0
 10
341.444921484
 20
186.1041838237
 30
0.0
 10
341.3576963904
 20
186.2875627441
 30
0.0
  0
SPLINE
  5
45B
330
220
100
AcDbEntity
  8
02___PRT_ALL_AXES
  6
Continuous
 62
     7
100
AcDbSpline
210
0.0
220
0.0
230
1.0
 70
     8
 71
     3
 72
    11
 73
     7
 74
     0
 42
0.000000001
 43
0.0000001
 40
0.0
 40
0.0
 40
0.0
 40
0.0
 40
0.2065815957
 40
0.4344769586
 40
0.6975326744
 40
1.0
 40
1.0
 40
1.0
 40
1.0
 10
365.7608600666
 20
189.6378893323
 30
0.0
 10
365.7608600666
 20
189.7074868351
 30
0.0
 10
365.7300838086
 20
189.8549755258
 30
0.0
 10
365.6017799816
 20
190.0562574143
 30
0.0
 10
365.4016982535
 20
190.2369577545
 30
0.0
 10
365.2369277626
 20
190.3347797248
 30
0.0
 10
365.1457843071
 20
190.3803514525
 30
0.0
  0
SPLINE
  5
45C
330
220
100
AcDbEntity
  8
02___PRT_ALL_AXES
  6
Continuous
 62
     7
100
AcDbSpline
210
0.0
220
0.0
230
1.0
 70
     8
 71
     3
 72
    11
 73
     7
 74
     0
 42
0.000000001
 43
0.0000001
 40
0.0
 40
0.0
 40
0.0
 40
0.0
 40
0.2065815957
 40
0.4344769586
 40
0.6975326744
 40
1.0
 40
1.0
 40
1.0
 40
1.0
 10
365.7608600666
 20
98.7052219349
 30
0.0
 10
365.7608600666
 20
98.6356244321
 30
0.0
 10
365.7300838086
 20
98.4881357415
 30
0.0
 10
365.6017799816
 20
98.286853853
 30
0.0
 10
365.4016982535
 20
98.1061535127
 30
0.0
 10
365.2369277626
 20
98.0083315424
 30
0.0
 10
365.1457843071
 20
97.9627598147
 30
0.0
  0
SPLINE
  5
45D
330
220
100
AcDbEntity
  8
02___PRT_ALL_AXES
  6
Continuous
 62
     7
100
AcDbSpline
210
0.0
220
0.0
230
1.0
 70
     8
 71
     3
 72
    11
 73
     7
 74
     0
 42
0.000000001
 43
0.0000001
 40
0.0
 40
0.0
 40
0.0
 40
0.0
 40
0.2468124806
 40
0.5117852459
 40
0.7703059488
 40
1.0
 40
1.0
 40
1.0
 40
1.0
 10
295.920030429
 20
100.4372727425
 30
0.0
 10
295.920030429
 20
100.1956896476
 30
0.0
 10
296.0034011583
 20
99.6938871347
 30
0.0
 10
296.3052729028
 20
98.9960256187
 30
0.0
 10
296.7489327344
 20
98.399261614
 30
0.0
 10
297.1331522825
 20
98.0986610082
 30
0.0
 10
297.3342439913
 20
97.9981151538
 30
0.0
  0
SPLINE
  5
45E
330
220
100
AcDbEntity
  8
02___PRT_ALL_AXES
  6
Continuous
 62
     7
100
AcDbSpline
210
0.0
220
0.0
230
1.0
 70
     8
 71
     3
 72
    11
 73
     7
 74
     0
 42
0.000000001
 43
0.0000001
 40
0.0
 40
0.0
 40
0.0
 40
0.0
 40
0.2171658568
 40
0.4503945097
 40
0.7103124018
 40
1.0
 40
1.0
 40
1.0
 40
1.0
 10
296.4396488731
 20
188.9874716624
 30
0.0
 10
296.3581217487
 20
188.9466999934
 30
0.0
 10
296.2039090569
 20
188.8292720441
 30
0.0
 10
296.0385770862
 20
188.5757204638
 30
0.0
 10
295.9396862791
 20
188.2589934632
 30
0.0
 10
295.920030429
 20
188.0274326977
 30
0.0
 10
295.920030429
 20
187.9058385247
 30
0.0
  0
SPLINE
  5
45F
330
220
100
AcDbEntity
  8
02___PRT_ALL_AXES
  6
Continuous
 62
     7
100
AcDbSpline
210
0.0
220
0.0
230
1.0
 70
     8
 71
     3
 72
    10
 73
     6
 74
     0
 42
0.000000001
 43
0.0000001
 40
0.0
 40
0.0
 40
0.0
 40
0.0
 40
0.2277048799
 40
0.4658606755
 40
1.0
 40
1.0
 40
1.0
 40
1.0
 10
331.7949879324
 20
206.6651411921
 30
0.0
 10
331.857804306
 20
206.6965556251
 30
0.0
 10
331.9962461134
 20
206.7426982052
 30
0.0
 10
332.3071745343
 20
206.758366751
 30
0.0
 10
332.5422255148
 20
206.6821308487
 30
0.0
 10
332.6895830507
 20
206.6084520808
 30
0.0
  0
SPLINE
  5
460
330
220
100
AcDbEntity
  8
02___PRT_ALL_AXES
  6
Continuous
 62
     7
100
AcDbSpline
210
0.0
220
0.0
230
1.0
 70
     8
 71
     3
 72
    11
 73
     7
 74
     0
 42
0.000000001
 43
0.0000001
 40
0.0
 40
0.0
 40
0.0
 40
0.0
 40
0.2353891693
 40
0.5
 40
0.7646108307
 40
1.0
 40
1.0
 40
1.0
 40
1.0
 10
332.7602937288
 20
81.7700145255
 30
0.0
 10
332.5461193361
 20
81.6629273292
 30
0.0
 10
332.0539383546
 20
81.5101882659
 30
0.0
 10
331.2753694883
 20
81.4372266229
 30
0.0
 10
330.496800622
 20
81.5101882659
 30
0.0
 10
330.0046196405
 20
81.6629273292
 30
0.0
 10
329.7904452478
 20
81.7700145255
 30
0.0
  0
SPLINE
  5
461
330
220
100
AcDbEntity
  8
02___PRT_ALL_AXES
  6
Continuous
 62
     7
100
AcDbSpline
210
0.0
220
0.0
230
1.0
 70
     8
 71
     3
 72
    11
 73
     7
 74
     0
 42
0.000000001
 43
0.0000001
 40
0.0
 40
0.0
 40
0.0
 40
0.0
 40
0.2353891693
 40
0.5
 40
0.7646108307
 40
1.0
 40
1.0
 40
1.0
 40
1.0
 10
329.7904452478
 20
172.7026819229
 30
0.0
 10
330.0046196405
 20
172.5955947265
 30
0.0
 10
330.496800622
 20
172.4428556632
 30
0.0
 10
331.2753694883
 20
172.3698940203
 30
0.0
 10
332.0539383546
 20
172.4428556632
 30
0.0
 10
332.5461193361
 20
172.5955947265
 30
0.0
 10
332.7602937288
 20
172.7026819229
 30
0.0
  0
SPLINE
  5
462
330
220
100
AcDbEntity
  8
02___PRT_ALL_AXES
  6
Continuous
 62
     7
100
AcDbSpline
210
0.0
220
0.0
230
1.0
 70
     8
 71
     3
 72
    10
 73
     6
 74
     0
 42
0.000000001
 43
0.0000001
 40
0.0
 40
0.0
 40
0.0
 40
0.0
 40
0.5341393245
 40
0.7722951201
 40
1.0
 40
1.0
 40
1.0
 40
1.0
 10
297.3342439913
 20
188.9307825511
 30
0.0
 10
297.1868864555
 20
189.004461319
 30
0.0
 10
296.951835475
 20
189.0806972214
 30
0.0
 10
296.6409070541
 20
189.0650286755
 30
0.0
 10
296.5024652467
 20
189.0188860954
 30
0.0
 10
296.4396488731
 20
188.9874716624
 30
0.0
  0
SPLINE
  5
463
330
220
100
AcDbEntity
  8
02___PRT_ALL_AXES
  6
Continuous
 62
     7
100
AcDbSpline
210
0.0
220
0.0
230
1.0
 70
     8
 71
     3
 72
    11
 73
     7
 74
     0
 42
0.000000001
 43
0.0000001
 40
0.0
 40
0.0
 40
0.0
 40
0.0
 40
0.3024673256
 40
0.5655230414
 40
0.7934184043
 40
1.0
 40
1.0
 40
1.0
 40
1.0
 10
365.1457843071
 20
188.8954272121
 30
0.0
 10
365.2369277626
 20
188.9409989398
 30
0.0
 10
365.4016982535
 20
189.0388209101
 30
0.0
 10
365.6017799816
 20
189.2195212503
 30
0.0
 10
365.7300838086
 20
189.4208031388
 30
0.0
 10
365.7608600666
 20
189.5682918295
 30
0.0
 10
365.7608600666
 20
189.6378893323
 30
0.0
  0
ENDSEC
  0
SECTION
  2
OBJECTS
  0
DICTIONARY
  5
C
330
0
100
AcDbDictionary
281
     1
  3
ACAD_GROUP
350
D
  3
ACAD_IMAGE_VARS
350
4AD
  3
ACAD_LAYOUT
350
1A
  3
ACAD_MLINESTYLE
350
17
  3
ACAD_PLOTSETTINGS
350
19
  3
ACAD_PLOTSTYLENAME
350
E
  3
ACAD_SCALELIST
350
469
  3
APPDATA
350
4AB
  3
DWGPROPS
350
4D1
  0
DICTIONARY
  5
D
102
{ACAD_REACTORS
330
C
102
}
330
C
100
AcDbDictionary
281
     1
  0
RASTERVARIABLES
  5
4AD
102
{ACAD_REACTORS
330
C
102
}
330
C
100
AcDbRasterVariables
 90
        0
 70
     1
 71
     1
 72
     1
  0
DICTIONARY
  5
1A
102
{ACAD_REACTORS
330
C
102
}
330
C
100
AcDbDictionary
281
     1
  3
Layout1
350
466
  3
Model
350
465
  0
DICTIONARY
  5
17
102
{ACAD_REACTORS
330
C
102
}
330
C
100
AcDbDictionary
281
     1
  3
Standard
350
18
  0
DICTIONARY
  5
19
102
{ACAD_REACTORS
330
C
102
}
330
C
100
AcDbDictionary
281
     1
  0
ACDBDICTIONARYWDFLT
  5
E
102
{ACAD_REACTORS
330
C
102
}
330
C
100
AcDbDictionary
281
     1
  3
Normal
350
F
100
AcDbDictionaryWithDefault
340
F
  0
DICTIONARY
  5
469
102
{ACAD_REACTORS
330
C
102
}
330
C
100
AcDbDictionary
281
     1
  3
A0
350
46A
  3
A1
350
46B
  3
A2
350
46C
  3
A3
350
46D
  3
A4
350
46E
  3
A5
350
46F
  3
A6
350
470
  3
A7
350
471
  3
A8
350
472
  3
A9
350
473
  3
B0
350
474
  3
B1
350
475
  3
B2
350
476
  3
B3
350
477
  3
B4
350
478
  3
B5
350
479
  3
B6
350
47A
  3
B7
350
47B
  3
B8
350
47C
  3
B9
350
47D
  3
C0
350
47E
  3
C1
350
47F
  3
C2
350
480
  3
C3
350
481
  3
C4
350
482
  3
C5
350
483
  3
C6
350
484
  3
C7
350
485
  3
C8
350
486
  3
C9
350
487
  3
D0
350
488
  3
D1
350
489
  3
D2
350
48A
  0
DICTIONARY
  5
4AB
102
{ACAD_REACTORS
330
C
102
}
330
C
100
AcDbDictionary
281
     1
  0
XRECORD
  5
4D1
102
{ACAD_REACTORS
330
C
102
}
330
C
100
AcDbXrecord
280
     1
  1
DWGPROPS COOKIE
  2

  3

  4

  6

  7

  8
andrea.faggionato
  9

300
=
301
=
302
=
303
=
304
=
305
=
306
=
307
=
308
=
309
=
 40
0.0
 41
0.0
 42
2456748.426100521
  1

 90
        0
  0
LAYOUT
  5
466
102
{ACAD_REACTORS
330
1A
102
}
330
1A
100
AcDbPlotSettings
  1

  2
none_device
  4
ISO_A3_(420.00_x_297.00_MM)
  6

 40
0.0
 41
0.0
 42
0.0
 43
0.0
 44
420.0
 45
297.0
 46
0.0
 47
0.0
 48
0.0
 49
0.0
140
0.0
141
0.0
142
1.0
143
1.0
 70
     0
 72
     1
 73
     0
 74
     0
  7

 75
     0
147
1.0
148
0.0
149
0.0
100
AcDbLayout
  1
Layout1
 70
     0
 71
     1
 10
0.0
 20
0.0
 11
420.0
 21
297.0
 12
0.0
 22
0.0
 32
0.0
 14
0.0
 24
0.0
 34
0.0
 15
0.0
 25
0.0
 35
0.0
146
0.0
 13
0.0
 23
0.0
 33
0.0
 16
1.0
 26
0.0
 36
0.0
 17
0.0
 27
1.0
 37
0.0
 76
     0
330
221
  0
LAYOUT
  5
465
102
{ACAD_REACTORS
330
1A
102
}
330
1A
100
AcDbPlotSettings
  1

  2
none_device
  4
ISO_A3_(420.00_x_297.00_MM)
  6

 40
0.0
 41
0.0
 42
0.0
 43
0.0
 44
420.0
 45
297.0
 46
0.0
 47
0.0
 48
0.0
 49
0.0
140
0.0
141
0.0
142
1.0
143
1.0
 70
  1024
 72
     1
 73
     0
 74
     0
  7

 75
     0
147
1.0
148
0.0
149
0.0
100
AcDbLayout
  1
Model
 70
     0
 71
     0
 10
0.0
 20
0.0
 11
420.0
 21
297.0
 12
0.0
 22
0.0
 32
0.0
 14
0.0
 24
0.0
 34
0.0
 15
0.0
 25
0.0
 35
0.0
146
0.0
 13
0.0
 23
0.0
 33
0.0
 16
1.0
 26
0.0
 36
0.0
 17
0.0
 27
1.0
 37
0.0
 76
     0
330
220
331
1F4
  0
MLINESTYLE
  5
18
102
{ACAD_REACTORS
330
17
102
}
330
17
100
AcDbMlineStyle
  2
STANDARD
 70
     0
  3

 62
   256
 51
90.0
 52
90.0
 71
     2
 49
0.5
 62
   256
  6
BYLAYER
 49
-0.5
 62
   256
  6
BYLAYER
  0
ACDBPLACEHOLDER
  5
F
102
{ACAD_REACTORS
330
E
102
}
330
E
  0
SCALE
  5
46A
102
{ACAD_REACTORS
330
469
102
}
330
469
100
AcDbScale
 70
     0
300
1:1
140
1.0
141
1.0
290
     1
  0
SCALE
  5
46B
102
{ACAD_REACTORS
330
469
102
}
330
469
100
AcDbScale
 70
     0
300
1:2
140
1.0
141
2.0
290
     0
  0
SCALE
  5
46C
102
{ACAD_REACTORS
330
469
102
}
330
469
100
AcDbScale
 70
     0
300
1:4
140
1.0
141
4.0
290
     0
  0
SCALE
  5
46D
102
{ACAD_REACTORS
330
469
102
}
330
469
100
AcDbScale
 70
     0
300
1:5
140
1.0
141
5.0
290
     0
  0
SCALE
  5
46E
102
{ACAD_REACTORS
330
469
102
}
330
469
100
AcDbScale
 70
     0
300
1:8
140
1.0
141
8.0
290
     0
  0
SCALE
  5
46F
102
{ACAD_REACTORS
330
469
102
}
330
469
100
AcDbScale
 70
     0
300
1:10
140
1.0
141
10.0
290
     0
  0
SCALE
  5
470
102
{ACAD_REACTORS
330
469
102
}
330
469
100
AcDbScale
 70
     0
300
1:16
140
1.0
141
16.0
290
     0
  0
SCALE
  5
471
102
{ACAD_REACTORS
330
469
102
}
330
469
100
AcDbScale
 70
     0
300
1:20
140
1.0
141
20.0
290
     0
  0
SCALE
  5
472
102
{ACAD_REACTORS
330
469
102
}
330
469
100
AcDbScale
 70
     0
300
1:30
140
1.0
141
30.0
290
     0
  0
SCALE
  5
473
102
{ACAD_REACTORS
330
469
102
}
330
469
100
AcDbScale
 70
     0
300
1:40
140
1.0
141
40.0
290
     0
  0
SCALE
  5
474
102
{ACAD_REACTORS
330
469
102
}
330
469
100
AcDbScale
 70
     0
300
1:50
140
1.0
141
50.0
290
     0
  0
SCALE
  5
475
102
{ACAD_REACTORS
330
469
102
}
330
469
100
AcDbScale
 70
     0
300
1:100
140
1.0
141
100.0
290
     0
  0
SCALE
  5
476
102
{ACAD_REACTORS
330
469
102
}
330
469
100
AcDbScale
 70
     0
300
2:1
140
2.0
141
1.0
290
     0
  0
SCALE
  5
477
102
{ACAD_REACTORS
330
469
102
}
330
469
100
AcDbScale
 70
     0
300
4:1
140
4.0
141
1.0
290
     0
  0
SCALE
  5
478
102
{ACAD_REACTORS
330
469
102
}
330
469
100
AcDbScale
 70
     0
300
8:1
140
8.0
141
1.0
290
     0
  0
SCALE
  5
479
102
{ACAD_REACTORS
330
469
102
}
330
469
100
AcDbScale
 70
     0
300
10:1
140
10.0
141
1.0
290
     0
  0
SCALE
  5
47A
102
{ACAD_REACTORS
330
469
102
}
330
469
100
AcDbScale
 70
     0
300
100:1
140
100.0
141
1.0
290
     0
  0
SCALE
  5
47B
102
{ACAD_REACTORS
330
469
102
}
330
469
100
AcDbScale
 70
     0
300
1/128" = 1'-0"
140
0.0078125
141
12.0
290
     0
  0
SCALE
  5
47C
102
{ACAD_REACTORS
330
469
102
}
330
469
100
AcDbScale
 70
     0
300
1/64" = 1'-0"
140
0.015625
141
12.0
290
     0
  0
SCALE
  5
47D
102
{ACAD_REACTORS
330
469
102
}
330
469
100
AcDbScale
 70
     0
300
1/32" = 1'-0"
140
0.03125
141
12.0
290
     0
  0
SCALE
  5
47E
102
{ACAD_REACTORS
330
469
102
}
330
469
100
AcDbScale
 70
     0
300
1/16" = 1'-0"
140
0.0625
141
12.0
290
     0
  0
SCALE
  5
47F
102
{ACAD_REACTORS
330
469
102
}
330
469
100
AcDbScale
 70
     0
300
3/32" = 1'-0"
140
0.09375
141
12.0
290
     0
  0
SCALE
  5
480
102
{ACAD_REACTORS
330
469
102
}
330
469
100
AcDbScale
 70
     0
300
1/8" = 1'-0"
140
0.125
141
12.0
290
     0
  0
SCALE
  5
481
102
{ACAD_REACTORS
330
469
102
}
330
469
100
AcDbScale
 70
     0
300
3/16" = 1'-0"
140
0.1875
141
12.0
290
     0
  0
SCALE
  5
482
102
{ACAD_REACTORS
330
469
102
}
330
469
100
AcDbScale
 70
     0
300
1/4" = 1'-0"
140
0.25
141
12.0
290
     0
  0
SCALE
  5
483
102
{ACAD_REACTORS
330
469
102
}
330
469
100
AcDbScale
 70
     0
300
3/8" = 1'-0"
140
0.375
141
12.0
290
     0
  0
SCALE
  5
484
102
{ACAD_REACTORS
330
469
102
}
330
469
100
AcDbScale
 70
     0
300
1/2" = 1'-0"
140
0.5
141
12.0
290
     0
  0
SCALE
  5
485
102
{ACAD_REACTORS
330
469
102
}
330
469
100
AcDbScale
 70
     0
300
3/4" = 1'-0"
140
0.75
141
12.0
290
     0
  0
SCALE
  5
486
102
{ACAD_REACTORS
330
469
102
}
330
469
100
AcDbScale
 70
     0
300
1" = 1'-0"
140
1.0
141
12.0
290
     0
  0
SCALE
  5
487
102
{ACAD_REACTORS
330
469
102
}
330
469
100
AcDbScale
 70
     0
300
1-1/2" = 1'-0"
140
1.5
141
12.0
290
     0
  0
SCALE
  5
488
102
{ACAD_REACTORS
330
469
102
}
330
469
100
AcDbScale
 70
     0
300
3" = 1'-0"
140
3.0
141
12.0
290
     0
  0
SCALE
  5
489
102
{ACAD_REACTORS
330
469
102
}
330
469
100
AcDbScale
 70
     0
300
6" = 1'-0"
140
6.0
141
12.0
290
     0
  0
SCALE
  5
48A
102
{ACAD_REACTORS
330
469
102
}
330
469
100
AcDbScale
 70
     0
300
1'-0" = 1'-0"
140
12.0
141
12.0
290
     0
  0
ENDSEC
  0
EOF
