999
DXF file: 291_c_001.dxf
999
Pro/ENGINEER 2011490 by Parametric Technology Corporation
  0
SECTION
  2
HEADER
  9
$ACADVER
  1
AC1021
  9
$DWGCODEPAGE
  3
ANSI_1252
  9
$EXTMAX
 10
420.0
 20
297.0
 30
0.0
  9
$EXTMIN
 10
0.0
 20
0.0
 30
0.0
  9
$LIMMIN
 10
0.0
 20
0.0
  9
$LIMMAX
 10
420.0
 20
297.0
  9
$VIEWCTR
 10
210.0
 20
148.5
  9
$VIEWSIZE
 40
297.0
  9
$CLAYER
  8
0
  9
$LTSCALE
 40
23.1
  9
$CELTYPE
  6
BYLAYER
  9
$DIMSCALE
 40
1.0
  9
$DIMASZ
 40
2.5
  9
$DIMEXO
 40
2.625
  9
$DIMDLI
 40
15.96
  9
$DIMEXE
 40
7.56
  9
$DIMCEN
 40
3.78
  9
$DIMLFAC
 40
1.0
  9
$DIMBLK
  1
_CLOSED
  9
$DIMTXT
 40
3.0
  9
$DIMTOL
 70
1
  9
$DIMLIM
 70
0
  9
$DIMTFAC
 40
1.0
  9
$DIMTP
 40
0.01
  9
$DIMTM
 40
0.01
  9
$PDMODE
 70
3
  9
$PDSIZE
 40
0.3125
  9
$HANDSEED
  5
463
  9
$TILEMODE
 70
1
  9
$MEASUREMENT
 70
1
  9
$INSUNITS
 70
4
  0
ENDSEC
  0
SECTION
  2
CLASSES
  0
CLASS
  1
ACDBDICTIONARYWDFLT
  2
AcDbDictionaryWithDefault
  3
AutoCAD 2000
 90
0
 91
1
280
0
281
0
  0
CLASS
  1
ACDBPLACEHOLDER
  2
AcDbPlaceHolder
  3
AutoCAD 2000
 90
0
 91
1
280
0
281
0
  0
CLASS
  1
LAYOUT
  2
AcDbLayout
  3
AutoCAD 2000
 90
0
 91
0
280
0
281
0
  0
CLASS
  1
TABLESTYLE
  2
AcDbTableStyle
  3
ObjectDBX Classes
 90
2047
 91
1
280
0
281
0
  0
CLASS
  1
ACAD_TABLE
  2
AcDbTable
  3
ObjectDBX Classes
 90
1025
 91
1
280
0
281
1
  0
ENDSEC
  0
SECTION
  2
TABLES
  0
TABLE
  2
VPORT
  5
8
100
AcDbSymbolTable
 70
2
  0
VPORT
  5
1F4
100
AcDbSymbolTableRecord
100
AcDbViewportTableRecord
  2
*ACTIVE
 70
0
 10
0.0
 20
0.0
 11
1.0
 21
1.0
 12
210.0
 22
148.5
 13
0.0
 23
0.0
 14
1.0
 24
1.0
 15
0.0
 25
0.0
 16
0.0
 26
0.0
 36
1.0
 17
0.0
 27
0.0
 37
0.0
 40
297.0
 41
1.4141414141
 42
50.0
 43
0.0
 44
0.0
 50
0.0
 51
0.0
 71
0
 72
100
 73
1
 74
1
 75
0
 76
0
 77
0
 78
0
  0
ENDTAB
  0
TABLE
  2
LTYPE
  5
5
100
AcDbSymbolTable
 70
6
  0
LTYPE
  5
14
100
AcDbSymbolTableRecord
100
AcDbLinetypeTableRecord
  2
BYBLOCK
 70
0
  3

 72
65
 73
0
 40
0.0
  0
LTYPE
  5
15
100
AcDbSymbolTableRecord
100
AcDbLinetypeTableRecord
  2
BYLAYER
 70
0
  3

 72
65
 73
0
 40
0.0
  0
LTYPE
  5
16
100
AcDbSymbolTableRecord
100
AcDbLinetypeTableRecord
  2
CONTINUOUS
 70
64
  3
Solid line
 72
65
 73
0
 40
0.0
  0
LTYPE
  5
1F5
100
AcDbSymbolTableRecord
100
AcDbLinetypeTableRecord
  2
CENTER
 70
64
  3
____ _ ____ _ ____ _ ____ _ ____ _ ____ _ ____
 72
65
 73
4
 40
0.6
 49
0.375
 74
0
 49
-0.075
 74
0
 49
0.075
 74
0
 49
-0.075
 74
0
  0
LTYPE
  5
1F6
100
AcDbSymbolTableRecord
100
AcDbLinetypeTableRecord
  2
HIDDEN
 70
64
  3
- - - - - - - - - - - - - - - - - - - -
 72
65
 73
2
 40
0.2
 49
0.1
 74
0
 49
-0.1
 74
0
  0
LTYPE
  5
1F7
100
AcDbSymbolTableRecord
100
AcDbLinetypeTableRecord
  2
PHANTOM
 70
64
  3
_____ _ _ _____ _ _ _____ _ _ _____
 72
65
 73
6
 40
0.8
 49
0.45
 74
0
 49
-0.05
 74
0
 49
0.1
 74
0
 49
-0.05
 74
0
 49
0.1
 74
0
 49
-0.05
 74
0
  0
LTYPE
  5
1F8
100
AcDbSymbolTableRecord
100
AcDbLinetypeTableRecord
  2
DOT
 70
64
  3
. . . . . . . . . . . . . . . . . . . .
 72
65
 73
2
 40
0.2
 49
0.1
 74
0
 49
-0.1
 74
0
  0
LTYPE
  5
1F9
100
AcDbSymbolTableRecord
100
AcDbLinetypeTableRecord
  2
DASHED
 70
64
  3
- - - - - - - - - - - - - - - - - - - -
 72
65
 73
2
 40
0.2
 49
0.1
 74
0
 49
-0.1
 74
0
  0
ENDTAB
  0
TABLE
  2
LAYER
  5
2
100
AcDbSymbolTable
 70
36
  0
LAYER
  5
10
100
AcDbSymbolTableRecord
100
AcDbLayerTableRecord
  2
0
 70
0
 62
7
  6
CONTINUOUS
370
-3
390
F
  0
LAYER
  5
1FA
100
AcDbSymbolTableRecord
100
AcDbLayerTableRecord
  2
DEFAULT_1
 70
0
 62
7
  6
CENTER
370
-3
390
F
  0
LAYER
  5
1FB
100
AcDbSymbolTableRecord
100
AcDbLayerTableRecord
  2
DEFAULT_2
 70
0
 62
8
  6
HIDDEN
370
-3
390
F
  0
LAYER
  5
1FC
100
AcDbSymbolTableRecord
100
AcDbLayerTableRecord
  2
DEFAULT_3
 70
0
 62
7
  6
PHANTOM
370
-3
390
F
  0
LAYER
  5
1FD
100
AcDbSymbolTableRecord
100
AcDbLayerTableRecord
  2
01_ALL_DTM_PLN
 70
0
 62
7
  6
CONTINUOUS
370
-3
390
F
  0
LAYER
  5
1FE
100
AcDbSymbolTableRecord
100
AcDbLayerTableRecord
  2
01__ASM_ALL_DTM_PLN
 70
0
 62
7
  6
CONTINUOUS
370
-3
390
F
  0
LAYER
  5
1FF
100
AcDbSymbolTableRecord
100
AcDbLayerTableRecord
  2
01__ASM_DEF_DTM_PLN
 70
0
 62
7
  6
CONTINUOUS
370
-3
390
F
  0
LAYER
  5
200
100
AcDbSymbolTableRecord
100
AcDbLayerTableRecord
  2
01___PRT_ALL_DTM_PLN
 70
0
 62
7
  6
CONTINUOUS
370
-3
390
F
  0
LAYER
  5
201
100
AcDbSymbolTableRecord
100
AcDbLayerTableRecord
  2
01___PRT_DEF_DTM_PLN
 70
0
 62
7
  6
CONTINUOUS
370
-3
390
F
  0
LAYER
  5
202
100
AcDbSymbolTableRecord
100
AcDbLayerTableRecord
  2
02_ALL_AXES
 70
0
 62
7
  6
CONTINUOUS
370
-3
390
F
  0
LAYER
  5
203
100
AcDbSymbolTableRecord
100
AcDbLayerTableRecord
  2
02__ASM_ALL_AXES
 70
0
 62
7
  6
CONTINUOUS
370
-3
390
F
  0
LAYER
  5
204
100
AcDbSymbolTableRecord
100
AcDbLayerTableRecord
  2
02___PRT_ALL_AXES
 70
0
 62
7
  6
CONTINUOUS
370
-3
390
F
  0
LAYER
  5
205
100
AcDbSymbolTableRecord
100
AcDbLayerTableRecord
  2
03_ALL_CURVES
 70
0
 62
7
  6
CONTINUOUS
370
-3
390
F
  0
LAYER
  5
206
100
AcDbSymbolTableRecord
100
AcDbLayerTableRecord
  2
03__ASM_ALL_CURVES
 70
0
 62
7
  6
CONTINUOUS
370
-3
390
F
  0
LAYER
  5
207
100
AcDbSymbolTableRecord
100
AcDbLayerTableRecord
  2
03___PRT_ALL_CURVES
 70
0
 62
7
  6
CONTINUOUS
370
-3
390
F
  0
LAYER
  5
208
100
AcDbSymbolTableRecord
100
AcDbLayerTableRecord
  2
04_ALL_DTM_PNT
 70
0
 62
7
  6
CONTINUOUS
370
-3
390
F
  0
LAYER
  5
209
100
AcDbSymbolTableRecord
100
AcDbLayerTableRecord
  2
04__ASM_ALL_DTM_PNT
 70
0
 62
7
  6
CONTINUOUS
370
-3
390
F
  0
LAYER
  5
20A
100
AcDbSymbolTableRecord
100
AcDbLayerTableRecord
  2
04___PRT_ALL_DTM_PNT
 70
0
 62
7
  6
CONTINUOUS
370
-3
390
F
  0
LAYER
  5
20B
100
AcDbSymbolTableRecord
100
AcDbLayerTableRecord
  2
05_ALL_DTM_CSYS
 70
0
 62
7
  6
CONTINUOUS
370
-3
390
F
  0
LAYER
  5
20C
100
AcDbSymbolTableRecord
100
AcDbLayerTableRecord
  2
05__ASM_ALL_DTM_CSYS
 70
0
 62
7
  6
CONTINUOUS
370
-3
390
F
  0
LAYER
  5
20D
100
AcDbSymbolTableRecord
100
AcDbLayerTableRecord
  2
05__ASM_DEF_DTM_CSYS
 70
0
 62
7
  6
CONTINUOUS
370
-3
390
F
  0
LAYER
  5
20E
100
AcDbSymbolTableRecord
100
AcDbLayerTableRecord
  2
05___PRT_ALL_DTM_CSYS
 70
0
 62
7
  6
CONTINUOUS
370
-3
390
F
  0
LAYER
  5
20F
100
AcDbSymbolTableRecord
100
AcDbLayerTableRecord
  2
05___PRT_DEF_DTM_CSYS
 70
0
 62
7
  6
CONTINUOUS
370
-3
390
F
  0
LAYER
  5
210
100
AcDbSymbolTableRecord
100
AcDbLayerTableRecord
  2
06_ALL_SURFS
 70
0
 62
7
  6
CONTINUOUS
370
-3
390
F
  0
LAYER
  5
211
100
AcDbSymbolTableRecord
100
AcDbLayerTableRecord
  2
06__ASM_ALL_SURFS
 70
0
 62
7
  6
CONTINUOUS
370
-3
390
F
  0
LAYER
  5
212
100
AcDbSymbolTableRecord
100
AcDbLayerTableRecord
  2
06___PRT_ALL_SURFS
 70
0
 62
7
  6
CONTINUOUS
370
-3
390
F
  0
LAYER
  5
213
100
AcDbSymbolTableRecord
100
AcDbLayerTableRecord
  2
07__ASM_ALL_SKELETONS
 70
0
 62
7
  6
CONTINUOUS
370
-3
390
F
  0
LAYER
  5
214
100
AcDbSymbolTableRecord
100
AcDbLayerTableRecord
  2
1_ALL_PLANES
 70
0
 62
7
  6
CONTINUOUS
370
-3
390
F
  0
LAYER
  5
215
100
AcDbSymbolTableRecord
100
AcDbLayerTableRecord
  2
2_ALL_CSYS
 70
0
 62
7
  6
CONTINUOUS
370
-3
390
F
  0
LAYER
  5
216
100
AcDbSymbolTableRecord
100
AcDbLayerTableRecord
  2
3_ALL_AXES
 70
0
 62
7
  6
CONTINUOUS
370
-3
390
F
  0
LAYER
  5
217
100
AcDbSymbolTableRecord
100
AcDbLayerTableRecord
  2
4_ALL_POINTS
 70
0
 62
7
  6
CONTINUOUS
370
-3
390
F
  0
LAYER
  5
218
100
AcDbSymbolTableRecord
100
AcDbLayerTableRecord
  2
5_ALL_CURVES
 70
0
 62
7
  6
CONTINUOUS
370
-3
390
F
  0
LAYER
  5
219
100
AcDbSymbolTableRecord
100
AcDbLayerTableRecord
  2
5__COSTRUZIONE
 70
0
 62
7
  6
CONTINUOUS
370
-3
390
F
  0
LAYER
  5
21A
100
AcDbSymbolTableRecord
100
AcDbLayerTableRecord
  2
6_ALL_SURFS
 70
0
 62
7
  6
CONTINUOUS
370
-3
390
F
  0
LAYER
  5
21B
100
AcDbSymbolTableRecord
100
AcDbLayerTableRecord
  2
7_ALL_FEATURES
 70
0
 62
7
  6
CONTINUOUS
370
-3
390
F
  0
LAYER
  5
21C
100
AcDbSymbolTableRecord
100
AcDbLayerTableRecord
  2
8_ALL_NOTES_BALLOONS_SYMBOLS_GT
 70
0
 62
7
  6
CONTINUOUS
370
-3
390
F
  0
LAYER
  5
21D
100
AcDbSymbolTableRecord
100
AcDbLayerTableRecord
  2
COLOR26
 70
0
 62
7
  6
CONTINUOUS
370
-3
390
F
  0
LAYER
  5
21E
100
AcDbSymbolTableRecord
100
AcDbLayerTableRecord
  2
INTFCLR_2
 70
0
 62
7
  6
CONTINUOUS
370
-3
390
F
  0
LAYER
  5
21F
100
AcDbSymbolTableRecord
100
AcDbLayerTableRecord
  2
R1628B_BRIGHT9_02
 70
0
 62
7
  6
CONTINUOUS
370
-3
390
F
  0
LAYER
  5
220
100
AcDbSymbolTableRecord
100
AcDbLayerTableRecord
  2
R1628B_BRIGHT9_02_CORONALENTICO
 70
0
 62
7
  6
CONTINUOUS
370
-3
390
F
  0
LAYER
  5
221
100
AcDbSymbolTableRecord
100
AcDbLayerTableRecord
  2
XSEC_DATUMS
 70
0
 62
7
  6
CONTINUOUS
370
-3
390
F
  0
LAYER
  5
222
100
AcDbSymbolTableRecord
100
AcDbLayerTableRecord
  2
XXX_SOLIDO
 70
0
 62
7
  6
CONTINUOUS
370
-3
390
F
  0
ENDTAB
  0
TABLE
  2
STYLE
  5
3
100
AcDbSymbolTable
 70
1
  0
STYLE
  5
11
100
AcDbSymbolTableRecord
100
AcDbTextStyleTableRecord
  2
STANDARD
 70
0
 40
0.0
 41
0.85
 50
0.0
 71
0
 42
0.2
  3
txt
  4

  0
STYLE
  5
223
100
AcDbSymbolTableRecord
100
AcDbTextStyleTableRecord
  2
TEXTSTYLE_1
 70
0
 40
0.0
 41
0.8
 50
0.0
 71
0
 42
0.2
  3
gdt
  4

  0
ENDTAB
  0
TABLE
  2
VIEW
  5
6
100
AcDbSymbolTable
 70
0
  0
ENDTAB
  0
TABLE
  2
UCS
  5
7
100
AcDbSymbolTable
 70
0
  0
ENDTAB
  0
TABLE
  2
APPID
  5
9
100
AcDbSymbolTable
 70
1
  0
APPID
  5
224
100
AcDbSymbolTableRecord
100
AcDbRegAppTableRecord
  2
ACAD
 70
0
  0
ENDTAB
  0
TABLE
  2
BLOCK_RECORD
  5
1
100
AcDbSymbolTable
 70
0
  0
BLOCK_RECORD
  5
225
100
AcDbSymbolTableRecord
100
AcDbBlockTableRecord
  2
*Model_Space
  0
BLOCK_RECORD
  5
226
100
AcDbSymbolTableRecord
100
AcDbBlockTableRecord
  2
*Paper_Space
  0
BLOCK_RECORD
  5
227
100
AcDbSymbolTableRecord
100
AcDbBlockTableRecord
  2
_CLOSED
  0
BLOCK_RECORD
  5
228
100
AcDbSymbolTableRecord
100
AcDbBlockTableRecord
  2
*D0
  0
BLOCK_RECORD
  5
229
100
AcDbSymbolTableRecord
100
AcDbBlockTableRecord
  2
*D1
  0
BLOCK_RECORD
  5
22A
100
AcDbSymbolTableRecord
100
AcDbBlockTableRecord
  2
*D2
  0
BLOCK_RECORD
  5
22B
100
AcDbSymbolTableRecord
100
AcDbBlockTableRecord
  2
*D3
  0
BLOCK_RECORD
  5
22C
100
AcDbSymbolTableRecord
100
AcDbBlockTableRecord
  2
*D4
  0
BLOCK_RECORD
  5
22D
100
AcDbSymbolTableRecord
100
AcDbBlockTableRecord
  2
LOGO2_BL0
  0
BLOCK_RECORD
  5
22E
100
AcDbSymbolTableRecord
100
AcDbBlockTableRecord
  2
*T1
  0
ENDTAB
  0
TABLE
  2
DIMSTYLE
  5
A
100
AcDbSymbolTable
 70
1
100
AcDbDimStyleTable
 71
0
  0
DIMSTYLE
105
22F
100
AcDbSymbolTableRecord
100
AcDbDimStyleTableRecord
  2
STANDARD
 70
0
  3

  4

 40
1.0
 41
2.5
 42
0.0625
 43
0.38
 44
0.18
 45
0.0
 46
0.0
 47
0.01
 48
0.01
140
3.0
141
0.09
142
0.0
143
25.4
144
1.0
145
0.0
146
1.0
147
0.09
 71
1.0
 72
0.0
 73
0
 74
0
 75
0
 76
0
 77
1
 78
8
170
0
171
2
172
0
173
0
174
0
175
0
176
0
177
0
178
0
270
2
271
2
272
2
273
2
274
2
275
0
280
0
281
0
282
0
283
1
284
8
285
0
286
0
287
3
288
0
340
11
341
227
342
227
343
227
344
227
  0
DIMSTYLE
105
230
100
AcDbSymbolTableRecord
100
AcDbDimStyleTableRecord
  2
DIMSTYLE_1
 70
0
  3

  4

 40
1.0
 41
2.5
 42
0.0625
 43
0.38
 44
0.18
 45
0.0
 46
0.0
 47
0.5
 48
0.5
140
3.0
141
0.09
142
0.0
143
25.4
144
1.0
145
0.0
146
1.0
147
0.09
 71
0.0
 72
0.0
 73
0
 74
0
 75
0
 76
0
 77
1
 78
8
170
0
171
2
172
0
173
0
174
0
175
0
176
0
177
0
178
0
270
2
271
0
272
0
273
2
274
2
275
0
280
0
281
0
282
0
283
1
284
8
285
0
286
0
287
3
288
0
340
11
341
227
342
227
343
227
344
227
  0
DIMSTYLE
105
231
100
AcDbSymbolTableRecord
100
AcDbDimStyleTableRecord
  2
DIMSTYLE_2
 70
0
  3

  4

 40
1.0
 41
2.5
 42
0.0625
 43
0.38
 44
0.18
 45
0.0
 46
0.0
 47
0.5
 48
0.5
140
3.0
141
0.09
142
0.0
143
25.4
144
1.0
145
0.0
146
1.0
147
0.09
 71
0.0
 72
0.0
 73
0
 74
0
 75
0
 76
0
 77
1
 78
8
170
0
171
2
172
0
173
0
174
0
175
0
176
0
177
0
178
0
270
2
271
2
272
2
273
2
274
2
275
0
280
0
281
0
282
0
283
1
284
8
285
0
286
0
287
3
288
0
340
11
341
227
342
227
343
227
344
227
  0
DIMSTYLE
105
232
100
AcDbSymbolTableRecord
100
AcDbDimStyleTableRecord
  2
DIMSTYLE_3
 70
0
  3

  4

 40
1.0
 41
2.5
 42
0.0625
 43
0.38
 44
0.18
 45
0.0
 46
0.0
 47
0.2
 48
0.2
140
3.0
141
0.09
142
0.0
143
25.4
144
1.0
145
0.0
146
1.0
147
0.09
 71
0.0
 72
0.0
 73
0
 74
0
 75
0
 76
0
 77
1
 78
8
170
0
171
2
172
0
173
0
174
0
175
0
176
0
177
0
178
0
270
2
271
2
272
2
273
2
274
2
275
0
280
0
281
0
282
0
283
1
284
8
285
0
286
0
287
3
288
0
340
11
341
227
342
227
343
227
344
227
  0
DIMSTYLE
105
233
100
AcDbSymbolTableRecord
100
AcDbDimStyleTableRecord
  2
DIMSTYLE_4
 70
0
  3

  4

 40
1.0
 41
2.5
 42
0.0625
 43
0.38
 44
0.18
 45
0.0
 46
0.0
 47
0.3
 48
0.3
140
3.0
141
0.09
142
0.0
143
25.4
144
1.0
145
0.0
146
1.0
147
0.09
 71
0.0
 72
0.0
 73
0
 74
0
 75
0
 76
0
 77
1
 78
8
170
0
171
2
172
0
173
0
174
0
175
0
176
0
177
0
178
0
270
2
271
2
272
2
273
2
274
2
275
0
280
0
281
0
282
0
283
1
284
8
285
0
286
0
287
3
288
0
340
11
341
227
342
227
343
227
344
227
  0
ENDTAB
  0
ENDSEC
  0
SECTION
  2
BLOCKS
  0
BLOCK
  5
20
100
AcDbEntity
  8
0
100
AcDbBlockBegin
  2
*Model_Space
 70
0
 10
0.0
 20
0.0
 30
0.0
  3
*Model_Space
  1

  0
ENDBLK
  5
21
100
AcDbEntity
  8
0
100
AcDbBlockEnd
  0
BLOCK
  5
1C
100
AcDbEntity
  8
0
100
AcDbBlockBegin
  2
*Paper_Space
 70
0
 10
0.0
 20
0.0
 30
0.0
  3
*Paper_Space
  1

  0
ENDBLK
  5
1D
100
AcDbEntity
  8
0
100
AcDbBlockEnd
  0
BLOCK
  5
234
100
AcDbEntity
  8
0
100
AcDbBlockBegin
 62
2
  6
CONTINUOUS
  2
LOGO2_BL0
 70
64
 10
333.6475659158
 20
36.9217920391
  3
LOGO2_BL0
  1

  0
LINE
  5
235
100
AcDbEntity
  8
0
100
AcDbLine
 62
7
  6
CONTINUOUS
 10
325.390491144
 20
40.1172833779
 11
324.0861502147
 21
40.1172833779
  0
LINE
  5
236
100
AcDbEntity
  8
0
100
AcDbLine
 62
7
  6
CONTINUOUS
 10
324.0861502147
 20
40.1172833779
 11
324.0861502147
 21
29.6582173181
  0
LINE
  5
237
100
AcDbEntity
  8
0
100
AcDbLine
 62
7
  6
CONTINUOUS
 10
324.0861502147
 20
29.6582173181
 11
328.567205103
 21
29.6582173181
  0
LINE
  5
238
100
AcDbEntity
  8
0
100
AcDbLine
 62
7
  6
CONTINUOUS
 10
328.567205103
 20
29.6582173181
 11
328.567205103
 21
30.8510716431
  0
LINE
  5
239
100
AcDbEntity
  8
0
100
AcDbLine
 62
7
  6
CONTINUOUS
 10
328.567205103
 20
30.8510716431
 11
325.390491144
 21
30.8510716431
  0
LINE
  5
23A
100
AcDbEntity
  8
0
100
AcDbLine
 62
7
  6
CONTINUOUS
 10
325.390491144
 20
30.8510716431
 11
325.390491144
 21
40.1172833779
  0
LINE
  5
23B
100
AcDbEntity
  8
0
100
AcDbLine
 62
7
  6
CONTINUOUS
 10
340.3268173604
 20
40.1172833779
 11
339.0229998423
 21
40.1172833779
  0
LINE
  5
23C
100
AcDbEntity
  8
0
100
AcDbLine
 62
7
  6
CONTINUOUS
 10
339.0229998423
 20
40.1172833779
 11
339.0229998423
 21
29.6582173181
  0
LINE
  5
23D
100
AcDbEntity
  8
0
100
AcDbLine
 62
7
  6
CONTINUOUS
 10
339.0229998423
 20
29.6582173181
 11
343.5041855834
 21
29.6582173181
  0
LINE
  5
23E
100
AcDbEntity
  8
0
100
AcDbLine
 62
7
  6
CONTINUOUS
 10
343.5041855834
 20
29.6582173181
 11
343.5041855834
 21
30.8510716431
  0
LINE
  5
23F
100
AcDbEntity
  8
0
100
AcDbLine
 62
7
  6
CONTINUOUS
 10
343.5041855834
 20
30.8510716431
 11
340.3268173604
 21
30.8510716431
  0
LINE
  5
240
100
AcDbEntity
  8
0
100
AcDbLine
 62
7
  6
CONTINUOUS
 10
340.3268173604
 20
30.8510716431
 11
340.3268173604
 21
40.1172833779
  0
LWPOLYLINE
  5
241
100
AcDbEntity
  8
0
100
AcDbPolyline
 62
7
  6
CONTINUOUS
 90
2
 70
0
 43
0.2
 10
322.4405451256
 20
26.3146660112
 10
322.4405451256
 20
24.4576027618
  0
LWPOLYLINE
  5
242
100
AcDbEntity
  8
0
100
AcDbPolyline
 62
7
  6
CONTINUOUS
 90
2
 70
0
 43
0.2
 10
322.4405451256
 20
24.4576027618
 10
323.236261136
 20
24.4576027618
  0
LWPOLYLINE
  5
243
100
AcDbEntity
  8
0
100
AcDbPolyline
 62
7
  6
CONTINUOUS
 90
2
 70
0
 43
0.2
 10
323.236261136
 20
24.4576027618
 10
323.236261136
 20
24.6695843334
  0
LWPOLYLINE
  5
244
100
AcDbEntity
  8
0
100
AcDbPolyline
 62
7
  6
CONTINUOUS
 90
2
 70
0
 43
0.2
 10
323.236261136
 20
24.6695843334
 10
322.6721546205
 20
24.6695843334
  0
LWPOLYLINE
  5
245
100
AcDbEntity
  8
0
100
AcDbPolyline
 62
7
  6
CONTINUOUS
 90
2
 70
0
 43
0.2
 10
322.6721546205
 20
24.6695843334
 10
322.6721546205
 20
26.3146660112
  0
LWPOLYLINE
  5
246
100
AcDbEntity
  8
0
100
AcDbPolyline
 62
7
  6
CONTINUOUS
 90
2
 70
0
 43
0.2
 10
322.6721546205
 20
26.3146660112
 10
322.4405451256
 20
26.3146660112
  0
SPLINE
  5
247
100
AcDbEntity
  8
0
100
AcDbSpline
 62
7
  6
CONTINUOUS
 70
2
 71
3
 72
35
 73
31
 74
0
 42
0.0000001
 43
0.0000001
 44
0.0000000001
 40
0.0
 40
0.0
 40
0.0
 40
0.0
 40
1.0
 40
1.0
 40
1.0
 40
2.0
 40
2.0
 40
2.0
 40
3.0
 40
3.0
 40
3.0
 40
4.0
 40
4.0
 40
4.0
 40
5.0
 40
5.0
 40
5.0
 40
6.0
 40
6.0
 40
6.0
 40
7.0
 40
7.0
 40
7.0
 40
8.0
 40
8.0
 40
8.0
 40
9.0
 40
9.0
 40
9.0
 40
10.0
 40
10.0
 40
10.0
 40
10.0
 10
324.6345543915
 20
25.6101544177
 30
0.0
 10
324.6345543915
 20
25.6101544177
 30
0.0
 10
324.6345543915
 20
24.9480391385
 30
0.0
 10
324.6345543915
 20
24.9480391385
 30
0.0
 10
324.6345543915
 20
24.6329455432
 30
0.0
 10
324.7824180804
 20
24.4183469152
 30
0.0
 10
325.1225045647
 20
24.4183469152
 30
0.0
 10
325.4620676377
 20
24.4183469152
 30
0.0
 10
325.6101930321
 20
24.6329455432
 30
0.0
 10
325.6101930321
 20
24.9480391385
 30
0.0
 10
325.6101930321
 20
24.9480391385
 30
0.0
 10
325.6101930321
 20
25.6101544177
 30
0.0
 10
325.6101930321
 20
25.6101544177
 30
0.0
 10
325.6101930321
 20
25.6101544177
 30
0.0
 10
325.3881357933
 20
25.6101544177
 30
0.0
 10
325.3881357933
 20
25.6101544177
 30
0.0
 10
325.3881357933
 20
25.6101544177
 30
0.0
 10
325.3881357933
 20
24.9731628803
 30
0.0
 10
325.3881357933
 20
24.9731628803
 30
0.0
 10
325.3881357933
 20
24.7873518732
 30
0.0
 10
325.3414213358
 20
24.6245709626
 30
0.0
 10
325.1225045647
 20
24.6245709626
 30
0.0
 10
324.9030643822
 20
24.6245709626
 30
0.0
 10
324.8563499248
 20
24.7873518732
 30
0.0
 10
324.8563499248
 20
24.9731628803
 30
0.0
 10
324.8563499248
 20
24.9731628803
 30
0.0
 10
324.8563499248
 20
25.6101544177
 30
0.0
 10
324.8563499248
 20
25.6101544177
 30
0.0
 10
324.8563499248
 20
25.6101544177
 30
0.0
 10
324.6345543915
 20
25.6101544177
 30
0.0
 10
324.6345543915
 20
25.6101544177
 30
0.0
  0
SPLINE
  5
248
100
AcDbEntity
  8
0
100
AcDbSpline
 62
7
  6
CONTINUOUS
 70
2
 71
3
 72
35
 73
31
 74
0
 42
0.0000001
 43
0.0000001
 44
0.0000000001
 40
0.0
 40
0.0
 40
0.0
 40
0.0
 40
1.0
 40
1.0
 40
1.0
 40
2.0
 40
2.0
 40
2.0
 40
3.0
 40
3.0
 40
3.0
 40
4.0
 40
4.0
 40
4.0
 40
5.0
 40
5.0
 40
5.0
 40
6.0
 40
6.0
 40
6.0
 40
7.0
 40
7.0
 40
7.0
 40
8.0
 40
8.0
 40
8.0
 40
9.0
 40
9.0
 40
9.0
 40
10.0
 40
10.0
 40
10.0
 40
10.0
 10
328.0333255893
 20
25.5688049259
 30
0.0
 10
327.9448690817
 20
25.6200992322
 30
0.0
 10
327.831419685
 20
25.645222974
 30
0.0
 10
327.72778425
 20
25.645222974
 30
0.0
 10
327.3729113969
 20
25.645222974
 30
0.0
 10
327.0974662066
 20
25.3814236849
 30
0.0
 10
327.0974662066
 20
25.0239337753
 30
0.0
 10
327.0974662066
 20
24.6790057366
 30
0.0
 10
327.3759210118
 20
24.4188703265
 30
0.0
 10
327.7154840848
 20
24.4188703265
 30
0.0
 10
327.831419685
 20
24.4188703265
 30
0.0
 10
327.9321763579
 20
24.4408536006
 30
0.0
 10
328.0333255893
 20
24.4947649632
 30
0.0
 10
328.0333255893
 20
24.4947649632
 30
0.0
 10
328.0333255893
 20
24.7774070587
 30
0.0
 10
328.0333255893
 20
24.7774070587
 30
0.0
 10
327.9494489304
 20
24.6842398494
 30
0.0
 10
327.8459443483
 20
24.6250943739
 30
0.0
 10
327.7178394356
 20
24.6250943739
 30
0.0
 10
327.4841362955
 20
24.6250943739
 30
0.0
 10
327.3188691814
 20
24.7972966876
 30
0.0
 10
327.3188691814
 20
25.0338785897
 30
0.0
 10
327.3188691814
 20
25.2458601613
 30
0.0
 10
327.4866224991
 20
25.437952104
 30
0.0
 10
327.7034456251
 20
25.437952104
 30
0.0
 10
327.8362612394
 20
25.437952104
 30
0.0
 10
327.9448690817
 20
25.3840407413
 30
0.0
 10
328.0333255893
 20
25.2830223628
 30
0.0
 10
328.0333255893
 20
25.2830223628
 30
0.0
 10
328.0333255893
 20
25.5688049259
 30
0.0
 10
328.0333255893
 20
25.5688049259
 30
0.0
  0
SPLINE
  5
249
100
AcDbEntity
  8
0
100
AcDbSpline
 62
7
  6
CONTINUOUS
 70
2
 71
3
 72
32
 73
28
 74
0
 42
0.0000001
 43
0.0000001
 44
0.0000000001
 40
0.0
 40
0.0
 40
0.0
 40
0.0
 40
1.0
 40
1.0
 40
1.0
 40
2.0
 40
2.0
 40
2.0
 40
3.0
 40
3.0
 40
3.0
 40
4.0
 40
4.0
 40
4.0
 40
5.0
 40
5.0
 40
5.0
 40
6.0
 40
6.0
 40
6.0
 40
7.0
 40
7.0
 40
7.0
 40
8.0
 40
8.0
 40
8.0
 40
9.0
 40
9.0
 40
9.0
 40
9.0
 10
330.5651968416
 20
24.9972397996
 30
0.0
 10
330.5651968416
 20
24.9972397996
 30
0.0
 10
330.5651968416
 20
25.0312615333
 30
0.0
 10
330.5651968416
 20
25.0312615333
 30
0.0
 10
330.5651968416
 20
25.3735725156
 30
0.0
 10
330.3923402638
 20
25.645222974
 30
0.0
 10
330.0256906566
 20
25.645222974
 30
0.0
 10
329.6540686422
 20
25.645222974
 30
0.0
 10
329.4643320504
 20
25.3788066284
 30
0.0
 10
329.4643320504
 20
25.0239337753
 30
0.0
 10
329.4643320504
 20
24.6842398494
 30
0.0
 10
329.6784072671
 20
24.4183469152
 30
0.0
 10
330.030532211
 20
24.4183469152
 30
0.0
 10
330.2545522422
 20
24.4183469152
 30
0.0
 10
330.4567198522
 20
24.5340208098
 30
0.0
 10
330.5651968416
 20
24.7334405105
 30
0.0
 10
330.5651968416
 20
24.7334405105
 30
0.0
 10
330.3775538949
 20
24.8402164132
 30
0.0
 10
330.3775538949
 20
24.8402164132
 30
0.0
 10
330.2940697945
 20
24.7015124219
 30
0.0
 10
330.2028653775
 20
24.6156729707
 30
0.0
 10
330.0332801203
 20
24.6156729707
 30
0.0
 10
329.8212985487
 20
24.6156729707
 30
0.0
 10
329.6883520816
 20
24.8004371554
 30
0.0
 10
329.6859967308
 20
24.9972397996
 30
0.0
 10
329.6859967308
 20
24.9972397996
 30
0.0
 10
330.5651968416
 20
24.9972397996
 30
0.0
 10
330.5651968416
 20
24.9972397996
 30
0.0
  0
SPLINE
  5
24A
100
AcDbEntity
  8
0
100
AcDbSpline
 62
7
  6
CONTINUOUS
 70
2
 71
3
 72
14
 73
10
 74
0
 42
0.0000001
 43
0.0000001
 44
0.0000000001
 40
0.0
 40
0.0
 40
0.0
 40
0.0
 40
1.0
 40
1.0
 40
1.0
 40
2.0
 40
2.0
 40
2.0
 40
3.0
 40
3.0
 40
3.0
 40
3.0
 10
329.6980351904
 20
25.1647314117
 30
0.0
 10
329.7256451358
 20
25.3296059674
 30
0.0
 10
329.8534883429
 20
25.45260762
 30
0.0
 10
330.0256906566
 20
25.45260762
 30
0.0
 10
330.2028653775
 20
25.45260762
 30
0.0
 10
330.3163147742
 20
25.3369337254
 30
0.0
 10
330.3435321612
 20
25.1647314117
 30
0.0
 10
330.3435321612
 20
25.1647314117
 30
0.0
 10
329.6980351904
 20
25.1647314117
 30
0.0
 10
329.6980351904
 20
25.1647314117
 30
0.0
  0
SPLINE
  5
24B
100
AcDbEntity
  8
0
100
AcDbSpline
 62
7
  6
CONTINUOUS
 70
2
 71
3
 72
20
 73
16
 74
0
 42
0.0000001
 43
0.0000001
 44
0.0000000001
 40
0.0
 40
0.0
 40
0.0
 40
0.0
 40
1.0
 40
1.0
 40
1.0
 40
2.0
 40
2.0
 40
2.0
 40
3.0
 40
3.0
 40
3.0
 40
4.0
 40
4.0
 40
4.0
 40
5.0
 40
5.0
 40
5.0
 40
5.0
 10
332.5892282918
 20
25.3740959269
 30
0.0
 10
332.5892282918
 20
25.3740959269
 30
0.0
 10
333.0003678584
 20
24.8716210905
 30
0.0
 10
333.0003678584
 20
24.8716210905
 30
0.0
 10
332.8843014053
 20
24.7559471959
 30
0.0
 10
332.7465133838
 20
24.6256177852
 30
0.0
 10
332.5745727757
 20
24.6256177852
 30
0.0
 10
332.3971363491
 20
24.6256177852
 30
0.0
 10
332.229644737
 20
24.7899689296
 30
0.0
 10
332.229644737
 20
24.9668819449
 30
0.0
 10
332.229644737
 20
25.1448417828
 30
0.0
 10
332.4394018106
 20
25.2709839031
 30
0.0
 10
332.566983312
 20
25.3589169995
 30
0.0
 10
332.566983312
 20
25.3589169995
 30
0.0
 10
332.5892282918
 20
25.3740959269
 30
0.0
 10
332.5892282918
 20
25.3740959269
 30
0.0
  0
SPLINE
  5
24C
100
AcDbEntity
  8
0
100
AcDbSpline
 62
7
  6
CONTINUOUS
 70
2
 71
3
 72
23
 73
19
 74
0
 42
0.0000001
 43
0.0000001
 44
0.0000000001
 40
0.0
 40
0.0
 40
0.0
 40
0.0
 40
1.0
 40
1.0
 40
1.0
 40
2.0
 40
2.0
 40
2.0
 40
3.0
 40
3.0
 40
3.0
 40
4.0
 40
4.0
 40
4.0
 40
5.0
 40
5.0
 40
5.0
 40
6.0
 40
6.0
 40
6.0
 40
6.0
 10
332.6385598056
 20
25.6651126029
 30
0.0
 10
332.6385598056
 20
25.6651126029
 30
0.0
 10
332.5769281265
 20
25.7436242961
 30
0.0
 10
332.5769281265
 20
25.7436242961
 30
0.0
 10
332.5230167639
 20
25.8121911748
 30
0.0
 10
332.4662266391
 20
25.8812814648
 30
0.0
 10
332.4662266391
 20
25.9749720853
 30
0.0
 10
332.4662266391
 20
26.0937864477
 30
0.0
 10
332.5621417576
 20
26.1712513183
 30
0.0
 10
332.6731049506
 20
26.1712513183
 30
0.0
 10
332.7963683089
 20
26.1712513183
 30
0.0
 10
332.889666371
 20
26.1000673831
 30
0.0
 10
332.889666371
 20
25.9697379725
 30
0.0
 10
332.889666371
 20
25.8346978602
 30
0.0
 10
332.7615614583
 20
25.7582798122
 30
0.0
 10
332.6680016906
 20
25.6844788206
 30
0.0
 10
332.6680016906
 20
25.6844788206
 30
0.0
 10
332.6385598056
 20
25.6651126029
 30
0.0
 10
332.6385598056
 20
25.6651126029
 30
0.0
  0
SPLINE
  5
24D
100
AcDbEntity
  8
0
100
AcDbSpline
 62
7
  6
CONTINUOUS
 70
2
 71
3
 72
50
 73
46
 74
0
 42
0.0000001
 43
0.0000001
 44
0.0000000001
 40
0.0
 40
0.0
 40
0.0
 40
0.0
 40
1.0
 40
1.0
 40
1.0
 40
2.0
 40
2.0
 40
2.0
 40
3.0
 40
3.0
 40
3.0
 40
4.0
 40
4.0
 40
4.0
 40
5.0
 40
5.0
 40
5.0
 40
6.0
 40
6.0
 40
6.0
 40
7.0
 40
7.0
 40
7.0
 40
8.0
 40
8.0
 40
8.0
 40
9.0
 40
9.0
 40
9.0
 40
10.0
 40
10.0
 40
10.0
 40
11.0
 40
11.0
 40
11.0
 40
12.0
 40
12.0
 40
12.0
 40
13.0
 40
13.0
 40
13.0
 40
14.0
 40
14.0
 40
14.0
 40
15.0
 40
15.0
 40
15.0
 40
15.0
 10
333.3407160483
 20
24.4581261731
 30
0.0
 10
333.3407160483
 20
24.4581261731
 30
0.0
 10
333.626106053
 20
24.4581261731
 30
0.0
 10
333.626106053
 20
24.4581261731
 30
0.0
 10
333.626106053
 20
24.4581261731
 30
0.0
 10
333.2937398852
 20
24.8690040341
 30
0.0
 10
333.2937398852
 20
24.8690040341
 30
0.0
 10
333.2937398852
 20
24.8690040341
 30
0.0
 10
333.5202461201
 20
25.1348969683
 30
0.0
 10
333.5202461201
 20
25.1348969683
 30
0.0
 10
333.5202461201
 20
25.1348969683
 30
0.0
 10
333.3719898728
 20
25.2877330644
 30
0.0
 10
333.3719898728
 20
25.2877330644
 30
0.0
 10
333.3719898728
 20
25.2877330644
 30
0.0
 10
333.1560827165
 20
25.0364956462
 30
0.0
 10
333.1560827165
 20
25.0364956462
 30
0.0
 10
333.1560827165
 20
25.0364956462
 30
0.0
 10
332.7690200692
 20
25.5044253375
 30
0.0
 10
332.7690200692
 20
25.5044253375
 30
0.0
 10
332.9244732216
 20
25.6185289983
 30
0.0
 10
333.1067512026
 20
25.7582798122
 30
0.0
 10
333.1067512026
 20
25.9676443273
 30
0.0
 10
333.1067512026
 20
26.2115539874
 30
0.0
 10
332.9047144455
 20
26.3549686803
 30
0.0
 10
332.6782082107
 20
26.3549686803
 30
0.0
 10
332.4340368449
 20
26.3549686803
 30
0.0
 10
332.2496652188
 20
26.2042262294
 30
0.0
 10
332.2496652188
 20
25.9477546984
 30
0.0
 10
332.2496652188
 20
25.7902079007
 30
0.0
 10
332.3483282465
 20
25.652550732
 30
0.0
 10
332.4536647682
 20
25.541587539
 30
0.0
 10
332.4536647682
 20
25.541587539
 30
0.0
 10
332.3381217264
 20
25.4578417329
 30
0.0
 10
332.3381217264
 20
25.4578417329
 30
0.0
 10
332.1604235942
 20
25.3296059674
 30
0.0
 10
332.0130833166
 20
25.2018936131
 30
0.0
 10
332.0130833166
 20
24.9647882997
 30
0.0
 10
332.0130833166
 20
24.6444605916
 30
0.0
 10
332.2716484929
 20
24.4183469152
 30
0.0
 10
332.5820313866
 20
24.4183469152
 30
0.0
 10
332.8009481577
 20
24.4183469152
 30
0.0
 10
332.9981433604
 20
24.543442213
 30
0.0
 10
333.1384175856
 20
24.7093635913
 30
0.0
 10
333.1384175856
 20
24.7093635913
 30
0.0
 10
333.3407160483
 20
24.4581261731
 30
0.0
 10
333.3407160483
 20
24.4581261731
 30
0.0
  0
LWPOLYLINE
  5
24E
100
AcDbEntity
  8
0
100
AcDbPolyline
 62
7
  6
CONTINUOUS
 90
2
 70
0
 43
0.2
 10
335.276160138
 20
26.3146660112
 10
335.0448123488
 20
26.3146660112
  0
LWPOLYLINE
  5
24F
100
AcDbEntity
  8
0
100
AcDbPolyline
 62
7
  6
CONTINUOUS
 90
2
 70
0
 43
0.2
 10
335.0448123488
 20
26.3146660112
 10
335.0448123488
 20
24.4576027618
  0
LWPOLYLINE
  5
250
100
AcDbEntity
  8
0
100
AcDbPolyline
 62
7
  6
CONTINUOUS
 90
2
 70
0
 43
0.2
 10
335.0448123488
 20
24.4576027618
 10
335.8401358007
 20
24.4576027618
  0
LWPOLYLINE
  5
251
100
AcDbEntity
  8
0
100
AcDbPolyline
 62
7
  6
CONTINUOUS
 90
2
 70
0
 43
0.2
 10
335.8401358007
 20
24.4576027618
 10
335.8401358007
 20
24.6695843334
  0
LWPOLYLINE
  5
252
100
AcDbEntity
  8
0
100
AcDbPolyline
 62
7
  6
CONTINUOUS
 90
2
 70
0
 43
0.2
 10
335.8401358007
 20
24.6695843334
 10
335.276160138
 20
24.6695843334
  0
LWPOLYLINE
  5
253
100
AcDbEntity
  8
0
100
AcDbPolyline
 62
7
  6
CONTINUOUS
 90
2
 70
0
 43
0.2
 10
335.276160138
 20
24.6695843334
 10
335.276160138
 20
26.3146660112
  0
LWPOLYLINE
  5
254
100
AcDbEntity
  8
0
100
AcDbPolyline
 62
7
  6
CONTINUOUS
 90
2
 70
0
 43
0.2
 10
337.5192392122
 20
25.6101544177
 10
337.2980979431
 20
25.6101544177
  0
LWPOLYLINE
  5
255
100
AcDbEntity
  8
0
100
AcDbPolyline
 62
7
  6
CONTINUOUS
 90
2
 70
0
 43
0.2
 10
337.2980979431
 20
25.6101544177
 10
337.2980979431
 20
24.4581261731
  0
LWPOLYLINE
  5
256
100
AcDbEntity
  8
0
100
AcDbPolyline
 62
7
  6
CONTINUOUS
 90
2
 70
0
 43
0.2
 10
337.2980979431
 20
24.4581261731
 10
337.5192392122
 20
24.4581261731
  0
LWPOLYLINE
  5
257
100
AcDbEntity
  8
0
100
AcDbPolyline
 62
7
  6
CONTINUOUS
 90
2
 70
0
 43
0.2
 10
337.5192392122
 20
24.4581261731
 10
337.5192392122
 20
25.6101544177
  0
SPLINE
  5
258
100
AcDbEntity
  8
0
100
AcDbSpline
 62
7
  6
CONTINUOUS
 70
2
 71
3
 72
17
 73
13
 74
0
 42
0.0000001
 43
0.0000001
 44
0.0000000001
 40
0.0
 40
0.0
 40
0.0
 40
0.0
 40
1.0
 40
1.0
 40
1.0
 40
2.0
 40
2.0
 40
2.0
 40
3.0
 40
3.0
 40
3.0
 40
4.0
 40
4.0
 40
4.0
 40
4.0
 10
337.4087994305
 20
26.2926827371
 30
0.0
 10
337.3247919188
 20
26.2926827371
 30
0.0
 10
337.2562250401
 20
26.2235924471
 30
0.0
 10
337.2562250401
 20
26.1377529959
 30
0.0
 10
337.2562250401
 20
26.0534837785
 30
0.0
 10
337.3247919188
 20
25.9875339562
 30
0.0
 10
337.4087994305
 20
25.9875339562
 30
0.0
 10
337.4925452365
 20
25.9875339562
 30
0.0
 10
337.5613738209
 20
26.0534837785
 30
0.0
 10
337.5613738209
 20
26.1377529959
 30
0.0
 10
337.5613738209
 20
26.2235924471
 30
0.0
 10
337.4925452365
 20
26.2926827371
 30
0.0
 10
337.4087994305
 20
26.2926827371
 30
0.0
  0
SPLINE
  5
259
100
AcDbEntity
  8
0
100
AcDbSpline
 62
7
  6
CONTINUOUS
 70
2
 71
3
 72
17
 73
13
 74
0
 42
0.0000001
 43
0.0000001
 44
0.0000000001
 40
0.0
 40
0.0
 40
0.0
 40
0.0
 40
1.0
 40
1.0
 40
1.0
 40
2.0
 40
2.0
 40
2.0
 40
3.0
 40
3.0
 40
3.0
 40
4.0
 40
4.0
 40
4.0
 40
4.0
 10
339.6495231538
 20
24.6156729707
 30
0.0
 10
339.4155583082
 20
24.6156729707
 30
0.0
 10
339.2852288975
 20
24.8177097279
 30
0.0
 10
339.2852288975
 20
25.0338785897
 30
0.0
 10
339.2852288975
 20
25.2484772178
 30
0.0
 10
339.4210541267
 20
25.4473735072
 30
0.0
 10
339.6495231538
 20
25.4473735072
 30
0.0
 10
339.888983818
 20
25.4473735072
 30
0.0
 10
340.0245473416
 20
25.2584220322
 30
0.0
 10
340.0245473416
 20
25.0338785897
 30
0.0
 10
340.0245473416
 20
24.8077649134
 30
0.0
 10
339.8913391688
 20
24.6156729707
 30
0.0
 10
339.6495231538
 20
24.6156729707
 30
0.0
  0
SPLINE
  5
25A
100
AcDbEntity
  8
0
100
AcDbSpline
 62
7
  6
CONTINUOUS
 70
2
 71
3
 72
50
 73
46
 74
0
 42
0.0000001
 43
0.0000001
 44
0.0000000001
 40
0.0
 40
0.0
 40
0.0
 40
0.0
 40
1.0
 40
1.0
 40
1.0
 40
2.0
 40
2.0
 40
2.0
 40
3.0
 40
3.0
 40
3.0
 40
4.0
 40
4.0
 40
4.0
 40
5.0
 40
5.0
 40
5.0
 40
6.0
 40
6.0
 40
6.0
 40
7.0
 40
7.0
 40
7.0
 40
8.0
 40
8.0
 40
8.0
 40
9.0
 40
9.0
 40
9.0
 40
10.0
 40
10.0
 40
10.0
 40
11.0
 40
11.0
 40
11.0
 40
12.0
 40
12.0
 40
12.0
 40
13.0
 40
13.0
 40
13.0
 40
14.0
 40
14.0
 40
14.0
 40
15.0
 40
15.0
 40
15.0
 40
15.0
 10
340.2336501511
 20
25.610677829
 30
0.0
 10
340.2336501511
 20
25.610677829
 30
0.0
 10
340.0119854707
 20
25.610677829
 30
0.0
 10
340.0119854707
 20
25.610677829
 30
0.0
 10
340.0119854707
 20
25.610677829
 30
0.0
 10
340.0119854707
 20
25.4133517734
 30
0.0
 10
340.0119854707
 20
25.4133517734
 30
0.0
 10
340.0119854707
 20
25.4133517734
 30
0.0
 10
340.0072747691
 20
25.4133517734
 30
0.0
 10
340.0072747691
 20
25.4133517734
 30
0.0
 10
339.9159394994
 20
25.556243055
 30
0.0
 10
339.778020625
 20
25.6446995627
 30
0.0
 10
339.6052949
 20
25.6446995627
 30
0.0
 10
339.2729287322
 20
25.6446995627
 30
0.0
 10
339.0638259227
 20
25.3568233544
 30
0.0
 10
339.0638259227
 20
25.0412063478
 30
0.0
 10
339.0638259227
 20
24.7114572364
 30
0.0
 10
339.2608902726
 20
24.4183469152
 30
0.0
 10
339.6157631258
 20
24.4183469152
 30
0.0
 10
339.778020625
 20
24.4183469152
 30
0.0
 10
339.9180331445
 20
24.5068034229
 30
0.0
 10
340.0072747691
 20
24.6376562448
 30
0.0
 10
340.0072747691
 20
24.6376562448
 30
0.0
 10
340.0119854707
 20
24.6376562448
 30
0.0
 10
340.0119854707
 20
24.6376562448
 30
0.0
 10
340.0119854707
 20
24.6376562448
 30
0.0
 10
340.0119854707
 20
24.4183469152
 30
0.0
 10
340.0119854707
 20
24.4183469152
 30
0.0
 10
340.0119854707
 20
24.1817650131
 30
0.0
 10
339.9554570516
 20
23.9949071833
 30
0.0
 10
339.6822363593
 20
23.9949071833
 30
0.0
 10
339.4799378966
 20
23.9949071833
 30
0.0
 10
339.3373083206
 20
24.1131981344
 30
0.0
 10
339.3373083206
 20
24.3194221818
 30
0.0
 10
339.3373083206
 20
24.3194221818
 30
0.0
 10
339.1156436402
 20
24.3194221818
 30
0.0
 10
339.1156436402
 20
24.3194221818
 30
0.0
 10
339.1206160475
 20
23.9949071833
 30
0.0
 10
339.351702131
 20
23.7981045391
 30
0.0
 10
339.6720298392
 20
23.7981045391
 30
0.0
 10
340.1200699016
 20
23.7981045391
 30
0.0
 10
340.2336501511
 20
24.083363691
 30
0.0
 10
340.2336501511
 20
24.4801094472
 30
0.0
 10
340.2336501511
 20
24.4801094472
 30
0.0
 10
340.2336501511
 20
25.610677829
 30
0.0
 10
340.2336501511
 20
25.610677829
 30
0.0
  0
SPLINE
  5
25B
100
AcDbEntity
  8
0
100
AcDbSpline
 62
7
  6
CONTINUOUS
 70
2
 71
3
 72
44
 73
40
 74
0
 42
0.0000001
 43
0.0000001
 44
0.0000000001
 40
0.0
 40
0.0
 40
0.0
 40
0.0
 40
1.0
 40
1.0
 40
1.0
 40
2.0
 40
2.0
 40
2.0
 40
3.0
 40
3.0
 40
3.0
 40
4.0
 40
4.0
 40
4.0
 40
5.0
 40
5.0
 40
5.0
 40
6.0
 40
6.0
 40
6.0
 40
7.0
 40
7.0
 40
7.0
 40
8.0
 40
8.0
 40
8.0
 40
9.0
 40
9.0
 40
9.0
 40
10.0
 40
10.0
 40
10.0
 40
11.0
 40
11.0
 40
11.0
 40
12.0
 40
12.0
 40
12.0
 40
13.0
 40
13.0
 40
13.0
 40
13.0
 10
341.8025754865
 20
26.5957378727
 30
0.0
 10
341.8025754865
 20
26.5957378727
 30
0.0
 10
341.8025754865
 20
24.4576027618
 30
0.0
 10
341.8025754865
 20
24.4576027618
 30
0.0
 10
341.8025754865
 20
24.4576027618
 30
0.0
 10
342.0239784613
 20
24.4576027618
 30
0.0
 10
342.0239784613
 20
24.4576027618
 30
0.0
 10
342.0239784613
 20
24.4576027618
 30
0.0
 10
342.0239784613
 20
24.9872949851
 30
0.0
 10
342.0239784613
 20
24.9872949851
 30
0.0
 10
342.0239784613
 20
25.1971829116
 30
0.0
 10
342.0239784613
 20
25.4478969184
 30
0.0
 10
342.3092376132
 20
25.4478969184
 30
0.0
 10
342.5361364065
 20
25.4478969184
 30
0.0
 10
342.5630920878
 20
25.3149504513
 30
0.0
 10
342.5630920878
 20
25.1186712184
 30
0.0
 10
342.5630920878
 20
25.1186712184
 30
0.0
 10
342.5630920878
 20
24.4576027618
 30
0.0
 10
342.5630920878
 20
24.4576027618
 30
0.0
 10
342.5630920878
 20
24.4576027618
 30
0.0
 10
342.7850184738
 20
24.4576027618
 30
0.0
 10
342.7850184738
 20
24.4576027618
 30
0.0
 10
342.7850184738
 20
24.4576027618
 30
0.0
 10
342.7850184738
 20
25.1448417828
 30
0.0
 10
342.7850184738
 20
25.1448417828
 30
0.0
 10
342.7850184738
 20
25.4253902331
 30
0.0
 10
342.7010109621
 20
25.645222974
 30
0.0
 10
342.3759725524
 20
25.645222974
 30
0.0
 10
342.2362217385
 20
25.645222974
 30
0.0
 10
342.0980411585
 20
25.5787497404
 30
0.0
 10
342.0286891629
 20
25.4557480878
 30
0.0
 10
342.0286891629
 20
25.4557480878
 30
0.0
 10
342.0239784613
 20
25.4557480878
 30
0.0
 10
342.0239784613
 20
25.4557480878
 30
0.0
 10
342.0239784613
 20
25.4557480878
 30
0.0
 10
342.0239784613
 20
26.5957378727
 30
0.0
 10
342.0239784613
 20
26.5957378727
 30
0.0
 10
342.0239784613
 20
26.5957378727
 30
0.0
 10
341.8025754865
 20
26.5957378727
 30
0.0
 10
341.8025754865
 20
26.5957378727
 30
0.0
  0
LWPOLYLINE
  5
25C
100
AcDbEntity
  8
0
100
AcDbPolyline
 62
7
  6
CONTINUOUS
 90
2
 70
0
 43
0.2
 10
344.6248091507
 20
25.403406959
 10
344.8412397182
 20
25.403406959
  0
LWPOLYLINE
  5
25D
100
AcDbEntity
  8
0
100
AcDbPolyline
 62
7
  6
CONTINUOUS
 90
2
 70
0
 43
0.2
 10
344.8412397182
 20
25.403406959
 10
344.8412397182
 20
25.6101544177
  0
LWPOLYLINE
  5
25E
100
AcDbEntity
  8
0
100
AcDbPolyline
 62
7
  6
CONTINUOUS
 90
2
 70
0
 43
0.2
 10
344.8412397182
 20
25.6101544177
 10
344.6248091507
 20
25.6101544177
  0
LWPOLYLINE
  5
25F
100
AcDbEntity
  8
0
100
AcDbPolyline
 62
7
  6
CONTINUOUS
 90
2
 70
0
 43
0.2
 10
344.6248091507
 20
25.6101544177
 10
344.6248091507
 20
26.0508667221
  0
LWPOLYLINE
  5
260
100
AcDbEntity
  8
0
100
AcDbPolyline
 62
7
  6
CONTINUOUS
 90
2
 70
0
 43
0.2
 10
344.6248091507
 20
26.0508667221
 10
344.4031444703
 20
26.0508667221
  0
LWPOLYLINE
  5
261
100
AcDbEntity
  8
0
100
AcDbPolyline
 62
7
  6
CONTINUOUS
 90
2
 70
0
 43
0.2
 10
344.4031444703
 20
26.0508667221
 10
344.4031444703
 20
25.6101544177
  0
LWPOLYLINE
  5
262
100
AcDbEntity
  8
0
100
AcDbPolyline
 62
7
  6
CONTINUOUS
 90
2
 70
0
 43
0.2
 10
344.4031444703
 20
25.6101544177
 10
344.2824981684
 20
25.6101544177
  0
LWPOLYLINE
  5
263
100
AcDbEntity
  8
0
100
AcDbPolyline
 62
7
  6
CONTINUOUS
 90
2
 70
0
 43
0.2
 10
344.2824981684
 20
25.6101544177
 10
344.2824981684
 20
25.403406959
  0
LWPOLYLINE
  5
264
100
AcDbEntity
  8
0
100
AcDbPolyline
 62
7
  6
CONTINUOUS
 90
2
 70
0
 43
0.2
 10
344.2824981684
 20
25.403406959
 10
344.4031444703
 20
25.403406959
  0
LWPOLYLINE
  5
265
100
AcDbEntity
  8
0
100
AcDbPolyline
 62
7
  6
CONTINUOUS
 90
2
 70
0
 43
0.2
 10
344.4031444703
 20
25.403406959
 10
344.4031444703
 20
24.4576027618
  0
LWPOLYLINE
  5
266
100
AcDbEntity
  8
0
100
AcDbPolyline
 62
7
  6
CONTINUOUS
 90
2
 70
0
 43
0.2
 10
344.4031444703
 20
24.4576027618
 10
344.6248091507
 20
24.4576027618
  0
LWPOLYLINE
  5
267
100
AcDbEntity
  8
0
100
AcDbPolyline
 62
7
  6
CONTINUOUS
 90
2
 70
0
 43
0.2
 10
344.6248091507
 20
24.4576027618
 10
344.6248091507
 20
25.403406959
  0
SPLINE
  5
268
100
AcDbEntity
  8
0
100
AcDbSpline
 62
7
  6
CONTINUOUS
 70
2
 71
3
 72
20
 73
16
 74
0
 42
0.0000001
 43
0.0000001
 44
0.0000000001
 40
0.0
 40
0.0
 40
0.0
 40
0.0
 40
1.0
 40
1.0
 40
1.0
 40
2.0
 40
2.0
 40
2.0
 40
3.0
 40
3.0
 40
3.0
 40
4.0
 40
4.0
 40
4.0
 40
5.0
 40
5.0
 40
5.0
 40
5.0
 10
332.4068194579
 20
34.8185292052
 30
0.0
 10
332.4068194579
 20
34.8185292052
 30
0.0
 10
334.7231761124
 20
31.988967783
 30
0.0
 10
334.7231761124
 20
31.988967783
 30
0.0
 10
334.071529059
 20
31.3367973183
 30
0.0
 10
333.294655855
 20
30.6008810475
 30
0.0
 10
332.3234662104
 20
30.6008810475
 30
0.0
 10
331.3249283259
 20
30.6008810475
 30
0.0
 10
330.3816103324
 20
31.5304594948
 30
0.0
 10
330.3816103324
 20
32.5296516433
 30
0.0
 10
330.3816103324
 20
33.5288437919
 30
0.0
 10
331.5604634055
 20
34.2354490305
 30
0.0
 10
332.2819858658
 20
34.7353068104
 30
0.0
 10
332.2819858658
 20
34.7353068104
 30
0.0
 10
332.4068194579
 20
34.8185292052
 30
0.0
 10
332.4068194579
 20
34.8185292052
 30
0.0
  0
SPLINE
  5
269
100
AcDbEntity
  8
0
100
AcDbSpline
 62
7
  6
CONTINUOUS
 70
2
 71
3
 72
23
 73
19
 74
0
 42
0.0000001
 43
0.0000001
 44
0.0000000001
 40
0.0
 40
0.0
 40
0.0
 40
0.0
 40
1.0
 40
1.0
 40
1.0
 40
2.0
 40
2.0
 40
2.0
 40
3.0
 40
3.0
 40
3.0
 40
4.0
 40
4.0
 40
4.0
 40
5.0
 40
5.0
 40
5.0
 40
6.0
 40
6.0
 40
6.0
 40
6.0
 10
332.6842274405
 20
36.4562831249
 30
0.0
 10
332.6842274405
 20
36.4562831249
 30
0.0
 10
332.3377291679
 20
36.8996124858
 30
0.0
 10
332.3377291679
 20
36.8996124858
 30
0.0
 10
332.031926123
 20
37.2877219557
 30
0.0
 10
331.7130377959
 20
37.6762239841
 30
0.0
 10
331.7130377959
 20
38.2031682982
 30
0.0
 10
331.7130377959
 20
38.8693400148
 30
0.0
 10
332.2543759204
 20
39.3130619341
 30
0.0
 10
332.8782821755
 20
39.3130619341
 30
0.0
 10
333.5720638376
 20
39.3130619341
 30
0.0
 10
334.0992698573
 20
38.9108203594
 30
0.0
 10
334.0992698573
 20
38.1758200584
 30
0.0
 10
334.0992698573
 20
37.4125555479
 30
0.0
 10
333.3780091026
 20
36.9824423221
 30
0.0
 10
332.8509339357
 20
36.5667229067
 30
0.0
 10
332.8509339357
 20
36.5667229067
 30
0.0
 10
332.6842274405
 20
36.4562831249
 30
0.0
 10
332.6842274405
 20
36.4562831249
 30
0.0
  0
SPLINE
  5
26A
100
AcDbEntity
  8
0
100
AcDbSpline
 62
7
  6
CONTINUOUS
 70
2
 71
3
 72
50
 73
46
 74
0
 42
0.0000001
 43
0.0000001
 44
0.0000000001
 40
0.0
 40
0.0
 40
0.0
 40
0.0
 40
1.0
 40
1.0
 40
1.0
 40
2.0
 40
2.0
 40
2.0
 40
3.0
 40
3.0
 40
3.0
 40
4.0
 40
4.0
 40
4.0
 40
5.0
 40
5.0
 40
5.0
 40
6.0
 40
6.0
 40
6.0
 40
7.0
 40
7.0
 40
7.0
 40
8.0
 40
8.0
 40
8.0
 40
9.0
 40
9.0
 40
9.0
 40
10.0
 40
10.0
 40
10.0
 40
11.0
 40
11.0
 40
11.0
 40
12.0
 40
12.0
 40
12.0
 40
13.0
 40
13.0
 40
13.0
 40
14.0
 40
14.0
 40
14.0
 40
15.0
 40
15.0
 40
15.0
 40
15.0
 10
336.6378146034
 20
29.6576939068
 30
0.0
 10
336.6378146034
 20
29.6576939068
 30
0.0
 10
338.247042608
 20
29.6576939068
 30
0.0
 10
338.247042608
 20
29.6576939068
 30
0.0
 10
338.247042608
 20
29.6576939068
 30
0.0
 10
336.3740153144
 20
31.9748356782
 30
0.0
 10
336.3740153144
 20
31.9748356782
 30
0.0
 10
336.3740153144
 20
31.9748356782
 30
0.0
 10
337.6503537398
 20
33.4723153728
 30
0.0
 10
337.6503537398
 20
33.4723153728
 30
0.0
 10
337.6503537398
 20
33.4723153728
 30
0.0
 10
336.8181297921
 20
34.3333269413
 30
0.0
 10
336.8181297921
 20
34.3333269413
 30
0.0
 10
336.8181297921
 20
34.3333269413
 30
0.0
 10
335.5975346688
 20
32.9180228189
 30
0.0
 10
335.5975346688
 20
32.9180228189
 30
0.0
 10
335.5975346688
 20
32.9180228189
 30
0.0
 10
333.4196203
 20
35.5533986534
 30
0.0
 10
333.4196203
 20
35.5533986534
 30
0.0
 10
334.2931937394
 20
36.1914370133
 30
0.0
 10
335.3198649806
 20
36.9824423221
 30
0.0
 10
335.3198649806
 20
38.1612953952
 30
0.0
 10
335.3198649806
 20
39.5349883202
 30
0.0
 10
334.1819688408
 20
40.3394714696
 30
0.0
 10
332.9066772379
 20
40.3394714696
 30
0.0
 10
331.5332460185
 20
40.3394714696
 30
0.0
 10
330.4923118197
 20
39.49324627
 30
0.0
 10
330.4923118197
 20
38.0505939078
 30
0.0
 10
330.4923118197
 20
37.1630192164
 30
0.0
 10
331.0476511962
 20
36.3861460124
 30
0.0
 10
331.6438166531
 20
35.7617163459
 30
0.0
 10
331.6438166531
 20
35.7617163459
 30
0.0
 10
330.991907894
 20
35.2901227756
 30
0.0
 10
330.991907894
 20
35.2901227756
 30
0.0
 10
329.9933700096
 20
34.5688620209
 30
0.0
 10
329.1604917978
 20
33.8476012662
 30
0.0
 10
329.1604917978
 20
32.5160429498
 30
0.0
 10
329.1604917978
 20
30.7123676518
 30
0.0
 10
330.6175379704
 20
29.4357675207
 30
0.0
 10
332.3650774077
 20
29.4357675207
 30
0.0
 10
333.5999354886
 20
29.4357675207
 30
0.0
 10
334.7093057133
 20
30.1439429932
 30
0.0
 10
335.5001801693
 20
31.0724746179
 30
0.0
 10
335.5001801693
 20
31.0724746179
 30
0.0
 10
336.6378146034
 20
29.6576939068
 30
0.0
 10
336.6378146034
 20
29.6576939068
 30
0.0
  0
LINE
  5
26B
100
AcDbEntity
  8
0
100
AcDbLine
 62
7
  6
CONTINUOUS
 10
322.4406759784
 20
27.6315688114
 11
344.8545867061
 21
27.6315688114
  0
LINE
  5
26C
100
AcDbEntity
  8
0
100
AcDbLine
 62
7
  6
CONTINUOUS
 10
344.8545867061
 20
27.6315688114
 11
344.8545867061
 21
50.0454795391
  0
LINE
  5
26D
100
AcDbEntity
  8
0
100
AcDbLine
 62
7
  6
CONTINUOUS
 10
344.8545867061
 20
50.0454795391
 11
322.4406759784
 21
50.0454795391
  0
LINE
  5
26E
100
AcDbEntity
  8
0
100
AcDbLine
 62
7
  6
CONTINUOUS
 10
322.4406759784
 20
50.0454795391
 11
322.4406759784
 21
27.6315688114
  0
ENDBLK
  5
26F
100
AcDbEntity
  8
0
  6
BYBLOCK
 62
0
100
AcDbBlockEnd
  0
BLOCK
  5
270
100
AcDbEntity
  8
0
100
AcDbBlockBegin
  2
_CLOSED
 70
64
 10
0.0
 20
0.0
  3
_CLOSED
  1

  0
LINE
  5
271
100
AcDbEntity
  8
0
  6
BYBLOCK
 62
0
100
AcDbLine
 10
0.0
 20
0.0
 11
-1.0
 21
0.2
  0
LINE
  5
272
100
AcDbEntity
  8
0
  6
BYBLOCK
 62
0
100
AcDbLine
 10
-1.0
 20
0.2
 11
-1.0
 21
-0.2
  0
LINE
  5
273
100
AcDbEntity
  8
0
  6
BYBLOCK
 62
0
100
AcDbLine
 10
-1.0
 20
-0.2
 11
0.0
 21
0.0
  0
LINE
  5
274
100
AcDbEntity
  8
0
  6
BYBLOCK
 62
0
100
AcDbLine
 10
-1.0
 20
0.0
 11
0.0
 21
0.0
  0
ENDBLK
  5
275
100
AcDbEntity
  8
0
  6
BYBLOCK
 62
0
100
AcDbBlockEnd
  0
BLOCK
  5
276
100
AcDbEntity
  8
0
100
AcDbBlockBegin
 62
2
  6
CONTINUOUS
  2
*D0
 70
65
 10
0.0
 20
0.0
  3
*D0
  1

  0
LINE
  5
277
100
AcDbEntity
  8
0
100
AcDbLine
 62
2
  6
CONTINUOUS
 10
157.775308501
 20
138.8441036057
 11
173.9565172513
 21
150.6918334552
  0
INSERT
  5
278
100
AcDbEntity
  8
0
100
AcDbBlockReference
 62
2
  6
CONTINUOUS
  2
_CLOSED
 10
157.775308501
 20
138.8441036057
 41
2.5
 42
2.5
 43
2.5
 50
216.2112397276
  0
ENDBLK
  5
279
100
AcDbEntity
  8
0
  6
BYBLOCK
 62
0
100
AcDbBlockEnd
  0
BLOCK
  5
27A
100
AcDbEntity
  8
0
100
AcDbBlockBegin
 62
2
  6
CONTINUOUS
  2
*D1
 70
65
 10
0.0
 20
0.0
  3
*D1
  1

  0
LINE
  5
27B
100
AcDbEntity
  8
0
100
AcDbLine
 62
2
  6
CONTINUOUS
 10
43.5724734043
 20
215.5833604102
 11
43.5724734043
 21
201.0412655432
  0
LINE
  5
27C
100
AcDbEntity
  8
0
100
AcDbLine
 62
2
  6
CONTINUOUS
 10
167.5724734043
 20
214.3266331375
 11
167.5724734043
 21
201.0412655432
  0
LINE
  5
27D
100
AcDbEntity
  8
0
100
AcDbLine
 62
2
  6
CONTINUOUS
 10
43.5724734043
 20
201.7912655432
 11
105.5724734043
 21
201.7912655432
  0
LINE
  5
27E
100
AcDbEntity
  8
0
100
AcDbLine
 62
2
  6
CONTINUOUS
 10
167.5724734043
 20
201.7912655432
 11
105.5724734043
 21
201.7912655432
  0
INSERT
  5
27F
100
AcDbEntity
  8
0
100
AcDbBlockReference
 62
2
  6
CONTINUOUS
  2
_CLOSED
 10
43.5724734043
 20
201.7912655432
 41
2.5
 42
2.5
 43
2.5
 50
180.0
  0
INSERT
  5
280
100
AcDbEntity
  8
0
100
AcDbBlockReference
 62
2
  6
CONTINUOUS
  2
_CLOSED
 10
167.5724734043
 20
201.7912655432
 41
2.5
 42
2.5
 43
2.5
  0
ENDBLK
  5
281
100
AcDbEntity
  8
0
  6
BYBLOCK
 62
0
100
AcDbBlockEnd
  0
BLOCK
  5
282
100
AcDbEntity
  8
0
100
AcDbBlockBegin
 62
2
  6
CONTINUOUS
  2
*D2
 70
65
 10
0.0
 20
0.0
  3
*D2
  1

  0
LINE
  5
283
100
AcDbEntity
  8
0
100
AcDbLine
 62
2
  6
CONTINUOUS
 10
173.979241753
 20
261.7247340426
 11
186.819159193
 21
261.7247340426
  0
LINE
  5
284
100
AcDbEntity
  8
0
100
AcDbLine
 62
2
  6
CONTINUOUS
 10
173.979241753
 20
250.7247340426
 11
186.819159193
 21
250.7247340426
  0
LINE
  5
285
100
AcDbEntity
  8
0
100
AcDbLine
 62
2
  6
CONTINUOUS
 10
186.069159193
 20
261.7247340426
 11
186.069159193
 21
256.2247340426
  0
LINE
  5
286
100
AcDbEntity
  8
0
100
AcDbLine
 62
2
  6
CONTINUOUS
 10
186.069159193
 20
250.7247340426
 11
186.069159193
 21
256.2247340426
  0
INSERT
  5
287
100
AcDbEntity
  8
0
100
AcDbBlockReference
 62
2
  6
CONTINUOUS
  2
_CLOSED
 10
186.069159193
 20
261.7247340426
 41
2.5
 42
2.5
 43
2.5
 50
90.0
  0
INSERT
  5
288
100
AcDbEntity
  8
0
100
AcDbBlockReference
 62
2
  6
CONTINUOUS
  2
_CLOSED
 10
186.069159193
 20
250.7247340426
 41
2.5
 42
2.5
 43
2.5
 50
270.0
  0
ENDBLK
  5
289
100
AcDbEntity
  8
0
  6
BYBLOCK
 62
0
100
AcDbBlockEnd
  0
BLOCK
  5
28A
100
AcDbEntity
  8
0
100
AcDbBlockBegin
 62
2
  6
CONTINUOUS
  2
*D3
 70
65
 10
0.0
 20
0.0
  3
*D3
  1

  0
LINE
  5
28B
100
AcDbEntity
  8
0
100
AcDbLine
 62
2
  6
CONTINUOUS
 10
361.0196013894
 20
214.7247340426
 11
388.8630704803
 21
214.7247340426
  0
LINE
  5
28C
100
AcDbEntity
  8
0
100
AcDbLine
 62
2
  6
CONTINUOUS
 10
361.7318515712
 20
261.7247340426
 11
388.8630704803
 21
261.7247340426
  0
LINE
  5
28D
100
AcDbEntity
  8
0
100
AcDbLine
 62
2
  6
CONTINUOUS
 10
388.1130704803
 20
214.7247340426
 11
388.1130704803
 21
238.2247340426
  0
LINE
  5
28E
100
AcDbEntity
  8
0
100
AcDbLine
 62
2
  6
CONTINUOUS
 10
388.1130704803
 20
261.7247340426
 11
388.1130704803
 21
238.2247340426
  0
INSERT
  5
28F
100
AcDbEntity
  8
0
100
AcDbBlockReference
 62
2
  6
CONTINUOUS
  2
_CLOSED
 10
388.1130704803
 20
214.7247340426
 41
2.5
 42
2.5
 43
2.5
 50
270.0
  0
INSERT
  5
290
100
AcDbEntity
  8
0
100
AcDbBlockReference
 62
2
  6
CONTINUOUS
  2
_CLOSED
 10
388.1130704803
 20
261.7247340426
 41
2.5
 42
2.5
 43
2.5
 50
90.0
  0
ENDBLK
  5
291
100
AcDbEntity
  8
0
  6
BYBLOCK
 62
0
100
AcDbBlockEnd
  0
BLOCK
  5
292
100
AcDbEntity
  8
0
100
AcDbBlockBegin
 62
2
  6
CONTINUOUS
  2
*D4
 70
65
 10
0.0
 20
0.0
  3
*D4
  1

  0
LINE
  5
293
100
AcDbEntity
  8
0
100
AcDbLine
 62
2
  6
CONTINUOUS
 10
361.8122821166
 20
261.7247340426
 11
374.5448586021
 21
261.7247340426
  0
LINE
  5
294
100
AcDbEntity
  8
0
100
AcDbLine
 62
2
  6
CONTINUOUS
 10
361.7318515712
 20
230.7247340426
 11
374.5448586021
 21
230.7247340426
  0
LINE
  5
295
100
AcDbEntity
  8
0
100
AcDbLine
 62
2
  6
CONTINUOUS
 10
373.7948586021
 20
261.7247340426
 11
373.7948586021
 21
246.2247340426
  0
LINE
  5
296
100
AcDbEntity
  8
0
100
AcDbLine
 62
2
  6
CONTINUOUS
 10
373.7948586021
 20
230.7247340426
 11
373.7948586021
 21
246.2247340426
  0
INSERT
  5
297
100
AcDbEntity
  8
0
100
AcDbBlockReference
 62
2
  6
CONTINUOUS
  2
_CLOSED
 10
373.7948586021
 20
261.7247340426
 41
2.5
 42
2.5
 43
2.5
 50
90.0
  0
INSERT
  5
298
100
AcDbEntity
  8
0
100
AcDbBlockReference
 62
2
  6
CONTINUOUS
  2
_CLOSED
 10
373.7948586021
 20
230.7247340426
 41
2.5
 42
2.5
 43
2.5
 50
270.0
  0
ENDBLK
  5
299
100
AcDbEntity
  8
0
  6
BYBLOCK
 62
0
100
AcDbBlockEnd
  0
BLOCK
  5
29A
100
AcDbEntity
  8
0
100
AcDbBlockBegin
  2
*T1
 70
1
 10
0.0
 20
0.0
  3
*T1
  1

  0
LINE
  5
29B
100
AcDbEntity
  8
0
100
AcDbLine
 62
2
  6
CONTINUOUS
 10
0.0
 20
0.0
 11
90.0
 21
0.0
  0
LINE
  5
29C
100
AcDbEntity
  8
0
100
AcDbLine
 62
2
  6
CONTINUOUS
 10
0.0
 20
0.0
 11
0.0
 21
-40.0
  0
LINE
  5
29D
100
AcDbEntity
  8
0
100
AcDbLine
 62
2
  6
CONTINUOUS
 10
30.0
 20
-6.0
 11
90.0
 21
-6.0
  0
LINE
  5
29E
100
AcDbEntity
  8
0
100
AcDbLine
 62
2
  6
CONTINUOUS
 10
30.0
 20
-12.0
 11
90.0
 21
-12.0
  0
LINE
  5
29F
100
AcDbEntity
  8
0
100
AcDbLine
 62
2
  6
CONTINUOUS
 10
30.0
 20
-22.0
 11
90.0
 21
-22.0
  0
LINE
  5
2A0
100
AcDbEntity
  8
0
100
AcDbLine
 62
2
  6
CONTINUOUS
 10
0.0
 20
-27.0
 11
90.0
 21
-27.0
  0
LINE
  5
2A1
100
AcDbEntity
  8
0
100
AcDbLine
 62
2
  6
CONTINUOUS
 10
0.0
 20
-40.0
 11
90.0
 21
-40.0
  0
LINE
  5
2A2
100
AcDbEntity
  8
0
100
AcDbLine
 62
2
  6
CONTINUOUS
 10
30.0
 20
0.0
 11
30.0
 21
-27.0
  0
LINE
  5
2A3
100
AcDbEntity
  8
0
100
AcDbLine
 62
2
  6
CONTINUOUS
 10
70.0
 20
0.0
 11
70.0
 21
-12.0
  0
LINE
  5
2A4
100
AcDbEntity
  8
0
100
AcDbLine
 62
2
  6
CONTINUOUS
 10
90.0
 20
0.0
 11
90.0
 21
-40.0
  0
ENDBLK
  5
2A5
100
AcDbEntity
  8
0
100
AcDbBlockEnd
  0
ENDSEC
  0
SECTION
  2
ENTITIES
  0
DIMENSION
  5
2A6
100
AcDbEntity
  8
0
100
AcDbDimension
 62
2
  6
CONTINUOUS
  2
*D0
 10
157.775308501
 20
138.8441036057
 11
165.0992094362
 21
145.1361426512
 70
163
 71
1
 42
129.4
  1
<>
  3
DIMSTYLE_1
100
AcDbDiametricDimension
 15
53.3696383075
 25
62.3992474581
  0
DIMENSION
  5
2A7
100
AcDbEntity
  8
0
100
AcDbDimension
 62
2
  6
CONTINUOUS
  2
*D1
 10
167.5724734043
 20
201.7912655432
 11
100.35818769
 21
202.5412655432
 70
160
 71
2
 42
124.0
  1
%%c<>
  3
DIMSTYLE_2
100
AcDbAlignedDimension
 13
43.5724734043
 23
215.5833604102
 14
167.5724734043
 24
214.3266331375
100
AcDbRotatedDimension
  0
DIMENSION
  5
2A8
100
AcDbEntity
  8
0
100
AcDbDimension
 62
2
  6
CONTINUOUS
  2
*D2
 10
186.069159193
 20
250.7247340426
 11
185.319159193
 21
254.5104483283
 70
160
 71
2
 42
11.0
  3
DIMSTYLE_3
100
AcDbAlignedDimension
 13
173.979241753
 23
261.7247340426
 14
173.979241753
 24
250.7247340426
 50
270.0
100
AcDbRotatedDimension
  0
DIMENSION
  5
2A9
100
AcDbEntity
  8
0
100
AcDbDimension
 62
2
  6
CONTINUOUS
  2
*D3
 10
388.1130704803
 20
261.7247340426
 11
387.3630704803
 21
235.8675911854
 70
160
 71
2
 42
47.0
  3
DIMSTYLE_4
100
AcDbAlignedDimension
 13
361.0196013894
 23
214.7247340426
 14
361.7318515712
 24
261.7247340426
 50
90.0
100
AcDbRotatedDimension
  0
DIMENSION
  5
2AA
100
AcDbEntity
  8
0
100
AcDbDimension
 62
2
  6
CONTINUOUS
  2
*D4
 10
373.7948586021
 20
230.7247340426
 11
373.0448586021
 21
244.296162614
 70
160
 71
2
 42
31.0
  3
DIMSTYLE_4
100
AcDbAlignedDimension
 13
361.8122821166
 23
261.7247340426
 14
361.7318515712
 24
230.7247340426
 50
270.0
100
AcDbRotatedDimension
  0
INSERT
  5
2AB
100
AcDbEntity
  8
0
100
AcDbBlockReference
 62
2
  6
CONTINUOUS
  2
LOGO2_BL0
 10
333.6475659158
 20
36.9217920391
  0
LWPOLYLINE
  5
2AC
100
AcDbEntity
  8
0
100
AcDbPolyline
 62
2
  6
CONTINUOUS
 90
7
 70
0
 10
352.8090234375
 20
45.9217932129
 10
351.3090307617
 20
45.9217932129
 10
352.8090234375
 20
48.0646481323
 10
352.8090234375
 20
48.4932229614
 10
352.380435791
 20
48.9217913818
 10
351.7375927734
 20
48.9217913818
 10
351.3090307617
 20
48.2789355469
  0
LWPOLYLINE
  5
2AD
100
AcDbEntity
  8
0
100
AcDbPolyline
 62
2
  6
CONTINUOUS
 90
10
 70
0
 10
354.0947351074
 20
45.9217932129
 10
354.9518847656
 20
46.7789364624
 10
355.1661657715
 20
47.6360797119
 10
355.1661657715
 20
48.4932229614
 10
354.737578125
 20
48.9217913818
 10
354.0947351074
 20
48.9217913818
 10
353.6661730957
 20
48.4932229614
 10
353.6661730957
 20
47.6360797119
 10
354.0947351074
 20
47.2075048828
 10
355.0233032227
 20
47.2075048828
  0
LWPOLYLINE
  5
2AE
100
AcDbEntity
  8
0
100
AcDbPolyline
 62
2
  6
CONTINUOUS
 90
3
 70
0
 10
356.0233154297
 20
48.0646481323
 10
356.8804394531
 20
48.9217913818
 10
356.8804394531
 20
45.9217932129
  0
LINE
  5
2AF
100
AcDbEntity
  8
0
100
AcDbLine
 62
2
  6
CONTINUOUS
 10
357.7375891113
 20
45.9217932129
 11
359.4518884277
 21
45.9217932129
  0
LWPOLYLINE
  5
2B0
100
AcDbEntity
  8
0
100
AcDbPolyline
 62
2
  6
CONTINUOUS
 90
6
 70
0
 10
361.3804431152
 20
45.9217932129
 10
360.523293457
 20
45.9217932129
 10
360.0947314453
 20
46.3503616333
 10
360.0947314453
 20
48.4932229614
 10
360.523293457
 20
48.9217913818
 10
361.3804431152
 20
48.9217913818
  0
LINE
  5
2B1
100
AcDbEntity
  8
0
100
AcDbLine
 62
2
  6
CONTINUOUS
 10
362.5947363281
 20
45.9217932129
 11
364.3090100098
 21
45.9217932129
  0
LWPOLYLINE
  5
2B2
100
AcDbEntity
  8
0
100
AcDbPolyline
 62
2
  6
CONTINUOUS
 90
13
 70
0
 10
364.9518786621
 20
46.7789364624
 10
364.9518786621
 20
48.0646481323
 10
365.166159668
 20
48.4932229614
 10
365.5947216797
 20
48.9217913818
 10
365.8090283203
 20
48.9217913818
 10
366.237590332
 20
48.4932229614
 10
366.4518713379
 20
48.0646481323
 10
366.4518713379
 20
46.7789364624
 10
366.237590332
 20
46.3503616333
 10
365.8090283203
 20
45.9217932129
 10
365.5947216797
 20
45.9217932129
 10
365.166159668
 20
46.3503616333
 10
364.9518786621
 20
46.7789364624
  0
LWPOLYLINE
  5
2B3
100
AcDbEntity
  8
0
100
AcDbPolyline
 62
2
  6
CONTINUOUS
 90
13
 70
0
 10
367.3090209961
 20
46.7789364624
 10
367.3090209961
 20
48.0646481323
 10
367.523302002
 20
48.4932229614
 10
367.9518640137
 20
48.9217913818
 10
368.1661706543
 20
48.9217913818
 10
368.594732666
 20
48.4932229614
 10
368.8090136719
 20
48.0646481323
 10
368.8090136719
 20
46.7789364624
 10
368.594732666
 20
46.3503616333
 10
368.1661706543
 20
45.9217932129
 10
367.9518640137
 20
45.9217932129
 10
367.523302002
 20
46.3503616333
 10
367.3090209961
 20
46.7789364624
  0
LWPOLYLINE
  5
2B4
100
AcDbEntity
  8
0
100
AcDbPolyline
 62
2
  6
CONTINUOUS
 90
3
 70
0
 10
369.6661633301
 20
48.0646481323
 10
370.5233129883
 20
48.9217913818
 10
370.5233129883
 20
45.9217932129
  0
LWPOLYLINE
  5
2B5
100
AcDbEntity
  8
0
100
AcDbPolyline
 62
2
  6
CONTINUOUS
 90
7
 70
0
 10
391.3090063477
 20
45.6717901611
 10
391.3090063477
 20
49.1717944336
 10
392.5590087891
 20
49.1717944336
 10
393.0590148926
 20
48.6717947388
 10
393.0590148926
 20
47.6717889404
 10
392.5590087891
 20
47.1717892456
 10
391.3090063477
 20
47.1717892456
  0
LINE
  5
2B6
100
AcDbEntity
  8
0
100
AcDbLine
 62
2
  6
CONTINUOUS
 10
392.0590283203
 20
47.1717892456
 11
393.0590148926
 21
45.6717901611
  0
LWPOLYLINE
  5
2B7
100
AcDbEntity
  8
0
100
AcDbPolyline
 62
2
  6
CONTINUOUS
 90
9
 70
0
 10
395.5590197754
 20
45.6717901611
 10
394.5590075684
 20
45.6717901611
 10
394.0590270996
 20
46.171789856
 10
394.0590270996
 20
47.6717889404
 10
394.5590075684
 20
48.1717950439
 10
395.0590136719
 20
48.1717950439
 10
395.5590197754
 20
47.6717889404
 10
395.5590197754
 20
46.9217926025
 10
394.0590270996
 20
46.9217926025
  0
LWPOLYLINE
  5
2B8
100
AcDbEntity
  8
0
100
AcDbPolyline
 62
2
  6
CONTINUOUS
 90
3
 70
0
 10
396.5590063477
 20
48.1717950439
 10
397.3090283203
 20
45.6717901611
 10
398.0590246582
 20
48.1717950439
  0
LWPOLYLINE
  5
2B9
100
AcDbEntity
  8
0
100
AcDbPolyline
 62
2
  6
CONTINUOUS
 90
4
 70
0
 10
399.0590112305
 20
45.6717901611
 10
399.0590112305
 20
45.9217932129
 10
399.2256884766
 20
45.9217932129
 10
399.0590112305
 20
45.6717901611
  0
LWPOLYLINE
  5
2BA
100
AcDbEntity
  8
0
100
AcDbPolyline
 62
2
  6
CONTINUOUS
 90
4
 70
0
 10
399.0590112305
 20
47.1717892456
 10
399.0590112305
 20
47.4217922974
 10
399.2256884766
 20
47.4217922974
 10
399.0590112305
 20
47.1717892456
  0
LWPOLYLINE
  5
2BB
100
AcDbEntity
  8
0
100
AcDbPolyline
 62
2
  6
CONTINUOUS
 90
13
 70
0
 10
400.3090136719
 20
46.6717895508
 10
400.3090136719
 20
48.1717950439
 10
400.559029541
 20
48.6717947388
 10
401.0590100098
 20
49.1717944336
 10
401.3090258789
 20
49.1717944336
 10
401.8090063477
 20
48.6717947388
 10
402.0590222168
 20
48.1717950439
 10
402.0590222168
 20
46.6717895508
 10
401.8090063477
 20
46.171789856
 10
401.3090258789
 20
45.6717901611
 10
401.0590100098
 20
45.6717901611
 10
400.559029541
 20
46.171789856
 10
400.3090136719
 20
46.6717895508
  0
LWPOLYLINE
  5
2BC
100
AcDbEntity
  8
0
100
AcDbPolyline
 62
2
  6
CONTINUOUS
 90
3
 70
0
 10
403.0590087891
 20
48.1717950439
 10
404.0590209961
 20
49.1717944336
 10
404.0590209961
 20
45.6717901611
  0
LWPOLYLINE
  5
2BD
100
AcDbEntity
  8
0
100
AcDbPolyline
 62
2
  6
CONTINUOUS
 90
10
 70
0
 10
351.3090307617
 20
39.4217907715
 10
351.5590209961
 20
39.1717941284
 10
352.5590075684
 20
39.1717941284
 10
353.0590136719
 20
39.6717938232
 10
353.0590136719
 20
40.1717935181
 10
351.3090307617
 20
41.6717926025
 10
351.3090307617
 20
42.1717922974
 10
351.8090112305
 20
42.6717919922
 10
352.8090234375
 20
42.6717919922
 10
353.0590136719
 20
42.4217889404
  0
LWPOLYLINE
  5
2BE
100
AcDbEntity
  8
0
100
AcDbPolyline
 62
2
  6
CONTINUOUS
 90
6
 70
0
 10
355.3090283203
 20
39.1717941284
 10
354.3090161133
 20
39.1717941284
 10
354.0590258789
 20
39.4217907715
 10
354.0590258789
 20
41.4217895508
 10
354.3090161133
 20
41.6717926025
 10
355.3090283203
 20
41.6717926025
  0
LWPOLYLINE
  5
2BF
100
AcDbEntity
  8
0
100
AcDbPolyline
 62
2
  6
CONTINUOUS
 90
4
 70
0
 10
357.8090075684
 20
39.1717941284
 10
357.8090075684
 20
41.1717929077
 10
357.559017334
 20
41.6717926025
 10
356.3090148926
 20
41.6717926025
  0
LWPOLYLINE
  5
2C0
100
AcDbEntity
  8
0
100
AcDbPolyline
 62
2
  6
CONTINUOUS
 90
6
 70
0
 10
357.8090075684
 20
39.1717941284
 10
356.8090209961
 20
39.1717941284
 10
356.3090148926
 20
39.4217907715
 10
356.3090148926
 20
40.1717935181
 10
356.8090209961
 20
40.4217901611
 10
357.8090075684
 20
40.4217901611
  0
LWPOLYLINE
  5
2C1
100
AcDbEntity
  8
0
100
AcDbPolyline
 62
2
  6
CONTINUOUS
 90
4
 70
0
 10
359.5590161133
 20
39.1717941284
 10
359.0590100098
 20
39.1717941284
 10
358.8090197754
 20
39.4217907715
 10
358.8090197754
 20
42.6717919922
  0
LWPOLYLINE
  5
2C2
100
AcDbEntity
  8
0
100
AcDbPolyline
 62
2
  6
CONTINUOUS
 90
9
 70
0
 10
362.0590209961
 20
39.1717941284
 10
361.0590087891
 20
39.1717941284
 10
360.5590283203
 20
39.6717938232
 10
360.5590283203
 20
41.1717929077
 10
361.0590087891
 20
41.6717926025
 10
361.5590148926
 20
41.6717926025
 10
362.0590209961
 20
41.1717929077
 10
362.0590209961
 20
40.4217901611
 10
360.5590283203
 20
40.4217901611
  0
LWPOLYLINE
  5
2C3
100
AcDbEntity
  8
0
100
AcDbPolyline
 62
2
  6
CONTINUOUS
 90
4
 70
0
 10
363.0590075684
 20
39.1717941284
 10
363.0590075684
 20
39.4217907715
 10
363.2256848145
 20
39.4217907715
 10
363.0590075684
 20
39.1717941284
  0
LWPOLYLINE
  5
2C4
100
AcDbEntity
  8
0
100
AcDbPolyline
 62
2
  6
CONTINUOUS
 90
4
 70
0
 10
363.0590075684
 20
40.6717932129
 10
363.0590075684
 20
40.921789856
 10
363.2256848145
 20
40.921789856
 10
363.0590075684
 20
40.6717932129
  0
LWPOLYLINE
  5
2C5
100
AcDbEntity
  8
0
100
AcDbPolyline
 62
2
  6
CONTINUOUS
 90
3
 70
0
 10
364.3090100098
 20
41.6717926025
 10
365.3090222168
 20
42.6717919922
 10
365.3090222168
 20
39.1717941284
  0
LWPOLYLINE
  5
2C6
100
AcDbEntity
  8
0
100
AcDbPolyline
 62
2
  6
CONTINUOUS
 90
4
 70
0
 10
366.3090087891
 20
39.1717941284
 10
366.3090087891
 20
39.4217907715
 10
366.4756860352
 20
39.4217907715
 10
366.3090087891
 20
39.1717941284
  0
LWPOLYLINE
  5
2C7
100
AcDbEntity
  8
0
100
AcDbPolyline
 62
2
  6
CONTINUOUS
 90
4
 70
0
 10
366.3090087891
 20
40.6717932129
 10
366.3090087891
 20
40.921789856
 10
366.4756860352
 20
40.921789856
 10
366.3090087891
 20
40.6717932129
  0
LWPOLYLINE
  5
2C8
100
AcDbEntity
  8
0
100
AcDbPolyline
 62
2
  6
CONTINUOUS
 90
3
 70
0
 10
367.5590112305
 20
41.6717926025
 10
368.5590234375
 20
42.6717919922
 10
368.5590234375
 20
39.1717941284
  0
LWPOLYLINE
  5
2C9
100
AcDbEntity
  8
0
100
AcDbPolyline
 62
2
  6
CONTINUOUS
 90
3
 70
0
 10
391.3090063477
 20
39.6717938232
 10
392.3090185547
 20
43.171791687
 10
393.3090307617
 20
39.6717938232
  0
LINE
  5
2CA
100
AcDbEntity
  8
0
100
AcDbLine
 62
2
  6
CONTINUOUS
 10
391.6423608398
 20
40.6717932129
 11
392.9756762695
 21
40.6717932129
  0
LWPOLYLINE
  5
2CB
100
AcDbEntity
  8
0
100
AcDbPolyline
 62
2
  6
CONTINUOUS
 90
6
 70
0
 10
394.309017334
 20
39.6717938232
 10
395.5590197754
 20
39.6717938232
 10
395.8090100098
 20
39.9217904663
 10
395.8090100098
 20
41.1717929077
 10
395.309029541
 20
41.6717926025
 10
394.8090234375
 20
41.6717926025
  0
LWPOLYLINE
  5
2CC
100
AcDbEntity
  8
0
100
AcDbPolyline
 62
2
  6
CONTINUOUS
 90
5
 70
0
 10
395.309029541
 20
41.6717926025
 10
395.7256970215
 20
41.9217892456
 10
395.7256970215
 20
42.6717919922
 10
395.309029541
 20
43.171791687
 10
394.309017334
 20
43.171791687
  0
LWPOLYLINE
  5
2CD
100
AcDbEntity
  8
0
100
AcDbPolyline
 62
2
  6
CONTINUOUS
 90
8
 70
0
 10
351.3090307617
 20
31.6717922974
 10
351.3090307617
 20
35.1717901611
 10
352.0590270996
 20
35.1717901611
 10
352.309017334
 20
35.0884579468
 10
352.8090234375
 20
34.6717904663
 10
352.8090234375
 20
33.9217941284
 10
352.309017334
 20
33.4217944336
 10
351.3090307617
 20
33.4217944336
  0
LWPOLYLINE
  5
2CE
100
AcDbEntity
  8
0
100
AcDbPolyline
 62
2
  6
CONTINUOUS
 90
6
 70
0
 10
352.309017334
 20
33.4217944336
 10
352.5590075684
 20
33.4217944336
 10
353.0590136719
 20
32.9217947388
 10
353.0590136719
 20
32.1717919922
 10
352.5590075684
 20
31.6717922974
 10
351.3090307617
 20
31.6717922974
  0
LWPOLYLINE
  5
2CF
100
AcDbEntity
  8
0
100
AcDbPolyline
 62
2
  6
CONTINUOUS
 90
5
 70
0
 10
354.0590258789
 20
31.6717922974
 10
354.0590258789
 20
34.1717907715
 10
355.0590124512
 20
34.1717907715
 10
355.2256896973
 20
33.9217941284
 10
355.2256896973
 20
33.4217944336
  0
LINE
  5
2D0
100
AcDbEntity
  8
0
100
AcDbLine
 62
2
  6
CONTINUOUS
 10
356.8090209961
 20
31.6717922974
 11
356.8090209961
 21
34.1717907715
  0
LWPOLYLINE
  5
2D1
100
AcDbEntity
  8
0
100
AcDbPolyline
 62
2
  6
CONTINUOUS
 90
4
 70
0
 10
356.8090209961
 20
34.9217935181
 10
356.8090209961
 20
35.1717901611
 10
356.8923596191
 20
35.1717901611
 10
356.8090209961
 20
34.9217935181
  0
LWPOLYLINE
  5
2D2
100
AcDbEntity
  8
0
100
AcDbPolyline
 62
2
  6
CONTINUOUS
 90
9
 70
0
 10
358.1423620605
 20
30.8384573364
 10
359.392364502
 20
30.8384573364
 10
359.6423547363
 20
31.1717926025
 10
359.6423547363
 20
34.1717907715
 10
358.3923522949
 20
34.1717907715
 10
358.1423620605
 20
33.9217941284
 10
358.1423620605
 20
31.9217889404
 10
358.3923522949
 20
31.6717922974
 10
359.6423547363
 20
31.6717922974
  0
LINE
  5
2D3
100
AcDbEntity
  8
0
100
AcDbLine
 62
2
  6
CONTINUOUS
 10
360.6423413086
 20
31.6717922974
 11
360.6423413086
 21
35.1717901611
  0
LWPOLYLINE
  5
2D4
100
AcDbEntity
  8
0
100
AcDbPolyline
 62
2
  6
CONTINUOUS
 90
4
 70
0
 10
360.6423413086
 20
34.1717907715
 10
361.89234375
 20
34.1717907715
 10
362.1423596191
 20
33.9217941284
 10
362.1423596191
 20
31.6717922974
  0
LINE
  5
2D5
100
AcDbEntity
  8
0
100
AcDbLine
 62
2
  6
CONTINUOUS
 10
363.5590136719
 20
31.6717922974
 11
363.5590136719
 21
35.1717901611
  0
LINE
  5
2D6
100
AcDbEntity
  8
0
100
AcDbLine
 62
2
  6
CONTINUOUS
 10
363.1423461914
 20
34.1717907715
 11
364.1423583984
 21
34.1717907715
  0
LWPOLYLINE
  5
2D7
100
AcDbEntity
  8
0
100
AcDbPolyline
 62
2
  6
CONTINUOUS
 90
10
 70
0
 10
368.3923461914
 20
31.6717922974
 10
369.3923583984
 20
32.671791687
 10
369.6423486328
 20
33.6717910767
 10
369.6423486328
 20
34.6717904663
 10
369.1423425293
 20
35.1717901611
 10
368.3923461914
 20
35.1717901611
 10
367.8923400879
 20
34.6717904663
 10
367.8923400879
 20
33.6717910767
 10
368.3923461914
 20
33.1717913818
 10
369.4756970215
 20
33.1717913818
  0
LWPOLYLINE
  5
2D8
100
AcDbEntity
  8
0
100
AcDbPolyline
 62
2
  6
CONTINUOUS
 90
9
 70
0
 10
371.3923571777
 20
32.2551242065
 10
371.4756958008
 20
32.0884597778
 10
371.4756958008
 20
32.0051275635
 10
371.3923571777
 20
31.8384567261
 10
371.2256799316
 20
31.8384567261
 10
371.1423413086
 20
32.0051275635
 10
371.1423413086
 20
32.0884597778
 10
371.2256799316
 20
32.2551242065
 10
371.3923571777
 20
32.2551242065
  0
LWPOLYLINE
  5
2D9
100
AcDbEntity
  8
0
100
AcDbPolyline
 62
2
  6
CONTINUOUS
 90
4
 70
0
 10
372.6423596191
 20
34.4217938232
 10
372.6423596191
 20
35.1717901611
 10
374.3923425293
 20
35.1717901611
 10
373.392355957
 20
31.6717922974
  0
LWPOLYLINE
  5
2DA
100
AcDbEntity
  8
0
100
AcDbPolyline
 62
2
  6
CONTINUOUS
 90
7
 70
0
 10
351.3090307617
 20
24.6717933655
 10
351.3090307617
 20
27.1717950439
 10
352.2018640137
 20
27.1717950439
 10
352.5590075684
 20
26.8146514893
 10
352.5590075684
 20
25.0289337158
 10
352.2018640137
 20
24.6717933655
 10
351.3090307617
 20
24.6717933655
  0
LWPOLYLINE
  5
2DB
100
AcDbEntity
  8
0
100
AcDbPolyline
 62
2
  6
CONTINUOUS
 90
3
 70
0
 10
353.5709143066
 20
24.6717933655
 10
354.285201416
 20
27.1717950439
 10
354.9994885254
 20
24.6717933655
  0
LINE
  5
2DC
100
AcDbEntity
  8
0
100
AcDbLine
 62
2
  6
CONTINUOUS
 10
353.8090100098
 20
25.3860772705
 11
354.7613928223
 21
25.3860772705
  0
LINE
  5
2DD
100
AcDbEntity
  8
0
100
AcDbLine
 62
2
  6
CONTINUOUS
 10
356.4280627441
 20
24.6717933655
 11
356.4280627441
 21
27.1717950439
  0
LINE
  5
2DE
100
AcDbEntity
  8
0
100
AcDbLine
 62
2
  6
CONTINUOUS
 10
355.7137756348
 20
27.1717950439
 11
357.1423498535
 21
27.1717950439
  0
LWPOLYLINE
  5
2DF
100
AcDbEntity
  8
0
100
AcDbPolyline
 62
2
  6
CONTINUOUS
 90
3
 70
0
 10
357.8566369629
 20
24.6717933655
 10
357.8566369629
 20
27.1717950439
 10
358.928067627
 20
27.1717950439
  0
LINE
  5
2E0
100
AcDbEntity
  8
0
100
AcDbLine
 62
2
  6
CONTINUOUS
 10
358.5709240723
 20
26.1003643799
 11
357.8566369629
 21
26.1003643799
  0
LINE
  5
2E1
100
AcDbEntity
  8
0
100
AcDbLine
 62
2
  6
CONTINUOUS
 10
357.8566369629
 20
24.6717933655
 11
358.928067627
 21
24.6717933655
  0
LWPOLYLINE
  5
2E2
100
AcDbEntity
  8
0
100
AcDbPolyline
 62
2
  6
CONTINUOUS
 90
4
 70
0
 10
359.6423547363
 20
24.6717933655
 10
359.6423547363
 20
24.8503619385
 10
359.7614025879
 20
24.8503619385
 10
359.6423547363
 20
24.6717933655
  0
LWPOLYLINE
  5
2E3
100
AcDbEntity
  8
0
100
AcDbPolyline
 62
2
  6
CONTINUOUS
 90
4
 70
0
 10
359.6423547363
 20
25.7432208252
 10
359.6423547363
 20
25.9217926025
 10
359.7614025879
 20
25.9217926025
 10
359.6423547363
 20
25.7432208252
  0
LWPOLYLINE
  5
2E4
100
AcDbEntity
  8
0
100
AcDbPolyline
 62
2
  6
CONTINUOUS
 90
3
 70
0
 10
360.535213623
 20
26.4575079346
 10
361.2495007324
 20
27.1717950439
 10
361.2495007324
 20
24.6717933655
  0
LWPOLYLINE
  5
2E5
100
AcDbEntity
  8
0
100
AcDbPolyline
 62
2
  6
CONTINUOUS
 90
4
 70
0
 10
361.9637878418
 20
26.6360797119
 10
361.9637878418
 20
27.1717950439
 10
363.2137902832
 20
27.1717950439
 10
362.4995031738
 20
24.6717933655
  0
LINE
  5
2E6
100
AcDbEntity
  8
0
100
AcDbLine
 62
2
  6
CONTINUOUS
 10
365.3566259766
 20
26.9336993408
 11
363.9280773926
 21
24.7313172913
  0
LWPOLYLINE
  5
2E7
100
AcDbEntity
  8
0
100
AcDbPolyline
 62
2
  6
CONTINUOUS
 90
13
 70
0
 10
365.8328173828
 20
25.3860772705
 10
365.8328173828
 20
26.4575079346
 10
366.0113891602
 20
26.8146514893
 10
366.3685327148
 20
27.1717950439
 10
366.5471044922
 20
27.1717950439
 10
366.9042480469
 20
26.8146514893
 10
367.0828198242
 20
26.4575079346
 10
367.0828198242
 20
25.3860772705
 10
366.9042480469
 20
25.0289337158
 10
366.5471044922
 20
24.6717933655
 10
366.3685327148
 20
24.6717933655
 10
366.0113891602
 20
25.0289337158
 10
365.8328173828
 20
25.3860772705
  0
LWPOLYLINE
  5
2E8
100
AcDbEntity
  8
0
100
AcDbPolyline
 62
2
  6
CONTINUOUS
 90
8
 70
0
 10
367.7971069336
 20
24.6717933655
 10
368.511394043
 20
24.6717933655
 10
368.8685375977
 20
25.0289337158
 10
368.8685375977
 20
25.7432208252
 10
368.511394043
 20
26.1003643799
 10
367.7971069336
 20
26.1003643799
 10
367.7971069336
 20
27.1717950439
 10
368.8685375977
 20
27.1717950439
  0
LINE
  5
2E9
100
AcDbEntity
  8
0
100
AcDbLine
 62
2
  6
CONTINUOUS
 10
371.0113989258
 20
26.9336993408
 11
369.582824707
 21
24.7313172913
  0
LWPOLYLINE
  5
2EA
100
AcDbEntity
  8
0
100
AcDbPolyline
 62
2
  6
CONTINUOUS
 90
7
 70
0
 10
372.7375927734
 20
24.6717933655
 10
371.487590332
 20
24.6717933655
 10
372.7375927734
 20
26.4575079346
 10
372.7375927734
 20
26.8146514893
 10
372.3804492187
 20
27.1717950439
 10
371.8447338867
 20
27.1717950439
 10
371.487590332
 20
26.6360797119
  0
LWPOLYLINE
  5
2EB
100
AcDbEntity
  8
0
100
AcDbPolyline
 62
2
  6
CONTINUOUS
 90
13
 70
0
 10
373.4518798828
 20
25.3860772705
 10
373.4518798828
 20
26.4575079346
 10
373.6304516602
 20
26.8146514893
 10
373.9875952148
 20
27.1717950439
 10
374.1661669922
 20
27.1717950439
 10
374.5233105469
 20
26.8146514893
 10
374.7018823242
 20
26.4575079346
 10
374.7018823242
 20
25.3860772705
 10
374.5233105469
 20
25.0289337158
 10
374.1661669922
 20
24.6717933655
 10
373.9875952148
 20
24.6717933655
 10
373.6304516602
 20
25.0289337158
 10
373.4518798828
 20
25.3860772705
  0
LWPOLYLINE
  5
2EC
100
AcDbEntity
  8
0
100
AcDbPolyline
 62
2
  6
CONTINUOUS
 90
3
 70
0
 10
375.4161694336
 20
26.4575079346
 10
376.130456543
 20
27.1717950439
 10
376.130456543
 20
24.6717933655
  0
LWPOLYLINE
  5
2ED
100
AcDbEntity
  8
0
100
AcDbPolyline
 62
2
  6
CONTINUOUS
 90
4
 70
0
 10
376.8447436523
 20
26.6360797119
 10
376.8447436523
 20
27.1717950439
 10
378.094720459
 20
27.1717950439
 10
377.3804589844
 20
24.6717933655
  0
LWPOLYLINE
  5
2EE
100
AcDbEntity
  8
0
100
AcDbPolyline
 62
2
  6
CONTINUOUS
 90
3
 70
0
 10
321.3090234375
 20
20.859291687
 10
321.9518664551
 20
23.1092935181
 10
322.5947351074
 20
20.859291687
  0
LINE
  5
2EF
100
AcDbEntity
  8
0
100
AcDbLine
 62
2
  6
CONTINUOUS
 10
321.5233044434
 20
21.5021507263
 11
322.3804541016
 21
21.5021507263
  0
LWPOLYLINE
  5
2F0
100
AcDbEntity
  8
0
100
AcDbPolyline
 62
2
  6
CONTINUOUS
 90
5
 70
0
 10
323.237578125
 20
20.859291687
 10
323.237578125
 20
22.4664344788
 10
324.041151123
 20
22.4664344788
 10
324.2018811035
 20
22.30572052
 10
324.2018811035
 20
20.859291687
  0
LWPOLYLINE
  5
2F1
100
AcDbEntity
  8
0
100
AcDbPolyline
 62
2
  6
CONTINUOUS
 90
3
 70
0
 10
324.8447241211
 20
20.323576355
 10
325.1661584473
 20
20.323576355
 10
325.8090270996
 20
22.4664344788
  0
LINE
  5
2F2
100
AcDbEntity
  8
0
100
AcDbLine
 62
2
  6
CONTINUOUS
 10
324.8447241211
 20
22.4664344788
 11
325.3268884277
 21
20.859291687
  0
LINE
  5
2F3
100
AcDbEntity
  8
0
100
AcDbLine
 62
2
  6
CONTINUOUS
 10
328.3268737793
 20
20.859291687
 11
328.3268737793
 21
22.4664344788
  0
LWPOLYLINE
  5
2F4
100
AcDbEntity
  8
0
100
AcDbPolyline
 62
2
  6
CONTINUOUS
 90
4
 70
0
 10
328.3268737793
 20
22.948576355
 10
328.3268737793
 20
23.1092935181
 10
328.3804504395
 20
23.1092935181
 10
328.3268737793
 20
22.948576355
  0
LWPOLYLINE
  5
2F5
100
AcDbEntity
  8
0
100
AcDbPolyline
 62
2
  6
CONTINUOUS
 90
5
 70
0
 10
329.1840234375
 20
20.859291687
 10
329.1840234375
 20
22.4664344788
 10
329.9875964355
 20
22.4664344788
 10
330.1483007812
 20
22.30572052
 10
330.1483007812
 20
20.859291687
  0
LINE
  5
2F6
100
AcDbEntity
  8
0
100
AcDbLine
 62
2
  6
CONTINUOUS
 10
331.0590270996
 20
20.859291687
 11
331.0590270996
 21
23.1092935181
  0
LINE
  5
2F7
100
AcDbEntity
  8
0
100
AcDbLine
 62
2
  6
CONTINUOUS
 10
330.7911694336
 20
22.4664344788
 11
331.4340124512
 21
22.4664344788
  0
LWPOLYLINE
  5
2F8
100
AcDbEntity
  8
0
100
AcDbPolyline
 62
2
  6
CONTINUOUS
 90
9
 70
0
 10
333.0411584473
 20
20.859291687
 10
332.3983154297
 20
20.859291687
 10
332.0768811035
 20
21.1807196045
 10
332.0768811035
 20
22.1450065613
 10
332.3983154297
 20
22.4664344788
 10
332.7197241211
 20
22.4664344788
 10
333.0411584473
 20
22.1450065613
 10
333.0411584473
 20
21.6628646851
 10
332.0768811035
 20
21.6628646851
  0
LWPOLYLINE
  5
2F9
100
AcDbEntity
  8
0
100
AcDbPolyline
 62
2
  6
CONTINUOUS
 90
9
 70
0
 10
333.6840270996
 20
20.323576355
 10
334.4876000977
 20
20.323576355
 10
334.6483044434
 20
20.5378637695
 10
334.6483044434
 20
22.4664344788
 10
333.8447314453
 20
22.4664344788
 10
333.6840270996
 20
22.30572052
 10
333.6840270996
 20
21.0200056458
 10
333.8447314453
 20
20.859291687
 10
334.6483044434
 20
20.859291687
  0
LWPOLYLINE
  5
2FA
100
AcDbEntity
  8
0
100
AcDbPolyline
 62
2
  6
CONTINUOUS
 90
5
 70
0
 10
335.2911730957
 20
20.859291687
 10
335.2911730957
 20
22.4664344788
 10
335.9340161133
 20
22.4664344788
 10
336.0411694336
 20
22.30572052
 10
336.0411694336
 20
21.9842926025
  0
LWPOLYLINE
  5
2FB
100
AcDbEntity
  8
0
100
AcDbPolyline
 62
2
  6
CONTINUOUS
 90
4
 70
0
 10
337.7018664551
 20
20.859291687
 10
337.7018664551
 20
22.1450065613
 10
337.5411621094
 20
22.4664344788
 10
336.7375891113
 20
22.4664344788
  0
LWPOLYLINE
  5
2FC
100
AcDbEntity
  8
0
100
AcDbPolyline
 62
2
  6
CONTINUOUS
 90
6
 70
0
 10
337.7018664551
 20
20.859291687
 10
337.0590234375
 20
20.859291687
 10
336.7375891113
 20
21.0200056458
 10
336.7375891113
 20
21.5021507263
 10
337.0590234375
 20
21.6628646851
 10
337.7018664551
 20
21.6628646851
  0
LWPOLYLINE
  5
2FD
100
AcDbEntity
  8
0
100
AcDbPolyline
 62
2
  6
CONTINUOUS
 90
4
 70
0
 10
338.8268737793
 20
20.859291687
 10
338.5054394531
 20
20.859291687
 10
338.3447351074
 20
21.0200056458
 10
338.3447351074
 20
23.1092935181
  0
LWPOLYLINE
  5
2FE
100
AcDbEntity
  8
0
100
AcDbPolyline
 62
2
  6
CONTINUOUS
 90
9
 70
0
 10
341.2375927734
 20
21.1807196045
 10
341.2375927734
 20
22.1450065613
 10
341.5590270996
 20
22.4664344788
 10
341.880435791
 20
22.4664344788
 10
342.2018701172
 20
22.1450065613
 10
342.2018701172
 20
21.1807196045
 10
341.880435791
 20
20.859291687
 10
341.5590270996
 20
20.859291687
 10
341.2375927734
 20
21.1807196045
  0
LWPOLYLINE
  5
2FF
100
AcDbEntity
  8
0
100
AcDbPolyline
 62
2
  6
CONTINUOUS
 90
5
 70
0
 10
342.8447387695
 20
20.859291687
 10
342.8447387695
 20
22.4664344788
 10
343.4875817871
 20
22.4664344788
 10
343.5947351074
 20
22.30572052
 10
343.5947351074
 20
21.9842926025
  0
LWPOLYLINE
  5
300
100
AcDbEntity
  8
0
100
AcDbPolyline
 62
2
  6
CONTINUOUS
 90
7
 70
0
 10
346.0590307617
 20
20.323576355
 10
346.0590307617
 20
22.4664344788
 10
346.862578125
 20
22.4664344788
 10
347.0233081055
 20
22.30572052
 10
347.0233081055
 20
21.0200056458
 10
346.862578125
 20
20.859291687
 10
346.0590307617
 20
20.859291687
  0
LWPOLYLINE
  5
301
100
AcDbEntity
  8
0
100
AcDbPolyline
 62
2
  6
CONTINUOUS
 90
4
 70
0
 10
348.6304541016
 20
20.859291687
 10
348.6304541016
 20
22.1450065613
 10
348.4697241211
 20
22.4664344788
 10
347.666151123
 20
22.4664344788
  0
LWPOLYLINE
  5
302
100
AcDbEntity
  8
0
100
AcDbPolyline
 62
2
  6
CONTINUOUS
 90
6
 70
0
 10
348.6304541016
 20
20.859291687
 10
347.9875854492
 20
20.859291687
 10
347.666151123
 20
21.0200056458
 10
347.666151123
 20
21.5021507263
 10
347.9875854492
 20
21.6628646851
 10
348.6304541016
 20
21.6628646851
  0
LWPOLYLINE
  5
303
100
AcDbEntity
  8
0
100
AcDbPolyline
 62
2
  6
CONTINUOUS
 90
5
 70
0
 10
349.2732971191
 20
20.859291687
 10
349.2732971191
 20
22.4664344788
 10
349.9161657715
 20
22.4664344788
 10
350.023293457
 20
22.30572052
 10
350.023293457
 20
21.9842926025
  0
LINE
  5
304
100
AcDbEntity
  8
0
100
AcDbLine
 62
2
  6
CONTINUOUS
 10
350.9875964355
 20
20.859291687
 11
350.9875964355
 21
23.1092935181
  0
LINE
  5
305
100
AcDbEntity
  8
0
100
AcDbLine
 62
2
  6
CONTINUOUS
 10
350.7197387695
 20
22.4664344788
 11
351.3625817871
 21
22.4664344788
  0
LINE
  5
306
100
AcDbEntity
  8
0
100
AcDbLine
 62
2
  6
CONTINUOUS
 10
352.3268847656
 20
20.859291687
 11
352.3268847656
 21
22.4664344788
  0
LWPOLYLINE
  5
307
100
AcDbEntity
  8
0
100
AcDbPolyline
 62
2
  6
CONTINUOUS
 90
4
 70
0
 10
352.3268847656
 20
22.948576355
 10
352.3268847656
 20
23.1092935181
 10
352.380435791
 20
23.1092935181
 10
352.3268847656
 20
22.948576355
  0
LWPOLYLINE
  5
308
100
AcDbEntity
  8
0
100
AcDbPolyline
 62
2
  6
CONTINUOUS
 90
4
 70
0
 10
354.1483117676
 20
20.859291687
 10
354.1483117676
 20
22.1450065613
 10
353.9875817871
 20
22.4664344788
 10
353.1840087891
 20
22.4664344788
  0
LWPOLYLINE
  5
309
100
AcDbEntity
  8
0
100
AcDbPolyline
 62
2
  6
CONTINUOUS
 90
6
 70
0
 10
354.1483117676
 20
20.859291687
 10
353.5054431152
 20
20.859291687
 10
353.1840087891
 20
21.0200056458
 10
353.1840087891
 20
21.5021507263
 10
353.5054431152
 20
21.6628646851
 10
354.1483117676
 20
21.6628646851
  0
LWPOLYLINE
  5
30A
100
AcDbEntity
  8
0
100
AcDbPolyline
 62
2
  6
CONTINUOUS
 90
4
 70
0
 10
355.273293457
 20
20.859291687
 10
354.9518847656
 20
20.859291687
 10
354.7911547852
 20
21.0200056458
 10
354.7911547852
 20
23.1092935181
  0
LWPOLYLINE
  5
30B
100
AcDbEntity
  8
0
100
AcDbPolyline
 62
2
  6
CONTINUOUS
 90
5
 70
0
 10
357.6840124512
 20
20.859291687
 10
357.6840124512
 20
22.4664344788
 10
358.3268811035
 20
22.4664344788
 10
358.4340087891
 20
22.30572052
 10
358.4340087891
 20
21.9842926025
  0
LWPOLYLINE
  5
30C
100
AcDbEntity
  8
0
100
AcDbPolyline
 62
2
  6
CONTINUOUS
 90
9
 70
0
 10
360.0947314453
 20
20.859291687
 10
359.4518884277
 20
20.859291687
 10
359.1304541016
 20
21.1807196045
 10
359.1304541016
 20
22.1450065613
 10
359.4518884277
 20
22.4664344788
 10
359.7732971191
 20
22.4664344788
 10
360.0947314453
 20
22.1450065613
 10
360.0947314453
 20
21.6628646851
 10
359.1304541016
 20
21.6628646851
  0
LWPOLYLINE
  5
30D
100
AcDbEntity
  8
0
100
AcDbPolyline
 62
2
  6
CONTINUOUS
 90
7
 70
0
 10
360.7376000977
 20
20.323576355
 10
360.7376000977
 20
22.4664344788
 10
361.5411730957
 20
22.4664344788
 10
361.7018774414
 20
22.30572052
 10
361.7018774414
 20
21.0200056458
 10
361.5411730957
 20
20.859291687
 10
360.7376000977
 20
20.859291687
  0
LWPOLYLINE
  5
30E
100
AcDbEntity
  8
0
100
AcDbPolyline
 62
2
  6
CONTINUOUS
 90
5
 70
0
 10
362.344720459
 20
20.859291687
 10
362.344720459
 20
22.4664344788
 10
362.9875891113
 20
22.4664344788
 10
363.0947424316
 20
22.30572052
 10
363.0947424316
 20
21.9842926025
  0
LWPOLYLINE
  5
30F
100
AcDbEntity
  8
0
100
AcDbPolyline
 62
2
  6
CONTINUOUS
 90
9
 70
0
 10
363.7911621094
 20
21.1807196045
 10
363.7911621094
 20
22.1450065613
 10
364.1125964355
 20
22.4664344788
 10
364.4340307617
 20
22.4664344788
 10
364.7554394531
 20
22.1450065613
 10
364.7554394531
 20
21.1807196045
 10
364.4340307617
 20
20.859291687
 10
364.1125964355
 20
20.859291687
 10
363.7911621094
 20
21.1807196045
  0
LWPOLYLINE
  5
310
100
AcDbEntity
  8
0
100
AcDbPolyline
 62
2
  6
CONTINUOUS
 90
7
 70
0
 10
366.3625854492
 20
23.1092935181
 10
366.3625854492
 20
20.859291687
 10
365.7197424316
 20
20.859291687
 10
365.3983081055
 20
21.0200056458
 10
365.3983081055
 20
22.30572052
 10
365.7197424316
 20
22.4664344788
 10
366.3625854492
 20
22.4664344788
  0
LWPOLYLINE
  5
311
100
AcDbEntity
  8
0
100
AcDbPolyline
 62
2
  6
CONTINUOUS
 90
5
 70
0
 10
367.0054541016
 20
22.4664344788
 10
367.0054541016
 20
21.0200056458
 10
367.1661584473
 20
20.859291687
 10
367.9697314453
 20
20.859291687
 10
367.9697314453
 20
22.4664344788
  0
LWPOLYLINE
  5
312
100
AcDbEntity
  8
0
100
AcDbPolyline
 62
2
  6
CONTINUOUS
 90
6
 70
0
 10
369.4161730957
 20
20.859291687
 10
368.7733044434
 20
20.859291687
 10
368.6126000977
 20
21.0200056458
 10
368.6126000977
 20
22.30572052
 10
368.7733044434
 20
22.4664344788
 10
369.4161730957
 20
22.4664344788
  0
LINE
  5
313
100
AcDbEntity
  8
0
100
AcDbLine
 62
2
  6
CONTINUOUS
 10
370.3268737793
 20
20.859291687
 11
370.3268737793
 21
23.1092935181
  0
LINE
  5
314
100
AcDbEntity
  8
0
100
AcDbLine
 62
2
  6
CONTINUOUS
 10
370.0590161133
 20
22.4664344788
 11
370.7018847656
 21
22.4664344788
  0
LINE
  5
315
100
AcDbEntity
  8
0
100
AcDbLine
 62
2
  6
CONTINUOUS
 10
371.6661621094
 20
20.859291687
 11
371.6661621094
 21
22.4664344788
  0
LWPOLYLINE
  5
316
100
AcDbEntity
  8
0
100
AcDbPolyline
 62
2
  6
CONTINUOUS
 90
4
 70
0
 10
371.6661621094
 20
22.948576355
 10
371.6661621094
 20
23.1092935181
 10
371.7197387695
 20
23.1092935181
 10
371.6661621094
 20
22.948576355
  0
LWPOLYLINE
  5
317
100
AcDbEntity
  8
0
100
AcDbPolyline
 62
2
  6
CONTINUOUS
 90
9
 70
0
 10
372.5233117676
 20
21.1807196045
 10
372.5233117676
 20
22.1450065613
 10
372.844720459
 20
22.4664344788
 10
373.1661547852
 20
22.4664344788
 10
373.4875891113
 20
22.1450065613
 10
373.4875891113
 20
21.1807196045
 10
373.1661547852
 20
20.859291687
 10
372.844720459
 20
20.859291687
 10
372.5233117676
 20
21.1807196045
  0
LWPOLYLINE
  5
318
100
AcDbEntity
  8
0
100
AcDbPolyline
 62
2
  6
CONTINUOUS
 90
5
 70
0
 10
374.1304577637
 20
20.859291687
 10
374.1304577637
 20
22.4664344788
 10
374.9340307617
 20
22.4664344788
 10
375.0947351074
 20
22.30572052
 10
375.0947351074
 20
20.859291687
  0
LWPOLYLINE
  5
319
100
AcDbEntity
  8
0
100
AcDbPolyline
 62
2
  6
CONTINUOUS
 90
12
 70
0
 10
375.737578125
 20
21.0200056458
 10
375.8983081055
 20
20.859291687
 10
376.541151123
 20
20.859291687
 10
376.7018811035
 20
21.0200056458
 10
376.7018811035
 20
21.5021507263
 10
376.541151123
 20
21.6092912292
 10
375.8983081055
 20
21.7164349365
 10
375.737578125
 20
21.8235786438
 10
375.737578125
 20
22.30572052
 10
375.8983081055
 20
22.4664344788
 10
376.541151123
 20
22.4664344788
 10
376.7018811035
 20
22.30572052
  0
LWPOLYLINE
  5
31A
100
AcDbEntity
  8
0
100
AcDbPolyline
 62
2
  6
CONTINUOUS
 90
4
 70
0
 10
380.0768774414
 20
20.859291687
 10
380.0768774414
 20
22.1450065613
 10
379.9161730957
 20
22.4664344788
 10
379.1126000977
 20
22.4664344788
  0
LWPOLYLINE
  5
31B
100
AcDbEntity
  8
0
100
AcDbPolyline
 62
2
  6
CONTINUOUS
 90
6
 70
0
 10
380.0768774414
 20
20.859291687
 10
379.4340087891
 20
20.859291687
 10
379.1126000977
 20
21.0200056458
 10
379.1126000977
 20
21.5021507263
 10
379.4340087891
 20
21.6628646851
 10
380.0768774414
 20
21.6628646851
  0
LWPOLYLINE
  5
31C
100
AcDbEntity
  8
0
100
AcDbPolyline
 62
2
  6
CONTINUOUS
 90
5
 70
0
 10
380.719720459
 20
20.859291687
 10
380.719720459
 20
22.4664344788
 10
381.3625891113
 20
22.4664344788
 10
381.4697424316
 20
22.30572052
 10
381.4697424316
 20
21.9842926025
  0
LWPOLYLINE
  5
31D
100
AcDbEntity
  8
0
100
AcDbPolyline
 62
2
  6
CONTINUOUS
 90
9
 70
0
 10
383.1304394531
 20
20.859291687
 10
382.4875964355
 20
20.859291687
 10
382.1661621094
 20
21.1807196045
 10
382.1661621094
 20
22.1450065613
 10
382.4875964355
 20
22.4664344788
 10
382.8090307617
 20
22.4664344788
 10
383.1304394531
 20
22.1450065613
 10
383.1304394531
 20
21.6628646851
 10
382.1661621094
 20
21.6628646851
  0
LWPOLYLINE
  5
31E
100
AcDbEntity
  8
0
100
AcDbPolyline
 62
2
  6
CONTINUOUS
 90
7
 70
0
 10
385.5411584473
 20
20.323576355
 10
385.5411584473
 20
22.4664344788
 10
386.3447314453
 20
22.4664344788
 10
386.505435791
 20
22.30572052
 10
386.505435791
 20
21.0200056458
 10
386.3447314453
 20
20.859291687
 10
385.5411584473
 20
20.859291687
  0
LWPOLYLINE
  5
31F
100
AcDbEntity
  8
0
100
AcDbPolyline
 62
2
  6
CONTINUOUS
 90
5
 70
0
 10
387.1483044434
 20
20.859291687
 10
387.1483044434
 20
22.4664344788
 10
387.7911730957
 20
22.4664344788
 10
387.8983007812
 20
22.30572052
 10
387.8983007812
 20
21.9842926025
  0
LWPOLYLINE
  5
320
100
AcDbEntity
  8
0
100
AcDbPolyline
 62
2
  6
CONTINUOUS
 90
9
 70
0
 10
388.594720459
 20
21.1807196045
 10
388.594720459
 20
22.1450065613
 10
388.9161547852
 20
22.4664344788
 10
389.2375891113
 20
22.4664344788
 10
389.5590234375
 20
22.1450065613
 10
389.5590234375
 20
21.1807196045
 10
389.2375891113
 20
20.859291687
 10
388.9161547852
 20
20.859291687
 10
388.594720459
 20
21.1807196045
  0
LINE
  5
321
100
AcDbEntity
  8
0
100
AcDbLine
 62
2
  6
CONTINUOUS
 10
390.2018664551
 20
20.859291687
 11
390.2018664551
 21
23.1092935181
  0
LWPOLYLINE
  5
322
100
AcDbEntity
  8
0
100
AcDbPolyline
 62
2
  6
CONTINUOUS
 90
4
 70
0
 10
390.2018664551
 20
22.4664344788
 10
391.0054394531
 20
22.4664344788
 10
391.1661694336
 20
22.30572052
 10
391.1661694336
 20
20.859291687
  0
LINE
  5
323
100
AcDbEntity
  8
0
100
AcDbLine
 62
2
  6
CONTINUOUS
 10
392.1304467773
 20
20.859291687
 11
392.1304467773
 21
22.4664344788
  0
LWPOLYLINE
  5
324
100
AcDbEntity
  8
0
100
AcDbPolyline
 62
2
  6
CONTINUOUS
 90
4
 70
0
 10
392.1304467773
 20
22.948576355
 10
392.1304467773
 20
23.1092935181
 10
392.1840234375
 20
23.1092935181
 10
392.1304467773
 20
22.948576355
  0
LINE
  5
325
100
AcDbEntity
  8
0
100
AcDbLine
 62
2
  6
CONTINUOUS
 10
392.9875964355
 20
20.859291687
 11
392.9875964355
 21
23.1092935181
  0
LWPOLYLINE
  5
326
100
AcDbEntity
  8
0
100
AcDbPolyline
 62
2
  6
CONTINUOUS
 90
6
 70
0
 10
392.9875964355
 20
22.4664344788
 10
393.7911694336
 20
22.4664344788
 10
393.9518737793
 20
22.30572052
 10
393.9518737793
 20
21.0200056458
 10
393.7911694336
 20
20.859291687
 10
392.9875964355
 20
20.859291687
  0
LINE
  5
327
100
AcDbEntity
  8
0
100
AcDbLine
 62
2
  6
CONTINUOUS
 10
394.916151123
 20
20.859291687
 11
394.916151123
 21
22.4664344788
  0
LWPOLYLINE
  5
328
100
AcDbEntity
  8
0
100
AcDbPolyline
 62
2
  6
CONTINUOUS
 90
4
 70
0
 10
394.916151123
 20
22.948576355
 10
394.916151123
 20
23.1092935181
 10
394.9697277832
 20
23.1092935181
 10
394.916151123
 20
22.948576355
  0
LINE
  5
329
100
AcDbEntity
  8
0
100
AcDbLine
 62
2
  6
CONTINUOUS
 10
396.0411584473
 20
20.859291687
 11
396.0411584473
 21
23.1092935181
  0
LINE
  5
32A
100
AcDbEntity
  8
0
100
AcDbLine
 62
2
  6
CONTINUOUS
 10
395.7733007812
 20
22.4664344788
 11
396.4161694336
 21
22.4664344788
  0
LWPOLYLINE
  5
32B
100
AcDbEntity
  8
0
100
AcDbPolyline
 62
2
  6
CONTINUOUS
 90
9
 70
0
 10
398.0233154297
 20
20.859291687
 10
397.3804467773
 20
20.859291687
 10
397.0590124512
 20
21.1807196045
 10
397.0590124512
 20
22.1450065613
 10
397.3804467773
 20
22.4664344788
 10
397.7018811035
 20
22.4664344788
 10
398.0233154297
 20
22.1450065613
 10
398.0233154297
 20
21.6628646851
 10
397.0590124512
 20
21.6628646851
  0
LWPOLYLINE
  5
32C
100
AcDbEntity
  8
0
100
AcDbPolyline
 62
2
  6
CONTINUOUS
 90
7
 70
0
 10
399.630435791
 20
23.1092935181
 10
399.630435791
 20
20.859291687
 10
398.9875927734
 20
20.859291687
 10
398.6661584473
 20
21.0200056458
 10
398.6661584473
 20
22.30572052
 10
398.9875927734
 20
22.4664344788
 10
399.630435791
 20
22.4664344788
  0
LWPOLYLINE
  5
32D
100
AcDbEntity
  8
0
100
AcDbPolyline
 62
2
  6
CONTINUOUS
 90
5
 70
0
 10
321.3090234375
 20
19.0914349365
 10
321.7375854492
 20
17.4842921448
 10
322.1125964355
 20
18.770007019
 10
322.4875817871
 20
17.4842921448
 10
322.9161694336
 20
19.0914349365
  0
LINE
  5
32E
100
AcDbEntity
  8
0
100
AcDbLine
 62
2
  6
CONTINUOUS
 10
323.8804467773
 20
17.4842921448
 11
323.8804467773
 21
19.0914349365
  0
LWPOLYLINE
  5
32F
100
AcDbEntity
  8
0
100
AcDbPolyline
 62
2
  6
CONTINUOUS
 90
4
 70
0
 10
323.8804467773
 20
19.5735768127
 10
323.8804467773
 20
19.7342907715
 10
323.9340234375
 20
19.7342907715
 10
323.8804467773
 20
19.5735768127
  0
LINE
  5
330
100
AcDbEntity
  8
0
100
AcDbLine
 62
2
  6
CONTINUOUS
 10
325.0054541016
 20
17.4842921448
 11
325.0054541016
 21
19.7342907715
  0
LINE
  5
331
100
AcDbEntity
  8
0
100
AcDbLine
 62
2
  6
CONTINUOUS
 10
324.7375964355
 20
19.0914349365
 11
325.3804394531
 21
19.0914349365
  0
LINE
  5
332
100
AcDbEntity
  8
0
100
AcDbLine
 62
2
  6
CONTINUOUS
 10
326.0233081055
 20
17.4842921448
 11
326.0233081055
 21
19.7342907715
  0
LWPOLYLINE
  5
333
100
AcDbEntity
  8
0
100
AcDbPolyline
 62
2
  6
CONTINUOUS
 90
4
 70
0
 10
326.0233081055
 20
19.0914349365
 10
326.8268811035
 20
19.0914349365
 10
326.9875854492
 20
18.9307209778
 10
326.9875854492
 20
17.4842921448
  0
LWPOLYLINE
  5
334
100
AcDbEntity
  8
0
100
AcDbPolyline
 62
2
  6
CONTINUOUS
 90
9
 70
0
 10
327.6304541016
 20
17.8057200623
 10
327.6304541016
 20
18.770007019
 10
327.9518884277
 20
19.0914349365
 10
328.2732971191
 20
19.0914349365
 10
328.5947314453
 20
18.770007019
 10
328.5947314453
 20
17.8057200623
 10
328.2732971191
 20
17.4842921448
 10
327.9518884277
 20
17.4842921448
 10
327.6304541016
 20
17.8057200623
  0
LWPOLYLINE
  5
335
100
AcDbEntity
  8
0
100
AcDbPolyline
 62
2
  6
CONTINUOUS
 90
5
 70
0
 10
329.2376000977
 20
19.0914349365
 10
329.2376000977
 20
17.6450061035
 10
329.3983044434
 20
17.4842921448
 10
330.2018774414
 20
17.4842921448
 10
330.2018774414
 20
19.0914349365
  0
LINE
  5
336
100
AcDbEntity
  8
0
100
AcDbLine
 62
2
  6
CONTINUOUS
 10
331.112578125
 20
17.4842921448
 11
331.112578125
 21
19.7342907715
  0
LINE
  5
337
100
AcDbEntity
  8
0
100
AcDbLine
 62
2
  6
CONTINUOUS
 10
330.844720459
 20
19.0914349365
 11
331.4875891113
 21
19.0914349365
  0
LWPOLYLINE
  5
338
100
AcDbEntity
  8
0
100
AcDbPolyline
 62
2
  6
CONTINUOUS
 90
7
 70
0
 10
333.8983081055
 20
16.9485768127
 10
333.8983081055
 20
19.0914349365
 10
334.7018811035
 20
19.0914349365
 10
334.8625854492
 20
18.9307209778
 10
334.8625854492
 20
17.6450061035
 10
334.7018811035
 20
17.4842921448
 10
333.8983081055
 20
17.4842921448
  0
LWPOLYLINE
  5
339
100
AcDbEntity
  8
0
100
AcDbPolyline
 62
2
  6
CONTINUOUS
 90
5
 70
0
 10
335.5054541016
 20
17.4842921448
 10
335.5054541016
 20
19.0914349365
 10
336.1482971191
 20
19.0914349365
 10
336.2554504395
 20
18.9307209778
 10
336.2554504395
 20
18.6092930603
  0
LINE
  5
33A
100
AcDbEntity
  8
0
100
AcDbLine
 62
2
  6
CONTINUOUS
 10
337.2733044434
 20
17.4842921448
 11
337.2733044434
 21
19.0914349365
  0
LWPOLYLINE
  5
33B
100
AcDbEntity
  8
0
100
AcDbPolyline
 62
2
  6
CONTINUOUS
 90
4
 70
0
 10
337.2733044434
 20
19.5735768127
 10
337.2733044434
 20
19.7342907715
 10
337.3268811035
 20
19.7342907715
 10
337.2733044434
 20
19.5735768127
  0
LWPOLYLINE
  5
33C
100
AcDbEntity
  8
0
100
AcDbPolyline
 62
2
  6
CONTINUOUS
 90
9
 70
0
 10
338.1304541016
 20
17.8057200623
 10
338.1304541016
 20
18.770007019
 10
338.4518884277
 20
19.0914349365
 10
338.7732971191
 20
19.0914349365
 10
339.0947314453
 20
18.770007019
 10
339.0947314453
 20
17.8057200623
 10
338.7732971191
 20
17.4842921448
 10
338.4518884277
 20
17.4842921448
 10
338.1304541016
 20
17.8057200623
  0
LWPOLYLINE
  5
33D
100
AcDbEntity
  8
0
100
AcDbPolyline
 62
2
  6
CONTINUOUS
 90
5
 70
0
 10
339.7376000977
 20
17.4842921448
 10
339.7376000977
 20
19.0914349365
 10
340.3804431152
 20
19.0914349365
 10
340.4875964355
 20
18.9307209778
 10
340.4875964355
 20
18.6092930603
  0
LWPOLYLINE
  5
33E
100
AcDbEntity
  8
0
100
AcDbPolyline
 62
2
  6
CONTINUOUS
 90
4
 70
0
 10
343.9161694336
 20
17.4842921448
 10
343.9161694336
 20
18.770007019
 10
343.7554394531
 20
19.0914349365
 10
342.9518664551
 20
19.0914349365
  0
LWPOLYLINE
  5
33F
100
AcDbEntity
  8
0
100
AcDbPolyline
 62
2
  6
CONTINUOUS
 90
6
 70
0
 10
343.9161694336
 20
17.4842921448
 10
343.2733007812
 20
17.4842921448
 10
342.9518664551
 20
17.6450061035
 10
342.9518664551
 20
18.1271479797
 10
343.2733007812
 20
18.2878619385
 10
343.9161694336
 20
18.2878619385
  0
LWPOLYLINE
  5
340
100
AcDbEntity
  8
0
100
AcDbPolyline
 62
2
  6
CONTINUOUS
 90
5
 70
0
 10
344.5590124512
 20
19.0914349365
 10
344.5590124512
 20
17.6450061035
 10
344.7197424316
 20
17.4842921448
 10
345.5233154297
 20
17.4842921448
 10
345.5233154297
 20
19.0914349365
  0
LINE
  5
341
100
AcDbEntity
  8
0
100
AcDbLine
 62
2
  6
CONTINUOUS
 10
346.4340161133
 20
17.4842921448
 11
346.4340161133
 21
19.7342907715
  0
LINE
  5
342
100
AcDbEntity
  8
0
100
AcDbLine
 62
2
  6
CONTINUOUS
 10
346.1661584473
 20
19.0914349365
 11
346.8090270996
 21
19.0914349365
  0
LINE
  5
343
100
AcDbEntity
  8
0
100
AcDbLine
 62
2
  6
CONTINUOUS
 10
347.4518701172
 20
17.4842921448
 11
347.4518701172
 21
19.7342907715
  0
LWPOLYLINE
  5
344
100
AcDbEntity
  8
0
100
AcDbPolyline
 62
2
  6
CONTINUOUS
 90
4
 70
0
 10
347.4518701172
 20
19.0914349365
 10
348.2554431152
 20
19.0914349365
 10
348.4161730957
 20
18.9307209778
 10
348.4161730957
 20
17.4842921448
  0
LWPOLYLINE
  5
345
100
AcDbEntity
  8
0
100
AcDbPolyline
 62
2
  6
CONTINUOUS
 90
9
 70
0
 10
349.0590161133
 20
17.8057200623
 10
349.0590161133
 20
18.770007019
 10
349.3804504395
 20
19.0914349365
 10
349.7018847656
 20
19.0914349365
 10
350.023293457
 20
18.770007019
 10
350.023293457
 20
17.8057200623
 10
349.7018847656
 20
17.4842921448
 10
349.3804504395
 20
17.4842921448
 10
349.0590161133
 20
17.8057200623
  0
LWPOLYLINE
  5
346
100
AcDbEntity
  8
0
100
AcDbPolyline
 62
2
  6
CONTINUOUS
 90
5
 70
0
 10
350.6661621094
 20
17.4842921448
 10
350.6661621094
 20
19.0914349365
 10
351.3090307617
 20
19.0914349365
 10
351.4161584473
 20
18.9307209778
 10
351.4161584473
 20
18.6092930603
  0
LINE
  5
347
100
AcDbEntity
  8
0
100
AcDbLine
 62
2
  6
CONTINUOUS
 10
352.4340124512
 20
17.4842921448
 11
352.4340124512
 21
19.0914349365
  0
LWPOLYLINE
  5
348
100
AcDbEntity
  8
0
100
AcDbPolyline
 62
2
  6
CONTINUOUS
 90
4
 70
0
 10
352.4340124512
 20
19.5735768127
 10
352.4340124512
 20
19.7342907715
 10
352.4875891113
 20
19.7342907715
 10
352.4340124512
 20
19.5735768127
  0
LWPOLYLINE
  5
349
100
AcDbEntity
  8
0
100
AcDbPolyline
 62
2
  6
CONTINUOUS
 90
12
 70
0
 10
353.2911621094
 20
17.6450061035
 10
353.4518664551
 20
17.4842921448
 10
354.0947351074
 20
17.4842921448
 10
354.2554394531
 20
17.6450061035
 10
354.2554394531
 20
18.1271479797
 10
354.0947351074
 20
18.234291687
 10
353.4518664551
 20
18.3414353943
 10
353.2911621094
 20
18.4485791016
 10
353.2911621094
 20
18.9307209778
 10
353.4518664551
 20
19.0914349365
 10
354.0947351074
 20
19.0914349365
 10
354.2554394531
 20
18.9307209778
  0
LWPOLYLINE
  5
34A
100
AcDbEntity
  8
0
100
AcDbPolyline
 62
2
  6
CONTINUOUS
 90
4
 70
0
 10
355.8625854492
 20
17.4842921448
 10
355.8625854492
 20
18.770007019
 10
355.7018811035
 20
19.0914349365
 10
354.8983081055
 20
19.0914349365
  0
LWPOLYLINE
  5
34B
100
AcDbEntity
  8
0
100
AcDbPolyline
 62
2
  6
CONTINUOUS
 90
6
 70
0
 10
355.8625854492
 20
17.4842921448
 10
355.2197424316
 20
17.4842921448
 10
354.8983081055
 20
17.6450061035
 10
354.8983081055
 20
18.1271479797
 10
355.2197424316
 20
18.2878619385
 10
355.8625854492
 20
18.2878619385
  0
LINE
  5
34C
100
AcDbEntity
  8
0
100
AcDbLine
 62
2
  6
CONTINUOUS
 10
356.7733117676
 20
17.4842921448
 11
356.7733117676
 21
19.7342907715
  0
LINE
  5
34D
100
AcDbEntity
  8
0
100
AcDbLine
 62
2
  6
CONTINUOUS
 10
356.5054541016
 20
19.0914349365
 11
357.1482971191
 21
19.0914349365
  0
LINE
  5
34E
100
AcDbEntity
  8
0
100
AcDbLine
 62
2
  6
CONTINUOUS
 10
358.1126000977
 20
17.4842921448
 11
358.1126000977
 21
19.0914349365
  0
LWPOLYLINE
  5
34F
100
AcDbEntity
  8
0
100
AcDbPolyline
 62
2
  6
CONTINUOUS
 90
4
 70
0
 10
358.1126000977
 20
19.5735768127
 10
358.1126000977
 20
19.7342907715
 10
358.166151123
 20
19.7342907715
 10
358.1126000977
 20
19.5735768127
  0
LWPOLYLINE
  5
350
100
AcDbEntity
  8
0
100
AcDbPolyline
 62
2
  6
CONTINUOUS
 90
9
 70
0
 10
358.9697241211
 20
17.8057200623
 10
358.9697241211
 20
18.770007019
 10
359.2911584473
 20
19.0914349365
 10
359.6125927734
 20
19.0914349365
 10
359.9340270996
 20
18.770007019
 10
359.9340270996
 20
17.8057200623
 10
359.6125927734
 20
17.4842921448
 10
359.2911584473
 20
17.4842921448
 10
358.9697241211
 20
17.8057200623
  0
LWPOLYLINE
  5
351
100
AcDbEntity
  8
0
100
AcDbPolyline
 62
2
  6
CONTINUOUS
 90
5
 70
0
 10
360.5768701172
 20
17.4842921448
 10
360.5768701172
 20
19.0914349365
 10
361.3804431152
 20
19.0914349365
 10
361.5411730957
 20
18.9307209778
 10
361.5411730957
 20
17.4842921448
  0
LWPOLYLINE
  5
352
100
AcDbEntity
  8
0
100
AcDbPolyline
 62
2
  6
CONTINUOUS
 90
9
 70
0
 10
363.9518664551
 20
17.8057200623
 10
363.9518664551
 20
18.770007019
 10
364.2733007812
 20
19.0914349365
 10
364.5947351074
 20
19.0914349365
 10
364.9161694336
 20
18.770007019
 10
364.9161694336
 20
17.8057200623
 10
364.5947351074
 20
17.4842921448
 10
364.2733007812
 20
17.4842921448
 10
363.9518664551
 20
17.8057200623
  0
LWPOLYLINE
  5
353
100
AcDbEntity
  8
0
100
AcDbPolyline
 62
2
  6
CONTINUOUS
 90
4
 70
0
 10
365.8268701172
 20
17.4842921448
 10
365.8268701172
 20
19.5735768127
 10
365.9876000977
 20
19.7342907715
 10
366.3090087891
 20
19.7342907715
  0
LINE
  5
354
100
AcDbEntity
  8
0
100
AcDbLine
 62
2
  6
CONTINUOUS
 10
366.3090087891
 20
19.0914349365
 11
365.5590124512
 21
19.0914349365
  0
LWPOLYLINE
  5
355
100
AcDbEntity
  8
0
100
AcDbPolyline
 62
2
  6
CONTINUOUS
 90
3
 70
0
 10
368.6126000977
 20
19.7342907715
 10
368.6126000977
 20
17.4842921448
 10
369.4161730957
 20
17.4842921448
  0
LWPOLYLINE
  5
356
100
AcDbEntity
  8
0
100
AcDbPolyline
 62
2
  6
CONTINUOUS
 90
12
 70
0
 10
373.2733081055
 20
18.2878619385
 10
372.6304394531
 20
17.4842921448
 10
372.1483007812
 20
17.4842921448
 10
371.8268664551
 20
17.8057200623
 10
371.8268664551
 20
18.2878619385
 10
372.9518737793
 20
19.0914349365
 10
372.9518737793
 20
19.412862854
 10
372.6304394531
 20
19.7342907715
 10
372.3090307617
 20
19.7342907715
 10
371.9875964355
 20
19.412862854
 10
371.9875964355
 20
19.0914349365
 10
373.112578125
 20
17.4842921448
  0
LWPOLYLINE
  5
357
100
AcDbEntity
  8
0
100
AcDbPolyline
 62
2
  6
CONTINUOUS
 90
3
 70
0
 10
375.6840270996
 20
19.7342907715
 10
375.6840270996
 20
17.4842921448
 10
376.4876000977
 20
17.4842921448
  0
LWPOLYLINE
  5
358
100
AcDbEntity
  8
0
100
AcDbPolyline
 62
2
  6
CONTINUOUS
 90
3
 70
0
 10
378.898293457
 20
19.7342907715
 10
378.898293457
 20
17.4842921448
 10
379.7018664551
 20
17.4842921448
  0
LWPOLYLINE
  5
359
100
AcDbEntity
  8
0
100
AcDbPolyline
 62
2
  6
CONTINUOUS
 90
5
 70
0
 10
380.3447351074
 20
19.0914349365
 10
380.3447351074
 20
17.6450061035
 10
380.5054394531
 20
17.4842921448
 10
381.3090124512
 20
17.4842921448
 10
381.3090124512
 20
19.0914349365
  0
LWPOLYLINE
  5
35A
100
AcDbEntity
  8
0
100
AcDbPolyline
 62
2
  6
CONTINUOUS
 90
6
 70
0
 10
382.7554541016
 20
17.4842921448
 10
382.1125854492
 20
17.4842921448
 10
381.9518811035
 20
17.6450061035
 10
381.9518811035
 20
18.9307209778
 10
382.1125854492
 20
19.0914349365
 10
382.7554541016
 20
19.0914349365
  0
LWPOLYLINE
  5
35B
100
AcDbEntity
  8
0
100
AcDbPolyline
 62
2
  6
CONTINUOUS
 90
9
 70
0
 10
384.3626000977
 20
17.4842921448
 10
383.7197314453
 20
17.4842921448
 10
383.3982971191
 20
17.8057200623
 10
383.3982971191
 20
18.770007019
 10
383.7197314453
 20
19.0914349365
 10
384.0411657715
 20
19.0914349365
 10
384.3626000977
 20
18.770007019
 10
384.3626000977
 20
18.2878619385
 10
383.3982971191
 20
18.2878619385
  0
LWPOLYLINE
  5
35C
100
AcDbEntity
  8
0
100
AcDbPolyline
 62
2
  6
CONTINUOUS
 90
12
 70
0
 10
388.2197351074
 20
18.2878619385
 10
387.5768664551
 20
17.4842921448
 10
387.0947277832
 20
17.4842921448
 10
386.773293457
 20
17.8057200623
 10
386.773293457
 20
18.2878619385
 10
387.8983007812
 20
19.0914349365
 10
387.8983007812
 20
19.412862854
 10
387.5768664551
 20
19.7342907715
 10
387.2554577637
 20
19.7342907715
 10
386.9340234375
 20
19.412862854
 10
386.9340234375
 20
19.0914349365
 10
388.0590307617
 20
17.4842921448
  0
LWPOLYLINE
  5
35D
100
AcDbEntity
  8
0
100
AcDbPolyline
 62
2
  6
CONTINUOUS
 90
3
 70
0
 10
390.6304541016
 20
19.7342907715
 10
390.6304541016
 20
17.4842921448
 10
391.4340270996
 20
17.4842921448
  0
LINE
  5
35E
100
AcDbEntity
  8
0
100
AcDbLine
 62
2
  6
CONTINUOUS
 10
392.3983044434
 20
17.4842921448
 11
392.3983044434
 21
19.0914349365
  0
LWPOLYLINE
  5
35F
100
AcDbEntity
  8
0
100
AcDbPolyline
 62
2
  6
CONTINUOUS
 90
4
 70
0
 10
392.3983044434
 20
19.5735768127
 10
392.3983044434
 20
19.7342907715
 10
392.4518811035
 20
19.7342907715
 10
392.3983044434
 20
19.5735768127
  0
LWPOLYLINE
  5
360
100
AcDbEntity
  8
0
100
AcDbPolyline
 62
2
  6
CONTINUOUS
 90
9
 70
0
 10
393.2554541016
 20
16.9485768127
 10
394.0590270996
 20
16.9485768127
 10
394.2197314453
 20
17.1628642273
 10
394.2197314453
 20
19.0914349365
 10
393.4161584473
 20
19.0914349365
 10
393.2554541016
 20
18.9307209778
 10
393.2554541016
 20
17.6450061035
 10
393.4161584473
 20
17.4842921448
 10
394.2197314453
 20
17.4842921448
  0
LINE
  5
361
100
AcDbEntity
  8
0
100
AcDbLine
 62
2
  6
CONTINUOUS
 10
394.8626000977
 20
17.4842921448
 11
394.8626000977
 21
19.7342907715
  0
LWPOLYLINE
  5
362
100
AcDbEntity
  8
0
100
AcDbPolyline
 62
2
  6
CONTINUOUS
 90
4
 70
0
 10
394.8626000977
 20
19.0914349365
 10
395.6661730957
 20
19.0914349365
 10
395.8268774414
 20
18.9307209778
 10
395.8268774414
 20
17.4842921448
  0
LINE
  5
363
100
AcDbEntity
  8
0
100
AcDbLine
 62
2
  6
CONTINUOUS
 10
396.737578125
 20
17.4842921448
 11
396.737578125
 21
19.7342907715
  0
LINE
  5
364
100
AcDbEntity
  8
0
100
AcDbLine
 62
2
  6
CONTINUOUS
 10
396.469720459
 20
19.0914349365
 11
397.1125891113
 21
19.0914349365
  0
LWPOLYLINE
  5
365
100
AcDbEntity
  8
0
100
AcDbPolyline
 62
2
  6
CONTINUOUS
 90
12
 70
0
 10
399.5233081055
 20
17.6450061035
 10
399.6840124512
 20
17.4842921448
 10
400.3268811035
 20
17.4842921448
 10
400.4875854492
 20
17.6450061035
 10
400.4875854492
 20
18.1271479797
 10
400.3268811035
 20
18.234291687
 10
399.6840124512
 20
18.3414353943
 10
399.5233081055
 20
18.4485791016
 10
399.5233081055
 20
18.9307209778
 10
399.6840124512
 20
19.0914349365
 10
400.3268811035
 20
19.0914349365
 10
400.4875854492
 20
18.9307209778
  0
LWPOLYLINE
  5
366
100
AcDbEntity
  8
0
100
AcDbPolyline
 62
2
  6
CONTINUOUS
 90
9
 70
0
 10
401.6125927734
 20
17.8592935181
 10
401.6661694336
 20
17.7521498108
 10
401.6661694336
 20
17.698576355
 10
401.6125927734
 20
17.5914358521
 10
401.5054394531
 20
17.5914358521
 10
401.4518884277
 20
17.698576355
 10
401.4518884277
 20
17.7521498108
 10
401.5054394531
 20
17.8592935181
 10
401.6125927734
 20
17.8592935181
  0
LWPOLYLINE
  5
367
100
AcDbEntity
  8
0
100
AcDbPolyline
 62
2
  6
CONTINUOUS
 90
5
 70
0
 10
402.4161657715
 20
17.4842921448
 10
402.4161657715
 20
19.0914349365
 10
403.0590087891
 20
19.0914349365
 10
403.1661621094
 20
18.9307209778
 10
403.1661621094
 20
18.6092930603
  0
LWPOLYLINE
  5
368
100
AcDbEntity
  8
0
100
AcDbPolyline
 62
2
  6
CONTINUOUS
 90
9
 70
0
 10
404.344720459
 20
17.8592935181
 10
404.3982971191
 20
17.7521498108
 10
404.3982971191
 20
17.698576355
 10
404.344720459
 20
17.5914358521
 10
404.2375927734
 20
17.5914358521
 10
404.1840161133
 20
17.698576355
 10
404.1840161133
 20
17.7521498108
 10
404.2375927734
 20
17.8592935181
 10
404.344720459
 20
17.8592935181
  0
LWPOLYLINE
  5
369
100
AcDbEntity
  8
0
100
AcDbPolyline
 62
2
  6
CONTINUOUS
 90
4
 70
0
 10
405.6304577637
 20
17.4842921448
 10
405.3090234375
 20
17.4842921448
 10
405.148293457
 20
17.6450061035
 10
405.148293457
 20
19.7342907715
  0
LWPOLYLINE
  5
36A
100
AcDbEntity
  8
0
100
AcDbPolyline
 62
2
  6
CONTINUOUS
 90
9
 70
0
 10
406.7554394531
 20
17.8592935181
 10
406.8090161133
 20
17.7521498108
 10
406.8090161133
 20
17.698576355
 10
406.7554394531
 20
17.5914358521
 10
406.6483117676
 20
17.5914358521
 10
406.5947351074
 20
17.698576355
 10
406.5947351074
 20
17.7521498108
 10
406.6483117676
 20
17.8592935181
 10
406.7554394531
 20
17.8592935181
  0
LWPOLYLINE
  5
36B
100
AcDbEntity
  8
0
100
AcDbPolyline
 62
2
  6
CONTINUOUS
 90
10
 70
0
 10
408.041151123
 20
17.8592935181
 10
408.0947277832
 20
17.7521498108
 10
408.0947277832
 20
17.698576355
 10
407.9876000977
 20
17.5914358521
 10
407.9340234375
 20
17.5914358521
 10
407.8804467773
 20
17.6450061035
 10
407.8804467773
 20
17.698576355
 10
407.9340234375
 20
17.8057200623
 10
407.9876000977
 20
17.8592935181
 10
408.041151123
 20
17.8592935181
  0
LWPOLYLINE
  5
36C
100
AcDbEntity
  8
0
100
AcDbPolyline
 62
2
  6
CONTINUOUS
 90
3
 70
0
 10
408.0947277832
 20
17.698576355
 10
408.041151123
 20
17.5378623962
 10
407.9340234375
 20
17.323578186
  0
LINE
  5
36D
100
AcDbEntity
  8
0
100
AcDbLine
 62
2
  6
CONTINUOUS
 10
321.6304577637
 20
14.1092926025
 11
321.6304577637
 21
15.7164353943
  0
LWPOLYLINE
  5
36E
100
AcDbEntity
  8
0
100
AcDbPolyline
 62
2
  6
CONTINUOUS
 90
4
 70
0
 10
321.6304577637
 20
16.1985772705
 10
321.6304577637
 20
16.3592912292
 10
321.6840087891
 20
16.3592912292
 10
321.6304577637
 20
16.1985772705
  0
LWPOLYLINE
  5
36F
100
AcDbEntity
  8
0
100
AcDbPolyline
 62
2
  6
CONTINUOUS
 90
5
 70
0
 10
322.4875817871
 20
14.1092926025
 10
322.4875817871
 20
15.7164353943
 10
323.2911547852
 20
15.7164353943
 10
323.4518847656
 20
15.5557214355
 10
323.4518847656
 20
14.1092926025
  0
LWPOLYLINE
  5
370
100
AcDbEntity
  8
0
100
AcDbPolyline
 62
2
  6
CONTINUOUS
 90
4
 70
0
 10
326.8268811035
 20
14.1092926025
 10
326.8268811035
 20
15.3950074768
 10
326.666151123
 20
15.7164353943
 10
325.862578125
 20
15.7164353943
  0
LWPOLYLINE
  5
371
100
AcDbEntity
  8
0
100
AcDbPolyline
 62
2
  6
CONTINUOUS
 90
6
 70
0
 10
326.8268811035
 20
14.1092926025
 10
326.1840124512
 20
14.1092926025
 10
325.862578125
 20
14.2700065613
 10
325.862578125
 20
14.7521484375
 10
326.1840124512
 20
14.9128623962
 10
326.8268811035
 20
14.9128623962
  0
LWPOLYLINE
  5
372
100
AcDbEntity
  8
0
100
AcDbPolyline
 62
2
  6
CONTINUOUS
 90
6
 70
0
 10
328.2732971191
 20
14.1092926025
 10
327.6304541016
 20
14.1092926025
 10
327.4697241211
 20
14.2700065613
 10
327.4697241211
 20
15.5557214355
 10
327.6304541016
 20
15.7164353943
 10
328.2732971191
 20
15.7164353943
  0
LWPOLYLINE
  5
373
100
AcDbEntity
  8
0
100
AcDbPolyline
 62
2
  6
CONTINUOUS
 90
6
 70
0
 10
329.7197387695
 20
14.1092926025
 10
329.0768701172
 20
14.1092926025
 10
328.9161657715
 20
14.2700065613
 10
328.9161657715
 20
15.5557214355
 10
329.0768701172
 20
15.7164353943
 10
329.7197387695
 20
15.7164353943
  0
LWPOLYLINE
  5
374
100
AcDbEntity
  8
0
100
AcDbPolyline
 62
2
  6
CONTINUOUS
 90
9
 70
0
 10
330.3625817871
 20
14.43072052
 10
330.3625817871
 20
15.3950074768
 10
330.6840161133
 20
15.7164353943
 10
331.0054504395
 20
15.7164353943
 10
331.3268847656
 20
15.3950074768
 10
331.3268847656
 20
14.43072052
 10
331.0054504395
 20
14.1092926025
 10
330.6840161133
 20
14.1092926025
 10
330.3625817871
 20
14.43072052
  0
LWPOLYLINE
  5
375
100
AcDbEntity
  8
0
100
AcDbPolyline
 62
2
  6
CONTINUOUS
 90
5
 70
0
 10
331.9697277832
 20
14.1092926025
 10
331.9697277832
 20
15.7164353943
 10
332.6125964355
 20
15.7164353943
 10
332.7197241211
 20
15.5557214355
 10
332.7197241211
 20
15.2342935181
  0
LWPOLYLINE
  5
376
100
AcDbEntity
  8
0
100
AcDbPolyline
 62
2
  6
CONTINUOUS
 90
7
 70
0
 10
334.3804467773
 20
16.3592912292
 10
334.3804467773
 20
14.1092926025
 10
333.737578125
 20
14.1092926025
 10
333.4161694336
 20
14.2700065613
 10
333.4161694336
 20
15.5557214355
 10
333.737578125
 20
15.7164353943
 10
334.3804467773
 20
15.7164353943
  0
LWPOLYLINE
  5
377
100
AcDbEntity
  8
0
100
AcDbPolyline
 62
2
  6
CONTINUOUS
 90
4
 70
0
 10
335.9875927734
 20
14.1092926025
 10
335.9875927734
 20
15.3950074768
 10
335.8268884277
 20
15.7164353943
 10
335.0233154297
 20
15.7164353943
  0
LWPOLYLINE
  5
378
100
AcDbEntity
  8
0
100
AcDbPolyline
 62
2
  6
CONTINUOUS
 90
6
 70
0
 10
335.9875927734
 20
14.1092926025
 10
335.3447241211
 20
14.1092926025
 10
335.0233154297
 20
14.2700065613
 10
335.0233154297
 20
14.7521484375
 10
335.3447241211
 20
14.9128623962
 10
335.9875927734
 20
14.9128623962
  0
LWPOLYLINE
  5
379
100
AcDbEntity
  8
0
100
AcDbPolyline
 62
2
  6
CONTINUOUS
 90
5
 70
0
 10
336.630435791
 20
14.1092926025
 10
336.630435791
 20
15.7164353943
 10
337.4340087891
 20
15.7164353943
 10
337.5947387695
 20
15.5557214355
 10
337.5947387695
 20
14.1092926025
  0
LWPOLYLINE
  5
37A
100
AcDbEntity
  8
0
100
AcDbPolyline
 62
2
  6
CONTINUOUS
 90
6
 70
0
 10
339.0411547852
 20
14.1092926025
 10
338.3983117676
 20
14.1092926025
 10
338.2375817871
 20
14.2700065613
 10
338.2375817871
 20
15.5557214355
 10
338.3983117676
 20
15.7164353943
 10
339.0411547852
 20
15.7164353943
  0
LWPOLYLINE
  5
37B
100
AcDbEntity
  8
0
100
AcDbPolyline
 62
2
  6
CONTINUOUS
 90
9
 70
0
 10
340.6483007812
 20
14.1092926025
 10
340.0054577637
 20
14.1092926025
 10
339.6840234375
 20
14.43072052
 10
339.6840234375
 20
15.3950074768
 10
340.0054577637
 20
15.7164353943
 10
340.3268664551
 20
15.7164353943
 10
340.6483007812
 20
15.3950074768
 10
340.6483007812
 20
14.9128623962
 10
339.6840234375
 20
14.9128623962
  0
LWPOLYLINE
  5
37C
100
AcDbEntity
  8
0
100
AcDbPolyline
 62
2
  6
CONTINUOUS
 90
5
 70
0
 10
343.0590197754
 20
15.7164353943
 10
343.4875817871
 20
14.1092926025
 10
343.8625927734
 20
15.3950074768
 10
344.237578125
 20
14.1092926025
 10
344.6661657715
 20
15.7164353943
  0
LINE
  5
37D
100
AcDbEntity
  8
0
100
AcDbLine
 62
2
  6
CONTINUOUS
 10
345.6304431152
 20
14.1092926025
 11
345.6304431152
 21
15.7164353943
  0
LWPOLYLINE
  5
37E
100
AcDbEntity
  8
0
100
AcDbPolyline
 62
2
  6
CONTINUOUS
 90
4
 70
0
 10
345.6304431152
 20
16.1985772705
 10
345.6304431152
 20
16.3592912292
 10
345.6840197754
 20
16.3592912292
 10
345.6304431152
 20
16.1985772705
  0
LINE
  5
37F
100
AcDbEntity
  8
0
100
AcDbLine
 62
2
  6
CONTINUOUS
 10
346.7554504395
 20
14.1092926025
 11
346.7554504395
 21
16.3592912292
  0
LINE
  5
380
100
AcDbEntity
  8
0
100
AcDbLine
 62
2
  6
CONTINUOUS
 10
346.4875927734
 20
15.7164353943
 11
347.130435791
 21
15.7164353943
  0
LINE
  5
381
100
AcDbEntity
  8
0
100
AcDbLine
 62
2
  6
CONTINUOUS
 10
347.7733044434
 20
14.1092926025
 11
347.7733044434
 21
16.3592912292
  0
LWPOLYLINE
  5
382
100
AcDbEntity
  8
0
100
AcDbPolyline
 62
2
  6
CONTINUOUS
 90
4
 70
0
 10
347.7733044434
 20
15.7164353943
 10
348.5768774414
 20
15.7164353943
 10
348.7375817871
 20
15.5557214355
 10
348.7375817871
 20
14.1092926025
  0
LINE
  5
383
100
AcDbEntity
  8
0
100
AcDbLine
 62
2
  6
CONTINUOUS
 10
351.4161584473
 20
14.1092926025
 11
351.4161584473
 21
16.3592912292
  0
LINE
  5
384
100
AcDbEntity
  8
0
100
AcDbLine
 62
2
  6
CONTINUOUS
 10
351.1483007812
 20
15.7164353943
 11
351.7911694336
 21
15.7164353943
  0
LINE
  5
385
100
AcDbEntity
  8
0
100
AcDbLine
 62
2
  6
CONTINUOUS
 10
352.4340124512
 20
14.1092926025
 11
352.4340124512
 21
16.3592912292
  0
LWPOLYLINE
  5
386
100
AcDbEntity
  8
0
100
AcDbPolyline
 62
2
  6
CONTINUOUS
 90
4
 70
0
 10
352.4340124512
 20
15.7164353943
 10
353.2375854492
 20
15.7164353943
 10
353.3983154297
 20
15.5557214355
 10
353.3983154297
 20
14.1092926025
  0
LWPOLYLINE
  5
387
100
AcDbEntity
  8
0
100
AcDbPolyline
 62
2
  6
CONTINUOUS
 90
9
 70
0
 10
355.005435791
 20
14.1092926025
 10
354.3625927734
 20
14.1092926025
 10
354.0411584473
 20
14.43072052
 10
354.0411584473
 20
15.3950074768
 10
354.3625927734
 20
15.7164353943
 10
354.6840270996
 20
15.7164353943
 10
355.005435791
 20
15.3950074768
 10
355.005435791
 20
14.9128623962
 10
354.0411584473
 20
14.9128623962
  0
LWPOLYLINE
  5
388
100
AcDbEntity
  8
0
100
AcDbPolyline
 62
2
  6
CONTINUOUS
 90
4
 70
0
 10
357.898293457
 20
14.1092926025
 10
357.5768847656
 20
14.1092926025
 10
357.4161547852
 20
14.2700065613
 10
357.4161547852
 20
16.3592912292
  0
LWPOLYLINE
  5
389
100
AcDbEntity
  8
0
100
AcDbPolyline
 62
2
  6
CONTINUOUS
 90
4
 70
0
 10
359.5054394531
 20
14.1092926025
 10
359.5054394531
 20
15.3950074768
 10
359.3447351074
 20
15.7164353943
 10
358.5411621094
 20
15.7164353943
  0
LWPOLYLINE
  5
38A
100
AcDbEntity
  8
0
100
AcDbPolyline
 62
2
  6
CONTINUOUS
 90
6
 70
0
 10
359.5054394531
 20
14.1092926025
 10
358.8625964355
 20
14.1092926025
 10
358.5411621094
 20
14.2700065613
 10
358.5411621094
 20
14.7521484375
 10
358.8625964355
 20
14.9128623962
 10
359.5054394531
 20
14.9128623962
  0
LWPOLYLINE
  5
38B
100
AcDbEntity
  8
0
100
AcDbPolyline
 62
2
  6
CONTINUOUS
 90
5
 70
0
 10
360.1483081055
 20
15.7164353943
 10
360.5768701172
 20
14.1092926025
 10
360.9518811035
 20
15.3950074768
 10
361.3268664551
 20
14.1092926025
 10
361.7554541016
 20
15.7164353943
  0
LINE
  5
38C
100
AcDbEntity
  8
0
100
AcDbLine
 62
2
  6
CONTINUOUS
 10
364.4875817871
 20
14.1092926025
 11
364.4875817871
 21
15.7164353943
  0
LWPOLYLINE
  5
38D
100
AcDbEntity
  8
0
100
AcDbPolyline
 62
2
  6
CONTINUOUS
 90
4
 70
0
 10
364.4875817871
 20
16.1985772705
 10
364.4875817871
 20
16.3592912292
 10
364.5411584473
 20
16.3592912292
 10
364.4875817871
 20
16.1985772705
  0
LWPOLYLINE
  5
38E
100
AcDbEntity
  8
0
100
AcDbPolyline
 62
2
  6
CONTINUOUS
 90
5
 70
0
 10
365.3447314453
 20
14.1092926025
 10
365.3447314453
 20
15.7164353943
 10
366.1483044434
 20
15.7164353943
 10
366.3090087891
 20
15.5557214355
 10
366.3090087891
 20
14.1092926025
  0
LWPOLYLINE
  5
38F
100
AcDbEntity
  8
0
100
AcDbPolyline
 62
2
  6
CONTINUOUS
 90
4
 70
0
 10
368.9875854492
 20
14.1092926025
 10
368.9875854492
 20
16.1985772705
 10
369.1483154297
 20
16.3592912292
 10
369.4697241211
 20
16.3592912292
  0
LINE
  5
390
100
AcDbEntity
  8
0
100
AcDbLine
 62
2
  6
CONTINUOUS
 10
369.4697241211
 20
15.7164353943
 11
368.7197277832
 21
15.7164353943
  0
LWPOLYLINE
  5
391
100
AcDbEntity
  8
0
100
AcDbPolyline
 62
2
  6
CONTINUOUS
 90
9
 70
0
 10
370.0054394531
 20
14.43072052
 10
370.0054394531
 20
15.3950074768
 10
370.3268737793
 20
15.7164353943
 10
370.6483081055
 20
15.7164353943
 10
370.9697424316
 20
15.3950074768
 10
370.9697424316
 20
14.43072052
 10
370.6483081055
 20
14.1092926025
 10
370.3268737793
 20
14.1092926025
 10
370.0054394531
 20
14.43072052
  0
LWPOLYLINE
  5
392
100
AcDbEntity
  8
0
100
AcDbPolyline
 62
2
  6
CONTINUOUS
 90
5
 70
0
 10
371.6125854492
 20
14.1092926025
 10
371.6125854492
 20
15.7164353943
 10
372.2554541016
 20
15.7164353943
 10
372.3625817871
 20
15.5557214355
 10
372.3625817871
 20
15.2342935181
  0
LWPOLYLINE
  5
393
100
AcDbEntity
  8
0
100
AcDbPolyline
 62
2
  6
CONTINUOUS
 90
6
 70
0
 10
373.8626000977
 20
14.1092926025
 10
373.2197314453
 20
14.1092926025
 10
373.0590270996
 20
14.2700065613
 10
373.0590270996
 20
15.5557214355
 10
373.2197314453
 20
15.7164353943
 10
373.8626000977
 20
15.7164353943
  0
LWPOLYLINE
  5
394
100
AcDbEntity
  8
0
100
AcDbPolyline
 62
2
  6
CONTINUOUS
 90
9
 70
0
 10
375.469720459
 20
14.1092926025
 10
374.8268774414
 20
14.1092926025
 10
374.5054431152
 20
14.43072052
 10
374.5054431152
 20
15.3950074768
 10
374.8268774414
 20
15.7164353943
 10
375.1483117676
 20
15.7164353943
 10
375.469720459
 20
15.3950074768
 10
375.469720459
 20
14.9128623962
 10
374.5054431152
 20
14.9128623962
  0
LWPOLYLINE
  5
395
100
AcDbEntity
  8
0
100
AcDbPolyline
 62
2
  6
CONTINUOUS
 90
9
 70
0
 10
376.5947277832
 20
14.4842907715
 10
376.6483044434
 20
14.3771502686
 10
376.6483044434
 20
14.3235768127
 10
376.5947277832
 20
14.2164363098
 10
376.4876000977
 20
14.2164363098
 10
376.4340234375
 20
14.3235768127
 10
376.4340234375
 20
14.3771502686
 10
376.4876000977
 20
14.4842907715
 10
376.5947277832
 20
14.4842907715
  0
LWPOLYLINE
  5
396
100
AcDbEntity
  8
0
100
AcDbPolyline
 62
2
  6
CONTINUOUS
 90
3
 70
0
 10
321.3090234375
 20
10.7342930603
 10
321.9518664551
 20
12.984291687
 10
322.5947351074
 20
10.7342930603
  0
LINE
  5
397
100
AcDbEntity
  8
0
100
AcDbLine
 62
2
  6
CONTINUOUS
 10
321.5233044434
 20
11.3771488953
 11
322.3804541016
 21
11.3771488953
  0
LWPOLYLINE
  5
398
100
AcDbEntity
  8
0
100
AcDbPolyline
 62
2
  6
CONTINUOUS
 90
4
 70
0
 10
323.7197424316
 20
10.7342930603
 10
323.3983081055
 20
10.7342930603
 10
323.237578125
 20
10.895007019
 10
323.237578125
 20
12.984291687
  0
LWPOLYLINE
  5
399
100
AcDbEntity
  8
0
100
AcDbPolyline
 62
2
  6
CONTINUOUS
 90
4
 70
0
 10
324.8447241211
 20
10.7342930603
 10
324.5233154297
 20
10.7342930603
 10
324.3625854492
 20
10.895007019
 10
324.3625854492
 20
12.984291687
  0
LWPOLYLINE
  5
39A
100
AcDbEntity
  8
0
100
AcDbPolyline
 62
2
  6
CONTINUOUS
 90
5
 70
0
 10
327.2554431152
 20
10.7342930603
 10
327.2554431152
 20
12.3414358521
 10
327.8983117676
 20
12.3414358521
 10
328.0054394531
 20
12.1807218933
 10
328.0054394531
 20
11.8592907715
  0
LINE
  5
39B
100
AcDbEntity
  8
0
100
AcDbLine
 62
2
  6
CONTINUOUS
 10
329.023293457
 20
10.7342930603
 11
329.023293457
 21
12.3414358521
  0
LWPOLYLINE
  5
39C
100
AcDbEntity
  8
0
100
AcDbPolyline
 62
2
  6
CONTINUOUS
 90
4
 70
0
 10
329.023293457
 20
12.8235777283
 10
329.023293457
 20
12.984291687
 10
329.0768701172
 20
12.984291687
 10
329.023293457
 20
12.8235777283
  0
LWPOLYLINE
  5
39D
100
AcDbEntity
  8
0
100
AcDbPolyline
 62
2
  6
CONTINUOUS
 90
9
 70
0
 10
329.8804431152
 20
10.1985777283
 10
330.6840161133
 20
10.1985777283
 10
330.844720459
 20
10.4128619385
 10
330.844720459
 20
12.3414358521
 10
330.0411730957
 20
12.3414358521
 10
329.8804431152
 20
12.1807218933
 10
329.8804431152
 20
10.895007019
 10
330.0411730957
 20
10.7342930603
 10
330.844720459
 20
10.7342930603
  0
LINE
  5
39E
100
AcDbEntity
  8
0
100
AcDbLine
 62
2
  6
CONTINUOUS
 10
331.4875891113
 20
10.7342930603
 11
331.4875891113
 21
12.984291687
  0
LWPOLYLINE
  5
39F
100
AcDbEntity
  8
0
100
AcDbPolyline
 62
2
  6
CONTINUOUS
 90
4
 70
0
 10
331.4875891113
 20
12.3414358521
 10
332.2911621094
 20
12.3414358521
 10
332.4518664551
 20
12.1807218933
 10
332.4518664551
 20
10.7342930603
  0
LINE
  5
3A0
100
AcDbEntity
  8
0
100
AcDbLine
 62
2
  6
CONTINUOUS
 10
333.3625927734
 20
10.7342930603
 11
333.3625927734
 21
12.984291687
  0
LINE
  5
3A1
100
AcDbEntity
  8
0
100
AcDbLine
 62
2
  6
CONTINUOUS
 10
333.0947351074
 20
12.3414358521
 11
333.737578125
 21
12.3414358521
  0
LWPOLYLINE
  5
3A2
100
AcDbEntity
  8
0
100
AcDbPolyline
 62
2
  6
CONTINUOUS
 90
12
 70
0
 10
334.3804467773
 20
10.895007019
 10
334.541151123
 20
10.7342930603
 10
335.1840197754
 20
10.7342930603
 10
335.3447241211
 20
10.895007019
 10
335.3447241211
 20
11.3771488953
 10
335.1840197754
 20
11.4842926025
 10
334.541151123
 20
11.5914363098
 10
334.3804467773
 20
11.6985768127
 10
334.3804467773
 20
12.1807218933
 10
334.541151123
 20
12.3414358521
 10
335.1840197754
 20
12.3414358521
 10
335.3447241211
 20
12.1807218933
  0
LWPOLYLINE
  5
3A3
100
AcDbEntity
  8
0
100
AcDbPolyline
 62
2
  6
CONTINUOUS
 90
5
 70
0
 10
337.7554431152
 20
10.7342930603
 10
337.7554431152
 20
12.3414358521
 10
338.3983117676
 20
12.3414358521
 10
338.5054394531
 20
12.1807218933
 10
338.5054394531
 20
11.8592907715
  0
LWPOLYLINE
  5
3A4
100
AcDbEntity
  8
0
100
AcDbPolyline
 62
2
  6
CONTINUOUS
 90
9
 70
0
 10
340.1661621094
 20
10.7342930603
 10
339.523293457
 20
10.7342930603
 10
339.2018847656
 20
11.0557209778
 10
339.2018847656
 20
12.0200047302
 10
339.523293457
 20
12.3414358521
 10
339.8447277832
 20
12.3414358521
 10
340.1661621094
 20
12.0200047302
 10
340.1661621094
 20
11.537862854
 10
339.2018847656
 20
11.537862854
  0
LWPOLYLINE
  5
3A5
100
AcDbEntity
  8
0
100
AcDbPolyline
 62
2
  6
CONTINUOUS
 90
12
 70
0
 10
340.8090307617
 20
10.895007019
 10
340.9697351074
 20
10.7342930603
 10
341.612578125
 20
10.7342930603
 10
341.7733081055
 20
10.895007019
 10
341.7733081055
 20
11.3771488953
 10
341.612578125
 20
11.4842926025
 10
340.9697351074
 20
11.5914363098
 10
340.8090307617
 20
11.6985768127
 10
340.8090307617
 20
12.1807218933
 10
340.9697351074
 20
12.3414358521
 10
341.612578125
 20
12.3414358521
 10
341.7733081055
 20
12.1807218933
  0
LWPOLYLINE
  5
3A6
100
AcDbEntity
  8
0
100
AcDbPolyline
 62
2
  6
CONTINUOUS
 90
9
 70
0
 10
343.3804541016
 20
10.7342930603
 10
342.7375854492
 20
10.7342930603
 10
342.416151123
 20
11.0557209778
 10
342.416151123
 20
12.0200047302
 10
342.7375854492
 20
12.3414358521
 10
343.0590197754
 20
12.3414358521
 10
343.3804541016
 20
12.0200047302
 10
343.3804541016
 20
11.537862854
 10
342.416151123
 20
11.537862854
  0
LWPOLYLINE
  5
3A7
100
AcDbEntity
  8
0
100
AcDbPolyline
 62
2
  6
CONTINUOUS
 90
5
 70
0
 10
344.0232971191
 20
10.7342930603
 10
344.0232971191
 20
12.3414358521
 10
344.6661657715
 20
12.3414358521
 10
344.773293457
 20
12.1807218933
 10
344.773293457
 20
11.8592907715
  0
LWPOLYLINE
  5
3A8
100
AcDbEntity
  8
0
100
AcDbPolyline
 62
2
  6
CONTINUOUS
 90
3
 70
0
 10
345.4697387695
 20
12.3414358521
 10
345.9518774414
 20
10.7342930603
 10
346.4340161133
 20
12.3414358521
  0
LWPOLYLINE
  5
3A9
100
AcDbEntity
  8
0
100
AcDbPolyline
 62
2
  6
CONTINUOUS
 90
9
 70
0
 10
348.0411621094
 20
10.7342930603
 10
347.398293457
 20
10.7342930603
 10
347.0768847656
 20
11.0557209778
 10
347.0768847656
 20
12.0200047302
 10
347.398293457
 20
12.3414358521
 10
347.7197277832
 20
12.3414358521
 10
348.0411621094
 20
12.0200047302
 10
348.0411621094
 20
11.537862854
 10
347.0768847656
 20
11.537862854
  0
LWPOLYLINE
  5
3AA
100
AcDbEntity
  8
0
100
AcDbPolyline
 62
2
  6
CONTINUOUS
 90
7
 70
0
 10
349.6483081055
 20
12.984291687
 10
349.6483081055
 20
10.7342930603
 10
349.0054394531
 20
10.7342930603
 10
348.6840307617
 20
10.895007019
 10
348.6840307617
 20
12.1807218933
 10
349.0054394531
 20
12.3414358521
 10
349.6483081055
 20
12.3414358521
  0
LWPOLYLINE
  5
3AB
100
AcDbEntity
  8
0
100
AcDbPolyline
 62
2
  6
CONTINUOUS
 90
9
 70
0
 10
350.7733154297
 20
11.1092912292
 10
350.8268664551
 20
11.0021507263
 10
350.8268664551
 20
10.9485772705
 10
350.7733154297
 20
10.8414335632
 10
350.6661621094
 20
10.8414335632
 10
350.6125854492
 20
10.9485772705
 10
350.6125854492
 20
11.0021507263
 10
350.6661621094
 20
11.1092912292
 10
350.7733154297
 20
11.1092912292
  0
ACAD_TABLE
  5
3AC
100
AcDbEntity
  8
0
 62
2
  6
CONTINUOUS
100
AcDbBlockReference
  2
*T1
 10
319.8215188711
 20
50.4217920391
 30
0.0
100
AcDbTable
342
       461
343
22E
 11
1.0
 21
0.0
 31
0.0
 90
22
 91
5
 92
5
 93
0
 94
0
 95
0
 96
0
141
6.0
141
6.0
141
10.0
141
5.0
141
13.0
142
10.0
142
10.0
142
10.0
142
40.0
142
20.0
171
1
172
0
173
0
174
0
175
3
176
4
 91
1
178
0
145
0.0
170
5
171
1
172
0
173
1
174
0
175
1
176
1
 91
1
178
0
145
0.0
170
1
171
1
172
0
173
1
174
0
175
1
176
1
 91
1
178
0
145
0.0
170
1
171
1
172
0
173
0
174
0
175
1
176
1
 91
33
178
0
145
0.0
301
CELL_VALUE
 90
4
  1
{\Ftxt.shx;\W6.690476;\H3.000000; }
304
ACVALUE_END
170
4
140
3.0
171
1
172
0
173
0
174
0
175
1
176
1
 91
33
178
0
145
0.0
301
CELL_VALUE
 90
4
  1
{\Ftxt.shx;\W2.571429;\H3.500000; }{\Ftxt.shx;\W1.357143;\H3.500000; }
304
ACVALUE_END
170
4
140
3.5
171
1
172
0
173
1
174
0
175
1
176
1
 91
1
178
0
145
0.0
170
1
171
1
172
0
173
1
174
0
175
1
176
1
 91
1
178
0
145
0.0
170
1
171
1
172
0
173
1
174
0
175
1
176
1
 91
1
178
0
145
0.0
170
1
171
1
172
0
173
0
174
0
175
1
176
1
 91
33
178
0
145
0.0
301
CELL_VALUE
 90
4
  1
{\Ftxt.shx;\W3.714286;\H3.500000; }{\Ftxt.shx;\W1.500000;\H3.500000; }
304
ACVALUE_END
170
1
140
3.5
171
1
172
0
173
0
174
0
175
1
176
1
 91
33
178
0
145
0.0
301
CELL_VALUE
 90
4
  1
{\Ftxt.shx;\W1.571429;\H3.500000; }
304
ACVALUE_END
170
4
140
3.5
171
1
172
0
173
1
174
0
175
1
176
1
 91
1
178
0
145
0.0
170
1
171
1
172
0
173
1
174
0
175
1
176
1
 91
1
178
0
145
0.0
170
1
171
1
172
0
173
1
174
0
175
1
176
1
 91
1
178
0
145
0.0
170
1
171
1
172
0
173
0
174
0
175
2
176
1
 91
33
178
0
145
0.0
301
CELL_VALUE
 90
4
  1
{\Ftxt.shx;\W6.880952;\H3.500000; }
304
ACVALUE_END
170
4
140
3.5
171
1
172
0
173
1
174
0
175
1
176
1
 91
1
178
0
145
0.0
170
1
171
1
172
0
173
1
174
0
175
1
176
1
 91
1
178
0
145
0.0
170
1
171
1
172
0
173
1
174
0
175
1
176
1
 91
1
178
0
145
0.0
170
1
171
1
172
0
173
1
174
0
175
1
176
1
 91
1
178
0
145
0.0
170
1
171
1
172
0
173
0
174
0
175
2
176
1
 91
33
178
0
145
0.0
301
CELL_VALUE
 90
4
  1
{\Ftxt.shx;\W3.690476;\H2.500000; }{\Ftxt.shx;\W7.309524;\H2.500000; }
304
ACVALUE_END
170
4
140
2.5
171
1
172
0
173
1
174
0
175
1
176
1
 91
1
178
0
145
0.0
170
1
171
1
172
0
173
0
174
0
175
5
176
1
 91
33
178
0
145
0.0
301
CELL_VALUE
 90
4
  1
{\Ftxt.shx;\W35.880952;\H2.250000; }\P{\Ftxt.shx;\W22.452381;\H2.250000; }{\Ftxt.shx;\W6.642857;\H2.250000; }{\Ftxt.shx;\W10.595238;\H2.250000; }\P{\Ftxt.shx;\W25.714286;\H2.250000; }\P{\Ftxt.shx;\W13.452381;\H2.250000; }
304
ACVALUE_END
170
4
140
2.25
171
1
172
0
173
1
174
0
175
1
176
1
 91
1
178
0
145
0.0
170
1
171
1
172
0
173
1
174
0
175
1
176
1
 91
1
178
0
145
0.0
170
1
171
1
172
0
173
1
174
0
175
1
176
1
 91
1
178
0
145
0.0
170
1
171
1
172
0
173
1
174
0
175
1
176
1
 91
1
178
0
145
0.0
170
1
  0
LINE
  5
3AD
100
AcDbEntity
  8
0
100
AcDbLine
 62
7
  6
CONTINUOUS
 10
0.0
 20
0.0
 11
0.0
 21
297.0
  0
LINE
  5
3AE
100
AcDbEntity
  8
0
100
AcDbLine
 62
7
  6
CONTINUOUS
 10
0.0
 20
0.0
 11
420.0
 21
0.0
  0
LINE
  5
3AF
100
AcDbEntity
  8
0
100
AcDbLine
 62
7
  6
CONTINUOUS
 10
0.0
 20
297.0
 11
420.0
 21
297.0
  0
LINE
  5
3B0
100
AcDbEntity
  8
0
100
AcDbLine
 62
7
  6
CONTINUOUS
 10
420.0
 20
0.0
 11
420.0
 21
297.0
  0
LINE
  5
3B1
100
AcDbEntity
  8
02___PRT_ALL_AXES
100
AcDbLine
 62
7
  6
CONTINUOUS
 10
40.8724734043
 20
251.0247340426
 11
40.8724734043
 21
252.4247340426
  0
LINE
  5
3B2
100
AcDbEntity
  8
02___PRT_ALL_AXES
100
AcDbLine
 62
7
  6
CONTINUOUS
 10
41.0724734043
 20
258.7247340426
 11
41.0724734043
 21
259.7247340426
  0
LINE
  5
3B3
100
AcDbEntity
  8
7_ALL_FEATURES
100
AcDbLine
 62
7
  6
CONTINUOUS
 10
41.3164501663
 20
252.7247340426
 11
41.4735656957
 21
258.7247340426
  0
LINE
  5
3B4
100
AcDbEntity
  8
02___PRT_ALL_AXES
100
AcDbLine
 62
7
  6
CONTINUOUS
 10
43.5724734043
 20
250.4247340426
 11
43.5724734043
 21
238.7247340426
  0
LINE
  5
3B5
100
AcDbEntity
  8
7_ALL_FEATURES
100
AcDbLine
 62
7
  6
CONTINUOUS
 10
43.5724734043
 20
238.7247340426
 11
43.5724734043
 21
250.4247340426
  0
LINE
  5
3B6
100
AcDbEntity
  8
7_ALL_FEATURES
100
AcDbLine
 62
7
  6
CONTINUOUS
 10
43.7546968347
 20
238.7247340426
 11
43.7546968347
 21
231.4747340426
  0
LINE
  5
3B7
100
AcDbEntity
  8
7_ALL_FEATURES
100
AcDbLine
 62
7
  6
CONTINUOUS
 10
41.1724734043
 20
252.7247340426
 11
40.8724734043
 21
252.4247340426
  0
LINE
  5
3B8
100
AcDbEntity
  8
7_ALL_FEATURES
100
AcDbLine
 62
7
  6
CONTINUOUS
 10
41.1724734043
 20
250.7247340426
 11
40.8724734043
 21
251.0247340426
  0
LWPOLYLINE
  5
3B9
100
AcDbEntity
  8
0
100
AcDbPolyline
 62
2
  6
CONTINUOUS
 90
7
 70
0
 43
0.1500000036
 10
107.5724743652
 20
202.5412646484
 10
106.0724752808
 20
202.5412646484
 10
107.5724743652
 20
204.6841259766
 10
107.5724743652
 20
205.1126879883
 10
107.1438995361
 20
205.5412756348
 10
106.5010437012
 20
205.5412756348
 10
106.0724752808
 20
204.8984069824
  0
LWPOLYLINE
  5
3BA
100
AcDbEntity
  8
0
100
AcDbPolyline
 62
2
  6
CONTINUOUS
 90
3
 70
0
 43
0.1500000036
 10
109.9296166992
 20
203.1841333008
 10
108.4296112061
 20
203.1841333008
 10
109.072467041
 20
205.5412756348
  0
LINE
  5
3BB
100
AcDbEntity
  8
7_ALL_FEATURES
100
AcDbLine
 62
7
  6
CONTINUOUS
 10
43.5724734045
 20
250.4247340423
 11
43.2724734045
 21
250.7247340423
  0
LINE
  5
3BC
100
AcDbEntity
  8
7_ALL_FEATURES
100
AcDbLine
 62
7
  6
CONTINUOUS
 10
125.0724734043
 20
214.7247340426
 11
132.0724734043
 21
214.7247340426
  0
LINE
  5
3BD
100
AcDbEntity
  8
02___PRT_ALL_AXES
100
AcDbLine
 62
7
  6
CONTINUOUS
 10
125.0738023297
 20
214.7247340426
 11
132.0724734043
 21
214.7247340426
  0
LINE
  5
3BE
100
AcDbEntity
  8
02___PRT_ALL_AXES
100
AcDbLine
 62
9
  6
CONTINUOUS
 10
131.1705496156
 20
218.2247340426
 11
125.9743971929
 21
218.2247340426
  0
LINE
  5
3BF
100
AcDbEntity
  8
02___PRT_ALL_AXES
100
AcDbLine
 62
9
  6
CONTINUOUS
 10
124.2423463853
 20
218.2247340426
 11
121.644270174
 21
218.2247340426
  0
LINE
  5
3C0
100
AcDbEntity
  8
02___PRT_ALL_AXES
100
AcDbLine
 62
9
  6
CONTINUOUS
 10
132.9026004232
 20
218.2247340426
 11
135.5006766345
 21
218.2247340426
  0
LINE
  5
3C1
100
AcDbEntity
  8
02___PRT_ALL_AXES
100
AcDbLine
 62
7
  6
CONTINUOUS
 10
131.1705496156
 20
218.7247340426
 11
125.9743971929
 21
218.7247340426
  0
LINE
  5
3C2
100
AcDbEntity
  8
02___PRT_ALL_AXES
100
AcDbLine
 62
7
  6
CONTINUOUS
 10
124.2423463853
 20
218.7247340426
 11
121.644270174
 21
218.7247340426
  0
LINE
  5
3C3
100
AcDbEntity
  8
02___PRT_ALL_AXES
100
AcDbLine
 62
7
  6
CONTINUOUS
 10
132.9026004232
 20
218.7247340426
 11
135.5006766345
 21
218.7247340426
  0
LINE
  5
3C4
100
AcDbEntity
  8
02___PRT_ALL_AXES
100
AcDbLine
 62
7
  6
CONTINUOUS
 10
135.5006766345
 20
224.2247340426
 11
121.644270174
 21
224.2247340426
  0
LINE
  5
3C5
100
AcDbEntity
  8
02___PRT_ALL_AXES
100
AcDbLine
 62
7
  6
CONTINUOUS
 10
135.5006766345
 20
227.2247340426
 11
121.644270174
 21
227.2247340426
  0
LINE
  5
3C6
100
AcDbEntity
  8
7_ALL_FEATURES
100
AcDbLine
 62
7
  6
CONTINUOUS
 10
44.5069348412
 20
230.7247340426
 11
166.8224734043
 21
230.7247340426
  0
LINE
  5
3C7
100
AcDbEntity
  8
7_ALL_FEATURES
100
AcDbLine
 62
7
  6
CONTINUOUS
 10
167.5724734043
 20
231.4747340426
 11
140.594982357
 21
231.4747340426
  0
LINE
  5
3C8
100
AcDbEntity
  8
7_ALL_FEATURES
100
AcDbLine
 62
7
  6
CONTINUOUS
 10
132.367741021
 20
231.4747340426
 11
43.7546968347
 21
231.4747340426
  0
LINE
  5
3C9
100
AcDbEntity
  8
7_ALL_FEATURES
100
AcDbLine
 62
7
  6
CONTINUOUS
 10
140.594982357
 20
238.7247340426
 11
132.367741021
 21
238.7247340426
  0
LINE
  5
3CA
100
AcDbEntity
  8
7_ALL_FEATURES
100
AcDbLine
 62
7
  6
CONTINUOUS
 10
43.7546968347
 20
238.7247340426
 11
43.5724734043
 21
238.7247340426
  0
LWPOLYLINE
  5
3CB
100
AcDbEntity
  8
0
100
AcDbPolyline
 62
2
  6
CONTINUOUS
 90
2
 70
0
 43
0.1500000036
 10
109.4296105957
 20
202.5412646484
 10
109.4296105957
 20
204.0412573242
  0
LWPOLYLINE
  5
3CC
100
AcDbEntity
  8
0
100
AcDbPolyline
 62
2
  6
CONTINUOUS
 90
13
 70
0
 43
0.1500000036
 10
100.3581848145
 20
204.0412573242
 10
100.6081878662
 20
204.7912536621
 10
101.108187561
 20
205.2912597656
 10
101.8581903076
 20
205.5412756348
 10
102.6081866455
 20
205.2912597656
 10
103.1081863403
 20
204.7912536621
 10
103.3581893921
 20
204.0412573242
 10
103.1081863403
 20
203.2912609863
 10
102.6081866455
 20
202.7912548828
 10
101.8581903076
 20
202.5412646484
 10
101.108187561
 20
202.7912548828
 10
100.6081878662
 20
203.2912609863
 10
100.3581848145
 20
204.0412573242
  0
LWPOLYLINE
  5
3CD
100
AcDbEntity
  8
0
100
AcDbPolyline
 62
2
  6
CONTINUOUS
 90
2
 70
0
 43
0.1500000036
 10
100.6081878662
 20
201.7912683105
 10
103.1081863403
 20
206.2912719727
  0
LINE
  5
3CE
100
AcDbEntity
  8
7_ALL_FEATURES
100
AcDbLine
 62
7
  6
CONTINUOUS
 10
167.5724734043
 20
250.4247340426
 11
43.5724734043
 21
250.4247340426
  0
LINE
  5
3CF
100
AcDbEntity
  8
7_ALL_FEATURES
100
AcDbLine
 62
7
  6
CONTINUOUS
 10
41.1729980929
 20
250.7247340426
 11
169.9719487156
 21
250.7247340426
  0
LINE
  5
3D0
100
AcDbEntity
  8
7_ALL_FEATURES
100
AcDbLine
 62
7
  6
CONTINUOUS
 10
40.8724734043
 20
251.0247340426
 11
170.2724734043
 21
251.0247340426
  0
LINE
  5
3D1
100
AcDbEntity
  8
7_ALL_FEATURES
100
AcDbLine
 62
7
  6
CONTINUOUS
 10
40.8724734043
 20
252.4247340426
 11
170.2724734043
 21
252.4247340426
  0
LINE
  5
3D2
100
AcDbEntity
  8
02___PRT_ALL_AXES
100
AcDbLine
 62
7
  6
CONTINUOUS
 10
121.644270174
 20
230.7247340426
 11
121.644270174
 21
227.2247340426
  0
LINE
  5
3D3
100
AcDbEntity
  8
02___PRT_ALL_AXES
100
AcDbLine
 62
7
  6
CONTINUOUS
 10
121.644270174
 20
217.5195308196
 11
121.644270174
 21
224.2247340426
  0
LINE
  5
3D4
100
AcDbEntity
  8
02___PRT_ALL_AXES
100
AcDbLine
 62
7
  6
CONTINUOUS
 10
122.5724734043
 20
224.2247340426
 11
122.5724734043
 21
227.2247340426
  0
LINE
  5
3D5
100
AcDbEntity
  8
02___PRT_ALL_AXES
100
AcDbLine
 62
7
  6
CONTINUOUS
 10
124.2423463853
 20
218.2247340426
 11
124.2423463853
 21
218.7247340426
  0
LINE
  5
3D6
100
AcDbEntity
  8
7_ALL_FEATURES
100
AcDbLine
 62
7
  6
CONTINUOUS
 10
41.1729980928
 20
252.7247340426
 11
169.9719487157
 21
252.7247340426
  0
LINE
  5
3D7
100
AcDbEntity
  8
02___PRT_ALL_AXES
100
AcDbLine
 62
7
  6
CONTINUOUS
 10
125.9743971929
 20
218.2247340426
 11
125.9743971929
 21
218.7247340426
  0
LINE
  5
3D8
100
AcDbEntity
  8
02___PRT_ALL_AXES
100
AcDbLine
 62
7
  6
CONTINUOUS
 10
128.5724734043
 20
230.7247340426
 11
128.5724734043
 21
227.2247340426
  0
LINE
  5
3D9
100
AcDbEntity
  8
02___PRT_ALL_AXES
100
AcDbLine
 62
7
  6
CONTINUOUS
 10
128.5724734043
 20
224.2247340426
 11
128.5724734043
 21
219.7247340426
  0
LWPOLYLINE
  5
3DA
100
AcDbEntity
  8
0
100
AcDbPolyline
 62
2
  6
CONTINUOUS
 90
3
 70
0
 43
0.1500000036
 10
104.3581887817
 20
204.6841259766
 10
105.2153320312
 20
205.5412756348
 10
105.2153320312
 20
202.5412646484
  0
LINE
  5
3DB
100
AcDbEntity
  8
02___PRT_ALL_AXES
100
AcDbLine
 62
7
  6
CONTINUOUS
 10
41.0724734043
 20
258.7247340426
 11
170.0724734043
 21
258.7247340426
  0
LINE
  5
3DC
100
AcDbEntity
  8
7_ALL_FEATURES
100
AcDbLine
 62
9
  6
CONTINUOUS
 10
41.0724734043
 20
259.7247340426
 11
170.0724734043
 21
259.7247340426
  0
LINE
  5
3DD
100
AcDbEntity
  8
7_ALL_FEATURES
100
AcDbLine
 62
7
  6
CONTINUOUS
 10
43.0729825817
 20
261.7247340426
 11
168.0719642268
 21
261.7247340426
  0
LINE
  5
3DE
100
AcDbEntity
  8
02___PRT_ALL_AXES
100
AcDbLine
 62
7
  6
CONTINUOUS
 10
131.1705496156
 20
218.2247340426
 11
131.1705496156
 21
218.7247340426
  0
LINE
  5
3DF
100
AcDbEntity
  8
7_ALL_FEATURES
100
AcDbLine
 62
7
  6
CONTINUOUS
 10
132.367741021
 20
238.7247340426
 11
132.367741021
 21
231.4747340426
  0
LINE
  5
3E0
100
AcDbEntity
  8
02___PRT_ALL_AXES
100
AcDbLine
 62
7
  6
CONTINUOUS
 10
132.9026004232
 20
218.2247340426
 11
132.9026004232
 21
218.7247340426
  0
LINE
  5
3E1
100
AcDbEntity
  8
02___PRT_ALL_AXES
100
AcDbLine
 62
7
  6
CONTINUOUS
 10
134.5724734043
 20
224.2247340426
 11
134.5724734043
 21
227.2247340426
  0
LINE
  5
3E2
100
AcDbEntity
  8
02___PRT_ALL_AXES
100
AcDbLine
 62
7
  6
CONTINUOUS
 10
135.5006766345
 20
230.7247340426
 11
135.5006766345
 21
227.2247340426
  0
LINE
  5
3E3
100
AcDbEntity
  8
02___PRT_ALL_AXES
100
AcDbLine
 62
7
  6
CONTINUOUS
 10
135.5006766345
 20
217.5195308196
 11
135.5006766345
 21
224.2247340426
  0
LINE
  5
3E4
100
AcDbEntity
  8
7_ALL_FEATURES
100
AcDbLine
 62
9
  6
CONTINUOUS
 10
135.8610940722
 20
238.7247340426
 11
135.8610940722
 21
230.7247340426
  0
LINE
  5
3E5
100
AcDbEntity
  8
7_ALL_FEATURES
100
AcDbLine
 62
7
  6
CONTINUOUS
 10
140.594982357
 20
238.7247340426
 11
140.594982357
 21
231.4747340426
  0
LINE
  5
3E6
100
AcDbEntity
  8
7_ALL_FEATURES
100
AcDbLine
 62
7
  6
CONTINUOUS
 10
167.5724734037
 20
250.424734042
 11
167.8724734037
 21
250.724734042
  0
LINE
  5
3E7
100
AcDbEntity
  8
7_ALL_FEATURES
100
AcDbLine
 62
7
  6
CONTINUOUS
 10
169.9724734043
 20
250.7247340426
 11
170.2724734043
 21
251.0247340426
  0
LINE
  5
3E8
100
AcDbEntity
  8
7_ALL_FEATURES
100
AcDbLine
 62
7
  6
CONTINUOUS
 10
166.8224734043
 20
230.7247340426
 11
167.5724734039
 21
231.4747340422
  0
LINE
  5
3E9
100
AcDbEntity
  8
7_ALL_FEATURES
100
AcDbLine
 62
7
  6
CONTINUOUS
 10
169.9724734043
 20
252.7247340426
 11
170.2724734043
 21
252.4247340426
  0
LINE
  5
3EA
100
AcDbEntity
  8
7_ALL_FEATURES
100
AcDbLine
 62
7
  6
CONTINUOUS
 10
169.8284966422
 20
252.7247340426
 11
169.6713811128
 21
258.7247340426
  0
LINE
  5
3EB
100
AcDbEntity
  8
02___PRT_ALL_AXES
100
AcDbLine
 62
7
  6
CONTINUOUS
 10
167.5724734043
 20
250.4247340426
 11
167.5724734043
 21
231.4747340426
  0
LINE
  5
3EC
100
AcDbEntity
  8
7_ALL_FEATURES
100
AcDbLine
 62
7
  6
CONTINUOUS
 10
167.5724734043
 20
231.4747340426
 11
167.5724734043
 21
250.4247340426
  0
LINE
  5
3ED
100
AcDbEntity
  8
02___PRT_ALL_AXES
100
AcDbLine
 62
7
  6
CONTINUOUS
 10
170.0724734043
 20
258.7247340426
 11
170.0724734043
 21
259.7247340426
  0
LINE
  5
3EE
100
AcDbEntity
  8
02___PRT_ALL_AXES
100
AcDbLine
 62
7
  6
CONTINUOUS
 10
170.2724734043
 20
251.0247340426
 11
170.2724734043
 21
252.4247340426
  0
LWPOLYLINE
  5
3EF
100
AcDbEntity
  8
0
100
AcDbPolyline
 62
2
  6
CONTINUOUS
 90
3
 70
0
 43
0.1500000036
 10
183.1763067627
 20
254.5104455566
 10
182.3191571045
 20
255.3675952148
 10
185.3191552734
 20
255.3675952148
  0
LWPOLYLINE
  5
3F0
100
AcDbEntity
  8
0
100
AcDbPolyline
 62
2
  6
CONTINUOUS
 90
3
 70
0
 43
0.1500000036
 10
183.1763067627
 20
256.224744873
 10
182.3191571045
 20
257.0818688965
 10
185.3191552734
 20
257.0818688965
  0
LINE
  5
3F1
100
AcDbEntity
  8
7_ALL_FEATURES
100
AcDbLine
 62
7
  6
CONTINUOUS
 10
230.1238031915
 20
251.0247340426
 11
230.1238031915
 21
252.4247340426
  0
LINE
  5
3F2
100
AcDbEntity
  8
02___PRT_ALL_AXES
100
AcDbLine
 62
7
  6
CONTINUOUS
 10
230.1238031915
 20
251.0247340426
 11
230.1238031915
 21
252.4247340426
  0
LINE
  5
3F3
100
AcDbEntity
  8
7_ALL_FEATURES
100
AcDbLine
 62
7
  6
CONTINUOUS
 10
230.3238031915
 20
258.7247340426
 11
230.3238031915
 21
259.7247340426
  0
LINE
  5
3F4
100
AcDbEntity
  8
02___PRT_ALL_AXES
100
AcDbLine
 62
7
  6
CONTINUOUS
 10
230.3238031915
 20
258.7247340426
 11
230.3238031915
 21
259.7247340426
  0
LINE
  5
3F5
100
AcDbEntity
  8
7_ALL_FEATURES
100
AcDbLine
 62
7
  6
CONTINUOUS
 10
230.5677799535
 20
252.7247340426
 11
230.7248954829
 21
258.7247340426
  0
LINE
  5
3F6
100
AcDbEntity
  8
02___PRT_ALL_AXES
100
AcDbLine
 62
7
  6
CONTINUOUS
 10
232.8238031915
 20
250.4247340426
 11
232.8238031915
 21
231.4747340426
  0
LINE
  5
3F7
100
AcDbEntity
  8
7_ALL_FEATURES
100
AcDbLine
 62
7
  6
CONTINUOUS
 10
230.423803192
 20
252.724734043
 11
230.123803192
 21
252.424734043
  0
LINE
  5
3F8
100
AcDbEntity
  8
7_ALL_FEATURES
100
AcDbLine
 62
7
  6
CONTINUOUS
 10
233.5738031915
 20
230.7247340426
 11
232.8238031915
 21
231.4747340426
  0
LINE
  5
3F9
100
AcDbEntity
  8
7_ALL_FEATURES
100
AcDbLine
 62
7
  6
CONTINUOUS
 10
230.4238031917
 20
250.7247340423
 11
230.1238031917
 21
251.0247340423
  0
LINE
  5
3FA
100
AcDbEntity
  8
7_ALL_FEATURES
100
AcDbLine
 62
7
  6
CONTINUOUS
 10
232.8238031915
 20
250.4247340426
 11
232.5238031915
 21
250.7247340426
  0
LINE
  5
3FB
100
AcDbEntity
  8
02___PRT_ALL_AXES
100
AcDbLine
 62
7
  6
CONTINUOUS
 10
291.3450458209
 20
214.7247340426
 11
298.3238031915
 21
214.7247340426
  0
LINE
  5
3FC
100
AcDbEntity
  8
7_ALL_FEATURES
100
AcDbLine
 62
7
  6
CONTINUOUS
 10
291.3238031915
 20
214.7247340426
 11
298.3238031915
 21
214.7247340426
  0
LINE
  5
3FD
100
AcDbEntity
  8
02___PRT_ALL_AXES
100
AcDbLine
 62
9
  6
CONTINUOUS
 10
301.8238031915
 20
218.2247340426
 11
301.3238031915
 21
218.2247340426
  0
LINE
  5
3FE
100
AcDbEntity
  8
02___PRT_ALL_AXES
100
AcDbLine
 62
9
  6
CONTINUOUS
 10
300.3238031915
 20
218.2247340426
 11
295.8238031915
 21
218.2247340426
  0
LINE
  5
3FF
100
AcDbEntity
  8
02___PRT_ALL_AXES
100
AcDbLine
 62
9
  6
CONTINUOUS
 10
287.8238031915
 20
218.2247340426
 11
288.3238031915
 21
218.2247340426
  0
LINE
  5
400
100
AcDbEntity
  8
02___PRT_ALL_AXES
100
AcDbLine
 62
9
  6
CONTINUOUS
 10
289.3238031915
 20
218.2247340426
 11
293.8238031915
 21
218.2247340426
  0
LINE
  5
401
100
AcDbEntity
  8
02___PRT_ALL_AXES
100
AcDbLine
 62
7
  6
CONTINUOUS
 10
301.8238031915
 20
218.7247340426
 11
301.3238031915
 21
218.7247340426
  0
LINE
  5
402
100
AcDbEntity
  8
02___PRT_ALL_AXES
100
AcDbLine
 62
7
  6
CONTINUOUS
 10
300.3238031915
 20
218.7247340426
 11
295.8238031915
 21
218.7247340426
  0
LINE
  5
403
100
AcDbEntity
  8
02___PRT_ALL_AXES
100
AcDbLine
 62
7
  6
CONTINUOUS
 10
287.8238031915
 20
218.7247340426
 11
288.3238031915
 21
218.7247340426
  0
LINE
  5
404
100
AcDbEntity
  8
02___PRT_ALL_AXES
100
AcDbLine
 62
7
  6
CONTINUOUS
 10
289.3238031915
 20
218.7247340426
 11
293.8238031915
 21
218.7247340426
  0
LINE
  5
405
100
AcDbEntity
  8
02___PRT_ALL_AXES
100
AcDbLine
 62
7
  6
CONTINUOUS
 10
287.8238031915
 20
218.7247340426
 11
286.8238031915
 21
219.7247340426
  0
LINE
  5
406
100
AcDbEntity
  8
02___PRT_ALL_AXES
100
AcDbLine
 62
7
  6
CONTINUOUS
 10
302.8238031915
 20
224.2247340426
 11
286.8238031915
 21
224.2247340426
  0
LINE
  5
407
100
AcDbEntity
  8
02___PRT_ALL_AXES
100
AcDbLine
 62
7
  6
CONTINUOUS
 10
302.8238031915
 20
227.2247340426
 11
286.8238031915
 21
227.2247340426
  0
LINE
  5
408
100
AcDbEntity
  8
02___PRT_ALL_AXES
100
AcDbLine
 62
7
  6
CONTINUOUS
 10
286.8238031915
 20
230.7247340426
 11
286.8238031915
 21
227.2247340426
  0
LINE
  5
409
100
AcDbEntity
  8
02___PRT_ALL_AXES
100
AcDbLine
 62
7
  6
CONTINUOUS
 10
286.8238031915
 20
224.2247340426
 11
286.8238031915
 21
219.7247340426
  0
LINE
  5
40A
100
AcDbEntity
  8
02___PRT_ALL_AXES
100
AcDbLine
 62
7
  6
CONTINUOUS
 10
287.8238031915
 20
218.2247340426
 11
287.8238031915
 21
218.7247340426
  0
LINE
  5
40B
100
AcDbEntity
  8
02___PRT_ALL_AXES
100
AcDbLine
 62
7
  6
CONTINUOUS
 10
288.3238031915
 20
218.2247340426
 11
288.3238031915
 21
218.7247340426
  0
LINE
  5
40C
100
AcDbEntity
  8
02___PRT_ALL_AXES
100
AcDbLine
 62
7
  6
CONTINUOUS
 10
288.8238031915
 20
224.2247340426
 11
288.8238031915
 21
227.2247340426
  0
LINE
  5
40D
100
AcDbEntity
  8
02___PRT_ALL_AXES
100
AcDbLine
 62
7
  6
CONTINUOUS
 10
289.3238031915
 20
218.2247340426
 11
289.3238031915
 21
218.7247340426
  0
LINE
  5
40E
100
AcDbEntity
  8
7_ALL_FEATURES
100
AcDbLine
 62
7
  6
CONTINUOUS
 10
290.0738031915
 20
230.7247340426
 11
290.0738031915
 21
238.7247340426
  0
LINE
  5
40F
100
AcDbEntity
  8
02___PRT_ALL_AXES
100
AcDbLine
 62
7
  6
CONTINUOUS
 10
290.8238031915
 20
230.7247340426
 11
290.8238031915
 21
227.2247340426
  0
LINE
  5
410
100
AcDbEntity
  8
02___PRT_ALL_AXES
100
AcDbLine
 62
7
  6
CONTINUOUS
 10
290.8238031915
 20
224.2247340426
 11
290.8238031915
 21
219.7247340426
  0
LINE
  5
411
100
AcDbEntity
  8
7_ALL_FEATURES
100
AcDbLine
 62
7
  6
CONTINUOUS
 10
233.5740513129
 20
230.7247340426
 11
356.0735550844
 21
230.7247340426
  0
LINE
  5
412
100
AcDbEntity
  8
7_ALL_FEATURES
100
AcDbLine
 62
7
  6
CONTINUOUS
 10
356.8238031915
 20
231.4747340426
 11
299.5738031915
 21
231.4747340426
  0
LINE
  5
413
100
AcDbEntity
  8
7_ALL_FEATURES
100
AcDbLine
 62
7
  6
CONTINUOUS
 10
290.0738031915
 20
231.4747340426
 11
232.8238031915
 21
231.4747340426
  0
LINE
  5
414
100
AcDbEntity
  8
02___PRT_ALL_AXES
100
AcDbLine
 62
7
  6
CONTINUOUS
 10
293.8238031915
 20
218.2247340426
 11
293.8238031915
 21
218.7247340426
  0
LWPOLYLINE
  5
415
100
AcDbEntity
  8
0
100
AcDbPolyline
 62
2
  6
CONTINUOUS
 90
2
 70
0
 43
0.1500000036
 10
387.3630725098
 20
236.8676000977
 10
385.863079834
 20
236.8676000977
  0
LWPOLYLINE
  5
416
100
AcDbEntity
  8
0
100
AcDbPolyline
 62
2
  6
CONTINUOUS
 90
4
 70
0
 43
0.1500000036
 10
385.0059301758
 20
238.2247302246
 10
384.3630615234
 20
238.2247302246
 10
384.3630615234
 20
239.7247229004
 10
387.3630725098
 20
238.867598877
  0
LINE
  5
417
100
AcDbEntity
  8
7_ALL_FEATURES
100
AcDbLine
 62
7
  6
CONTINUOUS
 10
299.5738031915
 20
238.7247340426
 11
290.0738031915
 21
238.7247340426
  0
LINE
  5
418
100
AcDbEntity
  8
02___PRT_ALL_AXES
100
AcDbLine
 62
7
  6
CONTINUOUS
 10
295.8238031915
 20
218.2247340426
 11
295.8238031915
 21
218.7247340426
  0
LINE
  5
419
100
AcDbEntity
  8
02___PRT_ALL_AXES
100
AcDbLine
 62
7
  6
CONTINUOUS
 10
298.8238031915
 20
230.7247340426
 11
298.8238031915
 21
227.2247340426
  0
LINE
  5
41A
100
AcDbEntity
  8
02___PRT_ALL_AXES
100
AcDbLine
 62
7
  6
CONTINUOUS
 10
298.8238031915
 20
224.2247340426
 11
298.8238031915
 21
219.7247340426
  0
LINE
  5
41B
100
AcDbEntity
  8
7_ALL_FEATURES
100
AcDbLine
 62
7
  6
CONTINUOUS
 10
299.5738031915
 20
238.7247340426
 11
299.5738031915
 21
230.7247340426
  0
LINE
  5
41C
100
AcDbEntity
  8
02___PRT_ALL_AXES
100
AcDbLine
 62
7
  6
CONTINUOUS
 10
300.3238031915
 20
218.2247340426
 11
300.3238031915
 21
218.7247340426
  0
LINE
  5
41D
100
AcDbEntity
  8
02___PRT_ALL_AXES
100
AcDbLine
 62
7
  6
CONTINUOUS
 10
300.8238031915
 20
224.2247340426
 11
300.8238031915
 21
227.2247340426
  0
LINE
  5
41E
100
AcDbEntity
  8
02___PRT_ALL_AXES
100
AcDbLine
 62
7
  6
CONTINUOUS
 10
301.3238031915
 20
218.2247340426
 11
301.3238031915
 21
218.7247340426
  0
LINE
  5
41F
100
AcDbEntity
  8
02___PRT_ALL_AXES
100
AcDbLine
 62
7
  6
CONTINUOUS
 10
301.8238031915
 20
218.2247340426
 11
301.8238031915
 21
218.7247340426
  0
LINE
  5
420
100
AcDbEntity
  8
02___PRT_ALL_AXES
100
AcDbLine
 62
7
  6
CONTINUOUS
 10
302.8238031915
 20
230.7247340426
 11
302.8238031915
 21
227.2247340426
  0
LINE
  5
421
100
AcDbEntity
  8
02___PRT_ALL_AXES
100
AcDbLine
 62
7
  6
CONTINUOUS
 10
302.8238031915
 20
224.2247340426
 11
302.8238031915
 21
219.7247340426
  0
LINE
  5
422
100
AcDbEntity
  8
7_ALL_FEATURES
100
AcDbLine
 62
7
  6
CONTINUOUS
 10
356.8238031915
 20
250.4247340426
 11
232.8238031915
 21
250.4247340426
  0
LINE
  5
423
100
AcDbEntity
  8
7_ALL_FEATURES
100
AcDbLine
 62
7
  6
CONTINUOUS
 10
230.4238031916
 20
250.7247340426
 11
359.2238031914
 21
250.7247340426
  0
LINE
  5
424
100
AcDbEntity
  8
7_ALL_FEATURES
100
AcDbLine
 62
7
  6
CONTINUOUS
 10
230.1238031915
 20
251.0247340426
 11
359.5238031915
 21
251.0247340426
  0
LINE
  5
425
100
AcDbEntity
  8
7_ALL_FEATURES
100
AcDbLine
 62
7
  6
CONTINUOUS
 10
230.1238031915
 20
252.4247340426
 11
359.5238031915
 21
252.4247340426
  0
LINE
  5
426
100
AcDbEntity
  8
02___PRT_ALL_AXES
100
AcDbLine
 62
7
  6
CONTINUOUS
 10
301.8238031915
 20
218.7247340426
 11
302.8238031915
 21
219.7247340426
  0
LINE
  5
427
100
AcDbEntity
  8
7_ALL_FEATURES
100
AcDbLine
 62
7
  6
CONTINUOUS
 10
230.4238031916
 20
252.7247340426
 11
359.2238031914
 21
252.7247340426
  0
LINE
  5
428
100
AcDbEntity
  8
02___PRT_ALL_AXES
100
AcDbLine
 62
7
  6
CONTINUOUS
 10
230.3238031915
 20
258.7247340426
 11
359.3238031915
 21
258.7247340426
  0
LINE
  5
429
100
AcDbEntity
  8
7_ALL_FEATURES
100
AcDbLine
 62
9
  6
CONTINUOUS
 10
230.3238031915
 20
259.7247340426
 11
359.3238031915
 21
259.7247340426
  0
LINE
  5
42A
100
AcDbEntity
  8
7_ALL_FEATURES
100
AcDbLine
 62
7
  6
CONTINUOUS
 10
232.3238031915
 20
261.7247340426
 11
357.3238031915
 21
261.7247340426
  0
LINE
  5
42B
100
AcDbEntity
  8
7_ALL_FEATURES
100
AcDbLine
 62
7
  6
CONTINUOUS
 10
356.8238031915
 20
250.4247340426
 11
357.1238031915
 21
250.7247340426
  0
LINE
  5
42C
100
AcDbEntity
  8
7_ALL_FEATURES
100
AcDbLine
 62
7
  6
CONTINUOUS
 10
359.2238031912
 20
250.7247340423
 11
359.5238031912
 21
251.0247340423
  0
LINE
  5
42D
100
AcDbEntity
  8
7_ALL_FEATURES
100
AcDbLine
 62
7
  6
CONTINUOUS
 10
356.0738031915
 20
230.7247340426
 11
356.8238031915
 21
231.4747340426
  0
LINE
  5
42E
100
AcDbEntity
  8
7_ALL_FEATURES
100
AcDbLine
 62
7
  6
CONTINUOUS
 10
359.2238031912
 20
252.7247340428
 11
359.5238031912
 21
252.4247340428
  0
LWPOLYLINE
  5
42F
100
AcDbEntity
  8
0
100
AcDbPolyline
 62
2
  6
CONTINUOUS
 90
3
 70
0
 43
0.1500000036
 10
370.9019897461
 20
246.4390319824
 10
370.0448657227
 20
247.2961560059
 10
373.0448510742
 20
247.2961560059
  0
LINE
  5
430
100
AcDbEntity
  8
7_ALL_FEATURES
100
AcDbLine
 62
7
  6
CONTINUOUS
 10
359.0798264294
 20
252.7247340426
 11
358.9227109
 21
258.7247340426
  0
LINE
  5
431
100
AcDbEntity
  8
02___PRT_ALL_AXES
100
AcDbLine
 62
7
  6
CONTINUOUS
 10
356.8238031915
 20
250.4247340426
 11
356.8238031915
 21
231.4747340426
  0
LINE
  5
432
100
AcDbEntity
  8
7_ALL_FEATURES
100
AcDbLine
 62
7
  6
CONTINUOUS
 10
359.3238031915
 20
258.7247340426
 11
359.3238031915
 21
259.7247340426
  0
LINE
  5
433
100
AcDbEntity
  8
02___PRT_ALL_AXES
100
AcDbLine
 62
7
  6
CONTINUOUS
 10
359.3238031915
 20
258.7247340426
 11
359.3238031915
 21
259.7247340426
  0
LINE
  5
434
100
AcDbEntity
  8
7_ALL_FEATURES
100
AcDbLine
 62
7
  6
CONTINUOUS
 10
359.5238031915
 20
251.0247340426
 11
359.5238031915
 21
252.4247340426
  0
LWPOLYLINE
  5
435
100
AcDbEntity
  8
0
100
AcDbPolyline
 62
2
  6
CONTINUOUS
 90
6
 70
0
 43
0.1500000036
 10
373.0448510742
 20
244.2961706543
 10
373.0448510742
 20
245.3676013184
 10
372.8305700684
 20
245.5818823242
 10
371.7591394043
 20
245.5818823242
 10
371.3305773926
 20
245.1532946777
 10
371.3305773926
 20
244.724732666
  0
LWPOLYLINE
  5
436
100
AcDbEntity
  8
0
100
AcDbPolyline
 62
2
  6
CONTINUOUS
 90
3
 70
0
 43
0.1500000036
 10
386.7202038574
 20
237.3675805664
 10
386.7202038574
 20
235.8675878906
 10
384.3630615234
 20
236.510456543
  0
LWPOLYLINE
  5
437
100
AcDbEntity
  8
0
100
AcDbPolyline
 62
2
  6
CONTINUOUS
 90
5
 70
0
 43
0.1500000036
 10
371.3305773926
 20
245.1532946777
 10
371.1162963867
 20
245.5104382324
 10
370.4734277344
 20
245.5104382324
 10
370.0448657227
 20
245.1532946777
 10
370.0448657227
 20
244.2961706543
  0
LWPOLYLINE
  5
438
100
AcDbEntity
  8
0
100
AcDbPolyline
 62
2
  6
CONTINUOUS
 90
7
 70
0
 43
0.1500000036
 10
170.9200177002
 20
149.3980883789
 10
169.7097491455
 20
148.5119329834
 10
169.6540960693
 20
151.1270379639
 10
169.4009143066
 20
151.4728253174
 10
168.801932373
 20
151.5654309082
 10
168.2832513428
 20
151.1856518555
 10
168.3172302246
 20
150.4137890625
  0
LWPOLYLINE
  5
439
100
AcDbEntity
  8
0
100
AcDbPolyline
 62
2
  6
CONTINUOUS
 90
3
 70
0
 43
0.1500000036
 10
167.0606652832
 20
149.2281555176
 10
167.2458764648
 20
150.4261065674
 10
169.0181744385
 20
148.005569458
  0
LWPOLYLINE
  5
43A
100
AcDbEntity
  8
0
100
AcDbPolyline
 62
2
  6
CONTINUOUS
 90
10
 70
0
 43
0.1500000036
 10
171.9573925781
 20
150.157633667
 10
172.1426037598
 20
151.3555847168
 10
171.8091210937
 20
152.1737567139
 10
171.3027575684
 20
152.8653442383
 10
170.7037756348
 20
152.9579498291
 10
170.1850946045
 20
152.5781707764
 10
170.0924890137
 20
151.9791888428
 10
170.5988525391
 20
151.2876141357
 10
171.1978344727
 20
151.1950085449
 10
171.9470489502
 20
151.7435797119
  0
LWPOLYLINE
  5
43B
100
AcDbEntity
  8
0
100
AcDbPolyline
 62
2
  6
CONTINUOUS
 90
2
 70
0
 43
0.1500000036
 10
165.7439996338
 20
144.6787023926
 10
165.1026690674
 20
149.7864038086
  0
LWPOLYLINE
  5
43C
100
AcDbEntity
  8
0
100
AcDbPolyline
 62
2
  6
CONTINUOUS
 90
13
 70
0
 43
0.1500000036
 10
164.2130657959
 20
146.3464105225
 10
163.9717016602
 20
147.099239502
 10
164.0797393799
 20
147.7980432129
 10
164.5371789551
 20
148.4428216553
 10
165.2900079346
 20
148.684185791
 10
165.9888116455
 20
148.5761480713
 10
166.6336029053
 20
148.1186956787
 10
166.8749542236
 20
147.3658795166
 10
166.7669165039
 20
146.6670758057
 10
166.3094769287
 20
146.0222845459
 10
165.5566479492
 20
145.7809204102
 10
164.8578442383
 20
145.8889709473
 10
164.2130657959
 20
146.3464105225
  0
ARC
  5
43D
100
AcDbEntity
  8
02___PRT_ALL_AXES
100
AcDbCircle
 62
7
  6
CONTINUOUS
 10
125.0724734043
 20
218.2247340426
 40
3.5
100
AcDbArc
 50
191.5711512856
 51
270.0
  0
ARC
  5
43E
100
AcDbEntity
  8
02___PRT_ALL_AXES
100
AcDbCircle
 62
7
  6
CONTINUOUS
 10
132.0724734043
 20
218.2247340426
 40
3.5
100
AcDbArc
 50
270.0
 51
348.4288487144
  0
ARC
  5
43F
100
AcDbEntity
  8
7_ALL_FEATURES
100
AcDbCircle
 62
7
  6
CONTINUOUS
 10
43.0724734043
 20
259.7247340426
 40
2.0
100
AcDbArc
 50
90.0
 51
180.0
  0
ARC
  5
440
100
AcDbEntity
  8
7_ALL_FEATURES
100
AcDbCircle
 62
7
  6
CONTINUOUS
 10
168.0724734043
 20
259.7247340426
 40
2.0
100
AcDbArc
 50
0.0
 51
90.0
  0
CIRCLE
  5
441
100
AcDbEntity
  8
7_ALL_FEATURES
100
AcDbCircle
 62
7
  6
CONTINUOUS
 10
105.5724734043
 20
100.6216755319
 40
64.7
  0
CIRCLE
  5
442
100
AcDbEntity
  8
7_ALL_FEATURES
100
AcDbCircle
 62
7
  6
CONTINUOUS
 10
105.5724734043
 20
100.6216755319
 40
64.5
  0
CIRCLE
  5
443
100
AcDbEntity
  8
7_ALL_FEATURES
100
AcDbCircle
 62
9
  6
CONTINUOUS
 10
105.5724734043
 20
100.6216755319
 40
62.5
  0
CIRCLE
  5
444
100
AcDbEntity
  8
7_ALL_FEATURES
100
AcDbCircle
 62
7
  6
CONTINUOUS
 10
105.5724734043
 20
100.6216755319
 40
8.25
  0
CIRCLE
  5
445
100
AcDbEntity
  8
7_ALL_FEATURES
100
AcDbCircle
 62
7
  6
CONTINUOUS
 10
105.5724734043
 20
100.6216755319
 40
6.5
  0
CIRCLE
  5
446
100
AcDbEntity
  8
7_ALL_FEATURES
100
AcDbCircle
 62
7
  6
CONTINUOUS
 10
105.5724734043
 20
100.6216755319
 40
5.0
  0
CIRCLE
  5
447
100
AcDbEntity
  8
7_ALL_FEATURES
100
AcDbCircle
 62
7
  6
CONTINUOUS
 10
105.5724734043
 20
100.6216755319
 40
4.5
  0
ARC
  5
448
100
AcDbEntity
  8
02___PRT_ALL_AXES
100
AcDbCircle
 62
7
  6
CONTINUOUS
 10
298.3238031915
 20
218.2247340426
 40
3.5
100
AcDbArc
 50
270.0
 51
360.0
  0
ARC
  5
449
100
AcDbEntity
  8
02___PRT_ALL_AXES
100
AcDbCircle
 62
7
  6
CONTINUOUS
 10
291.3238031915
 20
218.2247340426
 40
3.5
100
AcDbArc
 50
180.0
 51
270.0
  0
ARC
  5
44A
100
AcDbEntity
  8
7_ALL_FEATURES
100
AcDbCircle
 62
7
  6
CONTINUOUS
 10
357.3238031915
 20
259.7247340426
 40
2.0
100
AcDbArc
 50
0.0
 51
90.0
  0
ARC
  5
44B
100
AcDbEntity
  8
7_ALL_FEATURES
100
AcDbCircle
 62
7
  6
CONTINUOUS
 10
232.3238031915
 20
259.7247340426
 40
2.0
100
AcDbArc
 50
90.0
 51
180.0
  0
SPLINE
  5
44C
100
AcDbEntity
  8
02___PRT_ALL_AXES
100
AcDbSpline
 62
7
  6
CONTINUOUS
 70
0
 71
3
 72
11
 73
7
 74
0
 42
0.0000001
 43
0.0000001
 44
0.0000000001
 40
0.0
 40
0.0
 40
0.0
 40
0.0
 40
0.2528641712
 40
0.5038317346
 40
0.7528115376
 40
1.0
 40
1.0
 40
1.0
 40
1.0
 10
128.5724734043
 20
219.7247340426
 30
0.0
 10
128.7767197012
 20
219.606812388
 30
0.0
 10
129.1905469647
 20
219.3834015103
 30
0.0
 10
129.8314584892
 20
219.0948125081
 30
0.0
 10
130.4908174215
 20
218.8661231147
 30
0.0
 10
130.9430741033
 20
218.7622577706
 30
0.0
 10
131.1705496156
 20
218.7247340426
 30
0.0
  0
SPLINE
  5
44D
100
AcDbEntity
  8
02___PRT_ALL_AXES
100
AcDbSpline
 62
7
  6
CONTINUOUS
 70
0
 71
3
 72
11
 73
7
 74
0
 42
0.0000001
 43
0.0000001
 44
0.0000000001
 40
0.0
 40
0.0
 40
0.0
 40
0.0
 40
0.2471884812
 40
0.4961682871
 40
0.7471358372
 40
1.0
 40
1.0
 40
1.0
 40
1.0
 10
132.9026004232
 20
218.7247340426
 30
0.0
 10
133.1300759528
 20
218.7622577735
 30
0.0
 10
133.582332654
 20
218.8661231238
 30
0.0
 10
134.2416915911
 20
219.0948125271
 30
0.0
 10
134.8826030976
 20
219.3834015259
 30
0.0
 10
135.2964303444
 20
219.606812392
 30
0.0
 10
135.5006766345
 20
219.7247340426
 30
0.0
  0
SPLINE
  5
44E
100
AcDbEntity
  8
02___PRT_ALL_AXES
100
AcDbSpline
 62
7
  6
CONTINUOUS
 70
0
 71
3
 72
19
 73
15
 74
0
 42
0.0000001
 43
0.0000001
 44
0.0000000001
 40
0.0
 40
0.0
 40
0.0
 40
0.0
 40
0.067939647
 40
0.1343369129
 40
0.1986396402
 40
0.2610648807
 40
0.3817414899
 40
0.5000607139
 40
0.6183763092
 40
0.739024176
 40
0.8014382043
 40
0.865725454
 40
0.9320917545
 40
1.0
 40
1.0
 40
1.0
 40
1.0
 10
131.1705496156
 20
218.2247340426
 30
0.0
 10
131.1705496156
 20
218.168848392
 30
0.0
 10
131.1869364524
 20
218.0577034272
 30
0.0
 10
131.2551112327
 20
217.9072435399
 30
0.0
 10
131.3545242675
 20
217.7815567763
 30
0.0
 10
131.5119681491
 20
217.6508149427
 30
0.0
 10
131.7419593638
 20
217.5461746378
 30
0.0
 10
132.0367245848
 20
217.5061961534
 30
0.0
 10
132.3314533084
 20
217.5462605781
 30
0.0
 10
132.5613841213
 20
217.6509399813
 30
0.0
 10
132.7187632105
 20
217.7816898693
 30
0.0
 10
132.8181061364
 20
217.90737086
 30
0.0
 10
132.8862271446
 20
218.0577812514
 30
0.0
 10
132.9026004232
 20
218.1688742222
 30
0.0
 10
132.9026004232
 20
218.2247340426
 30
0.0
  0
SPLINE
  5
44F
100
AcDbEntity
  8
02___PRT_ALL_AXES
100
AcDbSpline
 62
7
  6
CONTINUOUS
 70
0
 71
3
 72
11
 73
7
 74
0
 42
0.0000001
 43
0.0000001
 44
0.0000000001
 40
0.0
 40
0.0
 40
0.0
 40
0.0
 40
0.2471884812
 40
0.4961682871
 40
0.7471358372
 40
1.0
 40
1.0
 40
1.0
 40
1.0
 10
125.9743971929
 20
218.7247340426
 30
0.0
 10
126.2018727225
 20
218.7622577735
 30
0.0
 10
126.6541294238
 20
218.8661231238
 30
0.0
 10
127.3134883608
 20
219.0948125271
 30
0.0
 10
127.9543998673
 20
219.3834015259
 30
0.0
 10
128.3682271141
 20
219.606812392
 30
0.0
 10
128.5724734043
 20
219.7247340426
 30
0.0
  0
SPLINE
  5
450
100
AcDbEntity
  8
02___PRT_ALL_AXES
100
AcDbSpline
 62
7
  6
CONTINUOUS
 70
0
 71
3
 72
19
 73
15
 74
0
 42
0.0000001
 43
0.0000001
 44
0.0000000001
 40
0.0
 40
0.0
 40
0.0
 40
0.0
 40
0.0679331493
 40
0.1343321403
 40
0.1986344682
 40
0.2610562003
 40
0.3817260945
 40
0.5000558736
 40
0.6183787204
 40
0.7390359575
 40
0.801453126
 40
0.8657387411
 40
0.9320973193
 40
1.0
 40
1.0
 40
1.0
 40
1.0
 10
124.2423463853
 20
218.2247340426
 30
0.0
 10
124.2423463853
 20
218.1688537318
 30
0.0
 10
124.2587323939
 20
218.0577131741
 30
0.0
 10
124.3268998504
 20
217.9072546255
 30
0.0
 10
124.4263101303
 20
217.78156761
 30
0.0
 10
124.5837452942
 20
217.6508295221
 30
0.0
 10
124.8137313622
 20
217.5461783269
 30
0.0
 10
125.1085065518
 20
217.5061946875
 30
0.0
 10
125.4032576967
 20
217.546260844
 30
0.0
 10
125.6332035407
 20
217.6509497265
 30
0.0
 10
125.7905839607
 20
217.7817128587
 30
0.0
 10
125.8899149752
 20
217.9073964905
 30
0.0
 10
125.9580270719
 20
218.0577966747
 30
0.0
 10
125.9743971929
 20
218.1688787946
 30
0.0
 10
125.9743971929
 20
218.2247340426
 30
0.0
  0
SPLINE
  5
451
100
AcDbEntity
  8
02___PRT_ALL_AXES
100
AcDbSpline
 62
7
  6
CONTINUOUS
 70
0
 71
3
 72
11
 73
7
 74
0
 42
0.0000001
 43
0.0000001
 44
0.0000000001
 40
0.0
 40
0.0
 40
0.0
 40
0.0
 40
0.2528641712
 40
0.5038317346
 40
0.7528115376
 40
1.0
 40
1.0
 40
1.0
 40
1.0
 10
121.644270174
 20
219.7247340426
 30
0.0
 10
121.8485164709
 20
219.606812388
 30
0.0
 10
122.2623437345
 20
219.3834015103
 30
0.0
 10
122.9032552589
 20
219.0948125081
 30
0.0
 10
123.5626141912
 20
218.8661231147
 30
0.0
 10
124.014870873
 20
218.7622577706
 30
0.0
 10
124.2423463853
 20
218.7247340426
 30
0.0
  0
LINE
  5
452
100
AcDbEntity
  8
7_ALL_FEATURES
100
AcDbLine
 62
7
  6
CONTINUOUS
 10
131.9916220178
 20
230.7247340426
 11
132.367741021
 21
231.4747340426
  0
LINE
  5
453
100
AcDbEntity
  8
7_ALL_FEATURES
100
AcDbLine
 62
7
  6
CONTINUOUS
 10
43.7546968347
 20
231.4747340426
 11
44.5069348412
 21
230.7247340426
  0
LINE
  5
454
100
AcDbEntity
  8
7_ALL_FEATURES
100
AcDbLine
 62
7
  6
CONTINUOUS
 10
140.594982357
 20
231.4747340426
 11
140.2188633538
 21
230.7247340426
  0
SPLINE
  5
455
100
AcDbEntity
  8
02___PRT_ALL_AXES
100
AcDbSpline
 62
7
  6
CONTINUOUS
 70
0
 71
3
 72
11
 73
7
 74
0
 42
0.0000001
 43
0.0000001
 44
0.0000000001
 40
0.0
 40
0.0
 40
0.0
 40
0.0
 40
0.2298345438
 40
0.4729500311
 40
0.7300550521
 40
1.0
 40
1.0
 40
1.0
 40
1.0
 10
289.3238031915
 20
218.7247340426
 30
0.0
 10
289.4579008252
 20
218.7630476522
 30
0.0
 10
289.7259312623
 20
218.8709621303
 30
0.0
 10
290.1059320339
 20
219.1011491394
 30
0.0
 10
290.4744426243
 20
219.3899077808
 30
0.0
 10
290.7079772305
 20
219.6089080816
 30
0.0
 10
290.8238031915
 20
219.7247340426
 30
0.0
  0
SPLINE
  5
456
100
AcDbEntity
  8
02___PRT_ALL_AXES
100
AcDbSpline
 62
7
  6
CONTINUOUS
 70
0
 71
3
 72
19
 73
15
 74
0
 42
0.0000001
 43
0.0000001
 44
0.0000000001
 40
0.0
 40
0.0
 40
0.0
 40
0.0
 40
0.1683075029
 40
0.2404576968
 40
0.3036660769
 40
0.4090527407
 40
0.4554823394
 40
0.5000445236
 40
0.5446094138
 40
0.5910415449
 40
0.6964181475
 40
0.7596236278
 40
0.8317654351
 40
1.0
 40
1.0
 40
1.0
 40
1.0
 10
288.3238031915
 20
218.2247340426
 30
0.0
 10
288.3238031915
 20
218.1181237102
 30
0.0
 10
288.3479781185
 20
217.9637925129
 30
0.0
 10
288.4268012207
 20
217.7873945913
 30
0.0
 10
288.5127528282
 20
217.6608592705
 30
0.0
 10
288.6201972148
 20
217.5698778727
 30
0.0
 10
288.7378312327
 20
217.5264075926
 30
0.0
 10
288.8238920405
 20
217.516033414
 30
0.0
 10
288.909952792
 20
217.5264395446
 30
0.0
 10
289.0275541213
 20
217.5699882
 30
0.0
 10
289.1349672069
 20
217.6609823514
 30
0.0
 10
289.220882484
 20
217.7875284481
 30
0.0
 10
289.2996413287
 20
217.963894985
 30
0.0
 10
289.3238031915
 20
218.1181699111
 30
0.0
 10
289.3238031915
 20
218.2247340426
 30
0.0
  0
SPLINE
  5
457
100
AcDbEntity
  8
02___PRT_ALL_AXES
100
AcDbSpline
 62
7
  6
CONTINUOUS
 70
0
 71
3
 72
11
 73
7
 74
0
 42
0.0000001
 43
0.0000001
 44
0.0000000001
 40
0.0
 40
0.0
 40
0.0
 40
0.0
 40
0.2298345438
 40
0.4729500311
 40
0.7300550521
 40
1.0
 40
1.0
 40
1.0
 40
1.0
 10
301.3238031915
 20
218.7247340426
 30
0.0
 10
301.4579008252
 20
218.7630476522
 30
0.0
 10
301.7259312623
 20
218.8709621303
 30
0.0
 10
302.1059320339
 20
219.1011491394
 30
0.0
 10
302.4744426243
 20
219.3899077808
 30
0.0
 10
302.7079772305
 20
219.6089080816
 30
0.0
 10
302.8238031915
 20
219.7247340426
 30
0.0
  0
SPLINE
  5
458
100
AcDbEntity
  8
02___PRT_ALL_AXES
100
AcDbSpline
 62
7
  6
CONTINUOUS
 70
0
 71
3
 72
19
 73
15
 74
0
 42
0.0000001
 43
0.0000001
 44
0.0000000001
 40
0.0
 40
0.0
 40
0.0
 40
0.0
 40
0.1683019928
 40
0.2404522059
 40
0.3036575549
 40
0.4090405362
 40
0.455474778
 40
0.5000409864
 40
0.544608903
 40
0.5910435724
 40
0.6964291988
 40
0.7596394225
 40
0.8317812392
 40
1.0
 40
1.0
 40
1.0
 40
1.0
 10
300.3238031915
 20
218.2247340426
 30
0.0
 10
300.3238031915
 20
218.1181271227
 30
0.0
 10
300.3479765355
 20
217.9637995721
 30
0.0
 10
300.4267949635
 20
217.7874051944
 30
0.0
 10
300.5127429962
 20
217.6608726873
 30
0.0
 10
300.6201806121
 20
217.5698864968
 30
0.0
 10
300.737816105
 20
217.5264094469
 30
0.0
 10
300.823884275
 20
217.5160332916
 30
0.0
 10
300.9099515446
 20
217.5264379445
 30
0.0
 10
301.0275612364
 20
217.5699915689
 30
0.0
 10
301.1349816981
 20
217.6609943116
 30
0.0
 10
301.2208960715
 20
217.7875520272
 30
0.0
 10
301.2996433682
 20
217.9639159274
 30
0.0
 10
301.3238031915
 20
218.1181798441
 30
0.0
 10
301.3238031915
 20
218.2247340426
 30
0.0
  0
SPLINE
  5
459
100
AcDbEntity
  8
02___PRT_ALL_AXES
100
AcDbSpline
 62
7
  6
CONTINUOUS
 70
0
 71
3
 72
11
 73
7
 74
0
 42
0.0000001
 43
0.0000001
 44
0.0000000001
 40
0.0
 40
0.0
 40
0.0
 40
0.0
 40
0.2499875457
 40
0.4999810974
 40
0.7499896465
 40
1.0
 40
1.0
 40
1.0
 40
1.0
 10
295.8238031915
 20
218.7247340426
 30
0.0
 10
296.0857279384
 20
218.7621518635
 30
0.0
 10
296.6058550567
 20
218.8654255762
 30
0.0
 10
297.3670723324
 20
219.0937759893
 30
0.0
 10
298.107363029
 20
219.382212984
 30
0.0
 10
298.5871305216
 20
219.6063977076
 30
0.0
 10
298.8238031915
 20
219.7247340426
 30
0.0
  0
SPLINE
  5
45A
100
AcDbEntity
  8
02___PRT_ALL_AXES
100
AcDbSpline
 62
7
  6
CONTINUOUS
 70
0
 71
3
 72
19
 73
15
 74
0
 42
0.0000001
 43
0.0000001
 44
0.0000000001
 40
0.0
 40
0.0
 40
0.0
 40
0.0
 40
0.0624979261
 40
0.1250433606
 40
0.1876228062
 40
0.2502117395
 40
0.3750812837
 40
0.5000567501
 40
0.6250246904
 40
0.7498813971
 40
0.8124647185
 40
0.8750234764
 40
0.9375277534
 40
1.0
 40
1.0
 40
1.0
 40
1.0
 10
293.8238031915
 20
218.2247340426
 30
0.0
 10
293.8238031915
 20
218.1686619019
 30
0.0
 10
293.8433119409
 20
218.0556744517
 30
0.0
 10
293.923093467
 20
217.9049523903
 30
0.0
 10
294.0381521148
 20
217.779902239
 30
0.0
 10
294.2215947969
 20
217.6487361162
 30
0.0
 10
294.4869932563
 20
217.5456033777
 30
0.0
 10
294.8239514775
 20
217.5063469384
 30
0.0
 10
295.160886857
 20
217.5456823155
 30
0.0
 10
295.4262452804
 20
217.648852389
 30
0.0
 10
295.6096278086
 20
217.7800461364
 30
0.0
 10
295.7245960216
 20
217.9050956045
 30
0.0
 10
295.8043137597
 20
218.0557573271
 30
0.0
 10
295.8238031915
 20
218.1686849411
 30
0.0
 10
295.8238031915
 20
218.2247340426
 30
0.0
  0
SPLINE
  5
45B
100
AcDbEntity
  8
02___PRT_ALL_AXES
100
AcDbSpline
 62
7
  6
CONTINUOUS
 70
0
 71
3
 72
11
 73
7
 74
0
 42
0.0000001
 43
0.0000001
 44
0.0000000001
 40
0.0
 40
0.0
 40
0.0
 40
0.0
 40
0.2699449571
 40
0.5270499909
 40
0.7701654741
 40
1.0
 40
1.0
 40
1.0
 40
1.0
 10
286.8238031915
 20
219.7247340426
 30
0.0
 10
286.9396291564
 20
219.6089080776
 30
0.0
 10
287.1731637711
 20
219.3899077662
 30
0.0
 10
287.5416743724
 20
219.1011491206
 30
0.0
 10
287.921675143
 20
218.8709621205
 30
0.0
 10
288.1897055682
 20
218.7630476492
 30
0.0
 10
288.3238031915
 20
218.7247340426
 30
0.0
  0
SPLINE
  5
45C
100
AcDbEntity
  8
02___PRT_ALL_AXES
100
AcDbSpline
 62
7
  6
CONTINUOUS
 70
0
 71
3
 72
11
 73
7
 74
0
 42
0.0000001
 43
0.0000001
 44
0.0000000001
 40
0.0
 40
0.0
 40
0.0
 40
0.0
 40
0.2500103617
 40
0.5000189242
 40
0.7500124732
 40
1.0
 40
1.0
 40
1.0
 40
1.0
 10
290.8238031915
 20
219.7247340426
 30
0.0
 10
291.0604758692
 20
219.6063977037
 30
0.0
 10
291.5402433816
 20
219.3822129682
 30
0.0
 10
292.2805340987
 20
219.0937759703
 30
0.0
 10
293.0417513683
 20
218.8654255672
 30
0.0
 10
293.5618784643
 20
218.7621518607
 30
0.0
 10
293.8238031915
 20
218.7247340426
 30
0.0
  0
SPLINE
  5
45D
100
AcDbEntity
  8
02___PRT_ALL_AXES
100
AcDbSpline
 62
7
  6
CONTINUOUS
 70
0
 71
3
 72
11
 73
7
 74
0
 42
0.0000001
 43
0.0000001
 44
0.0000000001
 40
0.0
 40
0.0
 40
0.0
 40
0.0
 40
0.2699449571
 40
0.5270499909
 40
0.7701654741
 40
1.0
 40
1.0
 40
1.0
 40
1.0
 10
298.8238031915
 20
219.7247340426
 30
0.0
 10
298.9396291564
 20
219.6089080776
 30
0.0
 10
299.1731637711
 20
219.3899077662
 30
0.0
 10
299.5416743724
 20
219.1011491206
 30
0.0
 10
299.921675143
 20
218.8709621205
 30
0.0
 10
300.1897055682
 20
218.7630476492
 30
0.0
 10
300.3238031915
 20
218.7247340426
 30
0.0
  0
ENDSEC
  0
SECTION
  2
OBJECTS
  0
DICTIONARY
  5
C
100
AcDbDictionary
280
0
281
1
  3
ACAD_GROUP
350
D
  3
ACAD_MLINESTYLE
350
17
  3
ACAD_LAYOUT
350
1A
  3
ACAD_PLOTSETTINGS
350
19
  3
ACAD_PLOTSTYLENAME
350
E
  3
ACAD_TABLESTYLE
350
       45E
  0
DICTIONARY
  5
D
102
{ACAD_REACTORS
330
C
102
}
100
AcDbDictionary
280
0
281
1
  0
ACDBDICTIONARYWDFLT
  5
E
102
{ACAD_REACTORS
330
C
102
}
100
AcDbDictionary
281
1
  3
Normal
350
F
100
AcDbDictionaryWithDefault
340
F
  0
DICTIONARY
  5
17
102
{ACAD_REACTORS
330
C
102
}
100
AcDbDictionary
280
0
281
1
  3
Standard
350
18
  0
DICTIONARY
  5
45E
330
C
100
AcDbDictionary
281
1
  3
Standard
350
       461
  3
Standard1
350
       462
  0
DICTIONARY
  5
19
102
{ACAD_REACTORS
330
C
102
}
100
AcDbDictionary
281
1
  0
DICTIONARY
  5
1A
102
{ACAD_REACTORS
330
C
102
}
100
AcDbDictionary
281
1
  3
Model
350
45F
  3
Layout1
350
460
  0
ACDBPLACEHOLDER
  5
F
102
{ACAD_REACTORS
330
E
102
}
  0
MLINESTYLE
  5
18
102
{ACAD_REACTORS
330
17
102
}
100
AcDbMlineStyle
  2
STANDARD
 70
0
  3

 62
256
 51
90.0
 52
90.0
 71
2
 49
0.5
 62
256
  6
BYLAYER
 49
-0.5
 62
256
  6
BYLAYER
  0
LAYOUT
  5
45F
102
{ACAD_REACTORS
330
1A
102
}
100
AcDbPlotSettings
  1

  2
none_device
  4
ISO_A3_(420.00_x_297.00_MM)
  6

 40
0.0
 41
0.0
 42
0.0
 43
0.0
 44
420.0
 45
297.0
 46
0.0
 47
0.0
 48
0.0
 49
0.0
140
0.0
141
0.0
142
1.0
143
1.0
 70
1024
 72
1
 73
0
 74
0
  7

 75
0
147
1.0
148
0.0
149
0.0
100
AcDbLayout
  1
Model
 70
0
 71
0
 10
0.0
 20
0.0
 11
420.0
 21
297.0
 12
0.0
 22
0.0
 32
0.0
 14
0.0
 24
0.0
 34
0.0
 15
0.0
 25
0.0
 35
0.0
146
0.0
 13
0.0
 23
0.0
 33
0.0
 16
1.0
 26
0.0
 36
0.0
 17
0.0
 27
1.0
 37
0.0
 76
0
330
225
345
0
346
0
  0
LAYOUT
  5
460
102
{ACAD_REACTORS
330
1A
102
}
100
AcDbPlotSettings
  1

  2
none_device
  4
ISO_A3_(420.00_x_297.00_MM)
  6

 40
0.0
 41
0.0
 42
0.0
 43
0.0
 44
420.0
 45
297.0
 46
0.0
 47
0.0
 48
0.0
 49
0.0
140
0.0
141
0.0
142
1.0
143
1.0
 70
0
 72
1
 73
0
 74
0
  7

 75
0
147
1.0
148
0.0
149
0.0
100
AcDbLayout
  1
Layout1
 70
0
 71
1
 10
0.0
 20
0.0
 11
420.0
 21
297.0
 12
0.0
 22
0.0
 32
0.0
 14
0.0
 24
0.0
 34
0.0
 15
0.0
 25
0.0
 35
0.0
146
0.0
 13
0.0
 23
0.0
 33
0.0
 16
1.0
 26
0.0
 36
0.0
 17
0.0
 27
1.0
 37
0.0
 76
0
330
226
345
0
346
0
  0
TABLESTYLE
  5
461
102
{ACAD_REACTORS
330
45E
330
3AC
102
}
330
45E
100
AcDbTableStyle
  3
Standard
 70
0
 71
0
 40
0.06
 41
0.06
280
1
281
1
  7
Standard
140
0.18
170
1
 62
0
 63
7
283
0
  7
Standard
140
0.18
170
1
 62
0
 63
7
283
0
  7
Standard
140
0.18
170
1
 62
0
 63
7
283
0
  0
TABLESTYLE
  5
462
102
{ACAD_REACTORS
330
45E
102
}
330
45E
100
AcDbTableStyle
  3
Standard1
 70
1
 71
0
 40
0.06
 41
0.06
280
1
281
1
  7
Standard
140
0.18
170
1
 62
0
 63
7
283
0
  7
Standard
140
0.18
170
1
 62
0
 63
7
283
0
  7
Standard
140
0.18
170
1
 62
0
 63
7
283
0
  0
ENDSEC
  0
EOF
