999
DXF file: yr9_c_002.dxf
999
Pro/ENGINEER 2016360 by Parametric Technology Corporation
  0
SECTION
  2
HEADER
  9
$ACADVER
  1
AC1014
  9
$DWGCODEPAGE
  3
ANSI_1252
  9
$EXTMAX
 10
594.0
 20
420.0
 30
0.0
  9
$EXTMIN
 10
0.0
 20
0.0
 30
0.0
  9
$LIMMIN
 10
0.0
 20
0.0
  9
$LIMMAX
 10
594.0
 20
420.0
  9
$VIEWCTR
 10
297.0
 20
210.0
  9
$VIEWSIZE
 40
420.0
  9
$CLAYER
  8
0
  9
$LTSCALE
 40
32.67
  9
$CELTYPE
  6
BYLAYER
  9
$DIMSCALE
 40
1.0
  9
$DIMASZ
 40
2.5
  9
$DIMEXO
 40
0.75
  9
$DIMDLI
 40
22.572
  9
$DIMEXE
 40
0.75
  9
$DIMCEN
 40
5.346
  9
$DIMLFAC
 40
1.0
  9
$DIMBLK
  1
_CLOSED
  9
$DIMALT
 70
0
  9
$DIMALTF
 40
25.4
  9
$DIMTXT
 40
3.0
  9
$DIMTOL
 70
1
  9
$DIMLIM
 70
0
  9
$DIMTFAC
 40
1.0
  9
$DIMTP
 40
0.01
  9
$DIMTM
 40
0.01
  9
$DIMGAP
 40
0.625
  9
$AUNITS
 70
0
  9
$PDMODE
 70
3
  9
$PDSIZE
 40
0.3125
  9
$HANDSEED
  5
5FB
  9
$TILEMODE
 70
1
  9
$MEASUREMENT
 70
1
  0
ENDSEC
  0
SECTION
  2
CLASSES
  0
ENDSEC
  0
SECTION
  2
TABLES
  0
TABLE
  2
VPORT
  5
8
100
AcDbSymbolTable
 70
2
  0
VPORT
  5
1F4
100
AcDbSymbolTableRecord
100
AcDbViewportTableRecord
  2
*ACTIVE
 70
0
 10
0.0
 20
0.0
 11
1.0
 21
1.0
 12
297.0
 22
210.0
 13
0.0
 23
0.0
 14
1.0
 24
1.0
 15
0.0
 25
0.0
 16
0.0
 26
0.0
 36
1.0
 17
0.0
 27
0.0
 37
0.0
 40
420.0
 41
1.4142857143
 42
50.0
 43
0.0
 44
0.0
 50
0.0
 51
0.0
 71
0
 72
100
 73
1
 74
1
 75
0
 76
0
 77
0
 78
0
  0
ENDTAB
  0
TABLE
  2
LTYPE
  5
5
100
AcDbSymbolTable
 70
6
  0
LTYPE
  5
14
100
AcDbSymbolTableRecord
100
AcDbLinetypeTableRecord
  2
BYBLOCK
 70
0
  3

 72
65
 73
0
 40
0.0
  0
LTYPE
  5
15
100
AcDbSymbolTableRecord
100
AcDbLinetypeTableRecord
  2
BYLAYER
 70
0
  3

 72
65
 73
0
 40
0.0
  0
LTYPE
  5
16
100
AcDbSymbolTableRecord
100
AcDbLinetypeTableRecord
  2
CONTINUOUS
 70
64
  3
Solid line
 72
65
 73
0
 40
0.0
  0
LTYPE
  5
1F5
100
AcDbSymbolTableRecord
100
AcDbLinetypeTableRecord
  2
CENTER
 70
64
  3
____ _ ____ _ ____ _ ____ _ ____ _ ____ _ ____
 72
65
 73
4
 40
0.6
 49
0.375
 74
0
 49
-0.075
 74
0
 49
0.075
 74
0
 49
-0.075
 74
0
  0
LTYPE
  5
1F6
100
AcDbSymbolTableRecord
100
AcDbLinetypeTableRecord
  2
HIDDEN
 70
64
  3
- - - - - - - - - - - - - - - - - - - -
 72
65
 73
2
 40
0.2
 49
0.1
 74
0
 49
-0.1
 74
0
  0
LTYPE
  5
1F7
100
AcDbSymbolTableRecord
100
AcDbLinetypeTableRecord
  2
PHANTOM
 70
64
  3
_____ _ _ _____ _ _ _____ _ _ _____
 72
65
 73
6
 40
0.8
 49
0.45
 74
0
 49
-0.05
 74
0
 49
0.1
 74
0
 49
-0.05
 74
0
 49
0.1
 74
0
 49
-0.05
 74
0
  0
LTYPE
  5
1F8
100
AcDbSymbolTableRecord
100
AcDbLinetypeTableRecord
  2
DOT
 70
64
  3
. . . . . . . . . . . . . . . . . . . .
 72
65
 73
2
 40
0.2
 49
0.1
 74
0
 49
-0.1
 74
0
  0
LTYPE
  5
1F9
100
AcDbSymbolTableRecord
100
AcDbLinetypeTableRecord
  2
DASHED
 70
64
  3
- - - - - - - - - - - - - - - - - - - -
 72
65
 73
2
 40
0.2
 49
0.1
 74
0
 49
-0.1
 74
0
  0
ENDTAB
  0
TABLE
  2
LAYER
  5
2
100
AcDbSymbolTable
 70
36
  0
LAYER
  5
10
100
AcDbSymbolTableRecord
100
AcDbLayerTableRecord
  2
0
 70
0
 62
7
  6
CONTINUOUS
  0
LAYER
  5
1FA
100
AcDbSymbolTableRecord
100
AcDbLayerTableRecord
  2
DEFAULT_1
 70
0
 62
7
  6
CENTER
  0
LAYER
  5
1FB
100
AcDbSymbolTableRecord
100
AcDbLayerTableRecord
  2
DEFAULT_2
 70
0
 62
8
  6
HIDDEN
  0
LAYER
  5
1FC
100
AcDbSymbolTableRecord
100
AcDbLayerTableRecord
  2
DEFAULT_3
 70
0
 62
7
  6
PHANTOM
  0
LAYER
  5
1FD
100
AcDbSymbolTableRecord
100
AcDbLayerTableRecord
  2
01_ALL_DTM_PLN
 70
0
 62
7
  6
CONTINUOUS
  0
LAYER
  5
1FE
100
AcDbSymbolTableRecord
100
AcDbLayerTableRecord
  2
01__ASM_ALL_DTM_PLN
 70
0
 62
7
  6
CONTINUOUS
  0
LAYER
  5
1FF
100
AcDbSymbolTableRecord
100
AcDbLayerTableRecord
  2
01__ASM_DEF_DTM_PLN
 70
0
 62
7
  6
CONTINUOUS
  0
LAYER
  5
200
100
AcDbSymbolTableRecord
100
AcDbLayerTableRecord
  2
01___PRT_ALL_DTM_PLN
 70
0
 62
7
  6
CONTINUOUS
  0
LAYER
  5
201
100
AcDbSymbolTableRecord
100
AcDbLayerTableRecord
  2
01___PRT_DEF_DTM_PLN
 70
0
 62
7
  6
CONTINUOUS
  0
LAYER
  5
202
100
AcDbSymbolTableRecord
100
AcDbLayerTableRecord
  2
02_ALL_AXES
 70
0
 62
7
  6
CONTINUOUS
  0
LAYER
  5
203
100
AcDbSymbolTableRecord
100
AcDbLayerTableRecord
  2
02__ASM_ALL_AXES
 70
0
 62
7
  6
CONTINUOUS
  0
LAYER
  5
204
100
AcDbSymbolTableRecord
100
AcDbLayerTableRecord
  2
02___PRT_ALL_AXES
 70
0
 62
7
  6
CONTINUOUS
  0
LAYER
  5
205
100
AcDbSymbolTableRecord
100
AcDbLayerTableRecord
  2
03_ALL_CURVES
 70
0
 62
7
  6
CONTINUOUS
  0
LAYER
  5
206
100
AcDbSymbolTableRecord
100
AcDbLayerTableRecord
  2
03__ASM_ALL_CURVES
 70
0
 62
7
  6
CONTINUOUS
  0
LAYER
  5
207
100
AcDbSymbolTableRecord
100
AcDbLayerTableRecord
  2
03___PRT_ALL_CURVES
 70
0
 62
7
  6
CONTINUOUS
  0
LAYER
  5
208
100
AcDbSymbolTableRecord
100
AcDbLayerTableRecord
  2
04_ALL_DTM_PNT
 70
0
 62
7
  6
CONTINUOUS
  0
LAYER
  5
209
100
AcDbSymbolTableRecord
100
AcDbLayerTableRecord
  2
04__ASM_ALL_DTM_PNT
 70
0
 62
7
  6
CONTINUOUS
  0
LAYER
  5
20A
100
AcDbSymbolTableRecord
100
AcDbLayerTableRecord
  2
04___PRT_ALL_DTM_PNT
 70
0
 62
7
  6
CONTINUOUS
  0
LAYER
  5
20B
100
AcDbSymbolTableRecord
100
AcDbLayerTableRecord
  2
05_ALL_DTM_CSYS
 70
0
 62
7
  6
CONTINUOUS
  0
LAYER
  5
20C
100
AcDbSymbolTableRecord
100
AcDbLayerTableRecord
  2
05__ASM_ALL_DTM_CSYS
 70
0
 62
7
  6
CONTINUOUS
  0
LAYER
  5
20D
100
AcDbSymbolTableRecord
100
AcDbLayerTableRecord
  2
05__ASM_DEF_DTM_CSYS
 70
0
 62
7
  6
CONTINUOUS
  0
LAYER
  5
20E
100
AcDbSymbolTableRecord
100
AcDbLayerTableRecord
  2
05___PRT_ALL_DTM_CSYS
 70
0
 62
7
  6
CONTINUOUS
  0
LAYER
  5
20F
100
AcDbSymbolTableRecord
100
AcDbLayerTableRecord
  2
05___PRT_DEF_DTM_CSYS
 70
0
 62
7
  6
CONTINUOUS
  0
LAYER
  5
210
100
AcDbSymbolTableRecord
100
AcDbLayerTableRecord
  2
06_ALL_SURFS
 70
0
 62
7
  6
CONTINUOUS
  0
LAYER
  5
211
100
AcDbSymbolTableRecord
100
AcDbLayerTableRecord
  2
06__ASM_ALL_SURFS
 70
0
 62
7
  6
CONTINUOUS
  0
LAYER
  5
212
100
AcDbSymbolTableRecord
100
AcDbLayerTableRecord
  2
06___PRT_ALL_SURFS
 70
0
 62
7
  6
CONTINUOUS
  0
LAYER
  5
213
100
AcDbSymbolTableRecord
100
AcDbLayerTableRecord
  2
07__ASM_ALL_SKELETONS
 70
0
 62
7
  6
CONTINUOUS
  0
LAYER
  5
214
100
AcDbSymbolTableRecord
100
AcDbLayerTableRecord
  2
1_ALL_PLANES
 70
0
 62
7
  6
CONTINUOUS
  0
LAYER
  5
215
100
AcDbSymbolTableRecord
100
AcDbLayerTableRecord
  2
1_TUTTO
 70
0
 62
7
  6
CONTINUOUS
  0
LAYER
  5
216
100
AcDbSymbolTableRecord
100
AcDbLayerTableRecord
  2
2_ALL_CSYS
 70
0
 62
7
  6
CONTINUOUS
  0
LAYER
  5
217
100
AcDbSymbolTableRecord
100
AcDbLayerTableRecord
  2
2_TUTTO
 70
0
 62
7
  6
CONTINUOUS
  0
LAYER
  5
218
100
AcDbSymbolTableRecord
100
AcDbLayerTableRecord
  2
3_ALL_AXES
 70
0
 62
7
  6
CONTINUOUS
  0
LAYER
  5
219
100
AcDbSymbolTableRecord
100
AcDbLayerTableRecord
  2
4_ALL_POINTS
 70
0
 62
7
  6
CONTINUOUS
  0
LAYER
  5
21A
100
AcDbSymbolTableRecord
100
AcDbLayerTableRecord
  2
5_ALL_CURVES
 70
0
 62
7
  6
CONTINUOUS
  0
LAYER
  5
21B
100
AcDbSymbolTableRecord
100
AcDbLayerTableRecord
  2
5__COSTRUZIONE
 70
0
 62
7
  6
CONTINUOUS
  0
LAYER
  5
21C
100
AcDbSymbolTableRecord
100
AcDbLayerTableRecord
  2
6_ALL_SURFS
 70
0
 62
7
  6
CONTINUOUS
  0
LAYER
  5
21D
100
AcDbSymbolTableRecord
100
AcDbLayerTableRecord
  2
7_ALL_FEATURES
 70
0
 62
7
  6
CONTINUOUS
  0
LAYER
  5
21E
100
AcDbSymbolTableRecord
100
AcDbLayerTableRecord
  2
8_ALL_NOTES_BALLOONS_SYMBOLS_GT
 70
0
 62
7
  6
CONTINUOUS
  0
LAYER
  5
21F
100
AcDbSymbolTableRecord
100
AcDbLayerTableRecord
  2
9_SOLID
 70
0
 62
7
  6
CONTINUOUS
  0
LAYER
  5
220
100
AcDbSymbolTableRecord
100
AcDbLayerTableRecord
  2
CLOSED_SHELL
 70
0
 62
7
  6
CONTINUOUS
  0
LAYER
  5
221
100
AcDbSymbolTableRecord
100
AcDbLayerTableRecord
  2
INTFCLR_2
 70
0
 62
7
  6
CONTINUOUS
  0
LAYER
  5
222
100
AcDbSymbolTableRecord
100
AcDbLayerTableRecord
  2
NONE
 70
0
 62
7
  6
CONTINUOUS
  0
LAYER
  5
223
100
AcDbSymbolTableRecord
100
AcDbLayerTableRecord
  2
XSEC_DATUMS
 70
0
 62
7
  6
CONTINUOUS
  0
LAYER
  5
224
100
AcDbSymbolTableRecord
100
AcDbLayerTableRecord
  2
XXX_SOLIDO
 70
0
 62
7
  6
CONTINUOUS
  0
LAYER
  5
225
100
AcDbSymbolTableRecord
100
AcDbLayerTableRecord
  2
_6565
 70
0
 62
7
  6
CONTINUOUS
  0
ENDTAB
  0
TABLE
  2
STYLE
  5
3
100
AcDbSymbolTable
 70
1
  0
STYLE
  5
11
100
AcDbSymbolTableRecord
100
AcDbTextStyleTableRecord
  2
STANDARD
 70
0
 40
0.0
 41
0.85
 50
0.0
 71
0
 42
0.2
  3
txt
  4

  0
STYLE
  5
226
100
AcDbSymbolTableRecord
100
AcDbTextStyleTableRecord
  2
TEXTSTYLE_1
 70
0
 40
0.0
 41
0.8
 50
0.0
 71
0
 42
0.2
  3
gdt
  4

  0
STYLE
  5
227
100
AcDbSymbolTableRecord
100
AcDbTextStyleTableRecord
  2
TEXTSTYLE_2
 70
0
 40
0.0
 41
0.85
 50
0.0
 71
0
 42
0.2
  3
gdt
  4

  0
ENDTAB
  0
TABLE
  2
VIEW
  5
6
100
AcDbSymbolTable
 70
0
  0
ENDTAB
  0
TABLE
  2
UCS
  5
7
100
AcDbSymbolTable
 70
0
  0
ENDTAB
  0
TABLE
  2
APPID
  5
9
100
AcDbSymbolTable
 70
1
  0
APPID
  5
228
100
AcDbSymbolTableRecord
100
AcDbRegAppTableRecord
  2
ACAD
 70
0
  0
ENDTAB
  0
TABLE
  2
BLOCK_RECORD
  5
1
100
AcDbSymbolTable
 70
0
  0
BLOCK_RECORD
  5
1F
100
AcDbSymbolTableRecord
100
AcDbBlockTableRecord
  2
*MODEL_SPACE
  0
BLOCK_RECORD
  5
1B
100
AcDbSymbolTableRecord
100
AcDbBlockTableRecord
  2
*PAPER_SPACE
  0
BLOCK_RECORD
  5
229
100
AcDbSymbolTableRecord
100
AcDbBlockTableRecord
  2
_CLOSED
  0
BLOCK_RECORD
  5
22A
100
AcDbSymbolTableRecord
100
AcDbBlockTableRecord
  2
*D0
  0
BLOCK_RECORD
  5
22B
100
AcDbSymbolTableRecord
100
AcDbBlockTableRecord
  2
*D1
  0
BLOCK_RECORD
  5
22C
100
AcDbSymbolTableRecord
100
AcDbBlockTableRecord
  2
*D2
  0
BLOCK_RECORD
  5
22D
100
AcDbSymbolTableRecord
100
AcDbBlockTableRecord
  2
*D3
  0
BLOCK_RECORD
  5
22E
100
AcDbSymbolTableRecord
100
AcDbBlockTableRecord
  2
*D4
  0
BLOCK_RECORD
  5
22F
100
AcDbSymbolTableRecord
100
AcDbBlockTableRecord
  2
LOGO2_BL0
  0
ENDTAB
  0
TABLE
  2
DIMSTYLE
  5
A
100
AcDbSymbolTable
 70
1
  0
DIMSTYLE
105
230
100
AcDbSymbolTableRecord
100
AcDbDimStyleTableRecord
  2
STANDARD
 70
0
  3

  4

  5
_CLOSED
  6
_CLOSED
  7
_CLOSED
 40
1.0
 41
2.5
 42
0.75
 43
0.38
 44
0.75
 45
0.0
 46
0.0
 47
0.01
 48
0.01
140
3.0
141
0.09
142
0.0
143
25.4
144
1.0
145
0.0
146
1.0
147
0.625
 71
1.0
 72
0.0
 73
0
 74
0
 75
0
 76
0
 77
1
 78
8
 79
2
170
0
171
1
172
0
173
0
174
0
175
0
176
0
177
0
178
0
270
2
179
2
271
2
272
2
273
2
274
2
275
0
280
0
281
0
282
0
283
1
284
8
285
0
286
0
287
3
288
0
340
11
  0
DIMSTYLE
105
231
100
AcDbSymbolTableRecord
100
AcDbDimStyleTableRecord
  2
DIMSTYLE_1
 70
0
  3
<>
  4

  5
_CLOSED
  6
_CLOSED
  7
_CLOSED
 40
1.0
 41
2.5
 42
0.75
 43
0.38
 44
0.75
 45
0.0
 46
0.0
 47
0.5
 48
0.5
140
3.0
141
0.09
142
0.0
143
25.4
144
1.0
145
0.0
146
1.0
147
0.625
 71
0.0
 72
0.0
 73
0
 74
0
 75
0
 76
0
 77
1
 78
8
 79
2
170
0
171
1
172
1
173
0
174
0
175
0
176
0
177
0
178
0
270
2
179
2
271
2
272
2
273
2
274
2
275
0
280
0
281
0
282
0
283
1
284
8
285
0
286
0
287
3
288
1
340
11
  0
DIMSTYLE
105
232
100
AcDbSymbolTableRecord
100
AcDbDimStyleTableRecord
  2
DIMSTYLE_2
 70
0
  3

  4

  5
_CLOSED
  6
_CLOSED
  7
_CLOSED
 40
1.0
 41
2.5
 42
0.75
 43
0.38
 44
0.75
 45
0.0
 46
0.0
 47
0.1
 48
0.1
140
3.0
141
0.09
142
0.0
143
25.4
144
1.0
145
0.0
146
1.0
147
0.75
 71
0.0
 72
0.0
 73
0
 74
0
 75
0
 76
0
 77
1
 78
8
 79
2
170
0
171
1
172
0
173
0
174
0
175
0
176
0
177
0
178
0
270
2
179
2
271
2
272
2
273
2
274
2
275
0
280
0
281
0
282
0
283
1
284
8
285
0
286
0
287
3
288
0
340
11
  0
DIMSTYLE
105
233
100
AcDbSymbolTableRecord
100
AcDbDimStyleTableRecord
  2
DIMSTYLE_3
 70
0
  3

  4

  5
_CLOSED
  6
_CLOSED
  7
_CLOSED
 40
1.0
 41
2.5
 42
0.75
 43
0.38
 44
0.75
 45
0.0
 46
0.0
 47
0.2
 48
0.2
140
3.0
141
0.09
142
0.0
143
25.4
144
1.0
145
0.0
146
1.0
147
0.75
 71
0.0
 72
0.0
 73
0
 74
0
 75
0
 76
0
 77
1
 78
8
 79
2
170
0
171
1
172
0
173
0
174
0
175
0
176
0
177
0
178
0
270
2
179
2
271
2
272
2
273
2
274
2
275
0
280
0
281
0
282
0
283
1
284
8
285
0
286
0
287
3
288
0
340
11
  0
DIMSTYLE
105
234
100
AcDbSymbolTableRecord
100
AcDbDimStyleTableRecord
  2
DIMSTYLE_4
 70
0
  3

  4

  5
_CLOSED
  6
_CLOSED
  7
_CLOSED
 40
1.0
 41
2.5
 42
0.75
 43
0.38
 44
0.75
 45
0.0
 46
0.0
 47
0.3
 48
0.3
140
3.0
141
0.09
142
0.0
143
25.4
144
1.0
145
0.0
146
1.0
147
0.75
 71
0.0
 72
0.0
 73
0
 74
0
 75
0
 76
0
 77
1
 78
8
 79
2
170
0
171
1
172
0
173
0
174
0
175
0
176
0
177
0
178
0
270
2
179
2
271
2
272
2
273
2
274
2
275
0
280
0
281
0
282
0
283
1
284
8
285
0
286
0
287
3
288
0
340
11
  0
DIMSTYLE
105
235
100
AcDbSymbolTableRecord
100
AcDbDimStyleTableRecord
  2
DIMSTYLE_5
 70
0
  3

  4

  5
_CLOSED
  6
_CLOSED
  7
_CLOSED
 40
1.0
 41
2.5
 42
0.75
 43
0.38
 44
0.75
 45
0.0
 46
0.0
 47
0.5
 48
0.5
140
3.0
141
0.09
142
0.0
143
25.4
144
1.0
145
0.0
146
1.0
147
0.75
 71
0.0
 72
0.0
 73
0
 74
0
 75
0
 76
0
 77
1
 78
8
 79
2
170
0
171
1
172
0
173
0
174
0
175
0
176
0
177
0
178
0
270
2
179
2
271
2
272
2
273
2
274
2
275
0
280
0
281
0
282
0
283
1
284
8
285
0
286
0
287
3
288
0
340
11
  0
ENDTAB
  0
ENDSEC
  0
SECTION
  2
BLOCKS
  0
BLOCK
  5
20
100
AcDbEntity
  8
0
100
AcDbBlockBegin
  2
*MODEL_SPACE
 70
0
 10
0.0
 20
0.0
 30
0.0
  3
*MODEL_SPACE
  1

  0
ENDBLK
  5
21
100
AcDbEntity
  8
0
100
AcDbBlockEnd
  0
BLOCK
  5
1C
100
AcDbEntity
  8
0
100
AcDbBlockBegin
  2
*PAPER_SPACE
 70
0
 10
0.0
 20
0.0
 30
0.0
  3
*PAPER_SPACE
  1

  0
ENDBLK
  5
1D
100
AcDbEntity
  8
0
100
AcDbBlockEnd
  0
BLOCK
  5
236
100
AcDbEntity
  8
0
100
AcDbBlockBegin
 62
2
  6
CONTINUOUS
  2
LOGO2_BL0
 70
64
 10
507.9229349966
 20
36.8800379518
  3
LOGO2_BL0
  1

  0
LINE
  5
237
100
AcDbEntity
  8
0
100
AcDbLine
 62
7
  6
CONTINUOUS
 10
499.6658602248
 20
40.0755292907
 11
498.3615192954
 21
40.0755292907
  0
LINE
  5
238
100
AcDbEntity
  8
0
100
AcDbLine
 62
7
  6
CONTINUOUS
 10
498.3615192954
 20
40.0755292907
 11
498.3615192954
 21
29.6164632308
  0
LINE
  5
239
100
AcDbEntity
  8
0
100
AcDbLine
 62
7
  6
CONTINUOUS
 10
498.3615192954
 20
29.6164632308
 11
502.8425741837
 21
29.6164632308
  0
LINE
  5
23A
100
AcDbEntity
  8
0
100
AcDbLine
 62
7
  6
CONTINUOUS
 10
502.8425741837
 20
29.6164632308
 11
502.8425741837
 21
30.8093175559
  0
LINE
  5
23B
100
AcDbEntity
  8
0
100
AcDbLine
 62
7
  6
CONTINUOUS
 10
502.8425741837
 20
30.8093175559
 11
499.6658602248
 21
30.8093175559
  0
LINE
  5
23C
100
AcDbEntity
  8
0
100
AcDbLine
 62
7
  6
CONTINUOUS
 10
499.6658602248
 20
30.8093175559
 11
499.6658602248
 21
40.0755292907
  0
LINE
  5
23D
100
AcDbEntity
  8
0
100
AcDbLine
 62
7
  6
CONTINUOUS
 10
514.6021864411
 20
40.0755292907
 11
513.298368923
 21
40.0755292907
  0
LINE
  5
23E
100
AcDbEntity
  8
0
100
AcDbLine
 62
7
  6
CONTINUOUS
 10
513.298368923
 20
40.0755292907
 11
513.298368923
 21
29.6164632308
  0
LINE
  5
23F
100
AcDbEntity
  8
0
100
AcDbLine
 62
7
  6
CONTINUOUS
 10
513.298368923
 20
29.6164632308
 11
517.7795546641
 21
29.6164632308
  0
LINE
  5
240
100
AcDbEntity
  8
0
100
AcDbLine
 62
7
  6
CONTINUOUS
 10
517.7795546641
 20
29.6164632308
 11
517.7795546641
 21
30.8093175559
  0
LINE
  5
241
100
AcDbEntity
  8
0
100
AcDbLine
 62
7
  6
CONTINUOUS
 10
517.7795546641
 20
30.8093175559
 11
514.6021864411
 21
30.8093175559
  0
LINE
  5
242
100
AcDbEntity
  8
0
100
AcDbLine
 62
7
  6
CONTINUOUS
 10
514.6021864411
 20
30.8093175559
 11
514.6021864411
 21
40.0755292907
  0
LWPOLYLINE
  5
243
100
AcDbEntity
  8
0
100
AcDbPolyline
 62
7
  6
CONTINUOUS
 90
2
 70
0
 43
0.2
 10
496.7159142064
 20
26.2729119239
 10
496.7159142064
 20
24.4158486745
  0
LWPOLYLINE
  5
244
100
AcDbEntity
  8
0
100
AcDbPolyline
 62
7
  6
CONTINUOUS
 90
2
 70
0
 43
0.2
 10
496.7159142064
 20
24.4158486745
 10
497.5116302167
 20
24.4158486745
  0
LWPOLYLINE
  5
245
100
AcDbEntity
  8
0
100
AcDbPolyline
 62
7
  6
CONTINUOUS
 90
2
 70
0
 43
0.2
 10
497.5116302167
 20
24.4158486745
 10
497.5116302167
 20
24.6278302461
  0
LWPOLYLINE
  5
246
100
AcDbEntity
  8
0
100
AcDbPolyline
 62
7
  6
CONTINUOUS
 90
2
 70
0
 43
0.2
 10
497.5116302167
 20
24.6278302461
 10
496.9475237012
 20
24.6278302461
  0
LWPOLYLINE
  5
247
100
AcDbEntity
  8
0
100
AcDbPolyline
 62
7
  6
CONTINUOUS
 90
2
 70
0
 43
0.2
 10
496.9475237012
 20
24.6278302461
 10
496.9475237012
 20
26.2729119239
  0
LWPOLYLINE
  5
248
100
AcDbEntity
  8
0
100
AcDbPolyline
 62
7
  6
CONTINUOUS
 90
2
 70
0
 43
0.2
 10
496.9475237012
 20
26.2729119239
 10
496.7159142064
 20
26.2729119239
  0
SPLINE
  5
249
100
AcDbEntity
  8
0
100
AcDbSpline
 62
7
  6
CONTINUOUS
 70
2
 71
3
 72
35
 73
31
 74
0
 42
0.0000001
 43
0.0000001
 44
0.0000000001
 40
0.0
 40
0.0
 40
0.0
 40
0.0
 40
1.0
 40
1.0
 40
1.0
 40
2.0
 40
2.0
 40
2.0
 40
3.0
 40
3.0
 40
3.0
 40
4.0
 40
4.0
 40
4.0
 40
5.0
 40
5.0
 40
5.0
 40
6.0
 40
6.0
 40
6.0
 40
7.0
 40
7.0
 40
7.0
 40
8.0
 40
8.0
 40
8.0
 40
9.0
 40
9.0
 40
9.0
 40
10.0
 40
10.0
 40
10.0
 40
10.0
 10
498.9099234723
 20
25.5684003304
 30
0.0
 10
498.9099234723
 20
25.5684003304
 30
0.0
 10
498.9099234723
 20
24.9062850513
 30
0.0
 10
498.9099234723
 20
24.9062850513
 30
0.0
 10
498.9099234723
 20
24.591191456
 30
0.0
 10
499.0577871611
 20
24.3765928279
 30
0.0
 10
499.3978736454
 20
24.3765928279
 30
0.0
 10
499.7374367184
 20
24.3765928279
 30
0.0
 10
499.8855621129
 20
24.591191456
 30
0.0
 10
499.8855621129
 20
24.9062850513
 30
0.0
 10
499.8855621129
 20
24.9062850513
 30
0.0
 10
499.8855621129
 20
25.5684003304
 30
0.0
 10
499.8855621129
 20
25.5684003304
 30
0.0
 10
499.8855621129
 20
25.5684003304
 30
0.0
 10
499.663504874
 20
25.5684003304
 30
0.0
 10
499.663504874
 20
25.5684003304
 30
0.0
 10
499.663504874
 20
25.5684003304
 30
0.0
 10
499.663504874
 20
24.9314087931
 30
0.0
 10
499.663504874
 20
24.9314087931
 30
0.0
 10
499.663504874
 20
24.7455977859
 30
0.0
 10
499.6167904166
 20
24.5828168754
 30
0.0
 10
499.3978736454
 20
24.5828168754
 30
0.0
 10
499.178433463
 20
24.5828168754
 30
0.0
 10
499.1317190055
 20
24.7455977859
 30
0.0
 10
499.1317190055
 20
24.9314087931
 30
0.0
 10
499.1317190055
 20
24.9314087931
 30
0.0
 10
499.1317190055
 20
25.5684003304
 30
0.0
 10
499.1317190055
 20
25.5684003304
 30
0.0
 10
499.1317190055
 20
25.5684003304
 30
0.0
 10
498.9099234723
 20
25.5684003304
 30
0.0
 10
498.9099234723
 20
25.5684003304
 30
0.0
  0
SPLINE
  5
24A
100
AcDbEntity
  8
0
100
AcDbSpline
 62
7
  6
CONTINUOUS
 70
2
 71
3
 72
35
 73
31
 74
0
 42
0.0000001
 43
0.0000001
 44
0.0000000001
 40
0.0
 40
0.0
 40
0.0
 40
0.0
 40
1.0
 40
1.0
 40
1.0
 40
2.0
 40
2.0
 40
2.0
 40
3.0
 40
3.0
 40
3.0
 40
4.0
 40
4.0
 40
4.0
 40
5.0
 40
5.0
 40
5.0
 40
6.0
 40
6.0
 40
6.0
 40
7.0
 40
7.0
 40
7.0
 40
8.0
 40
8.0
 40
8.0
 40
9.0
 40
9.0
 40
9.0
 40
10.0
 40
10.0
 40
10.0
 40
10.0
 10
502.3086946701
 20
25.5270508387
 30
0.0
 10
502.2202381624
 20
25.5783451449
 30
0.0
 10
502.1067887658
 20
25.6034688867
 30
0.0
 10
502.0031533308
 20
25.6034688867
 30
0.0
 10
501.6482804776
 20
25.6034688867
 30
0.0
 10
501.3728352874
 20
25.3396695976
 30
0.0
 10
501.3728352874
 20
24.982179688
 30
0.0
 10
501.3728352874
 20
24.6372516493
 30
0.0
 10
501.6512900925
 20
24.3771162392
 30
0.0
 10
501.9908531655
 20
24.3771162392
 30
0.0
 10
502.1067887658
 20
24.3771162392
 30
0.0
 10
502.2075454387
 20
24.3990995133
 30
0.0
 10
502.3086946701
 20
24.453010876
 30
0.0
 10
502.3086946701
 20
24.453010876
 30
0.0
 10
502.3086946701
 20
24.7356529714
 30
0.0
 10
502.3086946701
 20
24.7356529714
 30
0.0
 10
502.2248180112
 20
24.6424857622
 30
0.0
 10
502.121313429
 20
24.5833402866
 30
0.0
 10
501.9932085163
 20
24.5833402866
 30
0.0
 10
501.7595053763
 20
24.5833402866
 30
0.0
 10
501.5942382621
 20
24.7555426004
 30
0.0
 10
501.5942382621
 20
24.9921245025
 30
0.0
 10
501.5942382621
 20
25.2041060741
 30
0.0
 10
501.7619915799
 20
25.3961980167
 30
0.0
 10
501.9788147059
 20
25.3961980167
 30
0.0
 10
502.1116303202
 20
25.3961980167
 30
0.0
 10
502.2202381624
 20
25.3422866541
 30
0.0
 10
502.3086946701
 20
25.2412682755
 30
0.0
 10
502.3086946701
 20
25.2412682755
 30
0.0
 10
502.3086946701
 20
25.5270508387
 30
0.0
 10
502.3086946701
 20
25.5270508387
 30
0.0
  0
SPLINE
  5
24B
100
AcDbEntity
  8
0
100
AcDbSpline
 62
7
  6
CONTINUOUS
 70
2
 71
3
 72
32
 73
28
 74
0
 42
0.0000001
 43
0.0000001
 44
0.0000000001
 40
0.0
 40
0.0
 40
0.0
 40
0.0
 40
1.0
 40
1.0
 40
1.0
 40
2.0
 40
2.0
 40
2.0
 40
3.0
 40
3.0
 40
3.0
 40
4.0
 40
4.0
 40
4.0
 40
5.0
 40
5.0
 40
5.0
 40
6.0
 40
6.0
 40
6.0
 40
7.0
 40
7.0
 40
7.0
 40
8.0
 40
8.0
 40
8.0
 40
9.0
 40
9.0
 40
9.0
 40
9.0
 10
504.8405659223
 20
24.9554857123
 30
0.0
 10
504.8405659223
 20
24.9554857123
 30
0.0
 10
504.8405659223
 20
24.989507446
 30
0.0
 10
504.8405659223
 20
24.989507446
 30
0.0
 10
504.8405659223
 20
25.3318184283
 30
0.0
 10
504.6677093445
 20
25.6034688867
 30
0.0
 10
504.3010597373
 20
25.6034688867
 30
0.0
 10
503.929437723
 20
25.6034688867
 30
0.0
 10
503.7397011311
 20
25.3370525412
 30
0.0
 10
503.7397011311
 20
24.982179688
 30
0.0
 10
503.7397011311
 20
24.6424857622
 30
0.0
 10
503.9537763478
 20
24.3765928279
 30
0.0
 10
504.3059012918
 20
24.3765928279
 30
0.0
 10
504.529921323
 20
24.3765928279
 30
0.0
 10
504.7320889329
 20
24.4922667226
 30
0.0
 10
504.8405659223
 20
24.6916864232
 30
0.0
 10
504.8405659223
 20
24.6916864232
 30
0.0
 10
504.6529229756
 20
24.798462326
 30
0.0
 10
504.6529229756
 20
24.798462326
 30
0.0
 10
504.5694388752
 20
24.6597583347
 30
0.0
 10
504.4782344583
 20
24.5739188835
 30
0.0
 10
504.308649201
 20
24.5739188835
 30
0.0
 10
504.0966676294
 20
24.5739188835
 30
0.0
 10
503.9637211623
 20
24.7586830681
 30
0.0
 10
503.9613658115
 20
24.9554857123
 30
0.0
 10
503.9613658115
 20
24.9554857123
 30
0.0
 10
504.8405659223
 20
24.9554857123
 30
0.0
 10
504.8405659223
 20
24.9554857123
 30
0.0
  0
SPLINE
  5
24C
100
AcDbEntity
  8
0
100
AcDbSpline
 62
7
  6
CONTINUOUS
 70
2
 71
3
 72
14
 73
10
 74
0
 42
0.0000001
 43
0.0000001
 44
0.0000000001
 40
0.0
 40
0.0
 40
0.0
 40
0.0
 40
1.0
 40
1.0
 40
1.0
 40
2.0
 40
2.0
 40
2.0
 40
3.0
 40
3.0
 40
3.0
 40
3.0
 10
503.9734042711
 20
25.1229773244
 30
0.0
 10
504.0010142166
 20
25.2878518801
 30
0.0
 10
504.1288574236
 20
25.4108535328
 30
0.0
 10
504.3010597373
 20
25.4108535328
 30
0.0
 10
504.4782344583
 20
25.4108535328
 30
0.0
 10
504.5916838549
 20
25.2951796381
 30
0.0
 10
504.6189012419
 20
25.1229773244
 30
0.0
 10
504.6189012419
 20
25.1229773244
 30
0.0
 10
503.9734042711
 20
25.1229773244
 30
0.0
 10
503.9734042711
 20
25.1229773244
 30
0.0
  0
SPLINE
  5
24D
100
AcDbEntity
  8
0
100
AcDbSpline
 62
7
  6
CONTINUOUS
 70
2
 71
3
 72
20
 73
16
 74
0
 42
0.0000001
 43
0.0000001
 44
0.0000000001
 40
0.0
 40
0.0
 40
0.0
 40
0.0
 40
1.0
 40
1.0
 40
1.0
 40
2.0
 40
2.0
 40
2.0
 40
3.0
 40
3.0
 40
3.0
 40
4.0
 40
4.0
 40
4.0
 40
5.0
 40
5.0
 40
5.0
 40
5.0
 10
506.8645973725
 20
25.3323418396
 30
0.0
 10
506.8645973725
 20
25.3323418396
 30
0.0
 10
507.2757369391
 20
24.8298670032
 30
0.0
 10
507.2757369391
 20
24.8298670032
 30
0.0
 10
507.159670486
 20
24.7141931086
 30
0.0
 10
507.0218824645
 20
24.5838636979
 30
0.0
 10
506.8499418565
 20
24.5838636979
 30
0.0
 10
506.6725054299
 20
24.5838636979
 30
0.0
 10
506.5050138177
 20
24.7482148423
 30
0.0
 10
506.5050138177
 20
24.9251278576
 30
0.0
 10
506.5050138177
 20
25.1030876955
 30
0.0
 10
506.7147708914
 20
25.2292298159
 30
0.0
 10
506.8423523928
 20
25.3171629122
 30
0.0
 10
506.8423523928
 20
25.3171629122
 30
0.0
 10
506.8645973725
 20
25.3323418396
 30
0.0
 10
506.8645973725
 20
25.3323418396
 30
0.0
  0
SPLINE
  5
24E
100
AcDbEntity
  8
0
100
AcDbSpline
 62
7
  6
CONTINUOUS
 70
2
 71
3
 72
23
 73
19
 74
0
 42
0.0000001
 43
0.0000001
 44
0.0000000001
 40
0.0
 40
0.0
 40
0.0
 40
0.0
 40
1.0
 40
1.0
 40
1.0
 40
2.0
 40
2.0
 40
2.0
 40
3.0
 40
3.0
 40
3.0
 40
4.0
 40
4.0
 40
4.0
 40
5.0
 40
5.0
 40
5.0
 40
6.0
 40
6.0
 40
6.0
 40
6.0
 10
506.9139288864
 20
25.6233585156
 30
0.0
 10
506.9139288864
 20
25.6233585156
 30
0.0
 10
506.8522972072
 20
25.7018702088
 30
0.0
 10
506.8522972072
 20
25.7018702088
 30
0.0
 10
506.7983858446
 20
25.7704370875
 30
0.0
 10
506.7415957199
 20
25.8395273775
 30
0.0
 10
506.7415957199
 20
25.9332179981
 30
0.0
 10
506.7415957199
 20
26.0520323604
 30
0.0
 10
506.8375108384
 20
26.129497231
 30
0.0
 10
506.9484740314
 20
26.129497231
 30
0.0
 10
507.0717373897
 20
26.129497231
 30
0.0
 10
507.1650354517
 20
26.0583132959
 30
0.0
 10
507.1650354517
 20
25.9279838852
 30
0.0
 10
507.1650354517
 20
25.7929437729
 30
0.0
 10
507.036930539
 20
25.7165257249
 30
0.0
 10
506.9433707713
 20
25.6427247333
 30
0.0
 10
506.9433707713
 20
25.6427247333
 30
0.0
 10
506.9139288864
 20
25.6233585156
 30
0.0
 10
506.9139288864
 20
25.6233585156
 30
0.0
  0
SPLINE
  5
24F
100
AcDbEntity
  8
0
100
AcDbSpline
 62
7
  6
CONTINUOUS
 70
2
 71
3
 72
50
 73
46
 74
0
 42
0.0000001
 43
0.0000001
 44
0.0000000001
 40
0.0
 40
0.0
 40
0.0
 40
0.0
 40
1.0
 40
1.0
 40
1.0
 40
2.0
 40
2.0
 40
2.0
 40
3.0
 40
3.0
 40
3.0
 40
4.0
 40
4.0
 40
4.0
 40
5.0
 40
5.0
 40
5.0
 40
6.0
 40
6.0
 40
6.0
 40
7.0
 40
7.0
 40
7.0
 40
8.0
 40
8.0
 40
8.0
 40
9.0
 40
9.0
 40
9.0
 40
10.0
 40
10.0
 40
10.0
 40
11.0
 40
11.0
 40
11.0
 40
12.0
 40
12.0
 40
12.0
 40
13.0
 40
13.0
 40
13.0
 40
14.0
 40
14.0
 40
14.0
 40
15.0
 40
15.0
 40
15.0
 40
15.0
 10
507.6160851291
 20
24.4163720858
 30
0.0
 10
507.6160851291
 20
24.4163720858
 30
0.0
 10
507.9014751338
 20
24.4163720858
 30
0.0
 10
507.9014751338
 20
24.4163720858
 30
0.0
 10
507.9014751338
 20
24.4163720858
 30
0.0
 10
507.569108966
 20
24.8272499468
 30
0.0
 10
507.569108966
 20
24.8272499468
 30
0.0
 10
507.569108966
 20
24.8272499468
 30
0.0
 10
507.7956152008
 20
25.093142881
 30
0.0
 10
507.7956152008
 20
25.093142881
 30
0.0
 10
507.7956152008
 20
25.093142881
 30
0.0
 10
507.6473589535
 20
25.2459789771
 30
0.0
 10
507.6473589535
 20
25.2459789771
 30
0.0
 10
507.6473589535
 20
25.2459789771
 30
0.0
 10
507.4314517973
 20
24.9947415589
 30
0.0
 10
507.4314517973
 20
24.9947415589
 30
0.0
 10
507.4314517973
 20
24.9947415589
 30
0.0
 10
507.0443891499
 20
25.4626712503
 30
0.0
 10
507.0443891499
 20
25.4626712503
 30
0.0
 10
507.1998423024
 20
25.576774911
 30
0.0
 10
507.3821202834
 20
25.7165257249
 30
0.0
 10
507.3821202834
 20
25.92589024
 30
0.0
 10
507.3821202834
 20
26.1697999002
 30
0.0
 10
507.1800835263
 20
26.3132145931
 30
0.0
 10
506.9535772914
 20
26.3132145931
 30
0.0
 10
506.7094059257
 20
26.3132145931
 30
0.0
 10
506.5250342995
 20
26.1624721421
 30
0.0
 10
506.5250342995
 20
25.9060006111
 30
0.0
 10
506.5250342995
 20
25.7484538134
 30
0.0
 10
506.6236973273
 20
25.6107966447
 30
0.0
 10
506.729033849
 20
25.4998334517
 30
0.0
 10
506.729033849
 20
25.4998334517
 30
0.0
 10
506.6134908072
 20
25.4160876456
 30
0.0
 10
506.6134908072
 20
25.4160876456
 30
0.0
 10
506.4357926749
 20
25.2878518801
 30
0.0
 10
506.2884523974
 20
25.1601395259
 30
0.0
 10
506.2884523974
 20
24.9230342125
 30
0.0
 10
506.2884523974
 20
24.6027065043
 30
0.0
 10
506.5470175736
 20
24.3765928279
 30
0.0
 10
506.8574004673
 20
24.3765928279
 30
0.0
 10
507.0763172385
 20
24.3765928279
 30
0.0
 10
507.2735124412
 20
24.5016881257
 30
0.0
 10
507.4137866663
 20
24.667609504
 30
0.0
 10
507.4137866663
 20
24.667609504
 30
0.0
 10
507.6160851291
 20
24.4163720858
 30
0.0
 10
507.6160851291
 20
24.4163720858
 30
0.0
  0
LWPOLYLINE
  5
250
100
AcDbEntity
  8
0
100
AcDbPolyline
 62
7
  6
CONTINUOUS
 90
2
 70
0
 43
0.2
 10
509.5515292188
 20
26.2729119239
 10
509.3201814296
 20
26.2729119239
  0
LWPOLYLINE
  5
251
100
AcDbEntity
  8
0
100
AcDbPolyline
 62
7
  6
CONTINUOUS
 90
2
 70
0
 43
0.2
 10
509.3201814296
 20
26.2729119239
 10
509.3201814296
 20
24.4158486745
  0
LWPOLYLINE
  5
252
100
AcDbEntity
  8
0
100
AcDbPolyline
 62
7
  6
CONTINUOUS
 90
2
 70
0
 43
0.2
 10
509.3201814296
 20
24.4158486745
 10
510.1155048815
 20
24.4158486745
  0
LWPOLYLINE
  5
253
100
AcDbEntity
  8
0
100
AcDbPolyline
 62
7
  6
CONTINUOUS
 90
2
 70
0
 43
0.2
 10
510.1155048815
 20
24.4158486745
 10
510.1155048815
 20
24.6278302461
  0
LWPOLYLINE
  5
254
100
AcDbEntity
  8
0
100
AcDbPolyline
 62
7
  6
CONTINUOUS
 90
2
 70
0
 43
0.2
 10
510.1155048815
 20
24.6278302461
 10
509.5515292188
 20
24.6278302461
  0
LWPOLYLINE
  5
255
100
AcDbEntity
  8
0
100
AcDbPolyline
 62
7
  6
CONTINUOUS
 90
2
 70
0
 43
0.2
 10
509.5515292188
 20
24.6278302461
 10
509.5515292188
 20
26.2729119239
  0
LWPOLYLINE
  5
256
100
AcDbEntity
  8
0
100
AcDbPolyline
 62
7
  6
CONTINUOUS
 90
2
 70
0
 43
0.2
 10
511.794608293
 20
25.5684003304
 10
511.5734670238
 20
25.5684003304
  0
LWPOLYLINE
  5
257
100
AcDbEntity
  8
0
100
AcDbPolyline
 62
7
  6
CONTINUOUS
 90
2
 70
0
 43
0.2
 10
511.5734670238
 20
25.5684003304
 10
511.5734670238
 20
24.4163720858
  0
LWPOLYLINE
  5
258
100
AcDbEntity
  8
0
100
AcDbPolyline
 62
7
  6
CONTINUOUS
 90
2
 70
0
 43
0.2
 10
511.5734670238
 20
24.4163720858
 10
511.794608293
 20
24.4163720858
  0
LWPOLYLINE
  5
259
100
AcDbEntity
  8
0
100
AcDbPolyline
 62
7
  6
CONTINUOUS
 90
2
 70
0
 43
0.2
 10
511.794608293
 20
24.4163720858
 10
511.794608293
 20
25.5684003304
  0
LWPOLYLINE
  5
25A
100
AcDbEntity
  8
0
100
AcDbPolyline
 62
7
  6
CONTINUOUS
 90
2
 70
1
 43
0.2
 10
511.5315850158
 20
26.0983542594
 42
1.0
 10
511.8367520067
 20
26.0983542594
 42
1.0
  0
SPLINE
  5
25B
100
AcDbEntity
  8
0
100
AcDbSpline
 62
7
  6
CONTINUOUS
 70
2
 71
3
 72
17
 73
13
 74
0
 42
0.0000001
 43
0.0000001
 44
0.0000000001
 40
0.0
 40
0.0
 40
0.0
 40
0.0
 40
1.0
 40
1.0
 40
1.0
 40
2.0
 40
2.0
 40
2.0
 40
3.0
 40
3.0
 40
3.0
 40
4.0
 40
4.0
 40
4.0
 40
4.0
 10
513.9248922346
 20
24.5739188835
 30
0.0
 10
513.6909273889
 20
24.5739188835
 30
0.0
 10
513.5605979782
 20
24.7759556406
 30
0.0
 10
513.5605979782
 20
24.9921245025
 30
0.0
 10
513.5605979782
 20
25.2067231305
 30
0.0
 10
513.6964232074
 20
25.4056194199
 30
0.0
 10
513.9248922346
 20
25.4056194199
 30
0.0
 10
514.1643528988
 20
25.4056194199
 30
0.0
 10
514.2999164223
 20
25.216667945
 30
0.0
 10
514.2999164223
 20
24.9921245025
 30
0.0
 10
514.2999164223
 20
24.7660108261
 30
0.0
 10
514.1667082496
 20
24.5739188835
 30
0.0
 10
513.9248922346
 20
24.5739188835
 30
0.0
  0
SPLINE
  5
25C
100
AcDbEntity
  8
0
100
AcDbSpline
 62
7
  6
CONTINUOUS
 70
2
 71
3
 72
50
 73
46
 74
0
 42
0.0000001
 43
0.0000001
 44
0.0000000001
 40
0.0
 40
0.0
 40
0.0
 40
0.0
 40
1.0
 40
1.0
 40
1.0
 40
2.0
 40
2.0
 40
2.0
 40
3.0
 40
3.0
 40
3.0
 40
4.0
 40
4.0
 40
4.0
 40
5.0
 40
5.0
 40
5.0
 40
6.0
 40
6.0
 40
6.0
 40
7.0
 40
7.0
 40
7.0
 40
8.0
 40
8.0
 40
8.0
 40
9.0
 40
9.0
 40
9.0
 40
10.0
 40
10.0
 40
10.0
 40
11.0
 40
11.0
 40
11.0
 40
12.0
 40
12.0
 40
12.0
 40
13.0
 40
13.0
 40
13.0
 40
14.0
 40
14.0
 40
14.0
 40
15.0
 40
15.0
 40
15.0
 40
15.0
 10
514.5090192319
 20
25.5689237417
 30
0.0
 10
514.5090192319
 20
25.5689237417
 30
0.0
 10
514.2873545514
 20
25.5689237417
 30
0.0
 10
514.2873545514
 20
25.5689237417
 30
0.0
 10
514.2873545514
 20
25.5689237417
 30
0.0
 10
514.2873545514
 20
25.3715976862
 30
0.0
 10
514.2873545514
 20
25.3715976862
 30
0.0
 10
514.2873545514
 20
25.3715976862
 30
0.0
 10
514.2826438499
 20
25.3715976862
 30
0.0
 10
514.2826438499
 20
25.3715976862
 30
0.0
 10
514.1913085801
 20
25.5144889678
 30
0.0
 10
514.0533897058
 20
25.6029454754
 30
0.0
 10
513.8806639808
 20
25.6029454754
 30
0.0
 10
513.548297813
 20
25.6029454754
 30
0.0
 10
513.3391950035
 20
25.3150692671
 30
0.0
 10
513.3391950035
 20
24.9994522605
 30
0.0
 10
513.3391950035
 20
24.6697031491
 30
0.0
 10
513.5362593533
 20
24.3765928279
 30
0.0
 10
513.8911322065
 20
24.3765928279
 30
0.0
 10
514.0533897058
 20
24.3765928279
 30
0.0
 10
514.1934022253
 20
24.4650493356
 30
0.0
 10
514.2826438499
 20
24.5959021576
 30
0.0
 10
514.2826438499
 20
24.5959021576
 30
0.0
 10
514.2873545514
 20
24.5959021576
 30
0.0
 10
514.2873545514
 20
24.5959021576
 30
0.0
 10
514.2873545514
 20
24.5959021576
 30
0.0
 10
514.2873545514
 20
24.3765928279
 30
0.0
 10
514.2873545514
 20
24.3765928279
 30
0.0
 10
514.2873545514
 20
24.1400109258
 30
0.0
 10
514.2308261324
 20
23.953153096
 30
0.0
 10
513.9576054401
 20
23.953153096
 30
0.0
 10
513.7553069773
 20
23.953153096
 30
0.0
 10
513.6126774014
 20
24.0714440471
 30
0.0
 10
513.6126774014
 20
24.2776680945
 30
0.0
 10
513.6126774014
 20
24.2776680945
 30
0.0
 10
513.391012721
 20
24.2776680945
 30
0.0
 10
513.391012721
 20
24.2776680945
 30
0.0
 10
513.3959851282
 20
23.953153096
 30
0.0
 10
513.6270712118
 20
23.7563504518
 30
0.0
 10
513.94739892
 20
23.7563504518
 30
0.0
 10
514.3954389824
 20
23.7563504518
 30
0.0
 10
514.5090192319
 20
24.0416096037
 30
0.0
 10
514.5090192319
 20
24.4383553599
 30
0.0
 10
514.5090192319
 20
24.4383553599
 30
0.0
 10
514.5090192319
 20
25.5689237417
 30
0.0
 10
514.5090192319
 20
25.5689237417
 30
0.0
  0
SPLINE
  5
25D
100
AcDbEntity
  8
0
100
AcDbSpline
 62
7
  6
CONTINUOUS
 70
2
 71
3
 72
44
 73
40
 74
0
 42
0.0000001
 43
0.0000001
 44
0.0000000001
 40
0.0
 40
0.0
 40
0.0
 40
0.0
 40
1.0
 40
1.0
 40
1.0
 40
2.0
 40
2.0
 40
2.0
 40
3.0
 40
3.0
 40
3.0
 40
4.0
 40
4.0
 40
4.0
 40
5.0
 40
5.0
 40
5.0
 40
6.0
 40
6.0
 40
6.0
 40
7.0
 40
7.0
 40
7.0
 40
8.0
 40
8.0
 40
8.0
 40
9.0
 40
9.0
 40
9.0
 40
10.0
 40
10.0
 40
10.0
 40
11.0
 40
11.0
 40
11.0
 40
12.0
 40
12.0
 40
12.0
 40
13.0
 40
13.0
 40
13.0
 40
13.0
 10
516.0779445672
 20
26.5539837855
 30
0.0
 10
516.0779445672
 20
26.5539837855
 30
0.0
 10
516.0779445672
 20
24.4158486745
 30
0.0
 10
516.0779445672
 20
24.4158486745
 30
0.0
 10
516.0779445672
 20
24.4158486745
 30
0.0
 10
516.299347542
 20
24.4158486745
 30
0.0
 10
516.299347542
 20
24.4158486745
 30
0.0
 10
516.299347542
 20
24.4158486745
 30
0.0
 10
516.299347542
 20
24.9455408978
 30
0.0
 10
516.299347542
 20
24.9455408978
 30
0.0
 10
516.299347542
 20
25.1554288243
 30
0.0
 10
516.299347542
 20
25.4061428312
 30
0.0
 10
516.5846066939
 20
25.4061428312
 30
0.0
 10
516.8115054872
 20
25.4061428312
 30
0.0
 10
516.8384611685
 20
25.2731963641
 30
0.0
 10
516.8384611685
 20
25.0769171311
 30
0.0
 10
516.8384611685
 20
25.0769171311
 30
0.0
 10
516.8384611685
 20
24.4158486745
 30
0.0
 10
516.8384611685
 20
24.4158486745
 30
0.0
 10
516.8384611685
 20
24.4158486745
 30
0.0
 10
517.0603875546
 20
24.4158486745
 30
0.0
 10
517.0603875546
 20
24.4158486745
 30
0.0
 10
517.0603875546
 20
24.4158486745
 30
0.0
 10
517.0603875546
 20
25.1030876955
 30
0.0
 10
517.0603875546
 20
25.1030876955
 30
0.0
 10
517.0603875546
 20
25.3836361458
 30
0.0
 10
516.9763800429
 20
25.6034688867
 30
0.0
 10
516.6513416331
 20
25.6034688867
 30
0.0
 10
516.5115908192
 20
25.6034688867
 30
0.0
 10
516.3734102392
 20
25.5369956531
 30
0.0
 10
516.3040582436
 20
25.4139940005
 30
0.0
 10
516.3040582436
 20
25.4139940005
 30
0.0
 10
516.299347542
 20
25.4139940005
 30
0.0
 10
516.299347542
 20
25.4139940005
 30
0.0
 10
516.299347542
 20
25.4139940005
 30
0.0
 10
516.299347542
 20
26.5539837855
 30
0.0
 10
516.299347542
 20
26.5539837855
 30
0.0
 10
516.299347542
 20
26.5539837855
 30
0.0
 10
516.0779445672
 20
26.5539837855
 30
0.0
 10
516.0779445672
 20
26.5539837855
 30
0.0
  0
LWPOLYLINE
  5
25E
100
AcDbEntity
  8
0
100
AcDbPolyline
 62
7
  6
CONTINUOUS
 90
2
 70
0
 43
0.2
 10
518.9001782314
 20
25.3616528717
 10
519.116608799
 20
25.3616528717
  0
LWPOLYLINE
  5
25F
100
AcDbEntity
  8
0
100
AcDbPolyline
 62
7
  6
CONTINUOUS
 90
2
 70
0
 43
0.2
 10
519.116608799
 20
25.3616528717
 10
519.116608799
 20
25.5684003304
  0
LWPOLYLINE
  5
260
100
AcDbEntity
  8
0
100
AcDbPolyline
 62
7
  6
CONTINUOUS
 90
2
 70
0
 43
0.2
 10
519.116608799
 20
25.5684003304
 10
518.9001782314
 20
25.5684003304
  0
LWPOLYLINE
  5
261
100
AcDbEntity
  8
0
100
AcDbPolyline
 62
7
  6
CONTINUOUS
 90
2
 70
0
 43
0.2
 10
518.9001782314
 20
25.5684003304
 10
518.9001782314
 20
26.0091126348
  0
LWPOLYLINE
  5
262
100
AcDbEntity
  8
0
100
AcDbPolyline
 62
7
  6
CONTINUOUS
 90
2
 70
0
 43
0.2
 10
518.9001782314
 20
26.0091126348
 10
518.678513551
 20
26.0091126348
  0
LWPOLYLINE
  5
263
100
AcDbEntity
  8
0
100
AcDbPolyline
 62
7
  6
CONTINUOUS
 90
2
 70
0
 43
0.2
 10
518.678513551
 20
26.0091126348
 10
518.678513551
 20
25.5684003304
  0
LWPOLYLINE
  5
264
100
AcDbEntity
  8
0
100
AcDbPolyline
 62
7
  6
CONTINUOUS
 90
2
 70
0
 43
0.2
 10
518.678513551
 20
25.5684003304
 10
518.5578672492
 20
25.5684003304
  0
LWPOLYLINE
  5
265
100
AcDbEntity
  8
0
100
AcDbPolyline
 62
7
  6
CONTINUOUS
 90
2
 70
0
 43
0.2
 10
518.5578672492
 20
25.5684003304
 10
518.5578672492
 20
25.3616528717
  0
LWPOLYLINE
  5
266
100
AcDbEntity
  8
0
100
AcDbPolyline
 62
7
  6
CONTINUOUS
 90
2
 70
0
 43
0.2
 10
518.5578672492
 20
25.3616528717
 10
518.678513551
 20
25.3616528717
  0
LWPOLYLINE
  5
267
100
AcDbEntity
  8
0
100
AcDbPolyline
 62
7
  6
CONTINUOUS
 90
2
 70
0
 43
0.2
 10
518.678513551
 20
25.3616528717
 10
518.678513551
 20
24.4158486745
  0
LWPOLYLINE
  5
268
100
AcDbEntity
  8
0
100
AcDbPolyline
 62
7
  6
CONTINUOUS
 90
2
 70
0
 43
0.2
 10
518.678513551
 20
24.4158486745
 10
518.9001782314
 20
24.4158486745
  0
LWPOLYLINE
  5
269
100
AcDbEntity
  8
0
100
AcDbPolyline
 62
7
  6
CONTINUOUS
 90
2
 70
0
 43
0.2
 10
518.9001782314
 20
24.4158486745
 10
518.9001782314
 20
25.3616528717
  0
SPLINE
  5
26A
100
AcDbEntity
  8
0
100
AcDbSpline
 62
7
  6
CONTINUOUS
 70
2
 71
3
 72
20
 73
16
 74
0
 42
0.0000001
 43
0.0000001
 44
0.0000000001
 40
0.0
 40
0.0
 40
0.0
 40
0.0
 40
1.0
 40
1.0
 40
1.0
 40
2.0
 40
2.0
 40
2.0
 40
3.0
 40
3.0
 40
3.0
 40
4.0
 40
4.0
 40
4.0
 40
5.0
 40
5.0
 40
5.0
 40
5.0
 10
506.6821885387
 20
34.7767751179
 30
0.0
 10
506.6821885387
 20
34.7767751179
 30
0.0
 10
508.9985451932
 20
31.9472136957
 30
0.0
 10
508.9985451932
 20
31.9472136957
 30
0.0
 10
508.3468981398
 20
31.295043231
 30
0.0
 10
507.5700249357
 20
30.5591269603
 30
0.0
 10
506.5988352911
 20
30.5591269603
 30
0.0
 10
505.6002974067
 20
30.5591269603
 30
0.0
 10
504.6569794131
 20
31.4887054075
 30
0.0
 10
504.6569794131
 20
32.4878975561
 30
0.0
 10
504.6569794131
 20
33.4870897046
 30
0.0
 10
505.8358324862
 20
34.1936949432
 30
0.0
 10
506.5573549465
 20
34.6935527231
 30
0.0
 10
506.5573549465
 20
34.6935527231
 30
0.0
 10
506.6821885387
 20
34.7767751179
 30
0.0
 10
506.6821885387
 20
34.7767751179
 30
0.0
  0
SPLINE
  5
26B
100
AcDbEntity
  8
0
100
AcDbSpline
 62
7
  6
CONTINUOUS
 70
2
 71
3
 72
23
 73
19
 74
0
 42
0.0000001
 43
0.0000001
 44
0.0000000001
 40
0.0
 40
0.0
 40
0.0
 40
0.0
 40
1.0
 40
1.0
 40
1.0
 40
2.0
 40
2.0
 40
2.0
 40
3.0
 40
3.0
 40
3.0
 40
4.0
 40
4.0
 40
4.0
 40
5.0
 40
5.0
 40
5.0
 40
6.0
 40
6.0
 40
6.0
 40
6.0
 10
506.9595965213
 20
36.4145290377
 30
0.0
 10
506.9595965213
 20
36.4145290377
 30
0.0
 10
506.6130982487
 20
36.8578583985
 30
0.0
 10
506.6130982487
 20
36.8578583985
 30
0.0
 10
506.3072952038
 20
37.2459678684
 30
0.0
 10
505.9884068766
 20
37.6344698969
 30
0.0
 10
505.9884068766
 20
38.1614142109
 30
0.0
 10
505.9884068766
 20
38.8275859276
 30
0.0
 10
506.5297450011
 20
39.2713078469
 30
0.0
 10
507.1536512562
 20
39.2713078469
 30
0.0
 10
507.8474329183
 20
39.2713078469
 30
0.0
 10
508.374638938
 20
38.8690662721
 30
0.0
 10
508.374638938
 20
38.1340659711
 30
0.0
 10
508.374638938
 20
37.3708014606
 30
0.0
 10
507.6533781833
 20
36.9406882348
 30
0.0
 10
507.1263030164
 20
36.5249688194
 30
0.0
 10
507.1263030164
 20
36.5249688194
 30
0.0
 10
506.9595965213
 20
36.4145290377
 30
0.0
 10
506.9595965213
 20
36.4145290377
 30
0.0
  0
SPLINE
  5
26C
100
AcDbEntity
  8
0
100
AcDbSpline
 62
7
  6
CONTINUOUS
 70
2
 71
3
 72
50
 73
46
 74
0
 42
0.0000001
 43
0.0000001
 44
0.0000000001
 40
0.0
 40
0.0
 40
0.0
 40
0.0
 40
1.0
 40
1.0
 40
1.0
 40
2.0
 40
2.0
 40
2.0
 40
3.0
 40
3.0
 40
3.0
 40
4.0
 40
4.0
 40
4.0
 40
5.0
 40
5.0
 40
5.0
 40
6.0
 40
6.0
 40
6.0
 40
7.0
 40
7.0
 40
7.0
 40
8.0
 40
8.0
 40
8.0
 40
9.0
 40
9.0
 40
9.0
 40
10.0
 40
10.0
 40
10.0
 40
11.0
 40
11.0
 40
11.0
 40
12.0
 40
12.0
 40
12.0
 40
13.0
 40
13.0
 40
13.0
 40
14.0
 40
14.0
 40
14.0
 40
15.0
 40
15.0
 40
15.0
 40
15.0
 10
510.9131836842
 20
29.6159398195
 30
0.0
 10
510.9131836842
 20
29.6159398195
 30
0.0
 10
512.5224116887
 20
29.6159398195
 30
0.0
 10
512.5224116887
 20
29.6159398195
 30
0.0
 10
512.5224116887
 20
29.6159398195
 30
0.0
 10
510.6493843951
 20
31.9330815909
 30
0.0
 10
510.6493843951
 20
31.9330815909
 30
0.0
 10
510.6493843951
 20
31.9330815909
 30
0.0
 10
511.9257228206
 20
33.4305612855
 30
0.0
 10
511.9257228206
 20
33.4305612855
 30
0.0
 10
511.9257228206
 20
33.4305612855
 30
0.0
 10
511.0934988729
 20
34.2915728541
 30
0.0
 10
511.0934988729
 20
34.2915728541
 30
0.0
 10
511.0934988729
 20
34.2915728541
 30
0.0
 10
509.8729037495
 20
32.8762687317
 30
0.0
 10
509.8729037495
 20
32.8762687317
 30
0.0
 10
509.8729037495
 20
32.8762687317
 30
0.0
 10
507.6949893807
 20
35.5116445661
 30
0.0
 10
507.6949893807
 20
35.5116445661
 30
0.0
 10
508.5685628202
 20
36.149682926
 30
0.0
 10
509.5952340613
 20
36.9406882348
 30
0.0
 10
509.5952340613
 20
38.1195413079
 30
0.0
 10
509.5952340613
 20
39.4932342329
 30
0.0
 10
508.4573379215
 20
40.2977173824
 30
0.0
 10
507.1820463186
 20
40.2977173824
 30
0.0
 10
505.8086150992
 20
40.2977173824
 30
0.0
 10
504.7676809005
 20
39.4514921827
 30
0.0
 10
504.7676809005
 20
38.0088398205
 30
0.0
 10
504.7676809005
 20
37.1212651291
 30
0.0
 10
505.3230202769
 20
36.3443919251
 30
0.0
 10
505.9191857338
 20
35.7199622587
 30
0.0
 10
505.9191857338
 20
35.7199622587
 30
0.0
 10
505.2672769748
 20
35.2483686883
 30
0.0
 10
505.2672769748
 20
35.2483686883
 30
0.0
 10
504.2687390903
 20
34.5271079336
 30
0.0
 10
503.4358608785
 20
33.8058471789
 30
0.0
 10
503.4358608785
 20
32.4742888626
 30
0.0
 10
503.4358608785
 20
30.6706135646
 30
0.0
 10
504.8929070511
 20
29.3940134335
 30
0.0
 10
506.6404464885
 20
29.3940134335
 30
0.0
 10
507.8753045694
 20
29.3940134335
 30
0.0
 10
508.984674794
 20
30.1021889059
 30
0.0
 10
509.77554925
 20
31.0307205306
 30
0.0
 10
509.77554925
 20
31.0307205306
 30
0.0
 10
510.9131836842
 20
29.6159398195
 30
0.0
 10
510.9131836842
 20
29.6159398195
 30
0.0
  0
LINE
  5
26D
100
AcDbEntity
  8
0
100
AcDbLine
 62
7
  6
CONTINUOUS
 10
496.7160450592
 20
27.5898147242
 11
519.1299557868
 21
27.5898147242
  0
LINE
  5
26E
100
AcDbEntity
  8
0
100
AcDbLine
 62
7
  6
CONTINUOUS
 10
519.1299557868
 20
27.5898147242
 11
519.1299557868
 21
50.0037254518
  0
LINE
  5
26F
100
AcDbEntity
  8
0
100
AcDbLine
 62
7
  6
CONTINUOUS
 10
519.1299557868
 20
50.0037254518
 11
496.7160450592
 21
50.0037254518
  0
LINE
  5
270
100
AcDbEntity
  8
0
100
AcDbLine
 62
7
  6
CONTINUOUS
 10
496.7160450592
 20
50.0037254518
 11
496.7160450592
 21
27.5898147242
  0
ENDBLK
  5
271
100
AcDbEntity
  8
0
  6
BYBLOCK
 62
0
100
AcDbBlockEnd
  0
BLOCK
  5
272
100
AcDbEntity
  8
0
100
AcDbBlockBegin
  2
_CLOSED
 70
64
 10
0.0
 20
0.0
  3
_CLOSED
  1

  0
LINE
  5
273
100
AcDbEntity
  8
0
  6
BYBLOCK
 62
0
100
AcDbLine
 10
0.0
 20
0.0
 11
-1.0
 21
0.2
  0
LINE
  5
274
100
AcDbEntity
  8
0
  6
BYBLOCK
 62
0
100
AcDbLine
 10
-1.0
 20
0.2
 11
-1.0
 21
-0.2
  0
LINE
  5
275
100
AcDbEntity
  8
0
  6
BYBLOCK
 62
0
100
AcDbLine
 10
-1.0
 20
-0.2
 11
0.0
 21
0.0
  0
LINE
  5
276
100
AcDbEntity
  8
0
  6
BYBLOCK
 62
0
100
AcDbLine
 10
-1.0
 20
0.0
 11
0.0
 21
0.0
  0
ENDBLK
  5
277
100
AcDbEntity
  8
0
  6
BYBLOCK
 62
0
100
AcDbBlockEnd
  0
BLOCK
  5
278
100
AcDbEntity
  8
0
100
AcDbBlockBegin
 62
2
  6
CONTINUOUS
  2
*D0
 70
65
 10
0.0
 20
0.0
  3
*D0
  1

  0
MTEXT
  5
279
100
AcDbEntity
  8
0
100
AcDbMText
 62
2
  6
CONTINUOUS
  7
TEXTSTYLE_2
 71
1
 72
1
 10
212.1660449308
 20
92.9746555643
 30
0.0
 11
0.9655987775
 21
-0.2600365376
 31
0.0
  1
{\Fgdt;n}\Ftxt;150
 40
3.0
 41
15.3214285714
  0
LINE
  5
27A
100
AcDbEntity
  8
0
100
AcDbLine
 62
2
  6
CONTINUOUS
 10
204.8181057508
 20
91.0698609646
 11
221.0538097133
 21
86.6975726571
  0
INSERT
  5
27B
100
AcDbEntity
  8
0
100
AcDbBlockReference
 62
2
  6
CONTINUOUS
  2
_CLOSED
 10
204.8181057508
 20
91.0698609646
 41
2.5
 42
2.5
 43
2.5
 50
164.9277698304
  0
ENDBLK
  5
27C
100
AcDbEntity
  8
0
  6
BYBLOCK
 62
0
100
AcDbBlockEnd
  0
BLOCK
  5
27D
100
AcDbEntity
  8
0
100
AcDbBlockBegin
 62
2
  6
CONTINUOUS
  2
*D1
 70
65
 10
0.0
 20
0.0
  3
*D1
  1

  0
MTEXT
  5
27E
100
AcDbEntity
  8
0
100
AcDbMText
 62
2
  6
CONTINUOUS
  7
STANDARD
 71
3
 72
1
 10
227.9729325601
 20
369.593360884
 30
0.0
 11
0.0
 21
1.0
 31
0.0
  1
3
 40
3.0
 41
3.2142857143
  0
LINE
  5
27F
100
AcDbEntity
  8
0
100
AcDbLine
 62
2
  6
CONTINUOUS
 10
223.4065083648
 20
377.7054579236
 11
232.4729325601
 21
377.7054579236
  0
LINE
  5
280
100
AcDbEntity
  8
0
100
AcDbLine
 62
2
  6
CONTINUOUS
 10
223.2028053508
 20
374.7054579236
 11
232.4729325601
 21
374.7054579236
  0
LINE
  5
281
100
AcDbEntity
  8
0
100
AcDbLine
 62
2
  6
CONTINUOUS
 10
231.7229325601
 20
377.7054579236
 11
231.7229325601
 21
378.7054579236
  0
LINE
  5
282
100
AcDbEntity
  8
0
100
AcDbLine
 62
2
  6
CONTINUOUS
 10
231.7229325601
 20
378.7054579236
 11
231.7229325601
 21
376.2054579236
  0
LINE
  5
283
100
AcDbEntity
  8
0
100
AcDbLine
 62
2
  6
CONTINUOUS
 10
231.7229325601
 20
374.7054579236
 11
231.7229325601
 21
367.4505037412
  0
LINE
  5
284
100
AcDbEntity
  8
0
100
AcDbLine
 62
2
  6
CONTINUOUS
 10
231.7229325601
 20
367.4505037412
 11
231.7229325601
 21
376.2054579236
  0
INSERT
  5
285
100
AcDbEntity
  8
0
100
AcDbBlockReference
 62
2
  6
CONTINUOUS
  2
_CLOSED
 10
231.7229325601
 20
377.7054579236
 41
2.5
 42
2.5
 43
2.5
 50
270.0
  0
INSERT
  5
286
100
AcDbEntity
  8
0
100
AcDbBlockReference
 62
2
  6
CONTINUOUS
  2
_CLOSED
 10
231.7229325601
 20
374.7054579236
 41
2.5
 42
2.5
 43
2.5
 50
90.0
  0
ENDBLK
  5
287
100
AcDbEntity
  8
0
  6
BYBLOCK
 62
0
100
AcDbBlockEnd
  0
BLOCK
  5
288
100
AcDbEntity
  8
0
100
AcDbBlockBegin
 62
2
  6
CONTINUOUS
  2
*D2
 70
65
 10
0.0
 20
0.0
  3
*D2
  1

  0
MTEXT
  5
289
100
AcDbEntity
  8
0
100
AcDbMText
 62
2
  6
CONTINUOUS
  7
STANDARD
 71
2
 72
1
 10
238.0571013518
 20
365.2054580915
 30
0.0
 11
0.0
 21
1.0
 31
0.0
  1
25
 40
3.0
 41
6.75
  0
LINE
  5
28A
100
AcDbEntity
  8
0
100
AcDbLine
 62
2
  6
CONTINUOUS
 10
223.4065083648
 20
377.7054579236
 11
242.5571013518
 21
377.7054579236
  0
LINE
  5
28B
100
AcDbEntity
  8
0
100
AcDbLine
 62
2
  6
CONTINUOUS
 10
223.9640039934
 20
352.7054582593
 11
242.5571013518
 21
352.7054582593
  0
LINE
  5
28C
100
AcDbEntity
  8
0
100
AcDbLine
 62
2
  6
CONTINUOUS
 10
241.8071013518
 20
377.7054579236
 11
241.8071013518
 21
365.2054580915
  0
LINE
  5
28D
100
AcDbEntity
  8
0
100
AcDbLine
 62
2
  6
CONTINUOUS
 10
241.8071013518
 20
352.7054582593
 11
241.8071013518
 21
365.2054580915
  0
INSERT
  5
28E
100
AcDbEntity
  8
0
100
AcDbBlockReference
 62
2
  6
CONTINUOUS
  2
_CLOSED
 10
241.8071013518
 20
377.7054579236
 41
2.5
 42
2.5
 43
2.5
 50
90.0
  0
INSERT
  5
28F
100
AcDbEntity
  8
0
100
AcDbBlockReference
 62
2
  6
CONTINUOUS
  2
_CLOSED
 10
241.8071013518
 20
352.7054582593
 41
2.5
 42
2.5
 43
2.5
 50
270.0
  0
ENDBLK
  5
290
100
AcDbEntity
  8
0
  6
BYBLOCK
 62
0
100
AcDbBlockEnd
  0
BLOCK
  5
291
100
AcDbEntity
  8
0
100
AcDbBlockBegin
 62
2
  6
CONTINUOUS
  2
*D3
 70
65
 10
0.0
 20
0.0
  3
*D3
  1

  0
MTEXT
  5
292
100
AcDbEntity
  8
0
100
AcDbMText
 62
2
  6
CONTINUOUS
  7
STANDARD
 71
2
 72
1
 10
248.2033927307
 20
328.4554579236
 30
0.0
 11
0.0
 21
1.0
 31
0.0
  1
98,5
 40
3.0
 41
12.8571428571
  0
LINE
  5
293
100
AcDbEntity
  8
0
100
AcDbLine
 62
2
  6
CONTINUOUS
 10
223.4065083648
 20
377.7054579236
 11
252.7033927307
 21
377.7054579236
  0
LINE
  5
294
100
AcDbEntity
  8
0
100
AcDbLine
 62
2
  6
CONTINUOUS
 10
224.0202856419
 20
279.2054579236
 11
252.7033927307
 21
279.2054579236
  0
LINE
  5
295
100
AcDbEntity
  8
0
100
AcDbLine
 62
2
  6
CONTINUOUS
 10
251.9533927307
 20
377.7054579236
 11
251.9533927307
 21
328.4554579236
  0
LINE
  5
296
100
AcDbEntity
  8
0
100
AcDbLine
 62
2
  6
CONTINUOUS
 10
251.9533927307
 20
279.2054579236
 11
251.9533927307
 21
328.4554579236
  0
INSERT
  5
297
100
AcDbEntity
  8
0
100
AcDbBlockReference
 62
2
  6
CONTINUOUS
  2
_CLOSED
 10
251.9533927307
 20
377.7054579236
 41
2.5
 42
2.5
 43
2.5
 50
90.0
  0
INSERT
  5
298
100
AcDbEntity
  8
0
100
AcDbBlockReference
 62
2
  6
CONTINUOUS
  2
_CLOSED
 10
251.9533927307
 20
279.2054579236
 41
2.5
 42
2.5
 43
2.5
 50
270.0
  0
ENDBLK
  5
299
100
AcDbEntity
  8
0
  6
BYBLOCK
 62
0
100
AcDbBlockEnd
  0
BLOCK
  5
29A
100
AcDbEntity
  8
0
100
AcDbBlockBegin
 62
2
  6
CONTINUOUS
  2
*D4
 70
65
 10
0.0
 20
0.0
  3
*D4
  1

  0
MTEXT
  5
29B
100
AcDbEntity
  8
0
100
AcDbMText
 62
2
  6
CONTINUOUS
  7
STANDARD
 71
2
 72
1
 10
260.1598922251
 20
313.9804579236
 30
0.0
 11
0.0
 21
1.0
 31
0.0
  1
127,45
 40
3.0
 41
18.9642857143
  0
LINE
  5
29C
100
AcDbEntity
  8
0
100
AcDbLine
 62
2
  6
CONTINUOUS
 10
223.5513631564
 20
377.7054579236
 11
264.6598922251
 21
377.7054579236
  0
LINE
  5
29D
100
AcDbEntity
  8
0
100
AcDbLine
 62
2
  6
CONTINUOUS
 10
223.7196858624
 20
250.2554579236
 11
264.6598922251
 21
250.2554579236
  0
LINE
  5
29E
100
AcDbEntity
  8
0
100
AcDbLine
 62
2
  6
CONTINUOUS
 10
263.9098922251
 20
377.7054579236
 11
263.9098922251
 21
313.9804579236
  0
LINE
  5
29F
100
AcDbEntity
  8
0
100
AcDbLine
 62
2
  6
CONTINUOUS
 10
263.9098922251
 20
250.2554579236
 11
263.9098922251
 21
313.9804579236
  0
INSERT
  5
2A0
100
AcDbEntity
  8
0
100
AcDbBlockReference
 62
2
  6
CONTINUOUS
  2
_CLOSED
 10
263.9098922251
 20
377.7054579236
 41
2.5
 42
2.5
 43
2.5
 50
90.0
  0
INSERT
  5
2A1
100
AcDbEntity
  8
0
100
AcDbBlockReference
 62
2
  6
CONTINUOUS
  2
_CLOSED
 10
263.9098922251
 20
250.2554579236
 41
2.5
 42
2.5
 43
2.5
 50
270.0
  0
ENDBLK
  5
2A2
100
AcDbEntity
  8
0
  6
BYBLOCK
 62
0
100
AcDbBlockEnd
  0
ENDSEC
  0
SECTION
  2
ENTITIES
  0
DIMENSION
  5
2A3
100
AcDbEntity
  8
0
100
AcDbDimension
 62
2
  6
CONTINUOUS
  2
*D0
 10
204.8181057508
 20
91.0698609646
 11
216.7074410237
 21
90.1982136523
 70
163
  1
%%c<>
  3
DIMSTYLE_1
100
AcDbDiametricDimension
 15
59.9782891272
 25
130.0753416109
  0
DIMENSION
  5
2A4
100
AcDbEntity
  8
0
100
AcDbDimension
 62
2
  6
CONTINUOUS
  2
*D1
 10
231.7229325601
 20
374.7054579236
 11
231.7229325601
 21
368.0933583514
 70
160
  3
DIMSTYLE_2
100
AcDbAlignedDimension
 13
222.6565083648
 23
377.7054579236
 14
222.4528053508
 24
374.7054579236
 50
270.0
100
AcDbRotatedDimension
  0
DIMENSION
  5
2A5
100
AcDbEntity
  8
0
100
AcDbDimension
 62
2
  6
CONTINUOUS
  2
*D2
 10
241.8071013518
 20
352.7054582593
 11
241.8071013518
 21
364.7768864028
 70
160
  3
DIMSTYLE_3
100
AcDbAlignedDimension
 13
222.6565083648
 23
377.7054579236
 14
223.2140039934
 24
352.7054582593
 50
270.0
100
AcDbRotatedDimension
  0
DIMENSION
  5
2A6
100
AcDbEntity
  8
0
100
AcDbDimension
 62
2
  6
CONTINUOUS
  2
*D3
 10
251.9533927307
 20
279.2054579236
 11
251.9533927307
 21
328.0268837442
 70
160
  3
DIMSTYLE_4
100
AcDbAlignedDimension
 13
222.6565083648
 23
377.7054579236
 14
223.2702856419
 24
279.2054579236
 50
270.0
100
AcDbRotatedDimension
  0
DIMENSION
  5
2A7
100
AcDbEntity
  8
0
100
AcDbDimension
 62
2
  6
CONTINUOUS
  2
*D4
 10
263.9098922251
 20
250.2554579236
 11
263.9098922251
 21
313.5518885003
 70
160
  3
DIMSTYLE_5
100
AcDbAlignedDimension
 13
222.8013631564
 23
377.7054579236
 14
222.9696858624
 24
250.2554579236
 50
270.0
100
AcDbRotatedDimension
  0
LINE
  5
2A8
100
AcDbEntity
  8
0
100
AcDbLine
 62
2
  6
CONTINUOUS
 10
494.0968879518
 20
50.3800379518
 11
584.0968879518
 21
50.3800379518
  0
LINE
  5
2A9
100
AcDbEntity
  8
0
100
AcDbLine
 62
2
  6
CONTINUOUS
 10
494.0968879518
 20
50.3800379518
 11
494.0968879518
 21
10.3800379518
  0
LINE
  5
2AA
100
AcDbEntity
  8
0
100
AcDbLine
 62
2
  6
CONTINUOUS
 10
524.0968879518
 20
44.3800379518
 11
584.0968879518
 21
44.3800379518
  0
LINE
  5
2AB
100
AcDbEntity
  8
0
100
AcDbLine
 62
2
  6
CONTINUOUS
 10
524.0968879518
 20
38.3800379518
 11
584.0968879518
 21
38.3800379518
  0
LINE
  5
2AC
100
AcDbEntity
  8
0
100
AcDbLine
 62
2
  6
CONTINUOUS
 10
524.0968879518
 20
28.3800379518
 11
584.0968879518
 21
28.3800379518
  0
LINE
  5
2AD
100
AcDbEntity
  8
0
100
AcDbLine
 62
2
  6
CONTINUOUS
 10
494.0968879518
 20
23.3800379518
 11
584.0968879518
 21
23.3800379518
  0
LINE
  5
2AE
100
AcDbEntity
  8
0
100
AcDbLine
 62
2
  6
CONTINUOUS
 10
494.0968879518
 20
10.3800379518
 11
584.0968879518
 21
10.3800379518
  0
LINE
  5
2AF
100
AcDbEntity
  8
0
100
AcDbLine
 62
2
  6
CONTINUOUS
 10
524.0968879518
 20
50.3800379518
 11
524.0968879518
 21
23.3800379518
  0
LINE
  5
2B0
100
AcDbEntity
  8
0
100
AcDbLine
 62
2
  6
CONTINUOUS
 10
564.0968879518
 20
50.3800379518
 11
564.0968879518
 21
38.3800379518
  0
LINE
  5
2B1
100
AcDbEntity
  8
0
100
AcDbLine
 62
2
  6
CONTINUOUS
 10
584.0968879518
 20
50.3800379518
 11
584.0968879518
 21
10.3800379518
  0
INSERT
  5
2B2
100
AcDbEntity
  8
0
100
AcDbBlockReference
 62
2
  6
CONTINUOUS
  2
LOGO2_BL0
 10
507.9229349966
 20
36.8800379518
  0
MTEXT
  5
2B3
100
AcDbEntity
  8
9_SOLID
100
AcDbMText
 62
2
  6
CONTINUOUS
  7
STANDARD
 71
1
 72
1
 10
525.5843879518
 20
48.8800379518
 30
0.0
 11
1.0
 21
0.0
 31
0.0
  1
YR9_C_002
 40
3.0
 41
33.2142857143
  0
MTEXT
  5
2B4
100
AcDbEntity
  8
0
100
AcDbMText
 62
2
  6
CONTINUOUS
  7
STANDARD
 71
1
 72
1
 10
565.5843879518
 20
48.6300379518
 30
0.0
 11
1.0
 21
0.0
 31
0.0
  1
Rev:01
 40
3.5
 41
21.625
  0
MTEXT
  5
2B5
100
AcDbEntity
  8
9_SOLID
100
AcDbMText
 62
2
  6
CONTINUOUS
  7
STANDARD
 71
1
 72
1
 10
525.5843879518
 20
42.6300379518
 30
0.0
 11
1.0
 21
0.0
 31
0.0
  1
Scale:1:1
 40
3.5
 41
28.375
  0
MTEXT
  5
2B6
100
AcDbEntity
  8
9_SOLID
100
AcDbMText
 62
2
  6
CONTINUOUS
  7
STANDARD
 71
1
 72
1
 10
565.5843879518
 20
43.1300379518
 30
0.0
 11
1.0
 21
0.0
 31
0.0
  1
A2
 40
3.5
 41
9.625
  0
MTEXT
  5
2B7
100
AcDbEntity
  8
0
100
AcDbMText
 62
2
  6
CONTINUOUS
  7
STANDARD
 71
1
 72
1
 10
525.5843879518
 20
35.1300379518
 30
0.0
 11
1.0
 21
0.0
 31
0.0
  1
Bright_6.8
 40
3.5
 41
37.125
  0
MTEXT
  5
2B8
100
AcDbEntity
  8
0
100
AcDbMText
 62
2
  6
CONTINUOUS
  7
STANDARD
 71
1
 72
1
 10
525.5843879518
 20
27.1300379518
 30
0.0
 11
1.0
 21
0.0
 31
0.0
  1
DATE:22/03/2018
 40
2.5
 41
42.7678571429
  0
MTEXT
  5
2B9
100
AcDbEntity
  8
9_SOLID
100
AcDbMText
 62
2
  6
CONTINUOUS
  7
STANDARD
 71
1
 72
1
 10
495.5843879518
 20
23.0675379518
 30
0.0
 11
1.0
 21
0.0
 31
0.0
  1
Any integral or partial reproductions are prohibited \Pwithout prior authorisation of L {\Ftxt.shx;\W0.190476;\H2.250000; }& L Luce & Light s.r.l., \Pin accordance with the law in force. \PAll rights reserved.
 40
2.25
 41
134.5982142857
  0
LINE
  5
2BA
100
AcDbEntity
  8
0
100
AcDbLine
 62
7
  6
CONTINUOUS
 10
0.0
 20
0.0
 11
0.0
 21
420.0
  0
LINE
  5
2BB
100
AcDbEntity
  8
0
100
AcDbLine
 62
7
  6
CONTINUOUS
 10
0.0
 20
0.0
 11
594.0
 21
0.0
  0
LINE
  5
2BC
100
AcDbEntity
  8
0
100
AcDbLine
 62
7
  6
CONTINUOUS
 10
0.0
 20
420.0
 11
594.0
 21
420.0
  0
LINE
  5
2BD
100
AcDbEntity
  8
0
100
AcDbLine
 62
7
  6
CONTINUOUS
 10
594.0
 20
0.0
 11
594.0
 21
420.0
  0
LINE
  5
2BE
100
AcDbEntity
  8
7_ALL_FEATURES
100
AcDbLine
 62
9
  6
CONTINUOUS
 10
348.1653978833
 20
265.8157705063
 11
351.8757048615
 21
268.7130053587
  0
LINE
  5
2BF
100
AcDbEntity
  8
3_ALL_AXES
100
AcDbLine
 62
7
  6
CONTINUOUS
 10
351.8757076007
 20
268.7130072955
 11
353.3652129755
 21
269.7662466467
  0
LINE
  5
2C0
100
AcDbEntity
  8
3_ALL_AXES
100
AcDbLine
 62
7
  6
CONTINUOUS
 10
338.0412072767
 20
246.4054238247
 11
338.0412072767
 21
246.904025767
  0
LINE
  5
2C1
100
AcDbEntity
  8
7_ALL_FEATURES
100
AcDbLine
 62
7
  6
CONTINUOUS
 10
423.0412072767
 20
127.8609798033
 11
413.5412072767
 21
130.603393582
  0
LINE
  5
2C2
100
AcDbEntity
  8
7_ALL_FEATURES
100
AcDbLine
 62
7
  6
CONTINUOUS
 10
383.175181873
 20
274.6084291246
 11
382.3091564692
 21
273.8584291246
  0
LINE
  5
2C3
100
AcDbEntity
  8
7_ALL_FEATURES
100
AcDbLine
 62
7
  6
CONTINUOUS
 10
384.9072326805
 20
273.1084291246
 11
385.7732580843
 21
273.8584291246
  0
LINE
  5
2C4
100
AcDbEntity
  8
3_ALL_AXES
100
AcDbLine
 62
7
  6
CONTINUOUS
 10
387.4258968269
 20
271.6618314177
 11
388.1236901814
 21
272.1552458305
  0
LINE
  5
2C5
100
AcDbEntity
  8
7_ALL_FEATURES
100
AcDbLine
 62
7
  6
CONTINUOUS
 10
369.7399370875
 20
151.8062155459
 11
372.2163782304
 21
149.8724588162
  0
LINE
  5
2C6
100
AcDbEntity
  8
7_ALL_FEATURES
100
AcDbLine
 62
7
  6
CONTINUOUS
 10
423.0412072767
 20
137.3872592449
 11
417.1852050811
 21
139.077741467
  0
LINE
  5
2C7
100
AcDbEntity
  8
3_ALL_AXES
100
AcDbLine
 62
7
  6
CONTINUOUS
 10
363.0412072767
 20
164.3062155459
 11
363.0412072767
 21
167.7703171611
  0
LINE
  5
2C8
100
AcDbEntity
  8
3_ALL_AXES
100
AcDbLine
 62
7
  6
CONTINUOUS
 10
363.0412072767
 20
170.8014060743
 11
363.0412072767
 21
173.3994822857
  0
LINE
  5
2C9
100
AcDbEntity
  8
3_ALL_AXES
100
AcDbLine
 62
7
  6
CONTINUOUS
 10
363.0412072767
 20
176.4305711989
 11
363.0412072767
 21
179.0286474102
  0
LINE
  5
2CA
100
AcDbEntity
  8
3_ALL_AXES
100
AcDbLine
 62
7
  6
CONTINUOUS
 10
363.0412072767
 20
182.0597363235
 11
363.0412072767
 21
184.6578125348
  0
LINE
  5
2CB
100
AcDbEntity
  8
3_ALL_AXES
100
AcDbLine
 62
7
  6
CONTINUOUS
 10
363.0412072767
 20
187.6889014481
 11
363.0412072767
 21
190.2869776594
  0
LINE
  5
2CC
100
AcDbEntity
  8
3_ALL_AXES
100
AcDbLine
 62
7
  6
CONTINUOUS
 10
363.0412072767
 20
193.3180665727
 11
363.0412072767
 21
209.0250566729
  0
LINE
  5
2CD
100
AcDbEntity
  8
3_ALL_AXES
100
AcDbLine
 62
7
  6
CONTINUOUS
 10
365.7912072767
 20
245.4960971507
 11
365.7912072767
 21
246.7277906587
  0
LINE
  5
2CE
100
AcDbEntity
  8
7_ALL_FEATURES
100
AcDbLine
 62
7
  6
CONTINUOUS
 10
436.1159016008
 20
273.9806818615
 11
435.6809250696
 21
273.6039811354
  0
LINE
  5
2CF
100
AcDbEntity
  8
7_ALL_FEATURES
100
AcDbLine
 62
7
  6
CONTINUOUS
 10
441.6743797727
 20
278.794403866
 11
436.4244104234
 21
274.2477970404
  0
LINE
  5
2D0
100
AcDbEntity
  8
7_ALL_FEATURES
100
AcDbLine
 62
7
  6
CONTINUOUS
 10
435.8245399618
 20
273.619856343
 11
436.2098644369
 21
273.9535571271
  0
LINE
  5
2D1
100
AcDbEntity
  8
7_ALL_FEATURES
100
AcDbLine
 62
7
  6
CONTINUOUS
 10
436.6308415222
 20
274.2754086897
 11
441.7297092439
 21
278.6911576672
  0
LINE
  5
2D2
100
AcDbEntity
  8
7_ALL_FEATURES
100
AcDbLine
 62
7
  6
CONTINUOUS
 10
436.0037431523
 20
273.510791582
 11
436.0533952084
 21
273.5537915239
  0
LINE
  5
2D3
100
AcDbEntity
  8
7_ALL_FEATURES
100
AcDbLine
 62
7
  6
CONTINUOUS
 10
440.0164773565
 20
276.5877854099
 11
437.5666694268
 21
274.4661895084
  0
LINE
  5
2D4
100
AcDbEntity
  8
7_ALL_FEATURES
100
AcDbLine
 62
7
  6
CONTINUOUS
 10
436.8409839361
 20
273.580824022
 11
436.6858978843
 21
273.4465155613
  0
LINE
  5
2D5
100
AcDbEntity
  8
7_ALL_FEATURES
100
AcDbLine
 62
7
  6
CONTINUOUS
 10
436.7817639324
 20
273.4256364695
 11
436.9309652962
 21
273.5548486408
  0
LINE
  5
2D6
100
AcDbEntity
  8
3_ALL_AXES
100
AcDbLine
 62
7
  6
CONTINUOUS
 10
379.0412072767
 20
223.6289557051
 11
379.0412072767
 21
223.369148084
  0
LINE
  5
2D7
100
AcDbEntity
  8
3_ALL_AXES
100
AcDbLine
 62
7
  6
CONTINUOUS
 10
379.0412072767
 20
273.5986215035
 11
379.0412072767
 21
273.8584291246
  0
LINE
  5
2D8
100
AcDbEntity
  8
7_ALL_FEATURES
100
AcDbLine
 62
7
  6
CONTINUOUS
 10
381.5412072767
 20
200.6285342369
 11
381.5412072767
 21
198.0812062935
  0
LINE
  5
2D9
100
AcDbEntity
  8
3_ALL_AXES
100
AcDbLine
 62
7
  6
CONTINUOUS
 10
381.5412072767
 20
198.0812062935
 11
381.5412072767
 21
200.6285342369
  0
LINE
  5
2DA
100
AcDbEntity
  8
7_ALL_FEATURES
100
AcDbLine
 62
7
  6
CONTINUOUS
 10
383.175181873
 20
274.6084291246
 11
383.175181873
 21
273.1084291246
  0
LINE
  5
2DB
100
AcDbEntity
  8
7_ALL_FEATURES
100
AcDbLine
 62
7
  6
CONTINUOUS
 10
383.175181873
 20
224.3789557051
 11
383.175181873
 21
222.8789557051
  0
LINE
  5
2DC
100
AcDbEntity
  8
7_ALL_FEATURES
100
AcDbLine
 62
7
  6
CONTINUOUS
 10
437.1467082148
 20
273.4925690247
 11
436.9975068511
 21
273.3633568534
  0
LINE
  5
2DD
100
AcDbEntity
  8
7_ALL_FEATURES
100
AcDbLine
 62
7
  6
CONTINUOUS
 10
438.3752342332
 20
274.5554003869
 11
440.5456420743
 21
276.4350287138
  0
LINE
  5
2DE
100
AcDbEntity
  8
7_ALL_FEATURES
100
AcDbLine
 62
7
  6
CONTINUOUS
 10
437.0817096957
 20
273.3322545334
 11
437.2367957475
 21
273.4665629941
  0
LINE
  5
2DF
100
AcDbEntity
  8
7_ALL_FEATURES
100
AcDbLine
 62
7
  6
CONTINUOUS
 10
438.1432251981
 20
273.1164221036
 11
438.2101635256
 21
273.1743923957
  0
LINE
  5
2E0
100
AcDbEntity
  8
7_ALL_FEATURES
100
AcDbLine
 62
7
  6
CONTINUOUS
 10
437.9585931079
 20
272.9565260232
 11
438.0247958494
 21
273.0138592791
  0
LINE
  5
2E1
100
AcDbEntity
  8
7_ALL_FEATURES
100
AcDbLine
 62
7
  6
CONTINUOUS
 10
439.3846114172
 20
273.9413948596
 11
439.6640115059
 21
274.1833624342
  0
LINE
  5
2E2
100
AcDbEntity
  8
7_ALL_FEATURES
100
AcDbLine
 62
7
  6
CONTINUOUS
 10
383.175181873
 20
224.3789557051
 11
382.3091564692
 21
223.6289557051
  0
LINE
  5
2E3
100
AcDbEntity
  8
7_ALL_FEATURES
100
AcDbLine
 62
7
  6
CONTINUOUS
 10
439.1034546198
 20
272.7619340232
 11
439.1114234683
 21
272.7688352485
  0
LINE
  5
2E4
100
AcDbEntity
  8
7_ALL_FEATURES
100
AcDbLine
 62
7
  6
CONTINUOUS
 10
441.2293909944
 20
272.5045446225
 11
440.7944144632
 21
272.1278438965
  0
LINE
  5
2E5
100
AcDbEntity
  8
7_ALL_FEATURES
100
AcDbLine
 62
7
  6
CONTINUOUS
 10
440.9379231828
 20
272.1437497535
 11
441.3232476578
 21
272.4774505376
  0
LINE
  5
2E6
100
AcDbEntity
  8
7_ALL_FEATURES
100
AcDbLine
 62
7
  6
CONTINUOUS
 10
441.1170732869
 20
272.0347003171
 11
441.1667253431
 21
272.0777002591
  0
LINE
  5
2E7
100
AcDbEntity
  8
7_ALL_FEATURES
100
AcDbLine
 62
7
  6
CONTINUOUS
 10
384.9072326805
 20
222.8789557051
 11
385.7732580843
 21
223.6289557051
  0
LINE
  5
2E8
100
AcDbEntity
  8
7_ALL_FEATURES
100
AcDbLine
 62
7
  6
CONTINUOUS
 10
441.9785214455
 20
272.09774469
 11
441.708683975
 21
271.8640585857
  0
LINE
  5
2E9
100
AcDbEntity
  8
7_ALL_FEATURES
100
AcDbLine
 62
7
  6
CONTINUOUS
 10
441.7983999033
 20
271.838159828
 11
442.0682373738
 21
272.0718459323
  0
LINE
  5
2EA
100
AcDbEntity
  8
7_ALL_FEATURES
100
AcDbLine
 62
7
  6
CONTINUOUS
 10
446.0762839913
 20
274.838469914
 11
443.6264760615
 21
272.7168740125
  0
LINE
  5
2EB
100
AcDbEntity
  8
7_ALL_FEATURES
100
AcDbLine
 62
7
  6
CONTINUOUS
 10
443.0796549026
 20
271.7800164047
 11
443.0334355812
 21
271.7399892982
  0
LINE
  5
2EC
100
AcDbEntity
  8
7_ALL_FEATURES
100
AcDbLine
 62
7
  6
CONTINUOUS
 10
442.8517458351
 20
271.5826413625
 11
442.8003774116
 21
271.5381550027
  0
LINE
  5
2ED
100
AcDbEntity
  8
7_ALL_FEATURES
100
AcDbLine
 62
7
  6
CONTINUOUS
 10
442.9047722103
 20
271.5247233244
 11
443.1695831763
 21
271.7540563482
  0
LINE
  5
2EE
100
AcDbEntity
  8
7_ALL_FEATURES
100
AcDbLine
 62
7
  6
CONTINUOUS
 10
444.4348285226
 20
272.8061461898
 11
446.6052363636
 21
274.6857745167
  0
LINE
  5
2EF
100
AcDbEntity
  8
7_ALL_FEATURES
100
AcDbLine
 62
7
  6
CONTINUOUS
 10
444.0368173038
 20
271.7701301053
 11
443.5360058241
 21
271.3364146414
  0
LINE
  5
2F0
100
AcDbEntity
  8
7_ALL_FEATURES
100
AcDbLine
 62
7
  6
CONTINUOUS
 10
443.6258279251
 20
271.3104852343
 11
443.7498967666
 21
271.4179320028
  0
LINE
  5
2F1
100
AcDbEntity
  8
7_ALL_FEATURES
100
AcDbLine
 62
7
  6
CONTINUOUS
 10
443.8596216807
 20
271.5129565659
 11
444.1266394048
 21
271.7442006982
  0
LINE
  5
2F2
100
AcDbEntity
  8
7_ALL_FEATURES
100
AcDbLine
 62
7
  6
CONTINUOUS
 10
443.9993845357
 20
271.3814435498
 11
443.8445436792
 21
271.2473474345
  0
LINE
  5
2F3
100
AcDbEntity
  8
7_ALL_FEATURES
100
AcDbLine
 62
7
  6
CONTINUOUS
 10
443.9345781256
 20
271.2213567286
 11
444.0955488656
 21
271.3607614787
  0
LINE
  5
2F4
100
AcDbEntity
  8
7_ALL_FEATURES
100
AcDbLine
 62
7
  6
CONTINUOUS
 10
445.4444711383
 20
272.192064039
 11
445.723871227
 21
272.4340316136
  0
LINE
  5
2F5
100
AcDbEntity
  8
7_ALL_FEATURES
100
AcDbLine
 62
7
  6
CONTINUOUS
 10
444.8120583613
 20
271.2797730395
 11
444.7636322819
 21
271.2378348245
  0
LINE
  5
2F6
100
AcDbEntity
  8
7_ALL_FEATURES
100
AcDbLine
 62
7
  6
CONTINUOUS
 10
444.9642312119
 20
271.3550410682
 11
444.8610039742
 21
271.2656436581
  0
LINE
  5
2F7
100
AcDbEntity
  8
7_ALL_FEATURES
100
AcDbLine
 62
7
  6
CONTINUOUS
 10
444.8125778948
 20
271.2237054431
 11
444.5910439061
 21
271.0318513811
  0
LINE
  5
2F8
100
AcDbEntity
  8
7_ALL_FEATURES
100
AcDbLine
 62
7
  6
CONTINUOUS
 10
450.5609948535
 20
276.1417851052
 11
445.4621271318
 21
271.7260361276
  0
LINE
  5
2F9
100
AcDbEntity
  8
7_ALL_FEATURES
100
AcDbLine
 62
7
  6
CONTINUOUS
 10
444.6809721798
 20
271.0058913245
 11
444.9025061685
 21
271.1977453866
  0
LINE
  5
2FA
100
AcDbEntity
  8
7_ALL_FEATURES
100
AcDbLine
 62
7
  6
CONTINUOUS
 10
444.9509322479
 20
271.2396836015
 11
445.0541594856
 21
271.3290810117
  0
LINE
  5
2FB
100
AcDbEntity
  8
7_ALL_FEATURES
100
AcDbLine
 62
7
  6
CONTINUOUS
 10
444.9903109882
 20
271.1723983184
 11
445.0387370676
 21
271.2143365334
  0
LINE
  5
2FC
100
AcDbEntity
  8
7_ALL_FEATURES
100
AcDbLine
 62
7
  6
CONTINUOUS
 10
445.5176240745
 20
271.6228123658
 11
450.7675934238
 21
276.1694191913
  0
LINE
  5
2FD
100
AcDbEntity
  8
7_ALL_FEATURES
100
AcDbLine
 62
7
  6
CONTINUOUS
 10
362.4113599684
 20
209.4600522374
 11
359.3476322421
 21
211.8528649414
  0
LINE
  5
2FE
100
AcDbEntity
  8
7_ALL_FEATURES
100
AcDbLine
 62
7
  6
CONTINUOUS
 10
384.9072326805
 20
274.6084291246
 11
384.9072326805
 21
273.1084291246
  0
LINE
  5
2FF
100
AcDbEntity
  8
7_ALL_FEATURES
100
AcDbLine
 62
7
  6
CONTINUOUS
 10
384.9072326805
 20
224.3789557051
 11
384.9072326805
 21
222.8789557051
  0
LINE
  5
300
100
AcDbEntity
  8
7_ALL_FEATURES
100
AcDbLine
 62
7
  6
CONTINUOUS
 10
386.5412072767
 20
199.3118115296
 11
386.5412072767
 21
198.0812062935
  0
LINE
  5
301
100
AcDbEntity
  8
3_ALL_AXES
100
AcDbLine
 62
7
  6
CONTINUOUS
 10
386.5412072767
 20
198.0812062935
 11
386.5412072767
 21
199.3118115296
  0
LINE
  5
302
100
AcDbEntity
  8
3_ALL_AXES
100
AcDbLine
 62
7
  6
CONTINUOUS
 10
389.0412072767
 20
223.6289557051
 11
389.0412072767
 21
223.369148084
  0
LINE
  5
303
100
AcDbEntity
  8
3_ALL_AXES
100
AcDbLine
 62
7
  6
CONTINUOUS
 10
389.0412072767
 20
273.5986215035
 11
389.0412072767
 21
273.8584291246
  0
LINE
  5
304
100
AcDbEntity
  8
3_ALL_AXES
100
AcDbLine
 62
7
  6
CONTINUOUS
 10
387.3824490735
 20
221.4016357972
 11
388.1236901814
 21
221.925772411
  0
LINE
  5
305
100
AcDbEntity
  8
7_ALL_FEATURES
100
AcDbLine
 62
7
  6
CONTINUOUS
 10
382.4082141149
 20
197.0708433224
 11
381.9999658244
 21
197.359518457
  0
LINE
  5
306
100
AcDbEntity
  8
7_ALL_FEATURES
100
AcDbLine
 62
7
  6
CONTINUOUS
 10
385.6742004386
 20
197.0708433224
 11
386.0824487291
 21
197.359518457
  0
LINE
  5
307
100
AcDbEntity
  8
7_ALL_FEATURES
100
AcDbLine
 62
7
  6
CONTINUOUS
 10
382.3091564692
 20
223.6289557051
 11
383.175181873
 21
222.8789557051
  0
LINE
  5
308
100
AcDbEntity
  8
7_ALL_FEATURES
100
AcDbLine
 62
7
  6
CONTINUOUS
 10
413.5412072767
 20
139.0007964588
 11
413.5412072767
 21
130.603393582
  0
LINE
  5
309
100
AcDbEntity
  8
3_ALL_AXES
100
AcDbLine
 62
7
  6
CONTINUOUS
 10
380.6566420114
 20
221.4322701156
 11
379.9587243721
 21
221.925772411
  0
LINE
  5
30A
100
AcDbEntity
  8
7_ALL_FEATURES
100
AcDbLine
 62
7
  6
CONTINUOUS
 10
385.7732580843
 20
223.6289557051
 11
384.9072326805
 21
224.3789557051
  0
LINE
  5
30B
100
AcDbEntity
  8
7_ALL_FEATURES
100
AcDbLine
 62
7
  6
CONTINUOUS
 10
470.175181873
 20
249.4936924149
 11
469.3091564692
 21
248.7436924149
  0
LINE
  5
30C
100
AcDbEntity
  8
7_ALL_FEATURES
100
AcDbLine
 62
7
  6
CONTINUOUS
 10
471.9072326805
 20
247.9936924149
 11
472.7732580843
 21
248.7436924149
  0
LINE
  5
30D
100
AcDbEntity
  8
3_ALL_AXES
100
AcDbLine
 62
7
  6
CONTINUOUS
 10
474.4228253415
 20
246.5449228398
 11
475.1236901814
 21
247.0405091208
  0
LINE
  5
30E
100
AcDbEntity
  8
7_ALL_FEATURES
100
AcDbLine
 62
7
  6
CONTINUOUS
 10
423.0412072767
 20
137.3872592449
 11
423.0412072767
 21
127.8609798033
  0
LINE
  5
30F
100
AcDbEntity
  8
7_ALL_FEATURES
100
AcDbLine
 62
7
  6
CONTINUOUS
 10
432.5412072767
 20
141.0301289177
 11
432.5412072767
 21
130.603393582
  0
LINE
  5
310
100
AcDbEntity
  8
7_ALL_FEATURES
100
AcDbLine
 62
7
  6
CONTINUOUS
 10
383.175181873
 20
222.8789557051
 11
384.9072326805
 21
222.8789557051
  0
LINE
  5
311
100
AcDbEntity
  8
7_ALL_FEATURES
100
AcDbLine
 62
7
  6
CONTINUOUS
 10
384.9072326805
 20
224.3789557051
 11
383.175181873
 21
224.3789557051
  0
LINE
  5
312
100
AcDbEntity
  8
3_ALL_AXES
100
AcDbLine
 62
7
  6
CONTINUOUS
 10
380.6976715918
 20
271.6327312406
 11
379.9587243721
 21
272.1552458305
  0
LINE
  5
313
100
AcDbEntity
  8
7_ALL_FEATURES
100
AcDbLine
 62
7
  6
CONTINUOUS
 10
382.3091564692
 20
273.8584291246
 11
383.175181873
 21
273.1084291246
  0
LINE
  5
314
100
AcDbEntity
  8
7_ALL_FEATURES
100
AcDbLine
 62
7
  6
CONTINUOUS
 10
385.7732580843
 20
273.8584291246
 11
384.9072326805
 21
274.6084291246
  0
LINE
  5
315
100
AcDbEntity
  8
7_ALL_FEATURES
100
AcDbLine
 62
7
  6
CONTINUOUS
 10
470.175181873
 20
247.9936924149
 11
471.9072326805
 21
247.9936924149
  0
LINE
  5
316
100
AcDbEntity
  8
7_ALL_FEATURES
100
AcDbLine
 62
7
  6
CONTINUOUS
 10
471.9072326805
 20
249.4936924149
 11
470.175181873
 21
249.4936924149
  0
LINE
  5
317
100
AcDbEntity
  8
7_ALL_FEATURES
100
AcDbLine
 62
7
  6
CONTINUOUS
 10
440.1010424316
 20
272.6545903745
 11
440.094428412
 21
272.6777342167
  0
LINE
  5
318
100
AcDbEntity
  8
3_ALL_AXES
100
AcDbLine
 62
7
  6
CONTINUOUS
 10
460.2912072767
 20
245.4960971507
 11
460.2912072767
 21
246.4307557083
  0
LINE
  5
319
100
AcDbEntity
  8
3_ALL_AXES
100
AcDbLine
 62
7
  6
CONTINUOUS
 10
463.0412072767
 20
164.3062155459
 11
463.0412072767
 21
167.7703171611
  0
LINE
  5
31A
100
AcDbEntity
  8
3_ALL_AXES
100
AcDbLine
 62
7
  6
CONTINUOUS
 10
463.0412072767
 20
170.8014060743
 11
463.0412072767
 21
173.3994822857
  0
LINE
  5
31B
100
AcDbEntity
  8
3_ALL_AXES
100
AcDbLine
 62
7
  6
CONTINUOUS
 10
463.0412072767
 20
176.4305711989
 11
463.0412072767
 21
179.0286474102
  0
LINE
  5
31C
100
AcDbEntity
  8
3_ALL_AXES
100
AcDbLine
 62
7
  6
CONTINUOUS
 10
463.0412072767
 20
182.0597363235
 11
463.0412072767
 21
184.6578125348
  0
LINE
  5
31D
100
AcDbEntity
  8
3_ALL_AXES
100
AcDbLine
 62
7
  6
CONTINUOUS
 10
463.0412072767
 20
187.6889014481
 11
463.0412072767
 21
190.2869776594
  0
LINE
  5
31E
100
AcDbEntity
  8
3_ALL_AXES
100
AcDbLine
 62
7
  6
CONTINUOUS
 10
463.0412072767
 20
193.3180665727
 11
463.0412072767
 21
209.0388032235
  0
LINE
  5
31F
100
AcDbEntity
  8
7_ALL_FEATURES
100
AcDbLine
 62
7
  6
CONTINUOUS
 10
440.1637591373
 20
272.4664677436
 11
440.1163320361
 21
272.6067166222
  0
LINE
  5
320
100
AcDbEntity
  8
7_ALL_FEATURES
100
AcDbLine
 62
7
  6
CONTINUOUS
 10
443.0003199265
 20
273.7792877882
 11
442.7340300145
 21
274.5689317647
  0
LINE
  5
321
100
AcDbEntity
  8
7_ALL_FEATURES
100
AcDbLine
 62
7
  6
CONTINUOUS
 10
442.1510145524
 20
274.5384785445
 11
442.4279860853
 21
273.6932309558
  0
LINE
  5
322
100
AcDbEntity
  8
7_ALL_FEATURES
100
AcDbLine
 62
7
  6
CONTINUOUS
 10
440.0128645741
 20
272.6013357706
 11
440.0619681172
 21
272.4512597476
  0
LINE
  5
323
100
AcDbEntity
  8
7_ALL_FEATURES
100
AcDbLine
 62
7
  6
CONTINUOUS
 10
440.2189748749
 20
272.2941005607
 11
440.1803747212
 21
272.4163708873
  0
LINE
  5
324
100
AcDbEntity
  8
7_ALL_FEATURES
100
AcDbLine
 62
7
  6
CONTINUOUS
 10
443.3115514197
 20
272.8076433622
 11
443.0944133157
 21
273.4970277683
  0
LINE
  5
325
100
AcDbEntity
  8
7_ALL_FEATURES
100
AcDbLine
 62
7
  6
CONTINUOUS
 10
440.0799689369
 20
272.4021786441
 11
440.1031935497
 21
272.3275237503
  0
LINE
  5
326
100
AcDbEntity
  8
7_ALL_FEATURES
100
AcDbLine
 62
7
  6
CONTINUOUS
 10
442.528544301
 20
273.4163244447
 11
442.6586955108
 21
272.9961066296
  0
LINE
  5
327
100
AcDbEntity
  8
7_ALL_FEATURES
100
AcDbLine
 62
7
  6
CONTINUOUS
 10
442.647165718
 20
274.8382045284
 11
442.6104332943
 21
274.9687126307
  0
LINE
  5
328
100
AcDbEntity
  8
3_ALL_AXES
100
AcDbLine
 62
7
  6
CONTINUOUS
 10
466.0412072767
 20
248.4838847938
 11
466.0412072767
 21
248.7436924149
  0
LINE
  5
329
100
AcDbEntity
  8
7_ALL_FEATURES
100
AcDbLine
 62
7
  6
CONTINUOUS
 10
470.175181873
 20
249.4936924149
 11
470.175181873
 21
247.9936924149
  0
LINE
  5
32A
100
AcDbEntity
  8
7_ALL_FEATURES
100
AcDbLine
 62
7
  6
CONTINUOUS
 10
471.9072326805
 20
249.4936924149
 11
471.9072326805
 21
247.9936924149
  0
LINE
  5
32B
100
AcDbEntity
  8
7_ALL_FEATURES
100
AcDbLine
 62
7
  6
CONTINUOUS
 10
440.3345468059
 20
272.4437795462
 11
440.3101984929
 21
272.4921448684
  0
LINE
  5
32C
100
AcDbEntity
  8
7_ALL_FEATURES
100
AcDbLine
 62
7
  6
CONTINUOUS
 10
443.9629694873
 20
273.6513106436
 11
443.8270134797
 21
273.9234298761
  0
LINE
  5
32D
100
AcDbEntity
  8
3_ALL_AXES
100
AcDbLine
 62
7
  6
CONTINUOUS
 10
476.0412072767
 20
248.4838847938
 11
476.0412072767
 21
248.7436924149
  0
LINE
  5
32E
100
AcDbEntity
  8
7_ALL_FEATURES
100
AcDbLine
 62
7
  6
CONTINUOUS
 10
440.1803747212
 20
272.4163708873
 11
440.3345468059
 21
272.4437795462
  0
LINE
  5
32F
100
AcDbEntity
  8
7_ALL_FEATURES
100
AcDbLine
 62
7
  6
CONTINUOUS
 10
443.0944133157
 20
273.4970277683
 11
443.9629694873
 21
273.6513106436
  0
LINE
  5
330
100
AcDbEntity
  8
7_ALL_FEATURES
100
AcDbLine
 62
7
  6
CONTINUOUS
 10
440.3101984929
 20
272.4921448684
 11
440.1637591373
 21
272.4664677436
  0
LINE
  5
331
100
AcDbEntity
  8
7_ALL_FEATURES
100
AcDbLine
 62
7
  6
CONTINUOUS
 10
443.8270134797
 20
273.9234298761
 11
443.0003199265
 21
273.7792877882
  0
LINE
  5
332
100
AcDbEntity
  8
7_ALL_FEATURES
100
AcDbLine
 62
7
  6
CONTINUOUS
 10
439.9970983717
 20
272.6511874316
 11
439.9306074992
 21
272.647731518
  0
LINE
  5
333
100
AcDbEntity
  8
7_ALL_FEATURES
100
AcDbLine
 62
7
  6
CONTINUOUS
 10
440.0002845625
 20
272.6008619629
 11
440.0128645741
 21
272.6013357706
  0
LINE
  5
334
100
AcDbEntity
  8
7_ALL_FEATURES
100
AcDbLine
 62
7
  6
CONTINUOUS
 10
440.1175229737
 20
272.6550707048
 11
440.1010424316
 21
272.6545903745
  0
LINE
  5
335
100
AcDbEntity
  8
3_ALL_AXES
100
AcDbLine
 62
7
  6
CONTINUOUS
 10
467.6585232489
 20
246.5456765895
 11
466.9587243721
 21
247.0405091208
  0
LINE
  5
336
100
AcDbEntity
  8
7_ALL_FEATURES
100
AcDbLine
 62
7
  6
CONTINUOUS
 10
432.5412072767
 20
140.1296730236
 11
423.0412072767
 21
137.3872592449
  0
LINE
  5
337
100
AcDbEntity
  8
7_ALL_FEATURES
100
AcDbLine
 62
7
  6
CONTINUOUS
 10
442.062389057
 20
274.8191601193
 11
441.6874523706
 21
274.7998462187
  0
LINE
  5
338
100
AcDbEntity
  8
7_ALL_FEATURES
100
AcDbLine
 62
7
  6
CONTINUOUS
 10
442.0808771468
 20
274.5362168579
 11
442.1510145524
 21
274.5384785445
  0
LINE
  5
339
100
AcDbEntity
  8
7_ALL_FEATURES
100
AcDbLine
 62
7
  6
CONTINUOUS
 10
442.7406658337
 20
274.8410832885
 11
442.647165718
 21
274.8382045284
  0
LINE
  5
33A
100
AcDbEntity
  8
7_ALL_FEATURES
100
AcDbLine
 62
7
  6
CONTINUOUS
 10
383.175181873
 20
273.1084291246
 11
384.9072326805
 21
273.1084291246
  0
LINE
  5
33B
100
AcDbEntity
  8
7_ALL_FEATURES
100
AcDbLine
 62
7
  6
CONTINUOUS
 10
384.9072326805
 20
274.6084291246
 11
383.175181873
 21
274.6084291246
  0
LINE
  5
33C
100
AcDbEntity
  8
7_ALL_FEATURES
100
AcDbLine
 62
7
  6
CONTINUOUS
 10
442.5034932413
 20
271.5971025611
 11
442.4135649676
 21
271.6230626176
  0
LINE
  5
33D
100
AcDbEntity
  8
7_ALL_FEATURES
100
AcDbLine
 62
7
  6
CONTINUOUS
 10
435.6809250696
 20
273.6039811354
 11
436.0037431523
 21
273.510791582
  0
LINE
  5
33E
100
AcDbEntity
  8
7_ALL_FEATURES
100
AcDbLine
 62
7
  6
CONTINUOUS
 10
440.7944144632
 20
272.1278438965
 11
441.1170732869
 21
272.0347003171
  0
LINE
  5
33F
100
AcDbEntity
  8
7_ALL_FEATURES
100
AcDbLine
 62
7
  6
CONTINUOUS
 10
443.5360058241
 20
271.3364146414
 11
443.6258279251
 21
271.3104852343
  0
LINE
  5
340
100
AcDbEntity
  8
7_ALL_FEATURES
100
AcDbLine
 62
7
  6
CONTINUOUS
 10
443.8445436792
 20
271.2473474345
 11
443.9345781256
 21
271.2213567286
  0
LINE
  5
341
100
AcDbEntity
  8
7_ALL_FEATURES
100
AcDbLine
 62
7
  6
CONTINUOUS
 10
444.5910439061
 20
271.0318513811
 11
444.6809721798
 21
271.0058913245
  0
LINE
  5
342
100
AcDbEntity
  8
7_ALL_FEATURES
100
AcDbLine
 62
7
  6
CONTINUOUS
 10
440.1031935497
 20
272.3275237503
 11
440.2189748749
 21
272.2941005607
  0
LINE
  5
343
100
AcDbEntity
  8
7_ALL_FEATURES
100
AcDbLine
 62
7
  6
CONTINUOUS
 10
441.708683975
 20
271.8640585857
 11
441.7983999033
 21
271.838159828
  0
LINE
  5
344
100
AcDbEntity
  8
7_ALL_FEATURES
100
AcDbLine
 62
7
  6
CONTINUOUS
 10
441.1667253431
 20
272.0777002591
 11
440.9379231828
 21
272.1437497535
  0
LINE
  5
345
100
AcDbEntity
  8
7_ALL_FEATURES
100
AcDbLine
 62
7
  6
CONTINUOUS
 10
436.0533952084
 20
273.5537915239
 11
435.8245399618
 21
273.619856343
  0
LINE
  5
346
100
AcDbEntity
  8
7_ALL_FEATURES
100
AcDbLine
 62
7
  6
CONTINUOUS
 10
438.746767447
 20
272.8649007409
 11
439.1034546198
 21
272.7619340232
  0
LINE
  5
347
100
AcDbEntity
  8
7_ALL_FEATURES
100
AcDbLine
 62
7
  6
CONTINUOUS
 10
439.0527576004
 20
272.8218693425
 11
438.7908826452
 21
272.8974661304
  0
LINE
  5
348
100
AcDbEntity
  8
7_ALL_FEATURES
100
AcDbLine
 62
7
  6
CONTINUOUS
 10
444.7636322819
 20
271.2378348245
 11
444.8125778948
 21
271.2237054431
  0
LINE
  5
349
100
AcDbEntity
  8
7_ALL_FEATURES
100
AcDbLine
 62
7
  6
CONTINUOUS
 10
444.9025061685
 20
271.1977453866
 11
444.9903109882
 21
271.1723983184
  0
LINE
  5
34A
100
AcDbEntity
  8
7_ALL_FEATURES
100
AcDbLine
 62
7
  6
CONTINUOUS
 10
445.0387370676
 20
271.2143365334
 11
444.9509322479
 21
271.2396836015
  0
LINE
  5
34B
100
AcDbEntity
  8
7_ALL_FEATURES
100
AcDbLine
 62
7
  6
CONTINUOUS
 10
444.8610039742
 20
271.2656436581
 11
444.8120583613
 21
271.2797730395
  0
LINE
  5
34C
100
AcDbEntity
  8
7_ALL_FEATURES
100
AcDbLine
 62
7
  6
CONTINUOUS
 10
442.0682373738
 20
272.0718459323
 11
441.9785214455
 21
272.09774469
  0
LINE
  5
34D
100
AcDbEntity
  8
7_ALL_FEATURES
100
AcDbLine
 62
7
  6
CONTINUOUS
 10
437.2367957475
 20
273.4665629941
 11
437.1467082148
 21
273.4925690247
  0
LINE
  5
34E
100
AcDbEntity
  8
7_ALL_FEATURES
100
AcDbLine
 62
7
  6
CONTINUOUS
 10
436.9309652962
 20
273.5548486408
 11
436.8409839361
 21
273.580824022
  0
LINE
  5
34F
100
AcDbEntity
  8
7_ALL_FEATURES
100
AcDbLine
 62
7
  6
CONTINUOUS
 10
443.1695831763
 20
271.7540563482
 11
443.0796549026
 21
271.7800164047
  0
LINE
  5
350
100
AcDbEntity
  8
7_ALL_FEATURES
100
AcDbLine
 62
7
  6
CONTINUOUS
 10
445.0541594856
 20
271.3290810117
 11
444.9642312119
 21
271.3550410682
  0
LINE
  5
351
100
AcDbEntity
  8
7_ALL_FEATURES
100
AcDbLine
 62
7
  6
CONTINUOUS
 10
441.3232476578
 20
272.4774505376
 11
441.2293909944
 21
272.5045446225
  0
LINE
  5
352
100
AcDbEntity
  8
7_ALL_FEATURES
100
AcDbLine
 62
7
  6
CONTINUOUS
 10
436.2098644369
 20
273.9535571271
 11
436.1159016008
 21
273.9806818615
  0
LINE
  5
353
100
AcDbEntity
  8
7_ALL_FEATURES
100
AcDbLine
 62
7
  6
CONTINUOUS
 10
444.1266394048
 20
271.7442006982
 11
444.0368173038
 21
271.7701301053
  0
LINE
  5
354
100
AcDbEntity
  8
7_ALL_FEATURES
100
AcDbLine
 62
7
  6
CONTINUOUS
 10
436.4244104234
 20
274.2477970404
 11
445.5176240745
 21
271.6228123658
  0
LINE
  5
355
100
AcDbEntity
  8
7_ALL_FEATURES
100
AcDbLine
 62
7
  6
CONTINUOUS
 10
445.4621271318
 20
271.7260361276
 11
436.6308415222
 21
274.2754086897
  0
LINE
  5
356
100
AcDbEntity
  8
7_ALL_FEATURES
100
AcDbLine
 62
7
  6
CONTINUOUS
 10
442.6586955108
 20
272.9961066296
 11
443.3115514197
 21
272.8076433622
  0
LINE
  5
357
100
AcDbEntity
  8
7_ALL_FEATURES
100
AcDbLine
 62
7
  6
CONTINUOUS
 10
437.5666694268
 20
274.4661895084
 11
439.3846114172
 21
273.9413948596
  0
LINE
  5
358
100
AcDbEntity
  8
7_ALL_FEATURES
100
AcDbLine
 62
7
  6
CONTINUOUS
 10
443.6264760615
 20
272.7168740125
 11
445.4444711383
 21
272.192064039
  0
LINE
  5
359
100
AcDbEntity
  8
7_ALL_FEATURES
100
AcDbLine
 62
7
  6
CONTINUOUS
 10
445.723871227
 20
272.4340316136
 11
444.4348285226
 21
272.8061461898
  0
LINE
  5
35A
100
AcDbEntity
  8
7_ALL_FEATURES
100
AcDbLine
 62
7
  6
CONTINUOUS
 10
439.6640115059
 20
274.1833624342
 11
438.3752342332
 21
274.5554003869
  0
LINE
  5
35B
100
AcDbEntity
  8
7_ALL_FEATURES
100
AcDbLine
 62
7
  6
CONTINUOUS
 10
439.0416653944
 20
272.7084229844
 11
438.9905494958
 21
272.7520578466
  0
LINE
  5
35C
100
AcDbEntity
  8
7_ALL_FEATURES
100
AcDbLine
 62
7
  6
CONTINUOUS
 10
469.3091564692
 20
248.7436924149
 11
470.175181873
 21
247.9936924149
  0
LINE
  5
35D
100
AcDbEntity
  8
7_ALL_FEATURES
100
AcDbLine
 62
7
  6
CONTINUOUS
 10
472.7732580843
 20
248.7436924149
 11
471.9072326805
 21
249.4936924149
  0
LINE
  5
35E
100
AcDbEntity
  8
3_ALL_AXES
100
AcDbLine
 62
7
  6
CONTINUOUS
 10
488.0412072767
 20
246.4054238247
 11
488.0412072767
 21
246.9040257671
  0
LINE
  5
35F
100
AcDbEntity
  8
7_ALL_FEATURES
100
AcDbLine
 62
7
  6
CONTINUOUS
 10
432.5412072767
 20
130.603393582
 11
423.0412072767
 21
127.8609798033
  0
LINE
  5
360
100
AcDbEntity
  8
7_ALL_FEATURES
100
AcDbLine
 62
7
  6
CONTINUOUS
 10
446.6052363636
 20
274.6857745167
 11
446.0762839913
 21
274.838469914
  0
LINE
  5
361
100
AcDbEntity
  8
7_ALL_FEATURES
100
AcDbLine
 62
7
  6
CONTINUOUS
 10
440.5456420743
 20
276.4350287138
 11
440.0164773565
 21
276.5877854099
  0
LINE
  5
362
100
AcDbEntity
  8
7_ALL_FEATURES
100
AcDbLine
 62
7
  6
CONTINUOUS
 10
441.7297092439
 20
278.6911576672
 11
450.5609948535
 21
276.1417851052
  0
LINE
  5
363
100
AcDbEntity
  8
7_ALL_FEATURES
100
AcDbLine
 62
7
  6
CONTINUOUS
 10
450.7675934238
 20
276.1694191913
 11
441.6743797727
 21
278.794403866
  0
LINE
  5
364
100
AcDbEntity
  8
3_ALL_AXES
100
AcDbLine
 62
7
  6
CONTINUOUS
 10
474.2067069528
 20
268.7130072956
 11
472.717201578
 21
269.7662466467
  0
LINE
  5
365
100
AcDbEntity
  8
7_ALL_FEATURES
100
AcDbLine
 62
9
  6
CONTINUOUS
 10
474.2067067742
 20
268.7130074218
 11
474.2085235618
 21
268.7117227018
  0
LINE
  5
366
100
AcDbEntity
  8
7_ALL_FEATURES
100
AcDbLine
 62
7
  6
CONTINUOUS
 10
103.7586383013
 20
170.6703368605
 11
94.6654246502
 21
165.4203675113
  0
LINE
  5
367
100
AcDbEntity
  8
7_ALL_FEATURES
100
AcDbLine
 62
7
  6
CONTINUOUS
 10
94.8719170478
 20
165.3650380401
 11
103.7032026574
 21
170.4637831641
  0
LINE
  5
368
100
AcDbEntity
  8
7_ALL_FEATURES
100
AcDbLine
 62
7
  6
CONTINUOUS
 10
104.2472077281
 20
165.5819852322
 11
103.7182553557
 21
165.2765944376
  0
LINE
  5
369
100
AcDbEntity
  8
7_ALL_FEATURES
100
AcDbLine
 62
7
  6
CONTINUOUS
 10
98.1876134387
 20
162.083476838
 11
97.6584487209
 21
161.7779634458
  0
LINE
  5
36A
100
AcDbEntity
  8
7_ALL_FEATURES
100
AcDbLine
 62
7
  6
CONTINUOUS
 10
107.7066582735
 20
162.5669577307
 11
106.4176155691
 21
161.8227285783
  0
LINE
  5
36B
100
AcDbEntity
  8
7_ALL_FEATURES
100
AcDbLine
 62
7
  6
CONTINUOUS
 10
101.6467985524
 20
159.0682960895
 11
100.3580212797
 21
158.3242201842
  0
LINE
  5
36C
100
AcDbEntity
  8
7_ALL_FEATURES
100
AcDbLine
 62
7
  6
CONTINUOUS
 10
100.1082566506
 20
157.5347716427
 11
101.926198641
 21
158.5843609403
  0
LINE
  5
36D
100
AcDbEntity
  8
7_ALL_FEATURES
100
AcDbLine
 62
7
  6
CONTINUOUS
 10
106.1680632854
 20
161.0334026345
 11
107.9860583621
 21
162.0830225815
  0
LINE
  5
36E
100
AcDbEntity
  8
7_ALL_FEATURES
100
AcDbLine
 62
7
  6
CONTINUOUS
 10
105.20052793
 20
160.4745127095
 11
105.8533838388
 21
160.8514392442
  0
LINE
  5
36F
100
AcDbEntity
  8
7_ALL_FEATURES
100
AcDbLine
 62
7
  6
CONTINUOUS
 10
108.8020703791
 20
161.6322852091
 11
99.9707847695
 21
156.5335400851
  0
LINE
  5
370
100
AcDbEntity
  8
7_ALL_FEATURES
100
AcDbLine
 62
7
  6
CONTINUOUS
 10
99.9153939994
 20
156.3271538601
 11
109.0086076505
 21
161.5771232094
  0
LINE
  5
371
100
AcDbEntity
  8
7_ALL_FEATURES
100
AcDbLine
 62
7
  6
CONTINUOUS
 10
101.744753434
 20
161.7811496617
 11
101.5907377479
 21
161.4371310659
  0
LINE
  5
372
100
AcDbEntity
  8
7_ALL_FEATURES
100
AcDbLine
 62
7
  6
CONTINUOUS
 10
102.2440695834
 20
161.5142175557
 11
102.27522093
 21
161.5772200173
  0
LINE
  5
373
100
AcDbEntity
  8
7_ALL_FEATURES
100
AcDbLine
 62
7
  6
CONTINUOUS
 10
102.0459197795
 20
162.3904777503
 11
102.0041558803
 21
162.3066255148
  0
LINE
  5
374
100
AcDbEntity
  8
7_ALL_FEATURES
100
AcDbLine
 62
7
  6
CONTINUOUS
 10
73.5321720352
 20
112.0726012878
 11
72.6661466315
 21
110.5726012878
  0
LINE
  5
375
100
AcDbEntity
  8
7_ALL_FEATURES
100
AcDbLine
 62
7
  6
CONTINUOUS
 10
75.2642228428
 20
109.0726012878
 11
76.1302482466
 21
110.5726012878
  0
LINE
  5
376
100
AcDbEntity
  8
7_ALL_FEATURES
100
AcDbLine
 62
7
  6
CONTINUOUS
 10
108.1028645564
 20
160.4938834816
 11
108.0130424555
 21
160.4420246674
  0
LINE
  5
377
100
AcDbEntity
  8
7_ALL_FEATURES
100
AcDbLine
 62
7
  6
CONTINUOUS
 10
105.4311427065
 20
158.7993248514
 11
105.3372860431
 21
158.7451366815
  0
LINE
  5
378
100
AcDbEntity
  8
7_ALL_FEATURES
100
AcDbLine
 62
7
  6
CONTINUOUS
 10
100.3177594855
 20
155.8471116723
 11
100.2237966494
 21
155.7928622035
  0
LINE
  5
379
100
AcDbEntity
  8
7_ALL_FEATURES
100
AcDbLine
 62
7
  6
CONTINUOUS
 10
109.285632985
 20
160.8820197476
 11
109.1957047114
 21
160.8300996346
  0
LINE
  5
37A
100
AcDbEntity
  8
7_ALL_FEATURES
100
AcDbLine
 62
7
  6
CONTINUOUS
 10
107.6072659557
 20
159.6749041248
 11
107.5173376821
 21
159.6229840118
  0
LINE
  5
37B
100
AcDbEntity
  8
7_ALL_FEATURES
100
AcDbLine
 62
7
  6
CONTINUOUS
 10
109.4766650424
 20
160.7539190635
 11
109.3888602227
 21
160.7032249272
  0
LINE
  5
37C
100
AcDbEntity
  8
7_ALL_FEATURES
100
AcDbLine
 62
7
  6
CONTINUOUS
 10
109.298931949
 20
160.6513048142
 11
109.2499863361
 21
160.6230460514
  0
LINE
  5
37D
100
AcDbEntity
  8
7_ALL_FEATURES
100
AcDbLine
 62
7
  6
CONTINUOUS
 10
106.5061653486
 20
159.0389002656
 11
106.4164494203
 21
158.9871027503
  0
LINE
  5
37E
100
AcDbEntity
  8
7_ALL_FEATURES
100
AcDbLine
 62
7
  6
CONTINUOUS
 10
101.6747237223
 20
156.2494661421
 11
101.5846361896
 21
156.1974540809
  0
LINE
  5
37F
100
AcDbEntity
  8
7_ALL_FEATURES
100
AcDbLine
 62
7
  6
CONTINUOUS
 10
101.368893271
 20
156.0728948487
 11
101.278911911
 21
156.0209440863
  0
LINE
  5
380
100
AcDbEntity
  8
7_ALL_FEATURES
100
AcDbLine
 62
7
  6
CONTINUOUS
 10
109.2984124155
 20
160.5391696214
 11
109.3473580285
 21
160.5674283842
  0
LINE
  5
381
100
AcDbEntity
  8
7_ALL_FEATURES
100
AcDbLine
 62
7
  6
CONTINUOUS
 10
109.4372863021
 20
160.6193484972
 11
109.5250911219
 21
160.6700426335
  0
LINE
  5
382
100
AcDbEntity
  8
7_ALL_FEATURES
100
AcDbLine
 62
7
  6
CONTINUOUS
 10
103.6993468086
 20
157.1774415875
 11
103.4374718534
 21
157.0262480116
  0
LINE
  5
383
100
AcDbEntity
  8
7_ALL_FEATURES
100
AcDbLine
 62
7
  6
CONTINUOUS
 10
103.4718191636
 20
156.9554777397
 11
103.8285063365
 21
157.1614111749
  0
LINE
  5
384
100
AcDbEntity
  8
7_ALL_FEATURES
100
AcDbLine
 62
7
  6
CONTINUOUS
 10
106.0452693419
 20
158.264022272
 11
105.8164671816
 21
158.1319232831
  0
LINE
  5
385
100
AcDbEntity
  8
7_ALL_FEATURES
100
AcDbLine
 62
7
  6
CONTINUOUS
 10
100.9319392072
 20
155.3118397423
 11
100.7030839606
 21
155.179710104
  0
LINE
  5
386
100
AcDbEntity
  8
7_ALL_FEATURES
100
AcDbLine
 62
7
  6
CONTINUOUS
 10
105.0807964654
 20
157.5928002124
 11
105.1965777906
 21
157.6596465917
  0
LINE
  5
387
100
AcDbEntity
  8
7_ALL_FEATURES
100
AcDbLine
 62
7
  6
CONTINUOUS
 10
106.6862868908
 20
158.5197305417
 11
106.776002819
 21
158.571528057
  0
LINE
  5
388
100
AcDbEntity
  8
7_ALL_FEATURES
100
AcDbLine
 62
7
  6
CONTINUOUS
 10
100.6587731806
 20
155.0394607514
 11
100.9815912634
 21
155.2258398584
  0
LINE
  5
389
100
AcDbEntity
  8
7_ALL_FEATURES
100
AcDbLine
 62
7
  6
CONTINUOUS
 10
105.7722625743
 20
157.9917352293
 11
106.094921398
 21
158.1780223881
  0
LINE
  5
38A
100
AcDbEntity
  8
7_ALL_FEATURES
100
AcDbLine
 62
7
  6
CONTINUOUS
 10
108.5138539352
 20
159.5745937395
 11
108.6036760361
 21
159.6264525537
  0
LINE
  5
38B
100
AcDbEntity
  8
7_ALL_FEATURES
100
AcDbLine
 62
7
  6
CONTINUOUS
 10
108.8223917903
 20
159.7527281533
 11
108.9124262366
 21
159.8047095651
  0
LINE
  5
38C
100
AcDbEntity
  8
7_ALL_FEATURES
100
AcDbLine
 62
7
  6
CONTINUOUS
 10
109.5688920172
 20
160.1837202602
 11
109.6588202908
 21
160.2356403732
  0
LINE
  5
38D
100
AcDbEntity
  8
7_ALL_FEATURES
100
AcDbLine
 62
7
  6
CONTINUOUS
 10
107.5460729218
 20
158.9410995329
 11
107.4561446482
 21
158.8891794199
  0
LINE
  5
38E
100
AcDbEntity
  8
7_ALL_FEATURES
100
AcDbLine
 62
7
  6
CONTINUOUS
 10
160.5321720352
 20
58.8431278683
 11
162.2642228428
 21
58.8431278683
  0
LINE
  5
38F
100
AcDbEntity
  8
7_ALL_FEATURES
100
AcDbLine
 62
7
  6
CONTINUOUS
 10
162.2642228428
 20
61.8431278683
 11
160.5321720352
 21
61.8431278683
  0
LINE
  5
390
100
AcDbEntity
  8
7_ALL_FEATURES
100
AcDbLine
 62
7
  6
CONTINUOUS
 10
72.6661466315
 20
110.5726012878
 11
73.5321720352
 21
109.0726012878
  0
LINE
  5
391
100
AcDbEntity
  8
7_ALL_FEATURES
100
AcDbLine
 62
7
  6
CONTINUOUS
 10
76.1302482466
 20
110.5726012878
 11
75.2642228428
 21
112.0726012878
  0
LINE
  5
392
100
AcDbEntity
  8
7_ALL_FEATURES
100
AcDbLine
 62
7
  6
CONTINUOUS
 10
104.4671469359
 20
157.8245827743
 11
104.4398873177
 21
157.763544076
  0
LINE
  5
393
100
AcDbEntity
  8
7_ALL_FEATURES
100
AcDbLine
 62
7
  6
CONTINUOUS
 10
104.5559063
 20
157.7770166278
 11
104.5613756468
 21
157.7883850452
  0
LINE
  5
394
100
AcDbEntity
  8
7_ALL_FEATURES
100
AcDbLine
 62
7
  6
CONTINUOUS
 10
104.5206332103
 20
157.9327568121
 11
104.5132248958
 21
157.9180039137
  0
LINE
  5
395
100
AcDbEntity
  8
7_ALL_FEATURES
100
AcDbLine
 62
7
  6
CONTINUOUS
 10
104.9654992959
 20
157.7484882046
 11
104.9951121484
 21
157.9094138054
  0
LINE
  5
396
100
AcDbEntity
  8
7_ALL_FEATURES
100
AcDbLine
 62
7
  6
CONTINUOUS
 10
104.5507659696
 20
161.3527765361
 11
104.7178182766
 21
162.2592511206
  0
LINE
  5
397
100
AcDbEntity
  8
7_ALL_FEATURES
100
AcDbLine
 62
7
  6
CONTINUOUS
 10
104.8991667965
 20
157.9366928701
 11
104.8704212035
 21
157.7841955431
  0
LINE
  5
398
100
AcDbEntity
  8
7_ALL_FEATURES
100
AcDbLine
 62
7
  6
CONTINUOUS
 10
104.1785159365
 20
162.4136289967
 11
104.0148305797
 21
161.5535492905
  0
LINE
  5
399
100
AcDbEntity
  8
02___PRT_ALL_AXES
100
AcDbLine
 62
7
  6
CONTINUOUS
 10
112.328510169
 20
67.5330180448
 11
112.4294845718
 21
67.7495583503
  0
LINE
  5
39A
100
AcDbEntity
  8
7_ALL_FEATURES
100
AcDbLine
 62
7
  6
CONTINUOUS
 10
160.5321720352
 20
162.3020747072
 11
159.6661466315
 21
160.8020747072
  0
LINE
  5
39B
100
AcDbEntity
  8
02___PRT_ALL_AXES
100
AcDbLine
 62
7
  6
CONTINUOUS
 10
159.4996840566
 20
149.2775353804
 11
159.6367269556
 21
149.4732529234
  0
LINE
  5
39C
100
AcDbEntity
  8
02___PRT_ALL_AXES
100
AcDbLine
 62
7
  6
CONTINUOUS
 10
179.7064147327
 20
114.7115339926
 11
179.4683969239
 21
114.6907101326
  0
LINE
  5
39D
100
AcDbEntity
  8
7_ALL_FEATURES
100
AcDbLine
 62
7
  6
CONTINUOUS
 10
73.5321720352
 20
109.0726012878
 11
75.2642228428
 21
109.0726012878
  0
LINE
  5
39E
100
AcDbEntity
  8
02___PRT_ALL_AXES
100
AcDbLine
 62
7
  6
CONTINUOUS
 10
85.3279979542
 20
114.6907101326
 11
85.089981345
 21
114.7115338876
  0
LINE
  5
39F
100
AcDbEntity
  8
02___PRT_ALL_AXES
100
AcDbLine
 62
7
  6
CONTINUOUS
 10
105.1596682568
 20
149.4732524459
 11
105.2967108214
 21
149.2775353804
  0
LINE
  5
3A0
100
AcDbEntity
  8
7_ALL_FEATURES
100
AcDbLine
 62
7
  6
CONTINUOUS
 10
100.2237966494
 20
155.7928622035
 11
100.6587731806
 21
155.0394607514
  0
LINE
  5
3A1
100
AcDbEntity
  8
7_ALL_FEATURES
100
AcDbLine
 62
7
  6
CONTINUOUS
 10
94.6654246502
 20
165.4203675113
 11
99.9153939994
 21
156.3271538601
  0
LINE
  5
3A2
100
AcDbEntity
  8
7_ALL_FEATURES
100
AcDbLine
 62
7
  6
CONTINUOUS
 10
100.7030839606
 20
155.179710104
 11
100.3177594855
 21
155.8471116723
  0
LINE
  5
3A3
100
AcDbEntity
  8
7_ALL_FEATURES
100
AcDbLine
 62
7
  6
CONTINUOUS
 10
99.9707847695
 20
156.5335400851
 11
94.8719170478
 21
165.3650380401
  0
LINE
  5
3A4
100
AcDbEntity
  8
7_ALL_FEATURES
100
AcDbLine
 62
7
  6
CONTINUOUS
 10
100.9815912634
 20
155.2258398584
 11
100.9319392072
 21
155.3118397423
  0
LINE
  5
3A5
100
AcDbEntity
  8
7_ALL_FEATURES
100
AcDbLine
 62
7
  6
CONTINUOUS
 10
97.6584487209
 20
161.7779634458
 11
100.1082566506
 21
157.5347716427
  0
LINE
  5
3A6
100
AcDbEntity
  8
7_ALL_FEATURES
100
AcDbLine
 62
7
  6
CONTINUOUS
 10
101.278911911
 20
156.0209440863
 11
101.4339979628
 21
155.752327165
  0
LINE
  5
3A7
100
AcDbEntity
  8
7_ALL_FEATURES
100
AcDbLine
 62
7
  6
CONTINUOUS
 10
101.5180946347
 20
155.8144705062
 11
101.368893271
 21
156.0728948487
  0
LINE
  5
3A8
100
AcDbEntity
  8
7_ALL_FEATURES
100
AcDbLine
 62
7
  6
CONTINUOUS
 10
101.5846361896
 20
156.1974540809
 11
101.7338375533
 21
155.9390297384
  0
LINE
  5
3A9
100
AcDbEntity
  8
7_ALL_FEATURES
100
AcDbLine
 62
7
  6
CONTINUOUS
 10
100.3580212797
 20
158.3242201842
 11
98.1876134387
 21
162.083476838
  0
LINE
  5
3AA
100
AcDbEntity
  8
7_ALL_FEATURES
100
AcDbLine
 62
7
  6
CONTINUOUS
 10
101.8298097742
 20
155.9808492208
 11
101.6747237223
 21
156.2494661421
  0
LINE
  5
3AB
100
AcDbEntity
  8
7_ALL_FEATURES
100
AcDbLine
 62
7
  6
CONTINUOUS
 10
102.9190323499
 20
156.3645240217
 11
102.8528296084
 21
156.4791905336
  0
LINE
  5
3AC
100
AcDbEntity
  8
7_ALL_FEATURES
100
AcDbLine
 62
7
  6
CONTINUOUS
 10
102.7344002597
 20
156.6843161826
 11
102.6674619322
 21
156.8002567668
  0
LINE
  5
3AD
100
AcDbEntity
  8
7_ALL_FEATURES
100
AcDbLine
 62
7
  6
CONTINUOUS
 10
101.926198641
 20
158.5843609403
 11
101.6467985524
 21
159.0682960895
  0
LINE
  5
3AE
100
AcDbEntity
  8
7_ALL_FEATURES
100
AcDbLine
 62
7
  6
CONTINUOUS
 10
159.6661466315
 20
60.3431278683
 11
160.5321720352
 21
58.8431278683
  0
LINE
  5
3AF
100
AcDbEntity
  8
7_ALL_FEATURES
100
AcDbLine
 62
7
  6
CONTINUOUS
 10
103.8285063365
 20
157.1614111749
 11
103.820537488
 21
157.1752136254
  0
LINE
  5
3B0
100
AcDbEntity
  8
7_ALL_FEATURES
100
AcDbLine
 62
7
  6
CONTINUOUS
 10
105.3372860431
 20
158.7451366815
 11
105.7722625743
 21
157.9917352293
  0
LINE
  5
3B1
100
AcDbEntity
  8
7_ALL_FEATURES
100
AcDbLine
 62
7
  6
CONTINUOUS
 10
105.8164671816
 20
158.1319232831
 11
105.4311427065
 21
158.7993248514
  0
LINE
  5
3B2
100
AcDbEntity
  8
02___PRT_ALL_AXES
100
AcDbLine
 62
7
  6
CONTINUOUS
 10
152.3669103063
 20
67.7495583503
 11
152.4678849757
 21
67.5330174729
  0
LINE
  5
3B3
100
AcDbEntity
  8
7_ALL_FEATURES
100
AcDbLine
 62
7
  6
CONTINUOUS
 10
162.2642228428
 20
159.3020747072
 11
163.1302482466
 21
160.8020747072
  0
LINE
  5
3B4
100
AcDbEntity
  8
7_ALL_FEATURES
100
AcDbLine
 62
7
  6
CONTINUOUS
 10
75.2642228428
 20
112.0726012878
 11
73.5321720352
 21
112.0726012878
  0
LINE
  5
3B5
100
AcDbEntity
  8
7_ALL_FEATURES
100
AcDbLine
 62
7
  6
CONTINUOUS
 10
106.094921398
 20
158.1780223881
 11
106.0452693419
 21
158.264022272
  0
LINE
  5
3B6
100
AcDbEntity
  8
7_ALL_FEATURES
100
AcDbLine
 62
7
  6
CONTINUOUS
 10
163.1302482466
 20
60.3431278683
 11
162.2642228428
 21
61.8431278683
  0
LINE
  5
3B7
100
AcDbEntity
  8
7_ALL_FEATURES
100
AcDbLine
 62
7
  6
CONTINUOUS
 10
106.4164494203
 20
158.9871027503
 11
106.6862868908
 21
158.5197305417
  0
LINE
  5
3B8
100
AcDbEntity
  8
7_ALL_FEATURES
100
AcDbLine
 62
7
  6
CONTINUOUS
 10
106.776002819
 20
158.571528057
 11
106.5061653486
 21
159.0389002656
  0
LINE
  5
3B9
100
AcDbEntity
  8
7_ALL_FEATURES
100
AcDbLine
 62
7
  6
CONTINUOUS
 10
103.7182553557
 20
165.2765944376
 11
106.1680632854
 21
161.0334026345
  0
LINE
  5
3BA
100
AcDbEntity
  8
7_ALL_FEATURES
100
AcDbLine
 62
7
  6
CONTINUOUS
 10
107.5173376821
 20
159.6229840118
 11
107.5635570035
 21
159.5429297988
  0
LINE
  5
3BB
100
AcDbEntity
  8
7_ALL_FEATURES
100
AcDbLine
 62
7
  6
CONTINUOUS
 10
107.7452467496
 20
159.2282339273
 11
107.7966151731
 21
159.1392612079
  0
LINE
  5
3BC
100
AcDbEntity
  8
7_ALL_FEATURES
100
AcDbLine
 62
7
  6
CONTINUOUS
 10
107.8720769217
 20
159.2162380773
 11
107.6072659557
 21
159.6749041248
  0
LINE
  5
3BD
100
AcDbEntity
  8
7_ALL_FEATURES
100
AcDbLine
 62
7
  6
CONTINUOUS
 10
106.4176155691
 20
161.8227285783
 11
104.2472077281
 21
165.5819852322
  0
LINE
  5
3BE
100
AcDbEntity
  8
7_ALL_FEATURES
100
AcDbLine
 62
7
  6
CONTINUOUS
 10
108.0130424555
 20
160.4420246674
 11
108.5138539352
 21
159.5745937395
  0
LINE
  5
3BF
100
AcDbEntity
  8
7_ALL_FEATURES
100
AcDbLine
 62
7
  6
CONTINUOUS
 10
108.6036760361
 20
159.6264525537
 11
108.4796071947
 21
159.8413460908
  0
LINE
  5
3C0
100
AcDbEntity
  8
7_ALL_FEATURES
100
AcDbLine
 62
7
  6
CONTINUOUS
 10
108.3698822805
 20
160.031395217
 11
108.1028645564
 21
160.4938834816
  0
LINE
  5
3C1
100
AcDbEntity
  8
7_ALL_FEATURES
100
AcDbLine
 62
7
  6
CONTINUOUS
 10
108.6675509338
 20
160.0209203838
 11
108.8223917903
 21
159.7527281533
  0
LINE
  5
3C2
100
AcDbEntity
  8
7_ALL_FEATURES
100
AcDbLine
 62
7
  6
CONTINUOUS
 10
108.9124262366
 20
159.8047095651
 11
108.7514554967
 21
160.0835190653
  0
LINE
  5
3C3
100
AcDbEntity
  8
7_ALL_FEATURES
100
AcDbLine
 62
7
  6
CONTINUOUS
 10
107.9860583621
 20
162.0830225815
 11
107.7066582735
 21
162.5669577307
  0
LINE
  5
3C4
100
AcDbEntity
  8
7_ALL_FEATURES
100
AcDbLine
 62
7
  6
CONTINUOUS
 10
109.2499863361
 20
160.6230460514
 11
109.2984124155
 21
160.5391696214
  0
LINE
  5
3C5
100
AcDbEntity
  8
7_ALL_FEATURES
100
AcDbLine
 62
7
  6
CONTINUOUS
 10
109.3473580285
 20
160.5674283842
 11
109.5688920172
 21
160.1837202602
  0
LINE
  5
3C6
100
AcDbEntity
  8
7_ALL_FEATURES
100
AcDbLine
 62
7
  6
CONTINUOUS
 10
109.1957047114
 20
160.8300996346
 11
109.298931949
 21
160.6513048142
  0
LINE
  5
3C7
100
AcDbEntity
  8
7_ALL_FEATURES
100
AcDbLine
 62
7
  6
CONTINUOUS
 10
103.7032026574
 20
170.4637831641
 11
108.8020703791
 21
161.6322852091
  0
LINE
  5
3C8
100
AcDbEntity
  8
7_ALL_FEATURES
100
AcDbLine
 62
7
  6
CONTINUOUS
 10
109.6588202908
 20
160.2356403732
 11
109.4372863021
 21
160.6193484972
  0
LINE
  5
3C9
100
AcDbEntity
  8
7_ALL_FEATURES
100
AcDbLine
 62
7
  6
CONTINUOUS
 10
109.3888602227
 20
160.7032249272
 11
109.285632985
 21
160.8820197476
  0
LINE
  5
3CA
100
AcDbEntity
  8
7_ALL_FEATURES
100
AcDbLine
 62
7
  6
CONTINUOUS
 10
109.5250911219
 20
160.6700426335
 11
109.4766650424
 21
160.7539190635
  0
LINE
  5
3CB
100
AcDbEntity
  8
7_ALL_FEATURES
100
AcDbLine
 62
7
  6
CONTINUOUS
 10
109.0086076505
 20
161.5771232094
 11
103.7586383013
 21
170.6703368605
  0
LINE
  5
3CC
100
AcDbEntity
  8
7_ALL_FEATURES
100
AcDbLine
 62
7
  6
CONTINUOUS
 10
104.8704212035
 20
157.7841955431
 11
104.6037894694
 21
157.8833713473
  0
LINE
  5
3CD
100
AcDbEntity
  8
7_ALL_FEATURES
100
AcDbLine
 62
7
  6
CONTINUOUS
 10
104.5613756468
 20
157.7883850452
 11
104.8458667151
 21
157.6808339378
  0
LINE
  5
3CE
100
AcDbEntity
  8
7_ALL_FEATURES
100
AcDbLine
 62
7
  6
CONTINUOUS
 10
105.1965777906
 20
157.6596465917
 11
104.9654992959
 21
157.7484882046
  0
LINE
  5
3CF
100
AcDbEntity
  8
7_ALL_FEATURES
100
AcDbLine
 62
7
  6
CONTINUOUS
 10
104.9398780899
 20
157.6473420015
 11
105.0807964654
 21
157.5928002124
  0
LINE
  5
3D0
100
AcDbEntity
  8
7_ALL_FEATURES
100
AcDbLine
 62
7
  6
CONTINUOUS
 10
104.5132248958
 20
157.9180039137
 11
104.4698315754
 21
157.9354198469
  0
LINE
  5
3D1
100
AcDbEntity
  8
7_ALL_FEATURES
100
AcDbLine
 62
7
  6
CONTINUOUS
 10
104.9951121484
 20
157.9094138054
 11
104.8991667965
 21
157.9366928701
  0
LINE
  5
3D2
100
AcDbEntity
  8
7_ALL_FEATURES
100
AcDbLine
 62
7
  6
CONTINUOUS
 10
104.7178182766
 20
162.2592511206
 11
104.1785159365
 21
162.4136289967
  0
LINE
  5
3D3
100
AcDbEntity
  8
7_ALL_FEATURES
100
AcDbLine
 62
7
  6
CONTINUOUS
 10
104.0148305797
 20
161.5535492905
 11
102.5139821364
 21
162.1125794386
  0
LINE
  5
3D4
100
AcDbEntity
  8
7_ALL_FEATURES
100
AcDbLine
 62
7
  6
CONTINUOUS
 10
102.27522093
 20
161.5772200173
 11
103.877718465
 21
160.9718368123
  0
LINE
  5
3D5
100
AcDbEntity
  8
7_ALL_FEATURES
100
AcDbLine
 62
7
  6
CONTINUOUS
 10
105.8533838388
 20
160.8514392442
 11
104.5507659696
 21
161.3527765361
  0
LINE
  5
3D6
100
AcDbEntity
  8
7_ALL_FEATURES
100
AcDbLine
 62
7
  6
CONTINUOUS
 10
104.4076137192
 20
160.7820162705
 11
105.20052793
 21
160.4745127095
  0
LINE
  5
3D7
100
AcDbEntity
  8
7_ALL_FEATURES
100
AcDbLine
 62
7
  6
CONTINUOUS
 10
102.0041558803
 20
162.3066255148
 11
101.7597430045
 21
162.405322405
  0
LINE
  5
3D8
100
AcDbEntity
  8
7_ALL_FEATURES
100
AcDbLine
 62
7
  6
CONTINUOUS
 10
160.5321720352
 20
61.8431278683
 11
159.6661466315
 21
60.3431278683
  0
LINE
  5
3D9
100
AcDbEntity
  8
7_ALL_FEATURES
100
AcDbLine
 62
7
  6
CONTINUOUS
 10
103.8902955619
 20
157.0543890972
 11
103.7891598141
 21
157.0537562927
  0
LINE
  5
3DA
100
AcDbEntity
  8
7_ALL_FEATURES
100
AcDbLine
 62
7
  6
CONTINUOUS
 10
160.5321720352
 20
159.3020747072
 11
162.2642228428
 21
159.3020747072
  0
LINE
  5
3DB
100
AcDbEntity
  8
7_ALL_FEATURES
100
AcDbLine
 62
7
  6
CONTINUOUS
 10
159.6661466315
 20
160.8020747072
 11
160.5321720352
 21
159.3020747072
  0
LINE
  5
3DC
100
AcDbEntity
  8
7_ALL_FEATURES
100
AcDbLine
 62
7
  6
CONTINUOUS
 10
162.2642228428
 20
58.8431278683
 11
163.1302482466
 21
60.3431278683
  0
LINE
  5
3DD
100
AcDbEntity
  8
7_ALL_FEATURES
100
AcDbLine
 62
7
  6
CONTINUOUS
 10
162.2642228428
 20
162.3020747072
 11
160.5321720352
 21
162.3020747072
  0
LINE
  5
3DE
100
AcDbEntity
  8
7_ALL_FEATURES
100
AcDbLine
 62
7
  6
CONTINUOUS
 10
163.1302482466
 20
160.8020747072
 11
162.2642228428
 21
162.3020747072
  0
LINE
  5
3DF
100
AcDbEntity
  8
3_ALL_AXES
100
AcDbLine
 62
7
  6
CONTINUOUS
 10
57.4860654047
 20
375.7933258893
 11
59.3103294734
 21
377.617589958
  0
LINE
  5
3E0
100
AcDbEntity
  8
7_ALL_FEATURES
100
AcDbLine
 62
7
  6
CONTINUOUS
 10
70.6982002537
 20
367.7054551897
 11
70.3982001858
 21
367.4054550948
  0
LINE
  5
3E1
100
AcDbEntity
  8
3_ALL_AXES
100
AcDbLine
 62
7
  6
CONTINUOUS
 10
57.398197439
 20
375.0054579236
 11
57.398197439
 21
375.5811938549
  0
LINE
  5
3E2
100
AcDbEntity
  8
3_ALL_AXES
100
AcDbLine
 62
7
  6
CONTINUOUS
 10
70.398197439
 20
353.0054580781
 11
70.398197439
 21
367.4054578416
  0
LINE
  5
3E3
100
AcDbEntity
  8
3_ALL_AXES
100
AcDbLine
 62
7
  6
CONTINUOUS
 10
70.398197439
 20
368.0054579236
 11
70.398197439
 21
374.4054579236
  0
LINE
  5
3E4
100
AcDbEntity
  8
3_ALL_AXES
100
AcDbLine
 62
7
  6
CONTINUOUS
 10
71.898197439
 20
348.2054579236
 11
71.898197439
 21
352.7054579236
  0
LINE
  5
3E5
100
AcDbEntity
  8
7_ALL_FEATURES
100
AcDbLine
 62
7
  6
CONTINUOUS
 10
76.398197439
 20
347.7054579236
 11
76.898197439
 21
348.2054579236
  0
LINE
  5
3E6
100
AcDbEntity
  8
7_ALL_FEATURES
100
AcDbLine
 62
7
  6
CONTINUOUS
 10
146.898197439
 20
250.2554579236
 11
157.898197439
 21
250.2554579236
  0
LINE
  5
3E7
100
AcDbEntity
  8
7_ALL_FEATURES
100
AcDbLine
 62
9
  6
CONTINUOUS
 10
143.398197439
 20
253.7554579236
 11
161.398197439
 21
253.7554579236
  0
LINE
  5
3E8
100
AcDbEntity
  8
7_ALL_FEATURES
100
AcDbLine
 62
7
  6
CONTINUOUS
 10
161.898197439
 20
254.4554579236
 11
142.898197439
 21
254.4554579236
  0
LINE
  5
3E9
100
AcDbEntity
  8
7_ALL_FEATURES
100
AcDbLine
 62
7
  6
CONTINUOUS
 10
83.398197439
 20
279.2054579236
 11
82.398197439
 21
280.2054579236
  0
LINE
  5
3EA
100
AcDbEntity
  8
3_ALL_AXES
100
AcDbLine
 62
7
  6
CONTINUOUS
 10
76.898197439
 20
348.2054579236
 11
76.898197439
 21
352.7054579236
  0
LINE
  5
3EB
100
AcDbEntity
  8
3_ALL_AXES
100
AcDbLine
 62
7
  6
CONTINUOUS
 10
82.398197439
 20
280.2054579236
 11
82.398197439
 21
284.2054579236
  0
LINE
  5
3EC
100
AcDbEntity
  8
3_ALL_AXES
100
AcDbLine
 62
7
  6
CONTINUOUS
 10
82.398197439
 20
287.7054579236
 11
82.398197439
 21
290.7054579236
  0
LINE
  5
3ED
100
AcDbEntity
  8
3_ALL_AXES
100
AcDbLine
 62
7
  6
CONTINUOUS
 10
82.398197439
 20
294.2054579236
 11
82.398197439
 21
297.2054579236
  0
LINE
  5
3EE
100
AcDbEntity
  8
3_ALL_AXES
100
AcDbLine
 62
7
  6
CONTINUOUS
 10
82.398197439
 20
300.7054579236
 11
82.398197439
 21
303.7054579236
  0
LINE
  5
3EF
100
AcDbEntity
  8
3_ALL_AXES
100
AcDbLine
 62
7
  6
CONTINUOUS
 10
82.398197439
 20
307.2054579236
 11
82.398197439
 21
310.2054579236
  0
LINE
  5
3F0
100
AcDbEntity
  8
3_ALL_AXES
100
AcDbLine
 62
7
  6
CONTINUOUS
 10
82.398197439
 20
313.7054579236
 11
82.398197439
 21
352.7054579236
  0
LINE
  5
3F1
100
AcDbEntity
  8
7_ALL_FEATURES
100
AcDbLine
 62
7
  6
CONTINUOUS
 10
161.898197439
 20
265.4554579236
 11
142.898197439
 21
265.4554579236
  0
LINE
  5
3F2
100
AcDbEntity
  8
7_ALL_FEATURES
100
AcDbLine
 62
7
  6
CONTINUOUS
 10
88.398197439
 20
313.7054579236
 11
88.398197439
 21
310.2054579236
  0
LINE
  5
3F3
100
AcDbEntity
  8
7_ALL_FEATURES
100
AcDbLine
 62
7
  6
CONTINUOUS
 10
90.398197439
 20
307.2054579236
 11
90.398197439
 21
303.7054579236
  0
LINE
  5
3F4
100
AcDbEntity
  8
7_ALL_FEATURES
100
AcDbLine
 62
7
  6
CONTINUOUS
 10
92.398197439
 20
300.7054579236
 11
92.398197439
 21
297.2054579236
  0
LINE
  5
3F5
100
AcDbEntity
  8
7_ALL_FEATURES
100
AcDbLine
 62
7
  6
CONTINUOUS
 10
141.4285423244
 20
271.2054579236
 11
163.3678525536
 21
271.2054579236
  0
LINE
  5
3F6
100
AcDbEntity
  8
7_ALL_FEATURES
100
AcDbLine
 62
7
  6
CONTINUOUS
 10
94.398197439
 20
294.2054579236
 11
94.398197439
 21
290.7054579236
  0
LINE
  5
3F7
100
AcDbEntity
  8
7_ALL_FEATURES
100
AcDbLine
 62
7
  6
CONTINUOUS
 10
96.398197439
 20
287.7054579236
 11
96.398197439
 21
284.2054579236
  0
LINE
  5
3F8
100
AcDbEntity
  8
7_ALL_FEATURES
100
AcDbLine
 62
7
  6
CONTINUOUS
 10
83.398197439
 20
279.2054579236
 11
181.398197439
 21
279.2054579236
  0
LINE
  5
3F9
100
AcDbEntity
  8
7_ALL_FEATURES
100
AcDbLine
 62
7
  6
CONTINUOUS
 10
82.398197439
 20
280.2054579236
 11
182.398197439
 21
280.2054579236
  0
LINE
  5
3FA
100
AcDbEntity
  8
7_ALL_FEATURES
100
AcDbLine
 62
7
  6
CONTINUOUS
 10
82.3987834533
 20
284.2054579236
 11
182.3976114247
 21
284.2054579236
  0
LINE
  5
3FB
100
AcDbEntity
  8
7_ALL_FEATURES
100
AcDbLine
 62
7
  6
CONTINUOUS
 10
182.3976114247
 20
287.7054579236
 11
82.3987834533
 21
287.7054579236
  0
LINE
  5
3FC
100
AcDbEntity
  8
7_ALL_FEATURES
100
AcDbLine
 62
7
  6
CONTINUOUS
 10
82.3987834533
 20
290.7054579236
 11
182.3976114247
 21
290.7054579236
  0
LINE
  5
3FD
100
AcDbEntity
  8
7_ALL_FEATURES
100
AcDbLine
 62
7
  6
CONTINUOUS
 10
182.3976114247
 20
294.2054579236
 11
82.3987834533
 21
294.2054579236
  0
LINE
  5
3FE
100
AcDbEntity
  8
7_ALL_FEATURES
100
AcDbLine
 62
7
  6
CONTINUOUS
 10
82.3987834533
 20
297.2054579236
 11
182.3976114247
 21
297.2054579236
  0
LINE
  5
3FF
100
AcDbEntity
  8
7_ALL_FEATURES
100
AcDbLine
 62
7
  6
CONTINUOUS
 10
182.3976114247
 20
300.7054579236
 11
82.3987834533
 21
300.7054579236
  0
LINE
  5
400
100
AcDbEntity
  8
7_ALL_FEATURES
100
AcDbLine
 62
7
  6
CONTINUOUS
 10
72.398197439
 20
347.7054579236
 11
71.898197439
 21
348.2054579236
  0
LINE
  5
401
100
AcDbEntity
  8
7_ALL_FEATURES
100
AcDbLine
 62
7
  6
CONTINUOUS
 10
70.6982009635
 20
352.7054612963
 11
70.3982008271
 21
353.0054614662
  0
LINE
  5
402
100
AcDbEntity
  8
7_ALL_FEATURES
100
AcDbLine
 62
7
  6
CONTINUOUS
 10
82.3987834533
 20
303.7054579236
 11
182.3976114247
 21
303.7054579236
  0
LINE
  5
403
100
AcDbEntity
  8
7_ALL_FEATURES
100
AcDbLine
 62
7
  6
CONTINUOUS
 10
182.3976114247
 20
307.2054579236
 11
82.3987834533
 21
307.2054579236
  0
LINE
  5
404
100
AcDbEntity
  8
7_ALL_FEATURES
100
AcDbLine
 62
7
  6
CONTINUOUS
 10
163.398197439
 20
347.7054579236
 11
163.898197439
 21
348.2054579236
  0
LINE
  5
405
100
AcDbEntity
  8
7_ALL_FEATURES
100
AcDbLine
 62
7
  6
CONTINUOUS
 10
82.3987834533
 20
310.2054579236
 11
182.3976114247
 21
310.2054579236
  0
LINE
  5
406
100
AcDbEntity
  8
7_ALL_FEATURES
100
AcDbLine
 62
7
  6
CONTINUOUS
 10
182.3976114247
 20
313.7054579236
 11
82.3987834533
 21
313.7054579236
  0
LINE
  5
407
100
AcDbEntity
  8
7_ALL_FEATURES
100
AcDbLine
 62
7
  6
CONTINUOUS
 10
141.4285423244
 20
279.2054579236
 11
141.4285423244
 21
271.2054579236
  0
LINE
  5
408
100
AcDbEntity
  8
7_ALL_FEATURES
100
AcDbLine
 62
7
  6
CONTINUOUS
 10
142.898197439
 20
265.4554579236
 11
142.898197439
 21
254.4554579236
  0
LINE
  5
409
100
AcDbEntity
  8
7_ALL_FEATURES
100
AcDbLine
 62
7
  6
CONTINUOUS
 10
143.398197439
 20
253.7554579236
 11
143.398197439
 21
254.4554579236
  0
LINE
  5
40A
100
AcDbEntity
  8
02___PRT_ALL_AXES
100
AcDbLine
 62
7
  6
CONTINUOUS
 10
144.598197439
 20
271.2054579236
 11
144.598197439
 21
265.4554579236
  0
LINE
  5
40B
100
AcDbEntity
  8
7_ALL_FEATURES
100
AcDbLine
 62
7
  6
CONTINUOUS
 10
144.598197439
 20
271.2054579236
 11
144.598197439
 21
265.4554579236
  0
LINE
  5
40C
100
AcDbEntity
  8
7_ALL_FEATURES
100
AcDbLine
 62
7
  6
CONTINUOUS
 10
146.9133698817
 20
279.2054579236
 11
146.9133698817
 21
271.2054579236
  0
LINE
  5
40D
100
AcDbEntity
  8
7_ALL_FEATURES
100
AcDbLine
 62
7
  6
CONTINUOUS
 10
152.398197439
 20
265.4554579236
 11
152.398197439
 21
254.4554579236
  0
LINE
  5
40E
100
AcDbEntity
  8
7_ALL_FEATURES
100
AcDbLine
 62
7
  6
CONTINUOUS
 10
194.0981939145
 20
352.7054612963
 11
194.3981940509
 21
353.0054614662
  0
LINE
  5
40F
100
AcDbEntity
  8
7_ALL_FEATURES
100
AcDbLine
 62
7
  6
CONTINUOUS
 10
157.8830249963
 20
279.2054579236
 11
157.8830249963
 21
271.2054579236
  0
LINE
  5
410
100
AcDbEntity
  8
3_ALL_AXES
100
AcDbLine
 62
7
  6
CONTINUOUS
 10
158.898197439
 20
348.2054579236
 11
158.898197439
 21
352.7054579236
  0
LINE
  5
411
100
AcDbEntity
  8
02___PRT_ALL_AXES
100
AcDbLine
 62
7
  6
CONTINUOUS
 10
160.198197439
 20
271.2054579236
 11
160.198197439
 21
265.4554579236
  0
LINE
  5
412
100
AcDbEntity
  8
7_ALL_FEATURES
100
AcDbLine
 62
7
  6
CONTINUOUS
 10
160.198197439
 20
271.2054579236
 11
160.198197439
 21
265.4554579236
  0
LINE
  5
413
100
AcDbEntity
  8
7_ALL_FEATURES
100
AcDbLine
 62
7
  6
CONTINUOUS
 10
161.398197439
 20
253.7554579236
 11
161.398197439
 21
254.4554579236
  0
LINE
  5
414
100
AcDbEntity
  8
7_ALL_FEATURES
100
AcDbLine
 62
7
  6
CONTINUOUS
 10
161.898197439
 20
265.4554579236
 11
161.898197439
 21
254.4554579236
  0
LINE
  5
415
100
AcDbEntity
  8
7_ALL_FEATURES
100
AcDbLine
 62
7
  6
CONTINUOUS
 10
163.3678525536
 20
279.2054579236
 11
163.3678525536
 21
271.2054579236
  0
LINE
  5
416
100
AcDbEntity
  8
3_ALL_AXES
100
AcDbLine
 62
7
  6
CONTINUOUS
 10
163.898197439
 20
348.2054579236
 11
163.898197439
 21
352.7054579236
  0
LINE
  5
417
100
AcDbEntity
  8
7_ALL_FEATURES
100
AcDbLine
 62
7
  6
CONTINUOUS
 10
168.398197439
 20
287.7054579236
 11
168.398197439
 21
284.2054579236
  0
LINE
  5
418
100
AcDbEntity
  8
7_ALL_FEATURES
100
AcDbLine
 62
7
  6
CONTINUOUS
 10
170.398197439
 20
294.2054579236
 11
170.398197439
 21
290.7054579236
  0
LINE
  5
419
100
AcDbEntity
  8
7_ALL_FEATURES
100
AcDbLine
 62
7
  6
CONTINUOUS
 10
172.398197439
 20
300.7054579236
 11
172.398197439
 21
297.2054579236
  0
LINE
  5
41A
100
AcDbEntity
  8
7_ALL_FEATURES
100
AcDbLine
 62
7
  6
CONTINUOUS
 10
72.3982909341
 20
347.7054579236
 11
76.398103944
 21
347.7054579236
  0
LINE
  5
41B
100
AcDbEntity
  8
7_ALL_FEATURES
100
AcDbLine
 62
7
  6
CONTINUOUS
 10
159.3982909341
 20
347.7054579236
 11
163.398103944
 21
347.7054579236
  0
LINE
  5
41C
100
AcDbEntity
  8
7_ALL_FEATURES
100
AcDbLine
 62
7
  6
CONTINUOUS
 10
71.898197439
 20
348.2054579236
 11
76.898197439
 21
348.2054579236
  0
LINE
  5
41D
100
AcDbEntity
  8
7_ALL_FEATURES
100
AcDbLine
 62
7
  6
CONTINUOUS
 10
158.898197439
 20
348.2054579236
 11
163.898197439
 21
348.2054579236
  0
LINE
  5
41E
100
AcDbEntity
  8
7_ALL_FEATURES
100
AcDbLine
 62
7
  6
CONTINUOUS
 10
194.0976516124
 20
352.7054579236
 11
70.6987432657
 21
352.7054579236
  0
LINE
  5
41F
100
AcDbEntity
  8
7_ALL_FEATURES
100
AcDbLine
 62
7
  6
CONTINUOUS
 10
194.398197439
 20
353.0054580798
 11
70.398197439
 21
353.0054580798
  0
LINE
  5
420
100
AcDbEntity
  8
7_ALL_FEATURES
100
AcDbLine
 62
7
  6
CONTINUOUS
 10
174.398197439
 20
307.2054579236
 11
174.398197439
 21
303.7054579236
  0
LINE
  5
421
100
AcDbEntity
  8
7_ALL_FEATURES
100
AcDbLine
 62
7
  6
CONTINUOUS
 10
176.398197439
 20
313.7054579236
 11
176.398197439
 21
310.2054579236
  0
LINE
  5
422
100
AcDbEntity
  8
7_ALL_FEATURES
100
AcDbLine
 62
7
  6
CONTINUOUS
 10
159.398197439
 20
347.7054579236
 11
158.898197439
 21
348.2054579236
  0
LINE
  5
423
100
AcDbEntity
  8
3_ALL_AXES
100
AcDbLine
 62
7
  6
CONTINUOUS
 10
182.398197439
 20
280.2054579236
 11
182.398197439
 21
284.2054579236
  0
LINE
  5
424
100
AcDbEntity
  8
3_ALL_AXES
100
AcDbLine
 62
7
  6
CONTINUOUS
 10
182.398197439
 20
287.7054579236
 11
182.398197439
 21
290.7054579236
  0
LINE
  5
425
100
AcDbEntity
  8
3_ALL_AXES
100
AcDbLine
 62
7
  6
CONTINUOUS
 10
182.398197439
 20
294.2054579236
 11
182.398197439
 21
297.2054579236
  0
LINE
  5
426
100
AcDbEntity
  8
3_ALL_AXES
100
AcDbLine
 62
7
  6
CONTINUOUS
 10
182.398197439
 20
300.7054579236
 11
182.398197439
 21
303.7054579236
  0
LINE
  5
427
100
AcDbEntity
  8
3_ALL_AXES
100
AcDbLine
 62
7
  6
CONTINUOUS
 10
182.398197439
 20
307.2054579236
 11
182.398197439
 21
310.2054579236
  0
LINE
  5
428
100
AcDbEntity
  8
3_ALL_AXES
100
AcDbLine
 62
7
  6
CONTINUOUS
 10
182.398197439
 20
313.7054579236
 11
182.398197439
 21
352.7054579236
  0
LINE
  5
429
100
AcDbEntity
  8
7_ALL_FEATURES
100
AcDbLine
 62
7
  6
CONTINUOUS
 10
181.398197439
 20
279.2054579236
 11
182.398197439
 21
280.2054579236
  0
LINE
  5
42A
100
AcDbEntity
  8
7_ALL_FEATURES
100
AcDbLine
 62
7
  6
CONTINUOUS
 10
194.398197439
 20
367.405457841
 11
70.398197439
 21
367.405457841
  0
LINE
  5
42B
100
AcDbEntity
  8
7_ALL_FEATURES
100
AcDbLine
 62
7
  6
CONTINUOUS
 10
194.0977249613
 20
367.7054579236
 11
70.6986699167
 21
367.7054579236
  0
LINE
  5
42C
100
AcDbEntity
  8
7_ALL_FEATURES
100
AcDbLine
 62
9
  6
CONTINUOUS
 10
194.398197439
 20
368.0054579236
 11
70.398197439
 21
368.0054579236
  0
LINE
  5
42D
100
AcDbEntity
  8
3_ALL_AXES
100
AcDbLine
 62
7
  6
CONTINUOUS
 10
194.398197439
 20
353.0054580781
 11
194.398197439
 21
367.4054578416
  0
LINE
  5
42E
100
AcDbEntity
  8
3_ALL_AXES
100
AcDbLine
 62
7
  6
CONTINUOUS
 10
194.398197439
 20
368.0054579236
 11
194.398197439
 21
374.4054579236
  0
LINE
  5
42F
100
AcDbEntity
  8
7_ALL_FEATURES
100
AcDbLine
 62
9
  6
CONTINUOUS
 10
70.398197439
 20
374.4054579236
 11
194.398197439
 21
374.4054579236
  0
LINE
  5
430
100
AcDbEntity
  8
7_ALL_FEATURES
100
AcDbLine
 62
7
  6
CONTINUOUS
 10
207.098011855
 20
374.7054579236
 11
57.698383023
 21
374.7054579236
  0
LINE
  5
431
100
AcDbEntity
  8
7_ALL_FEATURES
100
AcDbLine
 62
9
  6
CONTINUOUS
 10
207.398197439
 20
375.0054579236
 11
57.398197439
 21
375.0054579236
  0
LINE
  5
432
100
AcDbEntity
  8
7_ALL_FEATURES
100
AcDbLine
 62
9
  6
CONTINUOUS
 10
207.398197439
 20
375.5811938549
 11
57.398197439
 21
375.5811938549
  0
LINE
  5
433
100
AcDbEntity
  8
7_ALL_FEATURES
100
AcDbLine
 62
9
  6
CONTINUOUS
 10
207.3103294734
 20
375.7933258893
 11
57.4860654047
 21
375.7933258893
  0
LINE
  5
434
100
AcDbEntity
  8
7_ALL_FEATURES
100
AcDbLine
 62
9
  6
CONTINUOUS
 10
205.4860654047
 20
377.617589958
 11
59.3103294734
 21
377.617589958
  0
LINE
  5
435
100
AcDbEntity
  8
7_ALL_FEATURES
100
AcDbLine
 62
7
  6
CONTINUOUS
 10
205.2737500768
 20
377.7054579236
 11
59.5226448013
 21
377.7054579236
  0
LINE
  5
436
100
AcDbEntity
  8
3_ALL_AXES
100
AcDbLine
 62
7
  6
CONTINUOUS
 10
207.398197439
 20
375.0054579236
 11
207.398197439
 21
375.5811938549
  0
LINE
  5
437
100
AcDbEntity
  8
7_ALL_FEATURES
100
AcDbLine
 62
7
  6
CONTINUOUS
 10
194.0981946243
 20
367.7054551897
 11
194.3981946922
 21
367.4054550948
  0
LINE
  5
438
100
AcDbEntity
  8
3_ALL_AXES
100
AcDbLine
 62
7
  6
CONTINUOUS
 10
207.3103294734
 20
375.7933258893
 11
205.4860654047
 21
377.617589958
  0
ARC
  5
439
100
AcDbEntity
  8
7_ALL_FEATURES
100
AcDbCircle
 62
7
  6
CONTINUOUS
 10
375.662589973
 20
173.4020941099
 40
12.6213279835
100
AcDbArc
 50
180.0118693992
 51
191.4494751527
  0
ARC
  5
43A
100
AcDbEntity
  8
7_ALL_FEATURES
100
AcDbCircle
 62
7
  6
CONTINUOUS
 10
375.662589973
 20
179.0312592345
 40
12.6213279836
100
AcDbArc
 50
180.0118693992
 51
191.4494751527
  0
ARC
  5
43B
100
AcDbEntity
  8
7_ALL_FEATURES
100
AcDbCircle
 62
7
  6
CONTINUOUS
 10
375.662589973
 20
184.6604243591
 40
12.6213279835
100
AcDbArc
 50
180.0118693992
 51
191.4494751527
  0
ARC
  5
43C
100
AcDbEntity
  8
7_ALL_FEATURES
100
AcDbCircle
 62
7
  6
CONTINUOUS
 10
375.662589973
 20
190.2895894837
 40
12.6213279836
100
AcDbArc
 50
180.0118693992
 51
191.4494751527
  0
ARC
  5
43D
100
AcDbEntity
  8
7_ALL_FEATURES
100
AcDbCircle
 62
7
  6
CONTINUOUS
 10
375.6252141991
 20
167.7677237667
 40
12.5839522055
100
AcDbArc
 50
173.066894773
 51
179.98820486
  0
ARC
  5
43E
100
AcDbEntity
  8
7_ALL_FEATURES
100
AcDbCircle
 62
7
  6
CONTINUOUS
 10
375.6252141991
 20
173.3968888913
 40
12.5839522055
100
AcDbArc
 50
173.066894773
 51
179.98820486
  0
ARC
  5
43F
100
AcDbEntity
  8
7_ALL_FEATURES
100
AcDbCircle
 62
7
  6
CONTINUOUS
 10
375.6252141991
 20
190.2843842651
 40
12.5839522055
100
AcDbArc
 50
173.066894773
 51
179.98820486
  0
ARC
  5
440
100
AcDbEntity
  8
7_ALL_FEATURES
100
AcDbCircle
 62
7
  6
CONTINUOUS
 10
375.6252141991
 20
179.0260540159
 40
12.5839522055
100
AcDbArc
 50
173.066894773
 51
179.98820486
  0
ARC
  5
441
100
AcDbEntity
  8
7_ALL_FEATURES
100
AcDbCircle
 62
7
  6
CONTINUOUS
 10
375.6252141991
 20
184.6552191405
 40
12.5839522055
100
AcDbArc
 50
173.066894773
 51
179.9882048601
  0
ARC
  5
442
100
AcDbEntity
  8
7_ALL_FEATURES
100
AcDbCircle
 62
7
  6
CONTINUOUS
 10
383.5613055379
 20
199.8100321838
 40
2.9132315855
100
AcDbArc
 50
247.200628534
 51
248.2647552817
  0
ARC
  5
443
100
AcDbEntity
  8
7_ALL_FEATURES
100
AcDbCircle
 62
7
  6
CONTINUOUS
 10
384.5211090155
 20
199.8100321838
 40
2.9132315855
100
AcDbArc
 50
291.7352447183
 51
292.799371466
  0
ARC
  5
444
100
AcDbEntity
  8
7_ALL_FEATURES
100
AcDbCircle
 62
9
  6
CONTINUOUS
 10
384.1945541021
 20
226.4275859562
 40
53.0972165981
100
AcDbArc
 50
123.0302221939
 51
125.5064346291
  0
ARC
  5
445
100
AcDbEntity
  8
7_ALL_FEATURES
100
AcDbCircle
 62
7
  6
CONTINUOUS
 10
381.2289044267
 20
227.1832432613
 40
50.8558857065
100
AcDbArc
 50
125.2534365536
 51
128.2399713773
  0
ARC
  5
446
100
AcDbEntity
  8
7_ALL_FEATURES
100
AcDbCircle
 62
9
  6
CONTINUOUS
 10
381.926095419
 20
229.3474320635
 40
49.4913670744
100
AcDbArc
 50
125.2458518919
 51
127.3682175548
  0
ARC
  5
447
100
AcDbEntity
  8
7_ALL_FEATURES
100
AcDbCircle
 62
9
  6
CONTINUOUS
 10
381.7547418746
 20
229.8316481025
 40
48.9091104034
100
AcDbArc
 50
125.4958097069
 51
127.6088428214
  0
ARC
  5
448
100
AcDbEntity
  8
7_ALL_FEATURES
100
AcDbCircle
 62
7
  6
CONTINUOUS
 10
379.1844715272
 20
229.8331409513
 40
47.5091865414
100
AcDbArc
 50
128.2814841845
 51
128.4725399526
  0
ARC
  5
449
100
AcDbEntity
  8
7_ALL_FEATURES
100
AcDbCircle
 62
7
  6
CONTINUOUS
 10
378.0382998431
 20
231.2645978605
 40
45.6754115802
100
AcDbArc
 50
128.4640359149
 51
130.8668664593
  0
ARC
  5
44A
100
AcDbEntity
  8
7_ALL_FEATURES
100
AcDbCircle
 62
9
  6
CONTINUOUS
 10
378.8736552009
 20
233.2821231367
 40
44.5116488109
100
AcDbArc
 50
127.3195235414
 51
130.8741283897
  0
ARC
  5
44B
100
AcDbEntity
  8
7_ALL_FEATURES
100
AcDbCircle
 62
9
  6
CONTINUOUS
 10
378.8508025233
 20
233.547294769
 40
44.1934029352
100
AcDbArc
 50
127.5993730725
 51
130.8770355521
  0
ARC
  5
44C
100
AcDbEntity
  8
7_ALL_FEATURES
100
AcDbCircle
 62
9
  6
CONTINUOUS
 10
375.9311691437
 20
236.6688532932
 40
40.0252157633
100
AcDbArc
 50
130.8616977955
 51
133.7155968791
  0
ARC
  5
44D
100
AcDbEntity
  8
7_ALL_FEATURES
100
AcDbCircle
 62
9
  6
CONTINUOUS
 10
375.9277329639
 20
236.9026310922
 40
39.7434153552
100
AcDbArc
 50
130.8563909303
 51
133.9437274839
  0
ARC
  5
44E
100
AcDbEntity
  8
7_ALL_FEATURES
100
AcDbCircle
 62
9
  6
CONTINUOUS
 10
367.7751340943
 20
241.5682234501
 40
31.1038885297
100
AcDbArc
 50
140.703223148
 51
142.4879798004
  0
ARC
  5
44F
100
AcDbEntity
  8
7_ALL_FEATURES
100
AcDbCircle
 62
9
  6
CONTINUOUS
 10
361.6650498165
 20
245.5243879312
 40
23.8124875017
100
AcDbArc
 50
152.7377282971
 51
154.4426941447
  0
ARC
  5
450
100
AcDbEntity
  8
7_ALL_FEATURES
100
AcDbCircle
 62
9
  6
CONTINUOUS
 10
357.8787915393
 20
246.9370195364
 40
19.7621378085
100
AcDbArc
 50
167.0438251181
 51
167.577084104
  0
ARC
  5
451
100
AcDbEntity
  8
7_ALL_FEATURES
100
AcDbCircle
 62
9
  6
CONTINUOUS
 10
356.7969006292
 20
246.9037235395
 40
18.7556812515
100
AcDbArc
 50
181.5217161434
 51
182.6075934647
  0
ARC
  5
452
100
AcDbEntity
  8
7_ALL_FEATURES
100
AcDbCircle
 62
9
  6
CONTINUOUS
 10
356.7861199033
 20
246.9033990231
 40
18.7448957099
100
AcDbArc
 50
179.9980842906
 51
181.5215996538
  0
ARC
  5
453
100
AcDbEntity
  8
7_ALL_FEATURES
100
AcDbCircle
 62
9
  6
CONTINUOUS
 10
356.8674510633
 20
247.0876298962
 40
18.7383677514
100
AcDbArc
 50
182.1209759009
 51
182.6075294088
  0
ARC
  5
454
100
AcDbEntity
  8
7_ALL_FEATURES
100
AcDbCircle
 62
9
  6
CONTINUOUS
 10
356.8550086666
 20
247.0871792128
 40
18.7259171993
100
AcDbArc
 50
180.6075577993
 51
182.1210068438
  0
ARC
  5
455
100
AcDbEntity
  8
7_ALL_FEATURES
100
AcDbCircle
 62
9
  6
CONTINUOUS
 10
379.4971341381
 20
248.0343251002
 40
14.5680746516
100
AcDbArc
 50
155.4425910343
 51
157.0262581602
  0
ARC
  5
456
100
AcDbEntity
  8
7_ALL_FEATURES
100
AcDbCircle
 62
9
  6
CONTINUOUS
 10
377.8169436652
 20
248.8673237377
 40
12.7866218262
100
AcDbArc
 50
191.3719611217
 51
195.5564769361
  0
ARC
  5
457
100
AcDbEntity
  8
7_ALL_FEATURES
100
AcDbCircle
 62
9
  6
CONTINUOUS
 10
378.0367355403
 20
246.3202922941
 40
12.5018799804
100
AcDbArc
 50
163.3829453967
 51
171.0576566917
  0
ARC
  5
458
100
AcDbEntity
  8
7_ALL_FEATURES
100
AcDbCircle
 62
9
  6
CONTINUOUS
 10
377.7059082431
 20
246.3767270525
 40
12.1663023258
100
AcDbArc
 50
171.0780240964
 51
171.4750678736
  0
ARC
  5
459
100
AcDbEntity
  8
7_ALL_FEATURES
100
AcDbCircle
 62
9
  6
CONTINUOUS
 10
377.6260920134
 20
246.3883124149
 40
12.0856505441
100
AcDbArc
 50
171.4732920697
 51
173.7746361203
  0
ARC
  5
45A
100
AcDbEntity
  8
7_ALL_FEATURES
100
AcDbCircle
 62
7
  6
CONTINUOUS
 10
377.7512602666
 20
247.2353944978
 40
11.9600463916
100
AcDbArc
 50
180.0339261172
 51
189.4511518051
  0
ARC
  5
45B
100
AcDbEntity
  8
7_ALL_FEATURES
100
AcDbCircle
 62
7
  6
CONTINUOUS
 10
376.5692083877
 20
246.3796907219
 40
11.0291886495
100
AcDbArc
 50
170.107713152
 51
174.5745160658
  0
ARC
  5
45C
100
AcDbEntity
  8
7_ALL_FEATURES
100
AcDbCircle
 62
9
  6
CONTINUOUS
 10
383.6142595641
 20
229.6418454843
 40
8.8481563498
100
AcDbArc
 50
254.7185291712
 51
256.1563699434
  0
ARC
  5
45D
100
AcDbEntity
  8
7_ALL_FEATURES
100
AcDbCircle
 62
9
  6
CONTINUOUS
 10
383.5176482168
 20
229.2859232585
 40
8.4793556005
100
AcDbArc
 50
253.9000606131
 51
254.7143950259
  0
ARC
  5
45E
100
AcDbEntity
  8
7_ALL_FEATURES
100
AcDbCircle
 62
7
  6
CONTINUOUS
 10
383.4501750323
 20
228.6189671404
 40
7.7358763405
100
AcDbArc
 50
253.0160851453
 51
253.899839391
  0
ARC
  5
45F
100
AcDbEntity
  8
3_ALL_AXES
100
AcDbCircle
 62
7
  6
CONTINUOUS
 10
383.5320824579
 20
228.361919379
 40
7.1795795844
100
AcDbArc
 50
252.8203436713
 51
253.9010585516
  0
ARC
  5
460
100
AcDbEntity
  8
3_ALL_AXES
100
AcDbCircle
 62
7
  6
CONTINUOUS
 10
383.4977581587
 20
227.9877123124
 40
7.0601484856
100
AcDbArc
 50
252.0995398757
 51
253.9112485057
  0
ARC
  5
461
100
AcDbEntity
  8
3_ALL_AXES
100
AcDbCircle
 62
7
  6
CONTINUOUS
 10
380.6200168549
 20
222.5535830114
 40
1.8740464877
100
AcDbArc
 50
145.8502046682
 51
150.1816342489
  0
ARC
  5
462
100
AcDbEntity
  8
3_ALL_AXES
100
AcDbCircle
 62
7
  6
CONTINUOUS
 10
380.4967652538
 20
222.6248120224
 40
1.7316939467
100
AcDbArc
 50
150.1985616149
 51
153.5383658173
  0
ARC
  5
463
100
AcDbEntity
  8
3_ALL_AXES
100
AcDbCircle
 62
7
  6
CONTINUOUS
 10
380.2007094487
 20
222.745998223
 40
1.4111446985
100
AcDbArc
 50
163.1897749196
 51
167.444611228
  0
ARC
  5
464
100
AcDbEntity
  8
3_ALL_AXES
100
AcDbCircle
 62
7
  6
CONTINUOUS
 10
380.1288697243
 20
222.7617476177
 40
1.3375992932
100
AcDbArc
 50
167.4341600239
 51
179.9493398156
  0
ARC
  5
465
100
AcDbEntity
  8
7_ALL_FEATURES
100
AcDbCircle
 62
7
  6
CONTINUOUS
 10
393.1684132171
 20
179.5060466748
 40
36.2922606206
100
AcDbArc
 50
234.7384265129
 51
236.3085266874
  0
ARC
  5
466
100
AcDbEntity
  8
7_ALL_FEATURES
100
AcDbCircle
 62
7
  6
CONTINUOUS
 10
413.8068929176
 20
251.4209253832
 40
91.722893005
100
AcDbArc
 50
277.9785427157
 51
278.1447260944
  0
ARC
  5
467
100
AcDbEntity
  8
7_ALL_FEATURES
100
AcDbCircle
 62
7
  6
CONTINUOUS
 10
387.9314426721
 20
245.5349365395
 40
44.1889857074
100
AcDbArc
 50
234.7237314678
 51
235.1128532373
  0
ARC
  5
468
100
AcDbEntity
  8
7_ALL_FEATURES
100
AcDbCircle
 62
7
  6
CONTINUOUS
 10
393.6513287186
 20
234.5926588945
 40
32.5328526486
100
AcDbArc
 50
125.262512718
 51
126.1515731228
  0
ARC
  5
469
100
AcDbEntity
  8
7_ALL_FEATURES
100
AcDbCircle
 62
7
  6
CONTINUOUS
 10
385.9648830434
 20
225.508262406
 40
4.3439530557
100
AcDbArc
 50
299.6278922485
 51
301.3751009411
  0
ARC
  5
46A
100
AcDbEntity
  8
3_ALL_AXES
100
AcDbCircle
 62
7
  6
CONTINUOUS
 10
387.4655837764
 20
222.55426718
 40
1.870933468
100
AcDbArc
 50
30.0172026004
 51
33.6240172641
  0
ARC
  5
46B
100
AcDbEntity
  8
3_ALL_AXES
100
AcDbCircle
 62
7
  6
CONTINUOUS
 10
387.5775716362
 20
222.6193178753
 40
1.7414237185
100
AcDbArc
 50
27.0263562999
 51
30.0072419267
  0
ARC
  5
46C
100
AcDbEntity
  8
3_ALL_AXES
100
AcDbCircle
 62
7
  6
CONTINUOUS
 10
387.7037699053
 20
222.6825963192
 40
1.6002531569
100
AcDbArc
 50
21.1396286546
 51
27.0613100832
  0
ARC
  5
46D
100
AcDbEntity
  8
3_ALL_AXES
100
AcDbCircle
 62
7
  6
CONTINUOUS
 10
387.7675155092
 20
223.6305173973
 40
1.273692725
100
AcDbArc
 50
348.4699882637
 51
359.9297488394
  0
ARC
  5
46E
100
AcDbEntity
  8
7_ALL_FEATURES
100
AcDbCircle
 62
9
  6
CONTINUOUS
 10
410.5053157393
 20
337.5791068344
 40
125.0956140249
100
AcDbArc
 50
259.0096704028
 51
259.1464202765
  0
ARC
  5
46F
100
AcDbEntity
  8
7_ALL_FEATURES
100
AcDbCircle
 62
9
  6
CONTINUOUS
 10
409.8292550481
 20
334.3593455817
 40
121.9924527611
100
AcDbArc
 50
256.5149565702
 51
259.1725853865
  0
ARC
  5
470
100
AcDbEntity
  8
7_ALL_FEATURES
100
AcDbCircle
 62
7
  6
CONTINUOUS
 10
413.0595256575
 20
256.3699429526
 40
99.3098975676
100
AcDbArc
 50
272.3196942446
 51
272.4654238885
  0
ARC
  5
471
100
AcDbEntity
  8
7_ALL_FEATURES
100
AcDbCircle
 62
7
  6
CONTINUOUS
 10
413.042148024
 20
256.3295444842
 40
88.0425450682
100
AcDbArc
 50
269.2168194421
 51
270.3760431196
  0
ARC
  5
472
100
AcDbEntity
  8
7_ALL_FEATURES
100
AcDbCircle
 62
7
  6
CONTINUOUS
 10
413.0530813165
 20
255.6771281194
 40
87.3900712512
100
AcDbArc
 50
270.3716824057
 51
273.295529854
  0
ARC
  5
473
100
AcDbEntity
  8
7_ALL_FEATURES
100
AcDbCircle
 62
9
  6
CONTINUOUS
 10
384.4681603778
 20
279.8713013754
 40
8.8481380169
100
AcDbArc
 50
283.8436294848
 51
285.2814682043
  0
ARC
  5
474
100
AcDbEntity
  8
7_ALL_FEATURES
100
AcDbCircle
 62
9
  6
CONTINUOUS
 10
384.5647764167
 20
279.5153618185
 40
8.4793193129
100
AcDbArc
 50
285.285602538
 51
286.0999392674
  0
ARC
  5
475
100
AcDbEntity
  8
7_ALL_FEATURES
100
AcDbCircle
 62
7
  6
CONTINUOUS
 10
384.6323478802
 20
278.8480643277
 40
7.735484815
100
AcDbArc
 50
286.100162394
 51
286.9839480789
  0
ARC
  5
476
100
AcDbEntity
  8
3_ALL_AXES
100
AcDbCircle
 62
7
  6
CONTINUOUS
 10
384.5503250187
 20
278.591404193
 40
7.1795924944
100
AcDbArc
 50
286.098970495
 51
287.1796832443
  0
ARC
  5
477
100
AcDbEntity
  8
3_ALL_AXES
100
AcDbCircle
 62
7
  6
CONTINUOUS
 10
384.5846443725
 20
278.2172138117
 40
7.0601787974
100
AcDbArc
 50
286.0887820866
 51
287.9004825301
  0
ARC
  5
478
100
AcDbEntity
  8
7_ALL_FEATURES
100
AcDbCircle
 62
7
  6
CONTINUOUS
 10
382.1219908526
 20
275.7451393537
 40
4.3525929724
100
AcDbArc
 50
238.6221725107
 51
240.4556878016
  0
ARC
  5
479
100
AcDbEntity
  8
3_ALL_AXES
100
AcDbCircle
 62
7
  6
CONTINUOUS
 10
387.4623976986
 20
272.7830564308
 40
1.8740464877
100
AcDbArc
 50
29.818365751
 51
34.1497953318
  0
ARC
  5
47A
100
AcDbEntity
  8
3_ALL_AXES
100
AcDbCircle
 62
7
  6
CONTINUOUS
 10
380.6168307771
 20
272.7837405995
 40
1.870933468
100
AcDbArc
 50
146.3759827359
 51
149.9827973996
  0
ARC
  5
47B
100
AcDbEntity
  8
3_ALL_AXES
100
AcDbCircle
 62
7
  6
CONTINUOUS
 10
380.5048429173
 20
272.8487912948
 40
1.7414237184
100
AcDbArc
 50
149.9927580732
 51
152.9736437001
  0
ARC
  5
47C
100
AcDbEntity
  8
3_ALL_AXES
100
AcDbCircle
 62
7
  6
CONTINUOUS
 10
387.5856492996
 20
272.8542854419
 40
1.7316939467
100
AcDbArc
 50
26.4616341827
 51
29.8014383849
  0
ARC
  5
47D
100
AcDbEntity
  8
3_ALL_AXES
100
AcDbCircle
 62
7
  6
CONTINUOUS
 10
380.3786446482
 20
272.9120697387
 40
1.6002531569
100
AcDbArc
 50
152.9386899168
 51
158.8603713454
  0
ARC
  5
47E
100
AcDbEntity
  8
3_ALL_AXES
100
AcDbCircle
 62
7
  6
CONTINUOUS
 10
387.8817028309
 20
272.9754710133
 40
1.4111470572
100
AcDbArc
 50
12.5557121815
 51
16.810222834
  0
ARC
  5
47F
100
AcDbEntity
  8
3_ALL_AXES
100
AcDbCircle
 62
7
  6
CONTINUOUS
 10
387.953543445
 20
272.9912209018
 40
1.3376006775
100
AcDbArc
 50
0.05066593
 51
12.566168795
  0
ARC
  5
480
100
AcDbEntity
  8
3_ALL_AXES
100
AcDbCircle
 62
7
  6
CONTINUOUS
 10
387.7785279882
 20
273.8587957223
 40
1.2626793417
100
AcDbArc
 50
348.4233448088
 51
359.9833651366
  0
ARC
  5
481
100
AcDbEntity
  8
3_ALL_AXES
100
AcDbCircle
 62
7
  6
CONTINUOUS
 10
380.3038771995
 20
273.8587934916
 40
1.2626699754
100
AcDbArc
 50
180.0165337674
 51
191.5766395633
  0
ARC
  5
482
100
AcDbEntity
  8
7_ALL_FEATURES
100
AcDbCircle
 62
7
  6
CONTINUOUS
 10
416.2214802796
 20
247.6842684865
 40
79.0879399975
100
AcDbArc
 50
283.5381017951
 51
283.8468498017
  0
ARC
  5
483
100
AcDbEntity
  8
7_ALL_FEATURES
100
AcDbCircle
 62
9
  6
CONTINUOUS
 10
443.8201061136
 20
228.8880132921
 40
50.0606461972
100
AcDbArc
 50
52.645262931
 51
54.7432854236
  0
ARC
  5
484
100
AcDbEntity
  8
7_ALL_FEATURES
100
AcDbCircle
 62
9
  6
CONTINUOUS
 10
443.9856413735
 20
229.3685178624
 40
49.4848344987
100
AcDbArc
 50
52.4416974791
 51
54.4896803165
  0
ARC
  5
485
100
AcDbEntity
  8
7_ALL_FEATURES
100
AcDbCircle
 62
9
  6
CONTINUOUS
 10
445.51350568
 20
231.133199153
 40
47.2484968469
100
AcDbArc
 50
51.9912529575
 51
52.6256317233
  0
ARC
  5
486
100
AcDbEntity
  8
7_ALL_FEATURES
100
AcDbCircle
 62
9
  6
CONTINUOUS
 10
445.5262628253
 20
231.3979788069
 40
46.9369013713
100
AcDbArc
 50
51.9928960531
 51
52.4224188947
  0
ARC
  5
487
100
AcDbEntity
  8
7_ALL_FEATURES
100
AcDbCircle
 62
7
  6
CONTINUOUS
 10
438.1590135987
 20
245.5262049849
 40
44.1772860577
100
AcDbArc
 50
304.8867120607
 51
305.2628039876
  0
ARC
  5
488
100
AcDbEntity
  8
7_ALL_FEATURES
100
AcDbCircle
 62
7
  6
CONTINUOUS
 10
432.7532427843
 20
179.7444734657
 40
36.5798438592
100
AcDbArc
 50
303.7391731268
 51
305.2516797439
  0
ARC
  5
489
100
AcDbEntity
  8
7_ALL_FEATURES
100
AcDbCircle
 62
7
  6
CONTINUOUS
 10
432.4204226269
 20
234.5793898988
 40
32.5497882422
100
AcDbArc
 50
53.8234944938
 51
54.732429601
  0
ARC
  5
48A
100
AcDbEntity
  8
7_ALL_FEATURES
100
AcDbCircle
 62
7
  6
CONTINUOUS
 10
435.7713138036
 20
238.0345831854
 40
27.7869768043
100
AcDbArc
 50
49.1100219023
 51
50.1744023979
  0
ARC
  5
48B
100
AcDbEntity
  8
7_ALL_FEATURES
100
AcDbCircle
 62
7
  6
CONTINUOUS
 10
436.2032430295
 20
239.3412640749
 40
26.4658172116
100
AcDbArc
 50
47.9287635516
 51
49.1103068589
  0
ARC
  5
48C
100
AcDbEntity
  8
7_ALL_FEATURES
100
AcDbCircle
 62
9
  6
CONTINUOUS
 10
464.8464817844
 20
247.7879991512
 40
23.4289198821
100
AcDbArc
 50
332.5447429769
 51
336.0512332852
  0
ARC
  5
48D
100
AcDbEntity
  8
7_ALL_FEATURES
100
AcDbCircle
 62
9
  6
CONTINUOUS
 10
469.2855155614
 20
246.9047317673
 40
18.7556748014
100
AcDbArc
 50
358.493043003
 51
359.9978347718
  0
ARC
  5
48E
100
AcDbEntity
  8
7_ALL_FEATURES
100
AcDbCircle
 62
9
  6
CONTINUOUS
 10
469.2099961519
 20
247.088621552
 40
18.7433276731
100
AcDbArc
 50
357.9754838757
 51
359.4906783711
  0
ARC
  5
48F
100
AcDbEntity
  8
7_ALL_FEATURES
100
AcDbCircle
 62
9
  6
CONTINUOUS
 10
448.2646229845
 20
248.867713406
 40
12.7875223245
100
AcDbArc
 50
344.4422034102
 51
348.625736307
  0
ARC
  5
490
100
AcDbEntity
  8
7_ALL_FEATURES
100
AcDbCircle
 62
7
  6
CONTINUOUS
 10
450.3319889936
 20
173.4108649758
 40
12.7091683944
100
AcDbArc
 50
348.5904050458
 51
359.9486969485
  0
ARC
  5
491
100
AcDbEntity
  8
7_ALL_FEATURES
100
AcDbCircle
 62
7
  6
CONTINUOUS
 10
450.3319889936
 20
190.2983603496
 40
12.7091683944
100
AcDbArc
 50
348.5904050458
 51
359.9486969485
  0
ARC
  5
492
100
AcDbEntity
  8
7_ALL_FEATURES
100
AcDbCircle
 62
7
  6
CONTINUOUS
 10
450.3319889936
 20
179.0400301004
 40
12.7091683944
100
AcDbArc
 50
348.5904050458
 51
359.9486969485
  0
ARC
  5
493
100
AcDbEntity
  8
7_ALL_FEATURES
100
AcDbCircle
 62
7
  6
CONTINUOUS
 10
450.3319889936
 20
184.669195225
 40
12.7091683944
100
AcDbArc
 50
348.5904050458
 51
359.9486969485
  0
ARC
  5
494
100
AcDbEntity
  8
7_ALL_FEATURES
100
AcDbCircle
 62
7
  6
CONTINUOUS
 10
450.4582696678
 20
167.7678098252
 40
12.5828828758
100
AcDbArc
 50
0.0114298794
 51
6.9312479838
  0
ARC
  5
495
100
AcDbEntity
  8
7_ALL_FEATURES
100
AcDbCircle
 62
7
  6
CONTINUOUS
 10
450.4582696678
 20
173.3969749498
 40
12.5828828758
100
AcDbArc
 50
0.0114298794
 51
6.9312479838
  0
ARC
  5
496
100
AcDbEntity
  8
7_ALL_FEATURES
100
AcDbCircle
 62
7
  6
CONTINUOUS
 10
450.4582696678
 20
179.0261400744
 40
12.5828828758
100
AcDbArc
 50
0.0114298794
 51
6.9312479838
  0
ARC
  5
497
100
AcDbEntity
  8
7_ALL_FEATURES
100
AcDbCircle
 62
7
  6
CONTINUOUS
 10
450.4582696678
 20
184.655305199
 40
12.5828828758
100
AcDbArc
 50
0.0114298794
 51
6.9312479838
  0
ARC
  5
498
100
AcDbEntity
  8
7_ALL_FEATURES
100
AcDbCircle
 62
7
  6
CONTINUOUS
 10
450.4582696678
 20
190.2844703236
 40
12.5828828758
100
AcDbArc
 50
0.0114298794
 51
6.9312479838
  0
ARC
  5
499
100
AcDbEntity
  8
7_ALL_FEATURES
100
AcDbCircle
 62
9
  6
CONTINUOUS
 10
448.049896929
 20
246.3187126081
 40
12.4979599707
100
AcDbArc
 50
8.9525037202
 51
14.4297318041
  0
ARC
  5
49A
100
AcDbEntity
  8
7_ALL_FEATURES
100
AcDbCircle
 62
9
  6
CONTINUOUS
 10
448.3742531126
 20
246.3765119578
 40
12.1685625154
100
AcDbArc
 50
8.5244105504
 51
8.9213318818
  0
ARC
  5
49B
100
AcDbEntity
  8
7_ALL_FEATURES
100
AcDbCircle
 62
9
  6
CONTINUOUS
 10
448.4626945062
 20
246.389274056
 40
12.0792064258
100
AcDbArc
 50
5.8733476167
 51
8.5267282527
  0
ARC
  5
49C
100
AcDbEntity
  8
7_ALL_FEATURES
100
AcDbCircle
 62
7
  6
CONTINUOUS
 10
449.5169558988
 20
246.3801513473
 40
11.0253520992
100
AcDbArc
 50
4.6672769026
 51
9.8337452814
  0
ARC
  5
49D
100
AcDbEntity
  8
7_ALL_FEATURES
100
AcDbCircle
 62
9
  6
CONTINUOUS
 10
472.8019737042
 20
251.343885414
 40
5.1747262318
100
AcDbArc
 50
298.2018259289
 51
299.5055854721
  0
ARC
  5
49E
100
AcDbEntity
  8
7_ALL_FEATURES
100
AcDbCircle
 62
9
  6
CONTINUOUS
 10
469.2803632019
 20
251.3437445369
 40
5.1745653729
100
AcDbArc
 50
240.4929018203
 51
241.7980369046
  0
ARC
  5
49F
100
AcDbEntity
  8
3_ALL_AXES
100
AcDbCircle
 62
7
  6
CONTINUOUS
 10
467.5779854365
 20
247.6935012589
 40
1.8251271355
100
AcDbArc
 50
148.0289339293
 51
149.5949858587
  0
ARC
  5
4A0
100
AcDbEntity
  8
3_ALL_AXES
100
AcDbCircle
 62
7
  6
CONTINUOUS
 10
474.5044291176
 20
247.6935012592
 40
1.8251271348
100
AcDbArc
 50
30.4050141411
 51
31.9710660711
  0
ARC
  5
4A1
100
AcDbEntity
  8
3_ALL_AXES
100
AcDbCircle
 62
7
  6
CONTINUOUS
 10
467.3142819737
 20
248.7451143247
 40
1.2730754911
100
AcDbArc
 50
180.0639941977
 51
191.5292958569
  0
ARC
  5
4A2
100
AcDbEntity
  8
3_ALL_AXES
100
AcDbCircle
 62
7
  6
CONTINUOUS
 10
474.7681453483
 20
248.7451117379
 40
1.2730627197
100
AcDbArc
 50
348.4707050874
 51
359.9361215818
  0
ARC
  5
4A3
100
AcDbEntity
  8
7_ALL_FEATURES
100
AcDbCircle
 62
9
  6
CONTINUOUS
 10
415.8315000278
 20
336.4988461428
 40
124.1730935484
100
AcDbArc
 50
281.0591475144
 51
281.4604612061
  0
ARC
  5
4A4
100
AcDbEntity
  8
7_ALL_FEATURES
100
AcDbCircle
 62
9
  6
CONTINUOUS
 10
415.8340198021
 20
336.2667003516
 40
123.7583254146
100
AcDbArc
 50
281.0759929656
 51
281.4786152532
  0
ARC
  5
4A5
100
AcDbEntity
  8
7_ALL_FEATURES
100
AcDbCircle
 62
9
  6
CONTINUOUS
 10
416.4762008504
 20
333.3793049613
 40
120.9876535396
100
AcDbArc
 50
281.454768929
 51
282.7876329655
  0
ARC
  5
4A6
100
AcDbEntity
  8
7_ALL_FEATURES
100
AcDbCircle
 62
9
  6
CONTINUOUS
 10
416.4809528105
 20
333.1415459444
 40
120.5669365997
100
AcDbArc
 50
281.4728740318
 51
282.8101341493
  0
ARC
  5
4A7
100
AcDbEntity
  8
7_ALL_FEATURES
100
AcDbCircle
 62
9
  6
CONTINUOUS
 10
416.9553486455
 20
331.2491376892
 40
118.8042669382
100
AcDbArc
 50
282.7896697968
 51
282.9500264885
  0
ARC
  5
4A8
100
AcDbEntity
  8
7_ALL_FEATURES
100
AcDbCircle
 62
9
  6
CONTINUOUS
 10
416.9617887069
 20
331.0077256074
 40
118.3796153982
100
AcDbArc
 50
282.8121886133
 51
282.9730883421
  0
ARC
  5
4A9
100
AcDbEntity
  8
7_ALL_FEATURES
100
AcDbCircle
 62
9
  6
CONTINUOUS
 10
417.065204117
 20
330.7711362597
 40
118.313804312
100
AcDbArc
 50
282.9500551864
 51
283.0680456668
  0
ARC
  5
4AA
100
AcDbEntity
  8
7_ALL_FEATURES
100
AcDbCircle
 62
9
  6
CONTINUOUS
 10
417.0720323535
 20
330.5289171865
 40
117.8882792993
100
AcDbArc
 50
282.9731172946
 51
283.0915042423
  0
ARC
  5
4AB
100
AcDbEntity
  8
7_ALL_FEATURES
100
AcDbCircle
 62
9
  6
CONTINUOUS
 10
449.3014915655
 20
261.4034380339
 40
43.7119732292
100
AcDbArc
 50
310.2667502006
 51
310.8922179473
  0
ARC
  5
4AC
100
AcDbEntity
  8
7_ALL_FEATURES
100
AcDbCircle
 62
9
  6
CONTINUOUS
 10
449.3838920332
 20
261.1901609782
 40
43.7021021104
100
AcDbArc
 50
310.3442370968
 51
310.8924909896
  0
ARC
  5
4AD
100
AcDbEntity
  8
7_ALL_FEATURES
100
AcDbCircle
 62
7
  6
CONTINUOUS
 10
449.605145666
 20
260.2101616844
 40
43.266576726
100
AcDbArc
 50
310.8932757043
 51
311.1046862018
  0
ARC
  5
4AE
100
AcDbEntity
  8
7_ALL_FEATURES
100
AcDbCircle
 62
7
  6
CONTINUOUS
 10
449.9244174147
 20
259.844839716
 40
42.7814020876
100
AcDbArc
 50
311.1041529038
 51
311.6000639587
  0
ARC
  5
4AF
100
AcDbEntity
  8
7_ALL_FEATURES
100
AcDbCircle
 62
9
  6
CONTINUOUS
 10
436.3015366531
 20
257.8857246156
 40
27.967856171
100
AcDbArc
 50
310.3165809343
 51
310.8923927424
  0
ARC
  5
4B0
100
AcDbEntity
  8
7_ALL_FEATURES
100
AcDbCircle
 62
7
  6
CONTINUOUS
 10
436.645636845
 20
257.055335189
 40
26.9422011483
100
AcDbArc
 50
310.8924159244
 51
311.4919060824
  0
ARC
  5
4B1
100
AcDbEntity
  8
7_ALL_FEATURES
100
AcDbCircle
 62
7
  6
CONTINUOUS
 10
439.2532307394
 20
252.8492479989
 40
22.0926563349
100
AcDbArc
 50
316.0260161622
 51
318.0129952044
  0
ARC
  5
4B2
100
AcDbEntity
  8
7_ALL_FEATURES
100
AcDbCircle
 62
7
  6
CONTINUOUS
 10
441.69773925
 20
278.0746456652
 40
4.7318277258
100
AcDbArc
 50
273.3223031293
 51
280.1122983741
  0
ARC
  5
4B3
100
AcDbEntity
  8
7_ALL_FEATURES
100
AcDbCircle
 62
7
  6
CONTINUOUS
 10
439.9328422412
 20
273.218268269
 40
0.829245766
100
AcDbArc
 50
272.7046330282
 51
280.21965225
  0
CIRCLE
  5
4B4
100
AcDbEntity
  8
7_ALL_FEATURES
100
AcDbCircle
 62
9
  6
CONTINUOUS
 10
74.398197439
 20
110.5726012878
 40
5.75
  0
CIRCLE
  5
4B5
100
AcDbEntity
  8
7_ALL_FEATURES
100
AcDbCircle
 62
7
  6
CONTINUOUS
 10
74.398197439
 20
110.5726012878
 40
5.25
  0
CIRCLE
  5
4B6
100
AcDbEntity
  8
3_ALL_AXES
100
AcDbCircle
 62
7
  6
CONTINUOUS
 10
74.398197439
 20
110.5726012878
 40
5.0
  0
CIRCLE
  5
4B7
100
AcDbEntity
  8
7_ALL_FEATURES
100
AcDbCircle
 62
9
  6
CONTINUOUS
 10
161.398197439
 20
60.3431278683
 40
5.75
  0
CIRCLE
  5
4B8
100
AcDbEntity
  8
7_ALL_FEATURES
100
AcDbCircle
 62
7
  6
CONTINUOUS
 10
161.398197439
 20
60.3431278683
 40
5.25
  0
CIRCLE
  5
4B9
100
AcDbEntity
  8
3_ALL_AXES
100
AcDbCircle
 62
7
  6
CONTINUOUS
 10
161.398197439
 20
60.3431278683
 40
5.0
  0
CIRCLE
  5
4BA
100
AcDbEntity
  8
7_ALL_FEATURES
100
AcDbCircle
 62
7
  6
CONTINUOUS
 10
132.398197439
 20
110.5726012878
 40
75.0
  0
CIRCLE
  5
4BB
100
AcDbEntity
  8
7_ALL_FEATURES
100
AcDbCircle
 62
9
  6
CONTINUOUS
 10
132.398197439
 20
110.5726012878
 40
74.9121320344
  0
CIRCLE
  5
4BC
100
AcDbEntity
  8
7_ALL_FEATURES
100
AcDbCircle
 62
9
  6
CONTINUOUS
 10
132.398197439
 20
110.5726012878
 40
73.0878679656
  0
CIRCLE
  5
4BD
100
AcDbEntity
  8
7_ALL_FEATURES
100
AcDbCircle
 62
9
  6
CONTINUOUS
 10
132.398197439
 20
110.5726012878
 40
72.8757359313
  0
CIRCLE
  5
4BE
100
AcDbEntity
  8
7_ALL_FEATURES
100
AcDbCircle
 62
9
  6
CONTINUOUS
 10
132.398197439
 20
110.5726012878
 40
48.0
  0
CIRCLE
  5
4BF
100
AcDbEntity
  8
7_ALL_FEATURES
100
AcDbCircle
 62
7
  6
CONTINUOUS
 10
132.398197439
 20
110.5726012878
 40
47.5
  0
CIRCLE
  5
4C0
100
AcDbEntity
  8
7_ALL_FEATURES
100
AcDbCircle
 62
7
  6
CONTINUOUS
 10
132.398197439
 20
110.5726012878
 40
47.25
  0
CIRCLE
  5
4C1
100
AcDbEntity
  8
7_ALL_FEATURES
100
AcDbCircle
 62
7
  6
CONTINUOUS
 10
132.398197439
 20
110.5726012878
 40
46.7499955881
  0
CIRCLE
  5
4C2
100
AcDbEntity
  8
7_ALL_FEATURES
100
AcDbCircle
 62
9
  6
CONTINUOUS
 10
161.398197439
 20
160.8020747073
 40
5.75
  0
CIRCLE
  5
4C3
100
AcDbEntity
  8
7_ALL_FEATURES
100
AcDbCircle
 62
7
  6
CONTINUOUS
 10
161.398197439
 20
160.8020747073
 40
5.25
  0
CIRCLE
  5
4C4
100
AcDbEntity
  8
3_ALL_AXES
100
AcDbCircle
 62
7
  6
CONTINUOUS
 10
161.398197439
 20
160.8020747072
 40
5.0
  0
ARC
  5
4C5
100
AcDbEntity
  8
7_ALL_FEATURES
100
AcDbCircle
 62
7
  6
CONTINUOUS
 10
157.898197439
 20
253.7554579236
 40
3.5
100
AcDbArc
 50
270.0
 51
360.0
  0
ARC
  5
4C6
100
AcDbEntity
  8
7_ALL_FEATURES
100
AcDbCircle
 62
7
  6
CONTINUOUS
 10
146.898197439
 20
253.7554579236
 40
3.5
100
AcDbArc
 50
180.0
 51
270.0
  0
ARC
  5
4C7
100
AcDbEntity
  8
7_ALL_FEATURES
100
AcDbCircle
 62
7
  6
CONTINUOUS
 10
194.698197439
 20
374.4054579236
 40
0.3
100
AcDbArc
 50
90.0
 51
180.0
  0
ARC
  5
4C8
100
AcDbEntity
  8
7_ALL_FEATURES
100
AcDbCircle
 62
7
  6
CONTINUOUS
 10
70.098197439
 20
374.4054579236
 40
0.3
100
AcDbArc
 50
0.0
 51
90.0
  0
ARC
  5
4C9
100
AcDbEntity
  8
7_ALL_FEATURES
100
AcDbCircle
 62
7
  6
CONTINUOUS
 10
57.698197439
 20
375.0054579236
 40
0.3
100
AcDbArc
 50
180.0
 51
270.0
  0
ARC
  5
4CA
100
AcDbEntity
  8
7_ALL_FEATURES
100
AcDbCircle
 62
7
  6
CONTINUOUS
 10
207.098197439
 20
375.0054579236
 40
0.3
100
AcDbArc
 50
270.0
 51
360.0
  0
ARC
  5
4CB
100
AcDbEntity
  8
7_ALL_FEATURES
100
AcDbCircle
 62
7
  6
CONTINUOUS
 10
57.698197439
 20
375.5811938549
 40
0.3
100
AcDbArc
 50
135.0
 51
180.0
  0
ARC
  5
4CC
100
AcDbEntity
  8
7_ALL_FEATURES
100
AcDbCircle
 62
7
  6
CONTINUOUS
 10
207.098197439
 20
375.5811938549
 40
0.3
100
AcDbArc
 50
0.0
 51
45.0
  0
ARC
  5
4CD
100
AcDbEntity
  8
7_ALL_FEATURES
100
AcDbCircle
 62
7
  6
CONTINUOUS
 10
59.5224615077
 20
377.4054579236
 40
0.3
100
AcDbArc
 50
90.0
 51
135.0
  0
ARC
  5
4CE
100
AcDbEntity
  8
7_ALL_FEATURES
100
AcDbCircle
 62
7
  6
CONTINUOUS
 10
205.2739333703
 20
377.4054579236
 40
0.3
100
AcDbArc
 50
45.0
 51
90.0
  0
ARC
  5
4CF
100
AcDbEntity
  8
7_ALL_FEATURES
100
AcDbCircle
 62
7
  6
CONTINUOUS
 10
194.098197439
 20
368.0054579236
 40
0.3
100
AcDbArc
 50
270.0
 51
360.0
  0
ARC
  5
4D0
100
AcDbEntity
  8
7_ALL_FEATURES
100
AcDbCircle
 62
7
  6
CONTINUOUS
 10
70.698197439
 20
368.0054579236
 40
0.3
100
AcDbArc
 50
180.0
 51
270.0
  0
SPLINE
  5
4D1
100
AcDbEntity
  8
3_ALL_AXES
100
AcDbSpline
 62
7
  6
CONTINUOUS
 70
0
 71
3
 72
21
 73
17
 74
0
 42
0.0000001
 43
0.0000001
 44
0.0000000001
 40
0.0
 40
0.0
 40
0.0
 40
0.0
 40
0.1435471168
 40
0.2947069545
 40
0.3708180072
 40
0.4459547822
 40
0.5191747887
 40
0.5895943554
 40
0.6564235662
 40
0.7190062714
 40
0.7768660381
 40
0.8297645302
 40
0.8777799014
 40
0.9214055095
 40
0.9616394844
 40
1.0
 40
1.0
 40
1.0
 40
1.0
 10
386.5412072767
 20
276.0234926341
 30
0.0
 10
386.1467988929
 20
276.1373485274
 30
0.0
 10
385.3170879561
 20
276.304337533
 30
0.0
 10
384.2557966555
 20
276.3724550028
 30
0.0
 10
383.3909061295
 20
276.3443501084
 30
0.0
 10
382.751593186
 20
276.2811671772
 30
0.0
 10
382.1341359548
 20
276.1770997971
 30
0.0
 10
381.5489274294
 20
276.0338869135
 30
0.0
 10
381.005811137
 20
275.853935706
 30
0.0
 10
380.513837845
 20
275.6402439938
 30
0.0
 10
380.0811244261
 20
275.3962699011
 30
0.0
 10
379.7147534627
 20
275.1257531985
 30
0.0
 10
379.4208152821
 20
274.8325532452
 30
0.0
 10
379.2046712414
 20
274.520421603
 30
0.0
 10
379.0715473689
 20
274.1938814473
 30
0.0
 10
379.0412073656
 20
273.9681317835
 30
0.0
 10
379.0412072767
 20
273.8584291246
 30
0.0
  0
SPLINE
  5
4D2
100
AcDbEntity
  8
3_ALL_AXES
100
AcDbSpline
 62
7
  6
CONTINUOUS
 70
0
 71
3
 72
15
 73
11
 74
0
 42
0.0000001
 43
0.0000001
 44
0.0000000001
 40
0.0
 40
0.0
 40
0.0
 40
0.0
 40
0.1628131339
 40
0.3153385496
 40
0.4563057869
 40
0.5852018848
 40
0.7021972003
 40
0.8084954255
 40
0.906530262
 40
1.0
 40
1.0
 40
1.0
 40
1.0
 10
386.5412072767
 20
276.0234926341
 30
0.0
 10
386.7247995528
 20
275.9704941091
 30
0.0
 10
387.0766060807
 20
275.8539186307
 30
0.0
 10
387.56856448
 20
275.6402706533
 30
0.0
 10
388.0012947335
 20
275.3962553495
 30
0.0
 10
388.3676594589
 20
275.1257568713
 30
0.0
 10
388.661600749
 20
274.8325537807
 30
0.0
 10
388.8777421407
 20
274.5204207189
 30
0.0
 10
389.0108677795
 20
274.1938818136
 30
0.0
 10
389.0412073656
 20
273.968131757
 30
0.0
 10
389.0412072767
 20
273.8584291246
 30
0.0
  0
SPLINE
  5
4D3
100
AcDbEntity
  8
3_ALL_AXES
100
AcDbSpline
 62
7
  6
CONTINUOUS
 70
0
 71
3
 72
11
 73
7
 74
0
 42
0.0000001
 43
0.0000001
 44
0.0000000001
 40
0.0
 40
0.0
 40
0.0
 40
0.0
 40
0.2186095305
 40
0.4516980866
 40
0.7101466847
 40
1.0
 40
1.0
 40
1.0
 40
1.0
 10
389.0412072767
 20
273.5986215035
 30
0.0
 10
389.0412071721
 20
273.4693927989
 30
0.0
 10
388.9983581657
 20
273.2008590493
 30
0.0
 10
388.8128608487
 20
272.8189234589
 30
0.0
 10
388.5155719665
 20
272.4608521108
 30
0.0
 10
388.2635812665
 20
272.2541754881
 30
0.0
 10
388.1236802936
 20
272.1552493264
 30
0.0
  0
SPLINE
  5
4D4
100
AcDbEntity
  8
3_ALL_AXES
100
AcDbSpline
 62
7
  6
CONTINUOUS
 70
0
 71
3
 72
11
 73
7
 74
0
 42
0.0000001
 43
0.0000001
 44
0.0000000001
 40
0.0
 40
0.0
 40
0.0
 40
0.0
 40
0.2186083343
 40
0.4516958794
 40
0.7101409835
 40
1.0
 40
1.0
 40
1.0
 40
1.0
 10
379.0412072767
 20
273.5986215035
 30
0.0
 10
379.0412071721
 20
273.469393316
 30
0.0
 10
379.0840555568
 20
273.2008601672
 30
0.0
 10
379.269553116
 20
272.8189283005
 30
0.0
 10
379.5668370396
 20
272.4608507163
 30
0.0
 10
379.8188344085
 20
272.2541786783
 30
0.0
 10
379.9587386625
 20
272.1552508829
 30
0.0
  0
SPLINE
  5
4D5
100
AcDbEntity
  8
3_ALL_AXES
100
AcDbSpline
 62
7
  6
CONTINUOUS
 70
0
 71
3
 72
9
 73
5
 74
0
 42
0.0000001
 43
0.0000001
 44
0.0000000001
 40
0.0
 40
0.0
 40
0.0
 40
0.0
 40
0.4721706647
 40
1.0
 40
1.0
 40
1.0
 40
1.0
 10
388.1236802936
 20
272.1552493264
 30
0.0
 10
387.9280294748
 20
272.0169015784
 30
0.0
 10
387.4841462676
 20
271.7651552389
 30
0.0
 10
387.0095895873
 20
271.5811598044
 30
0.0
 10
386.7546936295
 20
271.4988054531
 30
0.0
  0
SPLINE
  5
4D6
100
AcDbEntity
  8
3_ALL_AXES
100
AcDbSpline
 62
7
  6
CONTINUOUS
 70
0
 71
3
 72
11
 73
7
 74
0
 42
0.0000001
 43
0.0000001
 44
0.0000000001
 40
0.0
 40
0.0
 40
0.0
 40
0.0
 40
0.2435339888
 40
0.4999999115
 40
0.7564578304
 40
1.0
 40
1.0
 40
1.0
 40
1.0
 10
386.5412072767
 20
271.433557994
 30
0.0
 10
386.1468121698
 20
271.319705827
 30
0.0
 10
385.3170453592
 20
271.1527056566
 30
0.0
 10
384.0412210813
 20
271.0708837501
 30
0.0
 10
382.7653812022
 20
271.1526927967
 30
0.0
 10
381.9356156605
 20
271.3197021008
 30
0.0
 10
381.5412072767
 20
271.433557994
 30
0.0
  0
SPLINE
  5
4D7
100
AcDbEntity
  8
3_ALL_AXES
100
AcDbSpline
 62
7
  6
CONTINUOUS
 70
0
 71
3
 72
14
 73
10
 74
0
 42
0.0000001
 43
0.0000001
 44
0.0000000001
 40
0.0
 40
0.0
 40
0.0
 40
0.0
 40
0.0946720794
 40
0.1954595141
 40
0.3045983886
 40
0.423466681
 40
0.5526926259
 40
0.6922829631
 40
1.0
 40
1.0
 40
1.0
 40
1.0
 10
389.0155207656
 20
273.6054027691
 30
0.0
 10
388.995820723
 20
273.508563617
 30
0.0
 10
388.9320608385
 20
273.3128020196
 30
0.0
 10
388.7738354991
 20
273.034989402
 30
0.0
 10
388.5540556102
 20
272.7694538901
 30
0.0
 10
388.2761410339
 20
272.5191908533
 30
0.0
 10
387.9437103063
 20
272.2868560508
 30
0.0
 10
387.4163482157
 20
271.9952732665
 30
0.0
 10
386.9778274262
 20
271.8270343946
 30
0.0
 10
386.6709561937
 20
271.7321424393
 30
0.0
  0
SPLINE
  5
4D8
100
AcDbEntity
  8
3_ALL_AXES
100
AcDbSpline
 62
7
  6
CONTINUOUS
 70
0
 71
3
 72
11
 73
7
 74
0
 42
0.0000001
 43
0.0000001
 44
0.0000000001
 40
0.0
 40
0.0
 40
0.0
 40
0.0
 40
0.2435339888
 40
0.4999999115
 40
0.7564578304
 40
1.0
 40
1.0
 40
1.0
 40
1.0
 10
386.5412072767
 20
271.6933656152
 30
0.0
 10
386.1468121698
 20
271.5795134481
 30
0.0
 10
385.3170453592
 20
271.4125132777
 30
0.0
 10
384.0412210813
 20
271.3306913712
 30
0.0
 10
382.7653812022
 20
271.4125004179
 30
0.0
 10
381.9356156605
 20
271.5795097219
 30
0.0
 10
381.5412072767
 20
271.6933656152
 30
0.0
  0
SPLINE
  5
4D9
100
AcDbEntity
  8
3_ALL_AXES
100
AcDbSpline
 62
7
  6
CONTINUOUS
 70
0
 71
3
 72
14
 73
10
 74
0
 42
0.0000001
 43
0.0000001
 44
0.0000000001
 40
0.0
 40
0.0
 40
0.0
 40
0.0
 40
0.0938252347
 40
0.1939926572
 40
0.3028197168
 40
0.4216971308
 40
0.5511961347
 40
0.6912343894
 40
1.0
 40
1.0
 40
1.0
 40
1.0
 10
379.0668935288
 20
273.6054027555
 30
0.0
 10
379.087260215
 20
273.5052866427
 30
0.0
 10
379.1541071834
 20
273.3027503767
 30
0.0
 10
379.3210579383
 20
273.0161781151
 30
0.0
 10
379.5534287549
 20
272.7430264413
 30
0.0
 10
379.8474117396
 20
272.4865598275
 30
0.0
 10
380.1989086554
 20
272.2496314349
 30
0.0
 10
380.7560165424
 20
271.9542797038
 30
0.0
 10
381.2181811524
 20
271.7866152251
 30
0.0
 10
381.5412072767
 20
271.6933656152
 30
0.0
  0
SPLINE
  5
4DA
100
AcDbEntity
  8
3_ALL_AXES
100
AcDbSpline
 62
7
  6
CONTINUOUS
 70
0
 71
3
 72
9
 73
5
 74
0
 42
0.0000001
 43
0.0000001
 44
0.0000000001
 40
0.0
 40
0.0
 40
0.0
 40
0.0
 40
0.4695010822
 40
1.0
 40
1.0
 40
1.0
 40
1.0
 10
379.9587386625
 20
272.1552508829
 30
0.0
 10
380.1817369875
 20
271.9975663805
 30
0.0
 10
380.695011576
 20
271.7154031144
 30
0.0
 10
381.2447139759
 20
271.5191482376
 30
0.0
 10
381.5412072767
 20
271.433557994
 30
0.0
  0
SPLINE
  5
4DB
100
AcDbEntity
  8
3_ALL_AXES
100
AcDbSpline
 62
7
  6
CONTINUOUS
 70
0
 71
3
 72
11
 73
7
 74
0
 42
0.0000001
 43
0.0000001
 44
0.0000000001
 40
0.0
 40
0.0
 40
0.0
 40
0.0
 40
0.2898533153
 40
0.5483019134
 40
0.7813904695
 40
1.0
 40
1.0
 40
1.0
 40
1.0
 10
466.9587342599
 20
247.0405126166
 30
0.0
 10
466.818833287
 20
247.1394387784
 30
0.0
 10
466.566842587
 20
247.346115401
 30
0.0
 10
466.2695537047
 20
247.7041867492
 30
0.0
 10
466.0840563878
 20
248.0861223395
 30
0.0
 10
466.0412073814
 20
248.3546560891
 30
0.0
 10
466.0412072767
 20
248.4838847938
 30
0.0
  0
SPLINE
  5
4DC
100
AcDbEntity
  8
3_ALL_AXES
100
AcDbSpline
 62
7
  6
CONTINUOUS
 70
0
 71
3
 72
15
 73
11
 74
0
 42
0.0000001
 43
0.0000001
 44
0.0000000001
 40
0.0
 40
0.0
 40
0.0
 40
0.0
 40
0.093469738
 40
0.1915045745
 40
0.2978027997
 40
0.4147981152
 40
0.5436942131
 40
0.6846614504
 40
0.8371868661
 40
1.0
 40
1.0
 40
1.0
 40
1.0
 10
466.0412072767
 20
248.7436924149
 30
0.0
 10
466.0412071879
 20
248.8533950472
 30
0.0
 10
466.071546774
 20
249.0791451038
 30
0.0
 10
466.2046724128
 20
249.4056840091
 30
0.0
 10
466.4208138045
 20
249.7178170709
 30
0.0
 10
466.7147550945
 20
250.0110201616
 30
0.0
 10
467.0811198199
 20
250.2815186398
 30
0.0
 10
467.5138500735
 20
250.5255339435
 30
0.0
 10
468.0058084727
 20
250.7391819209
 30
0.0
 10
468.3576150007
 20
250.8557573994
 30
0.0
 10
468.5412072767
 20
250.9087559244
 30
0.0
  0
SPLINE
  5
4DD
100
AcDbEntity
  8
3_ALL_AXES
100
AcDbSpline
 62
7
  6
CONTINUOUS
 70
0
 71
3
 72
21
 73
17
 74
0
 42
0.0000001
 43
0.0000001
 44
0.0000000001
 40
0.0
 40
0.0
 40
0.0
 40
0.0
 40
0.0383605156
 40
0.0785944905
 40
0.1222200986
 40
0.1702354698
 40
0.2231339619
 40
0.2809937286
 40
0.3435764338
 40
0.4104056446
 40
0.4808252113
 40
0.5540452178
 40
0.6291819928
 40
0.7052930455
 40
0.8564528832
 40
1.0
 40
1.0
 40
1.0
 40
1.0
 10
476.0412072767
 20
248.7436924149
 30
0.0
 10
476.0412071879
 20
248.8533950737
 30
0.0
 10
476.0108671846
 20
249.0791447375
 30
0.0
 10
475.8777433121
 20
249.4056848932
 30
0.0
 10
475.6615992714
 20
249.7178165354
 30
0.0
 10
475.3676610908
 20
250.0110164887
 30
0.0
 10
475.0012901274
 20
250.2815331913
 30
0.0
 10
474.5685767085
 20
250.525507284
 30
0.0
 10
474.0766034165
 20
250.7391989962
 30
0.0
 10
473.533487124
 20
250.9191502038
 30
0.0
 10
472.9482785987
 20
251.0623630873
 30
0.0
 10
472.3308213675
 20
251.1664304675
 30
0.0
 10
471.6915084239
 20
251.2296133986
 30
0.0
 10
470.8266178979
 20
251.257718293
 30
0.0
 10
469.7653265973
 20
251.1896008233
 30
0.0
 10
468.9356156605
 20
251.0226118176
 30
0.0
 10
468.5412072767
 20
250.9087559244
 30
0.0
  0
SPLINE
  5
4DE
100
AcDbEntity
  8
3_ALL_AXES
100
AcDbSpline
 62
7
  6
CONTINUOUS
 70
0
 71
3
 72
11
 73
7
 74
0
 42
0.0000001
 43
0.0000001
 44
0.0000000001
 40
0.0
 40
0.0
 40
0.0
 40
0.0
 40
0.2898590165
 40
0.5483041206
 40
0.7813916657
 40
1.0
 40
1.0
 40
1.0
 40
1.0
 10
475.123675891
 20
247.0405141732
 30
0.0
 10
475.263580145
 20
247.1394419685
 30
0.0
 10
475.5155775138
 20
247.3461140066
 30
0.0
 10
475.8128614374
 20
247.7041915908
 30
0.0
 10
475.9983589967
 20
248.0861234575
 30
0.0
 10
476.0412073814
 20
248.3546566063
 30
0.0
 10
476.0412072767
 20
248.4838847938
 30
0.0
  0
SPLINE
  5
4DF
100
AcDbEntity
  8
3_ALL_AXES
100
AcDbSpline
 62
7
  6
CONTINUOUS
 70
0
 71
3
 72
14
 73
10
 74
0
 42
0.0000001
 43
0.0000001
 44
0.0000000001
 40
0.0
 40
0.0
 40
0.0
 40
0.0
 40
0.3087656106
 40
0.4488038653
 40
0.5783028692
 40
0.6971802832
 40
0.8060073428
 40
0.9061747653
 40
1.0
 40
1.0
 40
1.0
 40
1.0
 10
473.5412072767
 20
246.5786289054
 30
0.0
 10
473.8642334011
 20
246.6718785154
 30
0.0
 10
474.3263980111
 20
246.8395429941
 30
0.0
 10
474.8835058981
 20
247.1348947252
 30
0.0
 10
475.2350028139
 20
247.3718231178
 30
0.0
 10
475.5289857986
 20
247.6282897315
 30
0.0
 10
475.7613566152
 20
247.9014414053
 30
0.0
 10
475.9283073701
 20
248.1880136669
 30
0.0
 10
475.9951543384
 20
248.390549933
 30
0.0
 10
476.0155210246
 20
248.4906660458
 30
0.0
  0
SPLINE
  5
4E0
100
AcDbEntity
  8
3_ALL_AXES
100
AcDbSpline
 62
7
  6
CONTINUOUS
 70
0
 71
3
 72
9
 73
5
 74
0
 42
0.0000001
 43
0.0000001
 44
0.0000000001
 40
0.0
 40
0.0
 40
0.0
 40
0.0
 40
0.5304989178
 40
1.0
 40
1.0
 40
1.0
 40
1.0
 10
473.5412072767
 20
246.3188212843
 30
0.0
 10
473.8377005775
 20
246.4044115278
 30
0.0
 10
474.3874029775
 20
246.6006664047
 30
0.0
 10
474.9006775659
 20
246.8828296707
 30
0.0
 10
475.123675891
 20
247.0405141732
 30
0.0
  0
SPLINE
  5
4E1
100
AcDbEntity
  8
3_ALL_AXES
100
AcDbSpline
 62
7
  6
CONTINUOUS
 70
0
 71
3
 72
18
 73
14
 74
0
 42
0.0000001
 43
0.0000001
 44
0.0000000001
 40
0.0
 40
0.0
 40
0.0
 40
0.0
 40
0.140564687
 40
0.2885673905
 40
0.4372794569
 40
0.579871074
 40
0.7102217136
 40
0.769375919
 40
0.8239838416
 40
0.8739501039
 40
0.9194782433
 40
0.961151788
 40
1.0
 40
1.0
 40
1.0
 40
1.0
 10
473.5412072767
 20
246.5786289054
 30
0.0
 10
473.1665021232
 20
246.4704608448
 30
0.0
 10
472.3791452858
 20
246.3087259403
 30
0.0
 10
471.1663391365
 20
246.2192777983
 30
0.0
 10
469.9456505331
 20
246.2786280708
 30
0.0
 10
468.7905656771
 20
246.4832077843
 30
0.0
 10
467.9111256377
 20
246.7733026372
 30
0.0
 10
467.3029696694
 20
247.0737723794
 30
0.0
 10
466.9185905548
 20
247.3177980772
 30
0.0
 10
466.5968402856
 20
247.5842707802
 30
0.0
 10
466.3426516711
 20
247.8699324211
 30
0.0
 10
466.1605629913
 20
248.1710916943
 30
0.0
 10
466.0883808115
 20
248.3850426759
 30
0.0
 10
466.0668937879
 20
248.4906660594
 30
0.0
  0
SPLINE
  5
4E2
100
AcDbEntity
  8
3_ALL_AXES
100
AcDbSpline
 62
7
  6
CONTINUOUS
 70
0
 71
3
 72
15
 73
11
 74
0
 42
0.0000001
 43
0.0000001
 44
0.0000000001
 40
0.0
 40
0.0
 40
0.0
 40
0.0
 40
0.1264512942
 40
0.2590355514
 40
0.394490634
 40
0.5293625771
 40
0.6602410932
 40
0.7839623156
 40
0.8978492212
 40
1.0
 40
1.0
 40
1.0
 40
1.0
 10
473.5412072767
 20
246.3188212843
 30
0.0
 10
473.2656451562
 20
246.2392733521
 30
0.0
 10
472.6913532196
 20
246.1090935717
 30
0.0
 10
471.8021274522
 20
245.9988113913
 30
0.0
 10
470.8873635051
 20
245.9710210386
 30
0.0
 10
469.9777633172
 20
246.0267303934
 30
0.0
 10
469.1036872452
 20
246.1640039005
 30
0.0
 10
468.2940365015
 20
246.3783050409
 30
0.0
 10
467.5756628948
 20
246.6623727967
 30
0.0
 10
467.1479126553
 20
246.9067416202
 30
0.0
 10
466.9587342599
 20
247.0405126166
 30
0.0
  0
SPLINE
  5
4E3
100
AcDbEntity
  8
7_ALL_FEATURES
100
AcDbSpline
 62
7
  6
CONTINUOUS
 70
0
 71
3
 72
11
 73
7
 74
0
 42
0.0000001
 43
0.0000001
 44
0.0000000001
 40
0.0
 40
0.0
 40
0.0
 40
0.0
 40
0.2898605367
 40
0.5482781179
 40
0.7814573572
 40
1.0
 40
1.0
 40
1.0
 40
1.0
 10
386.082437318
 20
197.3595224904
 30
0.0
 10
386.152383756
 20
197.4089944025
 30
0.0
 10
386.2783815034
 20
197.5123114626
 30
0.0
 10
386.4270601388
 20
197.6913548024
 30
0.0
 10
386.5197343111
 20
197.8823505999
 30
0.0
 10
386.5412072767
 20
198.0166119681
 30
0.0
 10
386.5412072767
 20
198.0812062935
 30
0.0
  0
SPLINE
  5
4E4
100
AcDbEntity
  8
3_ALL_AXES
100
AcDbSpline
 62
7
  6
CONTINUOUS
 70
0
 71
3
 72
11
 73
7
 74
0
 42
0.0000001
 43
0.0000001
 44
0.0000000001
 40
0.0
 40
0.0
 40
0.0
 40
0.0
 40
0.2185981726
 40
0.4517031487
 40
0.7101444414
 40
1.0
 40
1.0
 40
1.0
 40
1.0
 10
379.0412072767
 20
223.369148084
 30
0.0
 10
379.0412072767
 20
223.2399262148
 30
0.0
 10
379.084068084
 20
222.9713937274
 30
0.0
 10
379.269537057
 20
222.5894455633
 30
0.0
 10
379.5668523987
 20
222.2313858085
 30
0.0
 10
379.8188305551
 20
222.0247018516
 30
0.0
 10
379.9587327247
 20
221.9257753641
 30
0.0
  0
SPLINE
  5
4E5
100
AcDbEntity
  8
3_ALL_AXES
100
AcDbSpline
 62
7
  6
CONTINUOUS
 70
0
 71
3
 72
28
 73
24
 74
0
 42
0.0000001
 43
0.0000001
 44
0.0000000001
 40
0.0
 40
0.0
 40
0.0
 40
0.0
 40
0.0203454251
 40
0.0412761688
 40
0.0866156246
 40
0.111849776
 40
0.1390033821
 40
0.1681407859
 40
0.1992476878
 40
0.2493902242
 40
0.3032755996
 40
0.3602138553
 40
0.4193755883
 40
0.5405482541
 40
0.6591148502
 40
0.7151220761
 40
0.7678284314
 40
0.8166020588
 40
0.8610309039
 40
0.90100668
 40
0.9368314427
 40
0.9693534492
 40
1.0
 40
1.0
 40
1.0
 40
1.0
 10
379.0412072767
 20
223.6289557051
 30
0.0
 10
379.0412072767
 20
223.7110037294
 30
0.0
 10
379.0578917168
 20
223.8779035601
 30
0.0
 10
379.1588920476
 20
224.2141537617
 30
0.0
 10
379.3604560829
 20
224.5319949946
 30
0.0
 10
379.6330060251
 20
224.8171848565
 30
0.0
 10
379.8868796598
 20
225.0273312673
 30
0.0
 10
380.1801653162
 20
225.2236725636
 30
0.0
 10
380.5709583729
 20
225.4379060107
 30
0.0
 10
381.0733497758
 20
225.6520056475
 30
0.0
 10
381.6936273819
 20
225.8463907178
 30
0.0
 10
382.3639842176
 20
225.9936184886
 30
0.0
 10
383.3128009792
 20
226.1236968633
 30
0.0
 10
384.5223479411
 20
226.1522987252
 30
0.0
 10
385.7113951393
 20
226.0085133359
 30
0.0
 10
386.601766321
 20
225.7866805618
 30
0.0
 10
387.2024714299
 20
225.5773933645
 30
0.0
 10
387.7361010489
 20
225.3265376478
 30
0.0
 10
388.1916973221
 20
225.0390391438
 30
0.0
 10
388.5598922453
 20
224.7201353488
 30
0.0
 10
388.8327326107
 20
224.3748052295
 30
0.0
 10
389.0022002251
 20
224.00863924
 30
0.0
 10
389.0412072767
 20
223.7525455995
 30
0.0
 10
389.0412072767
 20
223.6289557051
 30
0.0
  0
SPLINE
  5
4E6
100
AcDbEntity
  8
7_ALL_FEATURES
100
AcDbSpline
 62
7
  6
CONTINUOUS
 70
0
 71
3
 72
15
 73
11
 74
0
 42
0.0000001
 43
0.0000001
 44
0.0000000001
 40
0.0
 40
0.0
 40
0.0
 40
0.0
 40
0.1068146009
 40
0.2285626995
 40
0.3613636034
 40
0.5
 40
0.6386363966
 40
0.7714373005
 40
0.8931853991
 40
1.0
 40
1.0
 40
1.0
 40
1.0
 10
382.4084256292
 20
197.070703432
 30
0.0
 10
382.507802511
 20
197.0004419833
 30
0.0
 10
382.7394902268
 20
196.8768187708
 30
0.0
 10
383.1317071849
 20
196.7472025032
 30
0.0
 10
383.5736831457
 20
196.6663554734
 30
0.0
 10
384.0412072767
 20
196.6389174242
 30
0.0
 10
384.5087314078
 20
196.6663554734
 30
0.0
 10
384.9507073686
 20
196.7472025032
 30
0.0
 10
385.3429243267
 20
196.8768187708
 30
0.0
 10
385.5746120424
 20
197.0004419833
 30
0.0
 10
385.6739889242
 20
197.070703432
 30
0.0
  0
SPLINE
  5
4E7
100
AcDbEntity
  8
7_ALL_FEATURES
100
AcDbSpline
 62
7
  6
CONTINUOUS
 70
0
 71
3
 72
11
 73
7
 74
0
 42
0.0000001
 43
0.0000001
 44
0.0000000001
 40
0.0
 40
0.0
 40
0.0
 40
0.0
 40
0.2185426428
 40
0.4517218821
 40
0.7101394633
 40
1.0
 40
1.0
 40
1.0
 40
1.0
 10
381.5412072767
 20
198.0812062935
 30
0.0
 10
381.5412072767
 20
198.0166119681
 30
0.0
 10
381.5626802424
 20
197.8823505999
 30
0.0
 10
381.6553544147
 20
197.6913548024
 30
0.0
 10
381.8040330501
 20
197.5123114626
 30
0.0
 10
381.9300307975
 20
197.4089944025
 30
0.0
 10
381.9999772355
 20
197.3595224904
 30
0.0
  0
SPLINE
  5
4E8
100
AcDbEntity
  8
3_ALL_AXES
100
AcDbSpline
 62
7
  6
CONTINUOUS
 70
0
 71
3
 72
11
 73
7
 74
0
 42
0.0000001
 43
0.0000001
 44
0.0000000001
 40
0.0
 40
0.0
 40
0.0
 40
0.0
 40
0.2898555586
 40
0.5482968513
 40
0.7814018274
 40
1.0
 40
1.0
 40
1.0
 40
1.0
 10
388.1236818287
 20
221.9257753641
 30
0.0
 10
388.2635839984
 20
222.0247018516
 30
0.0
 10
388.5155621548
 20
222.2313858085
 30
0.0
 10
388.8128774965
 20
222.5894455633
 30
0.0
 10
388.9983464694
 20
222.9713937274
 30
0.0
 10
389.0412072767
 20
223.2399262148
 30
0.0
 10
389.0412072767
 20
223.369148084
 30
0.0
  0
SPLINE
  5
4E9
100
AcDbEntity
  8
3_ALL_AXES
100
AcDbSpline
 62
7
  6
CONTINUOUS
 70
0
 71
3
 72
9
 73
5
 74
0
 42
0.0000001
 43
0.0000001
 44
0.0000000001
 40
0.0
 40
0.0
 40
0.0
 40
0.0
 40
0.4721702439
 40
1.0
 40
1.0
 40
1.0
 40
1.0
 10
379.9587327247
 20
221.9257753641
 30
0.0
 10
380.154383836
 20
221.7874281372
 30
0.0
 10
380.5982680588
 20
221.5356831617
 30
0.0
 10
381.0728244923
 20
221.3516863219
 30
0.0
 10
381.3277208458
 20
221.2693319496
 30
0.0
  0
SPLINE
  5
4EA
100
AcDbEntity
  8
3_ALL_AXES
100
AcDbSpline
 62
7
  6
CONTINUOUS
 70
0
 71
3
 72
15
 73
11
 74
0
 42
0.0000001
 43
0.0000001
 44
0.0000000001
 40
0.0
 40
0.0
 40
0.0
 40
0.0
 40
0.1264492412
 40
0.2590365775
 40
0.3944903762
 40
0.5293627882
 40
0.6602411928
 40
0.7839624571
 40
0.8978493797
 40
1.0
 40
1.0
 40
1.0
 40
1.0
 10
381.5412072767
 20
221.2040845746
 30
0.0
 10
381.8167649815
 20
221.1245379914
 30
0.0
 10
382.3910597163
 20
220.9943605447
 30
0.0
 10
383.2802842376
 20
220.8840711734
 30
0.0
 10
384.1950537125
 20
220.856286699
 30
0.0
 10
385.1046520163
 20
220.9119925638
 30
0.0
 10
385.9787288668
 20
221.0492681627
 30
0.0
 10
386.7883799048
 20
221.2635682401
 30
0.0
 10
387.5067526363
 20
221.5476377969
 30
0.0
 10
387.9345033688
 20
221.792005026
 30
0.0
 10
388.1236818287
 20
221.9257753641
 30
0.0
  0
SPLINE
  5
4EB
100
AcDbEntity
  8
3_ALL_AXES
100
AcDbSpline
 62
7
  6
CONTINUOUS
 70
0
 71
3
 72
9
 73
5
 74
0
 42
0.0000001
 43
0.0000001
 44
0.0000000001
 40
0.0
 40
0.0
 40
0.0
 40
0.0
 40
0.2487985165
 40
1.0
 40
1.0
 40
1.0
 40
1.0
 10
379.0412072767
 20
223.6289557051
 30
0.0
 10
379.0412072767
 20
223.6078435208
 30
0.0
 10
379.0433622474
 20
223.5229978652
 30
0.0
 10
379.054202459
 20
223.4383952167
 30
0.0
 10
379.0669092595
 20
223.3759301732
 30
0.0
  0
SPLINE
  5
4EC
100
AcDbEntity
  8
3_ALL_AXES
100
AcDbSpline
 62
7
  6
CONTINUOUS
 70
0
 71
3
 72
14
 73
10
 74
0
 42
0.0000001
 43
0.0000001
 44
0.0000000001
 40
0.0
 40
0.0
 40
0.0
 40
0.0
 40
0.0947003343
 40
0.1954812928
 40
0.3046156165
 40
0.4234831256
 40
0.55270588
 40
0.6922923614
 40
1.0
 40
1.0
 40
1.0
 40
1.0
 10
379.0669092595
 20
223.3759301732
 30
0.0
 10
379.0866144258
 20
223.2790620374
 30
0.0
 10
379.1503546729
 20
223.0832687652
 30
0.0
 10
379.3086225668
 20
222.8054563992
 30
0.0
 10
379.5284054109
 20
222.539943139
 30
0.0
 10
379.8063111103
 20
222.2896835219
 30
0.0
 10
380.13874044
 20
222.0573611474
 30
0.0
 10
380.6660892072
 20
221.7657914479
 30
0.0
 10
381.104596633
 20
221.5975578112
 30
0.0
 10
381.4114583183
 20
221.5026689632
 30
0.0
  0
SPLINE
  5
4ED
100
AcDbEntity
  8
3_ALL_AXES
100
AcDbSpline
 62
7
  6
CONTINUOUS
 70
0
 71
3
 72
18
 73
14
 74
0
 42
0.0000001
 43
0.0000001
 44
0.0000000001
 40
0.0
 40
0.0
 40
0.0
 40
0.0
 40
0.1405571377
 40
0.288563189
 40
0.4372728545
 40
0.5798627412
 40
0.7102124764
 40
0.7693665178
 40
0.8239743059
 40
0.873941129
 40
0.9194691518
 40
0.9611403098
 40
1.0
 40
1.0
 40
1.0
 40
1.0
 10
381.5412072767
 20
221.4638921957
 30
0.0
 10
381.9158921996
 20
221.3557300763
 30
0.0
 10
382.7032383854
 20
221.1940061631
 30
0.0
 10
383.916023888
 20
221.1045370475
 30
0.0
 10
385.1367104917
 20
221.1638867674
 30
0.0
 10
386.2917820116
 20
221.3684555901
 30
0.0
 10
387.1712177637
 20
221.6585376139
 30
0.0
 10
387.7793740907
 20
221.9589979772
 30
0.0
 10
388.1637610226
 20
222.2030120501
 30
0.0
 10
388.4855156246
 20
222.4694822661
 30
0.0
 10
388.7397051928
 20
222.7551312637
 30
0.0
 10
388.9218508212
 20
223.0562887253
 30
0.0
 10
388.9940127383
 20
223.2702754549
 30
0.0
 10
389.015505294
 20
223.3759301732
 30
0.0
  0
SPLINE
  5
4EE
100
AcDbEntity
  8
7_ALL_FEATURES
100
AcDbSpline
 62
7
  6
CONTINUOUS
 70
0
 71
3
 72
9
 73
5
 74
0
 42
0.0000001
 43
0.0000001
 44
0.0000000001
 40
0.0
 40
0.0
 40
0.0
 40
0.0
 40
0.2349490877
 40
1.0
 40
1.0
 40
1.0
 40
1.0
 10
381.9999772355
 20
197.3595224904
 30
0.0
 10
382.0314851875
 20
197.3372374581
 30
0.0
 10
382.1687005205
 20
197.2467921589
 30
0.0
 10
382.3165677066
 20
197.1731222026
 30
0.0
 10
382.4324123527
 20
197.124418949
 30
0.0
  0
SPLINE
  5
4EF
100
AcDbEntity
  8
7_ALL_FEATURES
100
AcDbSpline
 62
7
  6
CONTINUOUS
 70
0
 71
3
 72
11
 73
7
 74
0
 42
0.0000001
 43
0.0000001
 44
0.0000000001
 40
0.0
 40
0.0
 40
0.0
 40
0.0
 40
0.2392768975
 40
0.5
 40
0.7607231025
 40
1.0
 40
1.0
 40
1.0
 40
1.0
 10
382.4824827721
 20
197.1039169404
 30
0.0
 10
382.7179557387
 20
197.0100268442
 30
0.0
 10
383.2345660105
 20
196.8743480529
 30
0.0
 10
384.0412072767
 20
196.8087101868
 30
0.0
 10
384.8478485429
 20
196.8743480529
 30
0.0
 10
385.3644588147
 20
197.0100268442
 30
0.0
 10
385.5999317814
 20
197.1039169404
 30
0.0
  0
SPLINE
  5
4F0
100
AcDbEntity
  8
7_ALL_FEATURES
100
AcDbSpline
 62
7
  6
CONTINUOUS
 70
0
 71
3
 72
9
 73
5
 74
0
 42
0.0000001
 43
0.0000001
 44
0.0000000001
 40
0.0
 40
0.0
 40
0.0
 40
0.0
 40
0.2651050253
 40
1.0
 40
1.0
 40
1.0
 40
1.0
 10
385.6500022008
 20
197.124418949
 30
0.0
 10
385.6901409592
 20
197.141294033
 30
0.0
 10
385.8400245326
 20
197.2083904385
 30
0.0
 10
385.9838928987
 20
197.2898237183
 30
0.0
 10
386.082437318
 20
197.3595224904
 30
0.0
  0
SPLINE
  5
4F1
100
AcDbEntity
  8
7_ALL_FEATURES
100
AcDbSpline
 62
7
  6
CONTINUOUS
 70
0
 71
3
 72
18
 73
14
 74
0
 42
0.0000001
 43
0.0000001
 44
0.0000000001
 40
0.0
 40
0.0
 40
0.0
 40
0.0
 40
0.1188336592
 40
0.180307721
 40
0.2434873581
 40
0.3742943168
 40
0.5077760994
 40
0.6385976837
 40
0.7631062384
 40
0.8231260021
 40
0.8822094393
 40
0.9409943627
 40
1.0
 40
1.0
 40
1.0
 40
1.0
 10
415.9867797084
 20
128.7188382669
 30
0.0
 10
416.4983182793
 20
128.2758328695
 30
0.0
 10
417.380055452
 20
127.7201982937
 30
0.0
 10
418.6617500229
 20
127.1888126802
 30
0.0
 10
420.0567482304
 20
126.7679016814
 30
0.0
 10
421.9078863111
 20
126.4747056144
 30
0.0
 10
424.166628099
 20
126.4741551194
 30
0.0
 10
426.3629063327
 20
126.82065051
 30
0.0
 10
428.0719666104
 20
127.414792
 30
0.0
 10
429.2880777387
 20
128.0888398946
 30
0.0
 10
430.1050712136
 20
128.6935205093
 30
0.0
 10
430.8185189851
 20
129.4102050411
 30
0.0
 10
431.2063218962
 20
129.9628543136
 30
0.0
 10
431.3725572601
 20
130.2548613854
 30
0.0
  0
SPLINE
  5
4F2
100
AcDbEntity
  8
7_ALL_FEATURES
100
AcDbSpline
 62
7
  6
CONTINUOUS
 70
0
 71
3
 72
9
 73
5
 74
0
 42
0.0000001
 43
0.0000001
 44
0.0000000001
 40
0.0
 40
0.0
 40
0.0
 40
0.0
 40
0.5009351269
 40
1.0
 40
1.0
 40
1.0
 40
1.0
 10
414.7034451191
 20
130.2661276895
 30
0.0
 10
414.8694508327
 20
129.9729659579
 30
0.0
 10
415.2569734647
 20
129.4180734412
 30
0.0
 10
415.7330579744
 20
128.9385677341
 30
0.0
 10
415.9867797084
 20
128.7188382669
 30
0.0
  0
SPLINE
  5
4F3
100
AcDbEntity
  8
7_ALL_FEATURES
100
AcDbSpline
 62
9
  6
CONTINUOUS
 70
0
 71
3
 72
11
 73
7
 74
0
 42
0.0000001
 43
0.0000001
 44
0.0000000001
 40
0.0
 40
0.0
 40
0.0
 40
0.0
 40
0.2224338766
 40
0.4660644838
 40
0.7269365286
 40
1.0
 40
1.0
 40
1.0
 40
1.0
 10
429.8952527955
 20
129.82318104
 30
0.0
 10
429.5447895794
 20
129.6172746887
 30
0.0
 10
428.7760460987
 20
129.2433923732
 30
0.0
 10
427.5174452457
 20
128.8107229535
 30
0.0
 10
426.1308823254
 20
128.4899991846
 30
0.0
 10
425.1624602586
 20
128.3590902802
 30
0.0
 10
424.6655522808
 20
128.31349654
 30
0.0
  0
SPLINE
  5
4F4
100
AcDbEntity
  8
7_ALL_FEATURES
100
AcDbSpline
 62
9
  6
CONTINUOUS
 70
0
 71
3
 72
11
 73
7
 74
0
 42
0.0000001
 43
0.0000001
 44
0.0000000001
 40
0.0
 40
0.0
 40
0.0
 40
0.0
 40
0.2734821853
 40
0.5345789334
 40
0.7781010274
 40
1.0
 40
1.0
 40
1.0
 40
1.0
 10
421.4365488111
 20
128.3116979138
 30
0.0
 10
420.9324981889
 20
128.3573554544
 30
0.0
 10
419.9504672765
 20
128.4895483763
 30
0.0
 10
418.5454717945
 20
128.8155802546
 30
0.0
 10
417.2725679078
 20
129.2565370962
 30
0.0
 10
416.4967547719
 20
129.6383043997
 30
0.0
 10
416.1440768146
 20
129.8486707607
 30
0.0
  0
SPLINE
  5
4F5
100
AcDbEntity
  8
7_ALL_FEATURES
100
AcDbSpline
 62
7
  6
CONTINUOUS
 70
0
 71
3
 72
9
 73
5
 74
0
 42
0.0000001
 43
0.0000001
 44
0.0000000001
 40
0.0
 40
0.0
 40
0.0
 40
0.0
 40
0.4779232803
 40
1.0
 40
1.0
 40
1.0
 40
1.0
 10
428.9402247136
 20
140.3205391651
 30
0.0
 10
428.6413634353
 20
140.1477907843
 30
0.0
 10
427.9882302849
 20
139.8336888569
 30
0.0
 10
427.3035007058
 20
139.5991728319
 30
0.0
 10
426.9412072767
 20
139.4945877275
 30
0.0
  0
SPLINE
  5
4F6
100
AcDbEntity
  8
7_ALL_FEATURES
100
AcDbSpline
 62
7
  6
CONTINUOUS
 70
0
 71
3
 72
11
 73
7
 74
0
 42
0.0000001
 43
0.0000001
 44
0.0000000001
 40
0.0
 40
0.0
 40
0.0
 40
0.0
 40
0.240789598
 40
0.4941332905
 40
0.7504899745
 40
1.0
 40
1.0
 40
1.0
 40
1.0
 10
426.9412072767
 20
139.4945877275
 30
0.0
 10
426.4094441328
 20
139.3410809303
 30
0.0
 10
425.2947981748
 20
139.1041001753
 30
0.0
 10
423.5732268024
 20
138.9482581866
 30
0.0
 10
421.8250344117
 20
138.9865024775
 30
0.0
 10
420.6696868166
 20
139.1443655071
 30
0.0
 10
420.1076242154
 20
139.258437127
 30
0.0
  0
SPLINE
  5
4F7
100
AcDbEntity
  8
7_ALL_FEATURES
100
AcDbSpline
 62
7
  6
CONTINUOUS
 70
0
 71
3
 72
11
 73
7
 74
0
 42
0.0000001
 43
0.0000001
 44
0.0000000001
 40
0.0
 40
0.0
 40
0.0
 40
0.0
 40
0.2820489898
 40
0.5383159098
 40
0.7746597014
 40
1.0
 40
1.0
 40
1.0
 40
1.0
 10
453.9609076056
 20
259.0406479583
 30
0.0
 10
454.9418111427
 20
258.1911605792
 30
0.0
 10
456.7043285123
 20
256.4332529138
 30
0.0
 10
458.7465304307
 20
253.4840948377
 30
0.0
 10
460.0046205236
 20
250.3980675584
 30
0.0
 10
460.2911781723
 20
248.2647060217
 30
0.0
 10
460.2911985818
 20
247.2279904038
 30
0.0
  0
SPLINE
  5
4F8
100
AcDbEntity
  8
7_ALL_FEATURES
100
AcDbSpline
 62
7
  6
CONTINUOUS
 70
0
 71
3
 72
12
 73
8
 74
0
 42
0.0000001
 43
0.0000001
 44
0.0000000001
 40
0.0
 40
0.0
 40
0.0
 40
0.0
 40
0.1086013578
 40
0.2190960939
 40
0.4520384668
 40
0.7103261719
 40
1.0
 40
1.0
 40
1.0
 40
1.0
 10
365.7912159717
 20
247.2283126863
 30
0.0
 10
365.7912040208
 20
247.8353668926
 30
0.0
 10
365.8866518694
 20
249.0621466641
 30
0.0
 10
366.4632555122
 20
251.5307134114
 30
0.0
 10
367.9489550913
 20
254.5985763097
 30
0.0
 10
370.758558229
 20
257.9794578305
 30
0.0
 10
373.1398068997
 20
259.9333055545
 30
0.0
 10
374.4618994082
 20
260.8681274006
 30
0.0
  0
SPLINE
  5
4F9
100
AcDbEntity
  8
7_ALL_FEATURES
100
AcDbSpline
 62
7
  6
CONTINUOUS
 70
0
 71
3
 72
9
 73
5
 74
0
 42
0.0000001
 43
0.0000001
 44
0.0000000001
 40
0.0
 40
0.0
 40
0.0
 40
0.0
 40
0.2551927272
 40
1.0
 40
1.0
 40
1.0
 40
1.0
 10
451.6258593623
 20
260.8642792984
 30
0.0
 10
451.7958232456
 20
260.7440430868
 30
0.0
 10
452.4574206021
 20
260.2666792774
 30
0.0
 10
453.1009242674
 20
259.7640999998
 30
0.0
 10
453.567563008
 20
259.374911069
 30
0.0
  0
SPLINE
  5
4FA
100
AcDbEntity
  8
7_ALL_FEATURES
100
AcDbSpline
 62
7
  6
CONTINUOUS
 70
0
 71
3
 72
19
 73
15
 74
0
 42
0.0000001
 43
0.0000001
 44
0.0000000001
 40
0.0
 40
0.0
 40
0.0
 40
0.0
 40
0.0514232858
 40
0.1068965276
 40
0.1661275415
 40
0.2286812721
 40
0.361424745
 40
0.5000031446
 40
0.6385809938
 40
0.7713225218
 40
0.833874684
 40
0.8931048081
 40
0.9485739488
 40
1.0
 40
1.0
 40
1.0
 40
1.0
 10
374.8693476763
 20
261.1562371471
 30
0.0
 10
375.9883469737
 20
261.9475059554
 30
0.0
 10
378.4172670438
 20
263.4495560206
 30
0.0
 10
382.4035265239
 20
265.3898332362
 30
0.0
 10
386.8208742237
 20
267.0802722215
 30
0.0
 10
393.3309393963
 20
269.0063174435
 30
0.0
 10
402.1121256092
 20
270.6112408279
 30
0.0
 10
413.0423567649
 20
271.2532270059
 30
0.0
 10
423.9725233581
 20
270.6110008399
 30
0.0
 10
432.7535600185
 20
269.0058469288
 30
0.0
 10
439.2634474143
 20
267.0796110686
 30
0.0
 10
443.6805648585
 20
265.3890617333
 30
0.0
 10
447.6667200455
 20
263.4487095122
 30
0.0
 10
450.0955381627
 20
261.9465486826
 30
0.0
 10
451.2145269848
 20
261.155137414
 30
0.0
  0
SPLINE
  5
4FB
100
AcDbEntity
  8
7_ALL_FEATURES
100
AcDbSpline
 62
7
  6
CONTINUOUS
 70
0
 71
3
 72
9
 73
5
 74
0
 42
0.0000001
 43
0.0000001
 44
0.0000000001
 40
0.0
 40
0.0
 40
0.0
 40
0.0
 40
0.2488697094
 40
1.0
 40
1.0
 40
1.0
 40
1.0
 10
460.2911985818
 20
247.2279904038
 30
0.0
 10
460.2912026884
 20
247.0193915171
 30
0.0
 10
460.2690665369
 20
246.1813211918
 30
0.0
 10
460.1572265968
 20
245.3458708175
 30
0.0
 10
460.0262769259
 20
244.7300534697
 30
0.0
  0
SPLINE
  5
4FC
100
AcDbEntity
  8
7_ALL_FEATURES
100
AcDbSpline
 62
7
  6
CONTINUOUS
 70
0
 71
3
 72
11
 73
7
 74
0
 42
0.0000001
 43
0.0000001
 44
0.0000000001
 40
0.0
 40
0.0
 40
0.0
 40
0.0
 40
0.2816079565
 40
0.536774733
 40
0.7727196439
 40
1.0
 40
1.0
 40
1.0
 40
1.0
 10
453.9367710059
 20
258.9871660952
 30
0.0
 10
454.9164435598
 20
258.1027411225
 30
0.0
 10
456.6623654747
 20
256.2707436827
 30
0.0
 10
458.6176844285
 20
253.1893849016
 30
0.0
 10
459.7146928678
 20
249.9687564119
 30
0.0
 10
459.8390247243
 20
247.7687873266
 30
0.0
 10
459.7522456436
 20
246.7071141651
 30
0.0
  0
SPLINE
  5
4FD
100
AcDbEntity
  8
7_ALL_FEATURES
100
AcDbSpline
 62
7
  6
CONTINUOUS
 70
0
 71
3
 72
11
 73
7
 74
0
 42
0.0000001
 43
0.0000001
 44
0.0000000001
 40
0.0
 40
0.0
 40
0.0
 40
0.0
 40
0.2323889577
 40
0.4733639353
 40
0.7279570118
 40
1.0
 40
1.0
 40
1.0
 40
1.0
 10
459.7522456436
 20
246.7071141651
 30
0.0
 10
459.6909467204
 20
245.9571705033
 30
0.0
 10
459.4176952115
 20
244.4382210173
 30
0.0
 10
458.5817317396
 20
242.2222281942
 30
0.0
 10
457.3288973879
 20
240.0642592315
 30
0.0
 10
456.2638182361
 20
238.7248749724
 30
0.0
 10
455.6746264435
 20
238.0700996113
 30
0.0
  0
SPLINE
  5
4FE
100
AcDbEntity
  8
7_ALL_FEATURES
100
AcDbSpline
 62
7
  6
CONTINUOUS
 70
0
 71
3
 72
11
 73
7
 74
0
 42
0.0000001
 43
0.0000001
 44
0.0000000001
 40
0.0
 40
0.0
 40
0.0
 40
0.0
 40
0.2759833093
 40
0.5314935647
 40
0.7708490081
 40
1.0
 40
1.0
 40
1.0
 40
1.0
 10
371.3406255682
 20
237.094525946
 30
0.0
 10
370.6170460279
 20
237.8084771756
 30
0.0
 10
369.3079617836
 20
239.2743343167
 30
0.0
 10
367.7597689947
 20
241.6698841498
 30
0.0
 10
366.7305635433
 20
244.1468851358
 30
0.0
 10
366.4004889271
 20
245.8558808891
 30
0.0
 10
366.3310285942
 20
246.6970340968
 30
0.0
  0
SPLINE
  5
4FF
100
AcDbEntity
  8
7_ALL_FEATURES
100
AcDbSpline
 62
7
  6
CONTINUOUS
 70
0
 71
3
 72
13
 73
9
 74
0
 42
0.0000001
 43
0.0000001
 44
0.0000000001
 40
0.0
 40
0.0
 40
0.0
 40
0.0
 40
0.1098409415
 40
0.2207035257
 40
0.3346081973
 40
0.453347159
 40
0.7104106309
 40
1.0
 40
1.0
 40
1.0
 40
1.0
 10
366.3310285942
 20
246.6970340968
 30
0.0
 10
366.279634819
 20
247.3194042625
 30
0.0
 10
366.2765434568
 20
248.5805954576
 30
0.0
 10
366.578161336
 20
250.4665923124
 30
0.0
 10
367.182363192
 20
252.3315929789
 30
0.0
 10
368.4153879448
 20
254.837185886
 30
0.0
 10
370.752280035
 20
257.8607166185
 30
0.0
 10
373.1300554589
 20
259.8902865305
 30
0.0
 10
374.4594374425
 20
260.8616103525
 30
0.0
  0
SPLINE
  5
500
100
AcDbEntity
  8
7_ALL_FEATURES
100
AcDbSpline
 62
7
  6
CONTINUOUS
 70
0
 71
3
 72
9
 73
5
 74
0
 42
0.0000001
 43
0.0000001
 44
0.0000000001
 40
0.0
 40
0.0
 40
0.0
 40
0.0
 40
0.2553218476
 40
1.0
 40
1.0
 40
1.0
 40
1.0
 10
451.6337397298
 20
260.8536579289
 30
0.0
 10
451.7999609111
 20
260.73209582
 30
0.0
 10
452.4463674136
 20
260.2497169712
 30
0.0
 10
453.0738701822
 20
259.7418576045
 30
0.0
 10
453.5278949037
 20
259.3486606602
 30
0.0
  0
SPLINE
  5
501
100
AcDbEntity
  8
7_ALL_FEATURES
100
AcDbSpline
 62
7
  6
CONTINUOUS
 70
0
 71
3
 72
9
 73
5
 74
0
 42
0.0000001
 43
0.0000001
 44
0.0000000001
 40
0.0
 40
0.0
 40
0.0
 40
0.0
 40
0.2469743921
 40
1.0
 40
1.0
 40
1.0
 40
1.0
 10
460.3803177909
 20
248.2631694861
 30
0.0
 10
460.3577549131
 20
248.3934376169
 30
0.0
 10
460.2570652764
 20
248.9192450436
 30
0.0
 10
460.1191763666
 20
249.4378445403
 30
0.0
 10
459.9962996158
 20
249.8217614309
 30
0.0
  0
SPLINE
  5
502
100
AcDbEntity
  8
7_ALL_FEATURES
100
AcDbSpline
 62
7
  6
CONTINUOUS
 70
0
 71
3
 72
9
 73
5
 74
0
 42
0.0000001
 43
0.0000001
 44
0.0000000001
 40
0.0
 40
0.0
 40
0.0
 40
0.0
 40
0.2537663383
 40
1.0
 40
1.0
 40
1.0
 40
1.0
 10
366.1370565867
 20
249.9774945045
 30
0.0
 10
366.0898188941
 20
249.8364753826
 30
0.0
 10
365.9137764252
 20
249.2774502208
 30
0.0
 10
365.7790574879
 20
248.7053093766
 30
0.0
 10
365.7039966162
 20
248.2744665467
 30
0.0
  0
LINE
  5
503
100
AcDbEntity
  8
7_ALL_FEATURES
100
AcDbLine
 62
7
  6
CONTINUOUS
 10
478.3281473868
 20
227.8530206329
 11
478.4004387417
 21
227.917353254
  0
SPLINE
  5
504
100
AcDbEntity
  8
7_ALL_FEATURES
100
AcDbSpline
 62
7
  6
CONTINUOUS
 70
0
 71
3
 72
11
 73
7
 74
0
 42
0.0000001
 43
0.0000001
 44
0.0000000001
 40
0.0
 40
0.0
 40
0.0
 40
0.0
 40
0.2800665862
 40
0.5358023398
 40
0.7729806449
 40
1.0
 40
1.0
 40
1.0
 40
1.0
 10
478.4004387417
 20
227.917353254
 30
0.0
 10
479.8950062648
 20
229.2504448473
 30
0.0
 10
482.5820727354
 20
232.0088478483
 30
0.0
 10
485.6898808597
 20
236.622403841
 30
0.0
 10
487.6051756065
 20
241.4486624419
 30
0.0
 10
488.0412072767
 20
244.7820422027
 30
0.0
 10
488.0412072767
 20
246.4054238247
 30
0.0
  0
SPLINE
  5
505
100
AcDbEntity
  8
7_ALL_FEATURES
100
AcDbSpline
 62
7
  6
CONTINUOUS
 70
0
 71
3
 72
26
 73
22
 74
0
 42
0.0000001
 43
0.0000001
 44
0.0000000001
 40
0.0
 40
0.0
 40
0.0
 40
0.0
 40
0.0194561047
 40
0.0392816851
 40
0.0598090122
 40
0.0813289519
 40
0.1040698847
 40
0.1281964125
 40
0.1809206348
 40
0.2398064038
 40
0.3044564115
 40
0.3740265144
 40
0.4473616454
 40
0.5230995912
 40
0.5997565874
 40
0.6758041581
 40
0.7497432681
 40
0.8201803121
 40
0.8859114008
 40
0.9460167156
 40
1.0
 40
1.0
 40
1.0
 40
1.0
 10
338.0412072767
 20
246.4054238247
 30
0.0
 10
338.0412072767
 20
245.369933995
 30
0.0
 10
338.2142226324
 20
243.2754411152
 30
0.0
 10
338.985270978
 20
240.1742374212
 30
0.0
 10
340.2597865072
 20
237.1250058836
 30
0.0
 10
342.0232854525
 20
234.150402981
 30
0.0
 10
344.2596825475
 20
231.2680710992
 30
0.0
 10
347.9587900862
 20
227.4592272964
 30
0.0
 10
353.7428124642
 20
223.0623041543
 30
0.0
 10
362.0101060414
 20
218.5729562244
 30
0.0
 10
371.6004476728
 20
214.8154361943
 30
0.0
 10
382.2688164877
 20
211.8831015747
 30
0.0
 10
393.7419114908
 20
209.8497852909
 30
0.0
 10
405.7208512453
 20
208.7687365948
 30
0.0
 10
417.8919674069
 20
208.6684172029
 30
0.0
 10
429.9357159938
 20
209.5514999843
 30
0.0
 10
441.5364827082
 20
211.394780627
 30
0.0
 10
452.3915377553
 20
214.1496285731
 30
0.0
 10
462.2220110045
 20
217.7466644488
 30
0.0
 10
470.7752353173
 20
222.093941041
 30
0.0
 10
475.7578490651
 20
225.6227661568
 30
0.0
 10
477.9297010406
 20
227.5036451408
 30
0.0
  0
SPLINE
  5
506
100
AcDbEntity
  8
7_ALL_FEATURES
100
AcDbSpline
 62
7
  6
CONTINUOUS
 70
0
 71
3
 72
13
 73
9
 74
0
 42
0.0000001
 43
0.0000001
 44
0.0000000001
 40
0.0
 40
0.0
 40
0.0
 40
0.0
 40
0.1090337776
 40
0.2199102757
 40
0.334291693
 40
0.4536632497
 40
0.7115025468
 40
1.0
 40
1.0
 40
1.0
 40
1.0
 10
488.0412072767
 20
246.9040257671
 30
0.0
 10
488.0412072767
 20
247.8783899661
 30
0.0
 10
487.888296794
 20
249.8468048287
 30
0.0
 10
487.2063924119
 20
252.7660062346
 30
0.0
 10
486.0776210293
 20
255.6423695729
 30
0.0
 10
483.9381571714
 20
259.492069319
 30
0.0
 10
480.10774212
 20
264.1110587646
 30
0.0
 10
476.3134318533
 20
267.223142518
 30
0.0
 10
474.2084701327
 20
268.7117028285
 30
0.0
  0
LINE
  5
507
100
AcDbEntity
  8
7_ALL_FEATURES
100
AcDbLine
 62
7
  6
CONTINUOUS
 10
351.8969917002
 20
268.7279261067
 11
351.8751836619
 21
268.7125123165
  0
SPLINE
  5
508
100
AcDbEntity
  8
7_ALL_FEATURES
100
AcDbSpline
 62
7
  6
CONTINUOUS
 70
0
 71
3
 72
11
 73
7
 74
0
 42
0.0000001
 43
0.0000001
 44
0.0000000001
 40
0.0
 40
0.0
 40
0.0
 40
0.0
 40
0.2811343011
 40
0.537153163
 40
0.7738770635
 40
1.0
 40
1.0
 40
1.0
 40
1.0
 10
348.1527135128
 20
265.8058044509
 30
0.0
 10
346.5888204598
 20
264.4514333381
 30
0.0
 10
343.7759775912
 20
261.6453815753
 30
0.0
 10
340.513938712
 20
256.9320017134
 30
0.0
 10
338.5003585566
 20
251.9890257429
 30
0.0
 10
338.0412072767
 20
248.5680393026
 30
0.0
 10
338.0412072767
 20
246.904025767
 30
0.0
  0
SPLINE
  5
509
100
AcDbEntity
  8
7_ALL_FEATURES
100
AcDbSpline
 62
7
  6
CONTINUOUS
 70
0
 71
3
 72
21
 73
17
 74
0
 42
0.0000001
 43
0.0000001
 44
0.0000000001
 40
0.0
 40
0.0
 40
0.0
 40
0.0
 40
0.0515015357
 40
0.1070159198
 40
0.1662520849
 40
0.2287896845
 40
0.2940882348
 40
0.3615274071
 40
0.5000000444
 40
0.638472674
 40
0.7059118373
 40
0.7712103756
 40
0.8337479599
 40
0.8929841089
 40
0.9484984712
 40
1.0
 40
1.0
 40
1.0
 40
1.0
 10
472.717201578
 20
269.7662466467
 30
0.0
 10
470.9648441222
 20
271.0053504867
 30
0.0
 10
467.1627606309
 20
273.3566442062
 30
0.0
 10
460.925350725
 20
276.3933360035
 30
0.0
 10
454.0173913503
 20
279.0371365349
 30
0.0
 10
446.5356510504
 20
281.2520011599
 30
0.0
 10
438.5831479969
 20
283.0077652515
 30
0.0
 10
427.4045722778
 20
284.7178755006
 30
0.0
 10
413.0412020272
 20
285.5606031196
 30
0.0
 10
398.6778322267
 20
284.7178743868
 30
0.0
 10
387.4992578041
 20
283.0077635694
 30
0.0
 10
379.5467563447
 20
281.2519992866
 30
0.0
 10
372.0650178886
 20
279.0371347958
 30
0.0
 10
365.157060766
 20
276.3933346036
 30
0.0
 10
358.9196526137
 20
273.3566434931
 30
0.0
 10
355.1175701978
 20
271.0053503217
 30
0.0
 10
353.3652129755
 20
269.7662466467
 30
0.0
  0
SPLINE
  5
50A
100
AcDbEntity
  8
7_ALL_FEATURES
100
AcDbSpline
 62
7
  6
CONTINUOUS
 70
0
 71
3
 72
11
 73
7
 74
0
 42
0.0000001
 43
0.0000001
 44
0.0000000001
 40
0.0
 40
0.0
 40
0.0
 40
0.0
 40
0.2837536268
 40
0.540476202
 40
0.7761212038
 40
1.0
 40
1.0
 40
1.0
 40
1.0
 10
454.4952287625
 20
236.8742977753
 30
0.0
 10
455.4383865699
 20
237.7085246566
 30
0.0
 10
457.1281737471
 20
239.4275950528
 30
0.0
 10
459.0773529244
 20
242.293673935
 30
0.0
 10
460.2704061874
 20
245.2694444315
 30
0.0
 10
460.5412072767
 20
247.3172158329
 30
0.0
 10
460.5412072767
 20
248.310679713
 30
0.0
  0
SPLINE
  5
50B
100
AcDbEntity
  8
7_ALL_FEATURES
100
AcDbSpline
 62
7
  6
CONTINUOUS
 70
0
 71
3
 72
24
 73
20
 74
0
 42
0.0000001
 43
0.0000001
 44
0.0000000001
 40
0.0
 40
0.0
 40
0.0
 40
0.0
 40
0.0187350985
 40
0.03790993
 40
0.0788135372
 40
0.1250074409
 40
0.1775136109
 40
0.2364632734
 40
0.3013680494
 40
0.3713156879
 40
0.44510166
 40
0.5213268722
 40
0.5984780528
 40
0.6750001979
 40
0.7493666131
 40
0.8201502555
 40
0.8861030005
 40
0.9462461454
 40
1.0
 40
1.0
 40
1.0
 40
1.0
 10
365.5412072767
 20
248.310679713
 30
0.0
 10
365.5412072767
 20
247.6799463005
 30
0.0
 10
365.6477184568
 20
246.401274763
 30
0.0
 10
366.2927848109
 20
243.8173161892
 30
0.0
 10
367.9694953907
 20
240.5972817345
 30
0.0
 10
371.1290612921
 20
237.0702483825
 30
0.0
 10
375.3822978548
 20
233.852379628
 30
0.0
 10
380.621298949
 20
231.0202985481
 30
0.0
 10
386.7126891072
 20
228.644153421
 30
0.0
 10
393.4984509957
 20
226.7873684842
 30
0.0
 10
400.8005787162
 20
225.4999666561
 30
0.0
 10
408.4264560064
 20
224.8169524523
 30
0.0
 10
416.1744482117
 20
224.756910017
 30
0.0
 10
423.8395197854
 20
225.3214548718
 30
0.0
 10
431.2190022923
 20
226.4952947981
 30
0.0
 10
438.1179094916
 20
228.2462923717
 30
0.0
 10
444.3557285093
 20
230.5278214233
 30
0.0
 10
449.7677102036
 20
233.276741801
 30
0.0
 10
452.91511763
 20
235.5039368549
 30
0.0
 10
454.2830998231
 20
236.688644186
 30
0.0
  0
SPLINE
  5
50C
100
AcDbEntity
  8
7_ALL_FEATURES
100
AcDbSpline
 62
7
  6
CONTINUOUS
 70
0
 71
3
 72
9
 73
5
 74
0
 42
0.0000001
 43
0.0000001
 44
0.0000000001
 40
0.0
 40
0.0
 40
0.0
 40
0.0
 40
0.2278730086
 40
1.0
 40
1.0
 40
1.0
 40
1.0
 10
465.7912072767
 20
248.310679713
 30
0.0
 10
465.7912072767
 20
248.2647887456
 30
0.0
 10
465.8056590148
 20
248.0632991982
 30
0.0
 10
465.884646012
 20
247.8696137815
 30
0.0
 10
465.9654803416
 20
247.7367783768
 30
0.0
  0
SPLINE
  5
50D
100
AcDbEntity
  8
7_ALL_FEATURES
100
AcDbSpline
 62
7
  6
CONTINUOUS
 70
0
 71
3
 72
9
 73
5
 74
0
 42
0.0000001
 43
0.0000001
 44
0.0000000001
 40
0.0
 40
0.0
 40
0.0
 40
0.0
 40
0.4448060683
 40
1.0
 40
1.0
 40
1.0
 40
1.0
 10
465.9654803416
 20
247.7367783768
 30
0.0
 10
466.0591873249
 20
247.5827892846
 30
0.0
 10
466.3292731105
 20
247.2728414913
 30
0.0
 10
466.6598756656
 20
247.0340494766
 30
0.0
 10
466.8518719355
 20
246.9167453576
 30
0.0
  0
SPLINE
  5
50E
100
AcDbEntity
  8
7_ALL_FEATURES
100
AcDbSpline
 62
7
  6
CONTINUOUS
 70
0
 71
3
 72
13
 73
9
 74
0
 42
0.0000001
 43
0.0000001
 44
0.0000000001
 40
0.0
 40
0.0
 40
0.0
 40
0.0
 40
0.1069060772
 40
0.2291263627
 40
0.4999926467
 40
0.7708630451
 40
0.8930877775
 40
1.0
 40
1.0
 40
1.0
 40
1.0
 10
466.8518719355
 20
246.9167453576
 30
0.0
 10
467.1161162318
 20
246.7552998025
 30
0.0
 10
467.7198456633
 20
246.4697938512
 30
0.0
 10
469.1106844842
 20
246.0531742928
 30
0.0
 10
471.0411431064
 20
245.8547255668
 30
0.0
 10
472.9716148111
 20
246.0531510182
 30
0.0
 10
474.3625040158
 20
246.4697596546
 30
0.0
 10
474.9662559799
 20
246.7552870968
 30
0.0
 10
475.230521252
 20
246.9167324615
 30
0.0
  0
SPLINE
  5
50F
100
AcDbEntity
  8
7_ALL_FEATURES
100
AcDbSpline
 62
7
  6
CONTINUOUS
 70
0
 71
3
 72
9
 73
5
 74
0
 42
0.0000001
 43
0.0000001
 44
0.0000000001
 40
0.0
 40
0.0
 40
0.0
 40
0.0
 40
0.5549777033
 40
1.0
 40
1.0
 40
1.0
 40
1.0
 10
475.230521252
 20
246.9167324615
 30
0.0
 10
475.4219906136
 20
247.0337052314
 30
0.0
 10
475.7518187985
 20
247.2718855063
 30
0.0
 10
476.021577615
 20
247.5807490612
 30
0.0
 10
476.1154083471
 20
247.7342630599
 30
0.0
  0
SPLINE
  5
510
100
AcDbEntity
  8
7_ALL_FEATURES
100
AcDbSpline
 62
7
  6
CONTINUOUS
 70
0
 71
3
 72
9
 73
5
 74
0
 42
0.0000001
 43
0.0000001
 44
0.0000000001
 40
0.0
 40
0.0
 40
0.0
 40
0.0
 40
0.5349345474
 40
1.0
 40
1.0
 40
1.0
 40
1.0
 10
476.1154083471
 20
247.7342630599
 30
0.0
 10
476.1719953169
 20
247.8268435164
 30
0.0
 10
476.2598787839
 20
248.0125918609
 30
0.0
 10
476.2912072767
 20
248.2163472499
 30
0.0
 10
476.2912072767
 20
248.310679713
 30
0.0
  0
SPLINE
  5
511
100
AcDbEntity
  8
7_ALL_FEATURES
100
AcDbSpline
 62
7
  6
CONTINUOUS
 70
0
 71
3
 72
11
 73
7
 74
0
 42
0.0000001
 43
0.0000001
 44
0.0000000001
 40
0.0
 40
0.0
 40
0.0
 40
0.0
 40
0.254919556
 40
0.523332823
 40
0.7797367427
 40
1.0
 40
1.0
 40
1.0
 40
1.0
 10
386.7775322345
 20
271.4159778503
 30
0.0
 10
386.2087899888
 20
271.2517961054
 30
0.0
 10
385.0033407161
 20
271.0413374327
 30
0.0
 10
383.1846985159
 20
271.0326489759
 30
0.0
 10
381.4700062571
 20
271.313953815
 30
0.0
 10
380.4206790386
 20
271.7062019722
 30
0.0
 10
379.9757423159
 20
271.9584940306
 30
0.0
  0
SPLINE
  5
512
100
AcDbEntity
  8
7_ALL_FEATURES
100
AcDbSpline
 62
7
  6
CONTINUOUS
 70
0
 71
3
 72
9
 73
5
 74
0
 42
0.0000001
 43
0.0000001
 44
0.0000000001
 40
0.0
 40
0.0
 40
0.0
 40
0.0
 40
0.5608413215
 40
1.0
 40
1.0
 40
1.0
 40
1.0
 10
379.8556858648
 20
272.0291028514
 30
0.0
 10
379.6492668128
 20
272.1550428887
 30
0.0
 10
379.2978631562
 20
272.4102608633
 30
0.0
 10
379.0186929952
 20
272.7491244983
 30
0.0
 10
378.9287709773
 20
272.9157511004
 30
0.0
  0
SPLINE
  5
513
100
AcDbEntity
  8
7_ALL_FEATURES
100
AcDbSpline
 62
7
  6
CONTINUOUS
 70
0
 71
3
 72
9
 73
5
 74
0
 42
0.0000001
 43
0.0000001
 44
0.0000000001
 40
0.0
 40
0.0
 40
0.0
 40
0.0
 40
0.2756325104
 40
1.0
 40
1.0
 40
1.0
 40
1.0
 10
378.9287709773
 20
272.9157511004
 30
0.0
 10
378.9056010413
 20
272.9586852761
 30
0.0
 10
378.8295540167
 20
273.1185118827
 30
0.0
 10
378.7912072767
 20
273.2972027722
 30
0.0
 10
378.7912072767
 20
273.4254164228
 30
0.0
  0
SPLINE
  5
514
100
AcDbEntity
  8
7_ALL_FEATURES
100
AcDbSpline
 62
7
  6
CONTINUOUS
 70
0
 71
3
 72
9
 73
5
 74
0
 42
0.0000001
 43
0.0000001
 44
0.0000000001
 40
0.0
 40
0.0
 40
0.0
 40
0.0
 40
0.2282834325
 40
1.0
 40
1.0
 40
1.0
 40
1.0
 10
389.2912072767
 20
273.4254164228
 30
0.0
 10
389.2912072767
 20
273.3801682709
 30
0.0
 10
389.2771873541
 20
273.1818661798
 30
0.0
 10
389.2005734107
 20
272.990975429
 30
0.0
 10
389.1219078824
 20
272.8597916423
 30
0.0
  0
SPLINE
  5
515
100
AcDbEntity
  8
7_ALL_FEATURES
100
AcDbSpline
 62
7
  6
CONTINUOUS
 70
0
 71
3
 72
9
 73
5
 74
0
 42
0.0000001
 43
0.0000001
 44
0.0000000001
 40
0.0
 40
0.0
 40
0.0
 40
0.0
 40
0.4441383489
 40
1.0
 40
1.0
 40
1.0
 40
1.0
 10
389.1219078824
 20
272.8597916423
 30
0.0
 10
389.0286541898
 20
272.7042804193
 30
0.0
 10
388.7575980291
 20
272.3908853893
 30
0.0
 10
388.424625054
 20
272.1501072272
 30
0.0
 10
388.2309905244
 20
272.0317509827
 30
0.0
  0
SPLINE
  5
516
100
AcDbEntity
  8
7_ALL_FEATURES
100
AcDbSpline
 62
7
  6
CONTINUOUS
 70
0
 71
3
 72
9
 73
5
 74
0
 42
0.0000001
 43
0.0000001
 44
0.0000000001
 40
0.0
 40
0.0
 40
0.0
 40
0.0
 40
0.2287253182
 40
1.0
 40
1.0
 40
1.0
 40
1.0
 10
388.2309905244
 20
272.0317509827
 30
0.0
 10
388.1358687594
 20
271.9736092096
 30
0.0
 10
387.7099492221
 20
271.7358558488
 30
0.0
 10
387.2514422298
 20
271.5597727887
 30
0.0
 10
386.8919122037
 20
271.4499500822
 30
0.0
  0
SPLINE
  5
517
100
AcDbEntity
  8
7_ALL_FEATURES
100
AcDbSpline
 62
7
  6
CONTINUOUS
 70
0
 71
3
 72
9
 73
5
 74
0
 42
0.0000001
 43
0.0000001
 44
0.0000000001
 40
0.0
 40
0.0
 40
0.0
 40
0.0
 40
0.27034491
 40
1.0
 40
1.0
 40
1.0
 40
1.0
 10
381.1905006329
 20
221.2204771347
 30
0.0
 10
381.0644960982
 20
221.258966637
 30
0.0
 10
380.6024267693
 20
221.41336576
 30
0.0
 10
380.1548242769
 20
221.616828906
 30
0.0
 10
379.8514178816
 20
221.8022821444
 30
0.0
  0
SPLINE
  5
518
100
AcDbEntity
  8
7_ALL_FEATURES
100
AcDbSpline
 62
7
  6
CONTINUOUS
 70
0
 71
3
 72
9
 73
5
 74
0
 42
0.0000001
 43
0.0000001
 44
0.0000000001
 40
0.0
 40
0.0
 40
0.0
 40
0.0
 40
0.5558672305
 40
1.0
 40
1.0
 40
1.0
 40
1.0
 10
379.8514178816
 20
221.8022821444
 30
0.0
 10
379.6577685338
 20
221.9206478059
 30
0.0
 10
379.3247744671
 20
222.1614444982
 30
0.0
 10
379.0537086884
 20
222.4748706219
 30
0.0
 10
378.9604600172
 20
222.6303964319
 30
0.0
  0
SPLINE
  5
519
100
AcDbEntity
  8
7_ALL_FEATURES
100
AcDbSpline
 62
7
  6
CONTINUOUS
 70
0
 71
3
 72
9
 73
5
 74
0
 42
0.0000001
 43
0.0000001
 44
0.0000000001
 40
0.0
 40
0.0
 40
0.0
 40
0.0
 40
0.2795250252
 40
1.0
 40
1.0
 40
1.0
 40
1.0
 10
378.9604600172
 20
222.6303964319
 30
0.0
 10
378.9319778175
 20
222.6779007784
 30
0.0
 10
378.8393201866
 20
222.852996526
 30
0.0
 10
378.7912072767
 20
223.0531790031
 30
0.0
 10
378.7912072767
 20
223.1959430033
 30
0.0
  0
SPLINE
  5
51A
100
AcDbEntity
  8
7_ALL_FEATURES
100
AcDbSpline
 62
7
  6
CONTINUOUS
 70
0
 71
3
 72
9
 73
5
 74
0
 42
0.0000001
 43
0.0000001
 44
0.0000000001
 40
0.0
 40
0.0
 40
0.0
 40
0.0
 40
0.2310192176
 40
1.0
 40
1.0
 40
1.0
 40
1.0
 10
389.2912072767
 20
223.1959430033
 30
0.0
 10
389.2912072767
 20
223.1551223636
 30
0.0
 10
389.2799106764
 20
222.9783865804
 30
0.0
 10
389.2185467248
 20
222.8067469166
 30
0.0
 10
389.154099291
 20
222.6871258805
 30
0.0
  0
SPLINE
  5
51B
100
AcDbEntity
  8
7_ALL_FEATURES
100
AcDbSpline
 62
7
  6
CONTINUOUS
 70
0
 71
3
 72
9
 73
5
 74
0
 42
0.0000001
 43
0.0000001
 44
0.0000000001
 40
0.0
 40
0.0
 40
0.0
 40
0.0
 40
0.4390768435
 40
1.0
 40
1.0
 40
1.0
 40
1.0
 10
389.154099291
 20
222.6871258805
 30
0.0
 10
389.0642264223
 20
222.5203126339
 30
0.0
 10
388.7848963078
 20
222.1810191202
 30
0.0
 10
388.4331624068
 20
221.9255569949
 30
0.0
 10
388.226512918
 20
221.799494624
 30
0.0
  0
SPLINE
  5
51C
100
AcDbEntity
  8
7_ALL_FEATURES
100
AcDbSpline
 62
7
  6
CONTINUOUS
 70
0
 71
3
 72
11
 73
7
 74
0
 42
0.0000001
 43
0.0000001
 44
0.0000000001
 40
0.0
 40
0.0
 40
0.0
 40
0.0
 40
0.2201179763
 40
0.4765121534
 40
0.7449967218
 40
1.0
 40
1.0
 40
1.0
 40
1.0
 10
388.112381779
 20
221.7322622298
 30
0.0
 10
387.6676871537
 20
221.4792592015
 30
0.0
 10
386.6179987247
 20
221.085813733
 30
0.0
 10
384.9020272839
 20
220.8033945948
 30
0.0
 10
383.081321984
 20
220.8115493969
 30
0.0
 10
381.8743433863
 20
221.0221151811
 30
0.0
 10
381.3048823327
 20
221.1865044268
 30
0.0
  0
SPLINE
  5
51D
100
AcDbEntity
  8
7_ALL_FEATURES
100
AcDbSpline
 62
9
  6
CONTINUOUS
 70
0
 71
3
 72
8
 73
4
 74
0
 42
0.0000001
 43
0.0000001
 44
0.0000000001
 40
0.0
 40
0.0
 40
0.0
 40
0.0
 40
1.0
 40
1.0
 40
1.0
 40
1.0
 10
389.0013656204
 20
274.2854891931
 30
0.0
 10
389.0416559702
 20
274.2274247243
 30
0.0
 10
389.078935727
 20
274.1671092258
 30
0.0
 10
389.1123179769
 20
274.1048162068
 30
0.0
  0
SPLINE
  5
51E
100
AcDbEntity
  8
7_ALL_FEATURES
100
AcDbSpline
 62
9
  6
CONTINUOUS
 70
0
 71
3
 72
9
 73
5
 74
0
 42
0.0000001
 43
0.0000001
 44
0.0000000001
 40
0.0
 40
0.0
 40
0.0
 40
0.0
 40
0.2612334237
 40
1.0
 40
1.0
 40
1.0
 40
1.0
 10
389.1123179769
 20
274.1048162068
 30
0.0
 10
389.1413778293
 20
274.050589007
 30
0.0
 10
389.2416140825
 20
273.8374392183
 30
0.0
 10
389.2912029082
 20
273.599402751
 30
0.0
 10
389.2912072767
 20
273.4254164228
 30
0.0
  0
SPLINE
  5
51F
100
AcDbEntity
  8
3_ALL_AXES
100
AcDbSpline
 62
7
  6
CONTINUOUS
 70
0
 71
3
 72
8
 73
4
 74
0
 42
0.0000001
 43
0.0000001
 44
0.0000000001
 40
0.0
 40
0.0
 40
0.0
 40
0.0
 40
1.0
 40
1.0
 40
1.0
 40
1.0
 10
378.9464957918
 20
223.3964521718
 30
0.0
 10
378.9077682921
 20
223.3185839682
 30
0.0
 10
378.8749937508
 20
223.2373628356
 30
0.0
 10
378.8498659248
 20
223.1541049907
 30
0.0
  0
SPLINE
  5
520
100
AcDbEntity
  8
7_ALL_FEATURES
100
AcDbSpline
 62
9
  6
CONTINUOUS
 70
0
 71
3
 72
9
 73
5
 74
0
 42
0.0000001
 43
0.0000001
 44
0.0000000001
 40
0.0
 40
0.0
 40
0.0
 40
0.0
 40
0.2434465929
 40
1.0
 40
1.0
 40
1.0
 40
1.0
 10
378.7912072767
 20
223.1959430033
 30
0.0
 10
378.7912087169
 20
223.253292669
 30
0.0
 10
378.8065884938
 20
223.488857022
 30
0.0
 10
378.8859142364
 20
223.7182544332
 30
0.0
 10
378.9700971912
 20
223.8753439343
 30
0.0
  0
SPLINE
  5
521
100
AcDbEntity
  8
7_ALL_FEATURES
100
AcDbSpline
 62
9
  6
CONTINUOUS
 70
0
 71
3
 72
8
 73
4
 74
0
 42
0.0000001
 43
0.0000001
 44
0.0000000001
 40
0.0
 40
0.0
 40
0.0
 40
0.0
 40
1.0
 40
1.0
 40
1.0
 40
1.0
 10
378.9700971912
 20
223.8753439343
 30
0.0
 10
379.003479331
 20
223.937636636
 30
0.0
 10
379.0407589363
 20
223.9979518341
 30
0.0
 10
379.0810491057
 20
224.0560160244
 30
0.0
  0
SPLINE
  5
522
100
AcDbEntity
  8
7_ALL_FEATURES
100
AcDbSpline
 62
9
  6
CONTINUOUS
 70
0
 71
3
 72
9
 73
5
 74
0
 42
0.0000001
 43
0.0000001
 44
0.0000000001
 40
0.0
 40
0.0
 40
0.0
 40
0.0
 40
0.2434440324
 40
1.0
 40
1.0
 40
1.0
 40
1.0
 10
378.7912072767
 20
273.4254164228
 30
0.0
 10
378.7912058368
 20
273.4827655462
 30
0.0
 10
378.806573241
 20
273.7183309113
 30
0.0
 10
378.8859024209
 20
273.9477318909
 30
0.0
 10
378.9700966104
 20
274.10481627
 30
0.0
  0
SPLINE
  5
523
100
AcDbEntity
  8
7_ALL_FEATURES
100
AcDbSpline
 62
9
  6
CONTINUOUS
 70
0
 71
3
 72
8
 73
4
 74
0
 42
0.0000001
 43
0.0000001
 44
0.0000000001
 40
0.0
 40
0.0
 40
0.0
 40
0.0
 40
1.0
 40
1.0
 40
1.0
 40
1.0
 10
378.9700966104
 20
274.10481627
 30
0.0
 10
379.0034843592
 20
274.1671090935
 30
0.0
 10
379.0407706893
 20
274.2274233816
 30
0.0
 10
379.081066328
 20
274.2854871321
 30
0.0
  0
SPLINE
  5
524
100
AcDbEntity
  8
3_ALL_AXES
100
AcDbSpline
 62
7
  6
CONTINUOUS
 70
0
 71
3
 72
8
 73
4
 74
0
 42
0.0000001
 43
0.0000001
 44
0.0000000001
 40
0.0
 40
0.0
 40
0.0
 40
0.0
 40
1.0
 40
1.0
 40
1.0
 40
1.0
 10
378.8160443762
 20
273.2471381095
 30
0.0
 10
378.8320975619
 20
273.3295827956
 30
0.0
 10
378.8558647228
 20
273.4108187892
 30
0.0
 10
378.8860816161
 20
273.4891882373
 30
0.0
  0
SPLINE
  5
525
100
AcDbEntity
  8
3_ALL_AXES
100
AcDbSpline
 62
7
  6
CONTINUOUS
 70
0
 71
3
 72
8
 73
4
 74
0
 42
0.0000001
 43
0.0000001
 44
0.0000000001
 40
0.0
 40
0.0
 40
0.0
 40
0.0
 40
1.0
 40
1.0
 40
1.0
 40
1.0
 10
389.2325486287
 20
273.3835784102
 30
0.0
 10
389.2074208027
 20
273.4668362551
 30
0.0
 10
389.1746462614
 20
273.5480573877
 30
0.0
 10
389.1359187617
 20
273.6259255913
 30
0.0
  0
SPLINE
  5
526
100
AcDbEntity
  8
7_ALL_FEATURES
100
AcDbSpline
 62
9
  6
CONTINUOUS
 70
0
 71
3
 72
18
 73
14
 74
0
 42
0.0000001
 43
0.0000001
 44
0.0000000001
 40
0.0
 40
0.0
 40
0.0
 40
0.0
 40
0.1517146902
 40
0.3112623493
 40
0.4679196624
 40
0.6113914613
 40
0.7338339912
 40
0.7862245998
 40
0.8330516555
 40
0.8755557462
 40
0.9158101797
 40
0.9564477581
 40
1.0
 40
1.0
 40
1.0
 40
1.0
 10
381.1662072767
 20
276.3482521605
 30
0.0
 10
381.6924510331
 20
276.5001656477
 30
0.0
 10
382.8030274823
 20
276.7091129605
 30
0.0
 10
384.4968419014
 20
276.7666104209
 30
0.0
 10
386.1527131184
 20
276.5777006219
 30
0.0
 10
387.626791195
 20
276.1593686753
 30
0.0
 10
388.658308398
 20
275.6203919741
 30
0.0
 10
389.262101129
 20
275.0891623009
 30
0.0
 10
389.5750830324
 20
274.6792003495
 30
0.0
 10
389.7622360297
 20
274.2441675523
 30
0.0
 10
389.8126962627
 20
273.7944083213
 30
0.0
 10
389.7226832953
 20
273.3475277084
 30
0.0
 10
389.5802493644
 20
273.0746137176
 30
0.0
 10
389.492640223
 20
272.9440469791
 30
0.0
  0
SPLINE
  5
527
100
AcDbEntity
  8
7_ALL_FEATURES
100
AcDbSpline
 62
9
  6
CONTINUOUS
 70
0
 71
3
 72
9
 73
5
 74
0
 42
0.0000001
 43
0.0000001
 44
0.0000000001
 40
0.0
 40
0.0
 40
0.0
 40
0.0
 40
0.2228283534
 40
1.0
 40
1.0
 40
1.0
 40
1.0
 10
389.492640223
 20
272.9440469791
 30
0.0
 10
389.4267408665
 20
272.8458350354
 30
0.0
 10
389.0939952242
 20
272.4297401749
 30
0.0
 10
388.6477085506
 20
272.1170060559
 30
0.0
 10
388.2858380891
 20
271.9189906976
 30
0.0
  0
SPLINE
  5
528
100
AcDbEntity
  8
7_ALL_FEATURES
100
AcDbSpline
 62
9
  6
CONTINUOUS
 70
0
 71
3
 72
9
 73
5
 74
0
 42
0.0000001
 43
0.0000001
 44
0.0000000001
 40
0.0
 40
0.0
 40
0.0
 40
0.0
 40
0.2350135492
 40
1.0
 40
1.0
 40
1.0
 40
1.0
 10
388.2858380891
 20
271.9189906976
 30
0.0
 10
388.184281425
 20
271.8634189354
 30
0.0
 10
387.744276452
 20
271.641392595
 30
0.0
 10
387.278253665
 20
271.4731198786
 30
0.0
 10
386.9162072767
 20
271.3686060888
 30
0.0
  0
SPLINE
  5
529
100
AcDbEntity
  8
7_ALL_FEATURES
100
AcDbSpline
 62
9
  6
CONTINUOUS
 70
0
 71
3
 72
9
 73
5
 74
0
 42
0.0000001
 43
0.0000001
 44
0.0000000001
 40
0.0
 40
0.0
 40
0.0
 40
0.0
 40
0.5000991742
 40
1.0
 40
1.0
 40
1.0
 40
1.0
 10
386.585279896
 20
271.2801808831
 30
0.0
 10
385.7549677046
 20
271.0754701608
 30
0.0
 10
384.037305744
 20
270.8909159401
 30
0.0
 10
382.3196728212
 20
271.0764802289
 30
0.0
 10
381.4898943098
 20
271.2819368876
 30
0.0
  0
SPLINE
  5
52A
100
AcDbEntity
  8
7_ALL_FEATURES
100
AcDbSpline
 62
9
  6
CONTINUOUS
 70
0
 71
3
 72
9
 73
5
 74
0
 42
0.0000001
 43
0.0000001
 44
0.0000000001
 40
0.0
 40
0.0
 40
0.0
 40
0.0
 40
0.2666197611
 40
1.0
 40
1.0
 40
1.0
 40
1.0
 10
381.4898943098
 20
271.2819368876
 30
0.0
 10
381.3348496411
 20
271.3203266014
 30
0.0
 10
380.7575423524
 20
271.4797186435
 30
0.0
 10
380.1954802423
 20
271.7022134856
 30
0.0
 10
379.8094525264
 20
271.9120095062
 30
0.0
  0
SPLINE
  5
52B
100
AcDbEntity
  8
7_ALL_FEATURES
100
AcDbSpline
 62
9
  6
CONTINUOUS
 70
0
 71
3
 72
9
 73
5
 74
0
 42
0.0000001
 43
0.0000001
 44
0.0000000001
 40
0.0
 40
0.0
 40
0.0
 40
0.0
 40
0.288503233
 40
1.0
 40
1.0
 40
1.0
 40
1.0
 10
379.8094525264
 20
271.9120095062
 30
0.0
 10
379.6467908081
 20
272.0004119183
 30
0.0
 10
379.1023276557
 20
272.3333725987
 30
0.0
 10
378.6165332788
 20
272.8139943158
 30
0.0
 10
378.429967382
 20
273.2307023947
 30
0.0
  0
SPLINE
  5
52C
100
AcDbEntity
  8
7_ALL_FEATURES
100
AcDbSpline
 62
9
  6
CONTINUOUS
 70
0
 71
3
 72
14
 73
10
 74
0
 42
0.0000001
 43
0.0000001
 44
0.0000000001
 40
0.0
 40
0.0
 40
0.0
 40
0.0
 40
0.0998371727
 40
0.1968914658
 40
0.2982624969
 40
0.4098520746
 40
0.5352566408
 40
0.6758900867
 40
1.0
 40
1.0
 40
1.0
 40
1.0
 10
378.429967382
 20
273.2307023947
 30
0.0
 10
378.3661906127
 20
273.3731523038
 30
0.0
 10
378.2777967972
 20
273.6737609841
 30
0.0
 10
378.2950230224
 20
274.147688548
 30
0.0
 10
378.4651385591
 20
274.6091099024
 30
0.0
 10
378.7758405524
 20
275.0432870089
 30
0.0
 10
379.214852511
 20
275.4431406386
 30
0.0
 10
379.9930071216
 20
275.9442463894
 30
0.0
 10
380.6794048293
 20
276.2077243985
 30
0.0
 10
381.1662072767
 20
276.3482521605
 30
0.0
  0
SPLINE
  5
52D
100
AcDbEntity
  8
7_ALL_FEATURES
100
AcDbSpline
 62
9
  6
CONTINUOUS
 70
0
 71
3
 72
21
 73
17
 74
0
 42
0.0000001
 43
0.0000001
 44
0.0000000001
 40
0.0
 40
0.0
 40
0.0
 40
0.0
 40
0.0411153343
 40
0.0865050779
 40
0.1388428146
 40
0.1990793332
 40
0.3030669973
 40
0.4191732443
 40
0.5404513779
 40
0.6591212434
 40
0.7678130537
 40
0.8609138445
 40
0.9009228166
 40
0.9367778833
 40
0.9693411224
 40
1.0
 40
1.0
 40
1.0
 40
1.0
 10
465.2912072767
 20
248.7436924149
 30
0.0
 10
465.2912072767
 20
248.9342064329
 30
0.0
 10
465.3754519843
 20
249.3380979292
 30
0.0
 10
465.7267090706
 20
249.8891036339
 30
0.0
 10
466.2746429284
 20
250.3841023407
 30
0.0
 10
467.1418052077
 20
250.8985656586
 30
0.0
 10
468.374950464
 20
251.3357963306
 30
0.0
 10
469.9394126152
 20
251.6062279489
 30
0.0
 10
471.5945471963
 20
251.6456488092
 30
0.0
 10
473.2046403186
 20
251.4505308762
 30
0.0
 10
474.6376605313
 20
251.0377993733
 30
0.0
 10
475.6428745229
 20
250.5130774339
 30
0.0
 10
476.2377487059
 20
249.9986167977
 30
0.0
 10
476.5515404339
 20
249.6013807642
 30
0.0
 10
476.7462128728
 20
249.1802267217
 30
0.0
 10
476.7912072768
 20
248.8857548855
 30
0.0
 10
476.7912072767
 20
248.7436924149
 30
0.0
  0
SPLINE
  5
52E
100
AcDbEntity
  8
7_ALL_FEATURES
100
AcDbSpline
 62
9
  6
CONTINUOUS
 70
0
 71
3
 72
9
 73
5
 74
0
 42
0.0000001
 43
0.0000001
 44
0.0000000001
 40
0.0
 40
0.0
 40
0.0
 40
0.0
 40
0.2440688906
 40
1.0
 40
1.0
 40
1.0
 40
1.0
 10
476.7912072767
 20
248.7436924149
 30
0.0
 10
476.7912072767
 20
248.6860916903
 30
0.0
 10
476.7770171665
 20
248.450124941
 30
0.0
 10
476.7042631111
 20
248.2191440538
 30
0.0
 10
476.6257424341
 20
248.0589520233
 30
0.0
  0
SPLINE
  5
52F
100
AcDbEntity
  8
7_ALL_FEATURES
100
AcDbSpline
 62
9
  6
CONTINUOUS
 70
0
 71
3
 72
9
 73
5
 74
0
 42
0.0000001
 43
0.0000001
 44
0.0000000001
 40
0.0
 40
0.0
 40
0.0
 40
0.0
 40
0.2192079445
 40
1.0
 40
1.0
 40
1.0
 40
1.0
 10
476.6257424341
 20
248.0589520233
 30
0.0
 10
476.5685074837
 20
247.9421855449
 30
0.0
 10
476.2491311313
 20
247.4376177253
 30
0.0
 10
475.7536595978
 20
247.0684450136
 30
0.0
 10
475.3505698633
 20
246.8402813914
 30
0.0
  0
SPLINE
  5
530
100
AcDbEntity
  8
7_ALL_FEATURES
100
AcDbSpline
 62
9
  6
CONTINUOUS
 70
0
 71
3
 72
11
 73
7
 74
0
 42
0.0000001
 43
0.0000001
 44
0.0000000001
 40
0.0
 40
0.0
 40
0.0
 40
0.0
 40
0.2340228522
 40
0.5000002468
 40
0.765977508
 40
1.0
 40
1.0
 40
1.0
 40
1.0
 10
475.2474398781
 20
246.7834592533
 30
0.0
 10
474.6514878508
 20
246.4638100444
 30
0.0
 10
473.2568052101
 20
246.0096488048
 30
0.0
 10
471.0411983631
 20
245.7937493484
 30
0.0
 10
468.825592878
 20
246.0096520955
 30
0.0
 10
467.4309124058
 20
246.4638157227
 30
0.0
 10
466.8349621292
 20
246.7834659937
 30
0.0
  0
SPLINE
  5
531
100
AcDbEntity
  8
7_ALL_FEATURES
100
AcDbSpline
 62
9
  6
CONTINUOUS
 70
0
 71
3
 72
9
 73
5
 74
0
 42
0.0000001
 43
0.0000001
 44
0.0000000001
 40
0.0
 40
0.0
 40
0.0
 40
0.0
 40
0.2854356749
 40
1.0
 40
1.0
 40
1.0
 40
1.0
 10
466.7317273689
 20
246.8403477979
 30
0.0
 10
466.5845975623
 20
246.9236338534
 30
0.0
 10
466.0861941336
 20
247.2390160941
 30
0.0
 10
465.6429481826
 20
247.6789178728
 30
0.0
 10
465.4566657263
 20
248.0589650466
 30
0.0
  0
SPLINE
  5
532
100
AcDbEntity
  8
7_ALL_FEATURES
100
AcDbSpline
 62
9
  6
CONTINUOUS
 70
0
 71
3
 72
9
 73
5
 74
0
 42
0.0000001
 43
0.0000001
 44
0.0000000001
 40
0.0
 40
0.0
 40
0.0
 40
0.0
 40
0.2597968678
 40
1.0
 40
1.0
 40
1.0
 40
1.0
 10
465.4566657263
 20
248.0589650466
 30
0.0
 10
465.429686212
 20
248.1140077401
 30
0.0
 10
465.3364981259
 20
248.3308299877
 30
0.0
 10
465.2912072767
 20
248.5690411096
 30
0.0
 10
465.2912072767
 20
248.7436924149
 30
0.0
  0
SPLINE
  5
533
100
AcDbEntity
  8
7_ALL_FEATURES
100
AcDbSpline
 62
9
  6
CONTINUOUS
 70
0
 71
3
 72
25
 73
21
 74
0
 42
0.0000001
 43
0.0000001
 44
0.0000000001
 40
0.0
 40
0.0
 40
0.0
 40
0.0
 40
0.0540349649
 40
0.1141490945
 40
0.1798219333
 40
0.2501346194
 40
0.3239021349
 40
0.3997611301
 40
0.4762483288
 40
0.5518714803
 40
0.625178455
 40
0.6948287177
 40
0.7596725128
 40
0.8188463395
 40
0.8718979014
 40
0.8961707407
 40
0.9190249595
 40
0.9610267326
 40
0.9807473267
 40
1.0
 40
1.0
 40
1.0
 40
1.0
 10
477.5545978278
 20
228.0492990086
 30
0.0
 10
475.3818715448
 20
226.2087834234
 30
0.0
 10
470.4180399647
 20
222.7551570254
 30
0.0
 10
461.9277639876
 20
218.4947381755
 30
0.0
 10
452.192964545
 20
214.9654389787
 30
0.0
 10
441.4596761279
 20
212.2574299409
 30
0.0
 10
429.9985491065
 20
210.438394315
 30
0.0
 10
418.1024888077
 20
209.5556407089
 30
0.0
 10
406.076463619
 20
209.6319778295
 30
0.0
 10
394.2292598821
 20
210.665416034
 30
0.0
 10
382.8644491352
 20
212.6291585794
 30
0.0
 10
372.2721418093
 20
215.4724815651
 30
0.0
 10
362.7190403154
 20
219.1239858426
 30
0.0
 10
354.4454186737
 20
223.4930308132
 30
0.0
 10
348.616972508
 20
227.7723109506
 30
0.0
 10
344.8493602232
 20
231.4841175138
 30
0.0
 10
341.8686572933
 20
235.120246053
 30
0.0
 10
339.6581838717
 20
239.064509784
 30
0.0
 10
338.4563929967
 20
243.1738741991
 30
0.0
 10
338.1946415065
 20
245.2216282247
 30
0.0
 10
338.1484850201
 20
246.2351416199
 30
0.0
  0
SPLINE
  5
534
100
AcDbEntity
  8
7_ALL_FEATURES
100
AcDbSpline
 62
9
  6
CONTINUOUS
 70
0
 71
3
 72
9
 73
5
 74
0
 42
0.0000001
 43
0.0000001
 44
0.0000000001
 40
0.0
 40
0.0
 40
0.0
 40
0.0
 40
0.2488393173
 40
1.0
 40
1.0
 40
1.0
 40
1.0
 10
338.1301442506
 20
246.8886154804
 30
0.0
 10
338.1263379649
 20
247.2476243766
 30
0.0
 10
338.1523991833
 20
248.6905647155
 30
0.0
 10
338.3462113726
 20
250.1299567659
 30
0.0
 10
338.5793581975
 20
251.1883679637
 30
0.0
  0
SPLINE
  5
535
100
AcDbEntity
  8
7_ALL_FEATURES
100
AcDbSpline
 62
9
  6
CONTINUOUS
 70
0
 71
3
 72
9
 73
5
 74
0
 42
0.0000001
 43
0.0000001
 44
0.0000000001
 40
0.0
 40
0.0
 40
0.0
 40
0.0
 40
0.245177347
 40
1.0
 40
1.0
 40
1.0
 40
1.0
 10
338.6197613351
 20
251.3678034803
 30
0.0
 10
338.7059279281
 20
251.7423445555
 30
0.0
 10
339.1017007535
 20
253.2596074996
 30
0.0
 10
339.672139661
 20
254.7299394047
 30
0.0
 10
340.182513105
 20
255.7974194925
 30
0.0
  0
SPLINE
  5
536
100
AcDbEntity
  8
7_ALL_FEATURES
100
AcDbSpline
 62
9
  6
CONTINUOUS
 70
0
 71
3
 72
9
 73
5
 74
0
 42
0.0000001
 43
0.0000001
 44
0.0000000001
 40
0.0
 40
0.0
 40
0.0
 40
0.0
 40
0.2429852584
 40
1.0
 40
1.0
 40
1.0
 40
1.0
 10
340.4976759788
 20
256.4320387248
 30
0.0
 10
340.6772647722
 20
256.7806121383
 30
0.0
 10
341.4511826091
 20
258.1971053434
 30
0.0
 10
342.3589071929
 20
259.5391739304
 30
0.0
 10
343.1027331569
 20
260.5082475697
 30
0.0
  0
SPLINE
  5
537
100
AcDbEntity
  8
7_ALL_FEATURES
100
AcDbSpline
 62
9
  6
CONTINUOUS
 70
0
 71
3
 72
9
 73
5
 74
0
 42
0.0000001
 43
0.0000001
 44
0.0000000001
 40
0.0
 40
0.0
 40
0.0
 40
0.0
 40
0.2407769264
 40
1.0
 40
1.0
 40
1.0
 40
1.0
 10
343.7045862605
 20
261.2674774626
 30
0.0
 10
344.0285715511
 20
261.6635018141
 30
0.0
 10
345.4135885101
 20
263.2758931771
 30
0.0
 10
346.9457856137
 20
264.7595552981
 30
0.0
 10
348.1653978833
 20
265.8157705063
 30
0.0
  0
SPLINE
  5
538
100
AcDbEntity
  8
7_ALL_FEATURES
100
AcDbSpline
 62
9
  6
CONTINUOUS
 70
0
 71
3
 72
9
 73
5
 74
0
 42
0.0000001
 43
0.0000001
 44
0.0000000001
 40
0.0
 40
0.0
 40
0.0
 40
0.0
 40
0.24495738
 40
1.0
 40
1.0
 40
1.0
 40
1.0
 10
476.3371576434
 20
230.3956295331
 30
0.0
 10
476.1145499852
 20
230.202845646
 30
0.0
 10
475.1975581296
 20
229.4253694052
 30
0.0
 10
474.2488237504
 20
228.6855068794
 30
0.0
 10
473.5180585321
 20
228.1470898781
 30
0.0
  0
SPLINE
  5
539
100
AcDbEntity
  8
7_ALL_FEATURES
100
AcDbSpline
 62
9
  6
CONTINUOUS
 70
0
 71
3
 72
9
 73
5
 74
0
 42
0.0000001
 43
0.0000001
 44
0.0000000001
 40
0.0
 40
0.0
 40
0.0
 40
0.0
 40
0.2410538479
 40
1.0
 40
1.0
 40
1.0
 40
1.0
 10
473.5180585321
 20
228.1470898781
 30
0.0
 10
473.026655609
 20
227.7850314746
 30
0.0
 10
470.9604776338
 20
226.3206572567
 30
0.0
 10
468.7915576332
 20
225.0032839489
 30
0.0
 10
467.1074599539
 20
224.0775750391
 30
0.0
  0
SPLINE
  5
53A
100
AcDbEntity
  8
7_ALL_FEATURES
100
AcDbSpline
 62
9
  6
CONTINUOUS
 70
0
 71
3
 72
9
 73
5
 74
0
 42
0.0000001
 43
0.0000001
 44
0.0000000001
 40
0.0
 40
0.0
 40
0.0
 40
0.0
 40
0.4758674231
 40
1.0
 40
1.0
 40
1.0
 40
1.0
 10
467.1074599539
 20
224.0775750391
 30
0.0
 10
463.6504460549
 20
222.1773357555
 30
0.0
 10
456.0307253355
 20
218.8206921842
 30
0.0
 10
448.0493462542
 20
216.5038299663
 30
0.0
 10
443.8169109766
 20
215.5213966901
 30
0.0
  0
SPLINE
  5
53B
100
AcDbEntity
  8
7_ALL_FEATURES
100
AcDbSpline
 62
9
  6
CONTINUOUS
 70
0
 71
3
 72
11
 73
7
 74
0
 42
0.0000001
 43
0.0000001
 44
0.0000000001
 40
0.0
 40
0.0
 40
0.0
 40
0.0
 40
0.2466142988
 40
0.4997563998
 40
0.7530222529
 40
1.0
 40
1.0
 40
1.0
 40
1.0
 10
439.650661699
 20
214.6316860928
 30
0.0
 10
435.3725581519
 20
213.7954965813
 30
0.0
 10
426.6103235576
 20
212.5508654468
 30
0.0
 10
413.29726338
 20
211.9194590757
 30
0.0
 10
399.9756600194
 20
212.5044245448
 30
0.0
 10
391.2004636442
 20
213.7179952577
 30
0.0
 10
386.9128150271
 20
214.5386657829
 30
0.0
  0
SPLINE
  5
53C
100
AcDbEntity
  8
7_ALL_FEATURES
100
AcDbSpline
 62
9
  6
CONTINUOUS
 70
0
 71
3
 72
22
 73
18
 74
0
 42
0.0000001
 43
0.0000001
 44
0.0000000001
 40
0.0
 40
0.0
 40
0.0
 40
0.0
 40
0.1720218619
 40
0.2521725228
 40
0.3278468636
 40
0.3987894668
 40
0.4649016258
 40
0.526277043
 40
0.5832450021
 40
0.6364150966
 40
0.6867028788
 40
0.735309866
 40
0.7836324104
 40
0.8331033237
 40
0.8850124271
 40
0.940398962
 40
1.0
 40
1.0
 40
1.0
 40
1.0
 10
381.3816486935
 20
215.7301239566
 30
0.0
 10
377.1493884297
 20
216.747112953
 30
0.0
 10
371.0148658487
 20
218.5843866199
 30
0.0
 10
363.3547421263
 20
221.7838270278
 30
0.0
 10
358.2386896718
 20
224.3963796319
 30
0.0
 10
353.6672612536
 20
227.2524902624
 30
0.0
 10
349.6848421225
 20
230.3257411722
 30
0.0
 10
346.3308896214
 20
233.5884442808
 30
0.0
 10
343.6402058128
 20
237.0124466954
 30
0.0
 10
341.6439602712
 20
240.5682024906
 30
0.0
 10
340.3704282849
 20
244.2225674842
 30
0.0
 10
339.8428722985
 20
247.935201989
 30
0.0
 10
340.0730942234
 20
251.6578644036
 30
0.0
 10
341.0557964539
 20
255.3403548997
 30
0.0
 10
342.7711368195
 20
258.9392686885
 30
0.0
 10
345.1922328631
 20
262.4185768486
 30
0.0
 10
347.180743984
 20
264.5558129193
 30
0.0
 10
348.2705754806
 20
265.598240689
 30
0.0
  0
LINE
  5
53D
100
AcDbEntity
  8
7_ALL_FEATURES
100
AcDbLine
 62
9
  6
CONTINUOUS
 10
477.9931125606
 20
227.6554238247
 11
477.8913702527
 21
227.5675879726
  0
SPLINE
  5
53E
100
AcDbEntity
  8
7_ALL_FEATURES
100
AcDbSpline
 62
9
  6
CONTINUOUS
 70
0
 71
3
 72
26
 73
22
 74
0
 42
0.0000001
 43
0.0000001
 44
0.0000000001
 40
0.0
 40
0.0
 40
0.0
 40
0.0
 40
0.0540088919
 40
0.1141998658
 40
0.1800489093
 40
0.2506174517
 40
0.3246892951
 40
0.400863247
 40
0.4776354124
 40
0.553473697
 40
0.6268903953
 40
0.6965175018
 40
0.7611906543
 40
0.820051186
 40
0.8726803758
 40
0.8967248071
 40
0.9193568311
 40
0.9407397067
 40
0.9611030569
 40
0.9807405953
 40
1.0
 40
1.0
 40
1.0
 40
1.0
 10
477.8913702527
 20
227.5675879726
 30
0.0
 10
475.7151340242
 20
225.6946726542
 30
0.0
 10
470.724083101
 20
222.1799843464
 30
0.0
 10
462.1610443617
 20
217.8494777259
 30
0.0
 10
452.3194745708
 20
214.2657264464
 30
0.0
 10
441.4536998515
 20
211.5222781568
 30
0.0
 10
429.8437740016
 20
209.6892188021
 30
0.0
 10
417.7931191347
 20
208.8153187172
 30
0.0
 10
405.6176734311
 20
208.9236651169
 30
0.0
 10
393.6371442414
 20
210.0113669105
 30
0.0
 10
382.1654129452
 20
212.049601301
 30
0.0
 10
371.5018258926
 20
214.9845062223
 30
0.0
 10
361.9205202349
 20
218.7411010796
 30
0.0
 10
353.6676982512
 20
223.2238230849
 30
0.0
 10
347.8986299853
 20
227.6089023912
 30
0.0
 10
344.2140373748
 20
231.4022277309
 30
0.0
 10
341.9903898848
 20
234.2671033548
 30
0.0
 10
340.2396265721
 20
237.2193047702
 30
0.0
 10
338.9760240246
 20
240.2407578567
 30
0.0
 10
338.2123512242
 20
243.3099112847
 30
0.0
 10
338.041189089
 20
245.3815610912
 30
0.0
 10
338.0412242048
 20
246.4054238245
 30
0.0
  0
SPLINE
  5
53F
100
AcDbEntity
  8
7_ALL_FEATURES
100
AcDbSpline
 62
9
  6
CONTINUOUS
 70
0
 71
3
 72
13
 73
9
 74
0
 42
0.0000001
 43
0.0000001
 44
0.0000000001
 40
0.0
 40
0.0
 40
0.0
 40
0.0
 40
0.2896830083
 40
0.5477723919
 40
0.6669510372
 40
0.7809768669
 40
0.8913956525
 40
1.0
 40
1.0
 40
1.0
 40
1.0
 10
474.208478787
 20
268.7117068724
 30
0.0
 10
476.3184853585
 20
267.2196227213
 30
0.0
 10
480.1154127785
 20
264.1032038997
 30
0.0
 10
483.938554853
 20
259.4757429622
 30
0.0
 10
486.058245327
 20
255.6264970764
 30
0.0
 10
487.1667560221
 20
252.7573819153
 30
0.0
 10
487.8254547387
 20
249.8493072461
 30
0.0
 10
487.9611914036
 20
247.8908314204
 30
0.0
 10
487.9525832777
 20
246.9220079455
 30
0.0
  0
SPLINE
  5
540
100
AcDbEntity
  8
7_ALL_FEATURES
100
AcDbSpline
 62
9
  6
CONTINUOUS
 70
0
 71
3
 72
11
 73
7
 74
0
 42
0.0000001
 43
0.0000001
 44
0.0000000001
 40
0.0
 40
0.0
 40
0.0
 40
0.0
 40
0.2252363795
 40
0.462053541
 40
0.7185491276
 40
1.0
 40
1.0
 40
1.0
 40
1.0
 10
487.9416242865
 20
246.4264737674
 30
0.0
 10
487.8853336323
 20
244.8339083236
 30
0.0
 10
487.3437297935
 20
241.5691396628
 30
0.0
 10
485.3176750784
 20
236.8615579658
 30
0.0
 10
482.1358603131
 20
232.3578415504
 30
0.0
 10
479.4222833376
 20
229.6633036626
 30
0.0
 10
477.9170166701
 20
228.3597044892
 30
0.0
  0
SPLINE
  5
541
100
AcDbEntity
  8
7_ALL_FEATURES
100
AcDbSpline
 62
9
  6
CONTINUOUS
 70
0
 71
3
 72
25
 73
21
 74
0
 42
0.0000001
 43
0.0000001
 44
0.0000000001
 40
0.0
 40
0.0
 40
0.0
 40
0.0
 40
0.0539951028
 40
0.1140748961
 40
0.1797212144
 40
0.2500163068
 40
0.3237752467
 40
0.3996340463
 40
0.4761282705
 40
0.5517641433
 40
0.625087782
 40
0.6947567899
 40
0.7596195548
 40
0.8188108412
 40
0.8718768961
 40
0.8961555581
 40
0.9190145593
 40
0.961022871
 40
0.9807456041
 40
1.0
 40
1.0
 40
1.0
 40
1.0
 10
477.6756902815
 20
227.8817854437
 30
0.0
 10
475.5036889331
 20
226.0368506367
 30
0.0
 10
470.539188302
 20
222.5744522605
 30
0.0
 10
462.0441025309
 20
218.3025370636
 30
0.0
 10
452.3004349762
 20
214.7626518923
 30
0.0
 10
441.5546619285
 20
212.0452981553
 30
0.0
 10
430.0779668878
 20
210.2184423126
 30
0.0
 10
418.1639083425
 20
209.3296381599
 30
0.0
 10
406.1181886677
 20
209.4018728908
 30
0.0
 10
394.2503810723
 20
210.4332609748
 30
0.0
 10
382.8648641572
 20
212.3970335944
 30
0.0
 10
372.2525456196
 20
215.2424176991
 30
0.0
 10
362.6808802664
 20
218.8978926595
 30
0.0
 10
354.3908317972
 20
223.2726320976
 30
0.0
 10
348.5505596441
 20
227.558122257
 30
0.0
 10
344.7752088496
 20
231.2756409709
 30
0.0
 10
341.7884487666
 20
234.917389526
 30
0.0
 10
339.5733931625
 20
238.8679862218
 30
0.0
 10
338.3691349583
 20
242.984124993
 30
0.0
 10
338.1068722416
 20
245.035252874
 30
0.0
 10
338.0606399663
 20
246.0504266514
 30
0.0
  0
LINE
  5
542
100
AcDbEntity
  8
7_ALL_FEATURES
100
AcDbLine
 62
9
  6
CONTINUOUS
 10
351.8867945688
 20
268.56156526
 11
351.9071044851
 21
268.5772236269
  0
SPLINE
  5
543
100
AcDbEntity
  8
7_ALL_FEATURES
100
AcDbSpline
 62
9
  6
CONTINUOUS
 70
0
 71
3
 72
19
 73
15
 74
0
 42
0.0000001
 43
0.0000001
 44
0.0000000001
 40
0.0
 40
0.0
 40
0.0
 40
0.0
 40
0.0519995797
 40
0.1076889241
 40
0.1667855025
 40
0.2288904295
 40
0.3600726141
 40
0.4967707356
 40
0.6339272227
 40
0.7664436703
 40
0.8295065047
 40
0.889723028
 40
0.9466638296
 40
1.0
 40
1.0
 40
1.0
 40
1.0
 10
355.2522522089
 20
270.9433985579
 30
0.0
 10
356.9717513807
 20
272.0625071534
 30
0.0
 10
360.6611355351
 20
274.1863346892
 30
0.0
 10
366.6451787835
 20
276.9409654396
 30
0.0
 10
373.2042241654
 20
279.345998063
 30
0.0
 10
382.7819602879
 20
282.0953214418
 30
0.0
 10
395.6268038488
 20
284.4326449059
 30
0.0
 10
411.6054710694
 20
285.4728268289
 30
0.0
 10
427.6539823266
 20
284.7455997102
 30
0.0
 10
440.6513890018
 20
282.6640831953
 30
0.0
 10
450.4221403792
 20
280.1110683639
 30
0.0
 10
457.1664404164
 20
277.8379752493
 30
0.0
 10
463.3634571873
 20
275.2042326215
 30
0.0
 10
467.2120530379
 20
273.1585432175
 30
0.0
 10
469.0166875464
 20
272.0761680345
 30
0.0
  0
SPLINE
  5
544
100
AcDbEntity
  8
7_ALL_FEATURES
100
AcDbSpline
 62
9
  6
CONTINUOUS
 70
0
 71
3
 72
9
 73
5
 74
0
 42
0.0000001
 43
0.0000001
 44
0.0000000001
 40
0.0
 40
0.0
 40
0.0
 40
0.0
 40
0.2554160659
 40
1.0
 40
1.0
 40
1.0
 40
1.0
 10
469.0166875464
 20
272.0761680345
 30
0.0
 10
469.340538626
 20
271.8819301599
 30
0.0
 10
470.6013215113
 20
271.1096291055
 30
0.0
 10
471.8328362179
 20
270.2892559155
 30
0.0
 10
472.7288866409
 20
269.649713188
 30
0.0
  0
SPLINE
  5
545
100
AcDbEntity
  8
7_ALL_FEATURES
100
AcDbSpline
 62
9
  6
CONTINUOUS
 70
0
 71
3
 72
15
 73
11
 74
0
 42
0.0000001
 43
0.0000001
 44
0.0000000001
 40
0.0
 40
0.0
 40
0.0
 40
0.0
 40
0.1443950213
 40
0.2748463057
 40
0.3940446463
 40
0.506429743
 40
0.6177898178
 40
0.7341394145
 40
0.8604510328
 40
1.0
 40
1.0
 40
1.0
 40
1.0
 10
474.4280904387
 20
268.3811786542
 30
0.0
 10
476.1270573612
 20
267.0534338712
 30
0.0
 10
479.1955039878
 20
264.2973149803
 30
0.0
 10
482.8323894875
 20
259.6249436144
 30
0.0
 10
485.1748728275
 20
254.695506663
 30
0.0
 10
486.1325088517
 20
249.6004522321
 30
0.0
 10
485.6522679145
 20
244.4790902612
 30
0.0
 10
483.7622634041
 20
239.4819349079
 30
0.0
 10
480.5475771545
 20
234.7164514126
 30
0.0
 10
477.7287108142
 20
231.8889778545
 30
0.0
 10
476.1534459127
 20
230.5247584321
 30
0.0
  0
SPLINE
  5
546
100
AcDbEntity
  8
7_ALL_FEATURES
100
AcDbSpline
 62
9
  6
CONTINUOUS
 70
0
 71
3
 72
9
 73
5
 74
0
 42
0.0000001
 43
0.0000001
 44
0.0000000001
 40
0.0
 40
0.0
 40
0.0
 40
0.0
 40
0.2450366683
 40
1.0
 40
1.0
 40
1.0
 40
1.0
 10
476.1534459127
 20
230.5247584321
 30
0.0
 10
475.9351118216
 20
230.3356755627
 30
0.0
 10
475.0361470302
 20
229.5732189361
 30
0.0
 10
474.1065470553
 20
228.8470462084
 30
0.0
 10
473.3907580571
 20
228.3183243675
 30
0.0
  0
SPLINE
  5
547
100
AcDbEntity
  8
7_ALL_FEATURES
100
AcDbSpline
 62
9
  6
CONTINUOUS
 70
0
 71
3
 72
9
 73
5
 74
0
 42
0.0000001
 43
0.0000001
 44
0.0000000001
 40
0.0
 40
0.0
 40
0.0
 40
0.0
 40
0.2410431494
 40
1.0
 40
1.0
 40
1.0
 40
1.0
 10
473.3907580571
 20
228.3183243675
 30
0.0
 10
472.9015788973
 20
227.9569892442
 30
0.0
 10
470.8445404282
 20
226.4954478089
 30
0.0
 10
468.6847821103
 20
225.1805119191
 30
0.0
 10
467.0076208248
 20
224.2564563031
 30
0.0
  0
SPLINE
  5
548
100
AcDbEntity
  8
7_ALL_FEATURES
100
AcDbSpline
 62
9
  6
CONTINUOUS
 70
0
 71
3
 72
9
 73
5
 74
0
 42
0.0000001
 43
0.0000001
 44
0.0000000001
 40
0.0
 40
0.0
 40
0.0
 40
0.0
 40
0.4758040272
 40
1.0
 40
1.0
 40
1.0
 40
1.0
 10
467.0076208248
 20
224.2564563031
 30
0.0
 10
463.5606317989
 20
222.3572891834
 30
0.0
 10
455.9602260688
 20
219.0023213664
 30
0.0
 10
447.9976685196
 20
216.6867012392
 30
0.0
 10
443.774539254
 20
215.7046056432
 30
0.0
  0
SPLINE
  5
549
100
AcDbEntity
  8
7_ALL_FEATURES
100
AcDbSpline
 62
9
  6
CONTINUOUS
 70
0
 71
3
 72
11
 73
7
 74
0
 42
0.0000001
 43
0.0000001
 44
0.0000000001
 40
0.0
 40
0.0
 40
0.0
 40
0.0
 40
0.2466055176
 40
0.4997574706
 40
0.7530326358
 40
1.0
 40
1.0
 40
1.0
 40
1.0
 10
439.6093290027
 20
214.8135909561
 30
0.0
 10
435.3379079465
 20
213.977403479
 30
0.0
 10
426.5887191809
 20
212.7328488984
 30
0.0
 10
413.295016573
 20
212.1016123484
 30
0.0
 10
399.9928206905
 20
212.686748654
 30
0.0
 10
391.230746588
 20
213.9004737606
 30
0.0
 10
386.9498352415
 20
214.7212540664
 30
0.0
  0
SPLINE
  5
54A
100
AcDbEntity
  8
7_ALL_FEATURES
100
AcDbSpline
 62
9
  6
CONTINUOUS
 70
0
 71
3
 72
22
 73
18
 74
0
 42
0.0000001
 43
0.0000001
 44
0.0000000001
 40
0.0
 40
0.0
 40
0.0
 40
0.0
 40
0.1733689272
 40
0.2545755646
 40
0.3314288376
 40
0.4035700675
 40
0.4707938646
 40
0.5330876587
 40
0.5906803453
 40
0.6440932892
 40
0.6941822119
 40
0.7421392609
 40
0.7894157772
 40
0.8375552338
 40
0.8879827815
 40
0.9418554428
 40
1.0
 40
1.0
 40
1.0
 40
1.0
 10
386.6566734072
 20
214.7778246458
 30
0.0
 10
382.0709905966
 20
215.6683912373
 30
0.0
 10
375.3965468684
 20
217.3517992204
 30
0.0
 10
367.0009782261
 20
220.4126694466
 30
0.0
 10
361.3419525241
 20
222.9684114472
 30
0.0
 10
356.2451440796
 20
225.8062610902
 30
0.0
 10
351.7647123878
 20
228.897262821
 30
0.0
 10
347.9488466842
 20
232.210681977
 30
0.0
 10
344.8395428448
 20
235.7149565817
 30
0.0
 10
342.4742187841
 20
239.3777029823
 30
0.0
 10
340.8873146662
 20
243.16358085
 30
0.0
 10
340.1092681689
 20
247.0294951764
 30
0.0
 10
340.158824226
 20
250.9214727649
 30
0.0
 10
341.034716249
 20
254.7803985948
 30
0.0
 10
342.7160710322
 20
258.5537831597
 30
0.0
 10
345.1716619185
 20
262.1992717934
 30
0.0
 10
347.2199234001
 20
264.4313015125
 30
0.0
 10
348.3477285678
 20
265.5187528002
 30
0.0
  0
SPLINE
  5
54B
100
AcDbEntity
  8
7_ALL_FEATURES
100
AcDbSpline
 62
9
  6
CONTINUOUS
 70
0
 71
3
 72
25
 73
21
 74
0
 42
0.0000001
 43
0.0000001
 44
0.0000000001
 40
0.0
 40
0.0
 40
0.0
 40
0.0
 40
0.0548144906
 40
0.1161399947
 40
0.1833799898
 40
0.255476898
 40
0.3310691146
 40
0.4085978381
 40
0.4864030854
 40
0.5628106347
 40
0.6362185244
 40
0.7051885361
 40
0.7685509084
 40
0.8255363344
 40
0.8759570055
 40
0.920455493
 40
0.9410398756
 40
0.9608961781
 40
0.9804105266
 40
1.0
 40
1.0
 40
1.0
 40
1.0
 10
371.4719878951
 20
260.7436924149
 30
0.0
 10
372.9160190341
 20
261.9942600652
 30
0.0
 10
376.2478163747
 20
264.3342908115
 30
0.0
 10
381.9832054208
 20
267.1915392679
 30
0.0
 10
388.5903089885
 20
269.5288538431
 30
0.0
 10
395.8850197987
 20
271.2802792417
 30
0.0
 10
403.6644820104
 20
272.3975581306
 30
0.0
 10
411.7092735521
 20
272.8485373375
 30
0.0
 10
419.7918059528
 20
272.6203505564
 30
0.0
 10
427.6832113978
 20
271.7195053082
 30
0.0
 10
435.1607025376
 20
270.171825739
 30
0.0
 10
442.014781751
 20
268.0209063777
 30
0.0
 10
448.0560153876
 20
265.3263069825
 30
0.0
 10
453.121376047
 20
262.1560092819
 30
0.0
 10
457.0745716869
 20
258.5865949508
 30
0.0
 10
459.4021140656
 20
255.239362357
 30
0.0
 10
460.5136629565
 20
252.4840462125
 30
0.0
 10
460.9802574209
 20
250.4374688921
 30
0.0
 10
461.0941255641
 20
248.3762958626
 30
0.0
 10
460.935462841
 20
247.0151121113
 30
0.0
 10
460.8009965816
 20
246.3457966283
 30
0.0
  0
SPLINE
  5
54C
100
AcDbEntity
  8
7_ALL_FEATURES
100
AcDbSpline
 62
9
  6
CONTINUOUS
 70
0
 71
3
 72
11
 73
7
 74
0
 42
0.0000001
 43
0.0000001
 44
0.0000000001
 40
0.0
 40
0.0
 40
0.0
 40
0.0
 40
0.2270839064
 40
0.4672173888
 40
0.7241161021
 40
1.0
 40
1.0
 40
1.0
 40
1.0
 10
460.5836154619
 20
245.4379682929
 30
0.0
 10
460.3667535398
 20
244.6583412461
 30
0.0
 10
459.7694030359
 20
243.0933683279
 30
0.0
 10
458.4567998878
 20
240.8602128982
 30
0.0
 10
456.7247774581
 20
238.707829346
 30
0.0
 10
455.3536015607
 20
237.3873007598
 30
0.0
 10
454.6104266584
 20
236.7436924149
 30
0.0
  0
SPLINE
  5
54D
100
AcDbEntity
  8
7_ALL_FEATURES
100
AcDbSpline
 62
9
  6
CONTINUOUS
 70
0
 71
3
 72
9
 73
5
 74
0
 42
0.0000001
 43
0.0000001
 44
0.0000000001
 40
0.0
 40
0.0
 40
0.0
 40
0.0
 40
0.2430319157
 40
1.0
 40
1.0
 40
1.0
 40
1.0
 10
465.7912072767
 20
248.310679713
 30
0.0
 10
465.7912072765
 20
248.3679305777
 30
0.0
 10
465.8066523733
 20
248.6034860194
 30
0.0
 10
465.8859200739
 20
248.8328810324
 30
0.0
 10
465.97009715
 20
248.9900805672
 30
0.0
  0
SPLINE
  5
54E
100
AcDbEntity
  8
7_ALL_FEATURES
100
AcDbSpline
 62
9
  6
CONTINUOUS
 70
0
 71
3
 72
8
 73
4
 74
0
 42
0.0000001
 43
0.0000001
 44
0.0000000001
 40
0.0
 40
0.0
 40
0.0
 40
0.0
 40
1.0
 40
1.0
 40
1.0
 40
1.0
 10
465.97009715
 20
248.9900805672
 30
0.0
 10
466.0034560418
 20
249.0523778399
 30
0.0
 10
466.0407184247
 20
249.1126964124
 30
0.0
 10
466.0809973471
 20
249.1707599488
 30
0.0
  0
SPLINE
  5
54F
100
AcDbEntity
  8
7_ALL_FEATURES
100
AcDbSpline
 62
9
  6
CONTINUOUS
 70
0
 71
3
 72
8
 73
4
 74
0
 42
0.0000001
 43
0.0000001
 44
0.0000000001
 40
0.0
 40
0.0
 40
0.0
 40
0.0
 40
1.0
 40
1.0
 40
1.0
 40
1.0
 10
476.0014171898
 20
249.1707599728
 30
0.0
 10
476.0416961241
 20
249.112696421
 30
0.0
 10
476.0789585174
 20
249.052377832
 30
0.0
 10
476.1123174172
 20
248.9900805416
 30
0.0
  0
SPLINE
  5
550
100
AcDbEntity
  8
7_ALL_FEATURES
100
AcDbSpline
 62
9
  6
CONTINUOUS
 70
0
 71
3
 72
9
 73
5
 74
0
 42
0.0000001
 43
0.0000001
 44
0.0000000001
 40
0.0
 40
0.0
 40
0.0
 40
0.0
 40
0.2614489456
 40
1.0
 40
1.0
 40
1.0
 40
1.0
 10
476.1123174172
 20
248.9900805416
 30
0.0
 10
476.1413834453
 20
248.9358001306
 30
0.0
 10
476.2415111165
 20
248.7226085502
 30
0.0
 10
476.2912072758
 20
248.4846126395
 30
0.0
 10
476.2912072767
 20
248.310679713
 30
0.0
  0
SPLINE
  5
551
100
AcDbEntity
  8
7_ALL_FEATURES
100
AcDbSpline
 62
9
  6
CONTINUOUS
 70
0
 71
3
 72
9
 73
5
 74
0
 42
0.0000001
 43
0.0000001
 44
0.0000000001
 40
0.0
 40
0.0
 40
0.0
 40
0.0
 40
0.4912536105
 40
1.0
 40
1.0
 40
1.0
 40
1.0
 10
365.5412595104
 20
248.310679713
 30
0.0
 10
365.5412572714
 20
249.193165829
 30
0.0
 10
365.7448722539
 20
250.9948841634
 30
0.0
 10
366.3312132519
 20
252.7078141114
 30
0.0
 10
366.7072635975
 20
253.5407713536
 30
0.0
  0
SPLINE
  5
552
100
AcDbEntity
  8
7_ALL_FEATURES
100
AcDbSpline
 62
9
  6
CONTINUOUS
 70
0
 71
3
 72
9
 73
5
 74
0
 42
0.0000001
 43
0.0000001
 44
0.0000000001
 40
0.0
 40
0.0
 40
0.0
 40
0.0
 40
0.4728250529
 40
1.0
 40
1.0
 40
1.0
 40
1.0
 10
366.7072635975
 20
253.5407713536
 30
0.0
 10
367.2575674894
 20
254.7597028546
 30
0.0
 10
368.7813443204
 20
257.180559467
 30
0.0
 10
370.7778152944
 20
259.2095086062
 30
0.0
 10
371.905000597
 20
260.185679713
 30
0.0
  0
SPLINE
  5
553
100
AcDbEntity
  8
7_ALL_FEATURES
100
AcDbSpline
 62
9
  6
CONTINUOUS
 70
0
 71
3
 72
8
 73
4
 74
0
 42
0.0000001
 43
0.0000001
 44
0.0000000001
 40
0.0
 40
0.0
 40
0.0
 40
0.0
 40
1.0
 40
1.0
 40
1.0
 40
1.0
 10
389.0013484646
 20
224.0560133657
 30
0.0
 10
389.0416443089
 20
223.997949293
 30
0.0
 10
389.0789308114
 20
223.9376346576
 30
0.0
 10
389.1123186844
 20
223.8753414672
 30
0.0
  0
SPLINE
  5
554
100
AcDbEntity
  8
7_ALL_FEATURES
100
AcDbSpline
 62
9
  6
CONTINUOUS
 70
0
 71
3
 72
9
 73
5
 74
0
 42
0.0000001
 43
0.0000001
 44
0.0000000001
 40
0.0
 40
0.0
 40
0.0
 40
0.0
 40
0.2612424082
 40
1.0
 40
1.0
 40
1.0
 40
1.0
 10
389.1123186844
 20
223.8753414672
 30
0.0
 10
389.1413833153
 20
223.8211143355
 30
0.0
 10
389.2416311064
 20
223.6079691716
 30
0.0
 10
389.291211646
 20
223.3699274453
 30
0.0
 10
389.2912072768
 20
223.1959430033
 30
0.0
  0
SPLINE
  5
555
100
AcDbEntity
  8
7_ALL_FEATURES
100
AcDbSpline
 62
9
  6
CONTINUOUS
 70
0
 71
3
 72
24
 73
20
 74
0
 42
0.0000001
 43
0.0000001
 44
0.0000000001
 40
0.0
 40
0.0
 40
0.0
 40
0.0
 40
0.053926841
 40
0.1140498988
 40
0.179849688
 40
0.2503901951
 40
0.3244553728
 40
0.4006421884
 40
0.4774439715
 40
0.553324811
 40
0.6267926226
 40
0.6964748534
 40
0.7612027312
 40
0.8201133147
 40
0.872784336
 40
0.9194205233
 40
0.9610877459
 40
0.9807335187
 40
1.0
 40
1.0
 40
1.0
 40
1.0
 10
371.905000597
 20
260.185679713
 30
0.0
 10
373.2784324262
 20
261.3751065675
 30
0.0
 10
376.4318069185
 20
263.6078956249
 30
0.0
 10
381.8474246298
 20
266.3599674837
 30
0.0
 10
388.0766061749
 20
268.6390119604
 30
0.0
 10
394.9580259398
 20
270.3854501393
 30
0.0
 10
402.3139967807
 20
271.554627993
 30
0.0
 10
409.9519059721
 20
272.1153837364
 30
0.0
 10
417.6711057658
 20
272.0528610429
 30
0.0
 10
425.2685069384
 20
271.3687064521
 30
0.0
 10
432.5445942003
 20
270.0811159854
 30
0.0
 10
439.3093003513
 20
268.2240927453
 30
0.0
 10
445.3877198352
 20
265.845549442
 30
0.0
 10
450.6254478845
 20
263.004982234
 30
0.0
 10
454.8916818121
 20
259.7655937639
 30
0.0
 10
458.0775059354
 20
256.1944866698
 30
0.0
 10
459.7743495002
 20
252.9175448144
 30
0.0
 10
460.4325782546
 20
250.273327452
 30
0.0
 10
460.5411533844
 20
248.9597977875
 30
0.0
 10
460.5411550431
 20
248.3106799303
 30
0.0
  0
SPLINE
  5
556
100
AcDbEntity
  8
7_ALL_FEATURES
100
AcDbSpline
 62
9
  6
CONTINUOUS
 70
0
 71
3
 72
23
 73
19
 74
0
 42
0.0000001
 43
0.0000001
 44
0.0000000001
 40
0.0
 40
0.0
 40
0.0
 40
0.0
 40
0.0529360927
 40
0.1115961141
 40
0.1755412611
 40
0.2439805716
 40
0.3158825926
 40
0.3900496909
 40
0.4651844558
 40
0.5399483501
 40
0.6130184815
 40
0.6831451099
 40
0.74921351
 40
0.8103152674
 40
0.8658373132
 40
0.9155810657
 40
0.959923195
 40
1.0
 40
1.0
 40
1.0
 40
1.0
 10
454.3970322082
 20
236.5607622612
 30
0.0
 10
453.0715357801
 20
235.4359601895
 30
0.0
 10
450.0592819799
 20
233.3173506479
 30
0.0
 10
444.9205178355
 20
230.6754556962
 30
0.0
 10
439.0392260915
 20
228.45658147
 30
0.0
 10
432.5514453379
 20
226.7124355761
 30
0.0
 10
425.6067397569
 20
225.4828178701
 30
0.0
 10
418.3673144166
 20
224.7968773827
 30
0.0
 10
411.0028256264
 20
224.6708179726
 30
0.0
 10
403.6862097466
 20
225.1076572856
 30
0.0
 10
396.589154914
 20
226.0970088078
 30
0.0
 10
389.8776732851
 20
227.6155013697
 30
0.0
 10
383.7077314366
 20
229.6275969127
 30
0.0
 10
378.2210662102
 20
232.0875144717
 30
0.0
 10
373.5416955187
 20
234.9412104399
 30
0.0
 10
369.7741866799
 20
238.1337680289
 30
0.0
 10
367.0086074316
 20
241.6057036676
 30
0.0
 10
365.8514159543
 20
244.1701116918
 30
0.0
 10
365.4987397061
 20
245.4381038632
 30
0.0
  0
SPLINE
  5
557
100
AcDbEntity
  8
7_ALL_FEATURES
100
AcDbSpline
 62
9
  6
CONTINUOUS
 70
0
 71
3
 72
9
 73
5
 74
0
 42
0.0000001
 43
0.0000001
 44
0.0000000001
 40
0.0
 40
0.0
 40
0.0
 40
0.0
 40
0.4938935735
 40
1.0
 40
1.0
 40
1.0
 40
1.0
 10
365.2813515484
 20
246.346088325
 30
0.0
 10
365.0380459375
 20
247.5574043264
 30
0.0
 10
364.916904661
 20
250.1024961042
 30
0.0
 10
365.590456223
 20
252.5547083773
 30
0.0
 10
366.084543438
 20
253.7203790718
 30
0.0
  0
SPLINE
  5
558
100
AcDbEntity
  8
7_ALL_FEATURES
100
AcDbSpline
 62
9
  6
CONTINUOUS
 70
0
 71
3
 72
9
 73
5
 74
0
 42
0.0000001
 43
0.0000001
 44
0.0000000001
 40
0.0
 40
0.0
 40
0.0
 40
0.0
 40
0.4730283112
 40
1.0
 40
1.0
 40
1.0
 40
1.0
 10
366.2468102837
 20
254.0888867533
 30
0.0
 10
366.8043700477
 20
255.3092827661
 30
0.0
 10
368.3389913732
 20
257.7319548707
 30
0.0
 10
370.3420716666
 20
259.7651562569
 30
0.0
 10
371.4719878951
 20
260.7436924149
 30
0.0
  0
SPLINE
  5
559
100
AcDbEntity
  8
7_ALL_FEATURES
100
AcDbSpline
 62
9
  6
CONTINUOUS
 70
0
 71
3
 72
9
 73
5
 74
0
 42
0.0000001
 43
0.0000001
 44
0.0000000001
 40
0.0
 40
0.0
 40
0.0
 40
0.0
 40
0.2538597784
 40
1.0
 40
1.0
 40
1.0
 40
1.0
 10
459.4762585853
 20
251.4063092973
 30
0.0
 10
459.5461361883
 20
251.2440848101
 30
0.0
 10
459.809552011
 20
250.6000383962
 30
0.0
 10
460.0243243638
 20
249.9359185225
 30
0.0
 10
460.1535960182
 20
249.4331101079
 30
0.0
  0
SPLINE
  5
55A
100
AcDbEntity
  8
7_ALL_FEATURES
100
AcDbSpline
 62
9
  6
CONTINUOUS
 70
0
 71
3
 72
15
 73
11
 74
0
 42
0.0000001
 43
0.0000001
 44
0.0000000001
 40
0.0
 40
0.0
 40
0.0
 40
0.0
 40
0.1443922843
 40
0.2748416484
 40
0.3940391089
 40
0.5064244168
 40
0.6177855698
 40
0.7341366586
 40
0.8604497423
 40
1.0
 40
1.0
 40
1.0
 40
1.0
 10
474.6082686778
 20
268.3610814509
 30
0.0
 10
476.312023632
 20
267.0294839457
 30
0.0
 10
479.3891057319
 20
264.2653752777
 30
0.0
 10
483.0361634986
 20
259.579500475
 30
0.0
 10
485.3851214202
 20
254.6358483879
 30
0.0
 10
486.3452851479
 20
249.5261322787
 30
0.0
 10
485.8634893446
 20
244.3900573822
 30
0.0
 10
483.9679357761
 20
239.378554356
 30
0.0
 10
480.7439444017
 20
234.5993822744
 30
0.0
 10
477.9169563887
 20
231.7637753794
 30
0.0
 10
476.3371576434
 20
230.3956295331
 30
0.0
  0
SPLINE
  5
55B
100
AcDbEntity
  8
7_ALL_FEATURES
100
AcDbSpline
 62
9
  6
CONTINUOUS
 70
0
 71
3
 72
14
 73
10
 74
0
 42
0.0000001
 43
0.0000001
 44
0.0000000001
 40
0.0
 40
0.0
 40
0.0
 40
0.0
 40
0.3241102403
 40
0.464743546
 40
0.5901478961
 40
0.7017372667
 40
0.8031081624
 40
0.9001625016
 40
1.0
 40
1.0
 40
1.0
 40
1.0
 10
386.9162072767
 20
226.118778741
 30
0.0
 10
387.4030123536
 20
225.9782502199
 30
0.0
 10
388.0894133967
 20
225.7147706992
 30
0.0
 10
388.8675703801
 20
225.2136611042
 30
0.0
 10
389.3065822258
 20
224.8138047095
 30
0.0
 10
389.6172827236
 20
224.3796245918
 30
0.0
 10
389.7873948419
 20
223.9182000145
 30
0.0
 10
389.8046157397
 20
223.4442697025
 30
0.0
 10
389.7162176332
 20
223.1436602295
 30
0.0
 10
389.6524386849
 20
223.001209987
 30
0.0
  0
SPLINE
  5
55C
100
AcDbEntity
  8
7_ALL_FEATURES
100
AcDbSpline
 62
9
  6
CONTINUOUS
 70
0
 71
3
 72
10
 73
6
 74
0
 42
0.0000001
 43
0.0000001
 44
0.0000000001
 40
0.0
 40
0.0
 40
0.0
 40
0.0
 40
0.2159569964
 40
0.5799170015
 40
1.0
 40
1.0
 40
1.0
 40
1.0
 10
389.6524386849
 20
223.001209987
 30
0.0
 10
389.5954419157
 20
222.8739077377
 30
0.0
 10
389.4011930908
 20
222.5498404615
 30
0.0
 10
388.9393810122
 20
222.0883829713
 30
0.0
 10
388.5113422315
 20
221.8120890609
 30
0.0
 10
388.2729554104
 20
221.6825324818
 30
0.0
  0
SPLINE
  5
55D
100
AcDbEntity
  8
7_ALL_FEATURES
100
AcDbSpline
 62
9
  6
CONTINUOUS
 70
0
 71
3
 72
9
 73
5
 74
0
 42
0.0000001
 43
0.0000001
 44
0.0000000001
 40
0.0
 40
0.0
 40
0.0
 40
0.0
 40
0.2327589062
 40
1.0
 40
1.0
 40
1.0
 40
1.0
 10
388.2729554104
 20
221.6825324818
 30
0.0
 10
388.1504222942
 20
221.6159391555
 30
0.0
 10
387.612652184
 20
221.3507385195
 30
0.0
 10
387.0387478247
 20
221.1629514826
 30
0.0
 10
386.592522867
 20
221.0524641269
 30
0.0
  0
SPLINE
  5
55E
100
AcDbEntity
  8
7_ALL_FEATURES
100
AcDbSpline
 62
9
  6
CONTINUOUS
 70
0
 71
3
 72
9
 73
5
 74
0
 42
0.0000001
 43
0.0000001
 44
0.0000000001
 40
0.0
 40
0.0
 40
0.0
 40
0.0
 40
0.4999008732
 40
1.0
 40
1.0
 40
1.0
 40
1.0
 10
386.592522867
 20
221.0524641269
 30
0.0
 10
385.762744071
 20
220.8470070734
 30
0.0
 10
384.045110563
 20
220.6614425617
 30
0.0
 10
382.3274479672
 20
220.8459964368
 30
0.0
 10
381.4971355737
 20
221.0507072129
 30
0.0
  0
SPLINE
  5
55F
100
AcDbEntity
  8
7_ALL_FEATURES
100
AcDbSpline
 62
9
  6
CONTINUOUS
 70
0
 71
3
 72
9
 73
5
 74
0
 42
0.0000001
 43
0.0000001
 44
0.0000000001
 40
0.0
 40
0.0
 40
0.0
 40
0.0
 40
0.2485122294
 40
1.0
 40
1.0
 40
1.0
 40
1.0
 10
488.0411903487
 20
246.4054237968
 30
0.0
 10
488.0411772899
 20
246.0246886497
 30
0.0
 10
487.9946309695
 20
244.4928947825
 30
0.0
 10
487.7593870979
 20
242.9675619068
 30
0.0
 10
487.4855812644
 20
241.8492709522
 30
0.0
  0
SPLINE
  5
560
100
AcDbEntity
  8
7_ALL_FEATURES
100
AcDbSpline
 62
9
  6
CONTINUOUS
 70
0
 71
3
 72
9
 73
5
 74
0
 42
0.0000001
 43
0.0000001
 44
0.0000000001
 40
0.0
 40
0.0
 40
0.0
 40
0.0
 40
0.2461333242
 40
1.0
 40
1.0
 40
1.0
 40
1.0
 10
487.4855812644
 20
241.8492709522
 30
0.0
 10
487.4118403656
 20
241.5480948262
 30
0.0
 10
487.0838375612
 20
240.3315258402
 30
0.0
 10
486.643748015
 20
239.1457402814
 30
0.0
 10
486.258377652
 20
238.2777414156
 30
0.0
  0
SPLINE
  5
561
100
AcDbEntity
  8
7_ALL_FEATURES
100
AcDbSpline
 62
9
  6
CONTINUOUS
 70
0
 71
3
 72
9
 73
5
 74
0
 42
0.0000001
 43
0.0000001
 44
0.0000000001
 40
0.0
 40
0.0
 40
0.0
 40
0.0
 40
0.232681406
 40
1.0
 40
1.0
 40
1.0
 40
1.0
 10
485.6366293127
 20
236.9859598719
 30
0.0
 10
485.2041816796
 20
236.1527086889
 30
0.0
 10
483.1376806106
 20
232.6791777528
 30
0.0
 10
480.3333582787
 20
229.6821360677
 30
0.0
 10
477.9931125606
 20
227.6554238247
 30
0.0
  0
SPLINE
  5
562
100
AcDbEntity
  8
7_ALL_FEATURES
100
AcDbSpline
 62
9
  6
CONTINUOUS
 70
0
 71
3
 72
11
 73
7
 74
0
 42
0.0000001
 43
0.0000001
 44
0.0000000001
 40
0.0
 40
0.0
 40
0.0
 40
0.0
 40
0.2252524362
 40
0.4619470156
 40
0.7183897052
 40
1.0
 40
1.0
 40
1.0
 40
1.0
 10
488.034703509
 20
246.4114888605
 30
0.0
 10
487.9924143312
 20
244.8038540254
 30
0.0
 10
487.4718144366
 20
241.5050258357
 30
0.0
 10
485.4507279887
 20
236.7446397864
 30
0.0
 10
482.250509804
 20
232.1916584437
 30
0.0
 10
479.512951686
 20
229.4702450594
 30
0.0
 10
477.9931125606
 20
228.154025767
 30
0.0
  0
SPLINE
  5
563
100
AcDbEntity
  8
7_ALL_FEATURES
100
AcDbSpline
 62
9
  6
CONTINUOUS
 70
0
 71
3
 72
9
 73
5
 74
0
 42
0.0000001
 43
0.0000001
 44
0.0000000001
 40
0.0
 40
0.0
 40
0.0
 40
0.0
 40
0.2643489105
 40
1.0
 40
1.0
 40
1.0
 40
1.0
 10
381.1662072767
 20
221.1391326693
 30
0.0
 10
381.0411097924
 20
221.1752452024
 30
0.0
 10
380.5713043107
 20
221.3229236226
 30
0.0
 10
380.1144425631
 20
221.5155808365
 30
0.0
 10
379.7965737898
 20
221.6895186943
 30
0.0
  0
SPLINE
  5
564
100
AcDbEntity
  8
7_ALL_FEATURES
100
AcDbSpline
 62
9
  6
CONTINUOUS
 70
0
 71
3
 72
9
 73
5
 74
0
 42
0.0000001
 43
0.0000001
 44
0.0000000001
 40
0.0
 40
0.0
 40
0.0
 40
0.0
 40
0.2797691288
 40
1.0
 40
1.0
 40
1.0
 40
1.0
 10
379.7965737898
 20
221.6895186943
 30
0.0
 10
379.666402316
 20
221.7607485514
 30
0.0
 10
379.2133046827
 20
222.0341503095
 30
0.0
 10
378.8025499458
 20
222.3974358915
 30
0.0
 10
378.589719932
 20
222.7146546429
 30
0.0
  0
SPLINE
  5
565
100
AcDbEntity
  8
7_ALL_FEATURES
100
AcDbSpline
 62
9
  6
CONTINUOUS
 70
0
 71
3
 72
18
 73
14
 74
0
 42
0.0000001
 43
0.0000001
 44
0.0000000001
 40
0.0
 40
0.0
 40
0.0
 40
0.0
 40
0.043551342
 40
0.0841884791
 40
0.1244429389
 40
0.1669474145
 40
0.2137750363
 40
0.2661662373
 40
0.3886096802
 40
0.532081791
 40
0.6887388529
 40
0.8482859849
 40
1.0
 40
1.0
 40
1.0
 40
1.0
 10
378.589719932
 20
222.7146546429
 30
0.0
 10
378.5021193431
 20
222.8452215161
 30
0.0
 10
378.3597024041
 20
223.118135968
 30
0.0
 10
378.26971539
 20
223.5650127919
 30
0.0
 10
378.3201982932
 20
224.0147649962
 30
0.0
 10
378.5073689794
 20
224.4497889504
 30
0.0
 10
378.820363914
 20
224.8597417603
 30
0.0
 10
379.4241684729
 20
225.3909579835
 30
0.0
 10
380.4556883325
 20
225.9299193117
 30
0.0
 10
381.9297595632
 20
226.3482374523
 30
0.0
 10
383.5856149567
 20
226.5371376857
 30
0.0
 10
385.2794087152
 20
226.4796361035
 30
0.0
 10
386.389970562
 20
226.2706901955
 30
0.0
 10
386.9162072767
 20
226.118778741
 30
0.0
  0
SPLINE
  5
566
100
AcDbEntity
  8
3_ALL_AXES
100
AcDbSpline
 62
7
  6
CONTINUOUS
 70
0
 71
3
 72
9
 73
5
 74
0
 42
0.0000001
 43
0.0000001
 44
0.0000000001
 40
0.0
 40
0.0
 40
0.0
 40
0.0
 40
0.2419198011
 40
1.0
 40
1.0
 40
1.0
 40
1.0
 10
465.8105493726
 20
248.1019934154
 30
0.0
 10
465.818107471
 20
248.1458617729
 30
0.0
 10
465.858208202
 20
248.3256451699
 30
0.0
 10
465.9332812999
 20
248.4969021584
 30
0.0
 10
466.0038691653
 20
248.6172149728
 30
0.0
  0
SPLINE
  5
567
100
AcDbEntity
  8
3_ALL_AXES
100
AcDbSpline
 62
7
  6
CONTINUOUS
 70
0
 71
3
 72
9
 73
5
 74
0
 42
0.0000001
 43
0.0000001
 44
0.0000000001
 40
0.0
 40
0.0
 40
0.0
 40
0.0
 40
0.2604127947
 40
1.0
 40
1.0
 40
1.0
 40
1.0
 10
476.0785453882
 20
248.6172149728
 30
0.0
 10
476.102769122
 20
248.5759270606
 30
0.0
 10
476.1894434648
 20
248.4138174326
 30
0.0
 10
476.248652325
 20
248.2364393877
 30
0.0
 10
476.2717830376
 20
248.1024696814
 30
0.0
  0
SPLINE
  5
568
100
AcDbEntity
  8
3_ALL_AXES
100
AcDbSpline
 62
7
  6
CONTINUOUS
 70
0
 71
3
 72
8
 73
4
 74
0
 42
0.0000001
 43
0.0000001
 44
0.0000000001
 40
0.0
 40
0.0
 40
0.0
 40
0.0
 40
1.0
 40
1.0
 40
1.0
 40
1.0
 10
389.1963329374
 20
223.2597148178
 30
0.0
 10
389.2265710563
 20
223.1812903199
 30
0.0
 10
389.2503503642
 20
223.0999949345
 30
0.0
 10
389.2664041308
 20
223.0174902541
 30
0.0
  0
SPLINE
  5
569
100
AcDbEntity
  8
7_ALL_FEATURES
100
AcDbSpline
 62
7
  6
CONTINUOUS
 70
0
 71
3
 72
17
 73
13
 74
0
 42
0.0000001
 43
0.0000001
 44
0.0000000001
 40
0.0
 40
0.0
 40
0.0
 40
0.0
 40
0.1281677449
 40
0.2461327339
 40
0.3660286349
 40
0.4284999773
 40
0.4927031576
 40
0.5607602658
 40
0.6251843142
 40
0.7460608357
 40
0.8660071045
 40
1.0
 40
1.0
 40
1.0
 40
1.0
 10
444.1157928495
 20
274.875391804
 30
0.0
 10
444.189252796
 20
274.9390099838
 30
0.0
 10
444.284165398
 20
275.077989248
 30
0.0
 10
444.2220426588
 20
275.2922932618
 30
0.0
 10
444.0359792119
 20
275.4421721263
 30
0.0
 10
443.8310849813
 20
275.5401913047
 30
0.0
 10
443.6460522757
 20
275.6034689883
 30
0.0
 10
443.4418116672
 20
275.6524314553
 30
0.0
 10
443.1619467697
 20
275.6930027779
 30
0.0
 10
442.8015466551
 20
275.6945930291
 30
0.0
 10
442.3990192954
 20
275.6010304728
 30
0.0
 10
442.2081474612
 20
275.4848203457
 30
0.0
 10
442.1313488022
 20
275.4183107561
 30
0.0
  0
SPLINE
  5
56A
100
AcDbEntity
  8
7_ALL_FEATURES
100
AcDbSpline
 62
7
  6
CONTINUOUS
 70
0
 71
3
 72
10
 73
6
 74
0
 42
0.0000001
 43
0.0000001
 44
0.0000000001
 40
0.0
 40
0.0
 40
0.0
 40
0.0
 40
0.5043253864
 40
0.750796851
 40
1.0
 40
1.0
 40
1.0
 40
1.0
 10
442.7340300145
 20
274.5689317647
 30
0.0
 10
442.9959041083
 20
274.5830255684
 30
0.0
 10
443.3906760887
 20
274.6067979119
 30
0.0
 10
443.8694080796
 20
274.7202148573
 30
0.0
 10
444.0507189803
 20
274.8190361801
 30
0.0
 10
444.1157928495
 20
274.875391804
 30
0.0
  0
SPLINE
  5
56B
100
AcDbEntity
  8
7_ALL_FEATURES
100
AcDbSpline
 62
7
  6
CONTINUOUS
 70
0
 71
3
 72
10
 73
6
 74
0
 42
0.0000001
 43
0.0000001
 44
0.0000000001
 40
0.0
 40
0.0
 40
0.0
 40
0.0
 40
0.2505429377
 40
0.4965213394
 40
1.0
 40
1.0
 40
1.0
 40
1.0
 10
443.6240054798
 20
275.0212869789
 30
0.0
 10
443.5827054094
 20
274.9855200687
 30
0.0
 10
443.4647057114
 20
274.9236775217
 30
0.0
 10
443.1535215245
 20
274.8614711318
 30
0.0
 10
442.9049314537
 20
274.8530122734
 30
0.0
 10
442.7406658337
 20
274.8410832885
 30
0.0
  0
SPLINE
  5
56C
100
AcDbEntity
  8
7_ALL_FEATURES
100
AcDbSpline
 62
7
  6
CONTINUOUS
 70
0
 71
3
 72
9
 73
5
 74
0
 42
0.0000001
 43
0.0000001
 44
0.0000000001
 40
0.0
 40
0.0
 40
0.0
 40
0.0
 40
0.5012533447
 40
1.0
 40
1.0
 40
1.0
 40
1.0
 10
443.3950308521
 20
275.3949685612
 30
0.0
 10
443.5192600524
 20
275.3591066801
 30
0.0
 10
443.7514966721
 20
275.2467298224
 30
0.0
 10
443.6953705628
 20
275.0830909537
 30
0.0
 10
443.6240054798
 20
275.0212869789
 30
0.0
  0
SPLINE
  5
56D
100
AcDbEntity
  8
7_ALL_FEATURES
100
AcDbSpline
 62
7
  6
CONTINUOUS
 70
0
 71
3
 72
20
 73
16
 74
0
 42
0.0000001
 43
0.0000001
 44
0.0000000001
 40
0.0
 40
0.0
 40
0.0
 40
0.0
 40
0.1135375114
 40
0.2256844723
 40
0.2811578863
 40
0.3367106574
 40
0.3932190784
 40
0.4520058265
 40
0.4895000008
 40
0.5256835703
 40
0.5950772204
 40
0.6621623141
 40
0.7283850651
 40
0.8614355268
 40
1.0
 40
1.0
 40
1.0
 40
1.0
 10
442.6104332943
 20
274.9687126307
 30
0.0
 10
442.6021424145
 20
274.9973538107
 30
0.0
 10
442.5850768812
 20
275.0542273007
 30
0.0
 10
442.5747717195
 20
275.1259314838
 30
0.0
 10
442.5813692371
 20
275.1828136608
 30
0.0
 10
442.595749097
 20
275.2250151676
 30
0.0
 10
442.6217053862
 20
275.2667325521
 30
0.0
 10
442.6556368347
 20
275.301961478
 30
0.0
 10
442.6922992006
 20
275.3303818385
 30
0.0
 10
442.7381086345
 20
275.3588314256
 30
0.0
 10
442.8038961995
 20
275.3886094943
 30
0.0
 10
442.8941751339
 20
275.4145320411
 30
0.0
 10
443.0241040678
 20
275.4356564377
 30
0.0
 10
443.2007088281
 20
275.4371292853
 30
0.0
 10
443.3338569699
 20
275.4126279399
 30
0.0
 10
443.3950308521
 20
275.3949685612
 30
0.0
  0
SPLINE
  5
56E
100
AcDbEntity
  8
7_ALL_FEATURES
100
AcDbSpline
 62
7
  6
CONTINUOUS
 70
0
 71
3
 72
10
 73
6
 74
0
 42
0.0000001
 43
0.0000001
 44
0.0000000001
 40
0.0
 40
0.0
 40
0.0
 40
0.0
 40
0.2399315897
 40
0.6257374393
 40
1.0
 40
1.0
 40
1.0
 40
1.0
 10
440.7932775344
 20
274.3113658603
 30
0.0
 10
440.8497115008
 20
274.3602391088
 30
0.0
 10
441.0797060756
 20
274.464144472
 30
0.0
 10
441.5503443713
 20
274.5183322762
 30
0.0
 10
441.905413052
 20
274.5289831272
 30
0.0
 10
442.0808771468
 20
274.5362168579
 30
0.0
  0
SPLINE
  5
56F
100
AcDbEntity
  8
7_ALL_FEATURES
100
AcDbSpline
 62
7
  6
CONTINUOUS
 70
0
 71
3
 72
9
 73
5
 74
0
 42
0.0000001
 43
0.0000001
 44
0.0000000001
 40
0.0
 40
0.0
 40
0.0
 40
0.0
 40
0.5005139184
 40
1.0
 40
1.0
 40
1.0
 40
1.0
 10
441.1293065282
 20
273.692700798
 30
0.0
 10
440.9306595583
 20
273.7500452388
 30
0.0
 10
440.638745212
 20
273.9581401573
 30
0.0
 10
440.6788241737
 20
274.2122463424
 30
0.0
 10
440.7932775344
 20
274.3113658603
 30
0.0
  0
SPLINE
  5
570
100
AcDbEntity
  8
7_ALL_FEATURES
100
AcDbSpline
 62
7
  6
CONTINUOUS
 70
0
 71
3
 72
9
 73
5
 74
0
 42
0.0000001
 43
0.0000001
 44
0.0000000001
 40
0.0
 40
0.0
 40
0.0
 40
0.0
 40
0.7509172168
 40
1.0
 40
1.0
 40
1.0
 40
1.0
 10
442.4279860853
 20
273.6932309558
 30
0.0
 10
442.107786301
 20
273.6502634258
 30
0.0
 10
441.653451756
 20
273.5920882772
 30
0.0
 10
441.2245436562
 20
273.6652082073
 30
0.0
 10
441.1293065282
 20
273.692700798
 30
0.0
  0
SPLINE
  5
571
100
AcDbEntity
  8
7_ALL_FEATURES
100
AcDbSpline
 62
7
  6
CONTINUOUS
 70
0
 71
3
 72
8
 73
4
 74
0
 42
0.0000001
 43
0.0000001
 44
0.0000000001
 40
0.0
 40
0.0
 40
0.0
 40
0.0
 40
1.0
 40
1.0
 40
1.0
 40
1.0
 10
444.0468043134
 20
271.5101676156
 30
0.0
 10
443.9933054357
 20
271.5256114113
 30
0.0
 10
443.9147138447
 20
271.528120701
 30
0.0
 10
443.8615327893
 20
271.5124048764
 30
0.0
  0
SPLINE
  5
572
100
AcDbEntity
  8
7_ALL_FEATURES
100
AcDbSpline
 62
7
  6
CONTINUOUS
 70
0
 71
3
 72
9
 73
5
 74
0
 42
0.0000001
 43
0.0000001
 44
0.0000000001
 40
0.0
 40
0.0
 40
0.0
 40
0.0
 40
0.5053411722
 40
1.0
 40
1.0
 40
1.0
 40
1.0
 10
444.0955488656
 20
271.3607614787
 30
0.0
 10
444.1240369787
 20
271.3854329084
 30
0.0
 10
444.1812840133
 20
271.4430485381
 30
0.0
 10
444.0951041203
 20
271.4962246623
 30
0.0
 10
444.0468043134
 20
271.5101676156
 30
0.0
  0
SPLINE
  5
573
100
AcDbEntity
  8
7_ALL_FEATURES
100
AcDbSpline
 62
7
  6
CONTINUOUS
 70
0
 71
3
 72
9
 73
5
 74
0
 42
0.0000001
 43
0.0000001
 44
0.0000000001
 40
0.0
 40
0.0
 40
0.0
 40
0.0
 40
0.4882113973
 40
1.0
 40
1.0
 40
1.0
 40
1.0
 10
443.9735109545
 20
271.4779561105
 30
0.0
 10
444.0047118522
 20
271.4689491872
 30
0.0
 10
444.0652743132
 20
271.434280602
 30
0.0
 10
444.0182683256
 20
271.3977973915
 30
0.0
 10
443.9993845357
 20
271.3814435498
 30
0.0
  0
SPLINE
  5
574
100
AcDbEntity
  8
7_ALL_FEATURES
100
AcDbSpline
 62
7
  6
CONTINUOUS
 70
0
 71
3
 72
10
 73
6
 74
0
 42
0.0000001
 43
0.0000001
 44
0.0000000001
 40
0.0
 40
0.0
 40
0.0
 40
0.0
 40
0.502118989
 40
0.7251106965
 40
1.0
 40
1.0
 40
1.0
 40
1.0
 10
443.7498967666
 20
271.4179320028
 30
0.0
 10
443.7741830612
 20
271.4389645509
 30
0.0
 10
443.8073352582
 20
271.4719490898
 30
0.0
 10
443.9009249347
 20
271.4938300759
 30
0.0
 10
443.9504820605
 20
271.4846039796
 30
0.0
 10
443.9735109545
 20
271.4779561105
 30
0.0
  0
SPLINE
  5
575
100
AcDbEntity
  8
7_ALL_FEATURES
100
AcDbSpline
 62
7
  6
CONTINUOUS
 70
0
 71
3
 72
9
 73
5
 74
0
 42
0.0000001
 43
0.0000001
 44
0.0000000001
 40
0.0
 40
0.0
 40
0.0
 40
0.0
 40
0.4927604322
 40
1.0
 40
1.0
 40
1.0
 40
1.0
 10
442.517180841
 20
271.4521539509
 30
0.0
 10
442.5832084908
 20
271.4330934102
 30
0.0
 10
442.7683092753
 20
271.416072879
 30
0.0
 10
442.8655309896
 20
271.4907394304
 30
0.0
 10
442.9047722103
 20
271.5247233244
 30
0.0
  0
SPLINE
  5
576
100
AcDbEntity
  8
7_ALL_FEATURES
100
AcDbSpline
 62
7
  6
CONTINUOUS
 70
0
 71
3
 72
9
 73
5
 74
0
 42
0.0000001
 43
0.0000001
 44
0.0000000001
 40
0.0
 40
0.0
 40
0.0
 40
0.0
 40
0.4966166013
 40
1.0
 40
1.0
 40
1.0
 40
1.0
 10
442.4135649676
 20
271.6230626176
 30
0.0
 10
442.3820685152
 20
271.5947943612
 30
0.0
 10
442.357092061
 20
271.521016824
 30
0.0
 10
442.4603698245
 20
271.4685538787
 30
0.0
 10
442.517180841
 20
271.4521539509
 30
0.0
  0
SPLINE
  5
577
100
AcDbEntity
  8
7_ALL_FEATURES
100
AcDbSpline
 62
7
  6
CONTINUOUS
 70
0
 71
3
 72
9
 73
5
 74
0
 42
0.0000001
 43
0.0000001
 44
0.0000000001
 40
0.0
 40
0.0
 40
0.0
 40
0.0
 40
0.5039484269
 40
1.0
 40
1.0
 40
1.0
 40
1.0
 10
442.5674182998
 20
271.4908795574
 30
0.0
 10
442.5319273153
 20
271.5011249221
 30
0.0
 10
442.4658860647
 20
271.533376635
 30
0.0
 10
442.4833236009
 20
271.5796351401
 30
0.0
 10
442.5034932413
 20
271.5971025611
 30
0.0
  0
SPLINE
  5
578
100
AcDbEntity
  8
7_ALL_FEATURES
100
AcDbSpline
 62
7
  6
CONTINUOUS
 70
0
 71
3
 72
9
 73
5
 74
0
 42
0.0000001
 43
0.0000001
 44
0.0000000001
 40
0.0
 40
0.0
 40
0.0
 40
0.0
 40
0.510464774
 40
1.0
 40
1.0
 40
1.0
 40
1.0
 10
442.8003774116
 20
271.5381550027
 30
0.0
 10
442.7764195223
 20
271.517406862
 30
0.0
 10
442.7211062069
 20
271.4714280351
 30
0.0
 10
442.6072131938
 20
271.479391761
 30
0.0
 10
442.5674182998
 20
271.4908795574
 30
0.0
  0
SPLINE
  5
579
100
AcDbEntity
  8
7_ALL_FEATURES
100
AcDbSpline
 62
7
  6
CONTINUOUS
 70
0
 71
3
 72
8
 73
4
 74
0
 42
0.0000001
 43
0.0000001
 44
0.0000000001
 40
0.0
 40
0.0
 40
0.0
 40
0.0
 40
1.0
 40
1.0
 40
1.0
 40
1.0
 10
442.6396319496
 20
271.5845582206
 30
0.0
 10
442.7003173832
 20
271.5670398449
 30
0.0
 10
442.7866962924
 20
271.5679957337
 30
0.0
 10
442.8498347266
 20
271.583193052
 30
0.0
  0
SPLINE
  5
57A
100
AcDbEntity
  8
7_ALL_FEATURES
100
AcDbSpline
 62
7
  6
CONTINUOUS
 70
0
 71
3
 72
18
 73
14
 74
0
 42
0.0000001
 43
0.0000001
 44
0.0000000001
 40
0.0
 40
0.0
 40
0.0
 40
0.0
 40
0.1350100379
 40
0.2013423346
 40
0.2355719675
 40
0.2711190886
 40
0.3382237927
 40
0.4013776696
 40
0.5230950765
 40
0.6472872874
 40
0.7768753356
 40
0.9113154926
 40
1.0
 40
1.0
 40
1.0
 40
1.0
 10
443.0315244727
 20
271.7405409877
 30
0.0
 10
443.0298316813
 20
271.7592776649
 30
0.0
 10
443.0158518067
 20
271.7877879405
 30
0.0
 10
442.9758887921
 20
271.8141872921
 30
0.0
 10
442.9473905428
 20
271.8267023587
 30
0.0
 10
442.9155989621
 20
271.8372182479
 30
0.0
 10
442.8730886682
 20
271.8466289728
 30
0.0
 10
442.8038301056
 20
271.8533492111
 30
0.0
 10
442.7160808624
 20
271.8467607537
 30
0.0
 10
442.6250035286
 20
271.8190399042
 30
0.0
 10
442.5559374806
 20
271.7763748574
 30
0.0
 10
442.5198305261
 20
271.7300438418
 30
0.0
 10
442.5130208244
 20
271.6987907063
 30
0.0
 10
442.5140978487
 20
271.6864136159
 30
0.0
  0
SPLINE
  5
57B
100
AcDbEntity
  8
7_ALL_FEATURES
100
AcDbSpline
 62
7
  6
CONTINUOUS
 70
0
 71
3
 72
18
 73
14
 74
0
 42
0.0000001
 43
0.0000001
 44
0.0000000001
 40
0.0
 40
0.0
 40
0.0
 40
0.0
 40
0.0668378092
 40
0.1288082976
 40
0.2469961961
 40
0.3681356933
 40
0.4951635073
 40
0.6211790434
 40
0.7417123965
 40
0.8594546134
 40
0.9207534718
 40
0.9863171374
 40
1.0
 40
1.0
 40
1.0
 40
1.0
 10
442.6995475488
 20
271.6206315523
 30
0.0
 10
442.6882704139
 20
271.6239122829
 30
0.0
 10
442.667771132
 20
271.6313089922
 30
0.0
 10
442.6361736488
 20
271.6497163318
 30
0.0
 10
442.6151005931
 20
271.6782194714
 30
0.0
 10
442.6192325022
 20
271.7145782476
 30
0.0
 10
442.6463784328
 20
271.7489719416
 30
0.0
 10
442.6925717909
 20
271.7778179211
 30
0.0
 10
442.7537812647
 20
271.7971971455
 30
0.0
 10
442.8133234468
 20
271.8020592666
 30
0.0
 10
442.8605282708
 20
271.7976097239
 30
0.0
 10
442.8856952859
 20
271.7919660679
 30
0.0
 10
442.8989650644
 20
271.7879908804
 30
0.0
 10
442.9012264377
 20
271.7872811879
 30
0.0
  0
SPLINE
  5
57C
100
AcDbEntity
  8
7_ALL_FEATURES
100
AcDbSpline
 62
7
  6
CONTINUOUS
 70
0
 71
3
 72
16
 73
12
 74
0
 42
0.0000001
 43
0.0000001
 44
0.0000000001
 40
0.0
 40
0.0
 40
0.0
 40
0.0
 40
0.1252425561
 40
0.2467589013
 40
0.3691331737
 40
0.4966206149
 40
0.6212710027
 40
0.7409953576
 40
0.8611260843
 40
0.9861350283
 40
1.0
 40
1.0
 40
1.0
 40
1.0
 10
442.1832998569
 20
272.2232291823
 30
0.0
 10
442.1750622894
 20
272.2256091226
 30
0.0
 10
442.1568919167
 20
272.2286192656
 30
0.0
 10
442.1284235266
 20
272.2275280236
 30
0.0
 10
442.1026992464
 20
272.2211451927
 30
0.0
 10
442.0835700181
 20
272.210243699
 30
0.0
 10
442.0743090071
 20
272.1965900802
 30
0.0
 10
442.0765829053
 20
272.182520901
 30
0.0
 10
442.0892754676
 20
272.1699230142
 30
0.0
 10
442.1044093931
 20
272.1633515415
 30
0.0
 10
442.1136615134
 20
272.1608139797
 30
0.0
 10
442.1145956619
 20
272.1605706602
 30
0.0
  0
SPLINE
  5
57D
100
AcDbEntity
  8
7_ALL_FEATURES
100
AcDbSpline
 62
7
  6
CONTINUOUS
 70
0
 71
3
 72
21
 73
17
 74
0
 42
0.0000001
 43
0.0000001
 44
0.0000000001
 40
0.0
 40
0.0
 40
0.0
 40
0.0
 40
0.0837356597
 40
0.162291479
 40
0.2391436514
 40
0.279844181
 40
0.3241372443
 40
0.3851325473
 40
0.4431056362
 40
0.5545534451
 40
0.6666572162
 40
0.7247034135
 40
0.784641532
 40
0.8693171981
 40
0.9535471067
 40
1.0
 40
1.0
 40
1.0
 40
1.0
 10
439.9306074992
 20
272.647731518
 30
0.0
 10
439.9058597492
 20
272.6464711168
 30
0.0
 10
439.8579473374
 20
272.6436019975
 30
0.0
 10
439.7888138321
 20
272.6344529457
 30
0.0
 10
439.7377406113
 20
272.6193213772
 30
0.0
 10
439.7041117832
 20
272.6019694882
 30
0.0
 10
439.6796241199
 20
272.5839666853
 30
0.0
 10
439.6594967035
 20
272.5617054096
 30
0.0
 10
439.6446605789
 20
272.5280724389
 30
0.0
 10
439.6528770395
 20
272.4851928623
 30
0.0
 10
439.6938034019
 20
272.447458008
 30
0.0
 10
439.7418253243
 20
272.422923084
 30
0.0
 10
439.7912349095
 20
272.4054272668
 30
0.0
 10
439.8551135396
 20
272.3925282635
 30
0.0
 10
439.9191022424
 20
272.3885453569
 30
0.0
 10
439.9581456857
 20
272.3893087613
 30
0.0
 10
439.9719720456
 20
272.3899462309
 30
0.0
  0
SPLINE
  5
57E
100
AcDbEntity
  8
7_ALL_FEATURES
100
AcDbSpline
 62
7
  6
CONTINUOUS
 70
0
 71
3
 72
8
 73
4
 74
0
 42
0.0000001
 43
0.0000001
 44
0.0000000001
 40
0.0
 40
0.0
 40
0.0
 40
0.0
 40
1.0
 40
1.0
 40
1.0
 40
1.0
 10
440.0094725465
 20
272.7574686647
 30
0.0
 10
439.9739854901
 20
272.7267359723
 30
0.0
 10
439.98051789
 20
272.6856925483
 30
0.0
 10
439.9970983717
 20
272.6511874316
 30
0.0
  0
SPLINE
  5
57F
100
AcDbEntity
  8
7_ALL_FEATURES
100
AcDbSpline
 62
7
  6
CONTINUOUS
 70
0
 71
3
 72
15
 73
11
 74
0
 42
0.0000001
 43
0.0000001
 44
0.0000000001
 40
0.0
 40
0.0
 40
0.0
 40
0.0
 40
0.2428967155
 40
0.3642248532
 40
0.4274217221
 40
0.4923642673
 40
0.5612500752
 40
0.6264272867
 40
0.7486967744
 40
1.0
 40
1.0
 40
1.0
 40
1.0
 10
440.361846838
 20
272.6611263852
 30
0.0
 10
440.3862916056
 20
272.682296175
 30
0.0
 10
440.3951058596
 20
272.7247957692
 30
0.0
 10
440.3477021513
 20
272.7618179581
 30
0.0
 10
440.3114266858
 20
272.779291583
 30
0.0
 10
440.2785381764
 20
272.7905250615
 30
0.0
 10
440.2422559255
 20
272.7992342089
 30
0.0
 10
440.1925224228
 20
272.8063770119
 30
0.0
 10
440.1015981778
 20
272.8072129355
 30
0.0
 10
440.0347633329
 20
272.7793711281
 30
0.0
 10
440.0094725465
 20
272.7574686647
 30
0.0
  0
SPLINE
  5
580
100
AcDbEntity
  8
7_ALL_FEATURES
100
AcDbSpline
 62
7
  6
CONTINUOUS
 70
0
 71
3
 72
8
 73
4
 74
0
 42
0.0000001
 43
0.0000001
 44
0.0000000001
 40
0.0
 40
0.0
 40
0.0
 40
0.0
 40
1.0
 40
1.0
 40
1.0
 40
1.0
 10
440.1163320361
 20
272.6067166222
 30
0.0
 10
440.2053117803
 20
272.6116117823
 30
0.0
 10
440.3170884722
 20
272.6223645034
 30
0.0
 10
440.361846838
 20
272.6611263852
 30
0.0
  0
SPLINE
  5
581
100
AcDbEntity
  8
7_ALL_FEATURES
100
AcDbSpline
 62
7
  6
CONTINUOUS
 70
0
 71
3
 72
8
 73
4
 74
0
 42
0.0000001
 43
0.0000001
 44
0.0000000001
 40
0.0
 40
0.0
 40
0.0
 40
0.0
 40
1.0
 40
1.0
 40
1.0
 40
1.0
 10
440.2742669772
 20
272.6869747677
 30
0.0
 10
440.2460613042
 20
272.6625479384
 30
0.0
 10
440.1733481685
 20
272.6591261817
 30
0.0
 10
440.1175229737
 20
272.6550707048
 30
0.0
  0
SPLINE
  5
582
100
AcDbEntity
  8
7_ALL_FEATURES
100
AcDbSpline
 62
7
  6
CONTINUOUS
 70
0
 71
3
 72
9
 73
5
 74
0
 42
0.0000001
 43
0.0000001
 44
0.0000000001
 40
0.0
 40
0.0
 40
0.0
 40
0.0
 40
0.5015303471
 40
1.0
 40
1.0
 40
1.0
 40
1.0
 10
440.2336091738
 20
272.7532136486
 30
0.0
 10
440.2556496556
 20
272.7468511096
 30
0.0
 10
440.2968992921
 20
272.7269496104
 30
0.0
 10
440.2869143978
 20
272.6979277553
 30
0.0
 10
440.2742669772
 20
272.6869747677
 30
0.0
  0
SPLINE
  5
583
100
AcDbEntity
  8
7_ALL_FEATURES
100
AcDbSpline
 62
7
  6
CONTINUOUS
 70
0
 71
3
 72
13
 73
9
 74
0
 42
0.0000001
 43
0.0000001
 44
0.0000000001
 40
0.0
 40
0.0
 40
0.0
 40
0.0
 40
0.2266930293
 40
0.3384900135
 40
0.4545322516
 40
0.5979807664
 40
0.7311494495
 40
1.0
 40
1.0
 40
1.0
 40
1.0
 10
440.094428412
 20
272.6777342167
 30
0.0
 10
440.0915327722
 20
272.687810618
 30
0.0
 10
440.0867437169
 20
272.7029446028
 30
0.0
 10
440.0909119082
 20
272.7234334955
 30
0.0
 10
440.1031679708
 20
272.7391744413
 30
0.0
 10
440.1270424149
 20
272.7529061189
 30
0.0
 10
440.1730077949
 20
272.7631252129
 30
0.0
 10
440.2126981048
 20
272.7592501543
 30
0.0
 10
440.2336091738
 20
272.7532136486
 30
0.0
  0
SPLINE
  5
584
100
AcDbEntity
  8
7_ALL_FEATURES
100
AcDbSpline
 62
7
  6
CONTINUOUS
 70
0
 71
3
 72
8
 73
4
 74
0
 42
0.0000001
 43
0.0000001
 44
0.0000000001
 40
0.0
 40
0.0
 40
0.0
 40
0.0
 40
1.0
 40
1.0
 40
1.0
 40
1.0
 10
439.7716023027
 20
272.5608457124
 30
0.0
 10
439.8119827082
 20
272.5958161694
 30
0.0
 10
439.9197811643
 20
272.597640494
 30
0.0
 10
440.0002845625
 20
272.6008619629
 30
0.0
  0
SPLINE
  5
585
100
AcDbEntity
  8
7_ALL_FEATURES
100
AcDbSpline
 62
7
  6
CONTINUOUS
 70
0
 71
3
 72
8
 73
4
 74
0
 42
0.0000001
 43
0.0000001
 44
0.0000000001
 40
0.0
 40
0.0
 40
0.0
 40
0.0
 40
1.0
 40
1.0
 40
1.0
 40
1.0
 10
439.8316042358
 20
272.4512251824
 30
0.0
 10
439.7659873717
 20
272.4701671395
 30
0.0
 10
439.7337183885
 20
272.5280372803
 30
0.0
 10
439.7716023027
 20
272.5608457124
 30
0.0
  0
SPLINE
  5
586
100
AcDbEntity
  8
7_ALL_FEATURES
100
AcDbSpline
 62
7
  6
CONTINUOUS
 70
0
 71
3
 72
8
 73
4
 74
0
 42
0.0000001
 43
0.0000001
 44
0.0000000001
 40
0.0
 40
0.0
 40
0.0
 40
0.0
 40
1.0
 40
1.0
 40
1.0
 40
1.0
 10
440.0619681172
 20
272.4512597476
 30
0.0
 10
439.9877630801
 20
272.4413854897
 30
0.0
 10
439.8981045633
 20
272.4320281915
 30
0.0
 10
439.8316042358
 20
272.4512251824
 30
0.0
  0
SPLINE
  5
587
100
AcDbEntity
  8
7_ALL_FEATURES
100
AcDbSpline
 62
7
  6
CONTINUOUS
 70
0
 71
3
 72
17
 73
13
 74
0
 42
0.0000001
 43
0.0000001
 44
0.0000000001
 40
0.0
 40
0.0
 40
0.0
 40
0.0
 40
0.1280676306
 40
0.2505328491
 40
0.3725330656
 40
0.4358980115
 40
0.5022639314
 40
0.5696811137
 40
0.6324293338
 40
0.7503050664
 40
0.869595042
 40
1.0
 40
1.0
 40
1.0
 40
1.0
 10
438.7908826452
 20
272.8974661304
 30
0.0
 10
438.8028902661
 20
272.9047476361
 30
0.0
 10
438.8310118174
 20
272.9172955062
 30
0.0
 10
438.8827349638
 20
272.9279853058
 30
0.0
 10
438.9292167692
 20
272.9286409636
 30
0.0
 10
438.9653347848
 20
272.924005121
 30
0.0
 10
438.9917850317
 20
272.9178053578
 30
0.0
 10
439.0157383794
 20
272.9095334063
 30
0.0
 10
439.0418075221
 20
272.8965969579
 30
0.0
 10
439.0634410414
 20
272.8765820054
 30
0.0
 10
439.0686163744
 20
272.8490126242
 30
0.0
 10
439.0596510051
 20
272.8308396834
 30
0.0
 10
439.0527576004
 20
272.8218693425
 30
0.0
  0
SPLINE
  5
588
100
AcDbEntity
  8
7_ALL_FEATURES
100
AcDbSpline
 62
7
  6
CONTINUOUS
 70
0
 71
3
 72
9
 73
5
 74
0
 42
0.0000001
 43
0.0000001
 44
0.0000000001
 40
0.0
 40
0.0
 40
0.0
 40
0.0
 40
0.4972493191
 40
1.0
 40
1.0
 40
1.0
 40
1.0
 10
438.7982849138
 20
272.7468290685
 30
0.0
 10
438.7606827873
 20
272.7576838674
 30
0.0
 10
438.7035220842
 20
272.798963431
 30
0.0
 10
438.7252742067
 20
272.8457616926
 30
0.0
 10
438.746767447
 20
272.8649007409
 30
0.0
  0
SPLINE
  5
589
100
AcDbEntity
  8
7_ALL_FEATURES
100
AcDbSpline
 62
7
  6
CONTINUOUS
 70
0
 71
3
 72
9
 73
5
 74
0
 42
0.0000001
 43
0.0000001
 44
0.0000000001
 40
0.0
 40
0.0
 40
0.0
 40
0.0
 40
0.5030637506
 40
1.0
 40
1.0
 40
1.0
 40
1.0
 10
438.9905494958
 20
272.7520578466
 30
0.0
 10
438.9610715852
 20
272.7439024248
 30
0.0
 10
438.8973986391
 20
272.7290491007
 30
0.0
 10
438.8271056096
 20
272.7385092502
 30
0.0
 10
438.7982849138
 20
272.7468290685
 30
0.0
  0
SPLINE
  5
58A
100
AcDbEntity
  8
7_ALL_FEATURES
100
AcDbSpline
 62
7
  6
CONTINUOUS
 70
0
 71
3
 72
16
 73
12
 74
0
 42
0.0000001
 43
0.0000001
 44
0.0000000001
 40
0.0
 40
0.0
 40
0.0
 40
0.0
 40
0.1532117584
 40
0.2946326874
 40
0.4342272882
 40
0.5085039738
 40
0.5885790341
 40
0.6413335586
 40
0.6931274681
 40
0.7949137648
 40
1.0
 40
1.0
 40
1.0
 40
1.0
 10
438.6630916545
 20
272.8962756049
 30
0.0
 10
438.6442676303
 20
272.8799735217
 30
0.0
 10
438.6171069841
 20
272.8455620517
 30
0.0
 10
438.6160125579
 20
272.7908415402
 30
0.0
 10
438.6530839326
 20
272.7496280392
 30
0.0
 10
438.7026838085
 20
272.7230643294
 30
0.0
 10
438.7445350642
 20
272.7082703949
 30
0.0
 10
438.7852656674
 20
272.6981610076
 30
0.0
 10
438.8334025963
 20
272.6899674569
 30
0.0
 10
438.9215887954
 20
272.6840173383
 30
0.0
 10
438.9986761812
 20
272.695274059
 30
0.0
 10
439.0416653944
 20
272.7084229844
 30
0.0
  0
SPLINE
  5
58B
100
AcDbEntity
  8
7_ALL_FEATURES
100
AcDbSpline
 62
7
  6
CONTINUOUS
 70
0
 71
3
 72
21
 73
17
 74
0
 42
0.0000001
 43
0.0000001
 44
0.0000000001
 40
0.0
 40
0.0
 40
0.0
 40
0.0
 40
0.1300654079
 40
0.24745904
 40
0.3043447126
 40
0.3625445693
 40
0.4247851174
 40
0.4583786656
 40
0.4940661327
 40
0.5303225841
 40
0.5645956416
 40
0.6283774869
 40
0.68813088
 40
0.7464207923
 40
0.866310526
 40
1.0
 40
1.0
 40
1.0
 40
1.0
 10
439.1114234683
 20
272.7688352485
 30
0.0
 10
439.1303618554
 20
272.7852363728
 30
0.0
 10
439.1594685205
 20
272.8187627496
 30
0.0
 10
439.1662319857
 20
272.8641939279
 30
0.0
 10
439.1483502949
 20
272.8971556006
 30
0.0
 10
439.1231370138
 20
272.9199747564
 30
0.0
 10
439.0924807349
 20
272.9366320142
 30
0.0
 10
439.0623917358
 20
272.9485218486
 30
0.0
 10
439.0364433449
 20
272.9568018429
 30
0.0
 10
439.0089615526
 20
272.9639494861
 30
0.0
 10
438.9726475081
 20
272.9712776803
 30
0.0
 10
438.9275321165
 20
272.9765914221
 30
0.0
 10
438.8741009612
 20
272.9766235861
 30
0.0
 10
438.8061019095
 20
272.9685469894
 30
0.0
 10
438.7276116754
 20
272.943156951
 30
0.0
 10
438.6825577296
 20
272.9131337204
 30
0.0
 10
438.6630916545
 20
272.8962756049
 30
0.0
  0
SPLINE
  5
58C
100
AcDbEntity
  8
7_ALL_FEATURES
100
AcDbSpline
 62
7
  6
CONTINUOUS
 70
0
 71
3
 72
8
 73
4
 74
0
 42
0.0000001
 43
0.0000001
 44
0.0000000001
 40
0.0
 40
0.0
 40
0.0
 40
0.0
 40
1.0
 40
1.0
 40
1.0
 40
1.0
 10
438.0456834247
 20
273.1864828123
 30
0.0
 10
438.0949686567
 20
273.1722553913
 30
0.0
 10
438.1321646249
 20
273.1443343583
 30
0.0
 10
438.1432251981
 20
273.1164221036
 30
0.0
  0
SPLINE
  5
58D
100
AcDbEntity
  8
7_ALL_FEATURES
100
AcDbSpline
 62
7
  6
CONTINUOUS
 70
0
 71
3
 72
9
 73
5
 74
0
 42
0.0000001
 43
0.0000001
 44
0.0000000001
 40
0.0
 40
0.0
 40
0.0
 40
0.0
 40
0.5023468762
 40
1.0
 40
1.0
 40
1.0
 40
1.0
 10
437.7950172469
 20
273.1495568096
 30
0.0
 10
437.8186441913
 20
273.1700183437
 30
0.0
 10
437.8991975376
 20
273.2031004434
 30
0.0
 10
438.0051427273
 20
273.1981859036
 30
0.0
 10
438.0456834247
 20
273.1864828123
 30
0.0
  0
SPLINE
  5
58E
100
AcDbEntity
  8
7_ALL_FEATURES
100
AcDbSpline
 62
7
  6
CONTINUOUS
 70
0
 71
3
 72
15
 73
11
 74
0
 42
0.0000001
 43
0.0000001
 44
0.0000000001
 40
0.0
 40
0.0
 40
0.0
 40
0.0
 40
0.1802531275
 40
0.2687906927
 40
0.3612765641
 40
0.4461771889
 40
0.5264460684
 40
0.6791612605
 40
0.8331109072
 40
1.0
 40
1.0
 40
1.0
 40
1.0
 10
438.0247958494
 20
273.0138592791
 30
0.0
 10
437.9981195209
 20
273.0095244439
 30
0.0
 10
437.9556035688
 20
273.0058751891
 30
0.0
 10
437.8996874337
 20
273.0106109204
 30
0.0
 10
437.8614443723
 20
273.0190129985
 30
0.0
 10
437.8285326704
 20
273.0306709732
 30
0.0
 10
437.7941384331
 20
273.048629873
 30
0.0
 10
437.7666899898
 20
273.0764940723
 30
0.0
 10
437.7639854777
 20
273.1143080521
 30
0.0
 10
437.7820321713
 20
273.1383114044
 30
0.0
 10
437.7950172469
 20
273.1495568096
 30
0.0
  0
SPLINE
  5
58F
100
AcDbEntity
  8
7_ALL_FEATURES
100
AcDbSpline
 62
7
  6
CONTINUOUS
 70
0
 71
3
 72
8
 73
4
 74
0
 42
0.0000001
 43
0.0000001
 44
0.0000000001
 40
0.0
 40
0.0
 40
0.0
 40
0.0
 40
1.0
 40
1.0
 40
1.0
 40
1.0
 10
437.8118697063
 20
272.9783546996
 30
0.0
 10
437.8560603172
 20
272.9655979691
 30
0.0
 10
437.9075955207
 20
272.9573910206
 30
0.0
 10
437.9585931079
 20
272.9565260232
 30
0.0
  0
SPLINE
  5
590
100
AcDbEntity
  8
7_ALL_FEATURES
100
AcDbSpline
 62
7
  6
CONTINUOUS
 70
0
 71
3
 72
17
 73
13
 74
0
 42
0.0000001
 43
0.0000001
 44
0.0000000001
 40
0.0
 40
0.0
 40
0.0
 40
0.0
 40
0.1629103694
 40
0.2935549822
 40
0.4168937173
 40
0.5399047389
 40
0.60400217
 40
0.6712141429
 40
0.7362158184
 40
0.7985885138
 40
0.919283909
 40
1.0
 40
1.0
 40
1.0
 40
1.0
 10
438.2101635256
 20
273.1743923957
 30
0.0
 10
438.1856540748
 20
273.1957114716
 30
0.0
 10
438.1165920976
 20
273.2272346846
 30
0.0
 10
437.9959410398
 20
273.2488416104
 30
0.0
 10
437.8791142878
 20
273.246109216
 30
0.0
 10
437.7923852014
 20
273.2249800595
 30
0.0
 10
437.7361559467
 20
273.1985296335
 30
0.0
 10
437.7015229137
 20
273.1742432914
 30
0.0
 10
437.6770625771
 20
273.1473176171
 30
0.0
 10
437.6606195535
 20
273.1105530324
 30
0.0
 10
437.6674121063
 20
273.0697264549
 30
0.0
 10
437.6920070471
 20
273.0414718753
 30
0.0
 10
437.7045600487
 20
273.0309409284
 30
0.0
  0
SPLINE
  5
591
100
AcDbEntity
  8
7_ALL_FEATURES
100
AcDbSpline
 62
7
  6
CONTINUOUS
 70
0
 71
3
 72
21
 73
17
 74
0
 42
0.0000001
 43
0.0000001
 44
0.0000000001
 40
0.0
 40
0.0
 40
0.0
 40
0.0
 40
0.1327833847
 40
0.2504356012
 40
0.3056983919
 40
0.36239354
 40
0.425333033
 40
0.4608299577
 40
0.4997862723
 40
0.5388342666
 40
0.5744105639
 40
0.6374720704
 40
0.6942427883
 40
0.7495444137
 40
0.8672159598
 40
1.0
 40
1.0
 40
1.0
 40
1.0
 10
436.9975068511
 20
273.3633568534
 30
0.0
 10
436.9871002284
 20
273.3543444538
 30
0.0
 10
436.9656204445
 20
273.3378587502
 30
0.0
 10
436.9294856998
 20
273.3212087751
 30
0.0
 10
436.8956686166
 20
273.3144299041
 30
0.0
 10
436.8679727857
 20
273.3131655326
 30
0.0
 10
436.8438338254
 20
273.3155986683
 30
0.0
 10
436.8237554003
 20
273.3195310898
 30
0.0
 10
436.8079440463
 20
273.3236416774
 30
0.0
 10
436.7929080124
 20
273.3284360845
 30
0.0
 10
436.7760169791
 20
273.3351752922
 30
0.0
 10
436.7596914673
 20
273.344421465
 30
0.0
 10
436.7479915017
 20
273.3570571017
 30
0.0
 10
436.7427869704
 20
273.3750982807
 30
0.0
 10
436.7535404721
 20
273.39907889
 30
0.0
 10
436.7713572583
 20
273.4166240254
 30
0.0
 10
436.7817639324
 20
273.4256364695
 30
0.0
  0
SPLINE
  5
592
100
AcDbEntity
  8
7_ALL_FEATURES
100
AcDbSpline
 62
7
  6
CONTINUOUS
 70
0
 71
3
 72
21
 73
17
 74
0
 42
0.0000001
 43
0.0000001
 44
0.0000000001
 40
0.0
 40
0.0
 40
0.0
 40
0.0
 40
0.132904548
 40
0.2483963039
 40
0.3045304646
 40
0.3631218191
 40
0.4273140346
 40
0.4624740996
 40
0.500089529
 40
0.5376505147
 40
0.572766758
 40
0.6369000875
 40
0.6954640554
 40
0.7515917782
 40
0.8670928402
 40
1.0
 40
1.0
 40
1.0
 40
1.0
 10
436.6858978843
 20
273.4465155613
 30
0.0
 10
436.6689117775
 20
273.4318051613
 30
0.0
 10
436.6424270829
 20
273.4024574973
 30
0.0
 10
436.6370847586
 20
273.3623414647
 30
0.0
 10
436.6549185978
 20
273.3339827913
 30
0.0
 10
436.6791264046
 20
273.3143256079
 30
0.0
 10
436.7077765825
 20
273.2998777148
 30
0.0
 10
436.7356937467
 20
273.289287098
 30
0.0
 10
436.7595930347
 20
273.2817680074
 30
0.0
 10
436.7845564228
 20
273.2751816293
 30
0.0
 10
436.8168239965
 20
273.2683990878
 30
0.0
 10
436.8561444637
 20
273.2632272103
 30
0.0
 10
436.9022718207
 20
273.2625808459
 30
0.0
 10
436.9602982766
 20
273.2690408251
 30
0.0
 10
437.0271188423
 20
273.2914039835
 30
0.0
 10
437.064723255
 20
273.3175438443
 30
0.0
 10
437.0817096957
 20
273.3322545334
 30
0.0
  0
SPLINE
  5
593
100
AcDbEntity
  8
7_ALL_FEATURES
100
AcDbSpline
 62
7
  6
CONTINUOUS
 70
0
 71
3
 72
27
 73
23
 74
0
 42
0.0000001
 43
0.0000001
 44
0.0000000001
 40
0.0
 40
0.0
 40
0.0
 40
0.0
 40
0.0826592268
 40
0.1603008642
 40
0.1981468307
 40
0.2364637193
 40
0.2766202277
 40
0.2979198529
 40
0.3203149066
 40
0.3509540815
 40
0.3806626124
 40
0.4379687079
 40
0.493649494
 40
0.548741396
 40
0.6040186376
 40
0.6600763819
 40
0.7174352054
 40
0.7766463716
 40
0.8188766607
 40
0.8605980543
 40
0.9438647411
 40
1.0
 40
1.0
 40
1.0
 40
1.0
 10
441.6874523706
 20
274.7998462187
 30
0.0
 10
441.5482099778
 20
274.792723752
 30
0.0
 10
441.2785754061
 20
274.776625358
 30
0.0
 10
440.9517110404
 20
274.7330612301
 30
0.0
 10
440.7177332778
 20
274.6747797338
 30
0.0
 10
440.5569830713
 20
274.617065713
 30
0.0
 10
440.4384872861
 20
274.5561960799
 30
0.0
 10
440.353099895
 20
274.4993887932
 30
0.0
 10
440.2860327805
 20
274.446054518
 30
0.0
 10
440.2220288609
 20
274.3835887452
 30
0.0
 10
440.1496790118
 20
274.2906244579
 30
0.0
 10
440.0974617673
 20
274.1716816587
 30
0.0
 10
440.0955083394
 20
274.0283841973
 30
0.0
 10
440.1509316275
 20
273.8895859042
 30
0.0
 10
440.2599026266
 20
273.7586844082
 30
0.0
 10
440.4187321261
 20
273.6389380049
 30
0.0
 10
440.6240471227
 20
273.5337604824
 30
0.0
 10
440.8449907072
 20
273.4557220455
 30
0.0
 10
441.0635171723
 20
273.4023925643
 30
0.0
 10
441.3334858793
 20
273.3584064244
 30
0.0
 10
441.6408891993
 20
273.3391823701
 30
0.0
 10
441.8773869419
 20
273.3453317898
 30
0.0
 10
441.9719611595
 20
273.3507705641
 30
0.0
  0
SPLINE
  5
594
100
AcDbEntity
  8
7_ALL_FEATURES
100
AcDbSpline
 62
7
  6
CONTINUOUS
 70
0
 71
3
 72
9
 73
5
 74
0
 42
0.0000001
 43
0.0000001
 44
0.0000000001
 40
0.0
 40
0.0
 40
0.0
 40
0.0
 40
0.2500059247
 40
1.0
 40
1.0
 40
1.0
 40
1.0
 10
442.1313488022
 20
275.4183107561
 30
0.0
 10
442.0804902092
 20
275.3742659226
 30
0.0
 10
441.9326890497
 20
275.1810224321
 30
0.0
 10
441.9902569827
 20
274.967407002
 30
0.0
 10
442.062389057
 20
274.8191601193
 30
0.0
  0
SPLINE
  5
595
100
AcDbEntity
  8
7_ALL_FEATURES
100
AcDbSpline
 62
7
  6
CONTINUOUS
 70
0
 71
3
 72
9
 73
5
 74
0
 42
0.0000001
 43
0.0000001
 44
0.0000000001
 40
0.0
 40
0.0
 40
0.0
 40
0.0
 40
0.1306269467
 40
1.0
 40
1.0
 40
1.0
 40
1.0
 10
442.5140978487
 20
271.6864136159
 30
0.0
 10
442.5145594305
 20
271.6811091486
 30
0.0
 10
442.5234131782
 20
271.6405646291
 30
0.0
 10
442.5787660316
 20
271.6021286977
 30
0.0
 10
442.6396319496
 20
271.5845582206
 30
0.0
  0
SPLINE
  5
596
100
AcDbEntity
  8
7_ALL_FEATURES
100
AcDbSpline
 62
7
  6
CONTINUOUS
 70
0
 71
3
 72
17
 73
13
 74
0
 42
0.0000001
 43
0.0000001
 44
0.0000000001
 40
0.0
 40
0.0
 40
0.0
 40
0.0
 40
0.0552928903
 40
0.1190307556
 40
0.2388446404
 40
0.3607162024
 40
0.4913988893
 40
0.6231604286
 40
0.7459155837
 40
0.8662290585
 40
0.9303231461
 40
1.0
 40
1.0
 40
1.0
 40
1.0
 10
442.9012264377
 20
271.7872811879
 30
0.0
 10
442.9102719306
 20
271.7844424182
 30
0.0
 10
442.9287175786
 20
271.7775277816
 30
0.0
 10
442.9598860833
 20
271.7603681703
 30
0.0
 10
442.9832786479
 20
271.7321990998
 30
0.0
 10
442.9806675879
 20
271.6954516199
 30
0.0
 10
442.9526782277
 20
271.6605437831
 30
0.0
 10
442.9062252321
 20
271.630890034
 30
0.0
 10
442.8438976234
 20
271.6109439223
 30
0.0
 10
442.7830832182
 20
271.6067537601
 30
0.0
 10
442.7348342273
 20
271.6118861591
 30
0.0
 10
442.7111843272
 20
271.6172461945
 30
0.0
 10
442.6995475488
 20
271.6206315523
 30
0.0
  0
SPLINE
  5
597
100
AcDbEntity
  8
7_ALL_FEATURES
100
AcDbSpline
 62
7
  6
CONTINUOUS
 70
0
 71
3
 72
15
 73
11
 74
0
 42
0.0000001
 43
0.0000001
 44
0.0000000001
 40
0.0
 40
0.0
 40
0.0
 40
0.0
 40
0.1141106906
 40
0.2377191378
 40
0.3609616822
 40
0.4892136522
 40
0.620383943
 40
0.746351036
 40
0.871384697
 40
1.0
 40
1.0
 40
1.0
 40
1.0
 10
442.1145956619
 20
272.1605706602
 30
0.0
 10
442.1220688493
 20
272.1586241041
 30
0.0
 10
442.1390278476
 20
272.1559058447
 30
0.0
 10
442.1661113359
 20
272.1566796707
 30
0.0
 10
442.1916355512
 20
272.1627163082
 30
0.0
 10
442.2106807745
 20
272.1735499616
 30
0.0
 10
442.2199789584
 20
272.1872939039
 30
0.0
 10
442.218139727
 20
272.2016258662
 30
0.0
 10
442.2058041555
 20
272.214493723
 30
0.0
 10
442.1915227066
 20
272.2208534942
 30
0.0
 10
442.1832998569
 20
272.2232291823
 30
0.0
  0
SPLINE
  5
598
100
AcDbEntity
  8
7_ALL_FEATURES
100
AcDbSpline
 62
7
  6
CONTINUOUS
 70
0
 71
3
 72
9
 73
5
 74
0
 42
0.0000001
 43
0.0000001
 44
0.0000000001
 40
0.0
 40
0.0
 40
0.0
 40
0.0
 40
0.2421437603
 40
1.0
 40
1.0
 40
1.0
 40
1.0
 10
437.7045600487
 20
273.0309409284
 30
0.0
 10
437.7108365495
 20
273.025675455
 30
0.0
 10
437.7395411181
 20
273.004748056
 30
0.0
 10
437.7788465304
 20
272.9878876694
 30
0.0
 10
437.8118697063
 20
272.9783546996
 30
0.0
  0
SPLINE
  5
599
100
AcDbEntity
  8
7_ALL_FEATURES
100
AcDbSpline
 62
7
  6
CONTINUOUS
 70
0
 71
3
 72
11
 73
7
 74
0
 42
0.0000001
 43
0.0000001
 44
0.0000000001
 40
0.0
 40
0.0
 40
0.0
 40
0.0
 40
0.2792851292
 40
0.5361778229
 40
0.7744576846
 40
1.0
 40
1.0
 40
1.0
 40
1.0
 10
359.3476322421
 20
211.8528649414
 30
0.0
 10
358.2275597992
 20
212.8228761265
 30
0.0
 10
356.1880536242
 20
214.8211601036
 30
0.0
 10
353.7127339409
 20
218.1239077961
 30
0.0
 10
351.9940895309
 20
221.5649672261
 30
0.0
 10
351.3661592699
 20
223.9679728446
 30
0.0
 10
351.1976053025
 20
225.1526319177
 30
0.0
  0
SPLINE
  5
59A
100
AcDbEntity
  8
7_ALL_FEATURES
100
AcDbSpline
 62
7
  6
CONTINUOUS
 70
0
 71
3
 72
11
 73
7
 74
0
 42
0.0000001
 43
0.0000001
 44
0.0000000001
 40
0.0
 40
0.0
 40
0.0
 40
0.0
 40
0.2770564716
 40
0.5340227695
 40
0.7735501482
 40
1.0
 40
1.0
 40
1.0
 40
1.0
 10
369.7399370875
 20
158.3014060743
 30
0.0
 10
368.9236453263
 20
159.0083354764
 30
0.0
 10
367.4240438349
 20
160.4607171704
 30
0.0
 10
365.5535334888
 20
162.8386961193
 30
0.0
 10
364.1727533967
 20
165.3093274012
 30
0.0
 10
363.5802954665
 20
167.0397195747
 30
0.0
 10
363.3793360705
 20
167.8991457492
 30
0.0
  0
SPLINE
  5
59B
100
AcDbEntity
  8
7_ALL_FEATURES
100
AcDbSpline
 62
7
  6
CONTINUOUS
 70
0
 71
3
 72
9
 73
5
 74
0
 42
0.0000001
 43
0.0000001
 44
0.0000000001
 40
0.0
 40
0.0
 40
0.0
 40
0.0
 40
0.2523927321
 40
1.0
 40
1.0
 40
1.0
 40
1.0
 10
363.3793360705
 20
167.8991457492
 30
0.0
 10
363.3232963517
 20
168.138806109
 30
0.0
 10
363.1275913932
 20
169.0943039312
 30
0.0
 10
363.0412605874
 20
170.0723613788
 30
0.0
 10
363.0412622603
 20
170.8014032631
 30
0.0
  0
SPLINE
  5
59C
100
AcDbEntity
  8
7_ALL_FEATURES
100
AcDbSpline
 62
7
  6
CONTINUOUS
 70
0
 71
3
 72
11
 73
7
 74
0
 42
0.0000001
 43
0.0000001
 44
0.0000000001
 40
0.0
 40
0.0
 40
0.0
 40
0.0
 40
0.2770564716
 40
0.5340227695
 40
0.7735501482
 40
1.0
 40
1.0
 40
1.0
 40
1.0
 10
369.7399370875
 20
180.8180665727
 30
0.0
 10
368.9236453263
 20
181.5249959748
 30
0.0
 10
367.4240438349
 20
182.9773776688
 30
0.0
 10
365.5535334888
 20
185.3553566177
 30
0.0
 10
364.1727533967
 20
187.8259878996
 30
0.0
 10
363.5802954665
 20
189.5563800731
 30
0.0
 10
363.3793360705
 20
190.4158062476
 30
0.0
  0
SPLINE
  5
59D
100
AcDbEntity
  8
7_ALL_FEATURES
100
AcDbSpline
 62
7
  6
CONTINUOUS
 70
0
 71
3
 72
9
 73
5
 74
0
 42
0.0000001
 43
0.0000001
 44
0.0000000001
 40
0.0
 40
0.0
 40
0.0
 40
0.0
 40
0.2523927321
 40
1.0
 40
1.0
 40
1.0
 40
1.0
 10
363.3793360705
 20
190.4158062476
 30
0.0
 10
363.3232963517
 20
190.6554666074
 30
0.0
 10
363.1275913932
 20
191.6109644296
 30
0.0
 10
363.0412605874
 20
192.5890218772
 30
0.0
 10
363.0412622603
 20
193.3180637614
 30
0.0
  0
SPLINE
  5
59E
100
AcDbEntity
  8
7_ALL_FEATURES
100
AcDbSpline
 62
7
  6
CONTINUOUS
 70
0
 71
3
 72
11
 73
7
 74
0
 42
0.0000001
 43
0.0000001
 44
0.0000000001
 40
0.0
 40
0.0
 40
0.0
 40
0.0
 40
0.2770564716
 40
0.5340227695
 40
0.7735501482
 40
1.0
 40
1.0
 40
1.0
 40
1.0
 10
369.7399370875
 20
175.1889014481
 30
0.0
 10
368.9236453263
 20
175.8958308502
 30
0.0
 10
367.4240438349
 20
177.3482125442
 30
0.0
 10
365.5535334888
 20
179.7261914931
 30
0.0
 10
364.1727533967
 20
182.196822775
 30
0.0
 10
363.5802954665
 20
183.9272149485
 30
0.0
 10
363.3793360705
 20
184.786641123
 30
0.0
  0
SPLINE
  5
59F
100
AcDbEntity
  8
7_ALL_FEATURES
100
AcDbSpline
 62
7
  6
CONTINUOUS
 70
0
 71
3
 72
9
 73
5
 74
0
 42
0.0000001
 43
0.0000001
 44
0.0000000001
 40
0.0
 40
0.0
 40
0.0
 40
0.0
 40
0.2523927321
 40
1.0
 40
1.0
 40
1.0
 40
1.0
 10
363.3793360705
 20
184.786641123
 30
0.0
 10
363.3232963517
 20
185.0263014828
 30
0.0
 10
363.1275913932
 20
185.981799305
 30
0.0
 10
363.0412605874
 20
186.9598567526
 30
0.0
 10
363.0412622603
 20
187.6888986368
 30
0.0
  0
SPLINE
  5
5A0
100
AcDbEntity
  8
7_ALL_FEATURES
100
AcDbSpline
 62
7
  6
CONTINUOUS
 70
0
 71
3
 72
11
 73
7
 74
0
 42
0.0000001
 43
0.0000001
 44
0.0000000001
 40
0.0
 40
0.0
 40
0.0
 40
0.0
 40
0.2770564716
 40
0.5340227695
 40
0.7735501482
 40
1.0
 40
1.0
 40
1.0
 40
1.0
 10
369.7399370875
 20
163.9305711989
 30
0.0
 10
368.9236453263
 20
164.637500601
 30
0.0
 10
367.4240438349
 20
166.089882295
 30
0.0
 10
365.5535334888
 20
168.4678612439
 30
0.0
 10
364.1727533967
 20
170.9384925258
 30
0.0
 10
363.5802954665
 20
172.6688846993
 30
0.0
 10
363.3793360705
 20
173.5283108738
 30
0.0
  0
SPLINE
  5
5A1
100
AcDbEntity
  8
7_ALL_FEATURES
100
AcDbSpline
 62
7
  6
CONTINUOUS
 70
0
 71
3
 72
9
 73
5
 74
0
 42
0.0000001
 43
0.0000001
 44
0.0000000001
 40
0.0
 40
0.0
 40
0.0
 40
0.0
 40
0.2523927321
 40
1.0
 40
1.0
 40
1.0
 40
1.0
 10
363.3793360705
 20
173.5283108738
 30
0.0
 10
363.3232963517
 20
173.7679712336
 30
0.0
 10
363.1275913932
 20
174.7234690558
 30
0.0
 10
363.0412605874
 20
175.7015265034
 30
0.0
 10
363.0412622603
 20
176.4305683876
 30
0.0
  0
SPLINE
  5
5A2
100
AcDbEntity
  8
7_ALL_FEATURES
100
AcDbSpline
 62
7
  6
CONTINUOUS
 70
0
 71
3
 72
11
 73
7
 74
0
 42
0.0000001
 43
0.0000001
 44
0.0000000001
 40
0.0
 40
0.0
 40
0.0
 40
0.0
 40
0.2770564716
 40
0.5340227695
 40
0.7735501482
 40
1.0
 40
1.0
 40
1.0
 40
1.0
 10
369.7399370875
 20
169.5597363235
 30
0.0
 10
368.9236453263
 20
170.2666657256
 30
0.0
 10
367.4240438349
 20
171.7190474196
 30
0.0
 10
365.5535334888
 20
174.0970263685
 30
0.0
 10
364.1727533967
 20
176.5676576504
 30
0.0
 10
363.5802954665
 20
178.2980498239
 30
0.0
 10
363.3793360705
 20
179.1574759984
 30
0.0
  0
SPLINE
  5
5A3
100
AcDbEntity
  8
7_ALL_FEATURES
100
AcDbSpline
 62
7
  6
CONTINUOUS
 70
0
 71
3
 72
9
 73
5
 74
0
 42
0.0000001
 43
0.0000001
 44
0.0000000001
 40
0.0
 40
0.0
 40
0.0
 40
0.0
 40
0.2523927321
 40
1.0
 40
1.0
 40
1.0
 40
1.0
 10
363.3793360705
 20
179.1574759984
 30
0.0
 10
363.3232963517
 20
179.3971363582
 30
0.0
 10
363.1275913932
 20
180.3526341804
 30
0.0
 10
363.0412605874
 20
181.330691628
 30
0.0
 10
363.0412622603
 20
182.0597335122
 30
0.0
  0
SPLINE
  5
5A4
100
AcDbEntity
  8
7_ALL_FEATURES
100
AcDbSpline
 62
7
  6
CONTINUOUS
 70
0
 71
3
 72
11
 73
7
 74
0
 42
0.0000001
 43
0.0000001
 44
0.0000000001
 40
0.0
 40
0.0
 40
0.0
 40
0.0
 40
0.2820341385
 40
0.5383308777
 40
0.7746591189
 40
1.0
 40
1.0
 40
1.0
 40
1.0
 10
369.7399370875
 20
151.8062155459
 30
0.0
 10
368.7020130707
 20
152.7050841117
 30
0.0
 10
366.8369499088
 20
154.5653673344
 30
0.0
 10
364.6757662969
 20
157.6860534638
 30
0.0
 10
363.3447093485
 20
160.9517845209
 30
0.0
 10
363.0412073483
 20
163.2091744587
 30
0.0
 10
363.0412572826
 20
164.3062155453
 30
0.0
  0
SPLINE
  5
5A5
100
AcDbEntity
  8
7_ALL_FEATURES
100
AcDbSpline
 62
7
  6
CONTINUOUS
 70
0
 71
3
 72
11
 73
7
 74
0
 42
0.0000001
 43
0.0000001
 44
0.0000000001
 40
0.0
 40
0.0
 40
0.0
 40
0.0
 40
0.2189906234
 40
0.4543438469
 40
0.7133460799
 40
1.0
 40
1.0
 40
1.0
 40
1.0
 10
474.8822052148
 20
225.1344980067
 30
0.0
 10
474.6770605302
 20
223.7050519006
 30
0.0
 10
473.8360002179
 20
220.7880958019
 30
0.0
 10
471.459837265
 20
216.6857824382
 30
0.0
 10
468.0184681095
 20
212.8163472109
 30
0.0
 10
465.2072156863
 20
210.5462213607
 30
0.0
 10
463.6637833107
 20
209.4548960905
 30
0.0
  0
SPLINE
  5
5A6
100
AcDbEntity
  8
7_ALL_FEATURES
100
AcDbSpline
 62
7
  6
CONTINUOUS
 70
0
 71
3
 72
9
 73
5
 74
0
 42
0.0000001
 43
0.0000001
 44
0.0000000001
 40
0.0
 40
0.0
 40
0.0
 40
0.0
 40
0.2486420755
 40
1.0
 40
1.0
 40
1.0
 40
1.0
 10
463.0411522932
 20
170.8014088855
 30
0.0
 10
463.0411517369
 20
170.5589379936
 30
0.0
 10
463.012917462
 20
169.5839125941
 30
0.0
 10
462.8699113683
 20
168.6126081929
 30
0.0
 10
462.7030928034
 20
167.8991413978
 30
0.0
  0
SPLINE
  5
5A7
100
AcDbEntity
  8
7_ALL_FEATURES
100
AcDbSpline
 62
7
  6
CONTINUOUS
 70
0
 71
3
 72
23
 73
19
 74
0
 42
0.0000001
 43
0.0000001
 44
0.0000000001
 40
0.0
 40
0.0
 40
0.0
 40
0.0
 40
0.0397969705
 40
0.0837165545
 40
0.1330348624
 40
0.1882170421
 40
0.2491089866
 40
0.3151111305
 40
0.385307582
 40
0.4585619276
 40
0.5335933174
 40
0.6090420782
 40
0.6835304839
 40
0.7557226325
 40
0.8243863134
 40
0.8884629071
 40
0.9471471408
 40
1.0
 40
1.0
 40
1.0
 40
1.0
 10
462.7030928034
 20
167.8991413978
 30
0.0
 10
462.3905814847
 20
166.5625608491
 30
0.0
 10
461.2849351532
 20
163.8456187745
 30
0.0
 10
458.50170315
 20
160.150741643
 30
0.0
 10
454.6390241796
 20
156.7486177446
 30
0.0
 10
449.7930334578
 20
153.7024753899
 30
0.0
 10
444.0747458932
 20
151.0713250208
 30
0.0
 10
437.6162313081
 20
148.9139110628
 30
0.0
 10
430.56925817
 20
147.2803622368
 30
0.0
 10
423.1014710798
 20
146.2098013433
 30
0.0
 10
415.3917851951
 20
145.7281331068
 30
0.0
 10
407.6255385152
 20
145.8470925724
 30
0.0
 10
399.9895831968
 20
146.5637594414
 30
0.0
 10
392.6672572681
 20
147.8607829596
 30
0.0
 10
385.8337710534
 20
149.7066644745
 30
0.0
 10
379.6503849
 20
152.0582710365
 30
0.0
 10
374.2636815675
 20
154.8595740344
 30
0.0
 10
371.1179480671
 20
157.1080135593
 30
0.0
 10
369.7399370875
 20
158.3014060743
 30
0.0
  0
SPLINE
  5
5A8
100
AcDbEntity
  8
7_ALL_FEATURES
100
AcDbSpline
 62
7
  6
CONTINUOUS
 70
0
 71
3
 72
9
 73
5
 74
0
 42
0.0000001
 43
0.0000001
 44
0.0000000001
 40
0.0
 40
0.0
 40
0.0
 40
0.0
 40
0.2486420755
 40
1.0
 40
1.0
 40
1.0
 40
1.0
 10
463.0411522932
 20
176.4305740101
 30
0.0
 10
463.0411517369
 20
176.1881031182
 30
0.0
 10
463.012917462
 20
175.2130777187
 30
0.0
 10
462.8699113683
 20
174.2417733175
 30
0.0
 10
462.7030928034
 20
173.5283065224
 30
0.0
  0
SPLINE
  5
5A9
100
AcDbEntity
  8
7_ALL_FEATURES
100
AcDbSpline
 62
7
  6
CONTINUOUS
 70
0
 71
3
 72
23
 73
19
 74
0
 42
0.0000001
 43
0.0000001
 44
0.0000000001
 40
0.0
 40
0.0
 40
0.0
 40
0.0
 40
0.0397969705
 40
0.0837165545
 40
0.1330348624
 40
0.1882170421
 40
0.2491089866
 40
0.3151111305
 40
0.385307582
 40
0.4585619276
 40
0.5335933174
 40
0.6090420782
 40
0.6835304839
 40
0.7557226325
 40
0.8243863134
 40
0.8884629071
 40
0.9471471408
 40
1.0
 40
1.0
 40
1.0
 40
1.0
 10
462.7030928034
 20
173.5283065224
 30
0.0
 10
462.3905814847
 20
172.1917259737
 30
0.0
 10
461.2849351532
 20
169.4747838991
 30
0.0
 10
458.50170315
 20
165.7799067676
 30
0.0
 10
454.6390241796
 20
162.3777828692
 30
0.0
 10
449.7930334578
 20
159.3316405145
 30
0.0
 10
444.0747458932
 20
156.7004901454
 30
0.0
 10
437.6162313081
 20
154.5430761874
 30
0.0
 10
430.56925817
 20
152.9095273614
 30
0.0
 10
423.1014710798
 20
151.8389664679
 30
0.0
 10
415.3917851951
 20
151.3572982314
 30
0.0
 10
407.6255385152
 20
151.476257697
 30
0.0
 10
399.9895831968
 20
152.192924566
 30
0.0
 10
392.6672572681
 20
153.4899480842
 30
0.0
 10
385.8337710534
 20
155.3358295991
 30
0.0
 10
379.6503849
 20
157.6874361611
 30
0.0
 10
374.2636815675
 20
160.488739159
 30
0.0
 10
371.1179480671
 20
162.7371786839
 30
0.0
 10
369.7399370875
 20
163.9305711989
 30
0.0
  0
SPLINE
  5
5AA
100
AcDbEntity
  8
7_ALL_FEATURES
100
AcDbSpline
 62
7
  6
CONTINUOUS
 70
0
 71
3
 72
9
 73
5
 74
0
 42
0.0000001
 43
0.0000001
 44
0.0000000001
 40
0.0
 40
0.0
 40
0.0
 40
0.0
 40
0.2486420755
 40
1.0
 40
1.0
 40
1.0
 40
1.0
 10
463.0411522932
 20
182.0597391347
 30
0.0
 10
463.0411517369
 20
181.8172682428
 30
0.0
 10
463.012917462
 20
180.8422428433
 30
0.0
 10
462.8699113683
 20
179.8709384421
 30
0.0
 10
462.7030928034
 20
179.157471647
 30
0.0
  0
SPLINE
  5
5AB
100
AcDbEntity
  8
7_ALL_FEATURES
100
AcDbSpline
 62
7
  6
CONTINUOUS
 70
0
 71
3
 72
17
 73
13
 74
0
 42
0.0000001
 43
0.0000001
 44
0.0000000001
 40
0.0
 40
0.0
 40
0.0
 40
0.0
 40
0.0415918318
 40
0.0850876937
 40
0.1310875982
 40
0.1800353721
 40
0.2876694249
 40
0.4089430594
 40
0.5430552801
 40
0.6881117688
 40
0.8414706094
 40
1.0
 40
1.0
 40
1.0
 40
1.0
 10
462.7030928034
 20
179.157471647
 30
0.0
 10
462.5348634715
 20
178.4379711384
 30
0.0
 10
462.0664360355
 20
176.9927054476
 30
0.0
 10
461.0144719987
 20
174.9063166811
 30
0.0
 10
459.6121016404
 20
172.8771013676
 30
0.0
 10
457.214781588
 20
170.1828021423
 30
0.0
 10
453.346707171
 20
167.0621813361
 30
0.0
 10
447.7130005625
 20
163.8802391367
 30
0.0
 10
441.0957519074
 20
161.2206104514
 30
0.0
 10
433.6798959535
 20
159.1568635993
 30
0.0
 10
425.6741638522
 20
157.7463987397
 30
0.0
 10
420.1452595728
 20
157.2731216281
 30
0.0
 10
417.331488559
 20
157.1519703476
 30
0.0
  0
SPLINE
  5
5AC
100
AcDbEntity
  8
7_ALL_FEATURES
100
AcDbSpline
 62
7
  6
CONTINUOUS
 70
0
 71
3
 72
14
 73
10
 74
0
 42
0.0000001
 43
0.0000001
 44
0.0000000001
 40
0.0
 40
0.0
 40
0.0
 40
0.0
 40
0.28108151
 40
0.4183014074
 40
0.550600295
 40
0.6762064736
 40
0.7936230626
 40
0.9017488137
 40
1.0
 40
1.0
 40
1.0
 40
1.0
 10
417.0791178598
 20
157.1414257138
 30
0.0
 10
412.4046888691
 20
156.9520709149
 30
0.0
 10
405.4144854242
 20
157.1553590487
 30
0.0
 10
396.3308240178
 20
158.4100852937
 30
0.0
 10
389.8968450735
 20
159.8067448544
 30
0.0
 10
383.9163195424
 20
161.6380116081
 30
0.0
 10
378.5034531427
 20
163.8691707486
 30
0.0
 10
373.7635139737
 20
166.4571753127
 30
0.0
 10
370.976086888
 20
168.4891991934
 30
0.0
 10
369.7399370875
 20
169.5597363235
 30
0.0
  0
SPLINE
  5
5AD
100
AcDbEntity
  8
7_ALL_FEATURES
100
AcDbSpline
 62
7
  6
CONTINUOUS
 70
0
 71
3
 72
9
 73
5
 74
0
 42
0.0000001
 43
0.0000001
 44
0.0000000001
 40
0.0
 40
0.0
 40
0.0
 40
0.0
 40
0.2486420755
 40
1.0
 40
1.0
 40
1.0
 40
1.0
 10
463.0411522932
 20
187.6889042593
 30
0.0
 10
463.0411517369
 20
187.4464333674
 30
0.0
 10
463.012917462
 20
186.4714079679
 30
0.0
 10
462.8699113683
 20
185.5001035667
 30
0.0
 10
462.7030928034
 20
184.7866367716
 30
0.0
  0
SPLINE
  5
5AE
100
AcDbEntity
  8
7_ALL_FEATURES
100
AcDbSpline
 62
7
  6
CONTINUOUS
 70
0
 71
3
 72
23
 73
19
 74
0
 42
0.0000001
 43
0.0000001
 44
0.0000000001
 40
0.0
 40
0.0
 40
0.0
 40
0.0
 40
0.0397969705
 40
0.0837165545
 40
0.1330348624
 40
0.1882170421
 40
0.2491089866
 40
0.3151111305
 40
0.385307582
 40
0.4585619276
 40
0.5335933174
 40
0.6090420782
 40
0.6835304839
 40
0.7557226325
 40
0.8243863134
 40
0.8884629071
 40
0.9471471408
 40
1.0
 40
1.0
 40
1.0
 40
1.0
 10
462.7030928034
 20
184.7866367716
 30
0.0
 10
462.3905814847
 20
183.4500562229
 30
0.0
 10
461.2849351532
 20
180.7331141483
 30
0.0
 10
458.50170315
 20
177.0382370168
 30
0.0
 10
454.6390241796
 20
173.6361131184
 30
0.0
 10
449.7930334578
 20
170.5899707637
 30
0.0
 10
444.0747458932
 20
167.9588203946
 30
0.0
 10
437.6162313081
 20
165.8014064366
 30
0.0
 10
430.56925817
 20
164.1678576106
 30
0.0
 10
423.1014710798
 20
163.0972967171
 30
0.0
 10
415.3917851951
 20
162.6156284806
 30
0.0
 10
407.6255385152
 20
162.7345879462
 30
0.0
 10
399.9895831968
 20
163.4512548152
 30
0.0
 10
392.6672572681
 20
164.7482783334
 30
0.0
 10
385.8337710534
 20
166.5941598483
 30
0.0
 10
379.6503849
 20
168.9457664103
 30
0.0
 10
374.2636815675
 20
171.7470694082
 30
0.0
 10
371.1179480671
 20
173.9955089331
 30
0.0
 10
369.7399370875
 20
175.1889014481
 30
0.0
  0
SPLINE
  5
5AF
100
AcDbEntity
  8
7_ALL_FEATURES
100
AcDbSpline
 62
7
  6
CONTINUOUS
 70
0
 71
3
 72
9
 73
5
 74
0
 42
0.0000001
 43
0.0000001
 44
0.0000000001
 40
0.0
 40
0.0
 40
0.0
 40
0.0
 40
0.2486420755
 40
1.0
 40
1.0
 40
1.0
 40
1.0
 10
463.0411522932
 20
193.3180693839
 30
0.0
 10
463.0411517369
 20
193.075598492
 30
0.0
 10
463.012917462
 20
192.1005730925
 30
0.0
 10
462.8699113683
 20
191.1292686913
 30
0.0
 10
462.7030928034
 20
190.4158018962
 30
0.0
  0
SPLINE
  5
5B0
100
AcDbEntity
  8
7_ALL_FEATURES
100
AcDbSpline
 62
7
  6
CONTINUOUS
 70
0
 71
3
 72
11
 73
7
 74
0
 42
0.0000001
 43
0.0000001
 44
0.0000000001
 40
0.0
 40
0.0
 40
0.0
 40
0.0
 40
0.2189632659
 40
0.4552857658
 40
0.7146337379
 40
1.0
 40
1.0
 40
1.0
 40
1.0
 10
462.7030928034
 20
190.4158018962
 30
0.0
 10
462.447973212
 20
189.3246801894
 30
0.0
 10
461.6241726311
 20
187.1178552497
 30
0.0
 10
459.6147757581
 20
184.0346087544
 30
0.0
 10
456.8483321529
 20
181.1247058262
 30
0.0
 10
454.6385389448
 20
179.4091650752
 30
0.0
 10
453.4339413063
 20
178.5835606807
 30
0.0
  0
SPLINE
  5
5B1
100
AcDbEntity
  8
7_ALL_FEATURES
100
AcDbSpline
 62
7
  6
CONTINUOUS
 70
0
 71
3
 72
10
 73
6
 74
0
 42
0.0000001
 43
0.0000001
 44
0.0000000001
 40
0.0
 40
0.0
 40
0.0
 40
0.0
 40
0.2252398722
 40
0.4680825526
 40
1.0
 40
1.0
 40
1.0
 40
1.0
 10
453.4339413063
 20
178.5835606807
 30
0.0
 10
452.2000367511
 20
177.7378699782
 30
0.0
 10
449.526862637
 20
176.136128428
 30
0.0
 10
443.5113838432
 20
173.304818789
 30
0.0
 10
438.5793843433
 20
171.7401851693
 30
0.0
 10
435.1493959195
 20
170.8947101953
 30
0.0
  0
SPLINE
  5
5B2
100
AcDbEntity
  8
7_ALL_FEATURES
100
AcDbSpline
 62
7
  6
CONTINUOUS
 70
0
 71
3
 72
15
 73
11
 74
0
 42
0.0000001
 43
0.0000001
 44
0.0000000001
 40
0.0
 40
0.0
 40
0.0
 40
0.0
 40
0.1287614666
 40
0.2622518578
 40
0.3975206792
 40
0.5315220653
 40
0.6612780901
 40
0.7840462973
 40
0.8975066472
 40
1.0
 40
1.0
 40
1.0
 40
1.0
 10
434.7353295773
 20
170.793829307
 30
0.0
 10
432.0602807356
 20
170.149713855
 30
0.0
 10
426.5416542456
 20
169.1177896087
 30
0.0
 10
418.0741982033
 20
168.3203715125
 30
0.0
 10
409.4569969571
 20
168.2579891658
 30
0.0
 10
400.9459880127
 20
168.9327732632
 30
0.0
 10
392.7923643811
 20
170.3243072635
 30
0.0
 10
385.2346922482
 20
172.3918202352
 30
0.0
 10
378.4947633758
 20
175.0736300694
 30
0.0
 10
374.4539326549
 20
177.3460462544
 30
0.0
 10
372.6474162707
 20
178.5843465808
 30
0.0
  0
SPLINE
  5
5B3
100
AcDbEntity
  8
7_ALL_FEATURES
100
AcDbSpline
 62
7
  6
CONTINUOUS
 70
0
 71
3
 72
9
 73
5
 74
0
 42
0.0000001
 43
0.0000001
 44
0.0000000001
 40
0.0
 40
0.0
 40
0.0
 40
0.0
 40
0.2573954951
 40
1.0
 40
1.0
 40
1.0
 40
1.0
 10
372.6474162707
 20
178.5843465808
 30
0.0
 10
372.3878695621
 20
178.7622562731
 30
0.0
 10
371.3885292327
 20
179.4664328834
 30
0.0
 10
370.4262008637
 20
180.2237447088
 30
0.0
 10
369.7399370875
 20
180.8180665727
 30
0.0
  0
SPLINE
  5
5B4
100
AcDbEntity
  8
7_ALL_FEATURES
100
AcDbSpline
 62
7
  6
CONTINUOUS
 70
0
 71
3
 72
19
 73
15
 74
0
 42
0.0000001
 43
0.0000001
 44
0.0000000001
 40
0.0
 40
0.0
 40
0.0
 40
0.0
 40
0.0514233076
 40
0.1068965723
 40
0.1661276171
 40
0.2286813785
 40
0.3614249171
 40
0.5000033653
 40
0.638581201
 40
0.7713226569
 40
0.8338748107
 40
0.8931049131
 40
0.9485740162
 40
1.0
 40
1.0
 40
1.0
 40
1.0
 10
463.4198949177
 20
209.2824407945
 30
0.0
 10
461.9430516425
 20
208.2381333318
 30
0.0
 10
458.7373889658
 20
206.255745247
 30
0.0
 10
453.476366526
 20
203.6949901976
 30
0.0
 10
447.6463979777
 20
201.4639705361
 30
0.0
 10
439.0544837284
 20
198.9220007115
 30
0.0
 10
427.4651687549
 20
196.8038488301
 30
0.0
 10
413.0395715654
 20
195.9565756461
 30
0.0
 10
398.6140657435
 20
196.8041922467
 30
0.0
 10
387.02496137
 20
198.9226735663
 30
0.0
 10
378.4332946894
 20
201.4649105721
 30
0.0
 10
372.6036418644
 20
203.6960921643
 30
0.0
 10
367.3427716588
 20
206.2569597318
 30
0.0
 10
364.1372549211
 20
208.2395028872
 30
0.0
 10
362.6604333136
 20
209.2840040223
 30
0.0
  0
SPLINE
  5
5B5
100
AcDbEntity
  8
7_ALL_FEATURES
100
AcDbSpline
 62
7
  6
CONTINUOUS
 70
0
 71
3
 72
12
 73
8
 74
0
 42
0.0000001
 43
0.0000001
 44
0.0000000001
 40
0.0
 40
0.0
 40
0.0
 40
0.0
 40
0.2896731154
 40
0.5479602718
 40
0.7809031421
 40
0.8913986063
 40
1.0
 40
1.0
 40
1.0
 40
1.0
 10
453.8659994884
 20
149.8724718401
 30
0.0
 10
455.2650453961
 20
150.8616829306
 30
0.0
 10
457.7848219097
 20
152.9292993891
 30
0.0
 10
460.7579681117
 20
156.5069552365
 30
0.0
 10
462.3299425208
 20
159.753424886
 30
0.0
 10
462.9403381623
 20
162.3656319057
 30
0.0
 10
463.0411280313
 20
163.6638304255
 30
0.0
 10
463.0411572709
 20
164.3062155465
 30
0.0
  0
SPLINE
  5
5B6
100
AcDbEntity
  8
7_ALL_FEATURES
100
AcDbSpline
 62
7
  6
CONTINUOUS
 70
0
 71
3
 72
19
 73
15
 74
0
 42
0.0000001
 43
0.0000001
 44
0.0000000001
 40
0.0
 40
0.0
 40
0.0
 40
0.0
 40
0.051441615
 40
0.1069174377
 40
0.1661532198
 40
0.2287103492
 40
0.3614550233
 40
0.500030258
 40
0.6386015482
 40
0.7713356305
 40
0.8338842397
 40
0.8931107981
 40
0.9485802939
 40
1.0
 40
1.0
 40
1.0
 40
1.0
 10
373.0392804626
 20
149.2907307326
 30
0.0
 10
374.2126009062
 20
148.4614266163
 30
0.0
 10
376.7589411762
 20
146.8874408574
 30
0.0
 10
380.9376656727
 20
144.8545846924
 30
0.0
 10
385.5676342603
 20
143.0835571184
 30
0.0
 10
392.3907785147
 20
141.0658681304
 30
0.0
 10
401.5937381891
 20
139.3846807303
 30
0.0
 10
413.0485650625
 20
138.7127727659
 30
0.0
 10
424.502988938
 20
139.3864052408
 30
0.0
 10
433.7050651672
 20
141.0689254636
 30
0.0
 10
440.5270492292
 20
143.0877503079
 30
0.0
 10
445.1560422532
 20
144.8594507554
 30
0.0
 10
449.3333312034
 20
146.892881675
 30
0.0
 10
451.8785890602
 20
148.4671066819
 30
0.0
 10
453.0512158011
 20
149.2963319878
 30
0.0
  0
SPLINE
  5
5B7
100
AcDbEntity
  8
7_ALL_FEATURES
100
AcDbSpline
 62
7
  6
CONTINUOUS
 70
0
 71
3
 72
24
 73
20
 74
0
 42
0.0000001
 43
0.0000001
 44
0.0000000001
 40
0.0
 40
0.0
 40
0.0
 40
0.0
 40
0.053926839
 40
0.1140498951
 40
0.1798496833
 40
0.2503901905
 40
0.3244553694
 40
0.4006421871
 40
0.4774439727
 40
0.5533248148
 40
0.6267926287
 40
0.6964748609
 40
0.7612027391
 40
0.8201133219
 40
0.8727843415
 40
0.9194205263
 40
0.9610877468
 40
0.980733519
 40
1.0
 40
1.0
 40
1.0
 40
1.0
 10
369.7399370875
 20
155.2703171611
 30
0.0
 10
371.1856547903
 20
154.0182889038
 30
0.0
 10
374.504996345
 20
151.6679846379
 30
0.0
 10
380.2056465811
 20
148.7710668884
 30
0.0
 10
386.7626798875
 20
146.3720726653
 30
0.0
 10
394.0062798608
 20
144.5337166447
 30
0.0
 10
401.7494074078
 20
143.3030030984
 30
0.0
 10
409.789312257
 20
142.7127339294
 30
0.0
 10
417.9147862099
 20
142.7785474005
 30
0.0
 10
425.9120510781
 20
143.4987103214
 30
0.0
 10
433.571090706
 20
144.8540689857
 30
0.0
 10
440.6918342989
 20
146.8088306423
 30
0.0
 10
447.0901706993
 20
149.3125608372
 30
0.0
 10
452.6035685387
 20
152.3026320118
 30
0.0
 10
457.0943407651
 20
155.7125150444
 30
0.0
 10
460.4478392728
 20
159.4715755609
 30
0.0
 10
462.2339897267
 20
162.9209883308
 30
0.0
 10
462.9268614173
 20
165.7043751691
 30
0.0
 10
463.0411507254
 20
167.087038007
 30
0.0
 10
463.0411522932
 20
167.7703199723
 30
0.0
  0
SPLINE
  5
5B8
100
AcDbEntity
  8
7_ALL_FEATURES
100
AcDbSpline
 62
7
  6
CONTINUOUS
 70
0
 71
3
 72
24
 73
20
 74
0
 42
0.0000001
 43
0.0000001
 44
0.0000000001
 40
0.0
 40
0.0
 40
0.0
 40
0.0
 40
0.0529973352
 40
0.1118756221
 40
0.1761853493
 40
0.245103952
 40
0.3175519559
 40
0.3922743778
 40
0.4679124045
 40
0.5430668579
 40
0.6163597555
 40
0.6864969525
 40
0.7523360426
 40
0.8129655423
 40
0.8678052754
 40
0.9167423415
 40
0.9603133009
 40
0.9805294392
 40
1.0
 40
1.0
 40
1.0
 40
1.0
 10
369.7399370875
 20
160.8994822857
 30
0.0
 10
371.1272832993
 20
159.6980052224
 30
0.0
 10
374.2968548764
 20
157.4354652841
 30
0.0
 10
379.7266509183
 20
154.6207418914
 30
0.0
 10
385.9613476019
 20
152.2622147008
 30
0.0
 10
392.8512949229
 20
150.4168177141
 30
0.0
 10
400.231822984
 20
149.1282213918
 30
0.0
 10
407.9240723277
 20
148.4281330112
 30
0.0
 10
415.7409952153
 20
148.3337192925
 30
0.0
 10
423.4921317119
 20
148.8473291569
 30
0.0
 10
430.9888077869
 20
149.9563046825
 30
0.0
 10
438.0491916439
 20
151.6334346189
 30
0.0
 10
444.5033445907
 20
153.8382542266
 30
0.0
 10
450.1977895258
 20
156.5184964185
 30
0.0
 10
454.9999031765
 20
159.6157321658
 30
0.0
 10
458.7971852452
 20
163.0644580865
 30
0.0
 10
461.0997689416
 20
166.2682061649
 30
0.0
 10
462.2804003888
 20
168.9075995358
 30
0.0
 10
462.6569476483
 20
170.2357147487
 30
0.0
 10
462.7899995708
 20
170.8967182547
 30
0.0
  0
SPLINE
  5
5B9
100
AcDbEntity
  8
7_ALL_FEATURES
100
AcDbSpline
 62
7
  6
CONTINUOUS
 70
0
 71
3
 72
24
 73
20
 74
0
 42
0.0000001
 43
0.0000001
 44
0.0000000001
 40
0.0
 40
0.0
 40
0.0
 40
0.0
 40
0.0529973352
 40
0.1118756221
 40
0.1761853493
 40
0.245103952
 40
0.3175519559
 40
0.3922743778
 40
0.4679124045
 40
0.5430668579
 40
0.6163597555
 40
0.6864969525
 40
0.7523360426
 40
0.8129655423
 40
0.8678052754
 40
0.9167423415
 40
0.9603133009
 40
0.9805294392
 40
1.0
 40
1.0
 40
1.0
 40
1.0
 10
369.7399370875
 20
177.7869776594
 30
0.0
 10
371.1272832993
 20
176.5855005962
 30
0.0
 10
374.2968548764
 20
174.3229606579
 30
0.0
 10
379.7266509183
 20
171.5082372652
 30
0.0
 10
385.9613476019
 20
169.1497100746
 30
0.0
 10
392.8512949229
 20
167.3043130879
 30
0.0
 10
400.231822984
 20
166.0157167656
 30
0.0
 10
407.9240723277
 20
165.315628385
 30
0.0
 10
415.7409952153
 20
165.2212146663
 30
0.0
 10
423.4921317119
 20
165.7348245307
 30
0.0
 10
430.9888077869
 20
166.8438000563
 30
0.0
 10
438.0491916439
 20
168.5209299927
 30
0.0
 10
444.5033445907
 20
170.7257496004
 30
0.0
 10
450.1977895258
 20
173.4059917923
 30
0.0
 10
454.9999031765
 20
176.5032275395
 30
0.0
 10
458.7971852452
 20
179.9519534603
 30
0.0
 10
461.0997689416
 20
183.1557015387
 30
0.0
 10
462.2804003888
 20
185.7950949096
 30
0.0
 10
462.6569476483
 20
187.1232101225
 30
0.0
 10
462.7899995708
 20
187.7842136285
 30
0.0
  0
SPLINE
  5
5BA
100
AcDbEntity
  8
7_ALL_FEATURES
100
AcDbSpline
 62
7
  6
CONTINUOUS
 70
0
 71
3
 72
15
 73
11
 74
0
 42
0.0000001
 43
0.0000001
 44
0.0000000001
 40
0.0
 40
0.0
 40
0.0
 40
0.0
 40
0.0973861373
 40
0.2065919896
 40
0.3264707621
 40
0.4550104477
 40
0.5896354651
 40
0.7274127651
 40
0.8652369434
 40
1.0
 40
1.0
 40
1.0
 40
1.0
 10
369.7399370875
 20
166.5286474102
 30
0.0
 10
371.2837243009
 20
165.1916884654
 30
0.0
 10
374.8574303085
 20
162.6955209616
 30
0.0
 10
381.0183243351
 20
159.6671770141
 30
0.0
 10
388.1221663779
 20
157.211046095
 30
0.0
 10
395.961315643
 20
155.3999889028
 30
0.0
 10
404.3068810786
 20
154.2864083126
 30
0.0
 10
412.9120339688
 20
153.9040345512
 30
0.0
 10
421.5201953613
 20
154.2642130036
 30
0.0
 10
427.1977041906
 20
155.0060834122
 30
0.0
 10
429.9790404479
 20
155.5068224091
 30
0.0
  0
SPLINE
  5
5BB
100
AcDbEntity
  8
7_ALL_FEATURES
100
AcDbSpline
 62
7
  6
CONTINUOUS
 70
0
 71
3
 72
15
 73
11
 74
0
 42
0.0000001
 43
0.0000001
 44
0.0000000001
 40
0.0
 40
0.0
 40
0.0
 40
0.0
 40
0.1606248075
 40
0.3130944239
 40
0.4556104215
 40
0.5868449454
 40
0.7061123198
 40
0.8135970757
 40
0.9106394972
 40
1.0
 40
1.0
 40
1.0
 40
1.0
 10
429.9790404479
 20
155.5068224091
 30
0.0
 10
432.137974715
 20
155.8955070122
 30
0.0
 10
436.3201068762
 20
156.8112273987
 30
0.0
 10
442.2737769895
 20
158.6460110167
 30
0.0
 10
447.6605996938
 20
160.8774655188
 30
0.0
 10
452.3778587756
 20
163.4641914044
 30
0.0
 10
456.337138833
 20
166.3604108158
 30
0.0
 10
459.463190373
 20
169.5211616949
 30
0.0
 10
461.6885986847
 20
172.8973130819
 30
0.0
 10
462.5491799148
 20
175.3294885137
 30
0.0
 10
462.7899995708
 20
176.5258833793
 30
0.0
  0
SPLINE
  5
5BC
100
AcDbEntity
  8
7_ALL_FEATURES
100
AcDbSpline
 62
7
  6
CONTINUOUS
 70
0
 71
3
 72
15
 73
11
 74
0
 42
0.0000001
 43
0.0000001
 44
0.0000000001
 40
0.0
 40
0.0
 40
0.0
 40
0.0
 40
0.0974389825
 40
0.2061612649
 40
0.32520105
 40
0.452824495
 40
0.5867838935
 40
0.724490534
 40
0.8631697971
 40
1.0
 40
1.0
 40
1.0
 40
1.0
 10
369.7399370875
 20
172.1578125348
 30
0.0
 10
371.1991125764
 20
170.8941294929
 30
0.0
 10
374.5531577978
 20
168.5236901209
 30
0.0
 10
380.3165901283
 20
165.6082427619
 30
0.0
 10
386.9482866789
 20
163.2006035222
 30
0.0
 10
394.2735500155
 20
161.3648501223
 30
0.0
 10
402.0998668548
 20
160.1487376606
 30
0.0
 10
410.2189354769
 20
159.5852981327
 30
0.0
 10
418.4129004923
 20
159.689594876
 30
0.0
 10
423.8538101835
 20
160.2096503002
 30
0.0
 10
426.5382355188
 20
160.5858990069
 30
0.0
  0
SPLINE
  5
5BD
100
AcDbEntity
  8
7_ALL_FEATURES
100
AcDbSpline
 62
7
  6
CONTINUOUS
 70
0
 71
3
 72
15
 73
11
 74
0
 42
0.0000001
 43
0.0000001
 44
0.0000000001
 40
0.0
 40
0.0
 40
0.0
 40
0.0
 40
0.1606783562
 40
0.3137602811
 40
0.4571054393
 40
0.5890641682
 40
0.7086721966
 40
0.8159126064
 40
0.9120560931
 40
1.0
 40
1.0
 40
1.0
 40
1.0
 10
426.8016437882
 20
160.6232076199
 30
0.0
 10
429.1442448315
 20
160.9584771877
 30
0.0
 10
433.6959435858
 20
161.7901044688
 30
0.0
 10
440.2006425097
 20
163.5586374959
 30
0.0
 10
446.1150232602
 20
165.7867526817
 30
0.0
 10
451.3126092189
 20
168.4277655274
 30
0.0
 10
455.6844940458
 20
171.4289179588
 30
0.0
 10
459.138632259
 20
174.7381156936
 30
0.0
 10
461.5935711633
 20
178.2992435613
 30
0.0
 10
462.5344104143
 20
180.8852785872
 30
0.0
 10
462.7899995708
 20
182.1550485039
 30
0.0
  0
SPLINE
  5
5BE
100
AcDbEntity
  8
7_ALL_FEATURES
100
AcDbSpline
 62
7
  6
CONTINUOUS
 70
0
 71
3
 72
19
 73
15
 74
0
 42
0.0000001
 43
0.0000001
 44
0.0000000001
 40
0.0
 40
0.0
 40
0.0
 40
0.0
 40
0.0515626765
 40
0.1071310284
 40
0.1664101582
 40
0.2289670361
 40
0.3616073634
 40
0.4999958298
 40
0.6383847857
 40
0.7710261102
 40
0.8335837429
 40
0.892864424
 40
0.9484320436
 40
1.0
 40
1.0
 40
1.0
 40
1.0
 10
463.4264619539
 20
209.2882599957
 30
0.0
 10
461.9397595662
 20
208.2516175616
 30
0.0
 10
458.7184687898
 20
206.2843251676
 30
0.0
 10
453.4416808754
 20
203.742933288
 30
0.0
 10
447.6041856801
 20
201.529651493
 30
0.0
 10
439.0143196851
 20
199.0093751395
 30
0.0
 10
427.4409437943
 20
196.9091931237
 30
0.0
 10
413.0422686722
 20
196.0689052304
 30
0.0
 10
398.6435409923
 20
196.9089148949
 30
0.0
 10
387.0700507099
 20
199.0089141814
 30
0.0
 10
378.4800309901
 20
201.5290788032
 30
0.0
 10
372.6424391976
 20
203.7422569996
 30
0.0
 10
367.3653618113
 20
206.2835341234
 30
0.0
 10
364.1438740317
 20
208.2508258931
 30
0.0
 10
362.6570276274
 20
209.287586264
 30
0.0
  0
SPLINE
  5
5BF
100
AcDbEntity
  8
7_ALL_FEATURES
100
AcDbSpline
 62
7
  6
CONTINUOUS
 70
0
 71
3
 72
11
 73
7
 74
0
 42
0.0000001
 43
0.0000001
 44
0.0000000001
 40
0.0
 40
0.0
 40
0.0
 40
0.0
 40
0.2253394952
 40
0.461672317
 40
0.7179584043
 40
1.0
 40
1.0
 40
1.0
 40
1.0
 10
363.0412622603
 20
167.7703143498
 30
0.0
 10
363.0412597431
 20
166.6732792366
 30
0.0
 10
363.344625975
 20
164.4158596223
 30
0.0
 10
364.6757859935
 20
161.1501905472
 30
0.0
 10
366.8368895521
 20
158.0294528065
 30
0.0
 10
368.7019848963
 20
156.1692101266
 30
0.0
 10
369.7399370875
 20
155.2703171611
 30
0.0
  0
SPLINE
  5
5C0
100
AcDbEntity
  8
7_ALL_FEATURES
100
AcDbSpline
 62
7
  6
CONTINUOUS
 70
0
 71
3
 72
11
 73
7
 74
0
 42
0.0000001
 43
0.0000001
 44
0.0000000001
 40
0.0
 40
0.0
 40
0.0
 40
0.0
 40
0.2260620489
 40
0.4651434536
 40
0.7221227251
 40
1.0
 40
1.0
 40
1.0
 40
1.0
 10
363.2924247602
 20
170.8967133649
 30
0.0
 10
363.4723603522
 20
170.0028651226
 30
0.0
 10
364.0380629237
 20
168.1987368437
 30
0.0
 10
365.4242258774
 20
165.6208203749
 30
0.0
 10
367.3411862867
 20
163.1420908556
 30
0.0
 10
368.8927173262
 20
161.6331961216
 30
0.0
 10
369.7399370875
 20
160.8994822857
 30
0.0
  0
SPLINE
  5
5C1
100
AcDbEntity
  8
7_ALL_FEATURES
100
AcDbSpline
 62
7
  6
CONTINUOUS
 70
0
 71
3
 72
11
 73
7
 74
0
 42
0.0000001
 43
0.0000001
 44
0.0000000001
 40
0.0
 40
0.0
 40
0.0
 40
0.0
 40
0.2260620489
 40
0.4651434536
 40
0.7221227251
 40
1.0
 40
1.0
 40
1.0
 40
1.0
 10
363.2924247602
 20
176.5258784895
 30
0.0
 10
363.4723603522
 20
175.6320302472
 30
0.0
 10
364.0380629237
 20
173.8279019683
 30
0.0
 10
365.4242258774
 20
171.2499854995
 30
0.0
 10
367.3411862867
 20
168.7712559802
 30
0.0
 10
368.8927173262
 20
167.2623612462
 30
0.0
 10
369.7399370875
 20
166.5286474102
 30
0.0
  0
SPLINE
  5
5C2
100
AcDbEntity
  8
7_ALL_FEATURES
100
AcDbSpline
 62
7
  6
CONTINUOUS
 70
0
 71
3
 72
11
 73
7
 74
0
 42
0.0000001
 43
0.0000001
 44
0.0000000001
 40
0.0
 40
0.0
 40
0.0
 40
0.0
 40
0.2260620489
 40
0.4651434536
 40
0.7221227251
 40
1.0
 40
1.0
 40
1.0
 40
1.0
 10
363.2924247602
 20
182.1550436141
 30
0.0
 10
363.4723603522
 20
181.2611953718
 30
0.0
 10
364.0380629237
 20
179.4570670929
 30
0.0
 10
365.4242258774
 20
176.8791506241
 30
0.0
 10
367.3411862867
 20
174.4004211048
 30
0.0
 10
368.8927173262
 20
172.8915263708
 30
0.0
 10
369.7399370875
 20
172.1578125348
 30
0.0
  0
SPLINE
  5
5C3
100
AcDbEntity
  8
7_ALL_FEATURES
100
AcDbSpline
 62
7
  6
CONTINUOUS
 70
0
 71
3
 72
11
 73
7
 74
0
 42
0.0000001
 43
0.0000001
 44
0.0000000001
 40
0.0
 40
0.0
 40
0.0
 40
0.0
 40
0.2260620489
 40
0.4651434536
 40
0.7221227251
 40
1.0
 40
1.0
 40
1.0
 40
1.0
 10
363.2924247602
 20
187.7842087387
 30
0.0
 10
363.4723603522
 20
186.8903604964
 30
0.0
 10
364.0380629237
 20
185.0862322175
 30
0.0
 10
365.4242258774
 20
182.5083157487
 30
0.0
 10
367.3411862867
 20
180.0295862294
 30
0.0
 10
368.8927173262
 20
178.5206914954
 30
0.0
 10
369.7399370875
 20
177.7869776594
 30
0.0
  0
SPLINE
  5
5C4
100
AcDbEntity
  8
7_ALL_FEATURES
100
AcDbSpline
 62
7
  6
CONTINUOUS
 70
0
 71
3
 72
19
 73
15
 74
0
 42
0.0000001
 43
0.0000001
 44
0.0000000001
 40
0.0
 40
0.0
 40
0.0
 40
0.0
 40
0.0520221131
 40
0.1078983258
 40
0.1673415518
 40
0.2299211761
 40
0.3622611629
 40
0.5000708488
 40
0.6378706271
 40
0.7701823424
 40
0.832741144
 40
0.8921605
 40
0.9480139648
 40
1.0
 40
1.0
 40
1.0
 40
1.0
 10
373.0363482341
 20
149.3095544866
 30
0.0
 10
374.2416967996
 20
148.5056072323
 30
0.0
 10
376.839061537
 20
146.9815698722
 30
0.0
 10
381.0695231497
 20
145.0127819907
 30
0.0
 10
385.7245353971
 20
143.3004182023
 30
0.0
 10
392.5417870945
 20
141.3546846108
 30
0.0
 10
401.693723162
 20
139.7337908284
 30
0.0
 10
413.061366499
 20
139.0869837059
 30
0.0
 10
424.4279598218
 20
139.7383327902
 30
0.0
 10
433.5776021529
 20
141.3629127444
 30
0.0
 10
440.3919067274
 20
143.3115711098
 30
0.0
 10
445.0442707056
 20
145.0257059238
 30
0.0
 10
449.2713951037
 20
146.9962487365
 30
0.0
 10
451.8662179544
 20
148.521371742
 30
0.0
 10
453.0701674349
 20
149.3256051516
 30
0.0
  0
SPLINE
  5
5C5
100
AcDbEntity
  8
7_ALL_FEATURES
100
AcDbSpline
 62
7
  6
CONTINUOUS
 70
0
 71
3
 72
10
 73
6
 74
0
 42
0.0000001
 43
0.0000001
 44
0.0000000001
 40
0.0
 40
0.0
 40
0.0
 40
0.0
 40
0.2505429377
 40
0.4965213394
 40
1.0
 40
1.0
 40
1.0
 40
1.0
 10
102.175467655
 20
163.3356760145
 30
0.0
 10
102.2167677255
 20
163.2641421941
 30
0.0
 10
102.26488231
 20
163.1001089109
 30
0.0
 10
102.2170348444
 20
162.7684091099
 30
0.0
 10
102.1073909815
 20
162.5446649351
 30
0.0
 10
102.0459197795
 20
162.3904777503
 30
0.0
  0
SPLINE
  5
5C6
100
AcDbEntity
  8
7_ALL_FEATURES
100
AcDbSpline
 62
7
  6
CONTINUOUS
 70
0
 71
3
 72
9
 73
5
 74
0
 42
0.0000001
 43
0.0000001
 44
0.0000000001
 40
0.0
 40
0.0
 40
0.0
 40
0.0
 40
0.5012533447
 40
1.0
 40
1.0
 40
1.0
 40
1.0
 10
101.4137448547
 20
163.5110597523
 30
0.0
 10
101.537974055
 20
163.5827835146
 30
0.0
 10
101.848734792
 20
163.6715294692
 30
0.0
 10
102.1041025721
 20
163.459283964
 30
0.0
 10
102.175467655
 20
163.3356760145
 30
0.0
  0
SPLINE
  5
5C7
100
AcDbEntity
  8
7_ALL_FEATURES
100
AcDbSpline
 62
7
  6
CONTINUOUS
 70
0
 71
3
 72
20
 73
16
 74
0
 42
0.0000001
 43
0.0000001
 44
0.0000000001
 40
0.0
 40
0.0
 40
0.0
 40
0.0
 40
0.1135375114
 40
0.2256844723
 40
0.2811578863
 40
0.3367106574
 40
0.3932190784
 40
0.4520058265
 40
0.4895000008
 40
0.5256835703
 40
0.5950772204
 40
0.6621623141
 40
0.7283850651
 40
0.8614355268
 40
1.0
 40
1.0
 40
1.0
 40
1.0
 10
101.7597430045
 20
162.405322405
 30
0.0
 10
101.7059895857
 20
162.4267834724
 30
0.0
 10
101.5989490447
 20
162.4688777771
 30
0.0
 10
101.4696011756
 20
162.5316574284
 30
0.0
 10
101.3743771138
 20
162.5942532233
 30
0.0
 10
101.3084718899
 20
162.648908054
 30
0.0
 10
101.249193405
 20
162.7131042443
 30
0.0
 10
101.2051408397
 20
162.7777186666
 30
0.0
 10
101.1742465142
 20
162.8378895674
 30
0.0
 10
101.1478751009
 20
162.906011288
 30
0.0
 10
101.1291917554
 20
162.9927630592
 30
0.0
 10
101.1294320546
 20
163.0968694566
 30
0.0
 10
101.1578079932
 20
163.2305156107
 30
0.0
 10
101.2435593266
 20
163.3849326671
 30
0.0
 10
101.3525709725
 20
163.475740995
 30
0.0
 10
101.4137448547
 20
163.5110597523
 30
0.0
  0
SPLINE
  5
5C8
100
AcDbEntity
  8
7_ALL_FEATURES
100
AcDbSpline
 62
7
  6
CONTINUOUS
 70
0
 71
3
 72
10
 73
6
 74
0
 42
0.0000001
 43
0.0000001
 44
0.0000000001
 40
0.0
 40
0.0
 40
0.0
 40
0.0
 40
0.2399315897
 40
0.6257374393
 40
1.0
 40
1.0
 40
1.0
 40
1.0
 10
101.9897231291
 20
160.1742725839
 30
0.0
 10
101.9332891628
 20
160.2720190809
 30
0.0
 10
101.8683170819
 20
160.5751055886
 30
0.0
 10
102.0097801998
 20
161.0368781129
 30
0.0
 10
102.168866725
 20
161.3550274615
 30
0.0
 10
102.2440695834
 20
161.5142175557
 30
0.0
  0
SPLINE
  5
5C9
100
AcDbEntity
  8
7_ALL_FEATURES
100
AcDbSpline
 62
7
  6
CONTINUOUS
 70
0
 71
3
 72
9
 73
5
 74
0
 42
0.0000001
 43
0.0000001
 44
0.0000000001
 40
0.0
 40
0.0
 40
0.0
 40
0.0
 40
0.5005139184
 40
1.0
 40
1.0
 40
1.0
 40
1.0
 10
103.2292969467
 20
159.8466171667
 30
0.0
 10
103.0306499768
 20
159.7319282852
 30
0.0
 10
102.524261832
 20
159.6872179641
 30
0.0
 10
102.1041764898
 20
159.9760335481
 30
0.0
 10
101.9897231291
 20
160.1742725839
 30
0.0
  0
SPLINE
  5
5CA
100
AcDbEntity
  8
7_ALL_FEATURES
100
AcDbSpline
 62
7
  6
CONTINUOUS
 70
0
 71
3
 72
9
 73
5
 74
0
 42
0.0000001
 43
0.0000001
 44
0.0000000001
 40
0.0
 40
0.0
 40
0.0
 40
0.0
 40
0.7509172168
 40
1.0
 40
1.0
 40
1.0
 40
1.0
 10
103.877718465
 20
160.9718368123
 30
0.0
 10
103.7920405179
 20
160.6515681348
 30
0.0
 10
103.6656355585
 20
160.1999277284
 30
0.0
 10
103.3245340746
 20
159.9016023482
 30
0.0
 10
103.2292969467
 20
159.8466171667
 30
0.0
  0
SPLINE
  5
5CB
100
AcDbEntity
  8
7_ALL_FEATURES
100
AcDbSpline
 62
7
  6
CONTINUOUS
 70
0
 71
3
 72
27
 73
23
 74
0
 42
0.0000001
 43
0.0000001
 44
0.0000000001
 40
0.0
 40
0.0
 40
0.0
 40
0.0
 40
0.0826592268
 40
0.1603008642
 40
0.1981468307
 40
0.2364637193
 40
0.2766202277
 40
0.2979198529
 40
0.3203149066
 40
0.3509540815
 40
0.3806626124
 40
0.4379687079
 40
0.493649494
 40
0.548741396
 40
0.6040186376
 40
0.6600763819
 40
0.7174352054
 40
0.7766463716
 40
0.8188766607
 40
0.8605980543
 40
0.9438647411
 40
1.0
 40
1.0
 40
1.0
 40
1.0
 10
101.5907377479
 20
161.4371310659
 30
0.0
 10
101.5334530258
 20
161.3094211497
 30
0.0
 10
101.4265189762
 20
161.0598123668
 30
0.0
 10
101.3385420762
 20
160.7331753947
 30
0.0
 10
101.3224997078
 20
160.472263212
 30
0.0
 10
101.3420882208
 20
160.2753354287
 30
0.0
 10
101.3882696253
 20
160.1118454355
 30
0.0
 10
101.4439690366
 20
159.9810904989
 30
0.0
 10
101.5028131537
 20
159.8696743988
 30
0.0
 10
101.5790050863
 20
159.7517796057
 30
0.0
 10
101.7038490306
 20
159.5961585111
 30
0.0
 10
101.8837553798
 20
159.4319942516
 30
0.0
 10
102.1309771496
 20
159.287005072
 30
0.0
 10
102.3990944891
 20
159.1962047544
 30
0.0
 10
102.6803080305
 20
159.1596749119
 30
0.0
 10
102.9671296349
 20
159.17747889
 30
0.0
 10
103.2519599459
 20
159.2501093704
 30
0.0
 10
103.497598276
 20
159.3634136904
 30
0.0
 10
103.6992308794
 20
159.4993336795
 30
0.0
 10
103.9104014621
 20
159.6891472981
 30
0.0
 10
104.0974001609
 20
159.936142328
 30
0.0
 10
104.2049979249
 20
160.1471048008
 30
0.0
 10
104.2428648002
 20
160.23444725
 30
0.0
  0
SPLINE
  5
5CC
100
AcDbEntity
  8
7_ALL_FEATURES
100
AcDbSpline
 62
7
  6
CONTINUOUS
 70
0
 71
3
 72
8
 73
4
 74
0
 42
0.0000001
 43
0.0000001
 44
0.0000000001
 40
0.0
 40
0.0
 40
0.0
 40
0.0
 40
1.0
 40
1.0
 40
1.0
 40
1.0
 10
108.4683042005
 20
160.1907111817
 30
0.0
 10
108.4148053228
 20
160.1598235903
 30
0.0
 10
108.3711633101
 20
160.0942705656
 30
0.0
 10
108.371793389
 20
160.032498596
 30
0.0
  0
SPLINE
  5
5CD
100
AcDbEntity
  8
7_ALL_FEATURES
100
AcDbSpline
 62
7
  6
CONTINUOUS
 70
0
 71
3
 72
9
 73
5
 74
0
 42
0.0000001
 43
0.0000001
 44
0.0000000001
 40
0.0
 40
0.0
 40
0.0
 40
0.0
 40
0.2500059247
 40
1.0
 40
1.0
 40
1.0
 40
1.0
 10
100.7414739623
 20
162.4400211898
 30
0.0
 10
100.7923325553
 20
162.3519315226
 30
0.0
 10
101.0531395192
 20
162.0306884734
 30
0.0
 10
101.4519162641
 20
161.8669283356
 30
0.0
 10
101.744753434
 20
161.7811496617
 30
0.0
  0
SPLINE
  5
5CE
100
AcDbEntity
  8
7_ALL_FEATURES
100
AcDbSpline
 62
7
  6
CONTINUOUS
 70
0
 71
3
 72
9
 73
5
 74
0
 42
0.0000001
 43
0.0000001
 44
0.0000000001
 40
0.0
 40
0.0
 40
0.0
 40
0.0
 40
0.5053411722
 40
1.0
 40
1.0
 40
1.0
 40
1.0
 10
108.7514554967
 20
160.0835190653
 30
0.0
 10
108.7229673835
 20
160.1328619247
 30
0.0
 10
108.6517977028
 20
160.2400549406
 30
0.0
 10
108.5166040074
 20
160.2185970882
 30
0.0
 10
108.4683042005
 20
160.1907111817
 30
0.0
  0
SPLINE
  5
5CF
100
AcDbEntity
  8
7_ALL_FEATURES
100
AcDbSpline
 62
7
  6
CONTINUOUS
 70
0
 71
3
 72
17
 73
13
 74
0
 42
0.0000001
 43
0.0000001
 44
0.0000000001
 40
0.0
 40
0.0
 40
0.0
 40
0.0
 40
0.1281677449
 40
0.2461327339
 40
0.3660286349
 40
0.4284999773
 40
0.4927031576
 40
0.5607602658
 40
0.6251843142
 40
0.7460608357
 40
0.8660071045
 40
1.0
 40
1.0
 40
1.0
 40
1.0
 10
102.6740591954
 20
163.615681195
 30
0.0
 10
102.6005992489
 20
163.7429175545
 30
0.0
 10
102.4073364031
 20
163.9640935432
 30
0.0
 10
102.0050895934
 20
164.1245976867
 30
0.0
 10
101.6524600617
 20
164.1133408795
 30
0.0
 10
101.3802387493
 20
164.0339164491
 30
0.0
 10
101.1781222334
 20
163.9369511092
 30
0.0
 10
100.9911964487
 20
163.8090360207
 30
0.0
 10
100.7809924079
 20
163.6072372325
 30
0.0
 10
100.5980379547
 20
163.2967118288
 30
0.0
 10
100.558829376
 20
162.8545503534
 30
0.0
 10
100.6646753033
 20
162.573040369
 30
0.0
 10
100.7414739623
 20
162.4400211898
 30
0.0
  0
SPLINE
  5
5D0
100
AcDbEntity
  8
7_ALL_FEATURES
100
AcDbSpline
 62
7
  6
CONTINUOUS
 70
0
 71
3
 72
10
 73
6
 74
0
 42
0.0000001
 43
0.0000001
 44
0.0000000001
 40
0.0
 40
0.0
 40
0.0
 40
0.0
 40
0.5043253864
 40
0.750796851
 40
1.0
 40
1.0
 40
1.0
 40
1.0
 10
102.5139821364
 20
162.1125794386
 30
0.0
 10
102.6205079992
 20
162.35346286
 30
0.0
 10
102.7767190827
 20
162.7191177673
 30
0.0
 10
102.8196411663
 20
163.2471287784
 30
0.0
 10
102.7391330646
 20
163.5029699472
 30
0.0
 10
102.6740591954
 20
163.615681195
 30
0.0
  0
SPLINE
  5
5D1
100
AcDbEntity
  8
7_ALL_FEATURES
100
AcDbSpline
 62
7
  6
CONTINUOUS
 70
0
 71
3
 72
9
 73
5
 74
0
 42
0.0000001
 43
0.0000001
 44
0.0000000001
 40
0.0
 40
0.0
 40
0.0
 40
0.0
 40
0.4882113973
 40
1.0
 40
1.0
 40
1.0
 40
1.0
 10
108.4874494844
 20
160.0950257659
 30
0.0
 10
108.5186503821
 20
160.1130396126
 30
0.0
 10
108.6089793636
 20
160.1308196571
 30
0.0
 10
108.6486671439
 20
160.0536280673
 30
0.0
 10
108.6675509338
 20
160.0209203838
 30
0.0
  0
SPLINE
  5
5D2
100
AcDbEntity
  8
7_ALL_FEATURES
100
AcDbSpline
 62
7
  6
CONTINUOUS
 70
0
 71
3
 72
10
 73
6
 74
0
 42
0.0000001
 43
0.0000001
 44
0.0000000001
 40
0.0
 40
0.0
 40
0.0
 40
0.0
 40
0.502118989
 40
0.7251106965
 40
1.0
 40
1.0
 40
1.0
 40
1.0
 10
108.4796071947
 20
159.8413460908
 30
0.0
 10
108.4553209001
 20
159.883411187
 30
0.0
 10
108.4147661014
 20
159.9451063706
 30
0.0
 10
108.42366196
 20
160.0480383941
 30
0.0
 10
108.4644205903
 20
160.0817300278
 30
0.0
 10
108.4874494844
 20
160.0950257659
 30
0.0
  0
SPLINE
  5
5D3
100
AcDbEntity
  8
7_ALL_FEATURES
100
AcDbSpline
 62
7
  6
CONTINUOUS
 70
0
 71
3
 72
9
 73
5
 74
0
 42
0.0000001
 43
0.0000001
 44
0.0000000001
 40
0.0
 40
0.0
 40
0.0
 40
0.0
 40
0.4927604322
 40
1.0
 40
1.0
 40
1.0
 40
1.0
 10
107.803975079
 20
158.8080047317
 30
0.0
 10
107.8700027289
 20
158.8461258131
 30
0.0
 10
107.992033546
 20
158.9894072635
 30
0.0
 10
107.9113181424
 20
159.1482702893
 30
0.0
 10
107.8720769217
 20
159.2162380773
 30
0.0
  0
SPLINE
  5
5D4
100
AcDbEntity
  8
7_ALL_FEATURES
100
AcDbSpline
 62
7
  6
CONTINUOUS
 70
0
 71
3
 72
9
 73
5
 74
0
 42
0.0000001
 43
0.0000001
 44
0.0000000001
 40
0.0
 40
0.0
 40
0.0
 40
0.0
 40
0.4966166013
 40
1.0
 40
1.0
 40
1.0
 40
1.0
 10
107.4561446482
 20
158.8891794199
 30
0.0
 10
107.4893584783
 20
158.8336344355
 30
0.0
 10
107.6046566941
 20
158.7382266545
 30
0.0
 10
107.7471640626
 20
158.775204876
 30
0.0
 10
107.803975079
 20
158.8080047317
 30
0.0
  0
SPLINE
  5
5D5
100
AcDbEntity
  8
7_ALL_FEATURES
100
AcDbSpline
 62
7
  6
CONTINUOUS
 70
0
 71
3
 72
9
 73
5
 74
0
 42
0.0000001
 43
0.0000001
 44
0.0000000001
 40
0.0
 40
0.0
 40
0.0
 40
0.0
 40
0.5039484269
 40
1.0
 40
1.0
 40
1.0
 40
1.0
 10
107.7620190905
 20
158.8902372538
 30
0.0
 10
107.726528106
 20
158.8697465243
 30
0.0
 10
107.6376458754
 20
158.8448048364
 30
0.0
 10
107.5662425623
 20
158.9061646908
 30
0.0
 10
107.5460729218
 20
158.9410995329
 30
0.0
  0
SPLINE
  5
5D6
100
AcDbEntity
  8
7_ALL_FEATURES
100
AcDbSpline
 62
7
  6
CONTINUOUS
 70
0
 71
3
 72
9
 73
5
 74
0
 42
0.0000001
 43
0.0000001
 44
0.0000000001
 40
0.0
 40
0.0
 40
0.0
 40
0.0
 40
0.510464774
 40
1.0
 40
1.0
 40
1.0
 40
1.0
 10
107.7966151731
 20
159.1392612079
 30
0.0
 10
107.8205730624
 20
159.0977649264
 30
0.0
 10
107.872554069
 20
159.0038833632
 30
0.0
 10
107.8018139844
 20
158.9132128465
 30
0.0
 10
107.7620190905
 20
158.8902372538
 30
0.0
  0
SPLINE
  5
5D7
100
AcDbEntity
  8
7_ALL_FEATURES
100
AcDbSpline
 62
7
  6
CONTINUOUS
 70
0
 71
3
 72
8
 73
4
 74
0
 42
0.0000001
 43
0.0000001
 44
0.0000000001
 40
0.0
 40
0.0
 40
0.0
 40
0.0
 40
1.0
 40
1.0
 40
1.0
 40
1.0
 10
107.635869711
 20
159.0464547722
 30
0.0
 10
107.6965551446
 20
159.0814915236
 30
0.0
 10
107.7380889513
 20
159.1572537421
 30
0.0
 10
107.743335641
 20
159.2271305483
 30
0.0
  0
SPLINE
  5
5D8
100
AcDbEntity
  8
7_ALL_FEATURES
100
AcDbSpline
 62
7
  6
CONTINUOUS
 70
0
 71
3
 72
18
 73
14
 74
0
 42
0.0000001
 43
0.0000001
 44
0.0000000001
 40
0.0
 40
0.0
 40
0.0
 40
0.0
 40
0.1350100379
 40
0.2013423346
 40
0.2355719675
 40
0.2711190886
 40
0.3382237927
 40
0.4013776696
 40
0.5230950765
 40
0.6472872874
 40
0.7768753356
 40
0.9113154926
 40
1.0
 40
1.0
 40
1.0
 40
1.0
 10
107.5616458949
 20
159.5418264198
 30
0.0
 10
107.5283466225
 20
159.5590970966
 30
0.0
 10
107.4719754391
 20
159.5755004458
 30
0.0
 10
107.4062689136
 20
159.5672908115
 30
0.0
 10
107.3703430578
 20
159.5551256702
 30
0.0
 10
107.3362332131
 20
159.5381092429
 30
0.0
 10
107.2986782124
 20
159.5107049734
 30
0.0
 10
107.2524091369
 20
159.457445537
 30
0.0
 10
107.2199460583
 20
159.3748640058
 30
0.0
 10
107.2224213112
 20
159.2682678715
 30
0.0
 10
107.2617863158
 20
159.1657898727
 30
0.0
 10
107.3239805118
 20
159.0881893171
 30
0.0
 10
107.3747076794
 20
159.051038807
 30
0.0
 10
107.3966839409
 20
159.039594447
 30
0.0
  0
SPLINE
  5
5D9
100
AcDbEntity
  8
7_ALL_FEATURES
100
AcDbSpline
 62
7
  6
CONTINUOUS
 70
0
 71
3
 72
18
 73
14
 74
0
 42
0.0000001
 43
0.0000001
 44
0.0000000001
 40
0.0
 40
0.0
 40
0.0
 40
0.0
 40
0.0668378092
 40
0.1288082976
 40
0.2469961961
 40
0.3681356933
 40
0.4951635073
 40
0.6211790434
 40
0.7417123965
 40
0.8594546134
 40
0.9207534718
 40
0.9863171374
 40
1.0
 40
1.0
 40
1.0
 40
1.0
 10
107.6033466675
 20
159.1344165348
 30
0.0
 10
107.5920257079
 20
159.1279309802
 30
0.0
 10
107.5689645906
 20
159.1175747906
 30
0.0
 10
107.5212834016
 20
159.108617907
 30
0.0
 10
107.4613779878
 20
159.1188712451
 30
0.0
 10
107.4004686947
 20
159.1588083595
 30
0.0
 10
107.3544700344
 20
159.216711119
 30
0.0
 10
107.3276040115
 20
159.2855617201
 30
0.0
 10
107.3246429471
 20
159.3579499037
 30
0.0
 10
107.3459925974
 20
159.4143770671
 30
0.0
 10
107.3773018434
 20
159.4508081012
 30
0.0
 10
107.3996604499
 20
159.4669597196
 30
0.0
 10
107.4131805659
 20
159.4744764974
 30
0.0
 10
107.4155404759
 20
159.4757252117
 30
0.0
  0
SPLINE
  5
5DA
100
AcDbEntity
  8
7_ALL_FEATURES
100
AcDbSpline
 62
7
  6
CONTINUOUS
 70
0
 71
3
 72
16
 73
12
 74
0
 42
0.0000001
 43
0.0000001
 44
0.0000000001
 40
0.0
 40
0.0
 40
0.0
 40
0.0
 40
0.1252425561
 40
0.2467589013
 40
0.3691331737
 40
0.4966206149
 40
0.6212710027
 40
0.7409953576
 40
0.8611260843
 40
0.9861350283
 40
1.0
 40
1.0
 40
1.0
 40
1.0
 10
106.3014931098
 20
159.289930549
 30
0.0
 10
106.2932521486
 20
159.2851765466
 30
0.0
 10
106.2789532415
 20
159.2724506852
 30
0.0
 10
106.266609133
 20
159.2467050943
 30
0.0
 10
106.2648023804
 20
159.2180443832
 30
0.0
 10
106.2741197072
 20
159.1905764918
 30
0.0
 10
106.2931379632
 20
159.1689026021
 30
0.0
 10
106.3186434456
 20
159.1568026766
 30
0.0
 10
106.3468099067
 20
159.1551968712
 30
0.0
 10
106.365758994
 20
159.1617317625
 30
0.0
 10
106.3747802402
 20
159.1672067719
 30
0.0
 10
106.3756687561
 20
159.1677724486
 30
0.0
  0
SPLINE
  5
5DB
100
AcDbEntity
  8
7_ALL_FEATURES
100
AcDbSpline
 62
7
  6
CONTINUOUS
 70
0
 71
3
 72
21
 73
17
 74
0
 42
0.0000001
 43
0.0000001
 44
0.0000000001
 40
0.0
 40
0.0
 40
0.0
 40
0.0
 40
0.0837356597
 40
0.162291479
 40
0.2391436514
 40
0.279844181
 40
0.3241372443
 40
0.3851325473
 40
0.4431056362
 40
0.5545534451
 40
0.6666572162
 40
0.7247034135
 40
0.784641532
 40
0.8693171981
 40
0.9535471067
 40
1.0
 40
1.0
 40
1.0
 40
1.0
 10
104.4398873177
 20
157.763544076
 30
0.0
 10
104.4296965216
 20
157.7408514946
 30
0.0
 10
104.410709776
 20
157.6964890096
 30
0.0
 10
104.3919896459
 20
157.6274685858
 30
0.0
 10
104.3926616809
 20
157.5681063108
 30
0.0
 10
104.4059016202
 20
157.5216310023
 30
0.0
 10
104.4248395579
 20
157.4824212609
 30
0.0
 10
104.4533335102
 20
157.4427291314
 30
0.0
 10
104.504169462
 20
157.3962476999
 30
0.0
 10
104.5825472976
 20
157.3604837868
 30
0.0
 10
104.6683691637
 20
157.358192202
 30
0.0
 10
104.7348758598
 20
157.3752454828
 30
0.0
 10
104.7898842967
 20
157.4005396216
 30
0.0
 10
104.8441653408
 20
157.4429611346
 30
0.0
 10
104.8830582889
 20
157.4943940702
 30
0.0
 10
104.9012577552
 20
157.5289700884
 30
0.0
 10
104.9070668055
 20
157.5415815369
 30
0.0
  0
SPLINE
  5
5DC
100
AcDbEntity
  8
7_ALL_FEATURES
100
AcDbSpline
 62
7
  6
CONTINUOUS
 70
0
 71
3
 72
8
 73
4
 74
0
 42
0.0000001
 43
0.0000001
 44
0.0000000001
 40
0.0
 40
0.0
 40
0.0
 40
0.0
 40
1.0
 40
1.0
 40
1.0
 40
1.0
 10
104.2892495278
 20
157.9415803571
 30
0.0
 10
104.3247365842
 20
157.8801149724
 30
0.0
 10
104.3990920798
 20
157.8447287726
 30
0.0
 10
104.4671469359
 20
157.8245827743
 30
0.0
  0
SPLINE
  5
5DD
100
AcDbEntity
  8
7_ALL_FEATURES
100
AcDbSpline
 62
7
  6
CONTINUOUS
 70
0
 71
3
 72
15
 73
11
 74
0
 42
0.0000001
 43
0.0000001
 44
0.0000000001
 40
0.0
 40
0.0
 40
0.0
 40
0.0
 40
0.2428967155
 40
0.3642248532
 40
0.4274217221
 40
0.4923642673
 40
0.5612500752
 40
0.6264272867
 40
0.7486967744
 40
1.0
 40
1.0
 40
1.0
 40
1.0
 10
104.6323063963
 20
158.1504031658
 30
0.0
 10
104.6078616287
 20
158.1927427452
 30
0.0
 10
104.5386572993
 20
158.2428757073
 30
0.0
 10
104.450831133
 20
158.2388450806
 30
0.0
 10
104.4024281941
 20
158.2249032309
 30
0.0
 10
104.3665269839
 20
158.2076544247
 30
0.0
 10
104.3333011726
 20
158.1849422212
 30
0.0
 10
104.2960627235
 20
158.1490145474
 30
0.0
 10
104.2491527389
 20
158.071107765
 30
0.0
 10
104.2639587414
 20
157.9853852841
 30
0.0
 10
104.2892495278
 20
157.9415803571
 30
0.0
  0
SPLINE
  5
5DE
100
AcDbEntity
  8
7_ALL_FEATURES
100
AcDbSpline
 62
7
  6
CONTINUOUS
 70
0
 71
3
 72
21
 73
17
 74
0
 42
0.0000001
 43
0.0000001
 44
0.0000000001
 40
0.0
 40
0.0
 40
0.0
 40
0.0
 40
0.132904548
 40
0.2483963039
 40
0.3045304646
 40
0.3631218191
 40
0.4273140346
 40
0.4624740996
 40
0.500089529
 40
0.5376505147
 40
0.572766758
 40
0.6369000875
 40
0.6954640554
 40
0.7515917782
 40
0.8670928402
 40
1.0
 40
1.0
 40
1.0
 40
1.0
 10
101.4339979628
 20
155.752327165
 30
0.0
 10
101.4509840696
 20
155.7229063649
 30
0.0
 10
101.4885733674
 20
155.6706222826
 30
0.0
 10
101.5553852119
 20
155.6258796615
 30
0.0
 10
101.6134207947
 20
155.6129655458
 30
0.0
 10
101.6595719385
 20
155.6142729381
 30
0.0
 10
101.6989215124
 20
155.6246368269
 30
0.0
 10
101.7312235809
 20
155.6382231835
 30
0.0
 10
101.7561966718
 20
155.6514014834
 30
0.0
 10
101.7800863074
 20
155.6664340336
 30
0.0
 10
101.8079678007
 20
155.6875960306
 30
0.0
 10
101.8365859889
 20
155.7164766767
 30
0.0
 10
101.8607692035
 20
155.7557777752
 30
0.0
 10
101.8785934192
 20
155.8124901392
 30
0.0
 10
101.8732695755
 20
155.8927216051
 30
0.0
 10
101.8467962148
 20
155.9514278426
 30
0.0
 10
101.8298097742
 20
155.9808492208
 30
0.0
  0
SPLINE
  5
5DF
100
AcDbEntity
  8
7_ALL_FEATURES
100
AcDbSpline
 62
7
  6
CONTINUOUS
 70
0
 71
3
 72
21
 73
17
 74
0
 42
0.0000001
 43
0.0000001
 44
0.0000000001
 40
0.0
 40
0.0
 40
0.0
 40
0.0
 40
0.1327833847
 40
0.2504356012
 40
0.3056983919
 40
0.36239354
 40
0.425333033
 40
0.4608299577
 40
0.4997862723
 40
0.5388342666
 40
0.5744105639
 40
0.6374720704
 40
0.6942427883
 40
0.7495444137
 40
0.8672159598
 40
1.0
 40
1.0
 40
1.0
 40
1.0
 10
101.7338375533
 20
155.9390297384
 30
0.0
 10
101.7442441761
 20
155.921004939
 30
0.0
 10
101.7620583604
 20
155.8859171969
 30
0.0
 10
101.7728295908
 20
155.8379736151
 30
0.0
 10
101.7676623982
 20
155.8019082909
 30
0.0
 10
101.7560044383
 20
155.7766586262
 30
0.0
 10
101.7397206436
 20
155.7581868091
 30
0.0
 10
101.7228702773
 20
155.7447308043
 30
0.0
 10
101.7078448537
 20
155.7351483578
 30
0.0
 10
101.6920226801
 20
155.7269211775
 30
0.0
 10
101.6719045133
 20
155.7190323212
 30
0.0
 10
101.6477269163
 20
155.7141401862
 30
0.0
 10
101.6199913687
 20
155.7166433555
 30
0.0
 10
101.5861408644
 20
155.730177278
 30
0.0
 10
101.5499819816
 20
155.763470693
 30
0.0
 10
101.5285013088
 20
155.7964456179
 30
0.0
 10
101.5180946347
 20
155.8144705062
 30
0.0
  0
SPLINE
  5
5E0
100
AcDbEntity
  8
7_ALL_FEATURES
100
AcDbSpline
 62
7
  6
CONTINUOUS
 70
0
 71
3
 72
17
 73
13
 74
0
 42
0.0000001
 43
0.0000001
 44
0.0000000001
 40
0.0
 40
0.0
 40
0.0
 40
0.0
 40
0.1629103694
 40
0.2935549822
 40
0.4168937173
 40
0.5399047389
 40
0.60400217
 40
0.6712141429
 40
0.7362158184
 40
0.7985885138
 40
0.919283909
 40
1.0
 40
1.0
 40
1.0
 40
1.0
 10
102.6674619322
 20
156.8002567668
 30
0.0
 10
102.6182814842
 20
156.8003500357
 30
0.0
 10
102.529150689
 20
156.7720638221
 30
0.0
 10
102.4314008669
 20
156.6891838667
 30
0.0
 10
102.3777201368
 20
156.5852765373
 30
0.0
 10
102.3709523662
 20
156.4890377887
 30
0.0
 10
102.3886512206
 20
156.4138913997
 30
0.0
 10
102.4133998825
 20
156.3596119712
 30
0.0
 10
102.4478063501
 20
156.311503024
 30
0.0
 10
102.5032629669
 20
156.2604983631
 30
0.0
 10
102.5773729499
 20
156.2255543089
 30
0.0
 10
102.6386087877
 20
156.2185995729
 30
0.0
 10
102.6631254235
 20
156.2189398443
 30
0.0
  0
SPLINE
  5
5E1
100
AcDbEntity
  8
7_ALL_FEATURES
100
AcDbSpline
 62
7
  6
CONTINUOUS
 70
0
 71
3
 72
8
 73
4
 74
0
 42
0.0000001
 43
0.0000001
 44
0.0000000001
 40
0.0
 40
0.0
 40
0.0
 40
0.0
 40
1.0
 40
1.0
 40
1.0
 40
1.0
 10
102.8078622725
 20
156.259286505
 30
0.0
 10
102.8520528833
 20
156.2847999661
 30
0.0
 10
102.8920353369
 20
156.3212238131
 30
0.0
 10
102.9190323499
 20
156.3645240217
 30
0.0
  0
SPLINE
  5
5E2
100
AcDbEntity
  8
7_ALL_FEATURES
100
AcDbSpline
 62
7
  6
CONTINUOUS
 70
0
 71
3
 72
15
 73
11
 74
0
 42
0.0000001
 43
0.0000001
 44
0.0000000001
 40
0.0
 40
0.0
 40
0.0
 40
0.0
 40
0.1802531275
 40
0.2687906927
 40
0.3612765641
 40
0.4461771889
 40
0.5264460684
 40
0.6791612605
 40
0.8331109072
 40
1.0
 40
1.0
 40
1.0
 40
1.0
 10
102.8528296084
 20
156.4791905336
 30
0.0
 10
102.846999599
 20
156.4517533202
 30
0.0
 10
102.8320623177
 20
156.4112841708
 30
0.0
 10
102.7959017229
 20
156.3675951086
 30
0.0
 10
102.7622273659
 20
156.3428777241
 30
0.0
 10
102.7255793105
 20
156.3260333289
 30
0.0
 10
102.6772764649
 20
156.3142059454
 30
0.0
 10
102.6152900344
 20
156.3182990955
 30
0.0
 10
102.5484420441
 20
156.3537708992
 30
0.0
 10
102.5158903653
 20
156.3934031465
 30
0.0
 10
102.5029052898
 20
156.4158939571
 30
0.0
  0
SPLINE
  5
5E3
100
AcDbEntity
  8
7_ALL_FEATURES
100
AcDbSpline
 62
7
  6
CONTINUOUS
 70
0
 71
3
 72
9
 73
5
 74
0
 42
0.0000001
 43
0.0000001
 44
0.0000000001
 40
0.0
 40
0.0
 40
0.0
 40
0.0
 40
0.5023468762
 40
1.0
 40
1.0
 40
1.0
 40
1.0
 10
102.5029052898
 20
156.4158939571
 30
0.0
 10
102.4792783454
 20
156.4568170252
 30
0.0
 10
102.462255141
 20
156.5596603692
 30
0.0
 10
102.5237399686
 20
156.646497055
 30
0.0
 10
102.564280666
 20
156.6699032376
 30
0.0
  0
SPLINE
  5
5E4
100
AcDbEntity
  8
7_ALL_FEATURES
100
AcDbSpline
 62
7
  6
CONTINUOUS
 70
0
 71
3
 72
8
 73
4
 74
0
 42
0.0000001
 43
0.0000001
 44
0.0000000001
 40
0.0
 40
0.0
 40
0.0
 40
0.0
 40
1.0
 40
1.0
 40
1.0
 40
1.0
 10
102.564280666
 20
156.6699032376
 30
0.0
 10
102.613565898
 20
156.6983580796
 30
0.0
 10
102.6805245298
 20
156.7026496999
 30
0.0
 10
102.7344002597
 20
156.6843161826
 30
0.0
  0
SPLINE
  5
5E5
100
AcDbEntity
  8
7_ALL_FEATURES
100
AcDbSpline
 62
7
  6
CONTINUOUS
 70
0
 71
3
 72
21
 73
17
 74
0
 42
0.0000001
 43
0.0000001
 44
0.0000000001
 40
0.0
 40
0.0
 40
0.0
 40
0.0
 40
0.1300654079
 40
0.24745904
 40
0.3043447126
 40
0.3625445693
 40
0.4247851174
 40
0.4583786656
 40
0.4940661327
 40
0.5303225841
 40
0.5645956416
 40
0.6283774869
 40
0.68813088
 40
0.7464207923
 40
0.866310526
 40
1.0
 40
1.0
 40
1.0
 40
1.0
 10
103.820537488
 20
157.1752136254
 30
0.0
 10
103.8015991009
 20
157.208015874
 30
0.0
 10
103.7580830453
 20
157.2667493623
 30
0.0
 10
103.682775669
 20
157.3180378732
 30
0.0
 10
103.6167435318
 20
157.3355135474
 30
0.0
 10
103.5646129539
 20
157.3364973613
 30
0.0
 10
103.5204335978
 20
157.3266055028
 30
0.0
 10
103.4847953008
 20
157.3124374995
 30
0.0
 10
103.4574797345
 20
157.2982455281
 30
0.0
 10
103.4313587572
 20
157.2815932411
 30
0.0
 10
103.4005089304
 20
157.2574725502
 30
0.0
 10
103.3687475638
 20
157.2237152168
 30
0.0
 10
103.3419762764
 20
157.177474643
 30
0.0
 10
103.3219658263
 20
157.1105091401
 30
0.0
 10
103.3266975458
 20
157.017144565
 30
0.0
 10
103.3561723337
 20
156.9481034728
 30
0.0
 10
103.3756384088
 20
156.9143872417
 30
0.0
  0
SPLINE
  5
5E6
100
AcDbEntity
  8
7_ALL_FEATURES
100
AcDbSpline
 62
7
  6
CONTINUOUS
 70
0
 71
3
 72
16
 73
12
 74
0
 42
0.0000001
 43
0.0000001
 44
0.0000000001
 40
0.0
 40
0.0
 40
0.0
 40
0.0
 40
0.1532117584
 40
0.2946326874
 40
0.4342272882
 40
0.5085039738
 40
0.5885790341
 40
0.6413335586
 40
0.6931274681
 40
0.7949137648
 40
1.0
 40
1.0
 40
1.0
 40
1.0
 10
103.3756384088
 20
156.9143872417
 30
0.0
 10
103.394462433
 20
156.8817830754
 30
0.0
 10
103.4404845244
 20
156.8238497958
 30
0.0
 10
103.5347160175
 20
156.7681814833
 30
0.0
 10
103.6246355824
 20
156.7590727347
 30
0.0
 10
103.6954452154
 20
156.7754637774
 30
0.0
 10
103.7419946894
 20
156.7969140936
 30
0.0
 10
103.7798699634
 20
156.8220784433
 30
0.0
 10
103.8181300739
 20
156.8555726959
 30
0.0
 10
103.8725290813
 20
156.925994066
 30
0.0
 10
103.891575562
 20
157.0040104211
 30
0.0
 10
103.8902955619
 20
157.0543890972
 30
0.0
  0
SPLINE
  5
5E7
100
AcDbEntity
  8
7_ALL_FEATURES
100
AcDbSpline
 62
7
  6
CONTINUOUS
 70
0
 71
3
 72
9
 73
5
 74
0
 42
0.0000001
 43
0.0000001
 44
0.0000000001
 40
0.0
 40
0.0
 40
0.0
 40
0.0
 40
0.5030637506
 40
1.0
 40
1.0
 40
1.0
 40
1.0
 10
103.7891598141
 20
157.0537562927
 30
0.0
 10
103.7885464638
 20
157.0200722515
 30
0.0
 10
103.7824367027
 20
156.9500765385
 30
0.0
 10
103.7309047283
 20
156.8986611388
 30
0.0
 10
103.7020840325
 20
156.8820215023
 30
0.0
  0
SPLINE
  5
5E8
100
AcDbEntity
  8
7_ALL_FEATURES
100
AcDbSpline
 62
7
  6
CONTINUOUS
 70
0
 71
3
 72
9
 73
5
 74
0
 42
0.0000001
 43
0.0000001
 44
0.0000000001
 40
0.0
 40
0.0
 40
0.0
 40
0.0
 40
0.4972493191
 40
1.0
 40
1.0
 40
1.0
 40
1.0
 10
103.7020840325
 20
156.8820215023
 30
0.0
 10
103.664481906
 20
156.8603119044
 30
0.0
 10
103.5644032531
 20
156.852088847
 30
0.0
 10
103.4942223475
 20
156.9177249993
 30
0.0
 10
103.4718191636
 20
156.9554777397
 30
0.0
  0
SPLINE
  5
5E9
100
AcDbEntity
  8
7_ALL_FEATURES
100
AcDbSpline
 62
7
  6
CONTINUOUS
 70
0
 71
3
 72
17
 73
13
 74
0
 42
0.0000001
 43
0.0000001
 44
0.0000000001
 40
0.0
 40
0.0
 40
0.0
 40
0.0
 40
0.1280676306
 40
0.2505328491
 40
0.3725330656
 40
0.4358980115
 40
0.5022639314
 40
0.5696811137
 40
0.6324293338
 40
0.7503050664
 40
0.869595042
 40
1.0
 40
1.0
 40
1.0
 40
1.0
 10
103.4374718534
 20
157.0262480116
 30
0.0
 10
103.4308637262
 20
157.043928422
 30
0.0
 10
103.4231909532
 20
157.0808302699
 30
0.0
 10
103.4305372504
 20
157.1363136282
 30
0.0
 10
103.4526425205
 20
157.1772237103
 30
0.0
 10
103.4787310432
 20
157.2038669868
 30
0.0
 10
103.5026944716
 20
157.2205738093
 30
0.0
 10
103.5289985856
 20
157.2330460654
 30
0.0
 10
103.5644397428
 20
157.2426861569
 30
0.0
 10
103.6099234171
 20
157.2414063817
 30
0.0
 10
103.6602626526
 20
157.2183189703
 30
0.0
 10
103.6872564249
 20
157.1923817919
 30
0.0
 10
103.6993468086
 20
157.1774415875
 30
0.0
  0
SPLINE
  5
5EA
100
AcDbEntity
  8
7_ALL_FEATURES
100
AcDbSpline
 62
7
  6
CONTINUOUS
 70
0
 71
3
 72
8
 73
4
 74
0
 42
0.0000001
 43
0.0000001
 44
0.0000000001
 40
0.0
 40
0.0
 40
0.0
 40
0.0
 40
1.0
 40
1.0
 40
1.0
 40
1.0
 10
104.8458667151
 20
157.6808339378
 30
0.0
 10
104.825866913
 20
157.6066962328
 30
0.0
 10
104.7972449705
 20
157.5196923813
 30
0.0
 10
104.7307446431
 20
157.4812983993
 30
0.0
  0
SPLINE
  5
5EB
100
AcDbEntity
  8
7_ALL_FEATURES
100
AcDbSpline
 62
7
  6
CONTINUOUS
 70
0
 71
3
 72
8
 73
4
 74
0
 42
0.0000001
 43
0.0000001
 44
0.0000000001
 40
0.0
 40
0.0
 40
0.0
 40
0.0
 40
1.0
 40
1.0
 40
1.0
 40
1.0
 10
104.7307446431
 20
157.4812983993
 30
0.0
 10
104.6651277789
 20
157.4434144851
 30
0.0
 10
104.5487592632
 20
157.4733388668
 30
0.0
 10
104.510875349
 20
157.538955731
 30
0.0
  0
SPLINE
  5
5EC
100
AcDbEntity
  8
7_ALL_FEATURES
100
AcDbSpline
 62
7
  6
CONTINUOUS
 70
0
 71
3
 72
8
 73
4
 74
0
 42
0.0000001
 43
0.0000001
 44
0.0000000001
 40
0.0
 40
0.0
 40
0.0
 40
0.0
 40
1.0
 40
1.0
 40
1.0
 40
1.0
 10
104.510875349
 20
157.538955731
 30
0.0
 10
104.4704949436
 20
157.6088966448
 30
0.0
 10
104.5212343487
 20
157.704077171
 30
0.0
 10
104.5559063
 20
157.7770166278
 30
0.0
  0
SPLINE
  5
5ED
100
AcDbEntity
  8
7_ALL_FEATURES
100
AcDbSpline
 62
7
  6
CONTINUOUS
 70
0
 71
3
 72
13
 73
9
 74
0
 42
0.0000001
 43
0.0000001
 44
0.0000000001
 40
0.0
 40
0.0
 40
0.0
 40
0.0
 40
0.2266930293
 40
0.3384900135
 40
0.4545322516
 40
0.5979807664
 40
0.7311494495
 40
1.0
 40
1.0
 40
1.0
 40
1.0
 10
104.4698315754
 20
157.9354198469
 30
0.0
 10
104.4509309166
 20
157.9429885505
 30
0.0
 10
104.4223235584
 20
157.9539750918
 30
0.0
 10
104.3889198509
 20
157.9780737441
 30
0.0
 10
104.3677837642
 20
158.0044287515
 30
0.0
 10
104.355937023
 20
158.0388363041
 30
0.0
 10
104.361219723
 20
158.0888625849
 30
0.0
 10
104.3877766763
 20
158.119360343
 30
0.0
 10
104.4086877453
 20
158.1314333543
 30
0.0
  0
SPLINE
  5
5EE
100
AcDbEntity
  8
7_ALL_FEATURES
100
AcDbSpline
 62
7
  6
CONTINUOUS
 70
0
 71
3
 72
9
 73
5
 74
0
 42
0.0000001
 43
0.0000001
 44
0.0000000001
 40
0.0
 40
0.0
 40
0.0
 40
0.0
 40
0.5015303471
 40
1.0
 40
1.0
 40
1.0
 40
1.0
 10
104.4086877453
 20
158.1314333543
 30
0.0
 10
104.4307282271
 20
158.1441584324
 30
0.0
 10
104.4858234531
 20
158.1599801663
 30
0.0
 10
104.5310983335
 20
158.1223111391
 30
0.0
 10
104.5437457542
 20
158.1004051639
 30
0.0
  0
SPLINE
  5
5EF
100
AcDbEntity
  8
7_ALL_FEATURES
100
AcDbSpline
 62
7
  6
CONTINUOUS
 70
0
 71
3
 72
8
 73
4
 74
0
 42
0.0000001
 43
0.0000001
 44
0.0000000001
 40
0.0
 40
0.0
 40
0.0
 40
0.0
 40
1.0
 40
1.0
 40
1.0
 40
1.0
 10
104.5437457542
 20
158.1004051639
 30
0.0
 10
104.5719514271
 20
158.0515515053
 30
0.0
 10
104.5415215158
 20
157.9851583258
 30
0.0
 10
104.5206332103
 20
157.9327568121
 30
0.0
  0
SPLINE
  5
5F0
100
AcDbEntity
  8
7_ALL_FEATURES
100
AcDbSpline
 62
7
  6
CONTINUOUS
 70
0
 71
3
 72
8
 73
4
 74
0
 42
0.0000001
 43
0.0000001
 44
0.0000000001
 40
0.0
 40
0.0
 40
0.0
 40
0.0
 40
1.0
 40
1.0
 40
1.0
 40
1.0
 10
104.6037894694
 20
157.8833713473
 30
0.0
 10
104.6398006754
 20
157.9653252263
 30
0.0
 10
104.6770647621
 20
158.0728794021
 30
0.0
 10
104.6323063963
 20
158.1504031658
 30
0.0
  0
SPLINE
  5
5F1
100
AcDbEntity
  8
7_ALL_FEATURES
100
AcDbSpline
 62
7
  6
CONTINUOUS
 70
0
 71
3
 72
9
 73
5
 74
0
 42
0.0000001
 43
0.0000001
 44
0.0000000001
 40
0.0
 40
0.0
 40
0.0
 40
0.0
 40
0.2491323432
 40
1.0
 40
1.0
 40
1.0
 40
1.0
 10
104.2428648002
 20
160.23444725
 30
0.0
 10
104.2617982378
 20
160.2781184746
 30
0.0
 10
104.3323154532
 20
160.4558108209
 30
0.0
 10
104.38169962
 20
160.6411346213
 30
0.0
 10
104.4076137192
 20
160.7820162705
 30
0.0
  0
SPLINE
  5
5F2
100
AcDbEntity
  8
7_ALL_FEATURES
100
AcDbSpline
 62
7
  6
CONTINUOUS
 70
0
 71
3
 72
9
 73
5
 74
0
 42
0.0000001
 43
0.0000001
 44
0.0000000001
 40
0.0
 40
0.0
 40
0.0
 40
0.0
 40
0.1306269467
 40
1.0
 40
1.0
 40
1.0
 40
1.0
 10
107.3966839409
 20
159.039594447
 30
0.0
 10
107.4061023387
 20
159.0346897213
 30
0.0
 10
107.4807543803
 20
159.0018127722
 30
0.0
 10
107.575003793
 20
159.011313818
 30
0.0
 10
107.635869711
 20
159.0464547722
 30
0.0
  0
SPLINE
  5
5F3
100
AcDbEntity
  8
7_ALL_FEATURES
100
AcDbSpline
 62
7
  6
CONTINUOUS
 70
0
 71
3
 72
17
 73
13
 74
0
 42
0.0000001
 43
0.0000001
 44
0.0000000001
 40
0.0
 40
0.0
 40
0.0
 40
0.0
 40
0.0552928903
 40
0.1190307556
 40
0.2388446404
 40
0.3607162024
 40
0.4913988893
 40
0.6231604286
 40
0.7459155837
 40
0.8662290585
 40
0.9303231461
 40
1.0
 40
1.0
 40
1.0
 40
1.0
 10
107.4155404759
 20
159.4757252117
 30
0.0
 10
107.4249801158
 20
159.4807200685
 30
0.0
 10
107.4461794416
 20
159.4897798318
 30
0.0
 10
107.4914850126
 20
159.4996129373
 30
0.0
 10
107.5519715563
 20
159.491702422
 30
0.0
 10
107.6143145285
 20
159.4526936978
 30
0.0
 10
107.6607819952
 20
159.393546364
 30
0.0
 10
107.6889172976
 20
159.3236631406
 30
0.0
 10
107.6923011721
 20
159.2497397364
 30
0.0
 10
107.6691515433
 20
159.1928827545
 30
0.0
 10
107.636137472
 20
159.1562303016
 30
0.0
 10
107.6150286683
 20
159.1411089228
 30
0.0
 10
107.6033466675
 20
159.1344165348
 30
0.0
  0
SPLINE
  5
5F4
100
AcDbEntity
  8
7_ALL_FEATURES
100
AcDbSpline
 62
7
  6
CONTINUOUS
 70
0
 71
3
 72
15
 73
11
 74
0
 42
0.0000001
 43
0.0000001
 44
0.0000000001
 40
0.0
 40
0.0
 40
0.0
 40
0.0
 40
0.1141106906
 40
0.2377191378
 40
0.3609616822
 40
0.4892136522
 40
0.620383943
 40
0.746351036
 40
0.871384697
 40
1.0
 40
1.0
 40
1.0
 40
1.0
 10
106.3756687561
 20
159.1677724486
 30
0.0
 10
106.3827768838
 20
159.1722978628
 30
0.0
 10
106.3959645463
 20
159.1842665267
 30
0.0
 10
106.4081659846
 20
159.2084953415
 30
0.0
 10
106.4104723295
 20
159.2366365979
 30
0.0
 10
106.4012305029
 20
159.2639638986
 30
0.0
 10
106.3820743885
 20
159.2857603043
 30
0.0
 10
106.356331086
 20
159.2984994455
 30
0.0
 10
106.3278755184
 20
159.300684384
 30
0.0
 10
106.3097193471
 20
159.2946760576
 30
0.0
 10
106.3014931098
 20
159.289930549
 30
0.0
  0
SPLINE
  5
5F5
100
AcDbEntity
  8
7_ALL_FEATURES
100
AcDbSpline
 62
7
  6
CONTINUOUS
 70
0
 71
3
 72
8
 73
4
 74
0
 42
0.0000001
 43
0.0000001
 44
0.0000000001
 40
0.0
 40
0.0
 40
0.0
 40
0.0
 40
1.0
 40
1.0
 40
1.0
 40
1.0
 10
104.9070668055
 20
157.5415815369
 30
0.0
 10
104.9225576062
 20
157.5752120663
 30
0.0
 10
104.9333537539
 20
157.6111249448
 30
0.0
 10
104.9398780899
 20
157.6473420015
 30
0.0
  0
SPLINE
  5
5F6
100
AcDbEntity
  8
7_ALL_FEATURES
100
AcDbSpline
 62
7
  6
CONTINUOUS
 70
0
 71
3
 72
9
 73
5
 74
0
 42
0.0000001
 43
0.0000001
 44
0.0000000001
 40
0.0
 40
0.0
 40
0.0
 40
0.0
 40
0.2421437603
 40
1.0
 40
1.0
 40
1.0
 40
1.0
 10
102.6631254235
 20
156.2189398443
 30
0.0
 10
102.6753837414
 20
156.21910998
 30
0.0
 10
102.7259833441
 20
156.2230414666
 30
0.0
 10
102.7748390965
 20
156.2402205655
 30
0.0
 10
102.8078622725
 20
156.259286505
 30
0.0
  0
ENDSEC
  0
SECTION
  2
OBJECTS
  0
DICTIONARY
  5
5F7
100
AcDbDictionary
  3
ACAD_GROUP
350
5F8
  3
ACAD_MLINESTYLE
350
5F9
  0
DICTIONARY
  5
5F8
102
{ACAD_REACTORS
330
5F7
102
}
100
AcDbDictionary
  0
DICTIONARY
  5
5F9
102
{ACAD_REACTORS
330
5F7
102
}
100
AcDbDictionary
  3
STANDARD
350
5FA
  0
MLINESTYLE
  5
5FA
102
{ACAD_REACTORS
330
5F9
102
}
100
AcDbMlineStyle
  2
STANDARD
 70
0
  3

 62
256
 51
90.0
 52
90.0
 71
2
 49
0.5
 62
256
  6
BYLAYER
 49
-0.5
 62
256
  6
BYLAYER
  0
ENDSEC
  0
EOF
