999
DXF file: cwd_c_010.dxf
999
Pro/ENGINEER 2016360 by Parametric Technology Corporation
  0
SECTION
  2
HEADER
  9
$ACADVER
  1
AC1014
  9
$DWGCODEPAGE
  3
ANSI_1252
  9
$EXTMAX
 10
420.0
 20
297.0
 30
0.0
  9
$EXTMIN
 10
0.0
 20
0.0
 30
0.0
  9
$LIMMIN
 10
0.0
 20
0.0
  9
$LIMMAX
 10
420.0
 20
297.0
  9
$VIEWCTR
 10
210.0
 20
148.5
  9
$VIEWSIZE
 40
297.0
  9
$CLAYER
  8
0
  9
$LTSCALE
 40
23.1
  9
$CELTYPE
  6
BYLAYER
  9
$DIMSCALE
 40
1.0
  9
$DIMASZ
 40
2.5
  9
$DIMEXO
 40
0.75
  9
$DIMDLI
 40
15.96
  9
$DIMEXE
 40
0.75
  9
$DIMCEN
 40
3.78
  9
$DIMLFAC
 40
1.0
  9
$DIMBLK
  1
_CLOSED
  9
$DIMALT
 70
0
  9
$DIMALTF
 40
25.4
  9
$DIMTXT
 40
3.0
  9
$DIMTOL
 70
1
  9
$DIMLIM
 70
0
  9
$DIMTFAC
 40
1.0
  9
$DIMTP
 40
0.01
  9
$DIMTM
 40
0.01
  9
$DIMGAP
 40
0.625
  9
$AUNITS
 70
0
  9
$PDMODE
 70
3
  9
$PDSIZE
 40
0.3125
  9
$HANDSEED
  5
444
  9
$TILEMODE
 70
1
  9
$MEASUREMENT
 70
1
  0
ENDSEC
  0
SECTION
  2
CLASSES
  0
ENDSEC
  0
SECTION
  2
TABLES
  0
TABLE
  2
VPORT
  5
8
100
AcDbSymbolTable
 70
2
  0
VPORT
  5
1F4
100
AcDbSymbolTableRecord
100
AcDbViewportTableRecord
  2
*ACTIVE
 70
0
 10
0.0
 20
0.0
 11
1.0
 21
1.0
 12
210.0
 22
148.5
 13
0.0
 23
0.0
 14
1.0
 24
1.0
 15
0.0
 25
0.0
 16
0.0
 26
0.0
 36
1.0
 17
0.0
 27
0.0
 37
0.0
 40
297.0
 41
1.4141414141
 42
50.0
 43
0.0
 44
0.0
 50
0.0
 51
0.0
 71
0
 72
100
 73
1
 74
1
 75
0
 76
0
 77
0
 78
0
  0
ENDTAB
  0
TABLE
  2
LTYPE
  5
5
100
AcDbSymbolTable
 70
6
  0
LTYPE
  5
14
100
AcDbSymbolTableRecord
100
AcDbLinetypeTableRecord
  2
BYBLOCK
 70
0
  3

 72
65
 73
0
 40
0.0
  0
LTYPE
  5
15
100
AcDbSymbolTableRecord
100
AcDbLinetypeTableRecord
  2
BYLAYER
 70
0
  3

 72
65
 73
0
 40
0.0
  0
LTYPE
  5
16
100
AcDbSymbolTableRecord
100
AcDbLinetypeTableRecord
  2
CONTINUOUS
 70
64
  3
Solid line
 72
65
 73
0
 40
0.0
  0
LTYPE
  5
1F5
100
AcDbSymbolTableRecord
100
AcDbLinetypeTableRecord
  2
CENTER
 70
64
  3
____ _ ____ _ ____ _ ____ _ ____ _ ____ _ ____
 72
65
 73
4
 40
0.6
 49
0.375
 74
0
 49
-0.075
 74
0
 49
0.075
 74
0
 49
-0.075
 74
0
  0
LTYPE
  5
1F6
100
AcDbSymbolTableRecord
100
AcDbLinetypeTableRecord
  2
HIDDEN
 70
64
  3
- - - - - - - - - - - - - - - - - - - -
 72
65
 73
2
 40
0.2
 49
0.1
 74
0
 49
-0.1
 74
0
  0
LTYPE
  5
1F7
100
AcDbSymbolTableRecord
100
AcDbLinetypeTableRecord
  2
PHANTOM
 70
64
  3
_____ _ _ _____ _ _ _____ _ _ _____
 72
65
 73
6
 40
0.8
 49
0.45
 74
0
 49
-0.05
 74
0
 49
0.1
 74
0
 49
-0.05
 74
0
 49
0.1
 74
0
 49
-0.05
 74
0
  0
LTYPE
  5
1F8
100
AcDbSymbolTableRecord
100
AcDbLinetypeTableRecord
  2
DOT
 70
64
  3
. . . . . . . . . . . . . . . . . . . .
 72
65
 73
2
 40
0.2
 49
0.1
 74
0
 49
-0.1
 74
0
  0
LTYPE
  5
1F9
100
AcDbSymbolTableRecord
100
AcDbLinetypeTableRecord
  2
DASHED
 70
64
  3
- - - - - - - - - - - - - - - - - - - -
 72
65
 73
2
 40
0.2
 49
0.1
 74
0
 49
-0.1
 74
0
  0
ENDTAB
  0
TABLE
  2
LAYER
  5
2
100
AcDbSymbolTable
 70
36
  0
LAYER
  5
10
100
AcDbSymbolTableRecord
100
AcDbLayerTableRecord
  2
0
 70
0
 62
7
  6
CONTINUOUS
  0
LAYER
  5
1FA
100
AcDbSymbolTableRecord
100
AcDbLayerTableRecord
  2
DEFAULT_1
 70
0
 62
7
  6
CENTER
  0
LAYER
  5
1FB
100
AcDbSymbolTableRecord
100
AcDbLayerTableRecord
  2
DEFAULT_2
 70
0
 62
8
  6
HIDDEN
  0
LAYER
  5
1FC
100
AcDbSymbolTableRecord
100
AcDbLayerTableRecord
  2
DEFAULT_3
 70
0
 62
7
  6
PHANTOM
  0
LAYER
  5
1FD
100
AcDbSymbolTableRecord
100
AcDbLayerTableRecord
  2
01_ALL_DTM_PLN
 70
0
 62
7
  6
CONTINUOUS
  0
LAYER
  5
1FE
100
AcDbSymbolTableRecord
100
AcDbLayerTableRecord
  2
01__ASM_ALL_DTM_PLN
 70
0
 62
7
  6
CONTINUOUS
  0
LAYER
  5
1FF
100
AcDbSymbolTableRecord
100
AcDbLayerTableRecord
  2
01__ASM_DEF_DTM_PLN
 70
0
 62
7
  6
CONTINUOUS
  0
LAYER
  5
200
100
AcDbSymbolTableRecord
100
AcDbLayerTableRecord
  2
01___PRT_ALL_DTM_PLN
 70
0
 62
7
  6
CONTINUOUS
  0
LAYER
  5
201
100
AcDbSymbolTableRecord
100
AcDbLayerTableRecord
  2
01___PRT_DEF_DTM_PLN
 70
0
 62
7
  6
CONTINUOUS
  0
LAYER
  5
202
100
AcDbSymbolTableRecord
100
AcDbLayerTableRecord
  2
02_ALL_AXES
 70
0
 62
7
  6
CONTINUOUS
  0
LAYER
  5
203
100
AcDbSymbolTableRecord
100
AcDbLayerTableRecord
  2
02__ASM_ALL_AXES
 70
0
 62
7
  6
CONTINUOUS
  0
LAYER
  5
204
100
AcDbSymbolTableRecord
100
AcDbLayerTableRecord
  2
02___PRT_ALL_AXES
 70
0
 62
7
  6
CONTINUOUS
  0
LAYER
  5
205
100
AcDbSymbolTableRecord
100
AcDbLayerTableRecord
  2
03_ALL_CURVES
 70
0
 62
7
  6
CONTINUOUS
  0
LAYER
  5
206
100
AcDbSymbolTableRecord
100
AcDbLayerTableRecord
  2
03__ASM_ALL_CURVES
 70
0
 62
7
  6
CONTINUOUS
  0
LAYER
  5
207
100
AcDbSymbolTableRecord
100
AcDbLayerTableRecord
  2
03___PRT_ALL_CURVES
 70
0
 62
7
  6
CONTINUOUS
  0
LAYER
  5
208
100
AcDbSymbolTableRecord
100
AcDbLayerTableRecord
  2
04_ALL_DTM_PNT
 70
0
 62
7
  6
CONTINUOUS
  0
LAYER
  5
209
100
AcDbSymbolTableRecord
100
AcDbLayerTableRecord
  2
04__ASM_ALL_DTM_PNT
 70
0
 62
7
  6
CONTINUOUS
  0
LAYER
  5
20A
100
AcDbSymbolTableRecord
100
AcDbLayerTableRecord
  2
04___PRT_ALL_DTM_PNT
 70
0
 62
7
  6
CONTINUOUS
  0
LAYER
  5
20B
100
AcDbSymbolTableRecord
100
AcDbLayerTableRecord
  2
05_ALL_DTM_CSYS
 70
0
 62
7
  6
CONTINUOUS
  0
LAYER
  5
20C
100
AcDbSymbolTableRecord
100
AcDbLayerTableRecord
  2
05__ASM_ALL_DTM_CSYS
 70
0
 62
7
  6
CONTINUOUS
  0
LAYER
  5
20D
100
AcDbSymbolTableRecord
100
AcDbLayerTableRecord
  2
05__ASM_DEF_DTM_CSYS
 70
0
 62
7
  6
CONTINUOUS
  0
LAYER
  5
20E
100
AcDbSymbolTableRecord
100
AcDbLayerTableRecord
  2
05___PRT_ALL_DTM_CSYS
 70
0
 62
7
  6
CONTINUOUS
  0
LAYER
  5
20F
100
AcDbSymbolTableRecord
100
AcDbLayerTableRecord
  2
05___PRT_DEF_DTM_CSYS
 70
0
 62
7
  6
CONTINUOUS
  0
LAYER
  5
210
100
AcDbSymbolTableRecord
100
AcDbLayerTableRecord
  2
06_ALL_SURFS
 70
0
 62
7
  6
CONTINUOUS
  0
LAYER
  5
211
100
AcDbSymbolTableRecord
100
AcDbLayerTableRecord
  2
06__ASM_ALL_SURFS
 70
0
 62
7
  6
CONTINUOUS
  0
LAYER
  5
212
100
AcDbSymbolTableRecord
100
AcDbLayerTableRecord
  2
06___PRT_ALL_SURFS
 70
0
 62
7
  6
CONTINUOUS
  0
LAYER
  5
213
100
AcDbSymbolTableRecord
100
AcDbLayerTableRecord
  2
07__ASM_ALL_SKELETONS
 70
0
 62
7
  6
CONTINUOUS
  0
LAYER
  5
214
100
AcDbSymbolTableRecord
100
AcDbLayerTableRecord
  2
1_ALL_PLANES
 70
0
 62
7
  6
CONTINUOUS
  0
LAYER
  5
215
100
AcDbSymbolTableRecord
100
AcDbLayerTableRecord
  2
2_ALL_CSYS
 70
0
 62
7
  6
CONTINUOUS
  0
LAYER
  5
216
100
AcDbSymbolTableRecord
100
AcDbLayerTableRecord
  2
3_ALL_AXES
 70
0
 62
7
  6
CONTINUOUS
  0
LAYER
  5
217
100
AcDbSymbolTableRecord
100
AcDbLayerTableRecord
  2
4_ALL_POINTS
 70
0
 62
7
  6
CONTINUOUS
  0
LAYER
  5
218
100
AcDbSymbolTableRecord
100
AcDbLayerTableRecord
  2
5_ALL_CURVES
 70
0
 62
7
  6
CONTINUOUS
  0
LAYER
  5
219
100
AcDbSymbolTableRecord
100
AcDbLayerTableRecord
  2
5__COSTRUZIONE
 70
0
 62
7
  6
CONTINUOUS
  0
LAYER
  5
21A
100
AcDbSymbolTableRecord
100
AcDbLayerTableRecord
  2
6_ALL_SURFS
 70
0
 62
7
  6
CONTINUOUS
  0
LAYER
  5
21B
100
AcDbSymbolTableRecord
100
AcDbLayerTableRecord
  2
7_ALL_FEATURES
 70
0
 62
7
  6
CONTINUOUS
  0
LAYER
  5
21C
100
AcDbSymbolTableRecord
100
AcDbLayerTableRecord
  2
9_SOLID
 70
0
 62
7
  6
CONTINUOUS
  0
LAYER
  5
21D
100
AcDbSymbolTableRecord
100
AcDbLayerTableRecord
  2
CLOSED_SHELL
 70
0
 62
7
  6
CONTINUOUS
  0
LAYER
  5
21E
100
AcDbSymbolTableRecord
100
AcDbLayerTableRecord
  2
INTFCLR_2
 70
0
 62
7
  6
CONTINUOUS
  0
LAYER
  5
21F
100
AcDbSymbolTableRecord
100
AcDbLayerTableRecord
  2
XSEC_DATUMS
 70
0
 62
7
  6
CONTINUOUS
  0
LAYER
  5
220
100
AcDbSymbolTableRecord
100
AcDbLayerTableRecord
  2
XXX_SOLIDO
 70
0
 62
7
  6
CONTINUOUS
  0
ENDTAB
  0
TABLE
  2
STYLE
  5
3
100
AcDbSymbolTable
 70
1
  0
STYLE
  5
11
100
AcDbSymbolTableRecord
100
AcDbTextStyleTableRecord
  2
STANDARD
 70
0
 40
0.0
 41
1.0
 50
0.0
 71
0
 42
0.2
  3
arial.ttf
  4

  0
STYLE
  5
221
100
AcDbSymbolTableRecord
100
AcDbTextStyleTableRecord
  2
TEXTSTYLE_1
 70
0
 40
0.0
 41
0.8
 50
0.0
 71
0
 42
0.2
  3
gdt
  4

  0
STYLE
  5
222
100
AcDbSymbolTableRecord
100
AcDbTextStyleTableRecord
  2
TEXTSTYLE_2
 70
0
 40
0.0
 41
0.85
 50
0.0
 71
0
 42
0.2
  3
gdt
  4

  0
STYLE
  5
223
100
AcDbSymbolTableRecord
100
AcDbTextStyleTableRecord
  2
TEXTSTYLE_3
 70
0
 40
0.0
 41
0.85
 50
0.0
 71
0
 42
0.2
  3
txt
  4

  0
ENDTAB
  0
TABLE
  2
VIEW
  5
6
100
AcDbSymbolTable
 70
0
  0
ENDTAB
  0
TABLE
  2
UCS
  5
7
100
AcDbSymbolTable
 70
0
  0
ENDTAB
  0
TABLE
  2
APPID
  5
9
100
AcDbSymbolTable
 70
1
  0
APPID
  5
224
100
AcDbSymbolTableRecord
100
AcDbRegAppTableRecord
  2
ACAD
 70
0
  0
ENDTAB
  0
TABLE
  2
BLOCK_RECORD
  5
1
100
AcDbSymbolTable
 70
0
  0
BLOCK_RECORD
  5
1F
100
AcDbSymbolTableRecord
100
AcDbBlockTableRecord
  2
*MODEL_SPACE
  0
BLOCK_RECORD
  5
1B
100
AcDbSymbolTableRecord
100
AcDbBlockTableRecord
  2
*PAPER_SPACE
  0
BLOCK_RECORD
  5
225
100
AcDbSymbolTableRecord
100
AcDbBlockTableRecord
  2
_CLOSED
  0
BLOCK_RECORD
  5
226
100
AcDbSymbolTableRecord
100
AcDbBlockTableRecord
  2
*D0
  0
BLOCK_RECORD
  5
227
100
AcDbSymbolTableRecord
100
AcDbBlockTableRecord
  2
*D1
  0
BLOCK_RECORD
  5
228
100
AcDbSymbolTableRecord
100
AcDbBlockTableRecord
  2
*D2
  0
BLOCK_RECORD
  5
229
100
AcDbSymbolTableRecord
100
AcDbBlockTableRecord
  2
*D3
  0
BLOCK_RECORD
  5
22A
100
AcDbSymbolTableRecord
100
AcDbBlockTableRecord
  2
LOGO2_BL0
  0
ENDTAB
  0
TABLE
  2
DIMSTYLE
  5
A
100
AcDbSymbolTable
 70
1
  0
DIMSTYLE
105
22B
100
AcDbSymbolTableRecord
100
AcDbDimStyleTableRecord
  2
STANDARD
 70
0
  3

  4

  5
_CLOSED
  6
_CLOSED
  7
_CLOSED
 40
1.0
 41
2.5
 42
0.75
 43
0.38
 44
0.75
 45
0.0
 46
0.0
 47
0.01
 48
0.01
140
3.0
141
0.09
142
0.0
143
25.4
144
1.0
145
0.0
146
1.0
147
0.625
 71
1.0
 72
0.0
 73
0
 74
0
 75
0
 76
0
 77
1
 78
8
 79
2
170
0
171
1
172
0
173
0
174
0
175
0
176
0
177
0
178
0
270
2
179
2
271
2
272
2
273
2
274
2
275
0
280
0
281
0
282
0
283
1
284
8
285
0
286
0
287
3
288
0
340
11
  0
DIMSTYLE
105
22C
100
AcDbSymbolTableRecord
100
AcDbDimStyleTableRecord
  2
DIMSTYLE_1
 70
0
  3

  4

  5
_CLOSED
  6
_CLOSED
  7
_CLOSED
 40
1.0
 41
2.5
 42
0.75
 43
0.38
 44
0.75
 45
0.0
 46
0.0
 47
0.3
 48
0.3
140
3.0
141
0.09
142
0.0
143
25.4
144
1.0
145
0.0
146
1.0
147
0.75
 71
0.0
 72
0.0
 73
0
 74
0
 75
0
 76
0
 77
1
 78
8
 79
2
170
0
171
1
172
0
173
0
174
0
175
0
176
0
177
0
178
0
270
2
179
2
271
2
272
2
273
2
274
2
275
0
280
0
281
0
282
0
283
1
284
8
285
0
286
0
287
3
288
0
340
11
  0
ENDTAB
  0
ENDSEC
  0
SECTION
  2
BLOCKS
  0
BLOCK
  5
20
100
AcDbEntity
  8
0
100
AcDbBlockBegin
  2
*MODEL_SPACE
 70
0
 10
0.0
 20
0.0
 30
0.0
  3
*MODEL_SPACE
  1

  0
ENDBLK
  5
21
100
AcDbEntity
  8
0
100
AcDbBlockEnd
  0
BLOCK
  5
1C
100
AcDbEntity
  8
0
100
AcDbBlockBegin
  2
*PAPER_SPACE
 70
0
 10
0.0
 20
0.0
 30
0.0
  3
*PAPER_SPACE
  1

  0
ENDBLK
  5
1D
100
AcDbEntity
  8
0
100
AcDbBlockEnd
  0
BLOCK
  5
22D
100
AcDbEntity
  8
0
100
AcDbBlockBegin
 62
2
  6
CONTINUOUS
  2
LOGO2_BL0
 70
64
 10
333.6475659158
 20
36.9217920391
  3
LOGO2_BL0
  1

  0
LINE
  5
22E
100
AcDbEntity
  8
0
100
AcDbLine
 62
7
  6
CONTINUOUS
 10
325.390491144
 20
40.1172833779
 11
324.0861502147
 21
40.1172833779
  0
LINE
  5
22F
100
AcDbEntity
  8
0
100
AcDbLine
 62
7
  6
CONTINUOUS
 10
324.0861502147
 20
40.1172833779
 11
324.0861502147
 21
29.6582173181
  0
LINE
  5
230
100
AcDbEntity
  8
0
100
AcDbLine
 62
7
  6
CONTINUOUS
 10
324.0861502147
 20
29.6582173181
 11
328.567205103
 21
29.6582173181
  0
LINE
  5
231
100
AcDbEntity
  8
0
100
AcDbLine
 62
7
  6
CONTINUOUS
 10
328.567205103
 20
29.6582173181
 11
328.567205103
 21
30.8510716431
  0
LINE
  5
232
100
AcDbEntity
  8
0
100
AcDbLine
 62
7
  6
CONTINUOUS
 10
328.567205103
 20
30.8510716431
 11
325.390491144
 21
30.8510716431
  0
LINE
  5
233
100
AcDbEntity
  8
0
100
AcDbLine
 62
7
  6
CONTINUOUS
 10
325.390491144
 20
30.8510716431
 11
325.390491144
 21
40.1172833779
  0
LINE
  5
234
100
AcDbEntity
  8
0
100
AcDbLine
 62
7
  6
CONTINUOUS
 10
340.3268173604
 20
40.1172833779
 11
339.0229998423
 21
40.1172833779
  0
LINE
  5
235
100
AcDbEntity
  8
0
100
AcDbLine
 62
7
  6
CONTINUOUS
 10
339.0229998423
 20
40.1172833779
 11
339.0229998423
 21
29.6582173181
  0
LINE
  5
236
100
AcDbEntity
  8
0
100
AcDbLine
 62
7
  6
CONTINUOUS
 10
339.0229998423
 20
29.6582173181
 11
343.5041855834
 21
29.6582173181
  0
LINE
  5
237
100
AcDbEntity
  8
0
100
AcDbLine
 62
7
  6
CONTINUOUS
 10
343.5041855834
 20
29.6582173181
 11
343.5041855834
 21
30.8510716431
  0
LINE
  5
238
100
AcDbEntity
  8
0
100
AcDbLine
 62
7
  6
CONTINUOUS
 10
343.5041855834
 20
30.8510716431
 11
340.3268173604
 21
30.8510716431
  0
LINE
  5
239
100
AcDbEntity
  8
0
100
AcDbLine
 62
7
  6
CONTINUOUS
 10
340.3268173604
 20
30.8510716431
 11
340.3268173604
 21
40.1172833779
  0
LWPOLYLINE
  5
23A
100
AcDbEntity
  8
0
100
AcDbPolyline
 62
7
  6
CONTINUOUS
 90
2
 70
0
 43
0.2
 10
322.4405451256
 20
26.3146660112
 10
322.4405451256
 20
24.4576027618
  0
LWPOLYLINE
  5
23B
100
AcDbEntity
  8
0
100
AcDbPolyline
 62
7
  6
CONTINUOUS
 90
2
 70
0
 43
0.2
 10
322.4405451256
 20
24.4576027618
 10
323.236261136
 20
24.4576027618
  0
LWPOLYLINE
  5
23C
100
AcDbEntity
  8
0
100
AcDbPolyline
 62
7
  6
CONTINUOUS
 90
2
 70
0
 43
0.2
 10
323.236261136
 20
24.4576027618
 10
323.236261136
 20
24.6695843334
  0
LWPOLYLINE
  5
23D
100
AcDbEntity
  8
0
100
AcDbPolyline
 62
7
  6
CONTINUOUS
 90
2
 70
0
 43
0.2
 10
323.236261136
 20
24.6695843334
 10
322.6721546205
 20
24.6695843334
  0
LWPOLYLINE
  5
23E
100
AcDbEntity
  8
0
100
AcDbPolyline
 62
7
  6
CONTINUOUS
 90
2
 70
0
 43
0.2
 10
322.6721546205
 20
24.6695843334
 10
322.6721546205
 20
26.3146660112
  0
LWPOLYLINE
  5
23F
100
AcDbEntity
  8
0
100
AcDbPolyline
 62
7
  6
CONTINUOUS
 90
2
 70
0
 43
0.2
 10
322.6721546205
 20
26.3146660112
 10
322.4405451256
 20
26.3146660112
  0
SPLINE
  5
240
100
AcDbEntity
  8
0
100
AcDbSpline
 62
7
  6
CONTINUOUS
 70
2
 71
3
 72
35
 73
31
 74
0
 42
0.0000001
 43
0.0000001
 44
0.0000000001
 40
0.0
 40
0.0
 40
0.0
 40
0.0
 40
1.0
 40
1.0
 40
1.0
 40
2.0
 40
2.0
 40
2.0
 40
3.0
 40
3.0
 40
3.0
 40
4.0
 40
4.0
 40
4.0
 40
5.0
 40
5.0
 40
5.0
 40
6.0
 40
6.0
 40
6.0
 40
7.0
 40
7.0
 40
7.0
 40
8.0
 40
8.0
 40
8.0
 40
9.0
 40
9.0
 40
9.0
 40
10.0
 40
10.0
 40
10.0
 40
10.0
 10
324.6345543915
 20
25.6101544177
 30
0.0
 10
324.6345543915
 20
25.6101544177
 30
0.0
 10
324.6345543915
 20
24.9480391385
 30
0.0
 10
324.6345543915
 20
24.9480391385
 30
0.0
 10
324.6345543915
 20
24.6329455432
 30
0.0
 10
324.7824180804
 20
24.4183469152
 30
0.0
 10
325.1225045647
 20
24.4183469152
 30
0.0
 10
325.4620676377
 20
24.4183469152
 30
0.0
 10
325.6101930321
 20
24.6329455432
 30
0.0
 10
325.6101930321
 20
24.9480391385
 30
0.0
 10
325.6101930321
 20
24.9480391385
 30
0.0
 10
325.6101930321
 20
25.6101544177
 30
0.0
 10
325.6101930321
 20
25.6101544177
 30
0.0
 10
325.6101930321
 20
25.6101544177
 30
0.0
 10
325.3881357933
 20
25.6101544177
 30
0.0
 10
325.3881357933
 20
25.6101544177
 30
0.0
 10
325.3881357933
 20
25.6101544177
 30
0.0
 10
325.3881357933
 20
24.9731628803
 30
0.0
 10
325.3881357933
 20
24.9731628803
 30
0.0
 10
325.3881357933
 20
24.7873518732
 30
0.0
 10
325.3414213358
 20
24.6245709626
 30
0.0
 10
325.1225045647
 20
24.6245709626
 30
0.0
 10
324.9030643822
 20
24.6245709626
 30
0.0
 10
324.8563499248
 20
24.7873518732
 30
0.0
 10
324.8563499248
 20
24.9731628803
 30
0.0
 10
324.8563499248
 20
24.9731628803
 30
0.0
 10
324.8563499248
 20
25.6101544177
 30
0.0
 10
324.8563499248
 20
25.6101544177
 30
0.0
 10
324.8563499248
 20
25.6101544177
 30
0.0
 10
324.6345543915
 20
25.6101544177
 30
0.0
 10
324.6345543915
 20
25.6101544177
 30
0.0
  0
SPLINE
  5
241
100
AcDbEntity
  8
0
100
AcDbSpline
 62
7
  6
CONTINUOUS
 70
2
 71
3
 72
35
 73
31
 74
0
 42
0.0000001
 43
0.0000001
 44
0.0000000001
 40
0.0
 40
0.0
 40
0.0
 40
0.0
 40
1.0
 40
1.0
 40
1.0
 40
2.0
 40
2.0
 40
2.0
 40
3.0
 40
3.0
 40
3.0
 40
4.0
 40
4.0
 40
4.0
 40
5.0
 40
5.0
 40
5.0
 40
6.0
 40
6.0
 40
6.0
 40
7.0
 40
7.0
 40
7.0
 40
8.0
 40
8.0
 40
8.0
 40
9.0
 40
9.0
 40
9.0
 40
10.0
 40
10.0
 40
10.0
 40
10.0
 10
328.0333255893
 20
25.5688049259
 30
0.0
 10
327.9448690817
 20
25.6200992322
 30
0.0
 10
327.831419685
 20
25.645222974
 30
0.0
 10
327.72778425
 20
25.645222974
 30
0.0
 10
327.3729113969
 20
25.645222974
 30
0.0
 10
327.0974662066
 20
25.3814236849
 30
0.0
 10
327.0974662066
 20
25.0239337753
 30
0.0
 10
327.0974662066
 20
24.6790057366
 30
0.0
 10
327.3759210118
 20
24.4188703265
 30
0.0
 10
327.7154840848
 20
24.4188703265
 30
0.0
 10
327.831419685
 20
24.4188703265
 30
0.0
 10
327.9321763579
 20
24.4408536006
 30
0.0
 10
328.0333255893
 20
24.4947649632
 30
0.0
 10
328.0333255893
 20
24.4947649632
 30
0.0
 10
328.0333255893
 20
24.7774070587
 30
0.0
 10
328.0333255893
 20
24.7774070587
 30
0.0
 10
327.9494489304
 20
24.6842398494
 30
0.0
 10
327.8459443483
 20
24.6250943739
 30
0.0
 10
327.7178394356
 20
24.6250943739
 30
0.0
 10
327.4841362955
 20
24.6250943739
 30
0.0
 10
327.3188691814
 20
24.7972966876
 30
0.0
 10
327.3188691814
 20
25.0338785897
 30
0.0
 10
327.3188691814
 20
25.2458601613
 30
0.0
 10
327.4866224991
 20
25.437952104
 30
0.0
 10
327.7034456251
 20
25.437952104
 30
0.0
 10
327.8362612394
 20
25.437952104
 30
0.0
 10
327.9448690817
 20
25.3840407413
 30
0.0
 10
328.0333255893
 20
25.2830223628
 30
0.0
 10
328.0333255893
 20
25.2830223628
 30
0.0
 10
328.0333255893
 20
25.5688049259
 30
0.0
 10
328.0333255893
 20
25.5688049259
 30
0.0
  0
SPLINE
  5
242
100
AcDbEntity
  8
0
100
AcDbSpline
 62
7
  6
CONTINUOUS
 70
2
 71
3
 72
32
 73
28
 74
0
 42
0.0000001
 43
0.0000001
 44
0.0000000001
 40
0.0
 40
0.0
 40
0.0
 40
0.0
 40
1.0
 40
1.0
 40
1.0
 40
2.0
 40
2.0
 40
2.0
 40
3.0
 40
3.0
 40
3.0
 40
4.0
 40
4.0
 40
4.0
 40
5.0
 40
5.0
 40
5.0
 40
6.0
 40
6.0
 40
6.0
 40
7.0
 40
7.0
 40
7.0
 40
8.0
 40
8.0
 40
8.0
 40
9.0
 40
9.0
 40
9.0
 40
9.0
 10
330.5651968416
 20
24.9972397996
 30
0.0
 10
330.5651968416
 20
24.9972397996
 30
0.0
 10
330.5651968416
 20
25.0312615333
 30
0.0
 10
330.5651968416
 20
25.0312615333
 30
0.0
 10
330.5651968416
 20
25.3735725156
 30
0.0
 10
330.3923402638
 20
25.645222974
 30
0.0
 10
330.0256906566
 20
25.645222974
 30
0.0
 10
329.6540686422
 20
25.645222974
 30
0.0
 10
329.4643320504
 20
25.3788066284
 30
0.0
 10
329.4643320504
 20
25.0239337753
 30
0.0
 10
329.4643320504
 20
24.6842398494
 30
0.0
 10
329.6784072671
 20
24.4183469152
 30
0.0
 10
330.030532211
 20
24.4183469152
 30
0.0
 10
330.2545522422
 20
24.4183469152
 30
0.0
 10
330.4567198522
 20
24.5340208098
 30
0.0
 10
330.5651968416
 20
24.7334405105
 30
0.0
 10
330.5651968416
 20
24.7334405105
 30
0.0
 10
330.3775538949
 20
24.8402164132
 30
0.0
 10
330.3775538949
 20
24.8402164132
 30
0.0
 10
330.2940697945
 20
24.7015124219
 30
0.0
 10
330.2028653775
 20
24.6156729707
 30
0.0
 10
330.0332801203
 20
24.6156729707
 30
0.0
 10
329.8212985487
 20
24.6156729707
 30
0.0
 10
329.6883520816
 20
24.8004371554
 30
0.0
 10
329.6859967308
 20
24.9972397996
 30
0.0
 10
329.6859967308
 20
24.9972397996
 30
0.0
 10
330.5651968416
 20
24.9972397996
 30
0.0
 10
330.5651968416
 20
24.9972397996
 30
0.0
  0
SPLINE
  5
243
100
AcDbEntity
  8
0
100
AcDbSpline
 62
7
  6
CONTINUOUS
 70
2
 71
3
 72
14
 73
10
 74
0
 42
0.0000001
 43
0.0000001
 44
0.0000000001
 40
0.0
 40
0.0
 40
0.0
 40
0.0
 40
1.0
 40
1.0
 40
1.0
 40
2.0
 40
2.0
 40
2.0
 40
3.0
 40
3.0
 40
3.0
 40
3.0
 10
329.6980351904
 20
25.1647314117
 30
0.0
 10
329.7256451358
 20
25.3296059674
 30
0.0
 10
329.8534883429
 20
25.45260762
 30
0.0
 10
330.0256906566
 20
25.45260762
 30
0.0
 10
330.2028653775
 20
25.45260762
 30
0.0
 10
330.3163147742
 20
25.3369337254
 30
0.0
 10
330.3435321612
 20
25.1647314117
 30
0.0
 10
330.3435321612
 20
25.1647314117
 30
0.0
 10
329.6980351904
 20
25.1647314117
 30
0.0
 10
329.6980351904
 20
25.1647314117
 30
0.0
  0
SPLINE
  5
244
100
AcDbEntity
  8
0
100
AcDbSpline
 62
7
  6
CONTINUOUS
 70
2
 71
3
 72
20
 73
16
 74
0
 42
0.0000001
 43
0.0000001
 44
0.0000000001
 40
0.0
 40
0.0
 40
0.0
 40
0.0
 40
1.0
 40
1.0
 40
1.0
 40
2.0
 40
2.0
 40
2.0
 40
3.0
 40
3.0
 40
3.0
 40
4.0
 40
4.0
 40
4.0
 40
5.0
 40
5.0
 40
5.0
 40
5.0
 10
332.5892282918
 20
25.3740959269
 30
0.0
 10
332.5892282918
 20
25.3740959269
 30
0.0
 10
333.0003678584
 20
24.8716210905
 30
0.0
 10
333.0003678584
 20
24.8716210905
 30
0.0
 10
332.8843014053
 20
24.7559471959
 30
0.0
 10
332.7465133838
 20
24.6256177852
 30
0.0
 10
332.5745727757
 20
24.6256177852
 30
0.0
 10
332.3971363491
 20
24.6256177852
 30
0.0
 10
332.229644737
 20
24.7899689296
 30
0.0
 10
332.229644737
 20
24.9668819449
 30
0.0
 10
332.229644737
 20
25.1448417828
 30
0.0
 10
332.4394018106
 20
25.2709839031
 30
0.0
 10
332.566983312
 20
25.3589169995
 30
0.0
 10
332.566983312
 20
25.3589169995
 30
0.0
 10
332.5892282918
 20
25.3740959269
 30
0.0
 10
332.5892282918
 20
25.3740959269
 30
0.0
  0
SPLINE
  5
245
100
AcDbEntity
  8
0
100
AcDbSpline
 62
7
  6
CONTINUOUS
 70
2
 71
3
 72
23
 73
19
 74
0
 42
0.0000001
 43
0.0000001
 44
0.0000000001
 40
0.0
 40
0.0
 40
0.0
 40
0.0
 40
1.0
 40
1.0
 40
1.0
 40
2.0
 40
2.0
 40
2.0
 40
3.0
 40
3.0
 40
3.0
 40
4.0
 40
4.0
 40
4.0
 40
5.0
 40
5.0
 40
5.0
 40
6.0
 40
6.0
 40
6.0
 40
6.0
 10
332.6385598056
 20
25.6651126029
 30
0.0
 10
332.6385598056
 20
25.6651126029
 30
0.0
 10
332.5769281265
 20
25.7436242961
 30
0.0
 10
332.5769281265
 20
25.7436242961
 30
0.0
 10
332.5230167639
 20
25.8121911748
 30
0.0
 10
332.4662266391
 20
25.8812814648
 30
0.0
 10
332.4662266391
 20
25.9749720853
 30
0.0
 10
332.4662266391
 20
26.0937864477
 30
0.0
 10
332.5621417576
 20
26.1712513183
 30
0.0
 10
332.6731049506
 20
26.1712513183
 30
0.0
 10
332.7963683089
 20
26.1712513183
 30
0.0
 10
332.889666371
 20
26.1000673831
 30
0.0
 10
332.889666371
 20
25.9697379725
 30
0.0
 10
332.889666371
 20
25.8346978602
 30
0.0
 10
332.7615614583
 20
25.7582798122
 30
0.0
 10
332.6680016906
 20
25.6844788206
 30
0.0
 10
332.6680016906
 20
25.6844788206
 30
0.0
 10
332.6385598056
 20
25.6651126029
 30
0.0
 10
332.6385598056
 20
25.6651126029
 30
0.0
  0
SPLINE
  5
246
100
AcDbEntity
  8
0
100
AcDbSpline
 62
7
  6
CONTINUOUS
 70
2
 71
3
 72
50
 73
46
 74
0
 42
0.0000001
 43
0.0000001
 44
0.0000000001
 40
0.0
 40
0.0
 40
0.0
 40
0.0
 40
1.0
 40
1.0
 40
1.0
 40
2.0
 40
2.0
 40
2.0
 40
3.0
 40
3.0
 40
3.0
 40
4.0
 40
4.0
 40
4.0
 40
5.0
 40
5.0
 40
5.0
 40
6.0
 40
6.0
 40
6.0
 40
7.0
 40
7.0
 40
7.0
 40
8.0
 40
8.0
 40
8.0
 40
9.0
 40
9.0
 40
9.0
 40
10.0
 40
10.0
 40
10.0
 40
11.0
 40
11.0
 40
11.0
 40
12.0
 40
12.0
 40
12.0
 40
13.0
 40
13.0
 40
13.0
 40
14.0
 40
14.0
 40
14.0
 40
15.0
 40
15.0
 40
15.0
 40
15.0
 10
333.3407160483
 20
24.4581261731
 30
0.0
 10
333.3407160483
 20
24.4581261731
 30
0.0
 10
333.626106053
 20
24.4581261731
 30
0.0
 10
333.626106053
 20
24.4581261731
 30
0.0
 10
333.626106053
 20
24.4581261731
 30
0.0
 10
333.2937398852
 20
24.8690040341
 30
0.0
 10
333.2937398852
 20
24.8690040341
 30
0.0
 10
333.2937398852
 20
24.8690040341
 30
0.0
 10
333.5202461201
 20
25.1348969683
 30
0.0
 10
333.5202461201
 20
25.1348969683
 30
0.0
 10
333.5202461201
 20
25.1348969683
 30
0.0
 10
333.3719898728
 20
25.2877330644
 30
0.0
 10
333.3719898728
 20
25.2877330644
 30
0.0
 10
333.3719898728
 20
25.2877330644
 30
0.0
 10
333.1560827165
 20
25.0364956462
 30
0.0
 10
333.1560827165
 20
25.0364956462
 30
0.0
 10
333.1560827165
 20
25.0364956462
 30
0.0
 10
332.7690200692
 20
25.5044253375
 30
0.0
 10
332.7690200692
 20
25.5044253375
 30
0.0
 10
332.9244732216
 20
25.6185289983
 30
0.0
 10
333.1067512026
 20
25.7582798122
 30
0.0
 10
333.1067512026
 20
25.9676443273
 30
0.0
 10
333.1067512026
 20
26.2115539874
 30
0.0
 10
332.9047144455
 20
26.3549686803
 30
0.0
 10
332.6782082107
 20
26.3549686803
 30
0.0
 10
332.4340368449
 20
26.3549686803
 30
0.0
 10
332.2496652188
 20
26.2042262294
 30
0.0
 10
332.2496652188
 20
25.9477546984
 30
0.0
 10
332.2496652188
 20
25.7902079007
 30
0.0
 10
332.3483282465
 20
25.652550732
 30
0.0
 10
332.4536647682
 20
25.541587539
 30
0.0
 10
332.4536647682
 20
25.541587539
 30
0.0
 10
332.3381217264
 20
25.4578417329
 30
0.0
 10
332.3381217264
 20
25.4578417329
 30
0.0
 10
332.1604235942
 20
25.3296059674
 30
0.0
 10
332.0130833166
 20
25.2018936131
 30
0.0
 10
332.0130833166
 20
24.9647882997
 30
0.0
 10
332.0130833166
 20
24.6444605916
 30
0.0
 10
332.2716484929
 20
24.4183469152
 30
0.0
 10
332.5820313866
 20
24.4183469152
 30
0.0
 10
332.8009481577
 20
24.4183469152
 30
0.0
 10
332.9981433604
 20
24.543442213
 30
0.0
 10
333.1384175856
 20
24.7093635913
 30
0.0
 10
333.1384175856
 20
24.7093635913
 30
0.0
 10
333.3407160483
 20
24.4581261731
 30
0.0
 10
333.3407160483
 20
24.4581261731
 30
0.0
  0
LWPOLYLINE
  5
247
100
AcDbEntity
  8
0
100
AcDbPolyline
 62
7
  6
CONTINUOUS
 90
2
 70
0
 43
0.2
 10
335.276160138
 20
26.3146660112
 10
335.0448123488
 20
26.3146660112
  0
LWPOLYLINE
  5
248
100
AcDbEntity
  8
0
100
AcDbPolyline
 62
7
  6
CONTINUOUS
 90
2
 70
0
 43
0.2
 10
335.0448123488
 20
26.3146660112
 10
335.0448123488
 20
24.4576027618
  0
LWPOLYLINE
  5
249
100
AcDbEntity
  8
0
100
AcDbPolyline
 62
7
  6
CONTINUOUS
 90
2
 70
0
 43
0.2
 10
335.0448123488
 20
24.4576027618
 10
335.8401358007
 20
24.4576027618
  0
LWPOLYLINE
  5
24A
100
AcDbEntity
  8
0
100
AcDbPolyline
 62
7
  6
CONTINUOUS
 90
2
 70
0
 43
0.2
 10
335.8401358007
 20
24.4576027618
 10
335.8401358007
 20
24.6695843334
  0
LWPOLYLINE
  5
24B
100
AcDbEntity
  8
0
100
AcDbPolyline
 62
7
  6
CONTINUOUS
 90
2
 70
0
 43
0.2
 10
335.8401358007
 20
24.6695843334
 10
335.276160138
 20
24.6695843334
  0
LWPOLYLINE
  5
24C
100
AcDbEntity
  8
0
100
AcDbPolyline
 62
7
  6
CONTINUOUS
 90
2
 70
0
 43
0.2
 10
335.276160138
 20
24.6695843334
 10
335.276160138
 20
26.3146660112
  0
LWPOLYLINE
  5
24D
100
AcDbEntity
  8
0
100
AcDbPolyline
 62
7
  6
CONTINUOUS
 90
2
 70
0
 43
0.2
 10
337.5192392122
 20
25.6101544177
 10
337.2980979431
 20
25.6101544177
  0
LWPOLYLINE
  5
24E
100
AcDbEntity
  8
0
100
AcDbPolyline
 62
7
  6
CONTINUOUS
 90
2
 70
0
 43
0.2
 10
337.2980979431
 20
25.6101544177
 10
337.2980979431
 20
24.4581261731
  0
LWPOLYLINE
  5
24F
100
AcDbEntity
  8
0
100
AcDbPolyline
 62
7
  6
CONTINUOUS
 90
2
 70
0
 43
0.2
 10
337.2980979431
 20
24.4581261731
 10
337.5192392122
 20
24.4581261731
  0
LWPOLYLINE
  5
250
100
AcDbEntity
  8
0
100
AcDbPolyline
 62
7
  6
CONTINUOUS
 90
2
 70
0
 43
0.2
 10
337.5192392122
 20
24.4581261731
 10
337.5192392122
 20
25.6101544177
  0
LWPOLYLINE
  5
251
100
AcDbEntity
  8
0
100
AcDbPolyline
 62
7
  6
CONTINUOUS
 90
2
 70
1
 43
0.2
 10
337.256215935
 20
26.1401083467
 42
1.0
 10
337.5613829259
 20
26.1401083467
 42
1.0
  0
SPLINE
  5
252
100
AcDbEntity
  8
0
100
AcDbSpline
 62
7
  6
CONTINUOUS
 70
2
 71
3
 72
17
 73
13
 74
0
 42
0.0000001
 43
0.0000001
 44
0.0000000001
 40
0.0
 40
0.0
 40
0.0
 40
0.0
 40
1.0
 40
1.0
 40
1.0
 40
2.0
 40
2.0
 40
2.0
 40
3.0
 40
3.0
 40
3.0
 40
4.0
 40
4.0
 40
4.0
 40
4.0
 10
339.6495231538
 20
24.6156729707
 30
0.0
 10
339.4155583082
 20
24.6156729707
 30
0.0
 10
339.2852288975
 20
24.8177097279
 30
0.0
 10
339.2852288975
 20
25.0338785897
 30
0.0
 10
339.2852288975
 20
25.2484772178
 30
0.0
 10
339.4210541267
 20
25.4473735072
 30
0.0
 10
339.6495231538
 20
25.4473735072
 30
0.0
 10
339.888983818
 20
25.4473735072
 30
0.0
 10
340.0245473416
 20
25.2584220322
 30
0.0
 10
340.0245473416
 20
25.0338785897
 30
0.0
 10
340.0245473416
 20
24.8077649134
 30
0.0
 10
339.8913391688
 20
24.6156729707
 30
0.0
 10
339.6495231538
 20
24.6156729707
 30
0.0
  0
SPLINE
  5
253
100
AcDbEntity
  8
0
100
AcDbSpline
 62
7
  6
CONTINUOUS
 70
2
 71
3
 72
50
 73
46
 74
0
 42
0.0000001
 43
0.0000001
 44
0.0000000001
 40
0.0
 40
0.0
 40
0.0
 40
0.0
 40
1.0
 40
1.0
 40
1.0
 40
2.0
 40
2.0
 40
2.0
 40
3.0
 40
3.0
 40
3.0
 40
4.0
 40
4.0
 40
4.0
 40
5.0
 40
5.0
 40
5.0
 40
6.0
 40
6.0
 40
6.0
 40
7.0
 40
7.0
 40
7.0
 40
8.0
 40
8.0
 40
8.0
 40
9.0
 40
9.0
 40
9.0
 40
10.0
 40
10.0
 40
10.0
 40
11.0
 40
11.0
 40
11.0
 40
12.0
 40
12.0
 40
12.0
 40
13.0
 40
13.0
 40
13.0
 40
14.0
 40
14.0
 40
14.0
 40
15.0
 40
15.0
 40
15.0
 40
15.0
 10
340.2336501511
 20
25.610677829
 30
0.0
 10
340.2336501511
 20
25.610677829
 30
0.0
 10
340.0119854707
 20
25.610677829
 30
0.0
 10
340.0119854707
 20
25.610677829
 30
0.0
 10
340.0119854707
 20
25.610677829
 30
0.0
 10
340.0119854707
 20
25.4133517734
 30
0.0
 10
340.0119854707
 20
25.4133517734
 30
0.0
 10
340.0119854707
 20
25.4133517734
 30
0.0
 10
340.0072747691
 20
25.4133517734
 30
0.0
 10
340.0072747691
 20
25.4133517734
 30
0.0
 10
339.9159394994
 20
25.556243055
 30
0.0
 10
339.778020625
 20
25.6446995627
 30
0.0
 10
339.6052949
 20
25.6446995627
 30
0.0
 10
339.2729287322
 20
25.6446995627
 30
0.0
 10
339.0638259227
 20
25.3568233544
 30
0.0
 10
339.0638259227
 20
25.0412063478
 30
0.0
 10
339.0638259227
 20
24.7114572364
 30
0.0
 10
339.2608902726
 20
24.4183469152
 30
0.0
 10
339.6157631258
 20
24.4183469152
 30
0.0
 10
339.778020625
 20
24.4183469152
 30
0.0
 10
339.9180331445
 20
24.5068034229
 30
0.0
 10
340.0072747691
 20
24.6376562448
 30
0.0
 10
340.0072747691
 20
24.6376562448
 30
0.0
 10
340.0119854707
 20
24.6376562448
 30
0.0
 10
340.0119854707
 20
24.6376562448
 30
0.0
 10
340.0119854707
 20
24.6376562448
 30
0.0
 10
340.0119854707
 20
24.4183469152
 30
0.0
 10
340.0119854707
 20
24.4183469152
 30
0.0
 10
340.0119854707
 20
24.1817650131
 30
0.0
 10
339.9554570516
 20
23.9949071833
 30
0.0
 10
339.6822363593
 20
23.9949071833
 30
0.0
 10
339.4799378966
 20
23.9949071833
 30
0.0
 10
339.3373083206
 20
24.1131981344
 30
0.0
 10
339.3373083206
 20
24.3194221818
 30
0.0
 10
339.3373083206
 20
24.3194221818
 30
0.0
 10
339.1156436402
 20
24.3194221818
 30
0.0
 10
339.1156436402
 20
24.3194221818
 30
0.0
 10
339.1206160475
 20
23.9949071833
 30
0.0
 10
339.351702131
 20
23.7981045391
 30
0.0
 10
339.6720298392
 20
23.7981045391
 30
0.0
 10
340.1200699016
 20
23.7981045391
 30
0.0
 10
340.2336501511
 20
24.083363691
 30
0.0
 10
340.2336501511
 20
24.4801094472
 30
0.0
 10
340.2336501511
 20
24.4801094472
 30
0.0
 10
340.2336501511
 20
25.610677829
 30
0.0
 10
340.2336501511
 20
25.610677829
 30
0.0
  0
SPLINE
  5
254
100
AcDbEntity
  8
0
100
AcDbSpline
 62
7
  6
CONTINUOUS
 70
2
 71
3
 72
44
 73
40
 74
0
 42
0.0000001
 43
0.0000001
 44
0.0000000001
 40
0.0
 40
0.0
 40
0.0
 40
0.0
 40
1.0
 40
1.0
 40
1.0
 40
2.0
 40
2.0
 40
2.0
 40
3.0
 40
3.0
 40
3.0
 40
4.0
 40
4.0
 40
4.0
 40
5.0
 40
5.0
 40
5.0
 40
6.0
 40
6.0
 40
6.0
 40
7.0
 40
7.0
 40
7.0
 40
8.0
 40
8.0
 40
8.0
 40
9.0
 40
9.0
 40
9.0
 40
10.0
 40
10.0
 40
10.0
 40
11.0
 40
11.0
 40
11.0
 40
12.0
 40
12.0
 40
12.0
 40
13.0
 40
13.0
 40
13.0
 40
13.0
 10
341.8025754865
 20
26.5957378727
 30
0.0
 10
341.8025754865
 20
26.5957378727
 30
0.0
 10
341.8025754865
 20
24.4576027618
 30
0.0
 10
341.8025754865
 20
24.4576027618
 30
0.0
 10
341.8025754865
 20
24.4576027618
 30
0.0
 10
342.0239784613
 20
24.4576027618
 30
0.0
 10
342.0239784613
 20
24.4576027618
 30
0.0
 10
342.0239784613
 20
24.4576027618
 30
0.0
 10
342.0239784613
 20
24.9872949851
 30
0.0
 10
342.0239784613
 20
24.9872949851
 30
0.0
 10
342.0239784613
 20
25.1971829116
 30
0.0
 10
342.0239784613
 20
25.4478969184
 30
0.0
 10
342.3092376132
 20
25.4478969184
 30
0.0
 10
342.5361364065
 20
25.4478969184
 30
0.0
 10
342.5630920878
 20
25.3149504513
 30
0.0
 10
342.5630920878
 20
25.1186712184
 30
0.0
 10
342.5630920878
 20
25.1186712184
 30
0.0
 10
342.5630920878
 20
24.4576027618
 30
0.0
 10
342.5630920878
 20
24.4576027618
 30
0.0
 10
342.5630920878
 20
24.4576027618
 30
0.0
 10
342.7850184738
 20
24.4576027618
 30
0.0
 10
342.7850184738
 20
24.4576027618
 30
0.0
 10
342.7850184738
 20
24.4576027618
 30
0.0
 10
342.7850184738
 20
25.1448417828
 30
0.0
 10
342.7850184738
 20
25.1448417828
 30
0.0
 10
342.7850184738
 20
25.4253902331
 30
0.0
 10
342.7010109621
 20
25.645222974
 30
0.0
 10
342.3759725524
 20
25.645222974
 30
0.0
 10
342.2362217385
 20
25.645222974
 30
0.0
 10
342.0980411585
 20
25.5787497404
 30
0.0
 10
342.0286891629
 20
25.4557480878
 30
0.0
 10
342.0286891629
 20
25.4557480878
 30
0.0
 10
342.0239784613
 20
25.4557480878
 30
0.0
 10
342.0239784613
 20
25.4557480878
 30
0.0
 10
342.0239784613
 20
25.4557480878
 30
0.0
 10
342.0239784613
 20
26.5957378727
 30
0.0
 10
342.0239784613
 20
26.5957378727
 30
0.0
 10
342.0239784613
 20
26.5957378727
 30
0.0
 10
341.8025754865
 20
26.5957378727
 30
0.0
 10
341.8025754865
 20
26.5957378727
 30
0.0
  0
LWPOLYLINE
  5
255
100
AcDbEntity
  8
0
100
AcDbPolyline
 62
7
  6
CONTINUOUS
 90
2
 70
0
 43
0.2
 10
344.6248091507
 20
25.403406959
 10
344.8412397182
 20
25.403406959
  0
LWPOLYLINE
  5
256
100
AcDbEntity
  8
0
100
AcDbPolyline
 62
7
  6
CONTINUOUS
 90
2
 70
0
 43
0.2
 10
344.8412397182
 20
25.403406959
 10
344.8412397182
 20
25.6101544177
  0
LWPOLYLINE
  5
257
100
AcDbEntity
  8
0
100
AcDbPolyline
 62
7
  6
CONTINUOUS
 90
2
 70
0
 43
0.2
 10
344.8412397182
 20
25.6101544177
 10
344.6248091507
 20
25.6101544177
  0
LWPOLYLINE
  5
258
100
AcDbEntity
  8
0
100
AcDbPolyline
 62
7
  6
CONTINUOUS
 90
2
 70
0
 43
0.2
 10
344.6248091507
 20
25.6101544177
 10
344.6248091507
 20
26.0508667221
  0
LWPOLYLINE
  5
259
100
AcDbEntity
  8
0
100
AcDbPolyline
 62
7
  6
CONTINUOUS
 90
2
 70
0
 43
0.2
 10
344.6248091507
 20
26.0508667221
 10
344.4031444703
 20
26.0508667221
  0
LWPOLYLINE
  5
25A
100
AcDbEntity
  8
0
100
AcDbPolyline
 62
7
  6
CONTINUOUS
 90
2
 70
0
 43
0.2
 10
344.4031444703
 20
26.0508667221
 10
344.4031444703
 20
25.6101544177
  0
LWPOLYLINE
  5
25B
100
AcDbEntity
  8
0
100
AcDbPolyline
 62
7
  6
CONTINUOUS
 90
2
 70
0
 43
0.2
 10
344.4031444703
 20
25.6101544177
 10
344.2824981684
 20
25.6101544177
  0
LWPOLYLINE
  5
25C
100
AcDbEntity
  8
0
100
AcDbPolyline
 62
7
  6
CONTINUOUS
 90
2
 70
0
 43
0.2
 10
344.2824981684
 20
25.6101544177
 10
344.2824981684
 20
25.403406959
  0
LWPOLYLINE
  5
25D
100
AcDbEntity
  8
0
100
AcDbPolyline
 62
7
  6
CONTINUOUS
 90
2
 70
0
 43
0.2
 10
344.2824981684
 20
25.403406959
 10
344.4031444703
 20
25.403406959
  0
LWPOLYLINE
  5
25E
100
AcDbEntity
  8
0
100
AcDbPolyline
 62
7
  6
CONTINUOUS
 90
2
 70
0
 43
0.2
 10
344.4031444703
 20
25.403406959
 10
344.4031444703
 20
24.4576027618
  0
LWPOLYLINE
  5
25F
100
AcDbEntity
  8
0
100
AcDbPolyline
 62
7
  6
CONTINUOUS
 90
2
 70
0
 43
0.2
 10
344.4031444703
 20
24.4576027618
 10
344.6248091507
 20
24.4576027618
  0
LWPOLYLINE
  5
260
100
AcDbEntity
  8
0
100
AcDbPolyline
 62
7
  6
CONTINUOUS
 90
2
 70
0
 43
0.2
 10
344.6248091507
 20
24.4576027618
 10
344.6248091507
 20
25.403406959
  0
SPLINE
  5
261
100
AcDbEntity
  8
0
100
AcDbSpline
 62
7
  6
CONTINUOUS
 70
2
 71
3
 72
20
 73
16
 74
0
 42
0.0000001
 43
0.0000001
 44
0.0000000001
 40
0.0
 40
0.0
 40
0.0
 40
0.0
 40
1.0
 40
1.0
 40
1.0
 40
2.0
 40
2.0
 40
2.0
 40
3.0
 40
3.0
 40
3.0
 40
4.0
 40
4.0
 40
4.0
 40
5.0
 40
5.0
 40
5.0
 40
5.0
 10
332.4068194579
 20
34.8185292052
 30
0.0
 10
332.4068194579
 20
34.8185292052
 30
0.0
 10
334.7231761124
 20
31.988967783
 30
0.0
 10
334.7231761124
 20
31.988967783
 30
0.0
 10
334.071529059
 20
31.3367973183
 30
0.0
 10
333.294655855
 20
30.6008810475
 30
0.0
 10
332.3234662104
 20
30.6008810475
 30
0.0
 10
331.3249283259
 20
30.6008810475
 30
0.0
 10
330.3816103324
 20
31.5304594948
 30
0.0
 10
330.3816103324
 20
32.5296516433
 30
0.0
 10
330.3816103324
 20
33.5288437919
 30
0.0
 10
331.5604634055
 20
34.2354490305
 30
0.0
 10
332.2819858658
 20
34.7353068104
 30
0.0
 10
332.2819858658
 20
34.7353068104
 30
0.0
 10
332.4068194579
 20
34.8185292052
 30
0.0
 10
332.4068194579
 20
34.8185292052
 30
0.0
  0
SPLINE
  5
262
100
AcDbEntity
  8
0
100
AcDbSpline
 62
7
  6
CONTINUOUS
 70
2
 71
3
 72
23
 73
19
 74
0
 42
0.0000001
 43
0.0000001
 44
0.0000000001
 40
0.0
 40
0.0
 40
0.0
 40
0.0
 40
1.0
 40
1.0
 40
1.0
 40
2.0
 40
2.0
 40
2.0
 40
3.0
 40
3.0
 40
3.0
 40
4.0
 40
4.0
 40
4.0
 40
5.0
 40
5.0
 40
5.0
 40
6.0
 40
6.0
 40
6.0
 40
6.0
 10
332.6842274405
 20
36.4562831249
 30
0.0
 10
332.6842274405
 20
36.4562831249
 30
0.0
 10
332.3377291679
 20
36.8996124858
 30
0.0
 10
332.3377291679
 20
36.8996124858
 30
0.0
 10
332.031926123
 20
37.2877219557
 30
0.0
 10
331.7130377959
 20
37.6762239841
 30
0.0
 10
331.7130377959
 20
38.2031682982
 30
0.0
 10
331.7130377959
 20
38.8693400148
 30
0.0
 10
332.2543759204
 20
39.3130619341
 30
0.0
 10
332.8782821755
 20
39.3130619341
 30
0.0
 10
333.5720638376
 20
39.3130619341
 30
0.0
 10
334.0992698573
 20
38.9108203594
 30
0.0
 10
334.0992698573
 20
38.1758200584
 30
0.0
 10
334.0992698573
 20
37.4125555479
 30
0.0
 10
333.3780091026
 20
36.9824423221
 30
0.0
 10
332.8509339357
 20
36.5667229067
 30
0.0
 10
332.8509339357
 20
36.5667229067
 30
0.0
 10
332.6842274405
 20
36.4562831249
 30
0.0
 10
332.6842274405
 20
36.4562831249
 30
0.0
  0
SPLINE
  5
263
100
AcDbEntity
  8
0
100
AcDbSpline
 62
7
  6
CONTINUOUS
 70
2
 71
3
 72
50
 73
46
 74
0
 42
0.0000001
 43
0.0000001
 44
0.0000000001
 40
0.0
 40
0.0
 40
0.0
 40
0.0
 40
1.0
 40
1.0
 40
1.0
 40
2.0
 40
2.0
 40
2.0
 40
3.0
 40
3.0
 40
3.0
 40
4.0
 40
4.0
 40
4.0
 40
5.0
 40
5.0
 40
5.0
 40
6.0
 40
6.0
 40
6.0
 40
7.0
 40
7.0
 40
7.0
 40
8.0
 40
8.0
 40
8.0
 40
9.0
 40
9.0
 40
9.0
 40
10.0
 40
10.0
 40
10.0
 40
11.0
 40
11.0
 40
11.0
 40
12.0
 40
12.0
 40
12.0
 40
13.0
 40
13.0
 40
13.0
 40
14.0
 40
14.0
 40
14.0
 40
15.0
 40
15.0
 40
15.0
 40
15.0
 10
336.6378146034
 20
29.6576939068
 30
0.0
 10
336.6378146034
 20
29.6576939068
 30
0.0
 10
338.247042608
 20
29.6576939068
 30
0.0
 10
338.247042608
 20
29.6576939068
 30
0.0
 10
338.247042608
 20
29.6576939068
 30
0.0
 10
336.3740153144
 20
31.9748356782
 30
0.0
 10
336.3740153144
 20
31.9748356782
 30
0.0
 10
336.3740153144
 20
31.9748356782
 30
0.0
 10
337.6503537398
 20
33.4723153728
 30
0.0
 10
337.6503537398
 20
33.4723153728
 30
0.0
 10
337.6503537398
 20
33.4723153728
 30
0.0
 10
336.8181297921
 20
34.3333269413
 30
0.0
 10
336.8181297921
 20
34.3333269413
 30
0.0
 10
336.8181297921
 20
34.3333269413
 30
0.0
 10
335.5975346688
 20
32.9180228189
 30
0.0
 10
335.5975346688
 20
32.9180228189
 30
0.0
 10
335.5975346688
 20
32.9180228189
 30
0.0
 10
333.4196203
 20
35.5533986534
 30
0.0
 10
333.4196203
 20
35.5533986534
 30
0.0
 10
334.2931937394
 20
36.1914370133
 30
0.0
 10
335.3198649806
 20
36.9824423221
 30
0.0
 10
335.3198649806
 20
38.1612953952
 30
0.0
 10
335.3198649806
 20
39.5349883202
 30
0.0
 10
334.1819688408
 20
40.3394714696
 30
0.0
 10
332.9066772379
 20
40.3394714696
 30
0.0
 10
331.5332460185
 20
40.3394714696
 30
0.0
 10
330.4923118197
 20
39.49324627
 30
0.0
 10
330.4923118197
 20
38.0505939078
 30
0.0
 10
330.4923118197
 20
37.1630192164
 30
0.0
 10
331.0476511962
 20
36.3861460124
 30
0.0
 10
331.6438166531
 20
35.7617163459
 30
0.0
 10
331.6438166531
 20
35.7617163459
 30
0.0
 10
330.991907894
 20
35.2901227756
 30
0.0
 10
330.991907894
 20
35.2901227756
 30
0.0
 10
329.9933700096
 20
34.5688620209
 30
0.0
 10
329.1604917978
 20
33.8476012662
 30
0.0
 10
329.1604917978
 20
32.5160429498
 30
0.0
 10
329.1604917978
 20
30.7123676518
 30
0.0
 10
330.6175379704
 20
29.4357675207
 30
0.0
 10
332.3650774077
 20
29.4357675207
 30
0.0
 10
333.5999354886
 20
29.4357675207
 30
0.0
 10
334.7093057133
 20
30.1439429932
 30
0.0
 10
335.5001801693
 20
31.0724746179
 30
0.0
 10
335.5001801693
 20
31.0724746179
 30
0.0
 10
336.6378146034
 20
29.6576939068
 30
0.0
 10
336.6378146034
 20
29.6576939068
 30
0.0
  0
LINE
  5
264
100
AcDbEntity
  8
0
100
AcDbLine
 62
7
  6
CONTINUOUS
 10
322.4406759784
 20
27.6315688114
 11
344.8545867061
 21
27.6315688114
  0
LINE
  5
265
100
AcDbEntity
  8
0
100
AcDbLine
 62
7
  6
CONTINUOUS
 10
344.8545867061
 20
27.6315688114
 11
344.8545867061
 21
50.0454795391
  0
LINE
  5
266
100
AcDbEntity
  8
0
100
AcDbLine
 62
7
  6
CONTINUOUS
 10
344.8545867061
 20
50.0454795391
 11
322.4406759784
 21
50.0454795391
  0
LINE
  5
267
100
AcDbEntity
  8
0
100
AcDbLine
 62
7
  6
CONTINUOUS
 10
322.4406759784
 20
50.0454795391
 11
322.4406759784
 21
27.6315688114
  0
ENDBLK
  5
268
100
AcDbEntity
  8
0
  6
BYBLOCK
 62
0
100
AcDbBlockEnd
  0
BLOCK
  5
269
100
AcDbEntity
  8
0
100
AcDbBlockBegin
  2
_CLOSED
 70
64
 10
0.0
 20
0.0
  3
_CLOSED
  1

  0
LINE
  5
26A
100
AcDbEntity
  8
0
  6
BYBLOCK
 62
0
100
AcDbLine
 10
0.0
 20
0.0
 11
-1.0
 21
0.2
  0
LINE
  5
26B
100
AcDbEntity
  8
0
  6
BYBLOCK
 62
0
100
AcDbLine
 10
-1.0
 20
0.2
 11
-1.0
 21
-0.2
  0
LINE
  5
26C
100
AcDbEntity
  8
0
  6
BYBLOCK
 62
0
100
AcDbLine
 10
-1.0
 20
-0.2
 11
0.0
 21
0.0
  0
LINE
  5
26D
100
AcDbEntity
  8
0
  6
BYBLOCK
 62
0
100
AcDbLine
 10
-1.0
 20
0.0
 11
0.0
 21
0.0
  0
ENDBLK
  5
26E
100
AcDbEntity
  8
0
  6
BYBLOCK
 62
0
100
AcDbBlockEnd
  0
BLOCK
  5
26F
100
AcDbEntity
  8
0
100
AcDbBlockBegin
 62
2
  6
CONTINUOUS
  2
*D0
 70
65
 10
0.0
 20
0.0
  3
*D0
  1

  0
MTEXT
  5
270
100
AcDbEntity
  8
0
100
AcDbMText
 62
2
  6
CONTINUOUS
  7
TEXTSTYLE_2
 71
2
 72
1
 10
259.451437865
 20
277.4141764801
 30
0.0
 11
1.0
 21
0.0
 31
0.0
  1
{\Fgdt;n}\Farial.ttf;79,5
 40
3.0
 41
12.1524163569
  0
LINE
  5
271
100
AcDbEntity
  8
0
100
AcDbLine
 62
2
  6
CONTINUOUS
 10
219.701437865
 20
267.7139763938
 11
219.701437865
 21
274.4141764801
  0
LINE
  5
272
100
AcDbEntity
  8
0
100
AcDbLine
 62
2
  6
CONTINUOUS
 10
299.201437865
 20
267.4432247501
 11
299.201437865
 21
274.4141764801
  0
LINE
  5
273
100
AcDbEntity
  8
0
100
AcDbLine
 62
2
  6
CONTINUOUS
 10
219.701437865
 20
273.6641764801
 11
259.451437865
 21
273.6641764801
  0
LINE
  5
274
100
AcDbEntity
  8
0
100
AcDbLine
 62
2
  6
CONTINUOUS
 10
299.201437865
 20
273.6641764801
 11
259.451437865
 21
273.6641764801
  0
INSERT
  5
275
100
AcDbEntity
  8
0
100
AcDbBlockReference
 62
2
  6
CONTINUOUS
  2
_CLOSED
 10
219.701437865
 20
273.6641764801
 41
2.5
 42
2.5
 43
2.5
 50
180.0
  0
INSERT
  5
276
100
AcDbEntity
  8
0
100
AcDbBlockReference
 62
2
  6
CONTINUOUS
  2
_CLOSED
 10
299.201437865
 20
273.6641764801
 41
2.5
 42
2.5
 43
2.5
  0
ENDBLK
  5
277
100
AcDbEntity
  8
0
  6
BYBLOCK
 62
0
100
AcDbBlockEnd
  0
BLOCK
  5
278
100
AcDbEntity
  8
0
100
AcDbBlockBegin
 62
2
  6
CONTINUOUS
  2
*D1
 70
65
 10
0.0
 20
0.0
  3
*D1
  1

  0
MTEXT
  5
279
100
AcDbEntity
  8
0
100
AcDbMText
 62
2
  6
CONTINUOUS
  7
TEXTSTYLE_2
 71
2
 72
1
 10
259.451437865
 20
188.3108069062
 30
0.0
 11
1.0
 21
0.0
 31
0.0
  1
{\Fgdt;n}\Farial.ttf;68
 40
3.0
 41
8.6617100372
  0
LINE
  5
27A
100
AcDbEntity
  8
0
100
AcDbLine
 62
2
  6
CONTINUOUS
 10
225.451437865
 20
198.5430832169
 11
225.451437865
 21
183.8108069062
  0
LINE
  5
27B
100
AcDbEntity
  8
0
100
AcDbLine
 62
2
  6
CONTINUOUS
 10
293.451437865
 20
199.8968414353
 11
293.451437865
 21
183.8108069062
  0
LINE
  5
27C
100
AcDbEntity
  8
0
100
AcDbLine
 62
2
  6
CONTINUOUS
 10
225.451437865
 20
184.5608069062
 11
259.451437865
 21
184.5608069062
  0
LINE
  5
27D
100
AcDbEntity
  8
0
100
AcDbLine
 62
2
  6
CONTINUOUS
 10
293.451437865
 20
184.5608069062
 11
259.451437865
 21
184.5608069062
  0
INSERT
  5
27E
100
AcDbEntity
  8
0
100
AcDbBlockReference
 62
2
  6
CONTINUOUS
  2
_CLOSED
 10
225.451437865
 20
184.5608069062
 41
2.5
 42
2.5
 43
2.5
 50
180.0
  0
INSERT
  5
27F
100
AcDbEntity
  8
0
100
AcDbBlockReference
 62
2
  6
CONTINUOUS
  2
_CLOSED
 10
293.451437865
 20
184.5608069062
 41
2.5
 42
2.5
 43
2.5
  0
ENDBLK
  5
280
100
AcDbEntity
  8
0
  6
BYBLOCK
 62
0
100
AcDbBlockEnd
  0
BLOCK
  5
281
100
AcDbEntity
  8
0
100
AcDbBlockBegin
 62
2
  6
CONTINUOUS
  2
*D2
 70
65
 10
0.0
 20
0.0
  3
*D2
  1

  0
MTEXT
  5
282
100
AcDbEntity
  8
0
100
AcDbMText
 62
2
  6
CONTINUOUS
  7
STANDARD
 71
2
 72
1
 10
40.5273606528
 20
236.8929203327
 30
0.0
 11
0.0
 21
1.0
 31
0.0
  1
47,5
 40
3.0
 41
8.1524163569
  0
LINE
  5
283
100
AcDbEntity
  8
0
100
AcDbLine
 62
2
  6
CONTINUOUS
 10
52.0783075691
 20
260.6429203327
 11
43.5273606528
 21
260.6429203327
  0
LINE
  5
284
100
AcDbEntity
  8
0
100
AcDbLine
 62
2
  6
CONTINUOUS
 10
51.6412476662
 20
213.1429203327
 11
43.5273606528
 21
213.1429203327
  0
LINE
  5
285
100
AcDbEntity
  8
0
100
AcDbLine
 62
2
  6
CONTINUOUS
 10
44.2773606528
 20
260.6429203327
 11
44.2773606528
 21
236.8929203327
  0
LINE
  5
286
100
AcDbEntity
  8
0
100
AcDbLine
 62
2
  6
CONTINUOUS
 10
44.2773606528
 20
213.1429203327
 11
44.2773606528
 21
236.8929203327
  0
INSERT
  5
287
100
AcDbEntity
  8
0
100
AcDbBlockReference
 62
2
  6
CONTINUOUS
  2
_CLOSED
 10
44.2773606528
 20
260.6429203327
 41
2.5
 42
2.5
 43
2.5
 50
90.0
  0
INSERT
  5
288
100
AcDbEntity
  8
0
100
AcDbBlockReference
 62
2
  6
CONTINUOUS
  2
_CLOSED
 10
44.2773606528
 20
213.1429203327
 41
2.5
 42
2.5
 43
2.5
 50
270.0
  0
ENDBLK
  5
289
100
AcDbEntity
  8
0
  6
BYBLOCK
 62
0
100
AcDbBlockEnd
  0
BLOCK
  5
28A
100
AcDbEntity
  8
0
100
AcDbBlockBegin
 62
2
  6
CONTINUOUS
  2
*D3
 70
65
 10
0.0
 20
0.0
  3
*D3
  1

  0
MTEXT
  5
28B
100
AcDbEntity
  8
0
100
AcDbMText
 62
2
  6
CONTINUOUS
  7
STANDARD
 71
2
 72
1
 10
31.1980405291
 20
226.3929203327
 30
0.0
 11
0.0
 21
1.0
 31
0.0
  1
68,5
 40
3.0
 41
8.1524163569
  0
LINE
  5
28C
100
AcDbEntity
  8
0
100
AcDbLine
 62
2
  6
CONTINUOUS
 10
46.2903732065
 20
260.6429203327
 11
34.1980405291
 21
260.6429203327
  0
LINE
  5
28D
100
AcDbEntity
  8
0
100
AcDbLine
 62
2
  6
CONTINUOUS
 10
72.4321313009
 20
192.1429203327
 11
34.1980405291
 21
192.1429203327
  0
LINE
  5
28E
100
AcDbEntity
  8
0
100
AcDbLine
 62
2
  6
CONTINUOUS
 10
34.9480405291
 20
260.6429203327
 11
34.9480405291
 21
226.3929203327
  0
LINE
  5
28F
100
AcDbEntity
  8
0
100
AcDbLine
 62
2
  6
CONTINUOUS
 10
34.9480405291
 20
192.1429203327
 11
34.9480405291
 21
226.3929203327
  0
INSERT
  5
290
100
AcDbEntity
  8
0
100
AcDbBlockReference
 62
2
  6
CONTINUOUS
  2
_CLOSED
 10
34.9480405291
 20
260.6429203327
 41
2.5
 42
2.5
 43
2.5
 50
90.0
  0
INSERT
  5
291
100
AcDbEntity
  8
0
100
AcDbBlockReference
 62
2
  6
CONTINUOUS
  2
_CLOSED
 10
34.9480405291
 20
192.1429203327
 41
2.5
 42
2.5
 43
2.5
 50
270.0
  0
ENDBLK
  5
292
100
AcDbEntity
  8
0
  6
BYBLOCK
 62
0
100
AcDbBlockEnd
  0
ENDSEC
  0
SECTION
  2
ENTITIES
  0
DIMENSION
  5
293
100
AcDbEntity
  8
0
100
AcDbDimension
 62
2
  6
CONTINUOUS
  2
*D0
 10
299.201437865
 20
273.6641764801
 11
259.451437865
 21
273.6641764801
 70
160
  1
%%c<>
  3
DIMSTYLE_1
100
AcDbAlignedDimension
 13
219.701437865
 23
266.9639763938
 14
299.201437865
 24
266.6932247501
100
AcDbRotatedDimension
  0
DIMENSION
  5
294
100
AcDbEntity
  8
0
100
AcDbDimension
 62
2
  6
CONTINUOUS
  2
*D1
 10
293.451437865
 20
184.5608069062
 11
259.451437865
 21
184.5608069062
 70
160
  1
%%c<>
  3
DIMSTYLE_1
100
AcDbAlignedDimension
 13
225.451437865
 23
199.2930832169
 14
293.451437865
 24
200.6468414353
100
AcDbRotatedDimension
  0
DIMENSION
  5
295
100
AcDbEntity
  8
0
100
AcDbDimension
 62
2
  6
CONTINUOUS
  2
*D2
 10
44.2773606528
 20
213.1429203327
 11
44.2773606528
 21
236.8276865387
 70
160
  3
DIMSTYLE_1
100
AcDbAlignedDimension
 13
52.8283075691
 23
260.6429203327
 14
52.3912476662
 24
213.1429203327
 50
270.0
100
AcDbRotatedDimension
  0
DIMENSION
  5
296
100
AcDbEntity
  8
0
100
AcDbDimension
 62
2
  6
CONTINUOUS
  2
*D3
 10
34.9480405291
 20
192.1429203327
 11
34.9480405291
 21
226.3834475499
 70
160
  3
DIMSTYLE_1
100
AcDbAlignedDimension
 13
47.0403732065
 23
260.6429203327
 14
73.1821313009
 24
192.1429203327
 50
270.0
100
AcDbRotatedDimension
  0
LINE
  5
297
100
AcDbEntity
  8
0
100
AcDbLine
 62
2
  6
CONTINUOUS
 10
319.8215188711
 20
50.4217920391
 11
409.8215188711
 21
50.4217920391
  0
LINE
  5
298
100
AcDbEntity
  8
0
100
AcDbLine
 62
2
  6
CONTINUOUS
 10
319.8215188711
 20
50.4217920391
 11
319.8215188711
 21
10.4217920391
  0
LINE
  5
299
100
AcDbEntity
  8
0
100
AcDbLine
 62
2
  6
CONTINUOUS
 10
349.8215188711
 20
44.4217920391
 11
409.8215188711
 21
44.4217920391
  0
LINE
  5
29A
100
AcDbEntity
  8
0
100
AcDbLine
 62
2
  6
CONTINUOUS
 10
349.8215188711
 20
38.4217920391
 11
409.8215188711
 21
38.4217920391
  0
LINE
  5
29B
100
AcDbEntity
  8
0
100
AcDbLine
 62
2
  6
CONTINUOUS
 10
349.8215188711
 20
28.4217920391
 11
409.8215188711
 21
28.4217920391
  0
LINE
  5
29C
100
AcDbEntity
  8
0
100
AcDbLine
 62
2
  6
CONTINUOUS
 10
319.8215188711
 20
23.4217920391
 11
409.8215188711
 21
23.4217920391
  0
LINE
  5
29D
100
AcDbEntity
  8
0
100
AcDbLine
 62
2
  6
CONTINUOUS
 10
319.8215188711
 20
10.4217920391
 11
409.8215188711
 21
10.4217920391
  0
LINE
  5
29E
100
AcDbEntity
  8
0
100
AcDbLine
 62
2
  6
CONTINUOUS
 10
349.8215188711
 20
50.4217920391
 11
349.8215188711
 21
23.4217920391
  0
LINE
  5
29F
100
AcDbEntity
  8
0
100
AcDbLine
 62
2
  6
CONTINUOUS
 10
389.8215188711
 20
50.4217920391
 11
389.8215188711
 21
38.4217920391
  0
LINE
  5
2A0
100
AcDbEntity
  8
0
100
AcDbLine
 62
2
  6
CONTINUOUS
 10
409.8215188711
 20
50.4217920391
 11
409.8215188711
 21
10.4217920391
  0
INSERT
  5
2A1
100
AcDbEntity
  8
0
100
AcDbBlockReference
 62
2
  6
CONTINUOUS
  2
LOGO2_BL0
 10
333.6475659158
 20
36.9217920391
  0
MTEXT
  5
2A2
100
AcDbEntity
  8
9_SOLID
100
AcDbMText
 62
2
  6
CONTINUOUS
  7
TEXTSTYLE_3
 71
1
 72
1
 10
351.3090188711
 20
48.9217920391
 30
0.0
 11
1.0
 21
0.0
 31
0.0
  1
CWD_C_010
 40
3.0
 41
35.25
  0
MTEXT
  5
2A3
100
AcDbEntity
  8
0
100
AcDbMText
 62
2
  6
CONTINUOUS
  7
TEXTSTYLE_3
 71
1
 72
1
 10
391.3090188711
 20
49.1717920391
 30
0.0
 11
1.0
 21
0.0
 31
0.0
  1
Rev:00
 40
3.5
 41
22.75
  0
MTEXT
  5
2A4
100
AcDbEntity
  8
9_SOLID
100
AcDbMText
 62
2
  6
CONTINUOUS
  7
TEXTSTYLE_3
 71
1
 72
1
 10
351.3090188711
 20
42.6717920391
 30
0.0
 11
1.0
 21
0.0
 31
0.0
  1
Scale:1:1
 40
3.5
 41
28.375
  0
MTEXT
  5
2A5
100
AcDbEntity
  8
9_SOLID
100
AcDbMText
 62
2
  6
CONTINUOUS
  7
TEXTSTYLE_3
 71
1
 72
1
 10
391.3090188711
 20
43.1717920391
 30
0.0
 11
1.0
 21
0.0
 31
0.0
  1
A3
 40
3.5
 41
9.25
  0
MTEXT
  5
2A6
100
AcDbEntity
  8
0
100
AcDbMText
 62
2
  6
CONTINUOUS
  7
TEXTSTYLE_3
 71
1
 72
1
 10
351.3090188711
 20
35.1717920391
 30
0.0
 11
1.0
 21
0.0
 31
0.0
  1
BRIGHT 3 316L
 40
3.5
 41
51.625
  0
MTEXT
  5
2A7
100
AcDbEntity
  8
0
100
AcDbMText
 62
2
  6
CONTINUOUS
  7
TEXTSTYLE_3
 71
1
 72
1
 10
351.3090188711
 20
27.1717920391
 30
0.0
 11
1.0
 21
0.0
 31
0.0
  1
DATE:11/07/2018
 40
2.5
 41
41.4285714286
  0
MTEXT
  5
2A8
100
AcDbEntity
  8
9_SOLID
100
AcDbMText
 62
2
  6
CONTINUOUS
  7
TEXTSTYLE_3
 71
1
 72
1
 10
321.3090188711
 20
23.1092920391
 30
0.0
 11
1.0
 21
0.0
 31
0.0
  1
Any integral or partial reproductions are prohibited \Pwithout prior authorisation of L {\Ftxt.shx;\W0.190476;\H2.250000; }& L Luce & Light s.r.l., \Pin accordance with the law in force. \PAll rights reserved.
 40
2.25
 41
134.5982142857
  0
LINE
  5
2A9
100
AcDbEntity
  8
0
100
AcDbLine
 62
7
  6
CONTINUOUS
 10
0.0
 20
0.0
 11
0.0
 21
297.0
  0
LINE
  5
2AA
100
AcDbEntity
  8
0
100
AcDbLine
 62
7
  6
CONTINUOUS
 10
0.0
 20
0.0
 11
420.0
 21
0.0
  0
LINE
  5
2AB
100
AcDbEntity
  8
0
100
AcDbLine
 62
7
  6
CONTINUOUS
 10
0.0
 20
297.0
 11
420.0
 21
297.0
  0
LINE
  5
2AC
100
AcDbEntity
  8
0
100
AcDbLine
 62
7
  6
CONTINUOUS
 10
420.0
 20
0.0
 11
420.0
 21
297.0
  0
LINE
  5
2AD
100
AcDbEntity
  8
3_ALL_AXES
100
AcDbLine
 62
7
  6
CONTINUOUS
 10
59.4235979087
 20
258.8414270829
 11
59.4235979087
 21
258.7429203327
  0
LINE
  5
2AE
100
AcDbEntity
  8
7_ALL_FEATURES
100
AcDbLine
 62
7
  6
CONTINUOUS
 10
59.5022921576
 20
258.7429203327
 11
59.5022921576
 21
256.6429203327
  0
LINE
  5
2AF
100
AcDbEntity
  8
3_ALL_AXES
100
AcDbLine
 62
7
  6
CONTINUOUS
 10
65.1735979087
 20
256.6429203327
 11
65.1735979087
 21
249.1429203327
  0
LINE
  5
2B0
100
AcDbEntity
  8
3_ALL_AXES
100
AcDbLine
 62
7
  6
CONTINUOUS
 10
65.1735979087
 20
245.6429203327
 11
65.1735979087
 21
239.0429203327
  0
LINE
  5
2B1
100
AcDbEntity
  8
3_ALL_AXES
100
AcDbLine
 62
7
  6
CONTINUOUS
 10
65.1735979087
 20
235.5429203327
 11
65.1735979087
 21
229.0429203327
  0
LINE
  5
2B2
100
AcDbEntity
  8
3_ALL_AXES
100
AcDbLine
 62
7
  6
CONTINUOUS
 10
65.1735979087
 20
225.5429203327
 11
65.1735979087
 21
213.6429203327
  0
LINE
  5
2B3
100
AcDbEntity
  8
7_ALL_FEATURES
100
AcDbLine
 62
7
  6
CONTINUOUS
 10
66.7735979087
 20
245.6429203327
 11
66.7735979087
 21
246.0966644238
  0
LINE
  5
2B4
100
AcDbEntity
  8
7_ALL_FEATURES
100
AcDbLine
 62
7
  6
CONTINUOUS
 10
66.7735979087
 20
248.6291762416
 11
66.7735979087
 21
249.1429203327
  0
LINE
  5
2B5
100
AcDbEntity
  8
7_ALL_FEATURES
100
AcDbLine
 62
7
  6
CONTINUOUS
 10
66.9235979087
 20
239.0429203327
 11
66.9235979087
 21
238.6629073351
  0
LINE
  5
2B6
100
AcDbEntity
  8
7_ALL_FEATURES
100
AcDbLine
 62
7
  6
CONTINUOUS
 10
66.9235979087
 20
236.0629333303
 11
66.9235979087
 21
235.5429203327
  0
LINE
  5
2B7
100
AcDbEntity
  8
7_ALL_FEATURES
100
AcDbLine
 62
7
  6
CONTINUOUS
 10
67.0235979087
 20
225.5429203327
 11
67.0235979087
 21
226.0529203327
  0
LINE
  5
2B8
100
AcDbEntity
  8
7_ALL_FEATURES
100
AcDbLine
 62
7
  6
CONTINUOUS
 10
67.0235979087
 20
228.6729203327
 11
67.0235979087
 21
229.0429203327
  0
LINE
  5
2B9
100
AcDbEntity
  8
7_ALL_FEATURES
100
AcDbLine
 62
7
  6
CONTINUOUS
 10
92.7735979087
 20
192.1429203327
 11
105.5735979087
 21
192.1429203327
  0
LINE
  5
2BA
100
AcDbEntity
  8
7_ALL_FEATURES
100
AcDbLine
 62
9
  6
CONTINUOUS
 10
107.5735979087
 20
194.1429203327
 11
90.7735979087
 21
194.1429203327
  0
LINE
  5
2BB
100
AcDbEntity
  8
7_ALL_FEATURES
100
AcDbLine
 62
7
  6
CONTINUOUS
 10
65.6735979087
 20
213.1429203327
 11
65.1735979087
 21
213.6429203327
  0
LINE
  5
2BC
100
AcDbEntity
  8
02___PRT_ALL_AXES
100
AcDbLine
 62
7
  6
CONTINUOUS
 10
90.7735979087
 20
196.6429203327
 11
107.5735979087
 21
196.6429203327
  0
LINE
  5
2BD
100
AcDbEntity
  8
7_ALL_FEATURES
100
AcDbLine
 62
7
  6
CONTINUOUS
 10
90.6735979087
 20
197.2491381153
 11
91.3473743419
 21
197.2491381153
  0
LINE
  5
2BE
100
AcDbEntity
  8
7_ALL_FEATURES
100
AcDbLine
 62
7
  6
CONTINUOUS
 10
98.4998214756
 20
197.2491381153
 11
99.8473743419
 21
197.2491381153
  0
LINE
  5
2BF
100
AcDbEntity
  8
7_ALL_FEATURES
100
AcDbLine
 62
7
  6
CONTINUOUS
 10
106.9998214756
 20
197.2491381153
 11
107.6735979087
 21
197.2491381153
  0
LINE
  5
2C0
100
AcDbEntity
  8
02___PRT_ALL_AXES
100
AcDbLine
 62
7
  6
CONTINUOUS
 10
90.7735979087
 20
196.6429203327
 11
90.6735979087
 21
196.7006553596
  0
LINE
  5
2C1
100
AcDbEntity
  8
7_ALL_FEATURES
100
AcDbLine
 62
7
  6
CONTINUOUS
 10
90.6735979087
 20
201.2367025501
 11
91.3473743419
 21
201.2367025501
  0
LINE
  5
2C2
100
AcDbEntity
  8
7_ALL_FEATURES
100
AcDbLine
 62
7
  6
CONTINUOUS
 10
98.4998214756
 20
201.2367025501
 11
99.8473743419
 21
201.2367025501
  0
LINE
  5
2C3
100
AcDbEntity
  8
7_ALL_FEATURES
100
AcDbLine
 62
7
  6
CONTINUOUS
 10
106.9998214756
 20
201.2367025501
 11
107.6735979087
 21
201.2367025501
  0
LINE
  5
2C4
100
AcDbEntity
  8
02___PRT_ALL_AXES
100
AcDbLine
 62
7
  6
CONTINUOUS
 10
90.7735979087
 20
201.8429203327
 11
107.5735979087
 21
201.8429203327
  0
LINE
  5
2C5
100
AcDbEntity
  8
02___PRT_ALL_AXES
100
AcDbLine
 62
7
  6
CONTINUOUS
 10
90.7735979087
 20
204.6429203327
 11
107.5735979087
 21
204.6429203327
  0
LINE
  5
2C6
100
AcDbEntity
  8
02___PRT_ALL_AXES
100
AcDbLine
 62
7
  6
CONTINUOUS
 10
107.6735979087
 20
201.7851853058
 11
107.5735979087
 21
201.8429203327
  0
LINE
  5
2C7
100
AcDbEntity
  8
7_ALL_FEATURES
100
AcDbLine
 62
7
  6
CONTINUOUS
 10
90.6735979087
 20
209.6429203327
 11
107.6735979087
 21
209.6429203327
  0
LINE
  5
2C8
100
AcDbEntity
  8
02___PRT_ALL_AXES
100
AcDbLine
 62
7
  6
CONTINUOUS
 10
99.8473743419
 20
210.0095639791
 11
98.4998214756
 21
210.0095639791
  0
LINE
  5
2C9
100
AcDbEntity
  8
02___PRT_ALL_AXES
100
AcDbLine
 62
7
  6
CONTINUOUS
 10
90.6735979087
 20
210.0095639791
 11
91.3473743419
 21
210.0095639791
  0
LINE
  5
2CA
100
AcDbEntity
  8
02___PRT_ALL_AXES
100
AcDbLine
 62
7
  6
CONTINUOUS
 10
106.9998214756
 20
210.0095639791
 11
107.6735979087
 21
210.0095639791
  0
LINE
  5
2CB
100
AcDbEntity
  8
7_ALL_FEATURES
100
AcDbLine
 62
7
  6
CONTINUOUS
 10
65.6738708441
 20
213.1429203327
 11
132.6733249734
 21
213.1429203327
  0
LINE
  5
2CC
100
AcDbEntity
  8
7_ALL_FEATURES
100
AcDbLine
 62
7
  6
CONTINUOUS
 10
65.1735979087
 20
213.6429203327
 11
133.1735979087
 21
213.6429203327
  0
LINE
  5
2CD
100
AcDbEntity
  8
7_ALL_FEATURES
100
AcDbLine
 62
7
  6
CONTINUOUS
 10
90.6735979087
 20
196.7006553604
 11
90.6735979087
 21
201.785185305
  0
LINE
  5
2CE
100
AcDbEntity
  8
02___PRT_ALL_AXES
100
AcDbLine
 62
7
  6
CONTINUOUS
 10
90.6735979087
 20
209.6429203327
 11
90.6735979087
 21
213.1429203327
  0
LINE
  5
2CF
100
AcDbEntity
  8
02___PRT_ALL_AXES
100
AcDbLine
 62
7
  6
CONTINUOUS
 10
90.7735979087
 20
194.1429203327
 11
90.7735979087
 21
196.6429203327
  0
LINE
  5
2D0
100
AcDbEntity
  8
02___PRT_ALL_AXES
100
AcDbLine
 62
7
  6
CONTINUOUS
 10
90.7735979087
 20
201.8429203327
 11
90.7735979087
 21
204.6429203327
  0
LINE
  5
2D1
100
AcDbEntity
  8
7_ALL_FEATURES
100
AcDbLine
 62
7
  6
CONTINUOUS
 10
91.3473743419
 20
197.2491381153
 11
91.3473743419
 21
201.2367025501
  0
LINE
  5
2D2
100
AcDbEntity
  8
02___PRT_ALL_AXES
100
AcDbLine
 62
7
  6
CONTINUOUS
 10
91.3473743419
 20
210.0095639791
 11
91.3473743419
 21
213.1429203327
  0
LINE
  5
2D3
100
AcDbEntity
  8
02___PRT_ALL_AXES
100
AcDbLine
 62
7
  6
CONTINUOUS
 10
91.5735979087
 20
209.6429203327
 11
91.5735979087
 21
204.6429203327
  0
LINE
  5
2D4
100
AcDbEntity
  8
7_ALL_FEATURES
100
AcDbLine
 62
7
  6
CONTINUOUS
 10
98.4998214756
 20
197.2491381153
 11
98.4998214756
 21
201.2367025501
  0
LINE
  5
2D5
100
AcDbEntity
  8
02___PRT_ALL_AXES
100
AcDbLine
 62
7
  6
CONTINUOUS
 10
98.4998214756
 20
210.0095639791
 11
98.4998214756
 21
213.1429203327
  0
LINE
  5
2D6
100
AcDbEntity
  8
7_ALL_FEATURES
100
AcDbLine
 62
7
  6
CONTINUOUS
 10
133.1733209576
 20
225.5429203327
 11
65.1738748599
 21
225.5429203327
  0
LINE
  5
2D7
100
AcDbEntity
  8
7_ALL_FEATURES
100
AcDbLine
 62
7
  6
CONTINUOUS
 10
99.8473743419
 20
197.2491381153
 11
99.8473743419
 21
201.2367025501
  0
LINE
  5
2D8
100
AcDbEntity
  8
02___PRT_ALL_AXES
100
AcDbLine
 62
7
  6
CONTINUOUS
 10
99.8473743419
 20
210.0095639791
 11
99.8473743419
 21
213.1429203327
  0
LINE
  5
2D9
100
AcDbEntity
  8
7_ALL_FEATURES
100
AcDbLine
 62
7
  6
CONTINUOUS
 10
133.1733209576
 20
229.0429203327
 11
65.1738748599
 21
229.0429203327
  0
LINE
  5
2DA
100
AcDbEntity
  8
02___PRT_ALL_AXES
100
AcDbLine
 62
7
  6
CONTINUOUS
 10
106.7735979087
 20
209.6429203327
 11
106.7735979087
 21
204.6429203327
  0
LINE
  5
2DB
100
AcDbEntity
  8
7_ALL_FEATURES
100
AcDbLine
 62
7
  6
CONTINUOUS
 10
106.9998214756
 20
197.2491381153
 11
106.9998214756
 21
201.2367025501
  0
LINE
  5
2DC
100
AcDbEntity
  8
02___PRT_ALL_AXES
100
AcDbLine
 62
7
  6
CONTINUOUS
 10
106.9998214756
 20
210.0095639791
 11
106.9998214756
 21
213.1429203327
  0
LINE
  5
2DD
100
AcDbEntity
  8
02___PRT_ALL_AXES
100
AcDbLine
 62
7
  6
CONTINUOUS
 10
107.5735979087
 20
194.1429203327
 11
107.5735979087
 21
196.6429203327
  0
LINE
  5
2DE
100
AcDbEntity
  8
02___PRT_ALL_AXES
100
AcDbLine
 62
7
  6
CONTINUOUS
 10
107.5735979087
 20
201.8429203327
 11
107.5735979087
 21
204.6429203327
  0
LINE
  5
2DF
100
AcDbEntity
  8
7_ALL_FEATURES
100
AcDbLine
 62
7
  6
CONTINUOUS
 10
107.6735979087
 20
196.7006553604
 11
107.6735979087
 21
201.785185305
  0
LINE
  5
2E0
100
AcDbEntity
  8
02___PRT_ALL_AXES
100
AcDbLine
 62
7
  6
CONTINUOUS
 10
107.6735979087
 20
209.6429203327
 11
107.6735979087
 21
213.1429203327
  0
LINE
  5
2E1
100
AcDbEntity
  8
7_ALL_FEATURES
100
AcDbLine
 62
7
  6
CONTINUOUS
 10
133.1733209576
 20
235.5429203327
 11
65.1738748599
 21
235.5429203327
  0
LINE
  5
2E2
100
AcDbEntity
  8
7_ALL_FEATURES
100
AcDbLine
 62
7
  6
CONTINUOUS
 10
133.1733209576
 20
239.0429203327
 11
65.1738748599
 21
239.0429203327
  0
LINE
  5
2E3
100
AcDbEntity
  8
02___PRT_ALL_AXES
100
AcDbLine
 62
7
  6
CONTINUOUS
 10
90.6735979087
 20
201.7851853058
 11
90.7735979087
 21
201.8429203327
  0
LINE
  5
2E4
100
AcDbEntity
  8
7_ALL_FEATURES
100
AcDbLine
 62
7
  6
CONTINUOUS
 10
133.1733209576
 20
245.6429203327
 11
65.1738748599
 21
245.6429203327
  0
LINE
  5
2E5
100
AcDbEntity
  8
7_ALL_FEATURES
100
AcDbLine
 62
7
  6
CONTINUOUS
 10
133.1733209576
 20
249.1429203327
 11
65.1738748599
 21
249.1429203327
  0
LINE
  5
2E6
100
AcDbEntity
  8
3_ALL_AXES
100
AcDbLine
 62
7
  6
CONTINUOUS
 10
65.1735979087
 20
253.1429203327
 11
133.1735979087
 21
253.1429203327
  0
LINE
  5
2E7
100
AcDbEntity
  8
02___PRT_ALL_AXES
100
AcDbLine
 62
7
  6
CONTINUOUS
 10
107.5735979087
 20
196.6429203327
 11
107.6735979087
 21
196.7006553596
  0
LINE
  5
2E8
100
AcDbEntity
  8
7_ALL_FEATURES
100
AcDbLine
 62
7
  6
CONTINUOUS
 10
59.5022921576
 20
256.6429203327
 11
138.8449036599
 21
256.6429203327
  0
LINE
  5
2E9
100
AcDbEntity
  8
7_ALL_FEATURES
100
AcDbLine
 62
7
  6
CONTINUOUS
 10
131.3235979087
 20
225.5429203327
 11
131.3235979087
 21
226.0529203327
  0
LINE
  5
2EA
100
AcDbEntity
  8
7_ALL_FEATURES
100
AcDbLine
 62
7
  6
CONTINUOUS
 10
131.3235979087
 20
228.6729203327
 11
131.3235979087
 21
229.0429203327
  0
LINE
  5
2EB
100
AcDbEntity
  8
7_ALL_FEATURES
100
AcDbLine
 62
7
  6
CONTINUOUS
 10
131.4235979087
 20
239.0429203327
 11
131.4235979087
 21
238.6629073351
  0
LINE
  5
2EC
100
AcDbEntity
  8
7_ALL_FEATURES
100
AcDbLine
 62
7
  6
CONTINUOUS
 10
131.4235979087
 20
236.0629333303
 11
131.4235979087
 21
235.5429203327
  0
LINE
  5
2ED
100
AcDbEntity
  8
7_ALL_FEATURES
100
AcDbLine
 62
7
  6
CONTINUOUS
 10
131.5735979087
 20
245.6429203327
 11
131.5735979087
 21
246.0966644238
  0
LINE
  5
2EE
100
AcDbEntity
  8
7_ALL_FEATURES
100
AcDbLine
 62
7
  6
CONTINUOUS
 10
131.5735979087
 20
248.6291762416
 11
131.5735979087
 21
249.1429203327
  0
LINE
  5
2EF
100
AcDbEntity
  8
3_ALL_AXES
100
AcDbLine
 62
7
  6
CONTINUOUS
 10
133.1735979087
 20
256.6429203327
 11
133.1735979087
 21
249.1429203327
  0
LINE
  5
2F0
100
AcDbEntity
  8
3_ALL_AXES
100
AcDbLine
 62
7
  6
CONTINUOUS
 10
133.1735979087
 20
245.6429203327
 11
133.1735979087
 21
239.0429203327
  0
LINE
  5
2F1
100
AcDbEntity
  8
3_ALL_AXES
100
AcDbLine
 62
7
  6
CONTINUOUS
 10
133.1735979087
 20
235.5429203327
 11
133.1735979087
 21
229.0429203327
  0
LINE
  5
2F2
100
AcDbEntity
  8
3_ALL_AXES
100
AcDbLine
 62
7
  6
CONTINUOUS
 10
133.1735979087
 20
225.5429203327
 11
133.1735979087
 21
213.6429203327
  0
LINE
  5
2F3
100
AcDbEntity
  8
7_ALL_FEATURES
100
AcDbLine
 62
7
  6
CONTINUOUS
 10
132.6735979087
 20
213.1429203327
 11
133.1735979087
 21
213.6429203327
  0
LINE
  5
2F4
100
AcDbEntity
  8
7_ALL_FEATURES
100
AcDbLine
 62
7
  6
CONTINUOUS
 10
138.9235979087
 20
258.7429203327
 11
138.8449036599
 21
258.7429203327
  0
LINE
  5
2F5
100
AcDbEntity
  8
7_ALL_FEATURES
100
AcDbLine
 62
7
  6
CONTINUOUS
 10
59.5022921576
 20
258.7429203327
 11
59.4235979087
 21
258.7429203327
  0
LINE
  5
2F6
100
AcDbEntity
  8
7_ALL_FEATURES
100
AcDbLine
 62
9
  6
CONTINUOUS
 10
138.9235979087
 20
258.8414270829
 11
59.4235979087
 21
258.8414270829
  0
LINE
  5
2F7
100
AcDbEntity
  8
7_ALL_FEATURES
100
AcDbLine
 62
9
  6
CONTINUOUS
 10
138.3863149867
 20
259.4381402202
 11
59.9608808308
 21
259.4381402202
  0
LINE
  5
2F8
100
AcDbEntity
  8
7_ALL_FEATURES
100
AcDbLine
 62
7
  6
CONTINUOUS
 10
71.4239200737
 20
260.6429203327
 11
126.9232757438
 21
260.6429203327
  0
LINE
  5
2F9
100
AcDbEntity
  8
7_ALL_FEATURES
100
AcDbLine
 62
7
  6
CONTINUOUS
 10
71.4235979087
 20
260.6429203327
 11
59.9608808308
 21
259.4381402202
  0
LINE
  5
2FA
100
AcDbEntity
  8
7_ALL_FEATURES
100
AcDbLine
 62
7
  6
CONTINUOUS
 10
126.9235979087
 20
260.6429203327
 11
138.3863149867
 21
259.4381402202
  0
LINE
  5
2FB
100
AcDbEntity
  8
7_ALL_FEATURES
100
AcDbLine
 62
7
  6
CONTINUOUS
 10
138.8449036599
 20
258.7429203327
 11
138.8449036599
 21
256.6429203327
  0
LINE
  5
2FC
100
AcDbEntity
  8
3_ALL_AXES
100
AcDbLine
 62
7
  6
CONTINUOUS
 10
138.9235979087
 20
258.8414270829
 11
138.9235979087
 21
258.7429203327
  0
LINE
  5
2FD
100
AcDbEntity
  8
7_ALL_FEATURES
100
AcDbLine
 62
7
  6
CONTINUOUS
 10
219.701437865
 20
256.6429203327
 11
219.701437865
 21
258.8414270829
  0
LINE
  5
2FE
100
AcDbEntity
  8
7_ALL_FEATURES
100
AcDbLine
 62
7
  6
CONTINUOUS
 10
225.451437865
 20
213.6429203327
 11
225.451437865
 21
225.5429203327
  0
LINE
  5
2FF
100
AcDbEntity
  8
7_ALL_FEATURES
100
AcDbLine
 62
7
  6
CONTINUOUS
 10
225.451437865
 20
229.0429203327
 11
225.451437865
 21
235.5429203327
  0
LINE
  5
300
100
AcDbEntity
  8
7_ALL_FEATURES
100
AcDbLine
 62
7
  6
CONTINUOUS
 10
225.451437865
 20
239.0429203327
 11
225.451437865
 21
245.6429203327
  0
LINE
  5
301
100
AcDbEntity
  8
7_ALL_FEATURES
100
AcDbLine
 62
7
  6
CONTINUOUS
 10
225.451437865
 20
249.1429203327
 11
225.451437865
 21
253.1429203327
  0
LINE
  5
302
100
AcDbEntity
  8
3_ALL_AXES
100
AcDbLine
 62
7
  6
CONTINUOUS
 10
225.451437865
 20
253.1429203327
 11
225.451437865
 21
256.6429203327
  0
LINE
  5
303
100
AcDbEntity
  8
7_ALL_FEATURES
100
AcDbLine
 62
7
  6
CONTINUOUS
 10
227.051437865
 20
245.6429203327
 11
227.051437865
 21
246.0966644238
  0
LINE
  5
304
100
AcDbEntity
  8
7_ALL_FEATURES
100
AcDbLine
 62
7
  6
CONTINUOUS
 10
227.051437865
 20
248.6291762416
 11
227.051437865
 21
249.1429203327
  0
LINE
  5
305
100
AcDbEntity
  8
7_ALL_FEATURES
100
AcDbLine
 62
7
  6
CONTINUOUS
 10
227.201437865
 20
239.0429203327
 11
227.201437865
 21
238.6629073351
  0
LINE
  5
306
100
AcDbEntity
  8
7_ALL_FEATURES
100
AcDbLine
 62
7
  6
CONTINUOUS
 10
227.201437865
 20
236.0629333303
 11
227.201437865
 21
235.5429203327
  0
LINE
  5
307
100
AcDbEntity
  8
7_ALL_FEATURES
100
AcDbLine
 62
7
  6
CONTINUOUS
 10
227.301437865
 20
229.0429203327
 11
227.301437865
 21
228.6729203327
  0
LINE
  5
308
100
AcDbEntity
  8
7_ALL_FEATURES
100
AcDbLine
 62
7
  6
CONTINUOUS
 10
227.301437865
 20
226.0529203327
 11
227.301437865
 21
225.5429203327
  0
LINE
  5
309
100
AcDbEntity
  8
7_ALL_FEATURES
100
AcDbLine
 62
7
  6
CONTINUOUS
 10
279.351437865
 20
192.1429203327
 11
266.551437865
 21
192.1429203327
  0
LINE
  5
30A
100
AcDbEntity
  8
7_ALL_FEATURES
100
AcDbLine
 62
9
  6
CONTINUOUS
 10
281.351437865
 20
194.1429203327
 11
264.551437865
 21
194.1429203327
  0
LINE
  5
30B
100
AcDbEntity
  8
7_ALL_FEATURES
100
AcDbLine
 62
7
  6
CONTINUOUS
 10
225.4514378651
 20
213.6429203326
 11
225.9514378651
 21
213.1429203326
  0
LINE
  5
30C
100
AcDbEntity
  8
02___PRT_ALL_AXES
100
AcDbLine
 62
7
  6
CONTINUOUS
 10
281.351437865
 20
196.6429203327
 11
264.551437865
 21
196.6429203327
  0
LINE
  5
30D
100
AcDbEntity
  8
7_ALL_FEATURES
100
AcDbLine
 62
7
  6
CONTINUOUS
 10
263.501437865
 20
197.2491381153
 11
263.5254882939
 21
197.2491381153
  0
LINE
  5
30E
100
AcDbEntity
  8
7_ALL_FEATURES
100
AcDbLine
 62
7
  6
CONTINUOUS
 10
267.6549555718
 20
197.2491381153
 11
268.821970587
 21
197.2491381153
  0
LINE
  5
30F
100
AcDbEntity
  8
7_ALL_FEATURES
100
AcDbLine
 62
7
  6
CONTINUOUS
 10
277.080905143
 20
197.2491381153
 11
278.2479201582
 21
197.2491381153
  0
LINE
  5
310
100
AcDbEntity
  8
7_ALL_FEATURES
100
AcDbLine
 62
7
  6
CONTINUOUS
 10
282.3773874362
 20
197.2491381153
 11
282.401437865
 21
197.2491381153
  0
LINE
  5
311
100
AcDbEntity
  8
7_ALL_FEATURES
100
AcDbLine
 62
7
  6
CONTINUOUS
 10
263.501437865
 20
201.2367025501
 11
263.5254882939
 21
201.2367025501
  0
LINE
  5
312
100
AcDbEntity
  8
7_ALL_FEATURES
100
AcDbLine
 62
7
  6
CONTINUOUS
 10
267.6549555718
 20
201.2367025501
 11
268.821970587
 21
201.2367025501
  0
LINE
  5
313
100
AcDbEntity
  8
7_ALL_FEATURES
100
AcDbLine
 62
7
  6
CONTINUOUS
 10
277.080905143
 20
201.2367025501
 11
278.2479201582
 21
201.2367025501
  0
LINE
  5
314
100
AcDbEntity
  8
7_ALL_FEATURES
100
AcDbLine
 62
7
  6
CONTINUOUS
 10
282.3773874362
 20
201.2367025501
 11
282.401437865
 21
201.2367025501
  0
LINE
  5
315
100
AcDbEntity
  8
02___PRT_ALL_AXES
100
AcDbLine
 62
7
  6
CONTINUOUS
 10
281.351437865
 20
201.8429203327
 11
264.551437865
 21
201.8429203327
  0
LINE
  5
316
100
AcDbEntity
  8
02___PRT_ALL_AXES
100
AcDbLine
 62
7
  6
CONTINUOUS
 10
264.551437865
 20
204.6429203327
 11
281.351437865
 21
204.6429203327
  0
LINE
  5
317
100
AcDbEntity
  8
7_ALL_FEATURES
100
AcDbLine
 62
7
  6
CONTINUOUS
 10
263.501437865
 20
197.2491381153
 11
264.551437865
 21
196.6429203327
  0
LINE
  5
318
100
AcDbEntity
  8
7_ALL_FEATURES
100
AcDbLine
 62
7
  6
CONTINUOUS
 10
264.1364832888
 20
209.6429203327
 11
281.7663924412
 21
209.6429203327
  0
LINE
  5
319
100
AcDbEntity
  8
02___PRT_ALL_AXES
100
AcDbLine
 62
7
  6
CONTINUOUS
 10
282.401437865
 20
210.0095639791
 11
282.3773874362
 21
210.0095639791
  0
LINE
  5
31A
100
AcDbEntity
  8
02___PRT_ALL_AXES
100
AcDbLine
 62
7
  6
CONTINUOUS
 10
263.5254882939
 20
210.0095639791
 11
263.501437865
 21
210.0095639791
  0
LINE
  5
31B
100
AcDbEntity
  8
02___PRT_ALL_AXES
100
AcDbLine
 62
7
  6
CONTINUOUS
 10
267.6549555718
 20
210.0095639791
 11
268.821970587
 21
210.0095639791
  0
LINE
  5
31C
100
AcDbEntity
  8
02___PRT_ALL_AXES
100
AcDbLine
 62
7
  6
CONTINUOUS
 10
277.080905143
 20
210.0095639791
 11
278.2479201582
 21
210.0095639791
  0
LINE
  5
31D
100
AcDbEntity
  8
7_ALL_FEATURES
100
AcDbLine
 62
7
  6
CONTINUOUS
 10
225.951437865
 20
213.1429203327
 11
292.951437865
 21
213.1429203327
  0
LINE
  5
31E
100
AcDbEntity
  8
7_ALL_FEATURES
100
AcDbLine
 62
7
  6
CONTINUOUS
 10
225.451437865
 20
213.6429203327
 11
293.451437865
 21
213.6429203327
  0
LINE
  5
31F
100
AcDbEntity
  8
7_ALL_FEATURES
100
AcDbLine
 62
7
  6
CONTINUOUS
 10
263.501437865
 20
210.0095639791
 11
264.1364832888
 21
209.6429203327
  0
LINE
  5
320
100
AcDbEntity
  8
7_ALL_FEATURES
100
AcDbLine
 62
7
  6
CONTINUOUS
 10
281.351437865
 20
201.8429203327
 11
282.401437865
 21
201.2367025501
  0
LINE
  5
321
100
AcDbEntity
  8
7_ALL_FEATURES
100
AcDbLine
 62
7
  6
CONTINUOUS
 10
256.951437865
 20
258.7429203327
 11
256.951437865
 21
256.6429203327
  0
LINE
  5
322
100
AcDbEntity
  8
7_ALL_FEATURES
100
AcDbLine
 62
7
  6
CONTINUOUS
 10
293.451437865
 20
225.5429203327
 11
225.451437865
 21
225.5429203327
  0
LINE
  5
323
100
AcDbEntity
  8
7_ALL_FEATURES
100
AcDbLine
 62
7
  6
CONTINUOUS
 10
261.951437865
 20
258.7429203327
 11
261.951437865
 21
256.6429203327
  0
LINE
  5
324
100
AcDbEntity
  8
7_ALL_FEATURES
100
AcDbLine
 62
7
  6
CONTINUOUS
 10
293.451437865
 20
229.0429203327
 11
225.451437865
 21
229.0429203327
  0
LINE
  5
325
100
AcDbEntity
  8
02___PRT_ALL_AXES
100
AcDbLine
 62
7
  6
CONTINUOUS
 10
263.501437865
 20
213.1429203327
 11
263.501437865
 21
210.0095639791
  0
LINE
  5
326
100
AcDbEntity
  8
7_ALL_FEATURES
100
AcDbLine
 62
7
  6
CONTINUOUS
 10
263.501437865
 20
197.2491381153
 11
263.501437865
 21
201.2367025501
  0
LINE
  5
327
100
AcDbEntity
  8
7_ALL_FEATURES
100
AcDbLine
 62
7
  6
CONTINUOUS
 10
263.5254882939
 20
197.2491381153
 11
263.5254882939
 21
201.2367025501
  0
LINE
  5
328
100
AcDbEntity
  8
02___PRT_ALL_AXES
100
AcDbLine
 62
7
  6
CONTINUOUS
 10
263.5254882939
 20
210.0095639791
 11
263.5254882939
 21
213.1429203327
  0
LINE
  5
329
100
AcDbEntity
  8
02___PRT_ALL_AXES
100
AcDbLine
 62
7
  6
CONTINUOUS
 10
264.551437865
 20
204.6429203327
 11
264.551437865
 21
201.8429203327
  0
LINE
  5
32A
100
AcDbEntity
  8
7_ALL_FEATURES
100
AcDbLine
 62
7
  6
CONTINUOUS
 10
264.551437865
 20
196.6429203327
 11
264.551437865
 21
194.1429203327
  0
LINE
  5
32B
100
AcDbEntity
  8
02___PRT_ALL_AXES
100
AcDbLine
 62
7
  6
CONTINUOUS
 10
265.351437865
 20
204.6429203327
 11
265.351437865
 21
209.6429203327
  0
LINE
  5
32C
100
AcDbEntity
  8
7_ALL_FEATURES
100
AcDbLine
 62
7
  6
CONTINUOUS
 10
267.6549555718
 20
197.2491381153
 11
267.6549555718
 21
201.2367025501
  0
LINE
  5
32D
100
AcDbEntity
  8
02___PRT_ALL_AXES
100
AcDbLine
 62
7
  6
CONTINUOUS
 10
267.6549555718
 20
210.0095639791
 11
267.6549555718
 21
213.1429203327
  0
LINE
  5
32E
100
AcDbEntity
  8
7_ALL_FEATURES
100
AcDbLine
 62
7
  6
CONTINUOUS
 10
268.821970587
 20
197.2491381153
 11
268.821970587
 21
201.2367025501
  0
LINE
  5
32F
100
AcDbEntity
  8
02___PRT_ALL_AXES
100
AcDbLine
 62
7
  6
CONTINUOUS
 10
268.821970587
 20
210.0095639791
 11
268.821970587
 21
213.1429203327
  0
LINE
  5
330
100
AcDbEntity
  8
7_ALL_FEATURES
100
AcDbLine
 62
7
  6
CONTINUOUS
 10
293.451437865
 20
235.5429203327
 11
225.451437865
 21
235.5429203327
  0
LINE
  5
331
100
AcDbEntity
  8
7_ALL_FEATURES
100
AcDbLine
 62
7
  6
CONTINUOUS
 10
293.451437865
 20
239.0429203327
 11
225.451437865
 21
239.0429203327
  0
LINE
  5
332
100
AcDbEntity
  8
7_ALL_FEATURES
100
AcDbLine
 62
7
  6
CONTINUOUS
 10
277.080905143
 20
197.2491381153
 11
277.080905143
 21
201.2367025501
  0
LINE
  5
333
100
AcDbEntity
  8
02___PRT_ALL_AXES
100
AcDbLine
 62
7
  6
CONTINUOUS
 10
277.080905143
 20
210.0095639791
 11
277.080905143
 21
213.1429203327
  0
LINE
  5
334
100
AcDbEntity
  8
7_ALL_FEATURES
100
AcDbLine
 62
7
  6
CONTINUOUS
 10
278.2479201582
 20
197.2491381153
 11
278.2479201582
 21
201.2367025501
  0
LINE
  5
335
100
AcDbEntity
  8
02___PRT_ALL_AXES
100
AcDbLine
 62
7
  6
CONTINUOUS
 10
278.2479201582
 20
210.0095639791
 11
278.2479201582
 21
213.1429203327
  0
LINE
  5
336
100
AcDbEntity
  8
02___PRT_ALL_AXES
100
AcDbLine
 62
7
  6
CONTINUOUS
 10
280.551437865
 20
204.6429203327
 11
280.551437865
 21
209.6429203327
  0
LINE
  5
337
100
AcDbEntity
  8
7_ALL_FEATURES
100
AcDbLine
 62
7
  6
CONTINUOUS
 10
293.451437865
 20
245.6429203327
 11
225.451437865
 21
245.6429203327
  0
LINE
  5
338
100
AcDbEntity
  8
02___PRT_ALL_AXES
100
AcDbLine
 62
7
  6
CONTINUOUS
 10
281.351437865
 20
204.6429203327
 11
281.351437865
 21
201.8429203327
  0
LINE
  5
339
100
AcDbEntity
  8
7_ALL_FEATURES
100
AcDbLine
 62
7
  6
CONTINUOUS
 10
281.351437865
 20
196.6429203327
 11
281.351437865
 21
194.1429203327
  0
LINE
  5
33A
100
AcDbEntity
  8
7_ALL_FEATURES
100
AcDbLine
 62
7
  6
CONTINUOUS
 10
282.3773874362
 20
197.2491381153
 11
282.3773874362
 21
201.2367025501
  0
LINE
  5
33B
100
AcDbEntity
  8
02___PRT_ALL_AXES
100
AcDbLine
 62
7
  6
CONTINUOUS
 10
282.3773874362
 20
210.0095639791
 11
282.3773874362
 21
213.1429203327
  0
LINE
  5
33C
100
AcDbEntity
  8
02___PRT_ALL_AXES
100
AcDbLine
 62
7
  6
CONTINUOUS
 10
282.401437865
 20
213.1429203327
 11
282.401437865
 21
210.0095639791
  0
LINE
  5
33D
100
AcDbEntity
  8
7_ALL_FEATURES
100
AcDbLine
 62
7
  6
CONTINUOUS
 10
282.401437865
 20
197.2491381153
 11
282.401437865
 21
201.2367025501
  0
LINE
  5
33E
100
AcDbEntity
  8
7_ALL_FEATURES
100
AcDbLine
 62
7
  6
CONTINUOUS
 10
264.551437865
 20
201.8429203327
 11
263.501437865
 21
201.2367025501
  0
LINE
  5
33F
100
AcDbEntity
  8
7_ALL_FEATURES
100
AcDbLine
 62
7
  6
CONTINUOUS
 10
293.451437865
 20
249.1429203327
 11
225.451437865
 21
249.1429203327
  0
LINE
  5
340
100
AcDbEntity
  8
7_ALL_FEATURES
100
AcDbLine
 62
7
  6
CONTINUOUS
 10
282.401437865
 20
210.0095639791
 11
281.7663924412
 21
209.6429203327
  0
LINE
  5
341
100
AcDbEntity
  8
3_ALL_AXES
100
AcDbLine
 62
7
  6
CONTINUOUS
 10
293.451437865
 20
253.1429203327
 11
225.451437865
 21
253.1429203327
  0
LINE
  5
342
100
AcDbEntity
  8
7_ALL_FEATURES
100
AcDbLine
 62
7
  6
CONTINUOUS
 10
219.701437865
 20
256.6429203327
 11
299.201437865
 21
256.6429203327
  0
LINE
  5
343
100
AcDbEntity
  8
7_ALL_FEATURES
100
AcDbLine
 62
7
  6
CONTINUOUS
 10
291.601437865
 20
229.0429203327
 11
291.601437865
 21
228.6729203327
  0
LINE
  5
344
100
AcDbEntity
  8
7_ALL_FEATURES
100
AcDbLine
 62
7
  6
CONTINUOUS
 10
291.601437865
 20
226.0529203327
 11
291.601437865
 21
225.5429203327
  0
LINE
  5
345
100
AcDbEntity
  8
7_ALL_FEATURES
100
AcDbLine
 62
7
  6
CONTINUOUS
 10
291.701437865
 20
239.0429203327
 11
291.701437865
 21
238.6629073351
  0
LINE
  5
346
100
AcDbEntity
  8
7_ALL_FEATURES
100
AcDbLine
 62
7
  6
CONTINUOUS
 10
291.701437865
 20
236.0629333303
 11
291.701437865
 21
235.5429203327
  0
LINE
  5
347
100
AcDbEntity
  8
7_ALL_FEATURES
100
AcDbLine
 62
7
  6
CONTINUOUS
 10
291.851437865
 20
245.6429203327
 11
291.851437865
 21
246.0966644238
  0
LINE
  5
348
100
AcDbEntity
  8
7_ALL_FEATURES
100
AcDbLine
 62
7
  6
CONTINUOUS
 10
291.851437865
 20
248.6291762416
 11
291.851437865
 21
249.1429203327
  0
LINE
  5
349
100
AcDbEntity
  8
7_ALL_FEATURES
100
AcDbLine
 62
7
  6
CONTINUOUS
 10
293.451437865
 20
213.6429203327
 11
293.451437865
 21
225.5429203327
  0
LINE
  5
34A
100
AcDbEntity
  8
7_ALL_FEATURES
100
AcDbLine
 62
7
  6
CONTINUOUS
 10
293.451437865
 20
229.0429203327
 11
293.451437865
 21
235.5429203327
  0
LINE
  5
34B
100
AcDbEntity
  8
7_ALL_FEATURES
100
AcDbLine
 62
7
  6
CONTINUOUS
 10
293.451437865
 20
239.0429203327
 11
293.451437865
 21
245.6429203327
  0
LINE
  5
34C
100
AcDbEntity
  8
7_ALL_FEATURES
100
AcDbLine
 62
7
  6
CONTINUOUS
 10
293.451437865
 20
249.1429203327
 11
293.451437865
 21
253.1429203327
  0
LINE
  5
34D
100
AcDbEntity
  8
3_ALL_AXES
100
AcDbLine
 62
7
  6
CONTINUOUS
 10
293.451437865
 20
253.1429203327
 11
293.451437865
 21
256.6429203327
  0
LINE
  5
34E
100
AcDbEntity
  8
7_ALL_FEATURES
100
AcDbLine
 62
7
  6
CONTINUOUS
 10
293.4514378649
 20
213.6429203326
 11
292.9514378649
 21
213.1429203326
  0
LINE
  5
34F
100
AcDbEntity
  8
7_ALL_FEATURES
100
AcDbLine
 62
7
  6
CONTINUOUS
 10
261.951437865
 20
258.7429203327
 11
256.951437865
 21
258.7429203327
  0
LINE
  5
350
100
AcDbEntity
  8
7_ALL_FEATURES
100
AcDbLine
 62
9
  6
CONTINUOUS
 10
299.201437865
 20
258.8414270829
 11
219.701437865
 21
258.8414270829
  0
LINE
  5
351
100
AcDbEntity
  8
7_ALL_FEATURES
100
AcDbLine
 62
9
  6
CONTINUOUS
 10
298.664154943
 20
259.4381402202
 11
220.2387207871
 21
259.4381402202
  0
LINE
  5
352
100
AcDbEntity
  8
7_ALL_FEATURES
100
AcDbLine
 62
7
  6
CONTINUOUS
 10
231.701437865
 20
260.6429203327
 11
287.201437865
 21
260.6429203327
  0
LINE
  5
353
100
AcDbEntity
  8
7_ALL_FEATURES
100
AcDbLine
 62
7
  6
CONTINUOUS
 10
282.401437865
 20
197.2491381153
 11
281.351437865
 21
196.6429203327
  0
LINE
  5
354
100
AcDbEntity
  8
7_ALL_FEATURES
100
AcDbLine
 62
7
  6
CONTINUOUS
 10
231.701437865
 20
260.6429203327
 11
220.2387207871
 21
259.4381402202
  0
LINE
  5
355
100
AcDbEntity
  8
7_ALL_FEATURES
100
AcDbLine
 62
7
  6
CONTINUOUS
 10
287.201437865
 20
260.6429203327
 11
298.664154943
 21
259.4381402202
  0
LINE
  5
356
100
AcDbEntity
  8
7_ALL_FEATURES
100
AcDbLine
 62
7
  6
CONTINUOUS
 10
299.201437865
 20
256.6429203327
 11
299.201437865
 21
258.8414270829
  0
LINE
  5
357
100
AcDbEntity
  8
3_ALL_AXES
100
AcDbLine
 62
7
  6
CONTINUOUS
 10
269.4252155403
 20
128.2401077823
 11
269.4072828287
 21
126.1325118577
  0
LINE
  5
358
100
AcDbEntity
  8
3_ALL_AXES
100
AcDbLine
 62
7
  6
CONTINUOUS
 10
275.1074602682
 20
120.2525036004
 11
275.0958989333
 21
118.8937228944
  0
LINE
  5
359
100
AcDbEntity
  8
3_ALL_AXES
100
AcDbLine
 62
7
  6
CONTINUOUS
 10
275.067350242
 20
115.5384519883
 11
275.0135155671
 21
109.2113697082
  0
LINE
  5
35A
100
AcDbEntity
  8
3_ALL_AXES
100
AcDbLine
 62
7
  6
CONTINUOUS
 10
274.9849668758
 20
105.8560988021
 11
274.9319478778
 21
99.6248814051
  0
LINE
  5
35B
100
AcDbEntity
  8
3_ALL_AXES
100
AcDbLine
 62
7
  6
CONTINUOUS
 10
274.9033991865
 20
96.2696104991
 11
274.8063336363
 21
84.8616894184
  0
LINE
  5
35C
100
AcDbEntity
  8
7_ALL_FEATURES
100
AcDbLine
 62
7
  6
CONTINUOUS
 10
275.0676616493
 20
115.5384493264
 11
275.1368477402
 21
116.1330725063
  0
LINE
  5
35D
100
AcDbEntity
  8
7_ALL_FEATURES
100
AcDbLine
 62
7
  6
CONTINUOUS
 10
274.9852782832
 20
105.8560961403
 11
275.054464374
 21
106.4507193202
  0
LINE
  5
35E
100
AcDbEntity
  8
7_ALL_FEATURES
100
AcDbLine
 62
7
  6
CONTINUOUS
 10
274.9037105939
 20
96.2696078372
 11
274.9728966847
 21
96.8642310171
  0
LINE
  5
35F
100
AcDbEntity
  8
7_ALL_FEATURES
100
AcDbLine
 62
7
  6
CONTINUOUS
 10
292.0086640911
 20
130.8152183703
 11
291.5274821337
 21
130.3821617498
  0
LINE
  5
360
100
AcDbEntity
  8
7_ALL_FEATURES
100
AcDbLine
 62
7
  6
CONTINUOUS
 10
276.8028471365
 20
81.5568223296
 11
276.8184509023
 21
81.5443509764
  0
LINE
  5
361
100
AcDbEntity
  8
7_ALL_FEATURES
100
AcDbLine
 62
7
  6
CONTINUOUS
 10
276.8038360831
 20
81.5569155159
 11
276.8184509023
 21
81.5443509764
  0
LINE
  5
362
100
AcDbEntity
  8
7_ALL_FEATURES
100
AcDbLine
 62
7
  6
CONTINUOUS
 10
276.7869647146
 20
81.5375213507
 11
276.31322131
 21
81.9787030586
  0
LINE
  5
363
100
AcDbEntity
  8
7_ALL_FEATURES
100
AcDbLine
 62
7
  6
CONTINUOUS
 10
285.7823336108
 20
73.1105658396
 11
285.7825621284
 21
73.0842606832
  0
LINE
  5
364
100
AcDbEntity
  8
7_ALL_FEATURES
100
AcDbLine
 62
7
  6
CONTINUOUS
 10
285.7500364867
 20
69.2615867021
 11
285.7825621284
 21
73.0842606832
  0
LINE
  5
365
100
AcDbEntity
  8
02___PRT_ALL_AXES
100
AcDbLine
 62
7
  6
CONTINUOUS
 10
286.7744332623
 20
66.3011860974
 11
286.7908876371
 21
68.2350360374
  0
LINE
  5
366
100
AcDbEntity
  8
02___PRT_ALL_AXES
100
AcDbLine
 62
7
  6
CONTINUOUS
 10
286.8372403831
 20
73.6827820908
 11
286.8600793361
 21
76.3669988157
  0
LINE
  5
367
100
AcDbEntity
  8
7_ALL_FEATURES
100
AcDbLine
 62
9
  6
CONTINUOUS
 10
290.6729811767
 20
129.6318247222
 11
290.6350641593
 21
129.3074067631
  0
LINE
  5
368
100
AcDbEntity
  8
7_ALL_FEATURES
100
AcDbLine
 62
7
  6
CONTINUOUS
 10
289.4135134874
 20
67.1272161123
 11
289.4460391291
 21
70.9498900934
  0
LINE
  5
369
100
AcDbEntity
  8
7_ALL_FEATURES
100
AcDbLine
 62
7
  6
CONTINUOUS
 10
290.5350127339
 20
66.9059276184
 11
290.5675383756
 21
70.7286015995
  0
LINE
  5
36A
100
AcDbEntity
  8
02___PRT_ALL_AXES
100
AcDbLine
 62
7
  6
CONTINUOUS
 10
286.8772493062
 20
76.5139050613
 11
286.8601747929
 21
76.3669979995
  0
LINE
  5
36B
100
AcDbEntity
  8
7_ALL_FEATURES
100
AcDbLine
 62
7
  6
CONTINUOUS
 10
298.7767667212
 20
66.6912189348
 11
298.8092923629
 21
70.5138929159
  0
LINE
  5
36C
100
AcDbEntity
  8
7_ALL_FEATURES
100
AcDbLine
 62
7
  6
CONTINUOUS
 10
299.9844421617
 20
66.8518293216
 11
300.0169678034
 21
70.6745033028
  0
LINE
  5
36D
100
AcDbEntity
  8
7_ALL_FEATURES
100
AcDbLine
 62
7
  6
CONTINUOUS
 10
304.124059086
 20
114.6163810493
 11
304.3268645316
 21
115.5151347436
  0
LINE
  5
36E
100
AcDbEntity
  8
7_ALL_FEATURES
100
AcDbLine
 62
7
  6
CONTINUOUS
 10
334.7045080142
 20
126.3678984338
 11
334.7275505296
 21
126.3817159932
  0
LINE
  5
36F
100
AcDbEntity
  8
7_ALL_FEATURES
100
AcDbLine
 62
7
  6
CONTINUOUS
 10
304.6816495015
 20
72.9497589333
 11
304.681420984
 21
72.9760640897
  0
LINE
  5
370
100
AcDbEntity
  8
02___PRT_ALL_AXES
100
AcDbLine
 62
7
  6
CONTINUOUS
 10
303.5738251652
 20
66.1582466252
 11
303.5897210792
 21
68.0264617858
  0
LINE
  5
371
100
AcDbEntity
  8
02___PRT_ALL_AXES
100
AcDbLine
 62
7
  6
CONTINUOUS
 10
303.636632286
 20
73.5398426185
 11
303.6467502653
 21
74.7289886019
  0
LINE
  5
372
100
AcDbEntity
  8
7_ALL_FEATURES
100
AcDbLine
 62
7
  6
CONTINUOUS
 10
304.1411883007
 20
116.6295435929
 11
304.124059086
 21
114.6163810493
  0
LINE
  5
373
100
AcDbEntity
  8
7_ALL_FEATURES
100
AcDbLine
 62
9
  6
CONTINUOUS
 10
304.3268645316
 20
115.5151347436
 11
304.3362883986
 21
116.6227030924
  0
LINE
  5
374
100
AcDbEntity
  8
7_ALL_FEATURES
100
AcDbLine
 62
7
  6
CONTINUOUS
 10
304.5627191483
 20
68.7714912278
 11
304.59524479
 21
72.5941652089
  0
LINE
  5
375
100
AcDbEntity
  8
7_ALL_FEATURES
100
AcDbLine
 62
7
  6
CONTINUOUS
 10
304.6491238599
 20
69.1270849522
 11
304.6816495015
 21
72.9497589333
  0
LINE
  5
376
100
AcDbEntity
  8
7_ALL_FEATURES
100
AcDbLine
 62
7
  6
CONTINUOUS
 10
334.7566884587
 20
126.3612290576
 11
334.7777792388
 21
126.3753290289
  0
LINE
  5
377
100
AcDbEntity
  8
7_ALL_FEATURES
100
AcDbLine
 62
7
  6
CONTINUOUS
 10
309.1307870991
 20
116.4995578895
 11
309.1136578844
 21
114.4863953458
  0
LINE
  5
378
100
AcDbEntity
  8
02___PRT_ALL_AXES
100
AcDbLine
 62
7
  6
CONTINUOUS
 10
303.636632286
 20
73.5398426185
 11
303.6194623158
 21
73.3929363729
  0
LINE
  5
379
100
AcDbEntity
  8
7_ALL_FEATURES
100
AcDbLine
 62
9
  6
CONTINUOUS
 10
303.5738251652
 20
66.1582466252
 11
303.5566551951
 21
66.0113403795
  0
LINE
  5
37A
100
AcDbEntity
  8
7_ALL_FEATURES
100
AcDbLine
 62
7
  6
CONTINUOUS
 10
343.0931261805
 20
118.3151610256
 11
343.0239400897
 21
117.7205378456
  0
LINE
  5
37B
100
AcDbEntity
  8
7_ALL_FEATURES
100
AcDbLine
 62
7
  6
CONTINUOUS
 10
343.0645774893
 20
114.9598901195
 11
342.9953913985
 21
114.3652669396
  0
LINE
  5
37C
100
AcDbEntity
  8
7_ALL_FEATURES
100
AcDbLine
 62
7
  6
CONTINUOUS
 10
343.0107428144
 20
108.6328078394
 11
342.9415567235
 21
108.0381846595
  0
LINE
  5
37D
100
AcDbEntity
  8
7_ALL_FEATURES
100
AcDbLine
 62
7
  6
CONTINUOUS
 10
342.9821941231
 20
105.2775369334
 11
342.9130080323
 21
104.6829137534
  0
LINE
  5
37E
100
AcDbEntity
  8
7_ALL_FEATURES
100
AcDbLine
 62
7
  6
CONTINUOUS
 10
342.9291751251
 20
99.0463195363
 11
342.8599890342
 21
98.4516963564
  0
LINE
  5
37F
100
AcDbEntity
  8
7_ALL_FEATURES
100
AcDbLine
 62
7
  6
CONTINUOUS
 10
326.3859771236
 20
130.5227152242
 11
326.8597205282
 21
130.0815335163
  0
LINE
  5
380
100
AcDbEntity
  8
3_ALL_AXES
100
AcDbLine
 62
7
  6
CONTINUOUS
 10
343.104979065
 20
119.6716052127
 11
343.0934375879
 21
118.3151583637
  0
LINE
  5
381
100
AcDbEntity
  8
3_ALL_AXES
100
AcDbLine
 62
7
  6
CONTINUOUS
 10
343.0648888966
 20
114.9598874576
 11
343.0110542217
 21
108.6328051776
  0
LINE
  5
382
100
AcDbEntity
  8
3_ALL_AXES
100
AcDbLine
 62
7
  6
CONTINUOUS
 10
342.9825055304
 20
105.2775342715
 11
342.9294865324
 21
99.0463168745
  0
LINE
  5
383
100
AcDbEntity
  8
3_ALL_AXES
100
AcDbLine
 62
7
  6
CONTINUOUS
 10
342.9009378411
 20
95.6910459684
 11
342.8038722909
 21
84.2831248877
  0
LINE
  5
384
100
AcDbEntity
  8
7_ALL_FEATURES
100
AcDbLine
 62
7
  6
CONTINUOUS
 10
342.9006264338
 20
95.6910486303
 11
342.831440343
 21
95.0964254503
  0
LINE
  5
385
100
AcDbEntity
  8
7_ALL_FEATURES
100
AcDbLine
 62
7
  6
CONTINUOUS
 10
348.9041396874
 20
125.4561041237
 11
348.8231544748
 21
124.760920514
  0
LINE
  5
386
100
AcDbEntity
  8
7_ALL_FEATURES
100
AcDbLine
 62
7
  6
CONTINUOUS
 10
342.7343747927
 20
83.6885043697
 11
342.8038722909
 21
84.2831248877
  0
LINE
  5
387
100
AcDbEntity
  8
7_ALL_FEATURES
100
AcDbLine
 62
9
  6
CONTINUOUS
 10
348.9223379379
 20
127.5636977795
 11
348.8410871864
 21
126.8685164386
  0
LINE
  5
388
100
AcDbEntity
  8
7_ALL_FEATURES
100
AcDbLine
 62
7
  6
CONTINUOUS
 10
340.7669639695
 20
80.9931404956
 11
341.248145927
 21
81.4261971161
  0
LINE
  5
389
100
AcDbEntity
  8
7_ALL_FEATURES
100
AcDbLine
 62
7
  6
CONTINUOUS
 10
342.5728880479
 20
116.6268682689
 11
342.5763410855
 21
116.6211198844
  0
LINE
  5
38A
100
AcDbEntity
  8
7_ALL_FEATURES
100
AcDbLine
 62
7
  6
CONTINUOUS
 10
342.5092831591
 20
116.6242531057
 11
342.5121442869
 21
116.6184916677
  0
LINE
  5
38B
100
AcDbEntity
  8
3_ALL_AXES
100
AcDbLine
 62
7
  6
CONTINUOUS
 10
348.9223379379
 20
127.5636977795
 11
348.9044052264
 21
125.456101855
  0
CIRCLE
  5
38C
100
AcDbEntity
  8
7_ALL_FEATURES
100
AcDbCircle
 62
7
  6
CONTINUOUS
 10
99.1735979087
 20
119.305608365
 40
39.75
  0
CIRCLE
  5
38D
100
AcDbEntity
  8
7_ALL_FEATURES
100
AcDbCircle
 62
9
  6
CONTINUOUS
 10
99.1735979087
 20
119.305608365
 40
39.212717078
  0
CIRCLE
  5
38E
100
AcDbEntity
  8
7_ALL_FEATURES
100
AcDbCircle
 62
7
  6
CONTINUOUS
 10
99.1735979087
 20
119.305608365
 40
27.75
  0
CIRCLE
  5
38F
100
AcDbEntity
  8
7_ALL_FEATURES
100
AcDbCircle
 62
9
  6
CONTINUOUS
 10
99.1735979087
 20
119.305608365
 40
19.05
  0
CIRCLE
  5
390
100
AcDbEntity
  8
7_ALL_FEATURES
100
AcDbCircle
 62
7
  6
CONTINUOUS
 10
99.1735979087
 20
119.305608365
 40
18.55
  0
CIRCLE
  5
391
100
AcDbEntity
  8
7_ALL_FEATURES
100
AcDbCircle
 62
7
  6
CONTINUOUS
 10
99.1735979087
 20
119.305608365
 40
18.5
  0
CIRCLE
  5
392
100
AcDbEntity
  8
7_ALL_FEATURES
100
AcDbCircle
 62
7
  6
CONTINUOUS
 10
99.1735979087
 20
119.305608365
 40
18.0
  0
ARC
  5
393
100
AcDbEntity
  8
7_ALL_FEATURES
100
AcDbCircle
 62
7
  6
CONTINUOUS
 10
105.5735979087
 20
194.1429203327
 40
2.0
100
AcDbArc
 50
270.0
 51
360.0
  0
ARC
  5
394
100
AcDbEntity
  8
7_ALL_FEATURES
100
AcDbCircle
 62
7
  6
CONTINUOUS
 10
92.7735979087
 20
194.1429203327
 40
2.0
100
AcDbArc
 50
180.0
 51
270.0
  0
ARC
  5
395
100
AcDbEntity
  8
3_ALL_AXES
100
AcDbCircle
 62
7
  6
CONTINUOUS
 10
67.0635979087
 20
247.3629203327
 40
1.31
100
AcDbArc
 50
102.9188935955
 51
257.0811064045
  0
ARC
  5
396
100
AcDbEntity
  8
3_ALL_AXES
100
AcDbCircle
 62
7
  6
CONTINUOUS
 10
131.2835979087
 20
247.3629203327
 40
1.31
100
AcDbArc
 50
282.9188935955
 51
77.0811064045
  0
ARC
  5
397
100
AcDbEntity
  8
3_ALL_AXES
100
AcDbCircle
 62
7
  6
CONTINUOUS
 10
67.0635979087
 20
227.3629203327
 40
1.31
100
AcDbArc
 50
91.7554494837
 51
268.2445505163
  0
ARC
  5
398
100
AcDbEntity
  8
3_ALL_AXES
100
AcDbCircle
 62
7
  6
CONTINUOUS
 10
131.2835979087
 20
227.3629203327
 40
1.31
100
AcDbArc
 50
271.7554494837
 51
88.2445505163
  0
ARC
  5
399
100
AcDbEntity
  8
3_ALL_AXES
100
AcDbCircle
 62
7
  6
CONTINUOUS
 10
67.0635979087
 20
237.3629203327
 40
1.31
100
AcDbArc
 50
96.1440731929
 51
263.8559268071
  0
ARC
  5
39A
100
AcDbEntity
  8
3_ALL_AXES
100
AcDbCircle
 62
7
  6
CONTINUOUS
 10
131.2835979087
 20
237.3629203327
 40
1.31
100
AcDbArc
 50
276.1440731929
 51
83.8559268071
  0
ARC
  5
39B
100
AcDbEntity
  8
7_ALL_FEATURES
100
AcDbCircle
 62
7
  6
CONTINUOUS
 10
138.3235979087
 20
258.8414270829
 40
0.6
100
AcDbArc
 50
0.0
 51
84.0
  0
ARC
  5
39C
100
AcDbEntity
  8
7_ALL_FEATURES
100
AcDbCircle
 62
7
  6
CONTINUOUS
 10
60.0235979087
 20
258.8414270829
 40
0.6
100
AcDbArc
 50
96.0
 51
180.0
  0
ARC
  5
39D
100
AcDbEntity
  8
7_ALL_FEATURES
100
AcDbCircle
 62
7
  6
CONTINUOUS
 10
266.551437865
 20
194.1429203327
 40
2.0
100
AcDbArc
 50
180.0
 51
270.0
  0
ARC
  5
39E
100
AcDbEntity
  8
7_ALL_FEATURES
100
AcDbCircle
 62
7
  6
CONTINUOUS
 10
279.351437865
 20
194.1429203327
 40
2.0
100
AcDbArc
 50
270.0
 51
360.0
  0
ARC
  5
39F
100
AcDbEntity
  8
3_ALL_AXES
100
AcDbCircle
 62
7
  6
CONTINUOUS
 10
227.341437865
 20
227.3629203327
 40
1.31
100
AcDbArc
 50
91.7554494837
 51
268.2445505163
  0
ARC
  5
3A0
100
AcDbEntity
  8
3_ALL_AXES
100
AcDbCircle
 62
7
  6
CONTINUOUS
 10
291.561437865
 20
227.3629203327
 40
1.31
100
AcDbArc
 50
271.7554494837
 51
88.2445505163
  0
ARC
  5
3A1
100
AcDbEntity
  8
3_ALL_AXES
100
AcDbCircle
 62
7
  6
CONTINUOUS
 10
227.341437865
 20
237.3629203327
 40
1.31
100
AcDbArc
 50
96.1440731929
 51
263.8559268071
  0
ARC
  5
3A2
100
AcDbEntity
  8
3_ALL_AXES
100
AcDbCircle
 62
7
  6
CONTINUOUS
 10
291.561437865
 20
237.3629203327
 40
1.31
100
AcDbArc
 50
276.1440731929
 51
83.8559268071
  0
ARC
  5
3A3
100
AcDbEntity
  8
3_ALL_AXES
100
AcDbCircle
 62
7
  6
CONTINUOUS
 10
227.341437865
 20
247.3629203327
 40
1.31
100
AcDbArc
 50
102.9188935955
 51
257.0811064045
  0
ARC
  5
3A4
100
AcDbEntity
  8
3_ALL_AXES
100
AcDbCircle
 62
7
  6
CONTINUOUS
 10
291.561437865
 20
247.3629203327
 40
1.31
100
AcDbArc
 50
282.9188935955
 51
77.0811064045
  0
ARC
  5
3A5
100
AcDbEntity
  8
7_ALL_FEATURES
100
AcDbCircle
 62
7
  6
CONTINUOUS
 10
298.601437865
 20
258.8414270829
 40
0.6
100
AcDbArc
 50
0.0
 51
84.0000000002
  0
ARC
  5
3A6
100
AcDbEntity
  8
7_ALL_FEATURES
100
AcDbCircle
 62
7
  6
CONTINUOUS
 10
220.301437865
 20
258.8414270829
 40
0.6
100
AcDbArc
 50
95.9999999998
 51
180.0
  0
ARC
  5
3A7
100
AcDbEntity
  8
7_ALL_FEATURES
100
AcDbCircle
 62
7
  6
CONTINUOUS
 10
310.2463316303
 20
253.9548533871
 40
139.4730573919
100
AcDbArc
 50
269.5346905001
 51
269.8319119919
  0
ARC
  5
3A8
100
AcDbEntity
  8
7_ALL_FEATURES
100
AcDbCircle
 62
9
  6
CONTINUOUS
 10
310.2598409224
 20
255.7324356373
 40
139.1430184807
100
AcDbArc
 50
267.4799978689
 51
269.5361268639
  0
ARC
  5
3A9
100
AcDbEntity
  8
7_ALL_FEATURES
100
AcDbCircle
 62
7
  6
CONTINUOUS
 10
310.2578512924
 20
255.5925034353
 40
139.0975117474
100
AcDbArc
 50
267.4796672094
 51
269.5357449078
  0
ARC
  5
3AA
100
AcDbEntity
  8
3_ALL_AXES
100
AcDbCircle
 62
7
  6
CONTINUOUS
 10
309.7896861201
 20
200.9699972095
 40
113.6930592095
100
AcDbArc
 50
268.508020798
 51
269.0340044875
  0
ARC
  5
3AB
100
AcDbEntity
  8
7_ALL_FEATURES
100
AcDbCircle
 62
9
  6
CONTINUOUS
 10
332.3669332762
 20
145.1705268222
 40
25.7679373164
100
AcDbArc
 50
294.494268005
 51
295.1943329576
  0
ARC
  5
3AC
100
AcDbEntity
  8
7_ALL_FEATURES
100
AcDbCircle
 62
7
  6
CONTINUOUS
 10
296.0985504939
 20
91.4502265753
 40
24.9034395517
100
AcDbArc
 50
276.1737588688
 51
278.9770222226
  0
ARC
  5
3AD
100
AcDbEntity
  8
7_ALL_FEATURES
100
AcDbCircle
 62
7
  6
CONTINUOUS
 10
296.1310761355
 20
95.2729005565
 40
24.9034395517
100
AcDbArc
 50
276.1737588688
 51
278.9770222226
  0
ARC
  5
3AE
100
AcDbEntity
  8
3_ALL_AXES
100
AcDbCircle
 62
7
  6
CONTINUOUS
 10
332.8067173719
 20
102.5234635057
 40
11.6077149724
100
AcDbArc
 50
305.319475968
 51
306.2640099043
  0
ARC
  5
3AF
100
AcDbEntity
  8
7_ALL_FEATURES
100
AcDbCircle
 62
7
  6
CONTINUOUS
 10
282.9027802113
 20
103.7791412802
 40
9.5567288713
100
AcDbArc
 50
230.7876690966
 51
231.4278278243
  0
ARC
  5
3B0
100
AcDbEntity
  8
7_ALL_FEATURES
100
AcDbCircle
 62
7
  6
CONTINUOUS
 10
329.5427539159
 20
134.1868067801
 40
9.4034395191
100
AcDbArc
 50
303.8288440646
 51
305.726754627
  0
ARC
  5
3B1
100
AcDbEntity
  8
7_ALL_FEATURES
100
AcDbCircle
 62
7
  6
CONTINUOUS
 10
335.2401212123
 20
103.0708213442
 40
9.2190098833
100
AcDbArc
 50
308.4087117053
 51
308.7871719413
  0
ARC
  5
3B2
100
AcDbEntity
  8
7_ALL_FEATURES
100
AcDbCircle
 62
7
  6
CONTINUOUS
 10
330.0058283437
 20
133.5367005039
 40
8.6052783284
100
AcDbArc
 50
305.7512661513
 51
306.5251302088
  0
ARC
  5
3B3
100
AcDbEntity
  8
7_ALL_FEATURES
100
AcDbCircle
 62
7
  6
CONTINUOUS
 10
334.7986809586
 20
98.3182520606
 40
7.1475667792
100
AcDbArc
 50
311.8615823888
 51
313.6490290884
  0
ARC
  5
3B4
100
AcDbEntity
  8
7_ALL_FEATURES
100
AcDbCircle
 62
7
  6
CONTINUOUS
 10
338.7549356585
 20
119.0476697987
 40
4.5049938384
100
AcDbArc
 50
324.2670218045
 51
327.2081816236
  0
ARC
  5
3B5
100
AcDbEntity
  8
7_ALL_FEATURES
100
AcDbCircle
 62
7
  6
CONTINUOUS
 10
279.2198586627
 20
114.926466476
 40
4.2833636545
100
AcDbArc
 50
147.4379340634
 51
147.959722267
  0
ARC
  5
3B6
100
AcDbEntity
  8
7_ALL_FEATURES
100
AcDbCircle
 62
7
  6
CONTINUOUS
 10
301.0384146182
 20
66.1814618192
 40
2.5355901837
100
AcDbArc
 50
347.2786412003
 51
355.4167744604
  0
ARC
  5
3B7
100
AcDbEntity
  8
7_ALL_FEATURES
100
AcDbCircle
 62
7
  6
CONTINUOUS
 10
301.0551515015
 20
66.1796788749
 40
2.5187648492
100
AcDbArc
 50
356.1551985014
 51
359.5124625174
  0
ARC
  5
3B8
100
AcDbEntity
  8
7_ALL_FEATURES
100
AcDbCircle
 62
7
  6
CONTINUOUS
 10
301.056030962
 20
66.1796505032
 40
2.5178854658
100
AcDbArc
 50
355.4258278126
 51
356.1545007359
  0
ARC
  5
3B9
100
AcDbEntity
  8
7_ALL_FEATURES
100
AcDbCircle
 62
7
  6
CONTINUOUS
 10
292.2481929064
 20
128.8059147956
 40
1.5678866592
100
AcDbArc
 50
167.2778331946
 51
170.3205855055
  0
ARC
  5
3BA
100
AcDbEntity
  8
7_ALL_FEATURES
100
AcDbCircle
 62
7
  6
CONTINUOUS
 10
326.1425183497
 20
128.5224884679
 40
1.5372613641
100
AcDbArc
 50
5.5301036574
 51
8.7106177734
  0
ARC
  5
3BB
100
AcDbEntity
  8
7_ALL_FEATURES
100
AcDbCircle
 62
7
  6
CONTINUOUS
 10
291.7080412654
 20
129.2986780735
 40
1.0730126095
100
AcDbArc
 50
179.5339080055
 51
187.8788198192
  0
SPLINE
  5
3BC
100
AcDbEntity
  8
7_ALL_FEATURES
100
AcDbSpline
 62
7
  6
CONTINUOUS
 70
0
 71
3
 72
13
 73
9
 74
0
 42
0.0000001
 43
0.0000001
 44
0.0000000001
 40
0.0
 40
0.0
 40
0.0
 40
0.0
 40
0.2506024986
 40
0.3753998968
 40
0.4999999842
 40
0.624600074
 40
0.7493974767
 40
1.0
 40
1.0
 40
1.0
 40
1.0
 10
106.9998214756
 20
201.2367025501
 30
0.0
 10
106.4177642861
 20
201.4062677083
 30
0.0
 10
105.5304027613
 20
201.6143014517
 30
0.0
 10
104.3286349734
 20
201.7603024806
 30
0.0
 10
103.4235980178
 20
201.797616871
 30
0.0
 10
102.5185610506
 20
201.7603024977
 30
0.0
 10
101.3167931837
 20
201.6143014848
 30
0.0
 10
100.4294315888
 20
201.406267725
 30
0.0
 10
99.8473743419
 20
201.2367025501
 30
0.0
  0
SPLINE
  5
3BD
100
AcDbEntity
  8
7_ALL_FEATURES
100
AcDbSpline
 62
7
  6
CONTINUOUS
 70
0
 71
3
 72
13
 73
9
 74
0
 42
0.0000001
 43
0.0000001
 44
0.0000000001
 40
0.0
 40
0.0
 40
0.0
 40
0.0
 40
0.2506024986
 40
0.3753998968
 40
0.4999999842
 40
0.624600074
 40
0.7493974767
 40
1.0
 40
1.0
 40
1.0
 40
1.0
 10
106.9998214756
 20
197.2491381153
 30
0.0
 10
106.4177642861
 20
197.0795729571
 30
0.0
 10
105.5304027613
 20
196.8715392137
 30
0.0
 10
104.3286349734
 20
196.7255381848
 30
0.0
 10
103.4235980178
 20
196.6882237944
 30
0.0
 10
102.5185610506
 20
196.7255381677
 30
0.0
 10
101.3167931837
 20
196.8715391806
 30
0.0
 10
100.4294315888
 20
197.0795729404
 30
0.0
 10
99.8473743419
 20
197.2491381153
 30
0.0
  0
SPLINE
  5
3BE
100
AcDbEntity
  8
7_ALL_FEATURES
100
AcDbSpline
 62
7
  6
CONTINUOUS
 70
0
 71
3
 72
13
 73
9
 74
0
 42
0.0000001
 43
0.0000001
 44
0.0000000001
 40
0.0
 40
0.0
 40
0.0
 40
0.0
 40
0.2506025233
 40
0.375399926
 40
0.5000000158
 40
0.6246001032
 40
0.7493975014
 40
1.0
 40
1.0
 40
1.0
 40
1.0
 10
91.3473743419
 20
201.2367025501
 30
0.0
 10
91.9294315888
 20
201.406267725
 30
0.0
 10
92.8167931837
 20
201.6143014848
 30
0.0
 10
94.0185610506
 20
201.7603024977
 30
0.0
 10
94.9235980178
 20
201.797616871
 30
0.0
 10
95.8286349734
 20
201.7603024806
 30
0.0
 10
97.0304027613
 20
201.6143014517
 30
0.0
 10
97.9177642861
 20
201.4062677083
 30
0.0
 10
98.4998214756
 20
201.2367025501
 30
0.0
  0
SPLINE
  5
3BF
100
AcDbEntity
  8
7_ALL_FEATURES
100
AcDbSpline
 62
7
  6
CONTINUOUS
 70
0
 71
3
 72
13
 73
9
 74
0
 42
0.0000001
 43
0.0000001
 44
0.0000000001
 40
0.0
 40
0.0
 40
0.0
 40
0.0
 40
0.2506025233
 40
0.375399926
 40
0.5000000158
 40
0.6246001032
 40
0.7493975014
 40
1.0
 40
1.0
 40
1.0
 40
1.0
 10
91.3473743419
 20
197.2491381153
 30
0.0
 10
91.9294315888
 20
197.0795729404
 30
0.0
 10
92.8167931837
 20
196.8715391806
 30
0.0
 10
94.0185610506
 20
196.7255381677
 30
0.0
 10
94.9235980178
 20
196.6882237944
 30
0.0
 10
95.8286349734
 20
196.7255381848
 30
0.0
 10
97.0304027613
 20
196.8715392137
 30
0.0
 10
97.9177642861
 20
197.0795729571
 30
0.0
 10
98.4998214756
 20
197.2491381153
 30
0.0
  0
SPLINE
  5
3C0
100
AcDbEntity
  8
02___PRT_ALL_AXES
100
AcDbSpline
 62
7
  6
CONTINUOUS
 70
0
 71
3
 72
9
 73
5
 74
0
 42
0.0000001
 43
0.0000001
 44
0.0000000001
 40
0.0
 40
0.0
 40
0.0
 40
0.0
 40
0.2506309466
 40
1.0
 40
1.0
 40
1.0
 40
1.0
 10
106.9998214756
 20
210.0095639791
 30
0.0
 10
106.8717331524
 20
209.972249232
 30
0.0
 10
106.3589751989
 20
209.8293328761
 30
0.0
 10
105.8388055795
 20
209.7122968434
 30
0.0
 10
105.4459895957
 20
209.6429203327
 30
0.0
  0
SPLINE
  5
3C1
100
AcDbEntity
  8
02___PRT_ALL_AXES
100
AcDbSpline
 62
7
  6
CONTINUOUS
 70
0
 71
3
 72
9
 73
5
 74
0
 42
0.0000001
 43
0.0000001
 44
0.0000000001
 40
0.0
 40
0.0
 40
0.0
 40
0.0
 40
0.2494762509
 40
1.0
 40
1.0
 40
1.0
 40
1.0
 10
101.4012062217
 20
209.6429203327
 30
0.0
 10
101.2704285208
 20
209.6660174085
 30
0.0
 10
100.7476567781
 20
209.7666964116
 30
0.0
 10
100.2309494163
 20
209.8978207185
 30
0.0
 10
99.8473743419
 20
210.0095639791
 30
0.0
  0
SPLINE
  5
3C2
100
AcDbEntity
  8
02___PRT_ALL_AXES
100
AcDbSpline
 62
7
  6
CONTINUOUS
 70
0
 71
3
 72
9
 73
5
 74
0
 42
0.0000001
 43
0.0000001
 44
0.0000000001
 40
0.0
 40
0.0
 40
0.0
 40
0.0
 40
0.2506309466
 40
1.0
 40
1.0
 40
1.0
 40
1.0
 10
98.4998214756
 20
210.0095639791
 30
0.0
 10
98.3717331524
 20
209.972249232
 30
0.0
 10
97.8589751989
 20
209.8293328761
 30
0.0
 10
97.3388055795
 20
209.7122968434
 30
0.0
 10
96.9459895957
 20
209.6429203327
 30
0.0
  0
SPLINE
  5
3C3
100
AcDbEntity
  8
02___PRT_ALL_AXES
100
AcDbSpline
 62
7
  6
CONTINUOUS
 70
0
 71
3
 72
9
 73
5
 74
0
 42
0.0000001
 43
0.0000001
 44
0.0000000001
 40
0.0
 40
0.0
 40
0.0
 40
0.0
 40
0.2494762509
 40
1.0
 40
1.0
 40
1.0
 40
1.0
 10
92.9012062217
 20
209.6429203327
 30
0.0
 10
92.7704285208
 20
209.6660174085
 30
0.0
 10
92.2476567781
 20
209.7666964116
 30
0.0
 10
91.7309494163
 20
209.8978207185
 30
0.0
 10
91.3473743419
 20
210.0095639791
 30
0.0
  0
SPLINE
  5
3C4
100
AcDbEntity
  8
7_ALL_FEATURES
100
AcDbSpline
 62
7
  6
CONTINUOUS
 70
0
 71
3
 72
13
 73
9
 74
0
 42
0.0000001
 43
0.0000001
 44
0.0000000001
 40
0.0
 40
0.0
 40
0.0
 40
0.0
 40
0.2499535484
 40
0.3749769542
 40
0.5000000158
 40
0.6250230751
 40
0.7500464763
 40
1.0
 40
1.0
 40
1.0
 40
1.0
 10
268.821970587
 20
201.2367025501
 30
0.0
 10
269.4965544523
 20
201.4068939234
 30
0.0
 10
270.5222928827
 20
201.6147470466
 30
0.0
 10
271.9072336693
 20
201.7603508935
 30
0.0
 10
272.9514379908
 20
201.7976024991
 30
0.0
 10
273.995642299
 20
201.7603508763
 30
0.0
 10
275.3805829952
 20
201.6147470136
 30
0.0
 10
276.4063213444
 20
201.4068939065
 30
0.0
 10
277.080905143
 20
201.2367025501
 30
0.0
  0
SPLINE
  5
3C5
100
AcDbEntity
  8
7_ALL_FEATURES
100
AcDbSpline
 62
7
  6
CONTINUOUS
 70
0
 71
3
 72
13
 73
9
 74
0
 42
0.0000001
 43
0.0000001
 44
0.0000000001
 40
0.0
 40
0.0
 40
0.0
 40
0.0
 40
0.2499535484
 40
0.3749769542
 40
0.5000000158
 40
0.6250230751
 40
0.7500464763
 40
1.0
 40
1.0
 40
1.0
 40
1.0
 10
268.821970587
 20
197.2491381153
 30
0.0
 10
269.4965544523
 20
197.078946742
 30
0.0
 10
270.5222928827
 20
196.8710936188
 30
0.0
 10
271.9072336693
 20
196.7254897719
 30
0.0
 10
272.9514379908
 20
196.6882381663
 30
0.0
 10
273.995642299
 20
196.7254897891
 30
0.0
 10
275.3805829952
 20
196.8710936518
 30
0.0
 10
276.4063213444
 20
197.0789467589
 30
0.0
 10
277.080905143
 20
197.2491381153
 30
0.0
  0
SPLINE
  5
3C6
100
AcDbEntity
  8
7_ALL_FEATURES
100
AcDbSpline
 62
7
  6
CONTINUOUS
 70
0
 71
3
 72
15
 73
11
 74
0
 42
0.0000001
 43
0.0000001
 44
0.0000000001
 40
0.0
 40
0.0
 40
0.0
 40
0.0
 40
0.129625734
 40
0.2556374916
 40
0.3786737987
 40
0.5000000154
 40
0.6213262301
 40
0.7443625332
 40
0.8703742768
 40
1.0
 40
1.0
 40
1.0
 40
1.0
 10
263.5254882939
 20
201.2367025501
 30
0.0
 10
263.6917640738
 20
201.3206022838
 30
0.0
 10
264.0264041696
 20
201.4733464052
 30
0.0
 10
264.542329881
 20
201.6493876732
 30
0.0
 10
265.0643963715
 20
201.7599335428
 30
0.0
 10
265.5902219962
 20
201.7977228336
 30
0.0
 10
266.116047614
 20
201.7599335251
 30
0.0
 10
266.6381140728
 20
201.6493876443
 30
0.0
 10
267.154039741
 20
201.4733463798
 30
0.0
 10
267.4886798058
 20
201.3206022768
 30
0.0
 10
267.6549555718
 20
201.2367025501
 30
0.0
  0
SPLINE
  5
3C7
100
AcDbEntity
  8
7_ALL_FEATURES
100
AcDbSpline
 62
7
  6
CONTINUOUS
 70
0
 71
3
 72
15
 73
11
 74
0
 42
0.0000001
 43
0.0000001
 44
0.0000000001
 40
0.0
 40
0.0
 40
0.0
 40
0.0
 40
0.129625734
 40
0.2556374916
 40
0.3786737987
 40
0.5000000154
 40
0.6213262301
 40
0.7443625332
 40
0.8703742768
 40
1.0
 40
1.0
 40
1.0
 40
1.0
 10
263.5254882939
 20
197.2491381153
 30
0.0
 10
263.6917640738
 20
197.1652383816
 30
0.0
 10
264.0264041696
 20
197.0124942602
 30
0.0
 10
264.542329881
 20
196.8364529922
 30
0.0
 10
265.0643963715
 20
196.7259071226
 30
0.0
 10
265.5902219962
 20
196.6881178318
 30
0.0
 10
266.116047614
 20
196.7259071403
 30
0.0
 10
266.6381140728
 20
196.8364530211
 30
0.0
 10
267.154039741
 20
197.0124942856
 30
0.0
 10
267.4886798058
 20
197.1652383886
 30
0.0
 10
267.6549555718
 20
197.2491381153
 30
0.0
  0
SPLINE
  5
3C8
100
AcDbEntity
  8
7_ALL_FEATURES
100
AcDbSpline
 62
7
  6
CONTINUOUS
 70
0
 71
3
 72
15
 73
11
 74
0
 42
0.0000001
 43
0.0000001
 44
0.0000000001
 40
0.0
 40
0.0
 40
0.0
 40
0.0
 40
0.129625734
 40
0.2556374916
 40
0.3786737987
 40
0.5000000154
 40
0.6213262301
 40
0.7443625332
 40
0.8703742768
 40
1.0
 40
1.0
 40
1.0
 40
1.0
 10
278.2479201582
 20
201.2367025501
 30
0.0
 10
278.4141959382
 20
201.3206022838
 30
0.0
 10
278.748836034
 20
201.4733464052
 30
0.0
 10
279.2647617454
 20
201.6493876732
 30
0.0
 10
279.7868282358
 20
201.7599335428
 30
0.0
 10
280.3126538606
 20
201.7977228336
 30
0.0
 10
280.8384794784
 20
201.7599335251
 30
0.0
 10
281.3605459371
 20
201.6493876443
 30
0.0
 10
281.8764716053
 20
201.4733463798
 30
0.0
 10
282.2111116702
 20
201.3206022768
 30
0.0
 10
282.3773874362
 20
201.2367025501
 30
0.0
  0
SPLINE
  5
3C9
100
AcDbEntity
  8
7_ALL_FEATURES
100
AcDbSpline
 62
7
  6
CONTINUOUS
 70
0
 71
3
 72
15
 73
11
 74
0
 42
0.0000001
 43
0.0000001
 44
0.0000000001
 40
0.0
 40
0.0
 40
0.0
 40
0.0
 40
0.129625734
 40
0.2556374916
 40
0.3786737987
 40
0.5000000154
 40
0.6213262301
 40
0.7443625332
 40
0.8703742768
 40
1.0
 40
1.0
 40
1.0
 40
1.0
 10
278.2479201582
 20
197.2491381153
 30
0.0
 10
278.4141959382
 20
197.1652383816
 30
0.0
 10
278.748836034
 20
197.0124942602
 30
0.0
 10
279.2647617454
 20
196.8364529922
 30
0.0
 10
279.7868282358
 20
196.7259071226
 30
0.0
 10
280.3126538606
 20
196.6881178318
 30
0.0
 10
280.8384794784
 20
196.7259071403
 30
0.0
 10
281.3605459371
 20
196.8364530211
 30
0.0
 10
281.8764716053
 20
197.0124942856
 30
0.0
 10
282.2111116702
 20
197.1652383886
 30
0.0
 10
282.3773874362
 20
197.2491381153
 30
0.0
  0
SPLINE
  5
3CA
100
AcDbEntity
  8
02___PRT_ALL_AXES
100
AcDbSpline
 62
7
  6
CONTINUOUS
 70
0
 71
3
 72
9
 73
5
 74
0
 42
0.0000001
 43
0.0000001
 44
0.0000000001
 40
0.0
 40
0.0
 40
0.0
 40
0.0
 40
0.2548434543
 40
1.0
 40
1.0
 40
1.0
 40
1.0
 10
282.3773874362
 20
210.0095639791
 30
0.0
 10
282.3038408217
 20
209.9724536953
 30
0.0
 10
282.0127870453
 20
209.8318737081
 30
0.0
 10
281.710619985
 20
209.713381389
 30
0.0
 10
281.4802821821
 20
209.6429203327
 30
0.0
  0
SPLINE
  5
3CB
100
AcDbEntity
  8
02___PRT_ALL_AXES
100
AcDbSpline
 62
7
  6
CONTINUOUS
 70
0
 71
3
 72
9
 73
5
 74
0
 42
0.0000001
 43
0.0000001
 44
0.0000000001
 40
0.0
 40
0.0
 40
0.0
 40
0.0
 40
0.2454840682
 40
1.0
 40
1.0
 40
1.0
 40
1.0
 10
279.1450254123
 20
209.6429203327
 30
0.0
 10
279.069137134
 20
209.666134795
 30
0.0
 10
278.7624018899
 20
209.7685454657
 30
0.0
 10
278.4656867759
 20
209.8996829053
 30
0.0
 10
278.2479201582
 20
210.0095639791
 30
0.0
  0
SPLINE
  5
3CC
100
AcDbEntity
  8
02___PRT_ALL_AXES
100
AcDbSpline
 62
7
  6
CONTINUOUS
 70
0
 71
3
 72
9
 73
5
 74
0
 42
0.0000001
 43
0.0000001
 44
0.0000000001
 40
0.0
 40
0.0
 40
0.0
 40
0.0
 40
0.2548434543
 40
1.0
 40
1.0
 40
1.0
 40
1.0
 10
267.6549555718
 20
210.0095639791
 30
0.0
 10
267.5814089574
 20
209.9724536953
 30
0.0
 10
267.290355181
 20
209.8318737081
 30
0.0
 10
266.9881881207
 20
209.713381389
 30
0.0
 10
266.7578503178
 20
209.6429203327
 30
0.0
  0
SPLINE
  5
3CD
100
AcDbEntity
  8
02___PRT_ALL_AXES
100
AcDbSpline
 62
7
  6
CONTINUOUS
 70
0
 71
3
 72
8
 73
4
 74
0
 42
0.0000001
 43
0.0000001
 44
0.0000000001
 40
0.0
 40
0.0
 40
0.0
 40
0.0
 40
1.0
 40
1.0
 40
1.0
 40
1.0
 10
277.080905143
 20
210.0095639791
 30
0.0
 10
276.489021845
 20
209.8602372066
 30
0.0
 10
275.8901068928
 20
209.7352131837
 30
0.0
 10
275.2866946348
 20
209.6429203327
 30
0.0
  0
SPLINE
  5
3CE
100
AcDbEntity
  8
02___PRT_ALL_AXES
100
AcDbSpline
 62
7
  6
CONTINUOUS
 70
0
 71
3
 72
8
 73
4
 74
0
 42
0.0000001
 43
0.0000001
 44
0.0000000001
 40
0.0
 40
0.0
 40
0.0
 40
0.0
 40
1.0
 40
1.0
 40
1.0
 40
1.0
 10
270.6161810952
 20
209.6429203327
 30
0.0
 10
270.0127688372
 20
209.7352131837
 30
0.0
 10
269.4138538851
 20
209.8602372066
 30
0.0
 10
268.821970587
 20
210.0095639791
 30
0.0
  0
SPLINE
  5
3CF
100
AcDbEntity
  8
02___PRT_ALL_AXES
100
AcDbSpline
 62
7
  6
CONTINUOUS
 70
0
 71
3
 72
9
 73
5
 74
0
 42
0.0000001
 43
0.0000001
 44
0.0000000001
 40
0.0
 40
0.0
 40
0.0
 40
0.0
 40
0.2454840682
 40
1.0
 40
1.0
 40
1.0
 40
1.0
 10
264.422593548
 20
209.6429203327
 30
0.0
 10
264.3467052697
 20
209.666134795
 30
0.0
 10
264.0399700256
 20
209.7685454657
 30
0.0
 10
263.7432549116
 20
209.8996829053
 30
0.0
 10
263.5254882939
 20
210.0095639791
 30
0.0
  0
SPLINE
  5
3D0
100
AcDbEntity
  8
0
100
AcDbSpline
 62
2
  6
CONTINUOUS
 70
0
 71
3
 72
186
 73
182
 74
0
 42
0.0000001
 43
0.0000001
 44
0.0000000001
 40
0.0
 40
0.0
 40
0.0
 40
0.0
 40
0.03125
 40
0.0625
 40
0.078125
 40
0.09375
 40
0.109375
 40
0.125
 40
0.1328125
 40
0.140625
 40
0.1484375
 40
0.15234375
 40
0.15625
 40
0.16015625
 40
0.162109375
 40
0.1640625
 40
0.1650390625
 40
0.166015625
 40
0.1665039062
 40
0.1667480469
 40
0.1669921875
 40
0.1674804688
 40
0.16796875
 40
0.169921875
 40
0.171875
 40
0.173828125
 40
0.17578125
 40
0.1796875
 40
0.1875
 40
0.1953125
 40
0.203125
 40
0.2109375
 40
0.21875
 40
0.234375
 40
0.25
 40
0.265625
 40
0.28125
 40
0.2890625
 40
0.296875
 40
0.3046875
 40
0.3125
 40
0.31640625
 40
0.3203125
 40
0.32421875
 40
0.326171875
 40
0.328125
 40
0.330078125
 40
0.3310546875
 40
0.33203125
 40
0.3325195312
 40
0.3330078125
 40
0.3332519531
 40
0.3334960938
 40
0.3337402344
 40
0.333984375
 40
0.3349609375
 40
0.3359375
 40
0.3369140625
 40
0.337890625
 40
0.33984375
 40
0.34375
 40
0.34765625
 40
0.3515625
 40
0.35546875
 40
0.359375
 40
0.3671875
 40
0.375
 40
0.390625
 40
0.40625
 40
0.421875
 40
0.4375
 40
0.453125
 40
0.4609375
 40
0.46875
 40
0.4765625
 40
0.48046875
 40
0.484375
 40
0.48828125
 40
0.4921875
 40
0.494140625
 40
0.49609375
 40
0.4970703125
 40
0.498046875
 40
0.4990234375
 40
0.4995117188
 40
0.4997558594
 40
0.5
 40
0.5002441406
 40
0.5004882812
 40
0.5009765625
 40
0.501953125
 40
0.5029296875
 40
0.50390625
 40
0.505859375
 40
0.5078125
 40
0.51171875
 40
0.515625
 40
0.51953125
 40
0.5234375
 40
0.53125
 40
0.5390625
 40
0.546875
 40
0.5625
 40
0.578125
 40
0.59375
 40
0.609375
 40
0.625
 40
0.6328125
 40
0.640625
 40
0.64453125
 40
0.6484375
 40
0.65234375
 40
0.65625
 40
0.66015625
 40
0.662109375
 40
0.6630859375
 40
0.6640625
 40
0.6650390625
 40
0.666015625
 40
0.6662597656
 40
0.6665039062
 40
0.6666259766
 40
0.6667480469
 40
0.6669921875
 40
0.6674804688
 40
0.66796875
 40
0.6689453125
 40
0.669921875
 40
0.671875
 40
0.673828125
 40
0.67578125
 40
0.6796875
 40
0.68359375
 40
0.6875
 40
0.6953125
 40
0.703125
 40
0.7109375
 40
0.71875
 40
0.734375
 40
0.75
 40
0.765625
 40
0.78125
 40
0.7890625
 40
0.796875
 40
0.8046875
 40
0.8125
 40
0.81640625
 40
0.8203125
 40
0.82421875
 40
0.826171875
 40
0.828125
 40
0.830078125
 40
0.8310546875
 40
0.83203125
 40
0.8325195312
 40
0.8330078125
 40
0.8332519531
 40
0.8333740234
 40
0.8334960938
 40
0.8337402344
 40
0.833984375
 40
0.8344726562
 40
0.8349609375
 40
0.8359375
 40
0.8369140625
 40
0.837890625
 40
0.83984375
 40
0.84375
 40
0.84765625
 40
0.8515625
 40
0.85546875
 40
0.859375
 40
0.8671875
 40
0.875
 40
0.890625
 40
0.90625
 40
0.921875
 40
0.9375
 40
0.953125
 40
0.96875
 40
1.0
 40
1.0
 40
1.0
 40
1.0
 10
294.7737542263
 20
74.1416755527
 30
0.0
 10
294.8482800049
 20
74.1414011439
 30
0.0
 10
294.9973315622
 20
74.1408523265
 30
0.0
 10
295.1836460088
 20
74.1401663046
 30
0.0
 10
295.3326975661
 20
74.1396174871
 30
0.0
 10
295.4444862341
 20
74.1392058741
 30
0.0
 10
295.556274902
 20
74.1387942608
 30
0.0
 10
295.6494321255
 20
74.1384512505
 30
0.0
 10
295.7239579039
 20
74.1381768404
 30
0.0
 10
295.7798522385
 20
74.1379710382
 30
0.0
 10
295.8264308481
 20
74.137799519
 30
0.0
 10
295.8636937417
 20
74.1376623427
 30
0.0
 10
295.8916408957
 20
74.1375593536
 30
0.0
 10
295.9149302422
 20
74.1374738695
 30
0.0
 10
295.9335616039
 20
74.1374047192
 30
0.0
 10
295.9452064679
 20
74.1373632376
 30
0.0
 10
295.9545217569
 20
74.1373260736
 30
0.0
 10
295.9603451865
 20
74.1373119244
 30
0.0
 10
295.9644188337
 20
74.1372838258
 30
0.0
 10
295.9667509403
 20
74.1372962359
 30
0.0
 10
295.9690992737
 20
74.1374158649
 30
0.0
 10
295.9720291441
 20
74.1375287533
 30
0.0
 10
295.9790653979
 20
74.1378298483
 30
0.0
 10
295.9896178613
 20
74.1382688221
 30
0.0
 10
296.0036889084
 20
74.1388613613
 30
0.0
 10
296.0177596624
 20
74.1394519637
 30
0.0
 10
296.0365207699
 20
74.1402401091
 30
0.0
 10
296.0693526605
 20
74.1416190488
 30
0.0
 10
296.1162553862
 20
74.1435891272
 30
0.0
 10
296.1725386463
 20
74.1459531507
 30
0.0
 10
296.2288219093
 20
74.1483171932
 30
0.0
 10
296.2851051716
 20
74.1506812306
 30
0.0
 10
296.3601495215
 20
74.1538332822
 30
0.0
 10
296.4539549589
 20
74.1577733461
 30
0.0
 10
296.5665214837
 20
74.1625014231
 30
0.0
 10
296.6790880085
 20
74.1672295
 30
0.0
 10
296.7728934459
 20
74.1711695641
 30
0.0
 10
296.8479377958
 20
74.1743216154
 30
0.0
 10
296.9042210581
 20
74.1766856539
 30
0.0
 10
296.9605043209
 20
74.1790496921
 30
0.0
 10
297.0074070383
 20
74.181019725
 30
0.0
 10
297.0449292159
 20
74.1825957488
 30
0.0
 10
297.073070839
 20
74.1837777737
 30
0.0
 10
297.0965222237
 20
74.184762772
 30
0.0
 10
297.1152832594
 20
74.1855508211
 30
0.0
 10
297.1293542332
 20
74.1861417199
 30
0.0
 10
297.1410794178
 20
74.1866345746
 30
0.0
 10
297.1504609715
 20
74.1870278736
 30
0.0
 10
297.1563212411
 20
74.187275928
 30
0.0
 10
297.1610167887
 20
74.1874692356
 30
0.0
 10
297.1639347769
 20
74.1876017713
 30
0.0
 10
297.1663074842
 20
74.1876809596
 30
0.0
 10
297.167982102
 20
74.1878138406
 30
0.0
 10
297.1696273212
 20
74.1879673148
 30
0.0
 10
297.1729328823
 20
74.18826367
 30
0.0
 10
297.1778848722
 20
74.1887126521
 30
0.0
 10
297.1844911559
 20
74.1893087518
 30
0.0
 10
297.1910964684
 20
74.1899055317
 30
0.0
 10
297.1999038905
 20
74.1907010011
 30
0.0
 10
297.2153167214
 20
74.192093183
 30
0.0
 10
297.2373351338
 20
74.1940819565
 30
0.0
 10
297.2637571932
 20
74.1964685094
 30
0.0
 10
297.2901792621
 20
74.1988550558
 30
0.0
 10
297.3166013285
 20
74.2012416039
 30
0.0
 10
297.3518307512
 20
74.2044236674
 30
0.0
 10
297.3958675294
 20
74.208401247
 30
0.0
 10
297.4663263745
 20
74.2147653743
 30
0.0
 10
297.5543999309
 20
74.2227205334
 30
0.0
 10
297.6600881986
 20
74.2322667243
 30
0.0
 10
297.7657764663
 20
74.2418129152
 30
0.0
 10
297.8714647339
 20
74.2513591061
 30
0.0
 10
297.9595382903
 20
74.2593142652
 30
0.0
 10
298.0299971355
 20
74.2656783925
 30
0.0
 10
298.0828412692
 20
74.2704514881
 30
0.0
 10
298.1268780478
 20
74.2744290672
 30
0.0
 10
298.1621074695
 20
74.2776111317
 30
0.0
 10
298.1885295391
 20
74.2799976767
 30
0.0
 10
298.214951596
 20
74.2823842346
 30
0.0
 10
298.2369700162
 20
74.2843729927
 30
0.0
 10
298.254584664
 20
74.2859640891
 30
0.0
 10
298.2655940201
 20
74.2869583197
 30
0.0
 10
298.2744010442
 20
74.2877541729
 30
0.0
 10
298.2810075738
 20
74.2883497794
 30
0.0
 10
298.2865090022
 20
74.2888502008
 30
0.0
 10
298.2903678772
 20
74.2891924837
 30
0.0
 10
298.2925606523
 20
74.2894005842
 30
0.0
 10
298.2942398725
 20
74.2895214179
 30
0.0
 10
298.2957866856
 20
74.2897769629
 30
0.0
 10
298.2978952881
 20
74.2900707008
 30
0.0
 10
298.301563824
 20
74.290606635
 30
0.0
 10
298.3068158397
 20
74.2913608094
 30
0.0
 10
298.3131134431
 20
74.2922707179
 30
0.0
 10
298.3215119295
 20
74.293482218
 30
0.0
 10
298.3320094617
 20
74.2949971791
 30
0.0
 10
298.3488058351
 20
74.2974207894
 30
0.0
 10
298.3698011913
 20
74.3004504145
 30
0.0
 10
298.3949956662
 20
74.3040859166
 30
0.0
 10
298.4201901284
 20
74.3077214316
 30
0.0
 10
298.4537827491
 20
74.3125687803
 30
0.0
 10
298.4957735234
 20
74.3186279678
 30
0.0
 10
298.5461624533
 20
74.3258989922
 30
0.0
 10
298.6133476928
 20
74.3355936916
 30
0.0
 10
298.6973292424
 20
74.3477120657
 30
0.0
 10
298.7981071018
 20
74.3622541147
 30
0.0
 10
298.8988849612
 20
74.3767961636
 30
0.0
 10
298.9996628207
 20
74.3913382126
 30
0.0
 10
299.0836443701
 20
74.4034565867
 30
0.0
 10
299.1508296098
 20
74.413151286
 30
0.0
 10
299.1928203844
 20
74.4192104732
 30
0.0
 10
299.2264130046
 20
74.4240578227
 30
0.0
 10
299.2516074684
 20
74.4276933354
 30
0.0
 10
299.2768019371
 20
74.4313288459
 30
0.0
 10
299.3019963876
 20
74.4349643646
 30
0.0
 10
299.3229918197
 20
74.437993938
 30
0.0
 10
299.3376885111
 20
74.4401146894
 30
0.0
 10
299.3460867939
 20
74.4413264693
 30
0.0
 10
299.3523850174
 20
74.4422355242
 30
0.0
 10
299.3586851085
 20
74.4431437379
 30
0.0
 10
299.3634049404
 20
74.4438272567
 30
0.0
 10
299.3665596388
 20
74.444279268
 30
0.0
 10
299.3678619781
 20
74.4444730641
 30
0.0
 10
299.3689321192
 20
74.4446153684
 30
0.0
 10
299.3698988766
 20
74.4448042365
 30
0.0
 10
299.3715426677
 20
74.4451563904
 30
0.0
 10
299.3739160026
 20
74.4456481794
 30
0.0
 10
299.3776993327
 20
74.4464413501
 30
0.0
 10
299.3824332908
 20
74.4474306535
 30
0.0
 10
299.3900049437
 20
74.4490147461
 30
0.0
 10
299.3994704293
 20
74.4509944478
 30
0.0
 10
299.4108286185
 20
74.453370267
 30
0.0
 10
299.4259730082
 20
74.456537964
 30
0.0
 10
299.4449034481
 20
74.4604976066
 30
0.0
 10
299.4676199963
 20
74.4652491685
 30
0.0
 10
299.4979087201
 20
74.4715845876
 30
0.0
 10
299.5357696272
 20
74.4795038604
 30
0.0
 10
299.5812027148
 20
74.4890069883
 30
0.0
 10
299.6266358026
 20
74.498510116
 30
0.0
 10
299.687213253
 20
74.511180953
 30
0.0
 10
299.7629350659
 20
74.5270194992
 30
0.0
 10
299.8538012415
 20
74.5460257547
 30
0.0
 10
299.944667417
 20
74.5650320101
 30
0.0
 10
300.02038923
 20
74.5808705564
 30
0.0
 10
300.0809666804
 20
74.5935413933
 30
0.0
 10
300.1263997681
 20
74.6030445211
 30
0.0
 10
300.1718328561
 20
74.6125476487
 30
0.0
 10
300.2096937617
 20
74.6204669221
 30
0.0
 10
300.2399824887
 20
74.6268023401
 30
0.0
 10
300.2626990272
 20
74.6315539056
 30
0.0
 10
300.2816294973
 20
74.635513537
 30
0.0
 10
300.2967738255
 20
74.6386812568
 30
0.0
 10
300.3081322026
 20
74.6410570065
 30
0.0
 10
300.3175971001
 20
74.6430369256
 30
0.0
 10
300.3251699528
 20
74.6446205746
 30
0.0
 10
300.3299008576
 20
74.645611007
 30
0.0
 10
300.3336904552
 20
74.6464018602
 30
0.0
 10
300.3360478333
 20
74.6468995494
 30
0.0
 10
300.3377202846
 20
74.6472411059
 30
0.0
 10
300.3386411016
 20
74.6474469608
 30
0.0
 10
300.3394305602
 20
74.6476930482
 30
0.0
 10
300.3404623603
 20
74.6479868819
 30
0.0
 10
300.3420881053
 20
74.6484647143
 30
0.0
 10
300.3441288929
 20
74.6490593688
 30
0.0
 10
300.3473893429
 20
74.6500122892
 30
0.0
 10
300.3514665557
 20
74.6512029343
 30
0.0
 10
300.3563585048
 20
74.6526319247
 30
0.0
 10
300.3628813499
 20
74.6545371697
 30
0.0
 10
300.3742962141
 20
74.6578713838
 30
0.0
 10
300.390603223
 20
74.6626345284
 30
0.0
 10
300.4101716079
 20
74.6683503097
 30
0.0
 10
300.4297399997
 20
74.674066089
 30
0.0
 10
300.4493083897
 20
74.6797818688
 30
0.0
 10
300.475399577
 20
74.6874029083
 30
0.0
 10
300.5080135608
 20
74.6969292078
 30
0.0
 10
300.5601959352
 20
74.712171287
 30
0.0
 10
300.625423903
 20
74.7312238859
 30
0.0
 10
300.7036974644
 20
74.7540870047
 30
0.0
 10
300.7819710259
 20
74.7769501234
 30
0.0
 10
300.8602445873
 20
74.7998132422
 30
0.0
 10
300.9385181487
 20
74.8226763609
 30
0.0
 10
301.0428828973
 20
74.8531605193
 30
0.0
 10
301.1211564588
 20
74.876023638
 30
0.0
 10
301.173338833
 20
74.8912657172
 30
0.0
  0
SPLINE
  5
3D1
100
AcDbEntity
  8
0
100
AcDbSpline
 62
2
  6
CONTINUOUS
 70
0
 71
3
 72
280
 73
276
 74
0
 42
0.0000001
 43
0.0000001
 44
0.0000000001
 40
0.0
 40
0.0
 40
0.0
 40
0.0
 40
0.015625
 40
0.03125
 40
0.046875
 40
0.0625
 40
0.0703125
 40
0.078125
 40
0.0859375
 40
0.09375
 40
0.1015625
 40
0.109375
 40
0.11328125
 40
0.1171875
 40
0.12109375
 40
0.125
 40
0.12890625
 40
0.130859375
 40
0.1328125
 40
0.134765625
 40
0.13671875
 40
0.1376953125
 40
0.138671875
 40
0.1396484375
 40
0.140625
 40
0.1411132812
 40
0.1416015625
 40
0.1420898438
 40
0.1423339844
 40
0.142578125
 40
0.1427001953
 40
0.1427612305
 40
0.1428222656
 40
0.1428527832
 40
0.1428833008
 40
0.1429443359
 40
0.1430664062
 40
0.1433105469
 40
0.1435546875
 40
0.1440429688
 40
0.14453125
 40
0.1455078125
 40
0.146484375
 40
0.1484375
 40
0.150390625
 40
0.15234375
 40
0.154296875
 40
0.15625
 40
0.16015625
 40
0.1640625
 40
0.171875
 40
0.1796875
 40
0.1875
 40
0.1953125
 40
0.203125
 40
0.2109375
 40
0.21875
 40
0.2265625
 40
0.234375
 40
0.2421875
 40
0.25
 40
0.2578125
 40
0.26171875
 40
0.265625
 40
0.26953125
 40
0.2734375
 40
0.275390625
 40
0.27734375
 40
0.279296875
 40
0.2802734375
 40
0.28125
 40
0.2822265625
 40
0.283203125
 40
0.2836914062
 40
0.2841796875
 40
0.2846679688
 40
0.2849121094
 40
0.28515625
 40
0.2854003906
 40
0.2855224609
 40
0.2856445312
 40
0.2857055664
 40
0.2857666016
 40
0.2858886719
 40
0.2861328125
 40
0.2863769531
 40
0.2866210938
 40
0.287109375
 40
0.2875976562
 40
0.2880859375
 40
0.2890625
 40
0.291015625
 40
0.29296875
 40
0.294921875
 40
0.296875
 40
0.30078125
 40
0.3046875
 40
0.30859375
 40
0.3125
 40
0.3203125
 40
0.328125
 40
0.3359375
 40
0.34375
 40
0.359375
 40
0.375
 40
0.3828125
 40
0.390625
 40
0.3984375
 40
0.40625
 40
0.41015625
 40
0.4140625
 40
0.41796875
 40
0.419921875
 40
0.421875
 40
0.423828125
 40
0.4248046875
 40
0.42578125
 40
0.4267578125
 40
0.4272460938
 40
0.427734375
 40
0.4279785156
 40
0.4282226562
 40
0.4283447266
 40
0.4284667969
 40
0.4285888672
 40
0.4286499023
 40
0.4287109375
 40
0.4289550781
 40
0.4291992188
 40
0.4294433594
 40
0.4296875
 40
0.4301757812
 40
0.4306640625
 40
0.431640625
 40
0.4326171875
 40
0.43359375
 40
0.435546875
 40
0.4375
 40
0.439453125
 40
0.44140625
 40
0.4453125
 40
0.44921875
 40
0.453125
 40
0.45703125
 40
0.4609375
 40
0.46875
 40
0.4765625
 40
0.484375
 40
0.5
 40
0.515625
 40
0.5234375
 40
0.53125
 40
0.5390625
 40
0.54296875
 40
0.546875
 40
0.55078125
 40
0.5546875
 40
0.55859375
 40
0.560546875
 40
0.5625
 40
0.564453125
 40
0.56640625
 40
0.5673828125
 40
0.568359375
 40
0.5693359375
 40
0.5698242188
 40
0.5703125
 40
0.5708007812
 40
0.5710449219
 40
0.5711669922
 40
0.5712890625
 40
0.5714111328
 40
0.5715332031
 40
0.5716552734
 40
0.5717773438
 40
0.572265625
 40
0.5727539062
 40
0.5732421875
 40
0.57421875
 40
0.5751953125
 40
0.576171875
 40
0.578125
 40
0.58203125
 40
0.5859375
 40
0.58984375
 40
0.59375
 40
0.6015625
 40
0.609375
 40
0.6171875
 40
0.625
 40
0.6328125
 40
0.640625
 40
0.65625
 40
0.671875
 40
0.6796875
 40
0.6875
 40
0.69140625
 40
0.6953125
 40
0.69921875
 40
0.703125
 40
0.70703125
 40
0.708984375
 40
0.7109375
 40
0.7119140625
 40
0.7124023438
 40
0.712890625
 40
0.7133789062
 40
0.7138671875
 40
0.7141113281
 40
0.7142333984
 40
0.7142944336
 40
0.7143554688
 40
0.7144775391
 40
0.7145996094
 40
0.71484375
 40
0.7153320312
 40
0.7158203125
 40
0.716796875
 40
0.7177734375
 40
0.71875
 40
0.720703125
 40
0.72265625
 40
0.724609375
 40
0.7265625
 40
0.73046875
 40
0.734375
 40
0.73828125
 40
0.7421875
 40
0.75
 40
0.7578125
 40
0.765625
 40
0.7734375
 40
0.78125
 40
0.796875
 40
0.8125
 40
0.8203125
 40
0.828125
 40
0.8359375
 40
0.83984375
 40
0.84375
 40
0.84765625
 40
0.849609375
 40
0.8515625
 40
0.853515625
 40
0.8544921875
 40
0.85546875
 40
0.8559570312
 40
0.8564453125
 40
0.8566894531
 40
0.8569335938
 40
0.8571777344
 40
0.8572998047
 40
0.857421875
 40
0.8579101562
 40
0.8583984375
 40
0.8588867188
 40
0.859375
 40
0.8603515625
 40
0.861328125
 40
0.86328125
 40
0.865234375
 40
0.8671875
 40
0.87109375
 40
0.875
 40
0.87890625
 40
0.8828125
 40
0.890625
 40
0.8984375
 40
0.90625
 40
0.9140625
 40
0.921875
 40
0.9375
 40
0.953125
 40
0.96875
 40
1.0
 40
1.0
 40
1.0
 40
1.0
 10
287.6600503791
 20
76.3601921741
 30
0.0
 10
287.6661661065
 20
76.3434822352
 30
0.0
 10
287.6783975614
 20
76.3100623574
 30
0.0
 10
287.6967447438
 20
76.2599325406
 30
0.0
 10
287.7150919261
 20
76.2098027239
 30
0.0
 10
287.7303812448
 20
76.1680278766
 30
0.0
 10
287.7426126997
 20
76.1346079987
 30
0.0
 10
287.7517862909
 20
76.1095430904
 30
0.0
 10
287.760959882
 20
76.084478182
 30
0.0
 10
287.7701334732
 20
76.0594132736
 30
0.0
 10
287.7793070644
 20
76.0343483652
 30
0.0
 10
287.7869517237
 20
76.0134609416
 30
0.0
 10
287.7930674512
 20
75.9967510026
 30
0.0
 10
287.7976542468
 20
75.9842185485
 30
0.0
 10
287.8022410423
 20
75.9716860943
 30
0.0
 10
287.8068278379
 20
75.9591536401
 30
0.0
 10
287.8106501676
 20
75.9487099283
 30
0.0
 10
287.8137080313
 20
75.9403549588
 30
0.0
 10
287.8160014291
 20
75.9340887317
 30
0.0
 10
287.8182948269
 20
75.9278225046
 30
0.0
 10
287.8202059919
 20
75.9226006487
 30
0.0
 10
287.8217349233
 20
75.918423164
 30
0.0
 10
287.8228816237
 20
75.9152900505
 30
0.0
 10
287.824028317
 20
75.9121569367
 30
0.0
 10
287.8249839168
 20
75.9095460093
 30
0.0
 10
287.8257483472
 20
75.9074572658
 30
0.0
 10
287.8263218052
 20
75.9058907125
 30
0.0
 10
287.8267992568
 20
75.9045852379
 30
0.0
 10
287.8271821826
 20
75.9035408883
 30
0.0
 10
287.8274193152
 20
75.9028881013
 30
0.0
 10
287.8275897086
 20
75.9024312878
 30
0.0
 10
287.8276801911
 20
75.9021700365
 30
0.0
 10
287.8277529077
 20
75.9020072591
 30
0.0
 10
287.8277740063
 20
75.9018758798
 30
0.0
 10
287.8279304715
 20
75.9017487262
 30
0.0
 10
287.8281806912
 20
75.9015254708
 30
0.0
 10
287.8286978797
 20
75.9010794829
 30
0.0
 10
287.8294279815
 20
75.9004420845
 30
0.0
 10
287.8306010281
 20
75.8994223996
 30
0.0
 10
287.8320656642
 20
75.8981477412
 30
0.0
 10
287.8344100164
 20
75.896108317
 30
0.0
 10
287.8373401367
 20
75.8935590267
 30
0.0
 10
287.842028508
 20
75.8894801678
 30
0.0
 10
287.8478889108
 20
75.8843815923
 30
0.0
 10
287.8549214205
 20
75.8782633024
 30
0.0
 10
287.8619539231
 20
75.8721450124
 30
0.0
 10
287.8689864276
 20
75.8660267224
 30
0.0
 10
287.8783630996
 20
75.8578690024
 30
0.0
 10
287.8900839398
 20
75.8476718525
 30
0.0
 10
287.9088372841
 20
75.8313564125
 30
0.0
 10
287.9322789644
 20
75.8109621126
 30
0.0
 10
287.9604089808
 20
75.7864889526
 30
0.0
 10
287.9885389972
 20
75.7620157927
 30
0.0
 10
288.0166690137
 20
75.7375426327
 30
0.0
 10
288.0447990301
 20
75.7130694728
 30
0.0
 10
288.0729290465
 20
75.6885963128
 30
0.0
 10
288.1010590629
 20
75.6641231529
 30
0.0
 10
288.1291890793
 20
75.6396499929
 30
0.0
 10
288.1573190957
 20
75.615176833
 30
0.0
 10
288.1854491121
 20
75.590703673
 30
0.0
 10
288.2135791285
 20
75.5662305131
 30
0.0
 10
288.2370208088
 20
75.5458362131
 30
0.0
 10
288.2557741531
 20
75.5295207732
 30
0.0
 10
288.2698391613
 20
75.5172841932
 30
0.0
 10
288.2839041695
 20
75.5050476132
 30
0.0
 10
288.2956250097
 20
75.4948504633
 30
0.0
 10
288.3050016818
 20
75.4866927433
 30
0.0
 10
288.3120341859
 20
75.4805744533
 30
0.0
 10
288.3178946061
 20
75.4754758783
 30
0.0
 10
288.3225829419
 20
75.4713970183
 30
0.0
 10
288.326099195
 20
75.4683378734
 30
0.0
 10
288.3296154431
 20
75.4652787279
 30
0.0
 10
288.3325456654
 20
75.4627294419
 30
0.0
 10
288.3348898084
 20
75.4606900089
 30
0.0
 10
288.3366480109
 20
75.4591604457
 30
0.0
 10
288.3381128767
 20
75.4578857729
 30
0.0
 10
288.3392854487
 20
75.4568661172
 30
0.0
 10
288.3401630216
 20
75.4561011498
 30
0.0
 10
288.3409002361
 20
75.4554643948
 30
0.0
 10
288.3414767667
 20
75.4549533807
 30
0.0
 10
288.3418672491
 20
75.4546376632
 30
0.0
 10
288.3421105833
 20
75.4543766926
 30
0.0
 10
288.3426060039
 20
75.4541463755
 30
0.0
 10
288.3434289621
 20
75.4537379668
 30
0.0
 10
288.3446276349
 20
75.4531573249
 30
0.0
 10
288.3460561897
 20
75.4524593565
 30
0.0
 10
288.347964371
 20
75.4515291504
 30
0.0
 10
288.3503484169
 20
75.4503662493
 30
0.0
 10
288.3532097774
 20
75.4489708294
 30
0.0
 10
288.3570247483
 20
75.4471102481
 30
0.0
 10
288.3637010297
 20
75.4438542407
 30
0.0
 10
288.3732385315
 20
75.4392027965
 30
0.0
 10
288.3846835521
 20
75.4336210656
 30
0.0
 10
288.3961285677
 20
75.4280393342
 30
0.0
 10
288.4113885904
 20
75.4205970258
 30
0.0
 10
288.430463618
 20
75.4112941402
 30
0.0
 10
288.4533536515
 20
75.4001306776
 30
0.0
 10
288.4762436849
 20
75.3889672149
 30
0.0
 10
288.5067637294
 20
75.374082598
 30
0.0
 10
288.5449137851
 20
75.3554768269
 30
0.0
 10
288.5906938519
 20
75.3331499016
 30
0.0
 10
288.6364739187
 20
75.3108229763
 30
0.0
 10
288.6975140078
 20
75.2810537425
 30
0.0
 10
288.7738141191
 20
75.2438422003
 30
0.0
 10
288.8501142304
 20
75.2066306581
 30
0.0
 10
288.9111543195
 20
75.1768614243
 30
0.0
 10
288.9569343863
 20
75.154534499
 30
0.0
 10
289.0027144531
 20
75.1322075737
 30
0.0
 10
289.0408645088
 20
75.1136018026
 30
0.0
 10
289.0713845533
 20
75.0987171857
 30
0.0
 10
289.0942745867
 20
75.087553723
 30
0.0
 10
289.1133496147
 20
75.0782508375
 30
0.0
 10
289.1286096366
 20
75.070808529
 30
0.0
 10
289.1400546546
 20
75.0652267979
 30
0.0
 10
289.1495921643
 20
75.0605753543
 30
0.0
 10
289.1572221841
 20
75.0568542018
 30
0.0
 10
289.162944666
 20
75.0540633307
 30
0.0
 10
289.1677135055
 20
75.0517376263
 30
0.0
 10
289.1715283427
 20
75.0498770146
 30
0.0
 10
289.1739131498
 20
75.048714242
 30
0.0
 10
289.1758197728
 20
75.0477837726
 30
0.0
 10
289.1770142019
 20
75.0472028026
 30
0.0
 10
289.1779633555
 20
75.0467367135
 30
0.0
 10
289.1786927159
 20
75.0463907417
 30
0.0
 10
289.1792448611
 20
75.0460909956
 30
0.0
 10
289.1799152916
 20
75.0458981959
 30
0.0
 10
289.1808621115
 20
75.0455969084
 30
0.0
 10
289.1823070488
 20
75.0451500543
 30
0.0
 10
289.1842195102
 20
75.0445513469
 30
0.0
 10
289.1861357494
 20
75.0439534159
 30
0.0
 10
289.1886894155
 20
75.0431559034
 30
0.0
 10
289.1918819499
 20
75.0421591056
 30
0.0
 10
289.1969897524
 20
75.0405641771
 30
0.0
 10
289.2033745922
 20
75.0385705344
 30
0.0
 10
289.2110363629
 20
75.0361781556
 30
0.0
 10
289.2212520701
 20
75.0329883198
 30
0.0
 10
289.2340216997
 20
75.0290010241
 30
0.0
 10
289.249345257
 20
75.0242162696
 30
0.0
 10
289.2646688139
 20
75.0194315151
 30
0.0
 10
289.2851002232
 20
75.0130518424
 30
0.0
 10
289.3106394848
 20
75.0050772515
 30
0.0
 10
289.3412865988
 20
74.9955077424
 30
0.0
 10
289.3719337127
 20
74.9859382334
 30
0.0
 10
289.4025808267
 20
74.9763687243
 30
0.0
 10
289.4434436453
 20
74.9636093789
 30
0.0
 10
289.4945221685
 20
74.9476601972
 30
0.0
 10
289.5558163964
 20
74.9285211791
 30
0.0
 10
289.6375420336
 20
74.9030024883
 30
0.0
 10
289.7396990801
 20
74.8711041248
 30
0.0
 10
289.8418561266
 20
74.8392057613
 30
0.0
 10
289.9235817637
 20
74.8136870705
 30
0.0
 10
289.9848759916
 20
74.7945480524
 30
0.0
 10
290.0359545149
 20
74.7785988706
 30
0.0
 10
290.0768173335
 20
74.7658395252
 30
0.0
 10
290.1074644474
 20
74.7562700162
 30
0.0
 10
290.1381115613
 20
74.7467005071
 30
0.0
 10
290.1687586753
 20
74.7371309981
 30
0.0
 10
290.1942979369
 20
74.7291564072
 30
0.0
 10
290.2147293463
 20
74.7227767345
 30
0.0
 10
290.2300529029
 20
74.7179919799
 30
0.0
 10
290.2453764612
 20
74.7132072258
 30
0.0
 10
290.2581460878
 20
74.7092199288
 30
0.0
 10
290.2683618011
 20
74.7060300957
 30
0.0
 10
290.2760235531
 20
74.7036377085
 30
0.0
 10
290.2824084513
 20
74.701644092
 30
0.0
 10
290.2875161347
 20
74.7000491101
 30
0.0
 10
290.2913475398
 20
74.6988531159
 30
0.0
 10
290.2945383336
 20
74.6978556839
 30
0.0
 10
290.2967759002
 20
74.6971589928
 30
0.0
 10
290.2980482468
 20
74.6967585238
 30
0.0
 10
290.2990201493
 20
74.6964648196
 30
0.0
 10
290.2999246133
 20
74.6961457054
 30
0.0
 10
290.3010811887
 20
74.6959215835
 30
0.0
 10
290.3022111217
 20
74.6956874232
 30
0.0
 10
290.3044846926
 20
74.6952242662
 30
0.0
 10
290.3078892937
 20
74.6945273624
 30
0.0
 10
290.3124320465
 20
74.6935993948
 30
0.0
 10
290.3184879028
 20
74.6923616725
 30
0.0
 10
290.3260581168
 20
74.6908146678
 30
0.0
 10
290.3351422052
 20
74.6889581987
 30
0.0
 10
290.3472543818
 20
74.6864829288
 30
0.0
 10
290.3684506635
 20
74.6821511961
 30
0.0
 10
290.3987310801
 20
74.6759630119
 30
0.0
 10
290.435067574
 20
74.6685371885
 30
0.0
 10
290.4714040696
 20
74.6611113658
 30
0.0
 10
290.5198527297
 20
74.6512102686
 30
0.0
 10
290.580413555
 20
74.6388338972
 30
0.0
 10
290.6530865454
 20
74.6239822514
 30
0.0
 10
290.7257595357
 20
74.6091306057
 30
0.0
 10
290.7984325261
 20
74.5942789599
 30
0.0
 10
290.8711055165
 20
74.5794273142
 30
0.0
 10
290.9680028369
 20
74.5596251199
 30
0.0
 10
291.0891244875
 20
74.534872377
 30
0.0
 10
291.2102461381
 20
74.5101196341
 30
0.0
 10
291.3071434586
 20
74.4903174398
 30
0.0
 10
291.3677042839
 20
74.4779410683
 30
0.0
 10
291.4161529441
 20
74.4680399712
 30
0.0
 10
291.4524894394
 20
74.4606141483
 30
0.0
 10
291.4888259342
 20
74.4531883253
 30
0.0
 10
291.525162431
 20
74.4457625031
 30
0.0
 10
291.5554428386
 20
74.4395743152
 30
0.0
 10
291.579667179
 20
74.4346237711
 30
0.0
 10
291.5948073592
 20
74.4315296669
 30
0.0
 10
291.6054055505
 20
74.4293638222
 30
0.0
 10
291.6114615579
 20
74.4281261525
 30
0.0
 10
291.6160038507
 20
74.4271980248
 30
0.0
 10
291.6205450454
 20
74.4262694207
 30
0.0
 10
291.624332795
 20
74.425497068
 30
0.0
 10
291.6269775169
 20
74.4249535131
 30
0.0
 10
291.6283090341
 20
74.4246857081
 30
0.0
 10
291.6290551621
 20
74.4245262822
 30
0.0
 10
291.6299492708
 20
74.4244310573
 30
0.0
 10
291.6310162448
 20
74.4242900466
 30
0.0
 10
291.6327516773
 20
74.4240766962
 30
0.0
 10
291.6357755126
 20
74.4236976184
 30
0.0
 10
291.6401021496
 20
74.4231590603
 30
0.0
 10
291.6470209278
 20
74.4222957009
 30
0.0
 10
291.6556707184
 20
74.4212170734
 30
0.0
 10
291.666049903
 20
74.4199224757
 30
0.0
 10
291.6798890129
 20
74.418196431
 30
0.0
 10
291.6971878327
 20
74.4160388457
 30
0.0
 10
291.7179464454
 20
74.4134497559
 30
0.0
 10
291.7387050503
 20
74.4108606627
 30
0.0
 10
291.766383193
 20
74.4074085397
 30
0.0
 10
291.8009808703
 20
74.4030933855
 30
0.0
 10
291.8424980836
 20
74.3979152006
 30
0.0
 10
291.8840152967
 20
74.3927370157
 30
0.0
 10
291.9393715809
 20
74.3858327691
 30
0.0
 10
292.0085669362
 20
74.377202461
 30
0.0
 10
292.0916013625
 20
74.3668460911
 30
0.0
 10
292.1746357887
 20
74.3564897213
 30
0.0
 10
292.257670215
 20
74.3461333515
 30
0.0
 10
292.3683827834
 20
74.3323248584
 30
0.0
 10
292.5067734939
 20
74.3150642421
 30
0.0
 10
292.6451642044
 20
74.2978036257
 30
0.0
 10
292.7558767728
 20
74.2839951327
 30
0.0
 10
292.8389111991
 20
74.2736387628
 30
0.0
 10
292.9081065545
 20
74.2650084548
 30
0.0
 10
292.9634628384
 20
74.2581042079
 30
0.0
 10
293.0049800525
 20
74.2529260239
 30
0.0
 10
293.0395777269
 20
74.248610867
 30
0.0
 10
293.0672558756
 20
74.2451587495
 30
0.0
 10
293.0880144621
 20
74.2425696393
 30
0.0
 10
293.1053133638
 20
74.240412118
 30
0.0
 10
293.1191523065
 20
74.2386859425
 30
0.0
 10
293.1278020525
 20
74.2376074437
 30
0.0
 10
293.1347209177
 20
74.2367438182
 30
0.0
 10
293.1390473342
 20
74.236205938
 30
0.0
 10
293.1425035984
 20
74.2357713148
 30
0.0
 10
293.145109128
 20
74.235457173
 30
0.0
 10
293.1472379932
 20
74.235157769
 30
0.0
 10
293.1491153665
 20
74.2350728414
 30
0.0
 10
293.151886601
 20
74.2349056877
 30
0.0
 10
293.1560622799
 20
74.2346716578
 30
0.0
 10
293.1616190909
 20
74.2343500726
 30
0.0
 10
293.1671787807
 20
74.2340310409
 30
0.0
 10
293.1745906949
 20
74.2336047734
 30
0.0
 10
293.1838559319
 20
74.2330722445
 30
0.0
 10
293.1986801188
 20
74.2322200274
 30
0.0
 10
293.2172104184
 20
74.2311548147
 30
0.0
 10
293.2394467496
 20
74.2298765344
 30
0.0
 10
293.2690952011
 20
74.2281721694
 30
0.0
 10
293.3061557621
 20
74.2260417102
 30
0.0
 10
293.3506284368
 20
74.2234851604
 30
0.0
 10
293.3951011111
 20
74.2209286103
 30
0.0
 10
293.4543980102
 20
74.2175198769
 30
0.0
 10
293.5285191341
 20
74.2132589601
 30
0.0
 10
293.6174644829
 20
74.2081458599
 30
0.0
 10
293.7064098316
 20
74.2030327598
 30
0.0
 10
293.7953551803
 20
74.1979196597
 30
0.0
 10
293.9139489786
 20
74.1911021928
 30
0.0
 10
294.0621912264
 20
74.1825803593
 30
0.0
 10
294.2400819239
 20
74.172354159
 30
0.0
 10
294.4772695204
 20
74.1587192253
 30
0.0
 10
294.6551602179
 20
74.148493025
 30
0.0
 10
294.7737540161
 20
74.1416755582
 30
0.0
  0
SPLINE
  5
3D2
100
AcDbEntity
  8
7_ALL_FEATURES
100
AcDbSpline
 62
7
  6
CONTINUOUS
 70
0
 71
3
 72
9
 73
5
 74
0
 42
0.0000001
 43
0.0000001
 44
0.0000000001
 40
0.0
 40
0.0
 40
0.0
 40
0.0
 40
0.5150025536
 40
1.0
 40
1.0
 40
1.0
 40
1.0
 10
304.681420984
 20
72.9760640897
 30
0.0
 10
304.5148008907
 20
73.1648629335
 30
0.0
 10
304.1814546914
 20
73.5229937726
 30
0.0
 10
303.8225774689
 20
73.8561070928
 30
0.0
 10
303.6409589378
 20
74.0085824268
 30
0.0
  0
SPLINE
  5
3D3
100
AcDbEntity
  8
7_ALL_FEATURES
100
AcDbSpline
 62
7
  6
CONTINUOUS
 70
0
 71
3
 72
36
 73
32
 74
0
 42
0.0000001
 43
0.0000001
 44
0.0000000001
 40
0.0
 40
0.0
 40
0.0
 40
0.0
 40
0.0154618923
 40
0.0307404045
 40
0.060783935
 40
0.0896507599
 40
0.1172168628
 40
0.1438539358
 40
0.1702615889
 40
0.1971414823
 40
0.2250631043
 40
0.2543528101
 40
0.2851832203
 40
0.351377914
 40
0.4226408798
 40
0.4969605953
 40
0.5718557761
 40
0.6447651476
 40
0.7134144577
 40
0.745624974
 40
0.7762782903
 40
0.8054117093
 40
0.8331902529
 40
0.8599892805
 40
0.8863793957
 40
0.9130823333
 40
0.9407762734
 40
0.9551454602
 40
0.9698255898
 40
0.98475587
 40
1.0
 40
1.0
 40
1.0
 40
1.0
 10
286.7744332623
 20
66.3011860974
 30
0.0
 10
286.7735706631
 20
66.1998065233
 30
0.0
 10
286.7839592233
 20
65.9979003559
 30
0.0
 10
286.8523758936
 20
65.6045007635
 30
0.0
 10
287.018846097
 20
65.1425123127
 30
0.0
 10
287.323151623
 20
64.6595848685
 30
0.0
 10
287.6957140977
 20
64.2586690397
 30
0.0
 10
288.1114879217
 20
63.9296805903
 30
0.0
 10
288.5600932948
 20
63.6567981505
 30
0.0
 10
289.0400659995
 20
63.4247435124
 30
0.0
 10
289.5539492982
 20
63.2236503316
 30
0.0
 10
290.104124865
 20
63.0477484223
 30
0.0
 10
290.9056235741
 20
62.837748771
 30
0.0
 10
291.9913218085
 20
62.632970686
 30
0.0
 10
293.3717743147
 20
62.4741448731
 30
0.0
 10
294.8164256985
 20
62.3995824959
 30
0.0
 10
296.2737185999
 20
62.4111377882
 30
0.0
 10
297.6905266522
 20
62.5087275336
 30
0.0
 10
298.8206062074
 20
62.6631212889
 30
0.0
 10
299.6663161548
 20
62.8328720448
 30
0.0
 10
300.251821162
 20
62.9790579099
 30
0.0
 10
300.8008293677
 20
63.1482704712
 30
0.0
 10
301.3142483379
 20
63.3436781326
 30
0.0
 10
301.7946008972
 20
63.5713568357
 30
0.0
 10
302.2442692409
 20
63.8422023093
 30
0.0
 10
302.6617354492
 20
64.1708951815
 30
0.0
 10
302.9698449791
 20
64.5035848365
 30
0.0
 10
303.1818101511
 20
64.8100154603
 30
0.0
 10
303.3213892795
 20
65.0629857716
 30
0.0
 10
303.4348748688
 20
65.334951167
 30
0.0
 10
303.489760539
 20
65.5255960694
 30
0.0
 10
303.5117624566
 20
65.6230998847
 30
0.0
  0
SPLINE
  5
3D4
100
AcDbEntity
  8
7_ALL_FEATURES
100
AcDbSpline
 62
7
  6
CONTINUOUS
 70
0
 71
3
 72
9
 73
5
 74
0
 42
0.0000001
 43
0.0000001
 44
0.0000000001
 40
0.0
 40
0.0
 40
0.0
 40
0.0
 40
0.5188969328
 40
1.0
 40
1.0
 40
1.0
 40
1.0
 10
304.5627191483
 20
68.7714912278
 30
0.0
 10
304.2326336416
 20
68.4901160094
 30
0.0
 10
303.5729039806
 20
67.9742660499
 30
0.0
 10
302.8478475354
 20
67.5498320959
 30
0.0
 10
302.4831200445
 20
67.3804342059
 30
0.0
  0
SPLINE
  5
3D5
100
AcDbEntity
  8
7_ALL_FEATURES
100
AcDbSpline
 62
7
  6
CONTINUOUS
 70
0
 71
3
 72
9
 73
5
 74
0
 42
0.0000001
 43
0.0000001
 44
0.0000000001
 40
0.0
 40
0.0
 40
0.0
 40
0.0
 40
0.2524878736
 40
1.0
 40
1.0
 40
1.0
 40
1.0
 10
285.8016498272
 20
73.2758353659
 30
0.0
 10
285.7985639674
 20
73.2621600534
 30
0.0
 10
285.7877368738
 20
73.2076937274
 30
0.0
 10
285.7826868595
 20
73.1520692534
 30
0.0
 10
285.7823336487
 20
73.1105658393
 30
0.0
  0
SPLINE
  5
3D6
100
AcDbEntity
  8
7_ALL_FEATURES
100
AcDbSpline
 62
7
  6
CONTINUOUS
 70
0
 71
3
 72
9
 73
5
 74
0
 42
0.0000001
 43
0.0000001
 44
0.0000000001
 40
0.0
 40
0.0
 40
0.0
 40
0.0
 40
0.2571621956
 40
1.0
 40
1.0
 40
1.0
 40
1.0
 10
304.5627191483
 20
68.7714912278
 30
0.0
 10
304.5702200303
 20
68.7871017104
 30
0.0
 10
304.5978176371
 20
68.8485380315
 30
0.0
 10
304.61879565
 20
68.913014617
 30
0.0
 10
304.6298076435
 20
68.9618154258
 30
0.0
  0
SPLINE
  5
3D7
100
AcDbEntity
  8
7_ALL_FEATURES
100
AcDbSpline
 62
7
  6
CONTINUOUS
 70
0
 71
3
 72
9
 73
5
 74
0
 42
0.0000001
 43
0.0000001
 44
0.0000000001
 40
0.0
 40
0.0
 40
0.0
 40
0.0
 40
0.2571621956
 40
1.0
 40
1.0
 40
1.0
 40
1.0
 10
285.8687383223
 20
73.4661595639
 30
0.0
 10
285.8612374403
 20
73.4505490814
 30
0.0
 10
285.8336398335
 20
73.3891127602
 30
0.0
 10
285.8126618206
 20
73.3246361747
 30
0.0
 10
285.8016498272
 20
73.2758353659
 30
0.0
  0
SPLINE
  5
3D8
100
AcDbEntity
  8
7_ALL_FEATURES
100
AcDbSpline
 62
7
  6
CONTINUOUS
 70
0
 71
3
 72
9
 73
5
 74
0
 42
0.0000001
 43
0.0000001
 44
0.0000000001
 40
0.0
 40
0.0
 40
0.0
 40
0.0
 40
0.2524878736
 40
1.0
 40
1.0
 40
1.0
 40
1.0
 10
304.6298076435
 20
68.9618154258
 30
0.0
 10
304.6328935032
 20
68.9754907383
 30
0.0
 10
304.6437205969
 20
69.0299570643
 30
0.0
 10
304.6487706111
 20
69.0855815383
 30
0.0
 10
304.6491238219
 20
69.1270849525
 30
0.0
  0
SPLINE
  5
3D9
100
AcDbEntity
  8
7_ALL_FEATURES
100
AcDbSpline
 62
7
  6
CONTINUOUS
 70
0
 71
3
 72
11
 73
7
 74
0
 42
0.0000001
 43
0.0000001
 44
0.0000000001
 40
0.0
 40
0.0
 40
0.0
 40
0.0
 40
0.2236339632
 40
0.46505103
 40
0.7244078978
 40
1.0
 40
1.0
 40
1.0
 40
1.0
 10
287.8712441638
 20
67.5116894996
 30
0.0
 10
287.6857123481
 20
67.6017312354
 30
0.0
 10
287.3135270349
 20
67.817888241
 30
0.0
 10
286.780556953
 20
68.2226983131
 30
0.0
 10
286.2546464619
 20
68.7097540487
 30
0.0
 10
285.9182002357
 20
69.0710387268
 30
0.0
 10
285.7500364867
 20
69.2615867021
 30
0.0
  0
SPLINE
  5
3DA
100
AcDbEntity
  8
7_ALL_FEATURES
100
AcDbSpline
 62
7
  6
CONTINUOUS
 70
0
 71
3
 72
9
 73
5
 74
0
 42
0.0000001
 43
0.0000001
 44
0.0000000001
 40
0.0
 40
0.0
 40
0.0
 40
0.0
 40
0.2440853658
 40
1.0
 40
1.0
 40
1.0
 40
1.0
 10
286.8412041512
 20
74.2174704349
 30
0.0
 10
286.7587719126
 20
74.1608389802
 30
0.0
 10
286.4247040546
 20
73.9235116249
 30
0.0
 10
286.1044482606
 20
73.6670860936
 30
0.0
 10
285.8687383223
 20
73.4661595639
 30
0.0
  0
SPLINE
  5
3DB
100
AcDbEntity
  8
02___PRT_ALL_AXES
100
AcDbSpline
 62
7
  6
CONTINUOUS
 70
0
 71
3
 72
9
 73
5
 74
0
 42
0.0000001
 43
0.0000001
 44
0.0000000001
 40
0.0
 40
0.0
 40
0.0
 40
0.0
 40
0.5359192631
 40
1.0
 40
1.0
 40
1.0
 40
1.0
 10
287.1673971386
 20
76.9993157774
 30
0.0
 10
287.0957971931
 20
76.9266603739
 30
0.0
 10
286.9736397928
 20
76.7783055928
 30
0.0
 10
286.8966929241
 20
76.600071502
 30
0.0
 10
286.8772493062
 20
76.5139050613
 30
0.0
  0
SPLINE
  5
3DC
100
AcDbEntity
  8
7_ALL_FEATURES
100
AcDbSpline
 62
7
  6
CONTINUOUS
 70
0
 71
3
 72
9
 73
5
 74
0
 42
0.0000001
 43
0.0000001
 44
0.0000000001
 40
0.0
 40
0.0
 40
0.0
 40
0.0
 40
0.2419902557
 40
1.0
 40
1.0
 40
1.0
 40
1.0
 10
289.4135134874
 20
67.1272161123
 30
0.0
 10
289.5034186718
 20
67.1067050834
 30
0.0
 10
289.8756029309
 20
67.0248508031
 30
0.0
 10
290.2502103328
 20
66.9541421139
 30
0.0
 10
290.5350127339
 20
66.9059276184
 30
0.0
  0
SPLINE
  5
3DD
100
AcDbEntity
  8
7_ALL_FEATURES
100
AcDbSpline
 62
9
  6
CONTINUOUS
 70
0
 71
3
 72
34
 73
30
 74
0
 42
0.0000001
 43
0.0000001
 44
0.0000000001
 40
0.0
 40
0.0
 40
0.0
 40
0.0
 40
0.0135105933
 40
0.0289087009
 40
0.0468625309
 40
0.0677302281
 40
0.0916488895
 40
0.1186161918
 40
0.1485361934
 40
0.1812426723
 40
0.2165179155
 40
0.2541038373
 40
0.3350000549
 40
0.4213185665
 40
0.5101653577
 40
0.5985284261
 40
0.6834179999
 40
0.7620090493
 40
0.7981488109
 40
0.8318089077
 40
0.8627553094
 40
0.8908020062
 40
0.9158257273
 40
0.9377857567
 40
0.9567627767
 40
0.9730221638
 40
0.9871110257
 40
0.99363746
 40
1.0
 40
1.0
 40
1.0
 40
1.0
 10
303.5566551951
 20
66.0113403795
 30
0.0
 10
303.5386769057
 20
65.9316676963
 30
0.0
 10
303.4704594979
 20
65.7673949565
 30
0.0
 10
303.2954541873
 20
65.5418177596
 30
0.0
 10
303.0475466346
 20
65.3251110158
 30
0.0
 10
302.7288691571
 20
65.1177683215
 30
0.0
 10
302.3417367143
 20
64.9207233127
 30
0.0
 10
301.8892228825
 20
64.7355589238
 30
0.0
 10
301.3751809382
 20
64.563903681
 30
0.0
 10
300.8041610404
 20
64.4073413377
 30
0.0
 10
300.1813117653
 20
64.2673249587
 30
0.0
 10
299.2666915279
 20
64.1004453297
 30
0.0
 10
298.0373220254
 20
63.9454538934
 30
0.0
 10
296.4918348168
 20
63.8446809031
 30
0.0
 10
294.8980047427
 20
63.8290249456
 30
0.0
 10
293.3142673401
 20
63.8990706747
 30
0.0
 10
291.7986829845
 20
64.052189667
 30
0.0
 10
290.6069275557
 20
64.2489307272
 30
0.0
 10
289.7318071616
 20
64.4472310943
 30
0.0
 10
289.1441309188
 20
64.6080198011
 30
0.0
 10
288.61190254
 20
64.7834939321
 30
0.0
 10
288.1398695298
 20
64.9720412848
 30
0.0
 10
287.7321129581
 20
65.1719524014
 30
0.0
 10
287.3919656623
 20
65.3815501509
 30
0.0
 10
287.1220171335
 20
65.5996230012
 30
0.0
 10
286.9242198322
 20
65.825233778
 30
0.0
 10
286.8195833494
 20
66.0256776983
 30
0.0
 10
286.7801510837
 20
66.1845971879
 30
0.0
 10
286.7741285463
 20
66.2627236812
 30
0.0
 10
286.7744525586
 20
66.3011859334
 30
0.0
  0
SPLINE
  5
3DE
100
AcDbEntity
  8
7_ALL_FEATURES
100
AcDbSpline
 62
7
  6
CONTINUOUS
 70
0
 71
3
 72
14
 73
10
 74
0
 42
0.0000001
 43
0.0000001
 44
0.0000000001
 40
0.0
 40
0.0
 40
0.0
 40
0.0
 40
0.1107240301
 40
0.2236307142
 40
0.3398862578
 40
0.4606859463
 40
0.7188571626
 40
0.8568031573
 40
1.0
 40
1.0
 40
1.0
 40
1.0
 10
304.59524479
 20
72.5941652089
 30
0.0
 10
304.4076557136
 20
72.5973661025
 30
0.0
 10
304.0282184675
 20
72.5872097399
 30
0.0
 10
303.455897912
 20
72.5143443703
 30
0.0
 10
302.8780458283
 20
72.375767255
 30
0.0
 10
302.0871458486
 20
72.0907811755
 30
0.0
 10
301.3159144706
 20
71.6631337615
 30
0.0
 10
300.5718431427
 20
71.1322953815
 30
0.0
 10
300.2016229978
 20
70.8319091707
 30
0.0
 10
300.0169678034
 20
70.6745033028
 30
0.0
  0
SPLINE
  5
3DF
100
AcDbEntity
  8
7_ALL_FEATURES
100
AcDbSpline
 62
7
  6
CONTINUOUS
 70
0
 71
3
 72
9
 73
5
 74
0
 42
0.0000001
 43
0.0000001
 44
0.0000000001
 40
0.0
 40
0.0
 40
0.0
 40
0.0
 40
0.2524878736
 40
1.0
 40
1.0
 40
1.0
 40
1.0
 10
304.6623332851
 20
72.7844894069
 30
0.0
 10
304.6654191449
 20
72.7981647195
 30
0.0
 10
304.6762462385
 20
72.8526310455
 30
0.0
 10
304.6812962528
 20
72.9082555194
 30
0.0
 10
304.6816494636
 20
72.9497589336
 30
0.0
  0
SPLINE
  5
3E0
100
AcDbEntity
  8
7_ALL_FEATURES
100
AcDbSpline
 62
7
  6
CONTINUOUS
 70
0
 71
3
 72
13
 73
9
 74
0
 42
0.0000001
 43
0.0000001
 44
0.0000000001
 40
0.0
 40
0.0
 40
0.0
 40
0.0
 40
0.2506005424
 40
0.3758946701
 40
0.5010917949
 40
0.6261403235
 40
0.7509998334
 40
1.0
 40
1.0
 40
1.0
 40
1.0
 10
298.8092923629
 20
70.5138929159
 30
0.0
 10
298.1374513258
 20
70.6945970219
 30
0.0
 10
297.115928004
 20
70.9204469914
 30
0.0
 10
295.7351171919
 20
71.0960555784
 30
0.0
 10
294.693612826
 20
71.1589338547
 30
0.0
 10
293.6514491245
 20
71.1504194405
 30
0.0
 10
292.2694372399
 20
71.0470109047
 30
0.0
 10
291.2432497887
 20
70.8744647644
 30
0.0
 10
290.5675383756
 20
70.7286015995
 30
0.0
  0
SPLINE
  5
3E1
100
AcDbEntity
  8
7_ALL_FEATURES
100
AcDbSpline
 62
7
  6
CONTINUOUS
 70
0
 71
3
 72
13
 73
9
 74
0
 42
0.0000001
 43
0.0000001
 44
0.0000000001
 40
0.0
 40
0.0
 40
0.0
 40
0.0
 40
0.2490001419
 40
0.3738596472
 40
0.4989081735
 40
0.6241053005
 40
0.7493994329
 40
1.0
 40
1.0
 40
1.0
 40
1.0
 10
298.7767667212
 20
66.6912189348
 30
0.0
 10
298.101055375
 20
66.5453557843
 30
0.0
 10
297.0748680051
 20
66.3728096574
 30
0.0
 10
295.6928562102
 20
66.2694011041
 30
0.0
 10
294.6506925219
 20
66.260886673
 30
0.0
 10
293.6091881424
 20
66.3237649333
 30
0.0
 10
292.2283772399
 20
66.4993735074
 30
0.0
 10
291.2068538375
 20
66.7252234945
 30
0.0
 10
290.5350127339
 20
66.9059276184
 30
0.0
  0
SPLINE
  5
3E2
100
AcDbEntity
  8
7_ALL_FEATURES
100
AcDbSpline
 62
7
  6
CONTINUOUS
 70
0
 71
3
 72
15
 73
11
 74
0
 42
0.0000001
 43
0.0000001
 44
0.0000000001
 40
0.0
 40
0.0
 40
0.0
 40
0.0
 40
0.1512604582
 40
0.2950102807
 40
0.4304346476
 40
0.5572867761
 40
0.6761311056
 40
0.7883244337
 40
0.8956795091
 40
1.0
 40
1.0
 40
1.0
 40
1.0
 10
289.4460391291
 20
70.9498900934
 30
0.0
 10
289.3003419709
 20
71.1149809567
 30
0.0
 10
289.0086099091
 20
71.4304468333
 30
0.0
 10
288.5553839711
 20
71.8638039044
 30
0.0
 10
288.0968947889
 20
72.2379981947
 30
0.0
 10
287.6341099299
 20
72.5458867547
 30
0.0
 10
287.1688683978
 20
72.7832144893
 30
0.0
 10
286.7038359513
 20
72.949894648
 30
0.0
 10
286.2419468131
 20
73.0503397674
 30
0.0
 10
285.9343151244
 20
73.0786169369
 30
0.0
 10
285.7825621284
 20
73.0842606832
 30
0.0
  0
SPLINE
  5
3E3
100
AcDbEntity
  8
02___PRT_ALL_AXES
100
AcDbSpline
 62
7
  6
CONTINUOUS
 70
0
 71
3
 72
16
 73
12
 74
0
 42
0.0000001
 43
0.0000001
 44
0.0000000001
 40
0.0
 40
0.0
 40
0.0
 40
0.0
 40
0.0361788892
 40
0.0734540454
 40
0.1548667469
 40
0.2504028917
 40
0.3632697721
 40
0.4948223484
 40
0.6452554804
 40
0.8140065808
 40
1.0
 40
1.0
 40
1.0
 40
1.0
 10
286.8372628875
 20
73.6827818995
 30
0.0
 10
286.8369118786
 20
73.6409688842
 30
0.0
 10
286.8441231884
 20
73.5558136672
 30
0.0
 10
286.8911656443
 20
73.3822479277
 30
0.0
 10
287.0160112732
 20
73.1638990954
 30
0.0
 10
287.2493412697
 20
72.9206887099
 30
0.0
 10
287.5667163223
 20
72.6866958542
 30
0.0
 10
287.9656228589
 20
72.4632847834
 30
0.0
 10
288.4424958013
 20
72.2521140933
 30
0.0
 10
288.9926481623
 20
72.0553691077
 30
0.0
 10
289.3864769703
 20
71.9405002335
 30
0.0
 10
289.5942280876
 20
71.8852759725
 30
0.0
  0
SPLINE
  5
3E4
100
AcDbEntity
  8
02___PRT_ALL_AXES
100
AcDbSpline
 62
7
  6
CONTINUOUS
 70
0
 71
3
 72
15
 73
11
 74
0
 42
0.0000001
 43
0.0000001
 44
0.0000000001
 40
0.0
 40
0.0
 40
0.0
 40
0.0
 40
0.1117760312
 40
0.2356098547
 40
0.3676384844
 40
0.5036140628
 40
0.6391106779
 40
0.7697238952
 40
0.8912706573
 40
1.0
 40
1.0
 40
1.0
 40
1.0
 10
289.5942280876
 20
71.8852759725
 30
0.0
 10
290.01212824
 20
71.7741900377
 30
0.0
 10
290.9042750336
 20
71.5818711863
 30
0.0
 10
292.3128354733
 20
71.3791902382
 30
0.0
 10
293.8242329592
 20
71.2526354822
 30
0.0
 10
295.385263852
 20
71.2069475504
 30
0.0
 10
296.9410554033
 20
71.2438300121
 30
0.0
 10
298.4369487278
 20
71.361837884
 30
0.0
 10
299.8203125207
 20
71.5564891521
 30
0.0
 10
300.6924030062
 20
71.7444513032
 30
0.0
 10
301.0985524678
 20
71.8538545093
 30
0.0
  0
SPLINE
  5
3E5
100
AcDbEntity
  8
02___PRT_ALL_AXES
100
AcDbSpline
 62
7
  6
CONTINUOUS
 70
0
 71
3
 72
15
 73
11
 74
0
 42
0.0000001
 43
0.0000001
 44
0.0000000001
 40
0.0
 40
0.0
 40
0.0
 40
0.0
 40
0.1794235087
 40
0.3435097275
 40
0.4915046397
 40
0.6230112218
 40
0.7381485185
 40
0.8377685198
 40
0.9238680296
 40
1.0
 40
1.0
 40
1.0
 40
1.0
 10
301.0985524678
 20
71.8538545093
 30
0.0
 10
301.2754031139
 20
71.901492213
 30
0.0
 10
301.6120115956
 20
72.0003620962
 30
0.0
 10
302.0851160356
 20
72.1682794167
 30
0.0
 10
302.5011536599
 20
72.3480735566
 30
0.0
 10
302.8568803635
 20
72.5383733947
 30
0.0
 10
303.149760911
 20
72.7377683965
 30
0.0
 10
303.3778225568
 20
72.945511333
 30
0.0
 10
303.5391089784
 20
73.1611488606
 30
0.0
 10
303.6023558923
 20
73.3171274549
 30
0.0
 10
303.6194623158
 20
73.3929363729
 30
0.0
  0
SPLINE
  5
3E6
100
AcDbEntity
  8
02___PRT_ALL_AXES
100
AcDbSpline
 62
7
  6
CONTINUOUS
 70
0
 71
3
 72
28
 73
24
 74
0
 42
0.0000001
 43
0.0000001
 44
0.0000000001
 40
0.0
 40
0.0
 40
0.0
 40
0.0
 40
0.0118008882
 40
0.0243824959
 40
0.038380086
 40
0.0542331996
 40
0.0722047821
 40
0.0924335592
 40
0.1149687835
 40
0.1397975044
 40
0.1668609989
 40
0.1960640718
 40
0.2603673664
 40
0.3314877295
 40
0.4079292257
 40
0.4880143459
 40
0.5699487237
 40
0.6518805103
 40
0.7319579449
 40
0.8083869249
 40
0.8794903879
 40
0.9437730362
 40
1.0
 40
1.0
 40
1.0
 40
1.0
 10
286.8600986324
 20
76.366998647
 30
0.0
 10
286.8595669902
 20
76.3038893956
 30
0.0
 10
286.8771471334
 20
76.1727298619
 30
0.0
 10
286.9573216223
 20
75.9817313569
 30
0.0
 10
287.0887620755
 20
75.7950347539
 30
0.0
 10
287.269691709
 20
75.6129801618
 30
0.0
 10
287.498875368
 20
75.4357610341
 30
0.0
 10
287.7751237183
 20
75.2640651428
 30
0.0
 10
288.0969336918
 20
75.0987047216
 30
0.0
 10
288.4624957114
 20
74.9406155039
 30
0.0
 10
288.869678094
 20
74.7907389726
 30
0.0
 10
289.4848470579
 20
74.5968342391
 30
0.0
 10
290.3403708557
 20
74.3851911415
 30
0.0
 10
291.4559917045
 20
74.1838229988
 30
0.0
 10
292.6646099469
 20
74.032887368
 30
0.0
 10
293.9366938699
 20
73.9362193975
 30
0.0
 10
295.2411756348
 20
73.8963133135
 30
0.0
 10
296.5461010477
 20
73.9141776797
 30
0.0
 10
297.8195238905
 20
73.989340238
 30
0.0
 10
299.0302878769
 20
74.1198470527
 30
0.0
 10
300.1489876956
 20
74.3023085601
 30
0.0
 10
301.1484128974
 20
74.5319630873
 30
0.0
 10
301.7640832488
 20
74.7265135259
 30
0.0
 10
302.0449847544
 20
74.8338303173
 30
0.0
  0
SPLINE
  5
3E7
100
AcDbEntity
  8
02___PRT_ALL_AXES
100
AcDbSpline
 62
7
  6
CONTINUOUS
 70
0
 71
3
 72
21
 73
17
 74
0
 42
0.0000001
 43
0.0000001
 44
0.0000000001
 40
0.0
 40
0.0
 40
0.0
 40
0.0
 40
0.0452452995
 40
0.096919098
 40
0.1544550842
 40
0.2171086976
 40
0.2840027407
 40
0.3541605418
 40
0.5000001658
 40
0.6458396489
 40
0.7159974466
 40
0.7828915882
 40
0.8455453436
 40
0.9030814012
 40
0.9547550412
 40
1.0
 40
1.0
 40
1.0
 40
1.0
 10
287.9786923662
 20
67.4595386823
 30
0.0
 10
288.1780413064
 20
67.3628031073
 30
0.0
 10
288.6174515611
 20
67.1809666406
 30
0.0
 10
289.3383099946
 20
66.9499424466
 30
0.0
 10
290.1553583204
 20
66.7457163695
 30
0.0
 10
291.0552865327
 20
66.5718257945
 30
0.0
 10
292.0234747843
 20
66.4312198363
 30
0.0
 10
293.4019584693
 20
66.2896385602
 30
0.0
 10
295.1739739228
 20
66.2113687619
 30
0.0
 10
296.947064464
 20
66.2594769473
 30
0.0
 10
298.3277575967
 20
66.3775800959
 30
0.0
 10
299.298199488
 20
66.5016900787
 30
0.0
 10
300.2009581594
 20
66.6602410776
 30
0.0
 10
301.0213633188
 20
66.8505352573
 30
0.0
 10
301.7460470442
 20
67.0692588086
 30
0.0
 10
302.1884825902
 20
67.2435975841
 30
0.0
 10
302.3894484753
 20
67.3369235993
 30
0.0
  0
SPLINE
  5
3E8
100
AcDbEntity
  8
7_ALL_FEATURES
100
AcDbSpline
 62
7
  6
CONTINUOUS
 70
0
 71
3
 72
11
 73
7
 74
0
 42
0.0000001
 43
0.0000001
 44
0.0000000001
 40
0.0
 40
0.0
 40
0.0
 40
0.0
 40
0.2390780355
 40
0.483509006
 40
0.7361318836
 40
1.0
 40
1.0
 40
1.0
 40
1.0
 10
289.4135134874
 20
67.1272161123
 30
0.0
 10
289.2860480453
 20
67.1319565961
 30
0.0
 10
289.0285119623
 20
67.1533475976
 30
0.0
 10
288.6417069869
 20
67.2253534849
 30
0.0
 10
288.252165438
 20
67.3424183556
 30
0.0
 10
287.9978963624
 20
67.4502230403
 30
0.0
 10
287.8712441638
 20
67.5116894996
 30
0.0
  0
SPLINE
  5
3E9
100
AcDbEntity
  8
7_ALL_FEATURES
100
AcDbSpline
 62
7
  6
CONTINUOUS
 70
0
 71
3
 72
11
 73
7
 74
0
 42
0.0000001
 43
0.0000001
 44
0.0000000001
 40
0.0
 40
0.0
 40
0.0
 40
0.0
 40
0.2640973631
 40
0.5168052055
 40
0.7610925776
 40
1.0
 40
1.0
 40
1.0
 40
1.0
 10
302.4831200445
 20
67.3804342059
 30
0.0
 10
302.2774894985
 20
67.2849289822
 30
0.0
 10
301.8645793893
 20
67.1194505929
 30
0.0
 10
301.2318410245
 20
66.9502995998
 30
0.0
 10
300.604982456
 20
66.8611591283
 30
0.0
 10
300.1895138748
 20
66.8483301161
 30
0.0
 10
299.9844421617
 20
66.8518293216
 30
0.0
  0
SPLINE
  5
3EA
100
AcDbEntity
  8
7_ALL_FEATURES
100
AcDbSpline
 62
7
  6
CONTINUOUS
 70
0
 71
3
 72
9
 73
5
 74
0
 42
0.0000001
 43
0.0000001
 44
0.0000000001
 40
0.0
 40
0.0
 40
0.0
 40
0.0
 40
0.2571621956
 40
1.0
 40
1.0
 40
1.0
 40
1.0
 10
304.59524479
 20
72.5941652089
 30
0.0
 10
304.602745672
 20
72.6097756915
 30
0.0
 10
304.6303432788
 20
72.6712120126
 30
0.0
 10
304.6513212917
 20
72.7356885981
 30
0.0
 10
304.6623332851
 20
72.7844894069
 30
0.0
  0
SPLINE
  5
3EB
100
AcDbEntity
  8
7_ALL_FEATURES
100
AcDbSpline
 62
7
  6
CONTINUOUS
 70
0
 71
3
 72
9
 73
5
 74
0
 42
0.0000001
 43
0.0000001
 44
0.0000000001
 40
0.0
 40
0.0
 40
0.0
 40
0.0
 40
0.2419902557
 40
1.0
 40
1.0
 40
1.0
 40
1.0
 10
289.4460391291
 20
70.9498900934
 30
0.0
 10
289.5359443135
 20
70.9293790645
 30
0.0
 10
289.9081285726
 20
70.8475247842
 30
0.0
 10
290.2827359745
 20
70.776816095
 30
0.0
 10
290.5675383756
 20
70.7286015995
 30
0.0
  0
SPLINE
  5
3EC
100
AcDbEntity
  8
7_ALL_FEATURES
100
AcDbSpline
 62
7
  6
CONTINUOUS
 70
0
 71
3
 72
31
 73
27
 74
0
 42
0.0000001
 43
0.0000001
 44
0.0000000001
 40
0.0
 40
0.0
 40
0.0
 40
0.0
 40
0.0171675925
 40
0.0365436215
 40
0.0581862078
 40
0.0820917592
 40
0.1082046263
 40
0.136436952
 40
0.1987453961
 40
0.232527938
 40
0.2678276214
 40
0.3421887394
 40
0.4201730715
 40
0.499998251
 40
0.5798234824
 40
0.6578079682
 40
0.7321693363
 40
0.7674689826
 40
0.8012518997
 40
0.8635607471
 40
0.8917930022
 40
0.9179064507
 40
0.9418118537
 40
0.9634548473
 40
0.982830943
 40
1.0
 40
1.0
 40
1.0
 40
1.0
 10
292.0086643885
 20
130.8152183445
 30
0.0
 10
292.1602733596
 20
130.9516625548
 30
0.0
 10
292.5043767859
 20
131.2185853011
 30
0.0
 10
293.0935183774
 20
131.5819841597
 30
0.0
 10
293.7826230188
 20
131.9303069324
 30
0.0
 10
294.5676566019
 20
132.2612415571
 30
0.0
 10
295.4439700367
 20
132.5730256831
 30
0.0
 10
296.7712265914
 20
132.973551779
 30
0.0
 10
298.2114297253
 20
133.3089236061
 30
0.0
 10
299.7470494428
 20
133.5901116134
 30
0.0
 10
301.4322109544
 20
133.84608402
 30
0.0
 10
303.6495858367
 20
134.0876966593
 30
0.0
 10
306.4040617793
 20
134.2520306036
 30
0.0
 10
309.22806706
 20
134.2911361906
 30
0.0
 10
312.0510001609
 20
134.2039900445
 30
0.0
 10
314.8022867151
 20
133.9928150465
 30
0.0
 10
317.0152349677
 20
133.7135157862
 30
0.0
 10
318.6958035406
 20
133.4289031541
 30
0.0
 10
320.2264266401
 20
133.1216341194
 30
0.0
 10
321.6607266444
 20
132.7618144389
 30
0.0
 10
322.980982439
 20
132.338748851
 30
0.0
 10
323.8518745475
 20
132.0121138587
 30
0.0
 10
324.6311659738
 20
131.6678522096
 30
0.0
 10
325.3142680131
 20
131.3078919953
 30
0.0
 10
325.897150704
 20
130.9344889771
 30
0.0
 10
326.2366604196
 20
130.6617213039
 30
0.0
 10
326.3859453923
 20
130.5227126795
 30
0.0
  0
SPLINE
  5
3ED
100
AcDbEntity
  8
7_ALL_FEATURES
100
AcDbSpline
 62
7
  6
CONTINUOUS
 70
0
 71
3
 72
9
 73
5
 74
0
 42
0.0000001
 43
0.0000001
 44
0.0000000001
 40
0.0
 40
0.0
 40
0.0
 40
0.0
 40
0.2825314102
 40
1.0
 40
1.0
 40
1.0
 40
1.0
 10
326.8596878155
 20
130.0815309049
 30
0.0
 10
326.9523972536
 20
129.9951966847
 30
0.0
 10
327.2660973033
 20
129.6765298092
 30
0.0
 10
327.5192932044
 20
129.2841648216
 30
0.0
 10
327.6119585771
 20
128.9760966312
 30
0.0
  0
SPLINE
  5
3EE
100
AcDbEntity
  8
7_ALL_FEATURES
100
AcDbSpline
 62
7
  6
CONTINUOUS
 70
0
 71
3
 72
9
 73
5
 74
0
 42
0.0000001
 43
0.0000001
 44
0.0000000001
 40
0.0
 40
0.0
 40
0.0
 40
0.0
 40
0.2530435941
 40
1.0
 40
1.0
 40
1.0
 40
1.0
 10
327.6119585771
 20
128.9760966312
 30
0.0
 10
327.6174619666
 20
128.9578004847
 30
0.0
 10
327.6379880352
 20
128.8851354205
 30
0.0
 10
327.6535123012
 20
128.811046256
 30
0.0
 10
327.6620486937
 20
128.7552974787
 30
0.0
  0
SPLINE
  5
3EF
100
AcDbEntity
  8
7_ALL_FEATURES
100
AcDbSpline
 62
7
  6
CONTINUOUS
 70
0
 71
3
 72
11
 73
7
 74
0
 42
0.0000001
 43
0.0000001
 44
0.0000000001
 40
0.0
 40
0.0
 40
0.0
 40
0.0
 40
0.2206507944
 40
0.4573501674
 40
0.7157503842
 40
1.0
 40
1.0
 40
1.0
 40
1.0
 10
290.7187987802
 20
129.15120045
 30
0.0
 10
290.742998124
 20
129.2584423911
 30
0.0
 10
290.8165870508
 20
129.4758898942
 30
0.0
 10
290.9907492182
 20
129.7888702696
 30
0.0
 10
291.229966981
 20
130.0963340066
 30
0.0
 10
291.4222120136
 20
130.2874193683
 30
0.0
 10
291.5274824774
 20
130.3821617164
 30
0.0
  0
SPLINE
  5
3F0
100
AcDbEntity
  8
7_ALL_FEATURES
100
AcDbSpline
 62
7
  6
CONTINUOUS
 70
0
 71
3
 72
15
 73
11
 74
0
 42
0.0000001
 43
0.0000001
 44
0.0000000001
 40
0.0
 40
0.0
 40
0.0
 40
0.0
 40
0.0930362298
 40
0.1871393177
 40
0.2877321306
 40
0.3992247291
 40
0.5247112176
 40
0.6660808974
 40
0.8243746471
 40
1.0
 40
1.0
 40
1.0
 40
1.0
 10
291.2218370445
 20
129.6175262948
 30
0.0
 10
291.1937623199
 20
129.4931101953
 30
0.0
 10
291.1687848692
 20
129.2342745093
 30
0.0
 10
291.2368800179
 20
128.8414127292
 30
0.0
 10
291.4083102172
 20
128.4543490646
 30
0.0
 10
291.6783396636
 20
128.0754923433
 30
0.0
 10
292.0440017466
 20
127.7052261763
 30
0.0
 10
292.502992414
 20
127.3440939803
 30
0.0
 10
293.053150134
 20
126.9934436265
 30
0.0
 10
293.4579750317
 20
126.7787494048
 30
0.0
 10
293.6740951552
 20
126.6726331772
 30
0.0
  0
SPLINE
  5
3F1
100
AcDbEntity
  8
7_ALL_FEATURES
100
AcDbSpline
 62
7
  6
CONTINUOUS
 70
0
 71
3
 72
13
 73
9
 74
0
 42
0.0000001
 43
0.0000001
 44
0.0000000001
 40
0.0
 40
0.0
 40
0.0
 40
0.0
 40
0.3179918474
 40
0.5861730899
 40
0.7030671276
 40
0.8098153229
 40
0.9080609419
 40
1.0
 40
1.0
 40
1.0
 40
1.0
 10
324.7787803196
 20
126.4704547002
 30
0.0
 10
325.0969285677
 20
126.6250077734
 30
0.0
 10
325.6704994275
 20
126.9381077066
 30
0.0
 10
326.3011650113
 20
127.4080360593
 30
0.0
 10
326.6830910843
 20
127.8012970887
 30
0.0
 10
326.8991427305
 20
128.0882286283
 30
0.0
 10
327.0570908876
 20
128.3798138292
 30
0.0
 10
327.1244383835
 20
128.5818737516
 30
0.0
 10
327.146948393
 20
128.6816292301
 30
0.0
  0
SPLINE
  5
3F2
100
AcDbEntity
  8
7_ALL_FEATURES
100
AcDbSpline
 62
7
  6
CONTINUOUS
 70
0
 71
3
 72
9
 73
5
 74
0
 42
0.0000001
 43
0.0000001
 44
0.0000000001
 40
0.0
 40
0.0
 40
0.0
 40
0.0
 40
0.265163468
 40
1.0
 40
1.0
 40
1.0
 40
1.0
 10
326.3859453923
 20
130.5227126795
 30
0.0
 10
326.4284255681
 20
130.4831567169
 30
0.0
 10
326.5854263287
 20
130.3306543965
 30
0.0
 10
326.7290738637
 20
130.1638348938
 30
0.0
 10
326.8223098739
 20
130.0327533103
 30
0.0
  0
SPLINE
  5
3F3
100
AcDbEntity
  8
7_ALL_FEATURES
100
AcDbSpline
 62
7
  6
CONTINUOUS
 70
0
 71
3
 72
11
 73
7
 74
0
 42
0.0000001
 43
0.0000001
 44
0.0000000001
 40
0.0
 40
0.0
 40
0.0
 40
0.0
 40
0.272594353
 40
0.5234722152
 40
0.7622256633
 40
1.0
 40
1.0
 40
1.0
 40
1.0
 10
326.8223098739
 20
130.0327533103
 30
0.0
 10
326.8976768525
 20
129.9267940046
 30
0.0
 10
327.0275049089
 20
129.71178046
 30
0.0
 10
327.1530950079
 20
129.3677870132
 30
0.0
 10
327.1972570346
 20
129.0205812053
 30
0.0
 10
327.1719140438
 20
128.7922671411
 30
0.0
 10
327.146948393
 20
128.6816292301
 30
0.0
  0
SPLINE
  5
3F4
100
AcDbEntity
  8
7_ALL_FEATURES
100
AcDbSpline
 62
7
  6
CONTINUOUS
 70
0
 71
3
 72
9
 73
5
 74
0
 42
0.0000001
 43
0.0000001
 44
0.0000000001
 40
0.0
 40
0.0
 40
0.0
 40
0.0
 40
0.4774063094
 40
1.0
 40
1.0
 40
1.0
 40
1.0
 10
291.2218370445
 20
129.6175262948
 30
0.0
 10
291.2505235381
 20
129.7446535125
 30
0.0
 10
291.344927168
 20
130.0038064751
 30
0.0
 10
291.4915319669
 20
130.2361956733
 30
0.0
 10
291.577134795
 20
130.3503172802
 30
0.0
  0
SPLINE
  5
3F5
100
AcDbEntity
  8
7_ALL_FEATURES
100
AcDbSpline
 62
7
  6
CONTINUOUS
 70
0
 71
3
 72
9
 73
5
 74
0
 42
0.0000001
 43
0.0000001
 44
0.0000000001
 40
0.0
 40
0.0
 40
0.0
 40
0.0
 40
0.2361730975
 40
1.0
 40
1.0
 40
1.0
 40
1.0
 10
291.577134795
 20
130.3503172802
 30
0.0
 10
291.607126292
 20
130.3903005133
 30
0.0
 10
291.7389782171
 20
130.5559447008
 30
0.0
 10
291.8885099288
 20
130.7070823929
 30
0.0
 10
292.0086643885
 20
130.8152183445
 30
0.0
  0
SPLINE
  5
3F6
100
AcDbEntity
  8
3_ALL_AXES
100
AcDbSpline
 62
7
  6
CONTINUOUS
 70
0
 71
3
 72
17
 73
13
 74
0
 42
0.0000001
 43
0.0000001
 44
0.0000000001
 40
0.0
 40
0.0
 40
0.0
 40
0.0
 40
0.1530654294
 40
0.3034912179
 40
0.4481726262
 40
0.5841741247
 40
0.7089254972
 40
0.8203884984
 40
0.8707282061
 40
0.9173825645
 40
0.9604042636
 40
1.0
 40
1.0
 40
1.0
 40
1.0
 10
307.8729344344
 20
87.2930964099
 30
0.0
 10
309.5333216492
 20
87.2650909139
 30
0.0
 10
312.8271249868
 20
87.281007466
 30
0.0
 10
317.6851789739
 20
87.5182067085
 30
0.0
 10
322.3429555466
 20
87.9630539163
 30
0.0
 10
326.6966731172
 20
88.605714328
 30
0.0
 10
330.651875247
 20
89.4328472211
 30
0.0
 10
333.6447350098
 20
90.2896601771
 30
0.0
 10
335.7676748601
 20
91.0721159948
 30
0.0
 10
337.1614955481
 20
91.6786343287
 30
0.0
 10
338.4074978266
 20
92.324968603
 30
0.0
 10
339.1670480026
 20
92.803876238
 30
0.0
 10
339.5175438102
 20
93.0522515772
 30
0.0
  0
SPLINE
  5
3F7
100
AcDbEntity
  8
3_ALL_AXES
100
AcDbSpline
 62
7
  6
CONTINUOUS
 70
0
 71
3
 72
11
 73
7
 74
0
 42
0.0000001
 43
0.0000001
 44
0.0000000001
 40
0.0
 40
0.0
 40
0.0
 40
0.0
 40
0.2715719043
 40
0.5234969273
 40
0.7636812102
 40
1.0
 40
1.0
 40
1.0
 40
1.0
 10
339.6727599622
 20
93.1641629961
 30
0.0
 10
340.040509923
 20
93.4339807869
 30
0.0
 10
340.7197171433
 20
93.9978223821
 30
0.0
 10
341.5601283644
 20
94.9770734469
 30
0.0
 10
342.1398822726
 20
96.0682776457
 30
0.0
 10
342.3077861494
 20
96.8649848264
 30
0.0
 10
342.3299350905
 20
97.2612731886
 30
0.0
  0
SPLINE
  5
3F8
100
AcDbEntity
  8
3_ALL_AXES
100
AcDbSpline
 62
7
  6
CONTINUOUS
 70
0
 71
3
 72
22
 73
18
 74
0
 42
0.0000001
 43
0.0000001
 44
0.0000000001
 40
0.0
 40
0.0
 40
0.0
 40
0.0
 40
0.035864457
 40
0.0540135945
 40
0.0724517935
 40
0.0913839471
 40
0.1109531844
 40
0.152668569
 40
0.1987342696
 40
0.2497451587
 40
0.305956241
 40
0.3673590661
 40
0.4337550989
 40
0.5048145223
 40
0.6590810787
 40
0.8258461941
 40
1.0
 40
1.0
 40
1.0
 40
1.0
 10
275.4989673332
 20
97.8932195218
 30
0.0
 10
275.5079428579
 20
97.4762259115
 30
0.0
 10
275.6262554822
 20
96.8460835944
 30
0.0
 10
275.956309898
 20
96.0691812468
 30
0.0
 10
276.2858971148
 20
95.5117626362
 30
0.0
 10
276.6868990782
 20
94.983323752
 30
0.0
 10
277.3219041637
 20
94.2981511074
 30
0.0
 10
278.2882684596
 20
93.4993745125
 30
0.0
 10
279.6544497181
 20
92.6344407983
 30
0.0
 10
281.2483436137
 20
91.8309550636
 30
0.0
 10
283.0631316621
 20
91.0839196224
 30
0.0
 10
285.0899204156
 20
90.39363702
 30
0.0
 10
287.3157010156
 20
89.7624724087
 30
0.0
 10
290.6185824937
 20
88.9833903541
 30
0.0
 10
295.1154404878
 20
88.2024111195
 30
0.0
 10
300.8431309467
 20
87.5766183395
 30
0.0
 10
304.8048025954
 20
87.3682272622
 30
0.0
 10
306.8294591771
 20
87.3154822579
 30
0.0
  0
SPLINE
  5
3F9
100
AcDbEntity
  8
3_ALL_AXES
100
AcDbSpline
 62
7
  6
CONTINUOUS
 70
0
 71
3
 72
21
 73
17
 74
0
 42
0.0000001
 43
0.0000001
 44
0.0000000001
 40
0.0
 40
0.0
 40
0.0
 40
0.0
 40
0.170452079
 40
0.3364712524
 40
0.4920067995
 40
0.5641464601
 40
0.6317491079
 40
0.6943550508
 40
0.7516439868
 40
0.8034815294
 40
0.8499930996
 40
0.8714102563
 40
0.8917250863
 40
0.9296357926
 40
0.96523135
 40
1.0
 40
1.0
 40
1.0
 40
1.0
 10
306.9110268664
 20
96.901970561
 30
0.0
 10
309.1157927512
 20
96.8445334692
 30
0.0
 10
313.4723742695
 20
96.8567397266
 30
0.0
 10
319.8300868695
 20
97.2454308174
 30
0.0
 10
324.8894072428
 20
97.8788136606
 30
0.0
 10
328.6471770747
 20
98.5744770304
 30
0.0
 10
331.1994259613
 20
99.1628603552
 30
0.0
 10
333.5342282269
 20
99.8263374256
 30
0.0
 10
335.6330698699
 20
100.561146433
 30
0.0
 10
337.4814561236
 20
101.3656605681
 30
0.0
 10
338.8414912667
 20
102.1156709948
 30
0.0
 10
339.7846518684
 20
102.7608827596
 30
0.0
 10
340.5915732024
 20
103.4028012671
 30
0.0
 10
341.4450488322
 20
104.2777105115
 30
0.0
 10
342.1754422903
 20
105.4921640257
 30
0.0
 10
342.3863978096
 20
106.3985839231
 30
0.0
 10
342.4115027798
 20
106.8477614917
 30
0.0
  0
SPLINE
  5
3FA
100
AcDbEntity
  8
3_ALL_AXES
100
AcDbSpline
 62
7
  6
CONTINUOUS
 70
0
 71
3
 72
22
 73
18
 74
0
 42
0.0000001
 43
0.0000001
 44
0.0000000001
 40
0.0
 40
0.0
 40
0.0
 40
0.0
 40
0.035864457
 40
0.0540135945
 40
0.0724517935
 40
0.0913839471
 40
0.1109531844
 40
0.152668569
 40
0.1987342696
 40
0.2497451587
 40
0.305956241
 40
0.3673590661
 40
0.4337550989
 40
0.5048145223
 40
0.6590810787
 40
0.8258461941
 40
1.0
 40
1.0
 40
1.0
 40
1.0
 10
275.5805350225
 20
107.4797078249
 30
0.0
 10
275.5895105472
 20
107.0627142146
 30
0.0
 10
275.7078231715
 20
106.4325718975
 30
0.0
 10
276.0378775873
 20
105.6556695499
 30
0.0
 10
276.3674648041
 20
105.0982509393
 30
0.0
 10
276.7684667675
 20
104.5698120551
 30
0.0
 10
277.403471853
 20
103.8846394105
 30
0.0
 10
278.3698361489
 20
103.0858628156
 30
0.0
 10
279.7360174074
 20
102.2209291014
 30
0.0
 10
281.329911303
 20
101.4174433667
 30
0.0
 10
283.1446993514
 20
100.6704079255
 30
0.0
 10
285.1714881049
 20
99.9801253231
 30
0.0
 10
287.3972687049
 20
99.3489607118
 30
0.0
 10
290.700150183
 20
98.5698786572
 30
0.0
 10
295.1970081771
 20
97.7888994226
 30
0.0
 10
300.924698636
 20
97.1631066426
 30
0.0
 10
304.8863702846
 20
96.9547155653
 30
0.0
 10
306.9110268664
 20
96.901970561
 30
0.0
  0
SPLINE
  5
3FB
100
AcDbEntity
  8
3_ALL_AXES
100
AcDbSpline
 62
7
  6
CONTINUOUS
 70
0
 71
3
 72
20
 73
16
 74
0
 42
0.0000001
 43
0.0000001
 44
0.0000000001
 40
0.0
 40
0.0
 40
0.0
 40
0.0
 40
0.1710127126
 40
0.3374980685
 40
0.4933003204
 40
0.5654729008
 40
0.6330328157
 40
0.6955184077
 40
0.7526137044
 40
0.8041987342
 40
0.8504270282
 40
0.8918640049
 40
0.9296022552
 40
0.9651556828
 40
1.0
 40
1.0
 40
1.0
 40
1.0
 10
306.9925945557
 20
106.4884588641
 30
0.0
 10
309.2136353068
 20
106.4305977903
 30
0.0
 10
313.6013793834
 20
106.4438076425
 30
0.0
 10
320.0016053074
 20
106.839282458
 30
0.0
 10
325.0907648359
 20
107.4827167023
 30
0.0
 10
328.8658040916
 20
108.1891970206
 30
0.0
 10
331.4253061677
 20
108.786208175
 30
0.0
 10
333.7629455984
 20
109.4591604755
 30
0.0
 10
335.8599352275
 20
110.2043283935
 30
0.0
 10
337.7023668837
 20
111.020139871
 30
0.0
 10
339.2813098133
 20
111.9105432872
 30
0.0
 10
340.5922745756
 20
112.8877513216
 30
0.0
 10
341.619303327
 20
113.9825547402
 30
0.0
 10
342.3151560418
 20
115.2232117808
 30
0.0
 10
342.4923057574
 20
116.1420547463
 30
0.0
 10
342.4986944369
 20
116.5947064504
 30
0.0
  0
SPLINE
  5
3FC
100
AcDbEntity
  8
3_ALL_AXES
100
AcDbSpline
 62
7
  6
CONTINUOUS
 70
0
 71
3
 72
22
 73
18
 74
0
 42
0.0000001
 43
0.0000001
 44
0.0000000001
 40
0.0
 40
0.0
 40
0.0
 40
0.0
 40
0.0359218551
 40
0.0540899993
 40
0.0725090189
 40
0.0913981577
 40
0.1109057013
 40
0.1524401909
 40
0.1983023329
 40
0.2491227155
 40
0.3051811376
 40
0.3664804046
 40
0.4328278215
 40
0.5038943949
 40
0.6583277833
 40
0.8254224453
 40
1.0
 40
1.0
 40
1.0
 40
1.0
 10
275.6614059446
 20
117.1847947186
 30
0.0
 10
275.6573152773
 20
116.7656431125
 30
0.0
 10
275.7584278077
 20
116.1289336308
 30
0.0
 10
276.070525725
 20
115.3407808162
 30
0.0
 10
276.3891286226
 20
114.7749443284
 30
0.0
 10
276.7813700771
 20
114.238887688
 30
0.0
 10
277.4062335174
 20
113.5445953487
 30
0.0
 10
278.3632214069
 20
112.7356709005
 30
0.0
 10
279.7220217469
 20
111.861219234
 30
0.0
 10
281.3113825175
 20
111.0493710545
 30
0.0
 10
283.1246575964
 20
110.2948094162
 30
0.0
 10
285.1530053961
 20
109.5975899063
 30
0.0
 10
287.383368353
 20
108.9600252958
 30
0.0
 10
290.69762786
 20
108.1727082614
 30
0.0
 10
295.2148087855
 20
107.3836574984
 30
0.0
 10
300.9722821118
 20
106.7516752965
 30
0.0
 10
304.9561427186
 20
106.5415111505
 30
0.0
 10
306.9925945557
 20
106.4884588641
 30
0.0
  0
SPLINE
  5
3FD
100
AcDbEntity
  8
7_ALL_FEATURES
100
AcDbSpline
 62
7
  6
CONTINUOUS
 70
0
 71
3
 72
12
 73
8
 74
0
 42
0.0000001
 43
0.0000001
 44
0.0000000001
 40
0.0
 40
0.0
 40
0.0
 40
0.0
 40
0.3080822151
 40
0.5891601172
 40
0.8241340723
 40
0.9199360294
 40
1.0
 40
1.0
 40
1.0
 40
1.0
 10
306.9815392799
 20
116.1586463415
 30
0.0
 10
307.2104569776
 20
116.1526827301
 30
0.0
 10
307.6481091313
 20
116.1244264306
 30
0.0
 10
308.2543147617
 20
116.0323025911
 30
0.0
 10
308.6958586034
 20
115.9157273483
 30
0.0
 10
308.9779256152
 20
115.7976388455
 30
0.0
 10
309.0919485402
 20
115.7324184239
 30
0.0
 10
309.1403843211
 20
115.6978419397
 30
0.0
  0
SPLINE
  5
3FE
100
AcDbEntity
  8
7_ALL_FEATURES
100
AcDbSpline
 62
7
  6
CONTINUOUS
 70
0
 71
3
 72
16
 73
12
 74
0
 42
0.0000001
 43
0.0000001
 44
0.0000000001
 40
0.0
 40
0.0
 40
0.0
 40
0.0
 40
0.0559103783
 40
0.091141338
 40
0.1321757904
 40
0.232297969
 40
0.3556451527
 40
0.4990314302
 40
0.6578626803
 40
0.8269037045
 40
1.0
 40
1.0
 40
1.0
 40
1.0
 10
304.3268645316
 20
115.5151347436
 30
0.0
 10
304.3384684354
 20
115.5665586654
 30
0.0
 10
304.38904925
 20
115.6424414226
 30
0.0
 10
304.4834945306
 20
115.7232175831
 30
0.0
 10
304.6242689121
 20
115.813087529
 30
0.0
 10
304.854764198
 20
115.9114063286
 30
0.0
 10
305.1876895897
 20
116.0070656853
 30
0.0
 10
305.5822457093
 20
116.0825702257
 30
0.0
 10
306.023769084
 20
116.135121614
 30
0.0
 10
306.4955962118
 20
116.1623145941
 30
0.0
 10
306.8183852562
 20
116.1628967214
 30
0.0
 10
306.9815392799
 20
116.1586463415
 30
0.0
  0
LINE
  5
3FF
100
AcDbEntity
  8
7_ALL_FEATURES
100
AcDbLine
 62
7
  6
CONTINUOUS
 10
309.8371616186
 20
114.4823961845
 11
310.0874394885
 21
114.4818862292
  0
SPLINE
  5
400
100
AcDbEntity
  8
7_ALL_FEATURES
100
AcDbSpline
 62
7
  6
CONTINUOUS
 70
0
 71
3
 72
20
 73
16
 74
0
 42
0.0000001
 43
0.0000001
 44
0.0000000001
 40
0.0
 40
0.0
 40
0.0
 40
0.0
 40
0.1760717723
 40
0.3458184759
 40
0.5040030643
 40
0.5772688784
 40
0.6459335814
 40
0.709540695
 40
0.7677125101
 40
0.8201707724
 40
0.8667668782
 40
0.9075319041
 40
0.942761384
 40
0.9731588762
 40
1.0
 40
1.0
 40
1.0
 40
1.0
 10
310.0874394885
 20
114.4818862292
 30
0.0
 10
312.5250688983
 20
114.4791051743
 30
0.0
 10
317.3140000733
 20
114.597979615
 30
0.0
 10
324.2731874914
 20
115.1492103308
 30
0.0
 10
329.7786105615
 20
115.9189262944
 30
0.0
 10
333.8563951276
 20
116.7208230991
 30
0.0
 10
336.6246157133
 20
117.3837300409
 30
0.0
 10
339.1582066454
 20
118.1175504273
 30
0.0
 10
341.4360165917
 20
118.9159838335
 30
0.0
 10
343.4394253684
 20
119.772161315
 30
0.0
 10
345.1526646552
 20
120.6792161712
 30
0.0
 10
346.5630624299
 20
121.6306170204
 30
0.0
 10
347.6610693286
 20
122.6223563321
 30
0.0
 10
348.4374433449
 20
123.6523138032
 30
0.0
 10
348.7413582475
 20
124.3984319168
 30
0.0
 10
348.8231544748
 20
124.760920514
 30
0.0
  0
SPLINE
  5
401
100
AcDbEntity
  8
7_ALL_FEATURES
100
AcDbSpline
 62
7
  6
CONTINUOUS
 70
0
 71
3
 72
9
 73
5
 74
0
 42
0.0000001
 43
0.0000001
 44
0.0000000001
 40
0.0
 40
0.0
 40
0.0
 40
0.0
 40
0.2461792613
 40
1.0
 40
1.0
 40
1.0
 40
1.0
 10
327.7337212782
 20
128.9917487618
 30
0.0
 10
327.7335612766
 20
128.9729440853
 30
0.0
 10
327.7308491767
 20
128.8965849158
 30
0.0
 10
327.7197025794
 20
128.8205621172
 30
0.0
 10
327.7070274455
 20
128.7643909263
 30
0.0
  0
SPLINE
  5
402
100
AcDbEntity
  8
7_ALL_FEATURES
100
AcDbSpline
 62
7
  6
CONTINUOUS
 70
0
 71
3
 72
9
 73
5
 74
0
 42
0.0000001
 43
0.0000001
 44
0.0000000001
 40
0.0
 40
0.0
 40
0.0
 40
0.0
 40
0.2411450599
 40
1.0
 40
1.0
 40
1.0
 40
1.0
 10
327.7070274455
 20
128.7643909263
 30
0.0
 10
327.7033875077
 20
128.7482601585
 30
0.0
 10
327.6868599422
 20
128.6816955506
 30
0.0
 10
327.6646212816
 20
128.6165798541
 30
0.0
 10
327.6450524637
 20
128.5683615227
 30
0.0
  0
SPLINE
  5
403
100
AcDbEntity
  8
7_ALL_FEATURES
100
AcDbSpline
 62
7
  6
CONTINUOUS
 70
0
 71
3
 72
30
 73
26
 74
0
 42
0.0000001
 43
0.0000001
 44
0.0000000001
 40
0.0
 40
0.0
 40
0.0
 40
0.0
 40
0.0112101848
 40
0.0253234411
 40
0.0426880778
 40
0.0632891641
 40
0.0870613447
 40
0.1138776297
 40
0.1759116152
 40
0.2477077795
 40
0.3271668588
 40
0.4119033239
 40
0.4993394861
 40
0.5868006749
 40
0.671611353
 40
0.7511913351
 40
0.8231505755
 40
0.8556097079
 40
0.8854034909
 40
0.912329056
 40
0.9362197063
 40
0.9569441354
 40
0.9744076667
 40
0.9886707081
 40
1.0
 40
1.0
 40
1.0
 40
1.0
 10
327.6450524637
 20
128.5683615227
 30
0.0
 10
327.5902294579
 20
128.4332754958
 30
0.0
 10
327.4181611956
 20
128.1475008329
 30
0.0
 10
327.0335288303
 20
127.7434803276
 30
0.0
 10
326.4956293191
 20
127.3284523017
 30
0.0
 10
325.8035953038
 20
126.9184193159
 30
0.0
 10
324.9664626201
 20
126.5207081163
 30
0.0
 10
323.6000637474
 20
125.9904858802
 30
0.0
 10
321.5872178175
 20
125.4157417957
 30
0.0
 10
318.8636268583
 20
124.8791142501
 30
0.0
 10
315.8174121054
 20
124.4890223058
 30
0.0
 10
312.551402735
 20
124.2601937434
 30
0.0
 10
309.173914204
 20
124.2012759388
 30
0.0
 10
305.7968796051
 20
124.3144863423
 30
0.0
 10
302.5320027741
 20
124.5957517864
 30
0.0
 10
299.4880943816
 20
125.0350099131
 30
0.0
 10
297.1451645879
 20
125.5341040143
 30
0.0
 10
295.4651167906
 20
126.009409869
 30
0.0
 10
294.365767606
 20
126.3806133921
 30
0.0
 10
293.3935306023
 20
126.7746589057
 30
0.0
 10
292.5579052247
 20
127.1860222489
 30
0.0
 10
291.8677863476
 20
127.6075808237
 30
0.0
 10
291.3302127745
 20
128.0311481254
 30
0.0
 10
290.9483344479
 20
128.4440627336
 30
0.0
 10
290.7755212367
 20
128.7333633327
 30
0.0
 10
290.7209367742
 20
128.8702149735
 30
0.0
  0
SPLINE
  5
404
100
AcDbEntity
  8
7_ALL_FEATURES
100
AcDbSpline
 62
7
  6
CONTINUOUS
 70
0
 71
3
 72
9
 73
5
 74
0
 42
0.0000001
 43
0.0000001
 44
0.0000000001
 40
0.0
 40
0.0
 40
0.0
 40
0.0
 40
0.2633577636
 40
1.0
 40
1.0
 40
1.0
 40
1.0
 10
290.7209367742
 20
128.8702149735
 30
0.0
 10
290.7114465562
 20
128.8940084095
 30
0.0
 10
290.6779259099
 20
128.9853247676
 30
0.0
 10
290.6549614811
 20
129.0806135177
 30
0.0
 10
290.6451576762
 20
129.1515912422
 30
0.0
  0
SPLINE
  5
405
100
AcDbEntity
  8
7_ALL_FEATURES
100
AcDbSpline
 62
7
  6
CONTINUOUS
 70
0
 71
3
 72
9
 73
5
 74
0
 42
0.0000001
 43
0.0000001
 44
0.0000000001
 40
0.0
 40
0.0
 40
0.0
 40
0.0
 40
0.24927401
 40
1.0
 40
1.0
 40
1.0
 40
1.0
 10
269.4252155403
 20
128.2401077823
 30
0.0
 10
269.4257938694
 20
128.3080776512
 30
0.0
 10
269.4354656962
 20
128.5806480404
 30
0.0
 10
269.4748741375
 20
128.8520732424
 30
0.0
 10
269.5199341133
 20
129.0517612717
 30
0.0
  0
SPLINE
  5
406
100
AcDbEntity
  8
7_ALL_FEATURES
100
AcDbSpline
 62
7
  6
CONTINUOUS
 70
0
 71
3
 72
9
 73
5
 74
0
 42
0.0000001
 43
0.0000001
 44
0.0000000001
 40
0.0
 40
0.0
 40
0.0
 40
0.0
 40
0.2484817175
 40
1.0
 40
1.0
 40
1.0
 40
1.0
 10
269.5199341133
 20
129.0517612717
 30
0.0
 10
269.530963687
 20
129.1006399891
 30
0.0
 10
269.5790556234
 20
129.2965011232
 30
0.0
 10
269.6417821902
 20
129.4887219145
 30
0.0
 10
269.6962097219
 20
129.6301586971
 30
0.0
  0
SPLINE
  5
407
100
AcDbEntity
  8
7_ALL_FEATURES
100
AcDbSpline
 62
7
  6
CONTINUOUS
 70
0
 71
3
 72
34
 73
30
 74
0
 42
0.0000001
 43
0.0000001
 44
0.0000000001
 40
0.0
 40
0.0
 40
0.0
 40
0.0
 40
0.0155814128
 40
0.0328718388
 40
0.0524473957
 40
0.0746441026
 40
0.0996238413
 40
0.127401167
 40
0.1578942065
 40
0.1909524024
 40
0.2263714972
 40
0.263905042
 40
0.3441650265
 40
0.4292353902
 40
0.5163563342
 40
0.6026672143
 40
0.6853467637
 40
0.7617569031
 40
0.796882124
 40
0.8296179528
 40
0.8597660028
 40
0.8871820388
 40
0.9117974993
 40
0.9336423925
 40
0.9528906867
 40
0.9699394787
 40
0.9853377576
 40
0.9926950495
 40
1.0
 40
1.0
 40
1.0
 40
1.0
 10
269.6962097219
 20
129.6301586971
 30
0.0
 10
269.8560300592
 20
130.045471932
 30
0.0
 10
270.3288107271
 20
130.871527045
 30
0.0
 10
271.3542062221
 20
131.9748721435
 30
0.0
 10
272.6958710403
 20
133.0069566657
 30
0.0
 10
274.3421613024
 20
133.9753164395
 30
0.0
 10
276.2835999889
 20
134.8829979449
 30
0.0
 10
278.5081951713
 20
135.7271456838
 30
0.0
 10
280.9997874284
 20
136.503209877
 30
0.0
 10
283.7387555606
 20
137.2056628717
 30
0.0
 10
286.7024339078
 20
137.8289731265
 30
0.0
 10
291.0169132816
 20
138.5638099285
 30
0.0
 10
296.7761116816
 20
139.2349570827
 30
0.0
 10
303.9777657826
 20
139.64865545
 30
0.0
 10
311.3640838201
 20
139.6713464677
 30
0.0
 10
318.6729802236
 20
139.3024225227
 30
0.0
 10
325.6454320357
 20
138.5550894009
 30
0.0
 10
331.1174354477
 20
137.6163606204
 30
0.0
 10
335.1307591634
 20
136.6784309179
 30
0.0
 10
337.8263259927
 20
135.9200728886
 30
0.0
 10
340.2705578944
 20
135.0931644259
 30
0.0
 10
342.4444003272
 20
134.2034428073
 30
0.0
 10
344.3322568473
 20
133.2554810605
 30
0.0
 10
345.922466704
 20
132.2519596989
 30
0.0
 10
347.2064987427
 20
131.1893413995
 30
0.0
 10
348.1699190193
 20
130.0582532276
 30
0.0
 10
348.6900107445
 20
129.0297512966
 30
0.0
 10
348.8926022979
 20
128.1921750089
 30
0.0
 10
348.924113011
 20
127.7723185829
 30
0.0
 10
348.9223379379
 20
127.5636977795
 30
0.0
  0
SPLINE
  5
408
100
AcDbEntity
  8
3_ALL_AXES
100
AcDbSpline
 62
7
  6
CONTINUOUS
 70
0
 71
3
 72
29
 73
25
 74
0
 42
0.0000001
 43
0.0000001
 44
0.0000000001
 40
0.0
 40
0.0
 40
0.0
 40
0.0
 40
0.0182736364
 40
0.0386571382
 40
0.0611646765
 40
0.0857643122
 40
0.140931958
 40
0.2033428607
 40
0.2369213206
 40
0.2718648196
 40
0.3451324886
 40
0.4216512796
 40
0.4998228808
 40
0.578001133
 40
0.65453974
 40
0.7278398082
 40
0.7628038959
 40
0.7964056651
 40
0.8588706162
 40
0.9141005363
 40
0.9387334608
 40
0.9612750771
 40
0.9816928198
 40
1.0
 40
1.0
 40
1.0
 40
1.0
 10
277.2459232107
 20
119.3281773214
 30
0.0
 10
277.5621561457
 20
119.0828558846
 30
0.0
 10
278.2616112115
 20
118.6027776111
 30
0.0
 10
279.4292709581
 20
117.9436457013
 30
0.0
 10
280.7659183723
 20
117.3099079035
 30
0.0
 10
282.8442537674
 20
116.4715025637
 30
0.0
 10
285.8173633088
 20
115.5304918298
 30
0.0
 10
289.0412092471
 20
114.7673483981
 30
0.0
 10
291.8587260123
 20
114.2314106952
 30
0.0
 10
294.9250310385
 20
113.7372782079
 30
0.0
 10
298.9436327785
 20
113.2520083244
 30
0.0
 10
303.924444134
 20
112.8841394083
 30
0.0
 10
309.024056228
 20
112.7308162523
 30
0.0
 10
314.1259950695
 20
112.795585964
 30
0.0
 10
319.1137329375
 20
113.0769212093
 30
0.0
 10
323.1417570056
 20
113.4923244903
 30
0.0
 10
326.2178716804
 20
113.9331083194
 30
0.0
 10
329.0464431335
 20
114.4200579028
 30
0.0
 10
332.2861689876
 20
115.1271576978
 30
0.0
 10
335.2785870755
 20
116.0163502892
 30
0.0
 10
337.3742353721
 20
116.8184573749
 30
0.0
 10
338.7241300215
 20
117.4288739659
 30
0.0
 10
339.9056019058
 20
118.0676085767
 30
0.0
 10
340.6150856165
 20
118.5354223849
 30
0.0
 10
340.9364690444
 20
118.7751872629
 30
0.0
  0
SPLINE
  5
409
100
AcDbEntity
  8
7_ALL_FEATURES
100
AcDbSpline
 62
7
  6
CONTINUOUS
 70
0
 71
3
 72
21
 73
17
 74
0
 42
0.0000001
 43
0.0000001
 44
0.0000000001
 40
0.0
 40
0.0
 40
0.0
 40
0.0
 40
0.013374978
 40
0.0270537838
 40
0.0563500283
 40
0.0897581238
 40
0.128387591
 40
0.172821871
 40
0.2232900816
 40
0.2797820485
 40
0.3421220295
 40
0.4100140414
 40
0.4830683961
 40
0.6427159149
 40
0.8167053786
 40
1.0
 40
1.0
 40
1.0
 40
1.0
 10
269.4073411211
 20
126.132511352
 30
0.0
 10
269.4058916112
 20
125.9616476018
 30
0.0
 10
269.4307447016
 20
125.6151864103
 30
0.0
 10
269.5941452964
 20
124.9114918307
 30
0.0
 10
270.0273089778
 20
124.022757142
 30
0.0
 10
270.8527110084
 20
123.0151367956
 30
0.0
 10
271.982173508
 20
122.0380808508
 30
0.0
 10
273.4077868404
 20
121.0948674432
 30
0.0
 10
275.119969768
 20
120.1901059952
 30
0.0
 10
277.1064742072
 20
119.3302857255
 30
0.0
 10
279.3522279714
 20
118.522077536
 30
0.0
 10
281.8396768869
 20
117.7719939384
 30
0.0
 10
285.5635979238
 20
116.8299341976
 30
0.0
 10
290.6728242123
 20
115.8596702752
 30
0.0
 10
297.2286924335
 20
115.0370080951
 30
0.0
 10
301.7846842979
 20
114.7196086052
 30
0.0
 10
304.124059086
 20
114.6163810493
 30
0.0
  0
SPLINE
  5
40A
100
AcDbEntity
  8
7_ALL_FEATURES
100
AcDbSpline
 62
9
  6
CONTINUOUS
 70
0
 71
3
 72
32
 73
28
 74
0
 42
0.0000001
 43
0.0000001
 44
0.0000000001
 40
0.0
 40
0.0
 40
0.0
 40
0.0
 40
0.0128349071
 40
0.0261882645
 40
0.0412542372
 40
0.0588399894
 40
0.0793794262
 40
0.1030553386
 40
0.1298846423
 40
0.1597800588
 40
0.1925747608
 40
0.2280448253
 40
0.3058875693
 40
0.3907796595
 40
0.4797975535
 40
0.569813499
 40
0.6576515551
 40
0.7402412789
 40
0.8147775218
 40
0.8482762966
 40
0.8789268997
 40
0.9065491216
 40
0.9310297609
 40
0.952357388
 40
0.9706654104
 40
0.9863165918
 40
1.0
 40
1.0
 40
1.0
 40
1.0
 10
328.1988425252
 20
129.1336566475
 30
0.0
 10
328.2378875384
 20
129.3066887364
 30
0.0
 10
328.2579692899
 20
129.676828299
 30
0.0
 10
328.0867882776
 20
130.230901357
 30
0.0
 10
327.7296954049
 20
130.7648965745
 30
0.0
 10
327.1992697215
 20
131.2793125963
 30
0.0
 10
326.5008021769
 20
131.7750802701
 30
0.0
 10
325.6394344985
 20
132.2496255426
 30
0.0
 10
324.6222216292
 20
132.6995150868
 30
0.0
 10
323.4580248705
 20
133.1205359493
 30
0.0
 10
322.1575116583
 20
133.5087735354
 30
0.0
 10
320.1964238731
 20
133.9925613943
 30
0.0
 10
317.4976346336
 20
134.4782144505
 30
0.0
 10
314.0380992687
 20
134.8670913016
 30
0.0
 10
310.3937824451
 20
135.0622123017
 30
0.0
 10
306.7036939262
 20
135.0558401995
 30
0.0
 10
303.1081765991
 20
134.8483460705
 30
0.0
 10
299.7442784932
 20
134.4481181083
 30
0.0
 10
297.153475645
 20
133.9523594508
 30
0.0
 10
295.3004675701
 20
133.4594941741
 30
0.0
 10
294.0936738936
 20
133.0668358622
 30
0.0
 10
293.0307431546
 20
132.6420052632
 30
0.0
 10
292.1211863375
 20
132.1886601546
 30
0.0
 10
291.3724514109
 20
131.7108253417
 30
0.0
 10
290.790168252
 20
131.2106686644
 30
0.0
 10
290.3795267294
 20
130.6893269952
 30
0.0
 10
290.219725916
 20
130.3086187511
 30
0.0
 10
290.1780996813
 20
130.1241477077
 30
0.0
  0
SPLINE
  5
40B
100
AcDbEntity
  8
7_ALL_FEATURES
100
AcDbSpline
 62
9
  6
CONTINUOUS
 70
0
 71
3
 72
19
 73
15
 74
0
 42
0.0000001
 43
0.0000001
 44
0.0000000001
 40
0.0
 40
0.0
 40
0.0
 40
0.0
 40
0.0306711434
 40
0.0640057874
 40
0.1009641703
 40
0.1422081972
 40
0.1881559933
 40
0.2390251116
 40
0.2949023211
 40
0.3557654115
 40
0.4919766071
 40
0.6462561172
 40
0.8164708543
 40
1.0
 40
1.0
 40
1.0
 40
1.0
 10
270.0474987874
 20
129.4933596546
 30
0.0
 10
270.1061770744
 20
129.7533986641
 30
0.0
 10
270.2942188948
 20
130.2825614751
 30
0.0
 10
270.7510116877
 20
131.0371911816
 30
0.0
 10
271.3854990234
 20
131.7749343489
 30
0.0
 10
272.1931979458
 20
132.4941911807
 30
0.0
 10
273.1706654099
 20
133.1933514506
 30
0.0
 10
274.3137489393
 20
133.8702469534
 30
0.0
 10
275.6177314333
 20
134.5220207732
 30
0.0
 10
277.640275017
 20
135.3865378288
 30
0.0
 10
280.5373309343
 20
136.3664376966
 30
0.0
 10
284.4186423528
 20
137.3616747588
 30
0.0
 10
288.7567671294
 20
138.19670931
 30
0.0
 10
291.8030911205
 20
138.6223011368
 30
0.0
 10
293.3873573231
 20
138.8082166142
 30
0.0
  0
SPLINE
  5
40C
100
AcDbEntity
  8
7_ALL_FEATURES
100
AcDbSpline
 62
9
  6
CONTINUOUS
 70
0
 71
3
 72
15
 73
11
 74
0
 42
0.0000001
 43
0.0000001
 44
0.0000000001
 40
0.0
 40
0.0
 40
0.0
 40
0.0
 40
0.1276807334
 40
0.2602952999
 40
0.3949832545
 40
0.5288227298
 40
0.6589169676
 40
0.7824815076
 40
0.8969350114
 40
1.0
 40
1.0
 40
1.0
 40
1.0
 10
293.3873573231
 20
138.8082166142
 30
0.0
 10
295.2777804412
 20
139.0300599609
 30
0.0
 10
299.1440366741
 20
139.3812360528
 30
0.0
 10
305.0282518308
 20
139.6428187114
 30
0.0
 10
311.0101762948
 20
139.6463334706
 30
0.0
 10
316.9490690101
 20
139.3916415272
 30
0.0
 10
322.7054754672
 20
138.8849618877
 30
0.0
 10
328.1446618752
 20
138.1387467102
 30
0.0
 10
333.139155051
 20
137.1714332484
 30
0.0
 10
336.2791021911
 20
136.3472904532
 30
0.0
 10
337.7464699975
 20
135.8918007156
 30
0.0
  0
SPLINE
  5
40D
100
AcDbEntity
  8
7_ALL_FEATURES
100
AcDbSpline
 62
9
  6
CONTINUOUS
 70
0
 71
3
 72
18
 73
14
 74
0
 42
0.0000001
 43
0.0000001
 44
0.0000000001
 40
0.0
 40
0.0
 40
0.0
 40
0.0
 40
0.1883024295
 40
0.3573637278
 40
0.5064391309
 40
0.6354646919
 40
0.7454040898
 40
0.7940223364
 40
0.8390321784
 40
0.8811590037
 40
0.9213114285
 40
0.9605482964
 40
1.0
 40
1.0
 40
1.0
 40
1.0
 10
337.7464699975
 20
135.8918007156
 30
0.0
 10
338.6195794396
 20
135.620776376
 30
0.0
 10
340.2635215203
 20
135.0621037186
 30
0.0
 10
342.534503409
 20
134.1140033612
 30
0.0
 10
344.4624451531
 20
133.1081673517
 30
0.0
 10
346.0292678271
 20
132.0541254628
 30
0.0
 10
347.0638616124
 20
131.1033446094
 30
0.0
 10
347.6729269447
 20
130.3222543736
 30
0.0
 10
348.0104263859
 20
129.753756868
 30
0.0
 10
348.2460658593
 20
129.179757479
 30
0.0
 10
348.3777179911
 20
128.6016181445
 30
0.0
 10
348.4041132678
 20
128.0222193336
 30
0.0
 10
348.3519499785
 20
127.6413625708
 30
0.0
 10
348.3097891931
 20
127.4545226093
 30
0.0
  0
SPLINE
  5
40E
100
AcDbEntity
  8
7_ALL_FEATURES
100
AcDbSpline
 62
9
  6
CONTINUOUS
 70
0
 71
3
 72
15
 73
11
 74
0
 42
0.0000001
 43
0.0000001
 44
0.0000000001
 40
0.0
 40
0.0
 40
0.0
 40
0.0
 40
0.0828523941
 40
0.1739547378
 40
0.2762996756
 40
0.3918371526
 40
0.5216809169
 40
0.6663266222
 40
0.8258447408
 40
1.0
 40
1.0
 40
1.0
 40
1.0
 10
348.3097891931
 20
127.4545226093
 30
0.0
 10
348.2447635605
 20
127.1663546688
 30
0.0
 10
348.0270027191
 20
126.5780410193
 30
0.0
 10
347.4882338096
 20
125.7462681564
 30
0.0
 10
346.7345843133
 20
124.9365781545
 30
0.0
 10
345.7718360158
 20
124.1507121751
 30
0.0
 10
344.6047792887
 20
123.3906010392
 30
0.0
 10
343.2391496728
 20
122.6595392986
 30
0.0
 10
341.6820214724
 20
121.961154981
 30
0.0
 10
340.5693781435
 20
121.5380236926
 30
0.0
 10
339.9839087547
 20
121.3311091782
 30
0.0
  0
SPLINE
  5
40F
100
AcDbEntity
  8
7_ALL_FEATURES
100
AcDbSpline
 62
9
  6
CONTINUOUS
 70
0
 71
3
 72
11
 73
7
 74
0
 42
0.0000001
 43
0.0000001
 44
0.0000000001
 40
0.0
 40
0.0
 40
0.0
 40
0.0
 40
0.2199181237
 40
0.4613451458
 40
0.7221914209
 40
1.0
 40
1.0
 40
1.0
 40
1.0
 10
339.9839087547
 20
121.3311091782
 30
0.0
 10
339.070401542
 20
121.0082606997
 30
0.0
 10
337.1288742571
 20
120.4013667101
 30
0.0
 10
334.0417366864
 20
119.6260541993
 30
0.0
 10
330.6709280466
 20
118.9501478051
 30
0.0
 10
328.3258954616
 20
118.5815036407
 30
0.0
 10
327.1135464548
 20
118.4135809856
 30
0.0
  0
SPLINE
  5
410
100
AcDbEntity
  8
7_ALL_FEATURES
100
AcDbSpline
 62
9
  6
CONTINUOUS
 70
0
 71
3
 72
18
 73
14
 74
0
 42
0.0000001
 43
0.0000001
 44
0.0000000001
 40
0.0
 40
0.0
 40
0.0
 40
0.0
 40
0.1323033812
 40
0.2715966254
 40
0.4132520332
 40
0.5525339949
 40
0.6848155479
 40
0.7469792278
 40
0.8058223333
 40
0.860899578
 40
0.911821856
 40
0.9582674319
 40
1.0
 40
1.0
 40
1.0
 40
1.0
 10
327.1135464548
 20
118.4135809856
 30
0.0
 10
324.8063938567
 20
118.0940169098
 30
0.0
 10
320.0466998844
 20
117.6014532687
 30
0.0
 10
312.775590046
 20
117.2706007996
 30
0.0
 10
305.3740734969
 20
117.3340115512
 30
0.0
 10
298.1102009297
 20
117.7895818803
 30
0.0
 10
292.2731936208
 20
118.4947891196
 30
0.0
 10
287.8784354129
 20
119.2544060937
 30
0.0
 10
284.8446634097
 20
119.8953692819
 30
0.0
 10
282.0318697761
 20
120.6132809639
 30
0.0
 10
279.4651478313
 20
121.401529621
 30
0.0
 10
277.1675059062
 20
122.2527049417
 30
0.0
 10
275.7507968407
 20
122.8920307307
 30
0.0
 10
275.0957544158
 20
123.2247407957
 30
0.0
  0
SPLINE
  5
411
100
AcDbEntity
  8
7_ALL_FEATURES
100
AcDbSpline
 62
9
  6
CONTINUOUS
 70
0
 71
3
 72
15
 73
11
 74
0
 42
0.0000001
 43
0.0000001
 44
0.0000000001
 40
0.0
 40
0.0
 40
0.0
 40
0.0
 40
0.1744132084
 40
0.3317607418
 40
0.472522907
 40
0.597795857
 40
0.7095088033
 40
0.8107367364
 40
0.9058145658
 40
1.0
 40
1.0
 40
1.0
 40
1.0
 10
275.0957544158
 20
123.2247407957
 30
0.0
 10
274.648340665
 20
123.451991814
 30
0.0
 10
273.8105421776
 20
123.9114618935
 30
0.0
 10
272.6736641155
 20
124.6602045558
 30
0.0
 10
271.7264138667
 20
125.4301128615
 30
0.0
 10
270.9732292632
 20
126.2186521276
 30
0.0
 10
270.4186616762
 20
127.0245049855
 30
0.0
 10
270.0688691745
 20
127.846748937
 30
0.0
 10
269.9330183298
 20
128.6801825701
 30
0.0
 10
269.9878494484
 20
129.2290173257
 30
0.0
 10
270.0474987874
 20
129.4933596546
 30
0.0
  0
SPLINE
  5
412
100
AcDbEntity
  8
7_ALL_FEATURES
100
AcDbSpline
 62
9
  6
CONTINUOUS
 70
0
 71
3
 72
14
 73
10
 74
0
 42
0.0000001
 43
0.0000001
 44
0.0000000001
 40
0.0
 40
0.0
 40
0.0
 40
0.0
 40
0.0909887654
 40
0.1884578261
 40
0.2946910469
 40
0.4113766592
 40
0.5396870334
 40
0.6803630865
 40
1.0
 40
1.0
 40
1.0
 40
1.0
 10
348.8410871864
 20
126.8685164386
 30
0.0
 10
348.7898438246
 20
126.6414260832
 30
0.0
 10
348.634887469
 20
126.1811483863
 30
0.0
 10
348.2692094924
 20
125.5181107633
 30
0.0
 10
347.7674750533
 20
124.8664743042
 30
0.0
 10
347.1325538411
 20
124.2278129871
 30
0.0
 10
346.3667833906
 20
123.6031011847
 30
0.0
 10
345.1208531147
 20
122.7546489003
 30
0.0
 10
344.0760829788
 20
122.2020681095
 30
0.0
 10
343.3360812132
 20
121.8539149955
 30
0.0
  0
SPLINE
  5
413
100
AcDbEntity
  8
7_ALL_FEATURES
100
AcDbSpline
 62
9
  6
CONTINUOUS
 70
0
 71
3
 72
14
 73
10
 74
0
 42
0.0000001
 43
0.0000001
 44
0.0000000001
 40
0.0
 40
0.0
 40
0.0
 40
0.0
 40
0.0910613153
 40
0.194778807
 40
0.3100234415
 40
0.4353253085
 40
0.5689596711
 40
0.7090103136
 40
1.0
 40
1.0
 40
1.0
 40
1.0
 10
343.0503769334
 20
121.7216329215
 30
0.0
 10
342.0969388201
 20
121.2871505147
 30
0.0
 10
340.0036136235
 20
120.4753820928
 30
0.0
 10
336.5825305202
 20
119.455984898
 30
0.0
 10
332.7194311032
 20
118.5694397894
 30
0.0
 10
328.4761628068
 20
117.8308521341
 30
0.0
 10
323.9203554569
 20
117.2525656805
 30
0.0
 10
317.4452482086
 20
116.7018403428
 30
0.0
 10
312.4814076455
 20
116.5668193205
 30
0.0
 10
309.1333355537
 20
116.5939773392
 30
0.0
  0
SPLINE
  5
414
100
AcDbEntity
  8
7_ALL_FEATURES
100
AcDbSpline
 62
9
  6
CONTINUOUS
 70
0
 71
3
 72
14
 73
10
 74
0
 42
0.0000001
 43
0.0000001
 44
0.0000000001
 40
0.0
 40
0.0
 40
0.0
 40
0.0
 40
0.2940763748
 40
0.4338372348
 40
0.5665531561
 40
0.690738444
 40
0.8050704036
 40
0.9084364741
 40
1.0
 40
1.0
 40
1.0
 40
1.0
 10
304.1419790524
 20
116.7239777721
 30
0.0
 10
301.2094712801
 20
116.8533719887
 30
0.0
 10
296.8869519195
 20
117.1814428214
 30
0.0
 10
291.2788765572
 20
117.9171968019
 30
0.0
 10
287.3754275758
 20
118.587292549
 30
0.0
 10
283.7534050428
 20
119.375790342
 30
0.0
 10
280.4587890535
 20
120.2723157834
 30
0.0
 10
277.5335969726
 20
121.2648059636
 30
0.0
 10
275.7411916354
 20
122.0296864594
 30
0.0
 10
274.9208014089
 20
122.4325141188
 30
0.0
  0
SPLINE
  5
415
100
AcDbEntity
  8
7_ALL_FEATURES
100
AcDbSpline
 62
9
  6
CONTINUOUS
 70
0
 71
3
 72
15
 73
11
 74
0
 42
0.0000001
 43
0.0000001
 44
0.0000000001
 40
0.0
 40
0.0
 40
0.0
 40
0.0
 40
0.1714618141
 40
0.3278052318
 40
0.469300732
 40
0.5966035965
 40
0.7109292028
 40
0.8142087011
 40
0.9093068762
 40
1.0
 40
1.0
 40
1.0
 40
1.0
 10
274.9208014089
 20
122.4325141188
 30
0.0
 10
274.4907029101
 20
122.6437009004
 30
0.0
 10
273.6794907418
 20
123.0708161918
 30
0.0
 10
272.5637906733
 20
123.7624956135
 30
0.0
 10
271.6094224923
 20
124.4730021205
 30
0.0
 10
270.8203862274
 20
125.2002001401
 30
0.0
 10
270.199884034
 20
125.9420655299
 30
0.0
 10
269.7518708707
 20
126.6977929821
 30
0.0
 10
269.4813468256
 20
127.4651097494
 30
0.0
 10
269.4231529809
 20
127.9866743264
 30
0.0
 10
269.4252940117
 20
128.240107115
 30
0.0
  0
SPLINE
  5
416
100
AcDbEntity
  8
7_ALL_FEATURES
100
AcDbSpline
 62
7
  6
CONTINUOUS
 70
0
 71
3
 72
33
 73
29
 74
0
 42
0.0000001
 43
0.0000001
 44
0.0000000001
 40
0.0
 40
0.0
 40
0.0
 40
0.0
 40
0.0128359635
 40
0.0261881404
 40
0.0412533348
 40
0.0588392566
 40
0.0793787505
 40
0.1030534024
 40
0.129883153
 40
0.1597776796
 40
0.1925716595
 40
0.2280417977
 40
0.3058830129
 40
0.3907736099
 40
0.4797901359
 40
0.5698046815
 40
0.6576412361
 40
0.7402294098
 40
0.7786712393
 40
0.8147803689
 40
0.8482782152
 40
0.8789291844
 40
0.9065500659
 40
0.9310306879
 40
0.9523585509
 40
0.9706656186
 40
0.9863156676
 40
1.0
 40
1.0
 40
1.0
 40
1.0
 10
336.8807444344
 20
128.9074815235
 30
0.0
 10
336.9376266198
 20
129.1595609197
 30
0.0
 10
336.9669554751
 20
129.698751509
 30
0.0
 10
336.7174704537
 20
130.5058301157
 30
0.0
 10
336.1973514942
 20
131.2836880196
 30
0.0
 10
335.4246963014
 20
132.0330701099
 30
0.0
 10
334.4072061144
 20
132.755192196
 30
0.0
 10
333.1524936112
 20
133.4465371153
 30
0.0
 10
331.6706996665
 20
134.101813134
 30
0.0
 10
329.9748341
 20
134.7151497804
 30
0.0
 10
328.0803869369
 20
135.2807062361
 30
0.0
 10
325.2236671913
 20
135.9853793763
 30
0.0
 10
321.2923673758
 20
136.6928734503
 30
0.0
 10
316.2528858669
 20
137.2593455575
 30
0.0
 10
310.944258902
 20
137.5435586922
 30
0.0
 10
305.5688490008
 20
137.5343358167
 30
0.0
 10
300.3315906862
 20
137.2318857115
 30
0.0
 10
296.1525709641
 20
136.7353103394
 30
0.0
 10
293.0356740004
 20
136.1898132132
 30
0.0
 10
290.909258441
 20
135.728133741
 30
0.0
 10
288.9579217896
 20
135.2088255915
 30
0.0
 10
287.1999742947
 20
134.6369682302
 30
0.0
 10
285.6516330169
 20
134.0180372377
 30
0.0
 10
284.3266627873
 20
133.3577082333
 30
0.0
 10
283.2359894415
 20
132.6616198926
 30
0.0
 10
282.3878311502
 20
131.9330357101
 30
0.0
 10
281.7895616773
 20
131.1736729797
 30
0.0
 10
281.5568394784
 20
130.6190629409
 30
0.0
 10
281.4961977721
 20
130.3503228317
 30
0.0
  0
SPLINE
  5
417
100
AcDbEntity
  8
7_ALL_FEATURES
100
AcDbSpline
 62
7
  6
CONTINUOUS
 70
0
 71
3
 72
30
 73
26
 74
0
 42
0.0000001
 43
0.0000001
 44
0.0000000001
 40
0.0
 40
0.0
 40
0.0
 40
0.0
 40
0.0121586912
 40
0.024633876
 40
0.0383685852
 40
0.0540573701
 40
0.0721209771
 40
0.0927768324
 40
0.1161024003
 40
0.1420847055
 40
0.170641858
 40
0.2016440587
 40
0.2702659465
 40
0.3462790096
 40
0.4276534365
 40
0.5121379746
 40
0.5973594074
 40
0.6809161353
 40
0.7604707421
 40
0.833845363
 40
0.8991262091
 40
0.9282473084
 40
0.9548177947
 40
0.9787461894
 40
1.0
 40
1.0
 40
1.0
 40
1.0
 10
281.4961977721
 20
130.3503228317
 30
0.0
 10
281.4453363361
 20
130.1249250205
 30
0.0
 10
281.4104494628
 20
129.6491034409
 30
0.0
 10
281.588590735
 20
128.9312612875
 30
0.0
 10
281.9855463437
 20
128.2320396748
 30
0.0
 10
282.5881973567
 20
127.5538445766
 30
0.0
 10
283.3899750512
 20
126.8959508206
 30
0.0
 10
284.385745582
 20
126.2605621058
 30
0.0
 10
285.5690122959
 20
125.6509419175
 30
0.0
 10
286.9317332104
 20
125.0714187424
 30
0.0
 10
288.4640640711
 20
124.5261105305
 30
0.0
 10
290.7983344411
 20
123.8266771392
 30
0.0
 10
294.0560835347
 20
123.0829321545
 30
0.0
 10
298.3005418261
 20
122.4094860073
 30
0.0
 10
302.8763962249
 20
121.9499376174
 30
0.0
 10
307.6443425935
 20
121.7188917627
 30
0.0
 10
312.459346403
 20
121.7238276125
 30
0.0
 10
317.1745883674
 20
121.9645138989
 30
0.0
 10
321.6468069057
 20
122.4329760629
 30
0.0
 10
325.740045968
 20
123.1141731798
 30
0.0
 10
328.8431564511
 20
123.865785224
 30
0.0
 10
331.0317046914
 20
124.5729868669
 30
0.0
 10
332.4430881777
 20
125.1213745207
 30
0.0
 10
333.6774973755
 20
125.703520205
 30
0.0
 10
334.4206185319
 20
126.1371754444
 30
0.0
 10
334.7566884587
 20
126.3612290576
 30
0.0
  0
SPLINE
  5
418
100
AcDbEntity
  8
7_ALL_FEATURES
100
AcDbSpline
 62
7
  6
CONTINUOUS
 70
0
 71
3
 72
11
 73
7
 74
0
 42
0.0000001
 43
0.0000001
 44
0.0000000001
 40
0.0
 40
0.0
 40
0.0
 40
0.0
 40
0.2946570397
 40
0.4935983189
 40
0.6756868216
 40
1.0
 40
1.0
 40
1.0
 40
1.0
 10
335.1274774981
 20
126.6215341972
 30
0.0
 10
335.3591363768
 20
126.7931279808
 30
0.0
 10
335.7333527632
 20
127.1006187195
 30
0.0
 10
336.1904876277
 20
127.5804853054
 30
0.0
 10
336.6021959627
 20
128.1350602721
 30
0.0
 10
336.8109003782
 20
128.5979602316
 30
0.0
 10
336.8807444344
 20
128.9074815235
 30
0.0
  0
SPLINE
  5
419
100
AcDbEntity
  8
7_ALL_FEATURES
100
AcDbSpline
 62
9
  6
CONTINUOUS
 70
0
 71
3
 72
31
 73
27
 74
0
 42
0.0000001
 43
0.0000001
 44
0.0000000001
 40
0.0
 40
0.0
 40
0.0
 40
0.0
 40
0.0128471795
 40
0.0269386317
 40
0.0431984829
 40
0.0621777139
 40
0.0841395653
 40
0.1091649719
 40
0.1372146929
 40
0.1681629705
 40
0.2379511911
 40
0.316548257
 40
0.4014442812
 40
0.4898137787
 40
0.5786670148
 40
0.6649916606
 40
0.745893616
 40
0.8187444961
 40
0.851453685
 40
0.8813749287
 40
0.9083450717
 40
0.9322650412
 40
0.9531334601
 40
0.9710894527
 40
0.9864899662
 40
1.0
 40
1.0
 40
1.0
 40
1.0
 10
327.7336530833
 20
128.991749341
 30
0.0
 10
327.7350788199
 20
129.1632412678
 30
0.0
 10
327.6737757573
 20
129.5255748472
 30
0.0
 10
327.402838382
 20
130.0424685205
 30
0.0
 10
326.9661123138
 20
130.541246246
 30
0.0
 10
326.3698981443
 20
131.0225875372
 30
0.0
 10
325.6187595834
 20
131.4855361784
 30
0.0
 10
324.7182845359
 20
131.9269918381
 30
0.0
 10
323.6758669975
 20
132.3433691499
 30
0.0
 10
322.0422578364
 20
132.8817219944
 30
0.0
 10
319.7130780665
 20
133.4502058807
 30
0.0
 10
316.6385740254
 20
133.9584219415
 30
0.0
 10
313.2914123558
 20
134.2963787935
 30
0.0
 10
309.79406088
 20
134.4511174422
 30
0.0
 10
306.2744048636
 20
134.4165036436
 30
0.0
 10
302.8612788001
 20
134.1940785914
 30
0.0
 10
299.6797012533
 20
133.7924633633
 30
0.0
 10
297.2353084143
 20
133.3064532606
 30
0.0
 10
295.4903717308
 20
132.8282861988
 30
0.0
 10
294.3552164653
 20
132.4491330624
 30
0.0
 10
293.3559063321
 20
132.0402840132
 30
0.0
 10
292.5010150931
 20
131.6051050473
 30
0.0
 10
291.7972686623
 20
131.1472501105
 30
0.0
 10
291.2497645881
 20
130.6686980418
 30
0.0
 10
290.8633790663
 20
130.1704847152
 30
0.0
 10
290.7126785418
 20
129.8077477771
 30
0.0
 10
290.6729811767
 20
129.6318247222
 30
0.0
  0
SPLINE
  5
41A
100
AcDbEntity
  8
7_ALL_FEATURES
100
AcDbSpline
 62
9
  6
CONTINUOUS
 70
0
 71
3
 72
30
 73
26
 74
0
 42
0.0000001
 43
0.0000001
 44
0.0000000001
 40
0.0
 40
0.0
 40
0.0
 40
0.0
 40
0.0126225167
 40
0.0257028411
 40
0.0403609454
 40
0.0573723489
 40
0.0771696046
 40
0.0999462649
 40
0.1257379965
 40
0.1544809014
 40
0.2201801968
 40
0.2953573425
 40
0.3777234429
 40
0.4646228443
 40
0.5531861188
 40
0.6404681219
 40
0.7235821356
 40
0.799836646
 40
0.8668848879
 40
0.8963756174
 40
0.922947878
 40
0.9465120154
 40
0.9670746504
 40
0.9847833273
 40
1.0
 40
1.0
 40
1.0
 40
1.0
 10
290.1780996813
 20
130.1241477077
 30
0.0
 10
290.1401932998
 20
129.9561615853
 30
0.0
 10
290.1188869639
 20
129.5981587227
 30
0.0
 10
290.2757666528
 20
129.0609372271
 30
0.0
 10
290.6085275656
 20
128.5416210593
 30
0.0
 10
291.1055042319
 20
128.040423913
 30
0.0
 10
291.7616409951
 20
127.5565129231
 30
0.0
 10
292.5722949487
 20
127.0921072827
 30
0.0
 10
293.5312231108
 20
126.6502128024
 30
0.0
 10
295.0668190322
 20
126.0703880117
 30
0.0
 10
297.2998449211
 20
125.4469685706
 30
0.0
 10
300.2927711538
 20
124.8699932526
 30
0.0
 10
303.6043621845
 20
124.4576432876
 30
0.0
 10
307.1160394027
 20
124.2254846495
 30
0.0
 10
310.7021586084
 20
124.1825018829
 30
0.0
 10
314.2338164233
 20
124.3302701918
 30
0.0
 10
317.5845711041
 20
124.6628938379
 30
0.0
 10
320.6343376137
 20
125.167742865
 30
0.0
 10
322.9262813291
 20
125.7365053028
 30
0.0
 10
324.5172872314
 20
126.2778600831
 30
0.0
 10
325.5209726691
 20
126.6961628467
 30
0.0
 10
326.3786140623
 20
127.1404964943
 30
0.0
 10
327.0836794327
 20
127.6077470989
 30
0.0
 10
327.6309027149
 20
128.0948336012
 30
0.0
 10
327.9047674208
 20
128.4569382274
 30
0.0
 10
328.0056682433
 20
128.6383704526
 30
0.0
  0
SPLINE
  5
41B
100
AcDbEntity
  8
7_ALL_FEATURES
100
AcDbSpline
 62
9
  6
CONTINUOUS
 70
0
 71
3
 72
9
 73
5
 74
0
 42
0.0000001
 43
0.0000001
 44
0.0000000001
 40
0.0
 40
0.0
 40
0.0
 40
0.0
 40
0.2602339982
 40
1.0
 40
1.0
 40
1.0
 40
1.0
 10
328.0056682433
 20
128.6383704526
 30
0.0
 10
328.0281238182
 20
128.6787483686
 30
0.0
 10
328.1095275105
 20
128.8365218637
 30
0.0
 10
328.1699326723
 20
129.0055395895
 30
0.0
 10
328.1988425252
 20
129.1336566475
 30
0.0
  0
SPLINE
  5
41C
100
AcDbEntity
  8
7_ALL_FEATURES
100
AcDbSpline
 62
7
  6
CONTINUOUS
 70
0
 71
3
 72
9
 73
5
 74
0
 42
0.0000001
 43
0.0000001
 44
0.0000000001
 40
0.0
 40
0.0
 40
0.0
 40
0.0
 40
0.2393098952
 40
1.0
 40
1.0
 40
1.0
 40
1.0
 10
275.1368477402
 20
116.1330725063
 30
0.0
 10
275.1572320708
 20
116.2234078145
 30
0.0
 10
275.2603140144
 20
116.5968382994
 30
0.0
 10
275.4327934085
 20
116.9493269288
 30
0.0
 10
275.5889568156
 20
117.1988564015
 30
0.0
  0
SPLINE
  5
41D
100
AcDbEntity
  8
7_ALL_FEATURES
100
AcDbSpline
 62
7
  6
CONTINUOUS
 70
0
 71
3
 72
9
 73
5
 74
0
 42
0.0000001
 43
0.0000001
 44
0.0000000001
 40
0.0
 40
0.0
 40
0.0
 40
0.0
 40
0.5189069508
 40
1.0
 40
1.0
 40
1.0
 40
1.0
 10
342.5763410855
 20
116.6211198844
 30
0.0
 10
342.7318626269
 20
116.3617536828
 30
0.0
 10
342.9800085467
 20
115.8266498843
 30
0.0
 10
343.0671903902
 20
115.2402598976
 30
0.0
 10
343.0648217764
 20
114.9598880421
 30
0.0
  0
SPLINE
  5
41E
100
AcDbEntity
  8
7_ALL_FEATURES
100
AcDbSpline
 62
7
  6
CONTINUOUS
 70
0
 71
3
 72
9
 73
5
 74
0
 42
0.0000001
 43
0.0000001
 44
0.0000000001
 40
0.0
 40
0.0
 40
0.0
 40
0.0
 40
0.2388857737
 40
1.0
 40
1.0
 40
1.0
 40
1.0
 10
275.054464374
 20
106.4507193202
 30
0.0
 10
275.0754927168
 20
106.5439086364
 30
0.0
 10
275.1826078058
 20
106.9296942594
 30
0.0
 10
275.3636020636
 20
107.2929423073
 30
0.0
 10
275.5274182067
 20
107.5494748679
 30
0.0
  0
SPLINE
  5
41F
100
AcDbEntity
  8
7_ALL_FEATURES
100
AcDbSpline
 62
7
  6
CONTINUOUS
 70
0
 71
3
 72
9
 73
5
 74
0
 42
0.0000001
 43
0.0000001
 44
0.0000000001
 40
0.0
 40
0.0
 40
0.0
 40
0.0
 40
0.5190261273
 40
1.0
 40
1.0
 40
1.0
 40
1.0
 10
342.4905046818
 20
106.9445150828
 30
0.0
 10
342.6470653019
 20
106.6843493761
 30
0.0
 10
342.896949504
 20
106.1475416207
 30
0.0
 10
342.9848154476
 20
105.5589037985
 30
0.0
 10
342.9824384103
 20
105.277534856
 30
0.0
  0
SPLINE
  5
420
100
AcDbEntity
  8
7_ALL_FEATURES
100
AcDbSpline
 62
7
  6
CONTINUOUS
 70
0
 71
3
 72
9
 73
5
 74
0
 42
0.0000001
 43
0.0000001
 44
0.0000000001
 40
0.0
 40
0.0
 40
0.0
 40
0.0
 40
0.2388857737
 40
1.0
 40
1.0
 40
1.0
 40
1.0
 10
274.9728966847
 20
96.8642310171
 30
0.0
 10
274.9939250275
 20
96.9574203333
 30
0.0
 10
275.1010401165
 20
97.3432059563
 30
0.0
 10
275.2820343743
 20
97.7064540042
 30
0.0
 10
275.4458505174
 20
97.9629865648
 30
0.0
  0
SPLINE
  5
421
100
AcDbEntity
  8
7_ALL_FEATURES
100
AcDbSpline
 62
7
  6
CONTINUOUS
 70
0
 71
3
 72
9
 73
5
 74
0
 42
0.0000001
 43
0.0000001
 44
0.0000000001
 40
0.0
 40
0.0
 40
0.0
 40
0.0
 40
0.5190261273
 40
1.0
 40
1.0
 40
1.0
 40
1.0
 10
342.4089369925
 20
97.3580267797
 30
0.0
 10
342.5654976126
 20
97.097861073
 30
0.0
 10
342.8153818147
 20
96.5610533176
 30
0.0
 10
342.9032477583
 20
95.9724154954
 30
0.0
 10
342.900870721
 20
95.6910465529
 30
0.0
  0
SPLINE
  5
422
100
AcDbEntity
  8
7_ALL_FEATURES
100
AcDbSpline
 62
7
  6
CONTINUOUS
 70
0
 71
3
 72
9
 73
5
 74
0
 42
0.0000001
 43
0.0000001
 44
0.0000000001
 40
0.0
 40
0.0
 40
0.0
 40
0.0
 40
0.4831474199
 40
1.0
 40
1.0
 40
1.0
 40
1.0
 10
343.0239400897
 20
117.7205378456
 30
0.0
 10
342.9807879402
 20
117.5293045496
 30
0.0
 10
342.8510874059
 20
117.1419171787
 30
0.0
 10
342.6555787287
 20
116.7841378269
 30
0.0
 10
342.5420314684
 20
116.6078184074
 30
0.0
  0
SPLINE
  5
423
100
AcDbEntity
  8
7_ALL_FEATURES
100
AcDbSpline
 62
7
  6
CONTINUOUS
 70
0
 71
3
 72
9
 73
5
 74
0
 42
0.0000001
 43
0.0000001
 44
0.0000000001
 40
0.0
 40
0.0
 40
0.0
 40
0.0
 40
0.2309580388
 40
1.0
 40
1.0
 40
1.0
 40
1.0
 10
342.4118532293
 20
116.4167149597
 30
0.0
 10
342.3359344591
 20
116.3110651998
 30
0.0
 10
341.9883488569
 20
115.8671669663
 30
0.0
 10
341.5753290254
 20
115.4773313288
 30
0.0
 10
341.2400369598
 20
115.203030072
 30
0.0
  0
SPLINE
  5
424
100
AcDbEntity
  8
7_ALL_FEATURES
100
AcDbSpline
 62
7
  6
CONTINUOUS
 70
0
 71
3
 72
31
 73
27
 74
0
 42
0.0000001
 43
0.0000001
 44
0.0000000001
 40
0.0
 40
0.0
 40
0.0
 40
0.0
 40
0.0177301533
 40
0.0376256513
 40
0.0597221823
 40
0.0839986622
 40
0.11039429
 40
0.1388159884
 40
0.2012323382
 40
0.2349405766
 40
0.2700889292
 40
0.343952081
 40
0.4212436003
 40
0.5002705277
 40
0.5792871276
 40
0.656548006
 40
0.7303611715
 40
0.7654777578
 40
0.7991500542
 40
0.8614832575
 40
0.8898583972
 40
0.9162053549
 40
0.9404310026
 40
0.9624759135
 40
0.9823196749
 40
1.0
 40
1.0
 40
1.0
 40
1.0
 10
341.2400369598
 20
115.203030072
 30
0.0
 10
340.9355334855
 20
114.9539168533
 30
0.0
 10
340.25454377
 20
114.4673746341
 30
0.0
 10
339.105714364
 20
113.803936603
 30
0.0
 10
337.7779275536
 20
113.1691708933
 30
0.0
 10
336.2788931587
 20
112.5666997293
 30
0.0
 10
334.617093262
 20
111.999996734
 30
0.0
 10
332.1183647389
 20
111.2740500127
 30
0.0
 10
329.4196217762
 20
110.6657891412
 30
0.0
 10
326.5514262453
 20
110.1564702979
 30
0.0
 10
323.41803555
 20
109.6942564472
 30
0.0
 10
319.3051764662
 20
109.2584685601
 30
0.0
 10
314.2044146855
 20
108.9630577192
 30
0.0
 10
308.9812288832
 20
108.8945322288
 30
0.0
 10
303.7607263369
 20
109.0546046678
 30
0.0
 10
298.6679473049
 20
109.4393629268
 30
0.0
 10
294.5658686639
 20
109.9471834878
 30
0.0
 10
291.4437106127
 20
110.4642735964
 30
0.0
 10
288.5882829995
 20
111.0237302072
 30
0.0
 10
285.904369598
 20
111.6791307817
 30
0.0
 10
283.4229114155
 20
112.448833642
 30
0.0
 10
281.7747229888
 20
113.0445269833
 30
0.0
 10
280.290111508
 20
113.6731751748
 30
0.0
 10
278.9774519361
 20
114.3310776926
 30
0.0
 10
277.8443615287
 20
115.0145141779
 30
0.0
 10
277.174818425
 20
115.5129602423
 30
0.0
 10
276.8762036831
 20
115.7674012878
 30
0.0
  0
SPLINE
  5
425
100
AcDbEntity
  8
7_ALL_FEATURES
100
AcDbSpline
 62
7
  6
CONTINUOUS
 70
0
 71
3
 72
9
 73
5
 74
0
 42
0.0000001
 43
0.0000001
 44
0.0000000001
 40
0.0
 40
0.0
 40
0.0
 40
0.0
 40
0.5300845921
 40
1.0
 40
1.0
 40
1.0
 40
1.0
 10
276.8762036831
 20
115.7674012878
 30
0.0
 10
276.6198360975
 20
115.9858447448
 30
0.0
 10
276.1586431163
 20
116.4257630518
 30
0.0
 10
275.7690587056
 20
116.9325397038
 30
0.0
 10
275.6123153346
 20
117.1866690781
 30
0.0
  0
SPLINE
  5
426
100
AcDbEntity
  8
7_ALL_FEATURES
100
AcDbSpline
 62
7
  6
CONTINUOUS
 70
0
 71
3
 72
9
 73
5
 74
0
 42
0.0000001
 43
0.0000001
 44
0.0000000001
 40
0.0
 40
0.0
 40
0.0
 40
0.0
 40
0.5198642627
 40
1.0
 40
1.0
 40
1.0
 40
1.0
 10
275.6123153346
 20
117.1866690781
 30
0.0
 10
275.4484239836
 20
117.4523875336
 30
0.0
 10
275.1862574369
 20
118.0010277015
 30
0.0
 10
275.0935302262
 20
118.6053944281
 30
0.0
 10
275.0959660534
 20
118.8937223099
 30
0.0
  0
SPLINE
  5
427
100
AcDbEntity
  8
7_ALL_FEATURES
100
AcDbSpline
 62
7
  6
CONTINUOUS
 70
0
 71
3
 72
9
 73
5
 74
0
 42
0.0000001
 43
0.0000001
 44
0.0000000001
 40
0.0
 40
0.0
 40
0.0
 40
0.0
 40
0.2397087007
 40
1.0
 40
1.0
 40
1.0
 40
1.0
 10
342.9415567235
 20
108.0381846595
 30
0.0
 10
342.9217834274
 20
107.950557215
 30
0.0
 10
342.8224797307
 20
107.5888100767
 30
0.0
 10
342.657901321
 20
107.2465596464
 30
0.0
 10
342.508864531
 20
107.0037290544
 30
0.0
  0
SPLINE
  5
428
100
AcDbEntity
  8
7_ALL_FEATURES
100
AcDbSpline
 62
7
  6
CONTINUOUS
 70
0
 71
3
 72
9
 73
5
 74
0
 42
0.0000001
 43
0.0000001
 44
0.0000000001
 40
0.0
 40
0.0
 40
0.0
 40
0.0
 40
0.4670929781
 40
1.0
 40
1.0
 40
1.0
 40
1.0
 10
342.508864531
 20
107.0037290544
 30
0.0
 10
342.3385337697
 20
106.7262034877
 30
0.0
 10
341.9046272105
 20
106.1739582756
 30
0.0
 10
341.386327007
 20
105.7040190628
 30
0.0
 10
341.0967468854
 20
105.4712920776
 30
0.0
  0
SPLINE
  5
429
100
AcDbEntity
  8
7_ALL_FEATURES
100
AcDbSpline
 62
7
  6
CONTINUOUS
 70
0
 71
3
 72
31
 73
27
 74
0
 42
0.0000001
 43
0.0000001
 44
0.0000000001
 40
0.0
 40
0.0
 40
0.0
 40
0.0
 40
0.0178287246
 40
0.0378098526
 40
0.0599745982
 40
0.0842997167
 40
0.110723212
 40
0.1391521643
 40
0.2015242428
 40
0.235183655
 40
0.2702679458
 40
0.3439666191
 40
0.4210623674
 40
0.4998848048
 40
0.5787116084
 40
0.6558203495
 40
0.7295402704
 40
0.7646380965
 40
0.7983127978
 40
0.860720297
 40
0.8891688174
 40
0.9156132857
 40
0.9399598811
 40
0.9621467937
 40
0.9821497559
 40
1.0
 40
1.0
 40
1.0
 40
1.0
 10
341.0967468854
 20
105.4712920776
 30
0.0
 10
340.7892803621
 20
105.2241903199
 30
0.0
 10
340.1035357061
 20
104.7416580971
 30
0.0
 10
338.9497679473
 20
104.0834593267
 30
0.0
 10
337.6193714767
 20
103.4538205295
 30
0.0
 10
336.1199893947
 20
102.856329464
 30
0.0
 10
334.4600381559
 20
102.2943791053
 30
0.0
 10
331.9675734477
 20
101.5748401165
 30
0.0
 10
329.2779536591
 20
100.9716488901
 30
0.0
 10
326.4211723975
 20
100.4664926906
 30
0.0
 10
323.3027538689
 20
100.0081199692
 30
0.0
 10
319.2111339336
 20
99.5755965811
 30
0.0
 10
314.1377343734
 20
99.281675503
 30
0.0
 10
308.9428589997
 20
99.212212568
 30
0.0
 10
303.7495961066
 20
99.3689248609
 30
0.0
 10
298.6809936741
 20
99.7480257894
 30
0.0
 10
294.5961526595
 20
100.2492119863
 30
0.0
 10
291.4847481254
 20
100.7598809987
 30
0.0
 10
288.6354129666
 20
101.312980685
 30
0.0
 10
285.9547115025
 20
101.9612751213
 30
0.0
 10
283.4729281067
 20
102.7225766679
 30
0.0
 10
281.8211906458
 20
103.3123192746
 30
0.0
 10
280.3305239303
 20
103.9349463798
 30
0.0
 10
279.0092782632
 20
104.5868400962
 30
0.0
 10
277.865052648
 20
105.2643295325
 30
0.0
 10
277.1863101977
 20
105.7582859173
 30
0.0
 10
276.882430432
 20
106.0105315635
 30
0.0
  0
SPLINE
  5
42A
100
AcDbEntity
  8
7_ALL_FEATURES
100
AcDbSpline
 62
7
  6
CONTINUOUS
 70
0
 71
3
 72
9
 73
5
 74
0
 42
0.0000001
 43
0.0000001
 44
0.0000000001
 40
0.0
 40
0.0
 40
0.0
 40
0.0
 40
0.5332502035
 40
1.0
 40
1.0
 40
1.0
 40
1.0
 10
276.882430432
 20
106.0105315635
 30
0.0
 10
276.5937852144
 20
106.2501312594
 30
0.0
 10
276.078463956
 20
106.7327486759
 30
0.0
 10
275.6503770066
 20
107.2976876593
 30
0.0
 10
275.4839063713
 20
107.5807095556
 30
0.0
  0
SPLINE
  5
42B
100
AcDbEntity
  8
7_ALL_FEATURES
100
AcDbSpline
 62
7
  6
CONTINUOUS
 70
0
 71
3
 72
9
 73
5
 74
0
 42
0.0000001
 43
0.0000001
 44
0.0000000001
 40
0.0
 40
0.0
 40
0.0
 40
0.0
 40
0.5182776459
 40
1.0
 40
1.0
 40
1.0
 40
1.0
 10
275.4839063713
 20
107.5807095556
 30
0.0
 10
275.3338582276
 20
107.8358110639
 30
0.0
 10
275.0948575079
 20
108.3618250618
 30
0.0
 10
275.0112588326
 20
108.9362953883
 30
0.0
 10
275.0135826873
 20
109.2113691237
 30
0.0
  0
SPLINE
  5
42C
100
AcDbEntity
  8
7_ALL_FEATURES
100
AcDbSpline
 62
7
  6
CONTINUOUS
 70
0
 71
3
 72
9
 73
5
 74
0
 42
0.0000001
 43
0.0000001
 44
0.0000000001
 40
0.0
 40
0.0
 40
0.0
 40
0.0
 40
0.2397087007
 40
1.0
 40
1.0
 40
1.0
 40
1.0
 10
342.8599890342
 20
98.4516963564
 30
0.0
 10
342.8402157381
 20
98.3640689119
 30
0.0
 10
342.7409120414
 20
98.0023217736
 30
0.0
 10
342.5763336317
 20
97.6600713433
 30
0.0
 10
342.4272968417
 20
97.4172407513
 30
0.0
  0
SPLINE
  5
42D
100
AcDbEntity
  8
7_ALL_FEATURES
100
AcDbSpline
 62
7
  6
CONTINUOUS
 70
0
 71
3
 72
9
 73
5
 74
0
 42
0.0000001
 43
0.0000001
 44
0.0000000001
 40
0.0
 40
0.0
 40
0.0
 40
0.0
 40
0.4670929781
 40
1.0
 40
1.0
 40
1.0
 40
1.0
 10
342.4272968417
 20
97.4172407513
 30
0.0
 10
342.2569660804
 20
97.1397151846
 30
0.0
 10
341.8230595212
 20
96.5874699725
 30
0.0
 10
341.3047593177
 20
96.1175307597
 30
0.0
 10
341.0151791961
 20
95.8848037745
 30
0.0
  0
SPLINE
  5
42E
100
AcDbEntity
  8
7_ALL_FEATURES
100
AcDbSpline
 62
7
  6
CONTINUOUS
 70
0
 71
3
 72
31
 73
27
 74
0
 42
0.0000001
 43
0.0000001
 44
0.0000000001
 40
0.0
 40
0.0
 40
0.0
 40
0.0
 40
0.0178805915
 40
0.0378951415
 40
0.0600715765
 40
0.0843854918
 40
0.1107747542
 40
0.1391474518
 40
0.2013478641
 40
0.2348963651
 40
0.2698568122
 40
0.3432818533
 40
0.4200923748
 40
0.4986471295
 40
0.5772531085
 40
0.654215805
 40
0.7278894273
 40
0.7630079943
 40
0.7967355086
 40
0.8593504636
 40
0.8879544526
 40
0.914587927
 40
0.9391556211
 40
0.9615915935
 40
0.9818659166
 40
1.0
 40
1.0
 40
1.0
 40
1.0
 10
340.9675871992
 20
95.8468143815
 30
0.0
 10
340.6587417524
 20
95.6019444257
 30
0.0
 10
339.9715105447
 20
95.1237839652
 30
0.0
 10
338.8177838162
 20
94.4712050068
 30
0.0
 10
337.4900822319
 20
93.846931427
 30
0.0
 10
335.9959321622
 20
93.254496696
 30
0.0
 10
334.3436246422
 20
92.6972100891
 30
0.0
 10
331.8654433927
 20
91.9836525442
 30
0.0
 10
329.1929963416
 20
91.384804122
 30
0.0
 10
326.3556550221
 20
90.8827512346
 30
0.0
 10
323.2599916853
 20
90.4267870987
 30
0.0
 10
319.1987173354
 20
89.9952842724
 30
0.0
 10
314.1625160201
 20
89.6995170659
 30
0.0
 10
309.0039966514
 20
89.6251203991
 30
0.0
 10
303.8437346571
 20
89.7739093446
 30
0.0
 10
298.8023463138
 20
90.1423429051
 30
0.0
 10
294.7353232277
 20
90.632325697
 30
0.0
 10
291.6334616879
 20
91.1327334026
 30
0.0
 10
288.7868406065
 20
91.6759376867
 30
0.0
 10
286.1047323898
 20
92.3135187298
 30
0.0
 10
283.6165484737
 20
93.0624990325
 30
0.0
 10
281.9554654306
 20
93.6436611503
 30
0.0
 10
280.4520446607
 20
94.2577177465
 30
0.0
 10
279.1146486917
 20
94.901188681
 30
0.0
 10
277.9508695143
 20
95.5704253295
 30
0.0
 10
277.2566693235
 20
96.058226686
 30
0.0
 10
276.9441602504
 20
96.3074671117
 30
0.0
  0
SPLINE
  5
42F
100
AcDbEntity
  8
7_ALL_FEATURES
100
AcDbSpline
 62
7
  6
CONTINUOUS
 70
0
 71
3
 72
9
 73
5
 74
0
 42
0.0000001
 43
0.0000001
 44
0.0000000001
 40
0.0
 40
0.0
 40
0.0
 40
0.0
 40
0.5343462158
 40
1.0
 40
1.0
 40
1.0
 40
1.0
 10
276.8610537997
 20
96.3745070092
 30
0.0
 10
276.5590823578
 20
96.6209130485
 30
0.0
 10
276.0208751034
 20
97.1172132422
 30
0.0
 10
275.574534839
 20
97.701465219
 30
0.0
 10
275.402338682
 20
97.9942212525
 30
0.0
  0
SPLINE
  5
430
100
AcDbEntity
  8
7_ALL_FEATURES
100
AcDbSpline
 62
7
  6
CONTINUOUS
 70
0
 71
3
 72
9
 73
5
 74
0
 42
0.0000001
 43
0.0000001
 44
0.0000000001
 40
0.0
 40
0.0
 40
0.0
 40
0.0
 40
0.5182776459
 40
1.0
 40
1.0
 40
1.0
 40
1.0
 10
275.402338682
 20
97.9942212525
 30
0.0
 10
275.2522905383
 20
98.2493227608
 30
0.0
 10
275.0132898186
 20
98.7753367587
 30
0.0
 10
274.9296911433
 20
99.3498070852
 30
0.0
 10
274.932014998
 20
99.6248808206
 30
0.0
  0
SPLINE
  5
431
100
AcDbEntity
  8
7_ALL_FEATURES
100
AcDbSpline
 62
7
  6
CONTINUOUS
 70
0
 71
3
 72
11
 73
7
 74
0
 42
0.0000001
 43
0.0000001
 44
0.0000000001
 40
0.0
 40
0.0
 40
0.0
 40
0.0
 40
0.2842397922
 40
0.5426285784
 40
0.7793271677
 40
1.0
 40
1.0
 40
1.0
 40
1.0
 10
341.2481478381
 20
81.4261969309
 30
0.0
 10
341.4416106796
 20
81.6003133769
 30
0.0
 10
341.7948954364
 20
81.9514988962
 30
0.0
 10
342.2345802193
 20
82.5165101507
 30
0.0
 10
342.5546660211
 20
83.0917321618
 30
0.0
 10
342.6898957875
 20
83.4913909717
 30
0.0
 10
342.7343747927
 20
83.6885043697
 30
0.0
  0
SPLINE
  5
432
100
AcDbEntity
  8
7_ALL_FEATURES
100
AcDbSpline
 62
7
  6
CONTINUOUS
 70
0
 71
3
 72
31
 73
27
 74
0
 42
0.0000001
 43
0.0000001
 44
0.0000000001
 40
0.0
 40
0.0
 40
0.0
 40
0.0
 40
0.0171690668
 40
0.0365448077
 40
0.0581881174
 40
0.0820929617
 40
0.1082068614
 40
0.1364385849
 40
0.1987474199
 40
0.2325303445
 40
0.2678298986
 40
0.3421911163
 40
0.4201754567
 40
0.500000611
 40
0.5798257597
 40
0.6578100492
 40
0.7321711477
 40
0.7674706976
 40
0.8012534561
 40
0.8635621141
 40
0.8917938895
 40
0.9179076408
 40
0.941812347
 40
0.9634557476
 40
0.9828313427
 40
1.0
 40
1.0
 40
1.0
 40
1.0
 10
276.7869985579
 20
81.5375240445
 30
0.0
 10
277.0648108818
 20
81.2787876486
 30
0.0
 10
277.6967136542
 20
80.7711895663
 30
0.0
 10
278.781495199
 20
80.0762085154
 30
0.0
 10
280.0528408227
 20
79.4063382933
 30
0.0
 10
281.5031613853
 20
78.7655570371
 30
0.0
 10
283.1240009298
 20
78.1577203931
 30
0.0
 10
285.5811202873
 20
77.3702847996
 30
0.0
 10
288.2505121105
 20
76.7006518135
 30
0.0
 10
291.0991705309
 20
76.1287927712
 30
0.0
 10
294.2268904633
 20
75.5990896394
 30
0.0
 10
298.3454262326
 20
75.0792828827
 30
0.0
 10
303.465869436
 20
74.6862541122
 30
0.0
 10
308.7196581072
 20
74.5240576903
 30
0.0
 10
313.975444886
 20
74.596834042
 30
0.0
 10
319.1018305473
 20
74.9026805839
 30
0.0
 10
323.2286100511
 20
75.3523401446
 30
0.0
 10
326.3648844771
 20
75.8287429262
 30
0.0
 10
329.2228518009
 20
76.3520559952
 30
0.0
 10
331.9032431643
 20
76.9761752165
 30
0.0
 10
334.3734021435
 20
77.7216778098
 30
0.0
 10
336.0043419301
 20
78.3018543824
 30
0.0
 10
337.4653506027
 20
78.9178632353
 30
0.0
 10
338.7479134423
 20
79.5659932942
 30
0.0
 10
339.8443227282
 20
80.242457998
 30
0.0
 10
340.4847905747
 20
80.7391827262
 30
0.0
 10
340.7669658444
 20
80.9931403059
 30
0.0
  0
SPLINE
  5
433
100
AcDbEntity
  8
7_ALL_FEATURES
100
AcDbSpline
 62
7
  6
CONTINUOUS
 70
0
 71
3
 72
11
 73
7
 74
0
 42
0.0000001
 43
0.0000001
 44
0.0000000001
 40
0.0
 40
0.0
 40
0.0
 40
0.0
 40
0.2196038071
 40
0.4526178938
 40
0.7101297582
 40
1.0
 40
1.0
 40
1.0
 40
1.0
 10
274.8064007441
 20
84.8616888466
 30
0.0
 10
274.8043330602
 20
84.6169388127
 30
0.0
 10
274.8691493466
 20
84.1097098741
 30
0.0
 10
275.1663458286
 20
83.3687561481
 30
0.0
 10
275.6548579577
 20
82.6429994614
 30
0.0
 10
276.0768351882
 20
82.1988924989
 30
0.0
 10
276.313255651
 20
81.9787057996
 30
0.0
  0
SPLINE
  5
434
100
AcDbEntity
  8
7_ALL_FEATURES
100
AcDbSpline
 62
7
  6
CONTINUOUS
 70
0
 71
3
 72
9
 73
5
 74
0
 42
0.0000001
 43
0.0000001
 44
0.0000000001
 40
0.0
 40
0.0
 40
0.0
 40
0.0
 40
0.2432456816
 40
1.0
 40
1.0
 40
1.0
 40
1.0
 10
276.313255651
 20
81.9787057996
 30
0.0
 10
276.3516077454
 20
81.942987144
 30
0.0
 10
276.51075704
 20
81.7977394274
 30
0.0
 10
276.6755866395
 20
81.6587510205
 30
0.0
 10
276.8028471365
 20
81.5568223296
 30
0.0
  0
SPLINE
  5
435
100
AcDbEntity
  8
7_ALL_FEATURES
100
AcDbSpline
 62
7
  6
CONTINUOUS
 70
0
 71
3
 72
30
 73
26
 74
0
 42
0.0000001
 43
0.0000001
 44
0.0000000001
 40
0.0
 40
0.0
 40
0.0
 40
0.0
 40
0.0181090381
 40
0.038349871
 40
0.0607440164
 40
0.0852619933
 40
0.1118386359
 40
0.1403795653
 40
0.2028543359
 40
0.236507197
 40
0.2715499162
 40
0.3450740771
 40
0.421900284
 40
0.5003947859
 40
0.578874629
 40
0.6556572697
 40
0.7291102353
 40
0.7641076194
 40
0.7977092219
 40
0.860065179
 40
0.9150327154
 40
0.9394780186
 40
0.9617975433
 40
0.9819639576
 40
1.0
 40
1.0
 40
1.0
 40
1.0
 10
276.8184509023
 20
81.5443509764
 30
0.0
 10
277.1300692718
 20
81.2958145586
 30
0.0
 10
277.8221053377
 20
80.809350269
 30
0.0
 10
278.9820249206
 20
80.1417805273
 30
0.0
 10
280.3146819853
 20
79.499821958
 30
0.0
 10
281.8125494606
 20
78.8870907568
 30
0.0
 10
283.4673409923
 20
78.3070454096
 30
0.0
 10
285.9459443726
 20
77.5592795741
 30
0.0
 10
288.6177583612
 20
76.9223015099
 30
0.0
 10
291.4535651386
 20
76.379157681
 30
0.0
 10
294.5440244401
 20
75.8783650777
 30
0.0
 10
298.5968321335
 20
75.3870777656
 30
0.0
 10
303.6218295166
 20
75.0158402998
 30
0.0
 10
308.7673062955
 20
74.862978646
 30
0.0
 10
313.9136335207
 20
74.9321125939
 30
0.0
 10
318.9411460823
 20
75.2215719234
 30
0.0
 10
322.997887646
 20
75.6469096038
 30
0.0
 10
326.0922997301
 20
76.0974792083
 30
0.0
 10
328.9319062252
 20
76.5943339172
 30
0.0
 10
332.1772713722
 20
77.3145586899
 30
0.0
 10
335.1683173059
 20
78.2201599805
 30
0.0
 10
337.2545148718
 20
79.0366805449
 30
0.0
 10
338.5920324224
 20
79.6569858148
 30
0.0
 10
339.7570597956
 20
80.3056378665
 30
0.0
 10
340.4529209402
 20
80.7809227735
 30
0.0
 10
340.7664817325
 20
81.0243929778
 30
0.0
  0
SPLINE
  5
436
100
AcDbEntity
  8
7_ALL_FEATURES
100
AcDbSpline
 62
7
  6
CONTINUOUS
 70
0
 71
3
 72
9
 73
5
 74
0
 42
0.0000001
 43
0.0000001
 44
0.0000000001
 40
0.0
 40
0.0
 40
0.0
 40
0.0
 40
0.2566675648
 40
1.0
 40
1.0
 40
1.0
 40
1.0
 10
340.7664817325
 20
81.0243929778
 30
0.0
 10
340.8088745855
 20
81.0573097097
 30
0.0
 10
340.9729611035
 20
81.1869364339
 30
0.0
 10
341.1326113067
 20
81.3222141191
 30
0.0
 10
341.2481478381
 20
81.4261969309
 30
0.0
  0
SPLINE
  5
437
100
AcDbEntity
  8
7_ALL_FEATURES
100
AcDbSpline
 62
7
  6
CONTINUOUS
 70
0
 71
3
 72
33
 73
29
 74
0
 42
0.0000001
 43
0.0000001
 44
0.0000000001
 40
0.0
 40
0.0
 40
0.0
 40
0.0
 40
0.0149709965
 40
0.032168584
 40
0.0518380028
 40
0.0740783693
 40
0.0988944614
 40
0.1262245249
 40
0.1559553465
 40
0.1879373753
 40
0.257891024
 40
0.3343699146
 40
0.3744399518
 40
0.4153712855
 40
0.4986941885
 40
0.582070899
 40
0.6230689513
 40
0.6632316066
 40
0.7399693156
 40
0.8102709178
 40
0.8424556219
 40
0.8724048715
 40
0.8999659228
 40
0.9250219481
 40
0.9475050965
 40
0.9674137366
 40
0.9848365915
 40
1.0
 40
1.0
 40
1.0
 40
1.0
 10
340.8985234966
 20
113.2841431792
 30
0.0
 10
340.7130029232
 20
113.0069885006
 30
0.0
 10
340.2446932141
 20
112.4575009079
 30
0.0
 10
339.3588887016
 20
111.7113618202
 30
0.0
 10
338.2520858042
 20
110.993007321
 30
0.0
 10
336.9315700565
 20
110.3066760076
 30
0.0
 10
335.4058457522
 20
109.6565672928
 30
0.0
 10
333.6855268386
 20
109.0474224752
 30
0.0
 10
331.7828984541
 20
108.4835548986
 30
0.0
 10
328.9352756923
 20
107.776912099
 30
0.0
 10
325.023754456
 20
107.0512413162
 30
0.0
 10
320.8971752259
 20
106.5486688806
 30
0.0
 10
317.40005899
 20
106.2650424824
 30
0.0
 10
313.7444542845
 20
106.064647173
 30
0.0
 10
309.1176386794
 20
105.9864261119
 30
0.0
 10
304.490996416
 20
106.1328033003
 30
0.0
 10
300.8339776042
 20
106.3869458601
 30
0.0
 10
297.3320735362
 20
106.7221723213
 30
0.0
 10
293.1976928488
 20
107.2858936915
 30
0.0
 10
289.2789554876
 20
108.0691103299
 30
0.0
 10
286.4242951191
 20
108.8174055463
 30
0.0
 10
284.5150172456
 20
109.4093532083
 30
0.0
 10
282.78756905
 20
110.0439211187
 30
0.0
 10
281.2543029157
 20
110.7165582841
 30
0.0
 10
279.9259282522
 20
111.4223842772
 30
0.0
 10
278.8110227565
 20
112.156971578
 30
0.0
 10
277.9170928368
 20
112.9159533781
 30
0.0
 10
277.4425403957
 20
113.4720692278
 30
0.0
 10
277.2536557585
 20
113.7521277189
 30
0.0
  0
SPLINE
  5
438
100
AcDbEntity
  8
7_ALL_FEATURES
100
AcDbSpline
 62
7
  6
CONTINUOUS
 70
0
 71
3
 72
34
 73
30
 74
0
 42
0.0000001
 43
0.0000001
 44
0.0000000001
 40
0.0
 40
0.0
 40
0.0
 40
0.0
 40
0.0135109445
 40
0.0289086869
 40
0.0468626017
 40
0.0677302293
 40
0.0916490324
 40
0.1186164989
 40
0.1485362144
 40
0.1812429059
 40
0.2165183955
 40
0.2541040426
 40
0.3350006355
 40
0.4213190763
 40
0.5101659404
 40
0.5985290905
 40
0.6834188589
 40
0.7620095883
 40
0.7981496537
 40
0.8318096562
 40
0.8627557441
 40
0.8908026822
 40
0.915826401
 40
0.9377860973
 40
0.9567632041
 40
0.9730226999
 40
0.9871112787
 40
0.9936374898
 40
1.0
 40
1.0
 40
1.0
 40
1.0
 10
342.9953913985
 20
114.3652669396
 30
0.0
 10
342.9226202316
 20
114.0427738484
 30
0.0
 10
342.6465235423
 20
113.3778504046
 30
0.0
 10
341.9381360686
 20
112.4648185866
 30
0.0
 10
340.9347087787
 20
111.5876823666
 30
0.0
 10
339.6448379227
 20
110.7484066225
 30
0.0
 10
338.0778544936
 20
109.9508642488
 30
0.0
 10
336.2462478196
 20
109.201398752
 30
0.0
 10
334.1656087549
 20
108.5065746942
 30
0.0
 10
331.8543285732
 20
107.8728832575
 30
0.0
 10
329.333263682
 20
107.3061682974
 30
0.0
 10
325.631227385
 20
106.6306633812
 30
0.0
 10
320.6551993592
 20
106.0033681857
 30
0.0
 10
314.3996501197
 20
105.5954330708
 30
0.0
 10
307.9484284321
 20
105.5320888684
 30
0.0
 10
301.5380557584
 20
105.8156208411
 30
0.0
 10
295.403542549
 20
106.4353508968
 30
0.0
 10
290.5797751297
 20
107.2317369605
 30
0.0
 10
287.0376162652
 20
108.0343480011
 30
0.0
 10
284.6589307707
 20
108.685168813
 30
0.0
 10
282.5046851519
 20
109.395444004
 30
0.0
 10
280.5940690168
 20
110.1585899214
 30
0.0
 10
278.9436263424
 20
110.9677547921
 30
0.0
 10
277.5668641152
 20
111.8161524271
 30
0.0
 10
276.4742020782
 20
112.6988051855
 30
0.0
 10
275.6736058157
 20
113.6120061022
 30
0.0
 10
275.2501073579
 20
114.4233248001
 30
0.0
 10
275.0904717466
 20
115.0665496454
 30
0.0
 10
275.0661021613
 20
115.3827716018
 30
0.0
 10
275.0674173622
 20
115.5384514038
 30
0.0
  0
SPLINE
  5
439
100
AcDbEntity
  8
7_ALL_FEATURES
100
AcDbSpline
 62
7
  6
CONTINUOUS
 70
0
 71
3
 72
30
 73
26
 74
0
 42
0.0000001
 43
0.0000001
 44
0.0000000001
 40
0.0
 40
0.0
 40
0.0
 40
0.0
 40
0.0153977227
 40
0.0329508516
 40
0.0528206964
 40
0.0750652142
 40
0.0996721026
 40
0.1265777472
 40
0.186826883
 40
0.2546684371
 40
0.3285991734
 40
0.4068823791
 40
0.4876272837
 40
0.56885951
 40
0.6485884882
 40
0.7248741938
 40
0.7611540806
 40
0.7959037681
 40
0.8600323486
 40
0.8890841444
 40
0.9159385887
 40
0.9404919816
 40
0.962682689
 40
0.9824986277
 40
1.0
 40
1.0
 40
1.0
 40
1.0
 10
277.5290121117
 20
94.2285522419
 30
0.0
 10
277.7332195188
 20
93.9673334563
 30
0.0
 10
278.2250904697
 20
93.4507252343
 30
0.0
 10
279.1186887812
 20
92.7430655137
 30
0.0
 10
280.2079348049
 20
92.0577459794
 30
0.0
 10
281.486119493
 20
91.3986936226
 30
0.0
 10
282.9456349147
 20
90.7696545954
 30
0.0
 10
285.2078148042
 20
89.9454083973
 30
0.0
 10
288.4245098277
 20
89.0382976082
 30
0.0
 10
292.6885360168
 20
88.1629361088
 30
0.0
 10
297.3814283076
 20
87.4887534056
 30
0.0
 10
302.3792434806
 20
87.0343817045
 30
0.0
 10
307.5500044109
 20
86.8126021708
 30
0.0
 10
312.7566083714
 20
86.829512004
 30
0.0
 10
317.8608501207
 20
87.0846372033
 30
0.0
 10
321.983214204
 20
87.4961922121
 30
0.0
 10
325.1239655655
 20
87.9451982132
 30
0.0
 10
327.9913967307
 20
88.4448068587
 30
0.0
 10
330.6826111629
 20
89.0476201371
 30
0.0
 10
333.1639417896
 20
89.7743143224
 30
0.0
 10
334.8016977559
 20
90.3421352423
 30
0.0
 10
336.2676652839
 20
90.9469792773
 30
0.0
 10
337.5527626275
 20
91.5849663103
 30
0.0
 10
338.6488295051
 20
92.252078513
 30
0.0
 10
339.2878445127
 20
92.7435112372
 30
0.0
 10
339.5684905289
 20
92.9950361598
 30
0.0
  0
SPLINE
  5
43A
100
AcDbEntity
  8
7_ALL_FEATURES
100
AcDbSpline
 62
7
  6
CONTINUOUS
 70
0
 71
3
 72
23
 73
19
 74
0
 42
0.0000001
 43
0.0000001
 44
0.0000000001
 40
0.0
 40
0.0
 40
0.0
 40
0.0
 40
0.0121315693
 40
0.0251485879
 40
0.0393642509
 40
0.0550082384
 40
0.0722385498
 40
0.0911529248
 40
0.1341843845
 40
0.1841787846
 40
0.2408351588
 40
0.3036226683
 40
0.3718447466
 40
0.4446793041
 40
0.5212080138
 40
0.6813106417
 40
0.8437696779
 40
1.0
 40
1.0
 40
1.0
 40
1.0
 10
342.9130080323
 20
104.6829137534
 30
0.0
 10
342.8683608226
 20
104.4850549408
 30
0.0
 10
342.7324265314
 20
104.0838455168
 30
0.0
 10
342.410448179
 20
103.5065377424
 30
0.0
 10
341.9679489815
 20
102.9394942558
 30
0.0
 10
341.4075361936
 20
102.3840675004
 30
0.0
 10
340.7313331441
 20
101.8411525363
 30
0.0
 10
339.6301988986
 20
101.1040000577
 30
0.0
 10
337.9643913332
 20
100.2390494952
 30
0.0
 10
335.6352872598
 20
99.3159070495
 30
0.0
 10
332.9260383457
 20
98.4798512673
 30
0.0
 10
329.8744039937
 20
97.7431182186
 30
0.0
 10
326.5229530831
 20
97.1166890426
 30
0.0
 10
322.9193863904
 20
96.609853094
 30
0.0
 10
317.7697073803
 20
96.0963444964
 30
0.0
 10
311.0972244897
 20
95.8060041063
 30
0.0
 10
303.0890345843
 20
95.995199157
 30
0.0
 10
297.7775501225
 20
96.4869935977
 30
0.0
 10
295.1886409486
 20
96.8342241625
 30
0.0
  0
SPLINE
  5
43B
100
AcDbEntity
  8
7_ALL_FEATURES
100
AcDbSpline
 62
7
  6
CONTINUOUS
 70
0
 71
3
 72
20
 73
16
 74
0
 42
0.0000001
 43
0.0000001
 44
0.0000000001
 40
0.0
 40
0.0
 40
0.0
 40
0.0
 40
0.1885022236
 40
0.3623823889
 40
0.5186633994
 40
0.5894542991
 40
0.6550237001
 40
0.7152184074
 40
0.769964749
 40
0.8193023033
 40
0.8634120235
 40
0.9026833226
 40
0.9377804349
 40
0.9697429043
 40
1.0
 40
1.0
 40
1.0
 40
1.0
 10
295.1886409486
 20
96.8342241625
 30
0.0
 10
293.7404531384
 20
97.0284585051
 30
0.0
 10
290.9643446353
 20
97.4664123672
 30
0.0
 10
287.0312644532
 20
98.3094483245
 30
0.0
 10
284.0381295167
 20
99.1585745752
 30
0.0
 10
281.8998253371
 20
99.9178528009
 30
0.0
 10
280.4900674224
 20
100.4975360586
 30
0.0
 10
279.2277351909
 20
101.103197853
 30
0.0
 10
278.1190481609
 20
101.7319890124
 30
0.0
 10
277.1691972025
 20
102.3808814685
 30
0.0
 10
276.3826481899
 20
103.0475025627
 30
0.0
 10
275.7629780794
 20
103.729681747
 30
0.0
 10
275.3142808648
 20
104.4267160205
 30
0.0
 10
275.042115358
 20
105.1367982364
 30
0.0
 10
274.9830526903
 20
105.6215718635
 30
0.0
 10
274.985033996
 20
105.8560982176
 30
0.0
  0
SPLINE
  5
43C
100
AcDbEntity
  8
7_ALL_FEATURES
100
AcDbSpline
 62
7
  6
CONTINUOUS
 70
0
 71
3
 72
15
 73
11
 74
0
 42
0.0000001
 43
0.0000001
 44
0.0000000001
 40
0.0
 40
0.0
 40
0.0
 40
0.0
 40
0.0769229452
 40
0.166958412
 40
0.2712485147
 40
0.3900806873
 40
0.5231750532
 40
0.6698665122
 40
0.82920225
 40
1.0
 40
1.0
 40
1.0
 40
1.0
 10
277.3779046863
 20
103.990882787
 30
0.0
 10
277.6046102279
 20
103.6710046193
 30
0.0
 10
278.1844757009
 20
103.0385605034
 30
0.0
 10
279.2803560588
 20
102.189212309
 30
0.0
 10
280.6559525962
 20
101.3732506274
 30
0.0
 10
282.2997029162
 20
100.5975252931
 30
0.0
 10
284.1976910732
 20
99.8683945985
 30
0.0
 10
286.3326613867
 20
99.1929130445
 30
0.0
 10
288.6847041017
 20
98.5776643688
 30
0.0
 10
290.3301082032
 20
98.2229675402
 30
0.0
 10
291.1843732801
 20
98.0554328014
 30
0.0
  0
SPLINE
  5
43D
100
AcDbEntity
  8
7_ALL_FEATURES
100
AcDbSpline
 62
7
  6
CONTINUOUS
 70
0
 71
3
 72
22
 73
18
 74
0
 42
0.0000001
 43
0.0000001
 44
0.0000000001
 40
0.0
 40
0.0
 40
0.0
 40
0.0
 40
0.0679468678
 40
0.1397129449
 40
0.2907982335
 40
0.4450871574
 40
0.5207994471
 40
0.5941642697
 40
0.6641942067
 40
0.729968259
 40
0.7906557121
 40
0.8455445982
 40
0.8940794873
 40
0.9359208755
 40
0.9543218562
 40
0.971079854
 40
1.0
 40
1.0
 40
1.0
 40
1.0
 10
291.1843732801
 20
98.0554328014
 30
0.0
 10
292.3182053637
 20
97.8330706014
 30
0.0
 10
294.6611414671
 20
97.433342355
 30
0.0
 10
299.5675434467
 20
96.8079592886
 30
0.0
 10
305.9716961096
 20
96.3669888917
 30
0.0
 10
312.4574212192
 20
96.3645351266
 30
0.0
 10
317.6099915144
 20
96.6354707908
 30
0.0
 10
321.3218609341
 20
96.9691948878
 30
0.0
 10
324.8499206802
 20
97.4292907027
 30
0.0
 10
328.1419066383
 20
98.0087027966
 30
0.0
 10
331.1492199614
 20
98.6984431669
 30
0.0
 10
333.8282571534
 20
99.4878185942
 30
0.0
 10
336.1404004028
 20
100.364924416
 30
0.0
 10
337.8011982142
 20
101.1900284918
 30
0.0
 10
338.9060501596
 20
101.89593166
 30
0.0
 10
339.7718351468
 20
102.5574181529
 30
0.0
 10
340.3232399481
 20
103.1193775024
 30
0.0
 10
340.6069769291
 20
103.5210557871
 30
0.0
  0
SPLINE
  5
43E
100
AcDbEntity
  8
7_ALL_FEATURES
100
AcDbSpline
 62
7
  6
CONTINUOUS
 70
0
 71
3
 72
20
 73
16
 74
0
 42
0.0000001
 43
0.0000001
 44
0.0000000001
 40
0.0
 40
0.0
 40
0.0
 40
0.0
 40
0.0263951918
 40
0.056526629
 40
0.0917170113
 40
0.1326653837
 40
0.1796341817
 40
0.2326086498
 40
0.2913881418
 40
0.3556364315
 40
0.4249125263
 40
0.4986951075
 40
0.6573594359
 40
0.8263891053
 40
1.0
 40
1.0
 40
1.0
 40
1.0
 10
342.831440343
 20
95.0964254503
 30
0.0
 10
342.757916847
 20
94.7705983332
 30
0.0
 10
342.4774243053
 20
94.0985007568
 30
0.0
 10
341.7569566348
 20
93.1769559218
 30
0.0
 10
340.7360488633
 20
92.2921816342
 30
0.0
 10
339.4234702755
 20
91.4461785673
 30
0.0
 10
337.8288717249
 20
90.6429789008
 30
0.0
 10
335.9652276004
 20
89.8891237556
 30
0.0
 10
333.8487334098
 20
89.1913590349
 30
0.0
 10
331.4984774498
 20
88.5563518257
 30
0.0
 10
328.9360943535
 20
87.9900831228
 30
0.0
 10
325.176695557
 20
87.3179371123
 30
0.0
 10
320.1296948692
 20
86.6997618427
 30
0.0
 10
313.7947817839
 20
86.3099195834
 30
0.0
 10
309.456243521
 20
86.2846034688
 30
0.0
 10
307.2597858963
 20
86.3320083186
 30
0.0
  0
SPLINE
  5
43F
100
AcDbEntity
  8
7_ALL_FEATURES
100
AcDbSpline
 62
7
  6
CONTINUOUS
 70
0
 71
3
 72
21
 73
17
 74
0
 42
0.0000001
 43
0.0000001
 44
0.0000000001
 40
0.0
 40
0.0
 40
0.0
 40
0.0
 40
0.1808985912
 40
0.3543349023
 40
0.5146583143
 40
0.588320991
 40
0.6569025088
 40
0.7199394225
 40
0.7770672802
 40
0.8280460326
 40
0.8728042824
 40
0.911518599
 40
0.9447374167
 40
0.9735764612
 40
0.9869528772
 40
1.0
 40
1.0
 40
1.0
 40
1.0
 10
307.2597858963
 20
86.3320083186
 30
0.0
 10
305.1230390246
 20
86.3781244663
 30
0.0
 10
300.9390509095
 20
86.5800976029
 30
0.0
 10
294.8886486819
 20
87.2146701362
 30
0.0
 10
290.1379598553
 20
88.0173768925
 30
0.0
 10
286.6538136448
 20
88.8211331214
 30
0.0
 10
284.3161755136
 20
89.4708274728
 30
0.0
 10
282.2002021624
 20
90.1783437693
 30
0.0
 10
280.3243595445
 20
90.9372599746
 30
0.0
 10
278.7045476721
 20
91.7409023938
 30
0.0
 10
277.353746554
 20
92.5827040702
 30
0.0
 10
276.2819973049
 20
93.4578748151
 30
0.0
 10
275.4970372484
 20
94.3628528379
 30
0.0
 10
275.0823405708
 20
95.1659235699
 30
0.0
 10
274.9260175864
 20
95.8024615549
 30
0.0
 10
274.9021641055
 20
96.1154688808
 30
0.0
 10
274.9034663067
 20
96.2696099145
 30
0.0
  0
ENDSEC
  0
SECTION
  2
OBJECTS
  0
DICTIONARY
  5
440
100
AcDbDictionary
  3
ACAD_GROUP
350
441
  3
ACAD_MLINESTYLE
350
442
  0
DICTIONARY
  5
441
102
{ACAD_REACTORS
330
440
102
}
100
AcDbDictionary
  0
DICTIONARY
  5
442
102
{ACAD_REACTORS
330
440
102
}
100
AcDbDictionary
  3
STANDARD
350
443
  0
MLINESTYLE
  5
443
102
{ACAD_REACTORS
330
442
102
}
100
AcDbMlineStyle
  2
STANDARD
 70
0
  3

 62
256
 51
90.0
 52
90.0
 71
2
 49
0.5
 62
256
  6
BYLAYER
 49
-0.5
 62
256
  6
BYLAYER
  0
ENDSEC
  0
EOF
