999
DXF file: 2l0_c_001_2.dxf
999
Pro/ENGINEER 2016360 by Parametric Technology Corporation
  0
SECTION
  2
HEADER
  9
$ACADVER
  1
AC1014
  9
$DWGCODEPAGE
  3
ANSI_1252
  9
$EXTMAX
 10
420.0
 20
297.0
 30
0.0
  9
$EXTMIN
 10
0.0
 20
0.0
 30
0.0
  9
$LIMMIN
 10
0.0
 20
0.0
  9
$LIMMAX
 10
420.0
 20
297.0
  9
$VIEWCTR
 10
210.0
 20
148.5
  9
$VIEWSIZE
 40
297.0
  9
$CLAYER
  8
0
  9
$LTSCALE
 40
23.1
  9
$CELTYPE
  6
BYLAYER
  9
$DIMSCALE
 40
1.0
  9
$DIMASZ
 40
2.5
  9
$DIMEXO
 40
0.75
  9
$DIMDLI
 40
15.96
  9
$DIMEXE
 40
0.75
  9
$DIMCEN
 40
3.78
  9
$DIMLFAC
 40
1.0
  9
$DIMBLK
  1
_CLOSED
  9
$DIMALT
 70
0
  9
$DIMALTF
 40
25.4
  9
$DIMTXT
 40
3.0
  9
$DIMTOL
 70
1
  9
$DIMLIM
 70
0
  9
$DIMTFAC
 40
1.0
  9
$DIMTP
 40
0.01
  9
$DIMTM
 40
0.01
  9
$DIMGAP
 40
0.625
  9
$AUNITS
 70
0
  9
$PDMODE
 70
3
  9
$PDSIZE
 40
0.3125
  9
$HANDSEED
  5
598
  9
$TILEMODE
 70
1
  9
$MEASUREMENT
 70
1
  0
ENDSEC
  0
SECTION
  2
CLASSES
  0
ENDSEC
  0
SECTION
  2
TABLES
  0
TABLE
  2
VPORT
  5
8
100
AcDbSymbolTable
 70
2
  0
VPORT
  5
1F4
100
AcDbSymbolTableRecord
100
AcDbViewportTableRecord
  2
*ACTIVE
 70
0
 10
0.0
 20
0.0
 11
1.0
 21
1.0
 12
210.0
 22
148.5
 13
0.0
 23
0.0
 14
1.0
 24
1.0
 15
0.0
 25
0.0
 16
0.0
 26
0.0
 36
1.0
 17
0.0
 27
0.0
 37
0.0
 40
297.0
 41
1.4141414141
 42
50.0
 43
0.0
 44
0.0
 50
0.0
 51
0.0
 71
0
 72
100
 73
1
 74
1
 75
0
 76
0
 77
0
 78
0
  0
ENDTAB
  0
TABLE
  2
LTYPE
  5
5
100
AcDbSymbolTable
 70
6
  0
LTYPE
  5
14
100
AcDbSymbolTableRecord
100
AcDbLinetypeTableRecord
  2
BYBLOCK
 70
0
  3

 72
65
 73
0
 40
0.0
  0
LTYPE
  5
15
100
AcDbSymbolTableRecord
100
AcDbLinetypeTableRecord
  2
BYLAYER
 70
0
  3

 72
65
 73
0
 40
0.0
  0
LTYPE
  5
16
100
AcDbSymbolTableRecord
100
AcDbLinetypeTableRecord
  2
CONTINUOUS
 70
64
  3
Solid line
 72
65
 73
0
 40
0.0
  0
LTYPE
  5
1F5
100
AcDbSymbolTableRecord
100
AcDbLinetypeTableRecord
  2
CENTER
 70
64
  3
____ _ ____ _ ____ _ ____ _ ____ _ ____ _ ____
 72
65
 73
4
 40
0.6
 49
0.375
 74
0
 49
-0.075
 74
0
 49
0.075
 74
0
 49
-0.075
 74
0
  0
LTYPE
  5
1F6
100
AcDbSymbolTableRecord
100
AcDbLinetypeTableRecord
  2
HIDDEN
 70
64
  3
- - - - - - - - - - - - - - - - - - - -
 72
65
 73
2
 40
0.2
 49
0.1
 74
0
 49
-0.1
 74
0
  0
LTYPE
  5
1F7
100
AcDbSymbolTableRecord
100
AcDbLinetypeTableRecord
  2
PHANTOM
 70
64
  3
_____ _ _ _____ _ _ _____ _ _ _____
 72
65
 73
6
 40
0.8
 49
0.45
 74
0
 49
-0.05
 74
0
 49
0.1
 74
0
 49
-0.05
 74
0
 49
0.1
 74
0
 49
-0.05
 74
0
  0
LTYPE
  5
1F8
100
AcDbSymbolTableRecord
100
AcDbLinetypeTableRecord
  2
DOT
 70
64
  3
. . . . . . . . . . . . . . . . . . . .
 72
65
 73
2
 40
0.2
 49
0.1
 74
0
 49
-0.1
 74
0
  0
LTYPE
  5
1F9
100
AcDbSymbolTableRecord
100
AcDbLinetypeTableRecord
  2
DASHED
 70
64
  3
- - - - - - - - - - - - - - - - - - - -
 72
65
 73
2
 40
0.2
 49
0.1
 74
0
 49
-0.1
 74
0
  0
ENDTAB
  0
TABLE
  2
LAYER
  5
2
100
AcDbSymbolTable
 70
36
  0
LAYER
  5
10
100
AcDbSymbolTableRecord
100
AcDbLayerTableRecord
  2
0
 70
0
 62
7
  6
CONTINUOUS
  0
LAYER
  5
1FA
100
AcDbSymbolTableRecord
100
AcDbLayerTableRecord
  2
DEFAULT_1
 70
0
 62
7
  6
CENTER
  0
LAYER
  5
1FB
100
AcDbSymbolTableRecord
100
AcDbLayerTableRecord
  2
DEFAULT_2
 70
0
 62
8
  6
HIDDEN
  0
LAYER
  5
1FC
100
AcDbSymbolTableRecord
100
AcDbLayerTableRecord
  2
DEFAULT_3
 70
0
 62
7
  6
PHANTOM
  0
LAYER
  5
1FD
100
AcDbSymbolTableRecord
100
AcDbLayerTableRecord
  2
01_ALL_DTM_PLN
 70
0
 62
7
  6
CONTINUOUS
  0
LAYER
  5
1FE
100
AcDbSymbolTableRecord
100
AcDbLayerTableRecord
  2
01__ASM_ALL_DTM_PLN
 70
0
 62
7
  6
CONTINUOUS
  0
LAYER
  5
1FF
100
AcDbSymbolTableRecord
100
AcDbLayerTableRecord
  2
01__ASM_DEF_DTM_PLN
 70
0
 62
7
  6
CONTINUOUS
  0
LAYER
  5
200
100
AcDbSymbolTableRecord
100
AcDbLayerTableRecord
  2
01___PRT_ALL_DTM_PLN
 70
0
 62
7
  6
CONTINUOUS
  0
LAYER
  5
201
100
AcDbSymbolTableRecord
100
AcDbLayerTableRecord
  2
01___PRT_DEF_DTM_PLN
 70
0
 62
7
  6
CONTINUOUS
  0
LAYER
  5
202
100
AcDbSymbolTableRecord
100
AcDbLayerTableRecord
  2
02_ALL_AXES
 70
0
 62
7
  6
CONTINUOUS
  0
LAYER
  5
203
100
AcDbSymbolTableRecord
100
AcDbLayerTableRecord
  2
02__ASM_ALL_AXES
 70
0
 62
7
  6
CONTINUOUS
  0
LAYER
  5
204
100
AcDbSymbolTableRecord
100
AcDbLayerTableRecord
  2
02___PRT_ALL_AXES
 70
0
 62
7
  6
CONTINUOUS
  0
LAYER
  5
205
100
AcDbSymbolTableRecord
100
AcDbLayerTableRecord
  2
03_ALL_CURVES
 70
0
 62
7
  6
CONTINUOUS
  0
LAYER
  5
206
100
AcDbSymbolTableRecord
100
AcDbLayerTableRecord
  2
03__ASM_ALL_CURVES
 70
0
 62
7
  6
CONTINUOUS
  0
LAYER
  5
207
100
AcDbSymbolTableRecord
100
AcDbLayerTableRecord
  2
03___PRT_ALL_CURVES
 70
0
 62
7
  6
CONTINUOUS
  0
LAYER
  5
208
100
AcDbSymbolTableRecord
100
AcDbLayerTableRecord
  2
04_ALL_DTM_PNT
 70
0
 62
7
  6
CONTINUOUS
  0
LAYER
  5
209
100
AcDbSymbolTableRecord
100
AcDbLayerTableRecord
  2
04__ASM_ALL_DTM_PNT
 70
0
 62
7
  6
CONTINUOUS
  0
LAYER
  5
20A
100
AcDbSymbolTableRecord
100
AcDbLayerTableRecord
  2
04___PRT_ALL_DTM_PNT
 70
0
 62
7
  6
CONTINUOUS
  0
LAYER
  5
20B
100
AcDbSymbolTableRecord
100
AcDbLayerTableRecord
  2
05_ALL_DTM_CSYS
 70
0
 62
7
  6
CONTINUOUS
  0
LAYER
  5
20C
100
AcDbSymbolTableRecord
100
AcDbLayerTableRecord
  2
05__ASM_ALL_DTM_CSYS
 70
0
 62
7
  6
CONTINUOUS
  0
LAYER
  5
20D
100
AcDbSymbolTableRecord
100
AcDbLayerTableRecord
  2
05__ASM_DEF_DTM_CSYS
 70
0
 62
7
  6
CONTINUOUS
  0
LAYER
  5
20E
100
AcDbSymbolTableRecord
100
AcDbLayerTableRecord
  2
05___PRT_ALL_DTM_CSYS
 70
0
 62
7
  6
CONTINUOUS
  0
LAYER
  5
20F
100
AcDbSymbolTableRecord
100
AcDbLayerTableRecord
  2
05___PRT_DEF_DTM_CSYS
 70
0
 62
7
  6
CONTINUOUS
  0
LAYER
  5
210
100
AcDbSymbolTableRecord
100
AcDbLayerTableRecord
  2
06_ALL_SURFS
 70
0
 62
7
  6
CONTINUOUS
  0
LAYER
  5
211
100
AcDbSymbolTableRecord
100
AcDbLayerTableRecord
  2
06__ASM_ALL_SURFS
 70
0
 62
7
  6
CONTINUOUS
  0
LAYER
  5
212
100
AcDbSymbolTableRecord
100
AcDbLayerTableRecord
  2
06___PRT_ALL_SURFS
 70
0
 62
7
  6
CONTINUOUS
  0
LAYER
  5
213
100
AcDbSymbolTableRecord
100
AcDbLayerTableRecord
  2
07__ASM_ALL_SKELETONS
 70
0
 62
7
  6
CONTINUOUS
  0
LAYER
  5
214
100
AcDbSymbolTableRecord
100
AcDbLayerTableRecord
  2
1_ALL_PLANES
 70
0
 62
7
  6
CONTINUOUS
  0
LAYER
  5
215
100
AcDbSymbolTableRecord
100
AcDbLayerTableRecord
  2
2_ALL_CSYS
 70
0
 62
7
  6
CONTINUOUS
  0
LAYER
  5
216
100
AcDbSymbolTableRecord
100
AcDbLayerTableRecord
  2
3_ALL_AXES
 70
0
 62
7
  6
CONTINUOUS
  0
LAYER
  5
217
100
AcDbSymbolTableRecord
100
AcDbLayerTableRecord
  2
4_ALL_POINTS
 70
0
 62
7
  6
CONTINUOUS
  0
LAYER
  5
218
100
AcDbSymbolTableRecord
100
AcDbLayerTableRecord
  2
5_ALL_CURVES
 70
0
 62
7
  6
CONTINUOUS
  0
LAYER
  5
219
100
AcDbSymbolTableRecord
100
AcDbLayerTableRecord
  2
5__COSTRUZIONE
 70
0
 62
7
  6
CONTINUOUS
  0
LAYER
  5
21A
100
AcDbSymbolTableRecord
100
AcDbLayerTableRecord
  2
6_ALL_SURFS
 70
0
 62
7
  6
CONTINUOUS
  0
LAYER
  5
21B
100
AcDbSymbolTableRecord
100
AcDbLayerTableRecord
  2
7_ALL_FEATURES
 70
0
 62
7
  6
CONTINUOUS
  0
LAYER
  5
21C
100
AcDbSymbolTableRecord
100
AcDbLayerTableRecord
  2
8_ALL_NOTES_BALLOONS_SYMBOLS_GT
 70
0
 62
7
  6
CONTINUOUS
  0
LAYER
  5
21D
100
AcDbSymbolTableRecord
100
AcDbLayerTableRecord
  2
9_SOLID
 70
0
 62
7
  6
CONTINUOUS
  0
LAYER
  5
21E
100
AcDbSymbolTableRecord
100
AcDbLayerTableRecord
  2
CLOSED_SHELL
 70
0
 62
7
  6
CONTINUOUS
  0
LAYER
  5
21F
100
AcDbSymbolTableRecord
100
AcDbLayerTableRecord
  2
INTFCLR_2
 70
0
 62
7
  6
CONTINUOUS
  0
LAYER
  5
220
100
AcDbSymbolTableRecord
100
AcDbLayerTableRecord
  2
XSEC_DATUMS
 70
0
 62
7
  6
CONTINUOUS
  0
LAYER
  5
221
100
AcDbSymbolTableRecord
100
AcDbLayerTableRecord
  2
XXX_SOLIDO
 70
0
 62
7
  6
CONTINUOUS
  0
ENDTAB
  0
TABLE
  2
STYLE
  5
3
100
AcDbSymbolTable
 70
1
  0
STYLE
  5
11
100
AcDbSymbolTableRecord
100
AcDbTextStyleTableRecord
  2
STANDARD
 70
0
 40
0.0
 41
0.85
 50
0.0
 71
0
 42
0.2
  3
txt
  4

  0
STYLE
  5
222
100
AcDbSymbolTableRecord
100
AcDbTextStyleTableRecord
  2
TEXTSTYLE_1
 70
0
 40
0.0
 41
0.8
 50
0.0
 71
0
 42
0.2
  3
gdt
  4

  0
STYLE
  5
223
100
AcDbSymbolTableRecord
100
AcDbTextStyleTableRecord
  2
TEXTSTYLE_2
 70
0
 40
0.0
 41
0.9
 50
0.0
 71
0
 42
0.2
  3
txt
  4

  0
STYLE
  5
224
100
AcDbSymbolTableRecord
100
AcDbTextStyleTableRecord
  2
TEXTSTYLE_3
 70
0
 40
0.0
 41
0.9
 50
0.0
 71
0
 42
0.2
  3
txt
  4

  0
STYLE
  5
225
100
AcDbSymbolTableRecord
100
AcDbTextStyleTableRecord
  2
TEXTSTYLE_4
 70
0
 40
0.0
 41
0.85
 50
0.0
 71
0
 42
0.2
  3
gdt
  4

  0
STYLE
  5
226
100
AcDbSymbolTableRecord
100
AcDbTextStyleTableRecord
  2
TEXTSTYLE_5
 70
0
 40
0.0
 41
0.85
 50
0.0
 71
0
 42
0.2
  3
txt
  4

  0
ENDTAB
  0
TABLE
  2
VIEW
  5
6
100
AcDbSymbolTable
 70
0
  0
ENDTAB
  0
TABLE
  2
UCS
  5
7
100
AcDbSymbolTable
 70
0
  0
ENDTAB
  0
TABLE
  2
APPID
  5
9
100
AcDbSymbolTable
 70
1
  0
APPID
  5
227
100
AcDbSymbolTableRecord
100
AcDbRegAppTableRecord
  2
ACAD
 70
0
  0
ENDTAB
  0
TABLE
  2
BLOCK_RECORD
  5
1
100
AcDbSymbolTable
 70
0
  0
BLOCK_RECORD
  5
1F
100
AcDbSymbolTableRecord
100
AcDbBlockTableRecord
  2
*MODEL_SPACE
  0
BLOCK_RECORD
  5
1B
100
AcDbSymbolTableRecord
100
AcDbBlockTableRecord
  2
*PAPER_SPACE
  0
BLOCK_RECORD
  5
228
100
AcDbSymbolTableRecord
100
AcDbBlockTableRecord
  2
_CLOSED
  0
BLOCK_RECORD
  5
229
100
AcDbSymbolTableRecord
100
AcDbBlockTableRecord
  2
*D0
  0
BLOCK_RECORD
  5
22A
100
AcDbSymbolTableRecord
100
AcDbBlockTableRecord
  2
*D1
  0
BLOCK_RECORD
  5
22B
100
AcDbSymbolTableRecord
100
AcDbBlockTableRecord
  2
*D2
  0
BLOCK_RECORD
  5
22C
100
AcDbSymbolTableRecord
100
AcDbBlockTableRecord
  2
*D3
  0
BLOCK_RECORD
  5
22D
100
AcDbSymbolTableRecord
100
AcDbBlockTableRecord
  2
*D4
  0
BLOCK_RECORD
  5
22E
100
AcDbSymbolTableRecord
100
AcDbBlockTableRecord
  2
*D5
  0
BLOCK_RECORD
  5
22F
100
AcDbSymbolTableRecord
100
AcDbBlockTableRecord
  2
*D6
  0
BLOCK_RECORD
  5
230
100
AcDbSymbolTableRecord
100
AcDbBlockTableRecord
  2
*D7
  0
BLOCK_RECORD
  5
231
100
AcDbSymbolTableRecord
100
AcDbBlockTableRecord
  2
LOGO2_BL0
  0
ENDTAB
  0
TABLE
  2
DIMSTYLE
  5
A
100
AcDbSymbolTable
 70
1
  0
DIMSTYLE
105
232
100
AcDbSymbolTableRecord
100
AcDbDimStyleTableRecord
  2
STANDARD
 70
0
  3

  4

  5
_CLOSED
  6
_CLOSED
  7
_CLOSED
 40
1.0
 41
2.5
 42
0.75
 43
0.38
 44
0.75
 45
0.0
 46
0.0
 47
0.01
 48
0.01
140
3.0
141
0.09
142
0.0
143
25.4
144
1.0
145
0.0
146
1.0
147
0.625
 71
1.0
 72
0.0
 73
0
 74
0
 75
0
 76
0
 77
1
 78
8
 79
2
170
0
171
1
172
0
173
0
174
0
175
0
176
0
177
0
178
0
270
2
179
2
271
2
272
2
273
2
274
2
275
0
280
0
281
0
282
0
283
1
284
8
285
0
286
0
287
3
288
0
340
11
  0
DIMSTYLE
105
233
100
AcDbSymbolTableRecord
100
AcDbDimStyleTableRecord
  2
DIMSTYLE_1
 70
0
  3

  4

  5
_CLOSED
  6
_CLOSED
  7
_CLOSED
 40
1.0
 41
2.5
 42
0.75
 43
0.38
 44
0.75
 45
0.0
 46
0.0
 47
0.1
 48
0.1
140
3.0
141
0.09
142
0.0
143
25.4
144
1.0
145
0.0
146
1.0
147
0.75
 71
0.0
 72
0.0
 73
0
 74
0
 75
0
 76
0
 77
1
 78
8
 79
2
170
0
171
1
172
0
173
0
174
0
175
0
176
0
177
0
178
0
270
2
179
2
271
2
272
2
273
2
274
2
275
0
280
0
281
0
282
0
283
1
284
8
285
0
286
0
287
3
288
0
340
11
  0
DIMSTYLE
105
234
100
AcDbSymbolTableRecord
100
AcDbDimStyleTableRecord
  2
DIMSTYLE_2
 70
0
  3

  4

  5
_CLOSED
  6
_CLOSED
  7
_CLOSED
 40
1.0
 41
2.5
 42
0.75
 43
0.38
 44
0.75
 45
0.0
 46
0.0
 47
0.3
 48
0.3
140
3.0
141
0.09
142
0.0
143
25.4
144
1.0
145
0.0
146
1.0
147
0.75
 71
0.0
 72
0.0
 73
0
 74
0
 75
0
 76
0
 77
1
 78
8
 79
2
170
0
171
1
172
0
173
0
174
0
175
0
176
0
177
0
178
0
270
2
179
1
271
1
272
-1
273
2
274
2
275
0
280
0
281
0
282
0
283
1
284
8
285
0
286
0
287
3
288
0
340
11
  0
DIMSTYLE
105
235
100
AcDbSymbolTableRecord
100
AcDbDimStyleTableRecord
  2
DIMSTYLE_3
 70
0
  3

  4

  5
_CLOSED
  6
_CLOSED
  7
_CLOSED
 40
1.0
 41
2.5
 42
0.75
 43
0.38
 44
0.75
 45
0.0
 46
0.0
 47
0.3
 48
0.3
140
3.0
141
0.09
142
0.0
143
25.4
144
1.0
145
0.0
146
1.0
147
0.75
 71
0.0
 72
0.0
 73
0
 74
0
 75
0
 76
0
 77
1
 78
8
 79
2
170
0
171
1
172
0
173
0
174
0
175
0
176
0
177
0
178
0
270
2
179
2
271
2
272
2
273
2
274
2
275
0
280
0
281
0
282
0
283
1
284
8
285
0
286
0
287
3
288
0
340
11
  0
DIMSTYLE
105
236
100
AcDbSymbolTableRecord
100
AcDbDimStyleTableRecord
  2
DIMSTYLE_4
 70
0
  3

  4

  5
_CLOSED
  6
_CLOSED
  7
_CLOSED
 40
1.0
 41
2.5
 42
0.75
 43
0.38
 44
0.75
 45
0.0
 46
0.0
 47
0.2
 48
0.2
140
3.0
141
0.09
142
0.0
143
25.4
144
1.0
145
0.0
146
1.0
147
0.75
 71
0.0
 72
0.0
 73
0
 74
0
 75
0
 76
0
 77
1
 78
8
 79
2
170
0
171
1
172
0
173
0
174
0
175
0
176
0
177
0
178
0
270
2
179
2
271
2
272
2
273
2
274
2
275
0
280
0
281
0
282
0
283
1
284
8
285
0
286
0
287
3
288
0
340
11
  0
ENDTAB
  0
ENDSEC
  0
SECTION
  2
BLOCKS
  0
BLOCK
  5
20
100
AcDbEntity
  8
0
100
AcDbBlockBegin
  2
*MODEL_SPACE
 70
0
 10
0.0
 20
0.0
 30
0.0
  3
*MODEL_SPACE
  1

  0
ENDBLK
  5
21
100
AcDbEntity
  8
0
100
AcDbBlockEnd
  0
BLOCK
  5
1C
100
AcDbEntity
  8
0
100
AcDbBlockBegin
  2
*PAPER_SPACE
 70
0
 10
0.0
 20
0.0
 30
0.0
  3
*PAPER_SPACE
  1

  0
ENDBLK
  5
1D
100
AcDbEntity
  8
0
100
AcDbBlockEnd
  0
BLOCK
  5
237
100
AcDbEntity
  8
0
100
AcDbBlockBegin
 62
2
  6
CONTINUOUS
  2
LOGO2_BL0
 70
64
 10
333.1473869546
 20
37.5239270671
  3
LOGO2_BL0
  1

  0
LINE
  5
238
100
AcDbEntity
  8
0
100
AcDbLine
 62
7
  6
CONTINUOUS
 10
324.8903121828
 20
40.7194184059
 11
323.5859712535
 21
40.7194184059
  0
LINE
  5
239
100
AcDbEntity
  8
0
100
AcDbLine
 62
7
  6
CONTINUOUS
 10
323.5859712535
 20
40.7194184059
 11
323.5859712535
 21
30.260352346
  0
LINE
  5
23A
100
AcDbEntity
  8
0
100
AcDbLine
 62
7
  6
CONTINUOUS
 10
323.5859712535
 20
30.260352346
 11
328.0670261417
 21
30.260352346
  0
LINE
  5
23B
100
AcDbEntity
  8
0
100
AcDbLine
 62
7
  6
CONTINUOUS
 10
328.0670261417
 20
30.260352346
 11
328.0670261417
 21
31.4532066711
  0
LINE
  5
23C
100
AcDbEntity
  8
0
100
AcDbLine
 62
7
  6
CONTINUOUS
 10
328.0670261417
 20
31.4532066711
 11
324.8903121828
 21
31.4532066711
  0
LINE
  5
23D
100
AcDbEntity
  8
0
100
AcDbLine
 62
7
  6
CONTINUOUS
 10
324.8903121828
 20
31.4532066711
 11
324.8903121828
 21
40.7194184059
  0
LINE
  5
23E
100
AcDbEntity
  8
0
100
AcDbLine
 62
7
  6
CONTINUOUS
 10
339.8266383991
 20
40.7194184059
 11
338.522820881
 21
40.7194184059
  0
LINE
  5
23F
100
AcDbEntity
  8
0
100
AcDbLine
 62
7
  6
CONTINUOUS
 10
338.522820881
 20
40.7194184059
 11
338.522820881
 21
30.260352346
  0
LINE
  5
240
100
AcDbEntity
  8
0
100
AcDbLine
 62
7
  6
CONTINUOUS
 10
338.522820881
 20
30.260352346
 11
343.0040066221
 21
30.260352346
  0
LINE
  5
241
100
AcDbEntity
  8
0
100
AcDbLine
 62
7
  6
CONTINUOUS
 10
343.0040066221
 20
30.260352346
 11
343.0040066221
 21
31.4532066711
  0
LINE
  5
242
100
AcDbEntity
  8
0
100
AcDbLine
 62
7
  6
CONTINUOUS
 10
343.0040066221
 20
31.4532066711
 11
339.8266383991
 21
31.4532066711
  0
LINE
  5
243
100
AcDbEntity
  8
0
100
AcDbLine
 62
7
  6
CONTINUOUS
 10
339.8266383991
 20
31.4532066711
 11
339.8266383991
 21
40.7194184059
  0
LWPOLYLINE
  5
244
100
AcDbEntity
  8
0
100
AcDbPolyline
 62
7
  6
CONTINUOUS
 90
2
 70
0
 43
0.2
 10
321.9403661644
 20
26.9168010391
 10
321.9403661644
 20
25.0597377898
  0
LWPOLYLINE
  5
245
100
AcDbEntity
  8
0
100
AcDbPolyline
 62
7
  6
CONTINUOUS
 90
2
 70
0
 43
0.2
 10
321.9403661644
 20
25.0597377898
 10
322.7360821748
 20
25.0597377898
  0
LWPOLYLINE
  5
246
100
AcDbEntity
  8
0
100
AcDbPolyline
 62
7
  6
CONTINUOUS
 90
2
 70
0
 43
0.2
 10
322.7360821748
 20
25.0597377898
 10
322.7360821748
 20
25.2717193614
  0
LWPOLYLINE
  5
247
100
AcDbEntity
  8
0
100
AcDbPolyline
 62
7
  6
CONTINUOUS
 90
2
 70
0
 43
0.2
 10
322.7360821748
 20
25.2717193614
 10
322.1719756593
 20
25.2717193614
  0
LWPOLYLINE
  5
248
100
AcDbEntity
  8
0
100
AcDbPolyline
 62
7
  6
CONTINUOUS
 90
2
 70
0
 43
0.2
 10
322.1719756593
 20
25.2717193614
 10
322.1719756593
 20
26.9168010391
  0
LWPOLYLINE
  5
249
100
AcDbEntity
  8
0
100
AcDbPolyline
 62
7
  6
CONTINUOUS
 90
2
 70
0
 43
0.2
 10
322.1719756593
 20
26.9168010391
 10
321.9403661644
 20
26.9168010391
  0
SPLINE
  5
24A
100
AcDbEntity
  8
0
100
AcDbSpline
 62
7
  6
CONTINUOUS
 70
2
 71
3
 72
35
 73
31
 74
0
 42
0.0000001
 43
0.0000001
 44
0.0000000001
 40
0.0
 40
0.0
 40
0.0
 40
0.0
 40
1.0
 40
1.0
 40
1.0
 40
2.0
 40
2.0
 40
2.0
 40
3.0
 40
3.0
 40
3.0
 40
4.0
 40
4.0
 40
4.0
 40
5.0
 40
5.0
 40
5.0
 40
6.0
 40
6.0
 40
6.0
 40
7.0
 40
7.0
 40
7.0
 40
8.0
 40
8.0
 40
8.0
 40
9.0
 40
9.0
 40
9.0
 40
10.0
 40
10.0
 40
10.0
 40
10.0
 10
324.1343754303
 20
26.2122894457
 30
0.0
 10
324.1343754303
 20
26.2122894457
 30
0.0
 10
324.1343754303
 20
25.5501741665
 30
0.0
 10
324.1343754303
 20
25.5501741665
 30
0.0
 10
324.1343754303
 20
25.2350805712
 30
0.0
 10
324.2822391191
 20
25.0204819432
 30
0.0
 10
324.6223256034
 20
25.0204819432
 30
0.0
 10
324.9618886764
 20
25.0204819432
 30
0.0
 10
325.1100140709
 20
25.2350805712
 30
0.0
 10
325.1100140709
 20
25.5501741665
 30
0.0
 10
325.1100140709
 20
25.5501741665
 30
0.0
 10
325.1100140709
 20
26.2122894457
 30
0.0
 10
325.1100140709
 20
26.2122894457
 30
0.0
 10
325.1100140709
 20
26.2122894457
 30
0.0
 10
324.887956832
 20
26.2122894457
 30
0.0
 10
324.887956832
 20
26.2122894457
 30
0.0
 10
324.887956832
 20
26.2122894457
 30
0.0
 10
324.887956832
 20
25.5752979083
 30
0.0
 10
324.887956832
 20
25.5752979083
 30
0.0
 10
324.887956832
 20
25.3894869011
 30
0.0
 10
324.8412423746
 20
25.2267059906
 30
0.0
 10
324.6223256034
 20
25.2267059906
 30
0.0
 10
324.402885421
 20
25.2267059906
 30
0.0
 10
324.3561709636
 20
25.3894869011
 30
0.0
 10
324.3561709636
 20
25.5752979083
 30
0.0
 10
324.3561709636
 20
25.5752979083
 30
0.0
 10
324.3561709636
 20
26.2122894457
 30
0.0
 10
324.3561709636
 20
26.2122894457
 30
0.0
 10
324.3561709636
 20
26.2122894457
 30
0.0
 10
324.1343754303
 20
26.2122894457
 30
0.0
 10
324.1343754303
 20
26.2122894457
 30
0.0
  0
SPLINE
  5
24B
100
AcDbEntity
  8
0
100
AcDbSpline
 62
7
  6
CONTINUOUS
 70
2
 71
3
 72
35
 73
31
 74
0
 42
0.0000001
 43
0.0000001
 44
0.0000000001
 40
0.0
 40
0.0
 40
0.0
 40
0.0
 40
1.0
 40
1.0
 40
1.0
 40
2.0
 40
2.0
 40
2.0
 40
3.0
 40
3.0
 40
3.0
 40
4.0
 40
4.0
 40
4.0
 40
5.0
 40
5.0
 40
5.0
 40
6.0
 40
6.0
 40
6.0
 40
7.0
 40
7.0
 40
7.0
 40
8.0
 40
8.0
 40
8.0
 40
9.0
 40
9.0
 40
9.0
 40
10.0
 40
10.0
 40
10.0
 40
10.0
 10
327.5331466281
 20
26.1709399539
 30
0.0
 10
327.4446901205
 20
26.2222342601
 30
0.0
 10
327.3312407238
 20
26.2473580019
 30
0.0
 10
327.2276052888
 20
26.2473580019
 30
0.0
 10
326.8727324356
 20
26.2473580019
 30
0.0
 10
326.5972872454
 20
25.9835587129
 30
0.0
 10
326.5972872454
 20
25.6260688032
 30
0.0
 10
326.5972872454
 20
25.2811407645
 30
0.0
 10
326.8757420505
 20
25.0210053545
 30
0.0
 10
327.2153051235
 20
25.0210053545
 30
0.0
 10
327.3312407238
 20
25.0210053545
 30
0.0
 10
327.4319973967
 20
25.0429886286
 30
0.0
 10
327.5331466281
 20
25.0968999912
 30
0.0
 10
327.5331466281
 20
25.0968999912
 30
0.0
 10
327.5331466281
 20
25.3795420867
 30
0.0
 10
327.5331466281
 20
25.3795420867
 30
0.0
 10
327.4492699692
 20
25.2863748774
 30
0.0
 10
327.345765387
 20
25.2272294019
 30
0.0
 10
327.2176604743
 20
25.2272294019
 30
0.0
 10
326.9839573343
 20
25.2272294019
 30
0.0
 10
326.8186902202
 20
25.3994317156
 30
0.0
 10
326.8186902202
 20
25.6360136177
 30
0.0
 10
326.8186902202
 20
25.8479951893
 30
0.0
 10
326.9864435379
 20
26.040087132
 30
0.0
 10
327.2032666639
 20
26.040087132
 30
0.0
 10
327.3360822782
 20
26.040087132
 30
0.0
 10
327.4446901205
 20
25.9861757693
 30
0.0
 10
327.5331466281
 20
25.8851573907
 30
0.0
 10
327.5331466281
 20
25.8851573907
 30
0.0
 10
327.5331466281
 20
26.1709399539
 30
0.0
 10
327.5331466281
 20
26.1709399539
 30
0.0
  0
SPLINE
  5
24C
100
AcDbEntity
  8
0
100
AcDbSpline
 62
7
  6
CONTINUOUS
 70
2
 71
3
 72
32
 73
28
 74
0
 42
0.0000001
 43
0.0000001
 44
0.0000000001
 40
0.0
 40
0.0
 40
0.0
 40
0.0
 40
1.0
 40
1.0
 40
1.0
 40
2.0
 40
2.0
 40
2.0
 40
3.0
 40
3.0
 40
3.0
 40
4.0
 40
4.0
 40
4.0
 40
5.0
 40
5.0
 40
5.0
 40
6.0
 40
6.0
 40
6.0
 40
7.0
 40
7.0
 40
7.0
 40
8.0
 40
8.0
 40
8.0
 40
9.0
 40
9.0
 40
9.0
 40
9.0
 10
330.0650178804
 20
25.5993748276
 30
0.0
 10
330.0650178804
 20
25.5993748276
 30
0.0
 10
330.0650178804
 20
25.6333965613
 30
0.0
 10
330.0650178804
 20
25.6333965613
 30
0.0
 10
330.0650178804
 20
25.9757075435
 30
0.0
 10
329.8921613025
 20
26.2473580019
 30
0.0
 10
329.5255116954
 20
26.2473580019
 30
0.0
 10
329.153889681
 20
26.2473580019
 30
0.0
 10
328.9641530891
 20
25.9809416564
 30
0.0
 10
328.9641530891
 20
25.6260688032
 30
0.0
 10
328.9641530891
 20
25.2863748774
 30
0.0
 10
329.1782283059
 20
25.0204819432
 30
0.0
 10
329.5303532498
 20
25.0204819432
 30
0.0
 10
329.754373281
 20
25.0204819432
 30
0.0
 10
329.9565408909
 20
25.1361558378
 30
0.0
 10
330.0650178804
 20
25.3355755385
 30
0.0
 10
330.0650178804
 20
25.3355755385
 30
0.0
 10
329.8773749337
 20
25.4423514412
 30
0.0
 10
329.8773749337
 20
25.4423514412
 30
0.0
 10
329.7938908332
 20
25.3036474499
 30
0.0
 10
329.7026864163
 20
25.2178079987
 30
0.0
 10
329.5331011591
 20
25.2178079987
 30
0.0
 10
329.3211195875
 20
25.2178079987
 30
0.0
 10
329.1881731204
 20
25.4025721833
 30
0.0
 10
329.1858177696
 20
25.5993748276
 30
0.0
 10
329.1858177696
 20
25.5993748276
 30
0.0
 10
330.0650178804
 20
25.5993748276
 30
0.0
 10
330.0650178804
 20
25.5993748276
 30
0.0
  0
SPLINE
  5
24D
100
AcDbEntity
  8
0
100
AcDbSpline
 62
7
  6
CONTINUOUS
 70
2
 71
3
 72
14
 73
10
 74
0
 42
0.0000001
 43
0.0000001
 44
0.0000000001
 40
0.0
 40
0.0
 40
0.0
 40
0.0
 40
1.0
 40
1.0
 40
1.0
 40
2.0
 40
2.0
 40
2.0
 40
3.0
 40
3.0
 40
3.0
 40
3.0
 10
329.1978562292
 20
25.7668664397
 30
0.0
 10
329.2254661746
 20
25.9317409954
 30
0.0
 10
329.3533093817
 20
26.054742648
 30
0.0
 10
329.5255116954
 20
26.054742648
 30
0.0
 10
329.7026864163
 20
26.054742648
 30
0.0
 10
329.816135813
 20
25.9390687534
 30
0.0
 10
329.8433531999
 20
25.7668664397
 30
0.0
 10
329.8433531999
 20
25.7668664397
 30
0.0
 10
329.1978562292
 20
25.7668664397
 30
0.0
 10
329.1978562292
 20
25.7668664397
 30
0.0
  0
SPLINE
  5
24E
100
AcDbEntity
  8
0
100
AcDbSpline
 62
7
  6
CONTINUOUS
 70
2
 71
3
 72
20
 73
16
 74
0
 42
0.0000001
 43
0.0000001
 44
0.0000000001
 40
0.0
 40
0.0
 40
0.0
 40
0.0
 40
1.0
 40
1.0
 40
1.0
 40
2.0
 40
2.0
 40
2.0
 40
3.0
 40
3.0
 40
3.0
 40
4.0
 40
4.0
 40
4.0
 40
5.0
 40
5.0
 40
5.0
 40
5.0
 10
332.0890493306
 20
25.9762309548
 30
0.0
 10
332.0890493306
 20
25.9762309548
 30
0.0
 10
332.5001888972
 20
25.4737561185
 30
0.0
 10
332.5001888972
 20
25.4737561185
 30
0.0
 10
332.3841224441
 20
25.3580822239
 30
0.0
 10
332.2463344226
 20
25.2277528132
 30
0.0
 10
332.0743938145
 20
25.2277528132
 30
0.0
 10
331.8969573879
 20
25.2277528132
 30
0.0
 10
331.7294657758
 20
25.3921039576
 30
0.0
 10
331.7294657758
 20
25.5690169729
 30
0.0
 10
331.7294657758
 20
25.7469768107
 30
0.0
 10
331.9392228494
 20
25.8731189311
 30
0.0
 10
332.0668043508
 20
25.9610520275
 30
0.0
 10
332.0668043508
 20
25.9610520275
 30
0.0
 10
332.0890493306
 20
25.9762309548
 30
0.0
 10
332.0890493306
 20
25.9762309548
 30
0.0
  0
SPLINE
  5
24F
100
AcDbEntity
  8
0
100
AcDbSpline
 62
7
  6
CONTINUOUS
 70
2
 71
3
 72
23
 73
19
 74
0
 42
0.0000001
 43
0.0000001
 44
0.0000000001
 40
0.0
 40
0.0
 40
0.0
 40
0.0
 40
1.0
 40
1.0
 40
1.0
 40
2.0
 40
2.0
 40
2.0
 40
3.0
 40
3.0
 40
3.0
 40
4.0
 40
4.0
 40
4.0
 40
5.0
 40
5.0
 40
5.0
 40
6.0
 40
6.0
 40
6.0
 40
6.0
 10
332.1383808444
 20
26.2672476309
 30
0.0
 10
332.1383808444
 20
26.2672476309
 30
0.0
 10
332.0767491653
 20
26.3457593241
 30
0.0
 10
332.0767491653
 20
26.3457593241
 30
0.0
 10
332.0228378026
 20
26.4143262028
 30
0.0
 10
331.9660476779
 20
26.4834164928
 30
0.0
 10
331.9660476779
 20
26.5771071133
 30
0.0
 10
331.9660476779
 20
26.6959214757
 30
0.0
 10
332.0619627964
 20
26.7733863463
 30
0.0
 10
332.1729259894
 20
26.7733863463
 30
0.0
 10
332.2961893477
 20
26.7733863463
 30
0.0
 10
332.3894874098
 20
26.7022024111
 30
0.0
 10
332.3894874098
 20
26.5718730004
 30
0.0
 10
332.3894874098
 20
26.4368328882
 30
0.0
 10
332.2613824971
 20
26.3604148401
 30
0.0
 10
332.1678227294
 20
26.2866138485
 30
0.0
 10
332.1678227294
 20
26.2866138485
 30
0.0
 10
332.1383808444
 20
26.2672476309
 30
0.0
 10
332.1383808444
 20
26.2672476309
 30
0.0
  0
SPLINE
  5
250
100
AcDbEntity
  8
0
100
AcDbSpline
 62
7
  6
CONTINUOUS
 70
2
 71
3
 72
50
 73
46
 74
0
 42
0.0000001
 43
0.0000001
 44
0.0000000001
 40
0.0
 40
0.0
 40
0.0
 40
0.0
 40
1.0
 40
1.0
 40
1.0
 40
2.0
 40
2.0
 40
2.0
 40
3.0
 40
3.0
 40
3.0
 40
4.0
 40
4.0
 40
4.0
 40
5.0
 40
5.0
 40
5.0
 40
6.0
 40
6.0
 40
6.0
 40
7.0
 40
7.0
 40
7.0
 40
8.0
 40
8.0
 40
8.0
 40
9.0
 40
9.0
 40
9.0
 40
10.0
 40
10.0
 40
10.0
 40
11.0
 40
11.0
 40
11.0
 40
12.0
 40
12.0
 40
12.0
 40
13.0
 40
13.0
 40
13.0
 40
14.0
 40
14.0
 40
14.0
 40
15.0
 40
15.0
 40
15.0
 40
15.0
 10
332.8405370871
 20
25.0602612011
 30
0.0
 10
332.8405370871
 20
25.0602612011
 30
0.0
 10
333.1259270918
 20
25.0602612011
 30
0.0
 10
333.1259270918
 20
25.0602612011
 30
0.0
 10
333.1259270918
 20
25.0602612011
 30
0.0
 10
332.793560924
 20
25.471139062
 30
0.0
 10
332.793560924
 20
25.471139062
 30
0.0
 10
332.793560924
 20
25.471139062
 30
0.0
 10
333.0200671588
 20
25.7370319963
 30
0.0
 10
333.0200671588
 20
25.7370319963
 30
0.0
 10
333.0200671588
 20
25.7370319963
 30
0.0
 10
332.8718109116
 20
25.8898680923
 30
0.0
 10
332.8718109116
 20
25.8898680923
 30
0.0
 10
332.8718109116
 20
25.8898680923
 30
0.0
 10
332.6559037553
 20
25.6386306742
 30
0.0
 10
332.6559037553
 20
25.6386306742
 30
0.0
 10
332.6559037553
 20
25.6386306742
 30
0.0
 10
332.2688411079
 20
26.1065603655
 30
0.0
 10
332.2688411079
 20
26.1065603655
 30
0.0
 10
332.4242942604
 20
26.2206640263
 30
0.0
 10
332.6065722414
 20
26.3604148401
 30
0.0
 10
332.6065722414
 20
26.5697793553
 30
0.0
 10
332.6065722414
 20
26.8136890154
 30
0.0
 10
332.4045354843
 20
26.9571037083
 30
0.0
 10
332.1780292495
 20
26.9571037083
 30
0.0
 10
331.9338578837
 20
26.9571037083
 30
0.0
 10
331.7494862575
 20
26.8063612574
 30
0.0
 10
331.7494862575
 20
26.5498897263
 30
0.0
 10
331.7494862575
 20
26.3923429287
 30
0.0
 10
331.8481492853
 20
26.25468576
 30
0.0
 10
331.953485807
 20
26.1437225669
 30
0.0
 10
331.953485807
 20
26.1437225669
 30
0.0
 10
331.8379427652
 20
26.0599767609
 30
0.0
 10
331.8379427652
 20
26.0599767609
 30
0.0
 10
331.660244633
 20
25.9317409954
 30
0.0
 10
331.5129043554
 20
25.8040286411
 30
0.0
 10
331.5129043554
 20
25.5669233277
 30
0.0
 10
331.5129043554
 20
25.2465956195
 30
0.0
 10
331.7714695316
 20
25.0204819432
 30
0.0
 10
332.0818524253
 20
25.0204819432
 30
0.0
 10
332.3007691965
 20
25.0204819432
 30
0.0
 10
332.4979643992
 20
25.145577241
 30
0.0
 10
332.6382386243
 20
25.3114986192
 30
0.0
 10
332.6382386243
 20
25.3114986192
 30
0.0
 10
332.8405370871
 20
25.0602612011
 30
0.0
 10
332.8405370871
 20
25.0602612011
 30
0.0
  0
LWPOLYLINE
  5
251
100
AcDbEntity
  8
0
100
AcDbPolyline
 62
7
  6
CONTINUOUS
 90
2
 70
0
 43
0.2
 10
334.7759811768
 20
26.9168010391
 10
334.5446333876
 20
26.9168010391
  0
LWPOLYLINE
  5
252
100
AcDbEntity
  8
0
100
AcDbPolyline
 62
7
  6
CONTINUOUS
 90
2
 70
0
 43
0.2
 10
334.5446333876
 20
26.9168010391
 10
334.5446333876
 20
25.0597377898
  0
LWPOLYLINE
  5
253
100
AcDbEntity
  8
0
100
AcDbPolyline
 62
7
  6
CONTINUOUS
 90
2
 70
0
 43
0.2
 10
334.5446333876
 20
25.0597377898
 10
335.3399568395
 20
25.0597377898
  0
LWPOLYLINE
  5
254
100
AcDbEntity
  8
0
100
AcDbPolyline
 62
7
  6
CONTINUOUS
 90
2
 70
0
 43
0.2
 10
335.3399568395
 20
25.0597377898
 10
335.3399568395
 20
25.2717193614
  0
LWPOLYLINE
  5
255
100
AcDbEntity
  8
0
100
AcDbPolyline
 62
7
  6
CONTINUOUS
 90
2
 70
0
 43
0.2
 10
335.3399568395
 20
25.2717193614
 10
334.7759811768
 20
25.2717193614
  0
LWPOLYLINE
  5
256
100
AcDbEntity
  8
0
100
AcDbPolyline
 62
7
  6
CONTINUOUS
 90
2
 70
0
 43
0.2
 10
334.7759811768
 20
25.2717193614
 10
334.7759811768
 20
26.9168010391
  0
LWPOLYLINE
  5
257
100
AcDbEntity
  8
0
100
AcDbPolyline
 62
7
  6
CONTINUOUS
 90
2
 70
0
 43
0.2
 10
337.019060251
 20
26.2122894457
 10
336.7979189819
 20
26.2122894457
  0
LWPOLYLINE
  5
258
100
AcDbEntity
  8
0
100
AcDbPolyline
 62
7
  6
CONTINUOUS
 90
2
 70
0
 43
0.2
 10
336.7979189819
 20
26.2122894457
 10
336.7979189819
 20
25.0602612011
  0
LWPOLYLINE
  5
259
100
AcDbEntity
  8
0
100
AcDbPolyline
 62
7
  6
CONTINUOUS
 90
2
 70
0
 43
0.2
 10
336.7979189819
 20
25.0602612011
 10
337.019060251
 20
25.0602612011
  0
LWPOLYLINE
  5
25A
100
AcDbEntity
  8
0
100
AcDbPolyline
 62
7
  6
CONTINUOUS
 90
2
 70
0
 43
0.2
 10
337.019060251
 20
25.0602612011
 10
337.019060251
 20
26.2122894457
  0
LWPOLYLINE
  5
25B
100
AcDbEntity
  8
0
100
AcDbPolyline
 62
7
  6
CONTINUOUS
 90
2
 70
1
 43
0.2
 10
336.7560369738
 20
26.7422433746
 42
1.0
 10
337.0612039647
 20
26.7422433746
 42
1.0
  0
SPLINE
  5
25C
100
AcDbEntity
  8
0
100
AcDbSpline
 62
7
  6
CONTINUOUS
 70
2
 71
3
 72
17
 73
13
 74
0
 42
0.0000001
 43
0.0000001
 44
0.0000000001
 40
0.0
 40
0.0
 40
0.0
 40
0.0
 40
1.0
 40
1.0
 40
1.0
 40
2.0
 40
2.0
 40
2.0
 40
3.0
 40
3.0
 40
3.0
 40
4.0
 40
4.0
 40
4.0
 40
4.0
 10
339.1493441926
 20
25.2178079987
 30
0.0
 10
338.915379347
 20
25.2178079987
 30
0.0
 10
338.7850499363
 20
25.4198447558
 30
0.0
 10
338.7850499363
 20
25.6360136177
 30
0.0
 10
338.7850499363
 20
25.8506122457
 30
0.0
 10
338.9208751655
 20
26.0495085351
 30
0.0
 10
339.1493441926
 20
26.0495085351
 30
0.0
 10
339.3888048568
 20
26.0495085351
 30
0.0
 10
339.5243683804
 20
25.8605570602
 30
0.0
 10
339.5243683804
 20
25.6360136177
 30
0.0
 10
339.5243683804
 20
25.4098999414
 30
0.0
 10
339.3911602076
 20
25.2178079987
 30
0.0
 10
339.1493441926
 20
25.2178079987
 30
0.0
  0
SPLINE
  5
25D
100
AcDbEntity
  8
0
100
AcDbSpline
 62
7
  6
CONTINUOUS
 70
2
 71
3
 72
50
 73
46
 74
0
 42
0.0000001
 43
0.0000001
 44
0.0000000001
 40
0.0
 40
0.0
 40
0.0
 40
0.0
 40
1.0
 40
1.0
 40
1.0
 40
2.0
 40
2.0
 40
2.0
 40
3.0
 40
3.0
 40
3.0
 40
4.0
 40
4.0
 40
4.0
 40
5.0
 40
5.0
 40
5.0
 40
6.0
 40
6.0
 40
6.0
 40
7.0
 40
7.0
 40
7.0
 40
8.0
 40
8.0
 40
8.0
 40
9.0
 40
9.0
 40
9.0
 40
10.0
 40
10.0
 40
10.0
 40
11.0
 40
11.0
 40
11.0
 40
12.0
 40
12.0
 40
12.0
 40
13.0
 40
13.0
 40
13.0
 40
14.0
 40
14.0
 40
14.0
 40
15.0
 40
15.0
 40
15.0
 40
15.0
 10
339.7334711899
 20
26.2128128569
 30
0.0
 10
339.7334711899
 20
26.2128128569
 30
0.0
 10
339.5118065095
 20
26.2128128569
 30
0.0
 10
339.5118065095
 20
26.2128128569
 30
0.0
 10
339.5118065095
 20
26.2128128569
 30
0.0
 10
339.5118065095
 20
26.0154868014
 30
0.0
 10
339.5118065095
 20
26.0154868014
 30
0.0
 10
339.5118065095
 20
26.0154868014
 30
0.0
 10
339.5070958079
 20
26.0154868014
 30
0.0
 10
339.5070958079
 20
26.0154868014
 30
0.0
 10
339.4157605382
 20
26.158378083
 30
0.0
 10
339.2778416638
 20
26.2468345907
 30
0.0
 10
339.1051159388
 20
26.2468345907
 30
0.0
 10
338.772749771
 20
26.2468345907
 30
0.0
 10
338.5636469615
 20
25.9589583823
 30
0.0
 10
338.5636469615
 20
25.6433413757
 30
0.0
 10
338.5636469615
 20
25.3135922644
 30
0.0
 10
338.7607113114
 20
25.0204819432
 30
0.0
 10
339.1155841646
 20
25.0204819432
 30
0.0
 10
339.2778416638
 20
25.0204819432
 30
0.0
 10
339.4178541833
 20
25.1089384508
 30
0.0
 10
339.5070958079
 20
25.2397912728
 30
0.0
 10
339.5070958079
 20
25.2397912728
 30
0.0
 10
339.5118065095
 20
25.2397912728
 30
0.0
 10
339.5118065095
 20
25.2397912728
 30
0.0
 10
339.5118065095
 20
25.2397912728
 30
0.0
 10
339.5118065095
 20
25.0204819432
 30
0.0
 10
339.5118065095
 20
25.0204819432
 30
0.0
 10
339.5118065095
 20
24.7839000411
 30
0.0
 10
339.4552780904
 20
24.5970422113
 30
0.0
 10
339.1820573981
 20
24.5970422113
 30
0.0
 10
338.9797589354
 20
24.5970422113
 30
0.0
 10
338.8371293594
 20
24.7153331624
 30
0.0
 10
338.8371293594
 20
24.9215572098
 30
0.0
 10
338.8371293594
 20
24.9215572098
 30
0.0
 10
338.615464679
 20
24.9215572098
 30
0.0
 10
338.615464679
 20
24.9215572098
 30
0.0
 10
338.6204370862
 20
24.5970422113
 30
0.0
 10
338.8515231698
 20
24.4002395671
 30
0.0
 10
339.171850878
 20
24.4002395671
 30
0.0
 10
339.6198909404
 20
24.4002395671
 30
0.0
 10
339.7334711899
 20
24.6854987189
 30
0.0
 10
339.7334711899
 20
25.0822444751
 30
0.0
 10
339.7334711899
 20
25.0822444751
 30
0.0
 10
339.7334711899
 20
26.2128128569
 30
0.0
 10
339.7334711899
 20
26.2128128569
 30
0.0
  0
SPLINE
  5
25E
100
AcDbEntity
  8
0
100
AcDbSpline
 62
7
  6
CONTINUOUS
 70
2
 71
3
 72
44
 73
40
 74
0
 42
0.0000001
 43
0.0000001
 44
0.0000000001
 40
0.0
 40
0.0
 40
0.0
 40
0.0
 40
1.0
 40
1.0
 40
1.0
 40
2.0
 40
2.0
 40
2.0
 40
3.0
 40
3.0
 40
3.0
 40
4.0
 40
4.0
 40
4.0
 40
5.0
 40
5.0
 40
5.0
 40
6.0
 40
6.0
 40
6.0
 40
7.0
 40
7.0
 40
7.0
 40
8.0
 40
8.0
 40
8.0
 40
9.0
 40
9.0
 40
9.0
 40
10.0
 40
10.0
 40
10.0
 40
11.0
 40
11.0
 40
11.0
 40
12.0
 40
12.0
 40
12.0
 40
13.0
 40
13.0
 40
13.0
 40
13.0
 10
341.3023965253
 20
27.1978729007
 30
0.0
 10
341.3023965253
 20
27.1978729007
 30
0.0
 10
341.3023965253
 20
25.0597377898
 30
0.0
 10
341.3023965253
 20
25.0597377898
 30
0.0
 10
341.3023965253
 20
25.0597377898
 30
0.0
 10
341.5237995001
 20
25.0597377898
 30
0.0
 10
341.5237995001
 20
25.0597377898
 30
0.0
 10
341.5237995001
 20
25.0597377898
 30
0.0
 10
341.5237995001
 20
25.5894300131
 30
0.0
 10
341.5237995001
 20
25.5894300131
 30
0.0
 10
341.5237995001
 20
25.7993179395
 30
0.0
 10
341.5237995001
 20
26.0500319464
 30
0.0
 10
341.8090586519
 20
26.0500319464
 30
0.0
 10
342.0359574452
 20
26.0500319464
 30
0.0
 10
342.0629131266
 20
25.9170854793
 30
0.0
 10
342.0629131266
 20
25.7208062464
 30
0.0
 10
342.0629131266
 20
25.7208062464
 30
0.0
 10
342.0629131266
 20
25.0597377898
 30
0.0
 10
342.0629131266
 20
25.0597377898
 30
0.0
 10
342.0629131266
 20
25.0597377898
 30
0.0
 10
342.2848395126
 20
25.0597377898
 30
0.0
 10
342.2848395126
 20
25.0597377898
 30
0.0
 10
342.2848395126
 20
25.0597377898
 30
0.0
 10
342.2848395126
 20
25.7469768107
 30
0.0
 10
342.2848395126
 20
25.7469768107
 30
0.0
 10
342.2848395126
 20
26.027525261
 30
0.0
 10
342.2008320009
 20
26.2473580019
 30
0.0
 10
341.8757935911
 20
26.2473580019
 30
0.0
 10
341.7360427773
 20
26.2473580019
 30
0.0
 10
341.5978621973
 20
26.1808847684
 30
0.0
 10
341.5285102016
 20
26.0578831157
 30
0.0
 10
341.5285102016
 20
26.0578831157
 30
0.0
 10
341.5237995001
 20
26.0578831157
 30
0.0
 10
341.5237995001
 20
26.0578831157
 30
0.0
 10
341.5237995001
 20
26.0578831157
 30
0.0
 10
341.5237995001
 20
27.1978729007
 30
0.0
 10
341.5237995001
 20
27.1978729007
 30
0.0
 10
341.5237995001
 20
27.1978729007
 30
0.0
 10
341.3023965253
 20
27.1978729007
 30
0.0
 10
341.3023965253
 20
27.1978729007
 30
0.0
  0
LWPOLYLINE
  5
25F
100
AcDbEntity
  8
0
100
AcDbPolyline
 62
7
  6
CONTINUOUS
 90
2
 70
0
 43
0.2
 10
344.1246301895
 20
26.005541987
 10
344.341060757
 20
26.005541987
  0
LWPOLYLINE
  5
260
100
AcDbEntity
  8
0
100
AcDbPolyline
 62
7
  6
CONTINUOUS
 90
2
 70
0
 43
0.2
 10
344.341060757
 20
26.005541987
 10
344.341060757
 20
26.2122894457
  0
LWPOLYLINE
  5
261
100
AcDbEntity
  8
0
100
AcDbPolyline
 62
7
  6
CONTINUOUS
 90
2
 70
0
 43
0.2
 10
344.341060757
 20
26.2122894457
 10
344.1246301895
 20
26.2122894457
  0
LWPOLYLINE
  5
262
100
AcDbEntity
  8
0
100
AcDbPolyline
 62
7
  6
CONTINUOUS
 90
2
 70
0
 43
0.2
 10
344.1246301895
 20
26.2122894457
 10
344.1246301895
 20
26.65300175
  0
LWPOLYLINE
  5
263
100
AcDbEntity
  8
0
100
AcDbPolyline
 62
7
  6
CONTINUOUS
 90
2
 70
0
 43
0.2
 10
344.1246301895
 20
26.65300175
 10
343.9029655091
 20
26.65300175
  0
LWPOLYLINE
  5
264
100
AcDbEntity
  8
0
100
AcDbPolyline
 62
7
  6
CONTINUOUS
 90
2
 70
0
 43
0.2
 10
343.9029655091
 20
26.65300175
 10
343.9029655091
 20
26.2122894457
  0
LWPOLYLINE
  5
265
100
AcDbEntity
  8
0
100
AcDbPolyline
 62
7
  6
CONTINUOUS
 90
2
 70
0
 43
0.2
 10
343.9029655091
 20
26.2122894457
 10
343.7823192072
 20
26.2122894457
  0
LWPOLYLINE
  5
266
100
AcDbEntity
  8
0
100
AcDbPolyline
 62
7
  6
CONTINUOUS
 90
2
 70
0
 43
0.2
 10
343.7823192072
 20
26.2122894457
 10
343.7823192072
 20
26.005541987
  0
LWPOLYLINE
  5
267
100
AcDbEntity
  8
0
100
AcDbPolyline
 62
7
  6
CONTINUOUS
 90
2
 70
0
 43
0.2
 10
343.7823192072
 20
26.005541987
 10
343.9029655091
 20
26.005541987
  0
LWPOLYLINE
  5
268
100
AcDbEntity
  8
0
100
AcDbPolyline
 62
7
  6
CONTINUOUS
 90
2
 70
0
 43
0.2
 10
343.9029655091
 20
26.005541987
 10
343.9029655091
 20
25.0597377898
  0
LWPOLYLINE
  5
269
100
AcDbEntity
  8
0
100
AcDbPolyline
 62
7
  6
CONTINUOUS
 90
2
 70
0
 43
0.2
 10
343.9029655091
 20
25.0597377898
 10
344.1246301895
 20
25.0597377898
  0
LWPOLYLINE
  5
26A
100
AcDbEntity
  8
0
100
AcDbPolyline
 62
7
  6
CONTINUOUS
 90
2
 70
0
 43
0.2
 10
344.1246301895
 20
25.0597377898
 10
344.1246301895
 20
26.005541987
  0
SPLINE
  5
26B
100
AcDbEntity
  8
0
100
AcDbSpline
 62
7
  6
CONTINUOUS
 70
2
 71
3
 72
20
 73
16
 74
0
 42
0.0000001
 43
0.0000001
 44
0.0000000001
 40
0.0
 40
0.0
 40
0.0
 40
0.0
 40
1.0
 40
1.0
 40
1.0
 40
2.0
 40
2.0
 40
2.0
 40
3.0
 40
3.0
 40
3.0
 40
4.0
 40
4.0
 40
4.0
 40
5.0
 40
5.0
 40
5.0
 40
5.0
 10
331.9066404967
 20
35.4206642332
 30
0.0
 10
331.9066404967
 20
35.4206642332
 30
0.0
 10
334.2229971512
 20
32.5911028109
 30
0.0
 10
334.2229971512
 20
32.5911028109
 30
0.0
 10
333.5713500978
 20
31.9389323462
 30
0.0
 10
332.7944768938
 20
31.2030160755
 30
0.0
 10
331.8232872491
 20
31.2030160755
 30
0.0
 10
330.8247493647
 20
31.2030160755
 30
0.0
 10
329.8814313711
 20
32.1325945228
 30
0.0
 10
329.8814313711
 20
33.1317866713
 30
0.0
 10
329.8814313711
 20
34.1309788198
 30
0.0
 10
331.0602844442
 20
34.8375840585
 30
0.0
 10
331.7818069046
 20
35.3374418384
 30
0.0
 10
331.7818069046
 20
35.3374418384
 30
0.0
 10
331.9066404967
 20
35.4206642332
 30
0.0
 10
331.9066404967
 20
35.4206642332
 30
0.0
  0
SPLINE
  5
26C
100
AcDbEntity
  8
0
100
AcDbSpline
 62
7
  6
CONTINUOUS
 70
2
 71
3
 72
23
 73
19
 74
0
 42
0.0000001
 43
0.0000001
 44
0.0000000001
 40
0.0
 40
0.0
 40
0.0
 40
0.0
 40
1.0
 40
1.0
 40
1.0
 40
2.0
 40
2.0
 40
2.0
 40
3.0
 40
3.0
 40
3.0
 40
4.0
 40
4.0
 40
4.0
 40
5.0
 40
5.0
 40
5.0
 40
6.0
 40
6.0
 40
6.0
 40
6.0
 10
332.1840484793
 20
37.0584181529
 30
0.0
 10
332.1840484793
 20
37.0584181529
 30
0.0
 10
331.8375502067
 20
37.5017475137
 30
0.0
 10
331.8375502067
 20
37.5017475137
 30
0.0
 10
331.5317471618
 20
37.8898569837
 30
0.0
 10
331.2128588347
 20
38.2783590121
 30
0.0
 10
331.2128588347
 20
38.8053033262
 30
0.0
 10
331.2128588347
 20
39.4714750428
 30
0.0
 10
331.7541969591
 20
39.9151969621
 30
0.0
 10
332.3781032143
 20
39.9151969621
 30
0.0
 10
333.0718848763
 20
39.9151969621
 30
0.0
 10
333.5990908961
 20
39.5129553874
 30
0.0
 10
333.5990908961
 20
38.7779550864
 30
0.0
 10
333.5990908961
 20
38.0146905758
 30
0.0
 10
332.8778301414
 20
37.58457735
 30
0.0
 10
332.3507549745
 20
37.1688579346
 30
0.0
 10
332.3507549745
 20
37.1688579346
 30
0.0
 10
332.1840484793
 20
37.0584181529
 30
0.0
 10
332.1840484793
 20
37.0584181529
 30
0.0
  0
SPLINE
  5
26D
100
AcDbEntity
  8
0
100
AcDbSpline
 62
7
  6
CONTINUOUS
 70
2
 71
3
 72
50
 73
46
 74
0
 42
0.0000001
 43
0.0000001
 44
0.0000000001
 40
0.0
 40
0.0
 40
0.0
 40
0.0
 40
1.0
 40
1.0
 40
1.0
 40
2.0
 40
2.0
 40
2.0
 40
3.0
 40
3.0
 40
3.0
 40
4.0
 40
4.0
 40
4.0
 40
5.0
 40
5.0
 40
5.0
 40
6.0
 40
6.0
 40
6.0
 40
7.0
 40
7.0
 40
7.0
 40
8.0
 40
8.0
 40
8.0
 40
9.0
 40
9.0
 40
9.0
 40
10.0
 40
10.0
 40
10.0
 40
11.0
 40
11.0
 40
11.0
 40
12.0
 40
12.0
 40
12.0
 40
13.0
 40
13.0
 40
13.0
 40
14.0
 40
14.0
 40
14.0
 40
15.0
 40
15.0
 40
15.0
 40
15.0
 10
336.1376356422
 20
30.2598289348
 30
0.0
 10
336.1376356422
 20
30.2598289348
 30
0.0
 10
337.7468636468
 20
30.2598289348
 30
0.0
 10
337.7468636468
 20
30.2598289348
 30
0.0
 10
337.7468636468
 20
30.2598289348
 30
0.0
 10
335.8738363531
 20
32.5769707062
 30
0.0
 10
335.8738363531
 20
32.5769707062
 30
0.0
 10
335.8738363531
 20
32.5769707062
 30
0.0
 10
337.1501747786
 20
34.0744504008
 30
0.0
 10
337.1501747786
 20
34.0744504008
 30
0.0
 10
337.1501747786
 20
34.0744504008
 30
0.0
 10
336.3179508309
 20
34.9354619693
 30
0.0
 10
336.3179508309
 20
34.9354619693
 30
0.0
 10
336.3179508309
 20
34.9354619693
 30
0.0
 10
335.0973557076
 20
33.5201578469
 30
0.0
 10
335.0973557076
 20
33.5201578469
 30
0.0
 10
335.0973557076
 20
33.5201578469
 30
0.0
 10
332.9194413388
 20
36.1555336813
 30
0.0
 10
332.9194413388
 20
36.1555336813
 30
0.0
 10
333.7930147782
 20
36.7935720412
 30
0.0
 10
334.8196860194
 20
37.58457735
 30
0.0
 10
334.8196860194
 20
38.7634304231
 30
0.0
 10
334.8196860194
 20
40.1371233482
 30
0.0
 10
333.6817898795
 20
40.9416064976
 30
0.0
 10
332.4064982766
 20
40.9416064976
 30
0.0
 10
331.0330670573
 20
40.9416064976
 30
0.0
 10
329.9921328585
 20
40.0953812979
 30
0.0
 10
329.9921328585
 20
38.6527289358
 30
0.0
 10
329.9921328585
 20
37.7651542444
 30
0.0
 10
330.547472235
 20
36.9882810403
 30
0.0
 10
331.1436376918
 20
36.3638513739
 30
0.0
 10
331.1436376918
 20
36.3638513739
 30
0.0
 10
330.4917289328
 20
35.8922578035
 30
0.0
 10
330.4917289328
 20
35.8922578035
 30
0.0
 10
329.4931910484
 20
35.1709970488
 30
0.0
 10
328.6603128365
 20
34.4497362942
 30
0.0
 10
328.6603128365
 20
33.1181779778
 30
0.0
 10
328.6603128365
 20
31.3145026798
 30
0.0
 10
330.1173590091
 20
30.0379025487
 30
0.0
 10
331.8648984465
 20
30.0379025487
 30
0.0
 10
333.0997565274
 20
30.0379025487
 30
0.0
 10
334.2091267521
 20
30.7460780212
 30
0.0
 10
335.000001208
 20
31.6746096459
 30
0.0
 10
335.000001208
 20
31.6746096459
 30
0.0
 10
336.1376356422
 20
30.2598289348
 30
0.0
 10
336.1376356422
 20
30.2598289348
 30
0.0
  0
LINE
  5
26E
100
AcDbEntity
  8
0
100
AcDbLine
 62
7
  6
CONTINUOUS
 10
321.9404970172
 20
28.2337038394
 11
344.3544077449
 21
28.2337038394
  0
LINE
  5
26F
100
AcDbEntity
  8
0
100
AcDbLine
 62
7
  6
CONTINUOUS
 10
344.3544077449
 20
28.2337038394
 11
344.3544077449
 21
50.6476145671
  0
LINE
  5
270
100
AcDbEntity
  8
0
100
AcDbLine
 62
7
  6
CONTINUOUS
 10
344.3544077449
 20
50.6476145671
 11
321.9404970172
 21
50.6476145671
  0
LINE
  5
271
100
AcDbEntity
  8
0
100
AcDbLine
 62
7
  6
CONTINUOUS
 10
321.9404970172
 20
50.6476145671
 11
321.9404970172
 21
28.2337038394
  0
ENDBLK
  5
272
100
AcDbEntity
  8
0
  6
BYBLOCK
 62
0
100
AcDbBlockEnd
  0
BLOCK
  5
273
100
AcDbEntity
  8
0
100
AcDbBlockBegin
  2
_CLOSED
 70
64
 10
0.0
 20
0.0
  3
_CLOSED
  1

  0
LINE
  5
274
100
AcDbEntity
  8
0
  6
BYBLOCK
 62
0
100
AcDbLine
 10
0.0
 20
0.0
 11
-1.0
 21
0.2
  0
LINE
  5
275
100
AcDbEntity
  8
0
  6
BYBLOCK
 62
0
100
AcDbLine
 10
-1.0
 20
0.2
 11
-1.0
 21
-0.2
  0
LINE
  5
276
100
AcDbEntity
  8
0
  6
BYBLOCK
 62
0
100
AcDbLine
 10
-1.0
 20
-0.2
 11
0.0
 21
0.0
  0
LINE
  5
277
100
AcDbEntity
  8
0
  6
BYBLOCK
 62
0
100
AcDbLine
 10
-1.0
 20
0.0
 11
0.0
 21
0.0
  0
ENDBLK
  5
278
100
AcDbEntity
  8
0
  6
BYBLOCK
 62
0
100
AcDbBlockEnd
  0
BLOCK
  5
279
100
AcDbEntity
  8
0
100
AcDbBlockBegin
 62
2
  6
CONTINUOUS
  2
*D0
 70
65
 10
0.0
 20
0.0
  3
*D0
  1

  0
MTEXT
  5
27A
100
AcDbEntity
  8
0
100
AcDbMText
 62
2
  6
CONTINUOUS
  7
STANDARD
 71
3
 72
1
 10
139.0363078383
 20
247.110947977
 30
0.0
 11
0.0
 21
1.0
 31
0.0
  1
2
 40
3.0
 41
3.5357142857
  0
LINE
  5
27B
100
AcDbEntity
  8
0
100
AcDbLine
 62
2
  6
CONTINUOUS
 10
138.0243975064
 20
254.2679521277
 11
143.5363078383
 21
254.2679521277
  0
LINE
  5
27C
100
AcDbEntity
  8
0
100
AcDbLine
 62
2
  6
CONTINUOUS
 10
137.8662744766
 20
252.2679521277
 11
143.5363078383
 21
252.2679521277
  0
LINE
  5
27D
100
AcDbEntity
  8
0
100
AcDbLine
 62
2
  6
CONTINUOUS
 10
142.7863078383
 20
254.2679521277
 11
142.7863078383
 21
255.2679521277
  0
LINE
  5
27E
100
AcDbEntity
  8
0
100
AcDbLine
 62
2
  6
CONTINUOUS
 10
142.7863078383
 20
255.2679521277
 11
142.7863078383
 21
253.2679521277
  0
LINE
  5
27F
100
AcDbEntity
  8
0
100
AcDbLine
 62
2
  6
CONTINUOUS
 10
142.7863078383
 20
252.2679521277
 11
142.7863078383
 21
244.7538051199
  0
LINE
  5
280
100
AcDbEntity
  8
0
100
AcDbLine
 62
2
  6
CONTINUOUS
 10
142.7863078383
 20
244.7538051199
 11
142.7863078383
 21
253.2679521277
  0
INSERT
  5
281
100
AcDbEntity
  8
0
100
AcDbBlockReference
 62
2
  6
CONTINUOUS
  2
_CLOSED
 10
142.7863078383
 20
254.2679521277
 41
2.5
 42
2.5
 43
2.5
 50
270.0
  0
INSERT
  5
282
100
AcDbEntity
  8
0
100
AcDbBlockReference
 62
2
  6
CONTINUOUS
  2
_CLOSED
 10
142.7863078383
 20
252.2679521277
 41
2.5
 42
2.5
 43
2.5
 50
90.0
  0
ENDBLK
  5
283
100
AcDbEntity
  8
0
  6
BYBLOCK
 62
0
100
AcDbBlockEnd
  0
BLOCK
  5
284
100
AcDbEntity
  8
0
100
AcDbBlockBegin
 62
2
  6
CONTINUOUS
  2
*D1
 70
65
 10
0.0
 20
0.0
  3
*D1
  1

  0
MTEXT
  5
285
100
AcDbEntity
  8
0
100
AcDbMText
 62
2
  6
CONTINUOUS
  7
STANDARD
 71
2
 72
1
 10
163.1822671904
 20
222.7679521277
 30
0.0
 11
0.0
 21
1.0
 31
0.0
  1
65
 40
3.0
 41
6.75
  0
LINE
  5
286
100
AcDbEntity
  8
0
100
AcDbLine
 62
2
  6
CONTINUOUS
 10
138.0643246635
 20
254.2679521277
 11
166.1822671904
 21
254.2679521277
  0
LINE
  5
287
100
AcDbEntity
  8
0
100
AcDbLine
 62
2
  6
CONTINUOUS
 10
166.1822671904
 20
254.2679521277
 11
167.6822671904
 21
254.2679521277
  0
LINE
  5
288
100
AcDbEntity
  8
0
100
AcDbLine
 62
2
  6
CONTINUOUS
 10
138.1336309479
 20
191.2679521277
 11
166.1822671904
 21
191.2679521277
  0
LINE
  5
289
100
AcDbEntity
  8
0
100
AcDbLine
 62
2
  6
CONTINUOUS
 10
166.1822671904
 20
191.2679521277
 11
167.6822671904
 21
191.2679521277
  0
LINE
  5
28A
100
AcDbEntity
  8
0
100
AcDbLine
 62
2
  6
CONTINUOUS
 10
166.9322671904
 20
254.2679521277
 11
166.9322671904
 21
222.7679521277
  0
LINE
  5
28B
100
AcDbEntity
  8
0
100
AcDbLine
 62
2
  6
CONTINUOUS
 10
166.9322671904
 20
191.2679521277
 11
166.9322671904
 21
222.7679521277
  0
INSERT
  5
28C
100
AcDbEntity
  8
0
100
AcDbBlockReference
 62
2
  6
CONTINUOUS
  2
_CLOSED
 10
166.9322671904
 20
254.2679521277
 41
2.5
 42
2.5
 43
2.5
 50
90.0
  0
INSERT
  5
28D
100
AcDbEntity
  8
0
100
AcDbBlockReference
 62
2
  6
CONTINUOUS
  2
_CLOSED
 10
166.9322671904
 20
191.2679521277
 41
2.5
 42
2.5
 43
2.5
 50
270.0
  0
ENDBLK
  5
28E
100
AcDbEntity
  8
0
  6
BYBLOCK
 62
0
100
AcDbBlockEnd
  0
BLOCK
  5
28F
100
AcDbEntity
  8
0
100
AcDbBlockBegin
 62
2
  6
CONTINUOUS
  2
*D2
 70
65
 10
0.0
 20
0.0
  3
*D2
  1

  0
MTEXT
  5
290
100
AcDbEntity
  8
0
100
AcDbMText
 62
2
  6
CONTINUOUS
  7
TEXTSTYLE_4
 71
2
 72
1
 10
89.3617021277
 20
178.728782325
 30
0.0
 11
1.0
 21
0.0
 31
0.0
  1
{\Fgdt;n}\Ftxt;69
 40
3.0
 41
13.0714285714
  0
LINE
  5
291
100
AcDbEntity
  8
0
100
AcDbLine
 62
2
  6
CONTINUOUS
 10
54.8617021277
 20
185.0376199404
 11
54.8617021277
 21
174.228782325
  0
LINE
  5
292
100
AcDbEntity
  8
0
100
AcDbLine
 62
2
  6
CONTINUOUS
 10
123.8617021277
 20
184.7287858979
 11
123.8617021277
 21
174.228782325
  0
LINE
  5
293
100
AcDbEntity
  8
0
100
AcDbLine
 62
2
  6
CONTINUOUS
 10
54.8617021277
 20
174.978782325
 11
89.3617021277
 21
174.978782325
  0
LINE
  5
294
100
AcDbEntity
  8
0
100
AcDbLine
 62
2
  6
CONTINUOUS
 10
123.8617021277
 20
174.978782325
 11
89.3617021277
 21
174.978782325
  0
INSERT
  5
295
100
AcDbEntity
  8
0
100
AcDbBlockReference
 62
2
  6
CONTINUOUS
  2
_CLOSED
 10
54.8617021277
 20
174.978782325
 41
2.5
 42
2.5
 43
2.5
 50
180.0
  0
INSERT
  5
296
100
AcDbEntity
  8
0
100
AcDbBlockReference
 62
2
  6
CONTINUOUS
  2
_CLOSED
 10
123.8617021277
 20
174.978782325
 41
2.5
 42
2.5
 43
2.5
  0
ENDBLK
  5
297
100
AcDbEntity
  8
0
  6
BYBLOCK
 62
0
100
AcDbBlockEnd
  0
BLOCK
  5
298
100
AcDbEntity
  8
0
100
AcDbBlockBegin
 62
2
  6
CONTINUOUS
  2
*D3
 70
65
 10
0.0
 20
0.0
  3
*D3
  1

  0
MTEXT
  5
299
100
AcDbEntity
  8
0
100
AcDbMText
 62
2
  6
CONTINUOUS
  7
TEXTSTYLE_4
 71
2
 72
1
 10
246.3494364165
 20
178.728782325
 30
0.0
 11
1.0
 21
0.0
 31
0.0
  1
{\Fgdt;n}\Ftxt;47
 40
3.0
 41
13.0714285714
  0
LINE
  5
29A
100
AcDbEntity
  8
0
100
AcDbLine
 62
2
  6
CONTINUOUS
 10
222.8494364165
 20
184.9797135574
 11
222.8494364165
 21
174.228782325
  0
LINE
  5
29B
100
AcDbEntity
  8
0
100
AcDbLine
 62
2
  6
CONTINUOUS
 10
269.8494364165
 20
185.0603810094
 11
269.8494364165
 21
174.228782325
  0
LINE
  5
29C
100
AcDbEntity
  8
0
100
AcDbLine
 62
2
  6
CONTINUOUS
 10
222.8494364165
 20
174.978782325
 11
246.3494364165
 21
174.978782325
  0
LINE
  5
29D
100
AcDbEntity
  8
0
100
AcDbLine
 62
2
  6
CONTINUOUS
 10
269.8494364165
 20
174.978782325
 11
246.3494364165
 21
174.978782325
  0
INSERT
  5
29E
100
AcDbEntity
  8
0
100
AcDbBlockReference
 62
2
  6
CONTINUOUS
  2
_CLOSED
 10
222.8494364165
 20
174.978782325
 41
2.5
 42
2.5
 43
2.5
 50
180.0
  0
INSERT
  5
29F
100
AcDbEntity
  8
0
100
AcDbBlockReference
 62
2
  6
CONTINUOUS
  2
_CLOSED
 10
269.8494364165
 20
174.978782325
 41
2.5
 42
2.5
 43
2.5
  0
ENDBLK
  5
2A0
100
AcDbEntity
  8
0
  6
BYBLOCK
 62
0
100
AcDbBlockEnd
  0
BLOCK
  5
2A1
100
AcDbEntity
  8
0
100
AcDbBlockBegin
 62
2
  6
CONTINUOUS
  2
*D4
 70
65
 10
0.0
 20
0.0
  3
*D4
  1

  0
MTEXT
  5
2A2
100
AcDbEntity
  8
0
100
AcDbMText
 62
2
  6
CONTINUOUS
  7
STANDARD
 71
2
 72
1
 10
89.3617021277
 20
41.2502879111
 30
0.0
 11
1.0
 21
0.0
 31
0.0
  1
85
 40
3.0
 41
6.75
  0
LINE
  5
2A3
100
AcDbEntity
  8
0
100
AcDbLine
 62
2
  6
CONTINUOUS
 10
46.8617021277
 20
50.96869704
 11
46.8617021277
 21
36.7502879111
  0
LINE
  5
2A4
100
AcDbEntity
  8
0
100
AcDbLine
 62
2
  6
CONTINUOUS
 10
131.8617021277
 20
51.0131691421
 11
131.8617021277
 21
36.7502879111
  0
LINE
  5
2A5
100
AcDbEntity
  8
0
100
AcDbLine
 62
2
  6
CONTINUOUS
 10
46.8617021277
 20
37.5002879111
 11
89.3617021277
 21
37.5002879111
  0
LINE
  5
2A6
100
AcDbEntity
  8
0
100
AcDbLine
 62
2
  6
CONTINUOUS
 10
131.8617021277
 20
37.5002879111
 11
89.3617021277
 21
37.5002879111
  0
INSERT
  5
2A7
100
AcDbEntity
  8
0
100
AcDbBlockReference
 62
2
  6
CONTINUOUS
  2
_CLOSED
 10
46.8617021277
 20
37.5002879111
 41
2.5
 42
2.5
 43
2.5
 50
180.0
  0
INSERT
  5
2A8
100
AcDbEntity
  8
0
100
AcDbBlockReference
 62
2
  6
CONTINUOUS
  2
_CLOSED
 10
131.8617021277
 20
37.5002879111
 41
2.5
 42
2.5
 43
2.5
  0
ENDBLK
  5
2A9
100
AcDbEntity
  8
0
  6
BYBLOCK
 62
0
100
AcDbBlockEnd
  0
BLOCK
  5
2AA
100
AcDbEntity
  8
0
100
AcDbBlockBegin
 62
2
  6
CONTINUOUS
  2
*D5
 70
65
 10
0.0
 20
0.0
  3
*D5
  1

  0
MTEXT
  5
2AB
100
AcDbEntity
  8
0
100
AcDbMText
 62
2
  6
CONTINUOUS
  7
STANDARD
 71
2
 72
1
 10
146.8986773337
 20
99.1136968085
 30
0.0
 11
0.0
 21
1.0
 31
0.0
  1
85
 40
3.0
 41
6.75
  0
LINE
  5
2AC
100
AcDbEntity
  8
0
100
AcDbLine
 62
2
  6
CONTINUOUS
 10
137.5499861936
 20
141.6136968085
 11
151.3986773337
 21
141.6136968085
  0
LINE
  5
2AD
100
AcDbEntity
  8
0
100
AcDbLine
 62
2
  6
CONTINUOUS
 10
137.5070389596
 20
56.6136968085
 11
151.3986773337
 21
56.6136968085
  0
LINE
  5
2AE
100
AcDbEntity
  8
0
100
AcDbLine
 62
2
  6
CONTINUOUS
 10
150.6486773337
 20
141.6136968085
 11
150.6486773337
 21
99.1136968085
  0
LINE
  5
2AF
100
AcDbEntity
  8
0
100
AcDbLine
 62
2
  6
CONTINUOUS
 10
150.6486773337
 20
56.6136968085
 11
150.6486773337
 21
99.1136968085
  0
INSERT
  5
2B0
100
AcDbEntity
  8
0
100
AcDbBlockReference
 62
2
  6
CONTINUOUS
  2
_CLOSED
 10
150.6486773337
 20
141.6136968085
 41
2.5
 42
2.5
 43
2.5
 50
90.0
  0
INSERT
  5
2B1
100
AcDbEntity
  8
0
100
AcDbBlockReference
 62
2
  6
CONTINUOUS
  2
_CLOSED
 10
150.6486773337
 20
56.6136968085
 41
2.5
 42
2.5
 43
2.5
 50
270.0
  0
ENDBLK
  5
2B2
100
AcDbEntity
  8
0
  6
BYBLOCK
 62
0
100
AcDbBlockEnd
  0
BLOCK
  5
2B3
100
AcDbEntity
  8
0
100
AcDbBlockBegin
 62
2
  6
CONTINUOUS
  2
*D6
 70
65
 10
0.0
 20
0.0
  3
*D6
  1

  0
MTEXT
  5
2B4
100
AcDbEntity
  8
0
100
AcDbMText
 62
2
  6
CONTINUOUS
  7
STANDARD
 71
2
 72
1
 10
155.0627533212
 20
230.7679521277
 30
0.0
 11
0.0
 21
1.0
 31
0.0
  1
47
 40
3.0
 41
7.0714285714
  0
LINE
  5
2B5
100
AcDbEntity
  8
0
100
AcDbLine
 62
2
  6
CONTINUOUS
 10
138.1667472434
 20
254.2679521277
 11
159.5627533212
 21
254.2679521277
  0
LINE
  5
2B6
100
AcDbEntity
  8
0
100
AcDbLine
 62
2
  6
CONTINUOUS
 10
138.0083908156
 20
207.2679521277
 11
159.5627533212
 21
207.2679521277
  0
LINE
  5
2B7
100
AcDbEntity
  8
0
100
AcDbLine
 62
2
  6
CONTINUOUS
 10
158.8127533212
 20
254.2679521277
 11
158.8127533212
 21
230.7679521277
  0
LINE
  5
2B8
100
AcDbEntity
  8
0
100
AcDbLine
 62
2
  6
CONTINUOUS
 10
158.8127533212
 20
207.2679521277
 11
158.8127533212
 21
230.7679521277
  0
INSERT
  5
2B9
100
AcDbEntity
  8
0
100
AcDbBlockReference
 62
2
  6
CONTINUOUS
  2
_CLOSED
 10
158.8127533212
 20
254.2679521277
 41
2.5
 42
2.5
 43
2.5
 50
90.0
  0
INSERT
  5
2BA
100
AcDbEntity
  8
0
100
AcDbBlockReference
 62
2
  6
CONTINUOUS
  2
_CLOSED
 10
158.8127533212
 20
207.2679521277
 41
2.5
 42
2.5
 43
2.5
 50
270.0
  0
ENDBLK
  5
2BB
100
AcDbEntity
  8
0
  6
BYBLOCK
 62
0
100
AcDbBlockEnd
  0
BLOCK
  5
2BC
100
AcDbEntity
  8
0
100
AcDbBlockBegin
 62
2
  6
CONTINUOUS
  2
*D7
 70
65
 10
0.0
 20
0.0
  3
*D7
  1

  0
MTEXT
  5
2BD
100
AcDbEntity
  8
0
100
AcDbMText
 62
2
  6
CONTINUOUS
  7
STANDARD
 71
2
 72
1
 10
147.5267803935
 20
246.7679521277
 30
0.0
 11
0.0
 21
1.0
 31
0.0
  1
15
 40
3.0
 41
5.7857142857
  0
LINE
  5
2BE
100
AcDbEntity
  8
0
100
AcDbLine
 62
2
  6
CONTINUOUS
 10
131.6117021277
 20
254.2679521277
 11
152.0267803935
 21
254.2679521277
  0
LINE
  5
2BF
100
AcDbEntity
  8
0
100
AcDbLine
 62
2
  6
CONTINUOUS
 10
124.1117021277
 20
239.2679521277
 11
152.0267803935
 21
239.2679521277
  0
LINE
  5
2C0
100
AcDbEntity
  8
0
100
AcDbLine
 62
2
  6
CONTINUOUS
 10
151.2767803935
 20
254.2679521277
 11
151.2767803935
 21
246.7679521277
  0
LINE
  5
2C1
100
AcDbEntity
  8
0
100
AcDbLine
 62
2
  6
CONTINUOUS
 10
151.2767803935
 20
239.2679521277
 11
151.2767803935
 21
246.7679521277
  0
INSERT
  5
2C2
100
AcDbEntity
  8
0
100
AcDbBlockReference
 62
2
  6
CONTINUOUS
  2
_CLOSED
 10
151.2767803935
 20
254.2679521277
 41
2.5
 42
2.5
 43
2.5
 50
90.0
  0
INSERT
  5
2C3
100
AcDbEntity
  8
0
100
AcDbBlockReference
 62
2
  6
CONTINUOUS
  2
_CLOSED
 10
151.2767803935
 20
239.2679521277
 41
2.5
 42
2.5
 43
2.5
 50
270.0
  0
ENDBLK
  5
2C4
100
AcDbEntity
  8
0
  6
BYBLOCK
 62
0
100
AcDbBlockEnd
  0
ENDSEC
  0
SECTION
  2
ENTITIES
  0
MTEXT
  5
2C5
100
AcDbEntity
  8
0
100
AcDbMText
 62
2
  6
CONTINUOUS
  7
TEXTSTYLE_2
 71
1
 72
1
 10
1.6467220993
 20
53.595027386
 30
0.0
 11
1.0
 21
0.0
 31
0.0
  1
1
 40
4.0
 41
3.4285714286
  0
MTEXT
  5
2C6
100
AcDbEntity
  8
0
100
AcDbMText
 62
2
  6
CONTINUOUS
  7
TEXTSTYLE_2
 71
1
 72
1
 10
1.6467220993
 20
153.595027386
 30
0.0
 11
1.0
 21
0.0
 31
0.0
  1
2
 40
4.0
 41
4.7142857143
  0
MTEXT
  5
2C7
100
AcDbEntity
  8
0
100
AcDbMText
 62
2
  6
CONTINUOUS
  7
TEXTSTYLE_2
 71
1
 72
1
 10
1.6467220993
 20
253.595027386
 30
0.0
 11
1.0
 21
0.0
 31
0.0
  1
3
 40
4.0
 41
4.2857142857
  0
MTEXT
  5
2C8
100
AcDbEntity
  8
0
100
AcDbMText
 62
2
  6
CONTINUOUS
  7
TEXTSTYLE_2
 71
1
 72
1
 10
414.6467220993
 20
60.6268709614
 30
0.0
 11
1.0
 21
0.0
 31
0.0
  1
1
 40
4.0
 41
3.4285714286
  0
MTEXT
  5
2C9
100
AcDbEntity
  8
0
100
AcDbMText
 62
2
  6
CONTINUOUS
  7
TEXTSTYLE_2
 71
1
 72
1
 10
414.6467220993
 20
160.6268709614
 30
0.0
 11
1.0
 21
0.0
 31
0.0
  1
2
 40
4.0
 41
4.7142857143
  0
MTEXT
  5
2CA
100
AcDbEntity
  8
0
100
AcDbMText
 62
2
  6
CONTINUOUS
  7
TEXTSTYLE_2
 71
1
 72
1
 10
414.6467220993
 20
260.6268709614
 30
0.0
 11
1.0
 21
0.0
 31
0.0
  1
3
 40
4.0
 41
4.2857142857
  0
MTEXT
  5
2CB
100
AcDbEntity
  8
0
100
AcDbMText
 62
2
  6
CONTINUOUS
  7
TEXTSTYLE_3
 71
1
 72
1
 10
362.154890719
 20
5.35876025
 30
0.0
 11
1.0
 21
0.0
 31
0.0
  1
A
 40
4.0
 41
3.6
  0
MTEXT
  5
2CC
100
AcDbEntity
  8
0
100
AcDbMText
 62
2
  6
CONTINUOUS
  7
TEXTSTYLE_3
 71
1
 72
1
 10
262.154890719
 20
5.35876025
 30
0.0
 11
1.0
 21
0.0
 31
0.0
  1
B
 40
4.0
 41
3.6
  0
MTEXT
  5
2CD
100
AcDbEntity
  8
0
100
AcDbMText
 62
2
  6
CONTINUOUS
  7
TEXTSTYLE_3
 71
1
 72
1
 10
162.154890719
 20
5.35876025
 30
0.0
 11
1.0
 21
0.0
 31
0.0
  1
C
 40
4.0
 41
3.6
  0
MTEXT
  5
2CE
100
AcDbEntity
  8
0
100
AcDbMText
 62
2
  6
CONTINUOUS
  7
TEXTSTYLE_3
 71
1
 72
1
 10
55.7978688212
 20
5.5353441916
 30
0.0
 11
1.0
 21
0.0
 31
0.0
  1
D
 40
4.0
 41
3.6
  0
MTEXT
  5
2CF
100
AcDbEntity
  8
0
100
AcDbMText
 62
2
  6
CONTINUOUS
  7
TEXTSTYLE_3
 71
1
 72
1
 10
362.154890719
 20
295.35876025
 30
0.0
 11
1.0
 21
0.0
 31
0.0
  1
A
 40
4.0
 41
3.6
  0
MTEXT
  5
2D0
100
AcDbEntity
  8
0
100
AcDbMText
 62
2
  6
CONTINUOUS
  7
TEXTSTYLE_3
 71
1
 72
1
 10
262.154890719
 20
295.35876025
 30
0.0
 11
1.0
 21
0.0
 31
0.0
  1
B
 40
4.0
 41
3.6
  0
MTEXT
  5
2D1
100
AcDbEntity
  8
0
100
AcDbMText
 62
2
  6
CONTINUOUS
  7
TEXTSTYLE_3
 71
1
 72
1
 10
162.154890719
 20
295.35876025
 30
0.0
 11
1.0
 21
0.0
 31
0.0
  1
C
 40
4.0
 41
3.6
  0
MTEXT
  5
2D2
100
AcDbEntity
  8
0
100
AcDbMText
 62
2
  6
CONTINUOUS
  7
TEXTSTYLE_3
 71
1
 72
1
 10
53.9878834197
 20
295.579490177
 30
0.0
 11
1.0
 21
0.0
 31
0.0
  1
D
 40
4.0
 41
3.6
  0
DIMENSION
  5
2D3
100
AcDbEntity
  8
0
100
AcDbDimension
 62
2
  6
CONTINUOUS
  2
*D0
 10
142.7863078383
 20
252.2679521277
 11
142.7863078383
 21
245.5038019081
 70
160
  3
DIMSTYLE_1
100
AcDbAlignedDimension
 13
137.2743975064
 23
254.2679521277
 14
137.1162744766
 24
252.2679521277
 50
270.0
100
AcDbRotatedDimension
  0
DIMENSION
  5
2D4
100
AcDbEntity
  8
0
100
AcDbDimension
 62
2
  6
CONTINUOUS
  2
*D1
 10
166.9322671904
 20
191.2679521277
 11
166.9322671904
 21
222.3393763435
 70
160
  1
65
  3
DIMSTYLE_2
100
AcDbAlignedDimension
 13
137.3143246635
 23
254.2679521277
 14
137.3836309479
 24
191.2679521277
 50
270.0
100
AcDbRotatedDimension
  0
DIMENSION
  5
2D5
100
AcDbEntity
  8
0
100
AcDbDimension
 62
2
  6
CONTINUOUS
  2
*D2
 10
123.8617021277
 20
174.978782325
 11
89.3617021277
 21
174.978782325
 70
160
  1
%%c<>
  3
DIMSTYLE_3
100
AcDbAlignedDimension
 13
54.8617021277
 23
185.7876199404
 14
123.8617021277
 24
185.4787858979
100
AcDbRotatedDimension
  0
DIMENSION
  5
2D6
100
AcDbEntity
  8
0
100
AcDbDimension
 62
2
  6
CONTINUOUS
  2
*D3
 10
269.8494364165
 20
174.978782325
 11
246.3494364165
 21
174.978782325
 70
160
  1
%%c<>
  3
DIMSTYLE_3
100
AcDbAlignedDimension
 13
222.8494364165
 23
185.7297135574
 14
269.8494364165
 24
185.8103810094
100
AcDbRotatedDimension
  0
DIMENSION
  5
2D7
100
AcDbEntity
  8
0
100
AcDbDimension
 62
2
  6
CONTINUOUS
  2
*D4
 10
131.8617021277
 20
37.5002879111
 11
88.9331318665
 21
37.5002879111
 70
160
  3
DIMSTYLE_3
100
AcDbAlignedDimension
 13
46.8617021277
 23
51.71869704
 14
131.8617021277
 24
51.7631691421
100
AcDbRotatedDimension
  0
DIMENSION
  5
2D8
100
AcDbEntity
  8
0
100
AcDbDimension
 62
2
  6
CONTINUOUS
  2
*D5
 10
150.6486773337
 20
56.6136968085
 11
150.6486773337
 21
98.6851232346
 70
160
  3
DIMSTYLE_3
100
AcDbAlignedDimension
 13
136.7999861936
 23
141.6136968085
 14
136.7570389596
 24
56.6136968085
 50
270.0
100
AcDbRotatedDimension
  0
DIMENSION
  5
2D9
100
AcDbEntity
  8
0
100
AcDbDimension
 62
2
  6
CONTINUOUS
  2
*D6
 10
158.8127533212
 20
207.2679521277
 11
158.8127533212
 21
230.3393770552
 70
160
  3
DIMSTYLE_3
100
AcDbAlignedDimension
 13
137.4167472434
 23
254.2679521277
 14
137.2583908156
 24
207.2679521277
 50
270.0
100
AcDbRotatedDimension
  0
DIMENSION
  5
2DA
100
AcDbEntity
  8
0
100
AcDbDimension
 62
2
  6
CONTINUOUS
  2
*D7
 10
151.2767803935
 20
239.2679521277
 11
151.2767803935
 21
246.3393791752
 70
160
  3
DIMSTYLE_4
100
AcDbAlignedDimension
 13
130.8617021277
 23
254.2679521277
 14
123.3617021277
 24
239.2679521277
 50
270.0
100
AcDbRotatedDimension
  0
LINE
  5
2DB
100
AcDbEntity
  8
0
100
AcDbLine
 62
2
  6
CONTINUOUS
 10
319.3213399098
 20
51.0239270671
 11
409.3213399098
 21
51.0239270671
  0
LINE
  5
2DC
100
AcDbEntity
  8
0
100
AcDbLine
 62
2
  6
CONTINUOUS
 10
319.3213399098
 20
51.0239270671
 11
319.3213399098
 21
11.0239270671
  0
LINE
  5
2DD
100
AcDbEntity
  8
0
100
AcDbLine
 62
2
  6
CONTINUOUS
 10
349.3213399098
 20
45.0239270671
 11
409.3213399098
 21
45.0239270671
  0
LINE
  5
2DE
100
AcDbEntity
  8
0
100
AcDbLine
 62
2
  6
CONTINUOUS
 10
349.3213399098
 20
39.0239270671
 11
409.3213399098
 21
39.0239270671
  0
LINE
  5
2DF
100
AcDbEntity
  8
0
100
AcDbLine
 62
2
  6
CONTINUOUS
 10
349.3213399098
 20
29.0239270671
 11
409.3213399098
 21
29.0239270671
  0
LINE
  5
2E0
100
AcDbEntity
  8
0
100
AcDbLine
 62
2
  6
CONTINUOUS
 10
319.3213399098
 20
24.0239270671
 11
409.3213399098
 21
24.0239270671
  0
LINE
  5
2E1
100
AcDbEntity
  8
0
100
AcDbLine
 62
2
  6
CONTINUOUS
 10
319.3213399098
 20
11.0239270671
 11
409.3213399098
 21
11.0239270671
  0
LINE
  5
2E2
100
AcDbEntity
  8
0
100
AcDbLine
 62
2
  6
CONTINUOUS
 10
349.3213399098
 20
51.0239270671
 11
349.3213399098
 21
24.0239270671
  0
LINE
  5
2E3
100
AcDbEntity
  8
0
100
AcDbLine
 62
2
  6
CONTINUOUS
 10
389.3213399098
 20
51.0239270671
 11
389.3213399098
 21
39.0239270671
  0
LINE
  5
2E4
100
AcDbEntity
  8
0
100
AcDbLine
 62
2
  6
CONTINUOUS
 10
409.3213399098
 20
51.0239270671
 11
409.3213399098
 21
11.0239270671
  0
INSERT
  5
2E5
100
AcDbEntity
  8
0
100
AcDbBlockReference
 62
2
  6
CONTINUOUS
  2
LOGO2_BL0
 10
333.1473869546
 20
37.5239270671
  0
MTEXT
  5
2E6
100
AcDbEntity
  8
8_ALL_NOTES_BALLOONS_SYMBOLS_GT
100
AcDbMText
 62
2
  6
CONTINUOUS
  7
STANDARD
 71
1
 72
1
 10
350.8088399098
 20
49.5239270671
 30
0.0
 11
1.0
 21
0.0
 31
0.0
  1
2L0_C_001
 40
3.0
 41
30.4285714286
  0
MTEXT
  5
2E7
100
AcDbEntity
  8
8_ALL_NOTES_BALLOONS_SYMBOLS_GT
100
AcDbMText
 62
2
  6
CONTINUOUS
  7
TEXTSTYLE_5
 71
1
 72
1
 10
390.8088399098
 20
49.2739270671
 30
0.0
 11
1.0
 21
0.0
 31
0.0
  1
Rev:03
 40
3.5
 41
17.85
  0
MTEXT
  5
2E8
100
AcDbEntity
  8
8_ALL_NOTES_BALLOONS_SYMBOLS_GT
100
AcDbMText
 62
2
  6
CONTINUOUS
  7
STANDARD
 71
1
 72
1
 10
350.8088399098
 20
43.2739270671
 30
0.0
 11
1.0
 21
0.0
 31
0.0
  1
Scale:1:1
 40
3.5
 41
27.375
  0
MTEXT
  5
2E9
100
AcDbEntity
  8
8_ALL_NOTES_BALLOONS_SYMBOLS_GT
100
AcDbMText
 62
2
  6
CONTINUOUS
  7
STANDARD
 71
1
 72
1
 10
390.8088399098
 20
43.7739270671
 30
0.0
 11
1.0
 21
0.0
 31
0.0
  1
A3
 40
3.5
 41
8.25
  0
MTEXT
  5
2EA
100
AcDbEntity
  8
8_ALL_NOTES_BALLOONS_SYMBOLS_GT
100
AcDbMText
 62
2
  6
CONTINUOUS
  7
STANDARD
 71
1
 72
1
 10
350.8088399098
 20
35.7739270671
 30
0.0
 11
1.0
 21
0.0
 31
0.0
  1
Bright 2.5
 40
3.5
 41
36.75
  0
MTEXT
  5
2EB
100
AcDbEntity
  8
8_ALL_NOTES_BALLOONS_SYMBOLS_GT
100
AcDbMText
 62
2
  6
CONTINUOUS
  7
STANDARD
 71
1
 72
1
 10
350.8088399098
 20
27.7739270671
 30
0.0
 11
1.0
 21
0.0
 31
0.0
  1
DATE: 21/03/2018
 40
2.5
 41
44.9107142857
  0
MTEXT
  5
2EC
100
AcDbEntity
  8
8_ALL_NOTES_BALLOONS_SYMBOLS_GT
100
AcDbMText
 62
2
  6
CONTINUOUS
  7
TEXTSTYLE_5
 71
1
 72
1
 10
320.8088399098
 20
22.2739270671
 30
0.0
 11
1.0
 21
0.0
 31
0.0
  1
Any integral or partial reproductions are prohibited \Pwithout prior authorisation of L & L Luce & Light s.r.l., \Pin accordance with the law in force. \PAll rights reserved.
 40
1.85
 41
91.205
  0
LINE
  5
2ED
100
AcDbEntity
  8
0
100
AcDbLine
 62
7
  6
CONTINUOUS
 10
0.0
 20
0.0
 11
0.0
 21
297.0
  0
LWPOLYLINE
  5
2EE
100
AcDbEntity
  8
0
100
AcDbPolyline
 62
7
  6
CONTINUOUS
 90
2
 70
0
 43
0.1000000003
 10
7.0536312849
 20
0.0
 10
7.0536312849
 20
297.0
  0
LWPOLYLINE
  5
2EF
100
AcDbEntity
  8
0
100
AcDbPolyline
 62
7
  6
CONTINUOUS
 90
2
 70
0
 43
0.4999999952
 10
10.0536312849
 20
10.0318435754
 10
10.0536312849
 20
287.0
  0
LINE
  5
2F0
100
AcDbEntity
  8
0
100
AcDbLine
 62
7
  6
CONTINUOUS
 10
0.0
 20
0.0
 11
420.0
 21
0.0
  0
LWPOLYLINE
  5
2F1
100
AcDbEntity
  8
0
100
AcDbPolyline
 62
7
  6
CONTINUOUS
 90
2
 70
0
 43
0.1000000003
 10
0.0
 20
7.0318435754
 10
420.0
 20
7.0318435754
  0
LWPOLYLINE
  5
2F2
100
AcDbEntity
  8
0
100
AcDbPolyline
 62
7
  6
CONTINUOUS
 90
2
 70
0
 43
0.4999999952
 10
10.0536312849
 20
10.0318435754
 10
410.0
 20
10.0318435754
  0
LINE
  5
2F3
100
AcDbEntity
  8
0
100
AcDbLine
 62
7
  6
CONTINUOUS
 10
113.0
 20
297.0
 11
113.0
 21
290.0
  0
LINE
  5
2F4
100
AcDbEntity
  8
0
100
AcDbLine
 62
7
  6
CONTINUOUS
 10
113.0
 20
7.0
 11
113.0
 21
0.0
  0
LWPOLYLINE
  5
2F5
100
AcDbEntity
  8
0
100
AcDbPolyline
 62
7
  6
CONTINUOUS
 90
2
 70
0
 43
0.1000000003
 10
123.0
 20
10.0
 10
123.0
 20
0.0
  0
LWPOLYLINE
  5
2F6
100
AcDbEntity
  8
0
100
AcDbPolyline
 62
7
  6
CONTINUOUS
 90
2
 70
0
 43
0.1000000003
 10
123.0
 20
287.0
 10
123.0
 20
297.0
  0
LINE
  5
2F7
100
AcDbEntity
  8
0
100
AcDbLine
 62
7
  6
CONTINUOUS
 10
-0.0
 20
99.9681564246
 11
7.0
 21
99.9681564246
  0
LINE
  5
2F8
100
AcDbEntity
  8
0
100
AcDbLine
 62
7
  6
CONTINUOUS
 10
413.0
 20
107.0
 11
420.0
 21
107.0
  0
LWPOLYLINE
  5
2F9
100
AcDbEntity
  8
0
100
AcDbPolyline
 62
7
  6
CONTINUOUS
 90
2
 70
0
 43
0.1000000003
 10
210.0
 20
10.0
 10
210.0
 20
0.0
  0
LWPOLYLINE
  5
2FA
100
AcDbEntity
  8
0
100
AcDbPolyline
 62
7
  6
CONTINUOUS
 90
2
 70
0
 43
0.1000000003
 10
210.0
 20
287.0
 10
210.0
 20
297.0
  0
LWPOLYLINE
  5
2FB
100
AcDbEntity
  8
0
100
AcDbPolyline
 62
7
  6
CONTINUOUS
 90
2
 70
0
 43
0.1000000003
 10
10.0
 20
148.5
 10
0.0
 20
148.5
  0
LWPOLYLINE
  5
2FC
100
AcDbEntity
  8
0
100
AcDbPolyline
 62
7
  6
CONTINUOUS
 90
2
 70
0
 43
0.1000000003
 10
410.0
 20
148.5
 10
420.0
 20
148.5
  0
LINE
  5
2FD
100
AcDbEntity
  8
0
100
AcDbLine
 62
7
  6
CONTINUOUS
 10
-0.0
 20
199.9681564246
 11
7.0
 21
199.9681564246
  0
LWPOLYLINE
  5
2FE
100
AcDbEntity
  8
0
100
AcDbPolyline
 62
7
  6
CONTINUOUS
 90
2
 70
0
 43
0.1000000003
 10
10.0
 20
202.9681564246
 10
0.0
 20
202.9681564246
  0
LWPOLYLINE
  5
2FF
100
AcDbEntity
  8
0
100
AcDbPolyline
 62
7
  6
CONTINUOUS
 90
2
 70
0
 43
0.1000000003
 10
410.0
 20
210.0
 10
420.0
 20
210.0
  0
LINE
  5
300
100
AcDbEntity
  8
0
100
AcDbLine
 62
7
  6
CONTINUOUS
 10
313.0
 20
297.0
 11
313.0
 21
290.0
  0
LINE
  5
301
100
AcDbEntity
  8
0
100
AcDbLine
 62
7
  6
CONTINUOUS
 10
313.0
 20
7.0
 11
313.0
 21
0.0
  0
LWPOLYLINE
  5
302
100
AcDbEntity
  8
0
100
AcDbPolyline
 62
7
  6
CONTINUOUS
 90
2
 70
0
 43
0.4999999952
 10
10.0536312849
 20
287.0
 10
410.0
 20
287.0
  0
LWPOLYLINE
  5
303
100
AcDbEntity
  8
0
100
AcDbPolyline
 62
7
  6
CONTINUOUS
 90
2
 70
0
 43
0.1000000003
 10
0.0
 20
290.0
 10
420.0
 20
290.0
  0
LINE
  5
304
100
AcDbEntity
  8
0
100
AcDbLine
 62
7
  6
CONTINUOUS
 10
0.0
 20
297.0
 11
420.0
 21
297.0
  0
LWPOLYLINE
  5
305
100
AcDbEntity
  8
0
100
AcDbPolyline
 62
7
  6
CONTINUOUS
 90
2
 70
0
 43
0.4999999952
 10
410.0
 20
10.0318435754
 10
410.0
 20
287.0
  0
LWPOLYLINE
  5
306
100
AcDbEntity
  8
0
100
AcDbPolyline
 62
7
  6
CONTINUOUS
 90
2
 70
0
 43
0.1000000003
 10
413.0
 20
0.0
 10
413.0
 20
297.0
  0
LINE
  5
307
100
AcDbEntity
  8
0
100
AcDbLine
 62
7
  6
CONTINUOUS
 10
420.0
 20
0.0
 11
420.0
 21
297.0
  0
LINE
  5
308
100
AcDbEntity
  8
7_ALL_FEATURES
100
AcDbLine
 62
7
  6
CONTINUOUS
 10
46.8617021277
 20
141.6136968085
 11
46.8617021277
 21
56.6136968085
  0
LINE
  5
309
100
AcDbEntity
  8
7_ALL_FEATURES
100
AcDbLine
 62
7
  6
CONTINUOUS
 10
47.8617021277
 20
140.6136968085
 11
47.8617021277
 21
57.6136968085
  0
LINE
  5
30A
100
AcDbEntity
  8
7_ALL_FEATURES
100
AcDbLine
 62
7
  6
CONTINUOUS
 10
46.8617021277
 20
56.6136968085
 11
131.8617021277
 21
56.6136968085
  0
LINE
  5
30B
100
AcDbEntity
  8
7_ALL_FEATURES
100
AcDbLine
 62
7
  6
CONTINUOUS
 10
47.8617021277
 20
57.6136968085
 11
130.8617021277
 21
57.6136968085
  0
LINE
  5
30C
100
AcDbEntity
  8
7_ALL_FEATURES
100
AcDbLine
 62
7
  6
CONTINUOUS
 10
88.4956767239
 20
68.6136968085
 11
90.2277275314
 21
68.6136968085
  0
LINE
  5
30D
100
AcDbEntity
  8
7_ALL_FEATURES
100
AcDbLine
 62
7
  6
CONTINUOUS
 10
90.2277275314
 20
71.6136968085
 11
88.4956767239
 21
71.6136968085
  0
LINE
  5
30E
100
AcDbEntity
  8
7_ALL_FEATURES
100
AcDbLine
 62
7
  6
CONTINUOUS
 10
87.6296513201
 20
70.1136968085
 11
88.4956767239
 21
68.6136968085
  0
LINE
  5
30F
100
AcDbEntity
  8
7_ALL_FEATURES
100
AcDbLine
 62
7
  6
CONTINUOUS
 10
91.0937529352
 20
70.1136968085
 11
90.2277275314
 21
71.6136968085
  0
LINE
  5
310
100
AcDbEntity
  8
7_ALL_FEATURES
100
AcDbLine
 62
7
  6
CONTINUOUS
 10
116.0682792016
 20
94.6118836486
 11
125.0682266575
 21
94.6118836486
  0
LINE
  5
311
100
AcDbEntity
  8
7_ALL_FEATURES
100
AcDbLine
 62
7
  6
CONTINUOUS
 10
115.1735964379
 20
94.6172429181
 11
115.2566125741
 21
94.6172429181
  0
LINE
  5
312
100
AcDbEntity
  8
7_ALL_FEATURES
100
AcDbLine
 62
7
  6
CONTINUOUS
 10
114.7938238859
 20
94.7041471518
 11
115.1735964379
 21
94.7041471518
  0
LINE
  5
313
100
AcDbEntity
  8
7_ALL_FEATURES
100
AcDbLine
 62
7
  6
CONTINUOUS
 10
115.2566125741
 20
94.7041471518
 11
115.4335735529
 21
94.7041471518
  0
LINE
  5
314
100
AcDbEntity
  8
7_ALL_FEATURES
100
AcDbLine
 62
7
  6
CONTINUOUS
 10
124.9386584349
 20
94.7415569549
 11
116.1977423405
 21
94.7415569549
  0
LINE
  5
315
100
AcDbEntity
  8
7_ALL_FEATURES
100
AcDbLine
 62
7
  6
CONTINUOUS
 10
115.4335735529
 20
94.7931530598
 11
115.2566125741
 21
94.7931530598
  0
LINE
  5
316
100
AcDbEntity
  8
7_ALL_FEATURES
100
AcDbLine
 62
7
  6
CONTINUOUS
 10
115.1735964379
 20
94.7931530598
 11
114.7938238859
 21
94.7931530598
  0
LINE
  5
317
100
AcDbEntity
  8
7_ALL_FEATURES
100
AcDbLine
 62
7
  6
CONTINUOUS
 10
115.2566125741
 20
94.8415966532
 11
115.1735964379
 21
94.8415966532
  0
LINE
  5
318
100
AcDbEntity
  8
7_ALL_FEATURES
100
AcDbLine
 62
7
  6
CONTINUOUS
 10
116.8820475035
 20
95.1541156266
 11
117.3610190841
 21
95.1541156266
  0
LINE
  5
319
100
AcDbEntity
  8
7_ALL_FEATURES
100
AcDbLine
 62
7
  6
CONTINUOUS
 10
114.7938238859
 20
95.44288568
 11
115.0697737258
 21
95.44288568
  0
LINE
  5
31A
100
AcDbEntity
  8
7_ALL_FEATURES
100
AcDbLine
 62
7
  6
CONTINUOUS
 10
115.0592653542
 20
95.5319966717
 11
114.7938238859
 21
95.5319966717
  0
LINE
  5
31B
100
AcDbEntity
  8
7_ALL_FEATURES
100
AcDbLine
 62
7
  6
CONTINUOUS
 10
131.8617021277
 20
141.6136968085
 11
130.8617021277
 21
140.6136968085
  0
LINE
  5
31C
100
AcDbEntity
  8
7_ALL_FEATURES
100
AcDbLine
 62
7
  6
CONTINUOUS
 10
46.8617021277
 20
56.6136968085
 11
47.8617021277
 21
57.6136968085
  0
LINE
  5
31D
100
AcDbEntity
  8
7_ALL_FEATURES
100
AcDbLine
 62
7
  6
CONTINUOUS
 10
114.7938238859
 20
95.7484691281
 11
115.0065133284
 21
95.7484691281
  0
LINE
  5
31E
100
AcDbEntity
  8
7_ALL_FEATURES
100
AcDbLine
 62
7
  6
CONTINUOUS
 10
115.1946131812
 20
95.7484691281
 11
115.652357851
 21
95.7484691281
  0
LINE
  5
31F
100
AcDbEntity
  8
7_ALL_FEATURES
100
AcDbLine
 62
7
  6
CONTINUOUS
 10
115.652357851
 20
95.8373699524
 11
114.7938238859
 21
95.8373699524
  0
LINE
  5
320
100
AcDbEntity
  8
7_ALL_FEATURES
100
AcDbLine
 62
7
  6
CONTINUOUS
 10
117.3610190841
 20
96.4299370307
 11
121.0817182401
 21
96.4299370307
  0
LINE
  5
321
100
AcDbEntity
  8
7_ALL_FEATURES
100
AcDbLine
 62
7
  6
CONTINUOUS
 10
114.8028610855
 20
96.4673468338
 11
115.2568227415
 21
96.4673468338
  0
LINE
  5
322
100
AcDbEntity
  8
7_ALL_FEATURES
100
AcDbLine
 62
7
  6
CONTINUOUS
 10
115.2568227415
 20
96.5563527418
 11
115.1775896191
 21
96.5563527418
  0
LINE
  5
323
100
AcDbEntity
  8
7_ALL_FEATURES
100
AcDbLine
 62
7
  6
CONTINUOUS
 10
114.8661214829
 20
96.5563527418
 11
114.7780613284
 21
96.5563527418
  0
LINE
  5
324
100
AcDbEntity
  8
7_ALL_FEATURES
100
AcDbLine
 62
7
  6
CONTINUOUS
 10
121.0817182401
 20
96.9534641071
 11
116.8820475035
 21
96.9534641071
  0
LINE
  5
325
100
AcDbEntity
  8
7_ALL_FEATURES
100
AcDbLine
 62
7
  6
CONTINUOUS
 10
114.7940340533
 20
97.5572751431
 11
115.2566125741
 21
97.5572751431
  0
LINE
  5
326
100
AcDbEntity
  8
7_ALL_FEATURES
100
AcDbLine
 62
7
  6
CONTINUOUS
 10
115.2566125741
 20
97.6460708837
 11
114.7940340533
 21
97.6460708837
  0
LINE
  5
327
100
AcDbEntity
  8
7_ALL_FEATURES
100
AcDbLine
 62
7
  6
CONTINUOUS
 10
114.7938238859
 20
98.2314922692
 11
114.8789416964
 21
98.2314922692
  0
LINE
  5
328
100
AcDbEntity
  8
7_ALL_FEATURES
100
AcDbLine
 62
7
  6
CONTINUOUS
 10
114.8789416964
 20
98.4579476786
 11
115.5394979393
 21
98.4579476786
  0
LINE
  5
329
100
AcDbEntity
  8
7_ALL_FEATURES
100
AcDbLine
 62
7
  6
CONTINUOUS
 10
115.5394979393
 20
98.5508416842
 11
114.7938238859
 21
98.5508416842
  0
LINE
  5
32A
100
AcDbEntity
  8
7_ALL_FEATURES
100
AcDbLine
 62
7
  6
CONTINUOUS
 10
46.8617021277
 20
141.6136968085
 11
47.8617021277
 21
140.6136968085
  0
LINE
  5
32B
100
AcDbEntity
  8
7_ALL_FEATURES
100
AcDbLine
 62
7
  6
CONTINUOUS
 10
131.8617021277
 20
56.6136968085
 11
130.8617021277
 21
57.6136968085
  0
LINE
  5
32C
100
AcDbEntity
  8
7_ALL_FEATURES
100
AcDbLine
 62
7
  6
CONTINUOUS
 10
115.0105065096
 20
100.3495596624
 11
115.0241673928
 21
100.3495596624
  0
LINE
  5
32D
100
AcDbEntity
  8
7_ALL_FEATURES
100
AcDbLine
 62
7
  6
CONTINUOUS
 10
116.8820475035
 20
101.1518212973
 11
117.3610190841
 21
101.1518212973
  0
LINE
  5
32E
100
AcDbEntity
  8
7_ALL_FEATURES
100
AcDbLine
 62
7
  6
CONTINUOUS
 10
114.8087457736
 20
101.3661920793
 11
114.9222361876
 21
101.3661920793
  0
LINE
  5
32F
100
AcDbEntity
  8
7_ALL_FEATURES
100
AcDbLine
 62
7
  6
CONTINUOUS
 10
115.1252579282
 20
101.3661920793
 11
115.2400093468
 21
101.3661920793
  0
LINE
  5
330
100
AcDbEntity
  8
7_ALL_FEATURES
100
AcDbLine
 62
7
  6
CONTINUOUS
 10
114.9907507709
 20
102.3391622119
 11
115.2566125741
 21
102.3391622119
  0
LINE
  5
331
100
AcDbEntity
  8
7_ALL_FEATURES
100
AcDbLine
 62
7
  6
CONTINUOUS
 10
117.3610190841
 20
102.427379992
 11
121.0817182401
 21
102.427379992
  0
LINE
  5
332
100
AcDbEntity
  8
7_ALL_FEATURES
100
AcDbLine
 62
7
  6
CONTINUOUS
 10
115.2566125741
 20
102.4283257455
 11
115.0008388077
 21
102.4283257455
  0
LINE
  5
333
100
AcDbEntity
  8
7_ALL_FEATURES
100
AcDbLine
 62
7
  6
CONTINUOUS
 10
115.0008388077
 20
102.6418558578
 11
115.2566125741
 21
102.6418558578
  0
LINE
  5
334
100
AcDbEntity
  8
7_ALL_FEATURES
100
AcDbLine
 62
7
  6
CONTINUOUS
 10
115.2566125741
 20
102.7309143076
 11
114.9907507709
 21
102.7309143076
  0
LINE
  5
335
100
AcDbEntity
  8
7_ALL_FEATURES
100
AcDbLine
 62
7
  6
CONTINUOUS
 10
121.0817182401
 20
102.9511172359
 11
116.8820475035
 21
102.9511172359
  0
LINE
  5
336
100
AcDbEntity
  8
7_ALL_FEATURES
100
AcDbLine
 62
7
  6
CONTINUOUS
 10
114.7938238859
 20
103.2923766058
 11
114.8789416964
 21
103.2923766058
  0
LINE
  5
337
100
AcDbEntity
  8
7_ALL_FEATURES
100
AcDbLine
 62
7
  6
CONTINUOUS
 10
116.1977423405
 20
103.4822628818
 11
124.9386584349
 21
103.4822628818
  0
LINE
  5
338
100
AcDbEntity
  8
7_ALL_FEATURES
100
AcDbLine
 62
7
  6
CONTINUOUS
 10
114.8789416964
 20
103.5188845571
 11
115.5394979393
 21
103.5188845571
  0
LINE
  5
339
100
AcDbEntity
  8
7_ALL_FEATURES
100
AcDbLine
 62
7
  6
CONTINUOUS
 10
125.0682266575
 20
103.6118311045
 11
116.0682792016
 21
103.6118311045
  0
LINE
  5
33A
100
AcDbEntity
  8
7_ALL_FEATURES
100
AcDbLine
 62
7
  6
CONTINUOUS
 10
115.5394979393
 20
103.6118836463
 11
114.7938238859
 21
103.6118836463
  0
LINE
  5
33B
100
AcDbEntity
  8
7_ALL_FEATURES
100
AcDbLine
 62
7
  6
CONTINUOUS
 10
88.4956767239
 20
71.6136968085
 11
87.6296513201
 21
70.1136968085
  0
LINE
  5
33C
100
AcDbEntity
  8
7_ALL_FEATURES
100
AcDbLine
 62
7
  6
CONTINUOUS
 10
90.2277275314
 20
68.6136968085
 11
91.0937529352
 21
70.1136968085
  0
LINE
  5
33D
100
AcDbEntity
  8
7_ALL_FEATURES
100
AcDbLine
 62
7
  6
CONTINUOUS
 10
115.0262690671
 20
99.3092308674
 11
115.2141587525
 21
99.4646496843
  0
LINE
  5
33E
100
AcDbEntity
  8
7_ALL_FEATURES
100
AcDbLine
 62
7
  6
CONTINUOUS
 10
115.1618270616
 20
99.5368421977
 11
114.9600663256
 21
99.3717556788
  0
LINE
  5
33F
100
AcDbEntity
  8
7_ALL_FEATURES
100
AcDbLine
 62
7
  6
CONTINUOUS
 10
114.7940340533
 20
99.1205005122
 11
114.9590154885
 21
99.2539568324
  0
LINE
  5
340
100
AcDbEntity
  8
7_ALL_FEATURES
100
AcDbLine
 62
7
  6
CONTINUOUS
 10
114.8949144213
 20
99.3163240182
 11
114.7940340533
 21
99.2350943052
  0
LINE
  5
341
100
AcDbEntity
  8
7_ALL_FEATURES
100
AcDbLine
 62
7
  6
CONTINUOUS
 10
115.2786801546
 20
99.5170339171
 11
115.3102052696
 21
99.5417811323
  0
LINE
  5
342
100
AcDbEntity
  8
7_ALL_FEATURES
100
AcDbLine
 62
7
  6
CONTINUOUS
 10
115.0657805446
 20
99.1630068756
 11
115.1271494351
 21
99.2225368011
  0
LINE
  5
343
100
AcDbEntity
  8
7_ALL_FEATURES
100
AcDbLine
 62
7
  6
CONTINUOUS
 10
118.1909702783
 20
98.3289048746
 11
119.2491633052
 21
99.2034115647
  0
LINE
  5
344
100
AcDbEntity
  8
7_ALL_FEATURES
100
AcDbLine
 62
7
  6
CONTINUOUS
 10
118.9540882288
 20
99.6100855482
 11
117.8179230841
 21
98.6799895719
  0
LINE
  5
345
100
AcDbEntity
  8
7_ALL_FEATURES
100
AcDbLine
 62
7
  6
CONTINUOUS
 10
116.8818373361
 20
97.265037327
 11
117.8122485634
 21
98.0171214872
  0
LINE
  5
346
100
AcDbEntity
  8
7_ALL_FEATURES
100
AcDbLine
 62
7
  6
CONTINUOUS
 10
117.4499199084
 20
98.3679960172
 11
116.8818373361
 21
97.9111971008
  0
LINE
  5
347
100
AcDbEntity
  8
7_ALL_FEATURES
100
AcDbLine
 62
7
  6
CONTINUOUS
 10
119.6117021277
 20
99.4986968085
 11
119.7897139437
 21
99.6378276494
  0
LINE
  5
348
100
AcDbEntity
  8
7_ALL_FEATURES
100
AcDbLine
 62
7
  6
CONTINUOUS
 10
114.9590154885
 20
99.2539568324
 11
115.0657805446
 21
99.1630068756
  0
LINE
  5
349
100
AcDbEntity
  8
7_ALL_FEATURES
100
AcDbLine
 62
7
  6
CONTINUOUS
 10
117.8122485634
 20
98.0171214872
 11
118.4135375902
 21
97.504628201
  0
LINE
  5
34A
100
AcDbEntity
  8
7_ALL_FEATURES
100
AcDbLine
 62
7
  6
CONTINUOUS
 10
115.1271494351
 20
99.2225368011
 11
115.0262690671
 21
99.3092308674
  0
LINE
  5
34B
100
AcDbEntity
  8
7_ALL_FEATURES
100
AcDbLine
 62
7
  6
CONTINUOUS
 10
118.759263018
 20
97.83879442
 11
118.1909702783
 21
98.3289048746
  0
LINE
  5
34C
100
AcDbEntity
  8
7_ALL_FEATURES
100
AcDbLine
 62
7
  6
CONTINUOUS
 10
114.9045821232
 20
100.3495596624
 11
114.9474562796
 21
100.4249046872
  0
LINE
  5
34D
100
AcDbEntity
  8
7_ALL_FEATURES
100
AcDbLine
 62
7
  6
CONTINUOUS
 10
118.4135375902
 20
97.504628201
 11
118.759263018
 21
97.83879442
  0
LINE
  5
34E
100
AcDbEntity
  8
7_ALL_FEATURES
100
AcDbLine
 62
7
  6
CONTINUOUS
 10
115.2290806403
 20
99.5912755629
 11
115.195453851
 21
99.6376700238
  0
LINE
  5
34F
100
AcDbEntity
  8
7_ALL_FEATURES
100
AcDbLine
 62
7
  6
CONTINUOUS
 10
115.1557322061
 20
99.5457743136
 11
115.1618270616
 21
99.5368421977
  0
LINE
  5
350
100
AcDbEntity
  8
7_ALL_FEATURES
100
AcDbLine
 62
7
  6
CONTINUOUS
 10
115.2864563496
 20
99.5052119989
 11
115.2786801546
 21
99.5170339171
  0
LINE
  5
351
100
AcDbEntity
  8
7_ALL_FEATURES
100
AcDbLine
 62
7
  6
CONTINUOUS
 10
114.7383396835
 20
96.8272585634
 11
114.7383396835
 21
96.9162644714
  0
LINE
  5
352
100
AcDbEntity
  8
7_ALL_FEATURES
100
AcDbLine
 62
7
  6
CONTINUOUS
 10
114.7938238859
 20
103.6118836463
 11
114.7938238859
 21
103.2923766058
  0
LINE
  5
353
100
AcDbEntity
  8
7_ALL_FEATURES
100
AcDbLine
 62
7
  6
CONTINUOUS
 10
114.7938238859
 20
98.5508416842
 11
114.7938238859
 21
98.2314922692
  0
LINE
  5
354
100
AcDbEntity
  8
7_ALL_FEATURES
100
AcDbLine
 62
7
  6
CONTINUOUS
 10
114.7938238859
 20
95.8373699524
 11
114.7938238859
 21
95.7484691281
  0
LINE
  5
355
100
AcDbEntity
  8
7_ALL_FEATURES
100
AcDbLine
 62
7
  6
CONTINUOUS
 10
114.7938238859
 20
95.5319966717
 11
114.7938238859
 21
95.44288568
  0
LINE
  5
356
100
AcDbEntity
  8
7_ALL_FEATURES
100
AcDbLine
 62
7
  6
CONTINUOUS
 10
114.7938238859
 20
94.7931530598
 11
114.7938238859
 21
94.7041471518
  0
LINE
  5
357
100
AcDbEntity
  8
7_ALL_FEATURES
100
AcDbLine
 62
7
  6
CONTINUOUS
 10
114.7940340533
 20
99.2350943052
 11
114.7940340533
 21
99.1205005122
  0
LINE
  5
358
100
AcDbEntity
  8
7_ALL_FEATURES
100
AcDbLine
 62
7
  6
CONTINUOUS
 10
114.7940340533
 20
97.6460708837
 11
114.7940340533
 21
97.5572751431
  0
LINE
  5
359
100
AcDbEntity
  8
7_ALL_FEATURES
100
AcDbLine
 62
7
  6
CONTINUOUS
 10
114.8789416964
 20
98.2314922692
 11
114.8789416964
 21
98.4579476786
  0
LINE
  5
35A
100
AcDbEntity
  8
7_ALL_FEATURES
100
AcDbLine
 62
7
  6
CONTINUOUS
 10
114.8789416964
 20
103.2923766058
 11
114.8789416964
 21
103.5188845571
  0
LINE
  5
35B
100
AcDbEntity
  8
7_ALL_FEATURES
100
AcDbLine
 62
7
  6
CONTINUOUS
 10
115.0105065096
 20
100.7025884085
 11
115.0105065096
 21
100.3495596624
  0
LINE
  5
35C
100
AcDbEntity
  8
7_ALL_FEATURES
100
AcDbLine
 62
7
  6
CONTINUOUS
 10
115.0777600883
 20
100.4385655704
 11
115.0777600883
 21
100.6977545576
  0
LINE
  5
35D
100
AcDbEntity
  8
7_ALL_FEATURES
100
AcDbLine
 62
7
  6
CONTINUOUS
 10
115.1735964379
 20
94.8415966532
 11
115.1735964379
 21
94.7931530598
  0
LINE
  5
35E
100
AcDbEntity
  8
7_ALL_FEATURES
100
AcDbLine
 62
7
  6
CONTINUOUS
 10
115.1735964379
 20
94.7041471518
 11
115.1735964379
 21
94.6172429181
  0
LINE
  5
35F
100
AcDbEntity
  8
7_ALL_FEATURES
100
AcDbLine
 62
7
  6
CONTINUOUS
 10
115.2566125741
 20
94.6172429181
 11
115.2566125741
 21
94.7041471518
  0
LINE
  5
360
100
AcDbEntity
  8
7_ALL_FEATURES
100
AcDbLine
 62
7
  6
CONTINUOUS
 10
115.2566125741
 20
94.7931530598
 11
115.2566125741
 21
94.8415966532
  0
LINE
  5
361
100
AcDbEntity
  8
7_ALL_FEATURES
100
AcDbLine
 62
7
  6
CONTINUOUS
 10
115.2566125741
 20
97.5572751431
 11
115.2566125741
 21
97.6460708837
  0
LINE
  5
362
100
AcDbEntity
  8
7_ALL_FEATURES
100
AcDbLine
 62
7
  6
CONTINUOUS
 10
115.2566125741
 20
102.3391622119
 11
115.2566125741
 21
102.4283257455
  0
LINE
  5
363
100
AcDbEntity
  8
7_ALL_FEATURES
100
AcDbLine
 62
7
  6
CONTINUOUS
 10
115.2566125741
 20
102.6418558578
 11
115.2566125741
 21
102.7309143076
  0
LINE
  5
364
100
AcDbEntity
  8
7_ALL_FEATURES
100
AcDbLine
 62
7
  6
CONTINUOUS
 10
115.2568227415
 20
96.4673468338
 11
115.2568227415
 21
96.5563527418
  0
LINE
  5
365
100
AcDbEntity
  8
7_ALL_FEATURES
100
AcDbLine
 62
7
  6
CONTINUOUS
 10
115.4335735529
 20
94.7041471518
 11
115.4335735529
 21
94.7931530598
  0
LINE
  5
366
100
AcDbEntity
  8
7_ALL_FEATURES
100
AcDbLine
 62
7
  6
CONTINUOUS
 10
115.5394979393
 20
98.4579476786
 11
115.5394979393
 21
98.5508416842
  0
LINE
  5
367
100
AcDbEntity
  8
7_ALL_FEATURES
100
AcDbLine
 62
7
  6
CONTINUOUS
 10
115.5394979393
 20
103.5188845571
 11
115.5394979393
 21
103.6118836463
  0
LINE
  5
368
100
AcDbEntity
  8
7_ALL_FEATURES
100
AcDbLine
 62
7
  6
CONTINUOUS
 10
115.652357851
 20
95.7484691281
 11
115.652357851
 21
95.8373699524
  0
LINE
  5
369
100
AcDbEntity
  8
7_ALL_FEATURES
100
AcDbLine
 62
7
  6
CONTINUOUS
 10
116.0682792016
 20
103.6118311045
 11
116.0682792016
 21
94.6118836486
  0
LINE
  5
36A
100
AcDbEntity
  8
7_ALL_FEATURES
100
AcDbLine
 62
7
  6
CONTINUOUS
 10
116.1977423405
 20
94.7415569549
 11
116.1977423405
 21
103.4822628818
  0
LINE
  5
36B
100
AcDbEntity
  8
7_ALL_FEATURES
100
AcDbLine
 62
7
  6
CONTINUOUS
 10
116.8818373361
 20
97.9111971008
 11
116.8818373361
 21
97.265037327
  0
LINE
  5
36C
100
AcDbEntity
  8
7_ALL_FEATURES
100
AcDbLine
 62
7
  6
CONTINUOUS
 10
116.8820475035
 20
102.9511172359
 11
116.8820475035
 21
101.1518212973
  0
LINE
  5
36D
100
AcDbEntity
  8
7_ALL_FEATURES
100
AcDbLine
 62
7
  6
CONTINUOUS
 10
116.8820475035
 20
96.9534641071
 11
116.8820475035
 21
95.1541156266
  0
LINE
  5
36E
100
AcDbEntity
  8
7_ALL_FEATURES
100
AcDbLine
 62
7
  6
CONTINUOUS
 10
117.3610190841
 20
95.1541156266
 11
117.3610190841
 21
96.4299370307
  0
LINE
  5
36F
100
AcDbEntity
  8
7_ALL_FEATURES
100
AcDbLine
 62
7
  6
CONTINUOUS
 10
117.3610190841
 20
101.1518212973
 11
117.3610190841
 21
102.427379992
  0
LINE
  5
370
100
AcDbEntity
  8
7_ALL_FEATURES
100
AcDbLine
 62
7
  6
CONTINUOUS
 10
119.3328099436
 20
99.9164571241
 11
119.1434490862
 21
100.1782206623
  0
LINE
  5
371
100
AcDbEntity
  8
7_ALL_FEATURES
100
AcDbLine
 62
7
  6
CONTINUOUS
 10
118.9206716069
 20
99.660210481
 11
118.9540882288
 21
99.6100855482
  0
LINE
  5
372
100
AcDbEntity
  8
7_ALL_FEATURES
100
AcDbLine
 62
7
  6
CONTINUOUS
 10
119.6560474561
 20
99.431758481
 11
119.6117021277
 21
99.4986968085
  0
LINE
  5
373
100
AcDbEntity
  8
7_ALL_FEATURES
100
AcDbLine
 62
7
  6
CONTINUOUS
 10
121.0817182401
 20
96.4299370307
 11
121.0817182401
 21
96.9534641071
  0
LINE
  5
374
100
AcDbEntity
  8
7_ALL_FEATURES
100
AcDbLine
 62
7
  6
CONTINUOUS
 10
121.0817182401
 20
102.427379992
 11
121.0817182401
 21
102.9511172359
  0
LINE
  5
375
100
AcDbEntity
  8
7_ALL_FEATURES
100
AcDbLine
 62
7
  6
CONTINUOUS
 10
124.9386584349
 20
103.4822628818
 11
124.9386584349
 21
94.7415569549
  0
LINE
  5
376
100
AcDbEntity
  8
7_ALL_FEATURES
100
AcDbLine
 62
7
  6
CONTINUOUS
 10
125.0682266575
 20
94.6118836486
 11
125.0682266575
 21
103.6118311045
  0
LINE
  5
377
100
AcDbEntity
  8
7_ALL_FEATURES
100
AcDbLine
 62
7
  6
CONTINUOUS
 10
130.8617021277
 20
57.6136968085
 11
130.8617021277
 21
140.6136968085
  0
LINE
  5
378
100
AcDbEntity
  8
7_ALL_FEATURES
100
AcDbLine
 62
7
  6
CONTINUOUS
 10
131.8617021277
 20
56.6136968085
 11
131.8617021277
 21
141.6136968085
  0
LINE
  5
379
100
AcDbEntity
  8
7_ALL_FEATURES
100
AcDbLine
 62
7
  6
CONTINUOUS
 10
130.8617021277
 20
140.6136968085
 11
47.8617021277
 21
140.6136968085
  0
LINE
  5
37A
100
AcDbEntity
  8
7_ALL_FEATURES
100
AcDbLine
 62
7
  6
CONTINUOUS
 10
131.8617021277
 20
141.6136968085
 11
46.8617021277
 21
141.6136968085
  0
LINE
  5
37B
100
AcDbEntity
  8
7_ALL_FEATURES
100
AcDbLine
 62
7
  6
CONTINUOUS
 10
46.8617021277
 20
253.2679521277
 11
47.8617021277
 21
254.2679521277
  0
LINE
  5
37C
100
AcDbEntity
  8
7_ALL_FEATURES
100
AcDbLine
 62
7
  6
CONTINUOUS
 10
46.8617021277
 20
252.2679521277
 11
46.8617021277
 21
253.2679521277
  0
LINE
  5
37D
100
AcDbEntity
  8
3_ALL_AXES
100
AcDbLine
 62
7
  6
CONTINUOUS
 10
54.8617021277
 20
252.2679521277
 11
54.8617021277
 21
239.7679521277
  0
LINE
  5
37E
100
AcDbEntity
  8
02___PRT_ALL_AXES
100
AcDbLine
 62
7
  6
CONTINUOUS
 10
99.8617021277
 20
191.2679521277
 11
106.8617021277
 21
191.2679521277
  0
LINE
  5
37F
100
AcDbEntity
  8
7_ALL_FEATURES
100
AcDbLine
 62
7
  6
CONTINUOUS
 10
99.8617021277
 20
191.2679521277
 11
106.8617021277
 21
191.2679521277
  0
LINE
  5
380
100
AcDbEntity
  8
02___PRT_ALL_AXES
100
AcDbLine
 62
9
  6
CONTINUOUS
 10
110.3617021277
 20
194.7679521277
 11
109.8617021277
 21
194.7679521277
  0
LINE
  5
381
100
AcDbEntity
  8
02___PRT_ALL_AXES
100
AcDbLine
 62
9
  6
CONTINUOUS
 10
108.8617021277
 20
194.7679521277
 11
104.3617021277
 21
194.7679521277
  0
LINE
  5
382
100
AcDbEntity
  8
02___PRT_ALL_AXES
100
AcDbLine
 62
9
  6
CONTINUOUS
 10
102.3617021277
 20
194.7679521277
 11
97.8617021277
 21
194.7679521277
  0
LINE
  5
383
100
AcDbEntity
  8
02___PRT_ALL_AXES
100
AcDbLine
 62
9
  6
CONTINUOUS
 10
96.8617021277
 20
194.7679521277
 11
96.3617021277
 21
194.7679521277
  0
LINE
  5
384
100
AcDbEntity
  8
02___PRT_ALL_AXES
100
AcDbLine
 62
7
  6
CONTINUOUS
 10
108.8617021277
 20
195.2679521277
 11
104.3617021277
 21
195.2679521277
  0
LINE
  5
385
100
AcDbEntity
  8
02___PRT_ALL_AXES
100
AcDbLine
 62
7
  6
CONTINUOUS
 10
102.3617021277
 20
195.2679521277
 11
97.8617021277
 21
195.2679521277
  0
LINE
  5
386
100
AcDbEntity
  8
02___PRT_ALL_AXES
100
AcDbLine
 62
7
  6
CONTINUOUS
 10
96.3617021277
 20
195.2679521277
 11
96.8617021277
 21
195.2679521277
  0
LINE
  5
387
100
AcDbEntity
  8
02___PRT_ALL_AXES
100
AcDbLine
 62
7
  6
CONTINUOUS
 10
109.8617021277
 20
195.2679521277
 11
110.3617021277
 21
195.2679521277
  0
LINE
  5
388
100
AcDbEntity
  8
7_ALL_FEATURES
100
AcDbLine
 62
7
  6
CONTINUOUS
 10
65.8617021277
 20
207.7679521277
 11
66.3617021277
 21
207.2679521277
  0
LINE
  5
389
100
AcDbEntity
  8
3_ALL_AXES
100
AcDbLine
 62
7
  6
CONTINUOUS
 10
65.8617021277
 20
239.2679521277
 11
65.8617021277
 21
229.2679521277
  0
LINE
  5
38A
100
AcDbEntity
  8
3_ALL_AXES
100
AcDbLine
 62
7
  6
CONTINUOUS
 10
65.8617021277
 20
226.2679521277
 11
65.8617021277
 21
223.7679521277
  0
LINE
  5
38B
100
AcDbEntity
  8
3_ALL_AXES
100
AcDbLine
 62
7
  6
CONTINUOUS
 10
65.8617021277
 20
220.7679521277
 11
65.8617021277
 21
218.2679521277
  0
LINE
  5
38C
100
AcDbEntity
  8
3_ALL_AXES
100
AcDbLine
 62
7
  6
CONTINUOUS
 10
65.8617021277
 20
215.2679521277
 11
65.8617021277
 21
212.7679521277
  0
LINE
  5
38D
100
AcDbEntity
  8
3_ALL_AXES
100
AcDbLine
 62
7
  6
CONTINUOUS
 10
65.8617021277
 20
209.7679521277
 11
65.8617021277
 21
207.7679521277
  0
LINE
  5
38E
100
AcDbEntity
  8
7_ALL_FEATURES
100
AcDbLine
 62
7
  6
CONTINUOUS
 10
67.3617021277
 20
229.2679521277
 11
67.3617021277
 21
226.2679521277
  0
LINE
  5
38F
100
AcDbEntity
  8
7_ALL_FEATURES
100
AcDbLine
 62
7
  6
CONTINUOUS
 10
67.3617021277
 20
223.7679521277
 11
67.3617021277
 21
220.7679521277
  0
LINE
  5
390
100
AcDbEntity
  8
7_ALL_FEATURES
100
AcDbLine
 62
7
  6
CONTINUOUS
 10
67.3617021277
 20
218.2679521277
 11
67.3617021277
 21
215.2679521277
  0
LINE
  5
391
100
AcDbEntity
  8
7_ALL_FEATURES
100
AcDbLine
 62
7
  6
CONTINUOUS
 10
67.3617021277
 20
212.7679521277
 11
67.3617021277
 21
209.7679521277
  0
LINE
  5
392
100
AcDbEntity
  8
02___PRT_ALL_AXES
100
AcDbLine
 62
7
  6
CONTINUOUS
 10
111.3617021277
 20
200.7679521277
 11
95.3617021277
 21
200.7679521277
  0
LINE
  5
393
100
AcDbEntity
  8
02___PRT_ALL_AXES
100
AcDbLine
 62
7
  6
CONTINUOUS
 10
111.3617021277
 20
203.7679521277
 11
95.3617021277
 21
203.7679521277
  0
LINE
  5
394
100
AcDbEntity
  8
7_ALL_FEATURES
100
AcDbLine
 62
7
  6
CONTINUOUS
 10
66.3621041357
 20
207.2679521277
 11
112.3613001196
 21
207.2679521277
  0
LINE
  5
395
100
AcDbEntity
  8
7_ALL_FEATURES
100
AcDbLine
 62
7
  6
CONTINUOUS
 10
65.8617021277
 20
207.7679521277
 11
112.8617021277
 21
207.7679521277
  0
LINE
  5
396
100
AcDbEntity
  8
02___PRT_ALL_AXES
100
AcDbLine
 62
7
  6
CONTINUOUS
 10
96.3617021277
 20
195.2679521277
 11
95.3617021277
 21
196.2679521277
  0
LINE
  5
397
100
AcDbEntity
  8
7_ALL_FEATURES
100
AcDbLine
 62
7
  6
CONTINUOUS
 10
65.8619775544
 20
209.7679521277
 11
112.8614267009
 21
209.7679521277
  0
LINE
  5
398
100
AcDbEntity
  8
7_ALL_FEATURES
100
AcDbLine
 62
7
  6
CONTINUOUS
 10
54.8617021277
 20
239.7679521277
 11
55.3617021277
 21
239.2679521277
  0
LINE
  5
399
100
AcDbEntity
  8
7_ALL_FEATURES
100
AcDbLine
 62
7
  6
CONTINUOUS
 10
112.8614267009
 20
212.7679521277
 11
65.8619775544
 21
212.7679521277
  0
LINE
  5
39A
100
AcDbEntity
  8
7_ALL_FEATURES
100
AcDbLine
 62
7
  6
CONTINUOUS
 10
65.8619775544
 20
215.2679521277
 11
112.8614267009
 21
215.2679521277
  0
LINE
  5
39B
100
AcDbEntity
  8
7_ALL_FEATURES
100
AcDbLine
 62
7
  6
CONTINUOUS
 10
112.8614267009
 20
218.2679521277
 11
65.8619775544
 21
218.2679521277
  0
LINE
  5
39C
100
AcDbEntity
  8
02___PRT_ALL_AXES
100
AcDbLine
 62
7
  6
CONTINUOUS
 10
86.9617021277
 20
239.2679521277
 11
86.9617021277
 21
226.6673311851
  0
LINE
  5
39D
100
AcDbEntity
  8
02___PRT_ALL_AXES
100
AcDbLine
 62
7
  6
CONTINUOUS
 10
91.7617021277
 20
226.6673311851
 11
89.3617021277
 21
222.2679521277
  0
LINE
  5
39E
100
AcDbEntity
  8
7_ALL_FEATURES
100
AcDbLine
 62
7
  6
CONTINUOUS
 10
65.8619775544
 20
220.7679521277
 11
112.8614267009
 21
220.7679521277
  0
LINE
  5
39F
100
AcDbEntity
  8
02___PRT_ALL_AXES
100
AcDbLine
 62
7
  6
CONTINUOUS
 10
86.9617021277
 20
226.6673311851
 11
89.3617021277
 21
222.2679521277
  0
LINE
  5
3A0
100
AcDbEntity
  8
02___PRT_ALL_AXES
100
AcDbLine
 62
7
  6
CONTINUOUS
 10
91.7617021277
 20
239.2679521277
 11
91.7617021277
 21
226.6673311851
  0
LINE
  5
3A1
100
AcDbEntity
  8
7_ALL_FEATURES
100
AcDbLine
 62
7
  6
CONTINUOUS
 10
112.8614267009
 20
223.7679521277
 11
90.1799994267
 21
223.7679521277
  0
LINE
  5
3A2
100
AcDbEntity
  8
7_ALL_FEATURES
100
AcDbLine
 62
7
  6
CONTINUOUS
 10
88.5434048286
 20
223.7679521277
 11
65.8619775544
 21
223.7679521277
  0
LINE
  5
3A3
100
AcDbEntity
  8
7_ALL_FEATURES
100
AcDbLine
 62
7
  6
CONTINUOUS
 10
65.8619775544
 20
226.2679521277
 11
87.179575997
 21
226.2679521277
  0
LINE
  5
3A4
100
AcDbEntity
  8
7_ALL_FEATURES
100
AcDbLine
 62
7
  6
CONTINUOUS
 10
91.5438282584
 20
226.2679521277
 11
112.8614267009
 21
226.2679521277
  0
LINE
  5
3A5
100
AcDbEntity
  8
02___PRT_ALL_AXES
100
AcDbLine
 62
7
  6
CONTINUOUS
 10
86.9617021277
 20
226.6673311851
 11
91.7617021277
 21
226.6673311851
  0
LINE
  5
3A6
100
AcDbEntity
  8
02___PRT_ALL_AXES
100
AcDbLine
 62
7
  6
CONTINUOUS
 10
95.3617021277
 20
207.2679521277
 11
95.3617021277
 21
203.7679521277
  0
LINE
  5
3A7
100
AcDbEntity
  8
02___PRT_ALL_AXES
100
AcDbLine
 62
7
  6
CONTINUOUS
 10
95.3617021277
 20
200.7679521277
 11
95.3617021277
 21
196.2679521277
  0
LINE
  5
3A8
100
AcDbEntity
  8
02___PRT_ALL_AXES
100
AcDbLine
 62
7
  6
CONTINUOUS
 10
96.3617021277
 20
194.7679521277
 11
96.3617021277
 21
195.2679521277
  0
LINE
  5
3A9
100
AcDbEntity
  8
02___PRT_ALL_AXES
100
AcDbLine
 62
7
  6
CONTINUOUS
 10
96.8617021277
 20
194.7679521277
 11
96.8617021277
 21
195.2679521277
  0
LINE
  5
3AA
100
AcDbEntity
  8
7_ALL_FEATURES
100
AcDbLine
 62
7
  6
CONTINUOUS
 10
112.8614267009
 20
229.2679521277
 11
91.7617021277
 21
229.2679521277
  0
LINE
  5
3AB
100
AcDbEntity
  8
7_ALL_FEATURES
100
AcDbLine
 62
7
  6
CONTINUOUS
 10
86.9617021277
 20
229.2679521277
 11
65.8619775544
 21
229.2679521277
  0
LINE
  5
3AC
100
AcDbEntity
  8
02___PRT_ALL_AXES
100
AcDbLine
 62
7
  6
CONTINUOUS
 10
97.3617021277
 20
203.7679521277
 11
97.3617021277
 21
200.7679521277
  0
LINE
  5
3AD
100
AcDbEntity
  8
02___PRT_ALL_AXES
100
AcDbLine
 62
7
  6
CONTINUOUS
 10
97.8617021277
 20
194.7679521277
 11
97.8617021277
 21
195.2679521277
  0
LINE
  5
3AE
100
AcDbEntity
  8
02___PRT_ALL_AXES
100
AcDbLine
 62
7
  6
CONTINUOUS
 10
99.3617021277
 20
207.2679521277
 11
99.3617021277
 21
203.7679521277
  0
LINE
  5
3AF
100
AcDbEntity
  8
02___PRT_ALL_AXES
100
AcDbLine
 62
7
  6
CONTINUOUS
 10
99.3617021277
 20
200.7679521277
 11
99.3617021277
 21
196.2679521277
  0
LINE
  5
3B0
100
AcDbEntity
  8
02___PRT_ALL_AXES
100
AcDbLine
 62
7
  6
CONTINUOUS
 10
102.3617021277
 20
194.7679521277
 11
102.3617021277
 21
195.2679521277
  0
LINE
  5
3B1
100
AcDbEntity
  8
7_ALL_FEATURES
100
AcDbLine
 62
7
  6
CONTINUOUS
 10
123.8617021277
 20
239.7679521277
 11
123.3617021277
 21
239.2679521277
  0
LINE
  5
3B2
100
AcDbEntity
  8
02___PRT_ALL_AXES
100
AcDbLine
 62
7
  6
CONTINUOUS
 10
104.3617021277
 20
194.7679521277
 11
104.3617021277
 21
195.2679521277
  0
LINE
  5
3B3
100
AcDbEntity
  8
02___PRT_ALL_AXES
100
AcDbLine
 62
7
  6
CONTINUOUS
 10
107.3617021277
 20
207.2679521277
 11
107.3617021277
 21
203.7679521277
  0
LINE
  5
3B4
100
AcDbEntity
  8
02___PRT_ALL_AXES
100
AcDbLine
 62
7
  6
CONTINUOUS
 10
107.3617021277
 20
200.7679521277
 11
107.3617021277
 21
196.2679521277
  0
LINE
  5
3B5
100
AcDbEntity
  8
7_ALL_FEATURES
100
AcDbLine
 62
7
  6
CONTINUOUS
 10
55.3621005123
 20
239.2679521277
 11
123.3613037431
 21
239.2679521277
  0
LINE
  5
3B6
100
AcDbEntity
  8
7_ALL_FEATURES
100
AcDbLine
 62
7
  6
CONTINUOUS
 10
54.8617021277
 20
239.7679521277
 11
123.8617021277
 21
239.7679521277
  0
LINE
  5
3B7
100
AcDbEntity
  8
02___PRT_ALL_AXES
100
AcDbLine
 62
7
  6
CONTINUOUS
 10
108.8617021277
 20
194.7679521277
 11
108.8617021277
 21
195.2679521277
  0
LINE
  5
3B8
100
AcDbEntity
  8
02___PRT_ALL_AXES
100
AcDbLine
 62
7
  6
CONTINUOUS
 10
109.3617021277
 20
203.7679521277
 11
109.3617021277
 21
200.7679521277
  0
LINE
  5
3B9
100
AcDbEntity
  8
02___PRT_ALL_AXES
100
AcDbLine
 62
7
  6
CONTINUOUS
 10
109.8617021277
 20
194.7679521277
 11
109.8617021277
 21
195.2679521277
  0
LINE
  5
3BA
100
AcDbEntity
  8
02___PRT_ALL_AXES
100
AcDbLine
 62
7
  6
CONTINUOUS
 10
110.3617021277
 20
194.7679521277
 11
110.3617021277
 21
195.2679521277
  0
LINE
  5
3BB
100
AcDbEntity
  8
7_ALL_FEATURES
100
AcDbLine
 62
7
  6
CONTINUOUS
 10
111.3617021277
 20
229.2679521277
 11
111.3617021277
 21
226.2679521277
  0
LINE
  5
3BC
100
AcDbEntity
  8
7_ALL_FEATURES
100
AcDbLine
 62
7
  6
CONTINUOUS
 10
111.3617021277
 20
223.7679521277
 11
111.3617021277
 21
220.7679521277
  0
LINE
  5
3BD
100
AcDbEntity
  8
7_ALL_FEATURES
100
AcDbLine
 62
7
  6
CONTINUOUS
 10
111.3617021277
 20
218.2679521277
 11
111.3617021277
 21
215.2679521277
  0
LINE
  5
3BE
100
AcDbEntity
  8
7_ALL_FEATURES
100
AcDbLine
 62
7
  6
CONTINUOUS
 10
111.3617021277
 20
212.7679521277
 11
111.3617021277
 21
209.7679521277
  0
LINE
  5
3BF
100
AcDbEntity
  8
02___PRT_ALL_AXES
100
AcDbLine
 62
7
  6
CONTINUOUS
 10
111.3617021277
 20
207.2679521277
 11
111.3617021277
 21
203.7679521277
  0
LINE
  5
3C0
100
AcDbEntity
  8
02___PRT_ALL_AXES
100
AcDbLine
 62
7
  6
CONTINUOUS
 10
111.3617021277
 20
200.7679521277
 11
111.3617021277
 21
196.2679521277
  0
LINE
  5
3C1
100
AcDbEntity
  8
3_ALL_AXES
100
AcDbLine
 62
7
  6
CONTINUOUS
 10
112.8617021277
 20
239.2679521277
 11
112.8617021277
 21
229.2679521277
  0
LINE
  5
3C2
100
AcDbEntity
  8
3_ALL_AXES
100
AcDbLine
 62
7
  6
CONTINUOUS
 10
112.8617021277
 20
226.2679521277
 11
112.8617021277
 21
223.7679521277
  0
LINE
  5
3C3
100
AcDbEntity
  8
3_ALL_AXES
100
AcDbLine
 62
7
  6
CONTINUOUS
 10
112.8617021277
 20
220.7679521277
 11
112.8617021277
 21
218.2679521277
  0
LINE
  5
3C4
100
AcDbEntity
  8
3_ALL_AXES
100
AcDbLine
 62
7
  6
CONTINUOUS
 10
112.8617021277
 20
215.2679521277
 11
112.8617021277
 21
212.7679521277
  0
LINE
  5
3C5
100
AcDbEntity
  8
3_ALL_AXES
100
AcDbLine
 62
7
  6
CONTINUOUS
 10
112.8617021277
 20
209.7679521277
 11
112.8617021277
 21
207.7679521277
  0
LINE
  5
3C6
100
AcDbEntity
  8
3_ALL_AXES
100
AcDbLine
 62
7
  6
CONTINUOUS
 10
54.8617021277
 20
247.2679521277
 11
123.8617021277
 21
247.2679521277
  0
LINE
  5
3C7
100
AcDbEntity
  8
7_ALL_FEATURES
100
AcDbLine
 62
7
  6
CONTINUOUS
 10
112.8617021277
 20
207.7679521277
 11
112.3617021277
 21
207.2679521277
  0
LINE
  5
3C8
100
AcDbEntity
  8
7_ALL_FEATURES
100
AcDbLine
 62
7
  6
CONTINUOUS
 10
46.8617021277
 20
252.2679521277
 11
131.8617021277
 21
252.2679521277
  0
LINE
  5
3C9
100
AcDbEntity
  8
7_ALL_FEATURES
100
AcDbLine
 62
7
  6
CONTINUOUS
 10
46.8617021277
 20
253.2679521277
 11
131.8617021277
 21
253.2679521277
  0
LINE
  5
3CA
100
AcDbEntity
  8
7_ALL_FEATURES
100
AcDbLine
 62
7
  6
CONTINUOUS
 10
47.8617021277
 20
254.2679521277
 11
130.8617021277
 21
254.2679521277
  0
LINE
  5
3CB
100
AcDbEntity
  8
3_ALL_AXES
100
AcDbLine
 62
7
  6
CONTINUOUS
 10
123.8617021277
 20
252.2679521277
 11
123.8617021277
 21
239.7679521277
  0
LINE
  5
3CC
100
AcDbEntity
  8
02___PRT_ALL_AXES
100
AcDbLine
 62
7
  6
CONTINUOUS
 10
110.3617021277
 20
195.2679521277
 11
111.3617021277
 21
196.2679521277
  0
LINE
  5
3CD
100
AcDbEntity
  8
7_ALL_FEATURES
100
AcDbLine
 62
7
  6
CONTINUOUS
 10
131.8617021277
 20
252.2679521277
 11
131.8617021277
 21
253.2679521277
  0
LINE
  5
3CE
100
AcDbEntity
  8
7_ALL_FEATURES
100
AcDbLine
 62
7
  6
CONTINUOUS
 10
131.8617021277
 20
253.2679521277
 11
130.8617021277
 21
254.2679521277
  0
LINE
  5
3CF
100
AcDbEntity
  8
7_ALL_FEATURES
100
AcDbLine
 62
7
  6
CONTINUOUS
 10
203.8494364165
 20
253.2679521277
 11
204.8494364165
 21
254.2679521277
  0
LINE
  5
3D0
100
AcDbEntity
  8
7_ALL_FEATURES
100
AcDbLine
 62
7
  6
CONTINUOUS
 10
203.8494364165
 20
252.2679521277
 11
203.8494364165
 21
253.2679521277
  0
LINE
  5
3D1
100
AcDbEntity
  8
3_ALL_AXES
100
AcDbLine
 62
7
  6
CONTINUOUS
 10
211.8494364165
 20
252.2679521277
 11
211.8494364165
 21
239.7679521277
  0
LINE
  5
3D2
100
AcDbEntity
  8
7_ALL_FEATURES
100
AcDbLine
 62
7
  6
CONTINUOUS
 10
211.8494364165
 20
239.7679521277
 11
211.8494364165
 21
252.2679521277
  0
LINE
  5
3D3
100
AcDbEntity
  8
02___PRT_ALL_AXES
100
AcDbLine
 62
7
  6
CONTINUOUS
 10
242.861390691
 20
191.2679521277
 11
249.8494364165
 21
191.2679521277
  0
LINE
  5
3D4
100
AcDbEntity
  8
7_ALL_FEATURES
100
AcDbLine
 62
7
  6
CONTINUOUS
 10
242.8494364165
 20
191.2679521277
 11
249.8494364165
 21
191.2679521277
  0
LINE
  5
3D5
100
AcDbEntity
  8
02___PRT_ALL_AXES
100
AcDbLine
 62
9
  6
CONTINUOUS
 10
253.2776396468
 20
194.7679521277
 11
250.6795634354
 21
194.7679521277
  0
LINE
  5
3D6
100
AcDbEntity
  8
02___PRT_ALL_AXES
100
AcDbLine
 62
9
  6
CONTINUOUS
 10
239.4212331862
 20
194.7679521277
 11
242.0193093976
 21
194.7679521277
  0
LINE
  5
3D7
100
AcDbEntity
  8
02___PRT_ALL_AXES
100
AcDbLine
 62
9
  6
CONTINUOUS
 10
243.7513602052
 20
194.7679521277
 11
248.9475126279
 21
194.7679521277
  0
LINE
  5
3D8
100
AcDbEntity
  8
02___PRT_ALL_AXES
100
AcDbLine
 62
7
  6
CONTINUOUS
 10
253.2776396468
 20
195.2679521277
 11
250.6795634354
 21
195.2679521277
  0
LINE
  5
3D9
100
AcDbEntity
  8
02___PRT_ALL_AXES
100
AcDbLine
 62
7
  6
CONTINUOUS
 10
239.4212331862
 20
195.2679521277
 11
242.0193093976
 21
195.2679521277
  0
LINE
  5
3DA
100
AcDbEntity
  8
02___PRT_ALL_AXES
100
AcDbLine
 62
7
  6
CONTINUOUS
 10
243.7513602052
 20
195.2679521277
 11
248.9475126279
 21
195.2679521277
  0
LINE
  5
3DB
100
AcDbEntity
  8
7_ALL_FEATURES
100
AcDbLine
 62
7
  6
CONTINUOUS
 10
222.8494364165
 20
207.7679521277
 11
223.3494364165
 21
207.2679521277
  0
LINE
  5
3DC
100
AcDbEntity
  8
3_ALL_AXES
100
AcDbLine
 62
7
  6
CONTINUOUS
 10
222.8494364165
 20
239.2679521277
 11
222.8494364165
 21
229.2679521277
  0
LINE
  5
3DD
100
AcDbEntity
  8
3_ALL_AXES
100
AcDbLine
 62
7
  6
CONTINUOUS
 10
222.8494364165
 20
226.2679521277
 11
222.8494364165
 21
223.7679521277
  0
LINE
  5
3DE
100
AcDbEntity
  8
3_ALL_AXES
100
AcDbLine
 62
7
  6
CONTINUOUS
 10
222.8494364165
 20
220.7679521277
 11
222.8494364165
 21
218.2679521277
  0
LINE
  5
3DF
100
AcDbEntity
  8
3_ALL_AXES
100
AcDbLine
 62
7
  6
CONTINUOUS
 10
222.8494364165
 20
215.2679521277
 11
222.8494364165
 21
212.7679521277
  0
LINE
  5
3E0
100
AcDbEntity
  8
3_ALL_AXES
100
AcDbLine
 62
7
  6
CONTINUOUS
 10
222.8494364165
 20
209.7679521277
 11
222.8494364165
 21
207.7679521277
  0
LINE
  5
3E1
100
AcDbEntity
  8
7_ALL_FEATURES
100
AcDbLine
 62
7
  6
CONTINUOUS
 10
222.8494364165
 20
207.7679521277
 11
222.8494364165
 21
209.7679521277
  0
LINE
  5
3E2
100
AcDbEntity
  8
7_ALL_FEATURES
100
AcDbLine
 62
7
  6
CONTINUOUS
 10
222.8494364165
 20
229.2679521277
 11
222.8494364165
 21
239.2679521277
  0
LINE
  5
3E3
100
AcDbEntity
  8
7_ALL_FEATURES
100
AcDbLine
 62
7
  6
CONTINUOUS
 10
224.3494364165
 20
229.2679521277
 11
224.3494364165
 21
226.2679521277
  0
LINE
  5
3E4
100
AcDbEntity
  8
7_ALL_FEATURES
100
AcDbLine
 62
7
  6
CONTINUOUS
 10
224.3494364165
 20
223.7679521277
 11
224.3494364165
 21
220.7679521277
  0
LINE
  5
3E5
100
AcDbEntity
  8
7_ALL_FEATURES
100
AcDbLine
 62
7
  6
CONTINUOUS
 10
224.3494364165
 20
218.2679521277
 11
224.3494364165
 21
215.2679521277
  0
LINE
  5
3E6
100
AcDbEntity
  8
7_ALL_FEATURES
100
AcDbLine
 62
7
  6
CONTINUOUS
 10
224.3494364165
 20
212.7679521277
 11
224.3494364165
 21
209.7679521277
  0
LINE
  5
3E7
100
AcDbEntity
  8
02___PRT_ALL_AXES
100
AcDbLine
 62
7
  6
CONTINUOUS
 10
253.2776396468
 20
200.7679521277
 11
239.4212331862
 21
200.7679521277
  0
LINE
  5
3E8
100
AcDbEntity
  8
02___PRT_ALL_AXES
100
AcDbLine
 62
7
  6
CONTINUOUS
 10
253.2776396468
 20
203.7679521277
 11
239.4212331862
 21
203.7679521277
  0
LINE
  5
3E9
100
AcDbEntity
  8
7_ALL_FEATURES
100
AcDbLine
 62
7
  6
CONTINUOUS
 10
269.3494364165
 20
207.2679521277
 11
223.3494364165
 21
207.2679521277
  0
LINE
  5
3EA
100
AcDbEntity
  8
7_ALL_FEATURES
100
AcDbLine
 62
7
  6
CONTINUOUS
 10
269.8494364165
 20
207.7679521277
 11
222.8494364165
 21
207.7679521277
  0
LINE
  5
3EB
100
AcDbEntity
  8
7_ALL_FEATURES
100
AcDbLine
 62
7
  6
CONTINUOUS
 10
222.8494364165
 20
209.7679521277
 11
269.8494364165
 21
209.7679521277
  0
LINE
  5
3EC
100
AcDbEntity
  8
7_ALL_FEATURES
100
AcDbLine
 62
7
  6
CONTINUOUS
 10
211.8494364165
 20
239.7679521277
 11
212.3494364165
 21
239.2679521277
  0
LINE
  5
3ED
100
AcDbEntity
  8
02___PRT_ALL_AXES
100
AcDbLine
 62
7
  6
CONTINUOUS
 10
239.4212331862
 20
207.2679521277
 11
239.4212331862
 21
203.7679521277
  0
LINE
  5
3EE
100
AcDbEntity
  8
02___PRT_ALL_AXES
100
AcDbLine
 62
7
  6
CONTINUOUS
 10
239.4212331862
 20
194.0627900261
 11
239.4212331862
 21
200.7679521277
  0
LINE
  5
3EF
100
AcDbEntity
  8
7_ALL_FEATURES
100
AcDbLine
 62
7
  6
CONTINUOUS
 10
269.8494364165
 20
212.7679521277
 11
222.8494364165
 21
212.7679521277
  0
LINE
  5
3F0
100
AcDbEntity
  8
7_ALL_FEATURES
100
AcDbLine
 62
7
  6
CONTINUOUS
 10
222.8494364165
 20
215.2679521277
 11
269.8494364165
 21
215.2679521277
  0
LINE
  5
3F1
100
AcDbEntity
  8
02___PRT_ALL_AXES
100
AcDbLine
 62
7
  6
CONTINUOUS
 10
240.3494364165
 20
200.7679521277
 11
240.3494364165
 21
203.7679521277
  0
LINE
  5
3F2
100
AcDbEntity
  8
02___PRT_ALL_AXES
100
AcDbLine
 62
7
  6
CONTINUOUS
 10
242.0193093976
 20
194.7679521277
 11
242.0193093976
 21
195.2679521277
  0
LINE
  5
3F3
100
AcDbEntity
  8
7_ALL_FEATURES
100
AcDbLine
 62
7
  6
CONTINUOUS
 10
269.8494364165
 20
218.2679521277
 11
222.8494364165
 21
218.2679521277
  0
LINE
  5
3F4
100
AcDbEntity
  8
02___PRT_ALL_AXES
100
AcDbLine
 62
7
  6
CONTINUOUS
 10
243.7513602052
 20
194.7679521277
 11
243.7513602052
 21
195.2679521277
  0
LINE
  5
3F5
100
AcDbEntity
  8
02___PRT_ALL_AXES
100
AcDbLine
 62
7
  6
CONTINUOUS
 10
246.3494364165
 20
207.2679521277
 11
246.3494364165
 21
203.7679521277
  0
LINE
  5
3F6
100
AcDbEntity
  8
02___PRT_ALL_AXES
100
AcDbLine
 62
7
  6
CONTINUOUS
 10
246.3494364165
 20
200.7679521277
 11
246.3494364165
 21
196.2679521277
  0
LINE
  5
3F7
100
AcDbEntity
  8
7_ALL_FEATURES
100
AcDbLine
 62
7
  6
CONTINUOUS
 10
222.8494364165
 20
220.7679521277
 11
269.8494364165
 21
220.7679521277
  0
LINE
  5
3F8
100
AcDbEntity
  8
02___PRT_ALL_AXES
100
AcDbLine
 62
7
  6
CONTINUOUS
 10
248.9475126279
 20
194.7679521277
 11
248.9475126279
 21
195.2679521277
  0
LINE
  5
3F9
100
AcDbEntity
  8
7_ALL_FEATURES
100
AcDbLine
 62
7
  6
CONTINUOUS
 10
269.8494364165
 20
223.7679521277
 11
222.8494364165
 21
223.7679521277
  0
LINE
  5
3FA
100
AcDbEntity
  8
7_ALL_FEATURES
100
AcDbLine
 62
7
  6
CONTINUOUS
 10
222.8494364165
 20
226.2679521277
 11
269.8494364165
 21
226.2679521277
  0
LINE
  5
3FB
100
AcDbEntity
  8
02___PRT_ALL_AXES
100
AcDbLine
 62
7
  6
CONTINUOUS
 10
272.9494364165
 20
226.6673311851
 11
277.7494364165
 21
226.6673311851
  0
LINE
  5
3FC
100
AcDbEntity
  8
02___PRT_ALL_AXES
100
AcDbLine
 62
7
  6
CONTINUOUS
 10
250.6795634354
 20
194.7679521277
 11
250.6795634354
 21
195.2679521277
  0
LINE
  5
3FD
100
AcDbEntity
  8
02___PRT_ALL_AXES
100
AcDbLine
 62
7
  6
CONTINUOUS
 10
252.3494364165
 20
200.7679521277
 11
252.3494364165
 21
203.7679521277
  0
LINE
  5
3FE
100
AcDbEntity
  8
02___PRT_ALL_AXES
100
AcDbLine
 62
7
  6
CONTINUOUS
 10
253.2776396468
 20
207.2679521277
 11
253.2776396468
 21
203.7679521277
  0
LINE
  5
3FF
100
AcDbEntity
  8
02___PRT_ALL_AXES
100
AcDbLine
 62
7
  6
CONTINUOUS
 10
253.2776396468
 20
194.0627900261
 11
253.2776396468
 21
200.7679521277
  0
LINE
  5
400
100
AcDbEntity
  8
7_ALL_FEATURES
100
AcDbLine
 62
7
  6
CONTINUOUS
 10
269.8494364165
 20
229.2679521277
 11
222.8494364165
 21
229.2679521277
  0
LINE
  5
401
100
AcDbEntity
  8
7_ALL_FEATURES
100
AcDbLine
 62
7
  6
CONTINUOUS
 10
280.8494364165
 20
239.7679521277
 11
280.3494364165
 21
239.2679521277
  0
LINE
  5
402
100
AcDbEntity
  8
7_ALL_FEATURES
100
AcDbLine
 62
7
  6
CONTINUOUS
 10
280.3494364165
 20
239.2679521277
 11
212.3494364165
 21
239.2679521277
  0
LINE
  5
403
100
AcDbEntity
  8
7_ALL_FEATURES
100
AcDbLine
 62
7
  6
CONTINUOUS
 10
280.8494364165
 20
239.7679521277
 11
211.8494364165
 21
239.7679521277
  0
LINE
  5
404
100
AcDbEntity
  8
7_ALL_FEATURES
100
AcDbLine
 62
7
  6
CONTINUOUS
 10
268.3494364165
 20
229.2679521277
 11
268.3494364165
 21
226.2679521277
  0
LINE
  5
405
100
AcDbEntity
  8
7_ALL_FEATURES
100
AcDbLine
 62
7
  6
CONTINUOUS
 10
268.3494364165
 20
223.7679521277
 11
268.3494364165
 21
220.7679521277
  0
LINE
  5
406
100
AcDbEntity
  8
7_ALL_FEATURES
100
AcDbLine
 62
7
  6
CONTINUOUS
 10
268.3494364165
 20
218.2679521277
 11
268.3494364165
 21
215.2679521277
  0
LINE
  5
407
100
AcDbEntity
  8
7_ALL_FEATURES
100
AcDbLine
 62
7
  6
CONTINUOUS
 10
268.3494364165
 20
212.7679521277
 11
268.3494364165
 21
209.7679521277
  0
LINE
  5
408
100
AcDbEntity
  8
3_ALL_AXES
100
AcDbLine
 62
7
  6
CONTINUOUS
 10
269.8494364165
 20
239.2679521277
 11
269.8494364165
 21
229.2679521277
  0
LINE
  5
409
100
AcDbEntity
  8
3_ALL_AXES
100
AcDbLine
 62
7
  6
CONTINUOUS
 10
269.8494364165
 20
226.2679521277
 11
269.8494364165
 21
223.7679521277
  0
LINE
  5
40A
100
AcDbEntity
  8
3_ALL_AXES
100
AcDbLine
 62
7
  6
CONTINUOUS
 10
269.8494364165
 20
220.7679521277
 11
269.8494364165
 21
218.2679521277
  0
LINE
  5
40B
100
AcDbEntity
  8
3_ALL_AXES
100
AcDbLine
 62
7
  6
CONTINUOUS
 10
269.8494364165
 20
215.2679521277
 11
269.8494364165
 21
212.7679521277
  0
LINE
  5
40C
100
AcDbEntity
  8
3_ALL_AXES
100
AcDbLine
 62
7
  6
CONTINUOUS
 10
269.8494364165
 20
209.7679521277
 11
269.8494364165
 21
207.7679521277
  0
LINE
  5
40D
100
AcDbEntity
  8
7_ALL_FEATURES
100
AcDbLine
 62
7
  6
CONTINUOUS
 10
269.8494364165
 20
207.7679521277
 11
269.8494364165
 21
209.7679521277
  0
LINE
  5
40E
100
AcDbEntity
  8
7_ALL_FEATURES
100
AcDbLine
 62
7
  6
CONTINUOUS
 10
269.8494364165
 20
212.7679521277
 11
269.8494364165
 21
215.2679521277
  0
LINE
  5
40F
100
AcDbEntity
  8
7_ALL_FEATURES
100
AcDbLine
 62
7
  6
CONTINUOUS
 10
269.8494364165
 20
218.2679521277
 11
269.8494364165
 21
220.7679521277
  0
LINE
  5
410
100
AcDbEntity
  8
7_ALL_FEATURES
100
AcDbLine
 62
7
  6
CONTINUOUS
 10
269.8494364165
 20
223.7679521277
 11
269.8494364165
 21
226.2679521277
  0
LINE
  5
411
100
AcDbEntity
  8
7_ALL_FEATURES
100
AcDbLine
 62
7
  6
CONTINUOUS
 10
269.8494364165
 20
229.2679521277
 11
269.8494364165
 21
239.2679521277
  0
LINE
  5
412
100
AcDbEntity
  8
3_ALL_AXES
100
AcDbLine
 62
7
  6
CONTINUOUS
 10
280.8494364165
 20
247.2679521277
 11
211.8494364165
 21
247.2679521277
  0
LINE
  5
413
100
AcDbEntity
  8
02___PRT_ALL_AXES
100
AcDbLine
 62
7
  6
CONTINUOUS
 10
272.9494364165
 20
239.2679521277
 11
272.9494364165
 21
226.6673311851
  0
LINE
  5
414
100
AcDbEntity
  8
02___PRT_ALL_AXES
100
AcDbLine
 62
7
  6
CONTINUOUS
 10
277.7494364165
 20
226.6673311851
 11
275.3494364165
 21
222.2679521277
  0
LINE
  5
415
100
AcDbEntity
  8
7_ALL_FEATURES
100
AcDbLine
 62
7
  6
CONTINUOUS
 10
269.8494364165
 20
207.7679521277
 11
269.3494364165
 21
207.2679521277
  0
LINE
  5
416
100
AcDbEntity
  8
02___PRT_ALL_AXES
100
AcDbLine
 62
7
  6
CONTINUOUS
 10
272.9494364165
 20
226.6673311851
 11
275.3494364165
 21
222.2679521277
  0
LINE
  5
417
100
AcDbEntity
  8
02___PRT_ALL_AXES
100
AcDbLine
 62
7
  6
CONTINUOUS
 10
277.7494364165
 20
239.2679521277
 11
277.7494364165
 21
226.6673311851
  0
LINE
  5
418
100
AcDbEntity
  8
7_ALL_FEATURES
100
AcDbLine
 62
7
  6
CONTINUOUS
 10
203.8494364165
 20
252.2679521277
 11
288.8494364165
 21
252.2679521277
  0
LINE
  5
419
100
AcDbEntity
  8
7_ALL_FEATURES
100
AcDbLine
 62
7
  6
CONTINUOUS
 10
203.8494364165
 20
253.2679521277
 11
288.8494364165
 21
253.2679521277
  0
LINE
  5
41A
100
AcDbEntity
  8
7_ALL_FEATURES
100
AcDbLine
 62
7
  6
CONTINUOUS
 10
204.8494364165
 20
254.2679521277
 11
287.8494364165
 21
254.2679521277
  0
LINE
  5
41B
100
AcDbEntity
  8
3_ALL_AXES
100
AcDbLine
 62
7
  6
CONTINUOUS
 10
280.8494364165
 20
252.2679521277
 11
280.8494364165
 21
239.7679521277
  0
LINE
  5
41C
100
AcDbEntity
  8
7_ALL_FEATURES
100
AcDbLine
 62
7
  6
CONTINUOUS
 10
280.8494364165
 20
239.7679521277
 11
280.8494364165
 21
252.2679521277
  0
LINE
  5
41D
100
AcDbEntity
  8
7_ALL_FEATURES
100
AcDbLine
 62
7
  6
CONTINUOUS
 10
288.8494364165
 20
252.2679521277
 11
288.8494364165
 21
253.2679521277
  0
LINE
  5
41E
100
AcDbEntity
  8
7_ALL_FEATURES
100
AcDbLine
 62
7
  6
CONTINUOUS
 10
288.8494364165
 20
253.2679521277
 11
287.8494364165
 21
254.2679521277
  0
LINE
  5
41F
100
AcDbEntity
  8
7_ALL_FEATURES
100
AcDbLine
 62
7
  6
CONTINUOUS
 10
271.7749126358
 20
123.3328297358
 11
271.7749126358
 21
124.1988551396
  0
LINE
  5
420
100
AcDbEntity
  8
7_ALL_FEATURES
100
AcDbLine
 62
7
  6
CONTINUOUS
 10
271.7749126358
 20
124.1988551396
 11
273.1891261981
 21
125.0648805433
  0
LINE
  5
421
100
AcDbEntity
  8
7_ALL_FEATURES
100
AcDbLine
 62
7
  6
CONTINUOUS
 10
331.8789890366
 20
154.4098119626
 11
273.1891261981
 21
125.0648805433
  0
LINE
  5
422
100
AcDbEntity
  8
3_ALL_AXES
100
AcDbLine
 62
7
  6
CONTINUOUS
 10
308.3789890366
 20
99.7905888017
 11
308.3789890366
 21
98.6511057279
  0
LINE
  5
423
100
AcDbEntity
  8
3_ALL_AXES
100
AcDbLine
 62
7
  6
CONTINUOUS
 10
308.3789890366
 20
96.0530295166
 11
308.3789890366
 21
93.8879660071
  0
LINE
  5
424
100
AcDbEntity
  8
3_ALL_AXES
100
AcDbLine
 62
7
  6
CONTINUOUS
 10
308.3789890366
 20
91.2898897958
 11
308.3789890366
 21
89.1248262863
  0
LINE
  5
425
100
AcDbEntity
  8
3_ALL_AXES
100
AcDbLine
 62
7
  6
CONTINUOUS
 10
308.3789890366
 20
86.5267500749
 11
308.3789890366
 21
84.7946992674
  0
LINE
  5
426
100
AcDbEntity
  8
3_ALL_AXES
100
AcDbLine
 62
7
  6
CONTINUOUS
 10
313.3789890366
 20
124.6318678415
 11
313.3789890366
 21
123.5587475803
  0
LINE
  5
427
100
AcDbEntity
  8
7_ALL_FEATURES
100
AcDbLine
 62
7
  6
CONTINUOUS
 10
271.7749126358
 20
123.3328297358
 11
331.8789890366
 21
93.2807915354
  0
LINE
  5
428
100
AcDbEntity
  8
7_ALL_FEATURES
100
AcDbLine
 62
7
  6
CONTINUOUS
 10
271.7749126358
 20
124.1988551396
 11
331.8789890366
 21
94.1468169391
  0
LINE
  5
429
100
AcDbEntity
  8
7_ALL_FEATURES
100
AcDbLine
 62
7
  6
CONTINUOUS
 10
273.1891261981
 20
125.0648805433
 11
331.8789890366
 21
95.7199491241
  0
LINE
  5
42A
100
AcDbEntity
  8
7_ALL_FEATURES
100
AcDbLine
 62
7
  6
CONTINUOUS
 10
347.2087875555
 20
135.9104782189
 11
346.6815163757
 21
135.646842629
  0
LINE
  5
42B
100
AcDbEntity
  8
7_ALL_FEATURES
100
AcDbLine
 62
7
  6
CONTINUOUS
 10
353.9466534009
 20
139.2793739889
 11
347.5827295245
 21
136.0974120507
  0
LINE
  5
42C
100
AcDbEntity
  8
7_ALL_FEATURES
100
AcDbLine
 62
7
  6
CONTINUOUS
 10
346.8074640434
 20
135.6440561762
 11
347.2745478422
 21
135.8775980755
  0
LINE
  5
42D
100
AcDbEntity
  8
7_ALL_FEATURES
100
AcDbLine
 62
7
  6
CONTINUOUS
 10
347.7658923568
 20
136.097374898
 11
353.9466534009
 21
139.18775542
  0
LINE
  5
42E
100
AcDbEntity
  8
7_ALL_FEATURES
100
AcDbLine
 62
7
  6
CONTINUOUS
 10
346.9074419707
 20
135.5338798315
 11
346.9676293517
 21
135.563973522
  0
LINE
  5
42F
100
AcDbEntity
  8
7_ALL_FEATURES
100
AcDbLine
 62
7
  6
CONTINUOUS
 10
351.5949615226
 20
137.6363327928
 11
348.625345866
 21
136.1515249645
  0
LINE
  5
430
100
AcDbEntity
  8
7_ALL_FEATURES
100
AcDbLine
 62
7
  6
CONTINUOUS
 10
347.6316967888
 20
135.4989934421
 11
347.443704105
 21
135.4049971002
  0
LINE
  5
431
100
AcDbEntity
  8
7_ALL_FEATURES
100
AcDbLine
 62
7
  6
CONTINUOUS
 10
347.513811258
 20
135.3770768429
 11
347.6946706227
 21
135.4675065252
  0
LINE
  5
432
100
AcDbEntity
  8
7_ALL_FEATURES
100
AcDbLine
 62
7
  6
CONTINUOUS
 10
347.845659213
 20
135.39201223
 11
347.6647998484
 21
135.3015825477
  0
LINE
  5
433
100
AcDbEntity
  8
7_ALL_FEATURES
100
AcDbLine
 62
7
  6
CONTINUOUS
 10
349.3343680753
 20
136.1356979125
 11
351.9652996793
 21
137.4511637145
  0
LINE
  5
434
100
AcDbEntity
  8
7_ALL_FEATURES
100
AcDbLine
 62
7
  6
CONTINUOUS
 10
347.7207146684
 20
135.2664918185
 11
347.9087073523
 21
135.3604881604
  0
LINE
  5
435
100
AcDbEntity
  8
7_ALL_FEATURES
100
AcDbLine
 62
7
  6
CONTINUOUS
 10
348.2800114793
 20
134.8581464452
 11
348.3602613206
 21
134.8982713659
  0
LINE
  5
436
100
AcDbEntity
  8
7_ALL_FEATURES
100
AcDbLine
 62
7
  6
CONTINUOUS
 10
348.5038193701
 20
134.9700503907
 11
348.5849608764
 21
135.0106211438
  0
LINE
  5
437
100
AcDbEntity
  8
7_ALL_FEATURES
100
AcDbLine
 62
7
  6
CONTINUOUS
 10
349.8976402256
 20
135.5153777847
 11
350.2363242782
 21
135.684719811
  0
LINE
  5
438
100
AcDbEntity
  8
7_ALL_FEATURES
100
AcDbLine
 62
7
  6
CONTINUOUS
 10
349.1415455399
 20
134.5700457995
 11
349.151205243
 21
134.5748756511
  0
LINE
  5
439
100
AcDbEntity
  8
7_ALL_FEATURES
100
AcDbLine
 62
7
  6
CONTINUOUS
 10
350.7874846468
 20
134.1211296732
 11
350.2602134671
 21
133.8574940833
  0
LINE
  5
43A
100
AcDbEntity
  8
7_ALL_FEATURES
100
AcDbLine
 62
7
  6
CONTINUOUS
 10
350.3860868293
 20
133.8547447832
 11
350.8531706281
 21
134.0882866826
  0
LINE
  5
43B
100
AcDbEntity
  8
7_ALL_FEATURES
100
AcDbLine
 62
7
  6
CONTINUOUS
 10
350.4860276039
 20
133.7445870149
 11
350.5462149849
 21
133.7746807054
  0
LINE
  5
43C
100
AcDbEntity
  8
7_ALL_FEATURES
100
AcDbLine
 62
7
  6
CONTINUOUS
 10
351.2272240552
 20
133.7012298089
 11
350.9001316463
 21
133.5376836045
  0
LINE
  5
43D
100
AcDbEntity
  8
7_ALL_FEATURES
100
AcDbLine
 62
7
  6
CONTINUOUS
 10
350.9629197166
 20
133.5062895693
 11
351.2900121255
 21
133.6698357738
  0
LINE
  5
43E
100
AcDbEntity
  8
7_ALL_FEATURES
100
AcDbLine
 62
7
  6
CONTINUOUS
 10
355.8359427212
 20
135.5158421935
 11
352.8663270646
 21
134.0310343652
  0
LINE
  5
43F
100
AcDbEntity
  8
7_ALL_FEATURES
100
AcDbLine
 62
7
  6
CONTINUOUS
 10
351.9979197537
 20
133.3160305705
 11
351.9418934756
 21
133.2880174314
  0
LINE
  5
440
100
AcDbEntity
  8
7_ALL_FEATURES
100
AcDbLine
 62
7
  6
CONTINUOUS
 10
351.7216522444
 20
133.1778968158
 11
351.6593843119
 21
133.1467628496
  0
LINE
  5
441
100
AcDbEntity
  8
7_ALL_FEATURES
100
AcDbLine
 62
7
  6
CONTINUOUS
 10
351.7398570695
 20
133.1240625473
 11
352.0608564348
 21
133.2845622299
  0
LINE
  5
442
100
AcDbEntity
  8
7_ALL_FEATURES
100
AcDbLine
 62
7
  6
CONTINUOUS
 10
353.5752006631
 20
134.0152816186
 11
356.2061322671
 21
135.3307474206
  0
LINE
  5
443
100
AcDbEntity
  8
7_ALL_FEATURES
100
AcDbLine
 62
7
  6
CONTINUOUS
 10
352.7860029178
 20
133.2016745466
 11
352.1789277292
 21
132.8981369523
  0
LINE
  5
444
100
AcDbEntity
  8
7_ALL_FEATURES
100
AcDbLine
 62
7
  6
CONTINUOUS
 10
352.2417901049
 20
132.8667057644
 11
352.392184252
 21
132.941902838
  0
LINE
  5
445
100
AcDbEntity
  8
7_ALL_FEATURES
100
AcDbLine
 62
7
  6
CONTINUOUS
 10
352.5251909335
 20
133.0084061787
 11
352.8488652935
 21
133.1702433587
  0
LINE
  5
446
100
AcDbEntity
  8
7_ALL_FEATURES
100
AcDbLine
 62
7
  6
CONTINUOUS
 10
352.582554709
 20
132.8840189246
 11
352.3948592467
 21
132.7901711935
  0
LINE
  5
447
100
AcDbEntity
  8
7_ALL_FEATURES
100
AcDbLine
 62
7
  6
CONTINUOUS
 10
352.4578702332
 20
132.7586657002
 11
352.6529962363
 21
132.8562287018
  0
LINE
  5
448
100
AcDbEntity
  8
7_ALL_FEATURES
100
AcDbLine
 62
7
  6
CONTINUOUS
 10
354.1386585769
 20
133.3948686091
 11
354.4773426295
 21
133.5642106354
  0
LINE
  5
449
100
AcDbEntity
  8
7_ALL_FEATURES
100
AcDbLine
 62
7
  6
CONTINUOUS
 10
353.2102868012
 20
132.7096984359
 11
353.1515855284
 21
132.6803477995
  0
LINE
  5
44A
100
AcDbEntity
  8
7_ALL_FEATURES
100
AcDbLine
 62
7
  6
CONTINUOUS
 10
353.3696719028
 20
132.7551361933
 11
353.2445415946
 21
132.6925710392
  0
LINE
  5
44B
100
AcDbEntity
  8
7_ALL_FEATURES
100
AcDbLine
 62
7
  6
CONTINUOUS
 10
353.1858403218
 20
132.6632204028
 11
352.9173005749
 21
132.5289505294
  0
LINE
  5
44C
100
AcDbEntity
  8
7_ALL_FEATURES
100
AcDbLine
 62
7
  6
CONTINUOUS
 10
360.1272658342
 20
136.0974492034
 11
353.9465047901
 21
133.0070686813
  0
LINE
  5
44D
100
AcDbEntity
  8
7_ALL_FEATURES
100
AcDbLine
 62
7
  6
CONTINUOUS
 10
353.3074782757
 20
132.6611026987
 11
353.4326085839
 21
132.7236678528
  0
LINE
  5
44E
100
AcDbEntity
  8
7_ALL_FEATURES
100
AcDbLine
 62
7
  6
CONTINUOUS
 10
352.980237256
 20
132.4974821888
 11
353.2487770029
 21
132.6317520623
  0
LINE
  5
44F
100
AcDbEntity
  8
7_ALL_FEATURES
100
AcDbLine
 62
7
  6
CONTINUOUS
 10
353.3102275758
 20
132.6010267758
 11
353.3689288487
 21
132.6303774122
  0
LINE
  5
450
100
AcDbEntity
  8
7_ALL_FEATURES
100
AcDbLine
 62
7
  6
CONTINUOUS
 10
353.9466534009
 20
132.9154501125
 11
360.3105772773
 21
136.0974120507
  0
LINE
  5
451
100
AcDbEntity
  8
7_ALL_FEATURES
100
AcDbLine
 62
7
  6
CONTINUOUS
 10
331.8789890366
 20
93.2807915354
 11
331.8789890366
 21
95.7199491241
  0
LINE
  5
452
100
AcDbEntity
  8
7_ALL_FEATURES
100
AcDbLine
 62
7
  6
CONTINUOUS
 10
351.1603408196
 20
114.1994597804
 11
352.8333734271
 21
113.9753159124
  0
LINE
  5
453
100
AcDbEntity
  8
7_ALL_FEATURES
100
AcDbLine
 62
7
  6
CONTINUOUS
 10
353.6098305624
 20
115.4242046518
 11
351.9367979549
 21
115.6483485199
  0
LINE
  5
454
100
AcDbEntity
  8
02___PRT_ALL_AXES
100
AcDbLine
 62
7
  6
CONTINUOUS
 10
350.1072360327
 20
90.5310379869
 11
352.385085691
 21
87.099019295
  0
LINE
  5
455
100
AcDbEntity
  8
7_ALL_FEATURES
100
AcDbLine
 62
7
  6
CONTINUOUS
 10
351.9367979549
 20
115.6483485199
 11
350.7120530836
 21
115.0359760842
  0
LINE
  5
456
100
AcDbEntity
  8
7_ALL_FEATURES
100
AcDbLine
 62
7
  6
CONTINUOUS
 10
352.8333734271
 20
113.9753159124
 11
354.0581182985
 21
114.5876883481
  0
LINE
  5
457
100
AcDbEntity
  8
7_ALL_FEATURES
100
AcDbLine
 62
7
  6
CONTINUOUS
 10
349.8883148968
 20
134.2078069324
 11
349.911275268
 21
134.3291848174
  0
LINE
  5
458
100
AcDbEntity
  8
7_ALL_FEATURES
100
AcDbLine
 62
7
  6
CONTINUOUS
 10
349.8232233588
 20
134.3362066785
 11
349.7972907712
 21
134.2065065877
  0
LINE
  5
459
100
AcDbEntity
  8
7_ALL_FEATURES
100
AcDbLine
 62
7
  6
CONTINUOUS
 10
349.8575524576
 20
134.0589731989
 11
349.8798440802
 21
134.1644868791
  0
LINE
  5
45A
100
AcDbEntity
  8
7_ALL_FEATURES
100
AcDbLine
 62
7
  6
CONTINUOUS
 10
349.7904175209
 20
134.1638738595
 11
349.7765224095
 21
134.0994882229
  0
LINE
  5
45B
100
AcDbEntity
  8
7_ALL_FEATURES
100
AcDbLine
 62
7
  6
CONTINUOUS
 10
349.9198575427
 20
134.370517201
 11
349.9246502416
 21
134.3904124741
  0
LINE
  5
45C
100
AcDbEntity
  8
02___PRT_ALL_AXES
100
AcDbLine
 62
7
  6
CONTINUOUS
 10
347.635085691
 20
114.8118322161
 11
347.635085691
 21
114.1190118931
  0
LINE
  5
45D
100
AcDbEntity
  8
02___PRT_ALL_AXES
100
AcDbLine
 62
7
  6
CONTINUOUS
 10
349.985085691
 20
97.6919778408
 11
349.985085691
 21
90.9089933196
  0
LINE
  5
45E
100
AcDbEntity
  8
3_ALL_AXES
100
AcDbLine
 62
7
  6
CONTINUOUS
 10
350.3789890366
 20
124.6318678415
 11
350.3789890366
 21
123.553124375
  0
LINE
  5
45F
100
AcDbEntity
  8
7_ALL_FEATURES
100
AcDbLine
 62
7
  6
CONTINUOUS
 10
350.0196497066
 20
134.1700783611
 11
350.0209500512
 21
134.2128225475
  0
LINE
  5
460
100
AcDbEntity
  8
7_ALL_FEATURES
100
AcDbLine
 62
7
  6
CONTINUOUS
 10
352.8192917409
 20
134.9801001972
 11
352.9491775952
 21
135.6634127351
  0
LINE
  5
461
100
AcDbEntity
  8
7_ALL_FEATURES
100
AcDbLine
 62
7
  6
CONTINUOUS
 10
352.4529660763
 20
135.7028689071
 11
352.3072531699
 21
134.972335282
  0
LINE
  5
462
100
AcDbEntity
  8
7_ALL_FEATURES
100
AcDbLine
 62
7
  6
CONTINUOUS
 10
352.6458629171
 20
134.1411178281
 11
352.7719591956
 21
134.7359697771
  0
LINE
  5
463
100
AcDbEntity
  8
7_ALL_FEATURES
100
AcDbLine
 62
7
  6
CONTINUOUS
 10
352.2676483871
 20
134.7319201323
 11
352.1889589593
 21
134.369569807
  0
LINE
  5
464
100
AcDbEntity
  8
7_ALL_FEATURES
100
AcDbLine
 62
7
  6
CONTINUOUS
 10
352.9967330568
 20
135.8959886642
 11
353.024226058
 21
136.0081155258
  0
LINE
  5
465
100
AcDbEntity
  8
7_ALL_FEATURES
100
AcDbLine
 62
7
  6
CONTINUOUS
 10
331.8789890366
 20
95.7199491241
 11
390.5688518751
 21
125.0648805433
  0
LINE
  5
466
100
AcDbEntity
  8
7_ALL_FEATURES
100
AcDbLine
 62
7
  6
CONTINUOUS
 10
331.8789890366
 20
94.1468169391
 11
391.9830654375
 21
124.1988551396
  0
LINE
  5
467
100
AcDbEntity
  8
7_ALL_FEATURES
100
AcDbLine
 62
7
  6
CONTINUOUS
 10
331.8789890366
 20
93.2807915354
 11
391.9830654375
 21
123.3328297358
  0
LINE
  5
468
100
AcDbEntity
  8
7_ALL_FEATURES
100
AcDbLine
 62
7
  6
CONTINUOUS
 10
349.8798440802
 20
134.1644868791
 11
350.0196497066
 21
134.1700783611
  0
LINE
  5
469
100
AcDbEntity
  8
7_ALL_FEATURES
100
AcDbLine
 62
7
  6
CONTINUOUS
 10
350.0209500512
 20
134.2128225475
 11
349.8883148968
 21
134.2078069324
  0
LINE
  5
46A
100
AcDbEntity
  8
7_ALL_FEATURES
100
AcDbLine
 62
7
  6
CONTINUOUS
 10
350.7120530836
 20
115.0359760842
 11
351.1603408196
 21
114.1994597804
  0
LINE
  5
46B
100
AcDbEntity
  8
7_ALL_FEATURES
100
AcDbLine
 62
7
  6
CONTINUOUS
 10
354.0581182985
 20
114.5876883481
 11
353.6098305624
 21
115.4242046518
  0
LINE
  5
46C
100
AcDbEntity
  8
7_ALL_FEATURES
100
AcDbLine
 62
7
  6
CONTINUOUS
 10
351.9367979549
 20
115.6483485199
 11
351.9367979549
 21
114.0954342493
  0
LINE
  5
46D
100
AcDbEntity
  8
7_ALL_FEATURES
100
AcDbLine
 62
7
  6
CONTINUOUS
 10
353.6098305624
 20
115.4242046518
 11
353.6098305624
 21
114.3635444801
  0
LINE
  5
46E
100
AcDbEntity
  8
02___PRT_ALL_AXES
100
AcDbLine
 62
7
  6
CONTINUOUS
 10
354.785085691
 20
99.5139904269
 11
354.785085691
 21
90.9089933196
  0
LINE
  5
46F
100
AcDbEntity
  8
3_ALL_AXES
100
AcDbLine
 62
7
  6
CONTINUOUS
 10
355.3789890366
 20
99.7962593574
 11
355.3789890366
 21
98.6511057279
  0
LINE
  5
470
100
AcDbEntity
  8
3_ALL_AXES
100
AcDbLine
 62
7
  6
CONTINUOUS
 10
355.3789890366
 20
96.0530295166
 11
355.3789890366
 21
93.8879660071
  0
LINE
  5
471
100
AcDbEntity
  8
3_ALL_AXES
100
AcDbLine
 62
7
  6
CONTINUOUS
 10
355.3789890366
 20
91.2898897958
 11
355.3789890366
 21
89.1248262863
  0
LINE
  5
472
100
AcDbEntity
  8
3_ALL_AXES
100
AcDbLine
 62
7
  6
CONTINUOUS
 10
355.3789890366
 20
86.5267500749
 11
355.3789890366
 21
84.7946992674
  0
LINE
  5
473
100
AcDbEntity
  8
7_ALL_FEATURES
100
AcDbLine
 62
7
  6
CONTINUOUS
 10
353.5595222219
 20
134.7673638122
 11
353.5676958168
 21
135.0077418092
  0
LINE
  5
474
100
AcDbEntity
  8
7_ALL_FEATURES
100
AcDbLine
 62
7
  6
CONTINUOUS
 10
352.7719591956
 20
134.7359697771
 11
353.5595222219
 21
134.7673638122
  0
LINE
  5
475
100
AcDbEntity
  8
7_ALL_FEATURES
100
AcDbLine
 62
7
  6
CONTINUOUS
 10
353.5676958168
 20
135.0077418092
 11
352.8192917409
 21
134.9801001972
  0
LINE
  5
476
100
AcDbEntity
  8
7_ALL_FEATURES
100
AcDbLine
 62
7
  6
CONTINUOUS
 10
349.8322886187
 20
134.3792295101
 11
349.77570505
 21
134.3837435637
  0
LINE
  5
477
100
AcDbEntity
  8
7_ALL_FEATURES
100
AcDbLine
 62
7
  6
CONTINUOUS
 10
352.5041253501
 20
135.9450859629
 11
352.1851322308
 21
135.9706841762
  0
LINE
  5
478
100
AcDbEntity
  8
7_ALL_FEATURES
100
AcDbLine
 62
7
  6
CONTINUOUS
 10
349.8125976854
 20
134.3372098015
 11
349.8232233588
 21
134.3362066785
  0
LINE
  5
479
100
AcDbEntity
  8
7_ALL_FEATURES
100
AcDbLine
 62
7
  6
CONTINUOUS
 10
352.3938932764
 20
135.7087761871
 11
352.4529660763
 21
135.7028689071
  0
LINE
  5
47A
100
AcDbEntity
  8
7_ALL_FEATURES
100
AcDbLine
 62
7
  6
CONTINUOUS
 10
353.0754224845
 20
135.8880008327
 11
352.9967330568
 21
135.8959886642
  0
LINE
  5
47B
100
AcDbEntity
  8
7_ALL_FEATURES
100
AcDbLine
 62
7
  6
CONTINUOUS
 10
349.9337155015
 20
134.3690868219
 11
349.9198575427
 21
134.370517201
  0
LINE
  5
47C
100
AcDbEntity
  8
02___PRT_ALL_AXES
100
AcDbLine
 62
7
  6
CONTINUOUS
 10
357.135085691
 20
114.8118322161
 11
357.135085691
 21
114.1190118931
  0
LINE
  5
47D
100
AcDbEntity
  8
7_ALL_FEATURES
100
AcDbLine
 62
7
  6
CONTINUOUS
 10
351.4397375239
 20
133.2284987991
 11
351.3768008428
 21
133.2599671397
  0
LINE
  5
47E
100
AcDbEntity
  8
7_ALL_FEATURES
100
AcDbLine
 62
7
  6
CONTINUOUS
 10
346.6815163757
 20
135.646842629
 11
346.9074419707
 21
135.5338798315
  0
LINE
  5
47F
100
AcDbEntity
  8
7_ALL_FEATURES
100
AcDbLine
 62
7
  6
CONTINUOUS
 10
350.2602134671
 20
133.8574940833
 11
350.4860276039
 21
133.7445870149
  0
LINE
  5
480
100
AcDbEntity
  8
7_ALL_FEATURES
100
AcDbLine
 62
7
  6
CONTINUOUS
 10
352.1789277292
 20
132.8981369523
 11
352.2417901049
 21
132.8667057644
  0
LINE
  5
481
100
AcDbEntity
  8
7_ALL_FEATURES
100
AcDbLine
 62
7
  6
CONTINUOUS
 10
352.3948592467
 20
132.7901711935
 11
352.4578702332
 21
132.7586657002
  0
LINE
  5
482
100
AcDbEntity
  8
7_ALL_FEATURES
100
AcDbLine
 62
7
  6
CONTINUOUS
 10
352.9173005749
 20
132.5289505294
 11
352.980237256
 21
132.4974821888
  0
LINE
  5
483
100
AcDbEntity
  8
7_ALL_FEATURES
100
AcDbLine
 62
7
  6
CONTINUOUS
 10
349.7765224095
 20
134.0994882229
 11
349.8575524576
 21
134.0589731989
  0
LINE
  5
484
100
AcDbEntity
  8
7_ALL_FEATURES
100
AcDbLine
 62
7
  6
CONTINUOUS
 10
350.9001316463
 20
133.5376836045
 11
350.9629197166
 21
133.5062895693
  0
LINE
  5
485
100
AcDbEntity
  8
7_ALL_FEATURES
100
AcDbLine
 62
7
  6
CONTINUOUS
 10
350.5462149849
 20
133.7746807054
 11
350.3860868293
 21
133.8547447832
  0
LINE
  5
486
100
AcDbEntity
  8
7_ALL_FEATURES
100
AcDbLine
 62
7
  6
CONTINUOUS
 10
346.9676293517
 20
135.563973522
 11
346.8074640434
 21
135.6440561762
  0
LINE
  5
487
100
AcDbEntity
  8
7_ALL_FEATURES
100
AcDbLine
 62
7
  6
CONTINUOUS
 10
348.8919165195
 20
134.6948603097
 11
349.1415455399
 21
134.5700457995
  0
LINE
  5
488
100
AcDbEntity
  8
7_ALL_FEATURES
100
AcDbLine
 62
7
  6
CONTINUOUS
 10
349.1261643203
 20
134.6252918709
 11
348.9428900298
 21
134.7169290161
  0
LINE
  5
489
100
AcDbEntity
  8
7_ALL_FEATURES
100
AcDbLine
 62
7
  6
CONTINUOUS
 10
353.2487770029
 20
132.6317520623
 11
353.3102275758
 21
132.6010267758
  0
LINE
  5
48A
100
AcDbEntity
  8
7_ALL_FEATURES
100
AcDbLine
 62
7
  6
CONTINUOUS
 10
353.1515855284
 20
132.6803477995
 11
353.1858403218
 21
132.6632204028
  0
LINE
  5
48B
100
AcDbEntity
  8
7_ALL_FEATURES
100
AcDbLine
 62
7
  6
CONTINUOUS
 10
353.3689288487
 20
132.6303774122
 11
353.3074782757
 21
132.6611026987
  0
LINE
  5
48C
100
AcDbEntity
  8
7_ALL_FEATURES
100
AcDbLine
 62
7
  6
CONTINUOUS
 10
353.2445415946
 20
132.6925710392
 11
353.2102868012
 21
132.7096984359
  0
LINE
  5
48D
100
AcDbEntity
  8
7_ALL_FEATURES
100
AcDbLine
 62
7
  6
CONTINUOUS
 10
351.2900121255
 20
133.6698357738
 11
351.2272240552
 21
133.7012298089
  0
LINE
  5
48E
100
AcDbEntity
  8
7_ALL_FEATURES
100
AcDbLine
 62
7
  6
CONTINUOUS
 10
347.9087073523
 20
135.3604881604
 11
347.845659213
 21
135.39201223
  0
LINE
  5
48F
100
AcDbEntity
  8
7_ALL_FEATURES
100
AcDbLine
 62
7
  6
CONTINUOUS
 10
347.6946706227
 20
135.4675065252
 11
347.6316967888
 21
135.4989934421
  0
LINE
  5
490
100
AcDbEntity
  8
7_ALL_FEATURES
100
AcDbLine
 62
7
  6
CONTINUOUS
 10
352.0608564348
 20
133.2845622299
 11
351.9979197537
 21
133.3160305705
  0
LINE
  5
491
100
AcDbEntity
  8
7_ALL_FEATURES
100
AcDbLine
 62
7
  6
CONTINUOUS
 10
353.4326085839
 20
132.7236678528
 11
353.3696719028
 21
132.7551361933
  0
LINE
  5
492
100
AcDbEntity
  8
7_ALL_FEATURES
100
AcDbLine
 62
7
  6
CONTINUOUS
 10
350.8531706281
 20
134.0882866826
 11
350.7874846468
 21
134.1211296732
  0
LINE
  5
493
100
AcDbEntity
  8
7_ALL_FEATURES
100
AcDbLine
 62
7
  6
CONTINUOUS
 10
347.2745478422
 20
135.8775980755
 11
347.2087875555
 21
135.9104782189
  0
LINE
  5
494
100
AcDbEntity
  8
7_ALL_FEATURES
100
AcDbLine
 62
7
  6
CONTINUOUS
 10
352.8488652935
 20
133.1702433587
 11
352.7860029178
 21
133.2016745466
  0
LINE
  5
495
100
AcDbEntity
  8
7_ALL_FEATURES
100
AcDbLine
 62
7
  6
CONTINUOUS
 10
347.5827295245
 20
136.0974120507
 11
353.9466534009
 21
132.9154501125
  0
LINE
  5
496
100
AcDbEntity
  8
7_ALL_FEATURES
100
AcDbLine
 62
7
  6
CONTINUOUS
 10
353.9465047901
 20
133.0070686813
 11
347.7658923568
 21
136.097374898
  0
LINE
  5
497
100
AcDbEntity
  8
7_ALL_FEATURES
100
AcDbLine
 62
7
  6
CONTINUOUS
 10
352.1889589593
 20
134.369569807
 11
352.6458629171
 21
134.1411178281
  0
LINE
  5
498
100
AcDbEntity
  8
7_ALL_FEATURES
100
AcDbLine
 62
7
  6
CONTINUOUS
 10
348.625345866
 20
136.1515249645
 11
349.8976402256
 21
135.5153777847
  0
LINE
  5
499
100
AcDbEntity
  8
7_ALL_FEATURES
100
AcDbLine
 62
7
  6
CONTINUOUS
 10
352.8663270646
 20
134.0310343652
 11
354.1386585769
 21
133.3948686091
  0
LINE
  5
49A
100
AcDbEntity
  8
7_ALL_FEATURES
100
AcDbLine
 62
7
  6
CONTINUOUS
 10
354.4773426295
 20
133.5642106354
 11
353.5752006631
 21
134.0152816186
  0
LINE
  5
49B
100
AcDbEntity
  8
7_ALL_FEATURES
100
AcDbLine
 62
7
  6
CONTINUOUS
 10
350.2363242782
 20
135.684719811
 11
349.3343680753
 21
136.1356979125
  0
LINE
  5
49C
100
AcDbEntity
  8
7_ALL_FEATURES
100
AcDbLine
 62
7
  6
CONTINUOUS
 10
349.0666456879
 20
134.5325958736
 11
349.0436853167
 21
134.574392666
  0
LINE
  5
49D
100
AcDbEntity
  8
02___PRT_ALL_AXES
100
AcDbLine
 62
7
  6
CONTINUOUS
 10
354.6629353494
 20
90.5310379869
 11
352.385085691
 21
87.099019295
  0
LINE
  5
49E
100
AcDbEntity
  8
7_ALL_FEATURES
100
AcDbLine
 62
7
  6
CONTINUOUS
 10
356.2061322671
 20
135.3307474206
 11
355.8359427212
 21
135.5158421935
  0
LINE
  5
49F
100
AcDbEntity
  8
7_ALL_FEATURES
100
AcDbLine
 62
7
  6
CONTINUOUS
 10
351.9652996793
 20
137.4511637145
 11
351.5949615226
 21
137.6363327928
  0
LINE
  5
4A0
100
AcDbEntity
  8
7_ALL_FEATURES
100
AcDbLine
 62
7
  6
CONTINUOUS
 10
353.9466534009
 20
139.18775542
 11
360.1272658342
 21
136.0974492034
  0
LINE
  5
4A1
100
AcDbEntity
  8
7_ALL_FEATURES
100
AcDbLine
 62
7
  6
CONTINUOUS
 10
360.3105772773
 20
136.0974120507
 11
353.9466534009
 21
139.2793739889
  0
LINE
  5
4A2
100
AcDbEntity
  8
7_ALL_FEATURES
100
AcDbLine
 62
7
  6
CONTINUOUS
 10
390.5688518751
 20
125.0648805433
 11
331.8789890366
 21
154.4098119626
  0
LINE
  5
4A3
100
AcDbEntity
  8
7_ALL_FEATURES
100
AcDbLine
 62
7
  6
CONTINUOUS
 10
391.9830654375
 20
124.1988551396
 11
390.5688518751
 21
125.0648805433
  0
LINE
  5
4A4
100
AcDbEntity
  8
7_ALL_FEATURES
100
AcDbLine
 62
7
  6
CONTINUOUS
 10
391.9830654375
 20
123.3328297358
 11
391.9830654375
 21
124.1988551396
  0
CIRCLE
  5
4A5
100
AcDbEntity
  8
02___PRT_ALL_AXES
100
AcDbCircle
 62
7
  6
CONTINUOUS
 10
89.3617021277
 20
99.1136968085
 40
18.75
  0
CIRCLE
  5
4A6
100
AcDbEntity
  8
7_ALL_FEATURES
100
AcDbCircle
 62
7
  6
CONTINUOUS
 10
89.3617021277
 20
99.1136968085
 40
18.5
  0
CIRCLE
  5
4A7
100
AcDbEntity
  8
7_ALL_FEATURES
100
AcDbCircle
 62
7
  6
CONTINUOUS
 10
89.3617021277
 20
99.1136968085
 40
18.0
  0
CIRCLE
  5
4A8
100
AcDbEntity
  8
02___PRT_ALL_AXES
100
AcDbCircle
 62
7
  6
CONTINUOUS
 10
89.3617021277
 20
128.1136968085
 40
5.25
  0
CIRCLE
  5
4A9
100
AcDbEntity
  8
02___PRT_ALL_AXES
100
AcDbCircle
 62
7
  6
CONTINUOUS
 10
89.3617021277
 20
70.1136968085
 40
5.25
  0
CIRCLE
  5
4AA
100
AcDbEntity
  8
02___PRT_ALL_AXES
100
AcDbCircle
 62
7
  6
CONTINUOUS
 10
89.3617021277
 20
70.1136968085
 40
4.75
  0
CIRCLE
  5
4AB
100
AcDbEntity
  8
02___PRT_ALL_AXES
100
AcDbCircle
 62
7
  6
CONTINUOUS
 10
89.3617021277
 20
128.1136968085
 40
3.25
  0
CIRCLE
  5
4AC
100
AcDbEntity
  8
7_ALL_FEATURES
100
AcDbCircle
 62
7
  6
CONTINUOUS
 10
89.3617021277
 20
128.1136968085
 40
2.75
  0
ARC
  5
4AD
100
AcDbEntity
  8
02___PRT_ALL_AXES
100
AcDbCircle
 62
7
  6
CONTINUOUS
 10
99.8617021277
 20
194.7679521277
 40
3.5
100
AcDbArc
 50
180.0
 51
270.0
  0
ARC
  5
4AE
100
AcDbEntity
  8
02___PRT_ALL_AXES
100
AcDbCircle
 62
7
  6
CONTINUOUS
 10
106.8617021277
 20
194.7679521277
 40
3.5
100
AcDbArc
 50
270.0
 51
360.0
  0
ARC
  5
4AF
100
AcDbEntity
  8
7_ALL_FEATURES
100
AcDbCircle
 62
7
  6
CONTINUOUS
 10
106.8617021277
 20
194.7679521277
 40
3.5
100
AcDbArc
 50
270.0
 51
360.0
  0
ARC
  5
4B0
100
AcDbEntity
  8
7_ALL_FEATURES
100
AcDbCircle
 62
7
  6
CONTINUOUS
 10
99.8617021277
 20
194.7679521277
 40
3.5
100
AcDbArc
 50
180.0
 51
270.0
  0
ARC
  5
4B1
100
AcDbEntity
  8
02___PRT_ALL_AXES
100
AcDbCircle
 62
7
  6
CONTINUOUS
 10
249.8494364165
 20
194.7679521277
 40
3.5
100
AcDbArc
 50
270.0
 51
348.4316348941
  0
ARC
  5
4B2
100
AcDbEntity
  8
02___PRT_ALL_AXES
100
AcDbCircle
 62
7
  6
CONTINUOUS
 10
242.8494364165
 20
194.7679521277
 40
3.5
100
AcDbArc
 50
191.5683651059
 51
270.0
  0
ARC
  5
4B3
100
AcDbEntity
  8
7_ALL_FEATURES
100
AcDbCircle
 62
7
  6
CONTINUOUS
 10
340.8565033621
 20
131.1476154072
 40
34.477064573
100
AcDbArc
 50
295.8569680616
 51
296.5633002334
  0
ARC
  5
4B4
100
AcDbEntity
  8
7_ALL_FEATURES
100
AcDbCircle
 62
7
  6
CONTINUOUS
 10
333.3654045369
 20
124.357508182
 40
34.4090531865
100
AcDbArc
 50
282.9135319024
 51
285.8101717675
  0
ARC
  5
4B5
100
AcDbEntity
  8
7_ALL_FEATURES
100
AcDbCircle
 62
7
  6
CONTINUOUS
 10
341.1562086356
 20
129.5847560653
 40
33.0162389767
100
AcDbArc
 50
296.5633050323
 51
297.3212384925
  0
ARC
  5
4B6
100
AcDbEntity
  8
7_ALL_FEATURES
100
AcDbCircle
 62
7
  6
CONTINUOUS
 10
318.1587823144
 20
122.9874128768
 40
25.0305947363
100
AcDbArc
 50
234.7426943286
 51
235.875493143
  0
ARC
  5
4B7
100
AcDbEntity
  8
7_ALL_FEATURES
100
AcDbCircle
 62
7
  6
CONTINUOUS
 10
345.6319428558
 20
122.9405243172
 40
24.9734404428
100
AcDbArc
 50
304.108728098
 51
305.25811342
  0
ARC
  5
4B8
100
AcDbEntity
  8
7_ALL_FEATURES
100
AcDbCircle
 62
7
  6
CONTINUOUS
 10
337.9668644884
 20
97.5462058814
 40
23.5454185878
100
AcDbArc
 50
295.5285544618
 51
296.5631538231
  0
ARC
  5
4B9
100
AcDbEntity
  8
7_ALL_FEATURES
100
AcDbCircle
 62
7
  6
CONTINUOUS
 10
338.1942236594
 20
96.1280532318
 40
22.2463767526
100
AcDbArc
 50
296.563148443
 51
297.6877004611
  0
ARC
  5
4BA
100
AcDbEntity
  8
7_ALL_FEATURES
100
AcDbCircle
 62
7
  6
CONTINUOUS
 10
339.853039917
 20
107.9280086866
 40
19.5907177419
100
AcDbArc
 50
300.7819493668
 51
301.1515643952
  0
ARC
  5
4BB
100
AcDbEntity
  8
7_ALL_FEATURES
100
AcDbCircle
 62
7
  6
CONTINUOUS
 10
322.6491955746
 20
92.1002932712
 40
17.2531462268
100
AcDbArc
 50
234.7489083722
 51
236.4079499449
  0
ARC
  5
4BC
100
AcDbEntity
  8
7_ALL_FEATURES
100
AcDbCircle
 62
7
  6
CONTINUOUS
 10
341.1336241745
 20
92.0664321522
 40
17.2111922966
100
AcDbArc
 50
303.600960336
 51
305.2487017732
  0
ARC
  5
4BD
100
AcDbEntity
  8
7_ALL_FEATURES
100
AcDbCircle
 62
7
  6
CONTINUOUS
 10
339.4839946616
 20
120.2290505388
 40
12.2856070068
100
AcDbArc
 50
52.4319450485
 51
54.7446870808
  0
ARC
  5
4BE
100
AcDbEntity
  8
7_ALL_FEATURES
100
AcDbCircle
 62
7
  6
CONTINUOUS
 10
324.2696356416
 20
120.2343952647
 40
12.2787394814
100
AcDbArc
 50
125.2531634906
 51
127.5672432187
  0
ARC
  5
4BF
100
AcDbEntity
  8
7_ALL_FEATURES
100
AcDbCircle
 62
7
  6
CONTINUOUS
 10
345.0875289196
 20
92.9792180603
 40
9.2436486468
100
AcDbArc
 50
321.1723071492
 51
321.4082046855
  0
ARC
  5
4C0
100
AcDbEntity
  8
7_ALL_FEATURES
100
AcDbCircle
 62
7
  6
CONTINUOUS
 10
314.3744047893
 20
86.5192582917
 40
5.9954043863
100
AcDbArc
 50
167.5735240145
 51
179.922513404
  0
ARC
  5
4C1
100
AcDbEntity
  8
7_ALL_FEATURES
100
AcDbCircle
 62
7
  6
CONTINUOUS
 10
314.3744047893
 20
91.2823980125
 40
5.9954043863
100
AcDbArc
 50
167.5735240145
 51
179.922513404
  0
ARC
  5
4C2
100
AcDbEntity
  8
7_ALL_FEATURES
100
AcDbCircle
 62
7
  6
CONTINUOUS
 10
314.3744047893
 20
96.0455377333
 40
5.9954043863
100
AcDbArc
 50
167.5735240145
 51
179.922513404
  0
ARC
  5
4C3
100
AcDbEntity
  8
7_ALL_FEATURES
100
AcDbCircle
 62
7
  6
CONTINUOUS
 10
345.4164693797
 20
123.221777468
 40
5.2254892506
100
AcDbArc
 50
16.9919697703
 51
18.4492652635
  0
ARC
  5
4C4
100
AcDbEntity
  8
02___PRT_ALL_AXES
100
AcDbCircle
 62
7
  6
CONTINUOUS
 10
318.3394542937
 20
123.2224241595
 40
5.2233355465
100
AcDbArc
 50
161.6185740046
 51
163.008228637
  0
ARC
  5
4C5
100
AcDbEntity
  8
02___PRT_ALL_AXES
100
AcDbCircle
 62
7
  6
CONTINUOUS
 10
345.453593786
 20
123.2330381917
 40
5.1867122877
100
AcDbArc
 50
15.8544889427
 51
18.4598309327
  0
ARC
  5
4C6
100
AcDbEntity
  8
7_ALL_FEATURES
100
AcDbCircle
 62
7
  6
CONTINUOUS
 10
318.3017974252
 20
123.2338157617
 40
5.1840114053
100
AcDbArc
 50
161.6217540751
 51
164.1459672104
  0
ARC
  5
4C7
100
AcDbEntity
  8
7_ALL_FEATURES
100
AcDbCircle
 62
7
  6
CONTINUOUS
 10
345.4919048012
 20
123.2449099925
 40
5.1465867134
100
AcDbArc
 50
15.8110007829
 51
16.9911056557
  0
ARC
  5
4C8
100
AcDbEntity
  8
02___PRT_ALL_AXES
100
AcDbCircle
 62
7
  6
CONTINUOUS
 10
318.2660732713
 20
123.2449099928
 40
5.1465867125
100
AcDbArc
 50
163.0088943443
 51
164.1889992172
  0
ARC
  5
4C9
100
AcDbEntity
  8
02___PRT_ALL_AXES
100
AcDbCircle
 62
7
  6
CONTINUOUS
 10
318.1314395494
 20
123.282197863
 40
5.0068871893
100
AcDbArc
 50
164.1797773787
 51
169.2735301571
  0
ARC
  5
4CA
100
AcDbEntity
  8
7_ALL_FEATURES
100
AcDbCircle
 62
7
  6
CONTINUOUS
 10
345.6298092272
 20
123.28305973
 40
5.0035054125
100
AcDbArc
 50
10.5474602709
 51
15.8209376014
  0
ARC
  5
4CB
100
AcDbEntity
  8
7_ALL_FEATURES
100
AcDbCircle
 62
7
  6
CONTINUOUS
 10
318.0786284374
 20
123.2948849661
 40
4.9526487408
100
AcDbArc
 50
164.1202753179
 51
169.4794189261
  0
ARC
  5
4CC
100
AcDbEntity
  8
02___PRT_ALL_AXES
100
AcDbCircle
 62
7
  6
CONTINUOUS
 10
345.6833609695
 20
123.2958508039
 40
4.9485262184
100
AcDbArc
 50
10.3394022389
 51
15.8816767564
  0
ARC
  5
4CD
100
AcDbEntity
  8
02___PRT_ALL_AXES
100
AcDbCircle
 62
7
  6
CONTINUOUS
 10
344.0878800987
 20
78.6092955899
 40
4.7164485897
100
AcDbArc
 50
328.5012613399
 51
329.8617126527
  0
SPLINE
  5
4CE
100
AcDbEntity
  8
7_ALL_FEATURES
100
AcDbSpline
 62
7
  6
CONTINUOUS
 70
0
 71
3
 72
27
 73
23
 74
0
 42
0.0000001
 43
0.0000001
 44
0.0000000001
 40
0.0
 40
0.0
 40
0.0
 40
0.0
 40
0.0826592268
 40
0.1603008642
 40
0.1981468307
 40
0.2364637193
 40
0.2766202277
 40
0.2979198529
 40
0.3203149066
 40
0.3509540815
 40
0.3806626124
 40
0.4379687079
 40
0.493649494
 40
0.548741396
 40
0.6040186376
 40
0.6600763819
 40
0.7174352054
 40
0.7766463716
 40
0.8188766607
 40
0.8605980543
 40
0.9438647411
 40
1.0
 40
1.0
 40
1.0
 40
1.0
 10
119.1434490862
 20
100.1782206623
 30
0.0
 10
119.0731996542
 20
100.2754763618
 30
0.0
 10
118.9337420638
 20
100.4618295003
 30
0.0
 10
118.7289813789
 20
100.6671226858
 30
0.0
 10
118.5421796125
 20
100.7908505629
 30
0.0
 10
118.3876035671
 20
100.8607074844
 30
0.0
 10
118.2464516903
 20
100.896493822
 30
0.0
 10
118.1255201454
 20
100.9111855618
 30
0.0
 10
118.0175962325
 20
100.9152548901
 30
0.0
 10
117.8974283593
 20
100.9092233879
 30
0.0
 10
117.7284051078
 20
100.8832455479
 30
0.0
 10
117.5294420275
 20
100.8200558288
 30
0.0
 10
117.3158632866
 20
100.6986794775
 30
0.0
 10
117.1335540996
 20
100.5385683902
 30
0.0
 10
116.9859176348
 20
100.3454771193
 30
0.0
 10
116.8762101163
 20
100.124937018
 30
0.0
 10
116.8080541326
 20
99.8823779963
 30
0.0
 10
116.7868872078
 20
99.65147983
 30
0.0
 10
116.8013676607
 20
99.4435550146
 30
0.0
 10
116.851766053
 20
99.205452816
 30
0.0
 10
116.954970014
 20
98.9607872686
 30
0.0
 10
117.0654557099
 20
98.7905041543
 30
0.0
 10
117.1140620033
 20
98.7249628109
 30
0.0
  0
SPLINE
  5
4CF
100
AcDbEntity
  8
7_ALL_FEATURES
100
AcDbSpline
 62
7
  6
CONTINUOUS
 70
0
 71
3
 72
9
 73
5
 74
0
 42
0.0000001
 43
0.0000001
 44
0.0000000001
 40
0.0
 40
0.0
 40
0.0
 40
0.0
 40
0.2500059247
 40
1.0
 40
1.0
 40
1.0
 40
1.0
 10
120.2518721296
 20
100.3788254775
 30
0.0
 10
120.1646859701
 20
100.3788254775
 30
0.0
 10
119.8144504358
 20
100.3229021075
 30
0.0
 10
119.5219857399
 20
100.0970700596
 30
0.0
 10
119.3328099436
 20
99.9164571241
 30
0.0
  0
SPLINE
  5
4D0
100
AcDbEntity
  8
7_ALL_FEATURES
100
AcDbSpline
 62
7
  6
CONTINUOUS
 70
0
 71
3
 72
21
 73
17
 74
0
 42
0.0000001
 43
0.0000001
 44
0.0000000001
 40
0.0
 40
0.0
 40
0.0
 40
0.0
 40
0.132904548
 40
0.2483963039
 40
0.3045304646
 40
0.3631218191
 40
0.4273140346
 40
0.4624740996
 40
0.500089529
 40
0.5376505147
 40
0.572766758
 40
0.6369000875
 40
0.6954640554
 40
0.7515917782
 40
0.8670928402
 40
1.0
 40
1.0
 40
1.0
 40
1.0
 10
114.9907507709
 20
102.7309143076
 30
0.0
 10
114.9616317306
 20
102.7309143076
 30
0.0
 10
114.9067111658
 20
102.7254189542
 30
0.0
 10
114.8448647353
 20
102.6949994308
 30
0.0
 10
114.810406098
 20
102.657453804
 30
0.0
 10
114.7915975235
 20
102.6226351534
 30
0.0
 10
114.7824266126
 20
102.5889840034
 30
0.0
 10
114.7786681232
 20
102.5591832118
 30
0.0
 10
114.7777477207
 20
102.5349976565
 30
0.0
 10
114.77866808
 20
102.5108216796
 30
0.0
 10
114.7824275775
 20
102.481055611
 30
0.0
 10
114.7916009595
 20
102.4474346959
 30
0.0
 10
114.8104102244
 20
102.4126399867
 30
0.0
 10
114.8448692873
 20
102.375103639
 30
0.0
 10
114.9067073526
 20
102.3446706541
 30
0.0
 10
114.9616311584
 20
102.3391622119
 30
0.0
 10
114.9907507709
 20
102.3391622119
 30
0.0
  0
SPLINE
  5
4D1
100
AcDbEntity
  8
7_ALL_FEATURES
100
AcDbSpline
 62
7
  6
CONTINUOUS
 70
0
 71
3
 72
21
 73
17
 74
0
 42
0.0000001
 43
0.0000001
 44
0.0000000001
 40
0.0
 40
0.0
 40
0.0
 40
0.0
 40
0.1327833847
 40
0.2504356012
 40
0.3056983919
 40
0.36239354
 40
0.425333033
 40
0.4608299577
 40
0.4997862723
 40
0.5388342666
 40
0.5744105639
 40
0.6374720704
 40
0.6942427883
 40
0.7495444137
 40
0.8672159598
 40
1.0
 40
1.0
 40
1.0
 40
1.0
 10
115.0008388077
 20
102.4283257455
 30
0.0
 10
114.982998883
 20
102.4283257455
 30
0.0
 10
114.9493183388
 20
102.4301397469
 30
0.0
 10
114.9091132174
 20
102.4426914312
 30
0.0
 10
114.8845561683
 20
102.4619836445
 30
0.0
 10
114.8708094216
 20
102.4814587202
 30
0.0
 10
114.8640764226
 20
102.5014627961
 30
0.0
 10
114.861309515
 20
102.5197378083
 30
0.0
 10
114.8606358605
 20
102.5349980556
 30
0.0
 10
114.8613096944
 20
102.550268908
 30
0.0
 10
114.8640758088
 20
102.5685837122
 30
0.0
 10
114.8708061676
 20
102.5886275529
 30
0.0
 10
114.8845509522
 20
102.6081430708
 30
0.0
 10
114.9091046433
 20
102.6274703011
 30
0.0
 10
114.9493152586
 20
102.6400427042
 30
0.0
 10
114.9829987949
 20
102.6418558578
 30
0.0
 10
115.0008388077
 20
102.6418558578
 30
0.0
  0
SPLINE
  5
4D2
100
AcDbEntity
  8
7_ALL_FEATURES
100
AcDbSpline
 62
7
  6
CONTINUOUS
 70
0
 71
3
 72
17
 73
13
 74
0
 42
0.0000001
 43
0.0000001
 44
0.0000000001
 40
0.0
 40
0.0
 40
0.0
 40
0.0
 40
0.1629103694
 40
0.2935549822
 40
0.4168937173
 40
0.5399047389
 40
0.60400217
 40
0.6712141429
 40
0.7362158184
 40
0.7985885138
 40
0.919283909
 40
1.0
 40
1.0
 40
1.0
 40
1.0
 10
115.2400093468
 20
101.3661920793
 30
0.0
 10
115.2611559158
 20
101.4026591217
 30
0.0
 10
115.2783577598
 20
101.4809442415
 30
0.0
 10
115.2587281292
 20
101.5890246474
 30
0.0
 10
115.2046029676
 20
101.6734039679
 30
0.0
 10
115.136064697
 20
101.7196729127
 30
0.0
 10
115.0726977463
 20
101.7387405158
 30
0.0
 10
115.0217991506
 20
101.743632011
 30
0.0
 10
114.9713418899
 20
101.7387099527
 30
0.0
 10
114.9097136267
 20
101.719403231
 30
0.0
 10
114.8520129722
 20
101.6793668589
 30
0.0
 10
114.8206064891
 20
101.636891639
 30
0.0
 10
114.8103519455
 20
101.6185469261
 30
0.0
  0
SPLINE
  5
4D3
100
AcDbEntity
  8
7_ALL_FEATURES
100
AcDbSpline
 62
7
  6
CONTINUOUS
 70
0
 71
3
 72
8
 73
4
 74
0
 42
0.0000001
 43
0.0000001
 44
0.0000000001
 40
0.0
 40
0.0
 40
0.0
 40
0.0
 40
1.0
 40
1.0
 40
1.0
 40
1.0
 10
114.7782714958
 20
101.4938162532
 30
0.0
 10
114.7782714958
 20
101.4500788913
 30
0.0
 10
114.7881738529
 20
101.4047893965
 30
0.0
 10
114.8087457736
 20
101.3661920793
 30
0.0
  0
SPLINE
  5
4D4
100
AcDbEntity
  8
7_ALL_FEATURES
100
AcDbSpline
 62
7
  6
CONTINUOUS
 70
0
 71
3
 72
15
 73
11
 74
0
 42
0.0000001
 43
0.0000001
 44
0.0000000001
 40
0.0
 40
0.0
 40
0.0
 40
0.0
 40
0.1802531275
 40
0.2687906927
 40
0.3612765641
 40
0.4461771889
 40
0.5264460684
 40
0.6791612605
 40
0.8331109072
 40
1.0
 40
1.0
 40
1.0
 40
1.0
 10
114.9222361876
 20
101.3661920793
 30
0.0
 10
114.9043679141
 20
101.3822785447
 30
0.0
 10
114.8807290534
 20
101.4107105216
 30
0.0
 10
114.8637957331
 20
101.4562766857
 30
0.0
 10
114.8598797008
 20
101.4918665779
 30
0.0
 10
114.8630822895
 20
101.5262897304
 30
0.0
 10
114.8750039538
 20
101.567214173
 30
0.0
 10
114.9046079428
 20
101.6114729575
 30
0.0
 10
114.959588067
 20
101.6458925197
 30
0.0
 10
115.0029581005
 20
101.6530706258
 30
0.0
 10
115.02521823
 20
101.6530706258
 30
0.0
  0
SPLINE
  5
4D5
100
AcDbEntity
  8
7_ALL_FEATURES
100
AcDbSpline
 62
7
  6
CONTINUOUS
 70
0
 71
3
 72
9
 73
5
 74
0
 42
0.0000001
 43
0.0000001
 44
0.0000000001
 40
0.0
 40
0.0
 40
0.0
 40
0.0
 40
0.5023468762
 40
1.0
 40
1.0
 40
1.0
 40
1.0
 10
115.02521823
 20
101.6530706258
 30
0.0
 10
115.0657215633
 20
101.6530706258
 30
0.0
 10
115.1493586067
 20
101.621631359
 30
0.0
 10
115.1874674885
 20
101.5387749886
 30
0.0
 10
115.1874674885
 20
101.4986501041
 30
0.0
  0
SPLINE
  5
4D6
100
AcDbEntity
  8
7_ALL_FEATURES
100
AcDbSpline
 62
7
  6
CONTINUOUS
 70
0
 71
3
 72
8
 73
4
 74
0
 42
0.0000001
 43
0.0000001
 44
0.0000000001
 40
0.0
 40
0.0
 40
0.0
 40
0.0
 40
1.0
 40
1.0
 40
1.0
 40
1.0
 10
115.1874674885
 20
101.4986501041
 30
0.0
 10
115.1874674885
 20
101.449870375
 30
0.0
 10
115.1619566339
 20
101.3983272154
 30
0.0
 10
115.1252579282
 20
101.3661920793
 30
0.0
  0
SPLINE
  5
4D7
100
AcDbEntity
  8
7_ALL_FEATURES
100
AcDbSpline
 62
7
  6
CONTINUOUS
 70
0
 71
3
 72
21
 73
17
 74
0
 42
0.0000001
 43
0.0000001
 44
0.0000000001
 40
0.0
 40
0.0
 40
0.0
 40
0.0
 40
0.1300654079
 40
0.24745904
 40
0.3043447126
 40
0.3625445693
 40
0.4247851174
 40
0.4583786656
 40
0.4940661327
 40
0.5303225841
 40
0.5645956416
 40
0.6283774869
 40
0.68813088
 40
0.7464207923
 40
0.866310526
 40
1.0
 40
1.0
 40
1.0
 40
1.0
 10
115.0241673928
 20
100.3495596624
 30
0.0
 10
115.0566331991
 20
100.3495596624
 30
0.0
 10
115.1188812455
 20
100.3566904613
 30
0.0
 10
115.1892276811
 20
100.3906109004
 30
0.0
 10
115.2304994923
 20
100.4321374757
 30
0.0
 10
115.253571461
 20
100.4704127595
 30
0.0
 10
115.2651626701
 20
100.5074467944
 30
0.0
 10
115.269919211
 20
100.5399733705
 30
0.0
 10
115.2710910756
 20
100.5663321933
 30
0.0
 10
115.2699246628
 20
100.5928586849
 30
0.0
 10
115.2652410477
 20
100.6260961813
 30
0.0
 10
115.2537947405
 20
100.6641403102
 30
0.0
 10
115.2309434252
 20
100.7038302261
 30
0.0
 10
115.1898103381
 20
100.7473836343
 30
0.0
 10
115.118477235
 20
100.7838846329
 30
0.0
 10
115.0545954632
 20
100.7915943165
 30
0.0
 10
115.0212250487
 20
100.7915943165
 30
0.0
  0
SPLINE
  5
4D8
100
AcDbEntity
  8
7_ALL_FEATURES
100
AcDbSpline
 62
7
  6
CONTINUOUS
 70
0
 71
3
 72
16
 73
12
 74
0
 42
0.0000001
 43
0.0000001
 44
0.0000000001
 40
0.0
 40
0.0
 40
0.0
 40
0.0
 40
0.1532117584
 40
0.2946326874
 40
0.4342272882
 40
0.5085039738
 40
0.5885790341
 40
0.6413335586
 40
0.6931274681
 40
0.7949137648
 40
1.0
 40
1.0
 40
1.0
 40
1.0
 10
115.0212250487
 20
100.7915943165
 30
0.0
 10
114.988955293
 20
100.7915943165
 30
0.0
 10
114.9262272323
 20
100.7822603218
 30
0.0
 10
114.8445193014
 20
100.736169427
 30
0.0
 10
114.7992208527
 20
100.67332521
 30
0.0
 10
114.7810410609
 20
100.6137379565
 30
0.0
 10
114.7770140166
 20
100.5699909408
 30
0.0
 10
114.7794614416
 20
100.5310911198
 30
0.0
 10
114.7879272859
 20
100.4883356736
 30
0.0
 10
114.816887736
 20
100.4177742959
 30
0.0
 10
114.8666370832
 20
100.3702003698
 30
0.0
 10
114.9045821232
 20
100.3495596624
 30
0.0
  0
SPLINE
  5
4D9
100
AcDbEntity
  8
7_ALL_FEATURES
100
AcDbSpline
 62
7
  6
CONTINUOUS
 70
0
 71
3
 72
9
 73
5
 74
0
 42
0.0000001
 43
0.0000001
 44
0.0000000001
 40
0.0
 40
0.0
 40
0.0
 40
0.0
 40
0.7307894739
 40
1.0
 40
1.0
 40
1.0
 40
1.0
 10
114.9474562796
 20
100.4249046872
 30
0.0
 10
114.9117633643
 20
100.4463877815
 30
0.0
 10
114.8631606004
 20
100.4895532247
 30
0.0
 10
114.8572944507
 20
100.5477956871
 30
0.0
 10
114.8572944507
 20
100.5631423165
 30
0.0
  0
SPLINE
  5
4DA
100
AcDbEntity
  8
7_ALL_FEATURES
100
AcDbSpline
 62
7
  6
CONTINUOUS
 70
0
 71
3
 72
9
 73
5
 74
0
 42
0.0000001
 43
0.0000001
 44
0.0000000001
 40
0.0
 40
0.0
 40
0.0
 40
0.0
 40
0.4972493191
 40
1.0
 40
1.0
 40
1.0
 40
1.0
 10
114.8572944507
 20
100.5631423165
 30
0.0
 10
114.8572944507
 20
100.60035877
 30
0.0
 10
114.8940812649
 20
100.678172071
 30
0.0
 10
114.9728810032
 20
100.7021381033
 30
0.0
 10
115.0105065096
 20
100.7025884085
 30
0.0
  0
SPLINE
  5
4DB
100
AcDbEntity
  8
7_ALL_FEATURES
100
AcDbSpline
 62
7
  6
CONTINUOUS
 70
0
 71
3
 72
17
 73
13
 74
0
 42
0.0000001
 43
0.0000001
 44
0.0000000001
 40
0.0
 40
0.0
 40
0.0
 40
0.0
 40
0.1280676306
 40
0.2505328491
 40
0.3725330656
 40
0.4358980115
 40
0.5022639314
 40
0.5696811137
 40
0.6324293338
 40
0.7503050664
 40
0.869595042
 40
1.0
 40
1.0
 40
1.0
 40
1.0
 10
115.0777600883
 20
100.6977545576
 30
0.0
 10
115.0937164439
 20
100.6950825012
 30
0.0
 10
115.1243972932
 20
100.6849629803
 30
0.0
 10
115.1624345925
 20
100.6557311867
 30
0.0
 10
115.1833287656
 20
100.6217893869
 30
0.0
 10
115.1919254739
 20
100.5910051341
 30
0.0
 10
115.1940570326
 20
100.5660568349
 30
0.0
 10
115.19204209
 20
100.5411858415
 30
0.0
 10
115.1840089348
 20
100.5107461373
 30
0.0
 10
115.1635659447
 20
100.4775317403
 30
0.0
 10
115.1248540283
 20
100.4500591537
 30
0.0
 10
115.094031907
 20
100.441137408
 30
0.0
 10
115.0777600883
 20
100.4385655704
 30
0.0
  0
SPLINE
  5
4DC
100
AcDbEntity
  8
7_ALL_FEATURES
100
AcDbSpline
 62
7
  6
CONTINUOUS
 70
0
 71
3
 72
8
 73
4
 74
0
 42
0.0000001
 43
0.0000001
 44
0.0000000001
 40
0.0
 40
0.0
 40
0.0
 40
0.0
 40
1.0
 40
1.0
 40
1.0
 40
1.0
 10
114.9600663256
 20
99.3717556788
 30
0.0
 10
114.9136046957
 20
99.4183749839
 30
0.0
 10
114.861287632
 20
99.476908631
 30
0.0
 10
114.861287632
 20
99.5427268858
 30
0.0
  0
SPLINE
  5
4DD
100
AcDbEntity
  8
7_ALL_FEATURES
100
AcDbSpline
 62
7
  6
CONTINUOUS
 70
0
 71
3
 72
8
 73
4
 74
0
 42
0.0000001
 43
0.0000001
 44
0.0000000001
 40
0.0
 40
0.0
 40
0.0
 40
0.0
 40
1.0
 40
1.0
 40
1.0
 40
1.0
 10
114.861287632
 20
99.5427268858
 30
0.0
 10
114.861287632
 20
99.6076707387
 30
0.0
 10
114.9333729456
 20
99.6812272244
 30
0.0
 10
114.9983167985
 20
99.6812272244
 30
0.0
  0
SPLINE
  5
4DE
100
AcDbEntity
  8
7_ALL_FEATURES
100
AcDbSpline
 62
7
  6
CONTINUOUS
 70
0
 71
3
 72
8
 73
4
 74
0
 42
0.0000001
 43
0.0000001
 44
0.0000000001
 40
0.0
 40
0.0
 40
0.0
 40
0.0
 40
1.0
 40
1.0
 40
1.0
 40
1.0
 10
114.9983167985
 20
99.6812272244
 30
0.0
 10
115.0675403507
 20
99.6812272244
 30
0.0
 10
115.1164481087
 20
99.6027713299
 30
0.0
 10
115.1557322061
 20
99.5457743136
 30
0.0
  0
SPLINE
  5
4DF
100
AcDbEntity
  8
7_ALL_FEATURES
100
AcDbSpline
 62
7
  6
CONTINUOUS
 70
0
 71
3
 72
13
 73
9
 74
0
 42
0.0000001
 43
0.0000001
 44
0.0000000001
 40
0.0
 40
0.0
 40
0.0
 40
0.0
 40
0.2266930293
 40
0.3384900135
 40
0.4545322516
 40
0.5979807664
 40
0.7311494495
 40
1.0
 40
1.0
 40
1.0
 40
1.0
 10
115.3102052696
 20
99.5417811323
 30
0.0
 10
115.3239238573
 20
99.5525675029
 30
0.0
 10
115.3443395455
 20
99.5690944414
 30
0.0
 10
115.3765440302
 20
99.5835622698
 30
0.0
 10
115.4051658725
 20
99.5879567421
 30
0.0
 10
115.4357840312
 20
99.5820045728
 30
0.0
 10
115.4706548998
 20
99.5566433504
 30
0.0
 10
115.4819120626
 20
99.5238594573
 30
0.0
 10
115.4819120626
 20
99.5031628665
 30
0.0
  0
SPLINE
  5
4E0
100
AcDbEntity
  8
7_ALL_FEATURES
100
AcDbSpline
 62
7
  6
CONTINUOUS
 70
0
 71
3
 72
9
 73
5
 74
0
 42
0.0000001
 43
0.0000001
 44
0.0000000001
 40
0.0
 40
0.0
 40
0.0
 40
0.0
 40
0.5015303471
 40
1.0
 40
1.0
 40
1.0
 40
1.0
 10
115.4819120626
 20
99.5031628665
 30
0.0
 10
115.4819120626
 20
99.4813484469
 30
0.0
 10
115.4700444145
 20
99.4336701049
 30
0.0
 10
115.4226788933
 20
99.4162060909
 30
0.0
 10
115.4009976008
 20
99.4162060909
 30
0.0
  0
SPLINE
  5
4E1
100
AcDbEntity
  8
7_ALL_FEATURES
100
AcDbSpline
 62
7
  6
CONTINUOUS
 70
0
 71
3
 72
8
 73
4
 74
0
 42
0.0000001
 43
0.0000001
 44
0.0000000001
 40
0.0
 40
0.0
 40
0.0
 40
0.0
 40
1.0
 40
1.0
 40
1.0
 40
1.0
 10
115.4009976008
 20
99.4162060909
 30
0.0
 10
115.3526450185
 20
99.4162060909
 30
0.0
 10
115.3164022548
 20
99.4672486617
 30
0.0
 10
115.2864563496
 20
99.5052119989
 30
0.0
  0
SPLINE
  5
4E2
100
AcDbEntity
  8
7_ALL_FEATURES
100
AcDbSpline
 62
7
  6
CONTINUOUS
 70
0
 71
3
 72
8
 73
4
 74
0
 42
0.0000001
 43
0.0000001
 44
0.0000000001
 40
0.0
 40
0.0
 40
0.0
 40
0.0
 40
1.0
 40
1.0
 40
1.0
 40
1.0
 10
115.2141587525
 20
99.4646496843
 30
0.0
 10
115.2595603566
 20
99.4027952054
 30
0.0
 10
115.3234283039
 20
99.329039148
 30
0.0
 10
115.400156931
 20
99.329039148
 30
0.0
  0
SPLINE
  5
4E3
100
AcDbEntity
  8
7_ALL_FEATURES
100
AcDbSpline
 62
7
  6
CONTINUOUS
 70
0
 71
3
 72
15
 73
11
 74
0
 42
0.0000001
 43
0.0000001
 44
0.0000000001
 40
0.0
 40
0.0
 40
0.0
 40
0.0
 40
0.2428967155
 40
0.3642248532
 40
0.4274217221
 40
0.4923642673
 40
0.5612500752
 40
0.6264272867
 40
0.7486967744
 40
1.0
 40
1.0
 40
1.0
 40
1.0
 10
115.400156931
 20
99.329039148
 30
0.0
 10
115.4420622469
 20
99.329039148
 30
0.0
 10
115.5089353185
 20
99.3589244848
 30
0.0
 10
115.5435831396
 20
99.4258459172
 30
0.0
 10
115.5539781168
 20
99.4677508597
 30
0.0
 10
115.5565604318
 20
99.5017929424
 30
0.0
 10
115.5539406264
 20
99.5361905124
 30
0.0
 10
115.5432305804
 20
99.5792304665
 30
0.0
 10
115.5055040715
 20
99.6474407205
 30
0.0
 10
115.4355262024
 20
99.67318832
 30
0.0
 10
115.3921705686
 20
99.67318832
 30
0.0
  0
SPLINE
  5
4E4
100
AcDbEntity
  8
7_ALL_FEATURES
100
AcDbSpline
 62
7
  6
CONTINUOUS
 70
0
 71
3
 72
8
 73
4
 74
0
 42
0.0000001
 43
0.0000001
 44
0.0000000001
 40
0.0
 40
0.0
 40
0.0
 40
0.0
 40
1.0
 40
1.0
 40
1.0
 40
1.0
 10
115.3921705686
 20
99.67318832
 30
0.0
 10
115.3313356147
 20
99.67318832
 30
0.0
 10
115.2732015326
 20
99.633159193
 30
0.0
 10
115.2290806403
 20
99.5912755629
 30
0.0
  0
SPLINE
  5
4E5
100
AcDbEntity
  8
7_ALL_FEATURES
100
AcDbSpline
 62
7
  6
CONTINUOUS
 70
0
 71
3
 72
21
 73
17
 74
0
 42
0.0000001
 43
0.0000001
 44
0.0000000001
 40
0.0
 40
0.0
 40
0.0
 40
0.0
 40
0.0837356597
 40
0.162291479
 40
0.2391436514
 40
0.279844181
 40
0.3241372443
 40
0.3851325473
 40
0.4431056362
 40
0.5545534451
 40
0.6666572162
 40
0.7247034135
 40
0.784641532
 40
0.8693171981
 40
0.9535471067
 40
1.0
 40
1.0
 40
1.0
 40
1.0
 10
115.195453851
 20
99.6376700238
 30
0.0
 10
115.1829764619
 20
99.6549601201
 30
0.0
 10
115.1581830337
 20
99.6880666171
 30
0.0
 10
115.1149715691
 20
99.7315428914
 30
0.0
 10
115.0706184929
 20
99.7564850099
 30
0.0
 10
115.0304452636
 20
99.7665748931
 30
0.0
 10
114.9932233199
 20
99.769321295
 30
0.0
 10
114.951547861
 20
99.7651809335
 30
0.0
 10
114.8952575099
 20
99.7473656393
 30
0.0
 10
114.8351191884
 20
99.7045125763
 30
0.0
 10
114.7966373281
 20
99.6417884701
 30
0.0
 10
114.7807932363
 20
99.5851115026
 30
0.0
 10
114.7759942206
 20
99.5334379828
 30
0.0
 10
114.7842207228
 20
99.4749641088
 30
0.0
 10
114.8057313698
 20
99.4240508955
 30
0.0
 10
114.8235976357
 20
99.3957230018
 30
0.0
 10
114.8304696154
 20
99.3860059938
 30
0.0
  0
SPLINE
  5
4E6
100
AcDbEntity
  8
7_ALL_FEATURES
100
AcDbSpline
 62
7
  6
CONTINUOUS
 70
0
 71
3
 72
16
 73
12
 74
0
 42
0.0000001
 43
0.0000001
 44
0.0000000001
 40
0.0
 40
0.0
 40
0.0
 40
0.0
 40
0.1252425561
 40
0.2467589013
 40
0.3691331737
 40
0.4966206149
 40
0.6212710027
 40
0.7409953576
 40
0.8611260843
 40
0.9861350283
 40
1.0
 40
1.0
 40
1.0
 40
1.0
 10
115.5306709071
 20
97.6016204715
 30
0.0
 10
115.530673816
 20
97.6097752284
 30
0.0
 10
115.5273554169
 20
97.6258433547
 30
0.0
 10
115.5135346041
 20
97.6460403036
 30
0.0
 10
115.4930338663
 20
97.6596646315
 30
0.0
 10
115.4686511047
 20
97.6645202635
 30
0.0
 10
115.4444117329
 20
97.6596916795
 30
0.0
 10
115.4244989466
 20
97.6459444513
 30
0.0
 10
115.4112356047
 20
97.6257244786
 30
0.0
 10
115.407965466
 20
97.6088577615
 30
0.0
 10
115.4081633581
 20
97.5998147903
 30
0.0
 10
115.4082024717
 20
97.5989128054
 30
0.0
  0
SPLINE
  5
4E7
100
AcDbEntity
  8
7_ALL_FEATURES
100
AcDbSpline
 62
7
  6
CONTINUOUS
 70
0
 71
3
 72
18
 73
14
 74
0
 42
0.0000001
 43
0.0000001
 44
0.0000000001
 40
0.0
 40
0.0
 40
0.0
 40
0.0
 40
0.0668378092
 40
0.1288082976
 40
0.2469961961
 40
0.3681356933
 40
0.4951635073
 40
0.6211790434
 40
0.7417123965
 40
0.8594546134
 40
0.9207534718
 40
0.9863171374
 40
1.0
 40
1.0
 40
1.0
 40
1.0
 10
114.8572944507
 20
96.7018936894
 30
0.0
 10
114.8573320148
 20
96.7130768459
 30
0.0
 10
114.8595278737
 20
96.7346336529
 30
0.0
 10
114.8733139073
 20
96.773866421
 30
0.0
 10
114.9065987856
 20
96.8139403705
 30
0.0
 10
114.9623483875
 20
96.8420378888
 30
0.0
 10
115.025043751
 20
96.8513675704
 30
0.0
 10
115.0876660777
 20
96.8418030199
 30
0.0
 10
115.1426693961
 20
96.812977533
 30
0.0
 10
115.175405852
 20
96.7729464576
 30
0.0
 10
115.1890306331
 20
96.7340920696
 30
0.0
 10
115.1914378405
 20
96.7105729863
 30
0.0
 10
115.1912232655
 20
96.6973154268
 30
0.0
 10
115.1911388055
 20
96.6950284847
 30
0.0
  0
SPLINE
  5
4E8
100
AcDbEntity
  8
7_ALL_FEATURES
100
AcDbSpline
 62
7
  6
CONTINUOUS
 70
0
 71
3
 72
18
 73
14
 74
0
 42
0.0000001
 43
0.0000001
 44
0.0000000001
 40
0.0
 40
0.0
 40
0.0
 40
0.0
 40
0.1350100379
 40
0.2013423346
 40
0.2355719675
 40
0.2711190886
 40
0.3382237927
 40
0.4013776696
 40
0.5230950765
 40
0.6472872874
 40
0.7768753356
 40
0.9113154926
 40
1.0
 40
1.0
 40
1.0
 40
1.0
 10
115.1775896191
 20
96.5582442487
 30
0.0
 10
115.2046808886
 20
96.5755608294
 30
0.0
 10
115.2410162961
 20
96.6103755742
 30
0.0
 10
115.2630821626
 20
96.6626684349
 30
0.0
 10
115.2694486825
 20
96.6945500986
 30
0.0
 10
115.2714357659
 20
96.7271628464
 30
0.0
 10
115.2671883718
 20
96.7667848916
 30
0.0
 10
115.2474830971
 20
96.8239562455
 30
0.0
 10
115.2000949559
 20
96.8834459167
 30
0.0
 10
115.1199070245
 20
96.9272925755
 30
0.0
 10
115.0269661222
 20
96.9419907801
 30
0.0
 10
114.9427079933
 20
96.9290809436
 30
0.0
 10
114.8933906768
 20
96.9073474344
 30
0.0
 10
114.8754770448
 20
96.8959390166
 30
0.0
  0
SPLINE
  5
4E9
100
AcDbEntity
  8
7_ALL_FEATURES
100
AcDbSpline
 62
7
  6
CONTINUOUS
 70
0
 71
3
 72
8
 73
4
 74
0
 42
0.0000001
 43
0.0000001
 44
0.0000000001
 40
0.0
 40
0.0
 40
0.0
 40
0.0
 40
1.0
 40
1.0
 40
1.0
 40
1.0
 10
114.7780613284
 20
96.7154494888
 30
0.0
 10
114.7780613284
 20
96.6553864864
 30
0.0
 10
114.8164999877
 20
96.5920861085
 30
0.0
 10
114.8661214829
 20
96.5582442487
 30
0.0
  0
SPLINE
  5
4EA
100
AcDbEntity
  8
7_ALL_FEATURES
100
AcDbSpline
 62
7
  6
CONTINUOUS
 70
0
 71
3
 72
9
 73
5
 74
0
 42
0.0000001
 43
0.0000001
 44
0.0000000001
 40
0.0
 40
0.0
 40
0.0
 40
0.0
 40
0.510464774
 40
1.0
 40
1.0
 40
1.0
 40
1.0
 10
114.7780613284
 20
96.5563527418
 30
0.0
 10
114.736990661
 20
96.5563527418
 30
0.0
 10
114.6450240992
 20
96.558001807
 30
0.0
 10
114.6080358748
 20
96.6493714944
 30
0.0
 10
114.6080358748
 20
96.6887582248
 30
0.0
  0
SPLINE
  5
4EB
100
AcDbEntity
  8
7_ALL_FEATURES
100
AcDbSpline
 62
7
  6
CONTINUOUS
 70
0
 71
3
 72
9
 73
5
 74
0
 42
0.0000001
 43
0.0000001
 44
0.0000000001
 40
0.0
 40
0.0
 40
0.0
 40
0.0
 40
0.5039484269
 40
1.0
 40
1.0
 40
1.0
 40
1.0
 10
114.6080358748
 20
96.6887582248
 30
0.0
 10
114.6080358748
 20
96.7238851896
 30
0.0
 10
114.6276138576
 20
96.8005524298
 30
0.0
 10
114.703763157
 20
96.8272585634
 30
0.0
 10
114.7383396835
 20
96.8272585634
 30
0.0
  0
SPLINE
  5
4EC
100
AcDbEntity
  8
7_ALL_FEATURES
100
AcDbSpline
 62
7
  6
CONTINUOUS
 70
0
 71
3
 72
9
 73
5
 74
0
 42
0.0000001
 43
0.0000001
 44
0.0000000001
 40
0.0
 40
0.0
 40
0.0
 40
0.0
 40
0.4966166013
 40
1.0
 40
1.0
 40
1.0
 40
1.0
 10
114.7383396835
 20
96.9162644714
 30
0.0
 10
114.682873727
 20
96.9154145898
 30
0.0
 10
114.5626382956
 20
96.8707169098
 30
0.0
 10
114.5290129199
 20
96.7490848137
 30
0.0
 10
114.5290129199
 20
96.6928564898
 30
0.0
  0
SPLINE
  5
4ED
100
AcDbEntity
  8
7_ALL_FEATURES
100
AcDbSpline
 62
7
  6
CONTINUOUS
 70
0
 71
3
 72
9
 73
5
 74
0
 42
0.0000001
 43
0.0000001
 44
0.0000000001
 40
0.0
 40
0.0
 40
0.0
 40
0.0
 40
0.4927604322
 40
1.0
 40
1.0
 40
1.0
 40
1.0
 10
114.5290129199
 20
96.6928564898
 30
0.0
 10
114.5290129199
 20
96.6275060645
 30
0.0
 10
114.5830728919
 20
96.4755153391
 30
0.0
 10
114.7355904215
 20
96.4673468338
 30
0.0
 10
114.8028610855
 20
96.4673468338
 30
0.0
  0
SPLINE
  5
4EE
100
AcDbEntity
  8
7_ALL_FEATURES
100
AcDbSpline
 62
7
  6
CONTINUOUS
 70
0
 71
3
 72
10
 73
6
 74
0
 42
0.0000001
 43
0.0000001
 44
0.0000000001
 40
0.0
 40
0.0
 40
0.0
 40
0.0
 40
0.502118989
 40
0.7251106965
 40
1.0
 40
1.0
 40
1.0
 40
1.0
 10
115.0065133284
 20
95.7484691281
 30
0.0
 10
115.0481469763
 20
95.7484691281
 30
0.0
 10
115.1113244011
 20
95.7521324658
 30
0.0
 10
115.1839191022
 20
95.701415279
 30
0.0
 10
115.1914606697
 20
95.6567205709
 30
0.0
 10
115.1914606697
 20
95.6339278769
 30
0.0
  0
SPLINE
  5
4EF
100
AcDbEntity
  8
7_ALL_FEATURES
100
AcDbSpline
 62
7
  6
CONTINUOUS
 70
0
 71
3
 72
9
 73
5
 74
0
 42
0.0000001
 43
0.0000001
 44
0.0000000001
 40
0.0
 40
0.0
 40
0.0
 40
0.0
 40
0.4882113973
 40
1.0
 40
1.0
 40
1.0
 40
1.0
 10
115.1914606697
 20
95.6339278769
 30
0.0
 10
115.1914606697
 20
95.6030469969
 30
0.0
 10
115.1659465093
 20
95.5283750984
 30
0.0
 10
115.0916375653
 20
95.5319966717
 30
0.0
 10
115.0592653542
 20
95.5319966717
 30
0.0
  0
SPLINE
  5
4F0
100
AcDbEntity
  8
7_ALL_FEATURES
100
AcDbSpline
 62
7
  6
CONTINUOUS
 70
0
 71
3
 72
9
 73
5
 74
0
 42
0.0000001
 43
0.0000001
 44
0.0000000001
 40
0.0
 40
0.0
 40
0.0
 40
0.0
 40
0.5053411722
 40
1.0
 40
1.0
 40
1.0
 40
1.0
 10
115.0697737258
 20
95.44288568
 30
0.0
 10
115.1186104913
 20
95.44288568
 30
0.0
 10
115.2286819615
 20
95.449775603
 30
0.0
 10
115.2706937921
 20
95.559327118
 30
0.0
 10
115.2706937921
 20
95.6071315291
 30
0.0
  0
SPLINE
  5
4F1
100
AcDbEntity
  8
7_ALL_FEATURES
100
AcDbSpline
 62
7
  6
CONTINUOUS
 70
0
 71
3
 72
8
 73
4
 74
0
 42
0.0000001
 43
0.0000001
 44
0.0000000001
 40
0.0
 40
0.0
 40
0.0
 40
0.0
 40
1.0
 40
1.0
 40
1.0
 40
1.0
 10
115.2706937921
 20
95.6071315291
 30
0.0
 10
115.2706937921
 20
95.6600816859
 30
0.0
 10
115.2407370107
 20
95.7205716322
 30
0.0
 10
115.1946131812
 20
95.7465776212
 30
0.0
  0
SPLINE
  5
4F2
100
AcDbEntity
  8
7_ALL_FEATURES
100
AcDbSpline
 62
7
  6
CONTINUOUS
 70
0
 71
3
 72
9
 73
5
 74
0
 42
0.0000001
 43
0.0000001
 44
0.0000000001
 40
0.0
 40
0.0
 40
0.0
 40
0.0
 40
0.7509172168
 40
1.0
 40
1.0
 40
1.0
 40
1.0
 10
117.8179230841
 20
98.6799895719
 30
0.0
 10
117.6169043665
 20
98.8808469583
 30
0.0
 10
117.3358218646
 20
99.1682384805
 30
0.0
 10
117.2605590509
 20
99.5492944009
 30
0.0
 10
117.2605590509
 20
99.6435547119
 30
0.0
  0
SPLINE
  5
4F3
100
AcDbEntity
  8
7_ALL_FEATURES
100
AcDbSpline
 62
7
  6
CONTINUOUS
 70
0
 71
3
 72
9
 73
5
 74
0
 42
0.0000001
 43
0.0000001
 44
0.0000000001
 40
0.0
 40
0.0
 40
0.0
 40
0.0
 40
0.5005139184
 40
1.0
 40
1.0
 40
1.0
 40
1.0
 10
117.2605590509
 20
99.6435547119
 30
0.0
 10
117.2605590509
 20
99.8401642232
 30
0.0
 10
117.4443937354
 20
100.2352215016
 30
0.0
 10
117.8388202815
 20
100.4232758896
 30
0.0
 10
118.0350260428
 20
100.4232758896
 30
0.0
  0
SPLINE
  5
4F4
100
AcDbEntity
  8
7_ALL_FEATURES
100
AcDbSpline
 62
7
  6
CONTINUOUS
 70
0
 71
3
 72
9
 73
5
 74
0
 42
0.0000001
 43
0.0000001
 44
0.0000000001
 40
0.0
 40
0.0
 40
0.0
 40
0.0
 40
0.2409264408
 40
1.0
 40
1.0
 40
1.0
 40
1.0
 10
118.0350260428
 20
100.4232758896
 30
0.0
 10
118.1317699851
 20
100.4232758896
 30
0.0
 10
118.5335531041
 20
100.2900234846
 30
0.0
 10
118.7470927945
 20
99.910763772
 30
0.0
 10
118.9206716069
 20
99.660210481
 30
0.0
  0
SPLINE
  5
4F5
100
AcDbEntity
  8
7_ALL_FEATURES
100
AcDbSpline
 62
7
  6
CONTINUOUS
 70
0
 71
3
 72
20
 73
16
 74
0
 42
0.0000001
 43
0.0000001
 44
0.0000000001
 40
0.0
 40
0.0
 40
0.0
 40
0.0
 40
0.1135375114
 40
0.2256844723
 40
0.2811578863
 40
0.3367106574
 40
0.3932190784
 40
0.4520058265
 40
0.4895000008
 40
0.5256835703
 40
0.5950772204
 40
0.6621623141
 40
0.7283850651
 40
0.8614355268
 40
1.0
 40
1.0
 40
1.0
 40
1.0
 10
119.7897139437
 20
99.6378276494
 30
0.0
 10
119.8286818343
 20
99.6685316144
 30
0.0
 10
119.9058032694
 20
99.7299481933
 30
0.0
 10
120.0078398758
 20
99.7990585204
 30
0.0
 10
120.0951155153
 20
99.8429172854
 30
0.0
 10
120.1639313014
 20
99.8684157277
 30
0.0
 10
120.2369896792
 20
99.884905938
 30
0.0
 10
120.3038331196
 20
99.8899145919
 30
0.0
 10
120.3617388551
 20
99.8870601521
 30
0.0
 10
120.4236081527
 20
99.8774408266
 30
0.0
 10
120.4960117903
 20
99.8541302834
 30
0.0
 10
120.5731877633
 20
99.8093348801
 30
0.0
 10
120.6602331878
 20
99.7309942852
 30
0.0
 10
120.7381075538
 20
99.6011616897
 30
0.0
 10
120.7587959788
 20
99.4813236738
 30
0.0
 10
120.7587959788
 20
99.4207772326
 30
0.0
  0
SPLINE
  5
4F6
100
AcDbEntity
  8
7_ALL_FEATURES
100
AcDbSpline
 62
7
  6
CONTINUOUS
 70
0
 71
3
 72
9
 73
5
 74
0
 42
0.0000001
 43
0.0000001
 44
0.0000000001
 40
0.0
 40
0.0
 40
0.0
 40
0.0
 40
0.5012533447
 40
1.0
 40
1.0
 40
1.0
 40
1.0
 10
120.7587959788
 20
99.4207772326
 30
0.0
 10
120.7587959788
 20
99.2978222116
 30
0.0
 10
120.6914895925
 20
99.0291082087
 30
0.0
 10
120.4244948303
 20
98.9305091525
 30
0.0
 10
120.302154688
 20
98.9305091525
 30
0.0
  0
SPLINE
  5
4F7
100
AcDbEntity
  8
7_ALL_FEATURES
100
AcDbSpline
 62
7
  6
CONTINUOUS
 70
0
 71
3
 72
9
 73
5
 74
0
 42
0.0000001
 43
0.0000001
 44
0.0000000001
 40
0.0
 40
0.0
 40
0.0
 40
0.0
 40
0.4915284383
 40
1.0
 40
1.0
 40
1.0
 40
1.0
 10
120.302154688
 20
98.9305091525
 30
0.0
 10
120.1646191652
 20
98.9305091525
 30
0.0
 10
119.8920088508
 20
99.0848486345
 30
0.0
 10
119.7441569572
 20
99.3200477254
 30
0.0
 10
119.6560474561
 20
99.431758481
 30
0.0
  0
SPLINE
  5
4F8
100
AcDbEntity
  8
7_ALL_FEATURES
100
AcDbSpline
 62
7
  6
CONTINUOUS
 70
0
 71
3
 72
9
 73
5
 74
0
 42
0.0000001
 43
0.0000001
 44
0.0000000001
 40
0.0
 40
0.0
 40
0.0
 40
0.0
 40
0.5085075298
 40
1.0
 40
1.0
 40
1.0
 40
1.0
 10
119.2491633052
 20
99.2034115647
 30
0.0
 10
119.3823189317
 20
99.0211008669
 30
0.0
 10
119.6405364657
 20
98.6598435493
 30
0.0
 10
120.0781165755
 20
98.4403986979
 30
0.0
 10
120.2963225418
 20
98.4403986979
 30
0.0
  0
SPLINE
  5
4F9
100
AcDbEntity
  8
7_ALL_FEATURES
100
AcDbSpline
 62
7
  6
CONTINUOUS
 70
0
 71
3
 72
17
 73
13
 74
0
 42
0.0000001
 43
0.0000001
 44
0.0000000001
 40
0.0
 40
0.0
 40
0.0
 40
0.0
 40
0.1281677449
 40
0.2461327339
 40
0.3660286349
 40
0.4284999773
 40
0.4927031576
 40
0.5607602658
 40
0.6251843142
 40
0.7460608357
 40
0.8660071045
 40
1.0
 40
1.0
 40
1.0
 40
1.0
 10
120.2963225418
 20
98.4403986979
 30
0.0
 10
120.4222538785
 20
98.4403986979
 30
0.0
 10
120.6692614052
 20
98.4890694463
 30
0.0
 10
120.9607963229
 20
98.7188727755
 30
0.0
 10
121.1035672527
 20
98.9854566636
 30
0.0
 10
121.1612761799
 20
99.2215676241
 30
0.0
 10
121.1759194459
 20
99.4131568018
 30
0.0
 10
121.1610781683
 20
99.6067339638
 30
0.0
 10
121.1013688626
 20
99.8492551925
 30
0.0
 10
120.9492725814
 20
100.1181459691
 30
0.0
 10
120.6378564834
 20
100.3367485658
 30
0.0
 10
120.3835269735
 20
100.3788254775
 30
0.0
 10
120.2518721296
 20
100.3788254775
 30
0.0
  0
SPLINE
  5
4FA
100
AcDbEntity
  8
7_ALL_FEATURES
100
AcDbSpline
 62
7
  6
CONTINUOUS
 70
0
 71
3
 72
9
 73
5
 74
0
 42
0.0000001
 43
0.0000001
 44
0.0000000001
 40
0.0
 40
0.0
 40
0.0
 40
0.0
 40
0.2491323432
 40
1.0
 40
1.0
 40
1.0
 40
1.0
 10
117.1140620033
 20
98.7249628109
 30
0.0
 10
117.13836515
 20
98.6921921392
 30
0.0
 10
117.2400458456
 20
98.5636928195
 30
0.0
 10
117.3564484476
 20
98.4476100967
 30
0.0
 10
117.4499199084
 20
98.3679960172
 30
0.0
  0
SPLINE
  5
4FB
100
AcDbEntity
  8
7_ALL_FEATURES
100
AcDbSpline
 62
7
  6
CONTINUOUS
 70
0
 71
3
 72
9
 73
5
 74
0
 42
0.0000001
 43
0.0000001
 44
0.0000000001
 40
0.0
 40
0.0
 40
0.0
 40
0.0
 40
0.2421437603
 40
1.0
 40
1.0
 40
1.0
 40
1.0
 10
114.8103519455
 20
101.6185469261
 30
0.0
 10
114.8052246737
 20
101.6093745696
 30
0.0
 10
114.7864575016
 20
101.5701291828
 30
0.0
 10
114.7782714958
 20
101.5265007209
 30
0.0
 10
114.7782714958
 20
101.4938162532
 30
0.0
  0
SPLINE
  5
4FC
100
AcDbEntity
  8
7_ALL_FEATURES
100
AcDbSpline
 62
7
  6
CONTINUOUS
 70
0
 71
3
 72
8
 73
4
 74
0
 42
0.0000001
 43
0.0000001
 44
0.0000000001
 40
0.0
 40
0.0
 40
0.0
 40
0.0
 40
1.0
 40
1.0
 40
1.0
 40
1.0
 10
114.8304696154
 20
99.3860059938
 30
0.0
 10
114.8487948946
 20
99.3600939724
 30
0.0
 10
114.8708263729
 20
99.3366886775
 30
0.0
 10
114.8949144213
 20
99.3163240182
 30
0.0
  0
SPLINE
  5
4FD
100
AcDbEntity
  8
7_ALL_FEATURES
100
AcDbSpline
 62
7
  6
CONTINUOUS
 70
0
 71
3
 72
15
 73
11
 74
0
 42
0.0000001
 43
0.0000001
 44
0.0000000001
 40
0.0
 40
0.0
 40
0.0
 40
0.0
 40
0.1141106906
 40
0.2377191378
 40
0.3609616822
 40
0.4892136522
 40
0.620383943
 40
0.746351036
 40
0.871384697
 40
1.0
 40
1.0
 40
1.0
 40
1.0
 10
115.4082024717
 20
97.5989128054
 30
0.0
 10
115.40851538
 20
97.5916969257
 30
0.0
 10
115.4117479535
 20
97.5767781977
 30
0.0
 10
115.4245039964
 20
97.5573372009
 30
0.0
 10
115.4444050283
 20
97.5435646454
 30
0.0
 10
115.468651071
 20
97.5387132222
 30
0.0
 10
115.4930404695
 20
97.5435916326
 30
0.0
 10
115.5135296734
 20
97.5572414469
 30
0.0
 10
115.5273468129
 20
97.5774278257
 30
0.0
 10
115.5306680034
 20
97.5934802846
 30
0.0
 10
115.5306709071
 20
97.6016204715
 30
0.0
  0
SPLINE
  5
4FE
100
AcDbEntity
  8
7_ALL_FEATURES
100
AcDbSpline
 62
7
  6
CONTINUOUS
 70
0
 71
3
 72
17
 73
13
 74
0
 42
0.0000001
 43
0.0000001
 44
0.0000000001
 40
0.0
 40
0.0
 40
0.0
 40
0.0
 40
0.0552928903
 40
0.1190307556
 40
0.2388446404
 40
0.3607162024
 40
0.4913988893
 40
0.6231604286
 40
0.7459155837
 40
0.8662290585
 40
0.9303231461
 40
1.0
 40
1.0
 40
1.0
 40
1.0
 10
115.1911388055
 20
96.6950284847
 30
0.0
 10
115.1908009651
 20
96.6858807163
 30
0.0
 10
115.1884406699
 20
96.6662615423
 30
0.0
 10
115.1763231845
 20
96.6284166896
 30
0.0
 10
115.1445283453
 20
96.5869072961
 30
0.0
 10
115.0888534606
 20
96.5573476656
 30
0.0
 10
115.0250333232
 20
96.5482033744
 30
0.0
 10
114.9611004963
 20
96.5572682816
 30
0.0
 10
114.9047763678
 20
96.5864378651
 30
0.0
 10
114.8724922738
 20
96.6279892859
 30
0.0
 10
114.8594337712
 20
96.6682040724
 30
0.0
 10
114.8572556887
 20
96.6903538864
 30
0.0
 10
114.8572944507
 20
96.7018936894
 30
0.0
  0
SPLINE
  5
4FF
100
AcDbEntity
  8
7_ALL_FEATURES
100
AcDbSpline
 62
7
  6
CONTINUOUS
 70
0
 71
3
 72
9
 73
5
 74
0
 42
0.0000001
 43
0.0000001
 44
0.0000000001
 40
0.0
 40
0.0
 40
0.0
 40
0.0
 40
0.1306269467
 40
1.0
 40
1.0
 40
1.0
 40
1.0
 10
114.8754770448
 20
96.8959390166
 30
0.0
 10
114.867799774
 20
96.8910496947
 30
0.0
 10
114.8114012364
 20
96.8497250462
 30
0.0
 10
114.7780613284
 20
96.7756911245
 30
0.0
 10
114.7780613284
 20
96.7154494888
 30
0.0
  0
SPLINE
  5
500
100
AcDbEntity
  8
02___PRT_ALL_AXES
100
AcDbSpline
 62
7
  6
CONTINUOUS
 70
0
 71
3
 72
19
 73
15
 74
0
 42
0.0000001
 43
0.0000001
 44
0.0000000001
 40
0.0
 40
0.0
 40
0.0
 40
0.0
 40
0.062499569
 40
0.1250450196
 40
0.1876243679
 40
0.2502137548
 40
0.3750836247
 40
0.5000591496
 40
0.6250261711
 40
0.7498800617
 40
0.8124624827
 40
0.8750225901
 40
0.9375286272
 40
1.0
 40
1.0
 40
1.0
 40
1.0
 10
102.3617021277
 20
194.7679521277
 30
0.0
 10
102.3617021277
 20
194.7118785159
 30
0.0
 10
102.3812112427
 20
194.598889422
 30
0.0
 10
102.4609952128
 20
194.4481670388
 30
0.0
 10
102.5760546673
 20
194.3231173299
 30
0.0
 10
102.759498367
 20
194.1919514639
 30
0.0
 10
103.0248983044
 20
194.0888207126
 30
0.0
 10
103.3618560155
 20
194.04956429
 30
0.0
 10
103.6987878486
 20
194.0889020021
 30
0.0
 10
103.9641420353
 20
194.1920703199
 30
0.0
 10
104.1475236625
 20
194.3232614762
 30
0.0
 10
104.2624944326
 20
194.4483115054
 30
0.0
 10
104.3422122083
 20
194.5989756087
 30
0.0
 10
104.3617021277
 20
194.7119038131
 30
0.0
 10
104.3617021277
 20
194.7679521277
 30
0.0
  0
SPLINE
  5
501
100
AcDbEntity
  8
02___PRT_ALL_AXES
100
AcDbSpline
 62
7
  6
CONTINUOUS
 70
0
 71
3
 72
11
 73
7
 74
0
 42
0.0000001
 43
0.0000001
 44
0.0000000001
 40
0.0
 40
0.0
 40
0.0
 40
0.0
 40
0.2500103617
 40
0.5000189242
 40
0.7500124732
 40
1.0
 40
1.0
 40
1.0
 40
1.0
 10
99.3617021277
 20
196.2679521277
 30
0.0
 10
99.5983748054
 20
196.1496157888
 30
0.0
 10
100.0781423178
 20
195.9254310533
 30
0.0
 10
100.8184330349
 20
195.6369940554
 30
0.0
 10
101.5796503045
 20
195.4086436523
 30
0.0
 10
102.0997774005
 20
195.3053699458
 30
0.0
 10
102.3617021277
 20
195.2679521277
 30
0.0
  0
SPLINE
  5
502
100
AcDbEntity
  8
02___PRT_ALL_AXES
100
AcDbSpline
 62
7
  6
CONTINUOUS
 70
0
 71
3
 72
11
 73
7
 74
0
 42
0.0000001
 43
0.0000001
 44
0.0000000001
 40
0.0
 40
0.0
 40
0.0
 40
0.0
 40
0.2699449571
 40
0.5270499909
 40
0.7701654741
 40
1.0
 40
1.0
 40
1.0
 40
1.0
 10
107.3617021277
 20
196.2679521277
 30
0.0
 10
107.4775280926
 20
196.1521261627
 30
0.0
 10
107.7110627072
 20
195.9331258513
 30
0.0
 10
108.0795733085
 20
195.6443672057
 30
0.0
 10
108.4595740792
 20
195.4141802056
 30
0.0
 10
108.7276045044
 20
195.3062657343
 30
0.0
 10
108.8617021277
 20
195.2679521277
 30
0.0
  0
SPLINE
  5
503
100
AcDbEntity
  8
02___PRT_ALL_AXES
100
AcDbSpline
 62
7
  6
CONTINUOUS
 70
0
 71
3
 72
11
 73
7
 74
0
 42
0.0000001
 43
0.0000001
 44
0.0000000001
 40
0.0
 40
0.0
 40
0.0
 40
0.0
 40
0.2298345438
 40
0.4729500311
 40
0.7300550521
 40
1.0
 40
1.0
 40
1.0
 40
1.0
 10
109.8617021277
 20
195.2679521277
 30
0.0
 10
109.9957997613
 20
195.3062657373
 30
0.0
 10
110.2638301985
 20
195.4141802154
 30
0.0
 10
110.6438309701
 20
195.6443672246
 30
0.0
 10
111.0123415605
 20
195.9331258659
 30
0.0
 10
111.2458761667
 20
196.1521261667
 30
0.0
 10
111.3617021277
 20
196.2679521277
 30
0.0
  0
SPLINE
  5
504
100
AcDbEntity
  8
02___PRT_ALL_AXES
100
AcDbSpline
 62
7
  6
CONTINUOUS
 70
0
 71
3
 72
11
 73
7
 74
0
 42
0.0000001
 43
0.0000001
 44
0.0000000001
 40
0.0
 40
0.0
 40
0.0
 40
0.0
 40
0.2699449571
 40
0.5270499909
 40
0.7701654741
 40
1.0
 40
1.0
 40
1.0
 40
1.0
 10
95.3617021277
 20
196.2679521277
 30
0.0
 10
95.4775280926
 20
196.1521261627
 30
0.0
 10
95.7110627072
 20
195.9331258513
 30
0.0
 10
96.0795733085
 20
195.6443672057
 30
0.0
 10
96.4595740792
 20
195.4141802056
 30
0.0
 10
96.7276045044
 20
195.3062657343
 30
0.0
 10
96.8617021277
 20
195.2679521277
 30
0.0
  0
SPLINE
  5
505
100
AcDbEntity
  8
02___PRT_ALL_AXES
100
AcDbSpline
 62
7
  6
CONTINUOUS
 70
0
 71
3
 72
11
 73
7
 74
0
 42
0.0000001
 43
0.0000001
 44
0.0000000001
 40
0.0
 40
0.0
 40
0.0
 40
0.0
 40
0.2298345438
 40
0.4729500311
 40
0.7300550521
 40
1.0
 40
1.0
 40
1.0
 40
1.0
 10
97.8617021277
 20
195.2679521277
 30
0.0
 10
97.9957997613
 20
195.3062657373
 30
0.0
 10
98.2638301985
 20
195.4141802154
 30
0.0
 10
98.6438309701
 20
195.6443672246
 30
0.0
 10
99.0123415605
 20
195.9331258659
 30
0.0
 10
99.2458761667
 20
196.1521261667
 30
0.0
 10
99.3617021277
 20
196.2679521277
 30
0.0
  0
SPLINE
  5
506
100
AcDbEntity
  8
02___PRT_ALL_AXES
100
AcDbSpline
 62
7
  6
CONTINUOUS
 70
0
 71
3
 72
19
 73
15
 74
0
 42
0.0000001
 43
0.0000001
 44
0.0000000001
 40
0.0
 40
0.0
 40
0.0
 40
0.0
 40
0.1683000113
 40
0.2404505744
 40
0.3036556532
 40
0.4090388234
 40
0.4554737865
 40
0.5000393211
 40
0.5446067335
 40
0.591042408
 40
0.696430429
 40
0.7596418824
 40
0.8317824151
 40
1.0
 40
1.0
 40
1.0
 40
1.0
 10
96.8617021277
 20
194.7679521277
 30
0.0
 10
96.8617021277
 20
194.6613464524
 30
0.0
 10
96.8858749924
 20
194.5070200258
 30
0.0
 10
96.9646920688
 20
194.3306263029
 30
0.0
 10
97.0506398221
 20
194.2040934391
 30
0.0
 10
97.1580766928
 20
194.1131057826
 30
0.0
 10
97.275712254
 20
194.0696280812
 30
0.0
 10
97.3617800642
 20
194.059252002
 30
0.0
 10
97.4478473497
 20
194.0696550897
 30
0.0
 10
97.5654593929
 20
194.1132080996
 30
0.0
 10
97.6728821817
 20
194.204213235
 30
0.0
 10
97.7587964065
 20
194.3307728545
 30
0.0
 10
97.8375425308
 20
194.5071363718
 30
0.0
 10
97.8617021277
 20
194.6613986635
 30
0.0
 10
97.8617021277
 20
194.7679521277
 30
0.0
  0
SPLINE
  5
507
100
AcDbEntity
  8
02___PRT_ALL_AXES
100
AcDbSpline
 62
7
  6
CONTINUOUS
 70
0
 71
3
 72
19
 73
15
 74
0
 42
0.0000001
 43
0.0000001
 44
0.0000000001
 40
0.0
 40
0.0
 40
0.0
 40
0.0
 40
0.1683075029
 40
0.2404576968
 40
0.3036660769
 40
0.4090527407
 40
0.4554823394
 40
0.5000445236
 40
0.5446094138
 40
0.5910415449
 40
0.6964181475
 40
0.7596236278
 40
0.8317654351
 40
1.0
 40
1.0
 40
1.0
 40
1.0
 10
108.8617021277
 20
194.7679521277
 30
0.0
 10
108.8617021277
 20
194.6613417953
 30
0.0
 10
108.8858770546
 20
194.507010598
 30
0.0
 10
108.9647001569
 20
194.3306126764
 30
0.0
 10
109.0506517644
 20
194.2040773556
 30
0.0
 10
109.1580961509
 20
194.1130959578
 30
0.0
 10
109.2757301688
 20
194.0696256777
 30
0.0
 10
109.3617909767
 20
194.0592514991
 30
0.0
 10
109.4478517281
 20
194.0696576297
 30
0.0
 10
109.5654530574
 20
194.1132062851
 30
0.0
 10
109.672866143
 20
194.2042004365
 30
0.0
 10
109.7587814202
 20
194.3307465332
 30
0.0
 10
109.8375402649
 20
194.5071130701
 30
0.0
 10
109.8617021277
 20
194.6613879962
 30
0.0
 10
109.8617021277
 20
194.7679521277
 30
0.0
  0
SPLINE
  5
508
100
AcDbEntity
  8
02___PRT_ALL_AXES
100
AcDbSpline
 62
7
  6
CONTINUOUS
 70
0
 71
3
 72
11
 73
7
 74
0
 42
0.0000001
 43
0.0000001
 44
0.0000000001
 40
0.0
 40
0.0
 40
0.0
 40
0.0
 40
0.2499875457
 40
0.4999810974
 40
0.7499896465
 40
1.0
 40
1.0
 40
1.0
 40
1.0
 10
104.3617021277
 20
195.2679521277
 30
0.0
 10
104.6236268746
 20
195.3053699487
 30
0.0
 10
105.1437539929
 20
195.4086436613
 30
0.0
 10
105.9049712686
 20
195.6369940744
 30
0.0
 10
106.6452619651
 20
195.9254310691
 30
0.0
 10
107.1250294578
 20
196.1496157927
 30
0.0
 10
107.3617021277
 20
196.2679521277
 30
0.0
  0
SPLINE
  5
509
100
AcDbEntity
  8
02___PRT_ALL_AXES
100
AcDbSpline
 62
7
  6
CONTINUOUS
 70
0
 71
3
 72
11
 73
7
 74
0
 42
0.0000001
 43
0.0000001
 44
0.0000000001
 40
0.0
 40
0.0
 40
0.0
 40
0.0
 40
0.2528641712
 40
0.5038317346
 40
0.7528115376
 40
1.0
 40
1.0
 40
1.0
 40
1.0
 10
246.3494364165
 20
196.2679521277
 30
0.0
 10
246.5536827135
 20
196.1500304731
 30
0.0
 10
246.967509977
 20
195.9266195954
 30
0.0
 10
247.6084215015
 20
195.6380305932
 30
0.0
 10
248.2677804337
 20
195.4093411998
 30
0.0
 10
248.7200371155
 20
195.3054758557
 30
0.0
 10
248.9475126279
 20
195.2679521277
 30
0.0
  0
SPLINE
  5
50A
100
AcDbEntity
  8
02___PRT_ALL_AXES
100
AcDbSpline
 62
7
  6
CONTINUOUS
 70
0
 71
3
 72
11
 73
7
 74
0
 42
0.0000001
 43
0.0000001
 44
0.0000000001
 40
0.0
 40
0.0
 40
0.0
 40
0.0
 40
0.2528641712
 40
0.5038317346
 40
0.7528115376
 40
1.0
 40
1.0
 40
1.0
 40
1.0
 10
239.4212331862
 20
196.2679521277
 30
0.0
 10
239.6254794832
 20
196.1500304731
 30
0.0
 10
240.0393067467
 20
195.9266195954
 30
0.0
 10
240.6802182712
 20
195.6380305932
 30
0.0
 10
241.3395772035
 20
195.4093411998
 30
0.0
 10
241.7918338853
 20
195.3054758557
 30
0.0
 10
242.0193093976
 20
195.2679521277
 30
0.0
  0
SPLINE
  5
50B
100
AcDbEntity
  8
02___PRT_ALL_AXES
100
AcDbSpline
 62
7
  6
CONTINUOUS
 70
0
 71
3
 72
11
 73
7
 74
0
 42
0.0000001
 43
0.0000001
 44
0.0000000001
 40
0.0
 40
0.0
 40
0.0
 40
0.0
 40
0.2471884812
 40
0.4961682871
 40
0.7471358372
 40
1.0
 40
1.0
 40
1.0
 40
1.0
 10
243.7513602052
 20
195.2679521277
 30
0.0
 10
243.9788357347
 20
195.3054758586
 30
0.0
 10
244.431092436
 20
195.4093412089
 30
0.0
 10
245.0904513731
 20
195.6380306122
 30
0.0
 10
245.7313628796
 20
195.926619611
 30
0.0
 10
246.1451901264
 20
196.1500304771
 30
0.0
 10
246.3494364165
 20
196.2679521277
 30
0.0
  0
SPLINE
  5
50C
100
AcDbEntity
  8
02___PRT_ALL_AXES
100
AcDbSpline
 62
7
  6
CONTINUOUS
 70
0
 71
3
 72
19
 73
15
 74
0
 42
0.0000001
 43
0.0000001
 44
0.0000000001
 40
0.0
 40
0.0
 40
0.0
 40
0.0
 40
0.067939647
 40
0.1343369129
 40
0.1986396402
 40
0.2610648807
 40
0.3817414899
 40
0.5000607139
 40
0.6183763092
 40
0.739024176
 40
0.8014382043
 40
0.865725454
 40
0.9320917545
 40
1.0
 40
1.0
 40
1.0
 40
1.0
 10
242.0193093976
 20
194.7679521277
 30
0.0
 10
242.0193093976
 20
194.7120664771
 30
0.0
 10
242.0356962344
 20
194.6009215123
 30
0.0
 10
242.1038710147
 20
194.450461625
 30
0.0
 10
242.2032840495
 20
194.3247748614
 30
0.0
 10
242.3607279311
 20
194.1940330278
 30
0.0
 10
242.5907191458
 20
194.0893927229
 30
0.0
 10
242.8854843667
 20
194.0494142385
 30
0.0
 10
243.1802130904
 20
194.0894786632
 30
0.0
 10
243.4101439033
 20
194.1941580664
 30
0.0
 10
243.5675229925
 20
194.3249079545
 30
0.0
 10
243.6668659184
 20
194.4505889452
 30
0.0
 10
243.7349869266
 20
194.6009993365
 30
0.0
 10
243.7513602052
 20
194.7120923073
 30
0.0
 10
243.7513602052
 20
194.7679521277
 30
0.0
  0
SPLINE
  5
50D
100
AcDbEntity
  8
02___PRT_ALL_AXES
100
AcDbSpline
 62
7
  6
CONTINUOUS
 70
0
 71
3
 72
11
 73
7
 74
0
 42
0.0000001
 43
0.0000001
 44
0.0000000001
 40
0.0
 40
0.0
 40
0.0
 40
0.0
 40
0.2471884812
 40
0.4961682871
 40
0.7471358372
 40
1.0
 40
1.0
 40
1.0
 40
1.0
 10
250.6795634354
 20
195.2679521277
 30
0.0
 10
250.907038965
 20
195.3054758586
 30
0.0
 10
251.3592956663
 20
195.4093412089
 30
0.0
 10
252.0186546034
 20
195.6380306122
 30
0.0
 10
252.6595661098
 20
195.926619611
 30
0.0
 10
253.0733933567
 20
196.1500304771
 30
0.0
 10
253.2776396468
 20
196.2679521277
 30
0.0
  0
SPLINE
  5
50E
100
AcDbEntity
  8
02___PRT_ALL_AXES
100
AcDbSpline
 62
7
  6
CONTINUOUS
 70
0
 71
3
 72
19
 73
15
 74
0
 42
0.0000001
 43
0.0000001
 44
0.0000000001
 40
0.0
 40
0.0
 40
0.0
 40
0.0
 40
0.0679313718
 40
0.134330414
 40
0.1986328954
 40
0.2610542132
 40
0.3817238737
 40
0.5000536105
 40
0.6183773004
 40
0.7390372629
 40
0.8014553941
 40
0.8657396837
 40
0.9320963707
 40
1.0
 40
1.0
 40
1.0
 40
1.0
 10
248.9475126279
 20
194.7679521277
 30
0.0
 10
248.9475126279
 20
194.7120732762
 30
0.0
 10
248.9638983686
 20
194.6009342642
 30
0.0
 10
249.0320636702
 20
194.450476188
 30
0.0
 10
249.1314732329
 20
194.3247887014
 30
0.0
 10
249.2889075604
 20
194.1940503513
 30
0.0
 10
249.5188922265
 20
194.0893972057
 30
0.0
 10
249.8136678966
 20
194.0494134987
 30
0.0
 10
250.1084222435
 20
194.0894773134
 30
0.0
 10
250.3383718357
 20
194.1941680959
 30
0.0
 10
250.4957528403
 20
194.3249337063
 30
0.0
 10
250.5950815732
 20
194.4506165967
 30
0.0
 10
250.663193762
 20
194.6010145837
 30
0.0
 10
250.6795634354
 20
194.7120960965
 30
0.0
 10
250.6795634354
 20
194.7679521277
 30
0.0
  0
SPLINE
  5
50F
100
AcDbEntity
  8
02___PRT_ALL_AXES
100
AcDbSpline
 62
7
  6
CONTINUOUS
 70
0
 71
3
 72
16
 73
12
 74
0
 42
0.0000001
 43
0.0000001
 44
0.0000000001
 40
0.0
 40
0.0
 40
0.0
 40
0.0
 40
0.127792292
 40
0.2575937925
 40
0.3871492882
 40
0.5143276184
 40
0.6381218838
 40
0.7591511696
 40
0.8791791747
 40
0.9394503542
 40
1.0
 40
1.0
 40
1.0
 40
1.0
 10
339.4500996527
 20
73.5043545577
 30
0.0
 10
339.8482519331
 20
73.4089723715
 30
0.0
 10
340.664499466
 20
73.2705062671
 30
0.0
 10
341.9061977573
 20
73.2123502457
 30
0.0
 10
343.1444230709
 20
73.3005842241
 30
0.0
 10
344.3439370521
 20
73.5361982301
 30
0.0
 10
345.4754377517
 20
73.9239200856
 30
0.0
 10
346.5125179109
 20
74.4750433334
 30
0.0
 10
347.2706352886
 20
75.0848531544
 30
0.0
 10
347.7852297003
 20
75.6617014034
 30
0.0
 10
348.008016226
 20
75.9796409412
 30
0.0
 10
348.1093678497
 20
76.1450465018
 30
0.0
  0
SPLINE
  5
510
100
AcDbEntity
  8
02___PRT_ALL_AXES
100
AcDbSpline
 62
7
  6
CONTINUOUS
 70
0
 71
3
 72
12
 73
8
 74
0
 42
0.0000001
 43
0.0000001
 44
0.0000000001
 40
0.0
 40
0.0
 40
0.0
 40
0.0
 40
0.2072668154
 40
0.3212120732
 40
0.4425111058
 40
0.7068887135
 40
1.0
 40
1.0
 40
1.0
 40
1.0
 10
346.1759160644
 20
75.3547255152
 30
0.0
 10
346.2424185769
 20
75.3302602663
 30
0.0
 10
346.3572308635
 20
75.3242573871
 30
0.0
 10
346.505233923
 20
75.3550694645
 30
0.0
 10
346.666518147
 20
75.4132767863
 30
0.0
 10
346.8681813207
 20
75.5318347222
 30
0.0
 10
347.0111725614
 20
75.6600238029
 30
0.0
 10
347.0787913062
 20
75.7339792277
 30
0.0
  0
SPLINE
  5
511
100
AcDbEntity
  8
02___PRT_ALL_AXES
100
AcDbSpline
 62
7
  6
CONTINUOUS
 70
0
 71
3
 72
9
 73
5
 74
0
 42
0.0000001
 43
0.0000001
 44
0.0000000001
 40
0.0
 40
0.0
 40
0.0
 40
0.0
 40
0.517232162
 40
1.0
 40
1.0
 40
1.0
 40
1.0
 10
354.6629280268
 20
90.5310392022
 30
0.0
 10
354.7012234005
 20
90.588725382
 30
0.0
 10
354.7626548144
 20
90.709766855
 30
0.0
 10
354.7850881899
 20
90.8443665746
 30
0.0
 10
354.7850799081
 20
90.9089933194
 30
0.0
  0
SPLINE
  5
512
100
AcDbEntity
  8
02___PRT_ALL_AXES
100
AcDbSpline
 62
7
  6
CONTINUOUS
 70
0
 71
3
 72
13
 73
9
 74
0
 42
0.0000001
 43
0.0000001
 44
0.0000000001
 40
0.0
 40
0.0
 40
0.0
 40
0.0
 40
0.1021476615
 40
0.2071667396
 40
0.3176021726
 40
0.4354455425
 40
0.6979210055
 40
1.0
 40
1.0
 40
1.0
 40
1.0
 10
357.1350768192
 20
114.8120669145
 30
0.0
 10
357.1350694147
 20
114.8900279041
 30
0.0
 10
357.1192370662
 20
115.0485526751
 30
0.0
 10
357.0489867868
 20
115.2819318331
 30
0.0
 10
356.933328757
 20
115.5098554867
 30
0.0
 10
356.7129644472
 20
115.8143176892
 30
0.0
 10
356.3225601525
 20
116.1671791998
 30
0.0
 10
355.9500551401
 20
116.3881047022
 30
0.0
 10
355.7438429017
 20
116.4912108215
 30
0.0
  0
SPLINE
  5
513
100
AcDbEntity
  8
02___PRT_ALL_AXES
100
AcDbSpline
 62
7
  6
CONTINUOUS
 70
0
 71
3
 72
22
 73
18
 74
0
 42
0.0000001
 43
0.0000001
 44
0.0000000001
 40
0.0
 40
0.0
 40
0.0
 40
0.0
 40
0.0382705127
 40
0.0788748927
 40
0.1236089295
 40
0.1735237093
 40
0.2289996418
 40
0.2899012275
 40
0.3557144345
 40
0.4256497905
 40
0.4987221812
 40
0.5738135658
 40
0.7251228658
 40
0.7989999652
 40
0.870094322
 40
0.9373931048
 40
1.0
 40
1.0
 40
1.0
 40
1.0
 10
347.6350945629
 20
114.8115975178
 30
0.0
 10
347.6350834106
 20
114.9290187232
 30
0.0
 10
347.6720445351
 20
115.1723196242
 30
0.0
 10
347.8330302681
 20
115.5201892893
 30
0.0
 10
348.0921574385
 20
115.8482878545
 30
0.0
 10
348.4419323695
 20
116.1512624671
 30
0.0
 10
348.874719715
 20
116.4244185367
 30
0.0
 10
349.3816622253
 20
116.6627628708
 30
0.0
 10
349.952324111
 20
116.861584939
 30
0.0
 10
350.5747512815
 20
117.0167619476
 30
0.0
 10
351.2358528133
 20
117.1250415071
 30
0.0
 10
352.1519351808
 20
117.2037996673
 30
0.0
 10
353.0770353683
 20
117.1818394946
 30
0.0
 10
353.9783334536
 20
117.0582643829
 30
0.0
 10
354.6152609657
 20
116.9184130431
 30
0.0
 10
355.2045025401
 20
116.7337409693
 30
0.0
 10
355.5720325148
 20
116.5771160149
 30
0.0
 10
355.7438429017
 20
116.4912108215
 30
0.0
  0
SPLINE
  5
514
100
AcDbEntity
  8
02___PRT_ALL_AXES
100
AcDbSpline
 62
7
  6
CONTINUOUS
 70
0
 71
3
 72
9
 73
5
 74
0
 42
0.0000001
 43
0.0000001
 44
0.0000000001
 40
0.0
 40
0.0
 40
0.0
 40
0.0
 40
0.5172429658
 40
1.0
 40
1.0
 40
1.0
 40
1.0
 10
350.1072454851
 20
90.5310395548
 30
0.0
 10
350.0689636939
 20
90.588737353
 30
0.0
 10
350.0074765418
 20
90.709755896
 30
0.0
 10
349.9850997556
 20
90.8443673461
 30
0.0
 10
349.9850914739
 20
90.9089933198
 30
0.0
  0
SPLINE
  5
515
100
AcDbEntity
  8
02___PRT_ALL_AXES
100
AcDbSpline
 62
7
  6
CONTINUOUS
 70
0
 71
3
 72
16
 73
12
 74
0
 42
0.0000001
 43
0.0000001
 44
0.0000000001
 40
0.0
 40
0.0
 40
0.0
 40
0.0
 40
0.1216727179
 40
0.2565536457
 40
0.3988061253
 40
0.541655055
 40
0.6782711729
 40
0.8025717612
 40
0.8587151489
 40
0.9103589727
 40
1.0
 40
1.0
 40
1.0
 40
1.0
 10
350.6880294162
 20
90.0604651822
 30
0.0
 10
350.8420617752
 20
89.9834490027
 30
0.0
 10
351.1843232911
 20
89.8554649732
 30
0.0
 10
351.7385638255
 20
89.740303977
 30
0.0
 10
352.3330536693
 20
89.6966633999
 30
0.0
 10
352.9307506247
 20
89.727481677
 30
0.0
 10
353.4945146195
 20
89.8307704277
 30
0.0
 10
353.921430293
 20
89.9764263808
 30
0.0
 10
354.2141685504
 20
90.1271133863
 30
0.0
 10
354.446791675
 20
90.2819548705
 30
0.0
 10
354.59275545
 20
90.4253348448
 30
0.0
 10
354.6629280268
 20
90.5310392022
 30
0.0
  0
SPLINE
  5
516
100
AcDbEntity
  8
02___PRT_ALL_AXES
100
AcDbSpline
 62
7
  6
CONTINUOUS
 70
0
 71
3
 72
13
 73
9
 74
0
 42
0.0000001
 43
0.0000001
 44
0.0000000001
 40
0.0
 40
0.0
 40
0.0
 40
0.0
 40
0.3020789945
 40
0.5645544575
 40
0.6823978274
 40
0.7928332604
 40
0.8978523385
 40
1.0
 40
1.0
 40
1.0
 40
1.0
 10
349.0263284804
 20
113.1324536108
 30
0.0
 10
348.8201162419
 20
113.2355597301
 30
0.0
 10
348.4476112295
 20
113.4564852325
 30
0.0
 10
348.0572069349
 20
113.8093467431
 30
0.0
 10
347.8368426251
 20
114.1138089456
 30
0.0
 10
347.7211845952
 20
114.3417325992
 30
0.0
 10
347.6509343159
 20
114.5751117572
 30
0.0
 10
347.6351019673
 20
114.7336365282
 30
0.0
 10
347.6350945629
 20
114.8115975178
 30
0.0
  0
SPLINE
  5
517
100
AcDbEntity
  8
02___PRT_ALL_AXES
100
AcDbSpline
 62
7
  6
CONTINUOUS
 70
0
 71
3
 72
9
 73
5
 74
0
 42
0.0000001
 43
0.0000001
 44
0.0000000001
 40
0.0
 40
0.0
 40
0.0
 40
0.0
 40
0.542172473
 40
1.0
 40
1.0
 40
1.0
 40
1.0
 10
350.6880294162
 20
90.0604651822
 30
0.0
 10
350.5662105618
 20
90.1213746094
 30
0.0
 10
350.3500304579
 20
90.2526707668
 30
0.0
 10
350.170830257
 20
90.4352054458
 30
0.0
 10
350.1072454851
 20
90.5310395548
 30
0.0
  0
SPLINE
  5
518
100
AcDbEntity
  8
02___PRT_ALL_AXES
100
AcDbSpline
 62
7
  6
CONTINUOUS
 70
0
 71
3
 72
22
 73
18
 74
0
 42
0.0000001
 43
0.0000001
 44
0.0000000001
 40
0.0
 40
0.0
 40
0.0
 40
0.0
 40
0.0626068952
 40
0.129905678
 40
0.2010000348
 40
0.2748771342
 40
0.4261864342
 40
0.5012778188
 40
0.5743502095
 40
0.6442855655
 40
0.7100987725
 40
0.7710003582
 40
0.8264762907
 40
0.8763910705
 40
0.9211251073
 40
0.9617294873
 40
1.0
 40
1.0
 40
1.0
 40
1.0
 10
349.0263284804
 20
113.1324536108
 30
0.0
 10
349.1981388673
 20
113.0465484174
 30
0.0
 10
349.5656688419
 20
112.889923463
 30
0.0
 10
350.1549104164
 20
112.7052513891
 30
0.0
 10
350.7918379285
 20
112.5654000494
 30
0.0
 10
351.6931360138
 20
112.4418249377
 30
0.0
 10
352.6182362013
 20
112.419864765
 30
0.0
 10
353.5343185688
 20
112.4986229252
 30
0.0
 10
354.1954201005
 20
112.6069024847
 30
0.0
 10
354.8178472711
 20
112.7620794933
 30
0.0
 10
355.3885091568
 20
112.9609015615
 30
0.0
 10
355.8954516671
 20
113.1992458956
 30
0.0
 10
356.3282390126
 20
113.4724019652
 30
0.0
 10
356.6780139436
 20
113.7753765777
 30
0.0
 10
356.9371411139
 20
114.103475143
 30
0.0
 10
357.0981268469
 20
114.4513448081
 30
0.0
 10
357.1350879715
 20
114.6946457091
 30
0.0
 10
357.1350768192
 20
114.8120669145
 30
0.0
  0
SPLINE
  5
519
100
AcDbEntity
  8
7_ALL_FEATURES
100
AcDbSpline
 62
7
  6
CONTINUOUS
 70
0
 71
3
 72
14
 73
10
 74
0
 42
0.0000001
 43
0.0000001
 44
0.0000000001
 40
0.0
 40
0.0
 40
0.0
 40
0.0
 40
0.2894062415
 40
0.4222619592
 40
0.5478459986
 40
0.667051816
 40
0.7810966001
 40
0.8914945531
 40
1.0
 40
1.0
 40
1.0
 40
1.0
 10
316.7737965931
 20
129.9723598455
 30
0.0
 10
316.2561747497
 20
129.6063489725
 30
0.0
 10
315.5362029665
 20
129.0157357655
 30
0.0
 10
314.7292360005
 20
128.125138743
 30
0.0
 10
314.2419913739
 20
127.4543155726
 30
0.0
 10
313.8590000769
 20
126.7655052895
 30
0.0
 10
313.582967248
 20
126.0625168672
 30
0.0
 10
313.4162916937
 20
125.3498582812
 30
0.0
 10
313.3789899151
 20
124.8695522356
 30
0.0
 10
313.3790022948
 20
124.6318678416
 30
0.0
  0
SPLINE
  5
51A
100
AcDbEntity
  8
7_ALL_FEATURES
100
AcDbSpline
 62
7
  6
CONTINUOUS
 70
0
 71
3
 72
14
 73
10
 74
0
 42
0.0000001
 43
0.0000001
 44
0.0000000001
 40
0.0
 40
0.0
 40
0.0
 40
0.0
 40
0.2894143561
 40
0.4222696615
 40
0.5478488472
 40
0.6670541279
 40
0.7810984665
 40
0.8914952302
 40
1.0
 40
1.0
 40
1.0
 40
1.0
 10
346.9841587923
 20
129.9723518238
 30
0.0
 10
347.5018011624
 20
129.6063371056
 30
0.0
 10
348.2217750554
 20
129.0157021459
 30
0.0
 10
349.0287885184
 20
128.1251318809
 30
0.0
 10
349.5159763111
 20
127.4542823401
 30
0.0
 10
349.8989957704
 20
126.765500968
 30
0.0
 10
350.175000679
 20
126.0625057998
 30
0.0
 10
350.341706187
 20
125.3498554108
 30
0.0
 10
350.3789633988
 20
124.8695512037
 30
0.0
 10
350.3789757784
 20
124.6318678413
 30
0.0
  0
SPLINE
  5
51B
100
AcDbEntity
  8
7_ALL_FEATURES
100
AcDbSpline
 62
7
  6
CONTINUOUS
 70
0
 71
3
 72
19
 73
15
 74
0
 42
0.0000001
 43
0.0000001
 44
0.0000000001
 40
0.0
 40
0.0
 40
0.0
 40
0.0
 40
0.0560355804
 40
0.1153437328
 40
0.1775040364
 40
0.2420770456
 40
0.3762773828
 40
0.5134212212
 40
0.6486743166
 40
0.7773618646
 40
0.8379684097
 40
0.8954796428
 40
0.9495637821
 40
1.0
 40
1.0
 40
1.0
 40
1.0
 10
319.1510669753
 20
131.428841574
 30
0.0
 10
319.6271268713
 20
131.666871522
 30
0.0
 10
320.6292882086
 20
132.1131736467
 30
0.0
 10
322.2186535097
 20
132.6798585729
 30
0.0
 10
323.9214377894
 20
133.1573285193
 30
0.0
 10
326.3468388742
 20
133.6739416797
 30
0.0
 10
329.5219772787
 20
134.0575730145
 30
0.0
 10
333.3910006641
 20
134.1029294813
 30
0.0
 10
337.1904822081
 20
133.7368730487
 30
0.0
 10
340.2136404229
 20
133.0908234242
 30
0.0
 10
342.4468575683
 20
132.3723259102
 30
0.0
 10
343.9647083582
 20
131.7582866262
 30
0.0
 10
345.3411371505
 20
131.0657787815
 30
0.0
 10
346.184342712
 20
130.5379111239
 30
0.0
 10
346.5755039553
 20
130.2613302131
 30
0.0
  0
SPLINE
  5
51C
100
AcDbEntity
  8
7_ALL_FEATURES
100
AcDbSpline
 62
7
  6
CONTINUOUS
 70
0
 71
3
 72
9
 73
5
 74
0
 42
0.0000001
 43
0.0000001
 44
0.0000000001
 40
0.0
 40
0.0
 40
0.0
 40
0.0
 40
0.2603434788
 40
1.0
 40
1.0
 40
1.0
 40
1.0
 10
319.1510669753
 20
131.428841574
 30
0.0
 10
318.9733214213
 20
131.339968797
 30
0.0
 10
318.2964554237
 20
130.987151239
 30
0.0
 10
317.6434752265
 20
130.5872756735
 30
0.0
 10
317.1824665788
 20
130.2613328794
 30
0.0
  0
SPLINE
  5
51D
100
AcDbEntity
  8
7_ALL_FEATURES
100
AcDbSpline
 62
7
  6
CONTINUOUS
 70
0
 71
3
 72
30
 73
26
 74
0
 42
0.0000001
 43
0.0000001
 44
0.0000000001
 40
0.0
 40
0.0
 40
0.0
 40
0.0
 40
0.0268679907
 40
0.051957634
 40
0.075415792
 40
0.0974772413
 40
0.1184791845
 40
0.1388482419
 40
0.1590723872
 40
0.1796549264
 40
0.2010628902
 40
0.2236856461
 40
0.2478181036
 40
0.2736569387
 40
0.3013111095
 40
0.3308153
 40
0.3951640907
 40
0.465965555
 40
0.5418642278
 40
0.6211403238
 40
0.7018588532
 40
0.7819979164
 40
0.8595716858
 40
0.9327472724
 40
1.0
 40
1.0
 40
1.0
 40
1.0
 10
316.7833851649
 20
129.9669949715
 30
0.0
 10
316.4939433629
 20
129.7441619092
 30
0.0
 10
315.9537611486
 20
129.2867172824
 30
0.0
 10
315.2477144742
 20
128.5400580334
 30
0.0
 10
314.67990488
 20
127.762356056
 30
0.0
 10
314.2562458239
 20
126.9592917747
 30
0.0
 10
313.9815240005
 20
126.1374112398
 30
0.0
 10
313.8597098268
 20
125.304216748
 30
0.0
 10
313.8929345883
 20
124.4684230655
 30
0.0
 10
314.0804374173
 20
123.6390399301
 30
0.0
 10
314.419478929
 20
122.8243887599
 30
0.0
 10
314.9053685787
 20
122.0314071806
 30
0.0
 10
315.53303985
 20
121.2662698903
 30
0.0
 10
316.2965944705
 20
120.5345942961
 30
0.0
 10
317.1894848125
 20
119.8417230048
 30
0.0
 10
318.583147284
 20
118.9513013217
 30
0.0
 10
320.6111499209
 20
117.9829527464
 30
0.0
 10
323.3426905869
 20
117.0849997076
 30
0.0
 10
326.3536484155
 20
116.4472262649
 30
0.0
 10
329.5455661801
 20
116.0907334681
 30
0.0
 10
332.814194488
 20
116.0273096712
 30
0.0
 10
336.0520344678
 20
116.2590353384
 30
0.0
 10
339.153092863
 20
116.7783363868
 30
0.0
 10
342.0154722027
 20
117.5676029215
 30
0.0
 10
343.7891088681
 20
118.2920183977
 30
0.0
 10
344.606911098
 20
118.7009195127
 30
0.0
  0
SPLINE
  5
51E
100
AcDbEntity
  8
7_ALL_FEATURES
100
AcDbSpline
 62
7
  6
CONTINUOUS
 70
0
 71
3
 72
10
 73
6
 74
0
 42
0.0000001
 43
0.0000001
 44
0.0000000001
 40
0.0
 40
0.0
 40
0.0
 40
0.0
 40
0.2421047937
 40
0.4875781648
 40
1.0
 40
1.0
 40
1.0
 40
1.0
 10
350.3789757784
 20
124.6318678413
 30
0.0
 10
350.3789868091
 20
124.4200841932
 30
0.0
 10
350.3494295446
 20
123.9929307654
 30
0.0
 10
350.1711651337
 20
123.134534358
 30
0.0
 10
349.9071097916
 20
122.5167721185
 30
0.0
 10
349.6872636072
 20
122.1261414037
 30
0.0
  0
SPLINE
  5
51F
100
AcDbEntity
  8
7_ALL_FEATURES
100
AcDbSpline
 62
7
  6
CONTINUOUS
 70
0
 71
3
 72
10
 73
6
 74
0
 42
0.0000001
 43
0.0000001
 44
0.0000000001
 40
0.0
 40
0.0
 40
0.0
 40
0.0
 40
0.2426687892
 40
0.4884560006
 40
1.0
 40
1.0
 40
1.0
 40
1.0
 10
313.3790022948
 20
124.6318678416
 30
0.0
 10
313.3790128935
 20
124.4283780469
 30
0.0
 10
313.4062559692
 20
124.0182138297
 30
0.0
 10
313.5705456316
 20
123.1941632986
 30
0.0
 10
313.8142853881
 20
122.5991334674
 30
0.0
 10
314.0180381591
 20
122.2216587319
 30
0.0
  0
SPLINE
  5
520
100
AcDbEntity
  8
7_ALL_FEATURES
100
AcDbSpline
 62
7
  6
CONTINUOUS
 70
0
 71
3
 72
20
 73
16
 74
0
 42
0.0000001
 43
0.0000001
 44
0.0000000001
 40
0.0
 40
0.0
 40
0.0
 40
0.0
 40
0.0699825366
 40
0.1356534959
 40
0.2552166496
 40
0.3105584918
 40
0.3639820766
 40
0.4165395409
 40
0.4693588469
 40
0.5235433561
 40
0.580081323
 40
0.6397812202
 40
0.7032439831
 40
0.8427325935
 40
1.0
 40
1.0
 40
1.0
 40
1.0
 10
346.9745701764
 20
129.9669875885
 30
0.0
 10
347.2440233201
 20
129.7595376777
 30
0.0
 10
347.7494555138
 20
129.3341896053
 30
0.0
 10
348.6131825402
 20
128.4430040883
 30
0.0
 10
349.2838585349
 20
127.4657982072
 30
0.0
 10
349.6929189296
 20
126.4301289106
 30
0.0
 10
349.8615267015
 20
125.6608436603
 30
0.0
 10
349.8975093001
 20
124.8862686395
 30
0.0
 10
349.8001948129
 20
124.1133034574
 30
0.0
 10
349.5710898882
 20
123.3487890695
 30
0.0
 10
349.2128308301
 20
122.5988689618
 30
0.0
 10
348.7290983325
 20
121.868853209
 30
0.0
 10
347.896188964
 20
120.8981901489
 30
0.0
 10
346.5417060829
 20
119.7705514144
 30
0.0
 10
345.2904275115
 20
119.0426777194
 30
0.0
 10
344.606911098
 20
118.7009195127
 30
0.0
  0
SPLINE
  5
521
100
AcDbEntity
  8
7_ALL_FEATURES
100
AcDbSpline
 62
7
  6
CONTINUOUS
 70
0
 71
3
 72
11
 73
7
 74
0
 42
0.0000001
 43
0.0000001
 44
0.0000000001
 40
0.0
 40
0.0
 40
0.0
 40
0.0
 40
0.2368718953
 40
0.4999752584
 40
0.7630975907
 40
1.0
 40
1.0
 40
1.0
 40
1.0
 10
309.5106368635
 20
132.8655651253
 30
0.0
 10
309.7842800636
 20
132.9914925665
 30
0.0
 10
310.4013150112
 20
133.1720120726
 30
0.0
 10
311.372657725
 20
133.258689216
 30
0.0
 10
312.3440486087
 20
133.1721086394
 30
0.0
 10
312.9611624434
 20
132.9916290116
 30
0.0
 10
313.2348517393
 20
132.8657089171
 30
0.0
  0
SPLINE
  5
522
100
AcDbEntity
  8
7_ALL_FEATURES
100
AcDbSpline
 62
7
  6
CONTINUOUS
 70
0
 71
3
 72
24
 73
20
 74
0
 42
0.0000001
 43
0.0000001
 44
0.0000000001
 40
0.0
 40
0.0
 40
0.0
 40
0.0
 40
0.06260018
 40
0.1298738437
 40
0.2009581365
 40
0.2748183451
 40
0.3503034108
 40
0.4261989997
 40
0.5012748867
 40
0.5743324444
 40
0.6442534059
 40
0.7100532181
 40
0.7709432888
 40
0.8264091977
 40
0.8763148032
 40
0.9210402688
 40
0.9616367972
 40
0.9809704786
 40
1.0
 40
1.0
 40
1.0
 40
1.0
 10
348.4959983945
 20
90.342601049
 30
0.0
 10
347.6459166263
 20
89.9175601649
 30
0.0
 10
345.8277479479
 20
89.1426404473
 30
0.0
 10
342.9125122479
 20
88.2291203585
 30
0.0
 10
339.7617814645
 20
87.5372209637
 30
0.0
 10
336.442921272
 20
87.0819306466
 30
0.0
 10
333.0264798211
 20
86.8729843796
 30
0.0
 10
329.5855127753
 20
86.9149105323
 30
0.0
 10
326.1935801872
 20
87.2068005135
 30
0.0
 10
322.923118722
 20
87.7423521436
 30
0.0
 10
319.8437190218
 20
88.5100733357
 30
0.0
 10
317.0204692204
 20
89.4936655107
 30
0.0
 10
314.5123980906
 20
90.67279669
 30
0.0
 10
312.3711579382
 20
92.0240045013
 30
0.0
 10
310.6406534869
 20
93.5232536115
 30
0.0
 10
309.3584904175
 20
95.1452361826
 30
0.0
 10
308.6842472986
 20
96.6059472943
 30
0.0
 10
308.4222654392
 20
97.7794391618
 30
0.0
 10
308.3789906278
 20
98.362808501
 30
0.0
 10
308.3790058858
 20
98.6517221045
 30
0.0
  0
SPLINE
  5
523
100
AcDbEntity
  8
7_ALL_FEATURES
100
AcDbSpline
 62
7
  6
CONTINUOUS
 70
0
 71
3
 72
21
 73
17
 74
0
 42
0.0000001
 43
0.0000001
 44
0.0000000001
 40
0.0
 40
0.0
 40
0.0
 40
0.0
 40
0.0582283731
 40
0.120227293
 40
0.185446043
 40
0.2532563497
 40
0.3936422353
 40
0.5352075104
 40
0.6044587595
 40
0.6716416158
 40
0.7360559425
 40
0.7970869618
 40
0.8542359615
 40
0.9071575875
 40
0.9557068981
 40
1.0
 40
1.0
 40
1.0
 40
1.0
 10
348.4959983945
 20
95.1057407698
 30
0.0
 10
347.7883225408
 20
94.751902843
 30
0.0
 10
346.2894385391
 20
94.0952688304
 30
0.0
 10
343.9012108325
 20
93.2838070208
 30
0.0
 10
341.3319668242
 20
92.6244614973
 30
0.0
 10
337.6752947306
 20
91.9540494204
 30
0.0
 10
332.9257316802
 20
91.5596638067
 30
0.0
 10
328.1443239461
 20
91.7425592943
 30
0.0
 10
324.3980292894
 20
92.2442663351
 30
0.0
 10
321.7209319309
 20
92.7858747015
 30
0.0
 10
319.1966794114
 20
93.4870645698
 30
0.0
 10
316.8628405704
 20
94.3374719802
 30
0.0
 10
314.7540742275
 20
95.3245085456
 30
0.0
 10
312.9011742758
 20
96.4342648503
 30
0.0
 10
311.331757213
 20
97.650871971
 30
0.0
 10
310.4513111629
 20
98.5632732145
 30
0.0
 10
310.0742572015
 20
99.0323766149
 30
0.0
  0
SPLINE
  5
524
100
AcDbEntity
  8
7_ALL_FEATURES
100
AcDbSpline
 62
7
  6
CONTINUOUS
 70
0
 71
3
 72
24
 73
20
 74
0
 42
0.0000001
 43
0.0000001
 44
0.0000000001
 40
0.0
 40
0.0
 40
0.0
 40
0.0
 40
0.06260018
 40
0.1298738437
 40
0.2009581365
 40
0.2748183451
 40
0.3503034108
 40
0.4261989997
 40
0.5012748867
 40
0.5743324444
 40
0.6442534059
 40
0.7100532181
 40
0.7709432888
 40
0.8264091977
 40
0.8763148032
 40
0.9210402688
 40
0.9616367972
 40
0.9809704786
 40
1.0
 40
1.0
 40
1.0
 40
1.0
 10
348.4959983945
 20
80.8163216074
 30
0.0
 10
347.6459166263
 20
80.3912807233
 30
0.0
 10
345.8277479479
 20
79.6163610057
 30
0.0
 10
342.9125122479
 20
78.7028409169
 30
0.0
 10
339.7617814645
 20
78.0109415221
 30
0.0
 10
336.442921272
 20
77.555651205
 30
0.0
 10
333.0264798211
 20
77.346704938
 30
0.0
 10
329.5855127753
 20
77.3886310907
 30
0.0
 10
326.1935801872
 20
77.6805210719
 30
0.0
 10
322.923118722
 20
78.216072702
 30
0.0
 10
319.8437190218
 20
78.983793894
 30
0.0
 10
317.0204692204
 20
79.967386069
 30
0.0
 10
314.5123980906
 20
81.1465172484
 30
0.0
 10
312.3711579382
 20
82.4977250597
 30
0.0
 10
310.6406534869
 20
83.9969741699
 30
0.0
 10
309.3584904175
 20
85.618956741
 30
0.0
 10
308.6842472986
 20
87.0796678527
 30
0.0
 10
308.4222654392
 20
88.2531597202
 30
0.0
 10
308.3789906278
 20
88.8365290594
 30
0.0
 10
308.3790058858
 20
89.1254426628
 30
0.0
  0
SPLINE
  5
525
100
AcDbEntity
  8
7_ALL_FEATURES
100
AcDbSpline
 62
7
  6
CONTINUOUS
 70
0
 71
3
 72
24
 73
20
 74
0
 42
0.0000001
 43
0.0000001
 44
0.0000000001
 40
0.0
 40
0.0
 40
0.0
 40
0.0
 40
0.06260018
 40
0.1298738437
 40
0.2009581365
 40
0.2748183451
 40
0.3503034108
 40
0.4261989997
 40
0.5012748867
 40
0.5743324444
 40
0.6442534059
 40
0.7100532181
 40
0.7709432888
 40
0.8264091977
 40
0.8763148032
 40
0.9210402688
 40
0.9616367972
 40
0.9809704786
 40
1.0
 40
1.0
 40
1.0
 40
1.0
 10
348.4959983945
 20
85.5794613282
 30
0.0
 10
347.6459166263
 20
85.1544204441
 30
0.0
 10
345.8277479479
 20
84.3795007265
 30
0.0
 10
342.9125122479
 20
83.4659806377
 30
0.0
 10
339.7617814645
 20
82.7740812429
 30
0.0
 10
336.442921272
 20
82.3187909258
 30
0.0
 10
333.0264798211
 20
82.1098446588
 30
0.0
 10
329.5855127753
 20
82.1517708115
 30
0.0
 10
326.1935801872
 20
82.4436607927
 30
0.0
 10
322.923118722
 20
82.9792124228
 30
0.0
 10
319.8437190218
 20
83.7469336149
 30
0.0
 10
317.0204692204
 20
84.7305257898
 30
0.0
 10
314.5123980906
 20
85.9096569692
 30
0.0
 10
312.3711579382
 20
87.2608647805
 30
0.0
 10
310.6406534869
 20
88.7601138907
 30
0.0
 10
309.3584904175
 20
90.3820964618
 30
0.0
 10
308.6842472986
 20
91.8428075735
 30
0.0
 10
308.4222654392
 20
93.016299441
 30
0.0
 10
308.3789906278
 20
93.5996687802
 30
0.0
 10
308.3790058858
 20
93.8885823836
 30
0.0
  0
SPLINE
  5
526
100
AcDbEntity
  8
7_ALL_FEATURES
100
AcDbSpline
 62
7
  6
CONTINUOUS
 70
0
 71
3
 72
18
 73
14
 74
0
 42
0.0000001
 43
0.0000001
 44
0.0000000001
 40
0.0
 40
0.0
 40
0.0
 40
0.0
 40
0.0560372772
 40
0.1153526561
 40
0.2420301644
 40
0.3762408424
 40
0.5133944117
 40
0.6486564252
 40
0.7773522961
 40
0.8379613517
 40
0.8954758674
 40
0.9495627936
 40
1.0
 40
1.0
 40
1.0
 40
1.0
 10
348.1424450039
 20
76.2299585818
 30
0.0
 10
347.5341537009
 20
75.9258129303
 30
0.0
 10
346.2535447001
 20
75.3554925983
 30
0.0
 10
343.4846659541
 20
74.368490817
 30
0.0
 10
339.6959650914
 20
73.451941774
 30
0.0
 10
334.8907402278
 20
72.8709416886
 30
0.0
 10
329.9462788738
 20
72.8130793876
 30
0.0
 10
325.0914341117
 20
73.280958915
 30
0.0
 10
321.2283927562
 20
74.1064543349
 30
0.0
 10
318.3748521463
 20
75.0247134455
 30
0.0
 10
316.4353695417
 20
75.8093361849
 30
0.0
 10
314.6766055467
 20
76.6942377845
 30
0.0
 10
313.5992627277
 20
77.368855649
 30
0.0
 10
313.0994660148
 20
77.7222691701
 30
0.0
  0
SPLINE
  5
527
100
AcDbEntity
  8
7_ALL_FEATURES
100
AcDbSpline
 62
7
  6
CONTINUOUS
 70
0
 71
3
 72
9
 73
5
 74
0
 42
0.0000001
 43
0.0000001
 44
0.0000000001
 40
0.0
 40
0.0
 40
0.0
 40
0.0
 40
0.2589946122
 40
1.0
 40
1.0
 40
1.0
 40
1.0
 10
348.5310464389
 20
76.4290336256
 30
0.0
 10
348.7214042732
 20
76.5289462725
 30
0.0
 10
349.4505681665
 20
76.9256000544
 30
0.0
 10
350.1559203877
 20
77.3668836395
 30
0.0
 10
350.6581603068
 20
77.7219776387
 30
0.0
  0
SPLINE
  5
528
100
AcDbEntity
  8
7_ALL_FEATURES
100
AcDbSpline
 62
7
  6
CONTINUOUS
 70
0
 71
3
 72
11
 73
7
 74
0
 42
0.0000001
 43
0.0000001
 44
0.0000000001
 40
0.0
 40
0.0
 40
0.0
 40
0.0
 40
0.2263531277
 40
0.4714263214
 40
0.7310042091
 40
1.0
 40
1.0
 40
1.0
 40
1.0
 10
355.920619597
 20
100.0536842064
 30
0.0
 10
354.5078456558
 20
99.3472972358
 30
0.0
 10
351.4612187819
 20
98.0804149795
 30
0.0
 10
346.5555836925
 20
96.6522520629
 30
0.0
 10
341.2432118051
 20
95.6495415845
 30
0.0
 10
337.5671944362
 20
95.287613567
 30
0.0
 10
335.693080886
 20
95.1818272076
 30
0.0
  0
SPLINE
  5
529
100
AcDbEntity
  8
7_ALL_FEATURES
100
AcDbSpline
 62
7
  6
CONTINUOUS
 70
0
 71
3
 72
13
 73
9
 74
0
 42
0.0000001
 43
0.0000001
 44
0.0000000001
 40
0.0
 40
0.0
 40
0.0
 40
0.0
 40
0.2781008514
 40
0.542243743
 40
0.6666468989
 40
0.7847921235
 40
0.8960494859
 40
1.0
 40
1.0
 40
1.0
 40
1.0
 10
328.0783060519
 20
95.1810480268
 30
0.0
 10
325.7389796656
 20
95.3126231616
 30
0.0
 10
321.1873816489
 20
95.8068899916
 30
0.0
 10
315.6921070467
 20
97.0372268763
 30
0.0
 10
311.6357374424
 20
98.3770788761
 30
0.0
 10
308.8766743463
 20
99.5131084303
 30
0.0
 10
306.3704539305
 20
100.7874918541
 30
0.0
 10
304.8325185419
 20
101.7543928217
 30
0.0
 10
304.117446164
 20
102.2600441016
 30
0.0
  0
SPLINE
  5
52A
100
AcDbEntity
  8
7_ALL_FEATURES
100
AcDbSpline
 62
7
  6
CONTINUOUS
 70
0
 71
3
 72
9
 73
5
 74
0
 42
0.0000001
 43
0.0000001
 44
0.0000000001
 40
0.0
 40
0.0
 40
0.0
 40
0.0
 40
0.2594661555
 40
1.0
 40
1.0
 40
1.0
 40
1.0
 10
356.309966246
 20
100.2515723572
 30
0.0
 10
356.608797248
 20
100.4059624386
 30
0.0
 10
357.7511259871
 20
101.0187804881
 30
0.0
 10
358.8550920405
 20
101.7046708362
 30
0.0
 10
359.6389463639
 20
102.2588787644
 30
0.0
  0
SPLINE
  5
52B
100
AcDbEntity
  8
7_ALL_FEATURES
100
AcDbSpline
 62
7
  6
CONTINUOUS
 70
0
 71
3
 72
9
 73
5
 74
0
 42
0.0000001
 43
0.0000001
 44
0.0000000001
 40
0.0
 40
0.0
 40
0.0
 40
0.0
 40
0.2445136342
 40
1.0
 40
1.0
 40
1.0
 40
1.0
 10
349.9873913363
 20
95.9253754472
 30
0.0
 10
349.8686717476
 20
95.8536121528
 30
0.0
 10
349.3800049726
 20
95.5653191735
 30
0.0
 10
348.8793698107
 20
95.2974264779
 30
0.0
 10
348.4959983945
 20
95.1057407698
 30
0.0
  0
SPLINE
  5
52C
100
AcDbEntity
  8
7_ALL_FEATURES
100
AcDbSpline
 62
7
  6
CONTINUOUS
 70
0
 71
3
 72
9
 73
5
 74
0
 42
0.0000001
 43
0.0000001
 44
0.0000000001
 40
0.0
 40
0.0
 40
0.0
 40
0.0
 40
0.4910857917
 40
1.0
 40
1.0
 40
1.0
 40
1.0
 10
355.3789721875
 20
98.6504893514
 30
0.0
 10
355.3789489042
 20
98.209615034
 30
0.0
 10
355.2759932946
 20
97.3091739464
 30
0.0
 10
354.9802311968
 20
96.4539520657
 30
0.0
 10
354.7906013475
 20
96.0382842648
 30
0.0
  0
SPLINE
  5
52D
100
AcDbEntity
  8
7_ALL_FEATURES
100
AcDbSpline
 62
7
  6
CONTINUOUS
 70
0
 71
3
 72
9
 73
5
 74
0
 42
0.0000001
 43
0.0000001
 44
0.0000000001
 40
0.0
 40
0.0
 40
0.0
 40
0.0
 40
0.2449569766
 40
1.0
 40
1.0
 40
1.0
 40
1.0
 10
349.8790252265
 20
91.0972083427
 30
0.0
 10
349.7684915199
 20
91.0313630594
 30
0.0
 10
349.314630931
 20
90.7669780643
 30
0.0
 10
348.850704933
 20
90.5199543182
 30
0.0
 10
348.4959983945
 20
90.342601049
 30
0.0
  0
SPLINE
  5
52E
100
AcDbEntity
  8
7_ALL_FEATURES
100
AcDbSpline
 62
7
  6
CONTINUOUS
 70
0
 71
3
 72
9
 73
5
 74
0
 42
0.0000001
 43
0.0000001
 44
0.0000000001
 40
0.0
 40
0.0
 40
0.0
 40
0.0
 40
0.2487367756
 40
1.0
 40
1.0
 40
1.0
 40
1.0
 10
355.3789721875
 20
96.05241314
 30
0.0
 10
355.3789779948
 20
96.1623773241
 30
0.0
 10
355.3666338347
 20
96.6044008214
 30
0.0
 10
355.3041938275
 20
97.0448742281
 30
0.0
 10
355.2311672245
 20
97.3688727698
 30
0.0
  0
SPLINE
  5
52F
100
AcDbEntity
  8
7_ALL_FEATURES
100
AcDbSpline
 62
7
  6
CONTINUOUS
 70
0
 71
3
 72
9
 73
5
 74
0
 42
0.0000001
 43
0.0000001
 44
0.0000000001
 40
0.0
 40
0.0
 40
0.0
 40
0.0
 40
0.4910857917
 40
1.0
 40
1.0
 40
1.0
 40
1.0
 10
355.3789721875
 20
93.8873496306
 30
0.0
 10
355.3789489042
 20
93.4464753131
 30
0.0
 10
355.2759932946
 20
92.5460342256
 30
0.0
 10
354.9802311968
 20
91.6908123449
 30
0.0
 10
354.7906013475
 20
91.275144544
 30
0.0
  0
SPLINE
  5
530
100
AcDbEntity
  8
7_ALL_FEATURES
100
AcDbSpline
 62
7
  6
CONTINUOUS
 70
0
 71
3
 72
9
 73
5
 74
0
 42
0.0000001
 43
0.0000001
 44
0.0000000001
 40
0.0
 40
0.0
 40
0.0
 40
0.0
 40
0.4799047433
 40
1.0
 40
1.0
 40
1.0
 40
1.0
 10
351.9430039316
 20
87.7706691693
 30
0.0
 10
351.436971806
 20
87.3557384324
 30
0.0
 10
350.323169139
 20
86.562416424
 30
0.0
 10
349.1303272174
 20
85.8966257396
 30
0.0
 10
348.4959983945
 20
85.5794613282
 30
0.0
  0
SPLINE
  5
531
100
AcDbEntity
  8
7_ALL_FEATURES
100
AcDbSpline
 62
7
  6
CONTINUOUS
 70
0
 71
3
 72
9
 73
5
 74
0
 42
0.0000001
 43
0.0000001
 44
0.0000000001
 40
0.0
 40
0.0
 40
0.0
 40
0.0
 40
0.2487367756
 40
1.0
 40
1.0
 40
1.0
 40
1.0
 10
355.3789721875
 20
91.2892734192
 30
0.0
 10
355.3789779948
 20
91.3992376033
 30
0.0
 10
355.3666338347
 20
91.8412611006
 30
0.0
 10
355.3041938275
 20
92.2817345073
 30
0.0
 10
355.2311672245
 20
92.605733049
 30
0.0
  0
SPLINE
  5
532
100
AcDbEntity
  8
7_ALL_FEATURES
100
AcDbSpline
 62
7
  6
CONTINUOUS
 70
0
 71
3
 72
14
 73
10
 74
0
 42
0.0000001
 43
0.0000001
 44
0.0000000001
 40
0.0
 40
0.0
 40
0.0
 40
0.0
 40
0.1021025024
 40
0.2070727357
 40
0.3174526971
 40
0.4352457297
 40
0.56183842
 40
0.698054333
 40
1.0
 40
1.0
 40
1.0
 40
1.0
 10
355.3789721875
 20
89.1242099098
 30
0.0
 10
355.3789518167
 20
88.7384838376
 30
0.0
 10
355.3006911525
 20
87.9541586669
 30
0.0
 10
354.9532020753
 20
86.7994756601
 30
0.0
 10
354.3810891945
 20
85.6717776921
 30
0.0
 10
353.5926637216
 20
84.5821570684
 30
0.0
 10
352.5970398371
 20
83.5393611883
 30
0.0
 10
350.9503190402
 20
82.1771162862
 30
0.0
 10
349.5162714192
 20
81.3264581197
 30
0.0
 10
348.4959983945
 20
80.8163216074
 30
0.0
  0
SPLINE
  5
533
100
AcDbEntity
  8
7_ALL_FEATURES
100
AcDbSpline
 62
7
  6
CONTINUOUS
 70
0
 71
3
 72
9
 73
5
 74
0
 42
0.0000001
 43
0.0000001
 44
0.0000000001
 40
0.0
 40
0.0
 40
0.0
 40
0.0
 40
0.2487367756
 40
1.0
 40
1.0
 40
1.0
 40
1.0
 10
355.3789721875
 20
86.5261336984
 30
0.0
 10
355.3789779948
 20
86.6360978825
 30
0.0
 10
355.3666338347
 20
87.0781213798
 30
0.0
 10
355.3041938275
 20
87.5185947865
 30
0.0
 10
355.2311672245
 20
87.8425933282
 30
0.0
  0
SPLINE
  5
534
100
AcDbEntity
  8
7_ALL_FEATURES
100
AcDbSpline
 62
7
  6
CONTINUOUS
 70
0
 71
3
 72
13
 73
9
 74
0
 42
0.0000001
 43
0.0000001
 44
0.0000000001
 40
0.0
 40
0.0
 40
0.0
 40
0.0
 40
0.2895234256
 40
0.5476773584
 40
0.6669289793
 40
0.7810154498
 40
0.8914545813
 40
1.0
 40
1.0
 40
1.0
 40
1.0
 10
312.6913567758
 20
78.0108468243
 30
0.0
 10
312.0338177425
 20
78.4757919759
 30
0.0
 10
310.8497513173
 20
79.4466242444
 30
0.0
 10
309.6548782083
 20
80.8865741383
 30
0.0
 10
308.9887049176
 20
82.0843808265
 30
0.0
 10
308.6381266958
 20
82.9774149901
 30
0.0
 10
308.4263633352
 20
83.8826579578
 30
0.0
 10
308.3789939385
 20
84.4927782462
 30
0.0
 10
308.3790162872
 20
84.7946992669
 30
0.0
  0
SPLINE
  5
535
100
AcDbEntity
  8
7_ALL_FEATURES
100
AcDbSpline
 62
7
  6
CONTINUOUS
 70
0
 71
3
 72
12
 73
8
 74
0
 42
0.0000001
 43
0.0000001
 44
0.0000000001
 40
0.0
 40
0.0
 40
0.0
 40
0.0
 40
0.2896727918
 40
0.5479585408
 40
0.7809029736
 40
0.8913977355
 40
1.0
 40
1.0
 40
1.0
 40
1.0
 10
351.0666625494
 20
78.0108322392
 30
0.0
 10
351.7242166695
 20
78.4757554858
 30
0.0
 10
352.9085121133
 20
79.4475330756
 30
0.0
 10
354.3058569888
 20
81.1290441033
 30
0.0
 10
355.0447417139
 20
82.6548663272
 30
0.0
 10
355.3315400363
 20
83.8826277617
 30
0.0
 10
355.3789394371
 20
84.4927760162
 30
0.0
 10
355.378961786
 20
84.7946992679
 30
0.0
  0
SPLINE
  5
536
100
AcDbEntity
  8
7_ALL_FEATURES
100
AcDbSpline
 62
7
  6
CONTINUOUS
 70
0
 71
3
 72
11
 73
7
 74
0
 42
0.0000001
 43
0.0000001
 44
0.0000000001
 40
0.0
 40
0.0
 40
0.0
 40
0.0
 40
0.2838960501
 40
0.5428762942
 40
0.7798240755
 40
1.0
 40
1.0
 40
1.0
 40
1.0
 10
303.7098886815
 20
102.5482312484
 30
0.0
 10
302.9278625095
 20
103.1011865424
 30
0.0
 10
301.4917026112
 20
104.247797526
 30
0.0
 10
299.68970458
 20
106.1799666131
 30
0.0
 10
298.3696820299
 20
108.2201474402
 30
0.0
 10
297.8159293786
 20
109.6760674991
 30
0.0
 10
297.6381170268
 20
110.3972712185
 30
0.0
  0
SPLINE
  5
537
100
AcDbEntity
  8
7_ALL_FEATURES
100
AcDbSpline
 62
7
  6
CONTINUOUS
 70
0
 71
3
 72
11
 73
7
 74
0
 42
0.0000001
 43
0.0000001
 44
0.0000000001
 40
0.0
 40
0.0
 40
0.0
 40
0.0
 40
0.2838884371
 40
0.5428677708
 40
0.7798211399
 40
1.0
 40
1.0
 40
1.0
 40
1.0
 10
360.0481317016
 20
102.5482162891
 30
0.0
 10
360.8300399585
 20
103.1011043238
 30
0.0
 10
362.2660383065
 20
104.2475312925
 30
0.0
 10
364.0678443515
 20
106.1794554474
 30
0.0
 10
365.3878182211
 20
108.2193508515
 30
0.0
 10
365.9417012712
 20
109.6750624554
 30
0.0
 10
366.1195488122
 20
110.396180287
 30
0.0
  0
SPLINE
  5
538
100
AcDbEntity
  8
7_ALL_FEATURES
100
AcDbSpline
 62
7
  6
CONTINUOUS
 70
0
 71
3
 72
11
 73
7
 74
0
 42
0.0000001
 43
0.0000001
 44
0.0000000001
 40
0.0
 40
0.0
 40
0.0
 40
0.0
 40
0.2916543039
 40
0.5542150268
 40
0.7887803848
 40
1.0
 40
1.0
 40
1.0
 40
1.0
 10
316.3226398505
 20
93.0379946443
 30
0.0
 10
315.5755659072
 20
93.411531616
 30
0.0
 10
314.194013397
 20
94.203398584
 30
0.0
 10
312.4098390207
 20
95.6047962906
 30
0.0
 10
311.0575352254
 20
97.1341255624
 30
0.0
 10
310.4441652771
 20
98.2725341094
 30
0.0
 10
310.2366833538
 20
98.8407389361
 30
0.0
  0
SPLINE
  5
539
100
AcDbEntity
  8
7_ALL_FEATURES
100
AcDbSpline
 62
7
  6
CONTINUOUS
 70
0
 71
3
 72
11
 73
7
 74
0
 42
0.0000001
 43
0.0000001
 44
0.0000000001
 40
0.0
 40
0.0
 40
0.0
 40
0.0
 40
0.2916543039
 40
0.5542150268
 40
0.7887803848
 40
1.0
 40
1.0
 40
1.0
 40
1.0
 10
316.3226398505
 20
88.2748549235
 30
0.0
 10
315.5755659072
 20
88.6483918952
 30
0.0
 10
314.194013397
 20
89.4402588632
 30
0.0
 10
312.4098390207
 20
90.8416565698
 30
0.0
 10
311.0575352254
 20
92.3709858416
 30
0.0
 10
310.4441652771
 20
93.5093943886
 30
0.0
 10
310.2366833538
 20
94.0775992153
 30
0.0
  0
SPLINE
  5
53A
100
AcDbEntity
  8
7_ALL_FEATURES
100
AcDbSpline
 62
7
  6
CONTINUOUS
 70
0
 71
3
 72
11
 73
7
 74
0
 42
0.0000001
 43
0.0000001
 44
0.0000000001
 40
0.0
 40
0.0
 40
0.0
 40
0.0
 40
0.2916543039
 40
0.5542150268
 40
0.7887803848
 40
1.0
 40
1.0
 40
1.0
 40
1.0
 10
316.3226398505
 20
83.5117152027
 30
0.0
 10
315.5755659072
 20
83.8852521744
 30
0.0
 10
314.194013397
 20
84.6771191424
 30
0.0
 10
312.4098390207
 20
86.0785168489
 30
0.0
 10
311.0575352254
 20
87.6078461208
 30
0.0
 10
310.4441652771
 20
88.7462546678
 30
0.0
 10
310.2366833538
 20
89.3144594945
 30
0.0
  0
SPLINE
  5
53B
100
AcDbEntity
  8
7_ALL_FEATURES
100
AcDbSpline
 62
7
  6
CONTINUOUS
 70
0
 71
3
 72
11
 73
7
 74
0
 42
0.0000001
 43
0.0000001
 44
0.0000000001
 40
0.0
 40
0.0
 40
0.0
 40
0.0
 40
0.2916543039
 40
0.5542150268
 40
0.7887803848
 40
1.0
 40
1.0
 40
1.0
 40
1.0
 10
316.3226398505
 20
78.7485754819
 30
0.0
 10
315.5755659072
 20
79.1221124536
 30
0.0
 10
314.194013397
 20
79.9139794216
 30
0.0
 10
312.4098390207
 20
81.3153771281
 30
0.0
 10
311.0575352254
 20
82.8447064
 30
0.0
 10
310.4441652771
 20
83.9831149469
 30
0.0
 10
310.2366833538
 20
84.5513197737
 30
0.0
  0
SPLINE
  5
53C
100
AcDbEntity
  8
7_ALL_FEATURES
100
AcDbSpline
 62
7
  6
CONTINUOUS
 70
0
 71
3
 72
15
 73
11
 74
0
 42
0.0000001
 43
0.0000001
 44
0.0000000001
 40
0.0
 40
0.0
 40
0.0
 40
0.0
 40
0.109139025
 40
0.2266206729
 40
0.3508235347
 40
0.4798303673
 40
0.6114980024
 40
0.7435798749
 40
0.8738102676
 40
1.0
 40
1.0
 40
1.0
 40
1.0
 10
316.3226398505
 20
93.0379946443
 30
0.0
 10
317.1425691285
 20
92.6280300054
 30
0.0
 10
318.8993334536
 20
91.8830463618
 30
0.0
 10
321.7187599898
 20
91.01253421
 30
0.0
 10
324.7677399553
 20
90.3626499569
 30
0.0
 10
327.977183701
 20
89.9481869362
 30
0.0
 10
331.2749288534
 20
89.7786113255
 30
0.0
 10
334.5863950558
 20
89.8577787646
 30
0.0
 10
337.836342636
 20
90.183853603
 30
0.0
 10
339.9584085935
 20
90.5690686564
 30
0.0
 10
340.9919105683
 20
90.80426174
 30
0.0
  0
LINE
  5
53D
100
AcDbEntity
  8
7_ALL_FEATURES
100
AcDbLine
 62
7
  6
CONTINUOUS
 10
340.9919105683
 20
90.80426174
 11
341.0551509337
 21
90.818713607
  0
SPLINE
  5
53E
100
AcDbEntity
  8
7_ALL_FEATURES
100
AcDbSpline
 62
7
  6
CONTINUOUS
 70
0
 71
3
 72
11
 73
7
 74
0
 42
0.0000001
 43
0.0000001
 44
0.0000000001
 40
0.0
 40
0.0
 40
0.0
 40
0.0
 40
0.2731044391
 40
0.5317781203
 40
0.774423198
 40
1.0
 40
1.0
 40
1.0
 40
1.0
 10
342.7401877614
 20
91.250161857
 30
0.0
 10
343.4417827159
 20
91.4492942001
 30
0.0
 10
344.7954767951
 20
91.8830719488
 30
0.0
 10
346.7136312861
 20
92.6618677894
 30
0.0
 10
348.4458792789
 20
93.5432581044
 30
0.0
 10
349.5020963023
 20
94.2176545601
 30
0.0
 10
349.9897977095
 20
94.571234164
 30
0.0
  0
SPLINE
  5
53F
100
AcDbEntity
  8
7_ALL_FEATURES
100
AcDbSpline
 62
7
  6
CONTINUOUS
 70
0
 71
3
 72
18
 73
14
 74
0
 42
0.0000001
 43
0.0000001
 44
0.0000000001
 40
0.0
 40
0.0
 40
0.0
 40
0.0
 40
0.0564145908
 40
0.1162000341
 40
0.2439897051
 40
0.3793196205
 40
0.5173047489
 40
0.6528284061
 40
0.7809934632
 40
0.8410047655
 40
0.8976967512
 40
0.9507564493
 40
1.0
 40
1.0
 40
1.0
 40
1.0
 10
316.3226398505
 20
88.2748549235
 30
0.0
 10
316.9198924914
 20
87.9762286031
 30
0.0
 10
318.1787612568
 20
87.4173425052
 30
0.0
 10
320.9039566781
 20
86.4547924147
 30
0.0
 10
324.6351346691
 20
85.5719849691
 30
0.0
 10
329.362049482
 20
85.0351982834
 30
0.0
 10
334.2113651095
 20
85.0250998176
 30
0.0
 10
338.9472710929
 20
85.5420036721
 30
0.0
 10
342.6916138425
 20
86.4089516844
 30
0.0
 10
345.43218407
 20
87.3594508065
 30
0.0
 10
347.2759445871
 20
88.1642774104
 30
0.0
 10
348.9304402448
 20
89.066391286
 30
0.0
 10
349.9320657294
 20
89.7520622431
 30
0.0
 10
350.3919426619
 20
90.1101817047
 30
0.0
  0
SPLINE
  5
540
100
AcDbEntity
  8
7_ALL_FEATURES
100
AcDbSpline
 62
7
  6
CONTINUOUS
 70
0
 71
3
 72
20
 73
16
 74
0
 42
0.0000001
 43
0.0000001
 44
0.0000000001
 40
0.0
 40
0.0
 40
0.0
 40
0.0
 40
0.0582250558
 40
0.1202288323
 40
0.1854447635
 40
0.2532541962
 40
0.3936396899
 40
0.5352081661
 40
0.6715748341
 40
0.7359963993
 40
0.797036804
 40
0.8541965855
 40
0.907130553
 40
0.9556934914
 40
1.0
 40
1.0
 40
1.0
 40
1.0
 10
316.3226398505
 20
83.5117152027
 30
0.0
 10
316.9849660088
 20
83.1805521236
 30
0.0
 10
318.3879025921
 20
82.5659732707
 30
0.0
 10
320.6231569455
 20
81.8063661564
 30
0.0
 10
323.0279029253
 20
81.1891599979
 30
0.0
 10
326.4502857645
 20
80.5615032144
 30
0.0
 10
330.8962880026
 20
80.1920735153
 30
0.0
 10
336.2245611731
 20
80.3957819392
 30
0.0
 10
340.5353769797
 20
81.1035308976
 30
0.0
 10
343.7466797556
 20
81.9947093178
 30
0.0
 10
345.9316101138
 20
82.7904136522
 30
0.0
 10
347.9059309971
 20
83.7139529602
 30
0.0
 10
349.6408907995
 20
84.7523846346
 30
0.0
 10
351.1106812062
 20
85.8907974815
 30
0.0
 10
351.9353600663
 20
86.74465384
 30
0.0
 10
352.2886548966
 20
87.18363138
 30
0.0
  0
SPLINE
  5
541
100
AcDbEntity
  8
7_ALL_FEATURES
100
AcDbSpline
 62
7
  6
CONTINUOUS
 70
0
 71
3
 72
21
 73
17
 74
0
 42
0.0000001
 43
0.0000001
 44
0.0000000001
 40
0.0
 40
0.0
 40
0.0
 40
0.0
 40
0.0604775139
 40
0.1251987802
 40
0.1934492794
 40
0.2644128307
 40
0.4106014713
 40
0.5558976163
 40
0.6257741065
 40
0.6925608041
 40
0.7554820826
 40
0.8139232532
 40
0.8674889884
 40
0.9160787263
 40
0.9599842137
 40
1.0
 40
1.0
 40
1.0
 40
1.0
 10
316.3226398505
 20
78.7485754819
 30
0.0
 10
317.0548009102
 20
78.382494952
 30
0.0
 10
318.6136917874
 20
77.7093189834
 30
0.0
 10
321.1061472363
 20
76.8972883046
 30
0.0
 10
323.7950079922
 20
76.2601959017
 30
0.0
 10
327.6131421495
 20
75.6539462532
 30
0.0
 10
332.5285214028
 20
75.4003380708
 30
0.0
 10
337.4200848277
 20
75.798007173
 30
0.0
 10
341.1709904622
 20
76.5189970231
 30
0.0
 10
343.7790112273
 20
77.2349956495
 30
0.0
 10
346.1707956033
 20
78.1198406563
 30
0.0
 10
348.3037067711
 20
79.158076966
 30
0.0
 10
350.1400283791
 20
80.3318922703
 30
0.0
 10
351.6475877854
 20
81.6231537293
 30
0.0
 10
352.7981676665
 20
83.0118704119
 30
0.0
 10
353.3294830363
 20
84.0294515698
 30
0.0
 10
353.5163654757
 20
84.5378147036
 30
0.0
  0
SPLINE
  5
542
100
AcDbEntity
  8
7_ALL_FEATURES
100
AcDbSpline
 62
7
  6
CONTINUOUS
 70
0
 71
3
 72
9
 73
5
 74
0
 42
0.0000001
 43
0.0000001
 44
0.0000000001
 40
0.0
 40
0.0
 40
0.0
 40
0.0
 40
0.255473394
 40
1.0
 40
1.0
 40
1.0
 40
1.0
 10
348.4959983945
 20
92.5076645584
 30
0.0
 10
348.6256377642
 20
92.5724842433
 30
0.0
 10
349.1306819233
 20
92.8309697335
 30
0.0
 10
349.6259001942
 20
93.1087860525
 30
0.0
 10
349.9873913363
 20
93.3272992359
 30
0.0
  0
SPLINE
  5
543
100
AcDbEntity
  8
7_ALL_FEATURES
100
AcDbSpline
 62
7
  6
CONTINUOUS
 70
0
 71
3
 72
9
 73
5
 74
0
 42
0.0000001
 43
0.0000001
 44
0.0000000001
 40
0.0
 40
0.0
 40
0.0
 40
0.0
 40
0.2559699758
 40
1.0
 40
1.0
 40
1.0
 40
1.0
 10
354.7906013475
 20
98.2033477743
 30
0.0
 10
354.8481161469
 20
98.3294199632
 30
0.0
 10
355.058662614
 20
98.828216994
 30
0.0
 10
355.2095299976
 20
99.3526866385
 30
0.0
 10
355.2818252824
 20
99.7489333242
 30
0.0
  0
SPLINE
  5
544
100
AcDbEntity
  8
7_ALL_FEATURES
100
AcDbSpline
 62
7
  6
CONTINUOUS
 70
0
 71
3
 72
12
 73
8
 74
0
 42
0.0000001
 43
0.0000001
 44
0.0000000001
 40
0.0
 40
0.0
 40
0.0
 40
0.0
 40
0.2941736367
 40
0.5569624843
 40
0.7900562815
 40
0.8973937918
 40
1.0
 40
1.0
 40
1.0
 40
1.0
 10
348.4959983945
 20
78.218245396
 30
0.0
 10
349.3430098954
 20
78.6417511465
 30
0.0
 10
350.9015339948
 20
79.542291027
 30
0.0
 10
352.8879072601
 20
81.1491096161
 30
0.0
 10
354.1381456913
 20
82.6598541908
 30
0.0
 10
354.8185599839
 20
83.9176320236
 30
0.0
 10
355.0543363427
 20
84.5541395079
 30
0.0
 10
355.1447138886
 20
84.8718387642
 30
0.0
  0
SPLINE
  5
545
100
AcDbEntity
  8
7_ALL_FEATURES
100
AcDbSpline
 62
7
  6
CONTINUOUS
 70
0
 71
3
 72
9
 73
5
 74
0
 42
0.0000001
 43
0.0000001
 44
0.0000000001
 40
0.0
 40
0.0
 40
0.0
 40
0.0
 40
0.5036617745
 40
1.0
 40
1.0
 40
1.0
 40
1.0
 10
355.1447138886
 20
84.8718387642
 30
0.0
 10
355.2216514409
 20
85.1422931442
 30
0.0
 10
355.3391338383
 20
85.6900656938
 30
0.0
 10
355.3789575536
 20
86.2490373799
 30
0.0
 10
355.3789721875
 20
86.5261336984
 30
0.0
  0
SPLINE
  5
546
100
AcDbEntity
  8
7_ALL_FEATURES
100
AcDbSpline
 62
7
  6
CONTINUOUS
 70
0
 71
3
 72
14
 73
10
 74
0
 42
0.0000001
 43
0.0000001
 44
0.0000000001
 40
0.0
 40
0.0
 40
0.0
 40
0.0
 40
0.301945667
 40
0.43816158
 40
0.5647542703
 40
0.6825473029
 40
0.7929272643
 40
0.8978974976
 40
1.0
 40
1.0
 40
1.0
 40
1.0
 10
348.4959983945
 20
82.9813851168
 30
0.0
 10
349.5162714192
 20
83.4915216292
 30
0.0
 10
350.9503190402
 20
84.3421797957
 30
0.0
 10
352.5970398371
 20
85.7044246978
 30
0.0
 10
353.5926637216
 20
86.7472205779
 30
0.0
 10
354.3810891945
 20
87.8368412016
 30
0.0
 10
354.9532020753
 20
88.9645391696
 30
0.0
 10
355.3006911525
 20
90.1192221764
 30
0.0
 10
355.3789518167
 20
90.9035473471
 30
0.0
 10
355.3789721875
 20
91.2892734192
 30
0.0
  0
SPLINE
  5
547
100
AcDbEntity
  8
7_ALL_FEATURES
100
AcDbSpline
 62
7
  6
CONTINUOUS
 70
0
 71
3
 72
9
 73
5
 74
0
 42
0.0000001
 43
0.0000001
 44
0.0000000001
 40
0.0
 40
0.0
 40
0.0
 40
0.0
 40
0.2599653682
 40
1.0
 40
1.0
 40
1.0
 40
1.0
 10
348.4959983945
 20
87.7445248376
 30
0.0
 10
348.7201481994
 20
87.8565997401
 30
0.0
 10
349.5752307618
 20
88.3016791317
 30
0.0
 10
350.4011851078
 20
88.8041075201
 30
0.0
 10
350.9860896454
 20
89.2125420627
 30
0.0
  0
SPLINE
  5
548
100
AcDbEntity
  8
7_ALL_FEATURES
100
AcDbSpline
 62
7
  6
CONTINUOUS
 70
0
 71
3
 72
9
 73
5
 74
0
 42
0.0000001
 43
0.0000001
 44
0.0000000001
 40
0.0
 40
0.0
 40
0.0
 40
0.0
 40
0.5089142083
 40
1.0
 40
1.0
 40
1.0
 40
1.0
 10
354.7906013475
 20
93.4402080535
 30
0.0
 10
354.9802311968
 20
93.8558758544
 30
0.0
 10
355.2759932946
 20
94.7110977351
 30
0.0
 10
355.3789489042
 20
95.6115388226
 30
0.0
 10
355.3789721875
 20
96.05241314
 30
0.0
  0
SPLINE
  5
549
100
AcDbEntity
  8
7_ALL_FEATURES
100
AcDbSpline
 62
7
  6
CONTINUOUS
 70
0
 71
3
 72
23
 73
19
 74
0
 42
0.0000001
 43
0.0000001
 44
0.0000000001
 40
0.0
 40
0.0
 40
0.0
 40
0.0
 40
0.038807699
 40
0.0809011592
 40
0.1275324772
 40
0.1793191189
 40
0.2363595414
 40
0.2983614634
 40
0.3647447297
 40
0.4347186061
 40
0.5073415436
 40
0.5815703488
 40
0.6563036037
 40
0.7304218074
 40
0.8028279336
 40
0.8724854643
 40
0.9384685699
 40
1.0
 40
1.0
 40
1.0
 40
1.0
 10
308.477931418
 20
99.7391144193
 30
0.0
 10
308.5820500932
 20
99.1734238176
 30
0.0
 10
308.970430328
 20
98.0214535522
 30
0.0
 10
310.001165154
 20
96.4195551905
 30
0.0
 10
311.4621259393
 20
94.9193935499
 30
0.0
 10
313.320982061
 20
93.5443914886
 30
0.0
 10
315.5419256023
 20
92.3160137105
 30
0.0
 10
318.0827693535
 20
91.2561954512
 30
0.0
 10
320.8947045775
 20
90.3847953755
 30
0.0
 10
323.9230502737
 20
89.7187285722
 30
0.0
 10
327.1084281731
 20
89.271122427
 30
0.0
 10
330.3880726162
 20
89.0508752818
 30
0.0
 10
333.6971892041
 20
89.0623876413
 30
0.0
 10
336.9703769201
 20
89.3054212794
 30
0.0
 10
340.1429237775
 20
89.7751355082
 30
0.0
 10
343.1525265933
 20
90.4622180745
 30
0.0
 10
345.9396487327
 20
91.3529757854
 30
0.0
 10
347.6802853301
 20
92.0998080262
 30
0.0
 10
348.4959983945
 20
92.5076645584
 30
0.0
  0
SPLINE
  5
54A
100
AcDbEntity
  8
7_ALL_FEATURES
100
AcDbSpline
 62
7
  6
CONTINUOUS
 70
0
 71
3
 72
24
 73
20
 74
0
 42
0.0000001
 43
0.0000001
 44
0.0000000001
 40
0.0
 40
0.0
 40
0.0
 40
0.0
 40
0.0190295214
 40
0.0383632028
 40
0.0789597312
 40
0.1236851968
 40
0.1735908023
 40
0.2290567112
 40
0.2899467819
 40
0.3557465941
 40
0.4256675556
 40
0.4987251133
 40
0.5738010003
 40
0.6496965892
 40
0.7251816549
 40
0.7990418635
 40
0.8701261563
 40
0.93739982
 40
1.0
 40
1.0
 40
1.0
 40
1.0
 10
308.3790058858
 20
96.0536458931
 30
0.0
 10
308.3789906278
 20
95.7647322896
 30
0.0
 10
308.4222654392
 20
95.1813629505
 30
0.0
 10
308.6842472986
 20
94.007871083
 30
0.0
 10
309.3584904175
 20
92.5471599713
 30
0.0
 10
310.6406534869
 20
90.9251774002
 30
0.0
 10
312.3711579382
 20
89.42592829
 30
0.0
 10
314.5123980906
 20
88.0747204786
 30
0.0
 10
317.0204692204
 20
86.8955892993
 30
0.0
 10
319.8437190218
 20
85.9119971243
 30
0.0
 10
322.923118722
 20
85.1442759323
 30
0.0
 10
326.1935801872
 20
84.6087243022
 30
0.0
 10
329.5855127753
 20
84.316834321
 30
0.0
 10
333.0264798211
 20
84.2749081682
 30
0.0
 10
336.442921272
 20
84.4838544353
 30
0.0
 10
339.7617814645
 20
84.9391447523
 30
0.0
 10
342.9125122479
 20
85.6310441471
 30
0.0
 10
345.8277479479
 20
86.544564236
 30
0.0
 10
347.6459166263
 20
87.3194839535
 30
0.0
 10
348.4959983945
 20
87.7445248376
 30
0.0
  0
SPLINE
  5
54B
100
AcDbEntity
  8
7_ALL_FEATURES
100
AcDbSpline
 62
7
  6
CONTINUOUS
 70
0
 71
3
 72
17
 73
13
 74
0
 42
0.0000001
 43
0.0000001
 44
0.0000000001
 40
0.0
 40
0.0
 40
0.0
 40
0.0
 40
0.1157714021
 40
0.2422830148
 40
0.3758784509
 40
0.5122629115
 40
0.6469255201
 40
0.7754917945
 40
0.8362828885
 40
0.8941691603
 40
0.9488194058
 40
1.0
 40
1.0
 40
1.0
 40
1.0
 10
348.1140184307
 20
76.2995119422
 30
0.0
 10
346.8522895504
 20
75.6967751251
 30
0.0
 10
344.1025192321
 20
74.6595377352
 30
0.0
 10
339.6732883353
 20
73.6195414403
 30
0.0
 10
334.9078858015
 20
73.0565916721
 30
0.0
 10
330.0120477605
 20
72.996211637
 30
0.0
 10
325.197236534
 20
73.4408030495
 30
0.0
 10
321.3536435345
 20
74.2299267516
 30
0.0
 10
318.497787648
 20
75.109300001
 30
0.0
 10
316.5427008011
 20
75.8632376498
 30
0.0
 10
314.7561691321
 20
76.7155079991
 30
0.0
 10
313.6527808359
 20
77.3652732131
 30
0.0
 10
313.1370979584
 20
77.7061555483
 30
0.0
  0
LINE
  5
54C
100
AcDbEntity
  8
7_ALL_FEATURES
100
AcDbLine
 62
7
  6
CONTINUOUS
 10
313.1370979584
 20
77.7061555483
 11
313.1034442943
 21
77.7284566726
  0
SPLINE
  5
54D
100
AcDbEntity
  8
7_ALL_FEATURES
100
AcDbSpline
 62
7
  6
CONTINUOUS
 70
0
 71
3
 72
24
 73
20
 74
0
 42
0.0000001
 43
0.0000001
 44
0.0000000001
 40
0.0
 40
0.0
 40
0.0
 40
0.0
 40
0.0190295214
 40
0.0383632028
 40
0.0789597312
 40
0.1236851968
 40
0.1735908023
 40
0.2290567112
 40
0.2899467819
 40
0.3557465941
 40
0.4256675556
 40
0.4987251133
 40
0.5738010003
 40
0.6496965892
 40
0.7251816549
 40
0.7990418635
 40
0.8701261563
 40
0.93739982
 40
1.0
 40
1.0
 40
1.0
 40
1.0
 10
308.3790058858
 20
91.2905061723
 30
0.0
 10
308.3789906278
 20
91.0015925688
 30
0.0
 10
308.4222654392
 20
90.4182232296
 30
0.0
 10
308.6842472986
 20
89.2447313622
 30
0.0
 10
309.3584904175
 20
87.7840202505
 30
0.0
 10
310.6406534869
 20
86.1620376794
 30
0.0
 10
312.3711579382
 20
84.6627885692
 30
0.0
 10
314.5123980906
 20
83.3115807578
 30
0.0
 10
317.0204692204
 20
82.1324495785
 30
0.0
 10
319.8437190218
 20
81.1488574035
 30
0.0
 10
322.923118722
 20
80.3811362115
 30
0.0
 10
326.1935801872
 20
79.8455845814
 30
0.0
 10
329.5855127753
 20
79.5536946002
 30
0.0
 10
333.0264798211
 20
79.5117684474
 30
0.0
 10
336.442921272
 20
79.7207147145
 30
0.0
 10
339.7617814645
 20
80.1760050315
 30
0.0
 10
342.9125122479
 20
80.8679044263
 30
0.0
 10
345.8277479479
 20
81.7814245152
 30
0.0
 10
347.6459166263
 20
82.5563442327
 30
0.0
 10
348.4959983945
 20
82.9813851168
 30
0.0
  0
SPLINE
  5
54E
100
AcDbEntity
  8
7_ALL_FEATURES
100
AcDbSpline
 62
7
  6
CONTINUOUS
 70
0
 71
3
 72
9
 73
5
 74
0
 42
0.0000001
 43
0.0000001
 44
0.0000000001
 40
0.0
 40
0.0
 40
0.0
 40
0.0
 40
0.258371
 40
1.0
 40
1.0
 40
1.0
 40
1.0
 10
348.4959983945
 20
76.4861945884
 30
0.0
 10
348.6882659194
 20
76.5823283509
 30
0.0
 10
349.4271492273
 20
76.9647592127
 30
0.0
 10
350.1444903952
 20
77.3895185034
 30
0.0
 10
350.6583928214
 20
77.7310241533
 30
0.0
  0
SPLINE
  5
54F
100
AcDbEntity
  8
7_ALL_FEATURES
100
AcDbSpline
 62
7
  6
CONTINUOUS
 70
0
 71
3
 72
9
 73
5
 74
0
 42
0.0000001
 43
0.0000001
 44
0.0000000001
 40
0.0
 40
0.0
 40
0.0
 40
0.0
 40
0.4962961174
 40
1.0
 40
1.0
 40
1.0
 40
1.0
 10
308.3790058858
 20
86.5273664515
 30
0.0
 10
308.3789911503
 20
86.2483456219
 30
0.0
 10
308.4192401474
 20
85.685431422
 30
0.0
 10
308.5381947294
 20
85.1339146853
 30
0.0
 10
308.6161548571
 20
84.8616716712
 30
0.0
  0
SPLINE
  5
550
100
AcDbEntity
  8
7_ALL_FEATURES
100
AcDbSpline
 62
7
  6
CONTINUOUS
 70
0
 71
3
 72
23
 73
19
 74
0
 42
0.0000001
 43
0.0000001
 44
0.0000000001
 40
0.0
 40
0.0
 40
0.0
 40
0.0
 40
0.0394076514
 40
0.0824778073
 40
0.1301951124
 40
0.1829830059
 40
0.2408199468
 40
0.3033506028
 40
0.3699725203
 40
0.4399017064
 40
0.5122242492
 40
0.5859395436
 40
0.6599990496
 40
0.7333422774
 40
0.8049340154
 40
0.8737975387
 40
0.9390639042
 40
1.0
 40
1.0
 40
1.0
 40
1.0
 10
308.6161548571
 20
84.8616716712
 30
0.0
 10
308.7747768959
 20
84.3077507987
 30
0.0
 10
309.2662153384
 20
83.1906878702
 30
0.0
 10
310.411624545
 20
81.655004873
 30
0.0
 10
311.9593231032
 20
80.2224577808
 30
0.0
 10
313.8784808007
 20
78.9153323146
 30
0.0
 10
316.1340747145
 20
77.7539494434
 30
0.0
 10
318.6849544803
 20
76.758610124
 30
0.0
 10
321.4840492625
 20
75.9473539441
 30
0.0
 10
324.4791500695
 20
75.3353219269
 30
0.0
 10
327.6139998522
 20
74.9340765551
 30
0.0
 10
330.8294729591
 20
74.7512514058
 30
0.0
 10
334.06478914
 20
74.7903431929
 30
0.0
 10
337.2587905374
 20
75.050591448
 30
0.0
 10
340.3510741237
 20
75.5270528758
 30
0.0
 10
343.2835811819
 20
76.210676689
 30
0.0
 10
346.0007924376
 20
77.0884696078
 30
0.0
 10
347.6991033989
 20
77.8197978982
 30
0.0
 10
348.4959983945
 20
78.218245396
 30
0.0
  0
SPLINE
  5
551
100
AcDbEntity
  8
7_ALL_FEATURES
100
AcDbSpline
 62
7
  6
CONTINUOUS
 70
0
 71
3
 72
11
 73
7
 74
0
 42
0.0000001
 43
0.0000001
 44
0.0000000001
 40
0.0
 40
0.0
 40
0.0
 40
0.0
 40
0.22745963
 40
0.4726810294
 40
0.7317607116
 40
1.0
 40
1.0
 40
1.0
 40
1.0
 10
355.8928494623
 20
100.1222019929
 30
0.0
 10
354.4965385773
 20
99.4454328538
 30
0.0
 10
351.5009686634
 20
98.2288158143
 30
0.0
 10
346.6963208733
 20
96.8472695535
 30
0.0
 10
341.5114636501
 20
95.8659878866
 30
0.0
 10
337.9280505776
 20
95.4998423113
 30
0.0
 10
336.1016528395
 20
95.3872323007
 30
0.0
  0
SPLINE
  5
552
100
AcDbEntity
  8
7_ALL_FEATURES
100
AcDbSpline
 62
7
  6
CONTINUOUS
 70
0
 71
3
 72
13
 73
9
 74
0
 42
0.0000001
 43
0.0000001
 44
0.0000000001
 40
0.0
 40
0.0
 40
0.0
 40
0.0
 40
0.2769553556
 40
0.5403859856
 40
0.6647753618
 40
0.7832109356
 40
0.8950913239
 40
1.0
 40
1.0
 40
1.0
 40
1.0
 10
327.6585070966
 20
95.3870761836
 30
0.0
 10
325.3744611958
 20
95.5278587261
 30
0.0
 10
320.9283041204
 20
96.0267806145
 30
0.0
 10
315.5548851874
 20
97.2285725265
 30
0.0
 10
311.5749249585
 20
98.5247283219
 30
0.0
 10
308.8542777554
 20
99.6215881125
 30
0.0
 10
306.3688287762
 20
100.8503000502
 30
0.0
 10
304.8343466969
 20
101.7802682961
 30
0.0
 10
304.1167907361
 20
102.2665744437
 30
0.0
  0
SPLINE
  5
553
100
AcDbEntity
  8
7_ALL_FEATURES
100
AcDbSpline
 62
7
  6
CONTINUOUS
 70
0
 71
3
 72
9
 73
5
 74
0
 42
0.0000001
 43
0.0000001
 44
0.0000000001
 40
0.0
 40
0.0
 40
0.0
 40
0.0
 40
0.2589997028
 40
1.0
 40
1.0
 40
1.0
 40
1.0
 10
356.2741729876
 20
100.309920213
 30
0.0
 10
356.5745340537
 20
100.4601007461
 30
0.0
 10
357.7254826649
 20
101.0571019283
 30
0.0
 10
358.840705765
 20
101.7243500496
 30
0.0
 10
359.6361774283
 20
102.2631419493
 30
0.0
  0
SPLINE
  5
554
100
AcDbEntity
  8
02___PRT_ALL_AXES
100
AcDbSpline
 62
7
  6
CONTINUOUS
 70
0
 71
3
 72
14
 73
10
 74
0
 42
0.0000001
 43
0.0000001
 44
0.0000000001
 40
0.0
 40
0.0
 40
0.0
 40
0.0
 40
0.3076528449
 40
0.4420613922
 40
0.564458908
 40
0.6773143484
 40
0.7843623943
 40
0.8902807257
 40
1.0
 40
1.0
 40
1.0
 40
1.0
 10
309.0747953434
 20
134.7349265824
 30
0.0
 10
308.897030384
 20
134.6460441028
 30
0.0
 10
308.6506956796
 20
134.4942223272
 30
0.0
 10
308.3879507611
 20
134.2395207397
 30
0.0
 10
308.2464067991
 20
134.0454072461
 30
0.0
 10
308.1547104888
 20
133.84219854
 30
0.0
 10
308.1153369645
 20
133.6331701929
 30
0.0
 10
308.130357375
 20
133.4230342704
 30
0.0
 10
308.1747283832
 20
133.2893985023
 30
0.0
 10
308.2041059094
 20
133.224893289
 30
0.0
  0
SPLINE
  5
555
100
AcDbEntity
  8
02___PRT_ALL_AXES
100
AcDbSpline
 62
7
  6
CONTINUOUS
 70
0
 71
3
 72
22
 73
18
 74
0
 42
0.0000001
 43
0.0000001
 44
0.0000000001
 40
0.0
 40
0.0
 40
0.0
 40
0.0
 40
0.0626092932
 40
0.1298987549
 40
0.2009938062
 40
0.2748677839
 40
0.4261723514
 40
0.5012624479
 40
0.5743345102
 40
0.6442700497
 40
0.710084223
 40
0.7709882227
 40
0.8264674797
 40
0.8763856656
 40
0.9211226383
 40
0.9617291584
 40
1.0
 40
1.0
 40
1.0
 40
1.0
 10
318.6207368894
 20
118.4357544697
 30
0.0
 10
319.2989323504
 20
118.0966567392
 30
0.0
 10
320.7495477422
 20
117.4784086629
 30
0.0
 10
323.0753434134
 20
116.7495433169
 30
0.0
 10
325.5892598776
 20
116.1974550407
 30
0.0
 10
329.1467780466
 20
115.7096963088
 30
0.0
 10
332.7982085954
 20
115.6228959479
 30
0.0
 10
336.4141034785
 20
115.9336107248
 30
0.0
 10
339.0236033877
 20
116.3608917469
 30
0.0
 10
341.4804835849
 20
116.9732966228
 30
0.0
 10
343.7330824425
 20
117.7579715425
 30
0.0
 10
345.7342415826
 20
118.6986132836
 30
0.0
 10
347.4427594711
 20
119.7766710106
 30
0.0
 10
348.8236442561
 20
120.972446588
 30
0.0
 10
349.846782481
 20
122.2674099961
 30
0.0
 10
350.4825359684
 20
123.640403978
 30
0.0
 10
350.6289360366
 20
124.6007285865
 30
0.0
 10
350.6289672963
 20
125.064217228
 30
0.0
  0
SPLINE
  5
556
100
AcDbEntity
  8
02___PRT_ALL_AXES
100
AcDbSpline
 62
7
  6
CONTINUOUS
 70
0
 71
3
 72
9
 73
5
 74
0
 42
0.0000001
 43
0.0000001
 44
0.0000000001
 40
0.0
 40
0.0
 40
0.0
 40
0.0
 40
0.2602136518
 40
1.0
 40
1.0
 40
1.0
 40
1.0
 10
315.0852029834
 20
133.4617735699
 30
0.0
 10
315.1371521834
 20
133.4877481699
 30
0.0
 10
315.3350663646
 20
133.5909380374
 30
0.0
 10
315.5259563925
 20
133.7079510819
 30
0.0
 10
315.6607559528
 20
133.8033188018
 30
0.0
  0
SPLINE
  5
557
100
AcDbEntity
  8
02___PRT_ALL_AXES
100
AcDbSpline
 62
7
  6
CONTINUOUS
 70
0
 71
3
 72
9
 73
5
 74
0
 42
0.0000001
 43
0.0000001
 44
0.0000000001
 40
0.0
 40
0.0
 40
0.0
 40
0.0
 40
0.2602136518
 40
1.0
 40
1.0
 40
1.0
 40
1.0
 10
356.0973962923
 20
112.9556769155
 30
0.0
 10
356.1493454922
 20
112.9816515155
 30
0.0
 10
356.3472596735
 20
113.0848413829
 30
0.0
 10
356.5381497013
 20
113.2018544275
 30
0.0
 10
356.6729492616
 20
113.2972221474
 30
0.0
  0
SPLINE
  5
558
100
AcDbEntity
  8
02___PRT_ALL_AXES
100
AcDbSpline
 62
7
  6
CONTINUOUS
 70
0
 71
3
 72
13
 73
9
 74
0
 42
0.0000001
 43
0.0000001
 44
0.0000000001
 40
0.0
 40
0.0
 40
0.0
 40
0.0
 40
0.1021505208
 40
0.2071678725
 40
0.3175953298
 40
0.4354419985
 40
0.6979096975
 40
1.0
 40
1.0
 40
1.0
 40
1.0
 10
313.129010777
 20
125.0655438587
 30
0.0
 10
313.1289900173
 20
124.7577404746
 30
0.0
 10
313.1911879407
 20
124.1318404044
 30
0.0
 10
313.4684284429
 20
123.2104265368
 30
0.0
 10
313.9247018459
 20
122.3104143548
 30
0.0
 10
314.7947171107
 20
121.1084072318
 30
0.0
 10
316.3358552288
 20
119.7150670811
 30
0.0
 10
317.8065678497
 20
118.8428389896
 30
0.0
 10
318.6207368894
 20
118.4357544697
 30
0.0
  0
SPLINE
  5
559
100
AcDbEntity
  8
02___PRT_ALL_AXES
100
AcDbSpline
 62
7
  6
CONTINUOUS
 70
0
 71
3
 72
15
 73
11
 74
0
 42
0.0000001
 43
0.0000001
 44
0.0000000001
 40
0.0
 40
0.0
 40
0.0
 40
0.0
 40
0.104429616
 40
0.2225012044
 40
0.3512309434
 40
0.486531847
 40
0.623727792
 40
0.7579784509
 40
0.8847037764
 40
1.0
 40
1.0
 40
1.0
 40
1.0
 10
307.0857594174
 20
133.8027728134
 30
0.0
 10
307.3219062805
 20
133.6357605184
 30
0.0
 10
307.8660288973
 20
133.3372162272
 30
0.0
 10
308.7854150013
 20
133.0106467687
 30
0.0
 10
309.8229669017
 20
132.7886825088
 30
0.0
 10
310.9313286542
 20
132.6818530485
 30
0.0
 10
312.0599704284
 20
132.6950192178
 30
0.0
 10
313.1571895235
 20
132.8276234652
 30
0.0
 10
314.1724420105
 20
133.0733437082
 30
0.0
 10
314.7995812203
 20
133.3189626884
 30
0.0
 10
315.0852029834
 20
133.4617735699
 30
0.0
  0
SPLINE
  5
55A
100
AcDbEntity
  8
02___PRT_ALL_AXES
100
AcDbSpline
 62
7
  6
CONTINUOUS
 70
0
 71
3
 72
18
 73
14
 74
0
 42
0.0000001
 43
0.0000001
 44
0.0000000001
 40
0.0
 40
0.0
 40
0.0
 40
0.0
 40
0.0404702204
 40
0.0797741403
 40
0.1208858695
 40
0.1662685515
 40
0.2173933994
 40
0.2748117808
 40
0.4071334883
 40
0.5569535131
 40
0.7135585072
 40
0.8649006206
 40
1.0
 40
1.0
 40
1.0
 40
1.0
 10
314.5416672504
 20
133.2248947386
 30
0.0
 10
314.5789121141
 20
133.3067047764
 30
0.0
 10
314.6308026738
 20
133.4795617952
 30
0.0
 10
314.6205530463
 20
133.7526416872
 30
0.0
 10
314.5208101397
 20
134.0181676143
 30
0.0
 10
314.3387828746
 20
134.2673439225
 30
0.0
 10
314.0820641914
 20
134.4961427723
 30
0.0
 10
313.6274155603
 20
134.781685818
 30
0.0
 10
312.913581851
 20
135.0470242703
 30
0.0
 10
311.9491999671
 20
135.2125354433
 30
0.0
 10
310.9279379557
 20
135.2227282207
 30
0.0
 10
309.9509050767
 20
135.0769656659
 30
0.0
 10
309.3431876907
 20
134.8691227561
 30
0.0
 10
309.0747953434
 20
134.7349265824
 30
0.0
  0
SPLINE
  5
55B
100
AcDbEntity
  8
02___PRT_ALL_AXES
100
AcDbSpline
 62
7
  6
CONTINUOUS
 70
0
 71
3
 72
15
 73
11
 74
0
 42
0.0000001
 43
0.0000001
 44
0.0000000001
 40
0.0
 40
0.0
 40
0.0
 40
0.0
 40
0.104429616
 40
0.2225012044
 40
0.3512309434
 40
0.486531847
 40
0.623727792
 40
0.7579784509
 40
0.8847037764
 40
1.0
 40
1.0
 40
1.0
 40
1.0
 10
348.0979527262
 20
113.296676159
 30
0.0
 10
348.3340995893
 20
113.129663864
 30
0.0
 10
348.8782222061
 20
112.8311195728
 30
0.0
 10
349.7976083101
 20
112.5045501143
 30
0.0
 10
350.8351602105
 20
112.2825858544
 30
0.0
 10
351.943521963
 20
112.1757563941
 30
0.0
 10
353.0721637372
 20
112.1889225634
 30
0.0
 10
354.1693828324
 20
112.3215268108
 30
0.0
 10
355.1846353193
 20
112.5672470538
 30
0.0
 10
355.8117745291
 20
112.8128660339
 30
0.0
 10
356.0973962923
 20
112.9556769155
 30
0.0
  0
SPLINE
  5
55C
100
AcDbEntity
  8
02___PRT_ALL_AXES
100
AcDbSpline
 62
7
  6
CONTINUOUS
 70
0
 71
3
 72
13
 73
9
 74
0
 42
0.0000001
 43
0.0000001
 44
0.0000000001
 40
0.0
 40
0.0
 40
0.0
 40
0.0
 40
0.1021505208
 40
0.2071678725
 40
0.3175953298
 40
0.4354419985
 40
0.6979096975
 40
1.0
 40
1.0
 40
1.0
 40
1.0
 10
350.6289672963
 20
125.064217228
 30
0.0
 10
350.6289880559
 20
125.3720206121
 30
0.0
 10
350.5667901326
 20
125.9979206823
 30
0.0
 10
350.2895496303
 20
126.9193345499
 30
0.0
 10
349.8332762274
 20
127.8193467318
 30
0.0
 10
348.9632609625
 20
129.0213538549
 30
0.0
 10
347.4221228444
 20
130.4146940056
 30
0.0
 10
345.9514102236
 20
131.2869220971
 30
0.0
 10
345.1372411839
 20
131.694006617
 30
0.0
  0
SPLINE
  5
55D
100
AcDbEntity
  8
02___PRT_ALL_AXES
100
AcDbSpline
 62
7
  6
CONTINUOUS
 70
0
 71
3
 72
16
 73
12
 74
0
 42
0.0000001
 43
0.0000001
 44
0.0000000001
 40
0.0
 40
0.0
 40
0.0
 40
0.0
 40
0.1564365193
 40
0.2279427358
 40
0.2949124874
 40
0.4163206979
 40
0.525430936
 40
0.6300084103
 40
0.7393714124
 40
0.8612335974
 40
1.0
 40
1.0
 40
1.0
 40
1.0
 10
307.660581781
 20
137.1740841712
 30
0.0
 10
307.4558631697
 20
137.0717248655
 30
0.0
 10
307.1663160611
 20
136.9025895362
 30
0.0
 10
306.8257128391
 20
136.6366853933
 30
0.0
 10
306.5505990064
 20
136.3735896246
 30
0.0
 10
306.2863333779
 20
136.0214499494
 30
0.0
 10
306.1153161273
 20
135.5526039955
 30
0.0
 10
306.1178418319
 20
135.0695807866
 30
0.0
 10
306.2936144504
 20
134.6013753014
 30
0.0
 10
306.6252355478
 20
134.1663037069
 30
0.0
 10
306.9199971041
 20
133.9200064027
 30
0.0
 10
307.0857594174
 20
133.8027728134
 30
0.0
  0
SPLINE
  5
55E
100
AcDbEntity
  8
02___PRT_ALL_AXES
100
AcDbSpline
 62
7
  6
CONTINUOUS
 70
0
 71
3
 72
21
 73
17
 74
0
 42
0.0000001
 43
0.0000001
 44
0.0000000001
 40
0.0
 40
0.0
 40
0.0
 40
0.0
 40
0.0535129135
 40
0.1001387115
 40
0.1419695291
 40
0.1825250612
 40
0.2258178395
 40
0.2748777075
 40
0.331179198
 40
0.3948910987
 40
0.4652739455
 40
0.5409810001
 40
0.7009758528
 40
0.8590729349
 40
0.9325488903
 40
1.0
 40
1.0
 40
1.0
 40
1.0
 10
315.6607559528
 20
133.8033188018
 30
0.0
 10
315.8358510835
 20
133.9271947503
 30
0.0
 10
316.1452669654
 20
134.1880591163
 30
0.0
 10
316.4844031783
 20
134.6538128766
 30
0.0
 10
316.6454148096
 20
135.1568528092
 30
0.0
 10
316.6074129148
 20
135.6715739011
 30
0.0
 10
316.3764360751
 20
136.1623484123
 30
0.0
 10
315.9757159382
 20
136.6114371233
 30
0.0
 10
315.4236087258
 20
137.011109598
 30
0.0
 10
314.7378891464
 20
137.3521122151
 30
0.0
 10
313.9402023308
 20
137.6247008208
 30
0.0
 10
312.7402423511
 20
137.8896577485
 30
0.0
 10
311.1559569098
 20
137.9974861437
 30
0.0
 10
309.5855768447
 20
137.8250795175
 30
0.0
 10
308.427422945
 20
137.508807014
 30
0.0
 10
307.9023900759
 20
137.2949883186
 30
0.0
 10
307.660581781
 20
137.1740841712
 30
0.0
  0
SPLINE
  5
55F
100
AcDbEntity
  8
02___PRT_ALL_AXES
100
AcDbSpline
 62
7
  6
CONTINUOUS
 70
0
 71
3
 72
21
 73
17
 74
0
 42
0.0000001
 43
0.0000001
 44
0.0000000001
 40
0.0
 40
0.0
 40
0.0
 40
0.0
 40
0.0535129135
 40
0.1001387115
 40
0.1419695291
 40
0.1825250612
 40
0.2258178395
 40
0.2748777075
 40
0.331179198
 40
0.3948910987
 40
0.4652739455
 40
0.5409810001
 40
0.7009758528
 40
0.8590729349
 40
0.9325488903
 40
1.0
 40
1.0
 40
1.0
 40
1.0
 10
356.6729492616
 20
113.2972221474
 30
0.0
 10
356.8480443923
 20
113.4210980959
 30
0.0
 10
357.1574602742
 20
113.6819624619
 30
0.0
 10
357.4965964871
 20
114.1477162222
 30
0.0
 10
357.6576081184
 20
114.6507561547
 30
0.0
 10
357.6196062236
 20
115.1654772467
 30
0.0
 10
357.3886293839
 20
115.6562517579
 30
0.0
 10
356.987909247
 20
116.1053404689
 30
0.0
 10
356.4358020347
 20
116.5050129435
 30
0.0
 10
355.7500824552
 20
116.8460155607
 30
0.0
 10
354.9523956397
 20
117.1186041664
 30
0.0
 10
353.7524356599
 20
117.3835610941
 30
0.0
 10
352.1681502186
 20
117.4913894893
 30
0.0
 10
350.5977701535
 20
117.3189828631
 30
0.0
 10
349.4396162538
 20
117.0027103596
 30
0.0
 10
348.9145833847
 20
116.7888916642
 30
0.0
 10
348.6727750898
 20
116.6679875168
 30
0.0
  0
SPLINE
  5
560
100
AcDbEntity
  8
02___PRT_ALL_AXES
100
AcDbSpline
 62
7
  6
CONTINUOUS
 70
0
 71
3
 72
16
 73
12
 74
0
 42
0.0000001
 43
0.0000001
 44
0.0000000001
 40
0.0
 40
0.0
 40
0.0
 40
0.0
 40
0.1564365193
 40
0.2279427358
 40
0.2949124874
 40
0.4163206979
 40
0.525430936
 40
0.6300084103
 40
0.7393714124
 40
0.8612335974
 40
1.0
 40
1.0
 40
1.0
 40
1.0
 10
348.6727750898
 20
116.6679875168
 30
0.0
 10
348.4680564785
 20
116.5656282111
 30
0.0
 10
348.1785093699
 20
116.3964928818
 30
0.0
 10
347.8379061479
 20
116.1305887389
 30
0.0
 10
347.5627923153
 20
115.8674929701
 30
0.0
 10
347.2985266867
 20
115.515353295
 30
0.0
 10
347.1275094361
 20
115.0465073411
 30
0.0
 10
347.1300351407
 20
114.5634841322
 30
0.0
 10
347.3058077592
 20
114.095278647
 30
0.0
 10
347.6374288567
 20
113.6602070525
 30
0.0
 10
347.932190413
 20
113.4139097483
 30
0.0
 10
348.0979527262
 20
113.296676159
 30
0.0
  0
SPLINE
  5
561
100
AcDbEntity
  8
02___PRT_ALL_AXES
100
AcDbSpline
 62
7
  6
CONTINUOUS
 70
0
 71
3
 72
22
 73
18
 74
0
 42
0.0000001
 43
0.0000001
 44
0.0000000001
 40
0.0
 40
0.0
 40
0.0
 40
0.0
 40
0.0626092932
 40
0.1298987549
 40
0.2009938062
 40
0.2748677839
 40
0.4261723514
 40
0.5012624479
 40
0.5743345102
 40
0.6442700497
 40
0.710084223
 40
0.7709882227
 40
0.8264674797
 40
0.8763856656
 40
0.9211226383
 40
0.9617291584
 40
1.0
 40
1.0
 40
1.0
 40
1.0
 10
345.1372411839
 20
131.694006617
 30
0.0
 10
344.4590457228
 20
132.0331043475
 30
0.0
 10
343.0084303311
 20
132.6513524238
 30
0.0
 10
340.6826346599
 20
133.3802177698
 30
0.0
 10
338.1687181956
 20
133.932306046
 30
0.0
 10
334.6112000267
 20
134.4200647779
 30
0.0
 10
330.9597694778
 20
134.5068651388
 30
0.0
 10
327.3438745948
 20
134.1961503619
 30
0.0
 10
324.7343746856
 20
133.7688693398
 30
0.0
 10
322.2774944884
 20
133.1564644639
 30
0.0
 10
320.0248956307
 20
132.3717895442
 30
0.0
 10
318.0237364906
 20
131.4311478031
 30
0.0
 10
316.3152186022
 20
130.3530900761
 30
0.0
 10
314.9343338172
 20
129.1573144987
 30
0.0
 10
313.9111955923
 20
127.8623510906
 30
0.0
 10
313.2754421048
 20
126.4893571087
 30
0.0
 10
313.1290420367
 20
125.5290325002
 30
0.0
 10
313.129010777
 20
125.0655438587
 30
0.0
  0
SPLINE
  5
562
100
AcDbEntity
  8
7_ALL_FEATURES
100
AcDbSpline
 62
7
  6
CONTINUOUS
 70
0
 71
3
 72
27
 73
23
 74
0
 42
0.0000001
 43
0.0000001
 44
0.0000000001
 40
0.0
 40
0.0
 40
0.0
 40
0.0
 40
0.0826592268
 40
0.1603008642
 40
0.1981468307
 40
0.2364637193
 40
0.2766202277
 40
0.2979198529
 40
0.3203149066
 40
0.3509540815
 40
0.3806626124
 40
0.4379687079
 40
0.493649494
 40
0.548741396
 40
0.6040186376
 40
0.6600763819
 40
0.7174352054
 40
0.7766463716
 40
0.8188766607
 40
0.8605980543
 40
0.9438647411
 40
1.0
 40
1.0
 40
1.0
 40
1.0
 10
352.1851322308
 20
135.9706841762
 30
0.0
 10
352.0666882164
 20
135.9802323337
 30
0.0
 10
351.8363052407
 20
135.9968124137
 30
0.0
 10
351.5463533683
 20
135.9970006811
 30
0.0
 10
351.3267757516
 20
135.9747006937
 30
0.0
 10
351.1680776788
 20
135.9447479602
 30
0.0
 10
351.0429634675
 20
135.9074956165
 30
0.0
 10
350.9470633233
 20
135.8699341732
 30
0.0
 10
350.8678721429
 20
135.8332160327
 30
0.0
 10
350.787165541
 20
135.7885978156
 30
0.0
 10
350.6860171605
 20
135.7196545186
 30
0.0
 10
350.5900108961
 20
135.6269695075
 30
0.0
 10
350.5248139612
 20
135.5085449989
 30
0.0
 10
350.5091175343
 20
135.38748115
 30
0.0
 10
350.541258936
 20
135.2670157037
 30
0.0
 10
350.6196294069
 20
135.150255538
 30
0.0
 10
350.7429509777
 20
135.0404011943
 30
0.0
 10
350.8912533608
 20
134.9512827268
 30
0.0
 10
351.0485176342
 20
134.8828898165
 30
0.0
 10
351.2525183584
 20
134.8165264993
 30
0.0
 10
351.4984992467
 20
134.7665122758
 30
0.0
 10
351.6970327764
 20
134.7453706958
 30
0.0
 10
351.7777473444
 20
134.7393832514
 30
0.0
  0
SPLINE
  5
563
100
AcDbEntity
  8
7_ALL_FEATURES
100
AcDbSpline
 62
7
  6
CONTINUOUS
 70
0
 71
3
 72
9
 73
5
 74
0
 42
0.0000001
 43
0.0000001
 44
0.0000000001
 40
0.0
 40
0.0
 40
0.0
 40
0.0
 40
0.2500059247
 40
1.0
 40
1.0
 40
1.0
 40
1.0
 10
352.8270566561
 20
136.433495414
 30
0.0
 10
352.7654067315
 20
136.4026704517
 30
0.0
 10
352.5572966043
 20
136.2590715939
 30
0.0
 10
352.5101802071
 20
136.0758260229
 30
0.0
 10
352.5041253501
 20
135.9450859629
 30
0.0
  0
SPLINE
  5
564
100
AcDbEntity
  8
7_ALL_FEATURES
100
AcDbSpline
 62
7
  6
CONTINUOUS
 70
0
 71
3
 72
17
 73
13
 74
0
 42
0.0000001
 43
0.0000001
 44
0.0000000001
 40
0.0
 40
0.0
 40
0.0
 40
0.0
 40
0.1281677449
 40
0.2461327339
 40
0.3660286349
 40
0.4284999773
 40
0.4927031576
 40
0.5607602658
 40
0.6251843142
 40
0.7460608357
 40
0.8660071045
 40
1.0
 40
1.0
 40
1.0
 40
1.0
 10
354.2291625646
 20
135.7638736476
 30
0.0
 10
354.3182094668
 20
135.8083970987
 30
0.0
 10
354.4584547477
 20
135.9129351554
 30
0.0
 10
354.5021055725
 20
136.0972560602
 30
0.0
 10
354.4145565901
 20
136.241984844
 30
0.0
 10
354.2884073026
 20
136.3458658615
 30
0.0
 10
354.1632876486
 20
136.4187800412
 30
0.0
 10
354.0159135566
 20
136.4819727192
 30
0.0
 10
353.8022042963
 20
136.5466064944
 30
0.0
 10
353.5045214929
 20
136.5878995843
 30
0.0
 10
353.1297416796
 20
136.5550850562
 30
0.0
 10
352.920150689
 20
136.4800424304
 30
0.0
 10
352.8270566561
 20
136.433495414
 30
0.0
  0
SPLINE
  5
565
100
AcDbEntity
  8
7_ALL_FEATURES
100
AcDbSpline
 62
7
  6
CONTINUOUS
 70
0
 71
3
 72
9
 73
5
 74
0
 42
0.0000001
 43
0.0000001
 44
0.0000000001
 40
0.0
 40
0.0
 40
0.0
 40
0.0
 40
0.5085075298
 40
1.0
 40
1.0
 40
1.0
 40
1.0
 10
352.9491775952
 20
135.6634127351
 30
0.0
 10
353.1722459724
 20
135.646033793
 30
0.0
 10
353.6102808407
 20
135.6096037282
 30
0.0
 10
354.0748676462
 20
135.6867261884
 30
0.0
 10
354.2291625646
 20
135.7638736476
 30
0.0
  0
SPLINE
  5
566
100
AcDbEntity
  8
7_ALL_FEATURES
100
AcDbSpline
 62
7
  6
CONTINUOUS
 70
0
 71
3
 72
21
 73
17
 74
0
 42
0.0000001
 43
0.0000001
 44
0.0000000001
 40
0.0
 40
0.0
 40
0.0
 40
0.0
 40
0.132904548
 40
0.2483963039
 40
0.3045304646
 40
0.3631218191
 40
0.4273140346
 40
0.4624740996
 40
0.500089529
 40
0.5376505147
 40
0.572766758
 40
0.6369000875
 40
0.6954640554
 40
0.7515917782
 40
0.8670928402
 40
1.0
 40
1.0
 40
1.0
 40
1.0
 10
347.443704105
 20
135.4049971002
 30
0.0
 10
347.4231138341
 20
135.3947019648
 30
0.0
 10
347.3881649319
 20
135.373341712
 30
0.0
 10
347.3659427529
 20
135.3407207712
 30
0.0
 10
347.368125584
 20
135.3152634195
 30
0.0
 10
347.3794464174
 20
135.2963033322
 30
0.0
 10
347.3967565605
 20
135.2811634474
 30
0.0
 10
347.415171249
 20
135.2692984498
 30
0.0
 10
347.4316221963
 20
135.2604221533
 30
0.0
 10
347.4493679858
 20
135.2522000508
 30
0.0
 10
347.4730741409
 20
135.2430053394
 30
0.0
 10
347.5033342786
 20
135.2343618312
 30
0.0
 10
347.5412380123
 20
135.2287101232
 30
0.0
 10
347.5921464553
 20
135.2276221387
 30
0.0
 10
347.6573919406
 20
135.2387255114
 30
0.0
 10
347.7001239929
 20
135.2561964807
 30
0.0
 10
347.7207146684
 20
135.2664918185
 30
0.0
  0
SPLINE
  5
567
100
AcDbEntity
  8
7_ALL_FEATURES
100
AcDbSpline
 62
7
  6
CONTINUOUS
 70
0
 71
3
 72
21
 73
17
 74
0
 42
0.0000001
 43
0.0000001
 44
0.0000000001
 40
0.0
 40
0.0
 40
0.0
 40
0.0
 40
0.1327833847
 40
0.2504356012
 40
0.3056983919
 40
0.36239354
 40
0.425333033
 40
0.4608299577
 40
0.4997862723
 40
0.5388342666
 40
0.5744105639
 40
0.6374720704
 40
0.6942427883
 40
0.7495444137
 40
0.8672159598
 40
1.0
 40
1.0
 40
1.0
 40
1.0
 10
347.6647998484
 20
135.3015825477
 30
0.0
 10
347.6521851167
 20
135.2952751818
 30
0.0
 10
347.6270866828
 20
135.2840086576
 30
0.0
 10
347.5897819877
 20
135.2742316911
 30
0.0
 10
347.5587758769
 20
135.2723702906
 30
0.0
 10
347.535284501
 20
135.2743955607
 30
0.0
 10
347.516378534
 20
135.2790875949
 30
0.0
 10
347.5014996498
 20
135.2845705379
 30
0.0
 10
347.4902326798
 20
135.2897276773
 30
0.0
 10
347.4799110291
 20
135.2953649752
 30
0.0
 10
347.4689164451
 20
135.3028182054
 30
0.0
 10
347.4595023918
 20
135.3122843144
 30
0.0
 10
347.4554218671
 20
135.3240436071
 30
0.0
 10
347.459117533
 20
135.3395578557
 30
0.0
 10
347.4786607003
 20
135.3582194708
 30
0.0
 10
347.501196464
 20
135.3707694459
 30
0.0
 10
347.513811258
 20
135.3770768429
 30
0.0
  0
SPLINE
  5
568
100
AcDbEntity
  8
7_ALL_FEATURES
100
AcDbSpline
 62
7
  6
CONTINUOUS
 70
0
 71
3
 72
17
 73
13
 74
0
 42
0.0000001
 43
0.0000001
 44
0.0000000001
 40
0.0
 40
0.0
 40
0.0
 40
0.0
 40
0.1629103694
 40
0.2935549822
 40
0.4168937173
 40
0.5399047389
 40
0.60400217
 40
0.6712141429
 40
0.7362158184
 40
0.7985885138
 40
0.919283909
 40
1.0
 40
1.0
 40
1.0
 40
1.0
 10
348.5849608764
 20
135.0106211438
 30
0.0
 10
348.5741276657
 20
135.0309906315
 30
0.0
 10
348.5309352672
 20
135.0647503713
 30
0.0
 10
348.4406306344
 20
135.0960224427
 30
0.0
 10
348.3426931758
 20
135.1067189032
 30
0.0
 10
348.2615122152
 20
135.0988455076
 30
0.0
 10
348.2032221833
 20
135.083183323
 30
0.0
 10
348.1637726317
 20
135.0669173566
 30
0.0
 10
348.1315743813
 20
135.0473378106
 30
0.0
 10
348.1016485322
 20
135.0187229723
 30
0.0
 10
348.0891579985
 20
134.9841677152
 30
0.0
 10
348.0969847772
 20
134.9580465886
 30
0.0
 10
348.1027053908
 20
134.9479352245
 30
0.0
  0
SPLINE
  5
569
100
AcDbEntity
  8
7_ALL_FEATURES
100
AcDbSpline
 62
7
  6
CONTINUOUS
 70
0
 71
3
 72
8
 73
4
 74
0
 42
0.0000001
 43
0.0000001
 44
0.0000000001
 40
0.0
 40
0.0
 40
0.0
 40
0.0
 40
1.0
 40
1.0
 40
1.0
 40
1.0
 10
348.168218992
 20
134.8924941204
 30
0.0
 10
348.1991459771
 20
134.8770306278
 30
0.0
 10
348.2381725099
 20
134.8645193853
 30
0.0
 10
348.2800114793
 20
134.8581464452
 30
0.0
  0
SPLINE
  5
56A
100
AcDbEntity
  8
7_ALL_FEATURES
100
AcDbSpline
 62
7
  6
CONTINUOUS
 70
0
 71
3
 72
15
 73
11
 74
0
 42
0.0000001
 43
0.0000001
 44
0.0000000001
 40
0.0
 40
0.0
 40
0.0
 40
0.0
 40
0.1802531275
 40
0.2687906927
 40
0.3612765641
 40
0.4461771889
 40
0.5264460684
 40
0.6791612605
 40
0.8331109072
 40
1.0
 40
1.0
 40
1.0
 40
1.0
 10
348.3602613206
 20
134.8982713659
 30
0.0
 10
348.3362516945
 20
134.8976414016
 30
0.0
 10
348.2994320521
 20
134.8993360241
 30
0.0
 10
348.2552382429
 20
134.9094592631
 30
0.0
 10
348.2273033357
 20
134.9206576636
 30
0.0
 10
348.2052270634
 20
134.933960372
 30
0.0
 10
348.1847190021
 20
134.9526442923
 30
0.0
 10
348.1743564969
 20
134.9787587263
 30
0.0
 10
348.1888950097
 20
135.0103662886
 30
0.0
 10
348.214486567
 20
135.0282377547
 30
0.0
 10
348.2302268555
 20
135.0361078989
 30
0.0
  0
SPLINE
  5
56B
100
AcDbEntity
  8
7_ALL_FEATURES
100
AcDbSpline
 62
7
  6
CONTINUOUS
 70
0
 71
3
 72
9
 73
5
 74
0
 42
0.0000001
 43
0.0000001
 44
0.0000000001
 40
0.0
 40
0.0
 40
0.0
 40
0.0
 40
0.5023468762
 40
1.0
 40
1.0
 40
1.0
 40
1.0
 10
348.2302268555
 20
135.0361078989
 30
0.0
 10
348.2588670371
 20
135.0504279898
 30
0.0
 10
348.3402382765
 20
135.0688826907
 30
0.0
 10
348.4257736266
 20
135.0530620643
 30
0.0
 10
348.4541462045
 20
135.0388757754
 30
0.0
  0
SPLINE
  5
56C
100
AcDbEntity
  8
7_ALL_FEATURES
100
AcDbSpline
 62
7
  6
CONTINUOUS
 70
0
 71
3
 72
8
 73
4
 74
0
 42
0.0000001
 43
0.0000001
 44
0.0000000001
 40
0.0
 40
0.0
 40
0.0
 40
0.0
 40
1.0
 40
1.0
 40
1.0
 40
1.0
 10
348.4541462045
 20
135.0388757754
 30
0.0
 10
348.4886386817
 20
135.0216295368
 30
0.0
 10
348.5070463012
 20
134.9943868288
 30
0.0
 10
348.5038193701
 20
134.9700503907
 30
0.0
  0
SPLINE
  5
56D
100
AcDbEntity
  8
7_ALL_FEATURES
100
AcDbSpline
 62
7
  6
CONTINUOUS
 70
0
 71
3
 72
21
 73
17
 74
0
 42
0.0000001
 43
0.0000001
 44
0.0000000001
 40
0.0
 40
0.0
 40
0.0
 40
0.0
 40
0.1300654079
 40
0.24745904
 40
0.3043447126
 40
0.3625445693
 40
0.4247851174
 40
0.4583786656
 40
0.4940661327
 40
0.5303225841
 40
0.5645956416
 40
0.6283774869
 40
0.68813088
 40
0.7464207923
 40
0.866310526
 40
1.0
 40
1.0
 40
1.0
 40
1.0
 10
349.151205243
 20
134.5748756511
 30
0.0
 10
349.1741620348
 20
134.586354047
 30
0.0
 10
349.2131358142
 20
134.610883173
 30
0.0
 10
349.2388928834
 20
134.6477470801
 30
0.0
 10
349.238712738
 20
134.6770207304
 30
0.0
 10
349.2279623707
 20
134.6987102595
 30
0.0
 10
349.2099715761
 20
134.7159018794
 30
0.0
 10
349.1903351959
 20
134.7290834518
 30
0.0
 10
349.1725253269
 20
134.7388170197
 30
0.0
 10
349.1529434864
 20
134.7477831615
 30
0.0
 10
349.1261292113
 20
134.7578784831
 30
0.0
 10
349.0911341884
 20
134.7672822331
 30
0.0
 10
349.0469108597
 20
134.7732355774
 30
0.0
 10
348.9870284646
 20
134.7740912902
 30
0.0
 10
348.9107782401
 20
134.7617762815
 30
0.0
 10
348.8601554364
 20
134.7419164493
 30
0.0
 10
348.8365589901
 20
134.7301182261
 30
0.0
  0
SPLINE
  5
56E
100
AcDbEntity
  8
7_ALL_FEATURES
100
AcDbSpline
 62
7
  6
CONTINUOUS
 70
0
 71
3
 72
16
 73
12
 74
0
 42
0.0000001
 43
0.0000001
 44
0.0000000001
 40
0.0
 40
0.0
 40
0.0
 40
0.0
 40
0.1532117584
 40
0.2946326874
 40
0.4342272882
 40
0.5085039738
 40
0.5885790341
 40
0.6413335586
 40
0.6931274681
 40
0.7949137648
 40
1.0
 40
1.0
 40
1.0
 40
1.0
 10
348.8365589901
 20
134.7301182261
 30
0.0
 10
348.813740827
 20
134.7187091446
 30
0.0
 10
348.7759855208
 20
134.6932313606
 30
0.0
 10
348.7508004731
 20
134.6480476524
 30
0.0
 10
348.7632072048
 20
134.6098134463
 30
0.0
 10
348.7924867018
 20
134.5823186437
 30
0.0
 10
348.820572963
 20
134.5654279628
 30
0.0
 10
348.8498098809
 20
134.5525400947
 30
0.0
 10
348.8860288028
 20
134.5404168896
 30
0.0
 10
348.9564013621
 20
134.5257087406
 30
0.0
 10
349.0252193086
 20
134.5264778681
 30
0.0
 10
349.0666456879
 20
134.5325958736
 30
0.0
  0
SPLINE
  5
56F
100
AcDbEntity
  8
7_ALL_FEATURES
100
AcDbSpline
 62
7
  6
CONTINUOUS
 70
0
 71
3
 72
9
 73
5
 74
0
 42
0.0000001
 43
0.0000001
 44
0.0000000001
 40
0.0
 40
0.0
 40
0.0
 40
0.0
 40
0.7307894739
 40
1.0
 40
1.0
 40
1.0
 40
1.0
 10
349.0436853167
 20
134.574392666
 30
0.0
 10
349.0032557726
 20
134.5693687356
 30
0.0
 10
348.938365851
 20
134.5674463524
 30
0.0
 10
348.8930342167
 20
134.5859641753
 30
0.0
 10
348.882182511
 20
134.5913900282
 30
0.0
  0
SPLINE
  5
570
100
AcDbEntity
  8
7_ALL_FEATURES
100
AcDbSpline
 62
7
  6
CONTINUOUS
 70
0
 71
3
 72
9
 73
5
 74
0
 42
0.0000001
 43
0.0000001
 44
0.0000000001
 40
0.0
 40
0.0
 40
0.0
 40
0.0
 40
0.4972493191
 40
1.0
 40
1.0
 40
1.0
 40
1.0
 10
348.882182511
 20
134.5913900282
 30
0.0
 10
348.8558665044
 20
134.6045480315
 30
0.0
 10
348.8268563973
 20
134.6450652908
 30
0.0
 10
348.8656296827
 20
134.6813984774
 30
0.0
 10
348.8919165195
 20
134.6948603097
 30
0.0
  0
SPLINE
  5
571
100
AcDbEntity
  8
7_ALL_FEATURES
100
AcDbSpline
 62
7
  6
CONTINUOUS
 70
0
 71
3
 72
17
 73
13
 74
0
 42
0.0000001
 43
0.0000001
 44
0.0000000001
 40
0.0
 40
0.0
 40
0.0
 40
0.0
 40
0.1280676306
 40
0.2505328491
 40
0.3725330656
 40
0.4358980115
 40
0.5022639314
 40
0.5696811137
 40
0.6324293338
 40
0.7503050664
 40
0.869595042
 40
1.0
 40
1.0
 40
1.0
 40
1.0
 10
348.9428900298
 20
134.7169290161
 30
0.0
 10
348.9560623063
 20
134.7216257251
 30
0.0
 10
348.9849125247
 20
134.7288952525
 30
0.0
 10
349.0324789564
 20
134.7320084689
 30
0.0
 10
349.0712538448
 20
134.7273954363
 30
0.0
 10
349.0991003894
 20
134.7195509546
 30
0.0
 10
349.1182487405
 20
134.7114840187
 30
0.0
 10
349.1344104091
 20
134.7019784049
 30
0.0
 10
349.1502542318
 20
134.688376195
 30
0.0
 10
349.1592849802
 20
134.6694054438
 30
0.0
 10
349.1513375739
 20
134.6460056884
 30
0.0
 10
349.1358516698
 20
134.6319541095
 30
0.0
 10
349.1261643203
 20
134.6252918709
 30
0.0
  0
SPLINE
  5
572
100
AcDbEntity
  8
7_ALL_FEATURES
100
AcDbSpline
 62
7
  6
CONTINUOUS
 70
0
 71
3
 72
8
 73
4
 74
0
 42
0.0000001
 43
0.0000001
 44
0.0000000001
 40
0.0
 40
0.0
 40
0.0
 40
0.0
 40
1.0
 40
1.0
 40
1.0
 40
1.0
 10
349.7972907712
 20
134.2065065877
 30
0.0
 10
349.7314726108
 20
134.2065623343
 30
0.0
 10
349.6530893215
 20
134.2087602285
 30
0.0
 10
349.6065487872
 20
134.2320304956
 30
0.0
  0
SPLINE
  5
573
100
AcDbEntity
  8
7_ALL_FEATURES
100
AcDbSpline
 62
7
  6
CONTINUOUS
 70
0
 71
3
 72
8
 73
4
 74
0
 42
0.0000001
 43
0.0000001
 44
0.0000000001
 40
0.0
 40
0.0
 40
0.0
 40
0.0
 40
1.0
 40
1.0
 40
1.0
 40
1.0
 10
349.6065487872
 20
134.2320304956
 30
0.0
 10
349.5606265484
 20
134.254991615
 30
0.0
 10
349.5595862727
 20
134.306483767
 30
0.0
 10
349.6055085115
 20
134.3294448863
 30
0.0
  0
SPLINE
  5
574
100
AcDbEntity
  8
7_ALL_FEATURES
100
AcDbSpline
 62
7
  6
CONTINUOUS
 70
0
 71
3
 72
8
 73
4
 74
0
 42
0.0000001
 43
0.0000001
 44
0.0000000001
 40
0.0
 40
0.0
 40
0.0
 40
0.0
 40
1.0
 40
1.0
 40
1.0
 40
1.0
 10
349.6055085115
 20
134.3294448863
 30
0.0
 10
349.6544569546
 20
134.3539191079
 30
0.0
 10
349.744516657
 20
134.3434722641
 30
0.0
 10
349.8125976854
 20
134.3372098015
 30
0.0
  0
SPLINE
  5
575
100
AcDbEntity
  8
7_ALL_FEATURES
100
AcDbSpline
 62
7
  6
CONTINUOUS
 70
0
 71
3
 72
13
 73
9
 74
0
 42
0.0000001
 43
0.0000001
 44
0.0000000001
 40
0.0
 40
0.0
 40
0.0
 40
0.0
 40
0.2266930293
 40
0.3384900135
 40
0.4545322516
 40
0.5979807664
 40
0.7311494495
 40
1.0
 40
1.0
 40
1.0
 40
1.0
 10
349.9246502416
 20
134.3904124741
 30
0.0
 10
349.9267236323
 20
134.3990762852
 30
0.0
 10
349.9294733935
 20
134.4121374762
 30
0.0
 10
349.9420151035
 20
134.4286386307
 30
0.0
 10
349.9591464411
 20
134.4403116606
 30
0.0
 10
349.985005568
 20
134.4490324048
 30
0.0
 10
350.027596088
 20
134.4523945725
 30
0.0
 10
350.0587378173
 20
134.444783724
 30
0.0
 10
350.073372517
 20
134.4374663742
 30
0.0
  0
SPLINE
  5
576
100
AcDbEntity
  8
7_ALL_FEATURES
100
AcDbSpline
 62
7
  6
CONTINUOUS
 70
0
 71
3
 72
9
 73
5
 74
0
 42
0.0000001
 43
0.0000001
 44
0.0000000001
 40
0.0
 40
0.0
 40
0.0
 40
0.0
 40
0.5015303471
 40
1.0
 40
1.0
 40
1.0
 40
1.0
 10
350.073372517
 20
134.4374663742
 30
0.0
 10
350.088797641
 20
134.4297538122
 30
0.0
 10
350.1141196255
 20
134.4087011255
 30
0.0
 10
350.092976067
 20
134.3857804235
 30
0.0
 10
350.077645078
 20
134.378114929
 30
0.0
  0
SPLINE
  5
577
100
AcDbEntity
  8
7_ALL_FEATURES
100
AcDbSpline
 62
7
  6
CONTINUOUS
 70
0
 71
3
 72
8
 73
4
 74
0
 42
0.0000001
 43
0.0000001
 44
0.0000000001
 40
0.0
 40
0.0
 40
0.0
 40
0.0
 40
1.0
 40
1.0
 40
1.0
 40
1.0
 10
350.077645078
 20
134.378114929
 30
0.0
 10
350.0434546392
 20
134.3610197096
 30
0.0
 10
349.9817345873
 20
134.3662522316
 30
0.0
 10
349.9337155015
 20
134.3690868219
 30
0.0
  0
SPLINE
  5
578
100
AcDbEntity
  8
7_ALL_FEATURES
100
AcDbSpline
 62
7
  6
CONTINUOUS
 70
0
 71
3
 72
8
 73
4
 74
0
 42
0.0000001
 43
0.0000001
 44
0.0000000001
 40
0.0
 40
0.0
 40
0.0
 40
0.0
 40
1.0
 40
1.0
 40
1.0
 40
1.0
 10
349.911275268
 20
134.3291848174
 30
0.0
 10
349.9871167717
 20
134.3233678477
 30
0.0
 10
350.0844316387
 20
134.3198718729
 30
0.0
 10
350.1386869712
 20
134.3469995391
 30
0.0
  0
SPLINE
  5
579
100
AcDbEntity
  8
7_ALL_FEATURES
100
AcDbSpline
 62
7
  6
CONTINUOUS
 70
0
 71
3
 72
15
 73
11
 74
0
 42
0.0000001
 43
0.0000001
 44
0.0000000001
 40
0.0
 40
0.0
 40
0.0
 40
0.0
 40
0.2428967155
 40
0.3642248532
 40
0.4274217221
 40
0.4923642673
 40
0.5612500752
 40
0.6264272867
 40
0.7486967744
 40
1.0
 40
1.0
 40
1.0
 40
1.0
 10
350.1386869712
 20
134.3469995391
 30
0.0
 10
350.1683185042
 20
134.3618153056
 30
0.0
 10
350.1944727823
 20
134.396024569
 30
0.0
 10
350.1716518929
 20
134.431934723
 30
0.0
 10
350.1493709828
 20
134.4504255369
 30
0.0
 10
350.1271255677
 20
134.4633742169
 30
0.0
 10
350.1009503305
 20
134.4746093533
 30
0.0
 10
350.0629433409
 20
134.486039702
 30
0.0
 10
349.9880347376
 20
134.4968173334
 30
0.0
 10
349.9203466095
 20
134.4811795716
 30
0.0
 10
349.8896895468
 20
134.4658510403
 30
0.0
  0
SPLINE
  5
57A
100
AcDbEntity
  8
7_ALL_FEATURES
100
AcDbSpline
 62
7
  6
CONTINUOUS
 70
0
 71
3
 72
8
 73
4
 74
0
 42
0.0000001
 43
0.0000001
 44
0.0000000001
 40
0.0
 40
0.0
 40
0.0
 40
0.0
 40
1.0
 40
1.0
 40
1.0
 40
1.0
 10
349.8896895468
 20
134.4658510403
 30
0.0
 10
349.8466727384
 20
134.4443426361
 30
0.0
 10
349.8338706019
 20
134.4096367006
 30
0.0
 10
349.8322886187
 20
134.3792295101
 30
0.0
  0
SPLINE
  5
57B
100
AcDbEntity
  8
7_ALL_FEATURES
100
AcDbSpline
 62
7
  6
CONTINUOUS
 70
0
 71
3
 72
21
 73
17
 74
0
 42
0.0000001
 43
0.0000001
 44
0.0000000001
 40
0.0
 40
0.0
 40
0.0
 40
0.0
 40
0.0837356597
 40
0.162291479
 40
0.2391436514
 40
0.279844181
 40
0.3241372443
 40
0.3851325473
 40
0.4431056362
 40
0.5545534451
 40
0.6666572162
 40
0.7247034135
 40
0.784641532
 40
0.8693171981
 40
0.9535471067
 40
1.0
 40
1.0
 40
1.0
 40
1.0
 10
349.77570505
 20
134.3837435637
 30
0.0
 10
349.7546562592
 20
134.3854451127
 30
0.0
 10
349.7137148295
 20
134.3883842263
 30
0.0
 10
349.6524173414
 20
134.3884778507
 30
0.0
 10
349.6034182394
 20
134.3816150408
 30
0.0
 10
349.5678768516
 20
134.3709789718
 30
0.0
 10
349.5396149634
 20
134.3587900271
 30
0.0
 10
349.5130736416
 20
134.3425916885
 30
0.0
 10
349.4858676679
 20
134.3163913863
 30
0.0
 10
349.4736451444
 20
134.2799784331
 30
0.0
 10
349.4907870009
 20
134.2441967205
 30
0.0
 10
349.5196602042
 20
134.2185566541
 30
0.0
 10
349.552805484
 20
134.1985905977
 30
0.0
 10
349.5999697723
 20
134.180825469
 30
0.0
 10
349.651181175
 20
134.170430092
 30
0.0
 10
349.6838453785
 20
134.166731348
 30
0.0
 10
349.6955755642
 20
134.1657254786
 30
0.0
  0
SPLINE
  5
57C
100
AcDbEntity
  8
7_ALL_FEATURES
100
AcDbSpline
 62
7
  6
CONTINUOUS
 70
0
 71
3
 72
16
 73
12
 74
0
 42
0.0000001
 43
0.0000001
 44
0.0000000001
 40
0.0
 40
0.0
 40
0.0
 40
0.0
 40
0.1252425561
 40
0.2467589013
 40
0.3691331737
 40
0.4966206149
 40
0.6212710027
 40
0.7409953576
 40
0.8611260843
 40
0.9861350283
 40
1.0
 40
1.0
 40
1.0
 40
1.0
 10
351.4524437488
 20
133.7824084679
 30
0.0
 10
351.4466795218
 20
133.7852926383
 30
0.0
 10
351.4329711782
 20
133.7898003476
 30
0.0
 10
351.4089169883
 20
133.7920546521
 30
0.0
 10
351.3847869228
 20
133.789623474
 30
0.0
 10
351.3641122565
 20
133.7827195912
 30
0.0
 10
351.3503867568
 20
133.7724425168
 30
0.0
 10
351.3460270488
 20
133.7605419046
 30
0.0
 10
351.3509461297
 20
133.7487037652
 30
0.0
 10
351.3605603625
 20
133.7415843115
 30
0.0
 10
351.3670946396
 20
133.7384571038
 30
0.0
 10
351.3677600967
 20
133.7381520327
 30
0.0
  0
SPLINE
  5
57D
100
AcDbEntity
  8
7_ALL_FEATURES
100
AcDbSpline
 62
7
  6
CONTINUOUS
 70
0
 71
3
 72
18
 73
14
 74
0
 42
0.0000001
 43
0.0000001
 44
0.0000000001
 40
0.0
 40
0.0
 40
0.0
 40
0.0
 40
0.0668378092
 40
0.1288082976
 40
0.2469961961
 40
0.3681356933
 40
0.4951635073
 40
0.6211790434
 40
0.7417123965
 40
0.8594546134
 40
0.9207534718
 40
0.9863171374
 40
1.0
 40
1.0
 40
1.0
 40
1.0
 10
351.612497599
 20
133.2262324841
 30
0.0
 10
351.6046164751
 20
133.2301996079
 30
0.0
 10
351.5909262173
 20
133.2385974435
 30
0.0
 10
351.5729326588
 20
133.2573424206
 30
0.0
 10
351.5681320605
 20
133.2832786829
 30
0.0
 10
351.5876850364
 20
133.3129231165
 30
0.0
 10
351.625420272
 20
133.3383878155
 30
0.0
 10
351.6764641023
 20
133.3571465722
 30
0.0
 10
351.735740019
 20
133.3664018332
 30
0.0
 10
351.7871944338
 20
133.3638227958
 30
0.0
 10
351.8243028102
 20
133.3549027827
 30
0.0
 10
351.8426354661
 20
133.3474386074
 30
0.0
 10
351.851858249
 20
133.3426754886
 30
0.0
 10
351.853415639
 20
133.3418370713
 30
0.0
  0
SPLINE
  5
57E
100
AcDbEntity
  8
7_ALL_FEATURES
100
AcDbSpline
 62
7
  6
CONTINUOUS
 70
0
 71
3
 72
18
 73
14
 74
0
 42
0.0000001
 43
0.0000001
 44
0.0000000001
 40
0.0
 40
0.0
 40
0.0
 40
0.0
 40
0.1350100379
 40
0.2013423346
 40
0.2355719675
 40
0.2711190886
 40
0.3382237927
 40
0.4013776696
 40
0.5230950765
 40
0.6472872874
 40
0.7768753356
 40
0.9113154926
 40
1.0
 40
1.0
 40
1.0
 40
1.0
 10
351.9405559782
 20
133.2886861801
 30
0.0
 10
351.947467727
 20
133.3043867261
 30
0.0
 10
351.9485429979
 20
133.3295421037
 30
0.0
 10
351.9271692853
 20
133.3558318838
 30
0.0
 10
351.9091273541
 20
133.3693546588
 30
0.0
 10
351.8874717391
 20
133.3815875465
 30
0.0
 10
351.8564513611
 20
133.3940943743
 30
0.0
 10
351.8020913757
 20
133.4073406336
 30
0.0
 10
351.7265173498
 20
133.4116191706
 30
0.0
 10
351.63881165
 20
133.3987705904
 30
0.0
 10
351.5626993076
 20
133.3711076194
 30
0.0
 10
351.5122484461
 20
133.3367535558
 30
0.0
 10
351.4927437489
 20
133.3116332954
 30
0.0
 10
351.4881438679
 20
133.3012663853
 30
0.0
  0
SPLINE
  5
57F
100
AcDbEntity
  8
7_ALL_FEATURES
100
AcDbSpline
 62
7
  6
CONTINUOUS
 70
0
 71
3
 72
8
 73
4
 74
0
 42
0.0000001
 43
0.0000001
 44
0.0000000001
 40
0.0
 40
0.0
 40
0.0
 40
0.0
 40
1.0
 40
1.0
 40
1.0
 40
1.0
 10
351.5468859232
 20
133.2030120439
 30
0.0
 10
351.5893568795
 20
133.1817765658
 30
0.0
 10
351.6612972427
 20
133.1729866209
 30
0.0
 10
351.720314747
 20
133.1785655645
 30
0.0
  0
SPLINE
  5
580
100
AcDbEntity
  8
7_ALL_FEATURES
100
AcDbSpline
 62
7
  6
CONTINUOUS
 70
0
 71
3
 72
9
 73
5
 74
0
 42
0.0000001
 43
0.0000001
 44
0.0000000001
 40
0.0
 40
0.0
 40
0.0
 40
0.0
 40
0.510464774
 40
1.0
 40
1.0
 40
1.0
 40
1.0
 10
351.6593843119
 20
133.1467628496
 30
0.0
 10
351.6303429645
 20
133.1322421759
 30
0.0
 10
351.5641467198
 20
133.1003101188
 30
0.0
 10
351.47338397
 20
133.1195368694
 30
0.0
 10
351.4455333458
 20
133.1334621814
 30
0.0
  0
SPLINE
  5
581
100
AcDbEntity
  8
7_ALL_FEATURES
100
AcDbSpline
 62
7
  6
CONTINUOUS
 70
0
 71
3
 72
9
 73
5
 74
0
 42
0.0000001
 43
0.0000001
 44
0.0000000001
 40
0.0
 40
0.0
 40
0.0
 40
0.0
 40
0.5039484269
 40
1.0
 40
1.0
 40
1.0
 40
1.0
 10
351.4455333458
 20
133.1334621814
 30
0.0
 10
351.4206948308
 20
133.1458814389
 30
0.0
 10
351.3803266297
 20
133.1799092639
 30
0.0
 10
351.4152882276
 20
133.2162741509
 30
0.0
 10
351.4397375239
 20
133.2284987991
 30
0.0
  0
SPLINE
  5
582
100
AcDbEntity
  8
7_ALL_FEATURES
100
AcDbSpline
 62
7
  6
CONTINUOUS
 70
0
 71
3
 72
9
 73
5
 74
0
 42
0.0000001
 43
0.0000001
 44
0.0000000001
 40
0.0
 40
0.0
 40
0.0
 40
0.0
 40
0.4966166013
 40
1.0
 40
1.0
 40
1.0
 40
1.0
 10
351.3768008428
 20
133.2599671397
 30
0.0
 10
351.3381814459
 20
133.2400564842
 30
0.0
 10
351.2847681896
 20
133.1817438234
 30
0.0
 10
351.3469983384
 20
133.1268520178
 30
0.0
 10
351.3867577676
 20
133.1069723033
 30
0.0
  0
SPLINE
  5
583
100
AcDbEntity
  8
7_ALL_FEATURES
100
AcDbSpline
 62
7
  6
CONTINUOUS
 70
0
 71
3
 72
9
 73
5
 74
0
 42
0.0000001
 43
0.0000001
 44
0.0000000001
 40
0.0
 40
0.0
 40
0.0
 40
0.0
 40
0.4927604322
 40
1.0
 40
1.0
 40
1.0
 40
1.0
 10
351.3867577676
 20
133.1069723033
 30
0.0
 10
351.4329674964
 20
133.0838674388
 30
0.0
 10
351.5786673418
 20
133.049243689
 30
0.0
 10
351.6922895268
 20
133.1002787759
 30
0.0
 10
351.7398570695
 20
133.1240625473
 30
0.0
  0
SPLINE
  5
584
100
AcDbEntity
  8
7_ALL_FEATURES
100
AcDbSpline
 62
7
  6
CONTINUOUS
 70
0
 71
3
 72
10
 73
6
 74
0
 42
0.0000001
 43
0.0000001
 44
0.0000000001
 40
0.0
 40
0.0
 40
0.0
 40
0.0
 40
0.502118989
 40
0.7251106965
 40
1.0
 40
1.0
 40
1.0
 40
1.0
 10
352.392184252
 20
132.941902838
 30
0.0
 10
352.4216236867
 20
132.9566225553
 30
0.0
 10
352.4637065013
 20
132.9802543336
 30
0.0
 10
352.5509011734
 20
132.9879892029
 30
0.0
 10
352.5878377981
 20
132.9748535841
 30
0.0
 10
352.6039546666
 20
132.9667951498
 30
0.0
  0
SPLINE
  5
585
100
AcDbEntity
  8
7_ALL_FEATURES
100
AcDbSpline
 62
7
  6
CONTINUOUS
 70
0
 71
3
 72
9
 73
5
 74
0
 42
0.0000001
 43
0.0000001
 44
0.0000000001
 40
0.0
 40
0.0
 40
0.0
 40
0.0
 40
0.4882113973
 40
1.0
 40
1.0
 40
1.0
 40
1.0
 10
352.6039546666
 20
132.9667951498
 30
0.0
 10
352.6257907463
 20
132.95587711
 30
0.0
 10
352.6605505162
 20
132.9204559892
 30
0.0
 10
352.605445319
 20
132.8954642296
 30
0.0
 10
352.582554709
 20
132.8840189246
 30
0.0
  0
SPLINE
  5
586
100
AcDbEntity
  8
7_ALL_FEATURES
100
AcDbSpline
 62
7
  6
CONTINUOUS
 70
0
 71
3
 72
9
 73
5
 74
0
 42
0.0000001
 43
0.0000001
 44
0.0000000001
 40
0.0
 40
0.0
 40
0.0
 40
0.0
 40
0.5053411722
 40
1.0
 40
1.0
 40
1.0
 40
1.0
 10
352.6529962363
 20
132.8562287018
 30
0.0
 10
352.6875290444
 20
132.8734951058
 30
0.0
 10
352.7604894161
 20
132.9148472029
 30
0.0
 10
352.7127316472
 20
132.9684329377
 30
0.0
 10
352.678928824
 20
132.9853343493
 30
0.0
  0
SPLINE
  5
587
100
AcDbEntity
  8
7_ALL_FEATURES
100
AcDbSpline
 62
7
  6
CONTINUOUS
 70
0
 71
3
 72
8
 73
4
 74
0
 42
0.0000001
 43
0.0000001
 44
0.0000000001
 40
0.0
 40
0.0
 40
0.0
 40
0.0
 40
1.0
 40
1.0
 40
1.0
 40
1.0
 10
352.678928824
 20
132.9853343493
 30
0.0
 10
352.641487409
 20
133.0040550568
 30
0.0
 10
352.5775319145
 20
133.0148501607
 30
0.0
 10
352.5265284308
 20
133.00773743
 30
0.0
  0
SPLINE
  5
588
100
AcDbEntity
  8
7_ALL_FEATURES
100
AcDbSpline
 62
7
  6
CONTINUOUS
 70
0
 71
3
 72
9
 73
5
 74
0
 42
0.0000001
 43
0.0000001
 44
0.0000000001
 40
0.0
 40
0.0
 40
0.0
 40
0.0
 40
0.7509172168
 40
1.0
 40
1.0
 40
1.0
 40
1.0
 10
352.3072531699
 20
134.972335282
 30
0.0
 10
352.0230838516
 20
134.9722782428
 30
0.0
 10
351.6211120142
 20
134.9745088183
 30
0.0
 10
351.298445943
 20
135.082623008
 30
0.0
 10
351.2317938378
 20
135.1159490605
 30
0.0
  0
SPLINE
  5
589
100
AcDbEntity
  8
7_ALL_FEATURES
100
AcDbSpline
 62
7
  6
CONTINUOUS
 70
0
 71
3
 72
9
 73
5
 74
0
 42
0.0000001
 43
0.0000001
 44
0.0000000001
 40
0.0
 40
0.0
 40
0.0
 40
0.0
 40
0.5005139184
 40
1.0
 40
1.0
 40
1.0
 40
1.0
 10
351.2317938378
 20
135.1159490605
 30
0.0
 10
351.0927699192
 20
135.1854610199
 30
0.0
 10
350.9434129907
 20
135.3901302361
 30
0.0
 10
351.0893401431
 20
135.5960683453
 30
0.0
 10
351.2280785674
 20
135.6654375575
 30
0.0
  0
SPLINE
  5
58A
100
AcDbEntity
  8
7_ALL_FEATURES
100
AcDbSpline
 62
7
  6
CONTINUOUS
 70
0
 71
3
 72
9
 73
5
 74
0
 42
0.0000001
 43
0.0000001
 44
0.0000000001
 40
0.0
 40
0.0
 40
0.0
 40
0.0
 40
0.2409264408
 40
1.0
 40
1.0
 40
1.0
 40
1.0
 10
351.2280785674
 20
135.6654375575
 30
0.0
 10
351.296486865
 20
135.6996417063
 30
0.0
 10
351.6748141123
 20
135.7945816507
 30
0.0
 10
352.09398659
 20
135.735990775
 30
0.0
 10
352.3938932764
 20
135.7087761871
 30
0.0
  0
SPLINE
  5
58B
100
AcDbEntity
  8
7_ALL_FEATURES
100
AcDbSpline
 62
7
  6
CONTINUOUS
 70
0
 71
3
 72
20
 73
16
 74
0
 42
0.0000001
 43
0.0000001
 44
0.0000000001
 40
0.0
 40
0.0
 40
0.0
 40
0.0
 40
0.1135375114
 40
0.2256844723
 40
0.2811578863
 40
0.3367106574
 40
0.3932190784
 40
0.4520058265
 40
0.4895000008
 40
0.5256835703
 40
0.5950772204
 40
0.6621623141
 40
0.7283850651
 40
0.8614355268
 40
1.0
 40
1.0
 40
1.0
 40
1.0
 10
353.024226058
 20
136.0081155258
 30
0.0
 10
353.0300695358
 20
136.0327482466
 30
0.0
 10
353.0411745461
 20
136.0817288312
 30
0.0
 10
353.0644569415
 20
136.1422384098
 30
0.0
 10
353.0951573079
 20
136.1886014232
 30
0.0
 10
353.1257872954
 20
136.2219465384
 30
0.0
 10
353.1657870302
 20
136.2536067453
 30
0.0
 10
353.2095108271
 20
136.2790102969
 30
0.0
 10
353.252474759
 20
136.2984738691
 30
0.0
 10
353.3030248492
 20
136.3169470239
 30
0.0
 10
353.3707049955
 20
136.3343040539
 30
0.0
 10
353.4569517828
 20
136.3457523141
 30
0.0
 10
353.5738973587
 20
136.3488299361
 30
0.0
 10
353.7207683596
 20
136.3304599279
 30
0.0
 10
353.8201355589
 20
136.2954052539
 30
0.0
 10
353.8629483581
 20
136.2739988543
 30
0.0
  0
SPLINE
  5
58C
100
AcDbEntity
  8
7_ALL_FEATURES
100
AcDbSpline
 62
7
  6
CONTINUOUS
 70
0
 71
3
 72
9
 73
5
 74
0
 42
0.0000001
 43
0.0000001
 44
0.0000000001
 40
0.0
 40
0.0
 40
0.0
 40
0.0
 40
0.5012533447
 40
1.0
 40
1.0
 40
1.0
 40
1.0
 10
353.8629483581
 20
136.2739988543
 30
0.0
 10
353.9498906872
 20
136.2305276897
 30
0.0
 10
354.0923073787
 20
136.1117265418
 30
0.0
 10
353.973233633
 20
135.9824696077
 30
0.0
 10
353.8867260888
 20
135.9392158357
 30
0.0
  0
SPLINE
  5
58D
100
AcDbEntity
  8
7_ALL_FEATURES
100
AcDbSpline
 62
7
  6
CONTINUOUS
 70
0
 71
3
 72
9
 73
5
 74
0
 42
0.0000001
 43
0.0000001
 44
0.0000000001
 40
0.0
 40
0.0
 40
0.0
 40
0.0
 40
0.4915284383
 40
1.0
 40
1.0
 40
1.0
 40
1.0
 10
353.8867260888
 20
135.9392158357
 30
0.0
 10
353.789473788
 20
135.8905896852
 30
0.0
 10
353.4875746917
 20
135.8487746314
 30
0.0
 10
353.2167167431
 20
135.8796565292
 30
0.0
 10
353.0754224845
 20
135.8880008327
 30
0.0
  0
SPLINE
  5
58E
100
AcDbEntity
  8
7_ALL_FEATURES
100
AcDbSpline
 62
7
  6
CONTINUOUS
 70
0
 71
3
 72
9
 73
5
 74
0
 42
0.0000001
 43
0.0000001
 44
0.0000000001
 40
0.0
 40
0.0
 40
0.0
 40
0.0
 40
0.2491323432
 40
1.0
 40
1.0
 40
1.0
 40
1.0
 10
351.7777473444
 20
134.7393832514
 30
0.0
 10
351.8181046284
 20
134.7363895293
 30
0.0
 10
351.9808664782
 20
134.7269077138
 30
0.0
 10
352.1452584278
 20
134.7270208082
 30
0.0
 10
352.2676483871
 20
134.7319201323
 30
0.0
  0
SPLINE
  5
58F
100
AcDbEntity
  8
7_ALL_FEATURES
100
AcDbSpline
 62
7
  6
CONTINUOUS
 70
0
 71
3
 72
9
 73
5
 74
0
 42
0.0000001
 43
0.0000001
 44
0.0000000001
 40
0.0
 40
0.0
 40
0.0
 40
0.0
 40
0.2421437603
 40
1.0
 40
1.0
 40
1.0
 40
1.0
 10
348.1027053908
 20
134.9479352245
 30
0.0
 10
348.1055656976
 20
134.9428795424
 30
0.0
 10
348.1200459822
 20
134.9223690055
 30
0.0
 10
348.1451075832
 20
134.9040498248
 30
0.0
 10
348.168218992
 20
134.8924941204
 30
0.0
  0
SPLINE
  5
590
100
AcDbEntity
  8
7_ALL_FEATURES
100
AcDbSpline
 62
7
  6
CONTINUOUS
 70
0
 71
3
 72
8
 73
4
 74
0
 42
0.0000001
 43
0.0000001
 44
0.0000000001
 40
0.0
 40
0.0
 40
0.0
 40
0.0
 40
1.0
 40
1.0
 40
1.0
 40
1.0
 10
349.6955755642
 20
134.1657254786
 30
0.0
 10
349.7268560594
 20
134.1630431602
 30
0.0
 10
349.7589847099
 20
134.1625574427
 30
0.0
 10
349.7904175209
 20
134.1638738595
 30
0.0
  0
SPLINE
  5
591
100
AcDbEntity
  8
7_ALL_FEATURES
100
AcDbSpline
 62
7
  6
CONTINUOUS
 70
0
 71
3
 72
15
 73
11
 74
0
 42
0.0000001
 43
0.0000001
 44
0.0000000001
 40
0.0
 40
0.0
 40
0.0
 40
0.0
 40
0.1141106906
 40
0.2377191378
 40
0.3609616822
 40
0.4892136522
 40
0.620383943
 40
0.746351036
 40
0.871384697
 40
1.0
 40
1.0
 40
1.0
 40
1.0
 10
351.3677600967
 20
133.7381520327
 30
0.0
 10
351.3730837538
 20
133.7357114638
 30
0.0
 10
351.3859186621
 20
133.7315797843
 30
0.0
 10
351.4086854072
 20
133.7292162962
 30
0.0
 10
351.4324962292
 20
133.7313830397
 30
0.0
 10
351.4530712447
 20
133.7382400732
 30
0.0
 10
351.4668675967
 20
133.7485878063
 30
0.0
 10
351.4717037754
 20
133.760657772
 30
0.0
 10
351.4672000432
 20
133.7726798311
 30
0.0
 10
351.458197677
 20
133.7795294506
 30
0.0
 10
351.4524437488
 20
133.7824084679
 30
0.0
  0
SPLINE
  5
592
100
AcDbEntity
  8
7_ALL_FEATURES
100
AcDbSpline
 62
7
  6
CONTINUOUS
 70
0
 71
3
 72
17
 73
13
 74
0
 42
0.0000001
 43
0.0000001
 44
0.0000000001
 40
0.0
 40
0.0
 40
0.0
 40
0.0
 40
0.0552928903
 40
0.1190307556
 40
0.2388446404
 40
0.3607162024
 40
0.4913988893
 40
0.6231604286
 40
0.7459155837
 40
0.8662290585
 40
0.9303231461
 40
1.0
 40
1.0
 40
1.0
 40
1.0
 10
351.853415639
 20
133.3418370713
 30
0.0
 10
351.8596451988
 20
133.3384834022
 30
0.0
 10
351.871849069
 20
133.3307124863
 30
0.0
 10
351.8900410649
 20
133.3130481322
 30
0.0
 10
351.8969102921
 20
133.2871311722
 30
0.0
 10
351.8784440188
 20
133.2569962204
 30
0.0
 10
351.8397823572
 20
133.2311993993
 30
0.0
 10
351.7881651644
 20
133.2118006602
 30
0.0
 10
351.7277119809
 20
133.2022000788
 30
0.0
 10
351.6755023876
 20
133.2054765736
 30
0.0
 10
351.6378324837
 20
133.2150777699
 30
0.0
 10
351.6206300631
 20
133.2221388432
 30
0.0
 10
351.612497599
 20
133.2262324841
 30
0.0
  0
SPLINE
  5
593
100
AcDbEntity
  8
7_ALL_FEATURES
100
AcDbSpline
 62
7
  6
CONTINUOUS
 70
0
 71
3
 72
9
 73
5
 74
0
 42
0.0000001
 43
0.0000001
 44
0.0000000001
 40
0.0
 40
0.0
 40
0.0
 40
0.0
 40
0.1306269467
 40
1.0
 40
1.0
 40
1.0
 40
1.0
 10
351.4881438679
 20
133.3012663853
 30
0.0
 10
351.4861724903
 20
133.2968234238
 30
0.0
 10
351.4755136411
 20
133.26227306
 30
0.0
 10
351.5042886541
 20
133.2243106785
 30
0.0
 10
351.5468859232
 20
133.2030120439
 30
0.0
  0
ENDSEC
  0
SECTION
  2
OBJECTS
  0
DICTIONARY
  5
594
100
AcDbDictionary
  3
ACAD_GROUP
350
595
  3
ACAD_MLINESTYLE
350
596
  0
DICTIONARY
  5
595
102
{ACAD_REACTORS
330
594
102
}
100
AcDbDictionary
  0
DICTIONARY
  5
596
102
{ACAD_REACTORS
330
594
102
}
100
AcDbDictionary
  3
STANDARD
350
597
  0
MLINESTYLE
  5
597
102
{ACAD_REACTORS
330
596
102
}
100
AcDbMlineStyle
  2
STANDARD
 70
0
  3

 62
256
 51
90.0
 52
90.0
 71
2
 49
0.5
 62
256
  6
BYLAYER
 49
-0.5
 62
256
  6
BYLAYER
  0
ENDSEC
  0
EOF
