999
DXF file: 2l0_c_001_1.dxf
999
Pro/ENGINEER 2016360 by Parametric Technology Corporation
  0
SECTION
  2
HEADER
  9
$ACADVER
  1
AC1014
  9
$DWGCODEPAGE
  3
ANSI_1252
  9
$EXTMAX
 10
420.0
 20
297.0
 30
0.0
  9
$EXTMIN
 10
0.0
 20
0.0
 30
0.0
  9
$LIMMIN
 10
0.0
 20
0.0
  9
$LIMMAX
 10
420.0
 20
297.0
  9
$VIEWCTR
 10
210.0
 20
148.5
  9
$VIEWSIZE
 40
297.0
  9
$CLAYER
  8
0
  9
$LTSCALE
 40
23.1
  9
$CELTYPE
  6
BYLAYER
  9
$DIMSCALE
 40
1.0
  9
$DIMASZ
 40
2.5
  9
$DIMEXO
 40
0.75
  9
$DIMDLI
 40
15.96
  9
$DIMEXE
 40
0.75
  9
$DIMCEN
 40
3.78
  9
$DIMLFAC
 40
1.0
  9
$DIMBLK
  1
_CLOSED
  9
$DIMALT
 70
0
  9
$DIMALTF
 40
25.4
  9
$DIMTXT
 40
3.0
  9
$DIMTOL
 70
1
  9
$DIMLIM
 70
0
  9
$DIMTFAC
 40
1.0
  9
$DIMTP
 40
0.01
  9
$DIMTM
 40
0.01
  9
$DIMGAP
 40
0.625
  9
$AUNITS
 70
0
  9
$PDMODE
 70
3
  9
$PDSIZE
 40
0.3125
  9
$HANDSEED
  5
5D7
  9
$TILEMODE
 70
1
  9
$MEASUREMENT
 70
1
  0
ENDSEC
  0
SECTION
  2
CLASSES
  0
ENDSEC
  0
SECTION
  2
TABLES
  0
TABLE
  2
VPORT
  5
8
100
AcDbSymbolTable
 70
2
  0
VPORT
  5
1F4
100
AcDbSymbolTableRecord
100
AcDbViewportTableRecord
  2
*ACTIVE
 70
0
 10
0.0
 20
0.0
 11
1.0
 21
1.0
 12
210.0
 22
148.5
 13
0.0
 23
0.0
 14
1.0
 24
1.0
 15
0.0
 25
0.0
 16
0.0
 26
0.0
 36
1.0
 17
0.0
 27
0.0
 37
0.0
 40
297.0
 41
1.4141414141
 42
50.0
 43
0.0
 44
0.0
 50
0.0
 51
0.0
 71
0
 72
100
 73
1
 74
1
 75
0
 76
0
 77
0
 78
0
  0
ENDTAB
  0
TABLE
  2
LTYPE
  5
5
100
AcDbSymbolTable
 70
6
  0
LTYPE
  5
14
100
AcDbSymbolTableRecord
100
AcDbLinetypeTableRecord
  2
BYBLOCK
 70
0
  3

 72
65
 73
0
 40
0.0
  0
LTYPE
  5
15
100
AcDbSymbolTableRecord
100
AcDbLinetypeTableRecord
  2
BYLAYER
 70
0
  3

 72
65
 73
0
 40
0.0
  0
LTYPE
  5
16
100
AcDbSymbolTableRecord
100
AcDbLinetypeTableRecord
  2
CONTINUOUS
 70
64
  3
Solid line
 72
65
 73
0
 40
0.0
  0
LTYPE
  5
1F5
100
AcDbSymbolTableRecord
100
AcDbLinetypeTableRecord
  2
CENTER
 70
64
  3
____ _ ____ _ ____ _ ____ _ ____ _ ____ _ ____
 72
65
 73
4
 40
0.6
 49
0.375
 74
0
 49
-0.075
 74
0
 49
0.075
 74
0
 49
-0.075
 74
0
  0
LTYPE
  5
1F6
100
AcDbSymbolTableRecord
100
AcDbLinetypeTableRecord
  2
HIDDEN
 70
64
  3
- - - - - - - - - - - - - - - - - - - -
 72
65
 73
2
 40
0.2
 49
0.1
 74
0
 49
-0.1
 74
0
  0
LTYPE
  5
1F7
100
AcDbSymbolTableRecord
100
AcDbLinetypeTableRecord
  2
PHANTOM
 70
64
  3
_____ _ _ _____ _ _ _____ _ _ _____
 72
65
 73
6
 40
0.8
 49
0.45
 74
0
 49
-0.05
 74
0
 49
0.1
 74
0
 49
-0.05
 74
0
 49
0.1
 74
0
 49
-0.05
 74
0
  0
LTYPE
  5
1F8
100
AcDbSymbolTableRecord
100
AcDbLinetypeTableRecord
  2
DOT
 70
64
  3
. . . . . . . . . . . . . . . . . . . .
 72
65
 73
2
 40
0.2
 49
0.1
 74
0
 49
-0.1
 74
0
  0
LTYPE
  5
1F9
100
AcDbSymbolTableRecord
100
AcDbLinetypeTableRecord
  2
DASHED
 70
64
  3
- - - - - - - - - - - - - - - - - - - -
 72
65
 73
2
 40
0.2
 49
0.1
 74
0
 49
-0.1
 74
0
  0
ENDTAB
  0
TABLE
  2
LAYER
  5
2
100
AcDbSymbolTable
 70
36
  0
LAYER
  5
10
100
AcDbSymbolTableRecord
100
AcDbLayerTableRecord
  2
0
 70
0
 62
7
  6
CONTINUOUS
  0
LAYER
  5
1FA
100
AcDbSymbolTableRecord
100
AcDbLayerTableRecord
  2
DEFAULT_1
 70
0
 62
7
  6
CENTER
  0
LAYER
  5
1FB
100
AcDbSymbolTableRecord
100
AcDbLayerTableRecord
  2
DEFAULT_2
 70
0
 62
8
  6
HIDDEN
  0
LAYER
  5
1FC
100
AcDbSymbolTableRecord
100
AcDbLayerTableRecord
  2
DEFAULT_3
 70
0
 62
7
  6
PHANTOM
  0
LAYER
  5
1FD
100
AcDbSymbolTableRecord
100
AcDbLayerTableRecord
  2
01_ALL_DTM_PLN
 70
0
 62
7
  6
CONTINUOUS
  0
LAYER
  5
1FE
100
AcDbSymbolTableRecord
100
AcDbLayerTableRecord
  2
01__ASM_ALL_DTM_PLN
 70
0
 62
7
  6
CONTINUOUS
  0
LAYER
  5
1FF
100
AcDbSymbolTableRecord
100
AcDbLayerTableRecord
  2
01__ASM_DEF_DTM_PLN
 70
0
 62
7
  6
CONTINUOUS
  0
LAYER
  5
200
100
AcDbSymbolTableRecord
100
AcDbLayerTableRecord
  2
01___PRT_ALL_DTM_PLN
 70
0
 62
7
  6
CONTINUOUS
  0
LAYER
  5
201
100
AcDbSymbolTableRecord
100
AcDbLayerTableRecord
  2
01___PRT_DEF_DTM_PLN
 70
0
 62
7
  6
CONTINUOUS
  0
LAYER
  5
202
100
AcDbSymbolTableRecord
100
AcDbLayerTableRecord
  2
02_ALL_AXES
 70
0
 62
7
  6
CONTINUOUS
  0
LAYER
  5
203
100
AcDbSymbolTableRecord
100
AcDbLayerTableRecord
  2
02__ASM_ALL_AXES
 70
0
 62
7
  6
CONTINUOUS
  0
LAYER
  5
204
100
AcDbSymbolTableRecord
100
AcDbLayerTableRecord
  2
02___PRT_ALL_AXES
 70
0
 62
7
  6
CONTINUOUS
  0
LAYER
  5
205
100
AcDbSymbolTableRecord
100
AcDbLayerTableRecord
  2
03_ALL_CURVES
 70
0
 62
7
  6
CONTINUOUS
  0
LAYER
  5
206
100
AcDbSymbolTableRecord
100
AcDbLayerTableRecord
  2
03__ASM_ALL_CURVES
 70
0
 62
7
  6
CONTINUOUS
  0
LAYER
  5
207
100
AcDbSymbolTableRecord
100
AcDbLayerTableRecord
  2
03___PRT_ALL_CURVES
 70
0
 62
7
  6
CONTINUOUS
  0
LAYER
  5
208
100
AcDbSymbolTableRecord
100
AcDbLayerTableRecord
  2
04_ALL_DTM_PNT
 70
0
 62
7
  6
CONTINUOUS
  0
LAYER
  5
209
100
AcDbSymbolTableRecord
100
AcDbLayerTableRecord
  2
04__ASM_ALL_DTM_PNT
 70
0
 62
7
  6
CONTINUOUS
  0
LAYER
  5
20A
100
AcDbSymbolTableRecord
100
AcDbLayerTableRecord
  2
04___PRT_ALL_DTM_PNT
 70
0
 62
7
  6
CONTINUOUS
  0
LAYER
  5
20B
100
AcDbSymbolTableRecord
100
AcDbLayerTableRecord
  2
05_ALL_DTM_CSYS
 70
0
 62
7
  6
CONTINUOUS
  0
LAYER
  5
20C
100
AcDbSymbolTableRecord
100
AcDbLayerTableRecord
  2
05__ASM_ALL_DTM_CSYS
 70
0
 62
7
  6
CONTINUOUS
  0
LAYER
  5
20D
100
AcDbSymbolTableRecord
100
AcDbLayerTableRecord
  2
05__ASM_DEF_DTM_CSYS
 70
0
 62
7
  6
CONTINUOUS
  0
LAYER
  5
20E
100
AcDbSymbolTableRecord
100
AcDbLayerTableRecord
  2
05___PRT_ALL_DTM_CSYS
 70
0
 62
7
  6
CONTINUOUS
  0
LAYER
  5
20F
100
AcDbSymbolTableRecord
100
AcDbLayerTableRecord
  2
05___PRT_DEF_DTM_CSYS
 70
0
 62
7
  6
CONTINUOUS
  0
LAYER
  5
210
100
AcDbSymbolTableRecord
100
AcDbLayerTableRecord
  2
06_ALL_SURFS
 70
0
 62
7
  6
CONTINUOUS
  0
LAYER
  5
211
100
AcDbSymbolTableRecord
100
AcDbLayerTableRecord
  2
06__ASM_ALL_SURFS
 70
0
 62
7
  6
CONTINUOUS
  0
LAYER
  5
212
100
AcDbSymbolTableRecord
100
AcDbLayerTableRecord
  2
06___PRT_ALL_SURFS
 70
0
 62
7
  6
CONTINUOUS
  0
LAYER
  5
213
100
AcDbSymbolTableRecord
100
AcDbLayerTableRecord
  2
07__ASM_ALL_SKELETONS
 70
0
 62
7
  6
CONTINUOUS
  0
LAYER
  5
214
100
AcDbSymbolTableRecord
100
AcDbLayerTableRecord
  2
1_ALL_PLANES
 70
0
 62
7
  6
CONTINUOUS
  0
LAYER
  5
215
100
AcDbSymbolTableRecord
100
AcDbLayerTableRecord
  2
2_ALL_CSYS
 70
0
 62
7
  6
CONTINUOUS
  0
LAYER
  5
216
100
AcDbSymbolTableRecord
100
AcDbLayerTableRecord
  2
3_ALL_AXES
 70
0
 62
7
  6
CONTINUOUS
  0
LAYER
  5
217
100
AcDbSymbolTableRecord
100
AcDbLayerTableRecord
  2
4_ALL_POINTS
 70
0
 62
7
  6
CONTINUOUS
  0
LAYER
  5
218
100
AcDbSymbolTableRecord
100
AcDbLayerTableRecord
  2
5_ALL_CURVES
 70
0
 62
7
  6
CONTINUOUS
  0
LAYER
  5
219
100
AcDbSymbolTableRecord
100
AcDbLayerTableRecord
  2
5__COSTRUZIONE
 70
0
 62
7
  6
CONTINUOUS
  0
LAYER
  5
21A
100
AcDbSymbolTableRecord
100
AcDbLayerTableRecord
  2
6_ALL_SURFS
 70
0
 62
7
  6
CONTINUOUS
  0
LAYER
  5
21B
100
AcDbSymbolTableRecord
100
AcDbLayerTableRecord
  2
7_ALL_FEATURES
 70
0
 62
7
  6
CONTINUOUS
  0
LAYER
  5
21C
100
AcDbSymbolTableRecord
100
AcDbLayerTableRecord
  2
8_ALL_NOTES_BALLOONS_SYMBOLS_GT
 70
0
 62
7
  6
CONTINUOUS
  0
LAYER
  5
21D
100
AcDbSymbolTableRecord
100
AcDbLayerTableRecord
  2
9_SOLID
 70
0
 62
7
  6
CONTINUOUS
  0
LAYER
  5
21E
100
AcDbSymbolTableRecord
100
AcDbLayerTableRecord
  2
CLOSED_SHELL
 70
0
 62
7
  6
CONTINUOUS
  0
LAYER
  5
21F
100
AcDbSymbolTableRecord
100
AcDbLayerTableRecord
  2
INTFCLR_2
 70
0
 62
7
  6
CONTINUOUS
  0
LAYER
  5
220
100
AcDbSymbolTableRecord
100
AcDbLayerTableRecord
  2
XSEC_DATUMS
 70
0
 62
7
  6
CONTINUOUS
  0
LAYER
  5
221
100
AcDbSymbolTableRecord
100
AcDbLayerTableRecord
  2
XXX_SOLIDO
 70
0
 62
7
  6
CONTINUOUS
  0
ENDTAB
  0
TABLE
  2
STYLE
  5
3
100
AcDbSymbolTable
 70
1
  0
STYLE
  5
11
100
AcDbSymbolTableRecord
100
AcDbTextStyleTableRecord
  2
STANDARD
 70
0
 40
0.0
 41
0.85
 50
0.0
 71
0
 42
0.2
  3
txt
  4

  0
STYLE
  5
222
100
AcDbSymbolTableRecord
100
AcDbTextStyleTableRecord
  2
TEXTSTYLE_1
 70
0
 40
0.0
 41
0.8
 50
0.0
 71
0
 42
0.2
  3
gdt
  4

  0
STYLE
  5
223
100
AcDbSymbolTableRecord
100
AcDbTextStyleTableRecord
  2
TEXTSTYLE_2
 70
0
 40
0.0
 41
0.9
 50
0.0
 71
0
 42
0.2
  3
txt
  4

  0
STYLE
  5
224
100
AcDbSymbolTableRecord
100
AcDbTextStyleTableRecord
  2
TEXTSTYLE_3
 70
0
 40
0.0
 41
0.9
 50
0.0
 71
0
 42
0.2
  3
txt
  4

  0
STYLE
  5
225
100
AcDbSymbolTableRecord
100
AcDbTextStyleTableRecord
  2
TEXTSTYLE_4
 70
0
 40
0.0
 41
0.85
 50
0.0
 71
0
 42
0.2
  3
gdt
  4

  0
STYLE
  5
226
100
AcDbSymbolTableRecord
100
AcDbTextStyleTableRecord
  2
TEXTSTYLE_5
 70
0
 40
0.0
 41
0.85
 50
0.0
 71
0
 42
0.2
  3
txt
  4

  0
ENDTAB
  0
TABLE
  2
VIEW
  5
6
100
AcDbSymbolTable
 70
0
  0
ENDTAB
  0
TABLE
  2
UCS
  5
7
100
AcDbSymbolTable
 70
0
  0
ENDTAB
  0
TABLE
  2
APPID
  5
9
100
AcDbSymbolTable
 70
1
  0
APPID
  5
227
100
AcDbSymbolTableRecord
100
AcDbRegAppTableRecord
  2
ACAD
 70
0
  0
ENDTAB
  0
TABLE
  2
BLOCK_RECORD
  5
1
100
AcDbSymbolTable
 70
0
  0
BLOCK_RECORD
  5
1F
100
AcDbSymbolTableRecord
100
AcDbBlockTableRecord
  2
*MODEL_SPACE
  0
BLOCK_RECORD
  5
1B
100
AcDbSymbolTableRecord
100
AcDbBlockTableRecord
  2
*PAPER_SPACE
  0
BLOCK_RECORD
  5
228
100
AcDbSymbolTableRecord
100
AcDbBlockTableRecord
  2
_CLOSED
  0
BLOCK_RECORD
  5
229
100
AcDbSymbolTableRecord
100
AcDbBlockTableRecord
  2
*D0
  0
BLOCK_RECORD
  5
22A
100
AcDbSymbolTableRecord
100
AcDbBlockTableRecord
  2
*D1
  0
BLOCK_RECORD
  5
22B
100
AcDbSymbolTableRecord
100
AcDbBlockTableRecord
  2
*D2
  0
BLOCK_RECORD
  5
22C
100
AcDbSymbolTableRecord
100
AcDbBlockTableRecord
  2
*D3
  0
BLOCK_RECORD
  5
22D
100
AcDbSymbolTableRecord
100
AcDbBlockTableRecord
  2
*D4
  0
BLOCK_RECORD
  5
22E
100
AcDbSymbolTableRecord
100
AcDbBlockTableRecord
  2
*D5
  0
BLOCK_RECORD
  5
22F
100
AcDbSymbolTableRecord
100
AcDbBlockTableRecord
  2
*D6
  0
BLOCK_RECORD
  5
230
100
AcDbSymbolTableRecord
100
AcDbBlockTableRecord
  2
LOGO2_BL0
  0
ENDTAB
  0
TABLE
  2
DIMSTYLE
  5
A
100
AcDbSymbolTable
 70
1
  0
DIMSTYLE
105
231
100
AcDbSymbolTableRecord
100
AcDbDimStyleTableRecord
  2
STANDARD
 70
0
  3

  4

  5
_CLOSED
  6
_CLOSED
  7
_CLOSED
 40
1.0
 41
2.5
 42
0.75
 43
0.38
 44
0.75
 45
0.0
 46
0.0
 47
0.01
 48
0.01
140
3.0
141
0.09
142
0.0
143
25.4
144
1.0
145
0.0
146
1.0
147
0.625
 71
1.0
 72
0.0
 73
0
 74
0
 75
0
 76
0
 77
1
 78
8
 79
2
170
0
171
1
172
0
173
0
174
0
175
0
176
0
177
0
178
0
270
2
179
2
271
2
272
2
273
2
274
2
275
0
280
0
281
0
282
0
283
1
284
8
285
0
286
0
287
3
288
0
340
11
  0
DIMSTYLE
105
232
100
AcDbSymbolTableRecord
100
AcDbDimStyleTableRecord
  2
DIMSTYLE_1
 70
0
  3

  4

  5
_CLOSED
  6
_CLOSED
  7
_CLOSED
 40
1.0
 41
2.5
 42
0.75
 43
0.38
 44
0.75
 45
0.0
 46
0.0
 47
0.1
 48
0.1
140
3.0
141
0.09
142
0.0
143
25.4
144
1.0
145
0.0
146
1.0
147
0.75
 71
0.0
 72
0.0
 73
0
 74
0
 75
0
 76
0
 77
1
 78
8
 79
2
170
0
171
1
172
0
173
0
174
0
175
0
176
0
177
0
178
0
270
2
179
0
271
0
272
0
273
2
274
2
275
0
280
0
281
0
282
0
283
1
284
8
285
0
286
0
287
3
288
0
340
11
  0
DIMSTYLE
105
233
100
AcDbSymbolTableRecord
100
AcDbDimStyleTableRecord
  2
DIMSTYLE_2
 70
0
  3

  4

  5
_CLOSED
  6
_CLOSED
  7
_CLOSED
 40
1.0
 41
2.5
 42
0.75
 43
0.38
 44
0.75
 45
0.0
 46
0.0
 47
0.3
 48
0.3
140
3.0
141
0.09
142
0.0
143
25.4
144
1.0
145
0.0
146
1.0
147
0.75
 71
0.0
 72
0.0
 73
0
 74
0
 75
0
 76
0
 77
1
 78
8
 79
2
170
0
171
1
172
0
173
0
174
0
175
0
176
0
177
0
178
0
270
2
179
2
271
2
272
-1
273
2
274
2
275
0
280
0
281
0
282
0
283
1
284
8
285
0
286
0
287
3
288
0
340
11
  0
DIMSTYLE
105
234
100
AcDbSymbolTableRecord
100
AcDbDimStyleTableRecord
  2
DIMSTYLE_3
 70
0
  3

  4

  5
_CLOSED
  6
_CLOSED
  7
_CLOSED
 40
1.0
 41
2.5
 42
0.75
 43
0.38
 44
0.75
 45
0.0
 46
0.0
 47
0.3
 48
0.3
140
3.0
141
0.09
142
0.0
143
25.4
144
1.0
145
0.0
146
1.0
147
0.75
 71
0.0
 72
0.0
 73
0
 74
0
 75
0
 76
0
 77
1
 78
8
 79
2
170
0
171
1
172
0
173
0
174
0
175
0
176
0
177
0
178
0
270
2
179
2
271
2
272
2
273
2
274
2
275
0
280
0
281
0
282
0
283
1
284
8
285
0
286
0
287
3
288
0
340
11
  0
DIMSTYLE
105
235
100
AcDbSymbolTableRecord
100
AcDbDimStyleTableRecord
  2
DIMSTYLE_4
 70
0
  3
<>
  4

  5
_CLOSED
  6
_CLOSED
  7
_CLOSED
 40
1.0
 41
2.5
 42
0.75
 43
0.38
 44
0.75
 45
0.0
 46
0.0
 47
0.3
 48
0.3
140
3.0
141
0.09
142
0.0
143
25.4
144
1.0
145
0.0
146
1.0
147
0.625
 71
0.0
 72
0.0
 73
0
 74
0
 75
0
 76
0
 77
1
 78
8
 79
2
170
0
171
1
172
1
173
0
174
0
175
0
176
0
177
0
178
0
270
2
179
2
271
2
272
2
273
2
274
2
275
0
280
0
281
0
282
0
283
1
284
8
285
0
286
0
287
3
288
1
340
11
  0
DIMSTYLE
105
236
100
AcDbSymbolTableRecord
100
AcDbDimStyleTableRecord
  2
DIMSTYLE_5
 70
0
  3

  4

  5
_CLOSED
  6
_CLOSED
  7
_CLOSED
 40
1.0
 41
2.5
 42
0.75
 43
0.38
 44
0.75
 45
0.0
 46
0.0
 47
0.2
 48
0.2
140
3.0
141
0.09
142
0.0
143
25.4
144
1.0
145
0.0
146
1.0
147
0.75
 71
0.0
 72
0.0
 73
0
 74
0
 75
0
 76
0
 77
1
 78
8
 79
2
170
0
171
1
172
0
173
0
174
0
175
0
176
0
177
0
178
0
270
2
179
2
271
2
272
2
273
2
274
2
275
0
280
0
281
0
282
0
283
1
284
8
285
0
286
0
287
3
288
0
340
11
  0
ENDTAB
  0
ENDSEC
  0
SECTION
  2
BLOCKS
  0
BLOCK
  5
20
100
AcDbEntity
  8
0
100
AcDbBlockBegin
  2
*MODEL_SPACE
 70
0
 10
0.0
 20
0.0
 30
0.0
  3
*MODEL_SPACE
  1

  0
ENDBLK
  5
21
100
AcDbEntity
  8
0
100
AcDbBlockEnd
  0
BLOCK
  5
1C
100
AcDbEntity
  8
0
100
AcDbBlockBegin
  2
*PAPER_SPACE
 70
0
 10
0.0
 20
0.0
 30
0.0
  3
*PAPER_SPACE
  1

  0
ENDBLK
  5
1D
100
AcDbEntity
  8
0
100
AcDbBlockEnd
  0
BLOCK
  5
237
100
AcDbEntity
  8
0
100
AcDbBlockBegin
 62
2
  6
CONTINUOUS
  2
LOGO2_BL0
 70
64
 10
333.1473869546
 20
37.5239270671
  3
LOGO2_BL0
  1

  0
LINE
  5
238
100
AcDbEntity
  8
0
100
AcDbLine
 62
7
  6
CONTINUOUS
 10
324.8903121828
 20
40.7194184059
 11
323.5859712535
 21
40.7194184059
  0
LINE
  5
239
100
AcDbEntity
  8
0
100
AcDbLine
 62
7
  6
CONTINUOUS
 10
323.5859712535
 20
40.7194184059
 11
323.5859712535
 21
30.260352346
  0
LINE
  5
23A
100
AcDbEntity
  8
0
100
AcDbLine
 62
7
  6
CONTINUOUS
 10
323.5859712535
 20
30.260352346
 11
328.0670261417
 21
30.260352346
  0
LINE
  5
23B
100
AcDbEntity
  8
0
100
AcDbLine
 62
7
  6
CONTINUOUS
 10
328.0670261417
 20
30.260352346
 11
328.0670261417
 21
31.4532066711
  0
LINE
  5
23C
100
AcDbEntity
  8
0
100
AcDbLine
 62
7
  6
CONTINUOUS
 10
328.0670261417
 20
31.4532066711
 11
324.8903121828
 21
31.4532066711
  0
LINE
  5
23D
100
AcDbEntity
  8
0
100
AcDbLine
 62
7
  6
CONTINUOUS
 10
324.8903121828
 20
31.4532066711
 11
324.8903121828
 21
40.7194184059
  0
LINE
  5
23E
100
AcDbEntity
  8
0
100
AcDbLine
 62
7
  6
CONTINUOUS
 10
339.8266383991
 20
40.7194184059
 11
338.522820881
 21
40.7194184059
  0
LINE
  5
23F
100
AcDbEntity
  8
0
100
AcDbLine
 62
7
  6
CONTINUOUS
 10
338.522820881
 20
40.7194184059
 11
338.522820881
 21
30.260352346
  0
LINE
  5
240
100
AcDbEntity
  8
0
100
AcDbLine
 62
7
  6
CONTINUOUS
 10
338.522820881
 20
30.260352346
 11
343.0040066221
 21
30.260352346
  0
LINE
  5
241
100
AcDbEntity
  8
0
100
AcDbLine
 62
7
  6
CONTINUOUS
 10
343.0040066221
 20
30.260352346
 11
343.0040066221
 21
31.4532066711
  0
LINE
  5
242
100
AcDbEntity
  8
0
100
AcDbLine
 62
7
  6
CONTINUOUS
 10
343.0040066221
 20
31.4532066711
 11
339.8266383991
 21
31.4532066711
  0
LINE
  5
243
100
AcDbEntity
  8
0
100
AcDbLine
 62
7
  6
CONTINUOUS
 10
339.8266383991
 20
31.4532066711
 11
339.8266383991
 21
40.7194184059
  0
LWPOLYLINE
  5
244
100
AcDbEntity
  8
0
100
AcDbPolyline
 62
7
  6
CONTINUOUS
 90
2
 70
0
 43
0.2
 10
321.9403661644
 20
26.9168010391
 10
321.9403661644
 20
25.0597377898
  0
LWPOLYLINE
  5
245
100
AcDbEntity
  8
0
100
AcDbPolyline
 62
7
  6
CONTINUOUS
 90
2
 70
0
 43
0.2
 10
321.9403661644
 20
25.0597377898
 10
322.7360821748
 20
25.0597377898
  0
LWPOLYLINE
  5
246
100
AcDbEntity
  8
0
100
AcDbPolyline
 62
7
  6
CONTINUOUS
 90
2
 70
0
 43
0.2
 10
322.7360821748
 20
25.0597377898
 10
322.7360821748
 20
25.2717193614
  0
LWPOLYLINE
  5
247
100
AcDbEntity
  8
0
100
AcDbPolyline
 62
7
  6
CONTINUOUS
 90
2
 70
0
 43
0.2
 10
322.7360821748
 20
25.2717193614
 10
322.1719756593
 20
25.2717193614
  0
LWPOLYLINE
  5
248
100
AcDbEntity
  8
0
100
AcDbPolyline
 62
7
  6
CONTINUOUS
 90
2
 70
0
 43
0.2
 10
322.1719756593
 20
25.2717193614
 10
322.1719756593
 20
26.9168010391
  0
LWPOLYLINE
  5
249
100
AcDbEntity
  8
0
100
AcDbPolyline
 62
7
  6
CONTINUOUS
 90
2
 70
0
 43
0.2
 10
322.1719756593
 20
26.9168010391
 10
321.9403661644
 20
26.9168010391
  0
SPLINE
  5
24A
100
AcDbEntity
  8
0
100
AcDbSpline
 62
7
  6
CONTINUOUS
 70
2
 71
3
 72
35
 73
31
 74
0
 42
0.0000001
 43
0.0000001
 44
0.0000000001
 40
0.0
 40
0.0
 40
0.0
 40
0.0
 40
1.0
 40
1.0
 40
1.0
 40
2.0
 40
2.0
 40
2.0
 40
3.0
 40
3.0
 40
3.0
 40
4.0
 40
4.0
 40
4.0
 40
5.0
 40
5.0
 40
5.0
 40
6.0
 40
6.0
 40
6.0
 40
7.0
 40
7.0
 40
7.0
 40
8.0
 40
8.0
 40
8.0
 40
9.0
 40
9.0
 40
9.0
 40
10.0
 40
10.0
 40
10.0
 40
10.0
 10
324.1343754303
 20
26.2122894457
 30
0.0
 10
324.1343754303
 20
26.2122894457
 30
0.0
 10
324.1343754303
 20
25.5501741665
 30
0.0
 10
324.1343754303
 20
25.5501741665
 30
0.0
 10
324.1343754303
 20
25.2350805712
 30
0.0
 10
324.2822391191
 20
25.0204819432
 30
0.0
 10
324.6223256034
 20
25.0204819432
 30
0.0
 10
324.9618886764
 20
25.0204819432
 30
0.0
 10
325.1100140709
 20
25.2350805712
 30
0.0
 10
325.1100140709
 20
25.5501741665
 30
0.0
 10
325.1100140709
 20
25.5501741665
 30
0.0
 10
325.1100140709
 20
26.2122894457
 30
0.0
 10
325.1100140709
 20
26.2122894457
 30
0.0
 10
325.1100140709
 20
26.2122894457
 30
0.0
 10
324.887956832
 20
26.2122894457
 30
0.0
 10
324.887956832
 20
26.2122894457
 30
0.0
 10
324.887956832
 20
26.2122894457
 30
0.0
 10
324.887956832
 20
25.5752979083
 30
0.0
 10
324.887956832
 20
25.5752979083
 30
0.0
 10
324.887956832
 20
25.3894869011
 30
0.0
 10
324.8412423746
 20
25.2267059906
 30
0.0
 10
324.6223256034
 20
25.2267059906
 30
0.0
 10
324.402885421
 20
25.2267059906
 30
0.0
 10
324.3561709636
 20
25.3894869011
 30
0.0
 10
324.3561709636
 20
25.5752979083
 30
0.0
 10
324.3561709636
 20
25.5752979083
 30
0.0
 10
324.3561709636
 20
26.2122894457
 30
0.0
 10
324.3561709636
 20
26.2122894457
 30
0.0
 10
324.3561709636
 20
26.2122894457
 30
0.0
 10
324.1343754303
 20
26.2122894457
 30
0.0
 10
324.1343754303
 20
26.2122894457
 30
0.0
  0
SPLINE
  5
24B
100
AcDbEntity
  8
0
100
AcDbSpline
 62
7
  6
CONTINUOUS
 70
2
 71
3
 72
35
 73
31
 74
0
 42
0.0000001
 43
0.0000001
 44
0.0000000001
 40
0.0
 40
0.0
 40
0.0
 40
0.0
 40
1.0
 40
1.0
 40
1.0
 40
2.0
 40
2.0
 40
2.0
 40
3.0
 40
3.0
 40
3.0
 40
4.0
 40
4.0
 40
4.0
 40
5.0
 40
5.0
 40
5.0
 40
6.0
 40
6.0
 40
6.0
 40
7.0
 40
7.0
 40
7.0
 40
8.0
 40
8.0
 40
8.0
 40
9.0
 40
9.0
 40
9.0
 40
10.0
 40
10.0
 40
10.0
 40
10.0
 10
327.5331466281
 20
26.1709399539
 30
0.0
 10
327.4446901205
 20
26.2222342601
 30
0.0
 10
327.3312407238
 20
26.2473580019
 30
0.0
 10
327.2276052888
 20
26.2473580019
 30
0.0
 10
326.8727324356
 20
26.2473580019
 30
0.0
 10
326.5972872454
 20
25.9835587129
 30
0.0
 10
326.5972872454
 20
25.6260688032
 30
0.0
 10
326.5972872454
 20
25.2811407645
 30
0.0
 10
326.8757420505
 20
25.0210053545
 30
0.0
 10
327.2153051235
 20
25.0210053545
 30
0.0
 10
327.3312407238
 20
25.0210053545
 30
0.0
 10
327.4319973967
 20
25.0429886286
 30
0.0
 10
327.5331466281
 20
25.0968999912
 30
0.0
 10
327.5331466281
 20
25.0968999912
 30
0.0
 10
327.5331466281
 20
25.3795420867
 30
0.0
 10
327.5331466281
 20
25.3795420867
 30
0.0
 10
327.4492699692
 20
25.2863748774
 30
0.0
 10
327.345765387
 20
25.2272294019
 30
0.0
 10
327.2176604743
 20
25.2272294019
 30
0.0
 10
326.9839573343
 20
25.2272294019
 30
0.0
 10
326.8186902202
 20
25.3994317156
 30
0.0
 10
326.8186902202
 20
25.6360136177
 30
0.0
 10
326.8186902202
 20
25.8479951893
 30
0.0
 10
326.9864435379
 20
26.040087132
 30
0.0
 10
327.2032666639
 20
26.040087132
 30
0.0
 10
327.3360822782
 20
26.040087132
 30
0.0
 10
327.4446901205
 20
25.9861757693
 30
0.0
 10
327.5331466281
 20
25.8851573907
 30
0.0
 10
327.5331466281
 20
25.8851573907
 30
0.0
 10
327.5331466281
 20
26.1709399539
 30
0.0
 10
327.5331466281
 20
26.1709399539
 30
0.0
  0
SPLINE
  5
24C
100
AcDbEntity
  8
0
100
AcDbSpline
 62
7
  6
CONTINUOUS
 70
2
 71
3
 72
32
 73
28
 74
0
 42
0.0000001
 43
0.0000001
 44
0.0000000001
 40
0.0
 40
0.0
 40
0.0
 40
0.0
 40
1.0
 40
1.0
 40
1.0
 40
2.0
 40
2.0
 40
2.0
 40
3.0
 40
3.0
 40
3.0
 40
4.0
 40
4.0
 40
4.0
 40
5.0
 40
5.0
 40
5.0
 40
6.0
 40
6.0
 40
6.0
 40
7.0
 40
7.0
 40
7.0
 40
8.0
 40
8.0
 40
8.0
 40
9.0
 40
9.0
 40
9.0
 40
9.0
 10
330.0650178804
 20
25.5993748276
 30
0.0
 10
330.0650178804
 20
25.5993748276
 30
0.0
 10
330.0650178804
 20
25.6333965613
 30
0.0
 10
330.0650178804
 20
25.6333965613
 30
0.0
 10
330.0650178804
 20
25.9757075435
 30
0.0
 10
329.8921613025
 20
26.2473580019
 30
0.0
 10
329.5255116954
 20
26.2473580019
 30
0.0
 10
329.153889681
 20
26.2473580019
 30
0.0
 10
328.9641530891
 20
25.9809416564
 30
0.0
 10
328.9641530891
 20
25.6260688032
 30
0.0
 10
328.9641530891
 20
25.2863748774
 30
0.0
 10
329.1782283059
 20
25.0204819432
 30
0.0
 10
329.5303532498
 20
25.0204819432
 30
0.0
 10
329.754373281
 20
25.0204819432
 30
0.0
 10
329.9565408909
 20
25.1361558378
 30
0.0
 10
330.0650178804
 20
25.3355755385
 30
0.0
 10
330.0650178804
 20
25.3355755385
 30
0.0
 10
329.8773749337
 20
25.4423514412
 30
0.0
 10
329.8773749337
 20
25.4423514412
 30
0.0
 10
329.7938908332
 20
25.3036474499
 30
0.0
 10
329.7026864163
 20
25.2178079987
 30
0.0
 10
329.5331011591
 20
25.2178079987
 30
0.0
 10
329.3211195875
 20
25.2178079987
 30
0.0
 10
329.1881731204
 20
25.4025721833
 30
0.0
 10
329.1858177696
 20
25.5993748276
 30
0.0
 10
329.1858177696
 20
25.5993748276
 30
0.0
 10
330.0650178804
 20
25.5993748276
 30
0.0
 10
330.0650178804
 20
25.5993748276
 30
0.0
  0
SPLINE
  5
24D
100
AcDbEntity
  8
0
100
AcDbSpline
 62
7
  6
CONTINUOUS
 70
2
 71
3
 72
14
 73
10
 74
0
 42
0.0000001
 43
0.0000001
 44
0.0000000001
 40
0.0
 40
0.0
 40
0.0
 40
0.0
 40
1.0
 40
1.0
 40
1.0
 40
2.0
 40
2.0
 40
2.0
 40
3.0
 40
3.0
 40
3.0
 40
3.0
 10
329.1978562292
 20
25.7668664397
 30
0.0
 10
329.2254661746
 20
25.9317409954
 30
0.0
 10
329.3533093817
 20
26.054742648
 30
0.0
 10
329.5255116954
 20
26.054742648
 30
0.0
 10
329.7026864163
 20
26.054742648
 30
0.0
 10
329.816135813
 20
25.9390687534
 30
0.0
 10
329.8433531999
 20
25.7668664397
 30
0.0
 10
329.8433531999
 20
25.7668664397
 30
0.0
 10
329.1978562292
 20
25.7668664397
 30
0.0
 10
329.1978562292
 20
25.7668664397
 30
0.0
  0
SPLINE
  5
24E
100
AcDbEntity
  8
0
100
AcDbSpline
 62
7
  6
CONTINUOUS
 70
2
 71
3
 72
20
 73
16
 74
0
 42
0.0000001
 43
0.0000001
 44
0.0000000001
 40
0.0
 40
0.0
 40
0.0
 40
0.0
 40
1.0
 40
1.0
 40
1.0
 40
2.0
 40
2.0
 40
2.0
 40
3.0
 40
3.0
 40
3.0
 40
4.0
 40
4.0
 40
4.0
 40
5.0
 40
5.0
 40
5.0
 40
5.0
 10
332.0890493306
 20
25.9762309548
 30
0.0
 10
332.0890493306
 20
25.9762309548
 30
0.0
 10
332.5001888972
 20
25.4737561185
 30
0.0
 10
332.5001888972
 20
25.4737561185
 30
0.0
 10
332.3841224441
 20
25.3580822239
 30
0.0
 10
332.2463344226
 20
25.2277528132
 30
0.0
 10
332.0743938145
 20
25.2277528132
 30
0.0
 10
331.8969573879
 20
25.2277528132
 30
0.0
 10
331.7294657758
 20
25.3921039576
 30
0.0
 10
331.7294657758
 20
25.5690169729
 30
0.0
 10
331.7294657758
 20
25.7469768107
 30
0.0
 10
331.9392228494
 20
25.8731189311
 30
0.0
 10
332.0668043508
 20
25.9610520275
 30
0.0
 10
332.0668043508
 20
25.9610520275
 30
0.0
 10
332.0890493306
 20
25.9762309548
 30
0.0
 10
332.0890493306
 20
25.9762309548
 30
0.0
  0
SPLINE
  5
24F
100
AcDbEntity
  8
0
100
AcDbSpline
 62
7
  6
CONTINUOUS
 70
2
 71
3
 72
23
 73
19
 74
0
 42
0.0000001
 43
0.0000001
 44
0.0000000001
 40
0.0
 40
0.0
 40
0.0
 40
0.0
 40
1.0
 40
1.0
 40
1.0
 40
2.0
 40
2.0
 40
2.0
 40
3.0
 40
3.0
 40
3.0
 40
4.0
 40
4.0
 40
4.0
 40
5.0
 40
5.0
 40
5.0
 40
6.0
 40
6.0
 40
6.0
 40
6.0
 10
332.1383808444
 20
26.2672476309
 30
0.0
 10
332.1383808444
 20
26.2672476309
 30
0.0
 10
332.0767491653
 20
26.3457593241
 30
0.0
 10
332.0767491653
 20
26.3457593241
 30
0.0
 10
332.0228378026
 20
26.4143262028
 30
0.0
 10
331.9660476779
 20
26.4834164928
 30
0.0
 10
331.9660476779
 20
26.5771071133
 30
0.0
 10
331.9660476779
 20
26.6959214757
 30
0.0
 10
332.0619627964
 20
26.7733863463
 30
0.0
 10
332.1729259894
 20
26.7733863463
 30
0.0
 10
332.2961893477
 20
26.7733863463
 30
0.0
 10
332.3894874098
 20
26.7022024111
 30
0.0
 10
332.3894874098
 20
26.5718730004
 30
0.0
 10
332.3894874098
 20
26.4368328882
 30
0.0
 10
332.2613824971
 20
26.3604148401
 30
0.0
 10
332.1678227294
 20
26.2866138485
 30
0.0
 10
332.1678227294
 20
26.2866138485
 30
0.0
 10
332.1383808444
 20
26.2672476309
 30
0.0
 10
332.1383808444
 20
26.2672476309
 30
0.0
  0
SPLINE
  5
250
100
AcDbEntity
  8
0
100
AcDbSpline
 62
7
  6
CONTINUOUS
 70
2
 71
3
 72
50
 73
46
 74
0
 42
0.0000001
 43
0.0000001
 44
0.0000000001
 40
0.0
 40
0.0
 40
0.0
 40
0.0
 40
1.0
 40
1.0
 40
1.0
 40
2.0
 40
2.0
 40
2.0
 40
3.0
 40
3.0
 40
3.0
 40
4.0
 40
4.0
 40
4.0
 40
5.0
 40
5.0
 40
5.0
 40
6.0
 40
6.0
 40
6.0
 40
7.0
 40
7.0
 40
7.0
 40
8.0
 40
8.0
 40
8.0
 40
9.0
 40
9.0
 40
9.0
 40
10.0
 40
10.0
 40
10.0
 40
11.0
 40
11.0
 40
11.0
 40
12.0
 40
12.0
 40
12.0
 40
13.0
 40
13.0
 40
13.0
 40
14.0
 40
14.0
 40
14.0
 40
15.0
 40
15.0
 40
15.0
 40
15.0
 10
332.8405370871
 20
25.0602612011
 30
0.0
 10
332.8405370871
 20
25.0602612011
 30
0.0
 10
333.1259270918
 20
25.0602612011
 30
0.0
 10
333.1259270918
 20
25.0602612011
 30
0.0
 10
333.1259270918
 20
25.0602612011
 30
0.0
 10
332.793560924
 20
25.471139062
 30
0.0
 10
332.793560924
 20
25.471139062
 30
0.0
 10
332.793560924
 20
25.471139062
 30
0.0
 10
333.0200671588
 20
25.7370319963
 30
0.0
 10
333.0200671588
 20
25.7370319963
 30
0.0
 10
333.0200671588
 20
25.7370319963
 30
0.0
 10
332.8718109116
 20
25.8898680923
 30
0.0
 10
332.8718109116
 20
25.8898680923
 30
0.0
 10
332.8718109116
 20
25.8898680923
 30
0.0
 10
332.6559037553
 20
25.6386306742
 30
0.0
 10
332.6559037553
 20
25.6386306742
 30
0.0
 10
332.6559037553
 20
25.6386306742
 30
0.0
 10
332.2688411079
 20
26.1065603655
 30
0.0
 10
332.2688411079
 20
26.1065603655
 30
0.0
 10
332.4242942604
 20
26.2206640263
 30
0.0
 10
332.6065722414
 20
26.3604148401
 30
0.0
 10
332.6065722414
 20
26.5697793553
 30
0.0
 10
332.6065722414
 20
26.8136890154
 30
0.0
 10
332.4045354843
 20
26.9571037083
 30
0.0
 10
332.1780292495
 20
26.9571037083
 30
0.0
 10
331.9338578837
 20
26.9571037083
 30
0.0
 10
331.7494862575
 20
26.8063612574
 30
0.0
 10
331.7494862575
 20
26.5498897263
 30
0.0
 10
331.7494862575
 20
26.3923429287
 30
0.0
 10
331.8481492853
 20
26.25468576
 30
0.0
 10
331.953485807
 20
26.1437225669
 30
0.0
 10
331.953485807
 20
26.1437225669
 30
0.0
 10
331.8379427652
 20
26.0599767609
 30
0.0
 10
331.8379427652
 20
26.0599767609
 30
0.0
 10
331.660244633
 20
25.9317409954
 30
0.0
 10
331.5129043554
 20
25.8040286411
 30
0.0
 10
331.5129043554
 20
25.5669233277
 30
0.0
 10
331.5129043554
 20
25.2465956195
 30
0.0
 10
331.7714695316
 20
25.0204819432
 30
0.0
 10
332.0818524253
 20
25.0204819432
 30
0.0
 10
332.3007691965
 20
25.0204819432
 30
0.0
 10
332.4979643992
 20
25.145577241
 30
0.0
 10
332.6382386243
 20
25.3114986192
 30
0.0
 10
332.6382386243
 20
25.3114986192
 30
0.0
 10
332.8405370871
 20
25.0602612011
 30
0.0
 10
332.8405370871
 20
25.0602612011
 30
0.0
  0
LWPOLYLINE
  5
251
100
AcDbEntity
  8
0
100
AcDbPolyline
 62
7
  6
CONTINUOUS
 90
2
 70
0
 43
0.2
 10
334.7759811768
 20
26.9168010391
 10
334.5446333876
 20
26.9168010391
  0
LWPOLYLINE
  5
252
100
AcDbEntity
  8
0
100
AcDbPolyline
 62
7
  6
CONTINUOUS
 90
2
 70
0
 43
0.2
 10
334.5446333876
 20
26.9168010391
 10
334.5446333876
 20
25.0597377898
  0
LWPOLYLINE
  5
253
100
AcDbEntity
  8
0
100
AcDbPolyline
 62
7
  6
CONTINUOUS
 90
2
 70
0
 43
0.2
 10
334.5446333876
 20
25.0597377898
 10
335.3399568395
 20
25.0597377898
  0
LWPOLYLINE
  5
254
100
AcDbEntity
  8
0
100
AcDbPolyline
 62
7
  6
CONTINUOUS
 90
2
 70
0
 43
0.2
 10
335.3399568395
 20
25.0597377898
 10
335.3399568395
 20
25.2717193614
  0
LWPOLYLINE
  5
255
100
AcDbEntity
  8
0
100
AcDbPolyline
 62
7
  6
CONTINUOUS
 90
2
 70
0
 43
0.2
 10
335.3399568395
 20
25.2717193614
 10
334.7759811768
 20
25.2717193614
  0
LWPOLYLINE
  5
256
100
AcDbEntity
  8
0
100
AcDbPolyline
 62
7
  6
CONTINUOUS
 90
2
 70
0
 43
0.2
 10
334.7759811768
 20
25.2717193614
 10
334.7759811768
 20
26.9168010391
  0
LWPOLYLINE
  5
257
100
AcDbEntity
  8
0
100
AcDbPolyline
 62
7
  6
CONTINUOUS
 90
2
 70
0
 43
0.2
 10
337.019060251
 20
26.2122894457
 10
336.7979189819
 20
26.2122894457
  0
LWPOLYLINE
  5
258
100
AcDbEntity
  8
0
100
AcDbPolyline
 62
7
  6
CONTINUOUS
 90
2
 70
0
 43
0.2
 10
336.7979189819
 20
26.2122894457
 10
336.7979189819
 20
25.0602612011
  0
LWPOLYLINE
  5
259
100
AcDbEntity
  8
0
100
AcDbPolyline
 62
7
  6
CONTINUOUS
 90
2
 70
0
 43
0.2
 10
336.7979189819
 20
25.0602612011
 10
337.019060251
 20
25.0602612011
  0
LWPOLYLINE
  5
25A
100
AcDbEntity
  8
0
100
AcDbPolyline
 62
7
  6
CONTINUOUS
 90
2
 70
0
 43
0.2
 10
337.019060251
 20
25.0602612011
 10
337.019060251
 20
26.2122894457
  0
LWPOLYLINE
  5
25B
100
AcDbEntity
  8
0
100
AcDbPolyline
 62
7
  6
CONTINUOUS
 90
2
 70
1
 43
0.2
 10
336.7560369738
 20
26.7422433746
 42
1.0
 10
337.0612039647
 20
26.7422433746
 42
1.0
  0
SPLINE
  5
25C
100
AcDbEntity
  8
0
100
AcDbSpline
 62
7
  6
CONTINUOUS
 70
2
 71
3
 72
17
 73
13
 74
0
 42
0.0000001
 43
0.0000001
 44
0.0000000001
 40
0.0
 40
0.0
 40
0.0
 40
0.0
 40
1.0
 40
1.0
 40
1.0
 40
2.0
 40
2.0
 40
2.0
 40
3.0
 40
3.0
 40
3.0
 40
4.0
 40
4.0
 40
4.0
 40
4.0
 10
339.1493441926
 20
25.2178079987
 30
0.0
 10
338.915379347
 20
25.2178079987
 30
0.0
 10
338.7850499363
 20
25.4198447558
 30
0.0
 10
338.7850499363
 20
25.6360136177
 30
0.0
 10
338.7850499363
 20
25.8506122457
 30
0.0
 10
338.9208751655
 20
26.0495085351
 30
0.0
 10
339.1493441926
 20
26.0495085351
 30
0.0
 10
339.3888048568
 20
26.0495085351
 30
0.0
 10
339.5243683804
 20
25.8605570602
 30
0.0
 10
339.5243683804
 20
25.6360136177
 30
0.0
 10
339.5243683804
 20
25.4098999414
 30
0.0
 10
339.3911602076
 20
25.2178079987
 30
0.0
 10
339.1493441926
 20
25.2178079987
 30
0.0
  0
SPLINE
  5
25D
100
AcDbEntity
  8
0
100
AcDbSpline
 62
7
  6
CONTINUOUS
 70
2
 71
3
 72
50
 73
46
 74
0
 42
0.0000001
 43
0.0000001
 44
0.0000000001
 40
0.0
 40
0.0
 40
0.0
 40
0.0
 40
1.0
 40
1.0
 40
1.0
 40
2.0
 40
2.0
 40
2.0
 40
3.0
 40
3.0
 40
3.0
 40
4.0
 40
4.0
 40
4.0
 40
5.0
 40
5.0
 40
5.0
 40
6.0
 40
6.0
 40
6.0
 40
7.0
 40
7.0
 40
7.0
 40
8.0
 40
8.0
 40
8.0
 40
9.0
 40
9.0
 40
9.0
 40
10.0
 40
10.0
 40
10.0
 40
11.0
 40
11.0
 40
11.0
 40
12.0
 40
12.0
 40
12.0
 40
13.0
 40
13.0
 40
13.0
 40
14.0
 40
14.0
 40
14.0
 40
15.0
 40
15.0
 40
15.0
 40
15.0
 10
339.7334711899
 20
26.2128128569
 30
0.0
 10
339.7334711899
 20
26.2128128569
 30
0.0
 10
339.5118065095
 20
26.2128128569
 30
0.0
 10
339.5118065095
 20
26.2128128569
 30
0.0
 10
339.5118065095
 20
26.2128128569
 30
0.0
 10
339.5118065095
 20
26.0154868014
 30
0.0
 10
339.5118065095
 20
26.0154868014
 30
0.0
 10
339.5118065095
 20
26.0154868014
 30
0.0
 10
339.5070958079
 20
26.0154868014
 30
0.0
 10
339.5070958079
 20
26.0154868014
 30
0.0
 10
339.4157605382
 20
26.158378083
 30
0.0
 10
339.2778416638
 20
26.2468345907
 30
0.0
 10
339.1051159388
 20
26.2468345907
 30
0.0
 10
338.772749771
 20
26.2468345907
 30
0.0
 10
338.5636469615
 20
25.9589583823
 30
0.0
 10
338.5636469615
 20
25.6433413757
 30
0.0
 10
338.5636469615
 20
25.3135922644
 30
0.0
 10
338.7607113114
 20
25.0204819432
 30
0.0
 10
339.1155841646
 20
25.0204819432
 30
0.0
 10
339.2778416638
 20
25.0204819432
 30
0.0
 10
339.4178541833
 20
25.1089384508
 30
0.0
 10
339.5070958079
 20
25.2397912728
 30
0.0
 10
339.5070958079
 20
25.2397912728
 30
0.0
 10
339.5118065095
 20
25.2397912728
 30
0.0
 10
339.5118065095
 20
25.2397912728
 30
0.0
 10
339.5118065095
 20
25.2397912728
 30
0.0
 10
339.5118065095
 20
25.0204819432
 30
0.0
 10
339.5118065095
 20
25.0204819432
 30
0.0
 10
339.5118065095
 20
24.7839000411
 30
0.0
 10
339.4552780904
 20
24.5970422113
 30
0.0
 10
339.1820573981
 20
24.5970422113
 30
0.0
 10
338.9797589354
 20
24.5970422113
 30
0.0
 10
338.8371293594
 20
24.7153331624
 30
0.0
 10
338.8371293594
 20
24.9215572098
 30
0.0
 10
338.8371293594
 20
24.9215572098
 30
0.0
 10
338.615464679
 20
24.9215572098
 30
0.0
 10
338.615464679
 20
24.9215572098
 30
0.0
 10
338.6204370862
 20
24.5970422113
 30
0.0
 10
338.8515231698
 20
24.4002395671
 30
0.0
 10
339.171850878
 20
24.4002395671
 30
0.0
 10
339.6198909404
 20
24.4002395671
 30
0.0
 10
339.7334711899
 20
24.6854987189
 30
0.0
 10
339.7334711899
 20
25.0822444751
 30
0.0
 10
339.7334711899
 20
25.0822444751
 30
0.0
 10
339.7334711899
 20
26.2128128569
 30
0.0
 10
339.7334711899
 20
26.2128128569
 30
0.0
  0
SPLINE
  5
25E
100
AcDbEntity
  8
0
100
AcDbSpline
 62
7
  6
CONTINUOUS
 70
2
 71
3
 72
44
 73
40
 74
0
 42
0.0000001
 43
0.0000001
 44
0.0000000001
 40
0.0
 40
0.0
 40
0.0
 40
0.0
 40
1.0
 40
1.0
 40
1.0
 40
2.0
 40
2.0
 40
2.0
 40
3.0
 40
3.0
 40
3.0
 40
4.0
 40
4.0
 40
4.0
 40
5.0
 40
5.0
 40
5.0
 40
6.0
 40
6.0
 40
6.0
 40
7.0
 40
7.0
 40
7.0
 40
8.0
 40
8.0
 40
8.0
 40
9.0
 40
9.0
 40
9.0
 40
10.0
 40
10.0
 40
10.0
 40
11.0
 40
11.0
 40
11.0
 40
12.0
 40
12.0
 40
12.0
 40
13.0
 40
13.0
 40
13.0
 40
13.0
 10
341.3023965253
 20
27.1978729007
 30
0.0
 10
341.3023965253
 20
27.1978729007
 30
0.0
 10
341.3023965253
 20
25.0597377898
 30
0.0
 10
341.3023965253
 20
25.0597377898
 30
0.0
 10
341.3023965253
 20
25.0597377898
 30
0.0
 10
341.5237995001
 20
25.0597377898
 30
0.0
 10
341.5237995001
 20
25.0597377898
 30
0.0
 10
341.5237995001
 20
25.0597377898
 30
0.0
 10
341.5237995001
 20
25.5894300131
 30
0.0
 10
341.5237995001
 20
25.5894300131
 30
0.0
 10
341.5237995001
 20
25.7993179395
 30
0.0
 10
341.5237995001
 20
26.0500319464
 30
0.0
 10
341.8090586519
 20
26.0500319464
 30
0.0
 10
342.0359574452
 20
26.0500319464
 30
0.0
 10
342.0629131266
 20
25.9170854793
 30
0.0
 10
342.0629131266
 20
25.7208062464
 30
0.0
 10
342.0629131266
 20
25.7208062464
 30
0.0
 10
342.0629131266
 20
25.0597377898
 30
0.0
 10
342.0629131266
 20
25.0597377898
 30
0.0
 10
342.0629131266
 20
25.0597377898
 30
0.0
 10
342.2848395126
 20
25.0597377898
 30
0.0
 10
342.2848395126
 20
25.0597377898
 30
0.0
 10
342.2848395126
 20
25.0597377898
 30
0.0
 10
342.2848395126
 20
25.7469768107
 30
0.0
 10
342.2848395126
 20
25.7469768107
 30
0.0
 10
342.2848395126
 20
26.027525261
 30
0.0
 10
342.2008320009
 20
26.2473580019
 30
0.0
 10
341.8757935911
 20
26.2473580019
 30
0.0
 10
341.7360427773
 20
26.2473580019
 30
0.0
 10
341.5978621973
 20
26.1808847684
 30
0.0
 10
341.5285102016
 20
26.0578831157
 30
0.0
 10
341.5285102016
 20
26.0578831157
 30
0.0
 10
341.5237995001
 20
26.0578831157
 30
0.0
 10
341.5237995001
 20
26.0578831157
 30
0.0
 10
341.5237995001
 20
26.0578831157
 30
0.0
 10
341.5237995001
 20
27.1978729007
 30
0.0
 10
341.5237995001
 20
27.1978729007
 30
0.0
 10
341.5237995001
 20
27.1978729007
 30
0.0
 10
341.3023965253
 20
27.1978729007
 30
0.0
 10
341.3023965253
 20
27.1978729007
 30
0.0
  0
LWPOLYLINE
  5
25F
100
AcDbEntity
  8
0
100
AcDbPolyline
 62
7
  6
CONTINUOUS
 90
2
 70
0
 43
0.2
 10
344.1246301895
 20
26.005541987
 10
344.341060757
 20
26.005541987
  0
LWPOLYLINE
  5
260
100
AcDbEntity
  8
0
100
AcDbPolyline
 62
7
  6
CONTINUOUS
 90
2
 70
0
 43
0.2
 10
344.341060757
 20
26.005541987
 10
344.341060757
 20
26.2122894457
  0
LWPOLYLINE
  5
261
100
AcDbEntity
  8
0
100
AcDbPolyline
 62
7
  6
CONTINUOUS
 90
2
 70
0
 43
0.2
 10
344.341060757
 20
26.2122894457
 10
344.1246301895
 20
26.2122894457
  0
LWPOLYLINE
  5
262
100
AcDbEntity
  8
0
100
AcDbPolyline
 62
7
  6
CONTINUOUS
 90
2
 70
0
 43
0.2
 10
344.1246301895
 20
26.2122894457
 10
344.1246301895
 20
26.65300175
  0
LWPOLYLINE
  5
263
100
AcDbEntity
  8
0
100
AcDbPolyline
 62
7
  6
CONTINUOUS
 90
2
 70
0
 43
0.2
 10
344.1246301895
 20
26.65300175
 10
343.9029655091
 20
26.65300175
  0
LWPOLYLINE
  5
264
100
AcDbEntity
  8
0
100
AcDbPolyline
 62
7
  6
CONTINUOUS
 90
2
 70
0
 43
0.2
 10
343.9029655091
 20
26.65300175
 10
343.9029655091
 20
26.2122894457
  0
LWPOLYLINE
  5
265
100
AcDbEntity
  8
0
100
AcDbPolyline
 62
7
  6
CONTINUOUS
 90
2
 70
0
 43
0.2
 10
343.9029655091
 20
26.2122894457
 10
343.7823192072
 20
26.2122894457
  0
LWPOLYLINE
  5
266
100
AcDbEntity
  8
0
100
AcDbPolyline
 62
7
  6
CONTINUOUS
 90
2
 70
0
 43
0.2
 10
343.7823192072
 20
26.2122894457
 10
343.7823192072
 20
26.005541987
  0
LWPOLYLINE
  5
267
100
AcDbEntity
  8
0
100
AcDbPolyline
 62
7
  6
CONTINUOUS
 90
2
 70
0
 43
0.2
 10
343.7823192072
 20
26.005541987
 10
343.9029655091
 20
26.005541987
  0
LWPOLYLINE
  5
268
100
AcDbEntity
  8
0
100
AcDbPolyline
 62
7
  6
CONTINUOUS
 90
2
 70
0
 43
0.2
 10
343.9029655091
 20
26.005541987
 10
343.9029655091
 20
25.0597377898
  0
LWPOLYLINE
  5
269
100
AcDbEntity
  8
0
100
AcDbPolyline
 62
7
  6
CONTINUOUS
 90
2
 70
0
 43
0.2
 10
343.9029655091
 20
25.0597377898
 10
344.1246301895
 20
25.0597377898
  0
LWPOLYLINE
  5
26A
100
AcDbEntity
  8
0
100
AcDbPolyline
 62
7
  6
CONTINUOUS
 90
2
 70
0
 43
0.2
 10
344.1246301895
 20
25.0597377898
 10
344.1246301895
 20
26.005541987
  0
SPLINE
  5
26B
100
AcDbEntity
  8
0
100
AcDbSpline
 62
7
  6
CONTINUOUS
 70
2
 71
3
 72
20
 73
16
 74
0
 42
0.0000001
 43
0.0000001
 44
0.0000000001
 40
0.0
 40
0.0
 40
0.0
 40
0.0
 40
1.0
 40
1.0
 40
1.0
 40
2.0
 40
2.0
 40
2.0
 40
3.0
 40
3.0
 40
3.0
 40
4.0
 40
4.0
 40
4.0
 40
5.0
 40
5.0
 40
5.0
 40
5.0
 10
331.9066404967
 20
35.4206642332
 30
0.0
 10
331.9066404967
 20
35.4206642332
 30
0.0
 10
334.2229971512
 20
32.5911028109
 30
0.0
 10
334.2229971512
 20
32.5911028109
 30
0.0
 10
333.5713500978
 20
31.9389323462
 30
0.0
 10
332.7944768938
 20
31.2030160755
 30
0.0
 10
331.8232872491
 20
31.2030160755
 30
0.0
 10
330.8247493647
 20
31.2030160755
 30
0.0
 10
329.8814313711
 20
32.1325945228
 30
0.0
 10
329.8814313711
 20
33.1317866713
 30
0.0
 10
329.8814313711
 20
34.1309788198
 30
0.0
 10
331.0602844442
 20
34.8375840585
 30
0.0
 10
331.7818069046
 20
35.3374418384
 30
0.0
 10
331.7818069046
 20
35.3374418384
 30
0.0
 10
331.9066404967
 20
35.4206642332
 30
0.0
 10
331.9066404967
 20
35.4206642332
 30
0.0
  0
SPLINE
  5
26C
100
AcDbEntity
  8
0
100
AcDbSpline
 62
7
  6
CONTINUOUS
 70
2
 71
3
 72
23
 73
19
 74
0
 42
0.0000001
 43
0.0000001
 44
0.0000000001
 40
0.0
 40
0.0
 40
0.0
 40
0.0
 40
1.0
 40
1.0
 40
1.0
 40
2.0
 40
2.0
 40
2.0
 40
3.0
 40
3.0
 40
3.0
 40
4.0
 40
4.0
 40
4.0
 40
5.0
 40
5.0
 40
5.0
 40
6.0
 40
6.0
 40
6.0
 40
6.0
 10
332.1840484793
 20
37.0584181529
 30
0.0
 10
332.1840484793
 20
37.0584181529
 30
0.0
 10
331.8375502067
 20
37.5017475137
 30
0.0
 10
331.8375502067
 20
37.5017475137
 30
0.0
 10
331.5317471618
 20
37.8898569837
 30
0.0
 10
331.2128588347
 20
38.2783590121
 30
0.0
 10
331.2128588347
 20
38.8053033262
 30
0.0
 10
331.2128588347
 20
39.4714750428
 30
0.0
 10
331.7541969591
 20
39.9151969621
 30
0.0
 10
332.3781032143
 20
39.9151969621
 30
0.0
 10
333.0718848763
 20
39.9151969621
 30
0.0
 10
333.5990908961
 20
39.5129553874
 30
0.0
 10
333.5990908961
 20
38.7779550864
 30
0.0
 10
333.5990908961
 20
38.0146905758
 30
0.0
 10
332.8778301414
 20
37.58457735
 30
0.0
 10
332.3507549745
 20
37.1688579346
 30
0.0
 10
332.3507549745
 20
37.1688579346
 30
0.0
 10
332.1840484793
 20
37.0584181529
 30
0.0
 10
332.1840484793
 20
37.0584181529
 30
0.0
  0
SPLINE
  5
26D
100
AcDbEntity
  8
0
100
AcDbSpline
 62
7
  6
CONTINUOUS
 70
2
 71
3
 72
50
 73
46
 74
0
 42
0.0000001
 43
0.0000001
 44
0.0000000001
 40
0.0
 40
0.0
 40
0.0
 40
0.0
 40
1.0
 40
1.0
 40
1.0
 40
2.0
 40
2.0
 40
2.0
 40
3.0
 40
3.0
 40
3.0
 40
4.0
 40
4.0
 40
4.0
 40
5.0
 40
5.0
 40
5.0
 40
6.0
 40
6.0
 40
6.0
 40
7.0
 40
7.0
 40
7.0
 40
8.0
 40
8.0
 40
8.0
 40
9.0
 40
9.0
 40
9.0
 40
10.0
 40
10.0
 40
10.0
 40
11.0
 40
11.0
 40
11.0
 40
12.0
 40
12.0
 40
12.0
 40
13.0
 40
13.0
 40
13.0
 40
14.0
 40
14.0
 40
14.0
 40
15.0
 40
15.0
 40
15.0
 40
15.0
 10
336.1376356422
 20
30.2598289348
 30
0.0
 10
336.1376356422
 20
30.2598289348
 30
0.0
 10
337.7468636468
 20
30.2598289348
 30
0.0
 10
337.7468636468
 20
30.2598289348
 30
0.0
 10
337.7468636468
 20
30.2598289348
 30
0.0
 10
335.8738363531
 20
32.5769707062
 30
0.0
 10
335.8738363531
 20
32.5769707062
 30
0.0
 10
335.8738363531
 20
32.5769707062
 30
0.0
 10
337.1501747786
 20
34.0744504008
 30
0.0
 10
337.1501747786
 20
34.0744504008
 30
0.0
 10
337.1501747786
 20
34.0744504008
 30
0.0
 10
336.3179508309
 20
34.9354619693
 30
0.0
 10
336.3179508309
 20
34.9354619693
 30
0.0
 10
336.3179508309
 20
34.9354619693
 30
0.0
 10
335.0973557076
 20
33.5201578469
 30
0.0
 10
335.0973557076
 20
33.5201578469
 30
0.0
 10
335.0973557076
 20
33.5201578469
 30
0.0
 10
332.9194413388
 20
36.1555336813
 30
0.0
 10
332.9194413388
 20
36.1555336813
 30
0.0
 10
333.7930147782
 20
36.7935720412
 30
0.0
 10
334.8196860194
 20
37.58457735
 30
0.0
 10
334.8196860194
 20
38.7634304231
 30
0.0
 10
334.8196860194
 20
40.1371233482
 30
0.0
 10
333.6817898795
 20
40.9416064976
 30
0.0
 10
332.4064982766
 20
40.9416064976
 30
0.0
 10
331.0330670573
 20
40.9416064976
 30
0.0
 10
329.9921328585
 20
40.0953812979
 30
0.0
 10
329.9921328585
 20
38.6527289358
 30
0.0
 10
329.9921328585
 20
37.7651542444
 30
0.0
 10
330.547472235
 20
36.9882810403
 30
0.0
 10
331.1436376918
 20
36.3638513739
 30
0.0
 10
331.1436376918
 20
36.3638513739
 30
0.0
 10
330.4917289328
 20
35.8922578035
 30
0.0
 10
330.4917289328
 20
35.8922578035
 30
0.0
 10
329.4931910484
 20
35.1709970488
 30
0.0
 10
328.6603128365
 20
34.4497362942
 30
0.0
 10
328.6603128365
 20
33.1181779778
 30
0.0
 10
328.6603128365
 20
31.3145026798
 30
0.0
 10
330.1173590091
 20
30.0379025487
 30
0.0
 10
331.8648984465
 20
30.0379025487
 30
0.0
 10
333.0997565274
 20
30.0379025487
 30
0.0
 10
334.2091267521
 20
30.7460780212
 30
0.0
 10
335.000001208
 20
31.6746096459
 30
0.0
 10
335.000001208
 20
31.6746096459
 30
0.0
 10
336.1376356422
 20
30.2598289348
 30
0.0
 10
336.1376356422
 20
30.2598289348
 30
0.0
  0
LINE
  5
26E
100
AcDbEntity
  8
0
100
AcDbLine
 62
7
  6
CONTINUOUS
 10
321.9404970172
 20
28.2337038394
 11
344.3544077449
 21
28.2337038394
  0
LINE
  5
26F
100
AcDbEntity
  8
0
100
AcDbLine
 62
7
  6
CONTINUOUS
 10
344.3544077449
 20
28.2337038394
 11
344.3544077449
 21
50.6476145671
  0
LINE
  5
270
100
AcDbEntity
  8
0
100
AcDbLine
 62
7
  6
CONTINUOUS
 10
344.3544077449
 20
50.6476145671
 11
321.9404970172
 21
50.6476145671
  0
LINE
  5
271
100
AcDbEntity
  8
0
100
AcDbLine
 62
7
  6
CONTINUOUS
 10
321.9404970172
 20
50.6476145671
 11
321.9404970172
 21
28.2337038394
  0
ENDBLK
  5
272
100
AcDbEntity
  8
0
  6
BYBLOCK
 62
0
100
AcDbBlockEnd
  0
BLOCK
  5
273
100
AcDbEntity
  8
0
100
AcDbBlockBegin
  2
_CLOSED
 70
64
 10
0.0
 20
0.0
  3
_CLOSED
  1

  0
LINE
  5
274
100
AcDbEntity
  8
0
  6
BYBLOCK
 62
0
100
AcDbLine
 10
0.0
 20
0.0
 11
-1.0
 21
0.2
  0
LINE
  5
275
100
AcDbEntity
  8
0
  6
BYBLOCK
 62
0
100
AcDbLine
 10
-1.0
 20
0.2
 11
-1.0
 21
-0.2
  0
LINE
  5
276
100
AcDbEntity
  8
0
  6
BYBLOCK
 62
0
100
AcDbLine
 10
-1.0
 20
-0.2
 11
0.0
 21
0.0
  0
LINE
  5
277
100
AcDbEntity
  8
0
  6
BYBLOCK
 62
0
100
AcDbLine
 10
-1.0
 20
0.0
 11
0.0
 21
0.0
  0
ENDBLK
  5
278
100
AcDbEntity
  8
0
  6
BYBLOCK
 62
0
100
AcDbBlockEnd
  0
BLOCK
  5
279
100
AcDbEntity
  8
0
100
AcDbBlockBegin
 62
2
  6
CONTINUOUS
  2
*D0
 70
65
 10
0.0
 20
0.0
  3
*D0
  1

  0
MTEXT
  5
27A
100
AcDbEntity
  8
0
100
AcDbMText
 62
2
  6
CONTINUOUS
  7
STANDARD
 71
3
 72
1
 10
148.8636097372
 20
250.1799315446
 30
0.0
 11
0.0
 21
1.0
 31
0.0
  1
2
 40
3.0
 41
3.5357142857
  0
LINE
  5
27B
100
AcDbEntity
  8
0
100
AcDbLine
 62
2
  6
CONTINUOUS
 10
148.1305168044
 20
256.9069148936
 11
153.3636097372
 21
256.9069148936
  0
LINE
  5
27C
100
AcDbEntity
  8
0
100
AcDbLine
 62
2
  6
CONTINUOUS
 10
148.229343698
 20
254.8968526322
 11
153.3636097372
 21
254.8968526322
  0
LINE
  5
27D
100
AcDbEntity
  8
0
100
AcDbLine
 62
2
  6
CONTINUOUS
 10
152.6136097372
 20
256.9069148936
 11
152.6136097372
 21
257.9069148936
  0
LINE
  5
27E
100
AcDbEntity
  8
0
100
AcDbLine
 62
2
  6
CONTINUOUS
 10
152.6136097372
 20
257.9069148936
 11
152.6136097372
 21
255.9018837629
  0
LINE
  5
27F
100
AcDbEntity
  8
0
100
AcDbLine
 62
2
  6
CONTINUOUS
 10
152.6136097372
 20
254.8968526322
 11
152.6136097372
 21
247.8227886874
  0
LINE
  5
280
100
AcDbEntity
  8
0
100
AcDbLine
 62
2
  6
CONTINUOUS
 10
152.6136097372
 20
247.8227886874
 11
152.6136097372
 21
255.9018837629
  0
INSERT
  5
281
100
AcDbEntity
  8
0
100
AcDbBlockReference
 62
2
  6
CONTINUOUS
  2
_CLOSED
 10
152.6136097372
 20
256.9069148936
 41
2.5
 42
2.5
 43
2.5
 50
270.0
  0
INSERT
  5
282
100
AcDbEntity
  8
0
100
AcDbBlockReference
 62
2
  6
CONTINUOUS
  2
_CLOSED
 10
152.6136097372
 20
254.8968526322
 41
2.5
 42
2.5
 43
2.5
 50
90.0
  0
ENDBLK
  5
283
100
AcDbEntity
  8
0
  6
BYBLOCK
 62
0
100
AcDbBlockEnd
  0
BLOCK
  5
284
100
AcDbEntity
  8
0
100
AcDbBlockBegin
 62
2
  6
CONTINUOUS
  2
*D1
 70
65
 10
0.0
 20
0.0
  3
*D1
  1

  0
MTEXT
  5
285
100
AcDbEntity
  8
0
100
AcDbMText
 62
2
  6
CONTINUOUS
  7
STANDARD
 71
2
 72
1
 10
172.5809415404
 20
225.4069148936
 30
0.0
 11
0.0
 21
1.0
 31
0.0
  1
65
 40
3.0
 41
6.75
  0
LINE
  5
286
100
AcDbEntity
  8
0
100
AcDbLine
 62
2
  6
CONTINUOUS
 10
148.3791445596
 20
256.9069148936
 11
175.5809415404
 21
256.9069148936
  0
LINE
  5
287
100
AcDbEntity
  8
0
100
AcDbLine
 62
2
  6
CONTINUOUS
 10
175.5809415404
 20
256.9069148936
 11
177.0809415404
 21
256.9069148936
  0
LINE
  5
288
100
AcDbEntity
  8
0
100
AcDbLine
 62
2
  6
CONTINUOUS
 10
148.6250178001
 20
193.9069148936
 11
175.5809415404
 21
193.9069148936
  0
LINE
  5
289
100
AcDbEntity
  8
0
100
AcDbLine
 62
2
  6
CONTINUOUS
 10
175.5809415404
 20
193.9069148936
 11
177.0809415404
 21
193.9069148936
  0
LINE
  5
28A
100
AcDbEntity
  8
0
100
AcDbLine
 62
2
  6
CONTINUOUS
 10
176.3309415404
 20
256.9069148936
 11
176.3309415404
 21
225.4069148936
  0
LINE
  5
28B
100
AcDbEntity
  8
0
100
AcDbLine
 62
2
  6
CONTINUOUS
 10
176.3309415404
 20
193.9069148936
 11
176.3309415404
 21
225.4069148936
  0
INSERT
  5
28C
100
AcDbEntity
  8
0
100
AcDbBlockReference
 62
2
  6
CONTINUOUS
  2
_CLOSED
 10
176.3309415404
 20
256.9069148936
 41
2.5
 42
2.5
 43
2.5
 50
90.0
  0
INSERT
  5
28D
100
AcDbEntity
  8
0
100
AcDbBlockReference
 62
2
  6
CONTINUOUS
  2
_CLOSED
 10
176.3309415404
 20
193.9069148936
 41
2.5
 42
2.5
 43
2.5
 50
270.0
  0
ENDBLK
  5
28E
100
AcDbEntity
  8
0
  6
BYBLOCK
 62
0
100
AcDbBlockEnd
  0
BLOCK
  5
28F
100
AcDbEntity
  8
0
100
AcDbBlockBegin
 62
2
  6
CONTINUOUS
  2
*D2
 70
65
 10
0.0
 20
0.0
  3
*D2
  1

  0
MTEXT
  5
290
100
AcDbEntity
  8
0
100
AcDbMText
 62
2
  6
CONTINUOUS
  7
TEXTSTYLE_4
 71
2
 72
1
 10
99.1361309203
 20
179.1762693585
 30
0.0
 11
1.0
 21
0.0
 31
0.0
  1
{\Fgdt;n}\Ftxt;69
 40
3.0
 41
13.0714285714
  0
LINE
  5
291
100
AcDbEntity
  8
0
100
AcDbLine
 62
2
  6
CONTINUOUS
 10
64.6361309203
 20
188.2697891199
 11
64.6361309203
 21
174.6762693585
  0
LINE
  5
292
100
AcDbEntity
  8
0
100
AcDbLine
 62
2
  6
CONTINUOUS
 10
133.6361309203
 20
188.2697891199
 11
133.6361309203
 21
174.6762693585
  0
LINE
  5
293
100
AcDbEntity
  8
0
100
AcDbLine
 62
2
  6
CONTINUOUS
 10
64.6361309203
 20
175.4262693585
 11
99.1361309203
 21
175.4262693585
  0
LINE
  5
294
100
AcDbEntity
  8
0
100
AcDbLine
 62
2
  6
CONTINUOUS
 10
133.6361309203
 20
175.4262693585
 11
99.1361309203
 21
175.4262693585
  0
INSERT
  5
295
100
AcDbEntity
  8
0
100
AcDbBlockReference
 62
2
  6
CONTINUOUS
  2
_CLOSED
 10
64.6361309203
 20
175.4262693585
 41
2.5
 42
2.5
 43
2.5
 50
180.0
  0
INSERT
  5
296
100
AcDbEntity
  8
0
100
AcDbBlockReference
 62
2
  6
CONTINUOUS
  2
_CLOSED
 10
133.6361309203
 20
175.4262693585
 41
2.5
 42
2.5
 43
2.5
  0
ENDBLK
  5
297
100
AcDbEntity
  8
0
  6
BYBLOCK
 62
0
100
AcDbBlockEnd
  0
BLOCK
  5
298
100
AcDbEntity
  8
0
100
AcDbBlockBegin
 62
2
  6
CONTINUOUS
  2
*D3
 70
65
 10
0.0
 20
0.0
  3
*D3
  1

  0
MTEXT
  5
299
100
AcDbEntity
  8
0
100
AcDbMText
 62
2
  6
CONTINUOUS
  7
TEXTSTYLE_4
 71
1
 72
1
 10
143.0872075697
 20
116.4117731478
 30
0.0
 11
0.8619805857
 21
0.5069412884
 31
0.0
  1
{\Fgdt;n}\Ftxt;85
 40
3.0
 41
12.75
  0
LINE
  5
29A
100
AcDbEntity
  8
0
100
AcDbLine
 62
2
  6
CONTINUOUS
 10
135.7703058135
 20
107.7581680358
 11
152.3150723797
 21
117.4883469023
  0
INSERT
  5
29B
100
AcDbEntity
  8
0
100
AcDbBlockReference
 62
2
  6
CONTINUOUS
  2
_CLOSED
 10
135.7703058135
 20
107.7581680358
 41
2.5
 42
2.5
 43
2.5
 50
210.460304409
  0
ENDBLK
  5
29C
100
AcDbEntity
  8
0
  6
BYBLOCK
 62
0
100
AcDbBlockEnd
  0
BLOCK
  5
29D
100
AcDbEntity
  8
0
100
AcDbBlockBegin
 62
2
  6
CONTINUOUS
  2
*D4
 70
65
 10
0.0
 20
0.0
  3
*D4
  1

  0
MTEXT
  5
29E
100
AcDbEntity
  8
0
100
AcDbMText
 62
2
  6
CONTINUOUS
  7
TEXTSTYLE_4
 71
2
 72
1
 10
266.3509370088
 20
179.1762693585
 30
0.0
 11
1.0
 21
0.0
 31
0.0
  1
{\Fgdt;n}\Ftxt;47
 40
3.0
 41
13.0714285714
  0
LINE
  5
29F
100
AcDbEntity
  8
0
100
AcDbLine
 62
2
  6
CONTINUOUS
 10
242.8509370088
 20
188.9323299968
 11
242.8509370088
 21
174.6762693585
  0
LINE
  5
2A0
100
AcDbEntity
  8
0
100
AcDbLine
 62
2
  6
CONTINUOUS
 10
289.8509370088
 20
188.9323299968
 11
289.8509370088
 21
174.6762693585
  0
LINE
  5
2A1
100
AcDbEntity
  8
0
100
AcDbLine
 62
2
  6
CONTINUOUS
 10
242.8509370088
 20
175.4262693585
 11
266.3509370088
 21
175.4262693585
  0
LINE
  5
2A2
100
AcDbEntity
  8
0
100
AcDbLine
 62
2
  6
CONTINUOUS
 10
289.8509370088
 20
175.4262693585
 11
266.3509370088
 21
175.4262693585
  0
INSERT
  5
2A3
100
AcDbEntity
  8
0
100
AcDbBlockReference
 62
2
  6
CONTINUOUS
  2
_CLOSED
 10
242.8509370088
 20
175.4262693585
 41
2.5
 42
2.5
 43
2.5
 50
180.0
  0
INSERT
  5
2A4
100
AcDbEntity
  8
0
100
AcDbBlockReference
 62
2
  6
CONTINUOUS
  2
_CLOSED
 10
289.8509370088
 20
175.4262693585
 41
2.5
 42
2.5
 43
2.5
  0
ENDBLK
  5
2A5
100
AcDbEntity
  8
0
  6
BYBLOCK
 62
0
100
AcDbBlockEnd
  0
BLOCK
  5
2A6
100
AcDbEntity
  8
0
100
AcDbBlockBegin
 62
2
  6
CONTINUOUS
  2
*D5
 70
65
 10
0.0
 20
0.0
  3
*D5
  1

  0
MTEXT
  5
2A7
100
AcDbEntity
  8
0
100
AcDbMText
 62
2
  6
CONTINUOUS
  7
STANDARD
 71
2
 72
1
 10
164.3431982391
 20
233.4069148936
 30
0.0
 11
0.0
 21
1.0
 31
0.0
  1
47
 40
3.0
 41
7.0714285714
  0
LINE
  5
2A8
100
AcDbEntity
  8
0
100
AcDbLine
 62
2
  6
CONTINUOUS
 10
148.6352010094
 20
256.9069148936
 11
168.8431982391
 21
256.9069148936
  0
LINE
  5
2A9
100
AcDbEntity
  8
0
100
AcDbLine
 62
2
  6
CONTINUOUS
 10
148.6198041286
 20
209.9069148936
 11
168.8431982391
 21
209.9069148936
  0
LINE
  5
2AA
100
AcDbEntity
  8
0
100
AcDbLine
 62
2
  6
CONTINUOUS
 10
168.0931982391
 20
256.9069148936
 11
168.0931982391
 21
233.4069148936
  0
LINE
  5
2AB
100
AcDbEntity
  8
0
100
AcDbLine
 62
2
  6
CONTINUOUS
 10
168.0931982391
 20
209.9069148936
 11
168.0931982391
 21
233.4069148936
  0
INSERT
  5
2AC
100
AcDbEntity
  8
0
100
AcDbBlockReference
 62
2
  6
CONTINUOUS
  2
_CLOSED
 10
168.0931982391
 20
256.9069148936
 41
2.5
 42
2.5
 43
2.5
 50
90.0
  0
INSERT
  5
2AD
100
AcDbEntity
  8
0
100
AcDbBlockReference
 62
2
  6
CONTINUOUS
  2
_CLOSED
 10
168.0931982391
 20
209.9069148936
 41
2.5
 42
2.5
 43
2.5
 50
270.0
  0
ENDBLK
  5
2AE
100
AcDbEntity
  8
0
  6
BYBLOCK
 62
0
100
AcDbBlockEnd
  0
BLOCK
  5
2AF
100
AcDbEntity
  8
0
100
AcDbBlockBegin
 62
2
  6
CONTINUOUS
  2
*D6
 70
65
 10
0.0
 20
0.0
  3
*D6
  1

  0
MTEXT
  5
2B0
100
AcDbEntity
  8
0
100
AcDbMText
 62
2
  6
CONTINUOUS
  7
STANDARD
 71
2
 72
1
 10
156.8258233375
 20
249.4069148936
 30
0.0
 11
0.0
 21
1.0
 31
0.0
  1
15
 40
3.0
 41
5.7857142857
  0
LINE
  5
2B1
100
AcDbEntity
  8
0
100
AcDbLine
 62
2
  6
CONTINUOUS
 10
148.6352010094
 20
256.9069148936
 11
161.3258233375
 21
256.9069148936
  0
LINE
  5
2B2
100
AcDbEntity
  8
0
100
AcDbLine
 62
2
  6
CONTINUOUS
 10
148.3533203359
 20
241.9069148936
 11
161.3258233375
 21
241.9069148936
  0
LINE
  5
2B3
100
AcDbEntity
  8
0
100
AcDbLine
 62
2
  6
CONTINUOUS
 10
160.5758233375
 20
256.9069148936
 11
160.5758233375
 21
249.4069148936
  0
LINE
  5
2B4
100
AcDbEntity
  8
0
100
AcDbLine
 62
2
  6
CONTINUOUS
 10
160.5758233375
 20
241.9069148936
 11
160.5758233375
 21
249.4069148936
  0
INSERT
  5
2B5
100
AcDbEntity
  8
0
100
AcDbBlockReference
 62
2
  6
CONTINUOUS
  2
_CLOSED
 10
160.5758233375
 20
256.9069148936
 41
2.5
 42
2.5
 43
2.5
 50
90.0
  0
INSERT
  5
2B6
100
AcDbEntity
  8
0
100
AcDbBlockReference
 62
2
  6
CONTINUOUS
  2
_CLOSED
 10
160.5758233375
 20
241.9069148936
 41
2.5
 42
2.5
 43
2.5
 50
270.0
  0
ENDBLK
  5
2B7
100
AcDbEntity
  8
0
  6
BYBLOCK
 62
0
100
AcDbBlockEnd
  0
ENDSEC
  0
SECTION
  2
ENTITIES
  0
MTEXT
  5
2B8
100
AcDbEntity
  8
0
100
AcDbMText
 62
2
  6
CONTINUOUS
  7
TEXTSTYLE_2
 71
1
 72
1
 10
1.6467220993
 20
53.595027386
 30
0.0
 11
1.0
 21
0.0
 31
0.0
  1
1
 40
4.0
 41
3.4285714286
  0
MTEXT
  5
2B9
100
AcDbEntity
  8
0
100
AcDbMText
 62
2
  6
CONTINUOUS
  7
TEXTSTYLE_2
 71
1
 72
1
 10
1.6467220993
 20
153.595027386
 30
0.0
 11
1.0
 21
0.0
 31
0.0
  1
2
 40
4.0
 41
4.7142857143
  0
MTEXT
  5
2BA
100
AcDbEntity
  8
0
100
AcDbMText
 62
2
  6
CONTINUOUS
  7
TEXTSTYLE_2
 71
1
 72
1
 10
1.6467220993
 20
253.595027386
 30
0.0
 11
1.0
 21
0.0
 31
0.0
  1
3
 40
4.0
 41
4.2857142857
  0
MTEXT
  5
2BB
100
AcDbEntity
  8
0
100
AcDbMText
 62
2
  6
CONTINUOUS
  7
TEXTSTYLE_2
 71
1
 72
1
 10
414.6467220993
 20
60.6268709614
 30
0.0
 11
1.0
 21
0.0
 31
0.0
  1
1
 40
4.0
 41
3.4285714286
  0
MTEXT
  5
2BC
100
AcDbEntity
  8
0
100
AcDbMText
 62
2
  6
CONTINUOUS
  7
TEXTSTYLE_2
 71
1
 72
1
 10
414.6467220993
 20
160.6268709614
 30
0.0
 11
1.0
 21
0.0
 31
0.0
  1
2
 40
4.0
 41
4.7142857143
  0
MTEXT
  5
2BD
100
AcDbEntity
  8
0
100
AcDbMText
 62
2
  6
CONTINUOUS
  7
TEXTSTYLE_2
 71
1
 72
1
 10
414.6467220993
 20
260.6268709614
 30
0.0
 11
1.0
 21
0.0
 31
0.0
  1
3
 40
4.0
 41
4.2857142857
  0
MTEXT
  5
2BE
100
AcDbEntity
  8
0
100
AcDbMText
 62
2
  6
CONTINUOUS
  7
TEXTSTYLE_3
 71
1
 72
1
 10
362.154890719
 20
5.35876025
 30
0.0
 11
1.0
 21
0.0
 31
0.0
  1
A
 40
4.0
 41
3.6
  0
MTEXT
  5
2BF
100
AcDbEntity
  8
0
100
AcDbMText
 62
2
  6
CONTINUOUS
  7
TEXTSTYLE_3
 71
1
 72
1
 10
262.154890719
 20
5.35876025
 30
0.0
 11
1.0
 21
0.0
 31
0.0
  1
B
 40
4.0
 41
3.6
  0
MTEXT
  5
2C0
100
AcDbEntity
  8
0
100
AcDbMText
 62
2
  6
CONTINUOUS
  7
TEXTSTYLE_3
 71
1
 72
1
 10
162.154890719
 20
5.35876025
 30
0.0
 11
1.0
 21
0.0
 31
0.0
  1
C
 40
4.0
 41
3.6
  0
MTEXT
  5
2C1
100
AcDbEntity
  8
0
100
AcDbMText
 62
2
  6
CONTINUOUS
  7
TEXTSTYLE_3
 71
1
 72
1
 10
55.7978688212
 20
5.5353441916
 30
0.0
 11
1.0
 21
0.0
 31
0.0
  1
D
 40
4.0
 41
3.6
  0
MTEXT
  5
2C2
100
AcDbEntity
  8
0
100
AcDbMText
 62
2
  6
CONTINUOUS
  7
TEXTSTYLE_3
 71
1
 72
1
 10
362.154890719
 20
295.35876025
 30
0.0
 11
1.0
 21
0.0
 31
0.0
  1
A
 40
4.0
 41
3.6
  0
MTEXT
  5
2C3
100
AcDbEntity
  8
0
100
AcDbMText
 62
2
  6
CONTINUOUS
  7
TEXTSTYLE_3
 71
1
 72
1
 10
262.154890719
 20
295.35876025
 30
0.0
 11
1.0
 21
0.0
 31
0.0
  1
B
 40
4.0
 41
3.6
  0
MTEXT
  5
2C4
100
AcDbEntity
  8
0
100
AcDbMText
 62
2
  6
CONTINUOUS
  7
TEXTSTYLE_3
 71
1
 72
1
 10
162.154890719
 20
295.35876025
 30
0.0
 11
1.0
 21
0.0
 31
0.0
  1
C
 40
4.0
 41
3.6
  0
MTEXT
  5
2C5
100
AcDbEntity
  8
0
100
AcDbMText
 62
2
  6
CONTINUOUS
  7
TEXTSTYLE_3
 71
1
 72
1
 10
53.9878834197
 20
295.579490177
 30
0.0
 11
1.0
 21
0.0
 31
0.0
  1
D
 40
4.0
 41
3.6
  0
DIMENSION
  5
2C6
100
AcDbEntity
  8
0
100
AcDbDimension
 62
2
  6
CONTINUOUS
  2
*D0
 10
152.6136097372
 20
254.8968526322
 11
152.6136097372
 21
248.5727888745
 70
160
  3
DIMSTYLE_1
100
AcDbAlignedDimension
 13
147.3805168044
 23
256.9069148936
 14
147.479343698
 24
254.8968526322
 50
270.0
100
AcDbRotatedDimension
  0
DIMENSION
  5
2C7
100
AcDbEntity
  8
0
100
AcDbDimension
 62
2
  6
CONTINUOUS
  2
*D1
 10
176.3309415404
 20
193.9069148936
 11
176.3309415404
 21
224.9783439587
 70
160
  1
65
  3
DIMSTYLE_2
100
AcDbAlignedDimension
 13
147.6291445596
 23
256.9069148936
 14
147.8750178001
 24
193.9069148936
 50
270.0
100
AcDbRotatedDimension
  0
DIMENSION
  5
2C8
100
AcDbEntity
  8
0
100
AcDbDimension
 62
2
  6
CONTINUOUS
  2
*D2
 10
133.6361309203
 20
175.4262693585
 11
99.1361309203
 21
175.4262693585
 70
160
  1
%%c<>
  3
DIMSTYLE_3
100
AcDbAlignedDimension
 13
64.6361309203
 23
189.0197891199
 14
133.6361309203
 24
189.0197891199
100
AcDbRotatedDimension
  0
DIMENSION
  5
2C9
100
AcDbEntity
  8
0
100
AcDbDimension
 62
2
  6
CONTINUOUS
  2
*D3
 10
135.7703058135
 20
107.7581680358
 11
147.5110369916
 21
117.2733027447
 70
163
  1
%%c<>
  3
DIMSTYLE_4
100
AcDbDiametricDimension
 15
62.501956027
 25
64.6681585259
  0
DIMENSION
  5
2CA
100
AcDbEntity
  8
0
100
AcDbDimension
 62
2
  6
CONTINUOUS
  2
*D4
 10
289.8509370088
 20
175.4262693585
 11
266.3509370088
 21
175.4262693585
 70
160
  1
%%c<>
  3
DIMSTYLE_3
100
AcDbAlignedDimension
 13
242.8509370088
 23
189.6823299968
 14
289.8509370088
 24
189.6823299968
100
AcDbRotatedDimension
  0
DIMENSION
  5
2CB
100
AcDbEntity
  8
0
100
AcDbDimension
 62
2
  6
CONTINUOUS
  2
*D5
 10
168.0931982391
 20
209.9069148936
 11
168.0931982391
 21
232.9783465635
 70
160
  3
DIMSTYLE_3
100
AcDbAlignedDimension
 13
147.8852010094
 23
256.9069148936
 14
147.8698041286
 24
209.9069148936
 50
270.0
100
AcDbRotatedDimension
  0
DIMENSION
  5
2CC
100
AcDbEntity
  8
0
100
AcDbDimension
 62
2
  6
CONTINUOUS
  2
*D6
 10
160.5758233375
 20
241.9069148936
 11
160.5758233375
 21
248.9783486798
 70
160
  3
DIMSTYLE_5
100
AcDbAlignedDimension
 13
147.8852010094
 23
256.9069148936
 14
147.6033203359
 24
241.9069148936
 50
270.0
100
AcDbRotatedDimension
  0
LINE
  5
2CD
100
AcDbEntity
  8
0
100
AcDbLine
 62
2
  6
CONTINUOUS
 10
319.3213399098
 20
51.0239270671
 11
409.3213399098
 21
51.0239270671
  0
LINE
  5
2CE
100
AcDbEntity
  8
0
100
AcDbLine
 62
2
  6
CONTINUOUS
 10
319.3213399098
 20
51.0239270671
 11
319.3213399098
 21
11.0239270671
  0
LINE
  5
2CF
100
AcDbEntity
  8
0
100
AcDbLine
 62
2
  6
CONTINUOUS
 10
349.3213399098
 20
45.0239270671
 11
409.3213399098
 21
45.0239270671
  0
LINE
  5
2D0
100
AcDbEntity
  8
0
100
AcDbLine
 62
2
  6
CONTINUOUS
 10
349.3213399098
 20
39.0239270671
 11
409.3213399098
 21
39.0239270671
  0
LINE
  5
2D1
100
AcDbEntity
  8
0
100
AcDbLine
 62
2
  6
CONTINUOUS
 10
349.3213399098
 20
29.0239270671
 11
409.3213399098
 21
29.0239270671
  0
LINE
  5
2D2
100
AcDbEntity
  8
0
100
AcDbLine
 62
2
  6
CONTINUOUS
 10
319.3213399098
 20
24.0239270671
 11
409.3213399098
 21
24.0239270671
  0
LINE
  5
2D3
100
AcDbEntity
  8
0
100
AcDbLine
 62
2
  6
CONTINUOUS
 10
319.3213399098
 20
11.0239270671
 11
409.3213399098
 21
11.0239270671
  0
LINE
  5
2D4
100
AcDbEntity
  8
0
100
AcDbLine
 62
2
  6
CONTINUOUS
 10
349.3213399098
 20
51.0239270671
 11
349.3213399098
 21
24.0239270671
  0
LINE
  5
2D5
100
AcDbEntity
  8
0
100
AcDbLine
 62
2
  6
CONTINUOUS
 10
389.3213399098
 20
51.0239270671
 11
389.3213399098
 21
39.0239270671
  0
LINE
  5
2D6
100
AcDbEntity
  8
0
100
AcDbLine
 62
2
  6
CONTINUOUS
 10
409.3213399098
 20
51.0239270671
 11
409.3213399098
 21
11.0239270671
  0
INSERT
  5
2D7
100
AcDbEntity
  8
0
100
AcDbBlockReference
 62
2
  6
CONTINUOUS
  2
LOGO2_BL0
 10
333.1473869546
 20
37.5239270671
  0
MTEXT
  5
2D8
100
AcDbEntity
  8
8_ALL_NOTES_BALLOONS_SYMBOLS_GT
100
AcDbMText
 62
2
  6
CONTINUOUS
  7
STANDARD
 71
1
 72
1
 10
350.8088399098
 20
49.5239270671
 30
0.0
 11
1.0
 21
0.0
 31
0.0
  1
2L0_C_001
 40
3.0
 41
30.4285714286
  0
MTEXT
  5
2D9
100
AcDbEntity
  8
8_ALL_NOTES_BALLOONS_SYMBOLS_GT
100
AcDbMText
 62
2
  6
CONTINUOUS
  7
TEXTSTYLE_5
 71
1
 72
1
 10
390.8088399098
 20
49.2739270671
 30
0.0
 11
1.0
 21
0.0
 31
0.0
  1
Rev:03
 40
3.5
 41
17.85
  0
MTEXT
  5
2DA
100
AcDbEntity
  8
8_ALL_NOTES_BALLOONS_SYMBOLS_GT
100
AcDbMText
 62
2
  6
CONTINUOUS
  7
STANDARD
 71
1
 72
1
 10
350.8088399098
 20
43.2739270671
 30
0.0
 11
1.0
 21
0.0
 31
0.0
  1
Scale:1:1
 40
3.5
 41
27.375
  0
MTEXT
  5
2DB
100
AcDbEntity
  8
8_ALL_NOTES_BALLOONS_SYMBOLS_GT
100
AcDbMText
 62
2
  6
CONTINUOUS
  7
STANDARD
 71
1
 72
1
 10
390.8088399098
 20
43.7739270671
 30
0.0
 11
1.0
 21
0.0
 31
0.0
  1
A3
 40
3.5
 41
8.25
  0
MTEXT
  5
2DC
100
AcDbEntity
  8
8_ALL_NOTES_BALLOONS_SYMBOLS_GT
100
AcDbMText
 62
2
  6
CONTINUOUS
  7
STANDARD
 71
1
 72
1
 10
350.8088399098
 20
35.7739270671
 30
0.0
 11
1.0
 21
0.0
 31
0.0
  1
Bright 2.4
 40
3.5
 41
37.125
  0
MTEXT
  5
2DD
100
AcDbEntity
  8
8_ALL_NOTES_BALLOONS_SYMBOLS_GT
100
AcDbMText
 62
2
  6
CONTINUOUS
  7
STANDARD
 71
1
 72
1
 10
350.8088399098
 20
27.7739270671
 30
0.0
 11
1.0
 21
0.0
 31
0.0
  1
DATE: 21/03/2018
 40
2.5
 41
44.9107142857
  0
MTEXT
  5
2DE
100
AcDbEntity
  8
8_ALL_NOTES_BALLOONS_SYMBOLS_GT
100
AcDbMText
 62
2
  6
CONTINUOUS
  7
TEXTSTYLE_5
 71
1
 72
1
 10
320.8088399098
 20
22.2739270671
 30
0.0
 11
1.0
 21
0.0
 31
0.0
  1
Any integral or partial reproductions are prohibited \Pwithout prior authorisation of L & L Luce & Light s.r.l., \Pin accordance with the law in force. \PAll rights reserved.
 40
1.85
 41
91.205
  0
LINE
  5
2DF
100
AcDbEntity
  8
0
100
AcDbLine
 62
7
  6
CONTINUOUS
 10
0.0
 20
0.0
 11
0.0
 21
297.0
  0
LWPOLYLINE
  5
2E0
100
AcDbEntity
  8
0
100
AcDbPolyline
 62
7
  6
CONTINUOUS
 90
2
 70
0
 43
0.1000000003
 10
7.0536312849
 20
0.0
 10
7.0536312849
 20
297.0
  0
LWPOLYLINE
  5
2E1
100
AcDbEntity
  8
0
100
AcDbPolyline
 62
7
  6
CONTINUOUS
 90
2
 70
0
 43
0.4999999952
 10
10.0536312849
 20
10.0318435754
 10
10.0536312849
 20
287.0
  0
LINE
  5
2E2
100
AcDbEntity
  8
0
100
AcDbLine
 62
7
  6
CONTINUOUS
 10
0.0
 20
0.0
 11
420.0
 21
0.0
  0
LWPOLYLINE
  5
2E3
100
AcDbEntity
  8
0
100
AcDbPolyline
 62
7
  6
CONTINUOUS
 90
2
 70
0
 43
0.1000000003
 10
0.0
 20
7.0318435754
 10
420.0
 20
7.0318435754
  0
LWPOLYLINE
  5
2E4
100
AcDbEntity
  8
0
100
AcDbPolyline
 62
7
  6
CONTINUOUS
 90
2
 70
0
 43
0.4999999952
 10
10.0536312849
 20
10.0318435754
 10
410.0
 20
10.0318435754
  0
LINE
  5
2E5
100
AcDbEntity
  8
0
100
AcDbLine
 62
7
  6
CONTINUOUS
 10
113.0
 20
297.0
 11
113.0
 21
290.0
  0
LINE
  5
2E6
100
AcDbEntity
  8
0
100
AcDbLine
 62
7
  6
CONTINUOUS
 10
113.0
 20
7.0
 11
113.0
 21
0.0
  0
LWPOLYLINE
  5
2E7
100
AcDbEntity
  8
0
100
AcDbPolyline
 62
7
  6
CONTINUOUS
 90
2
 70
0
 43
0.1000000003
 10
123.0
 20
10.0
 10
123.0
 20
0.0
  0
LWPOLYLINE
  5
2E8
100
AcDbEntity
  8
0
100
AcDbPolyline
 62
7
  6
CONTINUOUS
 90
2
 70
0
 43
0.1000000003
 10
123.0
 20
287.0
 10
123.0
 20
297.0
  0
LINE
  5
2E9
100
AcDbEntity
  8
0
100
AcDbLine
 62
7
  6
CONTINUOUS
 10
-0.0
 20
99.9681564246
 11
7.0
 21
99.9681564246
  0
LINE
  5
2EA
100
AcDbEntity
  8
0
100
AcDbLine
 62
7
  6
CONTINUOUS
 10
413.0
 20
107.0
 11
420.0
 21
107.0
  0
LWPOLYLINE
  5
2EB
100
AcDbEntity
  8
0
100
AcDbPolyline
 62
7
  6
CONTINUOUS
 90
2
 70
0
 43
0.1000000003
 10
210.0
 20
10.0
 10
210.0
 20
0.0
  0
LWPOLYLINE
  5
2EC
100
AcDbEntity
  8
0
100
AcDbPolyline
 62
7
  6
CONTINUOUS
 90
2
 70
0
 43
0.1000000003
 10
210.0
 20
287.0
 10
210.0
 20
297.0
  0
LWPOLYLINE
  5
2ED
100
AcDbEntity
  8
0
100
AcDbPolyline
 62
7
  6
CONTINUOUS
 90
2
 70
0
 43
0.1000000003
 10
10.0
 20
148.5
 10
0.0
 20
148.5
  0
LWPOLYLINE
  5
2EE
100
AcDbEntity
  8
0
100
AcDbPolyline
 62
7
  6
CONTINUOUS
 90
2
 70
0
 43
0.1000000003
 10
410.0
 20
148.5
 10
420.0
 20
148.5
  0
LINE
  5
2EF
100
AcDbEntity
  8
0
100
AcDbLine
 62
7
  6
CONTINUOUS
 10
-0.0
 20
199.9681564246
 11
7.0
 21
199.9681564246
  0
LWPOLYLINE
  5
2F0
100
AcDbEntity
  8
0
100
AcDbPolyline
 62
7
  6
CONTINUOUS
 90
2
 70
0
 43
0.1000000003
 10
10.0
 20
202.9681564246
 10
0.0
 20
202.9681564246
  0
LWPOLYLINE
  5
2F1
100
AcDbEntity
  8
0
100
AcDbPolyline
 62
7
  6
CONTINUOUS
 90
2
 70
0
 43
0.1000000003
 10
410.0
 20
210.0
 10
420.0
 20
210.0
  0
LINE
  5
2F2
100
AcDbEntity
  8
0
100
AcDbLine
 62
7
  6
CONTINUOUS
 10
313.0
 20
297.0
 11
313.0
 21
290.0
  0
LINE
  5
2F3
100
AcDbEntity
  8
0
100
AcDbLine
 62
7
  6
CONTINUOUS
 10
313.0
 20
7.0
 11
313.0
 21
0.0
  0
LWPOLYLINE
  5
2F4
100
AcDbEntity
  8
0
100
AcDbPolyline
 62
7
  6
CONTINUOUS
 90
2
 70
0
 43
0.4999999952
 10
10.0536312849
 20
287.0
 10
410.0
 20
287.0
  0
LWPOLYLINE
  5
2F5
100
AcDbEntity
  8
0
100
AcDbPolyline
 62
7
  6
CONTINUOUS
 90
2
 70
0
 43
0.1000000003
 10
0.0
 20
290.0
 10
420.0
 20
290.0
  0
LINE
  5
2F6
100
AcDbEntity
  8
0
100
AcDbLine
 62
7
  6
CONTINUOUS
 10
0.0
 20
297.0
 11
420.0
 21
297.0
  0
LWPOLYLINE
  5
2F7
100
AcDbEntity
  8
0
100
AcDbPolyline
 62
7
  6
CONTINUOUS
 90
2
 70
0
 43
0.4999999952
 10
410.0
 20
10.0318435754
 10
410.0
 20
287.0
  0
LWPOLYLINE
  5
2F8
100
AcDbEntity
  8
0
100
AcDbPolyline
 62
7
  6
CONTINUOUS
 90
2
 70
0
 43
0.1000000003
 10
413.0
 20
0.0
 10
413.0
 20
297.0
  0
LINE
  5
2F9
100
AcDbEntity
  8
0
100
AcDbLine
 62
7
  6
CONTINUOUS
 10
420.0
 20
0.0
 11
420.0
 21
297.0
  0
LINE
  5
2FA
100
AcDbEntity
  8
7_ALL_FEATURES
100
AcDbLine
 62
7
  6
CONTINUOUS
 10
65.6796063904
 20
90.7149764408
 11
65.6796063904
 21
81.7150289849
  0
LINE
  5
2FB
100
AcDbEntity
  8
7_ALL_FEATURES
100
AcDbLine
 62
7
  6
CONTINUOUS
 10
65.8091746131
 20
81.8445972076
 11
65.8091746131
 21
90.5853031344
  0
LINE
  5
2FC
100
AcDbEntity
  8
7_ALL_FEATURES
100
AcDbLine
 62
7
  6
CONTINUOUS
 10
69.6661148078
 20
88.8969230587
 11
69.6661148078
 21
88.3733959823
  0
LINE
  5
2FD
100
AcDbEntity
  8
7_ALL_FEATURES
100
AcDbLine
 62
7
  6
CONTINUOUS
 10
69.6661148078
 20
82.8994800973
 11
69.6661148078
 21
82.3757428535
  0
LINE
  5
2FE
100
AcDbEntity
  8
7_ALL_FEATURES
100
AcDbLine
 62
7
  6
CONTINUOUS
 10
98.2701055165
 20
55.7131632809
 11
100.002156324
 21
55.7131632809
  0
LINE
  5
2FF
100
AcDbEntity
  8
7_ALL_FEATURES
100
AcDbLine
 62
7
  6
CONTINUOUS
 10
73.3868139639
 20
90.1727444628
 11
73.3868139639
 21
88.8969230587
  0
LINE
  5
300
100
AcDbEntity
  8
7_ALL_FEATURES
100
AcDbLine
 62
7
  6
CONTINUOUS
 10
73.3868139639
 20
84.1750387921
 11
73.3868139639
 21
82.8994800973
  0
LINE
  5
301
100
AcDbEntity
  8
7_ALL_FEATURES
100
AcDbLine
 62
7
  6
CONTINUOUS
 10
73.8657855444
 20
82.3757428535
 11
73.8657855444
 21
84.1750387921
  0
LINE
  5
302
100
AcDbEntity
  8
7_ALL_FEATURES
100
AcDbLine
 62
7
  6
CONTINUOUS
 10
73.8657855444
 20
88.3733959823
 11
73.8657855444
 21
90.1727444628
  0
LINE
  5
303
100
AcDbEntity
  8
7_ALL_FEATURES
100
AcDbLine
 62
7
  6
CONTINUOUS
 10
73.8659957119
 20
87.4156629886
 11
73.8659957119
 21
88.0618227624
  0
LINE
  5
304
100
AcDbEntity
  8
7_ALL_FEATURES
100
AcDbLine
 62
7
  6
CONTINUOUS
 10
74.5500907074
 20
90.5853031344
 11
74.5500907074
 21
81.8445972076
  0
LINE
  5
305
100
AcDbEntity
  8
7_ALL_FEATURES
100
AcDbLine
 62
7
  6
CONTINUOUS
 10
74.6795538463
 20
81.7150289849
 11
74.6795538463
 21
90.7149764408
  0
LINE
  5
306
100
AcDbEntity
  8
7_ALL_FEATURES
100
AcDbLine
 62
7
  6
CONTINUOUS
 10
75.0954751969
 20
89.5783909613
 11
75.0954751969
 21
89.489490137
  0
LINE
  5
307
100
AcDbEntity
  8
7_ALL_FEATURES
100
AcDbLine
 62
7
  6
CONTINUOUS
 10
75.2083351086
 20
86.8689124107
 11
75.2083351086
 21
86.7760184052
  0
LINE
  5
308
100
AcDbEntity
  8
7_ALL_FEATURES
100
AcDbLine
 62
7
  6
CONTINUOUS
 10
75.2083351086
 20
81.8079755323
 11
75.2083351086
 21
81.714976443
  0
LINE
  5
309
100
AcDbEntity
  8
7_ALL_FEATURES
100
AcDbLine
 62
7
  6
CONTINUOUS
 10
75.314259495
 20
90.6227129376
 11
75.314259495
 21
90.5337070295
  0
LINE
  5
30A
100
AcDbEntity
  8
7_ALL_FEATURES
100
AcDbLine
 62
7
  6
CONTINUOUS
 10
75.4910103064
 20
88.8595132556
 11
75.4910103064
 21
88.7705073476
  0
LINE
  5
30B
100
AcDbEntity
  8
7_ALL_FEATURES
100
AcDbLine
 62
7
  6
CONTINUOUS
 10
75.4912204739
 20
90.7096171712
 11
75.4912204739
 21
90.6227129376
  0
LINE
  5
30C
100
AcDbEntity
  8
7_ALL_FEATURES
100
AcDbLine
 62
7
  6
CONTINUOUS
 10
75.4912204739
 20
90.5337070295
 11
75.4912204739
 21
90.4852634362
  0
LINE
  5
30D
100
AcDbEntity
  8
7_ALL_FEATURES
100
AcDbLine
 62
7
  6
CONTINUOUS
 10
75.4912204739
 20
87.7695849463
 11
75.4912204739
 21
87.6807892057
  0
LINE
  5
30E
100
AcDbEntity
  8
7_ALL_FEATURES
100
AcDbLine
 62
7
  6
CONTINUOUS
 10
75.4912204739
 20
82.9876978775
 11
75.4912204739
 21
82.8985343439
  0
LINE
  5
30F
100
AcDbEntity
  8
7_ALL_FEATURES
100
AcDbLine
 62
7
  6
CONTINUOUS
 10
75.4912204739
 20
82.6850042316
 11
75.4912204739
 21
82.5959457817
  0
LINE
  5
310
100
AcDbEntity
  8
7_ALL_FEATURES
100
AcDbLine
 62
7
  6
CONTINUOUS
 10
75.57423661
 20
90.4852634362
 11
75.57423661
 21
90.5337070295
  0
LINE
  5
311
100
AcDbEntity
  8
7_ALL_FEATURES
100
AcDbLine
 62
7
  6
CONTINUOUS
 10
75.57423661
 20
90.6227129376
 11
75.57423661
 21
90.7096171712
  0
LINE
  5
312
100
AcDbEntity
  8
7_ALL_FEATURES
100
AcDbLine
 62
7
  6
CONTINUOUS
 10
100.002156324
 20
58.7131632809
 11
98.2701055165
 21
58.7131632809
  0
LINE
  5
313
100
AcDbEntity
  8
7_ALL_FEATURES
100
AcDbLine
 62
7
  6
CONTINUOUS
 10
71.0917855918
 20
85.8951016084
 11
71.1361309203
 21
85.8281632809
  0
LINE
  5
314
100
AcDbEntity
  8
7_ALL_FEATURES
100
AcDbLine
 62
7
  6
CONTINUOUS
 10
75.6700729596
 20
84.888294519
 11
75.6700729596
 21
84.6291055318
  0
LINE
  5
315
100
AcDbEntity
  8
7_ALL_FEATURES
100
AcDbLine
 62
7
  6
CONTINUOUS
 10
75.7373265383
 20
84.6242716809
 11
75.7373265383
 21
84.977300427
  0
LINE
  5
316
100
AcDbEntity
  8
7_ALL_FEATURES
100
AcDbLine
 62
7
  6
CONTINUOUS
 10
75.8688913516
 20
87.0953678202
 11
75.8688913516
 21
86.8689124107
  0
LINE
  5
317
100
AcDbEntity
  8
7_ALL_FEATURES
100
AcDbLine
 62
7
  6
CONTINUOUS
 10
75.8688913516
 20
82.0344834836
 11
75.8688913516
 21
81.8079755323
  0
LINE
  5
318
100
AcDbEntity
  8
7_ALL_FEATURES
100
AcDbLine
 62
7
  6
CONTINUOUS
 10
75.9537989946
 20
86.0917657841
 11
75.9537989946
 21
86.2063595772
  0
LINE
  5
319
100
AcDbEntity
  8
7_ALL_FEATURES
100
AcDbLine
 62
7
  6
CONTINUOUS
 10
75.9537989946
 20
87.6807892057
 11
75.9537989946
 21
87.7695849463
  0
LINE
  5
31A
100
AcDbEntity
  8
7_ALL_FEATURES
100
AcDbLine
 62
7
  6
CONTINUOUS
 10
75.9540091621
 20
81.714976443
 11
75.9540091621
 21
82.0344834836
  0
LINE
  5
31B
100
AcDbEntity
  8
7_ALL_FEATURES
100
AcDbLine
 62
7
  6
CONTINUOUS
 10
75.9540091621
 20
86.7760184052
 11
75.9540091621
 21
87.0953678202
  0
LINE
  5
31C
100
AcDbEntity
  8
7_ALL_FEATURES
100
AcDbLine
 62
7
  6
CONTINUOUS
 10
75.9540091621
 20
89.489490137
 11
75.9540091621
 21
89.5783909613
  0
LINE
  5
31D
100
AcDbEntity
  8
7_ALL_FEATURES
100
AcDbLine
 62
7
  6
CONTINUOUS
 10
75.9540091621
 20
89.7948634176
 11
75.9540091621
 21
89.8839744094
  0
LINE
  5
31E
100
AcDbEntity
  8
7_ALL_FEATURES
100
AcDbLine
 62
7
  6
CONTINUOUS
 10
75.9540091621
 20
90.5337070295
 11
75.9540091621
 21
90.6227129376
  0
LINE
  5
31F
100
AcDbEntity
  8
7_ALL_FEATURES
100
AcDbLine
 62
7
  6
CONTINUOUS
 10
76.0094933645
 20
88.499601526
 11
76.0094933645
 21
88.410595618
  0
LINE
  5
320
100
AcDbEntity
  8
7_ALL_FEATURES
100
AcDbLine
 62
7
  6
CONTINUOUS
 10
75.8432509247
 20
84.977300427
 11
75.8003767683
 21
84.9019554022
  0
LINE
  5
321
100
AcDbEntity
  8
7_ALL_FEATURES
100
AcDbLine
 62
7
  6
CONTINUOUS
 10
72.3342954577
 20
87.8222318884
 11
71.9885700299
 21
87.4880656694
  0
LINE
  5
322
100
AcDbEntity
  8
7_ALL_FEATURES
100
AcDbLine
 62
7
  6
CONTINUOUS
 10
71.4150231043
 20
85.4104029653
 11
71.6043839617
 21
85.148639427
  0
LINE
  5
323
100
AcDbEntity
  8
7_ALL_FEATURES
100
AcDbLine
 62
7
  6
CONTINUOUS
 10
75.5921008419
 20
85.7810857758
 11
75.5860059863
 21
85.7900178917
  0
LINE
  5
324
100
AcDbEntity
  8
7_ALL_FEATURES
100
AcDbLine
 62
7
  6
CONTINUOUS
 10
71.8271614411
 20
85.6666496083
 11
71.7937448192
 21
85.7167745412
  0
LINE
  5
325
100
AcDbEntity
  8
7_ALL_FEATURES
100
AcDbLine
 62
7
  6
CONTINUOUS
 10
75.4613766983
 20
85.8216480904
 11
75.4691528934
 21
85.8098261723
  0
LINE
  5
326
100
AcDbEntity
  8
7_ALL_FEATURES
100
AcDbLine
 62
7
  6
CONTINUOUS
 10
75.6820525033
 20
86.1638532138
 11
75.6206836128
 21
86.1043232883
  0
LINE
  5
327
100
AcDbEntity
  8
7_ALL_FEATURES
100
AcDbLine
 62
7
  6
CONTINUOUS
 10
72.5568627696
 20
86.9979552148
 11
71.4986697428
 21
86.1234485247
  0
LINE
  5
328
100
AcDbEntity
  8
7_ALL_FEATURES
100
AcDbLine
 62
7
  6
CONTINUOUS
 10
71.7937448192
 20
85.7167745412
 11
72.9299099638
 21
86.6468705174
  0
LINE
  5
329
100
AcDbEntity
  8
7_ALL_FEATURES
100
AcDbLine
 62
7
  6
CONTINUOUS
 10
73.8659957119
 20
88.0618227624
 11
72.9355844845
 21
87.3097386022
  0
LINE
  5
32A
100
AcDbEntity
  8
7_ALL_FEATURES
100
AcDbLine
 62
7
  6
CONTINUOUS
 10
73.2979131396
 20
86.9588640722
 11
73.8659957119
 21
87.4156629886
  0
LINE
  5
32B
100
AcDbEntity
  8
7_ALL_FEATURES
100
AcDbLine
 62
7
  6
CONTINUOUS
 10
71.1361309203
 20
85.8281632809
 11
70.9581191042
 21
85.68903244
  0
LINE
  5
32C
100
AcDbEntity
  8
7_ALL_FEATURES
100
AcDbLine
 62
7
  6
CONTINUOUS
 10
72.9355844845
 20
87.3097386022
 11
72.3342954577
 21
87.8222318884
  0
LINE
  5
32D
100
AcDbEntity
  8
7_ALL_FEATURES
100
AcDbLine
 62
7
  6
CONTINUOUS
 10
71.9885700299
 20
87.4880656694
 11
72.5568627696
 21
86.9979552148
  0
LINE
  5
32E
100
AcDbEntity
  8
7_ALL_FEATURES
100
AcDbLine
 62
7
  6
CONTINUOUS
 10
75.5187524076
 20
85.7355845265
 11
75.552379197
 21
85.6891900656
  0
LINE
  5
32F
100
AcDbEntity
  8
7_ALL_FEATURES
100
AcDbLine
 62
7
  6
CONTINUOUS
 10
97.4040801127
 20
57.2131632809
 11
98.2701055165
 21
55.7131632809
  0
LINE
  5
330
100
AcDbEntity
  8
7_ALL_FEATURES
100
AcDbLine
 62
7
  6
CONTINUOUS
 10
75.7215639808
 20
86.017629222
 11
75.5336742954
 21
85.8622104051
  0
LINE
  5
331
100
AcDbEntity
  8
7_ALL_FEATURES
100
AcDbLine
 62
7
  6
CONTINUOUS
 10
75.5860059863
 20
85.7900178917
 11
75.7877667223
 21
85.9551044106
  0
LINE
  5
332
100
AcDbEntity
  8
7_ALL_FEATURES
100
AcDbLine
 62
7
  6
CONTINUOUS
 10
75.9537989946
 20
86.2063595772
 11
75.7888175595
 21
86.072903257
  0
LINE
  5
333
100
AcDbEntity
  8
7_ALL_FEATURES
100
AcDbLine
 62
7
  6
CONTINUOUS
 10
75.8529186266
 20
86.0105360711
 11
75.9537989946
 21
86.0917657841
  0
LINE
  5
334
100
AcDbEntity
  8
7_ALL_FEATURES
100
AcDbLine
 62
7
  6
CONTINUOUS
 10
75.4691528934
 20
85.8098261723
 11
75.4376277784
 21
85.785078957
  0
LINE
  5
335
100
AcDbEntity
  8
7_ALL_FEATURES
100
AcDbLine
 62
7
  6
CONTINUOUS
 10
75.7888175595
 20
86.072903257
 11
75.6820525033
 21
86.1638532138
  0
LINE
  5
336
100
AcDbEntity
  8
7_ALL_FEATURES
100
AcDbLine
 62
7
  6
CONTINUOUS
 10
75.6206836128
 20
86.1043232883
 11
75.7215639808
 21
86.017629222
  0
LINE
  5
337
100
AcDbEntity
  8
7_ALL_FEATURES
100
AcDbLine
 62
7
  6
CONTINUOUS
 10
100.8681817278
 20
57.2131632809
 11
100.002156324
 21
58.7131632809
  0
LINE
  5
338
100
AcDbEntity
  8
7_ALL_FEATURES
100
AcDbLine
 62
7
  6
CONTINUOUS
 10
75.2083351086
 20
81.714976443
 11
75.9540091621
 21
81.714976443
  0
LINE
  5
339
100
AcDbEntity
  8
7_ALL_FEATURES
100
AcDbLine
 62
7
  6
CONTINUOUS
 10
65.6796063904
 20
81.7150289849
 11
74.6795538463
 21
81.7150289849
  0
LINE
  5
33A
100
AcDbEntity
  8
7_ALL_FEATURES
100
AcDbLine
 62
7
  6
CONTINUOUS
 10
75.8688913516
 20
81.8079755323
 11
75.2083351086
 21
81.8079755323
  0
LINE
  5
33B
100
AcDbEntity
  8
7_ALL_FEATURES
100
AcDbLine
 62
7
  6
CONTINUOUS
 10
74.5500907074
 20
81.8445972076
 11
65.8091746131
 21
81.8445972076
  0
LINE
  5
33C
100
AcDbEntity
  8
7_ALL_FEATURES
100
AcDbLine
 62
7
  6
CONTINUOUS
 10
75.9540091621
 20
82.0344834836
 11
75.8688913516
 21
82.0344834836
  0
LINE
  5
33D
100
AcDbEntity
  8
7_ALL_FEATURES
100
AcDbLine
 62
7
  6
CONTINUOUS
 10
69.6661148078
 20
82.3757428535
 11
73.8657855444
 21
82.3757428535
  0
LINE
  5
33E
100
AcDbEntity
  8
7_ALL_FEATURES
100
AcDbLine
 62
7
  6
CONTINUOUS
 10
75.4912204739
 20
82.5959457817
 11
75.757082277
 21
82.5959457817
  0
LINE
  5
33F
100
AcDbEntity
  8
7_ALL_FEATURES
100
AcDbLine
 62
7
  6
CONTINUOUS
 10
75.7469942402
 20
82.6850042316
 11
75.4912204739
 21
82.6850042316
  0
LINE
  5
340
100
AcDbEntity
  8
7_ALL_FEATURES
100
AcDbLine
 62
7
  6
CONTINUOUS
 10
75.4912204739
 20
82.8985343439
 11
75.7469942402
 21
82.8985343439
  0
LINE
  5
341
100
AcDbEntity
  8
7_ALL_FEATURES
100
AcDbLine
 62
7
  6
CONTINUOUS
 10
73.3868139639
 20
82.8994800973
 11
69.6661148078
 21
82.8994800973
  0
LINE
  5
342
100
AcDbEntity
  8
7_ALL_FEATURES
100
AcDbLine
 62
7
  6
CONTINUOUS
 10
75.757082277
 20
82.9876978775
 11
75.4912204739
 21
82.9876978775
  0
LINE
  5
343
100
AcDbEntity
  8
7_ALL_FEATURES
100
AcDbLine
 62
7
  6
CONTINUOUS
 10
75.9390872743
 20
83.9606680101
 11
75.8255968603
 21
83.9606680101
  0
LINE
  5
344
100
AcDbEntity
  8
7_ALL_FEATURES
100
AcDbLine
 62
7
  6
CONTINUOUS
 10
75.6225751197
 20
83.9606680101
 11
75.5078237011
 21
83.9606680101
  0
LINE
  5
345
100
AcDbEntity
  8
7_ALL_FEATURES
100
AcDbLine
 62
7
  6
CONTINUOUS
 10
73.8657855444
 20
84.1750387921
 11
73.3868139639
 21
84.1750387921
  0
LINE
  5
346
100
AcDbEntity
  8
7_ALL_FEATURES
100
AcDbLine
 62
7
  6
CONTINUOUS
 10
75.7373265383
 20
84.977300427
 11
75.7236656551
 21
84.977300427
  0
LINE
  5
347
100
AcDbEntity
  8
7_ALL_FEATURES
100
AcDbLine
 62
7
  6
CONTINUOUS
 10
75.2083351086
 20
86.7760184052
 11
75.9540091621
 21
86.7760184052
  0
LINE
  5
348
100
AcDbEntity
  8
7_ALL_FEATURES
100
AcDbLine
 62
7
  6
CONTINUOUS
 10
75.8688913516
 20
86.8689124107
 11
75.2083351086
 21
86.8689124107
  0
LINE
  5
349
100
AcDbEntity
  8
7_ALL_FEATURES
100
AcDbLine
 62
7
  6
CONTINUOUS
 10
75.9540091621
 20
87.0953678202
 11
75.8688913516
 21
87.0953678202
  0
LINE
  5
34A
100
AcDbEntity
  8
7_ALL_FEATURES
100
AcDbLine
 62
7
  6
CONTINUOUS
 10
75.4912204739
 20
87.6807892057
 11
75.9537989946
 21
87.6807892057
  0
LINE
  5
34B
100
AcDbEntity
  8
7_ALL_FEATURES
100
AcDbLine
 62
7
  6
CONTINUOUS
 10
75.9537989946
 20
87.7695849463
 11
75.4912204739
 21
87.7695849463
  0
LINE
  5
34C
100
AcDbEntity
  8
7_ALL_FEATURES
100
AcDbLine
 62
7
  6
CONTINUOUS
 10
69.6661148078
 20
88.3733959823
 11
73.8657855444
 21
88.3733959823
  0
LINE
  5
34D
100
AcDbEntity
  8
7_ALL_FEATURES
100
AcDbLine
 62
7
  6
CONTINUOUS
 10
75.4910103064
 20
88.7705073476
 11
75.5702434288
 21
88.7705073476
  0
LINE
  5
34E
100
AcDbEntity
  8
7_ALL_FEATURES
100
AcDbLine
 62
7
  6
CONTINUOUS
 10
75.881711565
 20
88.7705073476
 11
75.9697717196
 21
88.7705073476
  0
LINE
  5
34F
100
AcDbEntity
  8
7_ALL_FEATURES
100
AcDbLine
 62
7
  6
CONTINUOUS
 10
75.9449719624
 20
88.8595132556
 11
75.4910103064
 21
88.8595132556
  0
LINE
  5
350
100
AcDbEntity
  8
7_ALL_FEATURES
100
AcDbLine
 62
7
  6
CONTINUOUS
 10
73.3868139639
 20
88.8969230587
 11
69.6661148078
 21
88.8969230587
  0
LINE
  5
351
100
AcDbEntity
  8
7_ALL_FEATURES
100
AcDbLine
 62
7
  6
CONTINUOUS
 10
75.0954751969
 20
89.489490137
 11
75.9540091621
 21
89.489490137
  0
LINE
  5
352
100
AcDbEntity
  8
7_ALL_FEATURES
100
AcDbLine
 62
7
  6
CONTINUOUS
 10
75.9540091621
 20
89.5783909613
 11
75.7413197195
 21
89.5783909613
  0
LINE
  5
353
100
AcDbEntity
  8
7_ALL_FEATURES
100
AcDbLine
 62
7
  6
CONTINUOUS
 10
75.5532198667
 20
89.5783909613
 11
75.0954751969
 21
89.5783909613
  0
LINE
  5
354
100
AcDbEntity
  8
7_ALL_FEATURES
100
AcDbLine
 62
7
  6
CONTINUOUS
 10
75.6885676938
 20
89.7948634176
 11
75.9540091621
 21
89.7948634176
  0
LINE
  5
355
100
AcDbEntity
  8
7_ALL_FEATURES
100
AcDbLine
 62
7
  6
CONTINUOUS
 10
75.9540091621
 20
89.8839744094
 11
75.6780593221
 21
89.8839744094
  0
LINE
  5
356
100
AcDbEntity
  8
7_ALL_FEATURES
100
AcDbLine
 62
7
  6
CONTINUOUS
 10
73.8657855444
 20
90.1727444628
 11
73.3868139639
 21
90.1727444628
  0
LINE
  5
357
100
AcDbEntity
  8
7_ALL_FEATURES
100
AcDbLine
 62
7
  6
CONTINUOUS
 10
75.4912204739
 20
90.4852634362
 11
75.57423661
 21
90.4852634362
  0
LINE
  5
358
100
AcDbEntity
  8
7_ALL_FEATURES
100
AcDbLine
 62
7
  6
CONTINUOUS
 10
75.57423661
 20
90.5337070295
 11
75.9540091621
 21
90.5337070295
  0
LINE
  5
359
100
AcDbEntity
  8
7_ALL_FEATURES
100
AcDbLine
 62
7
  6
CONTINUOUS
 10
75.314259495
 20
90.5337070295
 11
75.4912204739
 21
90.5337070295
  0
LINE
  5
35A
100
AcDbEntity
  8
7_ALL_FEATURES
100
AcDbLine
 62
7
  6
CONTINUOUS
 10
65.8091746131
 20
90.5853031344
 11
74.5500907074
 21
90.5853031344
  0
LINE
  5
35B
100
AcDbEntity
  8
7_ALL_FEATURES
100
AcDbLine
 62
7
  6
CONTINUOUS
 10
75.9540091621
 20
90.6227129376
 11
75.57423661
 21
90.6227129376
  0
LINE
  5
35C
100
AcDbEntity
  8
7_ALL_FEATURES
100
AcDbLine
 62
7
  6
CONTINUOUS
 10
75.4912204739
 20
90.6227129376
 11
75.314259495
 21
90.6227129376
  0
LINE
  5
35D
100
AcDbEntity
  8
7_ALL_FEATURES
100
AcDbLine
 62
7
  6
CONTINUOUS
 10
75.57423661
 20
90.7096171712
 11
75.4912204739
 21
90.7096171712
  0
LINE
  5
35E
100
AcDbEntity
  8
7_ALL_FEATURES
100
AcDbLine
 62
7
  6
CONTINUOUS
 10
74.6795538463
 20
90.7149764408
 11
65.6796063904
 21
90.7149764408
  0
LINE
  5
35F
100
AcDbEntity
  8
7_ALL_FEATURES
100
AcDbLine
 62
7
  6
CONTINUOUS
 10
98.2701055165
 20
58.7131632809
 11
97.4040801127
 21
57.2131632809
  0
LINE
  5
360
100
AcDbEntity
  8
7_ALL_FEATURES
100
AcDbLine
 62
7
  6
CONTINUOUS
 10
100.002156324
 20
55.7131632809
 11
100.8681817278
 21
57.2131632809
  0
LINE
  5
361
100
AcDbEntity
  8
7_ALL_FEATURES
100
AcDbLine
 62
7
  6
CONTINUOUS
 10
60.7573470494
 20
256.9069148936
 11
56.8335248773
 21
255.4787604184
  0
LINE
  5
362
100
AcDbEntity
  8
3_ALL_AXES
100
AcDbLine
 62
7
  6
CONTINUOUS
 10
64.6361309203
 20
254.6069148936
 11
64.6361309203
 21
250.2069148936
  0
LINE
  5
363
100
AcDbEntity
  8
3_ALL_AXES
100
AcDbLine
 62
7
  6
CONTINUOUS
 10
64.6361309203
 20
249.9069148936
 11
64.6361309203
 21
242.4069148936
  0
LINE
  5
364
100
AcDbEntity
  8
02___PRT_ALL_AXES
100
AcDbLine
 62
7
  6
CONTINUOUS
 10
109.6361309203
 20
193.9069148936
 11
116.6361309203
 21
193.9069148936
  0
LINE
  5
365
100
AcDbEntity
  8
7_ALL_FEATURES
100
AcDbLine
 62
7
  6
CONTINUOUS
 10
109.6361309203
 20
193.9069148936
 11
116.6361309203
 21
193.9069148936
  0
LINE
  5
366
100
AcDbEntity
  8
02___PRT_ALL_AXES
100
AcDbLine
 62
9
  6
CONTINUOUS
 10
120.1361309203
 20
197.4069148936
 11
119.6361309203
 21
197.4069148936
  0
LINE
  5
367
100
AcDbEntity
  8
02___PRT_ALL_AXES
100
AcDbLine
 62
9
  6
CONTINUOUS
 10
118.6361309203
 20
197.4069148936
 11
114.1361309203
 21
197.4069148936
  0
LINE
  5
368
100
AcDbEntity
  8
02___PRT_ALL_AXES
100
AcDbLine
 62
9
  6
CONTINUOUS
 10
112.1361309203
 20
197.4069148936
 11
107.6361309203
 21
197.4069148936
  0
LINE
  5
369
100
AcDbEntity
  8
02___PRT_ALL_AXES
100
AcDbLine
 62
9
  6
CONTINUOUS
 10
106.6361309203
 20
197.4069148936
 11
106.1361309203
 21
197.4069148936
  0
LINE
  5
36A
100
AcDbEntity
  8
02___PRT_ALL_AXES
100
AcDbLine
 62
7
  6
CONTINUOUS
 10
118.6361309203
 20
197.9069148936
 11
114.1361309203
 21
197.9069148936
  0
LINE
  5
36B
100
AcDbEntity
  8
02___PRT_ALL_AXES
100
AcDbLine
 62
7
  6
CONTINUOUS
 10
112.1361309203
 20
197.9069148936
 11
107.6361309203
 21
197.9069148936
  0
LINE
  5
36C
100
AcDbEntity
  8
02___PRT_ALL_AXES
100
AcDbLine
 62
7
  6
CONTINUOUS
 10
106.1361309203
 20
197.9069148936
 11
106.6361309203
 21
197.9069148936
  0
LINE
  5
36D
100
AcDbEntity
  8
02___PRT_ALL_AXES
100
AcDbLine
 62
7
  6
CONTINUOUS
 10
119.6361309203
 20
197.9069148936
 11
120.1361309203
 21
197.9069148936
  0
LINE
  5
36E
100
AcDbEntity
  8
7_ALL_FEATURES
100
AcDbLine
 62
7
  6
CONTINUOUS
 10
75.6361309203
 20
210.4069148936
 11
76.1361309203
 21
209.9069148936
  0
LINE
  5
36F
100
AcDbEntity
  8
3_ALL_AXES
100
AcDbLine
 62
7
  6
CONTINUOUS
 10
75.6361309203
 20
241.9069148936
 11
75.6361309203
 21
231.9069148936
  0
LINE
  5
370
100
AcDbEntity
  8
3_ALL_AXES
100
AcDbLine
 62
7
  6
CONTINUOUS
 10
75.6361309203
 20
228.9069148936
 11
75.6361309203
 21
226.4069148936
  0
LINE
  5
371
100
AcDbEntity
  8
3_ALL_AXES
100
AcDbLine
 62
7
  6
CONTINUOUS
 10
75.6361309203
 20
223.4069148936
 11
75.6361309203
 21
220.9069148936
  0
LINE
  5
372
100
AcDbEntity
  8
3_ALL_AXES
100
AcDbLine
 62
7
  6
CONTINUOUS
 10
75.6361309203
 20
217.9069148936
 11
75.6361309203
 21
215.4069148936
  0
LINE
  5
373
100
AcDbEntity
  8
3_ALL_AXES
100
AcDbLine
 62
7
  6
CONTINUOUS
 10
75.6361309203
 20
212.4069148936
 11
75.6361309203
 21
210.4069148936
  0
LINE
  5
374
100
AcDbEntity
  8
7_ALL_FEATURES
100
AcDbLine
 62
7
  6
CONTINUOUS
 10
77.1361309203
 20
231.9069148936
 11
77.1361309203
 21
228.9069148936
  0
LINE
  5
375
100
AcDbEntity
  8
7_ALL_FEATURES
100
AcDbLine
 62
7
  6
CONTINUOUS
 10
77.1361309203
 20
226.4069148936
 11
77.1361309203
 21
223.4069148936
  0
LINE
  5
376
100
AcDbEntity
  8
7_ALL_FEATURES
100
AcDbLine
 62
7
  6
CONTINUOUS
 10
77.1361309203
 20
220.9069148936
 11
77.1361309203
 21
217.9069148936
  0
LINE
  5
377
100
AcDbEntity
  8
7_ALL_FEATURES
100
AcDbLine
 62
7
  6
CONTINUOUS
 10
77.1361309203
 20
215.4069148936
 11
77.1361309203
 21
212.4069148936
  0
LINE
  5
378
100
AcDbEntity
  8
02___PRT_ALL_AXES
100
AcDbLine
 62
7
  6
CONTINUOUS
 10
121.1361309203
 20
203.4069148936
 11
105.1361309203
 21
203.4069148936
  0
LINE
  5
379
100
AcDbEntity
  8
02___PRT_ALL_AXES
100
AcDbLine
 62
7
  6
CONTINUOUS
 10
121.1361309203
 20
206.4069148936
 11
105.1361309203
 21
206.4069148936
  0
LINE
  5
37A
100
AcDbEntity
  8
7_ALL_FEATURES
100
AcDbLine
 62
7
  6
CONTINUOUS
 10
76.1365329283
 20
209.9069148936
 11
122.1357289122
 21
209.9069148936
  0
LINE
  5
37B
100
AcDbEntity
  8
7_ALL_FEATURES
100
AcDbLine
 62
7
  6
CONTINUOUS
 10
75.6361309203
 20
210.4069148936
 11
122.6361309203
 21
210.4069148936
  0
LINE
  5
37C
100
AcDbEntity
  8
02___PRT_ALL_AXES
100
AcDbLine
 62
7
  6
CONTINUOUS
 10
106.1361309203
 20
197.9069148936
 11
105.1361309203
 21
198.9069148936
  0
LINE
  5
37D
100
AcDbEntity
  8
7_ALL_FEATURES
100
AcDbLine
 62
7
  6
CONTINUOUS
 10
75.636406347
 20
212.4069148936
 11
122.6358554935
 21
212.4069148936
  0
LINE
  5
37E
100
AcDbEntity
  8
7_ALL_FEATURES
100
AcDbLine
 62
7
  6
CONTINUOUS
 10
64.6361309203
 20
242.4069148936
 11
65.1361309203
 21
241.9069148936
  0
LINE
  5
37F
100
AcDbEntity
  8
7_ALL_FEATURES
100
AcDbLine
 62
7
  6
CONTINUOUS
 10
122.6358554935
 20
215.4069148936
 11
75.636406347
 21
215.4069148936
  0
LINE
  5
380
100
AcDbEntity
  8
7_ALL_FEATURES
100
AcDbLine
 62
7
  6
CONTINUOUS
 10
75.636406347
 20
217.9069148936
 11
122.6358554935
 21
217.9069148936
  0
LINE
  5
381
100
AcDbEntity
  8
7_ALL_FEATURES
100
AcDbLine
 62
7
  6
CONTINUOUS
 10
122.6358554935
 20
220.9069148936
 11
75.636406347
 21
220.9069148936
  0
LINE
  5
382
100
AcDbEntity
  8
02___PRT_ALL_AXES
100
AcDbLine
 62
7
  6
CONTINUOUS
 10
96.7361309203
 20
241.9069148936
 11
96.7361309203
 21
229.306293951
  0
LINE
  5
383
100
AcDbEntity
  8
02___PRT_ALL_AXES
100
AcDbLine
 62
7
  6
CONTINUOUS
 10
101.5361309203
 20
229.306293951
 11
99.1361309203
 21
224.9069148936
  0
LINE
  5
384
100
AcDbEntity
  8
7_ALL_FEATURES
100
AcDbLine
 62
7
  6
CONTINUOUS
 10
75.636406347
 20
223.4069148936
 11
122.6358554935
 21
223.4069148936
  0
LINE
  5
385
100
AcDbEntity
  8
02___PRT_ALL_AXES
100
AcDbLine
 62
7
  6
CONTINUOUS
 10
96.7361309203
 20
229.306293951
 11
99.1361309203
 21
224.9069148936
  0
LINE
  5
386
100
AcDbEntity
  8
02___PRT_ALL_AXES
100
AcDbLine
 62
7
  6
CONTINUOUS
 10
101.5361309203
 20
241.9069148936
 11
101.5361309203
 21
229.306293951
  0
LINE
  5
387
100
AcDbEntity
  8
7_ALL_FEATURES
100
AcDbLine
 62
7
  6
CONTINUOUS
 10
122.6358554935
 20
226.4069148936
 11
99.9544282193
 21
226.4069148936
  0
LINE
  5
388
100
AcDbEntity
  8
7_ALL_FEATURES
100
AcDbLine
 62
7
  6
CONTINUOUS
 10
98.3178336213
 20
226.4069148936
 11
75.636406347
 21
226.4069148936
  0
LINE
  5
389
100
AcDbEntity
  8
7_ALL_FEATURES
100
AcDbLine
 62
7
  6
CONTINUOUS
 10
75.636406347
 20
228.9069148936
 11
96.9540047896
 21
228.9069148936
  0
LINE
  5
38A
100
AcDbEntity
  8
7_ALL_FEATURES
100
AcDbLine
 62
7
  6
CONTINUOUS
 10
101.318257051
 20
228.9069148936
 11
122.6358554935
 21
228.9069148936
  0
LINE
  5
38B
100
AcDbEntity
  8
02___PRT_ALL_AXES
100
AcDbLine
 62
7
  6
CONTINUOUS
 10
96.7361309203
 20
229.306293951
 11
101.5361309203
 21
229.306293951
  0
LINE
  5
38C
100
AcDbEntity
  8
02___PRT_ALL_AXES
100
AcDbLine
 62
7
  6
CONTINUOUS
 10
105.1361309203
 20
209.9069148936
 11
105.1361309203
 21
206.4069148936
  0
LINE
  5
38D
100
AcDbEntity
  8
02___PRT_ALL_AXES
100
AcDbLine
 62
7
  6
CONTINUOUS
 10
105.1361309203
 20
203.4069148936
 11
105.1361309203
 21
198.9069148936
  0
LINE
  5
38E
100
AcDbEntity
  8
02___PRT_ALL_AXES
100
AcDbLine
 62
7
  6
CONTINUOUS
 10
106.1361309203
 20
197.4069148936
 11
106.1361309203
 21
197.9069148936
  0
LINE
  5
38F
100
AcDbEntity
  8
02___PRT_ALL_AXES
100
AcDbLine
 62
7
  6
CONTINUOUS
 10
106.6361309203
 20
197.4069148936
 11
106.6361309203
 21
197.9069148936
  0
LINE
  5
390
100
AcDbEntity
  8
7_ALL_FEATURES
100
AcDbLine
 62
7
  6
CONTINUOUS
 10
122.6358554935
 20
231.9069148936
 11
101.5361309203
 21
231.9069148936
  0
LINE
  5
391
100
AcDbEntity
  8
7_ALL_FEATURES
100
AcDbLine
 62
7
  6
CONTINUOUS
 10
96.7361309203
 20
231.9069148936
 11
75.636406347
 21
231.9069148936
  0
LINE
  5
392
100
AcDbEntity
  8
02___PRT_ALL_AXES
100
AcDbLine
 62
7
  6
CONTINUOUS
 10
107.1361309203
 20
206.4069148936
 11
107.1361309203
 21
203.4069148936
  0
LINE
  5
393
100
AcDbEntity
  8
02___PRT_ALL_AXES
100
AcDbLine
 62
7
  6
CONTINUOUS
 10
107.6361309203
 20
197.4069148936
 11
107.6361309203
 21
197.9069148936
  0
LINE
  5
394
100
AcDbEntity
  8
02___PRT_ALL_AXES
100
AcDbLine
 62
7
  6
CONTINUOUS
 10
109.1361309203
 20
209.9069148936
 11
109.1361309203
 21
206.4069148936
  0
LINE
  5
395
100
AcDbEntity
  8
02___PRT_ALL_AXES
100
AcDbLine
 62
7
  6
CONTINUOUS
 10
109.1361309203
 20
203.4069148936
 11
109.1361309203
 21
198.9069148936
  0
LINE
  5
396
100
AcDbEntity
  8
02___PRT_ALL_AXES
100
AcDbLine
 62
7
  6
CONTINUOUS
 10
112.1361309203
 20
197.4069148936
 11
112.1361309203
 21
197.9069148936
  0
LINE
  5
397
100
AcDbEntity
  8
7_ALL_FEATURES
100
AcDbLine
 62
7
  6
CONTINUOUS
 10
133.6361309203
 20
242.4069148936
 11
133.1361309203
 21
241.9069148936
  0
LINE
  5
398
100
AcDbEntity
  8
02___PRT_ALL_AXES
100
AcDbLine
 62
7
  6
CONTINUOUS
 10
114.1361309203
 20
197.4069148936
 11
114.1361309203
 21
197.9069148936
  0
LINE
  5
399
100
AcDbEntity
  8
02___PRT_ALL_AXES
100
AcDbLine
 62
7
  6
CONTINUOUS
 10
117.1361309203
 20
209.9069148936
 11
117.1361309203
 21
206.4069148936
  0
LINE
  5
39A
100
AcDbEntity
  8
02___PRT_ALL_AXES
100
AcDbLine
 62
7
  6
CONTINUOUS
 10
117.1361309203
 20
203.4069148936
 11
117.1361309203
 21
198.9069148936
  0
LINE
  5
39B
100
AcDbEntity
  8
7_ALL_FEATURES
100
AcDbLine
 62
7
  6
CONTINUOUS
 10
65.1365293049
 20
241.9069148936
 11
133.1357325357
 21
241.9069148936
  0
LINE
  5
39C
100
AcDbEntity
  8
7_ALL_FEATURES
100
AcDbLine
 62
7
  6
CONTINUOUS
 10
64.6361309203
 20
242.4069148936
 11
133.6361309203
 21
242.4069148936
  0
LINE
  5
39D
100
AcDbEntity
  8
02___PRT_ALL_AXES
100
AcDbLine
 62
7
  6
CONTINUOUS
 10
118.6361309203
 20
197.4069148936
 11
118.6361309203
 21
197.9069148936
  0
LINE
  5
39E
100
AcDbEntity
  8
02___PRT_ALL_AXES
100
AcDbLine
 62
7
  6
CONTINUOUS
 10
119.1361309203
 20
206.4069148936
 11
119.1361309203
 21
203.4069148936
  0
LINE
  5
39F
100
AcDbEntity
  8
02___PRT_ALL_AXES
100
AcDbLine
 62
7
  6
CONTINUOUS
 10
119.6361309203
 20
197.4069148936
 11
119.6361309203
 21
197.9069148936
  0
LINE
  5
3A0
100
AcDbEntity
  8
02___PRT_ALL_AXES
100
AcDbLine
 62
7
  6
CONTINUOUS
 10
120.1361309203
 20
197.4069148936
 11
120.1361309203
 21
197.9069148936
  0
LINE
  5
3A1
100
AcDbEntity
  8
7_ALL_FEATURES
100
AcDbLine
 62
7
  6
CONTINUOUS
 10
121.1361309203
 20
231.9069148936
 11
121.1361309203
 21
228.9069148936
  0
LINE
  5
3A2
100
AcDbEntity
  8
7_ALL_FEATURES
100
AcDbLine
 62
7
  6
CONTINUOUS
 10
121.1361309203
 20
226.4069148936
 11
121.1361309203
 21
223.4069148936
  0
LINE
  5
3A3
100
AcDbEntity
  8
7_ALL_FEATURES
100
AcDbLine
 62
7
  6
CONTINUOUS
 10
121.1361309203
 20
220.9069148936
 11
121.1361309203
 21
217.9069148936
  0
LINE
  5
3A4
100
AcDbEntity
  8
7_ALL_FEATURES
100
AcDbLine
 62
7
  6
CONTINUOUS
 10
121.1361309203
 20
215.4069148936
 11
121.1361309203
 21
212.4069148936
  0
LINE
  5
3A5
100
AcDbEntity
  8
02___PRT_ALL_AXES
100
AcDbLine
 62
7
  6
CONTINUOUS
 10
121.1361309203
 20
209.9069148936
 11
121.1361309203
 21
206.4069148936
  0
LINE
  5
3A6
100
AcDbEntity
  8
02___PRT_ALL_AXES
100
AcDbLine
 62
7
  6
CONTINUOUS
 10
121.1361309203
 20
203.4069148936
 11
121.1361309203
 21
198.9069148936
  0
LINE
  5
3A7
100
AcDbEntity
  8
3_ALL_AXES
100
AcDbLine
 62
7
  6
CONTINUOUS
 10
122.6361309203
 20
241.9069148936
 11
122.6361309203
 21
231.9069148936
  0
LINE
  5
3A8
100
AcDbEntity
  8
3_ALL_AXES
100
AcDbLine
 62
7
  6
CONTINUOUS
 10
122.6361309203
 20
228.9069148936
 11
122.6361309203
 21
226.4069148936
  0
LINE
  5
3A9
100
AcDbEntity
  8
3_ALL_AXES
100
AcDbLine
 62
7
  6
CONTINUOUS
 10
122.6361309203
 20
223.4069148936
 11
122.6361309203
 21
220.9069148936
  0
LINE
  5
3AA
100
AcDbEntity
  8
3_ALL_AXES
100
AcDbLine
 62
7
  6
CONTINUOUS
 10
122.6361309203
 20
217.9069148936
 11
122.6361309203
 21
215.4069148936
  0
LINE
  5
3AB
100
AcDbEntity
  8
3_ALL_AXES
100
AcDbLine
 62
7
  6
CONTINUOUS
 10
122.6361309203
 20
212.4069148936
 11
122.6361309203
 21
210.4069148936
  0
LINE
  5
3AC
100
AcDbEntity
  8
3_ALL_AXES
100
AcDbLine
 62
7
  6
CONTINUOUS
 10
64.6361309203
 20
249.9069148936
 11
133.6361309203
 21
249.9069148936
  0
LINE
  5
3AD
100
AcDbEntity
  8
7_ALL_FEATURES
100
AcDbLine
 62
9
  6
CONTINUOUS
 10
64.6361309203
 20
250.2069148936
 11
133.6361309203
 21
250.2069148936
  0
LINE
  5
3AE
100
AcDbEntity
  8
7_ALL_FEATURES
100
AcDbLine
 62
7
  6
CONTINUOUS
 10
122.6361309203
 20
210.4069148936
 11
122.1361309203
 21
209.9069148936
  0
LINE
  5
3AF
100
AcDbEntity
  8
7_ALL_FEATURES
100
AcDbLine
 62
9
  6
CONTINUOUS
 10
133.6361309203
 20
254.6069148936
 11
64.6361309203
 21
254.6069148936
  0
LINE
  5
3B0
100
AcDbEntity
  8
7_ALL_FEATURES
100
AcDbLine
 62
7
  6
CONTINUOUS
 10
141.3361309203
 20
254.8968526322
 11
57.0345088604
 21
254.8968526322
  0
LINE
  5
3B1
100
AcDbEntity
  8
7_ALL_FEATURES
100
AcDbLine
 62
7
  6
CONTINUOUS
 10
57.0345311349
 20
254.9069148936
 11
141.335787015
 21
254.9069148936
  0
LINE
  5
3B2
100
AcDbEntity
  8
7_ALL_FEATURES
100
AcDbLine
 62
9
  6
CONTINUOUS
 10
56.8335248773
 20
255.4787604184
 11
141.4387369633
 21
255.4787604184
  0
LINE
  5
3B3
100
AcDbEntity
  8
7_ALL_FEATURES
100
AcDbLine
 62
7
  6
CONTINUOUS
 10
60.7577967411
 20
256.9069148936
 11
137.5144650994
 21
256.9069148936
  0
LINE
  5
3B4
100
AcDbEntity
  8
3_ALL_AXES
100
AcDbLine
 62
7
  6
CONTINUOUS
 10
133.6361309203
 20
254.6069148936
 11
133.6361309203
 21
250.2069148936
  0
LINE
  5
3B5
100
AcDbEntity
  8
3_ALL_AXES
100
AcDbLine
 62
7
  6
CONTINUOUS
 10
133.6361309203
 20
249.9069148936
 11
133.6361309203
 21
242.4069148936
  0
LINE
  5
3B6
100
AcDbEntity
  8
02___PRT_ALL_AXES
100
AcDbLine
 62
7
  6
CONTINUOUS
 10
120.1361309203
 20
197.9069148936
 11
121.1361309203
 21
198.9069148936
  0
LINE
  5
3B7
100
AcDbEntity
  8
7_ALL_FEATURES
100
AcDbLine
 62
7
  6
CONTINUOUS
 10
137.5149147911
 20
256.9069148936
 11
141.4387369633
 21
255.4787604184
  0
LINE
  5
3B8
100
AcDbEntity
  8
7_ALL_FEATURES
100
AcDbLine
 62
7
  6
CONTINUOUS
 10
227.972153138
 20
256.9069148936
 11
224.0483309658
 21
255.4787604184
  0
LINE
  5
3B9
100
AcDbEntity
  8
3_ALL_AXES
100
AcDbLine
 62
7
  6
CONTINUOUS
 10
231.8509370088
 20
254.6069148936
 11
231.8509370088
 21
250.2069148936
  0
LINE
  5
3BA
100
AcDbEntity
  8
3_ALL_AXES
100
AcDbLine
 62
7
  6
CONTINUOUS
 10
231.8509370088
 20
249.9069148936
 11
231.8509370088
 21
242.4069148936
  0
LINE
  5
3BB
100
AcDbEntity
  8
7_ALL_FEATURES
100
AcDbLine
 62
7
  6
CONTINUOUS
 10
231.8509370088
 20
242.4069148936
 11
231.8509370088
 21
249.9069148936
  0
LINE
  5
3BC
100
AcDbEntity
  8
7_ALL_FEATURES
100
AcDbLine
 62
7
  6
CONTINUOUS
 10
231.8509370088
 20
250.2069148936
 11
231.8509370088
 21
254.6069148936
  0
LINE
  5
3BD
100
AcDbEntity
  8
02___PRT_ALL_AXES
100
AcDbLine
 62
7
  6
CONTINUOUS
 10
262.8628912833
 20
193.9069148936
 11
269.8509370088
 21
193.9069148936
  0
LINE
  5
3BE
100
AcDbEntity
  8
7_ALL_FEATURES
100
AcDbLine
 62
7
  6
CONTINUOUS
 10
262.8509370088
 20
193.9069148936
 11
269.8509370088
 21
193.9069148936
  0
LINE
  5
3BF
100
AcDbEntity
  8
02___PRT_ALL_AXES
100
AcDbLine
 62
9
  6
CONTINUOUS
 10
273.2791402391
 20
197.4069148936
 11
270.6810640278
 21
197.4069148936
  0
LINE
  5
3C0
100
AcDbEntity
  8
02___PRT_ALL_AXES
100
AcDbLine
 62
9
  6
CONTINUOUS
 10
259.4227337786
 20
197.4069148936
 11
262.0208099899
 21
197.4069148936
  0
LINE
  5
3C1
100
AcDbEntity
  8
02___PRT_ALL_AXES
100
AcDbLine
 62
9
  6
CONTINUOUS
 10
263.7528607975
 20
197.4069148936
 11
268.9490132202
 21
197.4069148936
  0
LINE
  5
3C2
100
AcDbEntity
  8
02___PRT_ALL_AXES
100
AcDbLine
 62
7
  6
CONTINUOUS
 10
273.2791402391
 20
197.9069148936
 11
270.6810640278
 21
197.9069148936
  0
LINE
  5
3C3
100
AcDbEntity
  8
02___PRT_ALL_AXES
100
AcDbLine
 62
7
  6
CONTINUOUS
 10
259.4227337786
 20
197.9069148936
 11
262.0208099899
 21
197.9069148936
  0
LINE
  5
3C4
100
AcDbEntity
  8
02___PRT_ALL_AXES
100
AcDbLine
 62
7
  6
CONTINUOUS
 10
263.7528607975
 20
197.9069148936
 11
268.9490132202
 21
197.9069148936
  0
LINE
  5
3C5
100
AcDbEntity
  8
7_ALL_FEATURES
100
AcDbLine
 62
7
  6
CONTINUOUS
 10
242.8509370088
 20
210.4069148936
 11
243.3509370088
 21
209.9069148936
  0
LINE
  5
3C6
100
AcDbEntity
  8
3_ALL_AXES
100
AcDbLine
 62
7
  6
CONTINUOUS
 10
242.8509370088
 20
241.9069148936
 11
242.8509370088
 21
231.9069148936
  0
LINE
  5
3C7
100
AcDbEntity
  8
3_ALL_AXES
100
AcDbLine
 62
7
  6
CONTINUOUS
 10
242.8509370088
 20
228.9069148936
 11
242.8509370088
 21
226.4069148936
  0
LINE
  5
3C8
100
AcDbEntity
  8
3_ALL_AXES
100
AcDbLine
 62
7
  6
CONTINUOUS
 10
242.8509370088
 20
223.4069148936
 11
242.8509370088
 21
220.9069148936
  0
LINE
  5
3C9
100
AcDbEntity
  8
3_ALL_AXES
100
AcDbLine
 62
7
  6
CONTINUOUS
 10
242.8509370088
 20
217.9069148936
 11
242.8509370088
 21
215.4069148936
  0
LINE
  5
3CA
100
AcDbEntity
  8
3_ALL_AXES
100
AcDbLine
 62
7
  6
CONTINUOUS
 10
242.8509370088
 20
212.4069148936
 11
242.8509370088
 21
210.4069148936
  0
LINE
  5
3CB
100
AcDbEntity
  8
7_ALL_FEATURES
100
AcDbLine
 62
7
  6
CONTINUOUS
 10
242.8509370088
 20
210.4069148936
 11
242.8509370088
 21
212.4069148936
  0
LINE
  5
3CC
100
AcDbEntity
  8
7_ALL_FEATURES
100
AcDbLine
 62
7
  6
CONTINUOUS
 10
242.8509370088
 20
231.9069148936
 11
242.8509370088
 21
241.9069148936
  0
LINE
  5
3CD
100
AcDbEntity
  8
7_ALL_FEATURES
100
AcDbLine
 62
7
  6
CONTINUOUS
 10
244.3509370088
 20
231.9069148936
 11
244.3509370088
 21
228.9069148936
  0
LINE
  5
3CE
100
AcDbEntity
  8
7_ALL_FEATURES
100
AcDbLine
 62
7
  6
CONTINUOUS
 10
244.3509370088
 20
226.4069148936
 11
244.3509370088
 21
223.4069148936
  0
LINE
  5
3CF
100
AcDbEntity
  8
7_ALL_FEATURES
100
AcDbLine
 62
7
  6
CONTINUOUS
 10
244.3509370088
 20
220.9069148936
 11
244.3509370088
 21
217.9069148936
  0
LINE
  5
3D0
100
AcDbEntity
  8
7_ALL_FEATURES
100
AcDbLine
 62
7
  6
CONTINUOUS
 10
244.3509370088
 20
215.4069148936
 11
244.3509370088
 21
212.4069148936
  0
LINE
  5
3D1
100
AcDbEntity
  8
02___PRT_ALL_AXES
100
AcDbLine
 62
7
  6
CONTINUOUS
 10
273.2791402391
 20
203.4069148936
 11
259.4227337786
 21
203.4069148936
  0
LINE
  5
3D2
100
AcDbEntity
  8
02___PRT_ALL_AXES
100
AcDbLine
 62
7
  6
CONTINUOUS
 10
273.2791402391
 20
206.4069148936
 11
259.4227337786
 21
206.4069148936
  0
LINE
  5
3D3
100
AcDbEntity
  8
7_ALL_FEATURES
100
AcDbLine
 62
7
  6
CONTINUOUS
 10
289.3509370088
 20
209.9069148936
 11
243.3509370088
 21
209.9069148936
  0
LINE
  5
3D4
100
AcDbEntity
  8
7_ALL_FEATURES
100
AcDbLine
 62
7
  6
CONTINUOUS
 10
289.8509370088
 20
210.4069148936
 11
242.8509370088
 21
210.4069148936
  0
LINE
  5
3D5
100
AcDbEntity
  8
7_ALL_FEATURES
100
AcDbLine
 62
7
  6
CONTINUOUS
 10
242.8509370088
 20
212.4069148936
 11
289.8509370088
 21
212.4069148936
  0
LINE
  5
3D6
100
AcDbEntity
  8
7_ALL_FEATURES
100
AcDbLine
 62
7
  6
CONTINUOUS
 10
231.8509370088
 20
242.4069148936
 11
232.3509370088
 21
241.9069148936
  0
LINE
  5
3D7
100
AcDbEntity
  8
02___PRT_ALL_AXES
100
AcDbLine
 62
7
  6
CONTINUOUS
 10
259.4227337786
 20
209.9069148936
 11
259.4227337786
 21
206.4069148936
  0
LINE
  5
3D8
100
AcDbEntity
  8
02___PRT_ALL_AXES
100
AcDbLine
 62
7
  6
CONTINUOUS
 10
259.4227337786
 20
196.701752792
 11
259.4227337786
 21
203.4069148936
  0
LINE
  5
3D9
100
AcDbEntity
  8
7_ALL_FEATURES
100
AcDbLine
 62
7
  6
CONTINUOUS
 10
289.8509370088
 20
215.4069148936
 11
242.8509370088
 21
215.4069148936
  0
LINE
  5
3DA
100
AcDbEntity
  8
7_ALL_FEATURES
100
AcDbLine
 62
7
  6
CONTINUOUS
 10
242.8509370088
 20
217.9069148936
 11
289.8509370088
 21
217.9069148936
  0
LINE
  5
3DB
100
AcDbEntity
  8
02___PRT_ALL_AXES
100
AcDbLine
 62
7
  6
CONTINUOUS
 10
260.3509370088
 20
203.4069148936
 11
260.3509370088
 21
206.4069148936
  0
LINE
  5
3DC
100
AcDbEntity
  8
02___PRT_ALL_AXES
100
AcDbLine
 62
7
  6
CONTINUOUS
 10
262.0208099899
 20
197.4069148936
 11
262.0208099899
 21
197.9069148936
  0
LINE
  5
3DD
100
AcDbEntity
  8
7_ALL_FEATURES
100
AcDbLine
 62
7
  6
CONTINUOUS
 10
289.8509370088
 20
220.9069148936
 11
242.8509370088
 21
220.9069148936
  0
LINE
  5
3DE
100
AcDbEntity
  8
02___PRT_ALL_AXES
100
AcDbLine
 62
7
  6
CONTINUOUS
 10
263.7528607975
 20
197.4069148936
 11
263.7528607975
 21
197.9069148936
  0
LINE
  5
3DF
100
AcDbEntity
  8
02___PRT_ALL_AXES
100
AcDbLine
 62
7
  6
CONTINUOUS
 10
266.3509370088
 20
209.9069148936
 11
266.3509370088
 21
206.4069148936
  0
LINE
  5
3E0
100
AcDbEntity
  8
02___PRT_ALL_AXES
100
AcDbLine
 62
7
  6
CONTINUOUS
 10
266.3509370088
 20
203.4069148936
 11
266.3509370088
 21
198.9069148936
  0
LINE
  5
3E1
100
AcDbEntity
  8
7_ALL_FEATURES
100
AcDbLine
 62
7
  6
CONTINUOUS
 10
242.8509370088
 20
223.4069148936
 11
289.8509370088
 21
223.4069148936
  0
LINE
  5
3E2
100
AcDbEntity
  8
02___PRT_ALL_AXES
100
AcDbLine
 62
7
  6
CONTINUOUS
 10
268.9490132202
 20
197.4069148936
 11
268.9490132202
 21
197.9069148936
  0
LINE
  5
3E3
100
AcDbEntity
  8
7_ALL_FEATURES
100
AcDbLine
 62
7
  6
CONTINUOUS
 10
289.8509370088
 20
226.4069148936
 11
242.8509370088
 21
226.4069148936
  0
LINE
  5
3E4
100
AcDbEntity
  8
7_ALL_FEATURES
100
AcDbLine
 62
7
  6
CONTINUOUS
 10
242.8509370088
 20
228.9069148936
 11
289.8509370088
 21
228.9069148936
  0
LINE
  5
3E5
100
AcDbEntity
  8
02___PRT_ALL_AXES
100
AcDbLine
 62
7
  6
CONTINUOUS
 10
292.9509370088
 20
229.306293951
 11
297.7509370088
 21
229.306293951
  0
LINE
  5
3E6
100
AcDbEntity
  8
02___PRT_ALL_AXES
100
AcDbLine
 62
7
  6
CONTINUOUS
 10
270.6810640278
 20
197.4069148936
 11
270.6810640278
 21
197.9069148936
  0
LINE
  5
3E7
100
AcDbEntity
  8
02___PRT_ALL_AXES
100
AcDbLine
 62
7
  6
CONTINUOUS
 10
272.3509370088
 20
203.4069148936
 11
272.3509370088
 21
206.4069148936
  0
LINE
  5
3E8
100
AcDbEntity
  8
02___PRT_ALL_AXES
100
AcDbLine
 62
7
  6
CONTINUOUS
 10
273.2791402391
 20
209.9069148936
 11
273.2791402391
 21
206.4069148936
  0
LINE
  5
3E9
100
AcDbEntity
  8
02___PRT_ALL_AXES
100
AcDbLine
 62
7
  6
CONTINUOUS
 10
273.2791402391
 20
196.701752792
 11
273.2791402391
 21
203.4069148936
  0
LINE
  5
3EA
100
AcDbEntity
  8
7_ALL_FEATURES
100
AcDbLine
 62
7
  6
CONTINUOUS
 10
289.8509370088
 20
231.9069148936
 11
242.8509370088
 21
231.9069148936
  0
LINE
  5
3EB
100
AcDbEntity
  8
7_ALL_FEATURES
100
AcDbLine
 62
7
  6
CONTINUOUS
 10
300.8509370088
 20
242.4069148936
 11
300.3509370088
 21
241.9069148936
  0
LINE
  5
3EC
100
AcDbEntity
  8
7_ALL_FEATURES
100
AcDbLine
 62
7
  6
CONTINUOUS
 10
300.3509370088
 20
241.9069148936
 11
232.3509370088
 21
241.9069148936
  0
LINE
  5
3ED
100
AcDbEntity
  8
7_ALL_FEATURES
100
AcDbLine
 62
7
  6
CONTINUOUS
 10
300.8509370088
 20
242.4069148936
 11
231.8509370088
 21
242.4069148936
  0
LINE
  5
3EE
100
AcDbEntity
  8
7_ALL_FEATURES
100
AcDbLine
 62
7
  6
CONTINUOUS
 10
288.3509370088
 20
231.9069148936
 11
288.3509370088
 21
228.9069148936
  0
LINE
  5
3EF
100
AcDbEntity
  8
7_ALL_FEATURES
100
AcDbLine
 62
7
  6
CONTINUOUS
 10
288.3509370088
 20
226.4069148936
 11
288.3509370088
 21
223.4069148936
  0
LINE
  5
3F0
100
AcDbEntity
  8
7_ALL_FEATURES
100
AcDbLine
 62
7
  6
CONTINUOUS
 10
288.3509370088
 20
220.9069148936
 11
288.3509370088
 21
217.9069148936
  0
LINE
  5
3F1
100
AcDbEntity
  8
7_ALL_FEATURES
100
AcDbLine
 62
7
  6
CONTINUOUS
 10
288.3509370088
 20
215.4069148936
 11
288.3509370088
 21
212.4069148936
  0
LINE
  5
3F2
100
AcDbEntity
  8
3_ALL_AXES
100
AcDbLine
 62
7
  6
CONTINUOUS
 10
289.8509370088
 20
241.9069148936
 11
289.8509370088
 21
231.9069148936
  0
LINE
  5
3F3
100
AcDbEntity
  8
3_ALL_AXES
100
AcDbLine
 62
7
  6
CONTINUOUS
 10
289.8509370088
 20
228.9069148936
 11
289.8509370088
 21
226.4069148936
  0
LINE
  5
3F4
100
AcDbEntity
  8
3_ALL_AXES
100
AcDbLine
 62
7
  6
CONTINUOUS
 10
289.8509370088
 20
223.4069148936
 11
289.8509370088
 21
220.9069148936
  0
LINE
  5
3F5
100
AcDbEntity
  8
3_ALL_AXES
100
AcDbLine
 62
7
  6
CONTINUOUS
 10
289.8509370088
 20
217.9069148936
 11
289.8509370088
 21
215.4069148936
  0
LINE
  5
3F6
100
AcDbEntity
  8
3_ALL_AXES
100
AcDbLine
 62
7
  6
CONTINUOUS
 10
289.8509370088
 20
212.4069148936
 11
289.8509370088
 21
210.4069148936
  0
LINE
  5
3F7
100
AcDbEntity
  8
7_ALL_FEATURES
100
AcDbLine
 62
7
  6
CONTINUOUS
 10
289.8509370088
 20
210.4069148936
 11
289.8509370088
 21
212.4069148936
  0
LINE
  5
3F8
100
AcDbEntity
  8
7_ALL_FEATURES
100
AcDbLine
 62
7
  6
CONTINUOUS
 10
289.8509370088
 20
215.4069148936
 11
289.8509370088
 21
217.9069148936
  0
LINE
  5
3F9
100
AcDbEntity
  8
7_ALL_FEATURES
100
AcDbLine
 62
7
  6
CONTINUOUS
 10
289.8509370088
 20
220.9069148936
 11
289.8509370088
 21
223.4069148936
  0
LINE
  5
3FA
100
AcDbEntity
  8
7_ALL_FEATURES
100
AcDbLine
 62
7
  6
CONTINUOUS
 10
289.8509370088
 20
226.4069148936
 11
289.8509370088
 21
228.9069148936
  0
LINE
  5
3FB
100
AcDbEntity
  8
7_ALL_FEATURES
100
AcDbLine
 62
7
  6
CONTINUOUS
 10
289.8509370088
 20
231.9069148936
 11
289.8509370088
 21
241.9069148936
  0
LINE
  5
3FC
100
AcDbEntity
  8
3_ALL_AXES
100
AcDbLine
 62
7
  6
CONTINUOUS
 10
300.8509370088
 20
249.9069148936
 11
231.8509370088
 21
249.9069148936
  0
LINE
  5
3FD
100
AcDbEntity
  8
7_ALL_FEATURES
100
AcDbLine
 62
9
  6
CONTINUOUS
 10
231.8509370088
 20
250.2069148936
 11
300.8509370088
 21
250.2069148936
  0
LINE
  5
3FE
100
AcDbEntity
  8
02___PRT_ALL_AXES
100
AcDbLine
 62
7
  6
CONTINUOUS
 10
292.9509370088
 20
241.9069148936
 11
292.9509370088
 21
229.306293951
  0
LINE
  5
3FF
100
AcDbEntity
  8
02___PRT_ALL_AXES
100
AcDbLine
 62
7
  6
CONTINUOUS
 10
297.7509370088
 20
229.306293951
 11
295.3509370088
 21
224.9069148936
  0
LINE
  5
400
100
AcDbEntity
  8
7_ALL_FEATURES
100
AcDbLine
 62
7
  6
CONTINUOUS
 10
289.8509370088
 20
210.4069148936
 11
289.3509370088
 21
209.9069148936
  0
LINE
  5
401
100
AcDbEntity
  8
02___PRT_ALL_AXES
100
AcDbLine
 62
7
  6
CONTINUOUS
 10
292.9509370088
 20
229.306293951
 11
295.3509370088
 21
224.9069148936
  0
LINE
  5
402
100
AcDbEntity
  8
02___PRT_ALL_AXES
100
AcDbLine
 62
7
  6
CONTINUOUS
 10
297.7509370088
 20
241.9069148936
 11
297.7509370088
 21
229.306293951
  0
LINE
  5
403
100
AcDbEntity
  8
7_ALL_FEATURES
100
AcDbLine
 62
9
  6
CONTINUOUS
 10
300.8509370088
 20
254.6069148936
 11
231.8509370088
 21
254.6069148936
  0
LINE
  5
404
100
AcDbEntity
  8
7_ALL_FEATURES
100
AcDbLine
 62
7
  6
CONTINUOUS
 10
224.1509370088
 20
254.9069148936
 11
308.5509370088
 21
254.9069148936
  0
LINE
  5
405
100
AcDbEntity
  8
7_ALL_FEATURES
100
AcDbLine
 62
9
  6
CONTINUOUS
 10
224.0483309658
 20
255.4787604184
 11
308.6535430518
 21
255.4787604184
  0
LINE
  5
406
100
AcDbEntity
  8
7_ALL_FEATURES
100
AcDbLine
 62
7
  6
CONTINUOUS
 10
227.972153138
 20
256.9069148936
 11
304.7297208797
 21
256.9069148936
  0
LINE
  5
407
100
AcDbEntity
  8
3_ALL_AXES
100
AcDbLine
 62
7
  6
CONTINUOUS
 10
300.8509370088
 20
254.6069148936
 11
300.8509370088
 21
250.2069148936
  0
LINE
  5
408
100
AcDbEntity
  8
3_ALL_AXES
100
AcDbLine
 62
7
  6
CONTINUOUS
 10
300.8509370088
 20
249.9069148936
 11
300.8509370088
 21
242.4069148936
  0
LINE
  5
409
100
AcDbEntity
  8
7_ALL_FEATURES
100
AcDbLine
 62
7
  6
CONTINUOUS
 10
300.8509370088
 20
242.4069148936
 11
300.8509370088
 21
249.9069148936
  0
LINE
  5
40A
100
AcDbEntity
  8
7_ALL_FEATURES
100
AcDbLine
 62
7
  6
CONTINUOUS
 10
300.8509370088
 20
250.2069148936
 11
300.8509370088
 21
254.6069148936
  0
LINE
  5
40B
100
AcDbEntity
  8
7_ALL_FEATURES
100
AcDbLine
 62
7
  6
CONTINUOUS
 10
304.7297208797
 20
256.9069148936
 11
308.6535430518
 21
255.4787604184
  0
LINE
  5
40C
100
AcDbEntity
  8
02___PRT_ALL_AXES
100
AcDbLine
 62
7
  6
CONTINUOUS
 10
308.1060717909
 20
135.7115109844
 11
308.1060717909
 21
135.0186906614
  0
LINE
  5
40D
100
AcDbEntity
  8
02___PRT_ALL_AXES
100
AcDbLine
 62
7
  6
CONTINUOUS
 10
310.4560717909
 20
116.0204482203
 11
310.4560717909
 21
111.8086720879
  0
LINE
  5
40E
100
AcDbEntity
  8
7_ALL_FEATURES
100
AcDbLine
 62
7
  6
CONTINUOUS
 10
341.3784930365
 20
147.5202002408
 11
341.3320985756
 21
147.5033868461
  0
LINE
  5
40F
100
AcDbEntity
  8
7_ALL_FEATURES
100
AcDbLine
 62
7
  6
CONTINUOUS
 10
341.0533114753
 20
149.5720648924
 11
340.7915479371
 21
149.4773844637
  0
LINE
  5
410
100
AcDbEntity
  8
7_ALL_FEATURES
100
AcDbLine
 62
7
  6
CONTINUOUS
 10
341.4239942858
 20
147.4835260237
 11
341.4329264018
 21
147.4865734514
  0
LINE
  5
411
100
AcDbEntity
  8
7_ALL_FEATURES
100
AcDbLine
 62
7
  6
CONTINUOUS
 10
341.3095581184
 20
149.365995724
 11
341.3596830512
 21
149.382704035
  0
LINE
  5
412
100
AcDbEntity
  8
7_ALL_FEATURES
100
AcDbLine
 62
7
  6
CONTINUOUS
 10
341.5380101184
 20
149.7336836487
 11
341.4710717909
 21
149.7115109844
  0
LINE
  5
413
100
AcDbEntity
  8
7_ALL_FEATURES
100
AcDbLine
 62
7
  6
CONTINUOUS
 10
341.4645566005
 20
147.5488880954
 11
341.4527346824
 21
147.5449999979
  0
LINE
  5
414
100
AcDbEntity
  8
02___PRT_ALL_AXES
100
AcDbLine
 62
7
  6
CONTINUOUS
 10
341.8560717909
 20
78.379151882
 11
334.9278685606
 21
80.379151882
  0
LINE
  5
415
100
AcDbEntity
  8
02___PRT_ALL_AXES
100
AcDbLine
 62
7
  6
CONTINUOUS
 10
341.8560717909
 20
80.9772280933
 11
334.9278685606
 21
82.9772280933
  0
LINE
  5
416
100
AcDbEntity
  8
02___PRT_ALL_AXES
100
AcDbLine
 62
7
  6
CONTINUOUS
 10
336.1405957244
 20
75.595286219
 11
335.6273726632
 21
75.9581897258
  0
LINE
  5
417
100
AcDbEntity
  8
7_ALL_FEATURES
100
AcDbLine
 62
7
  6
CONTINUOUS
 10
311.3560717909
 20
136.1445236863
 11
311.3560717909
 21
135.2784982826
  0
LINE
  5
418
100
AcDbEntity
  8
7_ALL_FEATURES
100
AcDbLine
 62
7
  6
CONTINUOUS
 10
312.8560717909
 20
136.5775363882
 11
312.8560717909
 21
134.8454855807
  0
LINE
  5
419
100
AcDbEntity
  8
7_ALL_FEATURES
100
AcDbLine
 62
7
  6
CONTINUOUS
 10
314.3560717909
 20
135.2784982826
 11
314.3560717909
 21
136.1445236863
  0
LINE
  5
41A
100
AcDbEntity
  8
7_ALL_FEATURES
100
AcDbLine
 62
7
  6
CONTINUOUS
 10
341.715811767
 20
147.3851676649
 11
341.8067617238
 21
147.4385501929
  0
LINE
  5
41B
100
AcDbEntity
  8
7_ALL_FEATURES
100
AcDbLine
 62
7
  6
CONTINUOUS
 10
342.9526471122
 20
148.8117842023
 11
343.4651403984
 21
149.1124287157
  0
LINE
  5
41C
100
AcDbEntity
  8
7_ALL_FEATURES
100
AcDbLine
 62
7
  6
CONTINUOUS
 10
341.7472317983
 20
147.4692346382
 11
341.6605377321
 21
147.4187944542
  0
LINE
  5
41D
100
AcDbEntity
  8
7_ALL_FEATURES
100
AcDbLine
 62
7
  6
CONTINUOUS
 10
343.1309741794
 20
149.2852914296
 11
342.6408637249
 21
149.0011450598
  0
LINE
  5
41E
100
AcDbEntity
  8
7_ALL_FEATURES
100
AcDbLine
 62
7
  6
CONTINUOUS
 10
312.8560717909
 20
136.5775363882
 11
311.3560717909
 21
136.1445236863
  0
LINE
  5
41F
100
AcDbEntity
  8
7_ALL_FEATURES
100
AcDbLine
 62
7
  6
CONTINUOUS
 10
312.8560717909
 20
134.8454855807
 11
314.3560717909
 21
135.2784982826
  0
LINE
  5
420
100
AcDbEntity
  8
02___PRT_ALL_AXES
100
AcDbLine
 62
7
  6
CONTINUOUS
 10
310.5782221326
 20
111.4307167552
 11
312.8560717909
 21
107.9986980633
  0
LINE
  5
421
100
AcDbEntity
  8
02___PRT_ALL_AXES
100
AcDbLine
 62
7
  6
CONTINUOUS
 10
315.2560717909
 20
112.1416745986
 11
315.2560717909
 21
111.8086720879
  0
LINE
  5
422
100
AcDbEntity
  8
02___PRT_ALL_AXES
100
AcDbLine
 62
7
  6
CONTINUOUS
 10
317.6060717909
 20
135.7115109844
 11
317.6060717909
 21
135.0186906614
  0
LINE
  5
423
100
AcDbEntity
  8
3_ALL_AXES
100
AcDbLine
 62
7
  6
CONTINUOUS
 10
318.3560717909
 20
110.4402642743
 11
318.3560717909
 21
109.297736169
  0
LINE
  5
424
100
AcDbEntity
  8
3_ALL_AXES
100
AcDbLine
 62
7
  6
CONTINUOUS
 10
318.3560717909
 20
106.6996599577
 11
318.3560717909
 21
104.5345964482
  0
LINE
  5
425
100
AcDbEntity
  8
3_ALL_AXES
100
AcDbLine
 62
7
  6
CONTINUOUS
 10
318.3560717909
 20
101.9365202369
 11
318.3560717909
 21
99.7714567274
  0
LINE
  5
426
100
AcDbEntity
  8
3_ALL_AXES
100
AcDbLine
 62
7
  6
CONTINUOUS
 10
318.3560717909
 20
97.173380516
 11
318.3560717909
 21
95.4413297085
  0
LINE
  5
427
100
AcDbEntity
  8
7_ALL_FEATURES
100
AcDbLine
 62
7
  6
CONTINUOUS
 10
318.3560717909
 20
95.4413297085
 11
318.3560717909
 21
97.173380516
  0
LINE
  5
428
100
AcDbEntity
  8
7_ALL_FEATURES
100
AcDbLine
 62
7
  6
CONTINUOUS
 10
318.3560717909
 20
99.7714567274
 11
318.3560717909
 21
101.9365202369
  0
LINE
  5
429
100
AcDbEntity
  8
7_ALL_FEATURES
100
AcDbLine
 62
7
  6
CONTINUOUS
 10
318.3560717909
 20
104.5345964482
 11
318.3560717909
 21
106.6996599577
  0
LINE
  5
42A
100
AcDbEntity
  8
7_ALL_FEATURES
100
AcDbLine
 62
7
  6
CONTINUOUS
 10
318.3560717909
 20
109.297736169
 11
318.3560717909
 21
110.4402642743
  0
LINE
  5
42B
100
AcDbEntity
  8
02___PRT_ALL_AXES
100
AcDbLine
 62
7
  6
CONTINUOUS
 10
315.1339214493
 20
111.4307167552
 11
312.8560717909
 21
107.9986980633
  0
LINE
  5
42C
100
AcDbEntity
  8
3_ALL_AXES
100
AcDbLine
 62
7
  6
CONTINUOUS
 10
323.3560717909
 20
135.2784982826
 11
323.3560717909
 21
134.8241458585
  0
LINE
  5
42D
100
AcDbEntity
  8
7_ALL_FEATURES
100
AcDbLine
 62
7
  6
CONTINUOUS
 10
323.3560717909
 20
134.8241458585
 11
323.3560717909
 21
135.2784982826
  0
LINE
  5
42E
100
AcDbEntity
  8
02___PRT_ALL_AXES
100
AcDbLine
 62
7
  6
CONTINUOUS
 10
334.9278685606
 20
76.3932732766
 11
334.9278685606
 21
84.0435506036
  0
LINE
  5
42F
100
AcDbEntity
  8
02___PRT_ALL_AXES
100
AcDbLine
 62
7
  6
CONTINUOUS
 10
335.8560717909
 20
82.379151882
 11
335.8560717909
 21
82.7092789009
  0
LINE
  5
430
100
AcDbEntity
  8
7_ALL_FEATURES
100
AcDbLine
 62
7
  6
CONTINUOUS
 10
337.3578849531
 20
147.6754088903
 11
337.3578849531
 21
147.3025718636
  0
LINE
  5
431
100
AcDbEntity
  8
7_ALL_FEATURES
100
AcDbLine
 62
7
  6
CONTINUOUS
 10
337.357937495
 20
152.4397732494
 11
337.357937495
 21
147.9397995214
  0
LINE
  5
432
100
AcDbEntity
  8
7_ALL_FEATURES
100
AcDbLine
 62
7
  6
CONTINUOUS
 10
337.4508840423
 20
147.3451307688
 11
337.4508840423
 21
147.6754088903
  0
LINE
  5
433
100
AcDbEntity
  8
7_ALL_FEATURES
100
AcDbLine
 62
7
  6
CONTINUOUS
 10
337.4875057176
 20
148.0045310909
 11
337.4875057176
 21
152.374989138
  0
LINE
  5
434
100
AcDbEntity
  8
02___PRT_ALL_AXES
100
AcDbLine
 62
7
  6
CONTINUOUS
 10
337.525944772
 20
74.4329994593
 11
337.525944772
 21
74.8660121612
  0
LINE
  5
435
100
AcDbEntity
  8
7_ALL_FEATURES
100
AcDbLine
 62
7
  6
CONTINUOUS
 10
337.6773919936
 20
147.3025718636
 11
337.6773919936
 21
147.3451307688
  0
LINE
  5
436
100
AcDbEntity
  8
7_ALL_FEATURES
100
AcDbLine
 62
7
  6
CONTINUOUS
 10
338.0186513635
 20
150.4465190407
 11
338.0186513635
 21
148.3466836724
  0
LINE
  5
437
100
AcDbEntity
  8
7_ALL_FEATURES
100
AcDbLine
 62
7
  6
CONTINUOUS
 10
338.2388542918
 20
147.5339662077
 11
338.2388542918
 21
147.4010353061
  0
LINE
  5
438
100
AcDbEntity
  8
7_ALL_FEATURES
100
AcDbLine
 62
7
  6
CONTINUOUS
 10
338.3279127417
 20
147.4060793245
 11
338.3279127417
 21
147.5339662077
  0
LINE
  5
439
100
AcDbEntity
  8
7_ALL_FEATURES
100
AcDbLine
 62
7
  6
CONTINUOUS
 10
338.5414428539
 20
147.5339662077
 11
338.5414428539
 21
147.4060793245
  0
LINE
  5
43A
100
AcDbEntity
  8
7_ALL_FEATURES
100
AcDbLine
 62
7
  6
CONTINUOUS
 10
338.5423886074
 20
148.5861694627
 11
338.5423886074
 21
150.4465190407
  0
LINE
  5
43B
100
AcDbEntity
  8
7_ALL_FEATURES
100
AcDbLine
 62
7
  6
CONTINUOUS
 10
338.6306063875
 20
147.4010353061
 11
338.6306063875
 21
147.5339662077
  0
LINE
  5
43C
100
AcDbEntity
  8
02___PRT_ALL_AXES
100
AcDbLine
 62
7
  6
CONTINUOUS
 10
339.2579955796
 20
73.9329994593
 11
339.2579955796
 21
74.3660121612
  0
LINE
  5
43D
100
AcDbEntity
  8
7_ALL_FEATURES
100
AcDbLine
 62
7
  6
CONTINUOUS
 10
339.6035765202
 20
147.4682888847
 11
339.6035765202
 21
147.525664594
  0
LINE
  5
43E
100
AcDbEntity
  8
7_ALL_FEATURES
100
AcDbLine
 62
7
  6
CONTINUOUS
 10
339.6035765202
 20
147.3100328074
 11
339.6035765202
 21
147.3667780144
  0
LINE
  5
43F
100
AcDbEntity
  8
7_ALL_FEATURES
100
AcDbLine
 62
7
  6
CONTINUOUS
 10
339.8179473022
 20
148.3466836724
 11
339.8179473022
 21
148.5861694627
  0
LINE
  5
440
100
AcDbEntity
  8
7_ALL_FEATURES
100
AcDbLine
 62
7
  6
CONTINUOUS
 10
340.6202089371
 20
147.4109131754
 11
340.6202089371
 21
147.417743617
  0
LINE
  5
441
100
AcDbEntity
  8
02___PRT_ALL_AXES
100
AcDbLine
 62
7
  6
CONTINUOUS
 10
341.8560717909
 20
83.5128599358
 11
341.8560717909
 21
80.9772280933
  0
LINE
  5
442
100
AcDbEntity
  8
02___PRT_ALL_AXES
100
AcDbLine
 62
7
  6
CONTINUOUS
 10
341.8560717909
 20
78.379151882
 11
341.8560717909
 21
74.482037565
  0
LINE
  5
443
100
AcDbEntity
  8
7_ALL_FEATURES
100
AcDbLine
 62
7
  6
CONTINUOUS
 10
342.4189269153
 20
147.6754088903
 11
342.4189269153
 21
147.3025718636
  0
LINE
  5
444
100
AcDbEntity
  8
7_ALL_FEATURES
100
AcDbLine
 62
7
  6
CONTINUOUS
 10
342.5118209208
 20
147.3451307688
 11
342.5118209208
 21
147.6754088903
  0
LINE
  5
445
100
AcDbEntity
  8
7_ALL_FEATURES
100
AcDbLine
 62
7
  6
CONTINUOUS
 10
342.7382763302
 20
147.3025718636
 11
342.7382763302
 21
147.3451307688
  0
LINE
  5
446
100
AcDbEntity
  8
7_ALL_FEATURES
100
AcDbLine
 62
7
  6
CONTINUOUS
 10
343.3236977158
 20
147.5339662077
 11
343.3236977158
 21
147.3026769473
  0
LINE
  5
447
100
AcDbEntity
  8
7_ALL_FEATURES
100
AcDbLine
 62
7
  6
CONTINUOUS
 10
343.4124934564
 20
147.3026769473
 11
343.4124934564
 21
147.5339662077
  0
LINE
  5
448
100
AcDbEntity
  8
7_ALL_FEATURES
100
AcDbLine
 62
7
  6
CONTINUOUS
 10
344.0163044923
 20
150.4465190407
 11
344.0163044923
 21
148.3466836724
  0
LINE
  5
449
100
AcDbEntity
  8
7_ALL_FEATURES
100
AcDbLine
 62
7
  6
CONTINUOUS
 10
344.4134158576
 20
147.3387206621
 11
344.4134158576
 21
147.2946905848
  0
LINE
  5
44A
100
AcDbEntity
  8
7_ALL_FEATURES
100
AcDbLine
 62
7
  6
CONTINUOUS
 10
344.4134158576
 20
147.5340712914
 11
344.4134158576
 21
147.4944547302
  0
LINE
  5
44B
100
AcDbEntity
  8
02___PRT_ALL_AXES
100
AcDbLine
 62
7
  6
CONTINUOUS
 10
344.4541480023
 20
73.9329994593
 11
344.4541480023
 21
74.3660121612
  0
LINE
  5
44C
100
AcDbEntity
  8
7_ALL_FEATURES
100
AcDbLine
 62
7
  6
CONTINUOUS
 10
344.5024217656
 20
147.3070904634
 11
344.5024217656
 21
147.5340712914
  0
LINE
  5
44D
100
AcDbEntity
  8
7_ALL_FEATURES
100
AcDbLine
 62
7
  6
CONTINUOUS
 10
344.5398315688
 20
148.5861694627
 11
344.5398315688
 21
150.4465190407
  0
LINE
  5
44E
100
AcDbEntity
  8
7_ALL_FEATURES
100
AcDbLine
 62
7
  6
CONTINUOUS
 10
345.1323986471
 20
147.7318388461
 11
345.1323986471
 21
147.3025718636
  0
LINE
  5
44F
100
AcDbEntity
  8
7_ALL_FEATURES
100
AcDbLine
 62
7
  6
CONTINUOUS
 10
345.2212994714
 20
147.3025718636
 11
345.2212994714
 21
147.4089165848
  0
LINE
  5
450
100
AcDbEntity
  8
7_ALL_FEATURES
100
AcDbLine
 62
7
  6
CONTINUOUS
 10
345.2212994714
 20
147.5029665112
 11
345.2212994714
 21
147.7318388461
  0
LINE
  5
451
100
AcDbEntity
  8
7_ALL_FEATURES
100
AcDbLine
 62
7
  6
CONTINUOUS
 10
345.4377719277
 20
147.4352925977
 11
345.4377719277
 21
147.3025718636
  0
LINE
  5
452
100
AcDbEntity
  8
7_ALL_FEATURES
100
AcDbLine
 62
7
  6
CONTINUOUS
 10
345.5268829194
 20
147.3025718636
 11
345.5268829194
 21
147.4405467835
  0
LINE
  5
453
100
AcDbEntity
  8
7_ALL_FEATURES
100
AcDbLine
 62
7
  6
CONTINUOUS
 10
345.8156529728
 20
148.3466836724
 11
345.8156529728
 21
148.5861694627
  0
LINE
  5
454
100
AcDbEntity
  8
7_ALL_FEATURES
100
AcDbLine
 62
7
  6
CONTINUOUS
 10
346.1281719462
 20
147.5339662077
 11
346.1281719462
 21
147.4924581396
  0
LINE
  5
455
100
AcDbEntity
  8
7_ALL_FEATURES
100
AcDbLine
 62
7
  6
CONTINUOUS
 10
346.1766155396
 20
147.4924581396
 11
346.1766155396
 21
147.3025718636
  0
LINE
  5
456
100
AcDbEntity
  8
7_ALL_FEATURES
100
AcDbLine
 62
7
  6
CONTINUOUS
 10
346.1766155396
 20
147.6224466971
 11
346.1766155396
 21
147.5339662077
  0
LINE
  5
457
100
AcDbEntity
  8
02___PRT_ALL_AXES
100
AcDbLine
 62
7
  6
CONTINUOUS
 10
346.1861988098
 20
74.4329994593
 11
346.1861988098
 21
74.8660121612
  0
LINE
  5
458
100
AcDbEntity
  8
7_ALL_FEATURES
100
AcDbLine
 62
7
  6
CONTINUOUS
 10
346.2282116445
 20
152.374989138
 11
346.2282116445
 21
148.0045310909
  0
LINE
  5
459
100
AcDbEntity
  8
7_ALL_FEATURES
100
AcDbLine
 62
7
  6
CONTINUOUS
 10
346.2656214476
 20
147.3025718636
 11
346.2656214476
 21
147.4924581396
  0
LINE
  5
45A
100
AcDbEntity
  8
7_ALL_FEATURES
100
AcDbLine
 62
7
  6
CONTINUOUS
 10
346.2656214476
 20
147.5339662077
 11
346.2656214476
 21
147.6224466971
  0
LINE
  5
45B
100
AcDbEntity
  8
7_ALL_FEATURES
100
AcDbLine
 62
7
  6
CONTINUOUS
 10
346.3525256813
 20
147.4924581396
 11
346.3525256813
 21
147.5339662077
  0
LINE
  5
45C
100
AcDbEntity
  8
7_ALL_FEATURES
100
AcDbLine
 62
7
  6
CONTINUOUS
 10
346.3578849508
 20
147.9397995214
 11
346.3578849508
 21
152.4397732494
  0
LINE
  5
45D
100
AcDbEntity
  8
02___PRT_ALL_AXES
100
AcDbLine
 62
7
  6
CONTINUOUS
 10
347.8560717909
 20
82.379151882
 11
347.8560717909
 21
82.7092789009
  0
LINE
  5
45E
100
AcDbEntity
  8
02___PRT_ALL_AXES
100
AcDbLine
 62
7
  6
CONTINUOUS
 10
348.7842750212
 20
84.0435506036
 11
348.7842750212
 21
76.3931687446
  0
LINE
  5
45F
100
AcDbEntity
  8
7_ALL_FEATURES
100
AcDbLine
 62
7
  6
CONTINUOUS
 10
311.3560717909
 20
135.2784982826
 11
312.8560717909
 21
134.8454855807
  0
LINE
  5
460
100
AcDbEntity
  8
7_ALL_FEATURES
100
AcDbLine
 62
7
  6
CONTINUOUS
 10
314.3560717909
 20
136.1445236863
 11
312.8560717909
 21
136.5775363882
  0
LINE
  5
461
100
AcDbEntity
  8
3_ALL_AXES
100
AcDbLine
 62
7
  6
CONTINUOUS
 10
360.3560717909
 20
135.2784982826
 11
360.3560717909
 21
134.8241462154
  0
LINE
  5
462
100
AcDbEntity
  8
7_ALL_FEATURES
100
AcDbLine
 62
7
  6
CONTINUOUS
 10
360.3560717909
 20
134.8241462154
 11
360.3560717909
 21
135.2784982826
  0
LINE
  5
463
100
AcDbEntity
  8
3_ALL_AXES
100
AcDbLine
 62
7
  6
CONTINUOUS
 10
365.3560717909
 20
110.4402642743
 11
365.3560717909
 21
109.297736169
  0
LINE
  5
464
100
AcDbEntity
  8
3_ALL_AXES
100
AcDbLine
 62
7
  6
CONTINUOUS
 10
365.3560717909
 20
106.6996599577
 11
365.3560717909
 21
104.5345964482
  0
LINE
  5
465
100
AcDbEntity
  8
3_ALL_AXES
100
AcDbLine
 62
7
  6
CONTINUOUS
 10
365.3560717909
 20
101.9365202369
 11
365.3560717909
 21
99.7714567274
  0
LINE
  5
466
100
AcDbEntity
  8
3_ALL_AXES
100
AcDbLine
 62
7
  6
CONTINUOUS
 10
365.3560717909
 20
97.173380516
 11
365.3560717909
 21
95.4413297085
  0
LINE
  5
467
100
AcDbEntity
  8
7_ALL_FEATURES
100
AcDbLine
 62
7
  6
CONTINUOUS
 10
365.3560717909
 20
95.4413297085
 11
365.3560717909
 21
97.173380516
  0
LINE
  5
468
100
AcDbEntity
  8
7_ALL_FEATURES
100
AcDbLine
 62
7
  6
CONTINUOUS
 10
341.4527346824
 20
147.5449999979
 11
341.4279874671
 21
147.5607625554
  0
LINE
  5
469
100
AcDbEntity
  8
02___PRT_ALL_AXES
100
AcDbLine
 62
7
  6
CONTINUOUS
 10
348.7842750212
 20
82.9772280933
 11
341.8560717909
 21
80.9772280933
  0
LINE
  5
46A
100
AcDbEntity
  8
7_ALL_FEATURES
100
AcDbLine
 62
7
  6
CONTINUOUS
 10
340.6202089371
 20
147.3579509822
 11
340.5448639122
 21
147.3793880604
  0
LINE
  5
46B
100
AcDbEntity
  8
7_ALL_FEATURES
100
AcDbLine
 62
7
  6
CONTINUOUS
 10
341.8067617238
 20
147.4385501929
 11
341.7472317983
 21
147.4692346382
  0
LINE
  5
46C
100
AcDbEntity
  8
7_ALL_FEATURES
100
AcDbLine
 62
7
  6
CONTINUOUS
 10
343.4651403984
 20
149.1124287157
 11
343.1309741794
 21
149.2852914296
  0
LINE
  5
46D
100
AcDbEntity
  8
7_ALL_FEATURES
100
AcDbLine
 62
7
  6
CONTINUOUS
 10
341.6605377321
 20
147.4187944542
 11
341.5051189151
 21
147.5127392969
  0
LINE
  5
46E
100
AcDbEntity
  8
7_ALL_FEATURES
100
AcDbLine
 62
7
  6
CONTINUOUS
 10
342.6408637249
 20
149.0011450598
 11
341.7663570348
 21
149.5302415732
  0
LINE
  5
46F
100
AcDbEntity
  8
7_ALL_FEATURES
100
AcDbLine
 62
7
  6
CONTINUOUS
 10
341.3596830512
 20
149.382704035
 11
342.2897790275
 21
148.8146214627
  0
LINE
  5
470
100
AcDbEntity
  8
7_ALL_FEATURES
100
AcDbLine
 62
7
  6
CONTINUOUS
 10
341.4329264018
 20
147.4865734514
 11
341.5980129207
 21
147.3856930834
  0
LINE
  5
471
100
AcDbEntity
  8
7_ALL_FEATURES
100
AcDbLine
 62
7
  6
CONTINUOUS
 10
341.8492680872
 20
147.3026769473
 11
341.715811767
 21
147.3851676649
  0
LINE
  5
472
100
AcDbEntity
  8
7_ALL_FEATURES
100
AcDbLine
 62
7
  6
CONTINUOUS
 10
343.7047312724
 20
148.3465785886
 11
342.9526471122
 21
148.8117842023
  0
LINE
  5
473
100
AcDbEntity
  8
7_ALL_FEATURES
100
AcDbLine
 62
7
  6
CONTINUOUS
 10
341.6534445812
 20
147.3531171313
 11
341.7346742942
 21
147.3026769473
  0
LINE
  5
474
100
AcDbEntity
  8
7_ALL_FEATURES
100
AcDbLine
 62
7
  6
CONTINUOUS
 10
342.6017725823
 20
148.6306198748
 11
343.0585714986
 21
148.3465785886
  0
LINE
  5
475
100
AcDbEntity
  8
7_ALL_FEATURES
100
AcDbLine
 62
7
  6
CONTINUOUS
 10
341.4710717909
 20
149.7115109844
 11
341.33194095
 21
149.8005168925
  0
LINE
  5
476
100
AcDbEntity
  8
02___PRT_ALL_AXES
100
AcDbLine
 62
7
  6
CONTINUOUS
 10
347.5715478574
 20
75.595286219
 11
348.0847737406
 21
75.9581917213
  0
LINE
  5
477
100
AcDbEntity
  8
02___PRT_ALL_AXES
100
AcDbLine
 62
7
  6
CONTINUOUS
 10
348.7842750212
 20
80.379151882
 11
341.8560717909
 21
78.379151882
  0
LINE
  5
478
100
AcDbEntity
  8
7_ALL_FEATURES
100
AcDbLine
 62
7
  6
CONTINUOUS
 10
344.1425100361
 20
147.2748297624
 11
344.053504128
 21
147.2748297624
  0
LINE
  5
479
100
AcDbEntity
  8
7_ALL_FEATURES
100
AcDbLine
 62
7
  6
CONTINUOUS
 10
337.3578849531
 20
147.3025718636
 11
337.6773919936
 21
147.3025718636
  0
LINE
  5
47A
100
AcDbEntity
  8
7_ALL_FEATURES
100
AcDbLine
 62
7
  6
CONTINUOUS
 10
342.4189269153
 20
147.3025718636
 11
342.7382763302
 21
147.3025718636
  0
LINE
  5
47B
100
AcDbEntity
  8
7_ALL_FEATURES
100
AcDbLine
 62
7
  6
CONTINUOUS
 10
345.1323986471
 20
147.3025718636
 11
345.2212994714
 21
147.3025718636
  0
LINE
  5
47C
100
AcDbEntity
  8
7_ALL_FEATURES
100
AcDbLine
 62
7
  6
CONTINUOUS
 10
345.4377719277
 20
147.3025718636
 11
345.5268829194
 21
147.3025718636
  0
LINE
  5
47D
100
AcDbEntity
  8
7_ALL_FEATURES
100
AcDbLine
 62
7
  6
CONTINUOUS
 10
346.1766155396
 20
147.3025718636
 11
346.2656214476
 21
147.3025718636
  0
LINE
  5
47E
100
AcDbEntity
  8
7_ALL_FEATURES
100
AcDbLine
 62
7
  6
CONTINUOUS
 10
341.7346742942
 20
147.3026769473
 11
341.8492680872
 21
147.3026769473
  0
LINE
  5
47F
100
AcDbEntity
  8
7_ALL_FEATURES
100
AcDbLine
 62
7
  6
CONTINUOUS
 10
343.3236977158
 20
147.3026769473
 11
343.4124934564
 21
147.3026769473
  0
LINE
  5
480
100
AcDbEntity
  8
7_ALL_FEATURES
100
AcDbLine
 62
7
  6
CONTINUOUS
 10
342.7382763302
 20
147.3451307688
 11
342.5118209208
 21
147.3451307688
  0
LINE
  5
481
100
AcDbEntity
  8
7_ALL_FEATURES
100
AcDbLine
 62
7
  6
CONTINUOUS
 10
337.6773919936
 20
147.3451307688
 11
337.4508840423
 21
147.3451307688
  0
LINE
  5
482
100
AcDbEntity
  8
7_ALL_FEATURES
100
AcDbLine
 62
7
  6
CONTINUOUS
 10
340.2671801909
 20
147.4109131754
 11
340.6202089371
 21
147.4109131754
  0
LINE
  5
483
100
AcDbEntity
  8
7_ALL_FEATURES
100
AcDbLine
 62
7
  6
CONTINUOUS
 10
340.531203029
 20
147.4445399648
 11
340.2720140419
 21
147.4445399648
  0
LINE
  5
484
100
AcDbEntity
  8
7_ALL_FEATURES
100
AcDbLine
 62
7
  6
CONTINUOUS
 10
346.1281719462
 20
147.4924581396
 11
346.1766155396
 21
147.4924581396
  0
LINE
  5
485
100
AcDbEntity
  8
7_ALL_FEATURES
100
AcDbLine
 62
7
  6
CONTINUOUS
 10
346.2656214476
 20
147.4924581396
 11
346.3525256813
 21
147.4924581396
  0
LINE
  5
486
100
AcDbEntity
  8
7_ALL_FEATURES
100
AcDbLine
 62
7
  6
CONTINUOUS
 10
346.1766155396
 20
147.5339662077
 11
346.1281719462
 21
147.5339662077
  0
LINE
  5
487
100
AcDbEntity
  8
7_ALL_FEATURES
100
AcDbLine
 62
7
  6
CONTINUOUS
 10
346.3525256813
 20
147.5339662077
 11
346.2656214476
 21
147.5339662077
  0
LINE
  5
488
100
AcDbEntity
  8
7_ALL_FEATURES
100
AcDbLine
 62
7
  6
CONTINUOUS
 10
343.4124934564
 20
147.5339662077
 11
343.3236977158
 21
147.5339662077
  0
LINE
  5
489
100
AcDbEntity
  8
7_ALL_FEATURES
100
AcDbLine
 62
7
  6
CONTINUOUS
 10
338.6306063875
 20
147.5339662077
 11
338.5414428539
 21
147.5339662077
  0
LINE
  5
48A
100
AcDbEntity
  8
7_ALL_FEATURES
100
AcDbLine
 62
7
  6
CONTINUOUS
 10
338.3279127417
 20
147.5339662077
 11
338.2388542918
 21
147.5339662077
  0
LINE
  5
48B
100
AcDbEntity
  8
7_ALL_FEATURES
100
AcDbLine
 62
7
  6
CONTINUOUS
 10
344.5024217656
 20
147.5340712914
 11
344.4134158576
 21
147.5340712914
  0
LINE
  5
48C
100
AcDbEntity
  8
7_ALL_FEATURES
100
AcDbLine
 62
7
  6
CONTINUOUS
 10
346.2656214476
 20
147.6224466971
 11
346.1766155396
 21
147.6224466971
  0
LINE
  5
48D
100
AcDbEntity
  8
7_ALL_FEATURES
100
AcDbLine
 62
7
  6
CONTINUOUS
 10
342.5118209208
 20
147.6754088903
 11
342.4189269153
 21
147.6754088903
  0
LINE
  5
48E
100
AcDbEntity
  8
7_ALL_FEATURES
100
AcDbLine
 62
7
  6
CONTINUOUS
 10
337.4508840423
 20
147.6754088903
 11
337.3578849531
 21
147.6754088903
  0
LINE
  5
48F
100
AcDbEntity
  8
7_ALL_FEATURES
100
AcDbLine
 62
7
  6
CONTINUOUS
 10
345.2212994714
 20
147.7318388461
 11
345.1323986471
 21
147.7318388461
  0
LINE
  5
490
100
AcDbEntity
  8
7_ALL_FEATURES
100
AcDbLine
 62
7
  6
CONTINUOUS
 10
337.357937495
 20
147.9397995214
 11
346.3578849508
 21
147.9397995214
  0
LINE
  5
491
100
AcDbEntity
  8
7_ALL_FEATURES
100
AcDbLine
 62
7
  6
CONTINUOUS
 10
346.2282116445
 20
148.0045310909
 11
337.4875057176
 21
148.0045310909
  0
LINE
  5
492
100
AcDbEntity
  8
7_ALL_FEATURES
100
AcDbLine
 62
7
  6
CONTINUOUS
 10
343.0585714986
 20
148.3465785886
 11
343.7047312724
 21
148.3465785886
  0
LINE
  5
493
100
AcDbEntity
  8
7_ALL_FEATURES
100
AcDbLine
 62
7
  6
CONTINUOUS
 10
338.0186513635
 20
148.3466836724
 11
339.8179473022
 21
148.3466836724
  0
LINE
  5
494
100
AcDbEntity
  8
7_ALL_FEATURES
100
AcDbLine
 62
7
  6
CONTINUOUS
 10
344.0163044923
 20
148.3466836724
 11
345.8156529728
 21
148.3466836724
  0
LINE
  5
495
100
AcDbEntity
  8
7_ALL_FEATURES
100
AcDbLine
 62
7
  6
CONTINUOUS
 10
345.8156529728
 20
148.5861694627
 11
344.5398315688
 21
148.5861694627
  0
LINE
  5
496
100
AcDbEntity
  8
7_ALL_FEATURES
100
AcDbLine
 62
7
  6
CONTINUOUS
 10
339.8179473022
 20
148.5861694627
 11
338.5423886074
 21
148.5861694627
  0
LINE
  5
497
100
AcDbEntity
  8
7_ALL_FEATURES
100
AcDbLine
 62
7
  6
CONTINUOUS
 10
344.5398315688
 20
150.4465190407
 11
344.0163044923
 21
150.4465190407
  0
LINE
  5
498
100
AcDbEntity
  8
7_ALL_FEATURES
100
AcDbLine
 62
7
  6
CONTINUOUS
 10
338.5423886074
 20
150.4465190407
 11
338.0186513635
 21
150.4465190407
  0
LINE
  5
499
100
AcDbEntity
  8
7_ALL_FEATURES
100
AcDbLine
 62
7
  6
CONTINUOUS
 10
337.4875057176
 20
152.374989138
 11
346.2282116445
 21
152.374989138
  0
LINE
  5
49A
100
AcDbEntity
  8
7_ALL_FEATURES
100
AcDbLine
 62
7
  6
CONTINUOUS
 10
346.3578849508
 20
152.4397732494
 11
337.357937495
 21
152.4397732494
  0
CIRCLE
  5
49B
100
AcDbEntity
  8
7_ALL_FEATURES
100
AcDbCircle
 62
7
  6
CONTINUOUS
 10
99.1361309203
 20
86.2131632809
 40
42.5
  0
CIRCLE
  5
49C
100
AcDbEntity
  8
7_ALL_FEATURES
100
AcDbCircle
 62
9
  6
CONTINUOUS
 10
99.1361309203
 20
86.2131632809
 40
42.302606043
  0
CIRCLE
  5
49D
100
AcDbEntity
  8
7_ALL_FEATURES
100
AcDbCircle
 62
7
  6
CONTINUOUS
 10
99.1361309203
 20
86.2131632809
 40
38.3787838708
  0
CIRCLE
  5
49E
100
AcDbEntity
  8
7_ALL_FEATURES
100
AcDbCircle
 62
9
  6
CONTINUOUS
 10
99.1361309203
 20
86.2131632809
 40
18.85
  0
CIRCLE
  5
49F
100
AcDbEntity
  8
7_ALL_FEATURES
100
AcDbCircle
 62
7
  6
CONTINUOUS
 10
99.1361309203
 20
86.2131632809
 40
18.55
  0
CIRCLE
  5
4A0
100
AcDbEntity
  8
7_ALL_FEATURES
100
AcDbCircle
 62
7
  6
CONTINUOUS
 10
99.1361309203
 20
86.2131632809
 40
18.5
  0
CIRCLE
  5
4A1
100
AcDbEntity
  8
7_ALL_FEATURES
100
AcDbCircle
 62
7
  6
CONTINUOUS
 10
99.1361309203
 20
86.2131632809
 40
18.0
  0
CIRCLE
  5
4A2
100
AcDbEntity
  8
7_ALL_FEATURES
100
AcDbCircle
 62
9
  6
CONTINUOUS
 10
99.1361309203
 20
57.2131632809
 40
5.75
  0
CIRCLE
  5
4A3
100
AcDbEntity
  8
7_ALL_FEATURES
100
AcDbCircle
 62
9
  6
CONTINUOUS
 10
99.1361309203
 20
115.2131632809
 40
5.75
  0
CIRCLE
  5
4A4
100
AcDbEntity
  8
7_ALL_FEATURES
100
AcDbCircle
 62
7
  6
CONTINUOUS
 10
99.1361309203
 20
115.2131632809
 40
5.25
  0
CIRCLE
  5
4A5
100
AcDbEntity
  8
7_ALL_FEATURES
100
AcDbCircle
 62
7
  6
CONTINUOUS
 10
99.1361309203
 20
57.2131632809
 40
5.25
  0
CIRCLE
  5
4A6
100
AcDbEntity
  8
02___PRT_ALL_AXES
100
AcDbCircle
 62
7
  6
CONTINUOUS
 10
99.1361309203
 20
57.2131632809
 40
4.75
  0
CIRCLE
  5
4A7
100
AcDbEntity
  8
7_ALL_FEATURES
100
AcDbCircle
 62
9
  6
CONTINUOUS
 10
99.1361309203
 20
115.2131632809
 40
2.8378679656
  0
CIRCLE
  5
4A8
100
AcDbEntity
  8
3_ALL_AXES
100
AcDbCircle
 62
7
  6
CONTINUOUS
 10
99.1361309203
 20
115.2131632809
 40
2.75
  0
CIRCLE
  5
4A9
100
AcDbEntity
  8
7_ALL_FEATURES
100
AcDbCircle
 62
7
  6
CONTINUOUS
 10
99.1361309203
 20
115.2131632809
 40
2.75
  0
ARC
  5
4AA
100
AcDbEntity
  8
02___PRT_ALL_AXES
100
AcDbCircle
 62
7
  6
CONTINUOUS
 10
109.6361309203
 20
197.4069148936
 40
3.5
100
AcDbArc
 50
180.0
 51
270.0
  0
ARC
  5
4AB
100
AcDbEntity
  8
02___PRT_ALL_AXES
100
AcDbCircle
 62
7
  6
CONTINUOUS
 10
116.6361309203
 20
197.4069148936
 40
3.5
100
AcDbArc
 50
270.0
 51
360.0
  0
ARC
  5
4AC
100
AcDbEntity
  8
7_ALL_FEATURES
100
AcDbCircle
 62
7
  6
CONTINUOUS
 10
116.6361309203
 20
197.4069148936
 40
3.5
100
AcDbArc
 50
270.0
 51
360.0
  0
ARC
  5
4AD
100
AcDbEntity
  8
7_ALL_FEATURES
100
AcDbCircle
 62
7
  6
CONTINUOUS
 10
109.6361309203
 20
197.4069148936
 40
3.5
100
AcDbArc
 50
180.0
 51
270.0
  0
ARC
  5
4AE
100
AcDbEntity
  8
7_ALL_FEATURES
100
AcDbCircle
 62
7
  6
CONTINUOUS
 10
141.3361309203
 20
255.1968526322
 40
0.3
100
AcDbArc
 50
270.0
 51
70.0
  0
ARC
  5
4AF
100
AcDbEntity
  8
7_ALL_FEATURES
100
AcDbCircle
 62
7
  6
CONTINUOUS
 10
133.9361309203
 20
254.6069148936
 40
0.3
100
AcDbArc
 50
104.843263421
 51
180.0
  0
ARC
  5
4B0
100
AcDbEntity
  8
7_ALL_FEATURES
100
AcDbCircle
 62
7
  6
CONTINUOUS
 10
56.9361309203
 20
255.1968526322
 40
0.3
100
AcDbArc
 50
110.0
 51
270.0
  0
ARC
  5
4B1
100
AcDbEntity
  8
7_ALL_FEATURES
100
AcDbCircle
 62
7
  6
CONTINUOUS
 10
64.3361309203
 20
254.6069148936
 40
0.3
100
AcDbArc
 50
0.0
 51
75.156736579
  0
ARC
  5
4B2
100
AcDbEntity
  8
7_ALL_FEATURES
100
AcDbCircle
 62
7
  6
CONTINUOUS
 10
64.9361309203
 20
250.2069148936
 40
0.3
100
AcDbArc
 50
180.0
 51
262.5
  0
ARC
  5
4B3
100
AcDbEntity
  8
7_ALL_FEATURES
100
AcDbCircle
 62
7
  6
CONTINUOUS
 10
133.3361309203
 20
250.2069148936
 40
0.3
100
AcDbArc
 50
277.5
 51
360.0
  0
ARC
  5
4B4
100
AcDbEntity
  8
02___PRT_ALL_AXES
100
AcDbCircle
 62
7
  6
CONTINUOUS
 10
269.8509370088
 20
197.4069148936
 40
3.5
100
AcDbArc
 50
270.0
 51
348.4316348941
  0
ARC
  5
4B5
100
AcDbEntity
  8
02___PRT_ALL_AXES
100
AcDbCircle
 62
7
  6
CONTINUOUS
 10
262.8509370088
 20
197.4069148936
 40
3.5
100
AcDbArc
 50
191.5683651059
 51
270.0
  0
ARC
  5
4B6
100
AcDbEntity
  8
7_ALL_FEATURES
100
AcDbCircle
 62
7
  6
CONTINUOUS
 10
301.1509370088
 20
254.6069148936
 40
0.3
100
AcDbArc
 50
90.0
 51
180.0
  0
ARC
  5
4B7
100
AcDbEntity
  8
7_ALL_FEATURES
100
AcDbCircle
 62
7
  6
CONTINUOUS
 10
300.5509370088
 20
250.2069148936
 40
0.3
100
AcDbArc
 50
279.999973505
 51
360.0
  0
ARC
  5
4B8
100
AcDbEntity
  8
7_ALL_FEATURES
100
AcDbCircle
 62
7
  6
CONTINUOUS
 10
231.5509370088
 20
254.6069148936
 40
0.3
100
AcDbArc
 50
0.0
 51
90.0
  0
ARC
  5
4B9
100
AcDbEntity
  8
7_ALL_FEATURES
100
AcDbCircle
 62
7
  6
CONTINUOUS
 10
232.1509370088
 20
250.2069148936
 40
0.3
100
AcDbArc
 50
180.0
 51
262.5
  0
ARC
  5
4BA
100
AcDbEntity
  8
7_ALL_FEATURES
100
AcDbCircle
 62
7
  6
CONTINUOUS
 10
224.1509370088
 20
255.1968526322
 40
0.3
100
AcDbArc
 50
109.999999997
 51
270.0
  0
ARC
  5
4BB
100
AcDbEntity
  8
7_ALL_FEATURES
100
AcDbCircle
 62
7
  6
CONTINUOUS
 10
308.5509370088
 20
255.1968526322
 40
0.3
100
AcDbArc
 50
270.0
 51
70.0000000031
  0
ARC
  5
4BC
100
AcDbEntity
  8
7_ALL_FEATURES
100
AcDbCircle
 62
7
  6
CONTINUOUS
 10
345.783635184
 20
175.4422113643
 40
62.213902177
100
AcDbArc
 50
285.9948162949
 51
286.1395645345
  0
ARC
  5
4BD
100
AcDbEntity
  8
7_ALL_FEATURES
100
AcDbCircle
 62
7
  6
CONTINUOUS
 10
337.9215799325
 20
175.4180883786
 40
62.188804226
100
AcDbArc
 50
253.8372051516
 51
254.0050904496
  0
ARC
  5
4BE
100
AcDbEntity
  8
7_ALL_FEATURES
100
AcDbCircle
 62
7
  6
CONTINUOUS
 10
341.8560717909
 20
144.4656190154
 40
46.9179058388
100
AcDbArc
 50
267.8548523722
 51
272.1451476278
  0
ARC
  5
4BF
100
AcDbEntity
  8
7_ALL_FEATURES
100
AcDbCircle
 62
7
  6
CONTINUOUS
 10
341.8602386353
 20
146.3504820329
 40
46.6376671265
100
AcDbArc
 50
269.9948809062
 51
275.0158542097
  0
ARC
  5
4C0
100
AcDbEntity
  8
7_ALL_FEATURES
100
AcDbCircle
 62
7
  6
CONTINUOUS
 10
341.8407752042
 20
146.0961158497
 40
46.3833032795
100
AcDbArc
 50
264.9703695099
 51
270.0188953742
  0
ARC
  5
4C1
100
AcDbEntity
  8
7_ALL_FEATURES
100
AcDbCircle
 62
7
  6
CONTINUOUS
 10
333.6281437822
 20
160.2272016005
 40
42.5227123479
100
AcDbArc
 50
246.1915884463
 51
246.4944391972
  0
ARC
  5
4C2
100
AcDbEntity
  8
7_ALL_FEATURES
100
AcDbCircle
 62
7
  6
CONTINUOUS
 10
350.0839998056
 20
160.2272015868
 40
42.522712333
100
AcDbArc
 50
293.5055608028
 51
293.8084115538
  0
ARC
  5
4C3
100
AcDbEntity
  8
7_ALL_FEATURES
100
AcDbCircle
 62
7
  6
CONTINUOUS
 10
332.6579628681
 20
158.0567869977
 40
40.1453585079
100
AcDbArc
 50
242.9936311091
 51
246.2079539347
  0
ARC
  5
4C4
100
AcDbEntity
  8
7_ALL_FEATURES
100
AcDbCircle
 62
7
  6
CONTINUOUS
 10
351.4184211817
 20
157.2896709693
 40
39.2965012696
100
AcDbArc
 50
293.7573198134
 51
297.0410951429
  0
ARC
  5
4C5
100
AcDbEntity
  8
7_ALL_FEATURES
100
AcDbCircle
 62
7
  6
CONTINUOUS
 10
355.5886901751
 20
133.6168986788
 40
25.0094516239
100
AcDbArc
 50
304.1187135759
 51
305.2567943545
  0
ARC
  5
4C6
100
AcDbEntity
  8
7_ALL_FEATURES
100
AcDbCircle
 62
7
  6
CONTINUOUS
 10
328.0205338577
 20
133.4681960764
 40
24.8286156534
100
AcDbArc
 50
234.7390609766
 51
235.885431093
  0
ARC
  5
4C7
100
AcDbEntity
  8
7_ALL_FEATURES
100
AcDbCircle
 62
7
  6
CONTINUOUS
 10
350.6976117241
 20
103.3305223966
 40
17.9541174328
100
AcDbArc
 50
302.7141230709
 51
303.5977579275
  0
ARC
  5
4C8
100
AcDbEntity
  8
7_ALL_FEATURES
100
AcDbCircle
 62
7
  6
CONTINUOUS
 10
333.0145318571
 20
103.3305223957
 40
17.9541174317
100
AcDbArc
 50
236.4022420725
 51
237.2858769291
  0
ARC
  5
4C9
100
AcDbEntity
  8
7_ALL_FEATURES
100
AcDbCircle
 62
7
  6
CONTINUOUS
 10
351.10037426
 20
102.7252287817
 40
17.227070169
100
AcDbArc
 50
303.5959833844
 51
305.2533644375
  0
ARC
  5
4CA
100
AcDbEntity
  8
7_ALL_FEATURES
100
AcDbCircle
 62
7
  6
CONTINUOUS
 10
332.5135574251
 20
102.5819263461
 40
17.0533612537
100
AcDbArc
 50
234.738193759
 51
236.4124584191
  0
ARC
  5
4CB
100
AcDbEntity
  8
7_ALL_FEATURES
100
AcDbCircle
 62
9
  6
CONTINUOUS
 10
334.545004161
 20
129.723704279
 40
13.5726438869
100
AcDbArc
 50
123.4615013844
 51
125.5648201399
  0
ARC
  5
4CC
100
AcDbEntity
  8
7_ALL_FEATURES
100
AcDbCircle
 62
9
  6
CONTINUOUS
 10
349.2652727453
 20
129.8664278847
 40
13.3994679427
100
AcDbArc
 50
54.4215648185
 51
56.5543494777
  0
ARC
  5
4CD
100
AcDbEntity
  8
7_ALL_FEATURES
100
AcDbCircle
 62
9
  6
CONTINUOUS
 10
334.1693647712
 20
130.2569949882
 40
12.9203543576
100
AcDbArc
 50
125.5852526638
 51
125.7967405227
  0
ARC
  5
4CE
100
AcDbEntity
  8
7_ALL_FEATURES
100
AcDbCircle
 62
9
  6
CONTINUOUS
 10
349.5427788336
 20
130.2569950204
 40
12.9203543181
100
AcDbArc
 50
54.2032592819
 51
54.4147473304
  0
ARC
  5
4CF
100
AcDbEntity
  8
7_ALL_FEATURES
100
AcDbCircle
 62
7
  6
CONTINUOUS
 10
334.2510584481
 20
130.8756098139
 40
12.2856612242
100
AcDbArc
 50
125.2550937958
 51
127.567832107
  0
ARC
  5
4D0
100
AcDbEntity
  8
7_ALL_FEATURES
100
AcDbCircle
 62
7
  6
CONTINUOUS
 10
349.5645258526
 20
131.0158788726
 40
12.1114115631
100
AcDbArc
 50
52.3955377542
 51
54.7614773987
  0
ARC
  5
4D1
100
AcDbEntity
  8
7_ALL_FEATURES
100
AcDbCircle
 62
9
  6
CONTINUOUS
 10
355.6772450182
 20
134.4039779795
 40
4.7292108067
100
AcDbArc
 50
6.4798590439
 51
7.9165324289
  0
ARC
  5
4D2
100
AcDbEntity
  8
7_ALL_FEATURES
100
AcDbCircle
 62
9
  6
CONTINUOUS
 10
328.034895303
 20
134.4039784062
 40
4.7292075184
100
AcDbArc
 50
172.0834672409
 51
173.5204138404
  0
ARC
  5
4D3
100
AcDbEntity
  8
7_ALL_FEATURES
100
AcDbCircle
 62
7
  6
CONTINUOUS
 10
328.0741300036
 20
135.2844843173
 40
4.7180620101
100
AcDbArc
 50
180.0726939622
 51
191.8945685914
  0
ARC
  5
4D4
100
AcDbEntity
  8
7_ALL_FEATURES
100
AcDbCircle
 62
7
  6
CONTINUOUS
 10
327.972075407
 20
135.2784369285
 40
4.6160036165
100
AcDbArc
 50
177.8844635162
 51
179.9992384471
  0
ARC
  5
4D5
100
AcDbEntity
  8
7_ALL_FEATURES
100
AcDbCircle
 62
7
  6
CONTINUOUS
 10
355.7400681747
 20
135.2784369285
 40
4.6160036166
100
AcDbArc
 50
0.0007615529
 51
2.1155364833
  0
ARC
  5
4D6
100
AcDbEntity
  8
7_ALL_FEATURES
100
AcDbCircle
 62
7
  6
CONTINUOUS
 10
356.0064933252
 20
135.4517840877
 40
4.3995784664
100
AcDbArc
 50
357.7141733132
 51
359.9989487249
  0
ARC
  5
4D7
100
AcDbEntity
  8
7_ALL_FEATURES
100
AcDbCircle
 62
7
  6
CONTINUOUS
 10
327.7055996466
 20
135.4517841966
 40
4.3995278565
100
AcDbArc
 50
180.0010527055
 51
182.2858552571
  0
ARC
  5
4D8
100
AcDbEntity
  8
7_ALL_FEATURES
100
AcDbCircle
 62
7
  6
CONTINUOUS
 10
356.7709829169
 20
134.4008117495
 40
3.6357461926
100
AcDbArc
 50
7.9706084934
 51
9.0795648662
  0
ARC
  5
4D9
100
AcDbEntity
  8
7_ALL_FEATURES
100
AcDbCircle
 62
7
  6
CONTINUOUS
 10
326.9407917003
 20
134.4008871887
 40
3.635373768
100
AcDbArc
 50
170.9212031831
 51
172.0311355842
  0
ARC
  5
4DA
100
AcDbEntity
  8
02___PRT_ALL_AXES
100
AcDbCircle
 62
7
  6
CONTINUOUS
 10
310.4828362413
 20
135.8421901329
 40
2.6595092498
100
AcDbArc
 50
227.9252394782
 51
228.300353225
  0
ARC
  5
4DB
100
AcDbEntity
  8
02___PRT_ALL_AXES
100
AcDbCircle
 62
7
  6
CONTINUOUS
 10
315.2295469961
 20
135.8419235115
 40
2.6591507515
100
AcDbArc
 50
311.7075427211
 51
312.0747771893
  0
ARC
  5
4DC
100
AcDbEntity
  8
3_ALL_AXES
100
AcDbCircle
 62
7
  6
CONTINUOUS
 10
374.7329939783
 20
134.8375623816
 40
1.3736377539
100
AcDbArc
 50
9.9926748688
 51
13.6571644304
  0
ARC
  5
4DD
100
AcDbEntity
  8
3_ALL_AXES
100
AcDbCircle
 62
7
  6
CONTINUOUS
 10
316.7329939783
 20
134.8375623816
 40
1.3736377539
100
AcDbArc
 50
9.9926748688
 51
13.6571644304
  0
ARC
  5
4DE
100
AcDbEntity
  8
3_ALL_AXES
100
AcDbCircle
 62
7
  6
CONTINUOUS
 10
366.979148822
 20
134.8375625553
 40
1.3736369534
100
AcDbArc
 50
166.3428349128
 51
170.0075033836
  0
ARC
  5
4DF
100
AcDbEntity
  8
3_ALL_AXES
100
AcDbCircle
 62
7
  6
CONTINUOUS
 10
308.9791488219
 20
134.8375625553
 40
1.3736369534
100
AcDbArc
 50
166.3428349127
 51
170.0075033837
  0
SPLINE
  5
4E0
100
AcDbEntity
  8
7_ALL_FEATURES
100
AcDbSpline
 62
7
  6
CONTINUOUS
 70
0
 71
3
 72
9
 73
5
 74
0
 42
0.0000001
 43
0.0000001
 44
0.0000000001
 40
0.0
 40
0.0
 40
0.0
 40
0.0
 40
0.4915284383
 40
1.0
 40
1.0
 40
1.0
 40
1.0
 10
70.4456783599
 20
86.3963509369
 30
0.0
 10
70.5832138827
 20
86.3963509369
 30
0.0
 10
70.8558241971
 20
86.2420114549
 30
0.0
 10
71.0036760907
 20
86.006812364
 30
0.0
 10
71.0917855918
 20
85.8951016084
 30
0.0
  0
SPLINE
  5
4E1
100
AcDbEntity
  8
7_ALL_FEATURES
100
AcDbSpline
 62
7
  6
CONTINUOUS
 70
0
 71
3
 72
9
 73
5
 74
0
 42
0.0000001
 43
0.0000001
 44
0.0000000001
 40
0.0
 40
0.0
 40
0.0
 40
0.0
 40
0.5012533447
 40
1.0
 40
1.0
 40
1.0
 40
1.0
 10
69.9890370691
 20
85.9060828568
 30
0.0
 10
69.9890370691
 20
86.0290378778
 30
0.0
 10
70.0563434554
 20
86.2977518807
 30
0.0
 10
70.3233382177
 20
86.3963509369
 30
0.0
 10
70.4456783599
 20
86.3963509369
 30
0.0
  0
SPLINE
  5
4E2
100
AcDbEntity
  8
7_ALL_FEATURES
100
AcDbSpline
 62
7
  6
CONTINUOUS
 70
0
 71
3
 72
20
 73
16
 74
0
 42
0.0000001
 43
0.0000001
 44
0.0000000001
 40
0.0
 40
0.0
 40
0.0
 40
0.0
 40
0.1135375114
 40
0.2256844723
 40
0.2811578863
 40
0.3367106574
 40
0.3932190784
 40
0.4520058265
 40
0.4895000008
 40
0.5256835703
 40
0.5950772204
 40
0.6621623141
 40
0.7283850651
 40
0.8614355268
 40
1.0
 40
1.0
 40
1.0
 40
1.0
 10
70.9581191042
 20
85.68903244
 30
0.0
 10
70.9191512136
 20
85.658328475
 30
0.0
 10
70.8420297785
 20
85.5969118961
 30
0.0
 10
70.7399931721
 20
85.527801569
 30
0.0
 10
70.6527175326
 20
85.483942804
 30
0.0
 10
70.5839017465
 20
85.4584443617
 30
0.0
 10
70.5108433687
 20
85.4419541514
 30
0.0
 10
70.4439999283
 20
85.4369454975
 30
0.0
 10
70.3860941928
 20
85.4397999372
 30
0.0
 10
70.3242248952
 20
85.4494192627
 30
0.0
 10
70.2518212576
 20
85.472729806
 30
0.0
 10
70.1746452846
 20
85.5175252093
 30
0.0
 10
70.0875998601
 20
85.5958658042
 30
0.0
 10
70.0097254941
 20
85.7256983997
 30
0.0
 10
69.9890370691
 20
85.8455364156
 30
0.0
 10
69.9890370691
 20
85.9060828568
 30
0.0
  0
SPLINE
  5
4E3
100
AcDbEntity
  8
7_ALL_FEATURES
100
AcDbSpline
 62
7
  6
CONTINUOUS
 70
0
 71
3
 72
9
 73
5
 74
0
 42
0.0000001
 43
0.0000001
 44
0.0000000001
 40
0.0
 40
0.0
 40
0.0
 40
0.0
 40
0.2409264408
 40
1.0
 40
1.0
 40
1.0
 40
1.0
 10
72.7128070052
 20
84.9035841998
 30
0.0
 10
72.6160630629
 20
84.9035841998
 30
0.0
 10
72.2142799438
 20
85.0368366047
 30
0.0
 10
72.0007402534
 20
85.4160963174
 30
0.0
 10
71.8271614411
 20
85.6666496083
 30
0.0
  0
SPLINE
  5
4E4
100
AcDbEntity
  8
7_ALL_FEATURES
100
AcDbSpline
 62
7
  6
CONTINUOUS
 70
0
 71
3
 72
9
 73
5
 74
0
 42
0.0000001
 43
0.0000001
 44
0.0000000001
 40
0.0
 40
0.0
 40
0.0
 40
0.0
 40
0.5005139184
 40
1.0
 40
1.0
 40
1.0
 40
1.0
 10
73.487273997
 20
85.6833053774
 30
0.0
 10
73.487273997
 20
85.4866958662
 30
0.0
 10
73.3034393125
 20
85.0916385878
 30
0.0
 10
72.9090127664
 20
84.9035841998
 30
0.0
 10
72.7128070052
 20
84.9035841998
 30
0.0
  0
SPLINE
  5
4E5
100
AcDbEntity
  8
7_ALL_FEATURES
100
AcDbSpline
 62
7
  6
CONTINUOUS
 70
0
 71
3
 72
9
 73
5
 74
0
 42
0.0000001
 43
0.0000001
 44
0.0000000001
 40
0.0
 40
0.0
 40
0.0
 40
0.0
 40
0.7509172168
 40
1.0
 40
1.0
 40
1.0
 40
1.0
 10
72.9299099638
 20
86.6468705174
 30
0.0
 10
73.1309286814
 20
86.4460131311
 30
0.0
 10
73.4120111834
 20
86.1586216088
 30
0.0
 10
73.487273997
 20
85.7775656885
 30
0.0
 10
73.487273997
 20
85.6833053774
 30
0.0
  0
SPLINE
  5
4E6
100
AcDbEntity
  8
7_ALL_FEATURES
100
AcDbSpline
 62
7
  6
CONTINUOUS
 70
0
 71
3
 72
27
 73
23
 74
0
 42
0.0000001
 43
0.0000001
 44
0.0000000001
 40
0.0
 40
0.0
 40
0.0
 40
0.0
 40
0.0826592268
 40
0.1603008642
 40
0.1981468307
 40
0.2364637193
 40
0.2766202277
 40
0.2979198529
 40
0.3203149066
 40
0.3509540815
 40
0.3806626124
 40
0.4379687079
 40
0.493649494
 40
0.548741396
 40
0.6040186376
 40
0.6600763819
 40
0.7174352054
 40
0.7766463716
 40
0.8188766607
 40
0.8605980543
 40
0.9438647411
 40
1.0
 40
1.0
 40
1.0
 40
1.0
 10
71.6043839617
 20
85.148639427
 30
0.0
 10
71.6746333937
 20
85.0513837275
 30
0.0
 10
71.8140909842
 20
84.8650305891
 30
0.0
 10
72.018851669
 20
84.6597374036
 30
0.0
 10
72.2056534354
 20
84.5360095265
 30
0.0
 10
72.3602294808
 20
84.466152605
 30
0.0
 10
72.5013813576
 20
84.4303662674
 30
0.0
 10
72.6223129025
 20
84.4156745276
 30
0.0
 10
72.7302368154
 20
84.4116051992
 30
0.0
 10
72.8504046886
 20
84.4176367015
 30
0.0
 10
73.0194279401
 20
84.4436145415
 30
0.0
 10
73.2183910204
 20
84.5068042606
 30
0.0
 10
73.4319697613
 20
84.6281806119
 30
0.0
 10
73.6142789483
 20
84.7882916991
 30
0.0
 10
73.7619154131
 20
84.9813829701
 30
0.0
 10
73.8716229316
 20
85.2019230714
 30
0.0
 10
73.9397789153
 20
85.4444820931
 30
0.0
 10
73.9609458401
 20
85.6753802593
 30
0.0
 10
73.9464653873
 20
85.8833050748
 30
0.0
 10
73.8960669949
 20
86.1214072734
 30
0.0
 10
73.792863034
 20
86.3660728208
 30
0.0
 10
73.682377338
 20
86.5363559351
 30
0.0
 10
73.6337710446
 20
86.6018972785
 30
0.0
  0
SPLINE
  5
4E7
100
AcDbEntity
  8
7_ALL_FEATURES
100
AcDbSpline
 62
7
  6
CONTINUOUS
 70
0
 71
3
 72
8
 73
4
 74
0
 42
0.0000001
 43
0.0000001
 44
0.0000000001
 40
0.0
 40
0.0
 40
0.0
 40
0.0
 40
1.0
 40
1.0
 40
1.0
 40
1.0
 10
75.4771392558
 20
89.7197285602
 30
0.0
 10
75.4771392558
 20
89.6667784035
 30
0.0
 10
75.5070960372
 20
89.6062884572
 30
0.0
 10
75.5532198667
 20
89.5802824682
 30
0.0
  0
SPLINE
  5
4E8
100
AcDbEntity
  8
7_ALL_FEATURES
100
AcDbSpline
 62
7
  6
CONTINUOUS
 70
0
 71
3
 72
9
 73
5
 74
0
 42
0.0000001
 43
0.0000001
 44
0.0000000001
 40
0.0
 40
0.0
 40
0.0
 40
0.0
 40
0.5053411722
 40
1.0
 40
1.0
 40
1.0
 40
1.0
 10
75.6780593221
 20
89.8839744094
 30
0.0
 10
75.6292225566
 20
89.8839744094
 30
0.0
 10
75.5191510865
 20
89.8770844864
 30
0.0
 10
75.4771392558
 20
89.7675329713
 30
0.0
 10
75.4771392558
 20
89.7197285602
 30
0.0
  0
SPLINE
  5
4E9
100
AcDbEntity
  8
7_ALL_FEATURES
100
AcDbSpline
 62
7
  6
CONTINUOUS
 70
0
 71
3
 72
9
 73
5
 74
0
 42
0.0000001
 43
0.0000001
 44
0.0000000001
 40
0.0
 40
0.0
 40
0.0
 40
0.0
 40
0.4882113973
 40
1.0
 40
1.0
 40
1.0
 40
1.0
 10
75.5563723782
 20
89.6929322125
 30
0.0
 10
75.5563723782
 20
89.7238130925
 30
0.0
 10
75.5818865386
 20
89.798484991
 30
0.0
 10
75.6561954826
 20
89.7948634176
 30
0.0
 10
75.6885676938
 20
89.7948634176
 30
0.0
  0
SPLINE
  5
4EA
100
AcDbEntity
  8
7_ALL_FEATURES
100
AcDbSpline
 62
7
  6
CONTINUOUS
 70
0
 71
3
 72
10
 73
6
 74
0
 42
0.0000001
 43
0.0000001
 44
0.0000000001
 40
0.0
 40
0.0
 40
0.0
 40
0.0
 40
0.502118989
 40
0.7251106965
 40
1.0
 40
1.0
 40
1.0
 40
1.0
 10
75.7413197195
 20
89.5783909613
 30
0.0
 10
75.6996860716
 20
89.5783909613
 30
0.0
 10
75.6365086468
 20
89.5747276235
 30
0.0
 10
75.5639139457
 20
89.6254448104
 30
0.0
 10
75.5563723782
 20
89.6701395185
 30
0.0
 10
75.5563723782
 20
89.6929322125
 30
0.0
  0
SPLINE
  5
4EB
100
AcDbEntity
  8
7_ALL_FEATURES
100
AcDbSpline
 62
7
  6
CONTINUOUS
 70
0
 71
3
 72
9
 73
5
 74
0
 42
0.0000001
 43
0.0000001
 44
0.0000000001
 40
0.0
 40
0.0
 40
0.0
 40
0.0
 40
0.2500059247
 40
1.0
 40
1.0
 40
1.0
 40
1.0
 10
70.4959609183
 20
84.9480346119
 30
0.0
 10
70.5831470778
 20
84.9480346119
 30
0.0
 10
70.9333826122
 20
85.0039579819
 30
0.0
 10
71.225847308
 20
85.2297900298
 30
0.0
 10
71.4150231043
 20
85.4104029653
 30
0.0
  0
SPLINE
  5
4EC
100
AcDbEntity
  8
7_ALL_FEATURES
100
AcDbSpline
 62
7
  6
CONTINUOUS
 70
0
 71
3
 72
9
 73
5
 74
0
 42
0.0000001
 43
0.0000001
 44
0.0000000001
 40
0.0
 40
0.0
 40
0.0
 40
0.0
 40
0.4927604322
 40
1.0
 40
1.0
 40
1.0
 40
1.0
 10
76.2188201281
 20
88.6340035996
 30
0.0
 10
76.2188201281
 20
88.6993540249
 30
0.0
 10
76.164760156
 20
88.8513447502
 30
0.0
 10
76.0122426264
 20
88.8595132556
 30
0.0
 10
75.9449719624
 20
88.8595132556
 30
0.0
  0
SPLINE
  5
4ED
100
AcDbEntity
  8
7_ALL_FEATURES
100
AcDbSpline
 62
7
  6
CONTINUOUS
 70
0
 71
3
 72
9
 73
5
 74
0
 42
0.0000001
 43
0.0000001
 44
0.0000000001
 40
0.0
 40
0.0
 40
0.0
 40
0.0
 40
0.4966166013
 40
1.0
 40
1.0
 40
1.0
 40
1.0
 10
76.0094933645
 20
88.410595618
 30
0.0
 10
76.064959321
 20
88.4114454996
 30
0.0
 10
76.1851947523
 20
88.4561431795
 30
0.0
 10
76.2188201281
 20
88.5777752757
 30
0.0
 10
76.2188201281
 20
88.6340035996
 30
0.0
  0
SPLINE
  5
4EE
100
AcDbEntity
  8
7_ALL_FEATURES
100
AcDbSpline
 62
7
  6
CONTINUOUS
 70
0
 71
3
 72
9
 73
5
 74
0
 42
0.0000001
 43
0.0000001
 44
0.0000000001
 40
0.0
 40
0.0
 40
0.0
 40
0.0
 40
0.5039484269
 40
1.0
 40
1.0
 40
1.0
 40
1.0
 10
76.1397971731
 20
88.6381018646
 30
0.0
 10
76.1397971731
 20
88.6029748998
 30
0.0
 10
76.1202191904
 20
88.5263076596
 30
0.0
 10
76.044069891
 20
88.499601526
 30
0.0
 10
76.0094933645
 20
88.499601526
 30
0.0
  0
SPLINE
  5
4EF
100
AcDbEntity
  8
7_ALL_FEATURES
100
AcDbSpline
 62
7
  6
CONTINUOUS
 70
0
 71
3
 72
17
 73
13
 74
0
 42
0.0000001
 43
0.0000001
 44
0.0000000001
 40
0.0
 40
0.0
 40
0.0
 40
0.0
 40
0.1281677449
 40
0.2461327339
 40
0.3660286349
 40
0.4284999773
 40
0.4927031576
 40
0.5607602658
 40
0.6251843142
 40
0.7460608357
 40
0.8660071045
 40
1.0
 40
1.0
 40
1.0
 40
1.0
 10
70.4515105062
 20
86.8864613914
 30
0.0
 10
70.3255791694
 20
86.8864613914
 30
0.0
 10
70.0785716427
 20
86.8377906431
 30
0.0
 10
69.7870367251
 20
86.6079873139
 30
0.0
 10
69.6442657952
 20
86.3414034257
 30
0.0
 10
69.586556868
 20
86.1052924653
 30
0.0
 10
69.571913602
 20
85.9137032876
 30
0.0
 10
69.5867548796
 20
85.7201261256
 30
0.0
 10
69.6464641853
 20
85.4776048969
 30
0.0
 10
69.7985604665
 20
85.2087141203
 30
0.0
 10
70.1099765645
 20
84.9901115235
 30
0.0
 10
70.3643060745
 20
84.9480346119
 30
0.0
 10
70.4959609183
 20
84.9480346119
 30
0.0
  0
SPLINE
  5
4F0
100
AcDbEntity
  8
7_ALL_FEATURES
100
AcDbSpline
 62
7
  6
CONTINUOUS
 70
0
 71
3
 72
9
 73
5
 74
0
 42
0.0000001
 43
0.0000001
 44
0.0000000001
 40
0.0
 40
0.0
 40
0.0
 40
0.0
 40
0.510464774
 40
1.0
 40
1.0
 40
1.0
 40
1.0
 10
75.9697717196
 20
88.7705073476
 30
0.0
 10
76.0108423869
 20
88.7705073476
 30
0.0
 10
76.1028089487
 20
88.7688582824
 30
0.0
 10
76.1397971731
 20
88.677488595
 30
0.0
 10
76.1397971731
 20
88.6381018646
 30
0.0
  0
SPLINE
  5
4F1
100
AcDbEntity
  8
7_ALL_FEATURES
100
AcDbSpline
 62
7
  6
CONTINUOUS
 70
0
 71
3
 72
9
 73
5
 74
0
 42
0.0000001
 43
0.0000001
 44
0.0000000001
 40
0.0
 40
0.0
 40
0.0
 40
0.0
 40
0.5085075298
 40
1.0
 40
1.0
 40
1.0
 40
1.0
 10
71.4986697428
 20
86.1234485247
 30
0.0
 10
71.3655141163
 20
86.3057592225
 30
0.0
 10
71.1072965822
 20
86.66701654
 30
0.0
 10
70.6697164724
 20
86.8864613914
 30
0.0
 10
70.4515105062
 20
86.8864613914
 30
0.0
  0
SPLINE
  5
4F2
100
AcDbEntity
  8
7_ALL_FEATURES
100
AcDbSpline
 62
7
  6
CONTINUOUS
 70
0
 71
3
 72
8
 73
4
 74
0
 42
0.0000001
 43
0.0000001
 44
0.0000000001
 40
0.0
 40
0.0
 40
0.0
 40
0.0
 40
1.0
 40
1.0
 40
1.0
 40
1.0
 10
75.9697717196
 20
88.6114106005
 30
0.0
 10
75.9697717196
 20
88.671473603
 30
0.0
 10
75.9313330602
 20
88.7347739809
 30
0.0
 10
75.881711565
 20
88.7686158407
 30
0.0
  0
SPLINE
  5
4F3
100
AcDbEntity
  8
7_ALL_FEATURES
100
AcDbSpline
 62
7
  6
CONTINUOUS
 70
0
 71
3
 72
18
 73
14
 74
0
 42
0.0000001
 43
0.0000001
 44
0.0000000001
 40
0.0
 40
0.0
 40
0.0
 40
0.0
 40
0.1350100379
 40
0.2013423346
 40
0.2355719675
 40
0.2711190886
 40
0.3382237927
 40
0.4013776696
 40
0.5230950765
 40
0.6472872874
 40
0.7768753356
 40
0.9113154926
 40
1.0
 40
1.0
 40
1.0
 40
1.0
 10
75.5702434288
 20
88.7686158407
 30
0.0
 10
75.5431521593
 20
88.75129926
 30
0.0
 10
75.5068167518
 20
88.7164845152
 30
0.0
 10
75.4847508853
 20
88.6641916545
 30
0.0
 10
75.4783843654
 20
88.6323099908
 30
0.0
 10
75.476397282
 20
88.599697243
 30
0.0
 10
75.4806446761
 20
88.5600751978
 30
0.0
 10
75.5003499508
 20
88.5029038439
 30
0.0
 10
75.547738092
 20
88.4434141727
 30
0.0
 10
75.6279260234
 20
88.3995675139
 30
0.0
 10
75.7208669257
 20
88.3848693093
 30
0.0
 10
75.8051250546
 20
88.3977791457
 30
0.0
 10
75.8544423712
 20
88.419512655
 30
0.0
 10
75.8723560031
 20
88.4309210728
 30
0.0
  0
SPLINE
  5
4F4
100
AcDbEntity
  8
7_ALL_FEATURES
100
AcDbSpline
 62
7
  6
CONTINUOUS
 70
0
 71
3
 72
21
 73
17
 74
0
 42
0.0000001
 43
0.0000001
 44
0.0000000001
 40
0.0
 40
0.0
 40
0.0
 40
0.0
 40
0.132904548
 40
0.2483963039
 40
0.3045304646
 40
0.3631218191
 40
0.4273140346
 40
0.4624740996
 40
0.500089529
 40
0.5376505147
 40
0.572766758
 40
0.6369000875
 40
0.6954640554
 40
0.7515917782
 40
0.8670928402
 40
1.0
 40
1.0
 40
1.0
 40
1.0
 10
75.757082277
 20
82.5959457817
 30
0.0
 10
75.7862013173
 20
82.5959457817
 30
0.0
 10
75.8411218822
 20
82.6014411352
 30
0.0
 10
75.9029683126
 20
82.6318606586
 30
0.0
 10
75.93742695
 20
82.6694062853
 30
0.0
 10
75.9562355245
 20
82.704224936
 30
0.0
 10
75.9654064354
 20
82.737876086
 30
0.0
 10
75.9691649247
 20
82.7676768776
 30
0.0
 10
75.9700853272
 20
82.7918624329
 30
0.0
 10
75.969164968
 20
82.8160384097
 30
0.0
 10
75.9654054705
 20
82.8458044784
 30
0.0
 10
75.9562320884
 20
82.8794253935
 30
0.0
 10
75.9374228235
 20
82.9142201027
 30
0.0
 10
75.9029637606
 20
82.9517564504
 30
0.0
 10
75.8411256953
 20
82.9821894353
 30
0.0
 10
75.7862018895
 20
82.9876978775
 30
0.0
 10
75.757082277
 20
82.9876978775
 30
0.0
  0
SPLINE
  5
4F5
100
AcDbEntity
  8
7_ALL_FEATURES
100
AcDbSpline
 62
7
  6
CONTINUOUS
 70
0
 71
3
 72
21
 73
17
 74
0
 42
0.0000001
 43
0.0000001
 44
0.0000000001
 40
0.0
 40
0.0
 40
0.0
 40
0.0
 40
0.1327833847
 40
0.2504356012
 40
0.3056983919
 40
0.36239354
 40
0.425333033
 40
0.4608299577
 40
0.4997862723
 40
0.5388342666
 40
0.5744105639
 40
0.6374720704
 40
0.6942427883
 40
0.7495444137
 40
0.8672159598
 40
1.0
 40
1.0
 40
1.0
 40
1.0
 10
75.7469942402
 20
82.8985343439
 30
0.0
 10
75.7648341649
 20
82.8985343439
 30
0.0
 10
75.7985147091
 20
82.8967203425
 30
0.0
 10
75.8387198306
 20
82.8841686582
 30
0.0
 10
75.8632768797
 20
82.8648764449
 30
0.0
 10
75.8770236263
 20
82.8454013691
 30
0.0
 10
75.8837566254
 20
82.8253972933
 30
0.0
 10
75.8865235329
 20
82.807122281
 30
0.0
 10
75.8871971875
 20
82.7918620337
 30
0.0
 10
75.8865233535
 20
82.7765911814
 30
0.0
 10
75.8837572391
 20
82.7582763771
 30
0.0
 10
75.8770268803
 20
82.7382325365
 30
0.0
 10
75.8632820957
 20
82.7187170186
 30
0.0
 10
75.8387284046
 20
82.6993897883
 30
0.0
 10
75.7985177893
 20
82.6868173852
 30
0.0
 10
75.764834253
 20
82.6850042316
 30
0.0
 10
75.7469942402
 20
82.6850042316
 30
0.0
  0
SPLINE
  5
4F6
100
AcDbEntity
  8
7_ALL_FEATURES
100
AcDbSpline
 62
7
  6
CONTINUOUS
 70
0
 71
3
 72
17
 73
13
 74
0
 42
0.0000001
 43
0.0000001
 44
0.0000000001
 40
0.0
 40
0.0
 40
0.0
 40
0.0
 40
0.1629103694
 40
0.2935549822
 40
0.4168937173
 40
0.5399047389
 40
0.60400217
 40
0.6712141429
 40
0.7362158184
 40
0.7985885138
 40
0.919283909
 40
1.0
 40
1.0
 40
1.0
 40
1.0
 10
75.5078237011
 20
83.9606680101
 30
0.0
 10
75.4866771321
 20
83.9242009676
 30
0.0
 10
75.4694752881
 20
83.8459158479
 30
0.0
 10
75.4891049187
 20
83.737835442
 30
0.0
 10
75.5432300803
 20
83.6534561214
 30
0.0
 10
75.611768351
 20
83.6071871766
 30
0.0
 10
75.6751353016
 20
83.5881195735
 30
0.0
 10
75.7260338973
 20
83.5832280784
 30
0.0
 10
75.776491158
 20
83.5881501367
 30
0.0
 10
75.8381194213
 20
83.6074568583
 30
0.0
 10
75.8958200757
 20
83.6474932305
 30
0.0
 10
75.9272265588
 20
83.6899684503
 30
0.0
 10
75.9374811024
 20
83.7083131633
 30
0.0
  0
SPLINE
  5
4F7
100
AcDbEntity
  8
7_ALL_FEATURES
100
AcDbSpline
 62
7
  6
CONTINUOUS
 70
0
 71
3
 72
8
 73
4
 74
0
 42
0.0000001
 43
0.0000001
 44
0.0000000001
 40
0.0
 40
0.0
 40
0.0
 40
0.0
 40
1.0
 40
1.0
 40
1.0
 40
1.0
 10
75.9695615521
 20
83.8330438362
 30
0.0
 10
75.9695615521
 20
83.876781198
 30
0.0
 10
75.959659195
 20
83.9220706929
 30
0.0
 10
75.9390872743
 20
83.9606680101
 30
0.0
  0
SPLINE
  5
4F8
100
AcDbEntity
  8
7_ALL_FEATURES
100
AcDbSpline
 62
7
  6
CONTINUOUS
 70
0
 71
3
 72
15
 73
11
 74
0
 42
0.0000001
 43
0.0000001
 44
0.0000000001
 40
0.0
 40
0.0
 40
0.0
 40
0.0
 40
0.1802531275
 40
0.2687906927
 40
0.3612765641
 40
0.4461771889
 40
0.5264460684
 40
0.6791612605
 40
0.8331109072
 40
1.0
 40
1.0
 40
1.0
 40
1.0
 10
75.8255968603
 20
83.9606680101
 30
0.0
 10
75.8434651338
 20
83.9445815447
 30
0.0
 10
75.8671039945
 20
83.9161495678
 30
0.0
 10
75.8840373148
 20
83.8705834037
 30
0.0
 10
75.8879533471
 20
83.8349935115
 30
0.0
 10
75.8847507584
 20
83.800570359
 30
0.0
 10
75.8728290942
 20
83.7596459163
 30
0.0
 10
75.8432251051
 20
83.7153871319
 30
0.0
 10
75.7882449809
 20
83.6809675697
 30
0.0
 10
75.7448749474
 20
83.6737894636
 30
0.0
 10
75.722614818
 20
83.6737894636
 30
0.0
  0
SPLINE
  5
4F9
100
AcDbEntity
  8
7_ALL_FEATURES
100
AcDbSpline
 62
7
  6
CONTINUOUS
 70
0
 71
3
 72
9
 73
5
 74
0
 42
0.0000001
 43
0.0000001
 44
0.0000000001
 40
0.0
 40
0.0
 40
0.0
 40
0.0
 40
0.5023468762
 40
1.0
 40
1.0
 40
1.0
 40
1.0
 10
75.722614818
 20
83.6737894636
 30
0.0
 10
75.6821114846
 20
83.6737894636
 30
0.0
 10
75.5984744412
 20
83.7052287304
 30
0.0
 10
75.5603655594
 20
83.7880851008
 30
0.0
 10
75.5603655594
 20
83.8282099852
 30
0.0
  0
SPLINE
  5
4FA
100
AcDbEntity
  8
7_ALL_FEATURES
100
AcDbSpline
 62
7
  6
CONTINUOUS
 70
0
 71
3
 72
8
 73
4
 74
0
 42
0.0000001
 43
0.0000001
 44
0.0000000001
 40
0.0
 40
0.0
 40
0.0
 40
0.0
 40
1.0
 40
1.0
 40
1.0
 40
1.0
 10
75.5603655594
 20
83.8282099852
 30
0.0
 10
75.5603655594
 20
83.8769897143
 30
0.0
 10
75.585876414
 20
83.928532874
 30
0.0
 10
75.6225751197
 20
83.9606680101
 30
0.0
  0
SPLINE
  5
4FB
100
AcDbEntity
  8
7_ALL_FEATURES
100
AcDbSpline
 62
7
  6
CONTINUOUS
 70
0
 71
3
 72
21
 73
17
 74
0
 42
0.0000001
 43
0.0000001
 44
0.0000000001
 40
0.0
 40
0.0
 40
0.0
 40
0.0
 40
0.1300654079
 40
0.24745904
 40
0.3043447126
 40
0.3625445693
 40
0.4247851174
 40
0.4583786656
 40
0.4940661327
 40
0.5303225841
 40
0.5645956416
 40
0.6283774869
 40
0.68813088
 40
0.7464207923
 40
0.866310526
 40
1.0
 40
1.0
 40
1.0
 40
1.0
 10
75.7236656551
 20
84.977300427
 30
0.0
 10
75.6911998488
 20
84.977300427
 30
0.0
 10
75.6289518024
 20
84.9701696281
 30
0.0
 10
75.5586053668
 20
84.936249189
 30
0.0
 10
75.5173335556
 20
84.8947226137
 30
0.0
 10
75.494261587
 20
84.8564473299
 30
0.0
 10
75.4826703779
 20
84.819413295
 30
0.0
 10
75.4779138369
 20
84.7868867189
 30
0.0
 10
75.4767419723
 20
84.760527896
 30
0.0
 10
75.4779083851
 20
84.7340014045
 30
0.0
 10
75.4825920002
 20
84.7007639081
 30
0.0
 10
75.4940383074
 20
84.6627197792
 30
0.0
 10
75.5168896227
 20
84.6230298633
 30
0.0
 10
75.5580227099
 20
84.5794764551
 30
0.0
 10
75.6293558129
 20
84.5429754565
 30
0.0
 10
75.6932375847
 20
84.5352657728
 30
0.0
 10
75.7266079992
 20
84.5352657728
 30
0.0
  0
SPLINE
  5
4FC
100
AcDbEntity
  8
7_ALL_FEATURES
100
AcDbSpline
 62
7
  6
CONTINUOUS
 70
0
 71
3
 72
16
 73
12
 74
0
 42
0.0000001
 43
0.0000001
 44
0.0000000001
 40
0.0
 40
0.0
 40
0.0
 40
0.0
 40
0.1532117584
 40
0.2946326874
 40
0.4342272882
 40
0.5085039738
 40
0.5885790341
 40
0.6413335586
 40
0.6931274681
 40
0.7949137648
 40
1.0
 40
1.0
 40
1.0
 40
1.0
 10
75.7266079992
 20
84.5352657728
 30
0.0
 10
75.7588777549
 20
84.5352657728
 30
0.0
 10
75.8216058157
 20
84.5445997675
 30
0.0
 10
75.9033137465
 20
84.5906906623
 30
0.0
 10
75.9486121953
 20
84.6535348794
 30
0.0
 10
75.966791987
 20
84.7131221328
 30
0.0
 10
75.9708190313
 20
84.7568691486
 30
0.0
 10
75.9683716063
 20
84.7957689695
 30
0.0
 10
75.959905762
 20
84.8385244158
 30
0.0
 10
75.9309453119
 20
84.9090857935
 30
0.0
 10
75.8811959647
 20
84.9566597195
 30
0.0
 10
75.8432509247
 20
84.977300427
 30
0.0
  0
SPLINE
  5
4FD
100
AcDbEntity
  8
7_ALL_FEATURES
100
AcDbSpline
 62
7
  6
CONTINUOUS
 70
0
 71
3
 72
9
 73
5
 74
0
 42
0.0000001
 43
0.0000001
 44
0.0000000001
 40
0.0
 40
0.0
 40
0.0
 40
0.0
 40
0.7307894739
 40
1.0
 40
1.0
 40
1.0
 40
1.0
 10
75.8003767683
 20
84.9019554022
 30
0.0
 10
75.8360696836
 20
84.8804723079
 30
0.0
 10
75.8846724475
 20
84.8373068647
 30
0.0
 10
75.8905385972
 20
84.7790644023
 30
0.0
 10
75.8905385972
 20
84.7637177729
 30
0.0
  0
SPLINE
  5
4FE
100
AcDbEntity
  8
7_ALL_FEATURES
100
AcDbSpline
 62
7
  6
CONTINUOUS
 70
0
 71
3
 72
9
 73
5
 74
0
 42
0.0000001
 43
0.0000001
 44
0.0000000001
 40
0.0
 40
0.0
 40
0.0
 40
0.0
 40
0.4972493191
 40
1.0
 40
1.0
 40
1.0
 40
1.0
 10
75.8905385972
 20
84.7637177729
 30
0.0
 10
75.8905385972
 20
84.7265013194
 30
0.0
 10
75.853751783
 20
84.6486880184
 30
0.0
 10
75.7749520447
 20
84.6247219861
 30
0.0
 10
75.7373265383
 20
84.6242716809
 30
0.0
  0
SPLINE
  5
4FF
100
AcDbEntity
  8
7_ALL_FEATURES
100
AcDbSpline
 62
7
  6
CONTINUOUS
 70
0
 71
3
 72
17
 73
13
 74
0
 42
0.0000001
 43
0.0000001
 44
0.0000000001
 40
0.0
 40
0.0
 40
0.0
 40
0.0
 40
0.1280676306
 40
0.2505328491
 40
0.3725330656
 40
0.4358980115
 40
0.5022639314
 40
0.5696811137
 40
0.6324293338
 40
0.7503050664
 40
0.869595042
 40
1.0
 40
1.0
 40
1.0
 40
1.0
 10
75.6700729596
 20
84.6291055318
 30
0.0
 10
75.654116604
 20
84.6317775882
 30
0.0
 10
75.6234357547
 20
84.641897109
 30
0.0
 10
75.5853984554
 20
84.6711289026
 30
0.0
 10
75.5645042823
 20
84.7050707025
 30
0.0
 10
75.555907574
 20
84.7358549553
 30
0.0
 10
75.5537760153
 20
84.7608032545
 30
0.0
 10
75.5557909579
 20
84.7856742479
 30
0.0
 10
75.5638241132
 20
84.8161139521
 30
0.0
 10
75.5842671032
 20
84.8493283491
 30
0.0
 10
75.6229790197
 20
84.8768009357
 30
0.0
 10
75.6538011409
 20
84.8857226814
 30
0.0
 10
75.6700729596
 20
84.888294519
 30
0.0
  0
SPLINE
  5
500
100
AcDbEntity
  8
7_ALL_FEATURES
100
AcDbSpline
 62
7
  6
CONTINUOUS
 70
0
 71
3
 72
8
 73
4
 74
0
 42
0.0000001
 43
0.0000001
 44
0.0000000001
 40
0.0
 40
0.0
 40
0.0
 40
0.0
 40
1.0
 40
1.0
 40
1.0
 40
1.0
 10
75.7877667223
 20
85.9551044106
 30
0.0
 10
75.8342283522
 20
85.9084851055
 30
0.0
 10
75.886545416
 20
85.8499514584
 30
0.0
 10
75.886545416
 20
85.7841332036
 30
0.0
  0
SPLINE
  5
501
100
AcDbEntity
  8
7_ALL_FEATURES
100
AcDbSpline
 62
7
  6
CONTINUOUS
 70
0
 71
3
 72
8
 73
4
 74
0
 42
0.0000001
 43
0.0000001
 44
0.0000000001
 40
0.0
 40
0.0
 40
0.0
 40
0.0
 40
1.0
 40
1.0
 40
1.0
 40
1.0
 10
75.886545416
 20
85.7841332036
 30
0.0
 10
75.886545416
 20
85.7191893507
 30
0.0
 10
75.8144601023
 20
85.645632865
 30
0.0
 10
75.7495162494
 20
85.645632865
 30
0.0
  0
SPLINE
  5
502
100
AcDbEntity
  8
7_ALL_FEATURES
100
AcDbSpline
 62
7
  6
CONTINUOUS
 70
0
 71
3
 72
8
 73
4
 74
0
 42
0.0000001
 43
0.0000001
 44
0.0000000001
 40
0.0
 40
0.0
 40
0.0
 40
0.0
 40
1.0
 40
1.0
 40
1.0
 40
1.0
 10
75.7495162494
 20
85.645632865
 30
0.0
 10
75.6802926973
 20
85.645632865
 30
0.0
 10
75.6313849392
 20
85.7240887595
 30
0.0
 10
75.5921008419
 20
85.7810857758
 30
0.0
  0
SPLINE
  5
503
100
AcDbEntity
  8
7_ALL_FEATURES
100
AcDbSpline
 62
7
  6
CONTINUOUS
 70
0
 71
3
 72
13
 73
9
 74
0
 42
0.0000001
 43
0.0000001
 44
0.0000000001
 40
0.0
 40
0.0
 40
0.0
 40
0.0
 40
0.2266930293
 40
0.3384900135
 40
0.4545322516
 40
0.5979807664
 40
0.7311494495
 40
1.0
 40
1.0
 40
1.0
 40
1.0
 10
75.4376277784
 20
85.785078957
 30
0.0
 10
75.4239091906
 20
85.7742925865
 30
0.0
 10
75.4034935024
 20
85.757765648
 30
0.0
 10
75.3712890177
 20
85.7432978196
 30
0.0
 10
75.3426671755
 20
85.7389033473
 30
0.0
 10
75.3120490167
 20
85.7448555166
 30
0.0
 10
75.2771781481
 20
85.770216739
 30
0.0
 10
75.2659209853
 20
85.8030006321
 30
0.0
 10
75.2659209853
 20
85.8236972229
 30
0.0
  0
SPLINE
  5
504
100
AcDbEntity
  8
7_ALL_FEATURES
100
AcDbSpline
 62
7
  6
CONTINUOUS
 70
0
 71
3
 72
9
 73
5
 74
0
 42
0.0000001
 43
0.0000001
 44
0.0000000001
 40
0.0
 40
0.0
 40
0.0
 40
0.0
 40
0.5015303471
 40
1.0
 40
1.0
 40
1.0
 40
1.0
 10
75.2659209853
 20
85.8236972229
 30
0.0
 10
75.2659209853
 20
85.8455116425
 30
0.0
 10
75.2777886334
 20
85.8931899845
 30
0.0
 10
75.3251541546
 20
85.9106539984
 30
0.0
 10
75.3468354472
 20
85.9106539984
 30
0.0
  0
SPLINE
  5
505
100
AcDbEntity
  8
7_ALL_FEATURES
100
AcDbSpline
 62
7
  6
CONTINUOUS
 70
0
 71
3
 72
8
 73
4
 74
0
 42
0.0000001
 43
0.0000001
 44
0.0000000001
 40
0.0
 40
0.0
 40
0.0
 40
0.0
 40
1.0
 40
1.0
 40
1.0
 40
1.0
 10
75.3468354472
 20
85.9106539984
 30
0.0
 10
75.3951880294
 20
85.9106539984
 30
0.0
 10
75.4314307932
 20
85.8596114277
 30
0.0
 10
75.4613766983
 20
85.8216480904
 30
0.0
  0
SPLINE
  5
506
100
AcDbEntity
  8
7_ALL_FEATURES
100
AcDbSpline
 62
7
  6
CONTINUOUS
 70
0
 71
3
 72
8
 73
4
 74
0
 42
0.0000001
 43
0.0000001
 44
0.0000000001
 40
0.0
 40
0.0
 40
0.0
 40
0.0
 40
1.0
 40
1.0
 40
1.0
 40
1.0
 10
75.5336742954
 20
85.8622104051
 30
0.0
 10
75.4882726913
 20
85.924064884
 30
0.0
 10
75.424404744
 20
85.9978209414
 30
0.0
 10
75.3476761169
 20
85.9978209414
 30
0.0
  0
SPLINE
  5
507
100
AcDbEntity
  8
7_ALL_FEATURES
100
AcDbSpline
 62
7
  6
CONTINUOUS
 70
0
 71
3
 72
15
 73
11
 74
0
 42
0.0000001
 43
0.0000001
 44
0.0000000001
 40
0.0
 40
0.0
 40
0.0
 40
0.0
 40
0.2428967155
 40
0.3642248532
 40
0.4274217221
 40
0.4923642673
 40
0.5612500752
 40
0.6264272867
 40
0.7486967744
 40
1.0
 40
1.0
 40
1.0
 40
1.0
 10
75.3476761169
 20
85.9978209414
 30
0.0
 10
75.305770801
 20
85.9978209414
 30
0.0
 10
75.2388977295
 20
85.9679356046
 30
0.0
 10
75.2042499083
 20
85.9010141722
 30
0.0
 10
75.1938549311
 20
85.8591092297
 30
0.0
 10
75.1912726161
 20
85.825067147
 30
0.0
 10
75.1938924215
 20
85.7906695769
 30
0.0
 10
75.2046024675
 20
85.7476296228
 30
0.0
 10
75.2423289764
 20
85.6794193689
 30
0.0
 10
75.3123068456
 20
85.6536717693
 30
0.0
 10
75.3556624794
 20
85.6536717693
 30
0.0
  0
SPLINE
  5
508
100
AcDbEntity
  8
7_ALL_FEATURES
100
AcDbSpline
 62
7
  6
CONTINUOUS
 70
0
 71
3
 72
8
 73
4
 74
0
 42
0.0000001
 43
0.0000001
 44
0.0000000001
 40
0.0
 40
0.0
 40
0.0
 40
0.0
 40
1.0
 40
1.0
 40
1.0
 40
1.0
 10
75.3556624794
 20
85.6536717693
 30
0.0
 10
75.4164974332
 20
85.6536717693
 30
0.0
 10
75.4746315153
 20
85.6937008964
 30
0.0
 10
75.5187524076
 20
85.7355845265
 30
0.0
  0
SPLINE
  5
509
100
AcDbEntity
  8
7_ALL_FEATURES
100
AcDbSpline
 62
7
  6
CONTINUOUS
 70
0
 71
3
 72
21
 73
17
 74
0
 42
0.0000001
 43
0.0000001
 44
0.0000000001
 40
0.0
 40
0.0
 40
0.0
 40
0.0
 40
0.0837356597
 40
0.162291479
 40
0.2391436514
 40
0.279844181
 40
0.3241372443
 40
0.3851325473
 40
0.4431056362
 40
0.5545534451
 40
0.6666572162
 40
0.7247034135
 40
0.784641532
 40
0.8693171981
 40
0.9535471067
 40
1.0
 40
1.0
 40
1.0
 40
1.0
 10
75.552379197
 20
85.6891900656
 30
0.0
 10
75.564856586
 20
85.6718999693
 30
0.0
 10
75.5896500142
 20
85.6387934723
 30
0.0
 10
75.6328614788
 20
85.5953171979
 30
0.0
 10
75.677214555
 20
85.5703750795
 30
0.0
 10
75.7173877844
 20
85.5602851963
 30
0.0
 10
75.7546097281
 20
85.5575387943
 30
0.0
 10
75.7962851869
 20
85.5616791559
 30
0.0
 10
75.8525755381
 20
85.5794944501
 30
0.0
 10
75.9127138595
 20
85.6223475131
 30
0.0
 10
75.9511957198
 20
85.6850716193
 30
0.0
 10
75.9670398116
 20
85.7417485868
 30
0.0
 10
75.9718388273
 20
85.7934221066
 30
0.0
 10
75.9636123251
 20
85.8518959806
 30
0.0
 10
75.9421016781
 20
85.9028091939
 30
0.0
 10
75.9242354122
 20
85.9311370876
 30
0.0
 10
75.9173634325
 20
85.9408540956
 30
0.0
  0
SPLINE
  5
50A
100
AcDbEntity
  8
7_ALL_FEATURES
100
AcDbSpline
 62
7
  6
CONTINUOUS
 70
0
 71
3
 72
16
 73
12
 74
0
 42
0.0000001
 43
0.0000001
 44
0.0000000001
 40
0.0
 40
0.0
 40
0.0
 40
0.0
 40
0.1252425561
 40
0.2467589013
 40
0.3691331737
 40
0.4966206149
 40
0.6212710027
 40
0.7409953576
 40
0.8611260843
 40
0.9861350283
 40
1.0
 40
1.0
 40
1.0
 40
1.0
 10
75.2171621408
 20
87.7252396179
 30
0.0
 10
75.2171592319
 20
87.717084861
 30
0.0
 10
75.220477631
 20
87.7010167346
 30
0.0
 10
75.2342984438
 20
87.6808197858
 30
0.0
 10
75.2547991817
 20
87.6671954578
 30
0.0
 10
75.2791819432
 20
87.6623398259
 30
0.0
 10
75.303421315
 20
87.6671684099
 30
0.0
 10
75.3233341014
 20
87.6809156381
 30
0.0
 10
75.3365974432
 20
87.7011356108
 30
0.0
 10
75.3398675819
 20
87.7180023279
 30
0.0
 10
75.3396696898
 20
87.7270452991
 30
0.0
 10
75.3396305762
 20
87.727947284
 30
0.0
  0
SPLINE
  5
50B
100
AcDbEntity
  8
7_ALL_FEATURES
100
AcDbSpline
 62
7
  6
CONTINUOUS
 70
0
 71
3
 72
18
 73
14
 74
0
 42
0.0000001
 43
0.0000001
 44
0.0000000001
 40
0.0
 40
0.0
 40
0.0
 40
0.0
 40
0.0668378092
 40
0.1288082976
 40
0.2469961961
 40
0.3681356933
 40
0.4951635073
 40
0.6211790434
 40
0.7417123965
 40
0.8594546134
 40
0.9207534718
 40
0.9863171374
 40
1.0
 40
1.0
 40
1.0
 40
1.0
 10
75.8905385972
 20
88.6249664
 30
0.0
 10
75.8905010331
 20
88.6137832435
 30
0.0
 10
75.8883051742
 20
88.5922264365
 30
0.0
 10
75.8745191407
 20
88.5529936684
 30
0.0
 10
75.8412342623
 20
88.5129197188
 30
0.0
 10
75.7854846604
 20
88.4848222006
 30
0.0
 10
75.7227892969
 20
88.475492519
 30
0.0
 10
75.6601669702
 20
88.4850570694
 30
0.0
 10
75.6051636518
 20
88.5138825564
 30
0.0
 10
75.572427196
 20
88.5539136318
 30
0.0
 10
75.5588024148
 20
88.5927680198
 30
0.0
 10
75.5563952074
 20
88.6162871031
 30
0.0
 10
75.5566097824
 20
88.6295446626
 30
0.0
 10
75.5566942425
 20
88.6318316047
 30
0.0
  0
SPLINE
  5
50C
100
AcDbEntity
  8
7_ALL_FEATURES
100
AcDbSpline
 62
7
  6
CONTINUOUS
 70
0
 71
3
 72
9
 73
5
 74
0
 42
0.0000001
 43
0.0000001
 44
0.0000000001
 40
0.0
 40
0.0
 40
0.0
 40
0.0
 40
0.2491323432
 40
1.0
 40
1.0
 40
1.0
 40
1.0
 10
73.6337710446
 20
86.6018972785
 30
0.0
 10
73.609467898
 20
86.6346679502
 30
0.0
 10
73.5077872023
 20
86.7631672699
 30
0.0
 10
73.3913846003
 20
86.8792499926
 30
0.0
 10
73.2979131396
 20
86.9588640722
 30
0.0
  0
SPLINE
  5
50D
100
AcDbEntity
  8
7_ALL_FEATURES
100
AcDbSpline
 62
7
  6
CONTINUOUS
 70
0
 71
3
 72
9
 73
5
 74
0
 42
0.0000001
 43
0.0000001
 44
0.0000000001
 40
0.0
 40
0.0
 40
0.0
 40
0.0
 40
0.1306269467
 40
1.0
 40
1.0
 40
1.0
 40
1.0
 10
75.8723560031
 20
88.4309210728
 30
0.0
 10
75.8800332739
 20
88.4358103947
 30
0.0
 10
75.9364318116
 20
88.4771350432
 30
0.0
 10
75.9697717196
 20
88.5511689649
 30
0.0
 10
75.9697717196
 20
88.6114106005
 30
0.0
  0
SPLINE
  5
50E
100
AcDbEntity
  8
7_ALL_FEATURES
100
AcDbSpline
 62
7
  6
CONTINUOUS
 70
0
 71
3
 72
9
 73
5
 74
0
 42
0.0000001
 43
0.0000001
 44
0.0000000001
 40
0.0
 40
0.0
 40
0.0
 40
0.0
 40
0.2421437603
 40
1.0
 40
1.0
 40
1.0
 40
1.0
 10
75.9374811024
 20
83.7083131633
 30
0.0
 10
75.9426083743
 20
83.7174855198
 30
0.0
 10
75.9613755463
 20
83.7567309066
 30
0.0
 10
75.9695615521
 20
83.8003593685
 30
0.0
 10
75.9695615521
 20
83.8330438362
 30
0.0
  0
SPLINE
  5
50F
100
AcDbEntity
  8
7_ALL_FEATURES
100
AcDbSpline
 62
7
  6
CONTINUOUS
 70
0
 71
3
 72
8
 73
4
 74
0
 42
0.0000001
 43
0.0000001
 44
0.0000000001
 40
0.0
 40
0.0
 40
0.0
 40
0.0
 40
1.0
 40
1.0
 40
1.0
 40
1.0
 10
75.9173634325
 20
85.9408540956
 30
0.0
 10
75.8990381533
 20
85.966766117
 30
0.0
 10
75.877006675
 20
85.9901714119
 30
0.0
 10
75.8529186266
 20
86.0105360711
 30
0.0
  0
SPLINE
  5
510
100
AcDbEntity
  8
7_ALL_FEATURES
100
AcDbSpline
 62
7
  6
CONTINUOUS
 70
0
 71
3
 72
15
 73
11
 74
0
 42
0.0000001
 43
0.0000001
 44
0.0000000001
 40
0.0
 40
0.0
 40
0.0
 40
0.0
 40
0.1141106906
 40
0.2377191378
 40
0.3609616822
 40
0.4892136522
 40
0.620383943
 40
0.746351036
 40
0.871384697
 40
1.0
 40
1.0
 40
1.0
 40
1.0
 10
75.3396305762
 20
87.727947284
 30
0.0
 10
75.3393176679
 20
87.7351631637
 30
0.0
 10
75.3360850944
 20
87.7500818917
 30
0.0
 10
75.3233290515
 20
87.7695228885
 30
0.0
 10
75.3034280196
 20
87.783295444
 30
0.0
 10
75.2791819769
 20
87.7881468672
 30
0.0
 10
75.2547925784
 20
87.7832684567
 30
0.0
 10
75.2343033745
 20
87.7696186424
 30
0.0
 10
75.220486235
 20
87.7494322637
 30
0.0
 10
75.2171650445
 20
87.7333798048
 30
0.0
 10
75.2171621408
 20
87.7252396179
 30
0.0
  0
SPLINE
  5
511
100
AcDbEntity
  8
7_ALL_FEATURES
100
AcDbSpline
 62
7
  6
CONTINUOUS
 70
0
 71
3
 72
17
 73
13
 74
0
 42
0.0000001
 43
0.0000001
 44
0.0000000001
 40
0.0
 40
0.0
 40
0.0
 40
0.0
 40
0.0552928903
 40
0.1190307556
 40
0.2388446404
 40
0.3607162024
 40
0.4913988893
 40
0.6231604286
 40
0.7459155837
 40
0.8662290585
 40
0.9303231461
 40
1.0
 40
1.0
 40
1.0
 40
1.0
 10
75.5566942425
 20
88.6318316047
 30
0.0
 10
75.5570320828
 20
88.6409793731
 30
0.0
 10
75.559392378
 20
88.660598547
 30
0.0
 10
75.5715098635
 20
88.6984433998
 30
0.0
 10
75.6033047026
 20
88.7399527933
 30
0.0
 10
75.6589795874
 20
88.7695124238
 30
0.0
 10
75.7227997248
 20
88.778656715
 30
0.0
 10
75.7867325516
 20
88.7695918078
 30
0.0
 10
75.8430566801
 20
88.7404222243
 30
0.0
 10
75.8753407741
 20
88.6988708034
 30
0.0
 10
75.8883992767
 20
88.658656017
 30
0.0
 10
75.8905773592
 20
88.6365062029
 30
0.0
 10
75.8905385972
 20
88.6249664
 30
0.0
  0
SPLINE
  5
512
100
AcDbEntity
  8
02___PRT_ALL_AXES
100
AcDbSpline
 62
7
  6
CONTINUOUS
 70
0
 71
3
 72
19
 73
15
 74
0
 42
0.0000001
 43
0.0000001
 44
0.0000000001
 40
0.0
 40
0.0
 40
0.0
 40
0.0
 40
0.062499569
 40
0.1250450196
 40
0.1876243679
 40
0.2502137548
 40
0.3750836247
 40
0.5000591496
 40
0.6250261711
 40
0.7498800617
 40
0.8124624827
 40
0.8750225901
 40
0.9375286272
 40
1.0
 40
1.0
 40
1.0
 40
1.0
 10
112.1361309203
 20
197.4069148936
 30
0.0
 10
112.1361309203
 20
197.3508412819
 30
0.0
 10
112.1556400353
 20
197.237852188
 30
0.0
 10
112.2354240054
 20
197.0871298047
 30
0.0
 10
112.3504834599
 20
196.9620800959
 30
0.0
 10
112.5339271596
 20
196.8309142298
 30
0.0
 10
112.799327097
 20
196.7277834786
 30
0.0
 10
113.1362848081
 20
196.688527056
 30
0.0
 10
113.4732166412
 20
196.7278647681
 30
0.0
 10
113.7385708279
 20
196.8310330859
 30
0.0
 10
113.9219524551
 20
196.9622242422
 30
0.0
 10
114.0369232252
 20
197.0872742713
 30
0.0
 10
114.1166410009
 20
197.2379383747
 30
0.0
 10
114.1361309203
 20
197.350866579
 30
0.0
 10
114.1361309203
 20
197.4069148936
 30
0.0
  0
SPLINE
  5
513
100
AcDbEntity
  8
02___PRT_ALL_AXES
100
AcDbSpline
 62
7
  6
CONTINUOUS
 70
0
 71
3
 72
11
 73
7
 74
0
 42
0.0000001
 43
0.0000001
 44
0.0000000001
 40
0.0
 40
0.0
 40
0.0
 40
0.0
 40
0.2500103617
 40
0.5000189242
 40
0.7500124732
 40
1.0
 40
1.0
 40
1.0
 40
1.0
 10
109.1361309203
 20
198.9069148936
 30
0.0
 10
109.372803598
 20
198.7885785548
 30
0.0
 10
109.8525711104
 20
198.5643938193
 30
0.0
 10
110.5928618275
 20
198.2759568213
 30
0.0
 10
111.3540790971
 20
198.0476064182
 30
0.0
 10
111.8742061931
 20
197.9443327118
 30
0.0
 10
112.1361309203
 20
197.9069148936
 30
0.0
  0
SPLINE
  5
514
100
AcDbEntity
  8
02___PRT_ALL_AXES
100
AcDbSpline
 62
7
  6
CONTINUOUS
 70
0
 71
3
 72
11
 73
7
 74
0
 42
0.0000001
 43
0.0000001
 44
0.0000000001
 40
0.0
 40
0.0
 40
0.0
 40
0.0
 40
0.2699449571
 40
0.5270499909
 40
0.7701654741
 40
1.0
 40
1.0
 40
1.0
 40
1.0
 10
117.1361309203
 20
198.9069148936
 30
0.0
 10
117.2519568852
 20
198.7910889287
 30
0.0
 10
117.4854914998
 20
198.5720886173
 30
0.0
 10
117.8540021012
 20
198.2833299717
 30
0.0
 10
118.2340028718
 20
198.0531429715
 30
0.0
 10
118.502033297
 20
197.9452285003
 30
0.0
 10
118.6361309203
 20
197.9069148936
 30
0.0
  0
SPLINE
  5
515
100
AcDbEntity
  8
02___PRT_ALL_AXES
100
AcDbSpline
 62
7
  6
CONTINUOUS
 70
0
 71
3
 72
11
 73
7
 74
0
 42
0.0000001
 43
0.0000001
 44
0.0000000001
 40
0.0
 40
0.0
 40
0.0
 40
0.0
 40
0.2298345438
 40
0.4729500311
 40
0.7300550521
 40
1.0
 40
1.0
 40
1.0
 40
1.0
 10
119.6361309203
 20
197.9069148936
 30
0.0
 10
119.7702285539
 20
197.9452285032
 30
0.0
 10
120.0382589911
 20
198.0531429814
 30
0.0
 10
120.4182597627
 20
198.2833299905
 30
0.0
 10
120.7867703531
 20
198.5720886318
 30
0.0
 10
121.0203049593
 20
198.7910889327
 30
0.0
 10
121.1361309203
 20
198.9069148936
 30
0.0
  0
SPLINE
  5
516
100
AcDbEntity
  8
02___PRT_ALL_AXES
100
AcDbSpline
 62
7
  6
CONTINUOUS
 70
0
 71
3
 72
11
 73
7
 74
0
 42
0.0000001
 43
0.0000001
 44
0.0000000001
 40
0.0
 40
0.0
 40
0.0
 40
0.0
 40
0.2699449571
 40
0.5270499909
 40
0.7701654741
 40
1.0
 40
1.0
 40
1.0
 40
1.0
 10
105.1361309203
 20
198.9069148936
 30
0.0
 10
105.2519568852
 20
198.7910889287
 30
0.0
 10
105.4854914998
 20
198.5720886173
 30
0.0
 10
105.8540021012
 20
198.2833299717
 30
0.0
 10
106.2340028718
 20
198.0531429715
 30
0.0
 10
106.502033297
 20
197.9452285003
 30
0.0
 10
106.6361309203
 20
197.9069148936
 30
0.0
  0
SPLINE
  5
517
100
AcDbEntity
  8
02___PRT_ALL_AXES
100
AcDbSpline
 62
7
  6
CONTINUOUS
 70
0
 71
3
 72
11
 73
7
 74
0
 42
0.0000001
 43
0.0000001
 44
0.0000000001
 40
0.0
 40
0.0
 40
0.0
 40
0.0
 40
0.2298345438
 40
0.4729500311
 40
0.7300550521
 40
1.0
 40
1.0
 40
1.0
 40
1.0
 10
107.6361309203
 20
197.9069148936
 30
0.0
 10
107.7702285539
 20
197.9452285032
 30
0.0
 10
108.0382589911
 20
198.0531429814
 30
0.0
 10
108.4182597627
 20
198.2833299905
 30
0.0
 10
108.7867703531
 20
198.5720886318
 30
0.0
 10
109.0203049593
 20
198.7910889327
 30
0.0
 10
109.1361309203
 20
198.9069148936
 30
0.0
  0
SPLINE
  5
518
100
AcDbEntity
  8
02___PRT_ALL_AXES
100
AcDbSpline
 62
7
  6
CONTINUOUS
 70
0
 71
3
 72
19
 73
15
 74
0
 42
0.0000001
 43
0.0000001
 44
0.0000000001
 40
0.0
 40
0.0
 40
0.0
 40
0.0
 40
0.1683000113
 40
0.2404505744
 40
0.3036556532
 40
0.4090388234
 40
0.4554737865
 40
0.5000393211
 40
0.5446067335
 40
0.591042408
 40
0.696430429
 40
0.7596418824
 40
0.8317824151
 40
1.0
 40
1.0
 40
1.0
 40
1.0
 10
106.6361309203
 20
197.4069148936
 30
0.0
 10
106.6361309203
 20
197.3003092184
 30
0.0
 10
106.660303785
 20
197.1459827918
 30
0.0
 10
106.7391208614
 20
196.9695890688
 30
0.0
 10
106.8250686147
 20
196.843056205
 30
0.0
 10
106.9325054854
 20
196.7520685485
 30
0.0
 10
107.0501410466
 20
196.7085908472
 30
0.0
 10
107.1362088568
 20
196.698214768
 30
0.0
 10
107.2222761423
 20
196.7086178556
 30
0.0
 10
107.3398881855
 20
196.7521708656
 30
0.0
 10
107.4473109743
 20
196.843176001
 30
0.0
 10
107.5332251991
 20
196.9697356205
 30
0.0
 10
107.6119713234
 20
197.1460991378
 30
0.0
 10
107.6361309203
 20
197.3003614295
 30
0.0
 10
107.6361309203
 20
197.4069148936
 30
0.0
  0
SPLINE
  5
519
100
AcDbEntity
  8
02___PRT_ALL_AXES
100
AcDbSpline
 62
7
  6
CONTINUOUS
 70
0
 71
3
 72
19
 73
15
 74
0
 42
0.0000001
 43
0.0000001
 44
0.0000000001
 40
0.0
 40
0.0
 40
0.0
 40
0.0
 40
0.1683075029
 40
0.2404576968
 40
0.3036660769
 40
0.4090527407
 40
0.4554823394
 40
0.5000445236
 40
0.5446094138
 40
0.5910415449
 40
0.6964181475
 40
0.7596236278
 40
0.8317654351
 40
1.0
 40
1.0
 40
1.0
 40
1.0
 10
118.6361309203
 20
197.4069148936
 30
0.0
 10
118.6361309203
 20
197.3003045613
 30
0.0
 10
118.6603058472
 20
197.1459733639
 30
0.0
 10
118.7391289495
 20
196.9695754424
 30
0.0
 10
118.825080557
 20
196.8430401216
 30
0.0
 10
118.9325249436
 20
196.7520587238
 30
0.0
 10
119.0501589615
 20
196.7085884436
 30
0.0
 10
119.1362197693
 20
196.6982142651
 30
0.0
 10
119.2222805207
 20
196.7086203956
 30
0.0
 10
119.33988185
 20
196.7521690511
 30
0.0
 10
119.4472949357
 20
196.8431632025
 30
0.0
 10
119.5332102128
 20
196.9697092991
 30
0.0
 10
119.6119690575
 20
197.1460758361
 30
0.0
 10
119.6361309203
 20
197.3003507621
 30
0.0
 10
119.6361309203
 20
197.4069148936
 30
0.0
  0
SPLINE
  5
51A
100
AcDbEntity
  8
02___PRT_ALL_AXES
100
AcDbSpline
 62
7
  6
CONTINUOUS
 70
0
 71
3
 72
11
 73
7
 74
0
 42
0.0000001
 43
0.0000001
 44
0.0000000001
 40
0.0
 40
0.0
 40
0.0
 40
0.0
 40
0.2499875457
 40
0.4999810974
 40
0.7499896465
 40
1.0
 40
1.0
 40
1.0
 40
1.0
 10
114.1361309203
 20
197.9069148936
 30
0.0
 10
114.3980556672
 20
197.9443327146
 30
0.0
 10
114.9181827855
 20
198.0476064272
 30
0.0
 10
115.6794000612
 20
198.2759568404
 30
0.0
 10
116.4196907577
 20
198.564393835
 30
0.0
 10
116.8994582504
 20
198.7885785587
 30
0.0
 10
117.1361309203
 20
198.9069148936
 30
0.0
  0
SPLINE
  5
51B
100
AcDbEntity
  8
02___PRT_ALL_AXES
100
AcDbSpline
 62
7
  6
CONTINUOUS
 70
0
 71
3
 72
11
 73
7
 74
0
 42
0.0000001
 43
0.0000001
 44
0.0000000001
 40
0.0
 40
0.0
 40
0.0
 40
0.0
 40
0.2528641712
 40
0.5038317346
 40
0.7528115376
 40
1.0
 40
1.0
 40
1.0
 40
1.0
 10
266.3509370088
 20
198.9069148936
 30
0.0
 10
266.5551833058
 20
198.7889932391
 30
0.0
 10
266.9690105693
 20
198.5655823614
 30
0.0
 10
267.6099220938
 20
198.2769933591
 30
0.0
 10
268.2692810261
 20
198.0483039658
 30
0.0
 10
268.7215377079
 20
197.9444386217
 30
0.0
 10
268.9490132202
 20
197.9069148936
 30
0.0
  0
SPLINE
  5
51C
100
AcDbEntity
  8
02___PRT_ALL_AXES
100
AcDbSpline
 62
7
  6
CONTINUOUS
 70
0
 71
3
 72
11
 73
7
 74
0
 42
0.0000001
 43
0.0000001
 44
0.0000000001
 40
0.0
 40
0.0
 40
0.0
 40
0.0
 40
0.2528641712
 40
0.5038317346
 40
0.7528115376
 40
1.0
 40
1.0
 40
1.0
 40
1.0
 10
259.4227337786
 20
198.9069148936
 30
0.0
 10
259.6269800755
 20
198.7889932391
 30
0.0
 10
260.040807339
 20
198.5655823614
 30
0.0
 10
260.6817188635
 20
198.2769933591
 30
0.0
 10
261.3410777958
 20
198.0483039658
 30
0.0
 10
261.7933344776
 20
197.9444386217
 30
0.0
 10
262.0208099899
 20
197.9069148936
 30
0.0
  0
SPLINE
  5
51D
100
AcDbEntity
  8
02___PRT_ALL_AXES
100
AcDbSpline
 62
7
  6
CONTINUOUS
 70
0
 71
3
 72
11
 73
7
 74
0
 42
0.0000001
 43
0.0000001
 44
0.0000000001
 40
0.0
 40
0.0
 40
0.0
 40
0.0
 40
0.2471884812
 40
0.4961682871
 40
0.7471358372
 40
1.0
 40
1.0
 40
1.0
 40
1.0
 10
263.7528607975
 20
197.9069148936
 30
0.0
 10
263.9803363271
 20
197.9444386245
 30
0.0
 10
264.4325930284
 20
198.0483039749
 30
0.0
 10
265.0919519654
 20
198.2769933782
 30
0.0
 10
265.7328634719
 20
198.565582377
 30
0.0
 10
266.1466907187
 20
198.788993243
 30
0.0
 10
266.3509370088
 20
198.9069148936
 30
0.0
  0
SPLINE
  5
51E
100
AcDbEntity
  8
02___PRT_ALL_AXES
100
AcDbSpline
 62
7
  6
CONTINUOUS
 70
0
 71
3
 72
19
 73
15
 74
0
 42
0.0000001
 43
0.0000001
 44
0.0000000001
 40
0.0
 40
0.0
 40
0.0
 40
0.0
 40
0.067939647
 40
0.1343369129
 40
0.1986396402
 40
0.2610648807
 40
0.3817414899
 40
0.5000607139
 40
0.6183763092
 40
0.739024176
 40
0.8014382043
 40
0.865725454
 40
0.9320917545
 40
1.0
 40
1.0
 40
1.0
 40
1.0
 10
262.0208099899
 20
197.4069148936
 30
0.0
 10
262.0208099899
 20
197.3510292431
 30
0.0
 10
262.0371968268
 20
197.2398842783
 30
0.0
 10
262.1053716071
 20
197.089424391
 30
0.0
 10
262.2047846418
 20
196.9637376274
 30
0.0
 10
262.3622285235
 20
196.8329957938
 30
0.0
 10
262.5922197381
 20
196.7283554889
 30
0.0
 10
262.8869849591
 20
196.6883770045
 30
0.0
 10
263.1817136827
 20
196.7284414292
 30
0.0
 10
263.4116444956
 20
196.8331208324
 30
0.0
 10
263.5690235848
 20
196.9638707204
 30
0.0
 10
263.6683665107
 20
197.0895517111
 30
0.0
 10
263.7364875189
 20
197.2399621025
 30
0.0
 10
263.7528607975
 20
197.3510550733
 30
0.0
 10
263.7528607975
 20
197.4069148936
 30
0.0
  0
SPLINE
  5
51F
100
AcDbEntity
  8
02___PRT_ALL_AXES
100
AcDbSpline
 62
7
  6
CONTINUOUS
 70
0
 71
3
 72
11
 73
7
 74
0
 42
0.0000001
 43
0.0000001
 44
0.0000000001
 40
0.0
 40
0.0
 40
0.0
 40
0.0
 40
0.2471884812
 40
0.4961682871
 40
0.7471358372
 40
1.0
 40
1.0
 40
1.0
 40
1.0
 10
270.6810640278
 20
197.9069148936
 30
0.0
 10
270.9085395573
 20
197.9444386245
 30
0.0
 10
271.3607962586
 20
198.0483039749
 30
0.0
 10
272.0201551957
 20
198.2769933782
 30
0.0
 10
272.6610667022
 20
198.565582377
 30
0.0
 10
273.074893949
 20
198.788993243
 30
0.0
 10
273.2791402391
 20
198.9069148936
 30
0.0
  0
SPLINE
  5
520
100
AcDbEntity
  8
02___PRT_ALL_AXES
100
AcDbSpline
 62
7
  6
CONTINUOUS
 70
0
 71
3
 72
19
 73
15
 74
0
 42
0.0000001
 43
0.0000001
 44
0.0000000001
 40
0.0
 40
0.0
 40
0.0
 40
0.0
 40
0.0679313718
 40
0.134330414
 40
0.1986328954
 40
0.2610542132
 40
0.3817238737
 40
0.5000536105
 40
0.6183773004
 40
0.7390372629
 40
0.8014553941
 40
0.8657396837
 40
0.9320963707
 40
1.0
 40
1.0
 40
1.0
 40
1.0
 10
268.9490132202
 20
197.4069148936
 30
0.0
 10
268.9490132202
 20
197.3510360421
 30
0.0
 10
268.9653989609
 20
197.2398970302
 30
0.0
 10
269.0335642626
 20
197.089438954
 30
0.0
 10
269.1329738252
 20
196.9637514673
 30
0.0
 10
269.2904081527
 20
196.8330131173
 30
0.0
 10
269.5203928188
 20
196.7283599716
 30
0.0
 10
269.8151684889
 20
196.6883762646
 30
0.0
 10
270.1099228358
 20
196.7284400793
 30
0.0
 10
270.339872428
 20
196.8331308619
 30
0.0
 10
270.4972534327
 20
196.9638964723
 30
0.0
 10
270.5965821655
 20
197.0895793626
 30
0.0
 10
270.6646943544
 20
197.2399773497
 30
0.0
 10
270.6810640278
 20
197.3510588625
 30
0.0
 10
270.6810640278
 20
197.4069148936
 30
0.0
  0
SPLINE
  5
521
100
AcDbEntity
  8
02___PRT_ALL_AXES
100
AcDbSpline
 62
7
  6
CONTINUOUS
 70
0
 71
3
 72
17
 73
13
 74
0
 42
0.0000001
 43
0.0000001
 44
0.0000000001
 40
0.0
 40
0.0
 40
0.0
 40
0.0
 40
0.1614593165
 40
0.318291455
 40
0.466216192
 40
0.6016099581
 40
0.7219835139
 40
0.7762925529
 40
0.8267613733
 40
0.9174459895
 40
0.9592949391
 40
1.0
 40
1.0
 40
1.0
 40
1.0
 10
312.8560717909
 20
138.0865109844
 30
0.0
 10
313.1653451689
 20
138.0865109844
 30
0.0
 10
313.7754750133
 20
138.056907332
 30
0.0
 10
314.6601901394
 20
137.9247385588
 30
0.0
 10
315.4775231312
 20
137.7100308155
 30
0.0
 10
316.1970347867
 20
137.4207545656
 30
0.0
 10
316.7108247497
 20
137.1159096293
 30
0.0
 10
317.0438626159
 20
136.8403460419
 30
0.0
 10
317.3027922525
 20
136.569393099
 30
0.0
 10
317.4941959008
 20
136.2674504637
 30
0.0
 10
317.5902743859
 20
135.9480435656
 30
0.0
 10
317.6060572303
 20
135.7894810389
 30
0.0
 10
317.6060572303
 20
135.7115109844
 30
0.0
  0
SPLINE
  5
522
100
AcDbEntity
  8
02___PRT_ALL_AXES
100
AcDbSpline
 62
7
  6
CONTINUOUS
 70
0
 71
3
 72
9
 73
5
 74
0
 42
0.0000001
 43
0.0000001
 44
0.0000000001
 40
0.0
 40
0.0
 40
0.0
 40
0.0
 40
0.4827665088
 40
1.0
 40
1.0
 40
1.0
 40
1.0
 10
310.4560839204
 20
111.8086720879
 30
0.0
 10
310.4560839204
 20
111.7440457743
 30
0.0
 10
310.4784859405
 20
111.6094428927
 30
0.0
 10
310.5399312153
 20
111.4884057082
 30
0.0
 10
310.5782222775
 20
111.4307167793
 30
0.0
  0
SPLINE
  5
523
100
AcDbEntity
  8
02___PRT_ALL_AXES
100
AcDbSpline
 62
7
  6
CONTINUOUS
 70
0
 71
3
 72
17
 73
13
 74
0
 42
0.0000001
 43
0.0000001
 44
0.0000000001
 40
0.0
 40
0.0
 40
0.0
 40
0.0
 40
0.1614593165
 40
0.318291455
 40
0.466216192
 40
0.6016099581
 40
0.7219835139
 40
0.7762925529
 40
0.8267613733
 40
0.9174459895
 40
0.9592949391
 40
1.0
 40
1.0
 40
1.0
 40
1.0
 10
312.8560717909
 20
138.0865109844
 30
0.0
 10
312.5467984129
 20
138.0865109844
 30
0.0
 10
311.9366685686
 20
138.056907332
 30
0.0
 10
311.0519534425
 20
137.9247385588
 30
0.0
 10
310.2346204506
 20
137.7100308155
 30
0.0
 10
309.5151087952
 20
137.4207545656
 30
0.0
 10
309.0013188321
 20
137.1159096293
 30
0.0
 10
308.6682809659
 20
136.8403460419
 30
0.0
 10
308.4093513293
 20
136.569393099
 30
0.0
 10
308.2179476811
 20
136.2674504637
 30
0.0
 10
308.1218691959
 20
135.9480435656
 30
0.0
 10
308.1060863516
 20
135.7894810389
 30
0.0
 10
308.1060863516
 20
135.7115109844
 30
0.0
  0
SPLINE
  5
524
100
AcDbEntity
  8
02___PRT_ALL_AXES
100
AcDbSpline
 62
7
  6
CONTINUOUS
 70
0
 71
3
 72
11
 73
7
 74
0
 42
0.0000001
 43
0.0000001
 44
0.0000000001
 40
0.0
 40
0.0
 40
0.0
 40
0.0
 40
0.2266353196
 40
0.4636330633
 40
0.719506711
 40
1.0
 40
1.0
 40
1.0
 40
1.0
 10
308.1060863516
 20
135.0186906614
 30
0.0
 10
308.1060863516
 20
134.9180666098
 30
0.0
 10
308.132849036
 20
134.7113670239
 30
0.0
 10
308.2506396501
 20
134.4115118976
 30
0.0
 10
308.4422788463
 20
134.1240007254
 30
0.0
 10
308.608260611
 20
133.9515657994
 30
0.0
 10
308.7006998784
 20
133.8681132767
 30
0.0
  0
SPLINE
  5
525
100
AcDbEntity
  8
02___PRT_ALL_AXES
100
AcDbSpline
 62
7
  6
CONTINUOUS
 70
0
 71
3
 72
9
 73
5
 74
0
 42
0.0000001
 43
0.0000001
 44
0.0000000001
 40
0.0
 40
0.0
 40
0.0
 40
0.0
 40
0.4827665088
 40
1.0
 40
1.0
 40
1.0
 40
1.0
 10
315.2560596614
 20
111.8086720879
 30
0.0
 10
315.2560596614
 20
111.7440457743
 30
0.0
 10
315.2336576413
 20
111.6094428927
 30
0.0
 10
315.1722123666
 20
111.4884057082
 30
0.0
 10
315.1339213043
 20
111.4307167793
 30
0.0
  0
SPLINE
  5
526
100
AcDbEntity
  8
02___PRT_ALL_AXES
100
AcDbSpline
 62
7
  6
CONTINUOUS
 70
0
 71
3
 72
11
 73
7
 74
0
 42
0.0000001
 43
0.0000001
 44
0.0000000001
 40
0.0
 40
0.0
 40
0.0
 40
0.0
 40
0.2266353196
 40
0.4636330633
 40
0.719506711
 40
1.0
 40
1.0
 40
1.0
 40
1.0
 10
317.6060572303
 20
135.0186906614
 30
0.0
 10
317.6060572303
 20
134.9180666098
 30
0.0
 10
317.5792945458
 20
134.7113670239
 30
0.0
 10
317.4615039317
 20
134.4115118976
 30
0.0
 10
317.2698647355
 20
134.1240007254
 30
0.0
 10
317.1038829709
 20
133.9515657994
 30
0.0
 10
317.0114437034
 20
133.8681132767
 30
0.0
  0
SPLINE
  5
527
100
AcDbEntity
  8
02___PRT_ALL_AXES
100
AcDbSpline
 62
7
  6
CONTINUOUS
 70
0
 71
3
 72
17
 73
13
 74
0
 42
0.0000001
 43
0.0000001
 44
0.0000000001
 40
0.0
 40
0.0
 40
0.0
 40
0.0
 40
0.0407050609
 40
0.0825540105
 40
0.1732386267
 40
0.2237074471
 40
0.2780164861
 40
0.3983900419
 40
0.533783808
 40
0.681708545
 40
0.8385406835
 40
1.0
 40
1.0
 40
1.0
 40
1.0
 10
308.1060863516
 20
135.7115109844
 30
0.0
 10
308.1060863516
 20
135.63354093
 30
0.0
 10
308.1218691959
 20
135.4749784033
 30
0.0
 10
308.2179476811
 20
135.1555715052
 30
0.0
 10
308.4093513293
 20
134.8536288699
 30
0.0
 10
308.6682809659
 20
134.582675927
 30
0.0
 10
309.0013188321
 20
134.3071123396
 30
0.0
 10
309.5151087952
 20
134.0022674033
 30
0.0
 10
310.2346204506
 20
133.7129911534
 30
0.0
 10
311.0519534425
 20
133.4982834101
 30
0.0
 10
311.9366685686
 20
133.3661146369
 30
0.0
 10
312.5467984129
 20
133.3365109844
 30
0.0
 10
312.8560717909
 20
133.3365109844
 30
0.0
  0
SPLINE
  5
528
100
AcDbEntity
  8
02___PRT_ALL_AXES
100
AcDbSpline
 62
7
  6
CONTINUOUS
 70
0
 71
3
 72
14
 73
10
 74
0
 42
0.0000001
 43
0.0000001
 44
0.0000000001
 40
0.0
 40
0.0
 40
0.0
 40
0.0
 40
0.0902589779
 40
0.1916655046
 40
0.3047232918
 40
0.4288308085
 40
0.5625881434
 40
0.7039985068
 40
1.0
 40
1.0
 40
1.0
 40
1.0
 10
310.5782222775
 20
111.4307167793
 30
0.0
 10
310.619839721
 20
111.3680163578
 30
0.0
 10
310.7252453962
 20
111.2459268644
 30
0.0
 10
310.9254119579
 20
111.0877377547
 30
0.0
 10
311.1712966683
 20
110.9472699257
 30
0.0
 10
311.4571766507
 20
110.8276553829
 30
0.0
 10
311.7764772785
 20
110.7315324393
 30
0.0
 10
312.243540781
 20
110.6363386522
 30
0.0
 10
312.6092745146
 20
110.6086720879
 30
0.0
 10
312.8560717909
 20
110.6086720879
 30
0.0
  0
SPLINE
  5
529
100
AcDbEntity
  8
02___PRT_ALL_AXES
100
AcDbSpline
 62
7
  6
CONTINUOUS
 70
0
 71
3
 72
14
 73
10
 74
0
 42
0.0000001
 43
0.0000001
 44
0.0000000001
 40
0.0
 40
0.0
 40
0.0
 40
0.0
 40
0.0902589779
 40
0.1916655046
 40
0.3047232918
 40
0.4288308085
 40
0.5625881434
 40
0.7039985068
 40
1.0
 40
1.0
 40
1.0
 40
1.0
 10
315.1339213043
 20
111.4307167793
 30
0.0
 10
315.0923038608
 20
111.3680163578
 30
0.0
 10
314.9868981856
 20
111.2459268644
 30
0.0
 10
314.7867316239
 20
111.0877377547
 30
0.0
 10
314.5408469136
 20
110.9472699257
 30
0.0
 10
314.2549669311
 20
110.8276553829
 30
0.0
 10
313.9356663033
 20
110.7315324393
 30
0.0
 10
313.4686028009
 20
110.6363386522
 30
0.0
 10
313.1028690673
 20
110.6086720879
 30
0.0
 10
312.8560717909
 20
110.6086720879
 30
0.0
  0
SPLINE
  5
52A
100
AcDbEntity
  8
02___PRT_ALL_AXES
100
AcDbSpline
 62
7
  6
CONTINUOUS
 70
0
 71
3
 72
17
 73
13
 74
0
 42
0.0000001
 43
0.0000001
 44
0.0000000001
 40
0.0
 40
0.0
 40
0.0
 40
0.0
 40
0.0407050609
 40
0.0825540105
 40
0.1732386267
 40
0.2237074471
 40
0.2780164861
 40
0.3983900419
 40
0.533783808
 40
0.681708545
 40
0.8385406835
 40
1.0
 40
1.0
 40
1.0
 40
1.0
 10
317.6060572303
 20
135.7115109844
 30
0.0
 10
317.6060572303
 20
135.63354093
 30
0.0
 10
317.5902743859
 20
135.4749784033
 30
0.0
 10
317.4941959008
 20
135.1555715052
 30
0.0
 10
317.3027922525
 20
134.8536288699
 30
0.0
 10
317.0438626159
 20
134.582675927
 30
0.0
 10
316.7108247497
 20
134.3071123396
 30
0.0
 10
316.1970347867
 20
134.0022674033
 30
0.0
 10
315.4775231312
 20
133.7129911534
 30
0.0
 10
314.6601901394
 20
133.4982834101
 30
0.0
 10
313.7754750133
 20
133.3661146369
 30
0.0
 10
313.1653451689
 20
133.3365109844
 30
0.0
 10
312.8560717909
 20
133.3365109844
 30
0.0
  0
SPLINE
  5
52B
100
AcDbEntity
  8
02___PRT_ALL_AXES
100
AcDbSpline
 62
7
  6
CONTINUOUS
 70
0
 71
3
 72
9
 73
5
 74
0
 42
0.0000001
 43
0.0000001
 44
0.0000000001
 40
0.0
 40
0.0
 40
0.0
 40
0.0
 40
0.2507238635
 40
1.0
 40
1.0
 40
1.0
 40
1.0
 10
334.9278685606
 20
76.482037565
 30
0.0
 10
334.9852447081
 20
76.4367864241
 30
0.0
 10
335.2151152739
 20
76.2576170453
 30
0.0
 10
335.449380314
 20
76.0840490012
 30
0.0
 10
335.6276834651
 20
75.9579700479
 30
0.0
  0
SPLINE
  5
52C
100
AcDbEntity
  8
02___PRT_ALL_AXES
100
AcDbSpline
 62
7
  6
CONTINUOUS
 70
0
 71
3
 72
18
 73
14
 74
0
 42
0.0000001
 43
0.0000001
 44
0.0000000001
 40
0.0
 40
0.0
 40
0.0
 40
0.0
 40
0.0620343517
 40
0.1238736933
 40
0.185451072
 40
0.2467462268
 40
0.3684314951
 40
0.490044274
 40
0.551382127
 40
0.6133178476
 40
0.7394523978
 40
0.8687273805
 40
1.0
 40
1.0
 40
1.0
 40
1.0
 10
334.927881852
 20
76.3931341034
 30
0.0
 10
334.9611791933
 20
76.2113988717
 30
0.0
 10
335.0505606241
 20
75.8522733024
 30
0.0
 10
335.2497164957
 20
75.3356876159
 30
0.0
 10
335.5085794704
 20
74.8487374417
 30
0.0
 10
335.9234150783
 20
74.2483534791
 30
0.0
 10
336.5605024017
 20
73.5923225456
 30
0.0
 10
337.3114381514
 20
73.0741342026
 30
0.0
 10
337.9592180829
 20
72.7376422729
 30
0.0
 10
338.6433759419
 20
72.446639133
 30
0.0
 10
339.55082581
 20
72.1713446392
 30
0.0
 10
340.6883363382
 20
71.9761589224
 30
0.0
 10
341.4650951511
 20
71.9329994593
 30
0.0
 10
341.8560717909
 20
71.9329994593
 30
0.0
  0
SPLINE
  5
52D
100
AcDbEntity
  8
02___PRT_ALL_AXES
100
AcDbSpline
 62
7
  6
CONTINUOUS
 70
0
 71
3
 72
18
 73
14
 74
0
 42
0.0000001
 43
0.0000001
 44
0.0000000001
 40
0.0
 40
0.0
 40
0.0
 40
0.0
 40
0.1312822739
 40
0.2605644376
 40
0.3867035804
 40
0.448639028
 40
0.5099779292
 40
0.6315872949
 40
0.753264978
 40
0.8145555265
 40
0.8761297832
 40
0.9379669329
 40
1.0
 40
1.0
 40
1.0
 40
1.0
 10
341.8560717909
 20
71.9329994593
 30
0.0
 10
342.247077298
 20
71.9329994593
 30
0.0
 10
343.0238865713
 20
71.9761652835
 30
0.0
 10
344.1614587411
 20
72.1713744765
 30
0.0
 10
345.0689361139
 20
72.4466982337
 30
0.0
 10
345.7531028586
 20
72.7377223384
 30
0.0
 10
346.4008628676
 20
73.0742363443
 30
0.0
 10
347.1517588985
 20
73.5924290206
 30
0.0
 10
347.7887985661
 20
74.2484407134
 30
0.0
 10
348.2035988343
 20
74.8487934224
 30
0.0
 10
348.4624432974
 20
75.3357204664
 30
0.0
 10
348.6615816773
 20
75.8522910398
 30
0.0
 10
348.7509719102
 20
76.2114039994
 30
0.0
 10
348.7842653725
 20
76.3931361062
 30
0.0
  0
SPLINE
  5
52E
100
AcDbEntity
  8
02___PRT_ALL_AXES
100
AcDbSpline
 62
7
  6
CONTINUOUS
 70
0
 71
3
 72
9
 73
5
 74
0
 42
0.0000001
 43
0.0000001
 44
0.0000000001
 40
0.0
 40
0.0
 40
0.0
 40
0.0
 40
0.2492291946
 40
1.0
 40
1.0
 40
1.0
 40
1.0
 10
348.0844607382
 20
75.957970488
 30
0.0
 10
348.1437693752
 20
75.9999078954
 30
0.0
 10
348.3804933145
 20
76.1699339922
 30
0.0
 10
348.612466373
 20
76.3465363562
 30
0.0
 10
348.7842750212
 20
76.482037565
 30
0.0
  0
SPLINE
  5
52F
100
AcDbEntity
  8
02___PRT_ALL_AXES
100
AcDbSpline
 62
7
  6
CONTINUOUS
 70
0
 71
3
 72
9
 73
5
 74
0
 42
0.0000001
 43
0.0000001
 44
0.0000000001
 40
0.0
 40
0.0
 40
0.0
 40
0.0
 40
0.2541963826
 40
1.0
 40
1.0
 40
1.0
 40
1.0
 10
335.6276834651
 20
75.9579700479
 30
0.0
 10
335.7793295113
 20
75.8507404524
 30
0.0
 10
336.383588351
 20
75.4403405047
 30
0.0
 10
337.0256237802
 20
75.0819168182
 30
0.0
 10
337.525944772
 20
74.8660121612
 30
0.0
  0
SPLINE
  5
530
100
AcDbEntity
  8
02___PRT_ALL_AXES
100
AcDbSpline
 62
7
  6
CONTINUOUS
 70
0
 71
3
 72
19
 73
15
 74
0
 42
0.0000001
 43
0.0000001
 44
0.0000000001
 40
0.0
 40
0.0
 40
0.0
 40
0.0
 40
0.1316139406
 40
0.2022017319
 40
0.2729178222
 40
0.4109439058
 40
0.5423167208
 40
0.6655972778
 40
0.7240259685
 40
0.7801973512
 40
0.8343697241
 40
0.8874768164
 40
0.9416610801
 40
1.0
 40
1.0
 40
1.0
 40
1.0
 10
337.525944772
 20
74.4329994593
 30
0.0
 10
337.525944772
 20
74.3286523893
 30
0.0
 10
337.5840593493
 20
74.1687484251
 30
0.0
 10
337.7116003945
 20
73.9943651042
 30
0.0
 10
337.8683878622
 20
73.8366011248
 30
0.0
 10
338.093105137
 20
73.6830964366
 30
0.0
 10
338.382680992
 20
73.563629049
 30
0.0
 10
338.6295983383
 20
73.5191662392
 30
0.0
 10
338.8187671658
 20
73.5242147089
 30
0.0
 10
338.9508756776
 20
73.5497951211
 30
0.0
 10
339.0713612215
 20
73.6006520217
 30
0.0
 10
339.1731342215
 20
73.6817171976
 30
0.0
 10
339.2432066579
 20
73.7963204412
 30
0.0
 10
339.2579955796
 20
73.8867467954
 30
0.0
 10
339.2579955796
 20
73.9329994593
 30
0.0
  0
SPLINE
  5
531
100
AcDbEntity
  8
02___PRT_ALL_AXES
100
AcDbSpline
 62
9
  6
CONTINUOUS
 70
0
 71
3
 72
9
 73
5
 74
0
 42
0.0000001
 43
0.0000001
 44
0.0000000001
 40
0.0
 40
0.0
 40
0.0
 40
0.0
 40
0.5068020981
 40
1.0
 40
1.0
 40
1.0
 40
1.0
 10
341.8560717909
 20
73.6829994593
 30
0.0
 10
341.4146121388
 20
73.6829994593
 30
0.0
 10
340.5430544689
 20
73.7239646655
 30
0.0
 10
339.6792742958
 20
73.8488060584
 30
0.0
 10
339.2579955796
 20
73.9329994593
 30
0.0
  0
SPLINE
  5
532
100
AcDbEntity
  8
02___PRT_ALL_AXES
100
AcDbSpline
 62
9
  6
CONTINUOUS
 70
0
 71
3
 72
12
 73
8
 74
0
 42
0.0000001
 43
0.0000001
 44
0.0000000001
 40
0.0
 40
0.0
 40
0.0
 40
0.0
 40
0.2945367347
 40
0.5590501831
 40
0.6798769552
 40
0.7932803621
 40
1.0
 40
1.0
 40
1.0
 40
1.0
 10
337.525944772
 20
74.4329994593
 30
0.0
 10
337.2297587568
 20
74.5495924654
 30
0.0
 10
336.6791873975
 20
74.8026584973
 30
0.0
 10
336.058717523
 20
75.2025949911
 30
0.0
 10
335.6497919296
 20
75.5552190236
 30
0.0
 10
335.3224219982
 20
75.901966151
 30
0.0
 10
335.1281512976
 20
76.1945390038
 30
0.0
 10
335.0346839265
 20
76.3974502891
 30
0.0
  0
SPLINE
  5
533
100
AcDbEntity
  8
02___PRT_ALL_AXES
100
AcDbSpline
 62
7
  6
CONTINUOUS
 70
0
 71
3
 72
19
 73
15
 74
0
 42
0.0000001
 43
0.0000001
 44
0.0000000001
 40
0.0
 40
0.0
 40
0.0
 40
0.0
 40
0.1613970809
 40
0.3181639993
 40
0.4660300661
 40
0.6013705921
 40
0.663560757
 40
0.721815989
 40
0.7761019167
 40
0.8265520833
 40
0.8734921487
 40
0.9174790533
 40
0.9593110763
 40
1.0
 40
1.0
 40
1.0
 40
1.0
 10
341.8560717909
 20
79.379151882
 30
0.0
 10
341.465405551
 20
79.379151882
 30
0.0
 10
340.6947338845
 20
79.4165414534
 30
0.0
 10
339.5771254903
 20
79.5835138397
 30
0.0
 10
338.5449611348
 20
79.8546706034
 30
0.0
 10
337.7663317303
 20
80.1675652841
 30
0.0
 10
337.2228331815
 20
80.4654882718
 30
0.0
 10
336.8708474562
 20
80.7011276124
 30
0.0
 10
336.5663097835
 20
80.953154179
 30
0.0
 10
336.3120854273
 20
81.2193772445
 30
0.0
 10
336.1107982201
 20
81.4976205779
 30
0.0
 10
335.9647515874
 20
81.7855646
 30
0.0
 10
335.8760133612
 20
82.0803925693
 30
0.0
 10
335.8560835474
 20
82.280663181
 30
0.0
 10
335.8560835474
 20
82.379151882
 30
0.0
  0
SPLINE
  5
534
100
AcDbEntity
  8
02___PRT_ALL_AXES
100
AcDbSpline
 62
7
  6
CONTINUOUS
 70
0
 71
3
 72
19
 73
15
 74
0
 42
0.0000001
 43
0.0000001
 44
0.0000000001
 40
0.0
 40
0.0
 40
0.0
 40
0.0
 40
0.1613970809
 40
0.3181639993
 40
0.4660300661
 40
0.6013705921
 40
0.663560757
 40
0.721815989
 40
0.7761019167
 40
0.8265520833
 40
0.8734921487
 40
0.9174790533
 40
0.9593110763
 40
1.0
 40
1.0
 40
1.0
 40
1.0
 10
341.8560717909
 20
79.379151882
 30
0.0
 10
342.2467380309
 20
79.379151882
 30
0.0
 10
343.0174096973
 20
79.4165414534
 30
0.0
 10
344.1350180915
 20
79.5835138397
 30
0.0
 10
345.167182447
 20
79.8546706034
 30
0.0
 10
345.9458118515
 20
80.1675652841
 30
0.0
 10
346.4893104003
 20
80.4654882718
 30
0.0
 10
346.8412961257
 20
80.7011276124
 30
0.0
 10
347.1458337984
 20
80.953154179
 30
0.0
 10
347.4000581546
 20
81.2193772445
 30
0.0
 10
347.6013453617
 20
81.4976205779
 30
0.0
 10
347.7473919944
 20
81.7855646
 30
0.0
 10
347.8361302206
 20
82.0803925693
 30
0.0
 10
347.8560600345
 20
82.280663181
 30
0.0
 10
347.8560600345
 20
82.379151882
 30
0.0
  0
SPLINE
  5
535
100
AcDbEntity
  8
02___PRT_ALL_AXES
100
AcDbSpline
 62
7
  6
CONTINUOUS
 70
0
 71
3
 72
10
 73
6
 74
0
 42
0.0000001
 43
0.0000001
 44
0.0000000001
 40
0.0
 40
0.0
 40
0.0
 40
0.0
 40
0.4885127233
 40
0.7407289611
 40
1.0
 40
1.0
 40
1.0
 40
1.0
 10
341.8560717909
 20
74.482037565
 30
0.0
 10
342.2723255845
 20
74.394072788
 30
0.0
 10
342.9141769608
 20
74.3014091809
 30
0.0
 10
343.7861020678
 20
74.292674598
 30
0.0
 10
344.2307112208
 20
74.3334310584
 30
0.0
 10
344.4541480023
 20
74.3660121612
 30
0.0
  0
SPLINE
  5
536
100
AcDbEntity
  8
02___PRT_ALL_AXES
100
AcDbSpline
 62
7
  6
CONTINUOUS
 70
0
 71
3
 72
9
 73
5
 74
0
 42
0.0000001
 43
0.0000001
 44
0.0000000001
 40
0.0
 40
0.0
 40
0.0
 40
0.0
 40
0.2454533201
 40
1.0
 40
1.0
 40
1.0
 40
1.0
 10
346.1861988098
 20
74.8660121612
 30
0.0
 10
346.3508909994
 20
74.9370821568
 30
0.0
 10
347.0121192797
 20
75.2493036965
 30
0.0
 10
347.6342377441
 20
75.6396157577
 30
0.0
 10
348.0844607382
 20
75.957970488
 30
0.0
  0
SPLINE
  5
537
100
AcDbEntity
  8
02___PRT_ALL_AXES
100
AcDbSpline
 62
7
  6
CONTINUOUS
 70
0
 71
3
 72
19
 73
15
 74
0
 42
0.0000001
 43
0.0000001
 44
0.0000000001
 40
0.0
 40
0.0
 40
0.0
 40
0.0
 40
0.0583579799
 40
0.1125683434
 40
0.1656901842
 40
0.2198724415
 40
0.2760541247
 40
0.3345014627
 40
0.4578061682
 40
0.5891901625
 40
0.7271979698
 40
0.7979037257
 40
0.8684661974
 40
1.0
 40
1.0
 40
1.0
 40
1.0
 10
344.4541480023
 20
73.9329994593
 30
0.0
 10
344.4541480023
 20
73.8867315948
 30
0.0
 10
344.4689479209
 20
73.7962686207
 30
0.0
 10
344.539068937
 20
73.6816329212
 30
0.0
 10
344.6409084267
 20
73.6005841051
 30
0.0
 10
344.7614317678
 20
73.5497500363
 30
0.0
 10
344.8935752061
 20
73.5241849977
 30
0.0
 10
345.0827884515
 20
73.519181623
 30
0.0
 10
345.3297378815
 20
73.5637096244
 30
0.0
 10
345.6193004802
 20
73.6832450046
 30
0.0
 10
345.8439795587
 20
73.8367806861
 30
0.0
 10
346.0007055904
 20
73.9945470566
 30
0.0
 10
346.1281403204
 20
74.1688962219
 30
0.0
 10
346.1861988098
 20
74.3287157235
 30
0.0
 10
346.1861988098
 20
74.4329994593
 30
0.0
  0
SPLINE
  5
538
100
AcDbEntity
  8
02___PRT_ALL_AXES
100
AcDbSpline
 62
7
  6
CONTINUOUS
 70
0
 71
3
 72
10
 73
6
 74
0
 42
0.0000001
 43
0.0000001
 44
0.0000000001
 40
0.0
 40
0.0
 40
0.0
 40
0.0
 40
0.2592710583
 40
0.511487298
 40
1.0
 40
1.0
 40
1.0
 40
1.0
 10
339.2579955796
 20
74.3660121612
 30
0.0
 10
339.4814323776
 20
74.333431056
 30
0.0
 10
339.9260415496
 20
74.2926745951
 30
0.0
 10
340.7979666564
 20
74.3014091882
 30
0.0
 10
341.4398180155
 20
74.3940727919
 30
0.0
 10
341.8560717909
 20
74.482037565
 30
0.0
  0
SPLINE
  5
539
100
AcDbEntity
  8
02___PRT_ALL_AXES
100
AcDbSpline
 62
7
  6
CONTINUOUS
 70
0
 71
3
 72
9
 73
5
 74
0
 42
0.0000001
 43
0.0000001
 44
0.0000000001
 40
0.0
 40
0.0
 40
0.0
 40
0.0
 40
0.5222361591
 40
1.0
 40
1.0
 40
1.0
 40
1.0
 10
337.525944772
 20
74.8660121612
 30
0.0
 10
337.2719006738
 20
74.9660160897
 30
0.0
 10
336.7942370568
 20
75.1810892447
 30
0.0
 10
336.3445286578
 20
75.4510798522
 30
0.0
 10
336.1405941711
 20
75.5952856698
 30
0.0
  0
SPLINE
  5
53A
100
AcDbEntity
  8
02___PRT_ALL_AXES
100
AcDbSpline
 62
9
  6
CONTINUOUS
 70
0
 71
3
 72
12
 73
8
 74
0
 42
0.0000001
 43
0.0000001
 44
0.0000000001
 40
0.0
 40
0.0
 40
0.0
 40
0.0
 40
0.2945367283
 40
0.5590501752
 40
0.6798769483
 40
0.7932803571
 40
1.0
 40
1.0
 40
1.0
 40
1.0
 10
346.1861988098
 20
74.4329994593
 30
0.0
 10
346.4823847884
 20
74.5495924509
 30
0.0
 10
347.0329560853
 20
74.8026584497
 30
0.0
 10
347.6534259006
 20
75.2025948805
 30
0.0
 10
348.062351473
 20
75.5552188551
 30
0.0
 10
348.3897214037
 20
75.9019659281
 30
0.0
 10
348.5839921217
 20
76.1945387327
 30
0.0
 10
348.6774595166
 20
76.3974499881
 30
0.0
  0
SPLINE
  5
53B
100
AcDbEntity
  8
02___PRT_ALL_AXES
100
AcDbSpline
 62
9
  6
CONTINUOUS
 70
0
 71
3
 72
9
 73
5
 74
0
 42
0.0000001
 43
0.0000001
 44
0.0000000001
 40
0.0
 40
0.0
 40
0.0
 40
0.0
 40
0.5068020981
 40
1.0
 40
1.0
 40
1.0
 40
1.0
 10
341.8560717909
 20
73.6829994593
 30
0.0
 10
342.297531443
 20
73.6829994593
 30
0.0
 10
343.169089113
 20
73.7239646655
 30
0.0
 10
344.032869286
 20
73.8488060584
 30
0.0
 10
344.4541480023
 20
73.9329994593
 30
0.0
  0
SPLINE
  5
53C
100
AcDbEntity
  8
02___PRT_ALL_AXES
100
AcDbSpline
 62
7
  6
CONTINUOUS
 70
0
 71
3
 72
9
 73
5
 74
0
 42
0.0000001
 43
0.0000001
 44
0.0000000001
 40
0.0
 40
0.0
 40
0.0
 40
0.0
 40
0.5222361591
 40
1.0
 40
1.0
 40
1.0
 40
1.0
 10
346.1861988098
 20
74.8660121612
 30
0.0
 10
346.4402429081
 20
74.9660160897
 30
0.0
 10
346.917906525
 20
75.1810892447
 30
0.0
 10
347.367614924
 20
75.4510798522
 30
0.0
 10
347.5715494107
 20
75.5952856698
 30
0.0
  0
SPLINE
  5
53D
100
AcDbEntity
  8
02___PRT_ALL_AXES
100
AcDbSpline
 62
7
  6
CONTINUOUS
 70
0
 71
3
 72
11
 73
7
 74
0
 42
0.0000001
 43
0.0000001
 44
0.0000000001
 40
0.0
 40
0.0
 40
0.0
 40
0.0
 40
0.2466064367
 40
0.5
 40
0.7533935633
 40
1.0
 40
1.0
 40
1.0
 40
1.0
 10
339.2579955796
 20
74.3660121612
 30
0.0
 10
339.6792870024
 20
74.2818162209
 30
0.0
 10
340.5431360619
 20
74.1569730607
 30
0.0
 10
341.8560717909
 20
74.0952675989
 30
0.0
 10
343.16900752
 20
74.1569730607
 30
0.0
 10
344.0328565794
 20
74.2818162209
 30
0.0
 10
344.4541480023
 20
74.3660121612
 30
0.0
  0
SPLINE
  5
53E
100
AcDbEntity
  8
7_ALL_FEATURES
100
AcDbSpline
 62
7
  6
CONTINUOUS
 70
0
 71
3
 72
12
 73
8
 74
0
 42
0.0000001
 43
0.0000001
 44
0.0000000001
 40
0.0
 40
0.0
 40
0.0
 40
0.0
 40
0.2889405389
 40
0.5474484373
 40
0.780974852
 40
0.8916051245
 40
1.0
 40
1.0
 40
1.0
 40
1.0
 10
326.7508888624
 20
140.6189869224
 30
0.0
 10
326.2478609215
 20
140.2633103263
 30
0.0
 10
325.3392573301
 20
139.5207590538
 30
0.0
 10
324.2568147734
 20
138.2411999969
 30
0.0
 10
323.6672956169
 20
137.0816463677
 30
0.0
 10
323.4202567687
 20
136.1459000874
 30
0.0
 10
323.3677472088
 20
135.6797942099
 30
0.0
 10
323.3592179634
 20
135.4488352619
 30
0.0
  0
SPLINE
  5
53F
100
AcDbEntity
  8
7_ALL_FEATURES
100
AcDbSpline
 62
7
  6
CONTINUOUS
 70
0
 71
3
 72
21
 73
17
 74
0
 42
0.0000001
 43
0.0000001
 44
0.0000000001
 40
0.0
 40
0.0
 40
0.0
 40
0.0
 40
0.0514174242
 40
0.1068833977
 40
0.1661056457
 40
0.2286497616
 40
0.2939715692
 40
0.3614442038
 40
0.5
 40
0.6385557962
 40
0.7060284308
 40
0.7713502384
 40
0.8338943543
 40
0.8931166023
 40
0.9485825758
 40
1.0
 40
1.0
 40
1.0
 40
1.0
 10
356.552587355
 20
140.9079608824
 30
0.0
 10
356.1217524903
 20
141.2125916929
 30
0.0
 10
355.186548741
 20
141.790794919
 30
0.0
 10
353.6518041652
 20
142.5377667324
 30
0.0
 10
351.9511504436
 20
143.1884936224
 30
0.0
 10
350.108507292
 20
143.7338096322
 30
0.0
 10
348.1494749418
 20
144.1661842554
 30
0.0
 10
345.3952184131
 20
144.587383439
 30
0.0
 10
341.8560717909
 20
144.7949877688
 30
0.0
 10
338.3169251687
 20
144.587383439
 30
0.0
 10
335.5626686401
 20
144.1661842554
 30
0.0
 10
333.6036362898
 20
143.7338096322
 30
0.0
 10
331.7609931383
 20
143.1884936224
 30
0.0
 10
330.0603394166
 20
142.5377667324
 30
0.0
 10
328.5255948409
 20
141.790794919
 30
0.0
 10
327.5903910915
 20
141.2125916929
 30
0.0
 10
327.1595562269
 20
140.9079608824
 30
0.0
  0
SPLINE
  5
540
100
AcDbEntity
  8
7_ALL_FEATURES
100
AcDbSpline
 62
7
  6
CONTINUOUS
 70
0
 71
3
 72
12
 73
8
 74
0
 42
0.0000001
 43
0.0000001
 44
0.0000000001
 40
0.0
 40
0.0
 40
0.0
 40
0.0
 40
0.1083948755
 40
0.219025148
 40
0.4525515627
 40
0.7110594611
 40
1.0
 40
1.0
 40
1.0
 40
1.0
 10
360.3529256185
 20
135.4488352619
 30
0.0
 10
360.3443963731
 20
135.6797942099
 30
0.0
 10
360.2918868132
 20
136.1459000874
 30
0.0
 10
360.0448479649
 20
137.0816463677
 30
0.0
 10
359.4553288084
 20
138.2411999969
 30
0.0
 10
358.3728862518
 20
139.5207590538
 30
0.0
 10
357.4642826603
 20
140.2633103263
 30
0.0
 10
356.9612547195
 20
140.6189869224
 30
0.0
  0
SPLINE
  5
541
100
AcDbEntity
  8
7_ALL_FEATURES
100
AcDbSpline
 62
7
  6
CONTINUOUS
 70
0
 71
3
 72
13
 73
9
 74
0
 42
0.0000001
 43
0.0000001
 44
0.0000000001
 40
0.0
 40
0.0
 40
0.0
 40
0.0
 40
0.2862657376
 40
0.543483586
 40
0.663142146
 40
0.7781784806
 40
0.8899683078
 40
1.0
 40
1.0
 40
1.0
 40
1.0
 10
326.7604877514
 20
140.6136189715
 30
0.0
 10
326.3145963109
 20
140.2703330432
 30
0.0
 10
325.5123653001
 20
139.5566483309
 30
0.0
 10
324.7107063108
 20
138.5153007423
 30
0.0
 10
324.2646481851
 20
137.6548148628
 30
0.0
 10
324.0295321114
 20
137.0134163797
 30
0.0
 10
323.8878528105
 20
136.3644785699
 30
0.0
 10
323.8560717909
 20
135.9278067639
 30
0.0
 10
323.8560717909
 20
135.7115109844
 30
0.0
  0
SPLINE
  5
542
100
AcDbEntity
  8
7_ALL_FEATURES
100
AcDbSpline
 62
7
  6
CONTINUOUS
 70
0
 71
3
 72
33
 73
29
 74
0
 42
0.0000001
 43
0.0000001
 44
0.0000000001
 40
0.0
 40
0.0
 40
0.0
 40
0.0
 40
0.0203384368
 40
0.0412575892
 40
0.0632480639
 40
0.0867155743
 40
0.1119380256
 40
0.1390789431
 40
0.168203453
 40
0.1992954417
 40
0.2494152299
 40
0.303276197
 40
0.360188463
 40
0.419322986
 40
0.4797585161
 40
0.5405227706
 40
0.6006308858
 40
0.6591232471
 40
0.7151045836
 40
0.7677866515
 40
0.8165380909
 40
0.8609469333
 40
0.900904302
 40
0.9367137006
 40
0.9533329208
 40
0.9692856801
 40
0.9847697128
 40
1.0
 40
1.0
 40
1.0
 40
1.0
 10
359.8560717909
 20
135.7115109844
 30
0.0
 10
359.8560717909
 20
135.4161041276
 30
0.0
 10
359.7961279362
 20
134.8152996821
 30
0.0
 10
359.5301232008
 20
133.9307600629
 30
0.0
 10
359.0919046144
 20
133.0668822699
 30
0.0
 10
358.4879832002
 20
132.232233005
 30
0.0
 10
357.7254029361
 20
131.433474845
 30
0.0
 10
356.8117272629
 20
130.6774586246
 30
0.0
 10
355.7557890305
 20
129.9705364814
 30
0.0
 10
354.3490122951
 20
129.1992522306
 30
0.0
 10
352.5403709394
 20
128.4285245832
 30
0.0
 10
350.3073523621
 20
127.7287248909
 30
0.0
 10
347.8941277231
 20
127.1987887233
 30
0.0
 10
345.352074051
 20
126.8500458345
 30
0.0
 10
342.7352932936
 20
126.6899895556
 30
0.0
 10
340.0997181024
 20
126.7220807568
 30
0.0
 10
337.5016942482
 20
126.9456238452
 30
0.0
 10
334.996698165
 20
127.3557952762
 30
0.0
 10
332.6380332791
 20
127.9437842717
 30
0.0
 10
330.4755393174
 20
128.6971419838
 30
0.0
 10
328.5544661023
 20
129.6001821109
 30
0.0
 10
326.9142531161
 20
130.6353212162
 30
0.0
 10
325.5889116406
 20
131.782884297
 30
0.0
 10
324.7502724081
 20
132.8449658312
 30
0.0
 10
324.2835280969
 20
133.7243431738
 30
0.0
 10
324.0375796787
 20
134.3798756745
 30
0.0
 10
323.8893349806
 20
135.0435188681
 30
0.0
 10
323.8560717909
 20
135.4902977558
 30
0.0
 10
323.8560717909
 20
135.7115109844
 30
0.0
  0
SPLINE
  5
543
100
AcDbEntity
  8
7_ALL_FEATURES
100
AcDbSpline
 62
7
  6
CONTINUOUS
 70
0
 71
3
 72
9
 73
5
 74
0
 42
0.0000001
 43
0.0000001
 44
0.0000000001
 40
0.0
 40
0.0
 40
0.0
 40
0.0
 40
0.2487649331
 40
1.0
 40
1.0
 40
1.0
 40
1.0
 10
360.3560717909
 20
135.2784982826
 30
0.0
 10
360.3560717909
 20
135.1978479981
 30
0.0
 10
360.3475842216
 20
134.8736892446
 30
0.0
 10
360.3048529081
 20
134.5505198194
 30
0.0
 10
360.2547988282
 20
134.3121662789
 30
0.0
  0
SPLINE
  5
544
100
AcDbEntity
  8
7_ALL_FEATURES
100
AcDbSpline
 62
7
  6
CONTINUOUS
 70
0
 71
3
 72
13
 73
9
 74
0
 42
0.0000001
 43
0.0000001
 44
0.0000000001
 40
0.0
 40
0.0
 40
0.0
 40
0.0
 40
0.1100448221
 40
0.2218460496
 40
0.3368905584
 40
0.4565528533
 40
0.7137627833
 40
1.0
 40
1.0
 40
1.0
 40
1.0
 10
359.8560717909
 20
135.7115109844
 30
0.0
 10
359.8560717909
 20
135.9276784312
 30
0.0
 10
359.824328978
 20
136.364086626
 30
0.0
 10
359.682819004
 20
137.0126405663
 30
0.0
 10
359.4479822781
 20
137.6536698098
 30
0.0
 10
359.0024583897
 20
138.5136613449
 30
0.0
 10
358.2017483729
 20
139.5544678313
 30
0.0
 10
357.4003981279
 20
140.2678817274
 30
0.0
 10
356.9549923486
 20
140.6110492735
 30
0.0
  0
SPLINE
  5
545
100
AcDbEntity
  8
7_ALL_FEATURES
100
AcDbSpline
 62
7
  6
CONTINUOUS
 70
0
 71
3
 72
27
 73
23
 74
0
 42
0.0000001
 43
0.0000001
 44
0.0000000001
 40
0.0
 40
0.0
 40
0.0
 40
0.0
 40
0.019549083
 40
0.0398722247
 40
0.0614555603
 40
0.0847043986
 40
0.1369791046
 40
0.1974702466
 40
0.265598964
 40
0.3400112924
 40
0.4188602748
 40
0.4999992074
 40
0.5811381889
 40
0.6599873123
 40
0.7343998535
 40
0.8025288481
 40
0.8630203004
 40
0.9152953081
 40
0.9385442128
 40
0.9601276558
 40
0.9804509199
 40
1.0
 40
1.0
 40
1.0
 40
1.0
 10
360.4025710118
 20
135.2763085741
 30
0.0
 10
360.3910553971
 20
134.9877109565
 30
0.0
 10
360.3090324896
 20
134.3999874771
 30
0.0
 10
360.0154007963
 20
133.5358323573
 30
0.0
 10
359.5519858486
 20
132.6871625725
 30
0.0
 10
358.6789531173
 20
131.5429085193
 30
0.0
 10
357.1491746487
 20
130.2094531388
 30
0.0
 10
354.8258410046
 20
128.8660650007
 30
0.0
 10
352.0261605124
 20
127.7632884382
 30
0.0
 10
348.8523174858
 20
126.9442453236
 30
0.0
 10
345.420062191
 20
126.4397426436
 30
0.0
 10
341.856106446
 20
126.2694042982
 30
0.0
 10
338.2921482746
 20
126.4397356438
 30
0.0
 10
334.8598860956
 20
126.9442324813
 30
0.0
 10
331.6860325093
 20
127.7632723376
 30
0.0
 10
328.8863392144
 20
128.8660482986
 30
0.0
 10
326.5629903974
 20
130.209436911
 30
0.0
 10
325.0332028108
 20
131.542897054
 30
0.0
 10
324.1601622666
 20
132.6871540013
 30
0.0
 10
323.6967445233
 20
133.5358274214
 30
0.0
 10
323.4031119875
 20
134.3999858033
 30
0.0
 10
323.321088367
 20
134.9877109411
 30
0.0
 10
323.3095726173
 20
135.2763085095
 30
0.0
  0
SPLINE
  5
546
100
AcDbEntity
  8
7_ALL_FEATURES
100
AcDbSpline
 62
7
  6
CONTINUOUS
 70
0
 71
3
 72
11
 73
7
 74
0
 42
0.0000001
 43
0.0000001
 44
0.0000000001
 40
0.0
 40
0.0
 40
0.0
 40
0.0
 40
0.2456125753
 40
0.5000009113
 40
0.754388776
 40
1.0
 40
1.0
 40
1.0
 40
1.0
 10
356.2986644362
 20
114.1007391953
 30
0.0
 10
353.9771139531
 20
113.5630309826
 30
0.0
 10
349.1780421314
 20
112.7686753631
 30
0.0
 10
341.8557154417
 20
112.3770767564
 30
0.0
 10
334.5334056201
 20
112.7687500874
 30
0.0
 10
329.7343603503
 20
113.5631581656
 30
0.0
 10
327.4128287376
 20
114.1008897488
 30
0.0
  0
SPLINE
  5
547
100
AcDbEntity
  8
7_ALL_FEATURES
100
AcDbSpline
 62
7
  6
CONTINUOUS
 70
0
 71
3
 72
33
 73
29
 74
0
 42
0.0000001
 43
0.0000001
 44
0.0000000001
 40
0.0
 40
0.0
 40
0.0
 40
0.0
 40
0.0206754808
 40
0.0418879483
 40
0.0641195157
 40
0.0877588522
 40
0.113085402
 40
0.140269936
 40
0.169387166
 40
0.2004307342
 40
0.2333264571
 40
0.2679456787
 40
0.3415966523
 40
0.4196548819
 40
0.5000002383
 40
0.5803455808
 40
0.6584037689
 40
0.7320546726
 40
0.7666738548
 40
0.7995695358
 40
0.8306130539
 40
0.8597302357
 40
0.8869147254
 40
0.9122412323
 40
0.9358805335
 40
0.9581120717
 40
0.9793245277
 40
1.0
 40
1.0
 40
1.0
 40
1.0
 10
299.3560717909
 20
134.230553624
 30
0.0
 10
299.3560717909
 20
134.9410778019
 30
0.0
 10
299.4994840548
 20
136.3843406678
 30
0.0
 10
300.1362287817
 20
138.5063726764
 30
0.0
 10
301.1818334431
 20
140.5731752892
 30
0.0
 10
302.618849136
 20
142.5641319854
 30
0.0
 10
304.4288534257
 20
144.4637909707
 30
0.0
 10
306.592577869
 20
146.2578029462
 30
0.0
 10
309.0891549057
 20
147.9323117111
 30
0.0
 10
311.895355634
 20
149.473547209
 30
0.0
 10
314.9852186624
 20
150.8685002917
 30
0.0
 10
319.5387927732
 20
152.5510937242
 30
0.0
 10
325.7475121617
 20
154.18398531
 30
0.0
 10
333.6477587342
 20
155.365866802
 30
0.0
 10
341.8560959721
 20
155.7647802137
 30
0.0
 10
350.0644314682
 20
155.3658617405
 30
0.0
 10
357.9646732918
 20
154.183977302
 30
0.0
 10
364.1733863632
 20
152.5510820814
 30
0.0
 10
368.7269546738
 20
150.8684880445
 30
0.0
 10
371.8168129075
 20
149.4735352646
 30
0.0
 10
374.6230080327
 20
147.9322995755
 30
0.0
 10
377.1195799292
 20
146.2577920171
 30
0.0
 10
379.2832999542
 20
144.4637820202
 30
0.0
 10
381.0933002675
 20
142.5641250375
 30
0.0
 10
382.5303125852
 20
140.5731705371
 30
0.0
 10
383.5759159764
 20
138.5063702348
 30
0.0
 10
384.2126595639
 20
136.3843396522
 30
0.0
 10
384.3560717909
 20
134.9410775077
 30
0.0
 10
384.3560717909
 20
134.2305536239
 30
0.0
  0
SPLINE
  5
548
100
AcDbEntity
  8
7_ALL_FEATURES
100
AcDbSpline
 62
7
  6
CONTINUOUS
 70
0
 71
3
 72
16
 73
12
 74
0
 42
0.0000001
 43
0.0000001
 44
0.0000000001
 40
0.0
 40
0.0
 40
0.0
 40
0.0
 40
0.047164747
 40
0.0948834545
 40
0.193855859
 40
0.3006620384
 40
0.4177178479
 40
0.5462804466
 40
0.6866193055
 40
0.8382263784
 40
1.0
 40
1.0
 40
1.0
 40
1.0
 10
384.3560717909
 20
134.2305536239
 30
0.0
 10
384.3560717909
 20
133.7578105805
 30
0.0
 10
384.2933351002
 20
132.8055754806
 30
0.0
 10
383.9162479707
 20
130.8948599759
 30
0.0
 10
382.9515981182
 20
128.5158090959
 30
0.0
 10
381.1007912528
 20
125.8365422018
 30
0.0
 10
378.592198916
 20
123.3270808341
 30
0.0
 10
375.4735257504
 20
121.0186482125
 30
0.0
 10
371.7963969701
 20
118.9404326841
 30
0.0
 10
367.6204962598
 20
117.1223895957
 30
0.0
 10
364.6353197795
 20
116.1310602115
 30
0.0
 10
363.0777334796
 20
115.6803189224
 30
0.0
  0
SPLINE
  5
549
100
AcDbEntity
  8
7_ALL_FEATURES
100
AcDbSpline
 62
7
  6
CONTINUOUS
 70
0
 71
3
 72
15
 73
11
 74
0
 42
0.0000001
 43
0.0000001
 44
0.0000000001
 40
0.0
 40
0.0
 40
0.0
 40
0.0
 40
0.1195118462
 40
0.2436766716
 40
0.3710289613
 40
0.5000002088
 40
0.6289714292
 40
0.7563236387
 40
0.8804883325
 40
1.0
 40
1.0
 40
1.0
 40
1.0
 10
362.9266999887
 20
115.6368190222
 30
0.0
 10
361.2938004618
 20
115.1687507107
 30
0.0
 10
357.9244987409
 20
114.3496208066
 30
0.0
 10
352.7194538575
 20
113.4776422942
 30
0.0
 10
347.3332941492
 20
112.9485466444
 30
0.0
 10
341.8560060238
 20
112.7712112626
 30
0.0
 10
336.3787193144
 20
112.9485550385
 30
0.0
 10
330.992563801
 20
113.4776587739
 30
0.0
 10
325.7875258577
 20
114.3496450392
 30
0.0
 10
322.4182297381
 20
115.1687794142
 30
0.0
 10
320.7853335771
 20
115.6368502524
 30
0.0
  0
SPLINE
  5
54A
100
AcDbEntity
  8
7_ALL_FEATURES
100
AcDbSpline
 62
7
  6
CONTINUOUS
 70
0
 71
3
 72
16
 73
12
 74
0
 42
0.0000001
 43
0.0000001
 44
0.0000000001
 40
0.0
 40
0.0
 40
0.0
 40
0.0
 40
0.161762713
 40
0.3133571744
 40
0.4536849666
 40
0.5822409122
 40
0.6992966881
 40
0.8061105318
 40
0.9050976677
 40
0.9528255407
 40
1.0
 40
1.0
 40
1.0
 40
1.0
 10
320.6102393241
 20
115.687318608
 30
0.0
 10
319.0542424031
 20
116.1382843274
 30
0.0
 10
316.0721826293
 20
117.1299076674
 30
0.0
 10
311.9008118792
 20
118.9479504332
 30
0.0
 10
308.2278406985
 20
121.0257283094
 30
0.0
 10
305.1128139118
 20
123.3333341899
 30
0.0
 10
302.6072420796
 20
125.8416281373
 30
0.0
 10
300.7587322827
 20
128.5194326675
 30
0.0
 10
299.7953328434
 20
130.8969911928
 30
0.0
 10
299.4187287153
 20
132.8064810644
 30
0.0
 10
299.3560717909
 20
133.7581083515
 30
0.0
 10
299.3560717909
 20
134.230553624
 30
0.0
  0
SPLINE
  5
54B
100
AcDbEntity
  8
7_ALL_FEATURES
100
AcDbSpline
 62
7
  6
CONTINUOUS
 70
0
 71
3
 72
11
 73
7
 74
0
 42
0.0000001
 43
0.0000001
 44
0.0000000001
 40
0.0
 40
0.0
 40
0.0
 40
0.0
 40
0.18222907
 40
0.4005663962
 40
0.6717524331
 40
1.0
 40
1.0
 40
1.0
 40
1.0
 10
318.1060717909
 20
135.2784982826
 30
0.0
 10
318.1060717909
 20
135.165606627
 30
0.0
 10
318.059138259
 20
134.915980673
 30
0.0
 10
317.8492210858
 20
134.5500331307
 30
0.0
 10
317.4943544053
 20
134.183132967
 30
0.0
 10
317.1878992669
 20
133.9696712973
 30
0.0
 10
317.0134714627
 20
133.8651416197
 30
0.0
  0
SPLINE
  5
54C
100
AcDbEntity
  8
7_ALL_FEATURES
100
AcDbSpline
 62
7
  6
CONTINUOUS
 70
0
 71
3
 72
11
 73
7
 74
0
 42
0.0000001
 43
0.0000001
 44
0.0000000001
 40
0.0
 40
0.0
 40
0.0
 40
0.0
 40
0.2144157687
 40
0.4588016351
 40
0.7240568019
 40
1.0
 40
1.0
 40
1.0
 40
1.0
 10
317.0134714627
 20
133.8651416197
 30
0.0
 10
316.7491485081
 20
133.7067403066
 30
0.0
 10
316.1476899433
 20
133.4270723206
 30
0.0
 10
315.1473830349
 20
133.1307357016
 30
0.0
 10
314.0311137646
 20
132.9452496341
 30
0.0
 10
313.2526490794
 20
132.9034982826
 30
0.0
 10
312.8560717924
 20
132.9034982826
 30
0.0
  0
SPLINE
  5
54D
100
AcDbEntity
  8
7_ALL_FEATURES
100
AcDbSpline
 62
7
  6
CONTINUOUS
 70
0
 71
3
 72
11
 73
7
 74
0
 42
0.0000001
 43
0.0000001
 44
0.0000000001
 40
0.0
 40
0.0
 40
0.0
 40
0.0
 40
0.2758455897
 40
0.5410448526
 40
0.7854537905
 40
1.0
 40
1.0
 40
1.0
 40
1.0
 10
312.8560717924
 20
132.9034982826
 30
0.0
 10
312.4601772786
 20
132.9034982825
 30
0.0
 10
311.6830006165
 20
132.9451098988
 30
0.0
 10
310.5684007082
 20
133.1299850532
 30
0.0
 10
309.5691733817
 20
133.4253953517
 30
0.0
 10
308.9680938734
 20
133.7041872437
 30
0.0
 10
308.7037530871
 20
133.8621020859
 30
0.0
  0
SPLINE
  5
54E
100
AcDbEntity
  8
7_ALL_FEATURES
100
AcDbSpline
 62
7
  6
CONTINUOUS
 70
0
 71
3
 72
11
 73
7
 74
0
 42
0.0000001
 43
0.0000001
 44
0.0000000001
 40
0.0
 40
0.0
 40
0.0
 40
0.0
 40
0.3283728932
 40
0.599621672
 40
0.8179152502
 40
1.0
 40
1.0
 40
1.0
 40
1.0
 10
308.7037530871
 20
133.8621020859
 30
0.0
 10
308.5285603317
 20
133.9667606849
 30
0.0
 10
308.2207457464
 20
134.180549221
 30
0.0
 10
307.8642064648
 20
134.548212622
 30
0.0
 10
307.6532562888
 20
134.9150371369
 30
0.0
 10
307.6060717909
 20
135.1653383905
 30
0.0
 10
307.6060717909
 20
135.2784982826
 30
0.0
  0
SPLINE
  5
54F
100
AcDbEntity
  8
7_ALL_FEATURES
100
AcDbSpline
 62
7
  6
CONTINUOUS
 70
0
 71
3
 72
16
 73
12
 74
0
 42
0.0000001
 43
0.0000001
 44
0.0000000001
 40
0.0
 40
0.0
 40
0.0
 40
0.0
 40
0.1716429251
 40
0.3380646583
 40
0.4941315669
 40
0.6352379105
 40
0.7574041311
 40
0.8577143252
 40
0.8996742553
 40
0.9366697454
 40
1.0
 40
1.0
 40
1.0
 40
1.0
 10
370.8560717924
 20
132.9034982826
 30
0.0
 10
370.503021371
 20
132.9034982825
 30
0.0
 10
369.8071762351
 20
132.9368117685
 30
0.0
 10
368.7999510409
 20
133.085027581
 30
0.0
 10
367.8748198598
 20
133.3243792969
 30
0.0
 10
367.0700394811
 20
133.6423187507
 30
0.0
 10
366.4210198006
 20
134.0200782844
 30
0.0
 10
366.0081814804
 20
134.3828445798
 30
0.0
 10
365.7880625287
 20
134.6804672677
 30
0.0
 10
365.6516146935
 20
134.9401912055
 30
0.0
 10
365.6060717909
 20
135.148234987
 30
0.0
 10
365.6060717909
 20
135.2784982826
 30
0.0
  0
SPLINE
  5
550
100
AcDbEntity
  8
7_ALL_FEATURES
100
AcDbSpline
 62
7
  6
CONTINUOUS
 70
0
 71
3
 72
16
 73
12
 74
0
 42
0.0000001
 43
0.0000001
 44
0.0000000001
 40
0.0
 40
0.0
 40
0.0
 40
0.0
 40
0.063330373
 40
0.1003254638
 40
0.1422847122
 40
0.242594589
 40
0.3647596575
 40
0.5058655886
 40
0.6619325022
 40
0.828355802
 40
1.0
 40
1.0
 40
1.0
 40
1.0
 10
376.1060717909
 20
135.2784982826
 30
0.0
 10
376.1060717909
 20
135.1482347416
 30
0.0
 10
376.0605285741
 20
134.9401915674
 30
0.0
 10
375.9240818463
 20
134.6804694379
 30
0.0
 10
375.7039673039
 20
134.3828470848
 30
0.0
 10
375.2911316589
 20
134.0200838878
 30
0.0
 10
374.6421163273
 20
133.6423251883
 30
0.0
 10
373.8373396062
 20
133.3243850259
 30
0.0
 10
372.9122067928
 20
133.085029966
 30
0.0
 10
371.9049757736
 20
132.9368130235
 30
0.0
 10
371.2091248372
 20
132.9034982826
 30
0.0
 10
370.8560717924
 20
132.9034982826
 30
0.0
  0
SPLINE
  5
551
100
AcDbEntity
  8
7_ALL_FEATURES
100
AcDbSpline
 62
9
  6
CONTINUOUS
 70
0
 71
3
 72
11
 73
7
 74
0
 42
0.0000001
 43
0.0000001
 44
0.0000000001
 40
0.0
 40
0.0
 40
0.0
 40
0.0
 40
0.2026338369
 40
0.4433876382
 40
0.713710488
 40
1.0
 40
1.0
 40
1.0
 40
1.0
 10
373.3088826212
 20
133.1945236962
 30
0.0
 10
373.1829857103
 20
133.3187429952
 30
0.0
 10
372.8580634013
 20
133.5400234352
 30
0.0
 10
372.2759245673
 20
133.7698168071
 30
0.0
 10
371.5924415849
 20
133.9151092748
 30
0.0
 10
371.1059509757
 20
133.9478062312
 30
0.0
 10
370.8560717909
 20
133.9478062309
 30
0.0
  0
SPLINE
  5
552
100
AcDbEntity
  8
7_ALL_FEATURES
100
AcDbSpline
 62
9
  6
CONTINUOUS
 70
0
 71
3
 72
15
 73
11
 74
0
 42
0.0000001
 43
0.0000001
 44
0.0000000001
 40
0.0
 40
0.0
 40
0.0
 40
0.0
 40
0.0822258569
 40
0.1729618815
 40
0.2776171094
 40
0.3980561025
 40
0.533529376
 40
0.6815215312
 40
0.8384689215
 40
1.0
 40
1.0
 40
1.0
 40
1.0
 10
365.6060717909
 20
135.2784982826
 30
0.0
 10
365.6060717909
 20
135.4524831735
 30
0.0
 10
365.6829327613
 20
135.8212726539
 30
0.0
 10
366.0037717715
 20
136.3243150214
 30
0.0
 10
366.5039721246
 20
136.7762689298
 30
0.0
 10
367.1632859471
 20
137.1676022405
 30
0.0
 10
367.9587318921
 20
137.4873681086
 30
0.0
 10
368.8620535501
 20
137.7247227568
 30
0.0
 10
369.8399154149
 20
137.8707506503
 30
0.0
 10
370.5142818948
 20
137.9034982825
 30
0.0
 10
370.8560717909
 20
137.9034982826
 30
0.0
  0
SPLINE
  5
553
100
AcDbEntity
  8
7_ALL_FEATURES
100
AcDbSpline
 62
9
  6
CONTINUOUS
 70
0
 71
3
 72
11
 73
7
 74
0
 42
0.0000001
 43
0.0000001
 44
0.0000000001
 40
0.0
 40
0.0
 40
0.0
 40
0.0
 40
0.2135950785
 40
0.4444260544
 40
0.7046407357
 40
1.0
 40
1.0
 40
1.0
 40
1.0
 10
307.6060717909
 20
135.2784982826
 30
0.0
 10
307.6060717909
 20
135.4297425996
 30
0.0
 10
307.6628282789
 20
135.7465104139
 30
0.0
 10
307.9052515945
 20
136.1901647456
 30
0.0
 10
308.289554387
 20
136.5993439578
 30
0.0
 10
308.6112648278
 20
136.8296041995
 30
0.0
 10
308.7896294227
 20
136.9388098596
 30
0.0
  0
SPLINE
  5
554
100
AcDbEntity
  8
7_ALL_FEATURES
100
AcDbSpline
 62
9
  6
CONTINUOUS
 70
0
 71
3
 72
15
 73
11
 74
0
 42
0.0000001
 43
0.0000001
 44
0.0000000001
 40
0.0
 40
0.0
 40
0.0
 40
0.0
 40
0.1615310785
 40
0.3184784687
 40
0.4664706241
 40
0.6019438976
 40
0.7223828907
 40
0.8270381186
 40
0.9177741431
 40
1.0
 40
1.0
 40
1.0
 40
1.0
 10
370.8560717909
 20
137.9034982826
 30
0.0
 10
371.197861687
 20
137.9034982826
 30
0.0
 10
371.8722281668
 20
137.8707506502
 30
0.0
 10
372.8500900318
 20
137.7247227569
 30
0.0
 10
373.75341169
 20
137.4873681083
 30
0.0
 10
374.5488576353
 20
137.1676022404
 30
0.0
 10
375.2081714576
 20
136.7762689294
 30
0.0
 10
375.7083718105
 20
136.3243150213
 30
0.0
 10
376.0292108206
 20
135.8212726538
 30
0.0
 10
376.1060717909
 20
135.4524831735
 30
0.0
 10
376.1060717909
 20
135.2784982826
 30
0.0
  0
SPLINE
  5
555
100
AcDbEntity
  8
3_ALL_AXES
100
AcDbSpline
 62
7
  6
CONTINUOUS
 70
0
 71
3
 72
13
 73
9
 74
0
 42
0.0000001
 43
0.0000001
 44
0.0000000001
 40
0.0
 40
0.0
 40
0.0
 40
0.0
 40
0.3048169153
 40
0.4491076208
 40
0.5840630003
 40
0.7074267733
 40
0.8178500073
 40
1.0
 40
1.0
 40
1.0
 40
1.0
 10
370.8560717909
 20
137.4704855807
 30
0.0
 10
371.4457859452
 20
137.4704855807
 30
0.0
 10
372.3176697314
 20
137.398779882
 30
0.0
 10
373.4214324797
 20
137.1501960684
 30
0.0
 10
374.1609793478
 20
136.9014952176
 30
0.0
 10
374.8075550313
 20
136.592559573
 30
0.0
 10
375.4751320032
 20
136.1455404533
 30
0.0
 10
375.8666770237
 20
135.6967781072
 30
0.0
 10
375.9999366173
 20
135.3705493406
 30
0.0
  0
SPLINE
  5
556
100
AcDbEntity
  8
3_ALL_AXES
100
AcDbSpline
 62
7
  6
CONTINUOUS
 70
0
 71
3
 72
9
 73
5
 74
0
 42
0.0000001
 43
0.0000001
 44
0.0000000001
 40
0.0
 40
0.0
 40
0.0
 40
0.0
 40
0.2535414466
 40
1.0
 40
1.0
 40
1.0
 40
1.0
 10
375.9999366173
 20
135.3705493406
 30
0.0
 10
376.0069524598
 20
135.3533740696
 30
0.0
 10
376.0334133388
 20
135.2851466302
 30
0.0
 10
376.0549034455
 20
135.2149739451
 30
0.0
 10
376.0677933799
 20
135.1618943663
 30
0.0
  0
SPLINE
  5
557
100
AcDbEntity
  8
7_ALL_FEATURES
100
AcDbSpline
 62
9
  6
CONTINUOUS
 70
0
 71
3
 72
31
 73
27
 74
0
 42
0.0000001
 43
0.0000001
 44
0.0000000001
 40
0.0
 40
0.0
 40
0.0
 40
0.0
 40
0.0203403465
 40
0.0412634646
 40
0.0632576637
 40
0.086728138
 40
0.1119542863
 40
0.1390995295
 40
0.1682279429
 40
0.1993249575
 40
0.2494521859
 40
0.3033210307
 40
0.3602415784
 40
0.4193847393
 40
0.4798291955
 40
0.5406025423
 40
0.6007197156
 40
0.6592208404
 40
0.7152104544
 40
0.7679002157
 40
0.8166587419
 40
0.861074015
 40
0.9010374013
 40
0.9368516842
 40
0.9693621191
 40
1.0
 40
1.0
 40
1.0
 40
1.0
 10
360.7060717909
 20
135.7115109844
 30
0.0
 10
360.7060717909
 20
136.0208508991
 30
0.0
 10
360.6432700337
 20
136.6500185273
 30
0.0
 10
360.3647506181
 20
137.5763445278
 30
0.0
 10
359.9058163881
 20
138.4810237479
 30
0.0
 10
359.2733736566
 20
139.3550803086
 30
0.0
 10
358.4747984767
 20
140.1915701259
 30
0.0
 10
357.517955684
 20
140.9832568321
 30
0.0
 10
356.4121813046
 20
141.723611292
 30
0.0
 10
354.9389411882
 20
142.5312640832
 30
0.0
 10
353.0448980487
 20
143.338407428
 30
0.0
 10
350.70642996
 20
144.0712443654
 30
0.0
 10
348.1792548442
 20
144.6262108252
 30
0.0
 10
345.5171643876
 20
144.9914283905
 30
0.0
 10
342.7768143903
 20
145.1590522164
 30
0.0
 10
340.016777426
 20
145.1254539607
 30
0.0
 10
337.2960626688
 20
144.8913578806
 30
0.0
 10
334.6727719202
 20
144.46181398
 30
0.0
 10
332.2027256294
 20
143.8460467249
 30
0.0
 10
329.9381258283
 20
143.0571219879
 30
0.0
 10
327.9263242026
 20
142.1113832156
 30
0.0
 10
326.2087258229
 20
141.0275207344
 30
0.0
 10
324.8205908615
 20
139.8252697344
 30
0.0
 10
323.7920345766
 20
138.5233537975
 30
0.0
 10
323.1530939127
 20
137.1429298133
 30
0.0
 10
323.0060717909
 20
136.1774577887
 30
0.0
 10
323.0060717909
 20
135.7115109844
 30
0.0
  0
SPLINE
  5
558
100
AcDbEntity
  8
7_ALL_FEATURES
100
AcDbSpline
 62
9
  6
CONTINUOUS
 70
0
 71
3
 72
11
 73
7
 74
0
 42
0.0000001
 43
0.0000001
 44
0.0000000001
 40
0.0
 40
0.0
 40
0.0
 40
0.0
 40
0.294119902
 40
0.5683005838
 40
0.8063172722
 40
1.0
 40
1.0
 40
1.0
 40
1.0
 10
370.8560717909
 20
134.1754519445
 30
0.0
 10
370.5718788413
 20
134.1754519448
 30
0.0
 10
370.0218306922
 20
134.1348930099
 30
0.0
 10
369.2597068805
 20
133.954614659
 30
0.0
 10
368.6338492002
 20
133.6732145798
 30
0.0
 10
368.3054583792
 20
133.3988678762
 30
0.0
 10
368.1941967827
 20
133.2483874508
 30
0.0
  0
SPLINE
  5
559
100
AcDbEntity
  8
3_ALL_AXES
100
AcDbSpline
 62
7
  6
CONTINUOUS
 70
0
 71
3
 72
13
 73
9
 74
0
 42
0.0000001
 43
0.0000001
 44
0.0000000001
 40
0.0
 40
0.0
 40
0.0
 40
0.0
 40
0.3048169153
 40
0.4491076208
 40
0.5840630003
 40
0.7074267733
 40
0.8178500073
 40
1.0
 40
1.0
 40
1.0
 40
1.0
 10
370.8560717909
 20
137.4704855807
 30
0.0
 10
370.2663576367
 20
137.4704855807
 30
0.0
 10
369.3944738505
 20
137.398779882
 30
0.0
 10
368.2907111022
 20
137.1501960684
 30
0.0
 10
367.5511642341
 20
136.9014952176
 30
0.0
 10
366.9045885506
 20
136.592559573
 30
0.0
 10
366.2370115786
 20
136.1455404533
 30
0.0
 10
365.8454665581
 20
135.6967781072
 30
0.0
 10
365.7122069645
 20
135.3705493406
 30
0.0
  0
SPLINE
  5
55A
100
AcDbEntity
  8
3_ALL_AXES
100
AcDbSpline
 62
7
  6
CONTINUOUS
 70
0
 71
3
 72
9
 73
5
 74
0
 42
0.0000001
 43
0.0000001
 44
0.0000000001
 40
0.0
 40
0.0
 40
0.0
 40
0.0
 40
0.2535414466
 40
1.0
 40
1.0
 40
1.0
 40
1.0
 10
365.7122069645
 20
135.3705493406
 30
0.0
 10
365.7051911221
 20
135.3533740696
 30
0.0
 10
365.678730243
 20
135.2851466302
 30
0.0
 10
365.6572401363
 20
135.2149739451
 30
0.0
 10
365.6443502019
 20
135.1618943663
 30
0.0
  0
SPLINE
  5
55B
100
AcDbEntity
  8
7_ALL_FEATURES
100
AcDbSpline
 62
9
  6
CONTINUOUS
 70
0
 71
3
 72
31
 73
27
 74
0
 42
0.0000001
 43
0.0000001
 44
0.0000000001
 40
0.0
 40
0.0
 40
0.0
 40
0.0
 40
0.0203403465
 40
0.0412634646
 40
0.0632576637
 40
0.086728138
 40
0.1119542863
 40
0.1390995295
 40
0.1682279429
 40
0.1993249575
 40
0.2494521859
 40
0.3033210307
 40
0.3602415784
 40
0.4193847393
 40
0.4798291955
 40
0.5406025423
 40
0.6007197156
 40
0.6592208404
 40
0.7152104544
 40
0.7679002157
 40
0.8166587419
 40
0.861074015
 40
0.9010374013
 40
0.9368516842
 40
0.9693621191
 40
1.0
 40
1.0
 40
1.0
 40
1.0
 10
323.0060717909
 20
135.7115109844
 30
0.0
 10
323.0060717909
 20
135.4021710698
 30
0.0
 10
323.0688735481
 20
134.7730034416
 30
0.0
 10
323.3473929638
 20
133.8466774411
 30
0.0
 10
323.8063271937
 20
132.941998221
 30
0.0
 10
324.4387699252
 20
132.0679416603
 30
0.0
 10
325.2373451052
 20
131.231451843
 30
0.0
 10
326.1941878978
 20
130.4397651368
 30
0.0
 10
327.2999622773
 20
129.6994106769
 30
0.0
 10
328.7732023936
 20
128.8917578857
 30
0.0
 10
330.6672455331
 20
128.0846145409
 30
0.0
 10
333.0057136218
 20
127.3517776035
 30
0.0
 10
335.5328887377
 20
126.7968111437
 30
0.0
 10
338.1949791942
 20
126.4315935784
 30
0.0
 10
340.9353291915
 20
126.2639697525
 30
0.0
 10
343.6953661559
 20
126.2975680082
 30
0.0
 10
346.416080913
 20
126.5316640883
 30
0.0
 10
349.0393716616
 20
126.9612079889
 30
0.0
 10
351.5094179524
 20
127.576975244
 30
0.0
 10
353.7740177535
 20
128.365899981
 30
0.0
 10
355.7858193792
 20
129.3116387533
 30
0.0
 10
357.5034177589
 20
130.3955012345
 30
0.0
 10
358.8915527204
 20
131.5977522345
 30
0.0
 10
359.9201090053
 20
132.8996681714
 30
0.0
 10
360.5590496691
 20
134.2800921556
 30
0.0
 10
360.7060717909
 20
135.2455641802
 30
0.0
 10
360.7060717909
 20
135.7115109844
 30
0.0
  0
SPLINE
  5
55C
100
AcDbEntity
  8
7_ALL_FEATURES
100
AcDbSpline
 62
9
  6
CONTINUOUS
 70
0
 71
3
 72
21
 73
17
 74
0
 42
0.0000001
 43
0.0000001
 44
0.0000000001
 40
0.0
 40
0.0
 40
0.0
 40
0.0
 40
0.1724033926
 40
0.3341870595
 40
0.4083078218
 40
0.4767047376
 40
0.5388963626
 40
0.5948525036
 40
0.645133415
 40
0.6910661171
 40
0.734781976
 40
0.7789210247
 40
0.8260193905
 40
0.8779666373
 40
0.9358427474
 40
1.0
 40
1.0
 40
1.0
 40
1.0
 10
312.8560717909
 20
138.5865109844
 30
0.0
 10
313.4050955354
 20
138.5865109844
 30
0.0
 10
314.47073573
 20
138.5111979003
 30
0.0
 10
315.7460083694
 20
138.225847197
 30
0.0
 10
316.6541024625
 20
137.8833384324
 30
0.0
 10
317.2373285839
 20
137.5888034948
 30
0.0
 10
317.7309670798
 20
137.2548690209
 30
0.0
 10
318.1252843391
 20
136.8873537747
 30
0.0
 10
318.4115906827
 20
136.4917227874
 30
0.0
 10
318.5811563264
 20
136.0740701482
 30
0.0
 10
318.6255255055
 20
135.6441342206
 30
0.0
 10
318.5413051495
 20
135.2166201961
 30
0.0
 10
318.3342525437
 20
134.8050898931
 30
0.0
 10
318.0133615088
 20
134.4175918188
 30
0.0
 10
317.587092683
 20
134.0600211679
 30
0.0
 10
317.2551659869
 20
133.8554139256
 30
0.0
 10
317.0753910718
 20
133.7583374844
 30
0.0
  0
SPLINE
  5
55D
100
AcDbEntity
  8
7_ALL_FEATURES
100
AcDbSpline
 62
9
  6
CONTINUOUS
 70
0
 71
3
 72
11
 73
7
 74
0
 42
0.0000001
 43
0.0000001
 44
0.0000000001
 40
0.0
 40
0.0
 40
0.0
 40
0.0
 40
0.2226223846
 40
0.4680152516
 40
0.7297806635
 40
1.0
 40
1.0
 40
1.0
 40
1.0
 10
317.0753910718
 20
133.7583374844
 30
0.0
 10
316.7908666522
 20
133.6046974836
 30
0.0
 10
316.1632617744
 20
133.3353139124
 30
0.0
 10
315.1395426031
 20
133.0512193042
 30
0.0
 10
314.021861159
 20
132.8758340979
 30
0.0
 10
313.2485622682
 20
132.8365109844
 30
0.0
 10
312.8560717909
 20
132.8365109844
 30
0.0
  0
SPLINE
  5
55E
100
AcDbEntity
  8
7_ALL_FEATURES
100
AcDbSpline
 62
9
  6
CONTINUOUS
 70
0
 71
3
 72
11
 73
7
 74
0
 42
0.0000001
 43
0.0000001
 44
0.0000000001
 40
0.0
 40
0.0
 40
0.0
 40
0.0
 40
0.2475522504
 40
0.5000093254
 40
0.7524616829
 40
1.0
 40
1.0
 40
1.0
 40
1.0
 10
330.9038269309
 20
113.5514454888
 30
0.0
 10
332.6947840495
 20
113.2516406639
 30
0.0
 10
336.3405064391
 20
112.8057841305
 30
0.0
 10
341.8613580382
 20
112.5848868116
 30
0.0
 10
347.3820737597
 20
112.8066264945
 30
0.0
 10
351.0275902865
 20
113.253047376
 30
0.0
 10
352.8183966239
 20
113.5531337317
 30
0.0
  0
SPLINE
  5
55F
100
AcDbEntity
  8
7_ALL_FEATURES
100
AcDbSpline
 62
9
  6
CONTINUOUS
 70
0
 71
3
 72
11
 73
7
 74
0
 42
0.0000001
 43
0.0000001
 44
0.0000000001
 40
0.0
 40
0.0
 40
0.0
 40
0.0
 40
0.2701290567
 40
0.5318449113
 40
0.7772605785
 40
1.0
 40
1.0
 40
1.0
 40
1.0
 10
312.8560717909
 20
132.8365109844
 30
0.0
 10
312.4644358542
 20
132.8365109844
 30
0.0
 10
311.6927683276
 20
132.8756675929
 30
0.0
 10
310.5772656809
 20
133.0503124378
 30
0.0
 10
309.5551352119
 20
133.3332473341
 30
0.0
 10
308.9282254699
 20
133.601509086
 30
0.0
 10
308.6438438826
 20
133.7545151759
 30
0.0
  0
SPLINE
  5
560
100
AcDbEntity
  8
7_ALL_FEATURES
100
AcDbSpline
 62
9
  6
CONTINUOUS
 70
0
 71
3
 72
21
 73
17
 74
0
 42
0.0000001
 43
0.0000001
 44
0.0000000001
 40
0.0
 40
0.0
 40
0.0
 40
0.0
 40
0.0642295115
 40
0.1221726285
 40
0.17417515
 40
0.2213103737
 40
0.2654627816
 40
0.309168423
 40
0.3550731449
 40
0.4053169157
 40
0.4612340979
 40
0.5233899749
 40
0.5917569341
 40
0.6658543902
 40
0.8276096816
 40
1.0
 40
1.0
 40
1.0
 40
1.0
 10
308.6438438826
 20
133.7545151759
 30
0.0
 10
308.4635679007
 20
133.85150923
 30
0.0
 10
308.1306575899
 20
134.0559850714
 30
0.0
 10
307.7029004202
 20
134.4134641804
 30
0.0
 10
307.3805879833
 20
134.8009810245
 30
0.0
 10
307.1721980926
 20
135.2126393915
 30
0.0
 10
307.086763766
 20
135.6404177148
 30
0.0
 10
307.1301152878
 20
136.070756437
 30
0.0
 10
307.2989240263
 20
136.4888851847
 30
0.0
 10
307.5847232168
 20
136.8849972983
 30
0.0
 10
307.9787485044
 20
137.2529801561
 30
0.0
 10
308.4722963976
 20
137.5873572895
 30
0.0
 10
309.0556184744
 20
137.8822989076
 30
0.0
 10
309.964118093
 20
138.2253158408
 30
0.0
 10
311.2402232523
 20
138.5110873911
 30
0.0
 10
312.3066283795
 20
138.5865109844
 30
0.0
 10
312.8560717909
 20
138.5865109844
 30
0.0
  0
SPLINE
  5
561
100
AcDbEntity
  8
7_ALL_FEATURES
100
AcDbSpline
 62
9
  6
CONTINUOUS
 70
0
 71
3
 72
11
 73
7
 74
0
 42
0.0000001
 43
0.0000001
 44
0.0000000001
 40
0.0
 40
0.0
 40
0.0
 40
0.0
 40
0.2862883394
 40
0.5566105944
 40
0.7973647848
 40
1.0
 40
1.0
 40
1.0
 40
1.0
 10
370.8560717909
 20
133.9478062309
 30
0.0
 10
370.6061965793
 20
133.9478062313
 30
0.0
 10
370.119713279
 20
133.9151102662
 30
0.0
 10
369.436239152
 20
133.769822187
 30
0.0
 10
368.8541047104
 20
133.5400353314
 30
0.0
 10
368.529182197
 20
133.3187614928
 30
0.0
 10
368.4032831646
 20
133.1945456037
 30
0.0
  0
SPLINE
  5
562
100
AcDbEntity
  8
7_ALL_FEATURES
100
AcDbSpline
 62
9
  6
CONTINUOUS
 70
0
 71
3
 72
23
 73
19
 74
0
 42
0.0000001
 43
0.0000001
 44
0.0000000001
 40
0.0
 40
0.0
 40
0.0
 40
0.0
 40
0.080763612
 40
0.1592369975
 40
0.2332338448
 40
0.3009707238
 40
0.361190707
 40
0.4135186098
 40
0.4588868827
 40
0.500000005
 40
0.5411131284
 40
0.5864814023
 40
0.6388093082
 40
0.6990292933
 40
0.7667661715
 40
0.840763028
 40
0.9192364101
 40
1.0
 40
1.0
 40
1.0
 40
1.0
 10
370.8560717909
 20
132.8365109844
 30
0.0
 10
370.4817394151
 20
132.8365109844
 30
0.0
 10
369.7431576737
 20
132.8723733004
 30
0.0
 10
368.672173347
 20
133.0323083638
 30
0.0
 10
367.6828160096
 20
133.2922679128
 30
0.0
 10
366.8116070669
 20
133.6424711284
 30
0.0
 10
366.08949541
 20
134.0711351858
 30
0.0
 10
365.5416524777
 20
134.5659460367
 30
0.0
 10
365.1902537759
 20
135.11747662
 30
0.0
 10
365.0660517882
 20
135.7115110611
 30
0.0
 10
365.1902538454
 20
136.3055454904
 30
0.0
 10
365.5416525962
 20
136.8570760686
 30
0.0
 10
366.0894955838
 20
137.3518869005
 30
0.0
 10
366.8116072722
 20
137.780550939
 30
0.0
 10
367.6828162665
 20
138.1307541585
 30
0.0
 10
368.6721736439
 20
138.3907136427
 30
0.0
 10
369.7431578914
 20
138.5506487186
 30
0.0
 10
370.4817395172
 20
138.5865109844
 30
0.0
 10
370.8560717909
 20
138.5865109844
 30
0.0
  0
SPLINE
  5
563
100
AcDbEntity
  8
7_ALL_FEATURES
100
AcDbSpline
 62
9
  6
CONTINUOUS
 70
0
 71
3
 72
23
 73
19
 74
0
 42
0.0000001
 43
0.0000001
 44
0.0000000001
 40
0.0
 40
0.0
 40
0.0
 40
0.0
 40
0.080763612
 40
0.1592369975
 40
0.2332338448
 40
0.3009707238
 40
0.361190707
 40
0.4135186098
 40
0.4588868827
 40
0.500000005
 40
0.5411131284
 40
0.5864814023
 40
0.6388093082
 40
0.6990292933
 40
0.7667661715
 40
0.840763028
 40
0.9192364101
 40
1.0
 40
1.0
 40
1.0
 40
1.0
 10
370.8560717909
 20
138.5865109844
 30
0.0
 10
371.2304041667
 20
138.5865109844
 30
0.0
 10
371.9689859082
 20
138.5506486685
 30
0.0
 10
373.0399702348
 20
138.3907136051
 30
0.0
 10
374.0293275722
 20
138.130754056
 30
0.0
 10
374.900536515
 20
137.7805508405
 30
0.0
 10
375.6226481718
 20
137.3518867831
 30
0.0
 10
376.1704911041
 20
136.8570759322
 30
0.0
 10
376.521889806
 20
136.3055453489
 30
0.0
 10
376.6460917937
 20
135.7115109078
 30
0.0
 10
376.5218897364
 20
135.1174764785
 30
0.0
 10
376.1704909857
 20
134.5659459003
 30
0.0
 10
375.622647998
 20
134.0711350684
 30
0.0
 10
374.9005363097
 20
133.6424710299
 30
0.0
 10
374.0293273153
 20
133.2922678104
 30
0.0
 10
373.0399699379
 20
133.0323083262
 30
0.0
 10
371.9689856904
 20
132.8723732503
 30
0.0
 10
371.2304040646
 20
132.8365109844
 30
0.0
 10
370.8560717909
 20
132.8365109844
 30
0.0
  0
SPLINE
  5
564
100
AcDbEntity
  8
7_ALL_FEATURES
100
AcDbSpline
 62
9
  6
CONTINUOUS
 70
0
 71
3
 72
11
 73
7
 74
0
 42
0.0000001
 43
0.0000001
 44
0.0000000001
 40
0.0
 40
0.0
 40
0.0
 40
0.0
 40
0.2953592635
 40
0.5555739446
 40
0.7864049208
 40
1.0
 40
1.0
 40
1.0
 40
1.0
 10
316.9225141918
 20
136.9388098396
 30
0.0
 10
317.100878782
 20
136.8296041801
 30
0.0
 10
317.4225892144
 20
136.5993439401
 30
0.0
 10
317.8068919962
 20
136.1901647324
 30
0.0
 10
318.0493153048
 20
135.7465104067
 30
0.0
 10
318.1060717909
 20
135.4297425973
 30
0.0
 10
318.1060717909
 20
135.2784982826
 30
0.0
  0
SPLINE
  5
565
100
AcDbEntity
  8
7_ALL_FEATURES
100
AcDbSpline
 62
9
  6
CONTINUOUS
 70
0
 71
3
 72
11
 73
7
 74
0
 42
0.0000001
 43
0.0000001
 44
0.0000000001
 40
0.0
 40
0.0
 40
0.0
 40
0.0
 40
0.2192758935
 40
0.4526884151
 40
0.7109047427
 40
1.0
 40
1.0
 40
1.0
 40
1.0
 10
360.4060717909
 20
135.4517033633
 30
0.0
 10
360.4060717909
 20
135.9238455852
 30
0.0
 10
360.2521653536
 20
136.9039745421
 30
0.0
 10
359.5850012106
 20
138.3006562458
 30
0.0
 10
358.5141424941
 20
139.6127290985
 30
0.0
 10
357.6049310978
 20
140.3725620055
 30
0.0
 10
357.10004313
 20
140.7366568497
 30
0.0
  0
SPLINE
  5
566
100
AcDbEntity
  8
7_ALL_FEATURES
100
AcDbSpline
 62
9
  6
CONTINUOUS
 70
0
 71
3
 72
17
 73
13
 74
0
 42
0.0000001
 43
0.0000001
 44
0.0000000001
 40
0.0
 40
0.0
 40
0.0
 40
0.0
 40
0.0521070758
 40
0.1080492905
 40
0.2300226432
 40
0.3623026555
 40
0.5000033121
 40
0.6377034947
 40
0.7699821293
 40
0.891953343
 40
0.9478942808
 40
1.0
 40
1.0
 40
1.0
 40
1.0
 10
356.650332312
 20
141.0470645546
 30
0.0
 10
356.2030617787
 20
141.3427250845
 30
0.0
 10
355.2402001059
 20
141.9032482243
 30
0.0
 10
353.0893677671
 20
142.8972831296
 30
0.0
 10
350.0341729075
 20
143.8660424846
 30
0.0
 10
346.0531885395
 20
144.5688240883
 30
0.0
 10
341.8557073386
 20
144.8072214771
 30
0.0
 10
337.6582448504
 20
144.5687423602
 30
0.0
 10
333.6773156501
 20
143.8658832503
 30
0.0
 10
330.6221910554
 20
142.897062932
 30
0.0
 10
328.4714331715
 20
141.9029835266
 30
0.0
 10
327.5086142443
 20
141.3424404495
 30
0.0
 10
327.0613666022
 20
141.0467706025
 30
0.0
  0
SPLINE
  5
567
100
AcDbEntity
  8
7_ALL_FEATURES
100
AcDbSpline
 62
9
  6
CONTINUOUS
 70
0
 71
3
 72
11
 73
7
 74
0
 42
0.0000001
 43
0.0000001
 44
0.0000000001
 40
0.0
 40
0.0
 40
0.0
 40
0.0
 40
0.2890952575
 40
0.5473115853
 40
0.7807241067
 40
1.0
 40
1.0
 40
1.0
 40
1.0
 10
326.6121004874
 20
140.7366568754
 30
0.0
 10
326.1072125145
 20
140.3725620301
 30
0.0
 10
325.1980011089
 20
139.6127291205
 30
0.0
 10
324.1271423807
 20
138.3006562618
 30
0.0
 10
323.45997823
 20
136.9039745506
 30
0.0
 10
323.3060717909
 20
135.9238455878
 30
0.0
 10
323.3060717909
 20
135.4517033633
 30
0.0
  0
SPLINE
  5
568
100
AcDbEntity
  8
3_ALL_AXES
100
AcDbSpline
 62
7
  6
CONTINUOUS
 70
0
 71
3
 72
9
 73
5
 74
0
 42
0.0000001
 43
0.0000001
 44
0.0000000001
 40
0.0
 40
0.0
 40
0.0
 40
0.0
 40
0.2553876408
 40
1.0
 40
1.0
 40
1.0
 40
1.0
 10
317.5705754925
 20
136.0004195274
 30
0.0
 10
317.5851295384
 20
135.9855694874
 30
0.0
 10
317.6414207955
 20
135.9267460669
 30
0.0
 10
317.6948526473
 20
135.8651670268
 30
0.0
 10
317.7326570908
 20
135.8177739758
 30
0.0
  0
SPLINE
  5
569
100
AcDbEntity
  8
3_ALL_AXES
100
AcDbSpline
 62
7
  6
CONTINUOUS
 70
0
 71
3
 72
9
 73
5
 74
0
 42
0.0000001
 43
0.0000001
 44
0.0000000001
 40
0.0
 40
0.0
 40
0.0
 40
0.0
 40
0.2616703846
 40
1.0
 40
1.0
 40
1.0
 40
1.0
 10
317.7326570908
 20
135.8177739758
 30
0.0
 10
317.7610481909
 20
135.7821818408
 30
0.0
 10
317.8652739297
 20
135.642878063
 30
0.0
 10
317.9513577955
 20
135.4894736799
 30
0.0
 10
317.9999366173
 20
135.3705493406
 30
0.0
  0
SPLINE
  5
56A
100
AcDbEntity
  8
3_ALL_AXES
100
AcDbSpline
 62
7
  6
CONTINUOUS
 70
0
 71
3
 72
9
 73
5
 74
0
 42
0.0000001
 43
0.0000001
 44
0.0000000001
 40
0.0
 40
0.0
 40
0.0
 40
0.0
 40
0.2535414466
 40
1.0
 40
1.0
 40
1.0
 40
1.0
 10
317.9999366173
 20
135.3705493406
 30
0.0
 10
318.0069524598
 20
135.3533740696
 30
0.0
 10
318.0334133388
 20
135.2851466302
 30
0.0
 10
318.0549034455
 20
135.2149739451
 30
0.0
 10
318.0677933799
 20
135.1618943663
 30
0.0
  0
SPLINE
  5
56B
100
AcDbEntity
  8
7_ALL_FEATURES
100
AcDbSpline
 62
9
  6
CONTINUOUS
 70
0
 71
3
 72
11
 73
7
 74
0
 42
0.0000001
 43
0.0000001
 44
0.0000000001
 40
0.0
 40
0.0
 40
0.0
 40
0.0
 40
0.1936866747
 40
0.4317046929
 40
0.7058835987
 40
1.0
 40
1.0
 40
1.0
 40
1.0
 10
373.517896556
 20
133.2484554036
 30
0.0
 10
373.4066246283
 20
133.3989262462
 30
0.0
 10
373.0782281897
 20
133.673251602
 30
0.0
 10
372.4523799464
 20
133.9546316804
 30
0.0
 10
371.690280351
 20
134.1348961234
 30
0.0
 10
371.140253194
 20
134.1754519439
 30
0.0
 10
370.8560717909
 20
134.1754519445
 30
0.0
  0
SPLINE
  5
56C
100
AcDbEntity
  8
3_ALL_AXES
100
AcDbSpline
 62
7
  6
CONTINUOUS
 70
0
 71
3
 72
9
 73
5
 74
0
 42
0.0000001
 43
0.0000001
 44
0.0000000001
 40
0.0
 40
0.0
 40
0.0
 40
0.0
 40
0.2553876408
 40
1.0
 40
1.0
 40
1.0
 40
1.0
 10
308.1415680894
 20
136.0004195274
 30
0.0
 10
308.1270140435
 20
135.9855694874
 30
0.0
 10
308.0707227863
 20
135.9267460669
 30
0.0
 10
308.0172909345
 20
135.8651670268
 30
0.0
 10
307.979486491
 20
135.8177739758
 30
0.0
  0
SPLINE
  5
56D
100
AcDbEntity
  8
3_ALL_AXES
100
AcDbSpline
 62
7
  6
CONTINUOUS
 70
0
 71
3
 72
9
 73
5
 74
0
 42
0.0000001
 43
0.0000001
 44
0.0000000001
 40
0.0
 40
0.0
 40
0.0
 40
0.0
 40
0.2616703846
 40
1.0
 40
1.0
 40
1.0
 40
1.0
 10
307.979486491
 20
135.8177739758
 30
0.0
 10
307.9510953909
 20
135.7821818408
 30
0.0
 10
307.8468696521
 20
135.642878063
 30
0.0
 10
307.7607857863
 20
135.4894736799
 30
0.0
 10
307.7122069645
 20
135.3705493406
 30
0.0
  0
SPLINE
  5
56E
100
AcDbEntity
  8
3_ALL_AXES
100
AcDbSpline
 62
7
  6
CONTINUOUS
 70
0
 71
3
 72
9
 73
5
 74
0
 42
0.0000001
 43
0.0000001
 44
0.0000000001
 40
0.0
 40
0.0
 40
0.0
 40
0.0
 40
0.2535414466
 40
1.0
 40
1.0
 40
1.0
 40
1.0
 10
307.7122069645
 20
135.3705493406
 30
0.0
 10
307.7051911221
 20
135.3533740696
 30
0.0
 10
307.678730243
 20
135.2851466302
 30
0.0
 10
307.6572401363
 20
135.2149739451
 30
0.0
 10
307.6443502019
 20
135.1618943663
 30
0.0
  0
SPLINE
  5
56F
100
AcDbEntity
  8
7_ALL_FEATURES
100
AcDbSpline
 62
9
  6
CONTINUOUS
 70
0
 71
3
 72
15
 73
11
 74
0
 42
0.0000001
 43
0.0000001
 44
0.0000000001
 40
0.0
 40
0.0
 40
0.0
 40
0.0
 40
0.0969260855
 40
0.1976735775
 40
0.3054421541
 40
0.4225462139
 40
0.5503358354
 40
0.6893455367
 40
0.8394479351
 40
1.0
 40
1.0
 40
1.0
 40
1.0
 10
299.5534657479
 20
134.4746929284
 30
0.0
 10
299.5534657479
 20
133.6470883959
 30
0.0
 10
299.7556040006
 20
131.9531770238
 30
0.0
 10
300.648238722
 20
129.4821558417
 30
0.0
 10
302.1074957883
 20
127.0962515252
 30
0.0
 10
304.103815817
 20
124.8254570445
 30
0.0
 10
306.6067910342
 20
122.6941656679
 30
0.0
 10
309.5822710379
 20
120.726757769
 30
0.0
 10
312.9907735145
 20
118.9471744165
 30
0.0
 10
315.4455652343
 20
117.9327199888
 30
0.0
 10
316.7316211316
 20
117.4579985439
 30
0.0
  0
SPLINE
  5
570
100
AcDbEntity
  8
7_ALL_FEATURES
100
AcDbSpline
 62
9
  6
CONTINUOUS
 70
0
 71
3
 72
15
 73
11
 74
0
 42
0.0000001
 43
0.0000001
 44
0.0000000001
 40
0.0
 40
0.0
 40
0.0
 40
0.0
 40
0.1167654957
 40
0.2404748782
 40
0.3690044472
 40
0.5
 40
0.6309955528
 40
0.7595251218
 40
0.8832345043
 40
1.0
 40
1.0
 40
1.0
 40
1.0
 10
316.7316211316
 20
117.4579985439
 30
0.0
 10
318.5998268672
 20
116.7683882961
 30
0.0
 10
322.5280599796
 20
115.5612104893
 30
0.0
 10
328.697345287
 20
114.2800248407
 30
0.0
 10
335.1940289154
 20
113.4980703479
 30
0.0
 10
341.8560717985
 20
113.2352487745
 30
0.0
 10
348.5181146815
 20
113.4980703488
 30
0.0
 10
355.0147983092
 20
114.2800248426
 30
0.0
 10
361.1840836157
 20
115.5612104928
 30
0.0
 10
365.1123167272
 20
116.7683883003
 30
0.0
 10
366.9805224623
 20
117.4579985487
 30
0.0
  0
SPLINE
  5
571
100
AcDbEntity
  8
7_ALL_FEATURES
100
AcDbSpline
 62
9
  6
CONTINUOUS
 70
0
 71
3
 72
15
 73
11
 74
0
 42
0.0000001
 43
0.0000001
 44
0.0000000001
 40
0.0
 40
0.0
 40
0.0
 40
0.0
 40
0.1605520647
 40
0.310654463
 40
0.4496641641
 40
0.5774537856
 40
0.6945578453
 40
0.8023264216
 40
0.9030739141
 40
1.0
 40
1.0
 40
1.0
 40
1.0
 10
366.9805224623
 20
117.4579985487
 30
0.0
 10
368.2665783571
 20
117.9327199932
 30
0.0
 10
370.7213700733
 20
118.9471744194
 30
0.0
 10
374.1298725442
 20
120.7267577693
 30
0.0
 10
377.1053525448
 20
122.6941656645
 30
0.0
 10
379.6083277576
 20
124.8254570389
 30
0.0
 10
381.6046477853
 20
127.0962515137
 30
0.0
 10
383.0639048538
 20
129.4821558289
 30
0.0
 10
383.9565395775
 20
131.9531770147
 30
0.0
 10
384.1586778339
 20
133.6470883933
 30
0.0
 10
384.1586778339
 20
134.4746929284
 30
0.0
  0
SPLINE
  5
572
100
AcDbEntity
  8
7_ALL_FEATURES
100
AcDbSpline
 62
7
  6
CONTINUOUS
 70
0
 71
3
 72
15
 73
11
 74
0
 42
0.0000001
 43
0.0000001
 44
0.0000000001
 40
0.0
 40
0.0
 40
0.0
 40
0.0
 40
0.1024453096
 40
0.2077322829
 40
0.3182829398
 40
0.4361054962
 40
0.5625869912
 40
0.6985601088
 40
0.8443810302
 40
1.0
 40
1.0
 40
1.0
 40
1.0
 10
380.2348556617
 20
135.7115109844
 30
0.0
 10
380.2348556617
 20
135.090300219
 30
0.0
 10
380.1106694434
 20
133.827453107
 30
0.0
 10
379.5591296834
 20
131.9671825884
 30
0.0
 10
378.6502410941
 20
130.1490437721
 30
0.0
 10
377.3970626216
 20
128.3906351958
 30
0.0
 10
375.813809898
 20
126.7058285571
 30
0.0
 10
373.9159280311
 20
125.1085212756
 30
0.0
 10
371.7213630982
 20
123.6121253823
 30
0.0
 10
370.1241204373
 20
122.7183117872
 30
0.0
 10
369.2837680733
 20
122.2890367969
 30
0.0
  0
LINE
  5
573
100
AcDbEntity
  8
7_ALL_FEATURES
100
AcDbLine
 62
7
  6
CONTINUOUS
 10
367.0436763954
 20
121.2329656778
 11
366.9997080168
 21
121.2138716116
  0
SPLINE
  5
574
100
AcDbEntity
  8
7_ALL_FEATURES
100
AcDbSpline
 62
7
  6
CONTINUOUS
 70
0
 71
3
 72
15
 73
11
 74
0
 42
0.0000001
 43
0.0000001
 44
0.0000000001
 40
0.0
 40
0.0
 40
0.0
 40
0.0
 40
0.1146412329
 40
0.2379750494
 40
0.3674155963
 40
0.5
 40
0.6325844037
 40
0.7620249506
 40
0.8853587671
 40
1.0
 40
1.0
 40
1.0
 40
1.0
 10
366.9997080168
 20
121.2138716116
 30
0.0
 10
365.1950410557
 20
120.4313620407
 30
0.0
 10
361.3361185726
 20
119.0611407167
 30
0.0
 10
355.1908954193
 20
117.6104547936
 30
0.0
 10
348.6290454193
 20
116.7210610367
 30
0.0
 10
341.8560717909
 20
116.4214924795
 30
0.0
 10
335.0830981626
 20
116.7210610367
 30
0.0
 10
328.5212481626
 20
117.6104547936
 30
0.0
 10
322.3760250092
 20
119.0611407167
 30
0.0
 10
318.5171025261
 20
120.4313620407
 30
0.0
 10
316.7124355651
 20
121.2138716116
 30
0.0
  0
LINE
  5
575
100
AcDbEntity
  8
7_ALL_FEATURES
100
AcDbLine
 62
7
  6
CONTINUOUS
 10
316.7124355651
 20
121.2138716116
 11
316.6684671865
 21
121.2329656778
  0
SPLINE
  5
576
100
AcDbEntity
  8
7_ALL_FEATURES
100
AcDbSpline
 62
7
  6
CONTINUOUS
 70
0
 71
3
 72
15
 73
11
 74
0
 42
0.0000001
 43
0.0000001
 44
0.0000000001
 40
0.0
 40
0.0
 40
0.0
 40
0.0
 40
0.1556189698
 40
0.3014398912
 40
0.4374130088
 40
0.5638945038
 40
0.6817170602
 40
0.7922677171
 40
0.8975546904
 40
1.0
 40
1.0
 40
1.0
 40
1.0
 10
314.4283755085
 20
122.2890367969
 30
0.0
 10
313.5880231445
 20
122.7183117872
 30
0.0
 10
311.9907804836
 20
123.6121253823
 30
0.0
 10
309.7962155507
 20
125.1085212756
 30
0.0
 10
307.8983336839
 20
126.7058285571
 30
0.0
 10
306.3150809603
 20
128.3906351958
 30
0.0
 10
305.0619024877
 20
130.1490437721
 30
0.0
 10
304.1530138985
 20
131.9671825884
 30
0.0
 10
303.6014741385
 20
133.827453107
 30
0.0
 10
303.4772879201
 20
135.090300219
 30
0.0
 10
303.4772879201
 20
135.7115109844
 30
0.0
  0
SPLINE
  5
577
100
AcDbEntity
  8
7_ALL_FEATURES
100
AcDbSpline
 62
9
  6
CONTINUOUS
 70
0
 71
3
 72
33
 73
29
 74
0
 42
0.0000001
 43
0.0000001
 44
0.0000000001
 40
0.0
 40
0.0
 40
0.0
 40
0.0
 40
0.0203405289
 40
0.0412573565
 40
0.0632476494
 40
0.0867156549
 40
0.1119382639
 40
0.1390789137
 40
0.1682032989
 40
0.1992956559
 40
0.2494153361
 40
0.3032762033
 40
0.3601884065
 40
0.4193229165
 40
0.4797584684
 40
0.5405227619
 40
0.6006309173
 40
0.6591233098
 40
0.7151046609
 40
0.7677867295
 40
0.8165381376
 40
0.8609470031
 40
0.9009041515
 40
0.936714107
 40
0.953333569
 40
0.9692846345
 40
0.9847675842
 40
1.0
 40
1.0
 40
1.0
 40
1.0
 10
384.1586778339
 20
134.4746929284
 30
0.0
 10
384.1586778339
 20
135.1690135083
 30
0.0
 10
384.0179273055
 20
136.5810029347
 30
0.0
 10
383.3925853711
 20
138.6597389489
 30
0.0
 10
382.3627433454
 20
140.6898943944
 30
0.0
 10
380.9435860549
 20
142.6515793919
 30
0.0
 10
379.1512500657
 20
144.5286503234
 30
0.0
 10
377.0040390474
 20
146.3054401844
 30
0.0
 10
374.5224631355
 20
147.9668705194
 30
0.0
 10
371.2162695212
 20
149.7793949118
 30
0.0
 10
366.9657228995
 20
151.5907738828
 30
0.0
 10
361.7178070801
 20
153.2353965519
 30
0.0
 10
356.0463877172
 20
154.480835871
 30
0.0
 10
350.0721929188
 20
155.300436621
 30
0.0
 10
343.9223754349
 20
155.6765952341
 30
0.0
 10
337.7283861069
 20
155.6011764862
 30
0.0
 10
331.6226476488
 20
155.0758163769
 30
0.0
 10
325.7355395675
 20
154.1118501837
 30
0.0
 10
320.1923314907
 20
152.7299887917
 30
0.0
 10
315.1101605886
 20
150.9594796344
 30
0.0
 10
310.5953512205
 20
148.8372128904
 30
0.0
 10
306.7406441905
 20
146.404458387
 30
0.0
 10
303.6258397297
 20
143.7075563939
 30
0.0
 10
301.6549826223
 20
141.211433701
 30
0.0
 10
300.5580521891
 20
139.1448117642
 30
0.0
 10
299.9800454859
 20
137.6043092185
 30
0.0
 10
299.6315549513
 20
136.0446889408
 30
0.0
 10
299.5534657479
 20
134.9946489139
 30
0.0
 10
299.5534657479
 20
134.4746929284
 30
0.0
  0
SPLINE
  5
578
100
AcDbEntity
  8
7_ALL_FEATURES
100
AcDbSpline
 62
7
  6
CONTINUOUS
 70
0
 71
3
 72
33
 73
29
 74
0
 42
0.0000001
 43
0.0000001
 44
0.0000000001
 40
0.0
 40
0.0
 40
0.0
 40
0.0
 40
0.0203392774
 40
0.0412575572
 40
0.0632477904
 40
0.0867156193
 40
0.1119381751
 40
0.1390787472
 40
0.1682034654
 40
0.1992955714
 40
0.2494152649
 40
0.3032761344
 40
0.3601883222
 40
0.4193228056
 40
0.4797583402
 40
0.5405226388
 40
0.6006308243
 40
0.6591232648
 40
0.7151046703
 40
0.7677867847
 40
0.8165382272
 40
0.8609470806
 40
0.9009042983
 40
0.9367139675
 40
0.9533331328
 40
0.9692851913
 40
0.9847688776
 40
1.0
 40
1.0
 40
1.0
 40
1.0
 10
380.2348556617
 20
135.7115109844
 30
0.0
 10
380.2348556617
 20
136.3413903409
 30
0.0
 10
380.1070935554
 20
137.6224053775
 30
0.0
 10
379.5398552195
 20
139.5083535486
 30
0.0
 10
378.6055315838
 20
141.3502520629
 30
0.0
 10
377.3179161286
 20
143.1298957846
 30
0.0
 10
375.6919112601
 20
144.832912422
 30
0.0
 10
373.7438701216
 20
146.4449194203
 30
0.0
 10
371.4924214414
 20
147.9521576465
 30
0.0
 10
368.492936501
 20
149.5966319026
 30
0.0
 10
364.6366407096
 20
151.2399563474
 30
0.0
 10
359.8755066431
 20
152.732038757
 30
0.0
 10
354.7301452594
 20
153.8619517316
 30
0.0
 10
349.3100962041
 20
154.6055327081
 30
0.0
 10
343.7307131354
 20
154.9468045532
 30
0.0
 10
338.1112534818
 20
154.8783867994
 30
0.0
 10
332.5718564709
 20
154.4017619844
 30
0.0
 10
327.2308086174
 20
153.5272135351
 30
0.0
 10
322.2017620096
 20
152.2735295183
 30
0.0
 10
317.5909876466
 20
150.6672477522
 30
0.0
 10
313.4949563926
 20
148.7418280403
 30
0.0
 10
309.9977856754
 20
146.5347332695
 30
0.0
 10
307.1719309874
 20
144.0879652417
 30
0.0
 10
305.3838552832
 20
141.823411126
 30
0.0
 10
304.3886985601
 20
139.9484531795
 30
0.0
 10
303.8642856251
 20
138.550798884
 30
0.0
 10
303.5481828923
 20
137.135817423
 30
0.0
 10
303.4772879201
 20
136.1831978309
 30
0.0
 10
303.4772879201
 20
135.7115109844
 30
0.0
  0
SPLINE
  5
579
100
AcDbEntity
  8
7_ALL_FEATURES
100
AcDbSpline
 62
7
  6
CONTINUOUS
 70
0
 71
3
 72
27
 73
23
 74
0
 42
0.0000001
 43
0.0000001
 44
0.0000000001
 40
0.0
 40
0.0
 40
0.0
 40
0.0
 40
0.0826592268
 40
0.1603008642
 40
0.1981468307
 40
0.2364637193
 40
0.2766202277
 40
0.2979198529
 40
0.3203149066
 40
0.3509540815
 40
0.3806626124
 40
0.4379687079
 40
0.493649494
 40
0.548741396
 40
0.6040186376
 40
0.6600763819
 40
0.7174352054
 40
0.7766463716
 40
0.8188766607
 40
0.8605980543
 40
0.9438647411
 40
1.0
 40
1.0
 40
1.0
 40
1.0
 10
340.7915479371
 20
149.4773844637
 30
0.0
 10
340.6942922376
 20
149.4422597477
 30
0.0
 10
340.5079390991
 20
149.3725309525
 30
0.0
 10
340.3026459136
 20
149.2701506101
 30
0.0
 10
340.1789180365
 20
149.1767497269
 30
0.0
 10
340.1090611151
 20
149.0994617042
 30
0.0
 10
340.0732747775
 20
149.0288857658
 30
0.0
 10
340.0585830377
 20
148.9684199933
 30
0.0
 10
340.0545137093
 20
148.9144580369
 30
0.0
 10
340.0605452115
 20
148.8543741003
 30
0.0
 10
340.0865230515
 20
148.7698624745
 30
0.0
 10
340.1497127707
 20
148.6703809344
 30
0.0
 10
340.271089122
 20
148.5635915639
 30
0.0
 10
340.4312002092
 20
148.4724369704
 30
0.0
 10
340.6242914802
 20
148.398618738
 30
0.0
 10
340.8448315814
 20
148.3437649788
 30
0.0
 10
341.0873906031
 20
148.3096869869
 30
0.0
 10
341.3182887694
 20
148.2991035245
 30
0.0
 10
341.5262135848
 20
148.306343751
 30
0.0
 10
341.7643157834
 20
148.3315429471
 30
0.0
 10
342.0089813308
 20
148.3831449276
 30
0.0
 10
342.1792644452
 20
148.4383877756
 30
0.0
 10
342.2448057885
 20
148.4626909223
 30
0.0
  0
SPLINE
  5
57A
100
AcDbEntity
  8
7_ALL_FEATURES
100
AcDbSpline
 62
7
  6
CONTINUOUS
 70
0
 71
3
 72
9
 73
5
 74
0
 42
0.0000001
 43
0.0000001
 44
0.0000000001
 40
0.0
 40
0.0
 40
0.0
 40
0.0
 40
0.2500059247
 40
1.0
 40
1.0
 40
1.0
 40
1.0
 10
340.590943122
 20
150.0315959854
 30
0.0
 10
340.590943122
 20
149.9880029057
 30
0.0
 10
340.6468664919
 20
149.8128851385
 30
0.0
 10
340.8726985399
 20
149.6666527906
 30
0.0
 10
341.0533114753
 20
149.5720648924
 30
0.0
  0
SPLINE
  5
57B
100
AcDbEntity
  8
7_ALL_FEATURES
100
AcDbSpline
 62
7
  6
CONTINUOUS
 70
0
 71
3
 72
17
 73
13
 74
0
 42
0.0000001
 43
0.0000001
 44
0.0000000001
 40
0.0
 40
0.0
 40
0.0
 40
0.0
 40
0.1281677449
 40
0.2461327339
 40
0.3660286349
 40
0.4284999773
 40
0.4927031576
 40
0.5607602658
 40
0.6251843142
 40
0.7460608357
 40
0.8660071045
 40
1.0
 40
1.0
 40
1.0
 40
1.0
 10
342.5293699015
 20
150.0538211915
 30
0.0
 10
342.5293699015
 20
150.1167868599
 30
0.0
 10
342.4806991531
 20
150.2402906232
 30
0.0
 10
342.2508958239
 20
150.386058082
 30
0.0
 10
341.9843119358
 20
150.457443547
 30
0.0
 10
341.7482009753
 20
150.4862980106
 30
0.0
 10
341.5566117977
 20
150.4936196436
 30
0.0
 10
341.3630346356
 20
150.4861990048
 30
0.0
 10
341.120513407
 20
150.4563443519
 30
0.0
 10
340.8516226304
 20
150.3802962113
 30
0.0
 10
340.6330200336
 20
150.2245881623
 30
0.0
 10
340.590943122
 20
150.0974234074
 30
0.0
 10
340.590943122
 20
150.0315959854
 30
0.0
  0
SPLINE
  5
57C
100
AcDbEntity
  8
7_ALL_FEATURES
100
AcDbSpline
 62
7
  6
CONTINUOUS
 70
0
 71
3
 72
8
 73
4
 74
0
 42
0.0000001
 43
0.0000001
 44
0.0000000001
 40
0.0
 40
0.0
 40
0.0
 40
0.0
 40
1.0
 40
1.0
 40
1.0
 40
1.0
 10
341.7663570348
 20
149.5302415732
 30
0.0
 10
341.8239288341
 20
149.5512661458
 30
0.0
 10
341.8816393848
 20
149.5721984713
 30
0.0
 10
341.938290083
 20
149.5937979607
 30
0.0
  0
SPLINE
  5
57D
100
AcDbEntity
  8
7_ALL_FEATURES
100
AcDbSpline
 62
7
  6
CONTINUOUS
 70
0
 71
3
 72
9
 73
5
 74
0
 42
0.0000001
 43
0.0000001
 44
0.0000000001
 40
0.0
 40
0.0
 40
0.0
 40
0.0
 40
0.4144847084
 40
1.0
 40
1.0
 40
1.0
 40
1.0
 10
341.938290083
 20
149.5937979607
 30
0.0
 10
342.0610332626
 20
149.6405968544
 30
0.0
 10
342.3451637951
 20
149.7610617504
 30
0.0
 10
342.5293699015
 20
149.9447182084
 30
0.0
 10
342.5293699015
 20
150.0538211915
 30
0.0
  0
SPLINE
  5
57E
100
AcDbEntity
  8
7_ALL_FEATURES
100
AcDbSpline
 62
7
  6
CONTINUOUS
 70
0
 71
3
 72
9
 73
5
 74
0
 42
0.0000001
 43
0.0000001
 44
0.0000000001
 40
0.0
 40
0.0
 40
0.0
 40
0.0
 40
0.4915284383
 40
1.0
 40
1.0
 40
1.0
 40
1.0
 10
342.0392594469
 20
150.0567372646
 30
0.0
 10
342.0392594469
 20
149.9879695032
 30
0.0
 10
341.8849199649
 20
149.851664346
 30
0.0
 10
341.6497208741
 20
149.7777383992
 30
0.0
 10
341.5380101184
 20
149.7336836487
 30
0.0
  0
SPLINE
  5
57F
100
AcDbEntity
  8
7_ALL_FEATURES
100
AcDbSpline
 62
7
  6
CONTINUOUS
 70
0
 71
3
 72
9
 73
5
 74
0
 42
0.0000001
 43
0.0000001
 44
0.0000000001
 40
0.0
 40
0.0
 40
0.0
 40
0.0
 40
0.5012533447
 40
1.0
 40
1.0
 40
1.0
 40
1.0
 10
341.5489913668
 20
150.28505791
 30
0.0
 10
341.6719463879
 20
150.28505791
 30
0.0
 10
341.9406603907
 20
150.2514047169
 30
0.0
 10
342.0392594469
 20
150.1179073358
 30
0.0
 10
342.0392594469
 20
150.0567372646
 30
0.0
  0
SPLINE
  5
580
100
AcDbEntity
  8
7_ALL_FEATURES
100
AcDbSpline
 62
7
  6
CONTINUOUS
 70
0
 71
3
 72
20
 73
16
 74
0
 42
0.0000001
 43
0.0000001
 44
0.0000000001
 40
0.0
 40
0.0
 40
0.0
 40
0.0
 40
0.1135375114
 40
0.2256844723
 40
0.2811578863
 40
0.3367106574
 40
0.3932190784
 40
0.4520058265
 40
0.4895000008
 40
0.5256835703
 40
0.5950772204
 40
0.6621623141
 40
0.7283850651
 40
0.8614355268
 40
1.0
 40
1.0
 40
1.0
 40
1.0
 10
341.33194095
 20
149.8005168925
 30
0.0
 10
341.301236985
 20
149.8200008378
 30
0.0
 10
341.2398204061
 20
149.8585615553
 30
0.0
 10
341.1707100791
 20
149.9095798585
 30
0.0
 10
341.126851314
 20
149.9532176783
 30
0.0
 10
341.1013528717
 20
149.9876255713
 30
0.0
 10
341.0848626614
 20
150.0241547602
 30
0.0
 10
341.0798540075
 20
150.0575764804
 30
0.0
 10
341.0827084473
 20
150.0865293482
 30
0.0
 10
341.0923277728
 20
150.117463997
 30
0.0
 10
341.115638316
 20
150.1536658158
 30
0.0
 10
341.1604337193
 20
150.1922538023
 30
0.0
 10
341.2387743143
 20
150.2357765145
 30
0.0
 10
341.3686069097
 20
150.2747136975
 30
0.0
 10
341.4884449256
 20
150.28505791
 30
0.0
 10
341.5489913668
 20
150.28505791
 30
0.0
  0
SPLINE
  5
581
100
AcDbEntity
  8
7_ALL_FEATURES
100
AcDbSpline
 62
7
  6
CONTINUOUS
 70
0
 71
3
 72
9
 73
5
 74
0
 42
0.0000001
 43
0.0000001
 44
0.0000000001
 40
0.0
 40
0.0
 40
0.0
 40
0.0
 40
0.2409264408
 40
1.0
 40
1.0
 40
1.0
 40
1.0
 10
340.5464927098
 20
148.923172942
 30
0.0
 10
340.5464927098
 20
148.9715449131
 30
0.0
 10
340.6797451148
 20
149.1724364727
 30
0.0
 10
341.0590048275
 20
149.2792063179
 30
0.0
 10
341.3095581184
 20
149.365995724
 30
0.0
  0
SPLINE
  5
582
100
AcDbEntity
  8
7_ALL_FEATURES
100
AcDbSpline
 62
7
  6
CONTINUOUS
 70
0
 71
3
 72
9
 73
5
 74
0
 42
0.0000001
 43
0.0000001
 44
0.0000000001
 40
0.0
 40
0.0
 40
0.0
 40
0.0
 40
0.5005139184
 40
1.0
 40
1.0
 40
1.0
 40
1.0
 10
341.3262138875
 20
148.5359394461
 30
0.0
 10
341.1296043762
 20
148.5359394461
 30
0.0
 10
340.7345470978
 20
148.6278567883
 30
0.0
 10
340.5464927098
 20
148.8250700614
 30
0.0
 10
340.5464927098
 20
148.923172942
 30
0.0
  0
SPLINE
  5
583
100
AcDbEntity
  8
7_ALL_FEATURES
100
AcDbSpline
 62
7
  6
CONTINUOUS
 70
0
 71
3
 72
9
 73
5
 74
0
 42
0.0000001
 43
0.0000001
 44
0.0000000001
 40
0.0
 40
0.0
 40
0.0
 40
0.0
 40
0.7509172168
 40
1.0
 40
1.0
 40
1.0
 40
1.0
 10
342.2897790275
 20
148.8146214627
 30
0.0
 10
342.0889216411
 20
148.7141121039
 30
0.0
 10
341.8015301189
 20
148.5735708529
 30
0.0
 10
341.4204741985
 20
148.5359394461
 30
0.0
 10
341.3262138875
 20
148.5359394461
 30
0.0
  0
SPLINE
  5
584
100
AcDbEntity
  8
7_ALL_FEATURES
100
AcDbSpline
 62
7
  6
CONTINUOUS
 70
0
 71
3
 72
8
 73
4
 74
0
 42
0.0000001
 43
0.0000001
 44
0.0000000001
 40
0.0
 40
0.0
 40
0.0
 40
0.0
 40
1.0
 40
1.0
 40
1.0
 40
1.0
 10
345.3626370703
 20
147.5410068167
 30
0.0
 10
345.3096869135
 20
147.5410068167
 30
0.0
 10
345.2491969672
 20
147.526028426
 30
0.0
 10
345.2231909783
 20
147.5029665112
 30
0.0
  0
SPLINE
  5
585
100
AcDbEntity
  8
7_ALL_FEATURES
100
AcDbSpline
 62
7
  6
CONTINUOUS
 70
0
 71
3
 72
9
 73
5
 74
0
 42
0.0000001
 43
0.0000001
 44
0.0000000001
 40
0.0
 40
0.0
 40
0.0
 40
0.0
 40
0.5053411722
 40
1.0
 40
1.0
 40
1.0
 40
1.0
 10
345.5268829194
 20
147.4405467835
 30
0.0
 10
345.5268829194
 20
147.4649651663
 30
0.0
 10
345.5199929964
 20
147.5200009014
 30
0.0
 10
345.4104414814
 20
147.5410068167
 30
0.0
 10
345.3626370703
 20
147.5410068167
 30
0.0
  0
SPLINE
  5
586
100
AcDbEntity
  8
7_ALL_FEATURES
100
AcDbSpline
 62
7
  6
CONTINUOUS
 70
0
 71
3
 72
9
 73
5
 74
0
 42
0.0000001
 43
0.0000001
 44
0.0000000001
 40
0.0
 40
0.0
 40
0.0
 40
0.0
 40
0.4882113973
 40
1.0
 40
1.0
 40
1.0
 40
1.0
 10
345.3358407225
 20
147.5013902555
 30
0.0
 10
345.3667216026
 20
147.5013902555
 30
0.0
 10
345.4413935011
 20
147.4886331753
 30
0.0
 10
345.4377719277
 20
147.4514787033
 30
0.0
 10
345.4377719277
 20
147.4352925977
 30
0.0
  0
SPLINE
  5
587
100
AcDbEntity
  8
7_ALL_FEATURES
100
AcDbSpline
 62
7
  6
CONTINUOUS
 70
0
 71
3
 72
10
 73
6
 74
0
 42
0.0000001
 43
0.0000001
 44
0.0000000001
 40
0.0
 40
0.0
 40
0.0
 40
0.0
 40
0.502118989
 40
0.7251106965
 40
1.0
 40
1.0
 40
1.0
 40
1.0
 10
345.2212994714
 20
147.4089165848
 30
0.0
 10
345.2212994714
 20
147.4297334088
 30
0.0
 10
345.2176361336
 20
147.4613221212
 30
0.0
 10
345.2683533204
 20
147.4976194717
 30
0.0
 10
345.3130480285
 20
147.5013902555
 30
0.0
 10
345.3358407225
 20
147.5013902555
 30
0.0
  0
SPLINE
  5
588
100
AcDbEntity
  8
7_ALL_FEATURES
100
AcDbSpline
 62
7
  6
CONTINUOUS
 70
0
 71
3
 72
9
 73
5
 74
0
 42
0.0000001
 43
0.0000001
 44
0.0000000001
 40
0.0
 40
0.0
 40
0.0
 40
0.0
 40
0.4927604322
 40
1.0
 40
1.0
 40
1.0
 40
1.0
 10
344.2769121097
 20
147.1701663805
 30
0.0
 10
344.3422625349
 20
147.1701663805
 30
0.0
 10
344.4942532603
 20
147.1971963666
 30
0.0
 10
344.5024217656
 20
147.2734551314
 30
0.0
 10
344.5024217656
 20
147.3070904634
 30
0.0
  0
SPLINE
  5
589
100
AcDbEntity
  8
7_ALL_FEATURES
100
AcDbSpline
 62
7
  6
CONTINUOUS
 70
0
 71
3
 72
9
 73
5
 74
0
 42
0.0000001
 43
0.0000001
 44
0.0000000001
 40
0.0
 40
0.0
 40
0.0
 40
0.0
 40
0.4966166013
 40
1.0
 40
1.0
 40
1.0
 40
1.0
 10
344.053504128
 20
147.2748297624
 30
0.0
 10
344.0543540096
 20
147.2470967841
 30
0.0
 10
344.0990516896
 20
147.1869790684
 30
0.0
 10
344.2206837857
 20
147.1701663805
 30
0.0
 10
344.2769121097
 20
147.1701663805
 30
0.0
  0
SPLINE
  5
58A
100
AcDbEntity
  8
7_ALL_FEATURES
100
AcDbSpline
 62
7
  6
CONTINUOUS
 70
0
 71
3
 72
9
 73
5
 74
0
 42
0.0000001
 43
0.0000001
 44
0.0000000001
 40
0.0
 40
0.0
 40
0.0
 40
0.0
 40
0.5039484269
 40
1.0
 40
1.0
 40
1.0
 40
1.0
 10
344.2810103746
 20
147.209677858
 30
0.0
 10
344.2458834098
 20
147.209677858
 30
0.0
 10
344.1692161696
 20
147.2194668494
 30
0.0
 10
344.1425100361
 20
147.2575414991
 30
0.0
 10
344.1425100361
 20
147.2748297624
 30
0.0
  0
SPLINE
  5
58B
100
AcDbEntity
  8
7_ALL_FEATURES
100
AcDbSpline
 62
7
  6
CONTINUOUS
 70
0
 71
3
 72
9
 73
5
 74
0
 42
0.0000001
 43
0.0000001
 44
0.0000000001
 40
0.0
 40
0.0
 40
0.0
 40
0.0
 40
0.510464774
 40
1.0
 40
1.0
 40
1.0
 40
1.0
 10
344.4134158576
 20
147.2946905848
 30
0.0
 10
344.4134158576
 20
147.2741552511
 30
0.0
 10
344.4117667924
 20
147.2281719702
 30
0.0
 10
344.320397105
 20
147.209677858
 30
0.0
 10
344.2810103746
 20
147.209677858
 30
0.0
  0
SPLINE
  5
58C
100
AcDbEntity
  8
7_ALL_FEATURES
100
AcDbSpline
 62
7
  6
CONTINUOUS
 70
0
 71
3
 72
8
 73
4
 74
0
 42
0.0000001
 43
0.0000001
 44
0.0000000001
 40
0.0
 40
0.0
 40
0.0
 40
0.0
 40
1.0
 40
1.0
 40
1.0
 40
1.0
 10
344.2543191106
 20
147.2946905848
 30
0.0
 10
344.314382113
 20
147.2946905848
 30
0.0
 10
344.377682491
 20
147.3139099145
 30
0.0
 10
344.4115243507
 20
147.3387206621
 30
0.0
  0
SPLINE
  5
58D
100
AcDbEntity
  8
7_ALL_FEATURES
100
AcDbSpline
 62
7
  6
CONTINUOUS
 70
0
 71
3
 72
18
 73
14
 74
0
 42
0.0000001
 43
0.0000001
 44
0.0000000001
 40
0.0
 40
0.0
 40
0.0
 40
0.0
 40
0.1350100379
 40
0.2013423346
 40
0.2355719675
 40
0.2711190886
 40
0.3382237927
 40
0.4013776696
 40
0.5230950765
 40
0.6472872874
 40
0.7768753356
 40
0.9113154926
 40
1.0
 40
1.0
 40
1.0
 40
1.0
 10
344.4115243507
 20
147.4944547302
 30
0.0
 10
344.39420777
 20
147.5080003649
 30
0.0
 10
344.3593930253
 20
147.5261680687
 30
0.0
 10
344.3071001646
 20
147.5372010019
 30
0.0
 10
344.2752185008
 20
147.5403842619
 30
0.0
 10
344.242605753
 20
147.5413778036
 30
0.0
 10
344.2029837079
 20
147.5392541065
 30
0.0
 10
344.1458123539
 20
147.5294014692
 30
0.0
 10
344.0863226827
 20
147.5057073986
 30
0.0
 10
344.0424760239
 20
147.4656134329
 30
0.0
 10
344.0277778193
 20
147.4191429817
 30
0.0
 10
344.0406876558
 20
147.3770139173
 30
0.0
 10
344.062421165
 20
147.352355259
 30
0.0
 10
344.0738295828
 20
147.343398443
 30
0.0
  0
SPLINE
  5
58E
100
AcDbEntity
  8
7_ALL_FEATURES
100
AcDbSpline
 62
7
  6
CONTINUOUS
 70
0
 71
3
 72
18
 73
14
 74
0
 42
0.0000001
 43
0.0000001
 44
0.0000000001
 40
0.0
 40
0.0
 40
0.0
 40
0.0
 40
0.0668378092
 40
0.1288082976
 40
0.2469961961
 40
0.3681356933
 40
0.4951635073
 40
0.6211790434
 40
0.7417123965
 40
0.8594546134
 40
0.9207534718
 40
0.9863171374
 40
1.0
 40
1.0
 40
1.0
 40
1.0
 10
344.26787491
 20
147.334307146
 30
0.0
 10
344.2566917535
 20
147.334325928
 30
0.0
 10
344.2351349465
 20
147.3354238575
 30
0.0
 10
344.1959021785
 20
147.3423168742
 30
0.0
 10
344.1558282289
 20
147.3589593134
 30
0.0
 10
344.1277307107
 20
147.3868341144
 30
0.0
 10
344.118401029
 20
147.4181817961
 30
0.0
 10
344.1279655795
 20
147.4494929595
 30
0.0
 10
344.1567910665
 20
147.4769946187
 30
0.0
 10
344.1968221418
 20
147.4933628466
 30
0.0
 10
344.2356765299
 20
147.5001752372
 30
0.0
 10
344.2591956131
 20
147.5013788409
 30
0.0
 10
344.2724531727
 20
147.5012715534
 30
0.0
 10
344.2747401148
 20
147.5012293233
 30
0.0
  0
SPLINE
  5
58F
100
AcDbEntity
  8
7_ALL_FEATURES
100
AcDbSpline
 62
7
  6
CONTINUOUS
 70
0
 71
3
 72
16
 73
12
 74
0
 42
0.0000001
 43
0.0000001
 44
0.0000000001
 40
0.0
 40
0.0
 40
0.0
 40
0.0
 40
0.1252425561
 40
0.2467589013
 40
0.3691331737
 40
0.4966206149
 40
0.6212710027
 40
0.7409953576
 40
0.8611260843
 40
0.9861350283
 40
1.0
 40
1.0
 40
1.0
 40
1.0
 10
343.3681481279
 20
147.6709953742
 30
0.0
 10
343.3599933711
 20
147.6709968286
 30
0.0
 10
343.3439252447
 20
147.6693376291
 30
0.0
 10
343.3237282958
 20
147.6624272227
 30
0.0
 10
343.3101039679
 20
147.6521768537
 30
0.0
 10
343.3052483359
 20
147.639985473
 30
0.0
 10
343.3100769199
 20
147.6278657871
 30
0.0
 10
343.3238241481
 20
147.6179093939
 30
0.0
 10
343.3440441208
 20
147.611277723
 30
0.0
 10
343.3609108379
 20
147.6096426536
 30
0.0
 10
343.3699538091
 20
147.6097415997
 30
0.0
 10
343.3708557941
 20
147.6097611565
 30
0.0
  0
SPLINE
  5
590
100
AcDbEntity
  8
7_ALL_FEATURES
100
AcDbSpline
 62
7
  6
CONTINUOUS
 70
0
 71
3
 72
21
 73
17
 74
0
 42
0.0000001
 43
0.0000001
 44
0.0000000001
 40
0.0
 40
0.0
 40
0.0
 40
0.0
 40
0.0837356597
 40
0.162291479
 40
0.2391436514
 40
0.279844181
 40
0.3241372443
 40
0.3851325473
 40
0.4431056362
 40
0.5545534451
 40
0.6666572162
 40
0.7247034135
 40
0.784641532
 40
0.8693171981
 40
0.9535471067
 40
1.0
 40
1.0
 40
1.0
 40
1.0
 10
341.3320985756
 20
147.5033868461
 30
0.0
 10
341.3148084793
 20
147.4971481516
 30
0.0
 10
341.2817019823
 20
147.4847514375
 30
0.0
 10
341.238225708
 20
147.4631457052
 30
0.0
 10
341.2132835895
 20
147.4409691671
 30
0.0
 10
341.2031937063
 20
147.4208825524
 30
0.0
 10
341.2004473044
 20
147.4022715805
 30
0.0
 10
341.2045876659
 20
147.3814338511
 30
0.0
 10
341.2224029601
 20
147.3532886756
 30
0.0
 10
341.2652560231
 20
147.3232195148
 30
0.0
 10
341.3279801293
 20
147.3039785847
 30
0.0
 10
341.3846570968
 20
147.2960565388
 30
0.0
 10
341.4363306167
 20
147.2936570309
 30
0.0
 10
341.4948044907
 20
147.297770282
 30
0.0
 10
341.5457177039
 20
147.3085256055
 30
0.0
 10
341.5740455976
 20
147.3174587385
 30
0.0
 10
341.5837626056
 20
147.3208947283
 30
0.0
  0
SPLINE
  5
591
100
AcDbEntity
  8
7_ALL_FEATURES
100
AcDbSpline
 62
7
  6
CONTINUOUS
 70
0
 71
3
 72
8
 73
4
 74
0
 42
0.0000001
 43
0.0000001
 44
0.0000000001
 40
0.0
 40
0.0
 40
0.0
 40
0.0
 40
1.0
 40
1.0
 40
1.0
 40
1.0
 10
341.2965802794
 20
147.6017452049
 30
0.0
 10
341.2965802794
 20
147.571327728
 30
0.0
 10
341.3366094064
 20
147.5422606869
 30
0.0
 10
341.3784930365
 20
147.5202002408
 30
0.0
  0
SPLINE
  5
592
100
AcDbEntity
  8
7_ALL_FEATURES
100
AcDbSpline
 62
7
  6
CONTINUOUS
 70
0
 71
3
 72
15
 73
11
 74
0
 42
0.0000001
 43
0.0000001
 44
0.0000000001
 40
0.0
 40
0.0
 40
0.0
 40
0.0
 40
0.2428967155
 40
0.3642248532
 40
0.4274217221
 40
0.4923642673
 40
0.5612500752
 40
0.6264272867
 40
0.7486967744
 40
1.0
 40
1.0
 40
1.0
 40
1.0
 10
341.6407294515
 20
147.6057383861
 30
0.0
 10
341.6407294515
 20
147.6266910441
 30
0.0
 10
341.6108441146
 20
147.6601275799
 30
0.0
 10
341.5439226822
 20
147.6774514904
 30
0.0
 10
341.5020177397
 20
147.682648979
 30
0.0
 10
341.467975657
 20
147.6839401365
 30
0.0
 10
341.433578087
 20
147.6826302338
 30
0.0
 10
341.3905381329
 20
147.6772752108
 30
0.0
 10
341.322327879
 20
147.6584119564
 30
0.0
 10
341.2965802794
 20
147.6234230218
 30
0.0
 10
341.2965802794
 20
147.6017452049
 30
0.0
  0
SPLINE
  5
593
100
AcDbEntity
  8
7_ALL_FEATURES
100
AcDbSpline
 62
7
  6
CONTINUOUS
 70
0
 71
3
 72
8
 73
4
 74
0
 42
0.0000001
 43
0.0000001
 44
0.0000000001
 40
0.0
 40
0.0
 40
0.0
 40
0.0
 40
1.0
 40
1.0
 40
1.0
 40
1.0
 10
341.5051189151
 20
147.5127392969
 30
0.0
 10
341.5669733941
 20
147.5354400989
 30
0.0
 10
341.6407294515
 20
147.5673740726
 30
0.0
 10
341.6407294515
 20
147.6057383861
 30
0.0
  0
SPLINE
  5
594
100
AcDbEntity
  8
7_ALL_FEATURES
100
AcDbSpline
 62
7
  6
CONTINUOUS
 70
0
 71
3
 72
8
 73
4
 74
0
 42
0.0000001
 43
0.0000001
 44
0.0000000001
 40
0.0
 40
0.0
 40
0.0
 40
0.0
 40
1.0
 40
1.0
 40
1.0
 40
1.0
 10
341.5535625085
 20
147.606158721
 30
0.0
 10
341.5535625085
 20
147.5819824299
 30
0.0
 10
341.5025199377
 20
147.563861048
 30
0.0
 10
341.4645566005
 20
147.5488880954
 30
0.0
  0
SPLINE
  5
595
100
AcDbEntity
  8
7_ALL_FEATURES
100
AcDbSpline
 62
7
  6
CONTINUOUS
 70
0
 71
3
 72
9
 73
5
 74
0
 42
0.0000001
 43
0.0000001
 44
0.0000000001
 40
0.0
 40
0.0
 40
0.0
 40
0.0
 40
0.5015303471
 40
1.0
 40
1.0
 40
1.0
 40
1.0
 10
341.466605733
 20
147.6466159519
 30
0.0
 10
341.4884201525
 20
147.6466159519
 30
0.0
 10
341.5360984945
 20
147.6406821279
 30
0.0
 10
341.5535625085
 20
147.6169993673
 30
0.0
 10
341.5535625085
 20
147.606158721
 30
0.0
  0
SPLINE
  5
596
100
AcDbEntity
  8
7_ALL_FEATURES
100
AcDbSpline
 62
7
  6
CONTINUOUS
 70
0
 71
3
 72
13
 73
9
 74
0
 42
0.0000001
 43
0.0000001
 44
0.0000000001
 40
0.0
 40
0.0
 40
0.0
 40
0.0
 40
0.2266930293
 40
0.3384900135
 40
0.4545322516
 40
0.5979807664
 40
0.7311494495
 40
1.0
 40
1.0
 40
1.0
 40
1.0
 10
341.4279874671
 20
147.5607625554
 30
0.0
 10
341.4172010966
 20
147.5676218493
 30
0.0
 10
341.400674158
 20
147.5778296934
 30
0.0
 10
341.3862063297
 20
147.5939319357
 30
0.0
 10
341.3818118574
 20
147.6082428568
 30
0.0
 10
341.3877640266
 20
147.6235519362
 30
0.0
 10
341.413125249
 20
147.6409873705
 30
0.0
 10
341.4459091422
 20
147.6466159519
 30
0.0
 10
341.466605733
 20
147.6466159519
 30
0.0
  0
SPLINE
  5
597
100
AcDbEntity
  8
7_ALL_FEATURES
100
AcDbSpline
 62
7
  6
CONTINUOUS
 70
0
 71
3
 72
8
 73
4
 74
0
 42
0.0000001
 43
0.0000001
 44
0.0000000001
 40
0.0
 40
0.0
 40
0.0
 40
0.0
 40
1.0
 40
1.0
 40
1.0
 40
1.0
 10
341.2885413751
 20
147.4048183199
 30
0.0
 10
341.2885413751
 20
147.439430096
 30
0.0
 10
341.3669972695
 20
147.463883975
 30
0.0
 10
341.4239942858
 20
147.4835260237
 30
0.0
  0
SPLINE
  5
598
100
AcDbEntity
  8
7_ALL_FEATURES
100
AcDbSpline
 62
7
  6
CONTINUOUS
 70
0
 71
3
 72
8
 73
4
 74
0
 42
0.0000001
 43
0.0000001
 44
0.0000000001
 40
0.0
 40
0.0
 40
0.0
 40
0.0
 40
1.0
 40
1.0
 40
1.0
 40
1.0
 10
341.4270417136
 20
147.3363037366
 30
0.0
 10
341.3620978607
 20
147.3363037366
 30
0.0
 10
341.2885413751
 20
147.3723463934
 30
0.0
 10
341.2885413751
 20
147.4048183199
 30
0.0
  0
SPLINE
  5
599
100
AcDbEntity
  8
7_ALL_FEATURES
100
AcDbSpline
 62
7
  6
CONTINUOUS
 70
0
 71
3
 72
8
 73
4
 74
0
 42
0.0000001
 43
0.0000001
 44
0.0000000001
 40
0.0
 40
0.0
 40
0.0
 40
0.0
 40
1.0
 40
1.0
 40
1.0
 40
1.0
 10
341.5980129207
 20
147.3856930834
 30
0.0
 10
341.5513936155
 20
147.3624622685
 30
0.0
 10
341.4928599684
 20
147.3363037366
 30
0.0
 10
341.4270417136
 20
147.3363037366
 30
0.0
  0
SPLINE
  5
59A
100
AcDbEntity
  8
7_ALL_FEATURES
100
AcDbSpline
 62
7
  6
CONTINUOUS
 70
0
 71
3
 72
17
 73
13
 74
0
 42
0.0000001
 43
0.0000001
 44
0.0000000001
 40
0.0
 40
0.0
 40
0.0
 40
0.0
 40
0.1280676306
 40
0.2505328491
 40
0.3725330656
 40
0.4358980115
 40
0.5022639314
 40
0.5696811137
 40
0.6324293338
 40
0.7503050664
 40
0.869595042
 40
1.0
 40
1.0
 40
1.0
 40
1.0
 10
340.2720140419
 20
147.4445399648
 30
0.0
 10
340.2746860982
 20
147.4525181426
 30
0.0
 10
340.2848056191
 20
147.4678585672
 30
0.0
 10
340.3140374127
 20
147.4868772169
 30
0.0
 10
340.3479792125
 20
147.4973243034
 30
0.0
 10
340.3787634654
 20
147.5016226576
 30
0.0
 10
340.4037117645
 20
147.5026884369
 30
0.0
 10
340.4285827579
 20
147.5016809656
 30
0.0
 10
340.4590224621
 20
147.497664388
 30
0.0
 10
340.4922368591
 20
147.487442893
 30
0.0
 10
340.5197094457
 20
147.4680869347
 30
0.0
 10
340.5286311914
 20
147.4526758741
 30
0.0
 10
340.531203029
 20
147.4445399648
 30
0.0
  0
SPLINE
  5
59B
100
AcDbEntity
  8
7_ALL_FEATURES
100
AcDbSpline
 62
7
  6
CONTINUOUS
 70
0
 71
3
 72
9
 73
5
 74
0
 42
0.0000001
 43
0.0000001
 44
0.0000000001
 40
0.0
 40
0.0
 40
0.0
 40
0.0
 40
0.4972493191
 40
1.0
 40
1.0
 40
1.0
 40
1.0
 10
340.4066262829
 20
147.334307146
 30
0.0
 10
340.3694098295
 20
147.334307146
 30
0.0
 10
340.2915965285
 20
147.3527005531
 30
0.0
 10
340.2676304962
 20
147.3921004222
 30
0.0
 10
340.2671801909
 20
147.4109131754
 30
0.0
  0
SPLINE
  5
59C
100
AcDbEntity
  8
7_ALL_FEATURES
100
AcDbSpline
 62
7
  6
CONTINUOUS
 70
0
 71
3
 72
9
 73
5
 74
0
 42
0.0000001
 43
0.0000001
 44
0.0000000001
 40
0.0
 40
0.0
 40
0.0
 40
0.0
 40
0.7307894739
 40
1.0
 40
1.0
 40
1.0
 40
1.0
 10
340.5448639122
 20
147.3793880604
 30
0.0
 10
340.5233808179
 20
147.3615416028
 30
0.0
 10
340.4802153747
 20
147.3372402208
 30
0.0
 10
340.4219729124
 20
147.334307146
 30
0.0
 10
340.4066262829
 20
147.334307146
 30
0.0
  0
SPLINE
  5
59D
100
AcDbEntity
  8
7_ALL_FEATURES
100
AcDbSpline
 62
7
  6
CONTINUOUS
 70
0
 71
3
 72
16
 73
12
 74
0
 42
0.0000001
 43
0.0000001
 44
0.0000000001
 40
0.0
 40
0.0
 40
0.0
 40
0.0
 40
0.1532117584
 40
0.2946326874
 40
0.4342272882
 40
0.5085039738
 40
0.5885790341
 40
0.6413335586
 40
0.6931274681
 40
0.7949137648
 40
1.0
 40
1.0
 40
1.0
 40
1.0
 10
340.1781742829
 20
147.416272445
 30
0.0
 10
340.1781742829
 20
147.4001375671
 30
0.0
 10
340.1875082776
 20
147.3687735368
 30
0.0
 10
340.2335991724
 20
147.3279195713
 30
0.0
 10
340.2964433894
 20
147.305270347
 30
0.0
 10
340.3560306429
 20
147.2961804511
 30
0.0
 10
340.3997776587
 20
147.2941669289
 30
0.0
 10
340.4386774796
 20
147.2953906414
 30
0.0
 10
340.4814329258
 20
147.2996235636
 30
0.0
 10
340.5519943035
 20
147.3141037886
 30
0.0
 10
340.5995682296
 20
147.3389784622
 30
0.0
 10
340.6202089371
 20
147.3579509822
 30
0.0
  0
SPLINE
  5
59E
100
AcDbEntity
  8
7_ALL_FEATURES
100
AcDbSpline
 62
7
  6
CONTINUOUS
 70
0
 71
3
 72
21
 73
17
 74
0
 42
0.0000001
 43
0.0000001
 44
0.0000000001
 40
0.0
 40
0.0
 40
0.0
 40
0.0
 40
0.1300654079
 40
0.24745904
 40
0.3043447126
 40
0.3625445693
 40
0.4247851174
 40
0.4583786656
 40
0.4940661327
 40
0.5303225841
 40
0.5645956416
 40
0.6283774869
 40
0.68813088
 40
0.7464207923
 40
0.866310526
 40
1.0
 40
1.0
 40
1.0
 40
1.0
 10
340.6202089371
 20
147.417743617
 30
0.0
 10
340.6202089371
 20
147.4339765202
 30
0.0
 10
340.6130781381
 20
147.4651005434
 30
0.0
 10
340.5791576991
 20
147.5002737612
 30
0.0
 10
340.5376311238
 20
147.5209096668
 30
0.0
 10
340.4993558399
 20
147.5324456511
 30
0.0
 10
340.462321805
 20
147.5382412557
 30
0.0
 10
340.4297952289
 20
147.5406195261
 30
0.0
 10
340.4034364061
 20
147.5412054584
 30
0.0
 10
340.3769099145
 20
147.540622252
 30
0.0
 10
340.3436724181
 20
147.5382804445
 30
0.0
 10
340.3056282892
 20
147.5325572909
 30
0.0
 10
340.2659383733
 20
147.5211316332
 30
0.0
 10
340.2223849652
 20
147.5005650896
 30
0.0
 10
340.1858839666
 20
147.4648985381
 30
0.0
 10
340.1781742829
 20
147.4329576522
 30
0.0
 10
340.1781742829
 20
147.416272445
 30
0.0
  0
SPLINE
  5
59F
100
AcDbEntity
  8
7_ALL_FEATURES
100
AcDbSpline
 62
7
  6
CONTINUOUS
 70
0
 71
3
 72
8
 73
4
 74
0
 42
0.0000001
 43
0.0000001
 44
0.0000000001
 40
0.0
 40
0.0
 40
0.0
 40
0.0
 40
1.0
 40
1.0
 40
1.0
 40
1.0
 10
339.4711184953
 20
147.4993936649
 30
0.0
 10
339.5198982244
 20
147.4993936649
 30
0.0
 10
339.5714413841
 20
147.4866382376
 30
0.0
 10
339.6035765202
 20
147.4682888847
 30
0.0
  0
SPLINE
  5
5A0
100
AcDbEntity
  8
7_ALL_FEATURES
100
AcDbSpline
 62
7
  6
CONTINUOUS
 70
0
 71
3
 72
9
 73
5
 74
0
 42
0.0000001
 43
0.0000001
 44
0.0000000001
 40
0.0
 40
0.0
 40
0.0
 40
0.0
 40
0.5023468762
 40
1.0
 40
1.0
 40
1.0
 40
1.0
 10
339.3166979736
 20
147.4182690356
 30
0.0
 10
339.3166979736
 20
147.4385207023
 30
0.0
 10
339.3481372404
 20
147.480339224
 30
0.0
 10
339.4309936109
 20
147.4993936649
 30
0.0
 10
339.4711184953
 20
147.4993936649
 30
0.0
  0
SPLINE
  5
5A1
100
AcDbEntity
  8
7_ALL_FEATURES
100
AcDbSpline
 62
7
  6
CONTINUOUS
 70
0
 71
3
 72
15
 73
11
 74
0
 42
0.0000001
 43
0.0000001
 44
0.0000000001
 40
0.0
 40
0.0
 40
0.0
 40
0.0
 40
0.1802531275
 40
0.2687906927
 40
0.3612765641
 40
0.4461771889
 40
0.5264460684
 40
0.6791612605
 40
0.8331109072
 40
1.0
 40
1.0
 40
1.0
 40
1.0
 10
339.6035765202
 20
147.3667780144
 30
0.0
 10
339.5874900548
 20
147.3578438777
 30
0.0
 10
339.5590580778
 20
147.3460244473
 30
0.0
 10
339.5134919137
 20
147.3375577872
 30
0.0
 10
339.4779020215
 20
147.335599771
 30
0.0
 10
339.443478869
 20
147.3372010654
 30
0.0
 10
339.4025544264
 20
147.3431618975
 30
0.0
 10
339.3582956419
 20
147.357963892
 30
0.0
 10
339.3238760797
 20
147.3854539541
 30
0.0
 10
339.3166979736
 20
147.4071389709
 30
0.0
 10
339.3166979736
 20
147.4182690356
 30
0.0
  0
SPLINE
  5
5A2
100
AcDbEntity
  8
7_ALL_FEATURES
100
AcDbSpline
 62
7
  6
CONTINUOUS
 70
0
 71
3
 72
8
 73
4
 74
0
 42
0.0000001
 43
0.0000001
 44
0.0000000001
 40
0.0
 40
0.0
 40
0.0
 40
0.0
 40
1.0
 40
1.0
 40
1.0
 40
1.0
 10
339.4759523463
 20
147.2947956685
 30
0.0
 10
339.5196897081
 20
147.2947956685
 30
0.0
 10
339.5649792029
 20
147.2997468471
 30
0.0
 10
339.6035765202
 20
147.3100328074
 30
0.0
  0
SPLINE
  5
5A3
100
AcDbEntity
  8
7_ALL_FEATURES
100
AcDbSpline
 62
7
  6
CONTINUOUS
 70
0
 71
3
 72
17
 73
13
 74
0
 42
0.0000001
 43
0.0000001
 44
0.0000000001
 40
0.0
 40
0.0
 40
0.0
 40
0.0
 40
0.1629103694
 40
0.2935549822
 40
0.4168937173
 40
0.5399047389
 40
0.60400217
 40
0.6712141429
 40
0.7362158184
 40
0.7985885138
 40
0.919283909
 40
1.0
 40
1.0
 40
1.0
 40
1.0
 10
339.6035765202
 20
147.525664594
 30
0.0
 10
339.5671094777
 20
147.5362378785
 30
0.0
 10
339.4888243579
 20
147.5448388005
 30
0.0
 10
339.3807439521
 20
147.5350239852
 30
0.0
 10
339.2963646315
 20
147.5079614044
 30
0.0
 10
339.2500956867
 20
147.4736922691
 30
0.0
 10
339.2310280836
 20
147.4420087938
 30
0.0
 10
339.2261365885
 20
147.4165594959
 30
0.0
 10
339.2310586467
 20
147.3913308656
 30
0.0
 10
339.2503653684
 20
147.3605167339
 30
0.0
 10
339.2904017405
 20
147.3316664067
 30
0.0
 10
339.3328769604
 20
147.3159631652
 30
0.0
 10
339.3512216733
 20
147.3108358934
 30
0.0
  0
SPLINE
  5
5A4
100
AcDbEntity
  8
7_ALL_FEATURES
100
AcDbSpline
 62
7
  6
CONTINUOUS
 70
0
 71
3
 72
21
 73
17
 74
0
 42
0.0000001
 43
0.0000001
 44
0.0000000001
 40
0.0
 40
0.0
 40
0.0
 40
0.0
 40
0.1327833847
 40
0.2504356012
 40
0.3056983919
 40
0.36239354
 40
0.425333033
 40
0.4608299577
 40
0.4997862723
 40
0.5388342666
 40
0.5744105639
 40
0.6374720704
 40
0.6942427883
 40
0.7495444137
 40
0.8672159598
 40
1.0
 40
1.0
 40
1.0
 40
1.0
 10
338.5414428539
 20
147.4060793245
 30
0.0
 10
338.5414428539
 20
147.3971593621
 30
0.0
 10
338.5396288526
 20
147.38031909
 30
0.0
 10
338.5270771682
 20
147.3602165293
 30
0.0
 10
338.5077849549
 20
147.3479380048
 30
0.0
 10
338.4883098792
 20
147.3410646314
 30
0.0
 10
338.4683058034
 20
147.3376981319
 30
0.0
 10
338.4500307911
 20
147.3363146781
 30
0.0
 10
338.4347705438
 20
147.3359778508
 30
0.0
 10
338.4194996914
 20
147.3363147678
 30
0.0
 10
338.4011848872
 20
147.337697825
 30
0.0
 10
338.3811410465
 20
147.3410630044
 30
0.0
 10
338.3616255286
 20
147.3479353967
 30
0.0
 10
338.3422982984
 20
147.3602122423
 30
0.0
 10
338.3297258953
 20
147.3803175499
 30
0.0
 10
338.3279127417
 20
147.3971593181
 30
0.0
 10
338.3279127417
 20
147.4060793245
 30
0.0
  0
SPLINE
  5
5A5
100
AcDbEntity
  8
7_ALL_FEATURES
100
AcDbSpline
 62
7
  6
CONTINUOUS
 70
0
 71
3
 72
21
 73
17
 74
0
 42
0.0000001
 43
0.0000001
 44
0.0000000001
 40
0.0
 40
0.0
 40
0.0
 40
0.0
 40
0.132904548
 40
0.2483963039
 40
0.3045304646
 40
0.3631218191
 40
0.4273140346
 40
0.4624740996
 40
0.500089529
 40
0.5376505147
 40
0.572766758
 40
0.6369000875
 40
0.6954640554
 40
0.7515917782
 40
0.8670928402
 40
1.0
 40
1.0
 40
1.0
 40
1.0
 10
338.2388542918
 20
147.4010353061
 30
0.0
 10
338.2388542918
 20
147.3864757859
 30
0.0
 10
338.2443496452
 20
147.3590155035
 30
0.0
 10
338.2747691687
 20
147.3280922883
 30
0.0
 10
338.3123147954
 20
147.3108629696
 30
0.0
 10
338.347133446
 20
147.3014586823
 30
0.0
 10
338.380784596
 20
147.2968732269
 30
0.0
 10
338.4105853877
 20
147.2949939822
 30
0.0
 10
338.4347709429
 20
147.294533781
 30
0.0
 10
338.4589469198
 20
147.2949939606
 30
0.0
 10
338.4887129884
 20
147.2968737093
 30
0.0
 10
338.5223339035
 20
147.3014604004
 30
0.0
 10
338.5571286128
 20
147.3108650328
 30
0.0
 10
338.5946649605
 20
147.3280945643
 30
0.0
 10
338.6250979453
 20
147.3590135969
 30
0.0
 10
338.6306063875
 20
147.3864754998
 30
0.0
 10
338.6306063875
 20
147.4010353061
 30
0.0
  0
SPLINE
  5
5A6
100
AcDbEntity
  8
7_ALL_FEATURES
100
AcDbSpline
 62
7
  6
CONTINUOUS
 70
0
 71
3
 72
9
 73
5
 74
0
 42
0.0000001
 43
0.0000001
 44
0.0000000001
 40
0.0
 40
0.0
 40
0.0
 40
0.0
 40
0.2491323432
 40
1.0
 40
1.0
 40
1.0
 40
1.0
 10
342.2448057885
 20
148.4626909223
 30
0.0
 10
342.2775764602
 20
148.4748424956
 30
0.0
 10
342.40607578
 20
148.5256828434
 30
0.0
 10
342.5221585027
 20
148.5838841444
 30
0.0
 10
342.6017725823
 20
148.6306198748
 30
0.0
  0
SPLINE
  5
5A7
100
AcDbEntity
  8
7_ALL_FEATURES
100
AcDbSpline
 62
7
  6
CONTINUOUS
 70
0
 71
3
 72
9
 73
5
 74
0
 42
0.0000001
 43
0.0000001
 44
0.0000000001
 40
0.0
 40
0.0
 40
0.0
 40
0.0
 40
0.1306269467
 40
1.0
 40
1.0
 40
1.0
 40
1.0
 10
344.0738295828
 20
147.343398443
 30
0.0
 10
344.0787189047
 20
147.3395598076
 30
0.0
 10
344.1200435532
 20
147.3113605388
 30
0.0
 10
344.1940774749
 20
147.2946905848
 30
0.0
 10
344.2543191106
 20
147.2946905848
 30
0.0
  0
SPLINE
  5
5A8
100
AcDbEntity
  8
7_ALL_FEATURES
100
AcDbSpline
 62
7
  6
CONTINUOUS
 70
0
 71
3
 72
17
 73
13
 74
0
 42
0.0000001
 43
0.0000001
 44
0.0000000001
 40
0.0
 40
0.0
 40
0.0
 40
0.0
 40
0.0552928903
 40
0.1190307556
 40
0.2388446404
 40
0.3607162024
 40
0.4913988893
 40
0.6231604286
 40
0.7459155837
 40
0.8662290585
 40
0.9303231461
 40
1.0
 40
1.0
 40
1.0
 40
1.0
 10
344.2747401148
 20
147.5012293233
 30
0.0
 10
344.2838878831
 20
147.5010604032
 30
0.0
 10
344.3035070571
 20
147.4998802556
 30
0.0
 10
344.3413519099
 20
147.4938215128
 30
0.0
 10
344.3828613034
 20
147.4779240933
 30
0.0
 10
344.4124209339
 20
147.4500866509
 30
0.0
 10
344.421565225
 20
147.4181765822
 30
0.0
 10
344.4125003178
 20
147.3862101688
 30
0.0
 10
344.3833307343
 20
147.3580481045
 30
0.0
 10
344.3417793135
 20
147.3419060575
 30
0.0
 10
344.301564527
 20
147.3353768062
 30
0.0
 10
344.279414713
 20
147.334287765
 30
0.0
 10
344.26787491
 20
147.334307146
 30
0.0
  0
SPLINE
  5
5A9
100
AcDbEntity
  8
7_ALL_FEATURES
100
AcDbSpline
 62
7
  6
CONTINUOUS
 70
0
 71
3
 72
15
 73
11
 74
0
 42
0.0000001
 43
0.0000001
 44
0.0000000001
 40
0.0
 40
0.0
 40
0.0
 40
0.0
 40
0.1141106906
 40
0.2377191378
 40
0.3609616822
 40
0.4892136522
 40
0.620383943
 40
0.746351036
 40
0.871384697
 40
1.0
 40
1.0
 40
1.0
 40
1.0
 10
343.3708557941
 20
147.6097611565
 30
0.0
 10
343.3780716737
 20
147.6099176106
 30
0.0
 10
343.3929904017
 20
147.6115338974
 30
0.0
 10
343.4124313985
 20
147.6179119188
 30
0.0
 10
343.4262039541
 20
147.6278624348
 30
0.0
 10
343.4310553773
 20
147.6399854561
 30
0.0
 10
343.4261769668
 20
147.6521801554
 30
0.0
 10
343.4125271525
 20
147.6624247573
 30
0.0
 10
343.3923407738
 20
147.6693333271
 30
0.0
 10
343.3762883149
 20
147.6709939223
 30
0.0
 10
343.3681481279
 20
147.6709953742
 30
0.0
  0
SPLINE
  5
5AA
100
AcDbEntity
  8
7_ALL_FEATURES
100
AcDbSpline
 62
7
  6
CONTINUOUS
 70
0
 71
3
 72
8
 73
4
 74
0
 42
0.0000001
 43
0.0000001
 44
0.0000000001
 40
0.0
 40
0.0
 40
0.0
 40
0.0
 40
1.0
 40
1.0
 40
1.0
 40
1.0
 10
341.5837626056
 20
147.3208947283
 30
0.0
 10
341.6096746271
 20
147.3300573679
 30
0.0
 10
341.633079922
 20
147.3410731071
 30
0.0
 10
341.6534445812
 20
147.3531171313
 30
0.0
  0
SPLINE
  5
5AB
100
AcDbEntity
  8
7_ALL_FEATURES
100
AcDbSpline
 62
7
  6
CONTINUOUS
 70
0
 71
3
 72
9
 73
5
 74
0
 42
0.0000001
 43
0.0000001
 44
0.0000000001
 40
0.0
 40
0.0
 40
0.0
 40
0.0
 40
0.2421437603
 40
1.0
 40
1.0
 40
1.0
 40
1.0
 10
339.3512216733
 20
147.3108358934
 30
0.0
 10
339.3603940298
 20
147.3082722575
 30
0.0
 10
339.3996394166
 20
147.2988886714
 30
0.0
 10
339.4432678785
 20
147.2947956685
 30
0.0
 10
339.4759523463
 20
147.2947956685
 30
0.0
  0
SPLINE
  5
5AC
100
AcDbEntity
  8
7_ALL_FEATURES
100
AcDbSpline
 62
7
  6
CONTINUOUS
 70
0
 71
3
 72
9
 73
5
 74
0
 42
0.0000001
 43
0.0000001
 44
0.0000000001
 40
0.0
 40
0.0
 40
0.0
 40
0.0
 40
0.2486305463
 40
1.0
 40
1.0
 40
1.0
 40
1.0
 10
365.3560717909
 20
97.173380516
 30
0.0
 10
365.3560717909
 20
97.2818474141
 30
0.0
 10
365.3439832955
 20
97.7180401201
 30
0.0
 10
365.2830698174
 20
98.1527257225
 30
0.0
 10
365.2119010592
 20
98.4726969315
 30
0.0
  0
SPLINE
  5
5AD
100
AcDbEntity
  8
7_ALL_FEATURES
100
AcDbSpline
 62
7
  6
CONTINUOUS
 70
0
 71
3
 72
9
 73
5
 74
0
 42
0.0000001
 43
0.0000001
 44
0.0000000001
 40
0.0
 40
0.0
 40
0.0
 40
0.0
 40
0.2522683045
 40
1.0
 40
1.0
 40
1.0
 40
1.0
 10
318.5002425227
 20
98.4726969315
 30
0.0
 10
318.4763482604
 20
98.3652695127
 30
0.0
 10
318.3929304007
 20
97.9369987857
 30
0.0
 10
318.3560717909
 20
97.4995802573
 30
0.0
 10
318.3560717909
 20
97.173380516
 30
0.0
  0
SPLINE
  5
5AE
100
AcDbEntity
  8
7_ALL_FEATURES
100
AcDbSpline
 62
7
  6
CONTINUOUS
 70
0
 71
3
 72
12
 73
8
 74
0
 42
0.0000001
 43
0.0000001
 44
0.0000000001
 40
0.0
 40
0.0
 40
0.0
 40
0.0
 40
0.108558626
 40
0.2190903121
 40
0.4520412338
 40
0.7103254094
 40
1.0
 40
1.0
 40
1.0
 40
1.0
 10
318.3560717909
 20
95.4413297085
 30
0.0
 10
318.3560717909
 20
95.1395276805
 30
0.0
 10
318.4036415658
 20
94.5294142994
 30
0.0
 10
318.6901839055
 20
93.301605448
 30
0.0
 10
319.4291976893
 20
91.7756756747
 30
0.0
 10
320.8265644005
 20
90.0941728226
 30
0.0
 10
322.0108957086
 20
89.1224421792
 30
0.0
 10
322.6684225523
 20
88.6574712622
 30
0.0
  0
SPLINE
  5
5AF
100
AcDbEntity
  8
7_ALL_FEATURES
100
AcDbSpline
 62
7
  6
CONTINUOUS
 70
0
 71
3
 72
12
 73
8
 74
0
 42
0.0000001
 43
0.0000001
 44
0.0000000001
 40
0.0
 40
0.0
 40
0.0
 40
0.0
 40
0.1083117793
 40
0.2196757863
 40
0.4554667861
 40
0.7143848225
 40
1.0
 40
1.0
 40
1.0
 40
1.0
 10
307.4933360967
 20
121.6174658647
 30
0.0
 10
307.5613989763
 20
121.2368886365
 30
0.0
 10
307.7498818635
 20
120.4731577538
 30
0.0
 10
308.3319305726
 20
118.9515337074
 30
0.0
 10
309.4567805632
 20
117.0819996581
 30
0.0
 10
311.3339906312
 20
115.006792633
 30
0.0
 10
312.8545191159
 20
113.7834387385
 30
0.0
 10
313.6869468701
 20
113.1948530039
 30
0.0
  0
SPLINE
  5
5B0
100
AcDbEntity
  8
7_ALL_FEATURES
100
AcDbSpline
 62
7
  6
CONTINUOUS
 70
0
 71
3
 72
21
 73
17
 74
0
 42
0.0000001
 43
0.0000001
 44
0.0000000001
 40
0.0
 40
0.0
 40
0.0
 40
0.0
 40
0.0514153833
 40
0.1068803359
 40
0.166102277
 40
0.2286462471
 40
0.2939681568
 40
0.3614417208
 40
0.5
 40
0.6385582792
 40
0.7060318432
 40
0.7713537529
 40
0.833897723
 40
0.8931196641
 40
0.9485846167
 40
1.0
 40
1.0
 40
1.0
 40
1.0
 10
314.09433997
 20
112.9067824684
 30
0.0
 10
314.9081381694
 20
112.3313159461
 30
0.0
 10
316.6745713943
 20
111.2388953728
 30
0.0
 10
319.5736323553
 20
109.8277705526
 30
0.0
 10
322.7861327468
 20
108.5984397026
 30
0.0
 10
326.2668903346
 20
107.5682397658
 30
0.0
 10
329.9675310436
 20
106.7513480654
 30
0.0
 10
335.1704344975
 20
105.9555976669
 30
0.0
 10
341.8560717909
 20
105.5634855472
 30
0.0
 10
348.5417090844
 20
105.9555976669
 30
0.0
 10
353.7446125382
 20
106.7513480654
 30
0.0
 10
357.4452532473
 20
107.5682397658
 30
0.0
 10
360.926010835
 20
108.5984397026
 30
0.0
 10
364.1385112266
 20
109.8277705526
 30
0.0
 10
367.0375721875
 20
111.2388953728
 30
0.0
 10
368.8040054124
 20
112.3313159461
 30
0.0
 10
369.6178036118
 20
112.9067824684
 30
0.0
  0
SPLINE
  5
5B1
100
AcDbEntity
  8
7_ALL_FEATURES
100
AcDbSpline
 62
7
  6
CONTINUOUS
 70
0
 71
3
 72
12
 73
8
 74
0
 42
0.0000001
 43
0.0000001
 44
0.0000000001
 40
0.0
 40
0.0
 40
0.0
 40
0.0
 40
0.2856159814
 40
0.5445339997
 40
0.7803245082
 40
0.8916883006
 40
1.0
 40
1.0
 40
1.0
 40
1.0
 10
370.0251967117
 20
113.1948530039
 30
0.0
 10
370.8576475882
 20
113.7834550876
 30
0.0
 10
372.3782145445
 20
115.0068441514
 30
0.0
 10
374.2554580697
 20
117.0821178543
 30
0.0
 10
375.3803074943
 20
118.9517145747
 30
0.0
 10
375.9623354196
 20
120.4733874193
 30
0.0
 10
376.1508016532
 20
121.2371417508
 30
0.0
 10
376.2188547623
 20
121.6177302403
 30
0.0
  0
SPLINE
  5
5B2
100
AcDbEntity
  8
7_ALL_FEATURES
100
AcDbSpline
 62
7
  6
CONTINUOUS
 70
0
 71
3
 72
19
 73
15
 74
0
 42
0.0000001
 43
0.0000001
 44
0.0000000001
 40
0.0
 40
0.0
 40
0.0
 40
0.0
 40
0.0514251394
 40
0.1068991054
 40
0.1661304164
 40
0.228683952
 40
0.3614247379
 40
0.5
 40
0.6385752621
 40
0.771316048
 40
0.8338695836
 40
0.8931008946
 40
0.9485748606
 40
1.0
 40
1.0
 40
1.0
 40
1.0
 10
323.0775644444
 20
88.3681638005
 30
0.0
 10
323.628071894
 20
87.9789273509
 30
0.0
 10
324.823057553
 20
87.2401645495
 30
0.0
 10
326.7840719097
 20
86.2857247417
 30
0.0
 10
328.9571425795
 20
85.4542297585
 30
0.0
 10
332.1596352328
 20
84.5068742926
 30
0.0
 10
336.4792757328
 20
83.7173493996
 30
0.0
 10
341.8560717909
 20
83.4015872989
 30
0.0
 10
347.2328678491
 20
83.7173493996
 30
0.0
 10
351.552508349
 20
84.5068742926
 30
0.0
 10
354.7550010023
 20
85.4542297585
 30
0.0
 10
356.9280716721
 20
86.2857247417
 30
0.0
 10
358.8890860288
 20
87.2401645495
 30
0.0
 10
360.0840716879
 20
87.9789273509
 30
0.0
 10
360.6345791374
 20
88.3681638005
 30
0.0
  0
SPLINE
  5
5B3
100
AcDbEntity
  8
7_ALL_FEATURES
100
AcDbSpline
 62
7
  6
CONTINUOUS
 70
0
 71
3
 72
12
 73
8
 74
0
 42
0.0000001
 43
0.0000001
 44
0.0000000001
 40
0.0
 40
0.0
 40
0.0
 40
0.0
 40
0.2896745906
 40
0.5479587662
 40
0.7809096879
 40
0.891441374
 40
1.0
 40
1.0
 40
1.0
 40
1.0
 10
361.0437210295
 20
88.6574712622
 30
0.0
 10
361.7012478732
 20
89.1224421792
 30
0.0
 10
362.8855791814
 20
90.0941728226
 30
0.0
 10
364.2829458925
 20
91.7756756747
 30
0.0
 10
365.0219596763
 20
93.301605448
 30
0.0
 10
365.3085020161
 20
94.5294142994
 30
0.0
 10
365.3560717909
 20
95.1395276805
 30
0.0
 10
365.3560717909
 20
95.4413297085
 30
0.0
  0
SPLINE
  5
5B4
100
AcDbEntity
  8
7_ALL_FEATURES
100
AcDbSpline
 62
7
  6
CONTINUOUS
 70
0
 71
3
 72
32
 73
28
 74
0
 42
0.0000001
 43
0.0000001
 44
0.0000000001
 40
0.0
 40
0.0
 40
0.0
 40
0.0
 40
0.0203406464
 40
0.0412603333
 40
0.0632520464
 40
0.086721455
 40
0.1119457087
 40
0.139088108
 40
0.1682147871
 40
0.1993089871
 40
0.2494320562
 40
0.3032965539
 40
0.360212576
 40
0.4193510439
 40
0.4797906509
 40
0.5405590441
 40
0.6006712799
 40
0.6591676615
 40
0.7151528385
 40
0.7678385016
 40
0.8165932274
 40
0.861005071
 40
0.9009649787
 40
0.9367770583
 40
0.9692831243
 40
0.9847678522
 40
1.0
 40
1.0
 40
1.0
 40
1.0
 10
365.3560717909
 20
99.7714567274
 30
0.0
 10
365.3560717909
 20
99.3857706054
 30
0.0
 10
365.2778408499
 20
98.6013827589
 30
0.0
 10
364.9305109132
 20
97.4465838083
 30
0.0
 10
364.3584082897
 20
96.3187572129
 30
0.0
 10
363.5699789199
 20
95.2290502751
 30
0.0
 10
362.5743477654
 20
94.1862634562
 30
0.0
 10
361.3815282017
 20
93.1992033874
 30
0.0
 10
360.0029268727
 20
92.2762950714
 30
0.0
 10
358.1662898514
 20
91.2693547316
 30
0.0
 10
355.8050125576
 20
90.2631184142
 30
0.0
 10
352.8896869417
 20
89.3494902381
 30
0.0
 10
349.7390921885
 20
88.6576247415
 30
0.0
 10
346.4203013488
 20
88.2023170733
 30
0.0
 10
343.003947473
 20
87.9933503925
 30
0.0
 10
339.5630540636
 20
88.0352435978
 30
0.0
 10
336.1711841791
 20
88.32708999
 30
0.0
 10
332.9007678299
 20
88.8625889239
 30
0.0
 10
329.8213923164
 20
89.6302499569
 30
0.0
 10
326.9981425491
 20
90.6137759465
 30
0.0
 10
324.4900446139
 20
91.7928385933
 30
0.0
 10
322.3487518129
 20
93.1439744935
 30
0.0
 10
320.6181572903
 20
94.6431536283
 30
0.0
 10
319.3359114856
 20
96.2650702785
 30
0.0
 10
318.6614087592
 20
97.7257913286
 30
0.0
 10
318.3995351585
 20
98.8992944315
 30
0.0
 10
318.3560717909
 20
99.4826346373
 30
0.0
 10
318.3560717909
 20
99.7714567274
 30
0.0
  0
SPLINE
  5
5B5
100
AcDbEntity
  8
7_ALL_FEATURES
100
AcDbSpline
 62
7
  6
CONTINUOUS
 70
0
 71
3
 72
32
 73
28
 74
0
 42
0.0000001
 43
0.0000001
 44
0.0000000001
 40
0.0
 40
0.0
 40
0.0
 40
0.0
 40
0.0203406464
 40
0.0412603333
 40
0.0632520464
 40
0.086721455
 40
0.1119457087
 40
0.139088108
 40
0.1682147871
 40
0.1993089871
 40
0.2494320562
 40
0.3032965539
 40
0.360212576
 40
0.4193510439
 40
0.4797906509
 40
0.5405590441
 40
0.6006712799
 40
0.6591676615
 40
0.7151528385
 40
0.7678385016
 40
0.8165932274
 40
0.861005071
 40
0.9009649787
 40
0.9367770583
 40
0.9692831243
 40
0.9847678522
 40
1.0
 40
1.0
 40
1.0
 40
1.0
 10
365.3560717909
 20
104.5345964482
 30
0.0
 10
365.3560717909
 20
104.1489103262
 30
0.0
 10
365.2778408499
 20
103.3645224798
 30
0.0
 10
364.9305109132
 20
102.2097235291
 30
0.0
 10
364.3584082897
 20
101.0818969337
 30
0.0
 10
363.5699789199
 20
99.9921899959
 30
0.0
 10
362.5743477654
 20
98.949403177
 30
0.0
 10
361.3815282017
 20
97.9623431082
 30
0.0
 10
360.0029268727
 20
97.0394347923
 30
0.0
 10
358.1662898514
 20
96.0324944524
 30
0.0
 10
355.8050125576
 20
95.026258135
 30
0.0
 10
352.8896869417
 20
94.1126299589
 30
0.0
 10
349.7390921885
 20
93.4207644624
 30
0.0
 10
346.4203013488
 20
92.9654567941
 30
0.0
 10
343.003947473
 20
92.7564901134
 30
0.0
 10
339.5630540636
 20
92.7983833186
 30
0.0
 10
336.1711841791
 20
93.0902297108
 30
0.0
 10
332.9007678299
 20
93.6257286447
 30
0.0
 10
329.8213923164
 20
94.3933896777
 30
0.0
 10
326.9981425491
 20
95.3769156674
 30
0.0
 10
324.4900446139
 20
96.5559783142
 30
0.0
 10
322.3487518129
 20
97.9071142143
 30
0.0
 10
320.6181572903
 20
99.4062933491
 30
0.0
 10
319.3359114856
 20
101.0282099993
 30
0.0
 10
318.6614087592
 20
102.4889310494
 30
0.0
 10
318.3995351585
 20
103.6624341524
 30
0.0
 10
318.3560717909
 20
104.2457743581
 30
0.0
 10
318.3560717909
 20
104.5345964482
 30
0.0
  0
SPLINE
  5
5B6
100
AcDbEntity
  8
7_ALL_FEATURES
100
AcDbSpline
 62
7
  6
CONTINUOUS
 70
0
 71
3
 72
18
 73
14
 74
0
 42
0.0000001
 43
0.0000001
 44
0.0000000001
 40
0.0
 40
0.0
 40
0.0
 40
0.0
 40
0.0412869097
 40
0.0836459338
 40
0.1279929879
 40
0.1751013897
 40
0.2794161324
 40
0.337306884
 40
0.3990290634
 40
0.5333424842
 40
0.6804607908
 40
0.8372798069
 40
1.0
 40
1.0
 40
1.0
 40
1.0
 10
365.3560717909
 20
109.297736169
 30
0.0
 10
365.3560717909
 20
108.9305335161
 30
0.0
 10
365.285321181
 20
108.1848236722
 30
0.0
 10
364.9708707218
 20
107.0848427676
 30
0.0
 10
364.4520915331
 20
106.0077993845
 30
0.0
 10
363.4639549794
 20
104.5675569384
 30
0.0
 10
362.1058098011
 20
103.2646862563
 30
0.0
 10
360.4842647833
 20
102.1066637776
 30
0.0
 10
358.5354104868
 20
100.9596090341
 30
0.0
 10
355.7298097037
 20
99.730676289
 30
0.0
 10
351.9850316441
 20
98.6205560545
 30
0.0
 10
347.8954692531
 20
97.8725768467
 30
0.0
 10
345.0584688054
 20
97.6347829397
 30
0.0
 10
343.612262624
 20
97.5805928124
 30
0.0
  0
SPLINE
  5
5B7
100
AcDbEntity
  8
7_ALL_FEATURES
100
AcDbSpline
 62
7
  6
CONTINUOUS
 70
0
 71
3
 72
18
 73
14
 74
0
 42
0.0000001
 43
0.0000001
 44
0.0000000001
 40
0.0
 40
0.0
 40
0.0
 40
0.0
 40
0.1627201931
 40
0.3195392092
 40
0.4666575158
 40
0.6009709366
 40
0.662693116
 40
0.7205838676
 40
0.8248986103
 40
0.8720070121
 40
0.9163540662
 40
0.9587130903
 40
1.0
 40
1.0
 40
1.0
 40
1.0
 10
340.0998809578
 20
97.5805928124
 30
0.0
 10
338.6536747764
 20
97.6347829397
 30
0.0
 10
335.8166743287
 20
97.8725768467
 30
0.0
 10
331.7271119377
 20
98.6205560545
 30
0.0
 10
327.9823338781
 20
99.730676289
 30
0.0
 10
325.176733095
 20
100.9596090341
 30
0.0
 10
323.2278787986
 20
102.1066637776
 30
0.0
 10
321.6063337808
 20
103.2646862563
 30
0.0
 10
320.2481886024
 20
104.5675569384
 30
0.0
 10
319.2600520487
 20
106.0077993845
 30
0.0
 10
318.74127286
 20
107.0848427676
 30
0.0
 10
318.4268224008
 20
108.1848236722
 30
0.0
 10
318.3560717909
 20
108.9305335161
 30
0.0
 10
318.3560717909
 20
109.297736169
 30
0.0
  0
SPLINE
  5
5B8
100
AcDbEntity
  8
7_ALL_FEATURES
100
AcDbSpline
 62
7
  6
CONTINUOUS
 70
0
 71
3
 72
23
 73
19
 74
0
 42
0.0000001
 43
0.0000001
 44
0.0000000001
 40
0.0
 40
0.0
 40
0.0
 40
0.0
 40
0.0463767825
 40
0.098123891
 40
0.155289638
 40
0.2174947631
 40
0.2840507182
 40
0.3540467857
 40
0.4264177119
 40
0.5
 40
0.5735822881
 40
0.6459532143
 40
0.7159492818
 40
0.7825052369
 40
0.844710362
 40
0.901876109
 40
0.9536232175
 40
1.0
 40
1.0
 40
1.0
 40
1.0
 10
363.662526938
 20
109.6811928617
 30
0.0
 10
363.2044088504
 20
109.1109300544
 30
0.0
 10
362.1011444963
 20
108.0099168765
 30
0.0
 10
360.0984183962
 20
106.5859557892
 30
0.0
 10
357.7034060765
 20
105.3266558499
 30
0.0
 10
354.9669970778
 20
104.258032254
 30
0.0
 10
351.9468030592
 20
103.4018553926
 30
0.0
 10
348.7076558114
 20
102.7766139954
 30
0.0
 10
345.3195493397
 20
102.395886762
 30
0.0
 10
341.8560717909
 20
102.2680408583
 30
0.0
 10
338.3925942421
 20
102.395886762
 30
0.0
 10
335.0044877704
 20
102.7766139954
 30
0.0
 10
331.7653405226
 20
103.4018553926
 30
0.0
 10
328.745146504
 20
104.258032254
 30
0.0
 10
326.0087375053
 20
105.3266558499
 30
0.0
 10
323.6137251857
 20
106.5859557892
 30
0.0
 10
321.6109990855
 20
108.0099168765
 30
0.0
 10
320.5077347314
 20
109.1109300544
 30
0.0
 10
320.0496166439
 20
109.6811928617
 30
0.0
  0
SPLINE
  5
5B9
100
AcDbEntity
  8
7_ALL_FEATURES
100
AcDbSpline
 62
7
  6
CONTINUOUS
 70
0
 71
3
 72
9
 73
5
 74
0
 42
0.0000001
 43
0.0000001
 44
0.0000000001
 40
0.0
 40
0.0
 40
0.0
 40
0.0
 40
0.2486305463
 40
1.0
 40
1.0
 40
1.0
 40
1.0
 10
365.3560717909
 20
106.6996599577
 30
0.0
 10
365.3560717909
 20
106.8081268557
 30
0.0
 10
365.3439832955
 20
107.2443195618
 30
0.0
 10
365.2830698174
 20
107.6790051642
 30
0.0
 10
365.2119010592
 20
107.9989763731
 30
0.0
  0
SPLINE
  5
5BA
100
AcDbEntity
  8
7_ALL_FEATURES
100
AcDbSpline
 62
7
  6
CONTINUOUS
 70
0
 71
3
 72
9
 73
5
 74
0
 42
0.0000001
 43
0.0000001
 44
0.0000000001
 40
0.0
 40
0.0
 40
0.0
 40
0.0
 40
0.2522683045
 40
1.0
 40
1.0
 40
1.0
 40
1.0
 10
318.5002425227
 20
107.9989763731
 30
0.0
 10
318.4763482604
 20
107.8915489543
 30
0.0
 10
318.3929304007
 20
107.4632782273
 30
0.0
 10
318.3560717909
 20
107.0258596989
 30
0.0
 10
318.3560717909
 20
106.6996599577
 30
0.0
  0
SPLINE
  5
5BB
100
AcDbEntity
  8
7_ALL_FEATURES
100
AcDbSpline
 62
7
  6
CONTINUOUS
 70
0
 71
3
 72
9
 73
5
 74
0
 42
0.0000001
 43
0.0000001
 44
0.0000000001
 40
0.0
 40
0.0
 40
0.0
 40
0.0
 40
0.2486305463
 40
1.0
 40
1.0
 40
1.0
 40
1.0
 10
365.3560717909
 20
101.9365202369
 30
0.0
 10
365.3560717909
 20
102.0449871349
 30
0.0
 10
365.3439832955
 20
102.4811798409
 30
0.0
 10
365.2830698174
 20
102.9158654433
 30
0.0
 10
365.2119010592
 20
103.2358366523
 30
0.0
  0
SPLINE
  5
5BC
100
AcDbEntity
  8
7_ALL_FEATURES
100
AcDbSpline
 62
7
  6
CONTINUOUS
 70
0
 71
3
 72
9
 73
5
 74
0
 42
0.0000001
 43
0.0000001
 44
0.0000000001
 40
0.0
 40
0.0
 40
0.0
 40
0.0
 40
0.2522683045
 40
1.0
 40
1.0
 40
1.0
 40
1.0
 10
318.5002425227
 20
103.2358366523
 30
0.0
 10
318.4763482604
 20
103.1284092335
 30
0.0
 10
318.3929304007
 20
102.7001385065
 30
0.0
 10
318.3560717909
 20
102.2627199781
 30
0.0
 10
318.3560717909
 20
101.9365202369
 30
0.0
  0
SPLINE
  5
5BD
100
AcDbEntity
  8
7_ALL_FEATURES
100
AcDbSpline
 62
7
  6
CONTINUOUS
 70
0
 71
3
 72
16
 73
12
 74
0
 42
0.0000001
 43
0.0000001
 44
0.0000000001
 40
0.0
 40
0.0
 40
0.0
 40
0.0
 40
0.0422278348
 40
0.0860745779
 40
0.1807876241
 40
0.2876255767
 40
0.4077834231
 40
0.5409104348
 40
0.6855560947
 40
0.8395010416
 40
1.0
 40
1.0
 40
1.0
 40
1.0
 10
318.4537917882
 20
110.3927370713
 30
0.0
 10
318.5127258929
 20
110.0704384907
 30
0.0
 10
318.6863802982
 20
109.4222120936
 30
0.0
 10
319.2505449501
 20
108.1331735715
 30
0.0
 10
320.375074289
 20
106.5696310892
 30
0.0
 10
322.2451229381
 20
104.8953888498
 30
0.0
 10
324.6186307888
 20
103.4008384341
 30
0.0
 10
327.4362002375
 20
102.119809953
 30
0.0
 10
330.6275488536
 20
101.0822794337
 30
0.0
 10
334.1108613979
 20
100.3147665279
 30
0.0
 10
336.5338227383
 20
100.0007926947
 30
0.0
 10
337.7743086684
 20
99.8914118357
 30
0.0
  0
SPLINE
  5
5BE
100
AcDbEntity
  8
7_ALL_FEATURES
100
AcDbSpline
 62
7
  6
CONTINUOUS
 70
0
 71
3
 72
16
 73
12
 74
0
 42
0.0000001
 43
0.0000001
 44
0.0000000001
 40
0.0
 40
0.0
 40
0.0
 40
0.0
 40
0.1604989584
 40
0.3144439053
 40
0.4590895652
 40
0.5922165769
 40
0.7123744233
 40
0.8192123759
 40
0.9139254221
 40
0.9577721652
 40
1.0
 40
1.0
 40
1.0
 40
1.0
 10
345.9378349134
 20
99.8914118357
 30
0.0
 10
347.1783208436
 20
100.0007926947
 30
0.0
 10
349.6012821839
 20
100.3147665279
 30
0.0
 10
353.0845947282
 20
101.0822794337
 30
0.0
 10
356.2759433443
 20
102.119809953
 30
0.0
 10
359.093512793
 20
103.4008384341
 30
0.0
 10
361.4670206437
 20
104.8953888498
 30
0.0
 10
363.3370692928
 20
106.5696310892
 30
0.0
 10
364.4615986318
 20
108.1331735715
 30
0.0
 10
365.0257632836
 20
109.4222120936
 30
0.0
 10
365.1994176889
 20
110.0704384907
 30
0.0
 10
365.2583517937
 20
110.3927370713
 30
0.0
  0
SPLINE
  5
5BF
100
AcDbEntity
  8
7_ALL_FEATURES
100
AcDbSpline
 62
7
  6
CONTINUOUS
 70
0
 71
3
 72
17
 73
13
 74
0
 42
0.0000001
 43
0.0000001
 44
0.0000000001
 40
0.0
 40
0.0
 40
0.0
 40
0.0
 40
0.0416187107
 40
0.0855832075
 40
0.1323649326
 40
0.1822822224
 40
0.2919959548
 40
0.4149194275
 40
0.549729528
 40
0.6941705151
 40
0.8453499261
 40
1.0
 40
1.0
 40
1.0
 40
1.0
 10
363.4918008441
 20
95.1800488033
 30
0.0
 10
363.3738425673
 20
94.8599340965
 30
0.0
 10
363.0775063846
 20
94.2205253137
 30
0.0
 10
362.483302527
 20
93.3090027152
 30
0.0
 10
361.7346577274
 20
92.4283625572
 30
0.0
 10
360.4995836817
 20
91.267639695
 30
0.0
 10
358.5826546729
 20
89.9443135695
 30
0.0
 10
355.8670239828
 20
88.6221200381
 30
0.0
 10
352.741356499
 20
87.5515416006
 30
0.0
 10
349.2962606974
 20
86.7636460133
 30
0.0
 10
345.6321123056
 20
86.2812370285
 30
0.0
 10
343.1237669424
 20
86.173380516
 30
0.0
 10
341.8560717909
 20
86.173380516
 30
0.0
  0
SPLINE
  5
5C0
100
AcDbEntity
  8
7_ALL_FEATURES
100
AcDbSpline
 62
7
  6
CONTINUOUS
 70
0
 71
3
 72
9
 73
5
 74
0
 42
0.0000001
 43
0.0000001
 44
0.0000000001
 40
0.0
 40
0.0
 40
0.0
 40
0.0
 40
0.4961196336
 40
1.0
 40
1.0
 40
1.0
 40
1.0
 10
318.3560717909
 20
97.173380516
 30
0.0
 10
318.3560717909
 20
96.8934501582
 30
0.0
 10
318.3967864821
 20
96.3285072805
 30
0.0
 10
318.5165727797
 20
95.7750783328
 30
0.0
 10
318.5950896626
 20
95.5018259575
 30
0.0
  0
SPLINE
  5
5C1
100
AcDbEntity
  8
7_ALL_FEATURES
100
AcDbSpline
 62
7
  6
CONTINUOUS
 70
0
 71
3
 72
15
 73
11
 74
0
 42
0.0000001
 43
0.0000001
 44
0.0000000001
 40
0.0
 40
0.0
 40
0.0
 40
0.0
 40
0.0891459116
 40
0.1867914905
 40
0.2952054822
 40
0.4153198138
 40
0.5470213836
 40
0.6894165369
 40
0.8410379718
 40
1.0
 40
1.0
 40
1.0
 40
1.0
 10
318.5950896626
 20
95.5018259575
 30
0.0
 10
318.7574386899
 20
94.936823174
 30
0.0
 10
319.2639862414
 20
93.7972448314
 30
0.0
 10
320.4466086996
 20
92.2349202153
 30
0.0
 10
322.0454795
 20
90.7811041134
 30
0.0
 10
324.0277322564
 20
89.4591580366
 30
0.0
 10
326.3558948186
 20
88.2904006802
 30
0.0
 10
328.9859476121
 20
87.2961005963
 30
0.0
 10
331.8672599563
 20
86.4950298522
 30
0.0
 10
333.8808362179
 20
86.1074425111
 30
0.0
 10
334.916800715
 20
85.9473497432
 30
0.0
  0
SPLINE
  5
5C2
100
AcDbEntity
  8
7_ALL_FEATURES
100
AcDbSpline
 62
7
  6
CONTINUOUS
 70
0
 71
3
 72
11
 73
7
 74
0
 42
0.0000001
 43
0.0000001
 44
0.0000000001
 40
0.0
 40
0.0
 40
0.0
 40
0.0
 40
0.2478892683
 40
0.5
 40
0.7521107317
 40
1.0
 40
1.0
 40
1.0
 40
1.0
 10
334.916800715
 20
85.9473497432
 30
0.0
 10
336.0541826589
 20
85.7715844307
 30
0.0
 10
338.3635266403
 20
85.5098093622
 30
0.0
 10
341.8560717909
 20
85.379824423
 30
0.0
 10
345.3486169415
 20
85.5098093622
 30
0.0
 10
347.6579609229
 20
85.7715844307
 30
0.0
 10
348.7953428668
 20
85.9473497432
 30
0.0
  0
SPLINE
  5
5C3
100
AcDbEntity
  8
7_ALL_FEATURES
100
AcDbSpline
 62
7
  6
CONTINUOUS
 70
0
 71
3
 72
15
 73
11
 74
0
 42
0.0000001
 43
0.0000001
 44
0.0000000001
 40
0.0
 40
0.0
 40
0.0
 40
0.0
 40
0.1589620282
 40
0.3105834631
 40
0.4529786164
 40
0.5846801862
 40
0.7047945178
 40
0.8132085095
 40
0.9108540884
 40
1.0
 40
1.0
 40
1.0
 40
1.0
 10
348.7953428668
 20
85.9473497432
 30
0.0
 10
349.831307364
 20
86.1074425111
 30
0.0
 10
351.8448836255
 20
86.4950298522
 30
0.0
 10
354.7261959698
 20
87.2961005963
 30
0.0
 10
357.3562487632
 20
88.2904006802
 30
0.0
 10
359.6844113254
 20
89.4591580366
 30
0.0
 10
361.6666640818
 20
90.7811041134
 30
0.0
 10
363.2655348823
 20
92.2349202153
 30
0.0
 10
364.4481573405
 20
93.7972448314
 30
0.0
 10
364.9547048919
 20
94.936823174
 30
0.0
 10
365.1170539193
 20
95.5018259575
 30
0.0
  0
SPLINE
  5
5C4
100
AcDbEntity
  8
7_ALL_FEATURES
100
AcDbSpline
 62
7
  6
CONTINUOUS
 70
0
 71
3
 72
9
 73
5
 74
0
 42
0.0000001
 43
0.0000001
 44
0.0000000001
 40
0.0
 40
0.0
 40
0.0
 40
0.0
 40
0.5038803664
 40
1.0
 40
1.0
 40
1.0
 40
1.0
 10
365.1170539193
 20
95.5018259575
 30
0.0
 10
365.1955708021
 20
95.7750783328
 30
0.0
 10
365.3153570997
 20
96.3285072805
 30
0.0
 10
365.3560717909
 20
96.8934501582
 30
0.0
 10
365.3560717909
 20
97.173380516
 30
0.0
  0
SPLINE
  5
5C5
100
AcDbEntity
  8
7_ALL_FEATURES
100
AcDbSpline
 62
7
  6
CONTINUOUS
 70
0
 71
3
 72
21
 73
17
 74
0
 42
0.0000001
 43
0.0000001
 44
0.0000000001
 40
0.0
 40
0.0
 40
0.0
 40
0.0
 40
0.0518419759
 40
0.1075986151
 40
0.1669697461
 40
0.2295265152
 40
0.2947413392
 40
0.3620119763
 40
0.5
 40
0.6379880237
 40
0.7052586608
 40
0.7704734848
 40
0.8330302539
 40
0.8924013849
 40
0.9481580241
 40
1.0
 40
1.0
 40
1.0
 40
1.0
 10
314.0954163931
 20
112.9121444404
 30
0.0
 10
314.9254096905
 20
112.3497579342
 30
0.0
 10
316.7173682012
 20
111.2829897624
 30
0.0
 10
319.6419699036
 20
109.904862628
 30
0.0
 10
322.8661912584
 20
108.7057391765
 30
0.0
 10
326.3465224205
 20
107.7018519473
 30
0.0
 10
330.0365516258
 20
106.9064648345
 30
0.0
 10
335.2126509539
 20
106.1323912763
 30
0.0
 10
341.8560717909
 20
105.7507371033
 30
0.0
 10
348.4994926279
 20
106.1323912763
 30
0.0
 10
353.675591956
 20
106.9064648345
 30
0.0
 10
357.3656211614
 20
107.7018519473
 30
0.0
 10
360.8459523234
 20
108.7057391765
 30
0.0
 10
364.0701736782
 20
109.904862628
 30
0.0
 10
366.9947753806
 20
111.2829897624
 30
0.0
 10
368.7867338913
 20
112.3497579342
 30
0.0
 10
369.6167271888
 20
112.9121444404
 30
0.0
  0
SPLINE
  5
5C6
100
AcDbEntity
  8
7_ALL_FEATURES
100
AcDbSpline
 62
7
  6
CONTINUOUS
 70
0
 71
3
 72
17
 73
13
 74
0
 42
0.0000001
 43
0.0000001
 44
0.0000000001
 40
0.0
 40
0.0
 40
0.0
 40
0.0
 40
0.0416187107
 40
0.0855832075
 40
0.1323649326
 40
0.1822822224
 40
0.2919959548
 40
0.4149194275
 40
0.549729528
 40
0.6941705151
 40
0.8453499261
 40
1.0
 40
1.0
 40
1.0
 40
1.0
 10
363.4918008441
 20
99.9431885241
 30
0.0
 10
363.3738425673
 20
99.6230738173
 30
0.0
 10
363.0775063846
 20
98.9836650345
 30
0.0
 10
362.483302527
 20
98.072142436
 30
0.0
 10
361.7346577274
 20
97.191502278
 30
0.0
 10
360.4995836817
 20
96.0307794158
 30
0.0
 10
358.5826546729
 20
94.7074532904
 30
0.0
 10
355.8670239828
 20
93.3852597589
 30
0.0
 10
352.741356499
 20
92.3146813214
 30
0.0
 10
349.2962606974
 20
91.5267857341
 30
0.0
 10
345.6321123056
 20
91.0443767493
 30
0.0
 10
343.1237669424
 20
90.9365202369
 30
0.0
 10
341.8560717909
 20
90.9365202369
 30
0.0
  0
SPLINE
  5
5C7
100
AcDbEntity
  8
7_ALL_FEATURES
100
AcDbSpline
 62
7
  6
CONTINUOUS
 70
0
 71
3
 72
32
 73
28
 74
0
 42
0.0000001
 43
0.0000001
 44
0.0000000001
 40
0.0
 40
0.0
 40
0.0
 40
0.0
 40
0.0203406464
 40
0.0412603333
 40
0.0632520464
 40
0.086721455
 40
0.1119457087
 40
0.139088108
 40
0.1682147871
 40
0.1993089871
 40
0.2494320562
 40
0.3032965539
 40
0.360212576
 40
0.4193510439
 40
0.4797906509
 40
0.5405590441
 40
0.6006712799
 40
0.6591676615
 40
0.7151528385
 40
0.7678385016
 40
0.8165932274
 40
0.861005071
 40
0.9009649787
 40
0.9367770583
 40
0.9692831243
 40
0.9847678522
 40
1.0
 40
1.0
 40
1.0
 40
1.0
 10
318.3560717909
 20
101.9365202369
 30
0.0
 10
318.3560717909
 20
101.5508341148
 30
0.0
 10
318.434302732
 20
100.7664462684
 30
0.0
 10
318.7816326686
 20
99.6116473177
 30
0.0
 10
319.3537352921
 20
98.4838207223
 30
0.0
 10
320.1421646619
 20
97.3941137845
 30
0.0
 10
321.1377958164
 20
96.3513269656
 30
0.0
 10
322.3306153801
 20
95.3642668968
 30
0.0
 10
323.7092167091
 20
94.4413585809
 30
0.0
 10
325.5458537305
 20
93.434418241
 30
0.0
 10
327.9071310242
 20
92.4281819237
 30
0.0
 10
330.8224566401
 20
91.5145537476
 30
0.0
 10
333.9730513933
 20
90.822688251
 30
0.0
 10
337.291842233
 20
90.3673805827
 30
0.0
 10
340.7081961088
 20
90.158413902
 30
0.0
 10
344.1490895183
 20
90.2003071073
 30
0.0
 10
347.5409594027
 20
90.4921534994
 30
0.0
 10
350.8113757519
 20
91.0276524334
 30
0.0
 10
353.8907512654
 20
91.7953134664
 30
0.0
 10
356.7140010327
 20
92.778839456
 30
0.0
 10
359.2220989679
 20
93.9579021028
 30
0.0
 10
361.3633917689
 20
95.3090380029
 30
0.0
 10
363.0939862916
 20
96.8082171378
 30
0.0
 10
364.3762320962
 20
98.4301337879
 30
0.0
 10
365.0507348226
 20
99.8908548381
 30
0.0
 10
365.3126084234
 20
101.064357941
 30
0.0
 10
365.3560717909
 20
101.6476981468
 30
0.0
 10
365.3560717909
 20
101.9365202369
 30
0.0
  0
SPLINE
  5
5C8
100
AcDbEntity
  8
7_ALL_FEATURES
100
AcDbSpline
 62
7
  6
CONTINUOUS
 70
0
 71
3
 72
32
 73
28
 74
0
 42
0.0000001
 43
0.0000001
 44
0.0000000001
 40
0.0
 40
0.0
 40
0.0
 40
0.0
 40
0.0203406464
 40
0.0412603333
 40
0.0632520464
 40
0.086721455
 40
0.1119457087
 40
0.139088108
 40
0.1682147871
 40
0.1993089871
 40
0.2494320562
 40
0.3032965539
 40
0.360212576
 40
0.4193510439
 40
0.4797906509
 40
0.5405590441
 40
0.6006712799
 40
0.6591676615
 40
0.7151528385
 40
0.7678385016
 40
0.8165932274
 40
0.861005071
 40
0.9009649787
 40
0.9367770583
 40
0.9692831243
 40
0.9847678522
 40
1.0
 40
1.0
 40
1.0
 40
1.0
 10
318.3560717909
 20
106.6996599577
 30
0.0
 10
318.3560717909
 20
106.3139738357
 30
0.0
 10
318.434302732
 20
105.5295859892
 30
0.0
 10
318.7816326686
 20
104.3747870385
 30
0.0
 10
319.3537352921
 20
103.2469604432
 30
0.0
 10
320.1421646619
 20
102.1572535053
 30
0.0
 10
321.1377958164
 20
101.1144666864
 30
0.0
 10
322.3306153801
 20
100.1274066176
 30
0.0
 10
323.7092167091
 20
99.2044983017
 30
0.0
 10
325.5458537305
 20
98.1975579618
 30
0.0
 10
327.9071310242
 20
97.1913216445
 30
0.0
 10
330.8224566401
 20
96.2776934684
 30
0.0
 10
333.9730513933
 20
95.5858279718
 30
0.0
 10
337.291842233
 20
95.1305203035
 30
0.0
 10
340.7081961088
 20
94.9215536228
 30
0.0
 10
344.1490895183
 20
94.9634468281
 30
0.0
 10
347.5409594027
 20
95.2552932202
 30
0.0
 10
350.8113757519
 20
95.7907921542
 30
0.0
 10
353.8907512654
 20
96.5584531872
 30
0.0
 10
356.7140010327
 20
97.5419791768
 30
0.0
 10
359.2220989679
 20
98.7210418236
 30
0.0
 10
361.3633917689
 20
100.0721777237
 30
0.0
 10
363.0939862916
 20
101.5713568586
 30
0.0
 10
364.3762320962
 20
103.1932735088
 30
0.0
 10
365.0507348226
 20
104.6539945589
 30
0.0
 10
365.3126084234
 20
105.8274976618
 30
0.0
 10
365.3560717909
 20
106.4108378676
 30
0.0
 10
365.3560717909
 20
106.6996599577
 30
0.0
  0
SPLINE
  5
5C9
100
AcDbEntity
  8
7_ALL_FEATURES
100
AcDbSpline
 62
7
  6
CONTINUOUS
 70
0
 71
3
 72
11
 73
7
 74
0
 42
0.0000001
 43
0.0000001
 44
0.0000000001
 40
0.0
 40
0.0
 40
0.0
 40
0.0
 40
0.2222651993
 40
0.4650124871
 40
0.7254939631
 40
1.0
 40
1.0
 40
1.0
 40
1.0
 10
323.3112698201
 20
88.2243303344
 30
0.0
 10
324.0808487148
 20
87.7299565064
 30
0.0
 10
325.7686827239
 20
86.8145880746
 30
0.0
 10
328.5454101407
 20
85.7034582589
 30
0.0
 10
331.624606885
 20
84.8135130447
 30
0.0
 10
333.7882081971
 20
84.390061372
 30
0.0
 10
334.90457977
 20
84.2171911869
 30
0.0
  0
SPLINE
  5
5CA
100
AcDbEntity
  8
7_ALL_FEATURES
100
AcDbSpline
 62
7
  6
CONTINUOUS
 70
0
 71
3
 72
11
 73
7
 74
0
 42
0.0000001
 43
0.0000001
 44
0.0000000001
 40
0.0
 40
0.0
 40
0.0
 40
0.0
 40
0.2478816666
 40
0.5
 40
0.7521183334
 40
1.0
 40
1.0
 40
1.0
 40
1.0
 10
334.90457977
 20
84.2171911869
 30
0.0
 10
336.0438905778
 20
84.0407688602
 30
0.0
 10
338.3572934129
 20
83.7780841156
 30
0.0
 10
341.8560717909
 20
83.6476195875
 30
0.0
 10
345.3548501689
 20
83.7780841156
 30
0.0
 10
347.668253004
 20
84.0407688602
 30
0.0
 10
348.8075638119
 20
84.2171911869
 30
0.0
  0
SPLINE
  5
5CB
100
AcDbEntity
  8
7_ALL_FEATURES
100
AcDbSpline
 62
7
  6
CONTINUOUS
 70
0
 71
3
 72
11
 73
7
 74
0
 42
0.0000001
 43
0.0000001
 44
0.0000000001
 40
0.0
 40
0.0
 40
0.0
 40
0.0
 40
0.2745060369
 40
0.5349875129
 40
0.7777348007
 40
1.0
 40
1.0
 40
1.0
 40
1.0
 10
348.8075638119
 20
84.2171911869
 30
0.0
 10
349.9239353847
 20
84.390061372
 30
0.0
 10
352.0875366968
 20
84.8135130447
 30
0.0
 10
355.1667334411
 20
85.7034582589
 30
0.0
 10
357.9434608579
 20
86.8145880746
 30
0.0
 10
359.6312948671
 20
87.7299565064
 30
0.0
 10
360.4008737617
 20
88.2243303344
 30
0.0
  0
SPLINE
  5
5CC
100
AcDbEntity
  8
7_ALL_FEATURES
100
AcDbSpline
 62
7
  6
CONTINUOUS
 70
0
 71
3
 72
17
 73
13
 74
0
 42
0.0000001
 43
0.0000001
 44
0.0000000001
 40
0.0
 40
0.0
 40
0.0
 40
0.0
 40
0.0416187107
 40
0.0855832075
 40
0.1323649326
 40
0.1822822224
 40
0.2919959548
 40
0.4149194275
 40
0.549729528
 40
0.6941705151
 40
0.8453499261
 40
1.0
 40
1.0
 40
1.0
 40
1.0
 10
363.4918008441
 20
104.7063282449
 30
0.0
 10
363.3738425673
 20
104.3862135381
 30
0.0
 10
363.0775063846
 20
103.7468047553
 30
0.0
 10
362.483302527
 20
102.8352821568
 30
0.0
 10
361.7346577274
 20
101.9546419988
 30
0.0
 10
360.4995836817
 20
100.7939191367
 30
0.0
 10
358.5826546729
 20
99.4705930112
 30
0.0
 10
355.8670239828
 20
98.1483994797
 30
0.0
 10
352.741356499
 20
97.0778210422
 30
0.0
 10
349.2962606974
 20
96.2899254549
 30
0.0
 10
345.6321123056
 20
95.8075164701
 30
0.0
 10
343.1237669424
 20
95.6996599577
 30
0.0
 10
341.8560717909
 20
95.6996599577
 30
0.0
  0
SPLINE
  5
5CD
100
AcDbEntity
  8
7_ALL_FEATURES
100
AcDbSpline
 62
7
  6
CONTINUOUS
 70
0
 71
3
 72
17
 73
13
 74
0
 42
0.0000001
 43
0.0000001
 44
0.0000000001
 40
0.0
 40
0.0
 40
0.0
 40
0.0
 40
0.0416187107
 40
0.0855832075
 40
0.1323649326
 40
0.1822822224
 40
0.2919959548
 40
0.4149194275
 40
0.549729528
 40
0.6941705151
 40
0.8453499261
 40
1.0
 40
1.0
 40
1.0
 40
1.0
 10
363.4918008441
 20
109.4694679658
 30
0.0
 10
363.3738425673
 20
109.149353259
 30
0.0
 10
363.0775063846
 20
108.5099444762
 30
0.0
 10
362.483302527
 20
107.5984218776
 30
0.0
 10
361.7346577274
 20
106.7177817196
 30
0.0
 10
360.4995836817
 20
105.5570588575
 30
0.0
 10
358.5826546729
 20
104.233732732
 30
0.0
 10
355.8670239828
 20
102.9115392005
 30
0.0
 10
352.741356499
 20
101.840960763
 30
0.0
 10
349.2962606974
 20
101.0530651757
 30
0.0
 10
345.6321123056
 20
100.570656191
 30
0.0
 10
343.1237669424
 20
100.4627996785
 30
0.0
 10
341.8560717909
 20
100.4627996785
 30
0.0
  0
SPLINE
  5
5CE
100
AcDbEntity
  8
7_ALL_FEATURES
100
AcDbSpline
 62
7
  6
CONTINUOUS
 70
0
 71
3
 72
17
 73
13
 74
0
 42
0.0000001
 43
0.0000001
 44
0.0000000001
 40
0.0
 40
0.0
 40
0.0
 40
0.0
 40
0.0416187107
 40
0.0855832075
 40
0.1323649326
 40
0.1822822224
 40
0.2919959548
 40
0.4149194275
 40
0.549729528
 40
0.6941705151
 40
0.8453499261
 40
1.0
 40
1.0
 40
1.0
 40
1.0
 10
320.2203427377
 20
95.1800488033
 30
0.0
 10
320.3383010145
 20
94.8599340965
 30
0.0
 10
320.6346371972
 20
94.2205253137
 30
0.0
 10
321.2288410548
 20
93.3090027152
 30
0.0
 10
321.9774858544
 20
92.4283625572
 30
0.0
 10
323.2125599001
 20
91.267639695
 30
0.0
 10
325.1294889089
 20
89.9443135695
 30
0.0
 10
327.845119599
 20
88.6221200381
 30
0.0
 10
330.9707870828
 20
87.5515416006
 30
0.0
 10
334.4158828845
 20
86.7636460133
 30
0.0
 10
338.0800312762
 20
86.2812370285
 30
0.0
 10
340.5883766395
 20
86.173380516
 30
0.0
 10
341.8560717909
 20
86.173380516
 30
0.0
  0
SPLINE
  5
5CF
100
AcDbEntity
  8
7_ALL_FEATURES
100
AcDbSpline
 62
7
  6
CONTINUOUS
 70
0
 71
3
 72
17
 73
13
 74
0
 42
0.0000001
 43
0.0000001
 44
0.0000000001
 40
0.0
 40
0.0
 40
0.0
 40
0.0
 40
0.0416187107
 40
0.0855832075
 40
0.1323649326
 40
0.1822822224
 40
0.2919959548
 40
0.4149194275
 40
0.549729528
 40
0.6941705151
 40
0.8453499261
 40
1.0
 40
1.0
 40
1.0
 40
1.0
 10
320.2203427377
 20
99.9431885241
 30
0.0
 10
320.3383010145
 20
99.6230738173
 30
0.0
 10
320.6346371972
 20
98.9836650345
 30
0.0
 10
321.2288410548
 20
98.072142436
 30
0.0
 10
321.9774858544
 20
97.191502278
 30
0.0
 10
323.2125599001
 20
96.0307794158
 30
0.0
 10
325.1294889089
 20
94.7074532904
 30
0.0
 10
327.845119599
 20
93.3852597589
 30
0.0
 10
330.9707870828
 20
92.3146813214
 30
0.0
 10
334.4158828845
 20
91.5267857341
 30
0.0
 10
338.0800312762
 20
91.0443767493
 30
0.0
 10
340.5883766395
 20
90.9365202369
 30
0.0
 10
341.8560717909
 20
90.9365202369
 30
0.0
  0
SPLINE
  5
5D0
100
AcDbEntity
  8
3_ALL_AXES
100
AcDbSpline
 62
7
  6
CONTINUOUS
 70
0
 71
3
 72
15
 73
11
 74
0
 42
0.0000001
 43
0.0000001
 44
0.0000000001
 40
0.0
 40
0.0
 40
0.0
 40
0.0
 40
0.1198592221
 40
0.2440829188
 40
0.371287584
 40
0.5000036407
 40
0.6287192257
 40
0.755922489
 40
0.8801438931
 40
1.0
 40
1.0
 40
1.0
 40
1.0
 10
325.2672795495
 20
114.5243456096
 30
0.0
 10
326.5597116994
 20
114.1699655455
 30
0.0
 10
329.220291058
 20
113.5497029591
 30
0.0
 10
333.321686984
 20
112.8891158673
 30
0.0
 10
337.5561145126
 20
112.48856601
 30
0.0
 10
341.8574109213
 20
112.3544112985
 30
0.0
 10
346.1586864781
 20
112.4887325443
 30
0.0
 10
350.3930518094
 20
112.88944632
 30
0.0
 10
354.4943452021
 20
113.5501921118
 30
0.0
 10
357.1548381743
 20
114.1705599674
 30
0.0
 10
358.4472200437
 20
114.5249916787
 30
0.0
  0
SPLINE
  5
5D1
100
AcDbEntity
  8
7_ALL_FEATURES
100
AcDbSpline
 62
7
  6
CONTINUOUS
 70
0
 71
3
 72
17
 73
13
 74
0
 42
0.0000001
 43
0.0000001
 44
0.0000000001
 40
0.0
 40
0.0
 40
0.0
 40
0.0
 40
0.0416187107
 40
0.0855832075
 40
0.1323649326
 40
0.1822822224
 40
0.2919959548
 40
0.4149194275
 40
0.549729528
 40
0.6941705151
 40
0.8453499261
 40
1.0
 40
1.0
 40
1.0
 40
1.0
 10
320.2203427377
 20
104.7063282449
 30
0.0
 10
320.3383010145
 20
104.3862135381
 30
0.0
 10
320.6346371972
 20
103.7468047553
 30
0.0
 10
321.2288410548
 20
102.8352821568
 30
0.0
 10
321.9774858544
 20
101.9546419988
 30
0.0
 10
323.2125599001
 20
100.7939191367
 30
0.0
 10
325.1294889089
 20
99.4705930112
 30
0.0
 10
327.845119599
 20
98.1483994797
 30
0.0
 10
330.9707870828
 20
97.0778210422
 30
0.0
 10
334.4158828845
 20
96.2899254549
 30
0.0
 10
338.0800312762
 20
95.8075164701
 30
0.0
 10
340.5883766395
 20
95.6996599577
 30
0.0
 10
341.8560717909
 20
95.6996599577
 30
0.0
  0
SPLINE
  5
5D2
100
AcDbEntity
  8
7_ALL_FEATURES
100
AcDbSpline
 62
7
  6
CONTINUOUS
 70
0
 71
3
 72
17
 73
13
 74
0
 42
0.0000001
 43
0.0000001
 44
0.0000000001
 40
0.0
 40
0.0
 40
0.0
 40
0.0
 40
0.0416187107
 40
0.0855832075
 40
0.1323649326
 40
0.1822822224
 40
0.2919959548
 40
0.4149194275
 40
0.549729528
 40
0.6941705151
 40
0.8453499261
 40
1.0
 40
1.0
 40
1.0
 40
1.0
 10
320.2203427377
 20
109.4694679658
 30
0.0
 10
320.3383010145
 20
109.149353259
 30
0.0
 10
320.6346371972
 20
108.5099444762
 30
0.0
 10
321.2288410548
 20
107.5984218776
 30
0.0
 10
321.9774858544
 20
106.7177817196
 30
0.0
 10
323.2125599001
 20
105.5570588575
 30
0.0
 10
325.1294889089
 20
104.233732732
 30
0.0
 10
327.845119599
 20
102.9115392005
 30
0.0
 10
330.9707870828
 20
101.840960763
 30
0.0
 10
334.4158828845
 20
101.0530651757
 30
0.0
 10
338.0800312762
 20
100.570656191
 30
0.0
 10
340.5883766395
 20
100.4627996785
 30
0.0
 10
341.8560717909
 20
100.4627996785
 30
0.0
  0
ENDSEC
  0
SECTION
  2
OBJECTS
  0
DICTIONARY
  5
5D3
100
AcDbDictionary
  3
ACAD_GROUP
350
5D4
  3
ACAD_MLINESTYLE
350
5D5
  0
DICTIONARY
  5
5D4
102
{ACAD_REACTORS
330
5D3
102
}
100
AcDbDictionary
  0
DICTIONARY
  5
5D5
102
{ACAD_REACTORS
330
5D3
102
}
100
AcDbDictionary
  3
STANDARD
350
5D6
  0
MLINESTYLE
  5
5D6
102
{ACAD_REACTORS
330
5D5
102
}
100
AcDbMlineStyle
  2
STANDARD
 70
0
  3

 62
256
 51
90.0
 52
90.0
 71
2
 49
0.5
 62
256
  6
BYLAYER
 49
-0.5
 62
256
  6
BYLAYER
  0
ENDSEC
  0
EOF
