  0
SECTION
  2
HEADER
  9
$ACADVER
  1
AC1015
  9
$ACADMAINTVER
 70
     6
  9
$DWGCODEPAGE
  3
ANSI_1252
  9
$INSBASE
 10
0.0
 20
0.0
 30
0.0
  9
$EXTMIN
 10
0.0
 20
0.0
 30
0.0
  9
$EXTMAX
 10
420.0
 20
297.0
 30
0.0
  9
$LIMMIN
 10
0.0
 20
0.0
  9
$LIMMAX
 10
420.0
 20
297.0
  9
$ORTHOMODE
 70
     0
  9
$REGENMODE
 70
     1
  9
$FILLMODE
 70
     1
  9
$QTEXTMODE
 70
     0
  9
$MIRRTEXT
 70
     1
  9
$LTSCALE
 40
23.1
  9
$ATTMODE
 70
     1
  9
$TEXTSIZE
 40
0.2
  9
$TRACEWID
 40
0.05
  9
$TEXTSTYLE
  7
STANDARD
  9
$CLAYER
  8
0
  9
$CELTYPE
  6
BYLAYER
  9
$CECOLOR
 62
   256
  9
$CELTSCALE
 40
1.0
  9
$DISPSILH
 70
     0
  9
$DIMSCALE
 40
1.0
  9
$DIMASZ
 40
2.5
  9
$DIMEXO
 40
2.625
  9
$DIMDLI
 40
15.96
  9
$DIMRND
 40
0.0
  9
$DIMDLE
 40
0.0
  9
$DIMEXE
 40
7.56
  9
$DIMTP
 40
0.01
  9
$DIMTM
 40
0.01
  9
$DIMTXT
 40
3.0
  9
$DIMCEN
 40
3.78
  9
$DIMTSZ
 40
0.0
  9
$DIMTOL
 70
     1
  9
$DIMLIM
 70
     0
  9
$DIMTIH
 70
     1
  9
$DIMTOH
 70
     1
  9
$DIMSE1
 70
     0
  9
$DIMSE2
 70
     0
  9
$DIMTAD
 70
     0
  9
$DIMZIN
 70
     0
  9
$DIMBLK
  1
CLOSED
  9
$DIMASO
 70
     1
  9
$DIMSHO
 70
     1
  9
$DIMPOST
  1

  9
$DIMAPOST
  1

  9
$DIMALT
 70
     0
  9
$DIMALTD
 70
     2
  9
$DIMALTF
 40
25.4
  9
$DIMLFAC
 40
1.0
  9
$DIMTOFL
 70
     0
  9
$DIMTVP
 40
0.0
  9
$DIMTIX
 70
     0
  9
$DIMSOXD
 70
     0
  9
$DIMSAH
 70
     0
  9
$DIMBLK1
  1

  9
$DIMBLK2
  1

  9
$DIMSTYLE
  2
STANDARD
  9
$DIMCLRD
 70
     0
  9
$DIMCLRE
 70
     0
  9
$DIMCLRT
 70
     0
  9
$DIMTFAC
 40
1.0
  9
$DIMGAP
 40
0.09
  9
$DIMJUST
 70
     0
  9
$DIMSD1
 70
     0
  9
$DIMSD2
 70
     0
  9
$DIMTOLJ
 70
     1
  9
$DIMTZIN
 70
     0
  9
$DIMALTZ
 70
     0
  9
$DIMALTTZ
 70
     0
  9
$DIMUPT
 70
     0
  9
$DIMDEC
 70
     4
  9
$DIMTDEC
 70
     4
  9
$DIMALTU
 70
     2
  9
$DIMALTTD
 70
     2
  9
$DIMTXSTY
  7
STANDARD
  9
$DIMAUNIT
 70
     0
  9
$DIMADEC
 70
     0
  9
$DIMALTRND
 40
0.0
  9
$DIMAZIN
 70
     0
  9
$DIMDSEP
 70
    46
  9
$DIMATFIT
 70
     3
  9
$DIMFRAC
 70
     0
  9
$DIMLDRBLK
  1

  9
$DIMLUNIT
 70
     2
  9
$DIMLWD
 70
    -2
  9
$DIMLWE
 70
    -2
  9
$DIMTMOVE
 70
     0
  9
$LUNITS
 70
     2
  9
$LUPREC
 70
     4
  9
$SKETCHINC
 40
0.1
  9
$FILLETRAD
 40
0.5
  9
$AUNITS
 70
     0
  9
$AUPREC
 70
     0
  9
$MENU
  1
.
  9
$ELEVATION
 40
0.0
  9
$PELEVATION
 40
0.0
  9
$THICKNESS
 40
0.0
  9
$LIMCHECK
 70
     0
  9
$CHAMFERA
 40
0.0
  9
$CHAMFERB
 40
0.0
  9
$CHAMFERC
 40
0.0
  9
$CHAMFERD
 40
0.0
  9
$SKPOLY
 70
     0
  9
$TDCREATE
 40
2447893.041666667
  9
$TDUCREATE
 40
0.0
  9
$TDUPDATE
 40
2458444.345104271
  9
$TDUUPDATE
 40
2458444.303437604
  9
$TDINDWG
 40
0.0017942014
  9
$TDUSRTIMER
 40
0.0013595486
  9
$USRTIMER
 70
     1
  9
$ANGBASE
 50
0.0
  9
$ANGDIR
 70
     0
  9
$PDMODE
 70
     3
  9
$PDSIZE
 40
0.3125
  9
$PLINEWID
 40
0.0
  9
$SPLFRAME
 70
     0
  9
$SPLINETYPE
 70
     6
  9
$SPLINESEGS
 70
     8
  9
$HANDSEED
  5
4B3
  9
$SURFTAB1
 70
     6
  9
$SURFTAB2
 70
     6
  9
$SURFTYPE
 70
     6
  9
$SURFU
 70
     6
  9
$SURFV
 70
     6
  9
$UCSBASE
  2

  9
$UCSNAME
  2

  9
$UCSORG
 10
0.0
 20
0.0
 30
0.0
  9
$UCSXDIR
 10
1.0
 20
0.0
 30
0.0
  9
$UCSYDIR
 10
0.0
 20
1.0
 30
0.0
  9
$UCSORTHOREF
  2

  9
$UCSORTHOVIEW
 70
     0
  9
$UCSORGTOP
 10
0.0
 20
0.0
 30
0.0
  9
$UCSORGBOTTOM
 10
0.0
 20
0.0
 30
0.0
  9
$UCSORGLEFT
 10
0.0
 20
0.0
 30
0.0
  9
$UCSORGRIGHT
 10
0.0
 20
0.0
 30
0.0
  9
$UCSORGFRONT
 10
0.0
 20
0.0
 30
0.0
  9
$UCSORGBACK
 10
0.0
 20
0.0
 30
0.0
  9
$PUCSBASE
  2

  9
$PUCSNAME
  2

  9
$PUCSORG
 10
0.0
 20
0.0
 30
0.0
  9
$PUCSXDIR
 10
1.0
 20
0.0
 30
0.0
  9
$PUCSYDIR
 10
0.0
 20
1.0
 30
0.0
  9
$PUCSORTHOREF
  2

  9
$PUCSORTHOVIEW
 70
     0
  9
$PUCSORGTOP
 10
0.0
 20
0.0
 30
0.0
  9
$PUCSORGBOTTOM
 10
0.0
 20
0.0
 30
0.0
  9
$PUCSORGLEFT
 10
0.0
 20
0.0
 30
0.0
  9
$PUCSORGRIGHT
 10
0.0
 20
0.0
 30
0.0
  9
$PUCSORGFRONT
 10
0.0
 20
0.0
 30
0.0
  9
$PUCSORGBACK
 10
0.0
 20
0.0
 30
0.0
  9
$USERI1
 70
     0
  9
$USERI2
 70
     0
  9
$USERI3
 70
     0
  9
$USERI4
 70
     0
  9
$USERI5
 70
     0
  9
$USERR1
 40
0.0
  9
$USERR2
 40
0.0
  9
$USERR3
 40
0.0
  9
$USERR4
 40
0.0
  9
$USERR5
 40
0.0
  9
$WORLDVIEW
 70
     1
  9
$SHADEDGE
 70
     3
  9
$SHADEDIF
 70
    70
  9
$TILEMODE
 70
     1
  9
$MAXACTVP
 70
    64
  9
$PINSBASE
 10
0.0
 20
0.0
 30
0.0
  9
$PLIMCHECK
 70
     0
  9
$PEXTMIN
 10
1.000000000000000E+20
 20
1.000000000000000E+20
 30
1.000000000000000E+20
  9
$PEXTMAX
 10
-1.000000000000000E+20
 20
-1.000000000000000E+20
 30
-1.000000000000000E+20
  9
$PLIMMIN
 10
0.0
 20
0.0
  9
$PLIMMAX
 10
420.0
 20
297.0
  9
$UNITMODE
 70
     0
  9
$VISRETAIN
 70
     1
  9
$PLINEGEN
 70
     0
  9
$PSLTSCALE
 70
     1
  9
$TREEDEPTH
 70
  3020
  9
$CMLSTYLE
  2
Standard
  9
$CMLJUST
 70
     0
  9
$CMLSCALE
 40
1.0
  9
$PROXYGRAPHICS
 70
     1
  9
$MEASUREMENT
 70
     1
  9
$CELWEIGHT
370
    -1
  9
$ENDCAPS
280
     0
  9
$JOINSTYLE
280
     0
  9
$LWDISPLAY
290
     0
  9
$INSUNITS
 70
     4
  9
$HYPERLINKBASE
  1

  9
$STYLESHEET
  1

  9
$XEDIT
290
     1
  9
$CEPSNTYPE
380
     0
  9
$PSTYLEMODE
290
     1
  9
$FINGERPRINTGUID
  2
{0ACCB34F-41B8-4E89-8A74-EB63F4AE9E37}
  9
$VERSIONGUID
  2
{FAEB1C32-E019-11D5-929B-00C0DF256EC4}
  9
$EXTNAMES
290
     1
  9
$PSVPSCALE
 40
0.0
  9
$OLESTARTUP
290
     0
  0
ENDSEC
  0
SECTION
  2
CLASSES
  0
CLASS
  1
ACDBDICTIONARYWDFLT
  2
AcDbDictionaryWithDefault
  3
ObjectDBX Classes
 90
        0
280
     0
281
     0
  0
CLASS
  1
ACDBPLACEHOLDER
  2
AcDbPlaceHolder
  3
ObjectDBX Classes
 90
        0
280
     0
281
     0
  0
CLASS
  1
LAYOUT
  2
AcDbLayout
  3
ObjectDBX Classes
 90
        0
280
     0
281
     0
  0
CLASS
  1
SCALE
  2
AcDbScale
  3
ObjectDBX Classes
 90
     1153
280
     0
281
     0
  0
CLASS
  1
VISUALSTYLE
  2
AcDbVisualStyle
  3
ObjectDBX Classes
 90
     4095
280
     0
281
     0
  0
CLASS
  1
MATERIAL
  2
AcDbMaterial
  3
ObjectDBX Classes
 90
     1153
280
     0
281
     0
  0
CLASS
  1
TABLESTYLE
  2
AcDbTableStyle
  3
ObjectDBX Classes
 90
     4095
280
     0
281
     0
  0
CLASS
  1
SUN
  2
AcDbSun
  3
SCENEOE
 90
     1153
280
     0
281
     0
  0
CLASS
  1
RASTERVARIABLES
  2
AcDbRasterVariables
  3
ISM
 90
        0
280
     0
281
     0
  0
CLASS
  1
MLEADERSTYLE
  2
AcDbMLeaderStyle
  3
ACDB_MLEADERSTYLE_CLASS
 90
     4095
280
     0
281
     0
  0
CLASS
  1
DIMASSOC
  2
AcDbDimAssoc
  3
"AcDbDimAssoc|Product Desc:     AcDim ARX App For Dimension|Company:          Autodesk, Inc.|WEB Address:      www.autodesk.com"
 90
        0
280
     0
281
     0
  0
ENDSEC
  0
SECTION
  2
TABLES
  0
TABLE
  2
VPORT
  5
8
330
0
100
AcDbSymbolTable
 70
     1
  0
VPORT
  5
1F4
330
8
100
AcDbSymbolTableRecord
100
AcDbViewportTableRecord
  2
*ACTIVE
 70
     0
 10
0.0
 20
0.0
 11
1.0
 21
1.0
 12
309.3317069791912
 22
170.3249802223828
 13
0.0
 23
0.0
 14
1.0
 24
1.0
 15
0.0
 25
0.0
 16
0.0
 26
0.0
 36
1.0
 17
0.0
 27
0.0
 37
0.0
 40
464.0625000000002
 41
1.929961089494163
 42
50.0
 43
0.0
 44
0.0
 50
0.0
 51
0.0
 71
    16
 72
   100
 73
     1
 74
     1
 75
     0
 76
     0
 77
     0
 78
     0
281
     0
 65
     1
110
0.0
120
0.0
130
0.0
111
1.0
121
0.0
131
0.0
112
0.0
122
1.0
132
0.0
 79
     0
146
0.0
  0
ENDTAB
  0
TABLE
  2
LTYPE
  5
5
330
0
100
AcDbSymbolTable
 70
     6
  0
LTYPE
  5
14
330
5
100
AcDbSymbolTableRecord
100
AcDbLinetypeTableRecord
  2
BYBLOCK
 70
     0
  3

 72
    65
 73
     0
 40
0.0
  0
LTYPE
  5
15
330
5
100
AcDbSymbolTableRecord
100
AcDbLinetypeTableRecord
  2
BYLAYER
 70
     0
  3

 72
    65
 73
     0
 40
0.0
  0
LTYPE
  5
16
330
5
100
AcDbSymbolTableRecord
100
AcDbLinetypeTableRecord
  2
CONTINUOUS
 70
     0
  3
Solid line
 72
    65
 73
     0
 40
0.0
  0
LTYPE
  5
1F5
330
5
100
AcDbSymbolTableRecord
100
AcDbLinetypeTableRecord
  2
CENTER
 70
     0
  3
____ _ ____ _ ____ _ ____ _ ____ _ ____ _ ____
 72
    65
 73
     4
 40
0.6
 49
0.375
 74
     0
 49
-0.075
 74
     0
 49
0.075
 74
     0
 49
-0.075
 74
     0
  0
LTYPE
  5
1F6
330
5
100
AcDbSymbolTableRecord
100
AcDbLinetypeTableRecord
  2
HIDDEN
 70
     0
  3
- - - - - - - - - - - - - - - - - - - -
 72
    65
 73
     2
 40
0.2
 49
0.1
 74
     0
 49
-0.1
 74
     0
  0
LTYPE
  5
1F7
330
5
100
AcDbSymbolTableRecord
100
AcDbLinetypeTableRecord
  2
PHANTOM
 70
     0
  3
_____ _ _ _____ _ _ _____ _ _ _____
 72
    65
 73
     6
 40
0.8
 49
0.45
 74
     0
 49
-0.05
 74
     0
 49
0.1
 74
     0
 49
-0.05
 74
     0
 49
0.1
 74
     0
 49
-0.05
 74
     0
  0
LTYPE
  5
1F8
330
5
100
AcDbSymbolTableRecord
100
AcDbLinetypeTableRecord
  2
DOT
 70
     0
  3
. . . . . . . . . . . . . . . . . . . .
 72
    65
 73
     2
 40
0.2
 49
0.1
 74
     0
 49
-0.1
 74
     0
  0
LTYPE
  5
1F9
330
5
100
AcDbSymbolTableRecord
100
AcDbLinetypeTableRecord
  2
DASHED
 70
     0
  3
- - - - - - - - - - - - - - - - - - - -
 72
    65
 73
     2
 40
0.2
 49
0.1
 74
     0
 49
-0.1
 74
     0
  0
ENDTAB
  0
TABLE
  2
LAYER
  5
2
330
0
100
AcDbSymbolTable
 70
    35
  0
LAYER
  5
10
330
2
100
AcDbSymbolTableRecord
100
AcDbLayerTableRecord
  2
0
 70
     0
 62
     7
  6
CONTINUOUS
370
    -3
390
F
  0
LAYER
  5
1FA
330
2
100
AcDbSymbolTableRecord
100
AcDbLayerTableRecord
  2
DEFAULT_1
 70
     0
 62
     7
  6
CENTER
370
    -3
390
F
  0
LAYER
  5
1FB
330
2
100
AcDbSymbolTableRecord
100
AcDbLayerTableRecord
  2
DEFAULT_2
 70
     0
 62
     8
  6
HIDDEN
370
    -3
390
F
  0
LAYER
  5
1FC
330
2
100
AcDbSymbolTableRecord
100
AcDbLayerTableRecord
  2
DEFAULT_3
 70
     0
 62
     7
  6
PHANTOM
370
    -3
390
F
  0
LAYER
  5
1FD
330
2
100
AcDbSymbolTableRecord
100
AcDbLayerTableRecord
  2
01_ALL_DTM_PLN
 70
     0
 62
     7
  6
CONTINUOUS
370
    -3
390
F
  0
LAYER
  5
1FE
330
2
100
AcDbSymbolTableRecord
100
AcDbLayerTableRecord
  2
01__ASM_ALL_DTM_PLN
 70
     0
 62
     7
  6
CONTINUOUS
370
    -3
390
F
  0
LAYER
  5
1FF
330
2
100
AcDbSymbolTableRecord
100
AcDbLayerTableRecord
  2
01__ASM_DEF_DTM_PLN
 70
     0
 62
     7
  6
CONTINUOUS
370
    -3
390
F
  0
LAYER
  5
200
330
2
100
AcDbSymbolTableRecord
100
AcDbLayerTableRecord
  2
01___PRT_ALL_DTM_PLN
 70
     0
 62
     7
  6
CONTINUOUS
370
    -3
390
F
  0
LAYER
  5
201
330
2
100
AcDbSymbolTableRecord
100
AcDbLayerTableRecord
  2
01___PRT_DEF_DTM_PLN
 70
     0
 62
     7
  6
CONTINUOUS
370
    -3
390
F
  0
LAYER
  5
202
330
2
100
AcDbSymbolTableRecord
100
AcDbLayerTableRecord
  2
02_ALL_AXES
 70
     0
 62
     7
  6
CONTINUOUS
370
    -3
390
F
  0
LAYER
  5
203
330
2
100
AcDbSymbolTableRecord
100
AcDbLayerTableRecord
  2
02__ASM_ALL_AXES
 70
     0
 62
     7
  6
CONTINUOUS
370
    -3
390
F
  0
LAYER
  5
204
330
2
100
AcDbSymbolTableRecord
100
AcDbLayerTableRecord
  2
02___PRT_ALL_AXES
 70
     0
 62
     7
  6
CONTINUOUS
370
    -3
390
F
  0
LAYER
  5
205
330
2
100
AcDbSymbolTableRecord
100
AcDbLayerTableRecord
  2
03_ALL_CURVES
 70
     0
 62
     7
  6
CONTINUOUS
370
    -3
390
F
  0
LAYER
  5
206
330
2
100
AcDbSymbolTableRecord
100
AcDbLayerTableRecord
  2
03__ASM_ALL_CURVES
 70
     0
 62
     7
  6
CONTINUOUS
370
    -3
390
F
  0
LAYER
  5
207
330
2
100
AcDbSymbolTableRecord
100
AcDbLayerTableRecord
  2
03___PRT_ALL_CURVES
 70
     0
 62
     7
  6
CONTINUOUS
370
    -3
390
F
  0
LAYER
  5
208
330
2
100
AcDbSymbolTableRecord
100
AcDbLayerTableRecord
  2
04_ALL_DTM_PNT
 70
     0
 62
     7
  6
CONTINUOUS
370
    -3
390
F
  0
LAYER
  5
209
330
2
100
AcDbSymbolTableRecord
100
AcDbLayerTableRecord
  2
04__ASM_ALL_DTM_PNT
 70
     0
 62
     7
  6
CONTINUOUS
370
    -3
390
F
  0
LAYER
  5
20A
330
2
100
AcDbSymbolTableRecord
100
AcDbLayerTableRecord
  2
04___PRT_ALL_DTM_PNT
 70
     0
 62
     7
  6
CONTINUOUS
370
    -3
390
F
  0
LAYER
  5
20B
330
2
100
AcDbSymbolTableRecord
100
AcDbLayerTableRecord
  2
05_ALL_DTM_CSYS
 70
     0
 62
     7
  6
CONTINUOUS
370
    -3
390
F
  0
LAYER
  5
20C
330
2
100
AcDbSymbolTableRecord
100
AcDbLayerTableRecord
  2
05__ASM_ALL_DTM_CSYS
 70
     0
 62
     7
  6
CONTINUOUS
370
    -3
390
F
  0
LAYER
  5
20D
330
2
100
AcDbSymbolTableRecord
100
AcDbLayerTableRecord
  2
05__ASM_DEF_DTM_CSYS
 70
     0
 62
     7
  6
CONTINUOUS
370
    -3
390
F
  0
LAYER
  5
20E
330
2
100
AcDbSymbolTableRecord
100
AcDbLayerTableRecord
  2
05___PRT_ALL_DTM_CSYS
 70
     0
 62
     7
  6
CONTINUOUS
370
    -3
390
F
  0
LAYER
  5
20F
330
2
100
AcDbSymbolTableRecord
100
AcDbLayerTableRecord
  2
05___PRT_DEF_DTM_CSYS
 70
     0
 62
     7
  6
CONTINUOUS
370
    -3
390
F
  0
LAYER
  5
210
330
2
100
AcDbSymbolTableRecord
100
AcDbLayerTableRecord
  2
06_ALL_SURFS
 70
     0
 62
     7
  6
CONTINUOUS
370
    -3
390
F
  0
LAYER
  5
211
330
2
100
AcDbSymbolTableRecord
100
AcDbLayerTableRecord
  2
06__ASM_ALL_SURFS
 70
     0
 62
     7
  6
CONTINUOUS
370
    -3
390
F
  0
LAYER
  5
212
330
2
100
AcDbSymbolTableRecord
100
AcDbLayerTableRecord
  2
06___PRT_ALL_SURFS
 70
     0
 62
     7
  6
CONTINUOUS
370
    -3
390
F
  0
LAYER
  5
213
330
2
100
AcDbSymbolTableRecord
100
AcDbLayerTableRecord
  2
07__ASM_ALL_SKELETONS
 70
     0
 62
     7
  6
CONTINUOUS
370
    -3
390
F
  0
LAYER
  5
214
330
2
100
AcDbSymbolTableRecord
100
AcDbLayerTableRecord
  2
1_ALL_PLANES
 70
     0
 62
     7
  6
CONTINUOUS
370
    -3
390
F
  0
LAYER
  5
215
330
2
100
AcDbSymbolTableRecord
100
AcDbLayerTableRecord
  2
2_ALL_CSYS
 70
     0
 62
     7
  6
CONTINUOUS
370
    -3
390
F
  0
LAYER
  5
216
330
2
100
AcDbSymbolTableRecord
100
AcDbLayerTableRecord
  2
3_ALL_AXES
 70
     0
 62
     7
  6
CONTINUOUS
370
    -3
390
F
  0
LAYER
  5
217
330
2
100
AcDbSymbolTableRecord
100
AcDbLayerTableRecord
  2
4_ALL_POINTS
 70
     0
 62
     7
  6
CONTINUOUS
370
    -3
390
F
  0
LAYER
  5
218
330
2
100
AcDbSymbolTableRecord
100
AcDbLayerTableRecord
  2
5_ALL_CURVES
 70
     0
 62
     7
  6
CONTINUOUS
370
    -3
390
F
  0
LAYER
  5
219
330
2
100
AcDbSymbolTableRecord
100
AcDbLayerTableRecord
  2
7_ALL_FEATURES
 70
     0
 62
     7
  6
CONTINUOUS
370
    -3
390
F
  0
LAYER
  5
21A
330
2
100
AcDbSymbolTableRecord
100
AcDbLayerTableRecord
  2
8_ALL_NOTES_BALLOONS_SYMBOLS_GT
 70
     0
 62
     7
  6
CONTINUOUS
370
    -3
390
F
  0
LAYER
  5
479
330
2
100
AcDbSymbolTableRecord
100
AcDbLayerTableRecord
  2
Defpoints
 70
     0
 62
     7
  6
CONTINUOUS
290
     0
370
    -3
390
F
  0
ENDTAB
  0
TABLE
  2
STYLE
  5
3
330
0
100
AcDbSymbolTable
 70
     5
  0
STYLE
  5
11
330
3
100
AcDbSymbolTableRecord
100
AcDbTextStyleTableRecord
  2
STANDARD
 70
     0
 40
0.0
 41
0.85
 50
0.0
 71
     0
 42
0.2
  3
txt
  4

  0
STYLE
  5
21B
330
3
100
AcDbSymbolTableRecord
100
AcDbTextStyleTableRecord
  2
TEXTSTYLE_1
 70
     0
 40
0.0
 41
0.8
 50
0.0
 71
     0
 42
0.2
  3
gdt
  4

  0
STYLE
  5
21C
330
3
100
AcDbSymbolTableRecord
100
AcDbTextStyleTableRecord
  2
TEXTSTYLE_2
 70
     0
 40
0.0
 41
0.9
 50
0.0
 71
     0
 42
0.2
  3
txt
  4

  0
STYLE
  5
21D
330
3
100
AcDbSymbolTableRecord
100
AcDbTextStyleTableRecord
  2
TEXTSTYLE_3
 70
     0
 40
0.0
 41
0.9
 50
0.0
 71
     0
 42
0.2
  3
txt
  4

  0
STYLE
  5
21E
330
3
100
AcDbSymbolTableRecord
100
AcDbTextStyleTableRecord
  2
TEXTSTYLE_4
 70
     0
 40
0.0
 41
0.85
 50
0.0
 71
     0
 42
0.2
  3
txt
  4

  0
ENDTAB
  0
TABLE
  2
VIEW
  5
6
330
0
100
AcDbSymbolTable
 70
     0
  0
ENDTAB
  0
TABLE
  2
UCS
  5
7
330
0
100
AcDbSymbolTable
 70
     0
  0
ENDTAB
  0
TABLE
  2
APPID
  5
9
330
0
100
AcDbSymbolTable
 70
     1
  0
APPID
  5
21F
330
9
100
AcDbSymbolTableRecord
100
AcDbRegAppTableRecord
  2
ACAD
 70
     0
  0
ENDTAB
  0
TABLE
  2
DIMSTYLE
  5
A
330
0
100
AcDbSymbolTable
 70
     3
100
AcDbDimStyleTable
  0
DIMSTYLE
105
227
330
A
100
AcDbSymbolTableRecord
100
AcDbDimStyleTableRecord
  2
STANDARD
 70
     0
 41
2.5
 47
0.01
 48
0.01
 71
     1
 73
     0
 74
     0
 77
     1
 78
     8
140
3.0
178
     0
271
     2
272
     2
284
     8
340
11
341
222
342
222
343
222
344
222
  0
DIMSTYLE
105
228
330
A
100
AcDbSymbolTableRecord
100
AcDbDimStyleTableRecord
  2
DIMSTYLE_1
 70
     0
 41
2.5
 47
0.3
 48
0.3
 73
     0
 74
     0
 77
     1
 78
     8
140
3.0
144
0.6666666667
178
     0
271
     0
272
     0
284
     8
340
11
341
222
342
222
343
222
344
222
  0
DIMSTYLE
105
229
330
A
100
AcDbSymbolTableRecord
100
AcDbDimStyleTableRecord
  2
DIMSTYLE_2
 70
     0
 41
2.5
 47
0.3
 48
0.3
 73
     0
 74
     0
 77
     1
 78
     8
140
3.0
144
0.6666666667
178
     0
271
     2
272
     2
284
     8
340
11
341
222
342
222
343
222
344
222
  0
ENDTAB
  0
TABLE
  2
BLOCK_RECORD
  5
1
330
0
100
AcDbSymbolTable
 70
     6
  0
BLOCK_RECORD
  5
220
330
1
100
AcDbSymbolTableRecord
100
AcDbBlockTableRecord
  2
*Model_Space
340
433
  0
BLOCK_RECORD
  5
221
330
1
100
AcDbSymbolTableRecord
100
AcDbBlockTableRecord
  2
*Paper_Space
340
434
  0
BLOCK_RECORD
  5
222
330
1
100
AcDbSymbolTableRecord
100
AcDbBlockTableRecord
  2
_CLOSED
340
0
102
{BLKREFS
331
270
331
271
331
279
331
27A
331
282
331
283
331
4AD
331
4AC
102
}
  0
BLOCK_RECORD
  5
223
330
1
100
AcDbSymbolTableRecord
100
AcDbBlockTableRecord
  2
*D1
340
0
  0
BLOCK_RECORD
  5
224
330
1
100
AcDbSymbolTableRecord
100
AcDbBlockTableRecord
  2
*D2
340
0
  0
BLOCK_RECORD
  5
225
330
1
100
AcDbSymbolTableRecord
100
AcDbBlockTableRecord
  2
*D3
340
0
  0
BLOCK_RECORD
  5
226
330
1
100
AcDbSymbolTableRecord
100
AcDbBlockTableRecord
  2
LOGO2_BL0
340
0
102
{BLKREFS
331
2A2
102
}
  0
BLOCK_RECORD
  5
4A5
330
1
100
AcDbSymbolTableRecord
100
AcDbBlockTableRecord
  2
*D5
340
0
  0
ENDTAB
  0
ENDSEC
  0
SECTION
  2
BLOCKS
  0
BLOCK
  5
20
330
220
100
AcDbEntity
  8
0
100
AcDbBlockBegin
  2
*Model_Space
 70
     0
 10
0.0
 20
0.0
 30
0.0
  3
*Model_Space
  1
*Model_Space
  0
ENDBLK
  5
21
330
220
100
AcDbEntity
  8
0
100
AcDbBlockEnd
  0
BLOCK
  5
1C
330
221
100
AcDbEntity
 67
     1
  8
0
100
AcDbBlockBegin
  2
*Paper_Space
 70
     0
 10
0.0
 20
0.0
 30
0.0
  3
*Paper_Space
  1
*Paper_Space
  0
ENDBLK
  5
1D
330
221
100
AcDbEntity
 67
     1
  8
0
100
AcDbBlockEnd
  0
BLOCK
  5
266
330
222
100
AcDbEntity
  8
0
100
AcDbBlockBegin
  2
_CLOSED
 70
     0
 10
0.0
 20
0.0
 30
0.0
  3
_CLOSED
  1
_CLOSED
  0
LINE
  5
267
330
222
100
AcDbEntity
  8
0
  6
ByBlock
 62
     0
100
AcDbLine
 10
0.0
 20
0.0
 30
0.0
 11
-1.0
 21
0.2
 31
0.0
  0
LINE
  5
268
330
222
100
AcDbEntity
  8
0
  6
ByBlock
 62
     0
100
AcDbLine
 10
-1.0
 20
0.2
 30
0.0
 11
-1.0
 21
-0.2
 31
0.0
  0
LINE
  5
269
330
222
100
AcDbEntity
  8
0
  6
ByBlock
 62
     0
100
AcDbLine
 10
-1.0
 20
-0.2
 30
0.0
 11
0.0
 21
0.0
 31
0.0
  0
LINE
  5
26A
330
222
100
AcDbEntity
  8
0
  6
ByBlock
 62
     0
100
AcDbLine
 10
-1.0
 20
0.0
 30
0.0
 11
0.0
 21
0.0
 31
0.0
  0
ENDBLK
  5
26B
330
222
100
AcDbEntity
  8
0
  6
ByBlock
 62
     0
100
AcDbBlockEnd
  0
BLOCK
  5
26C
330
223
100
AcDbEntity
  8
0
100
AcDbBlockBegin
  2
*D1
 70
     1
 10
0.0
 20
0.0
 30
0.0
  3
*D1
  1
*D1
  0
LINE
  5
26D
330
223
100
AcDbEntity
  8
0
  6
Continuous
 62
     0
370
    -2
100
AcDbLine
 10
116.6149229665269
 20
218.9750876257425
 30
0.0
 11
126.0494404108603
 21
218.9750876257425
 31
0.0
  0
LINE
  5
26E
330
223
100
AcDbEntity
  8
0
  6
Continuous
 62
     0
370
    -2
100
AcDbLine
 10
117.4331047847269
 20
166.9250876257425
 30
0.0
 11
126.0494404108603
 21
166.9250876257425
 31
0.0
  0
LINE
  5
26F
330
223
100
AcDbEntity
  8
0
  6
Continuous
 62
     0
370
    -2
100
AcDbLine
 10
125.8694404108603
 20
216.4750876257425
 30
0.0
 11
125.8694404108603
 21
169.4250876257425
 31
0.0
  0
INSERT
  5
270
330
223
100
AcDbEntity
  8
0
 62
     0
370
    -2
100
AcDbBlockReference
  2
_CLOSED
 10
125.8694404108603
 20
218.9750876257425
 30
0.0
 41
2.5
 42
2.5
 43
2.5
 50
89.99999999999999
  0
INSERT
  5
271
330
223
100
AcDbEntity
  8
0
 62
     0
370
    -2
100
AcDbBlockReference
  2
_CLOSED
 10
125.8694404108603
 20
166.9250876257425
 30
0.0
 41
2.5
 42
2.5
 43
2.5
 50
270.0
  0
MTEXT
  5
272
330
223
100
AcDbEntity
  8
0
 62
     0
100
AcDbMText
 10
120.8694404108603
 20
192.9500876257425
 30
0.0
 40
3.0
 41
0.0
 71
     2
 72
     1
  1
\A1;35
 11
2.730231453448993E-16
 21
1.0
 31
0.0
 73
     1
 44
1.0
  0
POINT
  5
273
330
223
100
AcDbEntity
  8
Defpoints
 62
     0
100
AcDbPoint
 10
116.5524229665269
 20
218.9750876257425
 30
0.0
  0
POINT
  5
47A
330
223
100
AcDbEntity
  8
Defpoints
 62
     0
100
AcDbPoint
 10
117.3706047847269
 20
166.9250876257425
 30
0.0
  0
POINT
  5
47B
330
223
100
AcDbEntity
  8
Defpoints
 62
     0
100
AcDbPoint
 10
125.8694404108603
 20
166.9250876257425
 30
0.0
  0
ENDBLK
  5
274
330
223
100
AcDbEntity
  8
0
  6
ByBlock
 62
     0
100
AcDbBlockEnd
  0
BLOCK
  5
275
330
224
100
AcDbEntity
  8
0
100
AcDbBlockBegin
  2
*D2
 70
     1
 10
0.0
 20
0.0
 30
0.0
  3
*D2
  1
*D2
  0
LINE
  5
276
330
224
100
AcDbEntity
  8
0
  6
Continuous
 62
     0
370
    -2
100
AcDbLine
 10
117.2285593301936
 20
116.6316760348091
 30
0.0
 11
126.0174351525936
 21
116.6316760348091
 31
0.0
  0
LINE
  5
277
330
224
100
AcDbEntity
  8
0
  6
Continuous
 62
     0
370
    -2
100
AcDbLine
 10
116.8194684210603
 20
81.63167603480915
 30
0.0
 11
126.0174351525936
 21
81.63167603480915
 31
0.0
  0
LINE
  5
278
330
224
100
AcDbEntity
  8
0
  6
Continuous
 62
     0
370
    -2
100
AcDbLine
 10
125.8374351525936
 20
114.1316760348091
 30
0.0
 11
125.8374351525936
 21
84.13167603480915
 31
0.0
  0
INSERT
  5
279
330
224
100
AcDbEntity
  8
0
 62
     0
370
    -2
100
AcDbBlockReference
  2
_CLOSED
 10
125.8374351525936
 20
116.6316760348091
 30
0.0
 41
2.5
 42
2.5
 43
2.5
 50
90.0
  0
INSERT
  5
27A
330
224
100
AcDbEntity
  8
0
 62
     0
370
    -2
100
AcDbBlockReference
  2
_CLOSED
 10
125.8374351525936
 20
81.63167603480915
 30
0.0
 41
2.5
 42
2.5
 43
2.5
 50
270.0
  0
MTEXT
  5
27B
330
224
100
AcDbEntity
  8
0
 62
     0
100
AcDbMText
 10
120.8374351525936
 20
99.13167603480915
 30
0.0
 40
3.0
 41
0.0
 71
     2
 72
     1
  1
\A1;35
 11
0.0
 21
1.0
 31
0.0
 73
     1
 44
1.0
  0
POINT
  5
27C
330
224
100
AcDbEntity
  8
Defpoints
 62
     0
100
AcDbPoint
 10
117.1660593301936
 20
116.6316760348091
 30
0.0
  0
POINT
  5
47C
330
224
100
AcDbEntity
  8
Defpoints
 62
     0
100
AcDbPoint
 10
116.7569684210603
 20
81.63167603480915
 30
0.0
  0
POINT
  5
47D
330
224
100
AcDbEntity
  8
Defpoints
 62
     0
100
AcDbPoint
 10
125.8374351525936
 20
81.63167603480915
 30
0.0
  0
ENDBLK
  5
27D
330
224
100
AcDbEntity
  8
0
  6
ByBlock
 62
     0
100
AcDbBlockEnd
  0
BLOCK
  5
27E
330
225
100
AcDbEntity
  8
0
100
AcDbBlockBegin
  2
*D3
 70
     1
 10
0.0
 20
0.0
 30
0.0
  3
*D3
  1
*D3
  0
LINE
  5
27F
330
225
100
AcDbEntity
  8
0
  6
Continuous
 62
     0
370
    -2
100
AcDbLine
 10
78.36399665332695
 20
78.46711161860915
 30
0.0
 11
78.36399665332695
 21
69.6183427014758
 31
0.0
  0
LINE
  5
280
330
225
100
AcDbEntity
  8
0
  6
Continuous
 62
     0
370
    -2
100
AcDbLine
 10
113.3639966533269
 20
78.20529343680914
 30
0.0
 11
113.3639966533269
 21
69.6183427014758
 31
0.0
  0
LINE
  5
281
330
225
100
AcDbEntity
  8
0
  6
Continuous
 62
     0
370
    -2
100
AcDbLine
 10
80.86399665332695
 20
69.7983427014758
 30
0.0
 11
110.8639966533269
 21
69.7983427014758
 31
0.0
  0
INSERT
  5
282
330
225
100
AcDbEntity
  8
0
 62
     0
370
    -2
100
AcDbBlockReference
  2
_CLOSED
 10
78.36399665332695
 20
69.7983427014758
 30
0.0
 41
2.5
 42
2.5
 43
2.5
 50
180.0
  0
INSERT
  5
283
330
225
100
AcDbEntity
  8
0
 62
     0
370
    -2
100
AcDbBlockReference
  2
_CLOSED
 10
113.3639966533269
 20
69.7983427014758
 30
0.0
 41
2.5
 42
2.5
 43
2.5
  0
MTEXT
  5
284
330
225
100
AcDbEntity
  8
0
 62
     0
100
AcDbMText
 10
95.86399665332694
 20
74.7983427014758
 30
0.0
 40
3.0
 41
0.0
 71
     2
 72
     1
  1
\A1;23.33
 73
     1
 44
1.0
  0
POINT
  5
285
330
225
100
AcDbEntity
  8
Defpoints
 62
     0
100
AcDbPoint
 10
78.36399665332695
 20
78.52961161860915
 30
0.0
  0
POINT
  5
47E
330
225
100
AcDbEntity
  8
Defpoints
 62
     0
100
AcDbPoint
 10
113.3639966533269
 20
78.26779343680914
 30
0.0
  0
POINT
  5
47F
330
225
100
AcDbEntity
  8
Defpoints
 62
     0
100
AcDbPoint
 10
113.3639966533269
 20
69.7983427014758
 30
0.0
  0
ENDBLK
  5
286
330
225
100
AcDbEntity
  8
0
  6
ByBlock
 62
     0
100
AcDbBlockEnd
  0
BLOCK
  5
22A
330
226
100
AcDbEntity
  8
0
100
AcDbBlockBegin
  2
LOGO2_BL0
 70
     0
 10
333.1473869546
 20
37.5239270671
 30
0.0
  3
LOGO2_BL0
  1
LOGO2_BL0
  0
LINE
  5
22B
330
226
100
AcDbEntity
  8
0
  6
Continuous
 62
     7
100
AcDbLine
 10
324.8903121828
 20
40.7194184059
 30
0.0
 11
323.5859712535
 21
40.7194184059
 31
0.0
  0
LINE
  5
22C
330
226
100
AcDbEntity
  8
0
  6
Continuous
 62
     7
100
AcDbLine
 10
323.5859712535
 20
40.7194184059
 30
0.0
 11
323.5859712535
 21
30.260352346
 31
0.0
  0
LINE
  5
22D
330
226
100
AcDbEntity
  8
0
  6
Continuous
 62
     7
100
AcDbLine
 10
323.5859712535
 20
30.260352346
 30
0.0
 11
328.0670261417
 21
30.260352346
 31
0.0
  0
LINE
  5
22E
330
226
100
AcDbEntity
  8
0
  6
Continuous
 62
     7
100
AcDbLine
 10
328.0670261417
 20
30.260352346
 30
0.0
 11
328.0670261417
 21
31.4532066711
 31
0.0
  0
LINE
  5
22F
330
226
100
AcDbEntity
  8
0
  6
Continuous
 62
     7
100
AcDbLine
 10
328.0670261417
 20
31.4532066711
 30
0.0
 11
324.8903121828
 21
31.4532066711
 31
0.0
  0
LINE
  5
230
330
226
100
AcDbEntity
  8
0
  6
Continuous
 62
     7
100
AcDbLine
 10
324.8903121828
 20
31.4532066711
 30
0.0
 11
324.8903121828
 21
40.7194184059
 31
0.0
  0
LINE
  5
231
330
226
100
AcDbEntity
  8
0
  6
Continuous
 62
     7
100
AcDbLine
 10
339.8266383991
 20
40.7194184059
 30
0.0
 11
338.522820881
 21
40.7194184059
 31
0.0
  0
LINE
  5
232
330
226
100
AcDbEntity
  8
0
  6
Continuous
 62
     7
100
AcDbLine
 10
338.522820881
 20
40.7194184059
 30
0.0
 11
338.522820881
 21
30.260352346
 31
0.0
  0
LINE
  5
233
330
226
100
AcDbEntity
  8
0
  6
Continuous
 62
     7
100
AcDbLine
 10
338.522820881
 20
30.260352346
 30
0.0
 11
343.0040066221
 21
30.260352346
 31
0.0
  0
LINE
  5
234
330
226
100
AcDbEntity
  8
0
  6
Continuous
 62
     7
100
AcDbLine
 10
343.0040066221
 20
30.260352346
 30
0.0
 11
343.0040066221
 21
31.4532066711
 31
0.0
  0
LINE
  5
235
330
226
100
AcDbEntity
  8
0
  6
Continuous
 62
     7
100
AcDbLine
 10
343.0040066221
 20
31.4532066711
 30
0.0
 11
339.8266383991
 21
31.4532066711
 31
0.0
  0
LINE
  5
236
330
226
100
AcDbEntity
  8
0
  6
Continuous
 62
     7
100
AcDbLine
 10
339.8266383991
 20
31.4532066711
 30
0.0
 11
339.8266383991
 21
40.7194184059
 31
0.0
  0
LWPOLYLINE
  5
237
330
226
100
AcDbEntity
  8
0
  6
Continuous
 62
     7
100
AcDbPolyline
 90
        2
 70
     0
 43
0.2
 10
321.9403661644
 20
26.9168010391
 10
321.9403661644
 20
25.0597377898
  0
LWPOLYLINE
  5
238
330
226
100
AcDbEntity
  8
0
  6
Continuous
 62
     7
100
AcDbPolyline
 90
        2
 70
     0
 43
0.2
 10
321.9403661644
 20
25.0597377898
 10
322.7360821748
 20
25.0597377898
  0
LWPOLYLINE
  5
239
330
226
100
AcDbEntity
  8
0
  6
Continuous
 62
     7
100
AcDbPolyline
 90
        2
 70
     0
 43
0.2
 10
322.7360821748
 20
25.0597377898
 10
322.7360821748
 20
25.2717193614
  0
LWPOLYLINE
  5
23A
330
226
100
AcDbEntity
  8
0
  6
Continuous
 62
     7
100
AcDbPolyline
 90
        2
 70
     0
 43
0.2
 10
322.7360821748
 20
25.2717193614
 10
322.1719756593
 20
25.2717193614
  0
LWPOLYLINE
  5
23B
330
226
100
AcDbEntity
  8
0
  6
Continuous
 62
     7
100
AcDbPolyline
 90
        2
 70
     0
 43
0.2
 10
322.1719756593
 20
25.2717193614
 10
322.1719756593
 20
26.9168010391
  0
LWPOLYLINE
  5
23C
330
226
100
AcDbEntity
  8
0
  6
Continuous
 62
     7
100
AcDbPolyline
 90
        2
 70
     0
 43
0.2
 10
322.1719756593
 20
26.9168010391
 10
321.9403661644
 20
26.9168010391
  0
SPLINE
  5
23D
330
226
100
AcDbEntity
  8
0
  6
Continuous
 62
     7
100
AcDbSpline
 70
     3
 71
     3
 72
    35
 73
    31
 74
     0
 42
0.000000001
 43
0.0000001
 40
0.0
 40
0.0
 40
0.0
 40
0.0
 40
1.0
 40
1.0
 40
1.0
 40
2.0
 40
2.0
 40
2.0
 40
3.0
 40
3.0
 40
3.0
 40
4.0
 40
4.0
 40
4.0
 40
5.0
 40
5.0
 40
5.0
 40
6.0
 40
6.0
 40
6.0
 40
7.0
 40
7.0
 40
7.0
 40
8.0
 40
8.0
 40
8.0
 40
9.0
 40
9.0
 40
9.0
 40
10.0
 40
10.0
 40
10.0
 40
10.0
 10
324.1343754303
 20
26.2122894457
 30
0.0
 10
324.1343754303
 20
26.2122894457
 30
0.0
 10
324.1343754303
 20
25.5501741665
 30
0.0
 10
324.1343754303
 20
25.5501741665
 30
0.0
 10
324.1343754303
 20
25.2350805712
 30
0.0
 10
324.2822391191
 20
25.0204819432
 30
0.0
 10
324.6223256034
 20
25.0204819432
 30
0.0
 10
324.9618886764
 20
25.0204819432
 30
0.0
 10
325.1100140709
 20
25.2350805712
 30
0.0
 10
325.1100140709
 20
25.5501741665
 30
0.0
 10
325.1100140709
 20
25.5501741665
 30
0.0
 10
325.1100140709
 20
26.2122894457
 30
0.0
 10
325.1100140709
 20
26.2122894457
 30
0.0
 10
325.1100140709
 20
26.2122894457
 30
0.0
 10
324.887956832
 20
26.2122894457
 30
0.0
 10
324.887956832
 20
26.2122894457
 30
0.0
 10
324.887956832
 20
26.2122894457
 30
0.0
 10
324.887956832
 20
25.5752979083
 30
0.0
 10
324.887956832
 20
25.5752979083
 30
0.0
 10
324.887956832
 20
25.3894869011
 30
0.0
 10
324.8412423746
 20
25.2267059906
 30
0.0
 10
324.6223256034
 20
25.2267059906
 30
0.0
 10
324.402885421
 20
25.2267059906
 30
0.0
 10
324.3561709636
 20
25.3894869011
 30
0.0
 10
324.3561709636
 20
25.5752979083
 30
0.0
 10
324.3561709636
 20
25.5752979083
 30
0.0
 10
324.3561709636
 20
26.2122894457
 30
0.0
 10
324.3561709636
 20
26.2122894457
 30
0.0
 10
324.3561709636
 20
26.2122894457
 30
0.0
 10
324.1343754303
 20
26.2122894457
 30
0.0
 10
324.1343754303
 20
26.2122894457
 30
0.0
  0
SPLINE
  5
23E
330
226
100
AcDbEntity
  8
0
  6
Continuous
 62
     7
100
AcDbSpline
 70
     3
 71
     3
 72
    35
 73
    31
 74
     0
 42
0.000000001
 43
0.0000001
 40
0.0
 40
0.0
 40
0.0
 40
0.0
 40
1.0
 40
1.0
 40
1.0
 40
2.0
 40
2.0
 40
2.0
 40
3.0
 40
3.0
 40
3.0
 40
4.0
 40
4.0
 40
4.0
 40
5.0
 40
5.0
 40
5.0
 40
6.0
 40
6.0
 40
6.0
 40
7.0
 40
7.0
 40
7.0
 40
8.0
 40
8.0
 40
8.0
 40
9.0
 40
9.0
 40
9.0
 40
10.0
 40
10.0
 40
10.0
 40
10.0
 10
327.5331466281
 20
26.1709399539
 30
0.0
 10
327.4446901205
 20
26.2222342601
 30
0.0
 10
327.3312407238
 20
26.2473580019
 30
0.0
 10
327.2276052888
 20
26.2473580019
 30
0.0
 10
326.8727324356
 20
26.2473580019
 30
0.0
 10
326.5972872454
 20
25.9835587129
 30
0.0
 10
326.5972872454
 20
25.6260688032
 30
0.0
 10
326.5972872454
 20
25.2811407645
 30
0.0
 10
326.8757420505
 20
25.0210053545
 30
0.0
 10
327.2153051235
 20
25.0210053545
 30
0.0
 10
327.3312407238
 20
25.0210053545
 30
0.0
 10
327.4319973967
 20
25.0429886286
 30
0.0
 10
327.5331466281
 20
25.0968999912
 30
0.0
 10
327.5331466281
 20
25.0968999912
 30
0.0
 10
327.5331466281
 20
25.3795420867
 30
0.0
 10
327.5331466281
 20
25.3795420867
 30
0.0
 10
327.4492699692
 20
25.2863748774
 30
0.0
 10
327.345765387
 20
25.2272294019
 30
0.0
 10
327.2176604743
 20
25.2272294019
 30
0.0
 10
326.9839573343
 20
25.2272294019
 30
0.0
 10
326.8186902202
 20
25.3994317156
 30
0.0
 10
326.8186902202
 20
25.6360136177
 30
0.0
 10
326.8186902202
 20
25.8479951893
 30
0.0
 10
326.9864435379
 20
26.040087132
 30
0.0
 10
327.2032666639
 20
26.040087132
 30
0.0
 10
327.3360822782
 20
26.040087132
 30
0.0
 10
327.4446901205
 20
25.9861757693
 30
0.0
 10
327.5331466281
 20
25.8851573907
 30
0.0
 10
327.5331466281
 20
25.8851573907
 30
0.0
 10
327.5331466281
 20
26.1709399539
 30
0.0
 10
327.5331466281
 20
26.1709399539
 30
0.0
  0
SPLINE
  5
23F
330
226
100
AcDbEntity
  8
0
  6
Continuous
 62
     7
100
AcDbSpline
 70
     3
 71
     3
 72
    32
 73
    28
 74
     0
 42
0.000000001
 43
0.0000001
 40
0.0
 40
0.0
 40
0.0
 40
0.0
 40
1.0
 40
1.0
 40
1.0
 40
2.0
 40
2.0
 40
2.0
 40
3.0
 40
3.0
 40
3.0
 40
4.0
 40
4.0
 40
4.0
 40
5.0
 40
5.0
 40
5.0
 40
6.0
 40
6.0
 40
6.0
 40
7.0
 40
7.0
 40
7.0
 40
8.0
 40
8.0
 40
8.0
 40
9.0
 40
9.0
 40
9.0
 40
9.0
 10
330.0650178804
 20
25.5993748276
 30
0.0
 10
330.0650178804
 20
25.5993748276
 30
0.0
 10
330.0650178804
 20
25.6333965613
 30
0.0
 10
330.0650178804
 20
25.6333965613
 30
0.0
 10
330.0650178804
 20
25.9757075435
 30
0.0
 10
329.8921613025
 20
26.2473580019
 30
0.0
 10
329.5255116954
 20
26.2473580019
 30
0.0
 10
329.153889681
 20
26.2473580019
 30
0.0
 10
328.9641530891
 20
25.9809416564
 30
0.0
 10
328.9641530891
 20
25.6260688032
 30
0.0
 10
328.9641530891
 20
25.2863748774
 30
0.0
 10
329.1782283059
 20
25.0204819432
 30
0.0
 10
329.5303532498
 20
25.0204819432
 30
0.0
 10
329.754373281
 20
25.0204819432
 30
0.0
 10
329.9565408909
 20
25.1361558378
 30
0.0
 10
330.0650178804
 20
25.3355755385
 30
0.0
 10
330.0650178804
 20
25.3355755385
 30
0.0
 10
329.8773749337
 20
25.4423514412
 30
0.0
 10
329.8773749337
 20
25.4423514412
 30
0.0
 10
329.7938908332
 20
25.3036474499
 30
0.0
 10
329.7026864163
 20
25.2178079987
 30
0.0
 10
329.5331011591
 20
25.2178079987
 30
0.0
 10
329.3211195875
 20
25.2178079987
 30
0.0
 10
329.1881731204
 20
25.4025721833
 30
0.0
 10
329.1858177696
 20
25.5993748276
 30
0.0
 10
329.1858177696
 20
25.5993748276
 30
0.0
 10
330.0650178804
 20
25.5993748276
 30
0.0
 10
330.0650178804
 20
25.5993748276
 30
0.0
  0
SPLINE
  5
240
330
226
100
AcDbEntity
  8
0
  6
Continuous
 62
     7
100
AcDbSpline
 70
     3
 71
     3
 72
    14
 73
    10
 74
     0
 42
0.000000001
 43
0.0000001
 40
0.0
 40
0.0
 40
0.0
 40
0.0
 40
1.0
 40
1.0
 40
1.0
 40
2.0
 40
2.0
 40
2.0
 40
3.0
 40
3.0
 40
3.0
 40
3.0
 10
329.1978562292
 20
25.7668664397
 30
0.0
 10
329.2254661746
 20
25.9317409954
 30
0.0
 10
329.3533093817
 20
26.054742648
 30
0.0
 10
329.5255116954
 20
26.054742648
 30
0.0
 10
329.7026864163
 20
26.054742648
 30
0.0
 10
329.816135813
 20
25.9390687534
 30
0.0
 10
329.8433531999
 20
25.7668664397
 30
0.0
 10
329.8433531999
 20
25.7668664397
 30
0.0
 10
329.1978562292
 20
25.7668664397
 30
0.0
 10
329.1978562292
 20
25.7668664397
 30
0.0
  0
SPLINE
  5
241
330
226
100
AcDbEntity
  8
0
  6
Continuous
 62
     7
100
AcDbSpline
 70
     3
 71
     3
 72
    20
 73
    16
 74
     0
 42
0.000000001
 43
0.0000001
 40
0.0
 40
0.0
 40
0.0
 40
0.0
 40
1.0
 40
1.0
 40
1.0
 40
2.0
 40
2.0
 40
2.0
 40
3.0
 40
3.0
 40
3.0
 40
4.0
 40
4.0
 40
4.0
 40
5.0
 40
5.0
 40
5.0
 40
5.0
 10
332.0890493306
 20
25.9762309548
 30
0.0
 10
332.0890493306
 20
25.9762309548
 30
0.0
 10
332.5001888972
 20
25.4737561185
 30
0.0
 10
332.5001888972
 20
25.4737561185
 30
0.0
 10
332.3841224441
 20
25.3580822239
 30
0.0
 10
332.2463344226
 20
25.2277528132
 30
0.0
 10
332.0743938145
 20
25.2277528132
 30
0.0
 10
331.8969573879
 20
25.2277528132
 30
0.0
 10
331.7294657758
 20
25.3921039576
 30
0.0
 10
331.7294657758
 20
25.5690169729
 30
0.0
 10
331.7294657758
 20
25.7469768107
 30
0.0
 10
331.9392228494
 20
25.8731189311
 30
0.0
 10
332.0668043508
 20
25.9610520275
 30
0.0
 10
332.0668043508
 20
25.9610520275
 30
0.0
 10
332.0890493306
 20
25.9762309548
 30
0.0
 10
332.0890493306
 20
25.9762309548
 30
0.0
  0
SPLINE
  5
242
330
226
100
AcDbEntity
  8
0
  6
Continuous
 62
     7
100
AcDbSpline
 70
     3
 71
     3
 72
    23
 73
    19
 74
     0
 42
0.000000001
 43
0.0000001
 40
0.0
 40
0.0
 40
0.0
 40
0.0
 40
1.0
 40
1.0
 40
1.0
 40
2.0
 40
2.0
 40
2.0
 40
3.0
 40
3.0
 40
3.0
 40
4.0
 40
4.0
 40
4.0
 40
5.0
 40
5.0
 40
5.0
 40
6.0
 40
6.0
 40
6.0
 40
6.0
 10
332.1383808444
 20
26.2672476309
 30
0.0
 10
332.1383808444
 20
26.2672476309
 30
0.0
 10
332.0767491653
 20
26.3457593241
 30
0.0
 10
332.0767491653
 20
26.3457593241
 30
0.0
 10
332.0228378026
 20
26.4143262028
 30
0.0
 10
331.9660476779
 20
26.4834164928
 30
0.0
 10
331.9660476779
 20
26.5771071133
 30
0.0
 10
331.9660476779
 20
26.6959214757
 30
0.0
 10
332.0619627964
 20
26.7733863463
 30
0.0
 10
332.1729259894
 20
26.7733863463
 30
0.0
 10
332.2961893477
 20
26.7733863463
 30
0.0
 10
332.3894874098
 20
26.7022024111
 30
0.0
 10
332.3894874098
 20
26.5718730004
 30
0.0
 10
332.3894874098
 20
26.4368328882
 30
0.0
 10
332.2613824971
 20
26.3604148401
 30
0.0
 10
332.1678227294
 20
26.2866138485
 30
0.0
 10
332.1678227294
 20
26.2866138485
 30
0.0
 10
332.1383808444
 20
26.2672476309
 30
0.0
 10
332.1383808444
 20
26.2672476309
 30
0.0
  0
SPLINE
  5
243
330
226
100
AcDbEntity
  8
0
  6
Continuous
 62
     7
100
AcDbSpline
 70
     3
 71
     3
 72
    50
 73
    46
 74
     0
 42
0.000000001
 43
0.0000001
 40
0.0
 40
0.0
 40
0.0
 40
0.0
 40
1.0
 40
1.0
 40
1.0
 40
2.0
 40
2.0
 40
2.0
 40
3.0
 40
3.0
 40
3.0
 40
4.0
 40
4.0
 40
4.0
 40
5.0
 40
5.0
 40
5.0
 40
6.0
 40
6.0
 40
6.0
 40
7.0
 40
7.0
 40
7.0
 40
8.0
 40
8.0
 40
8.0
 40
9.0
 40
9.0
 40
9.0
 40
10.0
 40
10.0
 40
10.0
 40
11.0
 40
11.0
 40
11.0
 40
12.0
 40
12.0
 40
12.0
 40
13.0
 40
13.0
 40
13.0
 40
14.0
 40
14.0
 40
14.0
 40
15.0
 40
15.0
 40
15.0
 40
15.0
 10
332.8405370871
 20
25.0602612011
 30
0.0
 10
332.8405370871
 20
25.0602612011
 30
0.0
 10
333.1259270918
 20
25.0602612011
 30
0.0
 10
333.1259270918
 20
25.0602612011
 30
0.0
 10
333.1259270918
 20
25.0602612011
 30
0.0
 10
332.793560924
 20
25.471139062
 30
0.0
 10
332.793560924
 20
25.471139062
 30
0.0
 10
332.793560924
 20
25.471139062
 30
0.0
 10
333.0200671588
 20
25.7370319963
 30
0.0
 10
333.0200671588
 20
25.7370319963
 30
0.0
 10
333.0200671588
 20
25.7370319963
 30
0.0
 10
332.8718109116
 20
25.8898680923
 30
0.0
 10
332.8718109116
 20
25.8898680923
 30
0.0
 10
332.8718109116
 20
25.8898680923
 30
0.0
 10
332.6559037553
 20
25.6386306742
 30
0.0
 10
332.6559037553
 20
25.6386306742
 30
0.0
 10
332.6559037553
 20
25.6386306742
 30
0.0
 10
332.2688411079
 20
26.1065603655
 30
0.0
 10
332.2688411079
 20
26.1065603655
 30
0.0
 10
332.4242942604
 20
26.2206640263
 30
0.0
 10
332.6065722414
 20
26.3604148401
 30
0.0
 10
332.6065722414
 20
26.5697793553
 30
0.0
 10
332.6065722414
 20
26.8136890154
 30
0.0
 10
332.4045354843
 20
26.9571037083
 30
0.0
 10
332.1780292495
 20
26.9571037083
 30
0.0
 10
331.9338578837
 20
26.9571037083
 30
0.0
 10
331.7494862575
 20
26.8063612574
 30
0.0
 10
331.7494862575
 20
26.5498897263
 30
0.0
 10
331.7494862575
 20
26.3923429287
 30
0.0
 10
331.8481492853
 20
26.25468576
 30
0.0
 10
331.953485807
 20
26.1437225669
 30
0.0
 10
331.953485807
 20
26.1437225669
 30
0.0
 10
331.8379427652
 20
26.0599767609
 30
0.0
 10
331.8379427652
 20
26.0599767609
 30
0.0
 10
331.660244633
 20
25.9317409954
 30
0.0
 10
331.5129043554
 20
25.8040286411
 30
0.0
 10
331.5129043554
 20
25.5669233277
 30
0.0
 10
331.5129043554
 20
25.2465956195
 30
0.0
 10
331.7714695316
 20
25.0204819432
 30
0.0
 10
332.0818524253
 20
25.0204819432
 30
0.0
 10
332.3007691965
 20
25.0204819432
 30
0.0
 10
332.4979643992
 20
25.145577241
 30
0.0
 10
332.6382386243
 20
25.3114986192
 30
0.0
 10
332.6382386243
 20
25.3114986192
 30
0.0
 10
332.8405370871
 20
25.0602612011
 30
0.0
 10
332.8405370871
 20
25.0602612011
 30
0.0
  0
LWPOLYLINE
  5
244
330
226
100
AcDbEntity
  8
0
  6
Continuous
 62
     7
100
AcDbPolyline
 90
        2
 70
     0
 43
0.2
 10
334.7759811768
 20
26.9168010391
 10
334.5446333876
 20
26.9168010391
  0
LWPOLYLINE
  5
245
330
226
100
AcDbEntity
  8
0
  6
Continuous
 62
     7
100
AcDbPolyline
 90
        2
 70
     0
 43
0.2
 10
334.5446333876
 20
26.9168010391
 10
334.5446333876
 20
25.0597377898
  0
LWPOLYLINE
  5
246
330
226
100
AcDbEntity
  8
0
  6
Continuous
 62
     7
100
AcDbPolyline
 90
        2
 70
     0
 43
0.2
 10
334.5446333876
 20
25.0597377898
 10
335.3399568395
 20
25.0597377898
  0
LWPOLYLINE
  5
247
330
226
100
AcDbEntity
  8
0
  6
Continuous
 62
     7
100
AcDbPolyline
 90
        2
 70
     0
 43
0.2
 10
335.3399568395
 20
25.0597377898
 10
335.3399568395
 20
25.2717193614
  0
LWPOLYLINE
  5
248
330
226
100
AcDbEntity
  8
0
  6
Continuous
 62
     7
100
AcDbPolyline
 90
        2
 70
     0
 43
0.2
 10
335.3399568395
 20
25.2717193614
 10
334.7759811768
 20
25.2717193614
  0
LWPOLYLINE
  5
249
330
226
100
AcDbEntity
  8
0
  6
Continuous
 62
     7
100
AcDbPolyline
 90
        2
 70
     0
 43
0.2
 10
334.7759811768
 20
25.2717193614
 10
334.7759811768
 20
26.9168010391
  0
LWPOLYLINE
  5
24A
330
226
100
AcDbEntity
  8
0
  6
Continuous
 62
     7
100
AcDbPolyline
 90
        2
 70
     0
 43
0.2
 10
337.019060251
 20
26.2122894457
 10
336.7979189819
 20
26.2122894457
  0
LWPOLYLINE
  5
24B
330
226
100
AcDbEntity
  8
0
  6
Continuous
 62
     7
100
AcDbPolyline
 90
        2
 70
     0
 43
0.2
 10
336.7979189819
 20
26.2122894457
 10
336.7979189819
 20
25.0602612011
  0
LWPOLYLINE
  5
24C
330
226
100
AcDbEntity
  8
0
  6
Continuous
 62
     7
100
AcDbPolyline
 90
        2
 70
     0
 43
0.2
 10
336.7979189819
 20
25.0602612011
 10
337.019060251
 20
25.0602612011
  0
LWPOLYLINE
  5
24D
330
226
100
AcDbEntity
  8
0
  6
Continuous
 62
     7
100
AcDbPolyline
 90
        2
 70
     0
 43
0.2
 10
337.019060251
 20
25.0602612011
 10
337.019060251
 20
26.2122894457
  0
SPLINE
  5
24E
330
226
100
AcDbEntity
  8
0
  6
Continuous
 62
     7
100
AcDbSpline
 70
     3
 71
     3
 72
    17
 73
    13
 74
     0
 42
0.000000001
 43
0.0000001
 40
0.0
 40
0.0
 40
0.0
 40
0.0
 40
1.0
 40
1.0
 40
1.0
 40
2.0
 40
2.0
 40
2.0
 40
3.0
 40
3.0
 40
3.0
 40
4.0
 40
4.0
 40
4.0
 40
4.0
 10
336.9086204693
 20
26.894817765
 30
0.0
 10
336.8246129576
 20
26.894817765
 30
0.0
 10
336.7560460788
 20
26.825727475
 30
0.0
 10
336.7560460788
 20
26.7398880238
 30
0.0
 10
336.7560460788
 20
26.6556188065
 30
0.0
 10
336.8246129576
 20
26.5896689842
 30
0.0
 10
336.9086204693
 20
26.5896689842
 30
0.0
 10
336.9923662753
 20
26.5896689842
 30
0.0
 10
337.0611948597
 20
26.6556188065
 30
0.0
 10
337.0611948597
 20
26.7398880238
 30
0.0
 10
337.0611948597
 20
26.825727475
 30
0.0
 10
336.9923662753
 20
26.894817765
 30
0.0
 10
336.9086204693
 20
26.894817765
 30
0.0
  0
SPLINE
  5
24F
330
226
100
AcDbEntity
  8
0
  6
Continuous
 62
     7
100
AcDbSpline
 70
     3
 71
     3
 72
    17
 73
    13
 74
     0
 42
0.000000001
 43
0.0000001
 40
0.0
 40
0.0
 40
0.0
 40
0.0
 40
1.0
 40
1.0
 40
1.0
 40
2.0
 40
2.0
 40
2.0
 40
3.0
 40
3.0
 40
3.0
 40
4.0
 40
4.0
 40
4.0
 40
4.0
 10
339.1493441926
 20
25.2178079987
 30
0.0
 10
338.915379347
 20
25.2178079987
 30
0.0
 10
338.7850499363
 20
25.4198447558
 30
0.0
 10
338.7850499363
 20
25.6360136177
 30
0.0
 10
338.7850499363
 20
25.8506122457
 30
0.0
 10
338.9208751655
 20
26.0495085351
 30
0.0
 10
339.1493441926
 20
26.0495085351
 30
0.0
 10
339.3888048568
 20
26.0495085351
 30
0.0
 10
339.5243683804
 20
25.8605570602
 30
0.0
 10
339.5243683804
 20
25.6360136177
 30
0.0
 10
339.5243683804
 20
25.4098999414
 30
0.0
 10
339.3911602076
 20
25.2178079987
 30
0.0
 10
339.1493441926
 20
25.2178079987
 30
0.0
  0
SPLINE
  5
250
330
226
100
AcDbEntity
  8
0
  6
Continuous
 62
     7
100
AcDbSpline
 70
     3
 71
     3
 72
    50
 73
    46
 74
     0
 42
0.000000001
 43
0.0000001
 40
0.0
 40
0.0
 40
0.0
 40
0.0
 40
1.0
 40
1.0
 40
1.0
 40
2.0
 40
2.0
 40
2.0
 40
3.0
 40
3.0
 40
3.0
 40
4.0
 40
4.0
 40
4.0
 40
5.0
 40
5.0
 40
5.0
 40
6.0
 40
6.0
 40
6.0
 40
7.0
 40
7.0
 40
7.0
 40
8.0
 40
8.0
 40
8.0
 40
9.0
 40
9.0
 40
9.0
 40
10.0
 40
10.0
 40
10.0
 40
11.0
 40
11.0
 40
11.0
 40
12.0
 40
12.0
 40
12.0
 40
13.0
 40
13.0
 40
13.0
 40
14.0
 40
14.0
 40
14.0
 40
15.0
 40
15.0
 40
15.0
 40
15.0
 10
339.7334711899
 20
26.2128128569
 30
0.0
 10
339.7334711899
 20
26.2128128569
 30
0.0
 10
339.5118065095
 20
26.2128128569
 30
0.0
 10
339.5118065095
 20
26.2128128569
 30
0.0
 10
339.5118065095
 20
26.2128128569
 30
0.0
 10
339.5118065095
 20
26.0154868014
 30
0.0
 10
339.5118065095
 20
26.0154868014
 30
0.0
 10
339.5118065095
 20
26.0154868014
 30
0.0
 10
339.5070958079
 20
26.0154868014
 30
0.0
 10
339.5070958079
 20
26.0154868014
 30
0.0
 10
339.4157605382
 20
26.158378083
 30
0.0
 10
339.2778416638
 20
26.2468345907
 30
0.0
 10
339.1051159388
 20
26.2468345907
 30
0.0
 10
338.772749771
 20
26.2468345907
 30
0.0
 10
338.5636469615
 20
25.9589583823
 30
0.0
 10
338.5636469615
 20
25.6433413757
 30
0.0
 10
338.5636469615
 20
25.3135922644
 30
0.0
 10
338.7607113114
 20
25.0204819432
 30
0.0
 10
339.1155841646
 20
25.0204819432
 30
0.0
 10
339.2778416638
 20
25.0204819432
 30
0.0
 10
339.4178541833
 20
25.1089384508
 30
0.0
 10
339.5070958079
 20
25.2397912728
 30
0.0
 10
339.5070958079
 20
25.2397912728
 30
0.0
 10
339.5118065095
 20
25.2397912728
 30
0.0
 10
339.5118065095
 20
25.2397912728
 30
0.0
 10
339.5118065095
 20
25.2397912728
 30
0.0
 10
339.5118065095
 20
25.0204819432
 30
0.0
 10
339.5118065095
 20
25.0204819432
 30
0.0
 10
339.5118065095
 20
24.7839000411
 30
0.0
 10
339.4552780904
 20
24.5970422113
 30
0.0
 10
339.1820573981
 20
24.5970422113
 30
0.0
 10
338.9797589354
 20
24.5970422113
 30
0.0
 10
338.8371293594
 20
24.7153331624
 30
0.0
 10
338.8371293594
 20
24.9215572098
 30
0.0
 10
338.8371293594
 20
24.9215572098
 30
0.0
 10
338.615464679
 20
24.9215572098
 30
0.0
 10
338.615464679
 20
24.9215572098
 30
0.0
 10
338.6204370862
 20
24.5970422113
 30
0.0
 10
338.8515231698
 20
24.4002395671
 30
0.0
 10
339.171850878
 20
24.4002395671
 30
0.0
 10
339.6198909404
 20
24.4002395671
 30
0.0
 10
339.7334711899
 20
24.6854987189
 30
0.0
 10
339.7334711899
 20
25.0822444751
 30
0.0
 10
339.7334711899
 20
25.0822444751
 30
0.0
 10
339.7334711899
 20
26.2128128569
 30
0.0
 10
339.7334711899
 20
26.2128128569
 30
0.0
  0
SPLINE
  5
251
330
226
100
AcDbEntity
  8
0
  6
Continuous
 62
     7
100
AcDbSpline
 70
     3
 71
     3
 72
    44
 73
    40
 74
     0
 42
0.000000001
 43
0.0000001
 40
0.0
 40
0.0
 40
0.0
 40
0.0
 40
1.0
 40
1.0
 40
1.0
 40
2.0
 40
2.0
 40
2.0
 40
3.0
 40
3.0
 40
3.0
 40
4.0
 40
4.0
 40
4.0
 40
5.0
 40
5.0
 40
5.0
 40
6.0
 40
6.0
 40
6.0
 40
7.0
 40
7.0
 40
7.0
 40
8.0
 40
8.0
 40
8.0
 40
9.0
 40
9.0
 40
9.0
 40
10.0
 40
10.0
 40
10.0
 40
11.0
 40
11.0
 40
11.0
 40
12.0
 40
12.0
 40
12.0
 40
13.0
 40
13.0
 40
13.0
 40
13.0
 10
341.3023965253
 20
27.1978729007
 30
0.0
 10
341.3023965253
 20
27.1978729007
 30
0.0
 10
341.3023965253
 20
25.0597377898
 30
0.0
 10
341.3023965253
 20
25.0597377898
 30
0.0
 10
341.3023965253
 20
25.0597377898
 30
0.0
 10
341.5237995001
 20
25.0597377898
 30
0.0
 10
341.5237995001
 20
25.0597377898
 30
0.0
 10
341.5237995001
 20
25.0597377898
 30
0.0
 10
341.5237995001
 20
25.5894300131
 30
0.0
 10
341.5237995001
 20
25.5894300131
 30
0.0
 10
341.5237995001
 20
25.7993179395
 30
0.0
 10
341.5237995001
 20
26.0500319464
 30
0.0
 10
341.8090586519
 20
26.0500319464
 30
0.0
 10
342.0359574452
 20
26.0500319464
 30
0.0
 10
342.0629131266
 20
25.9170854793
 30
0.0
 10
342.0629131266
 20
25.7208062464
 30
0.0
 10
342.0629131266
 20
25.7208062464
 30
0.0
 10
342.0629131266
 20
25.0597377898
 30
0.0
 10
342.0629131266
 20
25.0597377898
 30
0.0
 10
342.0629131266
 20
25.0597377898
 30
0.0
 10
342.2848395126
 20
25.0597377898
 30
0.0
 10
342.2848395126
 20
25.0597377898
 30
0.0
 10
342.2848395126
 20
25.0597377898
 30
0.0
 10
342.2848395126
 20
25.7469768107
 30
0.0
 10
342.2848395126
 20
25.7469768107
 30
0.0
 10
342.2848395126
 20
26.027525261
 30
0.0
 10
342.2008320009
 20
26.2473580019
 30
0.0
 10
341.8757935911
 20
26.2473580019
 30
0.0
 10
341.7360427773
 20
26.2473580019
 30
0.0
 10
341.5978621973
 20
26.1808847684
 30
0.0
 10
341.5285102016
 20
26.0578831157
 30
0.0
 10
341.5285102016
 20
26.0578831157
 30
0.0
 10
341.5237995001
 20
26.0578831157
 30
0.0
 10
341.5237995001
 20
26.0578831157
 30
0.0
 10
341.5237995001
 20
26.0578831157
 30
0.0
 10
341.5237995001
 20
27.1978729007
 30
0.0
 10
341.5237995001
 20
27.1978729007
 30
0.0
 10
341.5237995001
 20
27.1978729007
 30
0.0
 10
341.3023965253
 20
27.1978729007
 30
0.0
 10
341.3023965253
 20
27.1978729007
 30
0.0
  0
LWPOLYLINE
  5
252
330
226
100
AcDbEntity
  8
0
  6
Continuous
 62
     7
100
AcDbPolyline
 90
        2
 70
     0
 43
0.2
 10
344.1246301895
 20
26.005541987
 10
344.341060757
 20
26.005541987
  0
LWPOLYLINE
  5
253
330
226
100
AcDbEntity
  8
0
  6
Continuous
 62
     7
100
AcDbPolyline
 90
        2
 70
     0
 43
0.2
 10
344.341060757
 20
26.005541987
 10
344.341060757
 20
26.2122894457
  0
LWPOLYLINE
  5
254
330
226
100
AcDbEntity
  8
0
  6
Continuous
 62
     7
100
AcDbPolyline
 90
        2
 70
     0
 43
0.2
 10
344.341060757
 20
26.2122894457
 10
344.1246301895
 20
26.2122894457
  0
LWPOLYLINE
  5
255
330
226
100
AcDbEntity
  8
0
  6
Continuous
 62
     7
100
AcDbPolyline
 90
        2
 70
     0
 43
0.2
 10
344.1246301895
 20
26.2122894457
 10
344.1246301895
 20
26.65300175
  0
LWPOLYLINE
  5
256
330
226
100
AcDbEntity
  8
0
  6
Continuous
 62
     7
100
AcDbPolyline
 90
        2
 70
     0
 43
0.2
 10
344.1246301895
 20
26.65300175
 10
343.9029655091
 20
26.65300175
  0
LWPOLYLINE
  5
257
330
226
100
AcDbEntity
  8
0
  6
Continuous
 62
     7
100
AcDbPolyline
 90
        2
 70
     0
 43
0.2
 10
343.9029655091
 20
26.65300175
 10
343.9029655091
 20
26.2122894457
  0
LWPOLYLINE
  5
258
330
226
100
AcDbEntity
  8
0
  6
Continuous
 62
     7
100
AcDbPolyline
 90
        2
 70
     0
 43
0.2
 10
343.9029655091
 20
26.2122894457
 10
343.7823192072
 20
26.2122894457
  0
LWPOLYLINE
  5
259
330
226
100
AcDbEntity
  8
0
  6
Continuous
 62
     7
100
AcDbPolyline
 90
        2
 70
     0
 43
0.2
 10
343.7823192072
 20
26.2122894457
 10
343.7823192072
 20
26.005541987
  0
LWPOLYLINE
  5
25A
330
226
100
AcDbEntity
  8
0
  6
Continuous
 62
     7
100
AcDbPolyline
 90
        2
 70
     0
 43
0.2
 10
343.7823192072
 20
26.005541987
 10
343.9029655091
 20
26.005541987
  0
LWPOLYLINE
  5
25B
330
226
100
AcDbEntity
  8
0
  6
Continuous
 62
     7
100
AcDbPolyline
 90
        2
 70
     0
 43
0.2
 10
343.9029655091
 20
26.005541987
 10
343.9029655091
 20
25.0597377898
  0
LWPOLYLINE
  5
25C
330
226
100
AcDbEntity
  8
0
  6
Continuous
 62
     7
100
AcDbPolyline
 90
        2
 70
     0
 43
0.2
 10
343.9029655091
 20
25.0597377898
 10
344.1246301895
 20
25.0597377898
  0
LWPOLYLINE
  5
25D
330
226
100
AcDbEntity
  8
0
  6
Continuous
 62
     7
100
AcDbPolyline
 90
        2
 70
     0
 43
0.2
 10
344.1246301895
 20
25.0597377898
 10
344.1246301895
 20
26.005541987
  0
SPLINE
  5
25E
330
226
100
AcDbEntity
  8
0
  6
Continuous
 62
     7
100
AcDbSpline
 70
     3
 71
     3
 72
    20
 73
    16
 74
     0
 42
0.000000001
 43
0.0000001
 40
0.0
 40
0.0
 40
0.0
 40
0.0
 40
1.0
 40
1.0
 40
1.0
 40
2.0
 40
2.0
 40
2.0
 40
3.0
 40
3.0
 40
3.0
 40
4.0
 40
4.0
 40
4.0
 40
5.0
 40
5.0
 40
5.0
 40
5.0
 10
331.9066404967
 20
35.4206642332
 30
0.0
 10
331.9066404967
 20
35.4206642332
 30
0.0
 10
334.2229971512
 20
32.5911028109
 30
0.0
 10
334.2229971512
 20
32.5911028109
 30
0.0
 10
333.5713500978
 20
31.9389323462
 30
0.0
 10
332.7944768938
 20
31.2030160755
 30
0.0
 10
331.8232872491
 20
31.2030160755
 30
0.0
 10
330.8247493647
 20
31.2030160755
 30
0.0
 10
329.8814313711
 20
32.1325945228
 30
0.0
 10
329.8814313711
 20
33.1317866713
 30
0.0
 10
329.8814313711
 20
34.1309788198
 30
0.0
 10
331.0602844442
 20
34.8375840585
 30
0.0
 10
331.7818069046
 20
35.3374418384
 30
0.0
 10
331.7818069046
 20
35.3374418384
 30
0.0
 10
331.9066404967
 20
35.4206642332
 30
0.0
 10
331.9066404967
 20
35.4206642332
 30
0.0
  0
SPLINE
  5
25F
330
226
100
AcDbEntity
  8
0
  6
Continuous
 62
     7
100
AcDbSpline
 70
     3
 71
     3
 72
    23
 73
    19
 74
     0
 42
0.000000001
 43
0.0000001
 40
0.0
 40
0.0
 40
0.0
 40
0.0
 40
1.0
 40
1.0
 40
1.0
 40
2.0
 40
2.0
 40
2.0
 40
3.0
 40
3.0
 40
3.0
 40
4.0
 40
4.0
 40
4.0
 40
5.0
 40
5.0
 40
5.0
 40
6.0
 40
6.0
 40
6.0
 40
6.0
 10
332.1840484793
 20
37.0584181529
 30
0.0
 10
332.1840484793
 20
37.0584181529
 30
0.0
 10
331.8375502067
 20
37.5017475137
 30
0.0
 10
331.8375502067
 20
37.5017475137
 30
0.0
 10
331.5317471618
 20
37.8898569837
 30
0.0
 10
331.2128588347
 20
38.2783590121
 30
0.0
 10
331.2128588347
 20
38.8053033262
 30
0.0
 10
331.2128588347
 20
39.4714750428
 30
0.0
 10
331.7541969591
 20
39.9151969621
 30
0.0
 10
332.3781032143
 20
39.9151969621
 30
0.0
 10
333.0718848763
 20
39.9151969621
 30
0.0
 10
333.5990908961
 20
39.5129553874
 30
0.0
 10
333.5990908961
 20
38.7779550864
 30
0.0
 10
333.5990908961
 20
38.0146905758
 30
0.0
 10
332.8778301414
 20
37.58457735
 30
0.0
 10
332.3507549745
 20
37.1688579346
 30
0.0
 10
332.3507549745
 20
37.1688579346
 30
0.0
 10
332.1840484793
 20
37.0584181529
 30
0.0
 10
332.1840484793
 20
37.0584181529
 30
0.0
  0
SPLINE
  5
260
330
226
100
AcDbEntity
  8
0
  6
Continuous
 62
     7
100
AcDbSpline
 70
     3
 71
     3
 72
    50
 73
    46
 74
     0
 42
0.000000001
 43
0.0000001
 40
0.0
 40
0.0
 40
0.0
 40
0.0
 40
1.0
 40
1.0
 40
1.0
 40
2.0
 40
2.0
 40
2.0
 40
3.0
 40
3.0
 40
3.0
 40
4.0
 40
4.0
 40
4.0
 40
5.0
 40
5.0
 40
5.0
 40
6.0
 40
6.0
 40
6.0
 40
7.0
 40
7.0
 40
7.0
 40
8.0
 40
8.0
 40
8.0
 40
9.0
 40
9.0
 40
9.0
 40
10.0
 40
10.0
 40
10.0
 40
11.0
 40
11.0
 40
11.0
 40
12.0
 40
12.0
 40
12.0
 40
13.0
 40
13.0
 40
13.0
 40
14.0
 40
14.0
 40
14.0
 40
15.0
 40
15.0
 40
15.0
 40
15.0
 10
336.1376356422
 20
30.2598289348
 30
0.0
 10
336.1376356422
 20
30.2598289348
 30
0.0
 10
337.7468636468
 20
30.2598289348
 30
0.0
 10
337.7468636468
 20
30.2598289348
 30
0.0
 10
337.7468636468
 20
30.2598289348
 30
0.0
 10
335.8738363531
 20
32.5769707062
 30
0.0
 10
335.8738363531
 20
32.5769707062
 30
0.0
 10
335.8738363531
 20
32.5769707062
 30
0.0
 10
337.1501747786
 20
34.0744504008
 30
0.0
 10
337.1501747786
 20
34.0744504008
 30
0.0
 10
337.1501747786
 20
34.0744504008
 30
0.0
 10
336.3179508309
 20
34.9354619693
 30
0.0
 10
336.3179508309
 20
34.9354619693
 30
0.0
 10
336.3179508309
 20
34.9354619693
 30
0.0
 10
335.0973557076
 20
33.5201578469
 30
0.0
 10
335.0973557076
 20
33.5201578469
 30
0.0
 10
335.0973557076
 20
33.5201578469
 30
0.0
 10
332.9194413388
 20
36.1555336813
 30
0.0
 10
332.9194413388
 20
36.1555336813
 30
0.0
 10
333.7930147782
 20
36.7935720412
 30
0.0
 10
334.8196860194
 20
37.58457735
 30
0.0
 10
334.8196860194
 20
38.7634304231
 30
0.0
 10
334.8196860194
 20
40.1371233482
 30
0.0
 10
333.6817898795
 20
40.9416064976
 30
0.0
 10
332.4064982766
 20
40.9416064976
 30
0.0
 10
331.0330670573
 20
40.9416064976
 30
0.0
 10
329.9921328585
 20
40.0953812979
 30
0.0
 10
329.9921328585
 20
38.6527289358
 30
0.0
 10
329.9921328585
 20
37.7651542444
 30
0.0
 10
330.547472235
 20
36.9882810403
 30
0.0
 10
331.1436376918
 20
36.3638513739
 30
0.0
 10
331.1436376918
 20
36.3638513739
 30
0.0
 10
330.4917289328
 20
35.8922578035
 30
0.0
 10
330.4917289328
 20
35.8922578035
 30
0.0
 10
329.4931910484
 20
35.1709970488
 30
0.0
 10
328.6603128365
 20
34.4497362942
 30
0.0
 10
328.6603128365
 20
33.1181779778
 30
0.0
 10
328.6603128365
 20
31.3145026798
 30
0.0
 10
330.1173590091
 20
30.0379025487
 30
0.0
 10
331.8648984465
 20
30.0379025487
 30
0.0
 10
333.0997565274
 20
30.0379025487
 30
0.0
 10
334.2091267521
 20
30.7460780212
 30
0.0
 10
335.000001208
 20
31.6746096459
 30
0.0
 10
335.000001208
 20
31.6746096459
 30
0.0
 10
336.1376356422
 20
30.2598289348
 30
0.0
 10
336.1376356422
 20
30.2598289348
 30
0.0
  0
LINE
  5
261
330
226
100
AcDbEntity
  8
0
  6
Continuous
 62
     7
100
AcDbLine
 10
321.9404970172
 20
28.2337038394
 30
0.0
 11
344.3544077449
 21
28.2337038394
 31
0.0
  0
LINE
  5
262
330
226
100
AcDbEntity
  8
0
  6
Continuous
 62
     7
100
AcDbLine
 10
344.3544077449
 20
28.2337038394
 30
0.0
 11
344.3544077449
 21
50.6476145671
 31
0.0
  0
LINE
  5
263
330
226
100
AcDbEntity
  8
0
  6
Continuous
 62
     7
100
AcDbLine
 10
344.3544077449
 20
50.6476145671
 30
0.0
 11
321.9404970172
 21
50.6476145671
 31
0.0
  0
LINE
  5
264
330
226
100
AcDbEntity
  8
0
  6
Continuous
 62
     7
100
AcDbLine
 10
321.9404970172
 20
50.6476145671
 30
0.0
 11
321.9404970172
 21
28.2337038394
 31
0.0
  0
ENDBLK
  5
265
330
226
100
AcDbEntity
  8
0
  6
ByBlock
 62
     0
100
AcDbBlockEnd
  0
BLOCK
  5
4A6
330
4A5
100
AcDbEntity
  8
0
100
AcDbBlockBegin
  2
*D5
 70
     1
 10
0.0
 20
0.0
 30
0.0
  3
*D5
  1

  0
LINE
  5
4A8
330
4A5
100
AcDbEntity
  8
0
 62
     0
370
    -2
100
AcDbLine
 10
98.48899665332695
 20
218.9750876257425
 30
0.0
 11
150.4676298585685
 21
218.9750876257425
 31
0.0
  0
LINE
  5
4A9
330
4A5
100
AcDbEntity
  8
0
 62
     0
370
    -2
100
AcDbLine
 10
99.85707722666027
 20
166.9250876257425
 30
0.0
 11
150.4676298585685
 21
166.9250876257425
 31
0.0
  0
LINE
  5
4AA
330
4A5
100
AcDbEntity
  8
0
 62
     0
370
    -2
100
AcDbLine
 10
142.9076298585685
 20
216.4750876257425
 30
0.0
 11
142.9076298585685
 21
194.5400876257425
 31
0.0
  0
LINE
  5
4AB
330
4A5
100
AcDbEntity
  8
0
 62
     0
370
    -2
100
AcDbLine
 10
142.9076298585685
 20
169.4250876257425
 30
0.0
 11
142.9076298585685
 21
191.3600876257425
 31
0.0
  0
INSERT
  5
4AC
330
4A5
100
AcDbEntity
  8
0
 62
     0
370
    -2
100
AcDbBlockReference
  2
_CLOSED
 10
142.9076298585685
 20
218.9750876257425
 30
0.0
 41
2.5
 42
2.5
 43
2.5
 50
90.0
  0
INSERT
  5
4AD
330
4A5
100
AcDbEntity
  8
0
 62
     0
370
    -2
100
AcDbBlockReference
  2
_CLOSED
 10
142.9076298585685
 20
166.9250876257425
 30
0.0
 41
2.5
 42
2.5
 43
2.5
 50
270.0
  0
MTEXT
  5
4AE
330
4A5
100
AcDbEntity
  8
0
 62
     0
100
AcDbMText
 10
142.9076298585685
 20
192.9500876257425
 30
0.0
 40
3.0
 41
0.0
 71
     5
 72
     1
  1
\A1;52.0500%%p0.0100
 73
     1
 44
1.0
  0
POINT
  5
4AF
330
4A5
100
AcDbEntity
  8
Defpoints
 62
     0
100
AcDbPoint
 10
95.86399665332695
 20
218.9750876257425
 30
0.0
  0
POINT
  5
4B0
330
4A5
100
AcDbEntity
  8
Defpoints
 62
     0
100
AcDbPoint
 10
97.23207722666027
 20
166.9250876257425
 30
0.0
  0
POINT
  5
4B1
330
4A5
100
AcDbEntity
  8
Defpoints
 62
     0
100
AcDbPoint
 10
142.9076298585685
 20
166.9250876257425
 30
0.0
  0
ENDBLK
  5
4A7
330
4A5
100
AcDbEntity
  8
0
100
AcDbBlockEnd
  0
ENDSEC
  0
SECTION
  2
ENTITIES
  0
MTEXT
  5
287
330
220
100
AcDbEntity
  8
0
  6
Continuous
 62
     2
100
AcDbMText
 10
1.6467220993
 20
53.595027386
 30
0.0
 40
4.0
 41
2.2857142857
 71
     1
 72
     1
  1
1
  7
TEXTSTYLE_2
 73
     1
 44
0.9
  0
MTEXT
  5
288
330
220
100
AcDbEntity
  8
0
  6
Continuous
 62
     2
100
AcDbMText
 10
1.6467220993
 20
153.595027386
 30
0.0
 40
4.0
 41
3.1428571429
 71
     1
 72
     1
  1
2
  7
TEXTSTYLE_2
 73
     1
 44
0.9
  0
MTEXT
  5
289
330
220
100
AcDbEntity
  8
0
  6
Continuous
 62
     2
100
AcDbMText
 10
1.6467220993
 20
253.595027386
 30
0.0
 40
4.0
 41
2.8571428571
 71
     1
 72
     1
  1
3
  7
TEXTSTYLE_2
 73
     1
 44
0.9
  0
MTEXT
  5
28A
330
220
100
AcDbEntity
  8
0
  6
Continuous
 62
     2
100
AcDbMText
 10
414.6467220993
 20
60.6268709614
 30
0.0
 40
4.0
 41
2.2857142857
 71
     1
 72
     1
  1
1
  7
TEXTSTYLE_2
 73
     1
 44
0.9
  0
MTEXT
  5
28B
330
220
100
AcDbEntity
  8
0
  6
Continuous
 62
     2
100
AcDbMText
 10
414.6467220993
 20
160.6268709614
 30
0.0
 40
4.0
 41
3.1428571429
 71
     1
 72
     1
  1
2
  7
TEXTSTYLE_2
 73
     1
 44
0.9
  0
MTEXT
  5
28C
330
220
100
AcDbEntity
  8
0
  6
Continuous
 62
     2
100
AcDbMText
 10
414.6467220993
 20
260.6268709614
 30
0.0
 40
4.0
 41
2.8571428571
 71
     1
 72
     1
  1
3
  7
TEXTSTYLE_2
 73
     1
 44
0.9
  0
MTEXT
  5
28D
330
220
100
AcDbEntity
  8
0
  6
Continuous
 62
     2
100
AcDbMText
 10
362.154890719
 20
5.35876025
 30
0.0
 40
4.0
 41
3.6
 71
     1
 72
     1
  1
A
  7
TEXTSTYLE_3
 73
     1
 44
0.9
  0
MTEXT
  5
28E
330
220
100
AcDbEntity
  8
0
  6
Continuous
 62
     2
100
AcDbMText
 10
262.154890719
 20
5.35876025
 30
0.0
 40
4.0
 41
3.6
 71
     1
 72
     1
  1
B
  7
TEXTSTYLE_3
 73
     1
 44
0.9
  0
MTEXT
  5
28F
330
220
100
AcDbEntity
  8
0
  6
Continuous
 62
     2
100
AcDbMText
 10
162.154890719
 20
5.35876025
 30
0.0
 40
4.0
 41
3.6
 71
     1
 72
     1
  1
C
  7
TEXTSTYLE_3
 73
     1
 44
0.9
  0
MTEXT
  5
290
330
220
100
AcDbEntity
  8
0
  6
Continuous
 62
     2
100
AcDbMText
 10
55.7978688212
 20
5.5353441916
 30
0.0
 40
4.0
 41
3.6
 71
     1
 72
     1
  1
D
  7
TEXTSTYLE_3
 73
     1
 44
0.9
  0
MTEXT
  5
291
330
220
100
AcDbEntity
  8
0
  6
Continuous
 62
     2
100
AcDbMText
 10
362.154890719
 20
295.35876025
 30
0.0
 40
4.0
 41
3.6
 71
     1
 72
     1
  1
A
  7
TEXTSTYLE_3
 73
     1
 44
0.9
  0
MTEXT
  5
292
330
220
100
AcDbEntity
  8
0
  6
Continuous
 62
     2
100
AcDbMText
 10
262.154890719
 20
295.35876025
 30
0.0
 40
4.0
 41
3.6
 71
     1
 72
     1
  1
B
  7
TEXTSTYLE_3
 73
     1
 44
0.9
  0
MTEXT
  5
293
330
220
100
AcDbEntity
  8
0
  6
Continuous
 62
     2
100
AcDbMText
 10
162.154890719
 20
295.35876025
 30
0.0
 40
4.0
 41
3.6
 71
     1
 72
     1
  1
C
  7
TEXTSTYLE_3
 73
     1
 44
0.9
  0
MTEXT
  5
294
330
220
100
AcDbEntity
  8
0
  6
Continuous
 62
     2
100
AcDbMText
 10
53.9878834197
 20
295.579490177
 30
0.0
 40
4.0
 41
3.6
 71
     1
 72
     1
  1
D
  7
TEXTSTYLE_3
 73
     1
 44
0.9
  0
DIMENSION
  5
296
330
220
100
AcDbEntity
  8
0
  6
Continuous
 62
     2
100
AcDbDimension
  2
*D2
 10
125.8374351525936
 20
81.63167603480915
 30
0.0
 11
125.8374351525936
 21
99.13167603480915
 31
0.0
 70
   160
 71
     2
 42
35.0
  3
DIMSTYLE_2
100
AcDbAlignedDimension
 13
117.1660593301936
 23
116.6316760348091
 33
0.0
 14
116.7569684210603
 24
81.63167603480915
 34
0.0
 50
-90.00000000000001
100
AcDbRotatedDimension
1001
ACAD
1000
DSTYLE
1002
{
1070
   144
1040
1.0
1070
   147
1040
2.0
1002
}
  0
LINE
  5
298
330
220
100
AcDbEntity
  8
0
  6
Continuous
 62
     2
100
AcDbLine
 10
319.3213399098
 20
51.0239270671
 30
0.0
 11
409.3213399098
 21
51.0239270671
 31
0.0
  0
LINE
  5
299
330
220
100
AcDbEntity
  8
0
  6
Continuous
 62
     2
100
AcDbLine
 10
319.3213399098
 20
51.0239270671
 30
0.0
 11
319.3213399098
 21
11.0239270671
 31
0.0
  0
LINE
  5
29A
330
220
100
AcDbEntity
  8
0
  6
Continuous
 62
     2
100
AcDbLine
 10
349.3213399098
 20
45.0239270671
 30
0.0
 11
409.3213399098
 21
45.0239270671
 31
0.0
  0
LINE
  5
29B
330
220
100
AcDbEntity
  8
0
  6
Continuous
 62
     2
100
AcDbLine
 10
349.3213399098
 20
39.0239270671
 30
0.0
 11
409.3213399098
 21
39.0239270671
 31
0.0
  0
LINE
  5
29C
330
220
100
AcDbEntity
  8
0
  6
Continuous
 62
     2
100
AcDbLine
 10
349.3213399098
 20
29.0239270671
 30
0.0
 11
409.3213399098
 21
29.0239270671
 31
0.0
  0
LINE
  5
29D
330
220
100
AcDbEntity
  8
0
  6
Continuous
 62
     2
100
AcDbLine
 10
319.3213399098
 20
24.0239270671
 30
0.0
 11
409.3213399098
 21
24.0239270671
 31
0.0
  0
LINE
  5
29E
330
220
100
AcDbEntity
  8
0
  6
Continuous
 62
     2
100
AcDbLine
 10
319.3213399098
 20
11.0239270671
 30
0.0
 11
409.3213399098
 21
11.0239270671
 31
0.0
  0
LINE
  5
29F
330
220
100
AcDbEntity
  8
0
  6
Continuous
 62
     2
100
AcDbLine
 10
349.3213399098
 20
51.0239270671
 30
0.0
 11
349.3213399098
 21
24.0239270671
 31
0.0
  0
LINE
  5
2A0
330
220
100
AcDbEntity
  8
0
  6
Continuous
 62
     2
100
AcDbLine
 10
389.3213399098
 20
51.0239270671
 30
0.0
 11
389.3213399098
 21
39.0239270671
 31
0.0
  0
LINE
  5
2A1
330
220
100
AcDbEntity
  8
0
  6
Continuous
 62
     2
100
AcDbLine
 10
409.3213399098
 20
51.0239270671
 30
0.0
 11
409.3213399098
 21
11.0239270671
 31
0.0
  0
INSERT
  5
2A2
330
220
100
AcDbEntity
  8
0
  6
Continuous
 62
     2
100
AcDbBlockReference
  2
LOGO2_BL0
 10
333.1473869546
 20
37.5239270671
 30
0.0
  0
MTEXT
  5
2A3
330
220
100
AcDbEntity
  8
8_ALL_NOTES_BALLOONS_SYMBOLS_GT
  6
Continuous
 62
     2
100
AcDbMText
 10
350.8088399098
 20
49.5239270671
 30
0.0
 40
3.0
 41
21.0714285714
 71
     1
 72
     1
  1
213_C_004
 73
     1
 44
0.9
  0
MTEXT
  5
2A4
330
220
100
AcDbEntity
  8
8_ALL_NOTES_BALLOONS_SYMBOLS_GT
  6
Continuous
 62
     2
100
AcDbMText
 10
390.8088399098
 20
49.2739270671
 30
0.0
 40
3.5
 41
17.85
 71
     1
 72
     1
  1
Rev:00
  7
TEXTSTYLE_4
 73
     1
 44
0.9
  0
MTEXT
  5
2A5
330
220
100
AcDbEntity
  8
8_ALL_NOTES_BALLOONS_SYMBOLS_GT
  6
Continuous
 62
     2
100
AcDbMText
 10
350.8088399098
 20
43.2739270671
 30
0.0
 40
3.5
 41
18.25
 71
     1
 72
     1
  1
Scale:1:1
 73
     1
 44
0.9
  0
MTEXT
  5
2A6
330
220
100
AcDbEntity
  8
8_ALL_NOTES_BALLOONS_SYMBOLS_GT
  6
Continuous
 62
     2
100
AcDbMText
 10
390.8088399098
 20
43.7739270671
 30
0.0
 40
3.5
 41
5.5
 71
     1
 72
     1
  1
A3
 73
     1
 44
0.9
  0
MTEXT
  5
2A7
330
220
100
AcDbEntity
  8
8_ALL_NOTES_BALLOONS_SYMBOLS_GT
  6
Continuous
 62
     2
100
AcDbMText
 10
350.8088399098
 20
35.7739270671
 30
0.0
 40
3.5
 41
26.4166666667
 71
     1
 72
     1
  1
BRIGHT 1.7
 73
     1
 44
0.9
  0
MTEXT
  5
2A8
330
220
100
AcDbEntity
  8
8_ALL_NOTES_BALLOONS_SYMBOLS_GT
  6
Continuous
 62
     2
100
AcDbMText
 10
350.8088399098
 20
27.7739270671
 30
0.0
 40
2.5
 41
27.6785714286
 71
     1
 72
     1
  1
DATE:12/02/2014
 73
     1
 44
0.9
  0
MTEXT
  5
2A9
330
220
100
AcDbEntity
  8
0
  6
Continuous
 62
     2
100
AcDbMText
 10
320.8088399098
 20
22.2739270671
 30
0.0
 40
1.85
 41
83.3425
 71
     1
 72
     1
  1
Any integral or partial reproductions are prohibited \Pwithout prior authorisation of L  Luce  s.r.l., \Pin accordance with the law in force. \PAll rights reserved.
  7
TEXTSTYLE_4
 73
     1
 44
0.9
  0
LINE
  5
2AC
330
220
100
AcDbEntity
  8
0
  6
Continuous
 62
     7
100
AcDbLine
 10
0.0
 20
0.0
 30
0.0
 11
0.0
 21
297.0
 31
0.0
  0
LWPOLYLINE
  5
2AD
330
220
100
AcDbEntity
  8
0
  6
Continuous
 62
     7
100
AcDbPolyline
 90
        2
 70
     0
 43
0.1000000003
 10
7.0536312849
 20
0.0
 10
7.0536312849
 20
297.0
  0
LWPOLYLINE
  5
2AE
330
220
100
AcDbEntity
  8
0
  6
Continuous
 62
     7
100
AcDbPolyline
 90
        2
 70
     0
 43
0.4999999952
 10
10.0536312849
 20
10.0318435754
 10
10.0536312849
 20
287.0
  0
LINE
  5
2AF
330
220
100
AcDbEntity
  8
0
  6
Continuous
 62
     7
100
AcDbLine
 10
0.0
 20
0.0
 30
0.0
 11
420.0
 21
0.0
 31
0.0
  0
LWPOLYLINE
  5
2B0
330
220
100
AcDbEntity
  8
0
  6
Continuous
 62
     7
100
AcDbPolyline
 90
        2
 70
     0
 43
0.1000000003
 10
0.0
 20
7.0318435754
 10
420.0
 20
7.0318435754
  0
LWPOLYLINE
  5
2B1
330
220
100
AcDbEntity
  8
0
  6
Continuous
 62
     7
100
AcDbPolyline
 90
        2
 70
     0
 43
0.4999999952
 10
10.0536312849
 20
10.0318435754
 10
410.0
 20
10.0318435754
  0
LINE
  5
2B2
330
220
100
AcDbEntity
  8
0
  6
Continuous
 62
     7
100
AcDbLine
 10
113.0
 20
297.0
 30
0.0
 11
113.0
 21
290.0
 31
0.0
  0
LINE
  5
2B3
330
220
100
AcDbEntity
  8
0
  6
Continuous
 62
     7
100
AcDbLine
 10
113.0
 20
7.0
 30
0.0
 11
113.0
 21
0.0
 31
0.0
  0
LWPOLYLINE
  5
2B4
330
220
100
AcDbEntity
  8
0
  6
Continuous
 62
     7
100
AcDbPolyline
 90
        2
 70
     0
 43
0.1000000003
 10
123.0
 20
10.0
 10
123.0
 20
0.0
  0
LWPOLYLINE
  5
2B5
330
220
100
AcDbEntity
  8
0
  6
Continuous
 62
     7
100
AcDbPolyline
 90
        2
 70
     0
 43
0.1000000003
 10
123.0
 20
287.0
 10
123.0
 20
297.0
  0
LINE
  5
2B6
330
220
100
AcDbEntity
  8
0
  6
Continuous
 62
     7
100
AcDbLine
 10
0.0
 20
99.9681564246
 30
0.0
 11
7.0
 21
99.9681564246
 31
0.0
  0
LINE
  5
2B7
330
220
100
AcDbEntity
  8
0
  6
Continuous
 62
     7
100
AcDbLine
 10
413.0
 20
107.0
 30
0.0
 11
420.0
 21
107.0
 31
0.0
  0
LWPOLYLINE
  5
2B8
330
220
100
AcDbEntity
  8
0
  6
Continuous
 62
     7
100
AcDbPolyline
 90
        2
 70
     0
 43
0.1000000003
 10
210.0
 20
10.0
 10
210.0
 20
0.0
  0
LWPOLYLINE
  5
2B9
330
220
100
AcDbEntity
  8
0
  6
Continuous
 62
     7
100
AcDbPolyline
 90
        2
 70
     0
 43
0.1000000003
 10
210.0
 20
287.0
 10
210.0
 20
297.0
  0
LWPOLYLINE
  5
2BA
330
220
100
AcDbEntity
  8
0
  6
Continuous
 62
     7
100
AcDbPolyline
 90
        2
 70
     0
 43
0.1000000003
 10
10.0
 20
148.5
 10
0.0
 20
148.5
  0
LWPOLYLINE
  5
2BB
330
220
100
AcDbEntity
  8
0
  6
Continuous
 62
     7
100
AcDbPolyline
 90
        2
 70
     0
 43
0.1000000003
 10
410.0
 20
148.5
 10
420.0
 20
148.5
  0
LINE
  5
2BC
330
220
100
AcDbEntity
  8
0
  6
Continuous
 62
     7
100
AcDbLine
 10
0.0
 20
199.9681564246
 30
0.0
 11
7.0
 21
199.9681564246
 31
0.0
  0
LWPOLYLINE
  5
2BD
330
220
100
AcDbEntity
  8
0
  6
Continuous
 62
     7
100
AcDbPolyline
 90
        2
 70
     0
 43
0.1000000003
 10
10.0
 20
202.9681564246
 10
0.0
 20
202.9681564246
  0
LWPOLYLINE
  5
2BE
330
220
100
AcDbEntity
  8
0
  6
Continuous
 62
     7
100
AcDbPolyline
 90
        2
 70
     0
 43
0.1000000003
 10
410.0
 20
210.0
 10
420.0
 20
210.0
  0
LINE
  5
2BF
330
220
100
AcDbEntity
  8
0
  6
Continuous
 62
     7
100
AcDbLine
 10
313.0
 20
297.0
 30
0.0
 11
313.0
 21
290.0
 31
0.0
  0
LINE
  5
2C0
330
220
100
AcDbEntity
  8
0
  6
Continuous
 62
     7
100
AcDbLine
 10
313.0
 20
7.0
 30
0.0
 11
313.0
 21
0.0
 31
0.0
  0
LWPOLYLINE
  5
2C1
330
220
100
AcDbEntity
  8
0
  6
Continuous
 62
     7
100
AcDbPolyline
 90
        2
 70
     0
 43
0.4999999952
 10
10.0536312849
 20
287.0
 10
410.0
 20
287.0
  0
LWPOLYLINE
  5
2C2
330
220
100
AcDbEntity
  8
0
  6
Continuous
 62
     7
100
AcDbPolyline
 90
        2
 70
     0
 43
0.1000000003
 10
0.0
 20
290.0
 10
420.0
 20
290.0
  0
LINE
  5
2C3
330
220
100
AcDbEntity
  8
0
  6
Continuous
 62
     7
100
AcDbLine
 10
0.0
 20
297.0
 30
0.0
 11
420.0
 21
297.0
 31
0.0
  0
LWPOLYLINE
  5
2C4
330
220
100
AcDbEntity
  8
0
  6
Continuous
 62
     7
100
AcDbPolyline
 90
        2
 70
     0
 43
0.4999999952
 10
410.0
 20
10.0318435754
 10
410.0
 20
287.0
  0
LWPOLYLINE
  5
2C5
330
220
100
AcDbEntity
  8
0
  6
Continuous
 62
     7
100
AcDbPolyline
 90
        2
 70
     0
 43
0.1000000003
 10
413.0
 20
0.0
 10
413.0
 20
297.0
  0
LINE
  5
2C6
330
220
100
AcDbEntity
  8
0
  6
Continuous
 62
     7
100
AcDbLine
 10
420.0
 20
0.0
 30
0.0
 11
420.0
 21
297.0
 31
0.0
  0
LINE
  5
2C7
330
220
100
AcDbEntity
  8
7_ALL_FEATURES
  6
Continuous
 62
     7
100
AcDbLine
 10
78.36399665332695
 20
116.6316760348091
 30
0.0
 11
78.36399665332695
 21
81.63167603480915
 31
0.0
  0
LINE
  5
2C8
330
220
100
AcDbEntity
  8
7_ALL_FEATURES
  6
Continuous
 62
     7
100
AcDbLine
 10
79.36399665332695
 20
115.6316760348091
 30
0.0
 11
79.36399665332695
 21
82.63167603480915
 31
0.0
  0
LINE
  5
2C9
330
220
100
AcDbEntity
  8
7_ALL_FEATURES
  6
Continuous
 62
     7
100
AcDbLine
 10
78.36399665332695
 20
81.63167603480915
 30
0.0
 11
113.3639966533269
 21
81.63167603480915
 31
0.0
  0
LINE
  5
2CA
330
220
100
AcDbEntity
  8
7_ALL_FEATURES
  6
Continuous
 62
     7
100
AcDbLine
 10
79.36399665332695
 20
82.63167603480915
 30
0.0
 11
112.3639966533269
 21
82.63167603480915
 31
0.0
  0
LINE
  5
2CB
330
220
100
AcDbEntity
  8
7_ALL_FEATURES
  6
Continuous
 62
     7
100
AcDbLine
 10
113.3639966533269
 20
116.6316760348091
 30
0.0
 11
112.3639966533269
 21
115.6316760348091
 31
0.0
  0
LINE
  5
2CC
330
220
100
AcDbEntity
  8
7_ALL_FEATURES
  6
Continuous
 62
     7
100
AcDbLine
 10
78.36399665332695
 20
81.63167603480915
 30
0.0
 11
79.36399665332695
 21
82.63167603480915
 31
0.0
  0
LINE
  5
2CD
330
220
100
AcDbEntity
  8
7_ALL_FEATURES
  6
Continuous
 62
     7
100
AcDbLine
 10
78.36399665332695
 20
116.6316760348091
 30
0.0
 11
79.36399665332695
 21
115.6316760348091
 31
0.0
  0
LINE
  5
2CE
330
220
100
AcDbEntity
  8
7_ALL_FEATURES
  6
Continuous
 62
     7
100
AcDbLine
 10
113.3639966533269
 20
81.63167603480915
 30
0.0
 11
112.3639966533269
 21
82.63167603480915
 31
0.0
  0
LINE
  5
2CF
330
220
100
AcDbEntity
  8
7_ALL_FEATURES
  6
Continuous
 62
     7
100
AcDbLine
 10
112.3639966533269
 20
82.63167603480915
 30
0.0
 11
112.3639966533269
 21
115.6316760348091
 31
0.0
  0
LINE
  5
2D0
330
220
100
AcDbEntity
  8
7_ALL_FEATURES
  6
Continuous
 62
     7
100
AcDbLine
 10
112.3639966533269
 20
115.6316760348091
 30
0.0
 11
79.36399665332695
 21
115.6316760348091
 31
0.0
  0
LINE
  5
2D1
330
220
100
AcDbEntity
  8
7_ALL_FEATURES
  6
Continuous
 62
     7
100
AcDbLine
 10
113.3639966533269
 20
81.63167603480915
 30
0.0
 11
113.3639966533269
 21
116.6316760348091
 31
0.0
  0
LINE
  5
2D2
330
220
100
AcDbEntity
  8
7_ALL_FEATURES
  6
Continuous
 62
     7
100
AcDbLine
 10
113.3639966533269
 20
116.6316760348091
 30
0.0
 11
78.36399665332695
 21
116.6316760348091
 31
0.0
  0
LINE
  5
2D3
330
220
100
AcDbEntity
  8
7_ALL_FEATURES
  6
Continuous
 62
     7
100
AcDbLine
 10
78.36399665332695
 20
217.9750876257425
 30
0.0
 11
79.36399665332695
 21
218.9750876257425
 31
0.0
  0
LINE
  5
2D4
102
{ACAD_REACTORS
330
4A4
102
}
330
220
100
AcDbEntity
  8
02___PRT_ALL_AXES
  6
Continuous
 62
     7
100
AcDbLine
 10
93.73207722666027
 20
166.9250876257425
 30
0.0
 11
100.7320772266603
 21
166.9250876257425
 31
0.0
  0
LINE
  5
2D5
330
220
100
AcDbEntity
  8
7_ALL_FEATURES
  6
Continuous
 62
     7
100
AcDbLine
 10
93.73207722666027
 20
166.9250876257425
 30
0.0
 11
100.7320772266603
 21
166.9250876257425
 31
0.0
  0
LINE
  5
2D6
330
220
100
AcDbEntity
  8
02___PRT_ALL_AXES
  6
Continuous
 62
     9
100
AcDbLine
 10
104.1602804569269
 20
170.4250876257425
 30
0.0
 11
101.5622042455269
 21
170.4250876257425
 31
0.0
  0
LINE
  5
2D7
330
220
100
AcDbEntity
  8
02___PRT_ALL_AXES
  6
Continuous
 62
     9
100
AcDbLine
 10
90.30387399632694
 20
170.4250876257425
 30
0.0
 11
92.90195020772694
 21
170.4250876257425
 31
0.0
  0
LINE
  5
2D8
330
220
100
AcDbEntity
  8
02___PRT_ALL_AXES
  6
Continuous
 62
     9
100
AcDbLine
 10
94.63400101526028
 20
170.4250876257425
 30
0.0
 11
99.8301534379936
 21
170.4250876257425
 31
0.0
  0
LINE
  5
2D9
330
220
100
AcDbEntity
  8
02___PRT_ALL_AXES
  6
Continuous
 62
     7
100
AcDbLine
 10
104.1602804569269
 20
170.9250876257425
 30
0.0
 11
101.5622042455269
 21
170.9250876257425
 31
0.0
  0
LINE
  5
2DA
330
220
100
AcDbEntity
  8
02___PRT_ALL_AXES
  6
Continuous
 62
     7
100
AcDbLine
 10
90.30387399632694
 20
170.9250876257425
 30
0.0
 11
92.90195020772694
 21
170.9250876257425
 31
0.0
  0
LINE
  5
2DB
330
220
100
AcDbEntity
  8
02___PRT_ALL_AXES
  6
Continuous
 62
     7
100
AcDbLine
 10
94.63400101526028
 20
170.9250876257425
 30
0.0
 11
99.8301534379936
 21
170.9250876257425
 31
0.0
  0
LINE
  5
2DC
330
220
100
AcDbEntity
  8
7_ALL_FEATURES
  6
Continuous
 62
     7
100
AcDbLine
 10
78.36399665332695
 20
217.9750876257425
 30
0.0
 11
78.36399665332695
 21
217.4750876257425
 31
0.0
  0
LINE
  5
2DD
330
220
100
AcDbEntity
  8
02___PRT_ALL_AXES
  6
Continuous
 62
     7
100
AcDbLine
 10
104.1602804569269
 20
176.4250876257425
 30
0.0
 11
90.30387399632694
 21
176.4250876257425
 31
0.0
  0
LINE
  5
2DE
330
220
100
AcDbEntity
  8
7_ALL_FEATURES
  6
Continuous
 62
     7
100
AcDbLine
 10
82.86399665332695
 20
209.4750876257425
 30
0.0
 11
82.86399665332695
 21
205.4250876257425
 31
0.0
  0
LINE
  5
2DF
330
220
100
AcDbEntity
  8
7_ALL_FEATURES
  6
Continuous
 62
     7
100
AcDbLine
 10
82.86399665332695
 20
202.9250876257425
 30
0.0
 11
82.86399665332695
 21
199.9250876257425
 31
0.0
  0
LINE
  5
2E0
330
220
100
AcDbEntity
  8
7_ALL_FEATURES
  6
Continuous
 62
     7
100
AcDbLine
 10
82.86399665332695
 20
189.9250876257425
 30
0.0
 11
82.86399665332695
 21
187.4250876257425
 31
0.0
  0
LINE
  5
2E1
330
220
100
AcDbEntity
  8
7_ALL_FEATURES
  6
Continuous
 62
     7
100
AcDbLine
 10
82.86399665332695
 20
184.9250876257425
 30
0.0
 11
82.86399665332695
 21
182.9250876257425
 31
0.0
  0
LINE
  5
2E2
330
220
100
AcDbEntity
  8
02___PRT_ALL_AXES
  6
Continuous
 62
     7
100
AcDbLine
 10
82.86399665332695
 20
182.9250876257425
 30
0.0
 11
82.86399665332695
 21
184.9250876257425
 31
0.0
  0
LINE
  5
2E3
330
220
100
AcDbEntity
  8
02___PRT_ALL_AXES
  6
Continuous
 62
     7
100
AcDbLine
 10
82.86399665332695
 20
187.4250876257425
 30
0.0
 11
82.86399665332695
 21
189.9250876257425
 31
0.0
  0
LINE
  5
2E4
330
220
100
AcDbEntity
  8
02___PRT_ALL_AXES
  6
Continuous
 62
     7
100
AcDbLine
 10
82.86399665332695
 20
199.9250876257425
 30
0.0
 11
82.86399665332695
 21
202.9250876257425
 31
0.0
  0
LINE
  5
2E5
330
220
100
AcDbEntity
  8
02___PRT_ALL_AXES
  6
Continuous
 62
     7
100
AcDbLine
 10
82.86399665332695
 20
205.4250876257425
 30
0.0
 11
82.86399665332695
 21
217.4750876257425
 31
0.0
  0
LINE
  5
2E6
330
220
100
AcDbEntity
  8
7_ALL_FEATURES
  6
Continuous
 62
     7
100
AcDbLine
 10
83.46399665332694
 20
189.9250876257425
 30
0.0
 11
83.46399665332694
 21
199.9250876257425
 31
0.0
  0
LINE
  5
2E7
330
220
100
AcDbEntity
  8
02___PRT_ALL_AXES
  6
Continuous
 62
     7
100
AcDbLine
 10
104.1602804569269
 20
179.4250876257425
 30
0.0
 11
90.30387399632694
 21
179.4250876257425
 31
0.0
  0
LINE
  5
2E8
330
220
100
AcDbEntity
  8
7_ALL_FEATURES
  6
Continuous
 62
     7
100
AcDbLine
 10
84.46399665332694
 20
205.4250876257425
 30
0.0
 11
84.46399665332694
 21
205.1750876257425
 31
0.0
  0
LINE
  5
2E9
330
220
100
AcDbEntity
  8
7_ALL_FEATURES
  6
Continuous
 62
     7
100
AcDbLine
 10
84.46399665332694
 20
203.1750876257425
 30
0.0
 11
84.46399665332694
 21
202.9250876257425
 31
0.0
  0
LINE
  5
2EA
330
220
100
AcDbEntity
  8
7_ALL_FEATURES
  6
Continuous
 62
     7
100
AcDbLine
 10
84.46399665332694
 20
187.4250876257425
 30
0.0
 11
84.46399665332694
 21
187.1750876257425
 31
0.0
  0
LINE
  5
2EB
330
220
100
AcDbEntity
  8
7_ALL_FEATURES
  6
Continuous
 62
     7
100
AcDbLine
 10
84.46399665332694
 20
185.1750876257425
 30
0.0
 11
84.46399665332694
 21
184.9250876257425
 31
0.0
  0
LINE
  5
2EC
330
220
100
AcDbEntity
  8
02___PRT_ALL_AXES
  6
Continuous
 62
     7
100
AcDbLine
 10
82.86399665332695
 20
182.9250876257425
 30
0.0
 11
108.8639966533269
 21
182.9250876257425
 31
0.0
  0
LINE
  5
2ED
330
220
100
AcDbEntity
  8
7_ALL_FEATURES
  6
Continuous
 62
     7
100
AcDbLine
 10
82.86399665332695
 20
184.9250876257425
 30
0.0
 11
108.8639966533269
 21
184.9250876257425
 31
0.0
  0
LINE
  5
2EE
330
220
100
AcDbEntity
  8
02___PRT_ALL_AXES
  6
Continuous
 62
     7
100
AcDbLine
 10
84.25294461259361
 20
185.1750876257425
 30
0.0
 11
108.3639966533269
 21
185.1750876257425
 31
0.0
  0
LINE
  5
2EF
330
220
100
AcDbEntity
  8
02___PRT_ALL_AXES
  6
Continuous
 62
     7
100
AcDbLine
 10
90.30387399632694
 20
182.9250876257425
 30
0.0
 11
90.30387399632694
 21
179.4250876257425
 31
0.0
  0
LINE
  5
2F0
330
220
100
AcDbEntity
  8
02___PRT_ALL_AXES
  6
Continuous
 62
     7
100
AcDbLine
 10
90.30387399632694
 20
169.7199255241425
 30
0.0
 11
90.30387399632694
 21
176.4250876257425
 31
0.0
  0
LINE
  5
2F1
330
220
100
AcDbEntity
  8
02___PRT_ALL_AXES
  6
Continuous
 62
     7
100
AcDbLine
 10
91.23207722666027
 20
176.4250876257425
 30
0.0
 11
91.23207722666027
 21
179.4250876257425
 31
0.0
  0
LINE
  5
2F2
330
220
100
AcDbEntity
  8
02___PRT_ALL_AXES
  6
Continuous
 62
     7
100
AcDbLine
 10
84.25294461259361
 20
187.1750876257425
 30
0.0
 11
108.3639966533269
 21
187.1750876257425
 31
0.0
  0
LINE
  5
2F3
330
220
100
AcDbEntity
  8
7_ALL_FEATURES
  6
Continuous
 62
     7
100
AcDbLine
 10
108.8639966533269
 20
187.4250876257425
 30
0.0
 11
82.86399665332695
 21
187.4250876257425
 31
0.0
  0
LINE
  5
2F4
330
220
100
AcDbEntity
  8
02___PRT_ALL_AXES
  6
Continuous
 62
     7
100
AcDbLine
 10
92.90195020772694
 20
170.4250876257425
 30
0.0
 11
92.90195020772694
 21
170.9250876257425
 31
0.0
  0
LINE
  5
2F5
330
220
100
AcDbEntity
  8
7_ALL_FEATURES
  6
Continuous
 62
     7
100
AcDbLine
 10
82.86399665332695
 20
189.9250876257425
 30
0.0
 11
83.46399665332694
 21
189.9250876257425
 31
0.0
  0
LINE
  5
2F6
330
220
100
AcDbEntity
  8
7_ALL_FEATURES
  6
Continuous
 62
     7
100
AcDbLine
 10
108.2639966533269
 20
189.9250876257425
 30
0.0
 11
108.8639966533269
 21
189.9250876257425
 31
0.0
  0
LINE
  5
2F7
330
220
100
AcDbEntity
  8
02___PRT_ALL_AXES
  6
Continuous
 62
     7
100
AcDbLine
 10
94.63400101526028
 20
170.4250876257425
 30
0.0
 11
94.63400101526028
 21
170.9250876257425
 31
0.0
  0
LINE
  5
2F8
330
220
100
AcDbEntity
  8
02___PRT_ALL_AXES
  6
Continuous
 62
     7
100
AcDbLine
 10
97.23207722666027
 20
182.9250876257425
 30
0.0
 11
97.23207722666027
 21
179.4250876257425
 31
0.0
  0
LINE
  5
2F9
330
220
100
AcDbEntity
  8
02___PRT_ALL_AXES
  6
Continuous
 62
     7
100
AcDbLine
 10
97.23207722666027
 20
176.4250876257425
 30
0.0
 11
97.23207722666027
 21
171.9250876257425
 31
0.0
  0
LINE
  5
2FA
330
220
100
AcDbEntity
  8
02___PRT_ALL_AXES
  6
Continuous
 62
     7
100
AcDbLine
 10
99.8301534379936
 20
170.4250876257425
 30
0.0
 11
99.8301534379936
 21
170.9250876257425
 31
0.0
  0
LINE
  5
2FB
330
220
100
AcDbEntity
  8
02___PRT_ALL_AXES
  6
Continuous
 62
     7
100
AcDbLine
 10
101.5622042455269
 20
170.4250876257425
 30
0.0
 11
101.5622042455269
 21
170.9250876257425
 31
0.0
  0
LINE
  5
2FC
330
220
100
AcDbEntity
  8
02___PRT_ALL_AXES
  6
Continuous
 62
     7
100
AcDbLine
 10
103.2320772266603
 20
176.4250876257425
 30
0.0
 11
103.2320772266603
 21
179.4250876257425
 31
0.0
  0
LINE
  5
2FD
330
220
100
AcDbEntity
  8
02___PRT_ALL_AXES
  6
Continuous
 62
     7
100
AcDbLine
 10
104.1602804569269
 20
182.9250876257425
 30
0.0
 11
104.1602804569269
 21
179.4250876257425
 31
0.0
  0
LINE
  5
2FE
330
220
100
AcDbEntity
  8
02___PRT_ALL_AXES
  6
Continuous
 62
     7
100
AcDbLine
 10
104.1602804569269
 20
169.7199255241425
 30
0.0
 11
104.1602804569269
 21
176.4250876257425
 31
0.0
  0
LINE
  5
2FF
330
220
100
AcDbEntity
  8
7_ALL_FEATURES
  6
Continuous
 62
     7
100
AcDbLine
 10
82.86399665332695
 20
199.9250876257425
 30
0.0
 11
83.46399665332694
 21
199.9250876257425
 31
0.0
  0
LINE
  5
300
330
220
100
AcDbEntity
  8
7_ALL_FEATURES
  6
Continuous
 62
     7
100
AcDbLine
 10
108.2639966533269
 20
199.9250876257425
 30
0.0
 11
108.8639966533269
 21
199.9250876257425
 31
0.0
  0
LINE
  5
301
330
220
100
AcDbEntity
  8
7_ALL_FEATURES
  6
Continuous
 62
     7
100
AcDbLine
 10
82.86399665332695
 20
202.9250876257425
 30
0.0
 11
108.8639966533269
 21
202.9250876257425
 31
0.0
  0
LINE
  5
302
330
220
100
AcDbEntity
  8
02___PRT_ALL_AXES
  6
Continuous
 62
     7
100
AcDbLine
 10
84.25294461259361
 20
203.1750876257425
 30
0.0
 11
108.3639966533269
 21
203.1750876257425
 31
0.0
  0
LINE
  5
303
330
220
100
AcDbEntity
  8
7_ALL_FEATURES
  6
Continuous
 62
     7
100
AcDbLine
 10
107.2639966533269
 20
205.4250876257425
 30
0.0
 11
107.2639966533269
 21
205.1750876257425
 31
0.0
  0
LINE
  5
304
330
220
100
AcDbEntity
  8
7_ALL_FEATURES
  6
Continuous
 62
     7
100
AcDbLine
 10
107.2639966533269
 20
203.1750876257425
 30
0.0
 11
107.2639966533269
 21
202.9250876257425
 31
0.0
  0
LINE
  5
305
330
220
100
AcDbEntity
  8
7_ALL_FEATURES
  6
Continuous
 62
     7
100
AcDbLine
 10
107.2639966533269
 20
187.4250876257425
 30
0.0
 11
107.2639966533269
 21
187.1750876257425
 31
0.0
  0
LINE
  5
306
330
220
100
AcDbEntity
  8
7_ALL_FEATURES
  6
Continuous
 62
     7
100
AcDbLine
 10
107.2639966533269
 20
185.1750876257425
 30
0.0
 11
107.2639966533269
 21
184.9250876257425
 31
0.0
  0
LINE
  5
307
330
220
100
AcDbEntity
  8
7_ALL_FEATURES
  6
Continuous
 62
     7
100
AcDbLine
 10
108.2639966533269
 20
189.9250876257425
 30
0.0
 11
108.2639966533269
 21
199.9250876257425
 31
0.0
  0
LINE
  5
308
330
220
100
AcDbEntity
  8
02___PRT_ALL_AXES
  6
Continuous
 62
     7
100
AcDbLine
 10
84.25294461259361
 20
205.1750876257425
 30
0.0
 11
108.3639966533269
 21
205.1750876257425
 31
0.0
  0
LINE
  5
309
330
220
100
AcDbEntity
  8
7_ALL_FEATURES
  6
Continuous
 62
     7
100
AcDbLine
 10
108.8639966533269
 20
205.4250876257425
 30
0.0
 11
82.86399665332695
 21
205.4250876257425
 31
0.0
  0
LINE
  5
30A
330
220
100
AcDbEntity
  8
7_ALL_FEATURES
  6
Continuous
 62
     7
100
AcDbLine
 10
108.8639966533269
 20
184.9250876257425
 30
0.0
 11
108.8639966533269
 21
182.9250876257425
 31
0.0
  0
LINE
  5
30B
330
220
100
AcDbEntity
  8
02___PRT_ALL_AXES
  6
Continuous
 62
     7
100
AcDbLine
 10
108.8639966533269
 20
182.9250876257425
 30
0.0
 11
108.8639966533269
 21
184.9250876257425
 31
0.0
  0
LINE
  5
30C
330
220
100
AcDbEntity
  8
02___PRT_ALL_AXES
  6
Continuous
 62
     7
100
AcDbLine
 10
108.8639966533269
 20
187.4250876257425
 30
0.0
 11
108.8639966533269
 21
189.9250876257425
 31
0.0
  0
LINE
  5
30D
330
220
100
AcDbEntity
  8
02___PRT_ALL_AXES
  6
Continuous
 62
     7
100
AcDbLine
 10
108.8639966533269
 20
199.9250876257425
 30
0.0
 11
108.8639966533269
 21
202.9250876257425
 31
0.0
  0
LINE
  5
30E
330
220
100
AcDbEntity
  8
02___PRT_ALL_AXES
  6
Continuous
 62
     7
100
AcDbLine
 10
108.8639966533269
 20
205.4250876257425
 30
0.0
 11
108.8639966533269
 21
217.4750876257425
 31
0.0
  0
LINE
  5
30F
330
220
100
AcDbEntity
  8
02___PRT_ALL_AXES
  6
Continuous
 62
     7
100
AcDbLine
 10
82.86399665332695
 20
209.4750876257425
 30
0.0
 11
108.8639966533269
 21
209.4750876257425
 31
0.0
  0
LINE
  5
310
330
220
100
AcDbEntity
  8
7_ALL_FEATURES
  6
Continuous
 62
     7
100
AcDbLine
 10
82.86399665332695
 20
209.4750876257425
 30
0.0
 11
108.8639966533269
 21
209.4750876257425
 31
0.0
  0
LINE
  5
311
330
220
100
AcDbEntity
  8
7_ALL_FEATURES
  6
Continuous
 62
     7
100
AcDbLine
 10
113.3639966533269
 20
217.9750876257425
 30
0.0
 11
113.3639966533269
 21
217.4750876257425
 31
0.0
  0
LINE
  5
312
330
220
100
AcDbEntity
  8
7_ALL_FEATURES
  6
Continuous
 62
     7
100
AcDbLine
 10
113.3639966533269
 20
217.4750876257425
 30
0.0
 11
78.36399665332695
 21
217.4750876257425
 31
0.0
  0
LINE
  5
313
330
220
100
AcDbEntity
  8
7_ALL_FEATURES
  6
Continuous
 62
     7
100
AcDbLine
 10
78.36399665332695
 20
217.9750876257425
 30
0.0
 11
113.3639966533269
 21
217.9750876257425
 31
0.0
  0
LINE
  5
314
102
{ACAD_REACTORS
330
4A4
102
}
330
220
100
AcDbEntity
  8
7_ALL_FEATURES
  6
Continuous
 62
     7
100
AcDbLine
 10
79.36399665332695
 20
218.9750876257425
 30
0.0
 11
112.3639966533269
 21
218.9750876257425
 31
0.0
  0
LINE
  5
315
330
220
100
AcDbEntity
  8
7_ALL_FEATURES
  6
Continuous
 62
     7
100
AcDbLine
 10
113.3639966533269
 20
217.9750876257425
 30
0.0
 11
112.3639966533269
 21
218.9750876257425
 31
0.0
  0
LINE
  5
316
330
220
100
AcDbEntity
  8
7_ALL_FEATURES
  6
Continuous
 62
     7
100
AcDbLine
 10
167.5741567491936
 20
217.9750876257425
 30
0.0
 11
168.5741567491936
 21
218.9750876257425
 31
0.0
  0
LINE
  5
317
330
220
100
AcDbEntity
  8
02___PRT_ALL_AXES
  6
Continuous
 62
     7
100
AcDbLine
 10
185.3329272323269
 20
166.9250876257425
 30
0.0
 11
192.3329272323269
 21
166.9250876257425
 31
0.0
  0
LINE
  5
318
330
220
100
AcDbEntity
  8
7_ALL_FEATURES
  6
Continuous
 62
     7
100
AcDbLine
 10
185.3329272323269
 20
166.9250876257425
 30
0.0
 11
192.3329272323269
 21
166.9250876257425
 31
0.0
  0
LINE
  5
319
330
220
100
AcDbEntity
  8
02___PRT_ALL_AXES
  6
Continuous
 62
     9
100
AcDbLine
 10
181.8329272323269
 20
170.4250876257425
 30
0.0
 11
182.3329272323269
 21
170.4250876257425
 31
0.0
  0
LINE
  5
31A
330
220
100
AcDbEntity
  8
02___PRT_ALL_AXES
  6
Continuous
 62
     9
100
AcDbLine
 10
183.3329272323269
 20
170.4250876257425
 30
0.0
 11
187.8329272323269
 21
170.4250876257425
 31
0.0
  0
LINE
  5
31B
330
220
100
AcDbEntity
  8
02___PRT_ALL_AXES
  6
Continuous
 62
     9
100
AcDbLine
 10
189.8329272323269
 20
170.4250876257425
 30
0.0
 11
194.3329272323269
 21
170.4250876257425
 31
0.0
  0
LINE
  5
31C
330
220
100
AcDbEntity
  8
02___PRT_ALL_AXES
  6
Continuous
 62
     9
100
AcDbLine
 10
195.3329272323269
 20
170.4250876257425
 30
0.0
 11
195.8329272323269
 21
170.4250876257425
 31
0.0
  0
LINE
  5
31D
330
220
100
AcDbEntity
  8
02___PRT_ALL_AXES
  6
Continuous
 62
     7
100
AcDbLine
 10
181.8329272323269
 20
170.9250876257425
 30
0.0
 11
182.3329272323269
 21
170.9250876257425
 31
0.0
  0
LINE
  5
31E
330
220
100
AcDbEntity
  8
02___PRT_ALL_AXES
  6
Continuous
 62
     7
100
AcDbLine
 10
183.3329272323269
 20
170.9250876257425
 30
0.0
 11
187.8329272323269
 21
170.9250876257425
 31
0.0
  0
LINE
  5
31F
330
220
100
AcDbEntity
  8
02___PRT_ALL_AXES
  6
Continuous
 62
     7
100
AcDbLine
 10
189.8329272323269
 20
170.9250876257425
 30
0.0
 11
194.3329272323269
 21
170.9250876257425
 31
0.0
  0
LINE
  5
320
330
220
100
AcDbEntity
  8
02___PRT_ALL_AXES
  6
Continuous
 62
     7
100
AcDbLine
 10
195.3329272323269
 20
170.9250876257425
 30
0.0
 11
195.8329272323269
 21
170.9250876257425
 31
0.0
  0
LINE
  5
321
330
220
100
AcDbEntity
  8
7_ALL_FEATURES
  6
Continuous
 62
     7
100
AcDbLine
 10
167.5741567491936
 20
217.9750876257425
 30
0.0
 11
167.5741567491936
 21
217.4750876257425
 31
0.0
  0
LINE
  5
322
330
220
100
AcDbEntity
  8
02___PRT_ALL_AXES
  6
Continuous
 62
     7
100
AcDbLine
 10
196.8329272323269
 20
176.4250876257425
 30
0.0
 11
180.8329272323269
 21
176.4250876257425
 31
0.0
  0
LINE
  5
323
330
220
100
AcDbEntity
  8
02___PRT_ALL_AXES
  6
Continuous
 62
     7
100
AcDbLine
 10
181.8329272323269
 20
170.9250876257425
 30
0.0
 11
180.8329272323269
 21
171.9250876257425
 31
0.0
  0
LINE
  5
324
330
220
100
AcDbEntity
  8
02___PRT_ALL_AXES
  6
Continuous
 62
     7
100
AcDbLine
 10
172.0741567491936
 20
182.9250876257425
 30
0.0
 11
172.0741567491936
 21
184.9250876257425
 31
0.0
  0
LINE
  5
325
330
220
100
AcDbEntity
  8
02___PRT_ALL_AXES
  6
Continuous
 62
     7
100
AcDbLine
 10
172.0741567491936
 20
187.4250876257425
 30
0.0
 11
172.0741567491936
 21
202.9250876257425
 31
0.0
  0
LINE
  5
326
330
220
100
AcDbEntity
  8
02___PRT_ALL_AXES
  6
Continuous
 62
     7
100
AcDbLine
 10
172.0741567491936
 20
205.4250876257425
 30
0.0
 11
172.0741567491936
 21
217.4750876257425
 31
0.0
  0
LINE
  5
327
330
220
100
AcDbEntity
  8
02___PRT_ALL_AXES
  6
Continuous
 62
     7
100
AcDbLine
 10
196.8329272323269
 20
179.4250876257425
 30
0.0
 11
180.8329272323269
 21
179.4250876257425
 31
0.0
  0
LINE
  5
328
330
220
100
AcDbEntity
  8
7_ALL_FEATURES
  6
Continuous
 62
     7
100
AcDbLine
 10
173.6741567491936
 20
205.4250876257425
 30
0.0
 11
173.6741567491936
 21
205.1750876257425
 31
0.0
  0
LINE
  5
329
330
220
100
AcDbEntity
  8
7_ALL_FEATURES
  6
Continuous
 62
     7
100
AcDbLine
 10
173.6741567491936
 20
203.1750876257425
 30
0.0
 11
173.6741567491936
 21
202.9250876257425
 31
0.0
  0
LINE
  5
32A
330
220
100
AcDbEntity
  8
7_ALL_FEATURES
  6
Continuous
 62
     7
100
AcDbLine
 10
173.6741567491936
 20
187.4250876257425
 30
0.0
 11
173.6741567491936
 21
187.1750876257425
 31
0.0
  0
LINE
  5
32B
330
220
100
AcDbEntity
  8
7_ALL_FEATURES
  6
Continuous
 62
     7
100
AcDbLine
 10
173.6741567491936
 20
185.1750876257425
 30
0.0
 11
173.6741567491936
 21
184.9250876257425
 31
0.0
  0
LINE
  5
32C
330
220
100
AcDbEntity
  8
02___PRT_ALL_AXES
  6
Continuous
 62
     7
100
AcDbLine
 10
172.0741567491936
 20
182.9250876257425
 30
0.0
 11
198.0741567491936
 21
182.9250876257425
 31
0.0
  0
LINE
  5
32D
330
220
100
AcDbEntity
  8
7_ALL_FEATURES
  6
Continuous
 62
     7
100
AcDbLine
 10
172.0741567491936
 20
184.9250876257425
 30
0.0
 11
198.0741567491936
 21
184.9250876257425
 31
0.0
  0
LINE
  5
32E
330
220
100
AcDbEntity
  8
02___PRT_ALL_AXES
  6
Continuous
 62
     7
100
AcDbLine
 10
172.5907905827936
 20
185.1750876257425
 30
0.0
 11
180.4445271195936
 21
185.1750876257425
 31
0.0
  0
LINE
  5
32F
330
220
100
AcDbEntity
  8
02___PRT_ALL_AXES
  6
Continuous
 62
     7
100
AcDbLine
 10
189.7037863788603
 20
185.1750876257425
 30
0.0
 11
197.5713271621269
 21
185.1750876257425
 31
0.0
  0
LINE
  5
330
330
220
100
AcDbEntity
  8
02___PRT_ALL_AXES
  6
Continuous
 62
     7
100
AcDbLine
 10
180.8329272323269
 20
182.9250876257425
 30
0.0
 11
180.8329272323269
 21
179.4250876257425
 31
0.0
  0
LINE
  5
331
330
220
100
AcDbEntity
  8
02___PRT_ALL_AXES
  6
Continuous
 62
     7
100
AcDbLine
 10
180.8329272323269
 20
176.4250876257425
 30
0.0
 11
180.8329272323269
 21
171.9250876257425
 31
0.0
  0
LINE
  5
332
330
220
100
AcDbEntity
  8
7_ALL_FEATURES
  6
Continuous
 62
     7
100
AcDbLine
 10
181.1703124899936
 20
189.9250876257425
 30
0.0
 11
181.1703124899936
 21
199.9250876257425
 31
0.0
  0
LINE
  5
333
330
220
100
AcDbEntity
  8
02___PRT_ALL_AXES
  6
Continuous
 62
     7
100
AcDbLine
 10
172.5907905827936
 20
187.1750876257425
 30
0.0
 11
180.4445271195936
 21
187.1750876257425
 31
0.0
  0
LINE
  5
334
330
220
100
AcDbEntity
  8
02___PRT_ALL_AXES
  6
Continuous
 62
     7
100
AcDbLine
 10
189.7037863788603
 20
187.1750876257425
 30
0.0
 11
197.5713271621269
 21
187.1750876257425
 31
0.0
  0
LINE
  5
335
330
220
100
AcDbEntity
  8
7_ALL_FEATURES
  6
Continuous
 62
     7
100
AcDbLine
 10
198.0741567491936
 20
187.4250876257425
 30
0.0
 11
172.0741567491936
 21
187.4250876257425
 31
0.0
  0
LINE
  5
336
330
220
100
AcDbEntity
  8
02___PRT_ALL_AXES
  6
Continuous
 62
     7
100
AcDbLine
 10
181.8329272323269
 20
170.4250876257425
 30
0.0
 11
181.8329272323269
 21
170.9250876257425
 31
0.0
  0
LINE
  5
337
330
220
100
AcDbEntity
  8
02___PRT_ALL_AXES
  6
Continuous
 62
     7
100
AcDbLine
 10
182.3329272323269
 20
170.4250876257425
 30
0.0
 11
182.3329272323269
 21
170.9250876257425
 31
0.0
  0
LINE
  5
338
330
220
100
AcDbEntity
  8
02___PRT_ALL_AXES
  6
Continuous
 62
     7
100
AcDbLine
 10
182.8329272323269
 20
179.4250876257425
 30
0.0
 11
182.8329272323269
 21
176.4250876257425
 31
0.0
  0
LINE
  5
339
330
220
100
AcDbEntity
  8
7_ALL_FEATURES
  6
Continuous
 62
     7
100
AcDbLine
 10
181.1703124899936
 20
189.9250876257425
 30
0.0
 11
188.9780010083936
 21
189.9250876257425
 31
0.0
  0
LINE
  5
33A
330
220
100
AcDbEntity
  8
02___PRT_ALL_AXES
  6
Continuous
 62
     7
100
AcDbLine
 10
183.3329272323269
 20
170.4250876257425
 30
0.0
 11
183.3329272323269
 21
170.9250876257425
 31
0.0
  0
LINE
  5
33B
330
220
100
AcDbEntity
  8
02___PRT_ALL_AXES
  6
Continuous
 62
     7
100
AcDbLine
 10
184.8329272323269
 20
182.9250876257425
 30
0.0
 11
184.8329272323269
 21
179.4250876257425
 31
0.0
  0
LINE
  5
33C
330
220
100
AcDbEntity
  8
02___PRT_ALL_AXES
  6
Continuous
 62
     7
100
AcDbLine
 10
184.8329272323269
 20
176.4250876257425
 30
0.0
 11
184.8329272323269
 21
171.9250876257425
 31
0.0
  0
LINE
  5
33D
330
220
100
AcDbEntity
  8
02___PRT_ALL_AXES
  6
Continuous
 62
     7
100
AcDbLine
 10
187.8329272323269
 20
170.4250876257425
 30
0.0
 11
187.8329272323269
 21
170.9250876257425
 31
0.0
  0
LINE
  5
33E
330
220
100
AcDbEntity
  8
7_ALL_FEATURES
  6
Continuous
 62
     7
100
AcDbLine
 10
188.9780010083936
 20
189.9250876257425
 30
0.0
 11
188.9780010083936
 21
199.9250876257425
 31
0.0
  0
LINE
  5
33F
330
220
100
AcDbEntity
  8
02___PRT_ALL_AXES
  6
Continuous
 62
     7
100
AcDbLine
 10
189.8329272323269
 20
170.4250876257425
 30
0.0
 11
189.8329272323269
 21
170.9250876257425
 31
0.0
  0
LINE
  5
340
330
220
100
AcDbEntity
  8
02___PRT_ALL_AXES
  6
Continuous
 62
     7
100
AcDbLine
 10
192.8329272323269
 20
182.9250876257425
 30
0.0
 11
192.8329272323269
 21
179.4250876257425
 31
0.0
  0
LINE
  5
341
330
220
100
AcDbEntity
  8
02___PRT_ALL_AXES
  6
Continuous
 62
     7
100
AcDbLine
 10
192.8329272323269
 20
176.4250876257425
 30
0.0
 11
192.8329272323269
 21
171.9250876257425
 31
0.0
  0
LINE
  5
342
330
220
100
AcDbEntity
  8
7_ALL_FEATURES
  6
Continuous
 62
     7
100
AcDbLine
 10
181.1703124899936
 20
199.9250876257425
 30
0.0
 11
188.9780010083936
 21
199.9250876257425
 31
0.0
  0
LINE
  5
343
330
220
100
AcDbEntity
  8
02___PRT_ALL_AXES
  6
Continuous
 62
     7
100
AcDbLine
 10
194.3329272323269
 20
170.4250876257425
 30
0.0
 11
194.3329272323269
 21
170.9250876257425
 31
0.0
  0
LINE
  5
344
330
220
100
AcDbEntity
  8
02___PRT_ALL_AXES
  6
Continuous
 62
     7
100
AcDbLine
 10
194.8329272323269
 20
179.4250876257425
 30
0.0
 11
194.8329272323269
 21
176.4250876257425
 31
0.0
  0
LINE
  5
345
330
220
100
AcDbEntity
  8
02___PRT_ALL_AXES
  6
Continuous
 62
     7
100
AcDbLine
 10
195.3329272323269
 20
170.4250876257425
 30
0.0
 11
195.3329272323269
 21
170.9250876257425
 31
0.0
  0
LINE
  5
346
330
220
100
AcDbEntity
  8
7_ALL_FEATURES
  6
Continuous
 62
     7
100
AcDbLine
 10
172.0741567491936
 20
202.9250876257425
 30
0.0
 11
198.0741567491936
 21
202.9250876257425
 31
0.0
  0
LINE
  5
347
330
220
100
AcDbEntity
  8
02___PRT_ALL_AXES
  6
Continuous
 62
     7
100
AcDbLine
 10
172.5907905827936
 20
203.1750876257425
 30
0.0
 11
180.4445271195936
 21
203.1750876257425
 31
0.0
  0
LINE
  5
348
330
220
100
AcDbEntity
  8
02___PRT_ALL_AXES
  6
Continuous
 62
     7
100
AcDbLine
 10
189.7037863788603
 20
203.1750876257425
 30
0.0
 11
197.5713271621269
 21
203.1750876257425
 31
0.0
  0
LINE
  5
349
330
220
100
AcDbEntity
  8
02___PRT_ALL_AXES
  6
Continuous
 62
     7
100
AcDbLine
 10
195.8329272323269
 20
170.4250876257425
 30
0.0
 11
195.8329272323269
 21
170.9250876257425
 31
0.0
  0
LINE
  5
34A
330
220
100
AcDbEntity
  8
7_ALL_FEATURES
  6
Continuous
 62
     7
100
AcDbLine
 10
196.4741567491936
 20
205.4250876257425
 30
0.0
 11
196.4741567491936
 21
205.1750876257425
 31
0.0
  0
LINE
  5
34B
330
220
100
AcDbEntity
  8
7_ALL_FEATURES
  6
Continuous
 62
     7
100
AcDbLine
 10
196.4741567491936
 20
203.1750876257425
 30
0.0
 11
196.4741567491936
 21
202.9250876257425
 31
0.0
  0
LINE
  5
34C
330
220
100
AcDbEntity
  8
7_ALL_FEATURES
  6
Continuous
 62
     7
100
AcDbLine
 10
196.4741567491936
 20
187.4250876257425
 30
0.0
 11
196.4741567491936
 21
187.1750876257425
 31
0.0
  0
LINE
  5
34D
330
220
100
AcDbEntity
  8
7_ALL_FEATURES
  6
Continuous
 62
     7
100
AcDbLine
 10
196.4741567491936
 20
185.1750876257425
 30
0.0
 11
196.4741567491936
 21
184.9250876257425
 31
0.0
  0
LINE
  5
34E
330
220
100
AcDbEntity
  8
02___PRT_ALL_AXES
  6
Continuous
 62
     7
100
AcDbLine
 10
196.8329272323269
 20
182.9250876257425
 30
0.0
 11
196.8329272323269
 21
179.4250876257425
 31
0.0
  0
LINE
  5
34F
330
220
100
AcDbEntity
  8
02___PRT_ALL_AXES
  6
Continuous
 62
     7
100
AcDbLine
 10
196.8329272323269
 20
176.4250876257425
 30
0.0
 11
196.8329272323269
 21
171.9250876257425
 31
0.0
  0
LINE
  5
350
330
220
100
AcDbEntity
  8
02___PRT_ALL_AXES
  6
Continuous
 62
     7
100
AcDbLine
 10
172.5907905827936
 20
205.1750876257425
 30
0.0
 11
180.4445271195936
 21
205.1750876257425
 31
0.0
  0
LINE
  5
351
330
220
100
AcDbEntity
  8
02___PRT_ALL_AXES
  6
Continuous
 62
     7
100
AcDbLine
 10
189.7037863788603
 20
205.1750876257425
 30
0.0
 11
197.5713271621269
 21
205.1750876257425
 31
0.0
  0
LINE
  5
352
330
220
100
AcDbEntity
  8
7_ALL_FEATURES
  6
Continuous
 62
     7
100
AcDbLine
 10
198.0741567491936
 20
205.4250876257425
 30
0.0
 11
172.0741567491936
 21
205.4250876257425
 31
0.0
  0
LINE
  5
353
330
220
100
AcDbEntity
  8
02___PRT_ALL_AXES
  6
Continuous
 62
     7
100
AcDbLine
 10
198.0741567491936
 20
182.9250876257425
 30
0.0
 11
198.0741567491936
 21
184.9250876257425
 31
0.0
  0
LINE
  5
354
330
220
100
AcDbEntity
  8
02___PRT_ALL_AXES
  6
Continuous
 62
     7
100
AcDbLine
 10
198.0741567491936
 20
187.4250876257425
 30
0.0
 11
198.0741567491936
 21
202.9250876257425
 31
0.0
  0
LINE
  5
355
330
220
100
AcDbEntity
  8
02___PRT_ALL_AXES
  6
Continuous
 62
     7
100
AcDbLine
 10
198.0741567491936
 20
205.4250876257425
 30
0.0
 11
198.0741567491936
 21
217.4750876257425
 31
0.0
  0
LINE
  5
356
330
220
100
AcDbEntity
  8
02___PRT_ALL_AXES
  6
Continuous
 62
     7
100
AcDbLine
 10
172.0741888588603
 20
209.4750876257425
 30
0.0
 11
198.0741246395269
 21
209.4750876257425
 31
0.0
  0
LINE
  5
357
330
220
100
AcDbEntity
  8
7_ALL_FEATURES
  6
Continuous
 62
     7
100
AcDbLine
 10
172.0741567491936
 20
209.4750876257425
 30
0.0
 11
198.0741567491936
 21
209.4750876257425
 31
0.0
  0
LINE
  5
358
330
220
100
AcDbEntity
  8
7_ALL_FEATURES
  6
Continuous
 62
     7
100
AcDbLine
 10
202.5741567491936
 20
217.9750876257425
 30
0.0
 11
202.5741567491936
 21
217.4750876257425
 31
0.0
  0
LINE
  5
359
330
220
100
AcDbEntity
  8
02___PRT_ALL_AXES
  6
Continuous
 62
     7
100
AcDbLine
 10
195.8329272323269
 20
170.9250876257425
 30
0.0
 11
196.8329272323269
 21
171.9250876257425
 31
0.0
  0
LINE
  5
35A
330
220
100
AcDbEntity
  8
7_ALL_FEATURES
  6
Continuous
 62
     7
100
AcDbLine
 10
202.5741567491936
 20
217.4750876257425
 30
0.0
 11
167.5741567491936
 21
217.4750876257425
 31
0.0
  0
LINE
  5
35B
330
220
100
AcDbEntity
  8
7_ALL_FEATURES
  6
Continuous
 62
     7
100
AcDbLine
 10
167.5741567491936
 20
217.9750876257425
 30
0.0
 11
202.5741567491936
 21
217.9750876257425
 31
0.0
  0
LINE
  5
35C
330
220
100
AcDbEntity
  8
7_ALL_FEATURES
  6
Continuous
 62
     7
100
AcDbLine
 10
168.5741567491936
 20
218.9750876257425
 30
0.0
 11
201.5741567491936
 21
218.9750876257425
 31
0.0
  0
LINE
  5
35D
330
220
100
AcDbEntity
  8
7_ALL_FEATURES
  6
Continuous
 62
     7
100
AcDbLine
 10
202.5741567491936
 20
217.9750876257425
 30
0.0
 11
201.5741567491936
 21
218.9750876257425
 31
0.0
  0
LINE
  5
35E
330
220
100
AcDbEntity
  8
7_ALL_FEATURES
  6
Continuous
 62
     7
100
AcDbLine
 10
312.1026548891
 20
143.4152391106
 30
0.0
 11
314.0057664273
 21
145.0617036315
 31
0.0
  0
LINE
  5
35F
330
220
100
AcDbEntity
  8
7_ALL_FEATURES
  6
Continuous
 62
     7
100
AcDbLine
 10
348.4377265243
 20
162.5161748526
 30
0.0
 11
314.0057664273
 21
145.0617036315
 31
0.0
  0
LINE
  5
360
330
220
100
AcDbEntity
  8
02___PRT_ALL_AXES
  6
Continuous
 62
     7
100
AcDbLine
 10
371.0585164382
 20
88.4424498205
 30
0.0
 11
359.5934608257
 21
85.8240871779
 31
0.0
  0
LINE
  5
361
330
220
100
AcDbEntity
  8
02___PRT_ALL_AXES
  6
Continuous
 62
     7
100
AcDbLine
 10
370.4605088157
 20
92.5796677422
 30
0.0
 11
358.9954532032
 21
89.9613050997
 31
0.0
  0
LINE
  5
362
330
220
100
AcDbEntity
  8
7_ALL_FEATURES
  6
Continuous
 62
     7
100
AcDbLine
 10
312.1026548891
 20
143.4152391106
 30
0.0
 11
312.2023228262
 21
142.7257027903
 31
0.0
  0
LINE
  5
363
330
220
100
AcDbEntity
  8
02___PRT_ALL_AXES
  6
Continuous
 62
     7
100
AcDbLine
 10
359.5934608257
 20
85.8240871779
 30
0.0
 11
351.1210233683
 21
87.9163390986
 31
0.0
  0
LINE
  5
364
330
220
100
AcDbEntity
  8
02___PRT_ALL_AXES
  6
Continuous
 62
     7
100
AcDbLine
 10
354.3731493703
 20
80.0386866153
 30
0.0
 11
353.8751993901
 21
80.3523242671
 31
0.0
  0
LINE
  5
365
330
220
100
AcDbEntity
  8
02___PRT_ALL_AXES
  6
Continuous
 62
     7
100
AcDbLine
 10
358.9954532032
 20
89.9613050997
 30
0.0
 11
350.5230157459
 21
92.0535570203
 31
0.0
  0
LINE
  5
366
330
220
100
AcDbEntity
  8
02___PRT_ALL_AXES
  6
Continuous
 62
     7
100
AcDbLine
 10
371.2623065912
 20
93.8417600246
 30
0.0
 11
374.0511345935
 21
93.1530643838
 31
0.0
  0
LINE
  5
367
330
220
100
AcDbEntity
  8
7_ALL_FEATURES
  6
Continuous
 62
     7
100
AcDbLine
 10
348.9545709388
 20
136.4311644587
 30
0.0
 11
383.3865310357
 21
153.8856356798
 31
0.0
  0
LINE
  5
368
330
220
100
AcDbEntity
  8
7_ALL_FEATURES
  6
Continuous
 62
     7
100
AcDbLine
 10
345.6831705624
 20
101.8319814483
 30
0.0
 11
337.4144014801
 21
103.8739378607
 31
0.0
  0
LINE
  5
369
330
220
100
AcDbEntity
  8
02___PRT_ALL_AXES
  6
Continuous
 62
     7
100
AcDbLine
 10
336.5827743985
 20
96.9684949953
 30
0.0
 11
336.2804572876
 21
99.0600264777
 31
0.0
  0
LINE
  5
36A
330
220
100
AcDbEntity
  8
02___PRT_ALL_AXES
  6
Continuous
 62
     7
100
AcDbLine
 10
335.6857629647
 20
103.174321878
 30
0.0
 11
332.6924115527
 21
123.8833340082
 31
0.0
  0
LINE
  5
36B
330
220
100
AcDbEntity
  8
02___PRT_ALL_AXES
  6
Continuous
 62
     7
100
AcDbLine
 10
332.0977172299
 20
127.9976294085
 30
0.0
 11
330.6265175424
 21
138.1758838066
 31
0.0
  0
LINE
  5
36C
330
220
100
AcDbEntity
  8
7_ALL_FEATURES
  6
Continuous
 62
     7
100
AcDbLine
 10
349.1695687649
 20
134.2616369577
 30
0.0
 11
385.6883143223
 21
152.7739549195
 31
0.0
  0
LINE
  5
36D
330
220
100
AcDbEntity
  8
7_ALL_FEATURES
  6
Continuous
 62
     7
100
AcDbLine
 10
385.7879822593
 20
152.0844185992
 30
0.0
 11
349.269236702
 21
133.5721006374
 31
0.0
  0
LINE
  5
36E
330
220
100
AcDbEntity
  8
7_ALL_FEATURES
  6
Continuous
 62
     7
100
AcDbLine
 10
337.4144014801
 20
103.8739378607
 30
0.0
 11
335.4210427385
 21
117.6646642665
 31
0.0
  0
LINE
  5
36F
330
220
100
AcDbEntity
  8
02___PRT_ALL_AXES
  6
Continuous
 62
     7
100
AcDbLine
 10
334.3919611779
 20
146.2026713255
 30
0.0
 11
334.2415078715
 21
147.2435579161
 31
0.0
  0
LINE
  5
370
330
220
100
AcDbEntity
  8
7_ALL_FEATURES
  6
Continuous
 62
     7
100
AcDbLine
 10
345.6831705624
 20
101.8319814483
 30
0.0
 11
343.6898118208
 21
115.6227078542
 31
0.0
  0
LINE
  5
371
330
220
100
AcDbEntity
  8
02___PRT_ALL_AXES
  6
Continuous
 62
     7
100
AcDbLine
 10
350.514560191
 20
92.1120553938
 30
0.0
 11
350.5230157459
 21
92.0535570203
 31
0.0
  0
LINE
  5
372
330
220
100
AcDbEntity
  8
02___PRT_ALL_AXES
  6
Continuous
 62
     7
100
AcDbLine
 10
351.1210233683
 20
87.9163390986
 30
0.0
 11
352.0180348021
 21
81.7105122159
 31
0.0
  0
LINE
  5
373
330
220
100
AcDbEntity
  8
02___PRT_ALL_AXES
  6
Continuous
 62
     7
100
AcDbLine
 10
353.6786485517
 20
89.2471912948
 30
0.0
 11
353.3748005013
 21
91.349314332
 31
0.0
  0
LINE
  5
374
330
220
100
AcDbEntity
  8
7_ALL_FEATURES
  6
Continuous
 62
     7
100
AcDbLine
 10
349.1695687649
 20
134.2616369577
 30
0.0
 11
348.9545709388
 21
136.4311644587
 31
0.0
  0
LINE
  5
375
330
220
100
AcDbEntity
  8
02___PRT_ALL_AXES
  6
Continuous
 62
     7
100
AcDbLine
 10
355.4942026598
 20
78.8573087848
 30
0.0
 11
355.3945347227
 21
79.5468451051
 31
0.0
  0
LINE
  5
376
330
220
100
AcDbEntity
  8
7_ALL_FEATURES
  6
Continuous
 62
     7
100
AcDbLine
 10
349.1695687649
 20
134.2616369577
 30
0.0
 11
349.269236702
 21
133.5721006374
 31
0.0
  0
LINE
  5
377
330
220
100
AcDbEntity
  8
02___PRT_ALL_AXES
  6
Continuous
 62
     7
100
AcDbLine
 10
357.6123120241
 20
78.3342458046
 30
0.0
 11
357.5126440871
 21
79.0237821249
 31
0.0
  0
LINE
  5
378
330
220
100
AcDbEntity
  8
02___PRT_ALL_AXES
  6
Continuous
 62
     7
100
AcDbLine
 10
358.571054628
 20
92.8974372242
 30
0.0
 11
358.9954532032
 21
89.9613050997
 31
0.0
  0
LINE
  5
379
330
220
100
AcDbEntity
  8
02___PRT_ALL_AXES
  6
Continuous
 62
     7
100
AcDbLine
 10
359.5934608257
 20
85.8240871779
 30
0.0
 11
360.4904722594
 21
79.6182602953
 31
0.0
  0
LINE
  5
37A
330
220
100
AcDbEntity
  8
02___PRT_ALL_AXES
  6
Continuous
 62
     7
100
AcDbLine
 10
365.0888719253
 20
78.5315373254
 30
0.0
 11
364.9892039883
 21
79.2210736457
 31
0.0
  0
LINE
  5
37B
330
220
100
AcDbEntity
  8
7_ALL_FEATURES
  6
Continuous
 62
     7
100
AcDbLine
 10
349.269236702
 20
133.5721006374
 30
0.0
 11
312.2023228262
 21
142.7257027903
 31
0.0
  0
LINE
  5
37C
330
220
100
AcDbEntity
  8
7_ALL_FEATURES
  6
Continuous
 62
     7
100
AcDbLine
 10
312.1026548891
 20
143.4152391106
 30
0.0
 11
349.1695687649
 21
134.2616369577
 31
0.0
  0
LINE
  5
37D
330
220
100
AcDbEntity
  8
02___PRT_ALL_AXES
  6
Continuous
 62
     7
100
AcDbLine
 10
367.9551358285
 20
79.186127986
 30
0.0
 11
367.8554678914
 21
79.8756643063
 31
0.0
  0
LINE
  5
37E
330
220
100
AcDbEntity
  8
02___PRT_ALL_AXES
  6
Continuous
 62
     7
100
AcDbLine
 10
351.1210233683
 20
87.9163390986
 30
0.0
 11
353.3118437481
 21
91.3648613795
 31
0.0
  0
LINE
  5
37F
330
220
100
AcDbEntity
  8
7_ALL_FEATURES
  6
Continuous
 62
     7
100
AcDbLine
 10
314.0057664273
 20
145.0617036315
 30
0.0
 11
348.9545709388
 21
136.4311644587
 31
0.0
  0
LINE
  5
380
330
220
100
AcDbEntity
  8
02___PRT_ALL_AXES
  6
Continuous
 62
     7
100
AcDbLine
 10
369.8943526594
 20
96.4965265057
 30
0.0
 11
370.4605088157
 21
92.5796677422
 31
0.0
  0
LINE
  5
381
330
220
100
AcDbEntity
  8
02___PRT_ALL_AXES
  6
Continuous
 62
     7
100
AcDbLine
 10
371.0585164382
 20
88.4424498205
 30
0.0
 11
371.9555278719
 21
82.2366229379
 31
0.0
  0
LINE
  5
382
330
220
100
AcDbEntity
  8
02___PRT_ALL_AXES
  6
Continuous
 62
     7
100
AcDbLine
 10
371.4935094101
 20
91.8222121876
 30
0.0
 11
371.2128496373
 21
93.7639109188
 31
0.0
  0
LINE
  5
383
330
220
100
AcDbEntity
  8
02___PRT_ALL_AXES
  6
Continuous
 62
     7
100
AcDbLine
 10
363.3428700933
 20
150.3749038613
 30
0.0
 11
363.1906567663
 21
151.427966867
 31
0.0
  0
LINE
  5
384
330
220
100
AcDbEntity
  8
02___PRT_ALL_AXES
  6
Continuous
 62
     7
100
AcDbLine
 10
373.3767634914
 20
81.9344944382
 30
0.0
 11
373.2770955543
 21
82.6240307585
 31
0.0
  0
LINE
  5
385
330
220
100
AcDbEntity
  8
02___PRT_ALL_AXES
  6
Continuous
 62
     7
100
AcDbLine
 10
374.1249180302
 20
83.112148079
 30
0.0
 11
374.0252500931
 21
83.8016843993
 31
0.0
  0
LINE
  5
386
330
220
100
AcDbEntity
  8
02___PRT_ALL_AXES
  6
Continuous
 62
     7
100
AcDbLine
 10
374.1740963932
 20
83.7623614185
 30
0.0
 11
374.1299409319
 21
84.067843755
 31
0.0
  0
LINE
  5
387
330
220
100
AcDbEntity
  8
02___PRT_ALL_AXES
  6
Continuous
 62
     7
100
AcDbLine
 10
373.2420761441
 20
98.7504029301
 30
0.0
 11
373.453126971
 21
97.2902823055
 31
0.0
  0
LINE
  5
388
330
220
100
AcDbEntity
  8
02___PRT_ALL_AXES
  6
Continuous
 62
     7
100
AcDbLine
 10
374.0511345935
 20
93.1530643838
 30
0.0
 11
374.9481460272
 21
86.9472375011
 31
0.0
  0
LINE
  5
389
330
220
100
AcDbEntity
  8
02___PRT_ALL_AXES
  6
Continuous
 62
     7
100
AcDbLine
 10
375.1816395915
 20
102.5477069298
 30
0.0
 11
374.8730306355
 21
104.6827675138
 31
0.0
  0
LINE
  5
38A
330
220
100
AcDbEntity
  8
02___PRT_ALL_AXES
  6
Continuous
 62
     7
100
AcDbLine
 10
374.2846281578
 20
108.7535338124
 30
0.0
 11
371.2849849006
 21
129.5060750443
 31
0.0
  0
LINE
  5
38B
330
220
100
AcDbEntity
  8
02___PRT_ALL_AXES
  6
Continuous
 62
     7
100
AcDbLine
 10
370.6965824229
 20
133.5768413429
 30
0.0
 11
369.2343651627
 21
143.6929522869
 31
0.0
  0
LINE
  5
38C
330
220
100
AcDbEntity
  8
02___PRT_ALL_AXES
  6
Continuous
 62
     9
100
AcDbLine
 10
374.1740963932
 20
83.7623614185
 30
0.0
 11
374.1249180302
 21
83.112148079
 31
0.0
  0
LINE
  5
38D
330
220
100
AcDbEntity
  8
02___PRT_ALL_AXES
  6
Continuous
 62
     7
100
AcDbLine
 10
373.453126971
 20
97.2902823055
 30
0.0
 11
370.4605088157
 21
92.5796677422
 31
0.0
  0
LINE
  5
38E
330
220
100
AcDbEntity
  8
02___PRT_ALL_AXES
  6
Continuous
 62
     7
100
AcDbLine
 10
374.0511345935
 20
93.1530643838
 30
0.0
 11
371.0585164382
 21
88.4424498205
 31
0.0
  0
LINE
  5
38F
330
220
100
AcDbEntity
  8
7_ALL_FEATURES
  6
Continuous
 62
     7
100
AcDbLine
 10
383.3865310357
 20
153.8856356798
 30
0.0
 11
348.4377265243
 21
162.5161748526
 31
0.0
  0
LINE
  5
390
330
220
100
AcDbEntity
  8
7_ALL_FEATURES
  6
Continuous
 62
     7
100
AcDbLine
 10
385.6883143223
 20
152.7739549195
 30
0.0
 11
385.7879822593
 21
152.0844185992
 31
0.0
  0
LINE
  5
391
330
220
100
AcDbEntity
  8
7_ALL_FEATURES
  6
Continuous
 62
     7
100
AcDbLine
 10
385.6883143223
 20
152.7739549195
 30
0.0
 11
383.3865310357
 21
153.8856356798
 31
0.0
  0
CIRCLE
  5
392
330
220
100
AcDbEntity
  8
02___PRT_ALL_AXES
  6
Continuous
 62
     7
100
AcDbCircle
 10
95.86399665332694
 20
99.13167603480915
 30
0.0
 40
10.0
  0
CIRCLE
  5
393
330
220
100
AcDbEntity
  8
7_ALL_FEATURES
  6
Continuous
 62
     7
100
AcDbCircle
 10
95.86399665332694
 20
99.13167603480915
 30
0.0
 40
9.75
  0
CIRCLE
  5
394
330
220
100
AcDbEntity
  8
7_ALL_FEATURES
  6
Continuous
 62
     7
100
AcDbCircle
 10
95.86399665332694
 20
99.13167603480915
 30
0.0
 40
9.649999999999999
  0
ARC
  5
395
330
220
100
AcDbEntity
  8
02___PRT_ALL_AXES
  6
Continuous
 62
     7
100
AcDbCircle
 10
100.7320772266603
 20
170.4250876257425
 30
0.0
 40
3.5
100
AcDbArc
 50
270.0
 51
348.4316348940999
  0
ARC
  5
396
330
220
100
AcDbEntity
  8
02___PRT_ALL_AXES
  6
Continuous
 62
     7
100
AcDbCircle
 10
93.73207722666027
 20
170.4250876257425
 30
0.0
 40
3.5
100
AcDbArc
 50
191.5683651059001
 51
270.0
  0
ARC
  5
397
330
220
100
AcDbEntity
  8
02___PRT_ALL_AXES
  6
Continuous
 62
     7
100
AcDbCircle
 10
108.3639966533269
 20
186.1750876257425
 30
0.0
 40
1.0
100
AcDbArc
 50
270.0
 51
90.0
  0
ARC
  5
398
330
220
100
AcDbEntity
  8
02___PRT_ALL_AXES
  6
Continuous
 62
     7
100
AcDbCircle
 10
108.3639966533269
 20
204.1750876257425
 30
0.0
 40
1.0
100
AcDbArc
 50
270.0
 51
90.0
  0
ARC
  5
399
330
220
100
AcDbEntity
  8
02___PRT_ALL_AXES
  6
Continuous
 62
     7
100
AcDbCircle
 10
192.3329272323269
 20
170.4250876257425
 30
0.0
 40
3.5
100
AcDbArc
 50
270.0
 51
0.0
  0
ARC
  5
39A
330
220
100
AcDbEntity
  8
02___PRT_ALL_AXES
  6
Continuous
 62
     7
100
AcDbCircle
 10
185.3329272323269
 20
170.4250876257425
 30
0.0
 40
3.5
100
AcDbArc
 50
180.0
 51
270.0
  0
ARC
  5
39B
330
220
100
AcDbEntity
  8
7_ALL_FEATURES
  6
Continuous
 62
     7
100
AcDbCircle
 10
185.3329272323269
 20
170.4250876257425
 30
0.0
 40
3.5
100
AcDbArc
 50
180.0
 51
270.0
  0
ARC
  5
39C
330
220
100
AcDbEntity
  8
7_ALL_FEATURES
  6
Continuous
 62
     7
100
AcDbCircle
 10
192.3329272323269
 20
170.4250876257425
 30
0.0
 40
3.5
100
AcDbArc
 50
270.0
 51
0.0
  0
ARC
  5
39D
330
220
100
AcDbEntity
  8
02___PRT_ALL_AXES
  6
Continuous
 62
     7
100
AcDbCircle
 10
197.5741567491936
 20
186.1750876257425
 30
0.0
 40
1.0
100
AcDbArc
 50
270.0
 51
90.0
  0
ARC
  5
39E
330
220
100
AcDbEntity
  8
02___PRT_ALL_AXES
  6
Continuous
 62
     7
100
AcDbCircle
 10
172.5741567491936
 20
186.1750876257425
 30
0.0
 40
1.0
100
AcDbArc
 50
90.0
 51
270.0
  0
ARC
  5
39F
330
220
100
AcDbEntity
  8
02___PRT_ALL_AXES
  6
Continuous
 62
     7
100
AcDbCircle
 10
197.5741567491936
 20
204.1750876257425
 30
0.0
 40
1.0
100
AcDbArc
 50
270.0
 51
90.0
  0
ARC
  5
3A0
330
220
100
AcDbEntity
  8
02___PRT_ALL_AXES
  6
Continuous
 62
     7
100
AcDbCircle
 10
172.5741567491936
 20
204.1750876257425
 30
0.0
 40
1.0
100
AcDbArc
 50
90.0
 51
270.0
  0
ARC
  5
3A1
330
220
100
AcDbEntity
  8
02___PRT_ALL_AXES
  6
Continuous
 62
     7
100
AcDbCircle
 10
361.9352171725
 20
93.109222855
 30
0.0
 40
15.0898018696
100
AcDbArc
 50
235.3381685473
 51
237.7354871209
  0
ARC
  5
3A2
330
220
100
AcDbEntity
  8
7_ALL_FEATURES
  6
Continuous
 62
     7
100
AcDbCircle
 10
342.0377222982
 20
158.3398084232
 30
0.0
 40
14.5858961779
100
AcDbArc
 50
255.0198821021
 51
256.1373160877
  0
ARC
  5
3A3
330
220
100
AcDbEntity
  8
7_ALL_FEATURES
  6
Continuous
 62
     7
100
AcDbCircle
 10
340.7788447607
 20
137.3032294459
 30
0.0
 40
13.6946441424
100
AcDbArc
 50
249.4245225978
 51
249.6289368265
  0
ARC
  5
3A4
330
220
100
AcDbEntity
  8
7_ALL_FEATURES
  6
Continuous
 62
     7
100
AcDbCircle
 10
344.3668904943
 20
112.4799219121
 30
0.0
 40
13.6946441389
100
AcDbArc
 50
249.4245225978
 51
249.6289368266
  0
ARC
  5
3A5
330
220
100
AcDbEntity
  8
7_ALL_FEATURES
  6
Continuous
 62
     7
100
AcDbCircle
 10
339.9287462497
 20
142.7685762513
 30
0.0
 40
13.5673700006
100
AcDbArc
 50
248.5813759825
 51
250.4391003391
  0
ARC
  5
3A6
330
220
100
AcDbEntity
  8
7_ALL_FEATURES
  6
Continuous
 62
     7
100
AcDbCircle
 10
338.0008908327
 20
138.5033032168
 30
0.0
 40
8.8830537034
100
AcDbArc
 50
240.507413718
 51
242.3786929324
  0
ARC
  5
3A7
330
220
100
AcDbEntity
  8
02___PRT_ALL_AXES
  6
Continuous
 62
     7
100
AcDbCircle
 10
368.2617894275
 20
82.9078884702
 30
0.0
 40
5.973733981
100
AcDbArc
 50
2.0102815736
 51
8.223699832300001
  0
ARC
  5
3A8
330
220
100
AcDbEntity
  8
7_ALL_FEATURES
  6
Continuous
 62
     7
100
AcDbCircle
 10
339.3172091108
 20
146.1103415656
 30
0.0
 40
5.4160072835
100
AcDbArc
 50
138.645701518
 51
140.6435078023
  0
ARC
  5
3A9
330
220
100
AcDbEntity
  8
7_ALL_FEATURES
  6
Continuous
 62
     7
100
AcDbCircle
 10
358.6449107739
 20
148.9061115425
 30
0.0
 40
5.4133900034
100
AcDbArc
 50
55.78699815729999
 51
57.8035374478
  0
ARC
  5
3AA
330
220
100
AcDbEntity
  8
7_ALL_FEATURES
  6
Continuous
 62
     7
100
AcDbCircle
 10
335.931048102
 20
135.4657805862
 30
0.0
 40
5.2001116892
100
AcDbArc
 50
227.1451057335
 51
230.1026488776
  0
ARC
  5
3AB
330
220
100
AcDbEntity
  8
7_ALL_FEATURES
  6
Continuous
 62
     7
100
AcDbCircle
 10
334.6017932833
 20
134.2761967577
 30
0.0
 40
3.4114253647
100
AcDbArc
 50
211.0195225477
 51
215.5783515025
  0
ARC
  5
3AC
330
220
100
AcDbEntity
  8
7_ALL_FEATURES
  6
Continuous
 62
     7
100
AcDbCircle
 10
333.9399718752
 20
133.9657966261
 30
0.0
 40
2.6770857074
100
AcDbArc
 50
188.3056280261
 51
192.2594933307
  0
ARC
  5
3AD
330
220
100
AcDbEntity
  8
7_ALL_FEATURES
  6
Continuous
 62
     9
100
AcDbCircle
 10
361.2254947338
 20
150.2511624821
 30
0.0
 40
2.5057439325
100
AcDbArc
 50
29.9010195898
 51
30.9789755408
  0
ARC
  5
3AE
330
220
100
AcDbEntity
  8
7_ALL_FEATURES
  6
Continuous
 62
     7
100
AcDbCircle
 10
361.453122269
 20
150.1759711019
 30
0.0
 40
2.3144405912
100
AcDbArc
 50
33.8067421313
 51
35.8714803096
  0
SPLINE
  5
3AF
330
220
100
AcDbEntity
  8
02___PRT_ALL_AXES
  6
Continuous
 62
     7
100
AcDbSpline
210
0.0
220
0.0
230
1.0
 70
     8
 71
     3
 72
    13
 73
     9
 74
     0
 42
0.000000001
 43
0.0000001
 40
0.0
 40
0.0
 40
0.0
 40
0.0
 40
0.2578105924
 40
0.5107112855
 40
0.6351316947
 40
0.7578624331
 40
0.8792895076
 40
1.0
 40
1.0
 40
1.0
 40
1.0
 10
83.32406044932694
 20
186.1750876257425
 30
0.0
 10
83.32406044932694
 20
186.0453545344091
 30
0.0
 10
83.37108294179362
 20
185.7859499785425
 30
0.0
 10
83.54300380619361
 20
185.5068378734758
 30
0.0
 10
83.7324945069936
 20
185.3390552683425
 30
0.0
 10
83.89427722652694
 20
185.2456390795425
 30
0.0
 10
84.06996697966028
 20
185.1880779291425
 30
0.0
 10
84.19220178126028
 20
185.1751048875425
 30
0.0
 10
84.25294461259361
 20
185.1751048875425
 30
0.0
  0
SPLINE
  5
3B0
330
220
100
AcDbEntity
  8
02___PRT_ALL_AXES
  6
Continuous
 62
     7
100
AcDbSpline
210
0.0
220
0.0
230
1.0
 70
     8
 71
     3
 72
    13
 73
     9
 74
     0
 42
0.000000001
 43
0.0000001
 40
0.0
 40
0.0
 40
0.0
 40
0.0
 40
0.1207104924
 40
0.2421375669
 40
0.3648683053
 40
0.4892887145
 40
0.7421894076
 40
1.0
 40
1.0
 40
1.0
 40
1.0
 10
84.25294461259361
 20
187.1750703639425
 30
0.0
 10
84.19220178126028
 20
187.1750703639425
 30
0.0
 10
84.06996697966028
 20
187.1620973223425
 30
0.0
 10
83.89427722652694
 20
187.1045361719425
 30
0.0
 10
83.7324945069936
 20
187.0111199830758
 30
0.0
 10
83.54300380619361
 20
186.8433373780091
 30
0.0
 10
83.37108294179362
 20
186.5642252728758
 30
0.0
 10
83.32406044932694
 20
186.3048207170758
 30
0.0
 10
83.32406044932694
 20
186.1750876257425
 30
0.0
  0
SPLINE
  5
3B1
330
220
100
AcDbEntity
  8
02___PRT_ALL_AXES
  6
Continuous
 62
     7
100
AcDbSpline
210
0.0
220
0.0
230
1.0
 70
     8
 71
     3
 72
    13
 73
     9
 74
     0
 42
0.000000001
 43
0.0000001
 40
0.0
 40
0.0
 40
0.0
 40
0.0
 40
0.2578105924
 40
0.5107112855
 40
0.6351316947
 40
0.7578624331
 40
0.8792895076
 40
1.0
 40
1.0
 40
1.0
 40
1.0
 10
83.32406044932694
 20
204.1750876257425
 30
0.0
 10
83.32406044932694
 20
204.0453545344091
 30
0.0
 10
83.37108294179362
 20
203.7859499785425
 30
0.0
 10
83.54300380619361
 20
203.5068378734758
 30
0.0
 10
83.7324945069936
 20
203.3390552683425
 30
0.0
 10
83.89427722652694
 20
203.2456390795425
 30
0.0
 10
84.06996697966028
 20
203.1880779291425
 30
0.0
 10
84.19220178126028
 20
203.1751048875425
 30
0.0
 10
84.25294461259361
 20
203.1751048875425
 30
0.0
  0
SPLINE
  5
3B2
330
220
100
AcDbEntity
  8
02___PRT_ALL_AXES
  6
Continuous
 62
     7
100
AcDbSpline
210
0.0
220
0.0
230
1.0
 70
     8
 71
     3
 72
    13
 73
     9
 74
     0
 42
0.000000001
 43
0.0000001
 40
0.0
 40
0.0
 40
0.0
 40
0.0
 40
0.1207104924
 40
0.2421375669
 40
0.3648683053
 40
0.4892887145
 40
0.7421894076
 40
1.0
 40
1.0
 40
1.0
 40
1.0
 10
84.25294461259361
 20
205.1750703639425
 30
0.0
 10
84.19220178126028
 20
205.1750703639425
 30
0.0
 10
84.06996697966028
 20
205.1620973223425
 30
0.0
 10
83.89427722652694
 20
205.1045361719425
 30
0.0
 10
83.7324945069936
 20
205.0111199830758
 30
0.0
 10
83.54300380619361
 20
204.8433373780091
 30
0.0
 10
83.37108294179362
 20
204.5642252728758
 30
0.0
 10
83.32406044932694
 20
204.3048207170758
 30
0.0
 10
83.32406044932694
 20
204.1750876257425
 30
0.0
  0
SPLINE
  5
3B3
330
220
100
AcDbEntity
  8
02___PRT_ALL_AXES
  6
Continuous
 62
     7
100
AcDbSpline
210
0.0
220
0.0
230
1.0
 70
     8
 71
     3
 72
    11
 73
     7
 74
     0
 42
0.000000001
 43
0.0000001
 40
0.0
 40
0.0
 40
0.0
 40
0.0
 40
0.2528641712
 40
0.5038317346
 40
0.7528115376
 40
1.0
 40
1.0
 40
1.0
 40
1.0
 10
97.23207722666027
 20
171.9250876257425
 30
0.0
 10
97.43632352359361
 20
171.8071659712091
 30
0.0
 10
97.85015078712694
 20
171.5837550934758
 30
0.0
 10
98.49106231159361
 20
171.2951660912758
 30
0.0
 10
99.15042124386028
 20
171.0664766978758
 30
0.0
 10
99.60267792566027
 20
170.9626113538091
 30
0.0
 10
99.8301534379936
 20
170.9250876257425
 30
0.0
  0
SPLINE
  5
3B4
330
220
100
AcDbEntity
  8
02___PRT_ALL_AXES
  6
Continuous
 62
     7
100
AcDbSpline
210
0.0
220
0.0
230
1.0
 70
     8
 71
     3
 72
    11
 73
     7
 74
     0
 42
0.000000001
 43
0.0000001
 40
0.0
 40
0.0
 40
0.0
 40
0.0
 40
0.2528641712
 40
0.5038317346
 40
0.7528115376
 40
1.0
 40
1.0
 40
1.0
 40
1.0
 10
90.30387399632694
 20
171.9250876257425
 30
0.0
 10
90.50812029326028
 20
171.8071659712091
 30
0.0
 10
90.92194755686027
 20
171.5837550934758
 30
0.0
 10
91.56285908132693
 20
171.2951660912758
 30
0.0
 10
92.2222180135936
 20
171.0664766978758
 30
0.0
 10
92.6744746953936
 20
170.9626113538091
 30
0.0
 10
92.90195020772694
 20
170.9250876257425
 30
0.0
  0
SPLINE
  5
3B5
330
220
100
AcDbEntity
  8
02___PRT_ALL_AXES
  6
Continuous
 62
     7
100
AcDbSpline
210
0.0
220
0.0
230
1.0
 70
     8
 71
     3
 72
    11
 73
     7
 74
     0
 42
0.000000001
 43
0.0000001
 40
0.0
 40
0.0
 40
0.0
 40
0.0
 40
0.2471884812
 40
0.4961682871
 40
0.7471358372
 40
1.0
 40
1.0
 40
1.0
 40
1.0
 10
94.63400101526028
 20
170.9250876257425
 30
0.0
 10
94.86147654486027
 20
170.9626113566758
 30
0.0
 10
95.31373324612694
 20
171.0664767070091
 30
0.0
 10
95.97309218319361
 20
171.2951661103425
 30
0.0
 10
96.61400368966028
 20
171.5837551090758
 30
0.0
 10
97.02783093646028
 20
171.8071659751425
 30
0.0
 10
97.23207722666027
 20
171.9250876257425
 30
0.0
  0
SPLINE
  5
3B6
330
220
100
AcDbEntity
  8
02___PRT_ALL_AXES
  6
Continuous
 62
     7
100
AcDbSpline
210
0.0
220
0.0
230
1.0
 70
     8
 71
     3
 72
    19
 73
    15
 74
     0
 42
0.000000001
 43
0.0000001
 40
0.0
 40
0.0
 40
0.0
 40
0.0
 40
0.067939647
 40
0.1343369129
 40
0.1986396402
 40
0.2610648807
 40
0.3817414899
 40
0.5000607139
 40
0.6183763092
 40
0.739024176
 40
0.8014382043
 40
0.865725454
 40
0.9320917545
 40
1.0
 40
1.0
 40
1.0
 40
1.0
 10
92.90195020772694
 20
170.4250876257425
 30
0.0
 10
92.90195020772694
 20
170.3692019752091
 30
0.0
 10
92.91833704452694
 20
170.2580570103425
 30
0.0
 10
92.98651182486027
 20
170.1075971231425
 30
0.0
 10
93.08592485966028
 20
169.9819103594758
 30
0.0
 10
93.24336874126027
 20
169.8511685259425
 30
0.0
 10
93.47335995592694
 20
169.7465282210092
 30
0.0
 10
93.76812517686028
 20
169.7065497366091
 30
0.0
 10
94.06285390052693
 20
169.7466141613425
 30
0.0
 10
94.2927847133936
 20
169.8512935644758
 30
0.0
 10
94.45016380259361
 20
169.9820434525425
 30
0.0
 10
94.54950672852694
 20
170.1077244432092
 30
0.0
 10
94.61762773672694
 20
170.2581348346091
 30
0.0
 10
94.63400101526028
 20
170.3692278054091
 30
0.0
 10
94.63400101526028
 20
170.4250876257425
 30
0.0
  0
SPLINE
  5
3B7
330
220
100
AcDbEntity
  8
02___PRT_ALL_AXES
  6
Continuous
 62
     7
100
AcDbSpline
210
0.0
220
0.0
230
1.0
 70
     8
 71
     3
 72
    11
 73
     7
 74
     0
 42
0.000000001
 43
0.0000001
 40
0.0
 40
0.0
 40
0.0
 40
0.0
 40
0.2471884812
 40
0.4961682871
 40
0.7471358372
 40
1.0
 40
1.0
 40
1.0
 40
1.0
 10
101.5622042455269
 20
170.9250876257425
 30
0.0
 10
101.7896797751269
 20
170.9626113566758
 30
0.0
 10
102.2419364763936
 20
171.0664767070091
 30
0.0
 10
102.9012954134603
 20
171.2951661103425
 30
0.0
 10
103.5422069199269
 20
171.5837551090758
 30
0.0
 10
103.9560341667936
 20
171.8071659751425
 30
0.0
 10
104.1602804569269
 20
171.9250876257425
 30
0.0
  0
SPLINE
  5
3B8
330
220
100
AcDbEntity
  8
02___PRT_ALL_AXES
  6
Continuous
 62
     7
100
AcDbSpline
210
0.0
220
0.0
230
1.0
 70
     8
 71
     3
 72
    19
 73
    15
 74
     0
 42
0.000000001
 43
0.0000001
 40
0.0
 40
0.0
 40
0.0
 40
0.0
 40
0.0679313718
 40
0.134330414
 40
0.1986328954
 40
0.2610542132
 40
0.3817238737
 40
0.5000536105
 40
0.6183773004
 40
0.7390372629
 40
0.8014553941
 40
0.8657396837
 40
0.9320963707
 40
1.0
 40
1.0
 40
1.0
 40
1.0
 10
99.8301534379936
 20
170.4250876257425
 30
0.0
 10
99.8301534379936
 20
170.3692087742091
 30
0.0
 10
99.84653917872694
 20
170.2580697622758
 30
0.0
 10
99.91470448032695
 20
170.1076116860758
 30
0.0
 10
100.0141140429936
 20
169.9819241994758
 30
0.0
 10
100.1715483705269
 20
169.8511858494091
 30
0.0
 10
100.4015330366603
 20
169.7465327037425
 30
0.0
 10
100.6963087066603
 20
169.7065489967425
 30
0.0
 10
100.9910630535936
 20
169.7466128114091
 30
0.0
 10
101.2210126458603
 20
169.8513035939425
 30
0.0
 10
101.3783936504603
 20
169.9820692044091
 30
0.0
 10
101.4777223833269
 20
170.1077520947425
 30
0.0
 10
101.5458345721269
 20
170.2581500818092
 30
0.0
 10
101.5622042455269
 20
170.3692315946091
 30
0.0
 10
101.5622042455269
 20
170.4250876257425
 30
0.0
  0
SPLINE
  5
3B9
330
220
100
AcDbEntity
  8
02___PRT_ALL_AXES
  6
Continuous
 62
     7
100
AcDbSpline
210
0.0
220
0.0
230
1.0
 70
     8
 71
     3
 72
    17
 73
    13
 74
     0
 42
0.000000001
 43
0.0000001
 40
0.0
 40
0.0
 40
0.0
 40
0.0
 40
0.1722171181
 40
0.3389583269
 40
0.4944789344
 40
0.634267601
 40
0.7546954941
 40
0.8539308511
 40
0.8959220497
 40
0.9334950989
 40
0.9676785033
 40
1.0
 40
1.0
 40
1.0
 40
1.0
 10
189.3334160084603
 20
186.1750876257425
 30
0.0
 10
189.3334160084603
 20
186.2401265673425
 30
0.0
 10
189.3380306193269
 20
186.3681854784758
 30
0.0
 10
189.3585076223269
 20
186.5539839924758
 30
0.0
 10
189.3917895184603
 20
186.7254968024758
 30
0.0
 10
189.4365173558603
 20
186.8763484534758
 30
0.0
 10
189.4909744307269
 20
187.0010763317425
 30
0.0
 10
189.5458248886603
 20
187.0844016032091
 30
0.0
 10
189.5941451315936
 20
187.1319352906758
 30
0.0
 10
189.6296903765269
 20
187.1565309692758
 30
0.0
 10
189.6663513349269
 20
187.1716428398758
 30
0.0
 10
189.6915799503269
 20
187.1750703639425
 30
0.0
 10
189.7037863788603
 20
187.1750703639425
 30
0.0
  0
SPLINE
  5
3BA
330
220
100
AcDbEntity
  8
02___PRT_ALL_AXES
  6
Continuous
 62
     7
100
AcDbSpline
210
0.0
220
0.0
230
1.0
 70
     8
 71
     3
 72
    17
 73
    13
 74
     0
 42
0.000000001
 43
0.0000001
 40
0.0
 40
0.0
 40
0.0
 40
0.0
 40
0.1722171181
 40
0.3389583269
 40
0.4944789344
 40
0.634267601
 40
0.7546954941
 40
0.8539308511
 40
0.8959220497
 40
0.9334950989
 40
0.9676785033
 40
1.0
 40
1.0
 40
1.0
 40
1.0
 10
180.8148974899269
 20
186.1750876257425
 30
0.0
 10
180.8148974899269
 20
186.2401265673425
 30
0.0
 10
180.8102828791269
 20
186.3681854784758
 30
0.0
 10
180.7898058761269
 20
186.5539839924758
 30
0.0
 10
180.7565239799269
 20
186.7254968024758
 30
0.0
 10
180.7117961425269
 20
186.8763484534758
 30
0.0
 10
180.6573390677269
 20
187.0010763317425
 30
0.0
 10
180.6024886097936
 20
187.0844016032091
 30
0.0
 10
180.5541683667936
 20
187.1319352906758
 30
0.0
 10
180.5186231218603
 20
187.1565309692758
 30
0.0
 10
180.4819621634603
 20
187.1716428398758
 30
0.0
 10
180.4567335480603
 20
187.1750703639425
 30
0.0
 10
180.4445271195936
 20
187.1750703639425
 30
0.0
  0
SPLINE
  5
3BB
330
220
100
AcDbEntity
  8
02___PRT_ALL_AXES
  6
Continuous
 62
     7
100
AcDbSpline
210
0.0
220
0.0
230
1.0
 70
     8
 71
     3
 72
    17
 73
    13
 74
     0
 42
0.000000001
 43
0.0000001
 40
0.0
 40
0.0
 40
0.0
 40
0.0
 40
0.0323214967
 40
0.0665049011
 40
0.1040779503
 40
0.1460691489
 40
0.2453045059
 40
0.365732399
 40
0.5055210656
 40
0.6610416731
 40
0.8277828819
 40
1.0
 40
1.0
 40
1.0
 40
1.0
 10
189.7037863788603
 20
185.1751048875425
 30
0.0
 10
189.6915799503269
 20
185.1751048875425
 30
0.0
 10
189.6663513349269
 20
185.1785324116092
 30
0.0
 10
189.6296903765269
 20
185.1936442822091
 30
0.0
 10
189.5941451315936
 20
185.2182399608091
 30
0.0
 10
189.5458248886603
 20
185.2657736482758
 30
0.0
 10
189.4909744307269
 20
185.3490989197425
 30
0.0
 10
189.4365173558603
 20
185.4738267980091
 30
0.0
 10
189.3917895184603
 20
185.6246784489425
 30
0.0
 10
189.3585076223269
 20
185.7961912590091
 30
0.0
 10
189.3380306193269
 20
185.9819897729425
 30
0.0
 10
189.3334160084603
 20
186.1100486840758
 30
0.0
 10
189.3334160084603
 20
186.1750876257425
 30
0.0
  0
SPLINE
  5
3BC
330
220
100
AcDbEntity
  8
02___PRT_ALL_AXES
  6
Continuous
 62
     7
100
AcDbSpline
210
0.0
220
0.0
230
1.0
 70
     8
 71
     3
 72
    17
 73
    13
 74
     0
 42
0.000000001
 43
0.0000001
 40
0.0
 40
0.0
 40
0.0
 40
0.0
 40
0.0323214967
 40
0.0665049011
 40
0.1040779503
 40
0.1460691489
 40
0.2453045059
 40
0.365732399
 40
0.5055210656
 40
0.6610416731
 40
0.8277828819
 40
1.0
 40
1.0
 40
1.0
 40
1.0
 10
180.4445271195936
 20
185.1751048875425
 30
0.0
 10
180.4567335480603
 20
185.1751048875425
 30
0.0
 10
180.4819621634603
 20
185.1785324116092
 30
0.0
 10
180.5186231218603
 20
185.1936442822091
 30
0.0
 10
180.5541683667936
 20
185.2182399608091
 30
0.0
 10
180.6024886097936
 20
185.2657736482758
 30
0.0
 10
180.6573390677269
 20
185.3490989197425
 30
0.0
 10
180.7117961425269
 20
185.4738267980091
 30
0.0
 10
180.7565239799269
 20
185.6246784489425
 30
0.0
 10
180.7898058761269
 20
185.7961912590091
 30
0.0
 10
180.8102828791269
 20
185.9819897729425
 30
0.0
 10
180.8148974899269
 20
186.1100486840758
 30
0.0
 10
180.8148974899269
 20
186.1750876257425
 30
0.0
  0
SPLINE
  5
3BD
330
220
100
AcDbEntity
  8
02___PRT_ALL_AXES
  6
Continuous
 62
     7
100
AcDbSpline
210
0.0
220
0.0
230
1.0
 70
     8
 71
     3
 72
    17
 73
    13
 74
     0
 42
0.000000001
 43
0.0000001
 40
0.0
 40
0.0
 40
0.0
 40
0.0
 40
0.1722171181
 40
0.3389583269
 40
0.4944789344
 40
0.634267601
 40
0.7546954941
 40
0.8539308511
 40
0.8959220497
 40
0.9334950989
 40
0.9676785033
 40
1.0
 40
1.0
 40
1.0
 40
1.0
 10
190.0741567491936
 20
186.1750876257425
 30
0.0
 10
190.0741567491936
 20
186.1100486840758
 30
0.0
 10
190.0695421383936
 20
185.9819897729425
 30
0.0
 10
190.0490651353936
 20
185.7961912590091
 30
0.0
 10
190.0157832391936
 20
185.6246784489425
 30
0.0
 10
189.9710554017936
 20
185.4738267980091
 30
0.0
 10
189.9165983269936
 20
185.3490989197425
 30
0.0
 10
189.8617478689936
 20
185.2657736482758
 30
0.0
 10
189.8134276260603
 20
185.2182399608091
 30
0.0
 10
189.7778823811269
 20
185.1936442822091
 30
0.0
 10
189.7412214227269
 20
185.1785324116092
 30
0.0
 10
189.7159928073269
 20
185.1751048875425
 30
0.0
 10
189.7037863788603
 20
185.1751048875425
 30
0.0
  0
SPLINE
  5
3BE
330
220
100
AcDbEntity
  8
02___PRT_ALL_AXES
  6
Continuous
 62
     7
100
AcDbSpline
210
0.0
220
0.0
230
1.0
 70
     8
 71
     3
 72
    17
 73
    13
 74
     0
 42
0.000000001
 43
0.0000001
 40
0.0
 40
0.0
 40
0.0
 40
0.0
 40
0.0323214967
 40
0.0665049011
 40
0.1040779503
 40
0.1460691489
 40
0.2453045059
 40
0.365732399
 40
0.5055210656
 40
0.6610416731
 40
0.8277828819
 40
1.0
 40
1.0
 40
1.0
 40
1.0
 10
189.7037863788603
 20
187.1750703639425
 30
0.0
 10
189.7159928073269
 20
187.1750703639425
 30
0.0
 10
189.7412214227269
 20
187.1716428398758
 30
0.0
 10
189.7778823811269
 20
187.1565309692758
 30
0.0
 10
189.8134276260603
 20
187.1319352906758
 30
0.0
 10
189.8617478689936
 20
187.0844016032091
 30
0.0
 10
189.9165983269936
 20
187.0010763317425
 30
0.0
 10
189.9710554017936
 20
186.8763484534758
 30
0.0
 10
190.0157832391936
 20
186.7254968024758
 30
0.0
 10
190.0490651353936
 20
186.5539839924758
 30
0.0
 10
190.0695421383936
 20
186.3681854784758
 30
0.0
 10
190.0741567491936
 20
186.2401265673425
 30
0.0
 10
190.0741567491936
 20
186.1750876257425
 30
0.0
  0
SPLINE
  5
3BF
330
220
100
AcDbEntity
  8
02___PRT_ALL_AXES
  6
Continuous
 62
     7
100
AcDbSpline
210
0.0
220
0.0
230
1.0
 70
     8
 71
     3
 72
    17
 73
    13
 74
     0
 42
0.000000001
 43
0.0000001
 40
0.0
 40
0.0
 40
0.0
 40
0.0
 40
0.1722171181
 40
0.3389583269
 40
0.4944789344
 40
0.634267601
 40
0.7546954941
 40
0.8539308511
 40
0.8959220497
 40
0.9334950989
 40
0.9676785033
 40
1.0
 40
1.0
 40
1.0
 40
1.0
 10
180.0741567491936
 20
186.1750876257425
 30
0.0
 10
180.0741567491936
 20
186.1100486840758
 30
0.0
 10
180.0787713600603
 20
185.9819897729425
 30
0.0
 10
180.0992483630603
 20
185.7961912590091
 30
0.0
 10
180.1325302591936
 20
185.6246784489425
 30
0.0
 10
180.1772580966603
 20
185.4738267980091
 30
0.0
 10
180.2317151714603
 20
185.3490989197425
 30
0.0
 10
180.2865656293936
 20
185.2657736482758
 30
0.0
 10
180.3348858723269
 20
185.2182399608091
 30
0.0
 10
180.3704311172603
 20
185.1936442822091
 30
0.0
 10
180.4070920756603
 20
185.1785324116092
 30
0.0
 10
180.4323206911269
 20
185.1751048875425
 30
0.0
 10
180.4445271195936
 20
185.1751048875425
 30
0.0
  0
SPLINE
  5
3C0
330
220
100
AcDbEntity
  8
02___PRT_ALL_AXES
  6
Continuous
 62
     7
100
AcDbSpline
210
0.0
220
0.0
230
1.0
 70
     8
 71
     3
 72
    17
 73
    13
 74
     0
 42
0.000000001
 43
0.0000001
 40
0.0
 40
0.0
 40
0.0
 40
0.0
 40
0.0323214967
 40
0.0665049011
 40
0.1040779503
 40
0.1460691489
 40
0.2453045059
 40
0.365732399
 40
0.5055210656
 40
0.6610416731
 40
0.8277828819
 40
1.0
 40
1.0
 40
1.0
 40
1.0
 10
180.4445271195936
 20
187.1750703639425
 30
0.0
 10
180.4323206911269
 20
187.1750703639425
 30
0.0
 10
180.4070920756603
 20
187.1716428398758
 30
0.0
 10
180.3704311172603
 20
187.1565309692758
 30
0.0
 10
180.3348858723269
 20
187.1319352906758
 30
0.0
 10
180.2865656293936
 20
187.0844016032091
 30
0.0
 10
180.2317151714603
 20
187.0010763317425
 30
0.0
 10
180.1772580966603
 20
186.8763484534758
 30
0.0
 10
180.1325302591936
 20
186.7254968024758
 30
0.0
 10
180.0992483630603
 20
186.5539839924758
 30
0.0
 10
180.0787713600603
 20
186.3681854784758
 30
0.0
 10
180.0741567491936
 20
186.2401265673425
 30
0.0
 10
180.0741567491936
 20
186.1750876257425
 30
0.0
  0
SPLINE
  5
3C1
330
220
100
AcDbEntity
  8
02___PRT_ALL_AXES
  6
Continuous
 62
     7
100
AcDbSpline
210
0.0
220
0.0
230
1.0
 70
     8
 71
     3
 72
    17
 73
    13
 74
     0
 42
0.000000001
 43
0.0000001
 40
0.0
 40
0.0
 40
0.0
 40
0.0
 40
0.1722171181
 40
0.3389583269
 40
0.4944789344
 40
0.634267601
 40
0.7546954941
 40
0.8539308511
 40
0.8959220497
 40
0.9334950989
 40
0.9676785033
 40
1.0
 40
1.0
 40
1.0
 40
1.0
 10
189.3334160084603
 20
204.1750876257425
 30
0.0
 10
189.3334160084603
 20
204.2401265673425
 30
0.0
 10
189.3380306193269
 20
204.3681854784758
 30
0.0
 10
189.3585076223269
 20
204.5539839924758
 30
0.0
 10
189.3917895184603
 20
204.7254968024758
 30
0.0
 10
189.4365173558603
 20
204.8763484534758
 30
0.0
 10
189.4909744307269
 20
205.0010763317425
 30
0.0
 10
189.5458248886603
 20
205.0844016032091
 30
0.0
 10
189.5941451315936
 20
205.1319352906758
 30
0.0
 10
189.6296903765269
 20
205.1565309692758
 30
0.0
 10
189.6663513349269
 20
205.1716428398758
 30
0.0
 10
189.6915799503269
 20
205.1750703639425
 30
0.0
 10
189.7037863788603
 20
205.1750703639425
 30
0.0
  0
SPLINE
  5
3C2
330
220
100
AcDbEntity
  8
02___PRT_ALL_AXES
  6
Continuous
 62
     7
100
AcDbSpline
210
0.0
220
0.0
230
1.0
 70
     8
 71
     3
 72
    17
 73
    13
 74
     0
 42
0.000000001
 43
0.0000001
 40
0.0
 40
0.0
 40
0.0
 40
0.0
 40
0.1722171181
 40
0.3389583269
 40
0.4944789344
 40
0.634267601
 40
0.7546954941
 40
0.8539308511
 40
0.8959220497
 40
0.9334950989
 40
0.9676785033
 40
1.0
 40
1.0
 40
1.0
 40
1.0
 10
180.8148974899269
 20
204.1750876257425
 30
0.0
 10
180.8148974899269
 20
204.2401265673425
 30
0.0
 10
180.8102828791269
 20
204.3681854784758
 30
0.0
 10
180.7898058761269
 20
204.5539839924758
 30
0.0
 10
180.7565239799269
 20
204.7254968024758
 30
0.0
 10
180.7117961425269
 20
204.8763484534758
 30
0.0
 10
180.6573390677269
 20
205.0010763317425
 30
0.0
 10
180.6024886097936
 20
205.0844016032091
 30
0.0
 10
180.5541683667936
 20
205.1319352906758
 30
0.0
 10
180.5186231218603
 20
205.1565309692758
 30
0.0
 10
180.4819621634603
 20
205.1716428398758
 30
0.0
 10
180.4567335480603
 20
205.1750703639425
 30
0.0
 10
180.4445271195936
 20
205.1750703639425
 30
0.0
  0
SPLINE
  5
3C3
330
220
100
AcDbEntity
  8
02___PRT_ALL_AXES
  6
Continuous
 62
     7
100
AcDbSpline
210
0.0
220
0.0
230
1.0
 70
     8
 71
     3
 72
    17
 73
    13
 74
     0
 42
0.000000001
 43
0.0000001
 40
0.0
 40
0.0
 40
0.0
 40
0.0
 40
0.0323214967
 40
0.0665049011
 40
0.1040779503
 40
0.1460691489
 40
0.2453045059
 40
0.365732399
 40
0.5055210656
 40
0.6610416731
 40
0.8277828819
 40
1.0
 40
1.0
 40
1.0
 40
1.0
 10
189.7037863788603
 20
203.1751048875425
 30
0.0
 10
189.6915799503269
 20
203.1751048875425
 30
0.0
 10
189.6663513349269
 20
203.1785324116092
 30
0.0
 10
189.6296903765269
 20
203.1936442822091
 30
0.0
 10
189.5941451315936
 20
203.2182399608091
 30
0.0
 10
189.5458248886603
 20
203.2657736482758
 30
0.0
 10
189.4909744307269
 20
203.3490989197425
 30
0.0
 10
189.4365173558603
 20
203.4738267980091
 30
0.0
 10
189.3917895184603
 20
203.6246784489425
 30
0.0
 10
189.3585076223269
 20
203.7961912590091
 30
0.0
 10
189.3380306193269
 20
203.9819897729425
 30
0.0
 10
189.3334160084603
 20
204.1100486840758
 30
0.0
 10
189.3334160084603
 20
204.1750876257425
 30
0.0
  0
SPLINE
  5
3C4
330
220
100
AcDbEntity
  8
02___PRT_ALL_AXES
  6
Continuous
 62
     7
100
AcDbSpline
210
0.0
220
0.0
230
1.0
 70
     8
 71
     3
 72
    17
 73
    13
 74
     0
 42
0.000000001
 43
0.0000001
 40
0.0
 40
0.0
 40
0.0
 40
0.0
 40
0.0323214967
 40
0.0665049011
 40
0.1040779503
 40
0.1460691489
 40
0.2453045059
 40
0.365732399
 40
0.5055210656
 40
0.6610416731
 40
0.8277828819
 40
1.0
 40
1.0
 40
1.0
 40
1.0
 10
180.4445271195936
 20
203.1751048875425
 30
0.0
 10
180.4567335480603
 20
203.1751048875425
 30
0.0
 10
180.4819621634603
 20
203.1785324116092
 30
0.0
 10
180.5186231218603
 20
203.1936442822091
 30
0.0
 10
180.5541683667936
 20
203.2182399608091
 30
0.0
 10
180.6024886097936
 20
203.2657736482758
 30
0.0
 10
180.6573390677269
 20
203.3490989197425
 30
0.0
 10
180.7117961425269
 20
203.4738267980091
 30
0.0
 10
180.7565239799269
 20
203.6246784489425
 30
0.0
 10
180.7898058761269
 20
203.7961912590091
 30
0.0
 10
180.8102828791269
 20
203.9819897729425
 30
0.0
 10
180.8148974899269
 20
204.1100486840758
 30
0.0
 10
180.8148974899269
 20
204.1750876257425
 30
0.0
  0
SPLINE
  5
3C5
330
220
100
AcDbEntity
  8
02___PRT_ALL_AXES
  6
Continuous
 62
     7
100
AcDbSpline
210
0.0
220
0.0
230
1.0
 70
     8
 71
     3
 72
    17
 73
    13
 74
     0
 42
0.000000001
 43
0.0000001
 40
0.0
 40
0.0
 40
0.0
 40
0.0
 40
0.1722171181
 40
0.3389583269
 40
0.4944789344
 40
0.634267601
 40
0.7546954941
 40
0.8539308511
 40
0.8959220497
 40
0.9334950989
 40
0.9676785033
 40
1.0
 40
1.0
 40
1.0
 40
1.0
 10
190.0741567491936
 20
204.1750876257425
 30
0.0
 10
190.0741567491936
 20
204.1100486840758
 30
0.0
 10
190.0695421383936
 20
203.9819897729425
 30
0.0
 10
190.0490651353936
 20
203.7961912590091
 30
0.0
 10
190.0157832391936
 20
203.6246784489425
 30
0.0
 10
189.9710554017936
 20
203.4738267980091
 30
0.0
 10
189.9165983269936
 20
203.3490989197425
 30
0.0
 10
189.8617478689936
 20
203.2657736482758
 30
0.0
 10
189.8134276260603
 20
203.2182399608091
 30
0.0
 10
189.7778823811269
 20
203.1936442822091
 30
0.0
 10
189.7412214227269
 20
203.1785324116092
 30
0.0
 10
189.7159928073269
 20
203.1751048875425
 30
0.0
 10
189.7037863788603
 20
203.1751048875425
 30
0.0
  0
SPLINE
  5
3C6
330
220
100
AcDbEntity
  8
02___PRT_ALL_AXES
  6
Continuous
 62
     7
100
AcDbSpline
210
0.0
220
0.0
230
1.0
 70
     8
 71
     3
 72
    17
 73
    13
 74
     0
 42
0.000000001
 43
0.0000001
 40
0.0
 40
0.0
 40
0.0
 40
0.0
 40
0.0323214967
 40
0.0665049011
 40
0.1040779503
 40
0.1460691489
 40
0.2453045059
 40
0.365732399
 40
0.5055210656
 40
0.6610416731
 40
0.8277828819
 40
1.0
 40
1.0
 40
1.0
 40
1.0
 10
189.7037863788603
 20
205.1750703639425
 30
0.0
 10
189.7159928073269
 20
205.1750703639425
 30
0.0
 10
189.7412214227269
 20
205.1716428398758
 30
0.0
 10
189.7778823811269
 20
205.1565309692758
 30
0.0
 10
189.8134276260603
 20
205.1319352906758
 30
0.0
 10
189.8617478689936
 20
205.0844016032091
 30
0.0
 10
189.9165983269936
 20
205.0010763317425
 30
0.0
 10
189.9710554017936
 20
204.8763484534758
 30
0.0
 10
190.0157832391936
 20
204.7254968024758
 30
0.0
 10
190.0490651353936
 20
204.5539839924758
 30
0.0
 10
190.0695421383936
 20
204.3681854784758
 30
0.0
 10
190.0741567491936
 20
204.2401265673425
 30
0.0
 10
190.0741567491936
 20
204.1750876257425
 30
0.0
  0
SPLINE
  5
3C7
330
220
100
AcDbEntity
  8
02___PRT_ALL_AXES
  6
Continuous
 62
     7
100
AcDbSpline
210
0.0
220
0.0
230
1.0
 70
     8
 71
     3
 72
    17
 73
    13
 74
     0
 42
0.000000001
 43
0.0000001
 40
0.0
 40
0.0
 40
0.0
 40
0.0
 40
0.1722171181
 40
0.3389583269
 40
0.4944789344
 40
0.634267601
 40
0.7546954941
 40
0.8539308511
 40
0.8959220497
 40
0.9334950989
 40
0.9676785033
 40
1.0
 40
1.0
 40
1.0
 40
1.0
 10
180.0741567491936
 20
204.1750876257425
 30
0.0
 10
180.0741567491936
 20
204.1100486840758
 30
0.0
 10
180.0787713600603
 20
203.9819897729425
 30
0.0
 10
180.0992483630603
 20
203.7961912590091
 30
0.0
 10
180.1325302591936
 20
203.6246784489425
 30
0.0
 10
180.1772580966603
 20
203.4738267980091
 30
0.0
 10
180.2317151714603
 20
203.3490989197425
 30
0.0
 10
180.2865656293936
 20
203.2657736482758
 30
0.0
 10
180.3348858723269
 20
203.2182399608091
 30
0.0
 10
180.3704311172603
 20
203.1936442822091
 30
0.0
 10
180.4070920756603
 20
203.1785324116092
 30
0.0
 10
180.4323206911269
 20
203.1751048875425
 30
0.0
 10
180.4445271195936
 20
203.1751048875425
 30
0.0
  0
SPLINE
  5
3C8
330
220
100
AcDbEntity
  8
02___PRT_ALL_AXES
  6
Continuous
 62
     7
100
AcDbSpline
210
0.0
220
0.0
230
1.0
 70
     8
 71
     3
 72
    17
 73
    13
 74
     0
 42
0.000000001
 43
0.0000001
 40
0.0
 40
0.0
 40
0.0
 40
0.0
 40
0.0323214967
 40
0.0665049011
 40
0.1040779503
 40
0.1460691489
 40
0.2453045059
 40
0.365732399
 40
0.5055210656
 40
0.6610416731
 40
0.8277828819
 40
1.0
 40
1.0
 40
1.0
 40
1.0
 10
180.4445271195936
 20
205.1750703639425
 30
0.0
 10
180.4323206911269
 20
205.1750703639425
 30
0.0
 10
180.4070920756603
 20
205.1716428398758
 30
0.0
 10
180.3704311172603
 20
205.1565309692758
 30
0.0
 10
180.3348858723269
 20
205.1319352906758
 30
0.0
 10
180.2865656293936
 20
205.0844016032091
 30
0.0
 10
180.2317151714603
 20
205.0010763317425
 30
0.0
 10
180.1772580966603
 20
204.8763484534758
 30
0.0
 10
180.1325302591936
 20
204.7254968024758
 30
0.0
 10
180.0992483630603
 20
204.5539839924758
 30
0.0
 10
180.0787713600603
 20
204.3681854784758
 30
0.0
 10
180.0741567491936
 20
204.2401265673425
 30
0.0
 10
180.0741567491936
 20
204.1750876257425
 30
0.0
  0
SPLINE
  5
3C9
330
220
100
AcDbEntity
  8
02___PRT_ALL_AXES
  6
Continuous
 62
     7
100
AcDbSpline
210
0.0
220
0.0
230
1.0
 70
     8
 71
     3
 72
    20
 73
    16
 74
     0
 42
0.000000001
 43
0.0000001
 40
0.0
 40
0.0
 40
0.0
 40
0.0
 40
0.1682137895
 40
0.2403238102
 40
0.303496996
 40
0.3592400191
 40
0.4093817795
 40
0.4557855263
 40
0.5003228983
 40
0.5448629749
 40
0.5912692525
 40
0.6965871816
 40
0.7597574691
 40
0.8318591079
 40
1.0
 40
1.0
 40
1.0
 40
1.0
 10
194.3329272323269
 20
170.4250876257425
 30
0.0
 10
194.3329272323269
 20
170.3184772934092
 30
0.0
 10
194.3571577334603
 20
170.1641097730758
 30
0.0
 10
194.4358504809936
 20
169.9877970507425
 30
0.0
 10
194.5043979296603
 20
169.8871362760758
 30
0.0
 10
194.5808538402603
 20
169.8110945840091
 30
0.0
 10
194.6623736071936
 20
169.7580567850758
 30
0.0
 10
194.7469611008603
 20
169.7267492624092
 30
0.0
 10
194.8330145518603
 20
169.7163901241425
 30
0.0
 10
194.9190772514603
 20
169.7267922718758
 30
0.0
 10
195.0366778777269
 20
169.7703423646758
 30
0.0
 10
195.1440913046603
 20
169.8613358182758
 30
0.0
 10
195.2300065113936
 20
169.9878820589425
 30
0.0
 10
195.3087653796603
 20
170.1642485476091
 30
0.0
 10
195.3329272323269
 20
170.3185234942092
 30
0.0
 10
195.3329272323269
 20
170.4250876257425
 30
0.0
  0
SPLINE
  5
3CA
330
220
100
AcDbEntity
  8
02___PRT_ALL_AXES
  6
Continuous
 62
     7
100
AcDbSpline
210
0.0
220
0.0
230
1.0
 70
     8
 71
     3
 72
    11
 73
     7
 74
     0
 42
0.000000001
 43
0.0000001
 40
0.0
 40
0.0
 40
0.0
 40
0.0
 40
0.2699449571
 40
0.5270499909
 40
0.7701654741
 40
1.0
 40
1.0
 40
1.0
 40
1.0
 10
180.8329272323269
 20
171.9250876257425
 30
0.0
 10
180.9487531972603
 20
171.8092616608091
 30
0.0
 10
181.1822878119269
 20
171.5902613494092
 30
0.0
 10
181.5507984132603
 20
171.3015027038091
 30
0.0
 10
181.9307991838603
 20
171.0713157036091
 30
0.0
 10
182.1988296090603
 20
170.9634012324092
 30
0.0
 10
182.3329272323269
 20
170.9250876257425
 30
0.0
  0
SPLINE
  5
3CB
330
220
100
AcDbEntity
  8
02___PRT_ALL_AXES
  6
Continuous
 62
     7
100
AcDbSpline
210
0.0
220
0.0
230
1.0
 70
     8
 71
     3
 72
    11
 73
     7
 74
     0
 42
0.000000001
 43
0.0000001
 40
0.0
 40
0.0
 40
0.0
 40
0.0
 40
0.2500103617
 40
0.5000189242
 40
0.7500124732
 40
1.0
 40
1.0
 40
1.0
 40
1.0
 10
184.8329272323269
 20
171.9250876257425
 30
0.0
 10
185.0695999100603
 20
171.8067512868758
 30
0.0
 10
185.5493674224603
 20
171.5825665513425
 30
0.0
 10
186.2896581395936
 20
171.2941295534758
 30
0.0
 10
187.0508754091936
 20
171.0657791503425
 30
0.0
 10
187.5710025051936
 20
170.9625054438758
 30
0.0
 10
187.8329272323269
 20
170.9250876257425
 30
0.0
  0
SPLINE
  5
3CC
330
220
100
AcDbEntity
  8
02___PRT_ALL_AXES
  6
Continuous
 62
     7
100
AcDbSpline
210
0.0
220
0.0
230
1.0
 70
     8
 71
     3
 72
    11
 73
     7
 74
     0
 42
0.000000001
 43
0.0000001
 40
0.0
 40
0.0
 40
0.0
 40
0.0
 40
0.2499875457
 40
0.4999810974
 40
0.7499896465
 40
1.0
 40
1.0
 40
1.0
 40
1.0
 10
189.8329272323269
 20
170.9250876257425
 30
0.0
 10
190.0948519793269
 20
170.9625054467425
 30
0.0
 10
190.6149790975936
 20
171.0657791593425
 30
0.0
 10
191.3761963732603
 20
171.2941295725425
 30
0.0
 10
192.1164870697936
 20
171.5825665671425
 30
0.0
 10
192.5962545624603
 20
171.8067512908091
 30
0.0
 10
192.8329272323269
 20
171.9250876257425
 30
0.0
  0
SPLINE
  5
3CD
330
220
100
AcDbEntity
  8
02___PRT_ALL_AXES
  6
Continuous
 62
     7
100
AcDbSpline
210
0.0
220
0.0
230
1.0
 70
     8
 71
     3
 72
    19
 73
    15
 74
     0
 42
0.000000001
 43
0.0000001
 40
0.0
 40
0.0
 40
0.0
 40
0.0
 40
0.062499569
 40
0.1250450196
 40
0.1876243679
 40
0.2502137548
 40
0.3750836247
 40
0.5000591496
 40
0.6250261711
 40
0.7498800617
 40
0.8124624827
 40
0.8750225901
 40
0.9375286272
 40
1.0
 40
1.0
 40
1.0
 40
1.0
 10
187.8329272323269
 20
170.4250876257425
 30
0.0
 10
187.8329272323269
 20
170.3690140140091
 30
0.0
 10
187.8524363473936
 20
170.2560249200758
 30
0.0
 10
187.9322203175269
 20
170.1053025368758
 30
0.0
 10
188.0472797719936
 20
169.9802528279425
 30
0.0
 10
188.2307234716603
 20
169.8490869619425
 30
0.0
 10
188.4961234090603
 20
169.7459562106758
 30
0.0
 10
188.8330811201936
 20
169.7066997881425
 30
0.0
 10
189.1700129532603
 20
169.7460375002091
 30
0.0
 10
189.4353671399936
 20
169.8492058180092
 30
0.0
 10
189.6187487672603
 20
169.9803969742758
 30
0.0
 10
189.7337195372603
 20
170.1054470034758
 30
0.0
 10
189.8134373129269
 20
170.2561111068092
 30
0.0
 10
189.8329272323269
 20
170.3690393111425
 30
0.0
 10
189.8329272323269
 20
170.4250876257425
 30
0.0
  0
SPLINE
  5
3CE
330
220
100
AcDbEntity
  8
02___PRT_ALL_AXES
  6
Continuous
 62
     7
100
AcDbSpline
210
0.0
220
0.0
230
1.0
 70
     8
 71
     3
 72
    11
 73
     7
 74
     0
 42
0.000000001
 43
0.0000001
 40
0.0
 40
0.0
 40
0.0
 40
0.0
 40
0.2699449571
 40
0.5270499909
 40
0.7701654741
 40
1.0
 40
1.0
 40
1.0
 40
1.0
 10
192.8329272323269
 20
171.9250876257425
 30
0.0
 10
192.9487531972603
 20
171.8092616608091
 30
0.0
 10
193.1822878119269
 20
171.5902613494092
 30
0.0
 10
193.5507984132603
 20
171.3015027038091
 30
0.0
 10
193.9307991838603
 20
171.0713157036091
 30
0.0
 10
194.1988296090603
 20
170.9634012324092
 30
0.0
 10
194.3329272323269
 20
170.9250876257425
 30
0.0
  0
SPLINE
  5
3CF
330
220
100
AcDbEntity
  8
02___PRT_ALL_AXES
  6
Continuous
 62
     7
100
AcDbSpline
210
0.0
220
0.0
230
1.0
 70
     8
 71
     3
 72
    11
 73
     7
 74
     0
 42
0.000000001
 43
0.0000001
 40
0.0
 40
0.0
 40
0.0
 40
0.0
 40
0.2298345438
 40
0.4729500311
 40
0.7300550521
 40
1.0
 40
1.0
 40
1.0
 40
1.0
 10
183.3329272323269
 20
170.9250876257425
 30
0.0
 10
183.4670248659936
 20
170.9634012353425
 30
0.0
 10
183.7350553031936
 20
171.0713157134758
 30
0.0
 10
184.1150560747936
 20
171.3015027226091
 30
0.0
 10
184.4835666651936
 20
171.5902613639425
 30
0.0
 10
184.7171012713936
 20
171.8092616647425
 30
0.0
 10
184.8329272323269
 20
171.9250876257425
 30
0.0
  0
SPLINE
  5
3D0
330
220
100
AcDbEntity
  8
02___PRT_ALL_AXES
  6
Continuous
 62
     7
100
AcDbSpline
210
0.0
220
0.0
230
1.0
 70
     8
 71
     3
 72
    19
 73
    15
 74
     0
 42
0.000000001
 43
0.0000001
 40
0.0
 40
0.0
 40
0.0
 40
0.0
 40
0.1683000113
 40
0.2404505744
 40
0.3036556532
 40
0.4090388234
 40
0.4554737865
 40
0.5000393211
 40
0.5446067335
 40
0.591042408
 40
0.696430429
 40
0.7596418824
 40
0.8317824151
 40
1.0
 40
1.0
 40
1.0
 40
1.0
 10
182.3329272323269
 20
170.4250876257425
 30
0.0
 10
182.3329272323269
 20
170.3184819504758
 30
0.0
 10
182.3571000971269
 20
170.1641555239425
 30
0.0
 10
182.4359171735269
 20
169.9877618009425
 30
0.0
 10
182.5218649268603
 20
169.8612289371425
 30
0.0
 10
182.6293017975269
 20
169.7702412806091
 30
0.0
 10
182.7469373587269
 20
169.7267635792758
 30
0.0
 10
182.8330051688603
 20
169.7163875000758
 30
0.0
 10
182.9190724544603
 20
169.7267905877425
 30
0.0
 10
183.0366844975269
 20
169.7703435976758
 30
0.0
 10
183.1441072863269
 20
169.8613487331425
 30
0.0
 10
183.2300215111936
 20
169.9879083526091
 30
0.0
 10
183.3087676354603
 20
170.1642718699425
 30
0.0
 10
183.3329272323269
 20
170.3185341616091
 30
0.0
 10
183.3329272323269
 20
170.4250876257425
 30
0.0
  0
SPLINE
  5
3D1
330
220
100
AcDbEntity
  8
02___PRT_ALL_AXES
  6
Continuous
 62
     7
100
AcDbSpline
210
0.0
220
0.0
230
1.0
 70
     8
 71
     3
 72
    11
 73
     7
 74
     0
 42
0.000000001
 43
0.0000001
 40
0.0
 40
0.0
 40
0.0
 40
0.0
 40
0.2298345438
 40
0.4729500311
 40
0.7300550521
 40
1.0
 40
1.0
 40
1.0
 40
1.0
 10
195.3329272323269
 20
170.9250876257425
 30
0.0
 10
195.4670248659936
 20
170.9634012353425
 30
0.0
 10
195.7350553031936
 20
171.0713157134758
 30
0.0
 10
196.1150560747936
 20
171.3015027226091
 30
0.0
 10
196.4835666651936
 20
171.5902613639425
 30
0.0
 10
196.7171012713936
 20
171.8092616647425
 30
0.0
 10
196.8329272323269
 20
171.9250876257425
 30
0.0
  0
SPLINE
  5
3D2
330
220
100
AcDbEntity
  8
02___PRT_ALL_AXES
  6
Continuous
 62
     7
100
AcDbSpline
 70
     0
 71
     3
 72
    14
 73
    10
 74
     0
 42
0.000000001
 43
0.0000001
 40
0.0
 40
0.0
 40
0.0
 40
0.0
 40
0.3367521023
 40
0.4850501897
 40
0.6174433225
 40
0.7333478636
 40
0.8335065661
 40
0.920577768
 40
1.0
 40
1.0
 40
1.0
 40
1.0
 10
347.4455605422
 20
96.2997642732
 30
0.0
 10
347.4635233795
 20
96.1754913215
 30
0.0
 10
347.5003865968
 20
95.9974142741
 30
0.0
 10
347.5773828958
 20
95.7801166047
 30
0.0
 10
347.6417619884
 20
95.6465699558
 30
0.0
 10
347.7141383113
 20
95.5380372966
 30
0.0
 10
347.7934984417
 20
95.4563449209
 30
0.0
 10
347.879409508
 20
95.403730715
 30
0.0
 10
347.9414512373
 20
95.3898301086
 30
0.0
 10
347.9710481067
 20
95.3888202028
 30
0.0
  0
SPLINE
  5
3D3
330
220
100
AcDbEntity
  8
02___PRT_ALL_AXES
  6
Continuous
 62
     7
100
AcDbSpline
 70
     0
 71
     3
 72
    11
 73
     7
 74
     0
 42
0.000000001
 43
0.0000001
 40
0.0
 40
0.0
 40
0.0
 40
0.0
 40
0.2484858494
 40
0.4974875519
 40
0.7474317797
 40
1.0
 40
1.0
 40
1.0
 40
1.0
 10
375.2764045231
 20
107.1341682979
 30
0.0
 10
375.2466135559
 20
107.342213375
 30
0.0
 10
375.1537727312
 20
107.7546644855
 30
0.0
 10
374.9225517351
 20
108.3454143613
 30
0.0
 10
374.6070805523
 20
108.8995588765
 30
0.0
 10
374.3488043387
 20
109.2387335331
 30
0.0
 10
374.2096747046
 20
109.400833712
 30
0.0
  0
SPLINE
  5
3D4
330
220
100
AcDbEntity
  8
02___PRT_ALL_AXES
  6
Continuous
 62
     7
100
AcDbSpline
 70
     0
 71
     3
 72
    11
 73
     7
 74
     0
 42
0.000000001
 43
0.0000001
 40
0.0
 40
0.0
 40
0.0
 40
0.0
 40
0.252622295
 40
0.5025521247
 40
0.7514760527
 40
1.0
 40
1.0
 40
1.0
 40
1.0
 10
335.5787970035
 20
103.8263704383
 30
0.0
 10
335.4906476117
 20
103.6310822625
 30
0.0
 10
335.3380238016
 20
103.2317335477
 30
0.0
 10
335.1903437029
 20
102.6096158228
 30
0.0
 10
335.1352019547
 20
101.9758635666
 30
0.0
 10
335.1624578591
 20
101.5528554607
 30
0.0
 10
335.1925052135
 20
101.3442230531
 30
0.0
  0
SPLINE
  5
3D5
330
220
100
AcDbEntity
  8
02___PRT_ALL_AXES
  6
Continuous
 62
     7
100
AcDbSpline
 70
     0
 71
     3
 72
    15
 73
    11
 74
     0
 42
0.000000001
 43
0.0000001
 40
0.0
 40
0.0
 40
0.0
 40
0.0
 40
0.0802789647
 40
0.1786828941
 40
0.2945597353
 40
0.4250584994
 40
0.5659912945
 40
0.7123262986
 40
0.8588652669
 40
1.0
 40
1.0
 40
1.0
 40
1.0
 10
347.8885392365
 20
98.3238374054
 30
0.0
 10
347.8421582938
 20
98.2902344476
 30
0.0
 10
347.7533676849
 20
98.1958245009
 30
0.0
 10
347.6462976669
 20
98.0140109815
 30
0.0
 10
347.5548379974
 20
97.7848108313
 30
0.0
 10
347.48311202
 20
97.5174542792
 30
0.0
 10
347.4341333256
 20
97.2230307127
 30
0.0
 10
347.410045884
 20
96.9140941055
 30
0.0
 10
347.4120452774
 20
96.6041160647
 30
0.0
 10
347.4311559646
 20
96.3994199874
 30
0.0
 10
347.4455605422
 20
96.2997642732
 30
0.0
  0
SPLINE
  5
3D6
330
220
100
AcDbEntity
  8
02___PRT_ALL_AXES
  6
Continuous
 62
     7
100
AcDbSpline
 70
     0
 71
     3
 72
    26
 73
    22
 74
     0
 42
0.000000001
 43
0.0000001
 40
0.0
 40
0.0
 40
0.0
 40
0.0
 40
0.0725061143
 40
0.1475314518
 40
0.2241065958
 40
0.3012256168
 40
0.3778552336
 40
0.4529823314
 40
0.5256430983
 40
0.5949626298
 40
0.6601987294
 40
0.7207977043
 40
0.7764670438
 40
0.827274896
 40
0.8737733257
 40
0.8957644754
 40
0.9171377411
 40
0.9380937856
 40
0.9588124582
 40
0.9794185063
 40
1.0
 40
1.0
 40
1.0
 40
1.0
 10
347.9710480781
 20
95.3888193342
 30
0.0
 10
348.7463876859
 20
95.3622038463
 30
0.0
 10
350.3258286298
 20
95.3535183824
 30
0.0
 10
352.7220935044
 20
95.4641003008
 30
0.0
 10
355.159269093
 20
95.696117309
 30
0.0
 10
357.5996597009
 20
96.0457991276
 30
0.0
 10
360.0055542682
 20
96.5077766844
 30
0.0
 10
362.3398233974
 20
97.0750196762
 30
0.0
 10
364.5669913285
 20
97.7392144822
 30
0.0
 10
366.6541239349
 20
98.4911216692
 30
0.0
 10
368.5718184136
 20
99.3213062502
 30
0.0
 10
370.295047014
 20
100.2211656419
 30
0.0
 10
371.8040094739
 20
101.1850318528
 30
0.0
 10
373.0829593468
 20
102.21233304
 30
0.0
 10
373.9616990221
 20
103.1468872045
 30
0.0
 10
374.516036675
 20
103.9343270375
 30
0.0
 10
374.8510903361
 20
104.537205204
 30
0.0
 10
375.1050110391
 20
105.1641889914
 30
0.0
 10
375.2698038487
 20
105.812289223
 30
0.0
 10
375.3347302379
 20
106.4740558255
 30
0.0
 10
375.3076199735
 20
106.9161753485
 30
0.0
 10
375.2764045231
 20
107.1341682979
 30
0.0
  0
SPLINE
  5
3D7
330
220
100
AcDbEntity
  8
02___PRT_ALL_AXES
  6
Continuous
 62
     7
100
AcDbSpline
 70
     0
 71
     3
 72
    12
 73
     8
 74
     0
 42
0.000000001
 43
0.0000001
 40
0.0
 40
0.0
 40
0.0
 40
0.0
 40
0.2446700918
 40
0.3675194923
 40
0.490899312
 40
0.7409252776
 40
1.0
 40
1.0
 40
1.0
 40
1.0
 10
335.1925052135
 20
101.3442230531
 30
0.0
 10
335.2388364338
 20
101.0225243789
 30
0.0
 10
335.3683919207
 20
100.5456197862
 30
0.0
 10
335.6446856454
 20
99.9539612544
 30
0.0
 10
335.9879829131
 20
99.3897256886
 30
0.0
 10
336.5316890153
 20
98.7422929077
 30
0.0
 10
337.050986768
 20
98.3044653807
 30
0.0
 10
337.3283334703
 20
98.1007007896
 30
0.0
  0
SPLINE
  5
3D8
330
220
100
AcDbEntity
  8
02___PRT_ALL_AXES
  6
Continuous
 62
     7
100
AcDbSpline
 70
     0
 71
     3
 72
    15
 73
    11
 74
     0
 42
0.000000001
 43
0.0000001
 40
0.0
 40
0.0
 40
0.0
 40
0.0
 40
0.1148287439
 40
0.2326432829
 40
0.3552481179
 40
0.4826986304
 40
0.613458977
 40
0.7450021232
 40
0.8745461506
 40
1.0
 40
1.0
 40
1.0
 40
1.0
 10
337.3283552016
 20
98.1007302869
 30
0.0
 10
337.4326001599
 20
98.0241308618
 30
0.0
 10
337.6727590925
 20
97.9048696856
 30
0.0
 10
338.0766072945
 20
97.8545932534
 30
0.0
 10
338.4899504562
 20
97.9326436116
 30
0.0
 10
338.8769081032
 20
98.1300549262
 30
0.0
 10
339.2056753373
 20
98.4285415166
 30
0.0
 10
339.448985941
 20
98.8027845474
 30
0.0
 10
339.5865997118
 20
99.2210401707
 30
0.0
 10
339.5992809603
 20
99.51266852
 30
0.0
 10
339.5842575493
 20
99.6531994481
 30
0.0
  0
SPLINE
  5
3D9
330
220
100
AcDbEntity
  8
02___PRT_ALL_AXES
  6
Continuous
 62
     7
100
AcDbSpline
 70
     0
 71
     3
 72
    11
 73
     7
 74
     0
 42
0.000000001
 43
0.0000001
 40
0.0
 40
0.0
 40
0.0
 40
0.0
 40
0.2572673079
 40
0.5089077881
 40
0.755693971
 40
1.0
 40
1.0
 40
1.0
 40
1.0
 10
336.8550137206
 20
98.9150791741
 30
0.0
 10
336.8668616416
 20
98.8331112707
 30
0.0
 10
336.9050953652
 20
98.6726619543
 30
0.0
 10
337.0059923622
 20
98.449629614
 30
0.0
 10
337.146986718
 20
98.2545286821
 30
0.0
 10
337.2649780982
 20
98.1472999222
 30
0.0
 10
337.3283552016
 20
98.1007302869
 30
0.0
  0
SPLINE
  5
3DA
330
220
100
AcDbEntity
  8
02___PRT_ALL_AXES
  6
Continuous
 62
     7
100
AcDbSpline
 70
     0
 71
     3
 72
    12
 73
     8
 74
     0
 42
0.000000001
 43
0.0000001
 40
0.0
 40
0.0
 40
0.0
 40
0.0
 40
0.2511547261
 40
0.5058459311
 40
0.6326535001
 40
0.7578021526
 40
1.0
 40
1.0
 40
1.0
 40
1.0
 10
337.7357839012
 20
100.5750644166
 30
0.0
 10
337.5880738191
 20
100.4976809302
 30
0.0
 10
337.3138682027
 20
100.2935421266
 30
0.0
 10
337.0609872186
 20
99.9503559493
 30
0.0
 10
336.9252265453
 20
99.6412652202
 30
0.0
 10
336.8396726774
 20
99.323691914
 30
0.0
 10
336.8320093623
 20
99.0742310644
 30
0.0
 10
336.8550137206
 20
98.9150791741
 30
0.0
  0
SPLINE
  5
3DB
330
220
100
AcDbEntity
  8
7_ALL_FEATURES
  6
Continuous
 62
     7
100
AcDbSpline
 70
     0
 71
     3
 72
    23
 73
    19
 74
     0
 42
0.000000001
 43
0.0000001
 40
0.0
 40
0.0
 40
0.0
 40
0.0
 40
0.0554826838
 40
0.1158042075
 40
0.1802872458
 40
0.2481666245
 40
0.3185776516
 40
0.3906020379
 40
0.4632834356
 40
0.535651265
 40
0.6067420398
 40
0.6756207808
 40
0.7414033312
 40
0.8032804858
 40
0.8605460425
 40
0.9126322536
 40
0.9591577106
 40
1.0
 40
1.0
 40
1.0
 40
1.0
 10
358.7648885781
 20
154.5777801794
 30
0.0
 10
358.320029961
 20
154.687637148
 30
0.0
 10
357.3809367344
 20
154.8750346548
 30
0.0
 10
355.9027055266
 20
155.0614714644
 30
0.0
 10
354.3136652708
 20
155.1627996909
 30
0.0
 10
352.6382978785
 20
155.1774152518
 30
0.0
 10
350.9021617973
 20
155.1049330387
 30
0.0
 10
349.1319842923
 20
154.9464276861
 30
0.0
 10
347.3550011779
 20
154.7042866741
 30
0.0
 10
345.5985789588
 20
154.3822422306
 30
0.0
 10
343.8897505374
 20
153.9852786061
 30
0.0
 10
342.2547791125
 20
153.519553872
 30
0.0
 10
340.7187324906
 20
152.9923024705
 30
0.0
 10
339.3050389951
 20
152.4116865529
 30
0.0
 10
338.0351254542
 20
151.7866882398
 30
0.0
 10
336.9277813869
 20
151.1266725386
 30
0.0
 10
335.9994436893
 20
150.441652621
 30
0.0
 10
335.4745796696
 20
149.9419954926
 30
0.0
 10
335.2517464968
 20
149.6887698
 30
0.0
  0
SPLINE
  5
3DC
330
220
100
AcDbEntity
  8
7_ALL_FEATURES
  6
Continuous
 62
     7
100
AcDbSpline
 70
     0
 71
     3
 72
    11
 73
     7
 74
     0
 42
0.000000001
 43
0.0000001
 40
0.0
 40
0.0
 40
0.0
 40
0.0
 40
0.2805778694
 40
0.5410743152
 40
0.7808257605
 40
1.0
 40
1.0
 40
1.0
 40
1.0
 10
358.7648885781
 20
154.5777801794
 30
0.0
 10
359.0357610705
 20
154.5108887452
 30
0.0
 10
359.5547151651
 20
154.3673623499
 30
0.0
 10
360.2884836884
 20
154.1114486416
 30
0.0
 10
360.9445032453
 20
153.8241774569
 30
0.0
 10
361.3448755909
 20
153.6032153792
 30
0.0
 10
361.5292950569
 20
153.4870632599
 30
0.0
  0
SPLINE
  5
3DD
330
220
100
AcDbEntity
  8
7_ALL_FEATURES
  6
Continuous
 62
     7
100
AcDbSpline
 70
     0
 71
     3
 72
    12
 73
     8
 74
     0
 42
0.000000001
 43
0.0000001
 40
0.0
 40
0.0
 40
0.0
 40
0.0
 40
0.2897345387
 40
0.5473773412
 40
0.7802871441
 40
0.8910314611
 40
1.0
 40
1.0
 40
1.0
 40
1.0
 10
335.1321360101
 20
149.5528371636
 30
0.0
 10
334.9693690356
 20
149.3678479032
 30
0.0
 10
334.6835669123
 20
148.9976701262
 30
0.0
 10
334.373106748
 20
148.4067566304
 30
0.0
 10
334.2387194829
 20
147.9075132453
 30
0.0
 10
334.2144346288
 20
147.5223365945
 30
0.0
 10
334.2282480349
 20
147.3352757649
 30
0.0
 10
334.2415088827
 20
147.2435580623
 30
0.0
  0
SPLINE
  5
3DE
330
220
100
AcDbEntity
  8
7_ALL_FEATURES
  6
Continuous
 62
     7
100
AcDbSpline
 70
     0
 71
     3
 72
    12
 73
     8
 74
     0
 42
0.000000001
 43
0.0000001
 40
0.0
 40
0.0
 40
0.0
 40
0.0
 40
0.2897352868
 40
0.5473792309
 40
0.7802881311
 40
0.8910314276
 40
1.0
 40
1.0
 40
1.0
 40
1.0
 10
361.6825623437
 20
153.3905265418
 30
0.0
 10
361.8910486077
 20
153.2591954345
 30
0.0
 10
362.2699782323
 20
152.985100057
 30
0.0
 10
362.7350576045
 20
152.5062852987
 30
0.0
 10
363.0053313299
 20
152.0655388506
 30
0.0
 10
363.1376712374
 20
151.7029977584
 30
0.0
 10
363.1773949084
 20
151.5196844169
 30
0.0
 10
363.1906557552
 20
151.4279667208
 30
0.0
  0
SPLINE
  5
3DF
330
220
100
AcDbEntity
  8
7_ALL_FEATURES
  6
Continuous
 62
     7
100
AcDbSpline
 70
     0
 71
     3
 72
    15
 73
    11
 74
     0
 42
0.000000001
 43
0.0000001
 40
0.0
 40
0.0
 40
0.0
 40
0.0
 40
0.091828117
 40
0.1880465706
 40
0.2923712717
 40
0.4075174074
 40
0.5352019073
 40
0.6763612393
 40
0.8313610142
 40
1.0
 40
1.0
 40
1.0
 40
1.0
 10
334.2415088827
 20
147.2435580623
 30
0.0
 10
334.2646410946
 20
147.0835657773
 30
0.0
 10
334.3527253915
 20
146.760571909
 30
0.0
 10
334.6010174534
 20
146.3053005048
 30
0.0
 10
334.9614586438
 20
145.8781362871
 30
0.0
 10
335.4292959155
 20
145.4814289143
 30
0.0
 10
336.0003411326
 20
145.1166102463
 30
0.0
 10
336.6704610942
 20
144.7857056954
 30
0.0
 10
337.4346731954
 20
144.4908176796
 30
0.0
 10
337.9807217889
 20
144.3263580552
 30
0.0
 10
338.2675037655
 20
144.2496054605
 30
0.0
  0
SPLINE
  5
3E0
330
220
100
AcDbEntity
  8
7_ALL_FEATURES
  6
Continuous
 62
     7
100
AcDbSpline
 70
     0
 71
     3
 72
    21
 73
    17
 74
     0
 42
0.000000001
 43
0.0000001
 40
0.0
 40
0.0
 40
0.0
 40
0.0
 40
0.0329691149
 40
0.0676551071
 40
0.1054901322
 40
0.1474917284
 40
0.1942830907
 40
0.246177393
 40
0.3032480322
 40
0.3653954438
 40
0.432387562
 40
0.5038851482
 40
0.5794705669
 40
0.6586573665
 40
0.8256051282
 40
1.0
 40
1.0
 40
1.0
 40
1.0
 10
363.1906557552
 20
151.4279667208
 30
0.0
 10
363.2148562446
 20
151.2605857709
 30
0.0
 10
363.2201129856
 20
150.9092822813
 30
0.0
 10
363.0969000451
 20
150.37787173
 30
0.0
 10
362.8476605647
 20
149.8420339204
 30
0.0
 10
362.4770600326
 20
149.3056013061
 30
0.0
 10
361.9891653634
 20
148.7714302385
 30
0.0
 10
361.3880644191
 20
148.2431168909
 30
0.0
 10
360.6786942173
 20
147.7245092105
 30
0.0
 10
359.8668458832
 20
147.2197734158
 30
0.0
 10
358.9592602642
 20
146.7331476498
 30
0.0
 10
357.9636158855
 20
146.2687161696
 30
0.0
 10
356.8883555056
 20
145.8304990356
 30
0.0
 10
355.333301156
 20
145.2765193795
 30
0.0
 10
353.2578666845
 20
144.6799281175
 30
0.0
 10
351.5429331062
 20
144.3185749718
 30
0.0
 10
350.6617978905
 20
144.163993471
 30
0.0
  0
SPLINE
  5
3E1
330
220
100
AcDbEntity
  8
7_ALL_FEATURES
  6
Continuous
 62
     7
100
AcDbSpline
 70
     0
 71
     3
 72
    11
 73
     7
 74
     0
 42
0.000000001
 43
0.0000001
 40
0.0
 40
0.0
 40
0.0
 40
0.0
 40
0.2749167148
 40
0.5361735197
 40
0.779172676
 40
1.0
 40
1.0
 40
1.0
 40
1.0
 10
346.0668758912
 20
143.6350810444
 30
0.0
 10
345.3743844963
 20
143.5974724066
 30
0.0
 10
344.0213588603
 20
143.5621523431
 30
0.0
 10
342.05566019
 20
143.6327463366
 30
0.0
 10
340.2352318426
 20
143.8260540153
 30
0.0
 10
339.0838213929
 20
144.0452055317
 30
0.0
 10
338.5430031994
 20
144.1787595308
 30
0.0
  0
SPLINE
  5
3E2
330
220
100
AcDbEntity
  8
7_ALL_FEATURES
  6
Continuous
 62
     7
100
AcDbSpline
 70
     0
 71
     3
 72
    23
 73
    19
 74
     0
 42
0.000000001
 43
0.0000001
 40
0.0
 40
0.0
 40
0.0
 40
0.0
 40
0.0632425467
 40
0.1215629335
 40
0.1756414503
 40
0.2264130134
 40
0.2750804717
 40
0.3230446973
 40
0.3717824988
 40
0.4226882439
 40
0.4769513408
 40
0.5354975504
 40
0.5989912134
 40
0.6678585699
 40
0.7423530679
 40
0.8225860137
 40
0.9085352941
 40
1.0
 40
1.0
 40
1.0
 40
1.0
 10
335.1294692189
 20
149.54486766
 30
0.0
 10
335.0245988513
 20
149.4168981421
 30
0.0
 10
334.8345751189
 20
149.1609817915
 30
0.0
 10
334.6054210057
 20
148.7613065766
 30
0.0
 10
334.4455853541
 20
148.3637695365
 30
0.0
 10
334.3567701658
 20
147.970104959
 30
0.0
 10
334.3402102839
 20
147.5826014385
 30
0.0
 10
334.3967353579
 20
147.2041496496
 30
0.0
 10
334.5257799594
 20
146.8378349465
 30
0.0
 10
334.7258496849
 20
146.4862046705
 30
0.0
 10
334.9949651641
 20
146.1510041588
 30
0.0
 10
335.3311737195
 20
145.833455862
 30
0.0
 10
335.732586949
 20
145.5346840545
 30
0.0
 10
336.1971650309
 20
145.2556968676
 30
0.0
 10
336.7228046981
 20
144.9976923692
 30
0.0
 10
337.3070685242
 20
144.7617111785
 30
0.0
 10
337.9470478935
 20
144.5489735661
 30
0.0
 10
338.395103662
 20
144.426926454
 30
0.0
 10
338.627408885
 20
144.3695591319
 30
0.0
  0
SPLINE
  5
3E3
330
220
100
AcDbEntity
  8
7_ALL_FEATURES
  6
Continuous
 62
     7
100
AcDbSpline
 70
     0
 71
     3
 72
    33
 73
    29
 74
     0
 42
0.000000001
 43
0.0000001
 40
0.0
 40
0.0
 40
0.0
 40
0.0
 40
0.0205493124
 40
0.0391559043
 40
0.056208952
 40
0.0722619456
 40
0.0880066997
 40
0.1041836321
 40
0.1214659538
 40
0.1403789744
 40
0.1612846071
 40
0.1843976799
 40
0.2098212442
 40
0.2375706765
 40
0.2675953385
 40
0.2997949217
 40
0.3340263829
 40
0.3701164981
 40
0.4470298129
 40
0.5287077333
 40
0.6130787465
 40
0.6979521292
 40
0.7811153227
 40
0.8604316998
 40
0.8980297266
 40
0.9339520547
 40
0.968007104
 40
1.0
 40
1.0
 40
1.0
 40
1.0
 10
361.6887032477
 20
153.3827306581
 30
0.0
 10
361.8565389059
 20
153.2685181792
 30
0.0
 10
362.1641908216
 20
153.0317266789
 30
0.0
 10
362.5496350499
 20
152.6285047809
 30
0.0
 10
362.8307684744
 20
152.1977951627
 30
0.0
 10
363.0026892574
 20
151.7423111782
 30
0.0
 10
363.0614450888
 20
151.2674416822
 30
0.0
 10
363.0063401165
 20
150.7803180794
 30
0.0
 10
362.8401073148
 20
150.2868761511
 30
0.0
 10
362.5666115352
 20
149.7906962509
 30
0.0
 10
362.1890605074
 20
149.2944909009
 30
0.0
 10
361.7107278147
 20
148.8008808323
 30
0.0
 10
361.1350518971
 20
148.3129490598
 30
0.0
 10
360.4661774647
 20
147.8339651481
 30
0.0
 10
359.7089498862
 20
147.3673059287
 30
0.0
 10
358.8688871574
 20
146.9164657416
 30
0.0
 10
357.9522366662
 20
146.4847027114
 30
0.0
 10
356.6083190283
 20
145.9271161289
 30
0.0
 10
354.7858894707
 20
145.3055578283
 30
0.0
 10
352.4622897396
 20
144.6966367164
 30
0.0
 10
350.0262609746
 20
144.2281714169
 30
0.0
 10
347.5507800988
 20
143.9142883673
 30
0.0
 10
345.1100176446
 20
143.7643762492
 30
0.0
 10
343.1314667143
 20
143.7796889773
 30
0.0
 10
341.624633685
 20
143.8816431972
 30
0.0
 10
340.5679792917
 20
143.9988415007
 30
0.0
 10
339.5727347237
 20
144.1572127332
 30
0.0
 10
338.9342550248
 20
144.2937840756
 30
0.0
 10
338.627408885
 20
144.3695591319
 30
0.0
  0
SPLINE
  5
3E4
330
220
100
AcDbEntity
  8
02___PRT_ALL_AXES
  6
Continuous
 62
     7
100
AcDbSpline
 70
     0
 71
     3
 72
    14
 73
    10
 74
     0
 42
0.000000001
 43
0.0000001
 40
0.0
 40
0.0
 40
0.0
 40
0.0
 40
0.2436300445
 40
0.3655523818
 40
0.4890920341
 40
0.6146626352
 40
0.7420115411
 40
0.8706463733
 40
1.0
 40
1.0
 40
1.0
 40
1.0
 10
369.8625687109
 20
76.6622084035
 30
0.0
 10
370.4596758188
 20
76.9648977886
 30
0.0
 10
371.322282171
 20
77.4967796156
 30
0.0
 10
372.3294332303
 20
78.3910666322
 30
0.0
 10
372.9975093036
 20
79.1658224048
 30
0.0
 10
373.5515100729
 20
80.0443127433
 30
0.0
 10
373.9626646169
 20
81.0141390916
 30
0.0
 10
374.2056448375
 20
82.049934061
 30
0.0
 10
374.2443281349
 20
82.7622218183
 30
0.0
 10
374.2318468638
 20
83.1174400937
 30
0.0
  0
SPLINE
  5
3E5
330
220
100
AcDbEntity
  8
02___PRT_ALL_AXES
  6
Continuous
 62
     7
100
AcDbSpline
 70
     0
 71
     3
 72
    23
 73
    19
 74
     0
 42
0.000000001
 43
0.0000001
 40
0.0
 40
0.0
 40
0.0
 40
0.0
 40
0.0631009059
 40
0.1259102151
 40
0.1880679163
 40
0.2492608562
 40
0.3093398266
 40
0.3686118732
 40
0.4279221161
 40
0.4882908586
 40
0.550369173
 40
0.6142947188
 40
0.6796598201
 40
0.7456857517
 40
0.8114514331
 40
0.8760352019
 40
0.9390135047
 40
1.0
 40
1.0
 40
1.0
 40
1.0
 10
353.4042077699
 20
80.6656423693
 30
0.0
 10
353.4688753236
 20
80.2629473981
 30
0.0
 10
353.6813867392
 20
79.4703559638
 30
0.0
 10
354.2305918928
 20
78.3771300143
 30
0.0
 10
354.9757663728
 20
77.4227602809
 30
0.0
 10
355.8706123064
 20
76.6354165692
 30
0.0
 10
356.8686086188
 20
76.0210921287
 30
0.0
 10
357.9341354025
 20
75.566704503
 30
0.0
 10
359.0489131396
 20
75.2490105918
 30
0.0
 10
360.2080199345
 20
75.0469218954
 30
0.0
 10
361.4097558813
 20
74.9459044683
 30
0.0
 10
362.6477437205
 20
74.9375511048
 30
0.0
 10
363.9086100754
 20
75.0174571304
 30
0.0
 10
365.1731830759
 20
75.1821011538
 30
0.0
 10
366.419246553
 20
75.4285231034
 30
0.0
 10
367.6269323232
 20
75.7534731413
 30
0.0
 10
368.778119785
 20
76.156873359
 30
0.0
 10
369.5109759617
 20
76.48397674
 30
0.0
 10
369.8625687109
 20
76.6622084035
 30
0.0
  0
SPLINE
  5
3E6
330
220
100
AcDbEntity
  8
02___PRT_ALL_AXES
  6
Continuous
 62
     7
100
AcDbSpline
 70
     0
 71
     3
 72
    11
 73
     7
 74
     0
 42
0.000000001
 43
0.0000001
 40
0.0
 40
0.0
 40
0.0
 40
0.0
 40
0.2188760306
 40
0.4615649383
 40
0.7233742147
 40
1.0
 40
1.0
 40
1.0
 40
1.0
 10
374.0252500931
 20
83.8016843993
 30
0.0
 10
374.1216742447
 20
84.0209365062
 30
0.0
 10
374.3023356507
 20
84.4933018234
 30
0.0
 10
374.5374681592
 20
85.2494833938
 30
0.0
 10
374.7540971038
 20
86.0766014613
 30
0.0
 10
374.884613492
 20
86.6512648733
 30
0.0
 10
374.9481460272
 20
86.9472375011
 30
0.0
  0
SPLINE
  5
3E7
330
220
100
AcDbEntity
  8
02___PRT_ALL_AXES
  6
Continuous
 62
     7
100
AcDbSpline
 70
     0
 71
     3
 72
     9
 73
     5
 74
     0
 42
0.000000001
 43
0.0000001
 40
0.0
 40
0.0
 40
0.0
 40
0.0
 40
0.2535123638
 40
1.0
 40
1.0
 40
1.0
 40
1.0
 10
352.0180348021
 20
81.7105122159
 30
0.0
 10
352.1275213563
 20
81.6206467592
 30
0.0
 10
352.5623248755
 20
81.2697810388
 30
0.0
 10
353.0100348249
 20
80.9346150323
 30
0.0
 10
353.3531683204
 20
80.6975123378
 30
0.0
  0
SPLINE
  5
3E8
330
220
100
AcDbEntity
  8
02___PRT_ALL_AXES
  6
Continuous
 62
     7
100
AcDbSpline
 70
     0
 71
     3
 72
    24
 73
    20
 74
     0
 42
0.000000001
 43
0.0000001
 40
0.0
 40
0.0
 40
0.0
 40
0.0
 40
0.0850142354
 40
0.152159858
 40
0.201301759
 40
0.2204199739
 40
0.2368846119
 40
0.25162166
 40
0.265618177
 40
0.2946770899
 40
0.3292071942
 40
0.3712416297
 40
0.4215402807
 40
0.4804586232
 40
0.5482512607
 40
0.625118693
 40
0.8047699327
 40
0.9034561713
 40
1.0
 40
1.0
 40
1.0
 40
1.0
 10
373.3767634914
 20
81.9344944382
 30
0.0
 10
373.3870990648
 20
81.8629894642
 30
0.0
 10
373.4119158349
 20
81.735645077
 30
0.0
 10
373.4678059877
 20
81.5734079837
 30
0.0
 10
373.526966514
 20
81.4728614128
 30
0.0
 10
373.5784954157
 20
81.4219818143
 30
0.0
 10
373.6148143477
 20
81.3987058877
 30
0.0
 10
373.6516707641
 20
81.3864145555
 30
0.0
 10
373.7013486694
 20
81.3839948933
 30
0.0
 10
373.7654670756
 20
81.4078584802
 30
0.0
 10
373.8335873955
 20
81.4678985328
 30
0.0
 10
373.8977469942
 20
81.5552007629
 30
0.0
 10
373.9577935016
 20
81.6692371035
 30
0.0
 10
374.0130680119
 20
81.8093844705
 30
0.0
 10
374.0622755965
 20
81.9754525434
 30
0.0
 10
374.1203431183
 20
82.2450652372
 30
0.0
 10
374.1517468386
 20
82.5465444043
 30
0.0
 10
374.151176795
 20
82.865332225
 30
0.0
 10
374.1366553095
 20
83.0309456318
 30
0.0
 10
374.1249180302
 20
83.112148079
 30
0.0
  0
SPLINE
  5
3E9
330
220
100
AcDbEntity
  8
02___PRT_ALL_AXES
  6
Continuous
 62
     7
100
AcDbSpline
 70
     0
 71
     3
 72
    11
 73
     7
 74
     0
 42
0.000000001
 43
0.0000001
 40
0.0
 40
0.0
 40
0.0
 40
0.0
 40
0.2351794049
 40
0.4693002152
 40
0.7174603104
 40
1.0
 40
1.0
 40
1.0
 40
1.0
 10
371.9555278719
 20
82.2366229379
 30
0.0
 10
372.0657528992
 20
82.2131911285
 30
0.0
 10
372.2907815301
 20
82.1856842633
 30
0.0
 10
372.636134952
 20
82.2259369133
 30
0.0
 10
372.9785123686
 20
82.3695556978
 30
0.0
 10
373.1800815324
 20
82.5296044065
 30
0.0
 10
373.2770955543
 20
82.6240307585
 30
0.0
  0
SPLINE
  5
3EA
330
220
100
AcDbEntity
  8
02___PRT_ALL_AXES
  6
Continuous
 62
     7
100
AcDbSpline
 70
     0
 71
     3
 72
    11
 73
     7
 74
     0
 42
0.000000001
 43
0.0000001
 40
0.0
 40
0.0
 40
0.0
 40
0.0
 40
0.2472822527
 40
0.4961410312
 40
0.7469333428
 40
1.0
 40
1.0
 40
1.0
 40
1.0
 10
360.4904722594
 20
79.6182602953
 30
0.0
 10
360.8542312978
 20
79.5322944525
 30
0.0
 10
361.5890247681
 20
79.3797571439
 30
0.0
 10
362.7083334313
 20
79.2244465051
 30
0.0
 10
363.8455833249
 20
79.1590586412
 30
0.0
 10
364.6081922388
 20
79.1871109958
 30
0.0
 10
364.9892039883
 20
79.2210736457
 30
0.0
  0
SPLINE
  5
3EB
330
220
100
AcDbEntity
  8
02___PRT_ALL_AXES
  6
Continuous
 62
     7
100
AcDbSpline
 70
     0
 71
     3
 72
    11
 73
     7
 74
     0
 42
0.000000001
 43
0.0000001
 40
0.0
 40
0.0
 40
0.0
 40
0.0
 40
0.2488706556
 40
0.4987662255
 40
0.7492501856
 40
1.0
 40
1.0
 40
1.0
 40
1.0
 10
367.8554678914
 20
79.8756643063
 30
0.0
 10
368.2244242008
 20
80.0133819979
 30
0.0
 10
368.9503509686
 20
80.3267228232
 30
0.0
 10
369.9947634718
 20
80.8904008385
 30
0.0
 10
370.9975540973
 20
81.5301271596
 30
0.0
 10
371.6400029051
 20
81.99601969
 30
0.0
 10
371.9555278719
 20
82.2366229379
 30
0.0
  0
SPLINE
  5
3EC
330
220
100
AcDbEntity
  8
02___PRT_ALL_AXES
  6
Continuous
 62
     7
100
AcDbSpline
 70
     0
 71
     3
 72
    20
 73
    16
 74
     0
 42
0.000000001
 43
0.0000001
 40
0.0
 40
0.0
 40
0.0
 40
0.0
 40
0.0596564409
 40
0.1187041918
 40
0.1781476407
 40
0.2384304068
 40
0.3613921166
 40
0.4875508874
 40
0.6160292228
 40
0.6809595105
 40
0.7460688096
 40
0.811074678
 40
0.8755126609
 40
0.9386877312
 40
1.0
 40
1.0
 40
1.0
 40
1.0
 10
365.0888719253
 20
78.5315373254
 30
0.0
 10
365.0999109021
 20
78.4551659702
 30
0.0
 10
365.1497722557
 20
78.3057715007
 30
0.0
 10
365.2954460811
 20
78.1224110082
 30
0.0
 10
365.4862082613
 20
77.9874131223
 30
0.0
 10
365.7777552501
 20
77.8660804205
 30
0.0
 10
366.1809543912
 20
77.8121480347
 30
0.0
 10
366.6696790124
 20
77.8691954096
 30
0.0
 10
367.0636846827
 20
78.0064635962
 30
0.0
 10
367.3560724414
 20
78.1701894591
 30
0.0
 10
367.5589035073
 20
78.3216471169
 30
0.0
 10
367.7361079668
 20
78.5019648447
 30
0.0
 10
367.875481079
 20
78.7107438608
 30
0.0
 10
367.9600988633
 20
78.9430534985
 30
0.0
 10
367.9664812038
 20
79.1076368627
 30
0.0
 10
367.9551358285
 20
79.186127986
 30
0.0
  0
SPLINE
  5
3ED
330
220
100
AcDbEntity
  8
02___PRT_ALL_AXES
  6
Continuous
 62
     7
100
AcDbSpline
 70
     0
 71
     3
 72
    11
 73
     7
 74
     0
 42
0.000000001
 43
0.0000001
 40
0.0
 40
0.0
 40
0.0
 40
0.0
 40
0.2591730041
 40
0.5100725776
 40
0.7561716078
 40
1.0
 40
1.0
 40
1.0
 40
1.0
 10
357.5126440871
 20
79.0237821249
 30
0.0
 10
357.7769350749
 20
79.007235734
 30
0.0
 10
358.3002258161
 20
79.0120559951
 30
0.0
 10
359.0663643372
 20
79.127420766
 30
0.0
 10
359.7967798483
 20
79.3320960837
 30
0.0
 10
360.2629562169
 20
79.5167600758
 30
0.0
 10
360.4904722594
 20
79.6182602953
 30
0.0
  0
SPLINE
  5
3EE
330
220
100
AcDbEntity
  8
02___PRT_ALL_AXES
  6
Continuous
 62
     7
100
AcDbSpline
 70
     0
 71
     3
 72
    21
 73
    17
 74
     0
 42
0.000000001
 43
0.0000001
 40
0.0
 40
0.0
 40
0.0
 40
0.0
 40
0.1534056043
 40
0.2304538202
 40
0.3042509718
 40
0.3741783106
 40
0.4401868582
 40
0.5608834572
 40
0.6163445274
 40
0.6689453305
 40
0.7192947265
 40
0.7684428437
 40
0.8181910362
 40
0.8713530888
 40
0.9312845768
 40
1.0
 40
1.0
 40
1.0
 40
1.0
 10
355.4942026598
 20
78.8573087848
 30
0.0
 10
355.5177729205
 20
78.6942417916
 30
0.0
 10
355.6151465997
 20
78.4572458417
 30
0.0
 10
355.8063718552
 20
78.1921256403
 30
0.0
 10
355.9708171992
 20
78.0201048633
 30
0.0
 10
356.1461761242
 20
77.8778000237
 30
0.0
 10
356.3798302054
 20
77.7308573256
 30
0.0
 10
356.6238628461
 20
77.6314002396
 30
0.0
 10
356.8665940655
 20
77.5885922102
 30
0.0
 10
357.0375669711
 20
77.5859782713
 30
0.0
 10
357.1996191486
 20
77.6142541414
 30
0.0
 10
357.3487808337
 20
77.6773509645
 30
0.0
 10
357.4781847152
 20
77.7808480594
 30
0.0
 10
357.5759661503
 20
77.9295295265
 30
0.0
 10
357.6270492208
 20
78.1211612988
 30
0.0
 10
357.6228699203
 20
78.2612027271
 30
0.0
 10
357.6123120241
 20
78.3342458046
 30
0.0
  0
SPLINE
  5
3EF
330
220
100
AcDbEntity
  8
02___PRT_ALL_AXES
  6
Continuous
 62
     7
100
AcDbSpline
 70
     0
 71
     3
 72
    15
 73
    11
 74
     0
 42
0.000000001
 43
0.0000001
 40
0.0
 40
0.0
 40
0.0
 40
0.0
 40
0.0862276671
 40
0.1779895539
 40
0.2797173404
 40
0.3943380002
 40
0.5234195252
 40
0.6675632486
 40
0.8266975543
 40
1.0
 40
1.0
 40
1.0
 40
1.0
 10
371.4935185526
 20
91.8221477713
 30
0.0
 10
371.510160659
 20
91.7069883666
 30
0.0
 10
371.5099589472
 20
91.4631242804
 30
0.0
 10
371.4086017705
 20
91.0957964223
 30
0.0
 10
371.2114040227
 20
90.7266883316
 30
0.0
 10
370.9225361585
 20
90.3585673905
 30
0.0
 10
370.545591536
 20
89.9936741906
 30
0.0
 10
370.084217511
 20
89.6350747108
 30
0.0
 10
369.5431447978
 20
89.2862689169
 30
0.0
 10
369.1489917916
 20
89.0712499107
 30
0.0
 10
368.9404070739
 20
88.9655128007
 30
0.0
  0
SPLINE
  5
3F0
330
220
100
AcDbEntity
  8
02___PRT_ALL_AXES
  6
Continuous
 62
     9
100
AcDbSpline
 70
     0
 71
     3
 72
    15
 73
    11
 74
     0
 42
0.000000001
 43
0.0000001
 40
0.0
 40
0.0
 40
0.0
 40
0.0
 40
0.0977397623
 40
0.1995448915
 40
0.3079431976
 40
0.4248914313
 40
0.5518228841
 40
0.6897025013
 40
0.8390717764
 40
1.0
 40
1.0
 40
1.0
 40
1.0
 10
353.4085664999
 20
80.6563160275
 30
0.0
 10
353.4285088158
 20
80.5651436303
 30
0.0
 10
353.4875370309
 20
80.3825685163
 30
0.0
 10
353.6281694771
 20
80.1227380774
 30
0.0
 10
353.8203996001
 20
79.8749451405
 30
0.0
 10
354.0626755866
 20
79.6402353772
 30
0.0
 10
354.3536576461
 20
79.4194405437
 30
0.0
 10
354.6918568902
 20
79.2133157391
 30
0.0
 10
355.0755537276
 20
79.0228161111
 30
0.0
 10
355.3501772636
 20
78.9108751577
 30
0.0
 10
355.4942026598
 20
78.8573087848
 30
0.0
  0
SPLINE
  5
3F1
330
220
100
AcDbEntity
  8
02___PRT_ALL_AXES
  6
Continuous
 62
     7
100
AcDbSpline
 70
     0
 71
     3
 72
     9
 73
     5
 74
     0
 42
0.000000001
 43
0.0000001
 40
0.0
 40
0.0
 40
0.0
 40
0.0
 40
0.2572611893
 40
1.0
 40
1.0
 40
1.0
 40
1.0
 10
353.8798475621
 20
80.3493975857
 30
0.0
 10
354.0042940363
 20
80.2710002545
 30
0.0
 10
354.4928536884
 20
79.9741744628
 30
0.0
 10
355.0032531162
 20
79.7118233537
 30
0.0
 10
355.3945347227
 20
79.5468451051
 30
0.0
  0
SPLINE
  5
3F2
330
220
100
AcDbEntity
  8
02___PRT_ALL_AXES
  6
Continuous
 62
     7
100
AcDbSpline
 70
     0
 71
     3
 72
    25
 73
    21
 74
     0
 42
0.000000001
 43
0.0000001
 40
0.0
 40
0.0
 40
0.0
 40
0.0
 40
0.0147700944
 40
0.030010833
 40
0.0461437507
 40
0.0635074085
 40
0.1027896673
 40
0.1490459464
 40
0.2024864676
 40
0.2627569529
 40
0.3291291212
 40
0.4006140836
 40
0.4760372275
 40
0.5540947212
 40
0.6334018324
 40
0.7125360854
 40
0.7900823167
 40
0.8646665789
 40
0.9350229438
 40
1.0
 40
1.0
 40
1.0
 40
1.0
 10
353.6786394092
 20
89.2472557111
 30
0.0
 10
353.6901527963
 20
89.1675858207
 30
0.0
 10
353.7297091154
 20
89.0076223073
 30
0.0
 10
353.8358604663
 20
88.7781701402
 30
0.0
 10
353.988040633
 20
88.5590104653
 30
0.0
 10
354.2616609498
 20
88.2701279521
 30
0.0
 10
354.7242934671
 20
87.9441279432
 30
0.0
 10
355.4137667381
 20
87.6245445408
 30
0.0
 10
356.2479920058
 20
87.3643971179
 30
0.0
 10
357.2110737471
 20
87.168704986
 30
0.0
 10
358.2843702068
 20
87.0413141447
 30
0.0
 10
359.4462111128
 20
86.9850406587
 30
0.0
 10
360.6728796696
 20
87.0011862465
 30
0.0
 10
361.9391400725
 20
87.0895310718
 30
0.0
 10
363.2188619713
 20
87.2483153795
 30
0.0
 10
364.4856235491
 20
87.4742665389
 30
0.0
 10
365.7132354647
 20
87.7627087299
 30
0.0
 10
366.8764963149
 20
88.1075997907
 30
0.0
 10
367.9513447692
 20
88.5017470125
 30
0.0
 10
368.6245460783
 20
88.8053945082
 30
0.0
 10
368.9404070739
 20
88.9655128007
 30
0.0
  0
SPLINE
  5
3F3
330
220
100
AcDbEntity
  8
02___PRT_ALL_AXES
  6
Continuous
 62
     7
100
AcDbSpline
 70
     0
 71
     3
 72
     9
 73
     5
 74
     0
 42
0.000000001
 43
0.0000001
 40
0.0
 40
0.0
 40
0.0
 40
0.0
 40
0.47507187
 40
1.0
 40
1.0
 40
1.0
 40
1.0
 10
354.3731448414
 20
80.0386851991
 30
0.0
 10
354.5252429389
 20
79.9428840873
 30
0.0
 10
354.8587615599
 20
79.7621882052
 30
0.0
 10
355.2083745174
 20
79.6160823872
 30
0.0
 10
355.3945347227
 20
79.5468451051
 30
0.0
  0
SPLINE
  5
3F4
330
220
100
AcDbEntity
  8
02___PRT_ALL_AXES
  6
Continuous
 62
     7
100
AcDbSpline
 70
     0
 71
     3
 72
    11
 73
     7
 74
     0
 42
0.000000001
 43
0.0000001
 40
0.0
 40
0.0
 40
0.0
 40
0.0
 40
0.2269338484
 40
0.4742007322
 40
0.7345425202
 40
1.0
 40
1.0
 40
1.0
 40
1.0
 10
357.5126440871
 20
79.0237821249
 30
0.0
 10
358.0740087529
 20
78.9378419615
 30
0.0
 10
359.2574310174
 20
78.8238415498
 30
0.0
 10
361.0972918133
 20
78.8050120159
 30
0.0
 10
363.0294744732
 20
78.9307480393
 30
0.0
 10
364.3345153446
 20
79.1084164865
 30
0.0
 10
364.9892039883
 20
79.2210736457
 30
0.0
  0
SPLINE
  5
3F5
330
220
100
AcDbEntity
  8
02___PRT_ALL_AXES
  6
Continuous
 62
     7
100
AcDbSpline
 70
     0
 71
     3
 72
    14
 73
    10
 74
     0
 42
0.000000001
 43
0.0000001
 40
0.0
 40
0.0
 40
0.0
 40
0.0
 40
0.2966801184
 40
0.4353764246
 40
0.5663604611
 40
0.6888403024
 40
0.8021727494
 40
0.9059656543
 40
1.0
 40
1.0
 40
1.0
 40
1.0
 10
367.8554678914
 20
79.8756643063
 30
0.0
 10
368.4383271448
 20
80.0443139157
 30
0.0
 10
369.2851892388
 20
80.3240387094
 30
0.0
 10
370.35743918
 20
80.7631274308
 30
0.0
 10
371.0836114228
 20
81.1045912088
 30
0.0
 10
371.743475388
 20
81.4623925971
 30
0.0
 10
372.3313034543
 20
81.8335117668
 30
0.0
 10
372.8417988018
 20
82.2146310386
 30
0.0
 10
373.1425644595
 20
82.4865980363
 30
0.0
 10
373.2770955543
 20
82.6240307585
 30
0.0
  0
SPLINE
  5
3F6
330
220
100
AcDbEntity
  8
02___PRT_ALL_AXES
  6
Continuous
 62
     9
100
AcDbSpline
 70
     0
 71
     3
 72
    11
 73
     7
 74
     0
 42
0.000000001
 43
0.0000001
 40
0.0
 40
0.0
 40
0.0
 40
0.0
 40
0.2269338484
 40
0.4742007322
 40
0.7345425202
 40
1.0
 40
1.0
 40
1.0
 40
1.0
 10
357.6123120241
 20
78.3342458046
 30
0.0
 10
358.17367669
 20
78.2483056412
 30
0.0
 10
359.3570989545
 20
78.1343052295
 30
0.0
 10
361.1969597504
 20
78.1154756956
 30
0.0
 10
363.1291424103
 20
78.241211719
 30
0.0
 10
364.4341832817
 20
78.4188801662
 30
0.0
 10
365.0888719253
 20
78.5315373254
 30
0.0
  0
SPLINE
  5
3F7
330
220
100
AcDbEntity
  8
02___PRT_ALL_AXES
  6
Continuous
 62
     9
100
AcDbSpline
 70
     0
 71
     3
 72
    10
 73
     6
 74
     0
 42
0.000000001
 43
0.0000001
 40
0.0
 40
0.0
 40
0.0
 40
0.0
 40
0.5238193442
 40
0.7687336067
 40
1.0
 40
1.0
 40
1.0
 40
1.0
 10
367.9551358285
 20
79.186127986
 30
0.0
 10
368.5379788831
 20
79.3547729083
 30
0.0
 10
369.3848698702
 20
79.6344923348
 30
0.0
 10
370.4570817944
 20
80.0736008376
 30
0.0
 10
370.9565427072
 20
80.3084233543
 30
0.0
 10
371.195477001
 20
80.4295454671
 30
0.0
  0
SPLINE
  5
3F8
330
220
100
AcDbEntity
  8
02___PRT_ALL_AXES
  6
Continuous
 62
     9
100
AcDbSpline
 70
     0
 71
     3
 72
    11
 73
     7
 74
     0
 42
0.000000001
 43
0.0000001
 40
0.0
 40
0.0
 40
0.0
 40
0.0
 40
0.2168749643
 40
0.4561896759
 40
0.7175760912
 40
1.0
 40
1.0
 40
1.0
 40
1.0
 10
373.3767634914
 20
81.9344944382
 30
0.0
 10
373.242217074
 20
81.7970460629
 30
0.0
 10
372.9414731319
 20
81.5250757793
 30
0.0
 10
372.4309478534
 20
81.1439595244
 30
0.0
 10
371.8431503237
 20
80.7728814208
 30
0.0
 10
371.4188852099
 20
80.5427969968
 30
0.0
 10
371.195477001
 20
80.4295454671
 30
0.0
  0
SPLINE
  5
3F9
330
220
100
AcDbEntity
  8
02___PRT_ALL_AXES
  6
Continuous
 62
     7
100
AcDbSpline
 70
     0
 71
     3
 72
    14
 73
    10
 74
     0
 42
0.000000001
 43
0.0000001
 40
0.0
 40
0.0
 40
0.0
 40
0.0
 40
0.3367521023
 40
0.4850501897
 40
0.6174433225
 40
0.7333478636
 40
0.8335065661
 40
0.920577768
 40
1.0
 40
1.0
 40
1.0
 40
1.0
 10
343.8575148074
 20
121.1230718037
 30
0.0
 10
343.8754776447
 20
120.998798852
 30
0.0
 10
343.9123408619
 20
120.8207218046
 30
0.0
 10
343.9893371609
 20
120.6034241352
 30
0.0
 10
344.0537162535
 20
120.4698774863
 30
0.0
 10
344.1260925764
 20
120.3613448271
 30
0.0
 10
344.2054527069
 20
120.2796524514
 30
0.0
 10
344.2913637731
 20
120.2270382455
 30
0.0
 10
344.3534055025
 20
120.2131376391
 30
0.0
 10
344.3830023718
 20
120.2121277333
 30
0.0
  0
SPLINE
  5
3FA
330
220
100
AcDbEntity
  8
02___PRT_ALL_AXES
  6
Continuous
 62
     7
100
AcDbSpline
 70
     0
 71
     3
 72
    11
 73
     7
 74
     0
 42
0.000000001
 43
0.0000001
 40
0.0
 40
0.0
 40
0.0
 40
0.0
 40
0.2484858494
 40
0.4974875519
 40
0.7474317797
 40
1.0
 40
1.0
 40
1.0
 40
1.0
 10
371.6883587882
 20
131.9574758284
 30
0.0
 10
371.658567821
 20
132.1655209055
 30
0.0
 10
371.5657269963
 20
132.577972016
 30
0.0
 10
371.3345060003
 20
133.1687218918
 30
0.0
 10
371.0190348174
 20
133.722866407
 30
0.0
 10
370.7607586038
 20
134.0620410637
 30
0.0
 10
370.6216289698
 20
134.2241412425
 30
0.0
  0
SPLINE
  5
3FB
330
220
100
AcDbEntity
  8
02___PRT_ALL_AXES
  6
Continuous
 62
     7
100
AcDbSpline
 70
     0
 71
     3
 72
    11
 73
     7
 74
     0
 42
0.000000001
 43
0.0000001
 40
0.0
 40
0.0
 40
0.0
 40
0.0
 40
0.252622295
 40
0.5025521247
 40
0.7514760527
 40
1.0
 40
1.0
 40
1.0
 40
1.0
 10
331.9907512686
 20
128.6496779688
 30
0.0
 10
331.9026018768
 20
128.454389793
 30
0.0
 10
331.7499780667
 20
128.0550410782
 30
0.0
 10
331.6022979681
 20
127.4329233533
 30
0.0
 10
331.5471562198
 20
126.7991710971
 30
0.0
 10
331.5744121242
 20
126.3761629912
 30
0.0
 10
331.6044594786
 20
126.1675305836
 30
0.0
  0
SPLINE
  5
3FC
330
220
100
AcDbEntity
  8
02___PRT_ALL_AXES
  6
Continuous
 62
     7
100
AcDbSpline
 70
     0
 71
     3
 72
    15
 73
    11
 74
     0
 42
0.000000001
 43
0.0000001
 40
0.0
 40
0.0
 40
0.0
 40
0.0
 40
0.0802789647
 40
0.1786828941
 40
0.2945597353
 40
0.4250584994
 40
0.5659912945
 40
0.7123262986
 40
0.8588652669
 40
1.0
 40
1.0
 40
1.0
 40
1.0
 10
344.3004935016
 20
123.1471449359
 30
0.0
 10
344.2541125589
 20
123.1135419781
 30
0.0
 10
344.16532195
 20
123.0191320315
 30
0.0
 10
344.058251932
 20
122.837318512
 30
0.0
 10
343.9667922625
 20
122.6081183618
 30
0.0
 10
343.8950662852
 20
122.3407618097
 30
0.0
 10
343.8460875907
 20
122.0463382432
 30
0.0
 10
343.8220001491
 20
121.737401636
 30
0.0
 10
343.8239995426
 20
121.4274235952
 30
0.0
 10
343.8431102297
 20
121.2227275179
 30
0.0
 10
343.8575148074
 20
121.1230718037
 30
0.0
  0
SPLINE
  5
3FD
330
220
100
AcDbEntity
  8
02___PRT_ALL_AXES
  6
Continuous
 62
     7
100
AcDbSpline
 70
     0
 71
     3
 72
    26
 73
    22
 74
     0
 42
0.000000001
 43
0.0000001
 40
0.0
 40
0.0
 40
0.0
 40
0.0
 40
0.0725061143
 40
0.1475314518
 40
0.2241065958
 40
0.3012256168
 40
0.3778552336
 40
0.4529823314
 40
0.5256430983
 40
0.5949626298
 40
0.6601987294
 40
0.7207977043
 40
0.7764670438
 40
0.827274896
 40
0.8737733257
 40
0.8957644754
 40
0.9171377411
 40
0.9380937856
 40
0.9588124582
 40
0.9794185063
 40
1.0
 40
1.0
 40
1.0
 40
1.0
 10
344.3830023433
 20
120.2121268647
 30
0.0
 10
345.1583419511
 20
120.1855113769
 30
0.0
 10
346.737782895
 20
120.1768259129
 30
0.0
 10
349.1340477695
 20
120.2874078313
 30
0.0
 10
351.5712233581
 20
120.5194248395
 30
0.0
 10
354.0116139661
 20
120.8691066581
 30
0.0
 10
356.4175085334
 20
121.3310842149
 30
0.0
 10
358.7517776625
 20
121.8983272067
 30
0.0
 10
360.9789455936
 20
122.5625220127
 30
0.0
 10
363.0660782
 20
123.3144291997
 30
0.0
 10
364.9837726787
 20
124.1446137808
 30
0.0
 10
366.7070012791
 20
125.0444731724
 30
0.0
 10
368.215963739
 20
126.0083393833
 30
0.0
 10
369.494913612
 20
127.0356405705
 30
0.0
 10
370.3736532873
 20
127.970194735
 30
0.0
 10
370.9279909402
 20
128.757634568
 30
0.0
 10
371.2630446012
 20
129.3605127345
 30
0.0
 10
371.5169653042
 20
129.9874965219
 30
0.0
 10
371.6817581138
 20
130.6355967535
 30
0.0
 10
371.746684503
 20
131.297363356
 30
0.0
 10
371.7195742386
 20
131.739482879
 30
0.0
 10
371.6883587882
 20
131.9574758284
 30
0.0
  0
SPLINE
  5
3FE
330
220
100
AcDbEntity
  8
02___PRT_ALL_AXES
  6
Continuous
 62
     7
100
AcDbSpline
 70
     0
 71
     3
 72
    12
 73
     8
 74
     0
 42
0.000000001
 43
0.0000001
 40
0.0
 40
0.0
 40
0.0
 40
0.0
 40
0.2446700918
 40
0.3675194923
 40
0.490899312
 40
0.7409252776
 40
1.0
 40
1.0
 40
1.0
 40
1.0
 10
331.6044594786
 20
126.1675305836
 30
0.0
 10
331.6507906989
 20
125.8458319095
 30
0.0
 10
331.7803461858
 20
125.3689273167
 30
0.0
 10
332.0566399105
 20
124.7772687849
 30
0.0
 10
332.3999371782
 20
124.2130332191
 30
0.0
 10
332.9436432804
 20
123.5656004382
 30
0.0
 10
333.4629410332
 20
123.1277729112
 30
0.0
 10
333.7402877354
 20
122.9240083201
 30
0.0
  0
SPLINE
  5
3FF
330
220
100
AcDbEntity
  8
02___PRT_ALL_AXES
  6
Continuous
 62
     7
100
AcDbSpline
 70
     0
 71
     3
 72
    15
 73
    11
 74
     0
 42
0.000000001
 43
0.0000001
 40
0.0
 40
0.0
 40
0.0
 40
0.0
 40
0.1148287439
 40
0.2326432829
 40
0.3552481179
 40
0.4826986304
 40
0.613458977
 40
0.7450021232
 40
0.8745461506
 40
1.0
 40
1.0
 40
1.0
 40
1.0
 10
333.7403094668
 20
122.9240378174
 30
0.0
 10
333.844554425
 20
122.8474383923
 30
0.0
 10
334.0847133577
 20
122.7281772161
 30
0.0
 10
334.4885615596
 20
122.6779007839
 30
0.0
 10
334.9019047213
 20
122.7559511421
 30
0.0
 10
335.2888623683
 20
122.9533624567
 30
0.0
 10
335.6176296025
 20
123.2518490471
 30
0.0
 10
335.8609402062
 20
123.6260920779
 30
0.0
 10
335.9985539769
 20
124.0443477012
 30
0.0
 10
336.0112352254
 20
124.3359760505
 30
0.0
 10
335.9962118145
 20
124.4765069786
 30
0.0
  0
SPLINE
  5
400
330
220
100
AcDbEntity
  8
02___PRT_ALL_AXES
  6
Continuous
 62
     7
100
AcDbSpline
 70
     0
 71
     3
 72
    11
 73
     7
 74
     0
 42
0.000000001
 43
0.0000001
 40
0.0
 40
0.0
 40
0.0
 40
0.0
 40
0.2572673079
 40
0.5089077881
 40
0.755693971
 40
1.0
 40
1.0
 40
1.0
 40
1.0
 10
333.2669679857
 20
123.7383867046
 30
0.0
 10
333.2788159067
 20
123.6564188012
 30
0.0
 10
333.3170496303
 20
123.4959694848
 30
0.0
 10
333.4179466273
 20
123.2729371445
 30
0.0
 10
333.5589409831
 20
123.0778362126
 30
0.0
 10
333.6769323634
 20
122.9706074527
 30
0.0
 10
333.7403094668
 20
122.9240378174
 30
0.0
  0
SPLINE
  5
401
330
220
100
AcDbEntity
  8
02___PRT_ALL_AXES
  6
Continuous
 62
     7
100
AcDbSpline
 70
     0
 71
     3
 72
    12
 73
     8
 74
     0
 42
0.000000001
 43
0.0000001
 40
0.0
 40
0.0
 40
0.0
 40
0.0
 40
0.2511547261
 40
0.5058459311
 40
0.6326535001
 40
0.7578021526
 40
1.0
 40
1.0
 40
1.0
 40
1.0
 10
334.1477381663
 20
125.3983719471
 30
0.0
 10
334.0000280842
 20
125.3209884607
 30
0.0
 10
333.7258224678
 20
125.1168496571
 30
0.0
 10
333.4729414837
 20
124.7736634798
 30
0.0
 10
333.3371808104
 20
124.4645727507
 30
0.0
 10
333.2516269425
 20
124.1469994445
 30
0.0
 10
333.2439636274
 20
123.8975385949
 30
0.0
 10
333.2669679857
 20
123.7383867046
 30
0.0
  0
SPLINE
  5
402
330
220
100
AcDbEntity
  8
7_ALL_FEATURES
  6
Continuous
 62
     7
100
AcDbSpline
 70
     0
 71
     3
 72
     9
 73
     5
 74
     0
 42
0.000000001
 43
0.0000001
 40
0.0
 40
0.0
 40
0.0
 40
0.0
 40
0.47562695
 40
1.0
 40
1.0
 40
1.0
 40
1.0
 10
338.9293916415
 20
116.3263320381
 30
0.0
 10
339.67075122
 20
116.1432547348
 30
0.0
 10
341.2511860505
 20
115.844827601
 30
0.0
 10
342.8498853005
 20
115.6802222122
 30
0.0
 10
343.6898118208
 20
115.6227078542
 30
0.0
  0
SPLINE
  5
403
330
220
100
AcDbEntity
  8
02___PRT_ALL_AXES
  6
Continuous
 62
     7
100
AcDbSpline
 70
     0
 71
     3
 72
    15
 73
    11
 74
     0
 42
0.000000001
 43
0.0000001
 40
0.0
 40
0.0
 40
0.0
 40
0.0
 40
0.1698180492
 40
0.3258452782
 40
0.4677183241
 40
0.59571122
 40
0.71069352
 40
0.8143676222
 40
0.9095080057
 40
1.0
 40
1.0
 40
1.0
 40
1.0
 10
342.3181015022
 20
92.8820971482
 30
0.0
 10
341.9103295874
 20
92.982795628
 30
0.0
 10
341.13351901
 20
93.2002842701
 30
0.0
 10
340.0448806421
 20
93.5952818888
 30
0.0
 10
339.0893785966
 20
94.0427862991
 30
0.0
 10
338.2747158862
 20
94.539592048
 30
0.0
 10
337.6072053653
 20
95.0827844883
 30
0.0
 10
337.093009801
 20
95.6702686693
 30
0.0
 10
336.7393896366
 20
96.2989146429
 30
0.0
 10
336.6148612921
 20
96.7466536875
 30
0.0
 10
336.5828285508
 20
96.9681690782
 30
0.0
  0
SPLINE
  5
404
330
220
100
AcDbEntity
  8
02___PRT_ALL_AXES
  6
Continuous
 62
     7
100
AcDbSpline
 70
     0
 71
     3
 72
    11
 73
     7
 74
     0
 42
0.000000001
 43
0.0000001
 40
0.0
 40
0.0
 40
0.0
 40
0.0
 40
0.2236345941
 40
0.4667014205
 40
0.7265136963
 40
1.0
 40
1.0
 40
1.0
 40
1.0
 10
342.3181015022
 20
92.8820971482
 30
0.0
 10
342.9150583519
 20
92.7346798174
 30
0.0
 10
344.1749784495
 20
92.4830265453
 30
0.0
 10
346.1580592355
 20
92.2321461606
 30
0.0
 10
348.289478712
 20
92.0950279314
 30
0.0
 10
349.7565112032
 20
92.081219266
 30
0.0
 10
350.508381857
 20
92.0927067673
 30
0.0
  0
SPLINE
  5
405
330
220
100
AcDbEntity
  8
02___PRT_ALL_AXES
  6
Continuous
 62
     7
100
AcDbSpline
 70
     0
 71
     3
 72
    23
 73
    19
 74
     0
 42
0.000000001
 43
0.0000001
 40
0.0
 40
0.0
 40
0.0
 40
0.0
 40
0.159207821
 40
0.3216369361
 40
0.4016031725
 40
0.4794276643
 40
0.5541888976
 40
0.6250321232
 40
0.6911941808
 40
0.7520336217
 40
0.8070705546
 40
0.8560428634
 40
0.8989931529
 40
0.9183618264
 40
0.93645594
 40
0.9694435491
 40
0.9848870814
 40
1.0
 40
1.0
 40
1.0
 40
1.0
 10
350.508381857
 20
92.0927067673
 30
0.0
 10
352.0222627264
 20
92.1158366879
 30
0.0
 10
355.0795852247
 20
92.3132798334
 30
0.0
 10
358.8600043822
 20
92.8904382157
 30
0.0
 10
361.8339223946
 20
93.5500621641
 30
0.0
 10
363.9692147208
 20
94.1291698913
 30
0.0
 10
365.9906846635
 20
94.7867715951
 30
0.0
 10
367.8700410903
 20
95.5135772704
 30
0.0
 10
369.5811231254
 20
96.2992984694
 30
0.0
 10
371.1003282404
 20
97.1329024257
 30
0.0
 10
372.4072623419
 20
98.0030717835
 30
0.0
 10
373.4844020035
 20
98.8982506147
 30
0.0
 10
374.2028077014
 20
99.6821610419
 30
0.0
 10
374.6368926554
 20
100.3133944586
 30
0.0
 10
374.9576177296
 20
100.9023279475
 30
0.0
 10
375.1622647738
 20
101.5106654323
 30
0.0
 10
375.220370419
 20
102.1142626605
 30
0.0
 10
375.2021548821
 20
102.4057893797
 30
0.0
 10
375.1815854392
 20
102.5480328469
 30
0.0
  0
SPLINE
  5
406
330
220
100
AcDbEntity
  8
7_ALL_FEATURES
  6
Continuous
 62
     7
100
AcDbSpline
 70
     0
 71
     3
 72
     9
 73
     5
 74
     0
 42
0.000000001
 43
0.0000001
 40
0.0
 40
0.0
 40
0.0
 40
0.0
 40
0.2618402368
 40
1.0
 40
1.0
 40
1.0
 40
1.0
 10
337.8330443336
 20
123.9112315613
 30
0.0
 10
337.6716937798
 20
123.9510767662
 30
0.0
 10
337.0574241067
 20
124.1108698895
 30
0.0
 10
336.4509857678
 20
124.3019802878
 30
0.0
 10
336.0117578241
 20
124.4650769181
 30
0.0
  0
SPLINE
  5
407
330
220
100
AcDbEntity
  8
7_ALL_FEATURES
  6
Continuous
 62
     7
100
AcDbSpline
 70
     0
 71
     3
 72
     9
 73
     5
 74
     0
 42
0.000000001
 43
0.0000001
 40
0.0
 40
0.0
 40
0.0
 40
0.0
 40
0.2591009825
 40
1.0
 40
1.0
 40
1.0
 40
1.0
 10
335.9659855663
 20
124.4821661295
 30
0.0
 10
335.876718388
 20
124.5156762022
 30
0.0
 10
335.5335721416
 20
124.6486238616
 30
0.0
 10
335.1960902615
 20
124.7964358885
 30
0.0
 10
334.9508856892
 20
124.9156581417
 30
0.0
  0
SPLINE
  5
408
330
220
100
AcDbEntity
  8
7_ALL_FEATURES
  6
Continuous
 62
     7
100
AcDbSpline
 70
     0
 71
     3
 72
    14
 73
    10
 74
     0
 42
0.000000001
 43
0.0000001
 40
0.0
 40
0.0
 40
0.0
 40
0.0
 40
0.3010698815
 40
0.4362397304
 40
0.5620201803
 40
0.6795586171
 40
0.7903836737
 40
0.8964368949
 40
1.0
 40
1.0
 40
1.0
 40
1.0
 10
334.9508856892
 20
124.9156581417
 30
0.0
 10
334.5568909737
 20
125.1072244623
 30
0.0
 10
334.0013092801
 20
125.4218207602
 30
0.0
 10
333.352036116
 20
125.9209366477
 30
0.0
 10
332.9523779803
 20
126.3016371064
 30
0.0
 10
332.6241420993
 20
126.700765168
 30
0.0
 10
332.3691085929
 20
127.1172888066
 30
0.0
 10
332.1889290904
 20
127.5494251047
 30
0.0
 10
332.1193391306
 20
127.8481564617
 30
0.0
 10
332.0977713822
 20
127.9973034914
 30
0.0
  0
SPLINE
  5
409
330
220
100
AcDbEntity
  8
7_ALL_FEATURES
  6
Continuous
 62
     7
100
AcDbSpline
 70
     0
 71
     3
 72
    11
 73
     7
 74
     0
 42
0.000000001
 43
0.0000001
 40
0.0
 40
0.0
 40
0.0
 40
0.0
 40
0.2217747458
 40
0.4624439633
 40
0.7219960848
 40
1.0
 40
1.0
 40
1.0
 40
1.0
 10
335.4210427385
 20
117.6646642665
 30
0.0
 10
335.6612949748
 20
117.5238968708
 30
0.0
 10
336.1772503875
 20
117.2555647969
 30
0.0
 10
337.0136342788
 20
116.9039194581
 30
0.0
 10
337.9392401424
 20
116.5887316085
 30
0.0
 10
338.5905179081
 20
116.4100162463
 30
0.0
 10
338.9293916415
 20
116.3263320381
 30
0.0
  0
SPLINE
  5
40A
330
220
100
AcDbEntity
  8
7_ALL_FEATURES
  6
Continuous
 62
     7
100
AcDbSpline
 70
     0
 71
     3
 72
     9
 73
     5
 74
     0
 42
0.000000001
 43
0.0000001
 40
0.0
 40
0.0
 40
0.0
 40
0.0
 40
0.2618402368
 40
1.0
 40
1.0
 40
1.0
 40
1.0
 10
341.4210900685
 20
99.0879240308
 30
0.0
 10
341.2597395147
 20
99.1277692357
 30
0.0
 10
340.6454698415
 20
99.287562359
 30
0.0
 10
340.0390315027
 20
99.4786727573
 30
0.0
 10
339.599803559
 20
99.6417693876
 30
0.0
  0
SPLINE
  5
40B
330
220
100
AcDbEntity
  8
7_ALL_FEATURES
  6
Continuous
 62
     7
100
AcDbSpline
 70
     0
 71
     3
 72
     9
 73
     5
 74
     0
 42
0.000000001
 43
0.0000001
 40
0.0
 40
0.0
 40
0.0
 40
0.0
 40
0.2591009825
 40
1.0
 40
1.0
 40
1.0
 40
1.0
 10
339.5540313012
 20
99.658858599
 30
0.0
 10
339.4647641228
 20
99.6923686717
 30
0.0
 10
339.1216178765
 20
99.8253163311
 30
0.0
 10
338.7841359964
 20
99.973128358
 30
0.0
 10
338.5389314241
 20
100.0923506111
 30
0.0
  0
SPLINE
  5
40C
330
220
100
AcDbEntity
  8
7_ALL_FEATURES
  6
Continuous
 62
     7
100
AcDbSpline
 70
     0
 71
     3
 72
    14
 73
    10
 74
     0
 42
0.000000001
 43
0.0000001
 40
0.0
 40
0.0
 40
0.0
 40
0.0
 40
0.3010698815
 40
0.4362397304
 40
0.5620201803
 40
0.6795586171
 40
0.7903836737
 40
0.8964368949
 40
1.0
 40
1.0
 40
1.0
 40
1.0
 10
338.5389314241
 20
100.0923506111
 30
0.0
 10
338.1449367086
 20
100.2839169318
 30
0.0
 10
337.5893550149
 20
100.5985132297
 30
0.0
 10
336.9400818509
 20
101.0976291172
 30
0.0
 10
336.5404237152
 20
101.4783295759
 30
0.0
 10
336.2121878342
 20
101.8774576375
 30
0.0
 10
335.9571543278
 20
102.2939812761
 30
0.0
 10
335.7769748253
 20
102.7261175742
 30
0.0
 10
335.7073848655
 20
103.0248489312
 30
0.0
 10
335.6858171171
 20
103.1739959609
 30
0.0
  0
SPLINE
  5
40D
330
220
100
AcDbEntity
  8
7_ALL_FEATURES
  6
Continuous
 62
     7
100
AcDbSpline
 70
     0
 71
     3
 72
    13
 73
     9
 74
     0
 42
0.000000001
 43
0.0000001
 40
0.0
 40
0.0
 40
0.0
 40
0.0
 40
0.1036096179
 40
0.2097080485
 40
0.4376338499
 40
0.5634842314
 40
0.6987241021
 40
1.0
 40
1.0
 40
1.0
 40
1.0
 10
374.2845740055
 20
108.7538597295
 30
0.0
 10
374.3061532783
 20
108.6046330056
 30
0.0
 10
374.324060877
 20
108.2982413939
 30
0.0
 10
374.2554336224
 20
107.662641203
 30
0.0
 10
374.0252288811
 20
107.0232272662
 30
0.0
 10
373.6693234073
 20
106.4062146167
 30
0.0
 10
373.1875332047
 20
105.7429552556
 30
0.0
 10
372.7433306546
 20
105.2838305396
 30
0.0
 10
372.419406369
 20
104.9883681136
 30
0.0
  0
SPLINE
  5
40E
330
220
100
AcDbEntity
  8
7_ALL_FEATURES
  6
Continuous
 62
     7
100
AcDbSpline
 70
     0
 71
     3
 72
    18
 73
    14
 74
     0
 42
0.000000001
 43
0.0000001
 40
0.0
 40
0.0
 40
0.0
 40
0.0
 40
0.042967353
 40
0.0900571047
 40
0.1411477255
 40
0.1960181518
 40
0.2543731448
 40
0.3158567453
 40
0.4465194817
 40
0.5843710783
 40
0.7253630176
 40
0.8652901881
 40
1.0
 40
1.0
 40
1.0
 40
1.0
 10
372.419406369
 20
104.9883681136
 30
0.0
 10
372.1473235506
 20
104.7401920638
 30
0.0
 10
371.5490221459
 20
104.2504014586
 30
0.0
 10
370.551130812
 20
103.5646167607
 30
0.0
 10
369.4194283348
 20
102.8993814215
 30
0.0
 10
368.1635905447
 20
102.2603676249
 30
0.0
 10
366.7941933126
 20
101.6529918399
 30
0.0
 10
364.7917077945
 20
100.876759478
 30
0.0
 10
362.0898558045
 20
100.0288767449
 30
0.0
 10
358.6694668288
 20
99.2292365415
 30
0.0
 10
355.1234464019
 20
98.6555974659
 30
0.0
 10
351.5736334573
 20
98.3276657959
 30
0.0
 10
349.2175894272
 20
98.2786179348
 30
0.0
 10
348.0632475331
 20
98.3019508126
 30
0.0
  0
SPLINE
  5
40F
330
220
100
AcDbEntity
  8
7_ALL_FEATURES
  6
Continuous
 62
     7
100
AcDbSpline
 70
     0
 71
     3
 72
    11
 73
     7
 74
     0
 42
0.000000001
 43
0.0000001
 40
0.0
 40
0.0
 40
0.0
 40
0.0
 40
0.2714401581
 40
0.5298943185
 40
0.7733719974
 40
1.0
 40
1.0
 40
1.0
 40
1.0
 10
348.0632475331
 20
98.3019508126
 30
0.0
 10
347.457070009
 20
98.3142035656
 30
0.0
 10
346.2740256399
 20
98.3637794127
 30
0.0
 10
344.5528617329
 20
98.5192917007
 30
0.0
 10
342.9415191154
 20
98.7526927215
 30
0.0
 10
341.9125337105
 20
98.9665629811
 30
0.0
 10
341.4210900685
 20
99.0879240308
 30
0.0
  0
SPLINE
  5
410
330
220
100
AcDbEntity
  8
7_ALL_FEATURES
  6
Continuous
 62
     7
100
AcDbSpline
 70
     0
 71
     3
 72
    13
 73
     9
 74
     0
 42
0.000000001
 43
0.0000001
 40
0.0
 40
0.0
 40
0.0
 40
0.0
 40
0.1036096179
 40
0.2097080485
 40
0.4376338499
 40
0.5634842314
 40
0.6987241021
 40
1.0
 40
1.0
 40
1.0
 40
1.0
 10
370.6965282706
 20
133.57716726
 30
0.0
 10
370.7181075434
 20
133.4279405361
 30
0.0
 10
370.7360151422
 20
133.1215489244
 30
0.0
 10
370.6673878875
 20
132.4859487335
 30
0.0
 10
370.4371831462
 20
131.8465347967
 30
0.0
 10
370.0812776724
 20
131.2295221472
 30
0.0
 10
369.5994874699
 20
130.5662627861
 30
0.0
 10
369.1552849197
 20
130.1071380701
 30
0.0
 10
368.8313606342
 20
129.8116756441
 30
0.0
  0
SPLINE
  5
411
330
220
100
AcDbEntity
  8
7_ALL_FEATURES
  6
Continuous
 62
     7
100
AcDbSpline
 70
     0
 71
     3
 72
    18
 73
    14
 74
     0
 42
0.000000001
 43
0.0000001
 40
0.0
 40
0.0
 40
0.0
 40
0.0
 40
0.042967353
 40
0.0900571047
 40
0.1411477255
 40
0.1960181518
 40
0.2543731448
 40
0.3158567453
 40
0.4465194817
 40
0.5843710783
 40
0.7253630176
 40
0.8652901881
 40
1.0
 40
1.0
 40
1.0
 40
1.0
 10
368.8313606342
 20
129.8116756441
 30
0.0
 10
368.5592778157
 20
129.5634995943
 30
0.0
 10
367.960976411
 20
129.0737089891
 30
0.0
 10
366.9630850771
 20
128.3879242912
 30
0.0
 10
365.8313825999
 20
127.722688952
 30
0.0
 10
364.5755448098
 20
127.0836751554
 30
0.0
 10
363.2061475777
 20
126.4762993704
 30
0.0
 10
361.2036620596
 20
125.7000670085
 30
0.0
 10
358.5018100696
 20
124.8521842754
 30
0.0
 10
355.0814210939
 20
124.052544072
 30
0.0
 10
351.535400667
 20
123.4789049965
 30
0.0
 10
347.9855877224
 20
123.1509733264
 30
0.0
 10
345.6295436923
 20
123.1019254653
 30
0.0
 10
344.4752017982
 20
123.1252583431
 30
0.0
  0
SPLINE
  5
412
330
220
100
AcDbEntity
  8
7_ALL_FEATURES
  6
Continuous
 62
     7
100
AcDbSpline
 70
     0
 71
     3
 72
    11
 73
     7
 74
     0
 42
0.000000001
 43
0.0000001
 40
0.0
 40
0.0
 40
0.0
 40
0.0
 40
0.2714401581
 40
0.5298943185
 40
0.7733719974
 40
1.0
 40
1.0
 40
1.0
 40
1.0
 10
344.4752017982
 20
123.1252583431
 30
0.0
 10
343.8690242741
 20
123.1375110961
 30
0.0
 10
342.685979905
 20
123.1870869432
 30
0.0
 10
340.964815998
 20
123.3425992312
 30
0.0
 10
339.3534733805
 20
123.576000252
 30
0.0
 10
338.3244879756
 20
123.7898705116
 30
0.0
 10
337.8330443336
 20
123.9112315613
 30
0.0
  0
SPLINE
  5
413
330
220
100
AcDbEntity
  8
7_ALL_FEATURES
  6
Continuous
 62
     7
100
AcDbSpline
 70
     0
 71
     3
 72
    27
 73
    23
 74
     0
 42
0.000000001
 43
0.0000001
 40
0.0
 40
0.0
 40
0.0
 40
0.0
 40
0.0596016508
 40
0.1250157381
 40
0.195270188
 40
0.2692221832
 40
0.3456108615
 40
0.4231017837
 40
0.5003282463
 40
0.5759312341
 40
0.6485996937
 40
0.7171127608
 40
0.7803867255
 40
0.8375321206
 40
0.8636110685
 40
0.8879568219
 40
0.9105541635
 40
0.9314274716
 40
0.9506445185
 40
0.9683336192
 40
0.9846917189
 40
1.0
 40
1.0
 40
1.0
 40
1.0
 10
338.331384019
 20
120.4635499599
 30
0.0
 10
339.0251318417
 20
120.2922302869
 30
0.0
 10
340.4993844994
 20
120.0085938701
 30
0.0
 10
342.8282402097
 20
119.7511268574
 30
0.0
 10
345.3410224402
 20
119.6456057035
 30
0.0
 10
347.9868261767
 20
119.694521199
 30
0.0
 10
350.7122180208
 20
119.8970931946
 30
0.0
 10
353.4618559118
 20
120.2493359744
 30
0.0
 10
356.1798890873
 20
120.7441207892
 30
0.0
 10
358.8111369672
 20
121.3713380097
 30
0.0
 10
361.302258432
 20
122.1181142565
 30
0.0
 10
363.6031158937
 20
122.9691195276
 30
0.0
 10
365.6673693522
 20
123.9069319201
 30
0.0
 10
367.2010183563
 20
124.7695312393
 30
0.0
 10
368.2688118882
 20
125.4940378207
 30
0.0
 10
368.9617329935
 20
126.0302284496
 30
0.0
 10
369.567912423
 20
126.5733265976
 30
0.0
 10
370.0844481916
 20
127.1207139976
 30
0.0
 10
370.5086242861
 20
127.6700600679
 30
0.0
 10
370.8382865213
 20
128.2190416082
 30
0.0
 10
371.0710624596
 20
128.7652904416
 30
0.0
 10
371.1627040789
 20
129.1359972262
 30
0.0
 10
371.1901057414
 20
129.3174773777
 30
0.0
  0
SPLINE
  5
414
330
220
100
AcDbEntity
  8
7_ALL_FEATURES
  6
Continuous
 62
     7
100
AcDbSpline
 70
     0
 71
     3
 72
    27
 73
    23
 74
     0
 42
0.000000001
 43
0.0000001
 40
0.0
 40
0.0
 40
0.0
 40
0.0
 40
0.0596016508
 40
0.1250157381
 40
0.195270188
 40
0.2692221832
 40
0.3456108615
 40
0.4231017837
 40
0.5003282463
 40
0.5759312341
 40
0.6485996937
 40
0.7171127608
 40
0.7803867255
 40
0.8375321206
 40
0.8636110685
 40
0.8879568219
 40
0.9105541635
 40
0.9314274716
 40
0.9506445185
 40
0.9683336192
 40
0.9846917189
 40
1.0
 40
1.0
 40
1.0
 40
1.0
 10
341.9194297539
 20
95.6402424294
 30
0.0
 10
342.6131775766
 20
95.4689227564
 30
0.0
 10
344.0874302343
 20
95.1852863395
 30
0.0
 10
346.4162859446
 20
94.9278193269
 30
0.0
 10
348.929068175
 20
94.822298173
 30
0.0
 10
351.5748719116
 20
94.8712136685
 30
0.0
 10
354.3002637557
 20
95.0737856641
 30
0.0
 10
357.0499016466
 20
95.4260284439
 30
0.0
 10
359.7679348222
 20
95.9208132586
 30
0.0
 10
362.399182702
 20
96.5480304792
 30
0.0
 10
364.8903041668
 20
97.294806726
 30
0.0
 10
367.1911616286
 20
98.1458119971
 30
0.0
 10
369.255415087
 20
99.0836243896
 30
0.0
 10
370.7890640912
 20
99.9462237088
 30
0.0
 10
371.856857623
 20
100.6707302902
 30
0.0
 10
372.5497787283
 20
101.2069209191
 30
0.0
 10
373.1559581579
 20
101.7500190671
 30
0.0
 10
373.6724939265
 20
102.2974064671
 30
0.0
 10
374.096670021
 20
102.8467525374
 30
0.0
 10
374.4263322562
 20
103.3957340777
 30
0.0
 10
374.6591081945
 20
103.9419829111
 30
0.0
 10
374.7507498138
 20
104.3126896957
 30
0.0
 10
374.7781514762
 20
104.4941698472
 30
0.0
  0
SPLINE
  5
415
330
220
100
AcDbEntity
  8
7_ALL_FEATURES
  6
Continuous
 62
     7
100
AcDbSpline
 70
     0
 71
     3
 72
    15
 73
    11
 74
     0
 42
0.000000001
 43
0.0000001
 40
0.0
 40
0.0
 40
0.0
 40
0.0
 40
0.1617084321
 40
0.3142384041
 40
0.4566089562
 40
0.5880365651
 40
0.7080119683
 40
0.8163651268
 40
0.9133851443
 40
1.0
 40
1.0
 40
1.0
 40
1.0
 10
347.5277080527
 20
95.8865190426
 30
0.0
 10
347.0521717215
 20
95.9226643122
 30
0.0
 10
346.1294934087
 20
96.0139643425
 30
0.0
 10
344.7974643476
 20
96.216114579
 30
0.0
 10
343.5668110594
 20
96.4777542599
 30
0.0
 10
342.4490016047
 20
96.7965231009
 30
0.0
 10
341.4542468811
 20
97.1693970986
 30
0.0
 10
340.591295758
 20
97.5933527832
 30
0.0
 10
339.8680203779
 20
98.0649873447
 30
0.0
 10
339.4621627986
 20
98.4284488822
 30
0.0
 10
339.2899936525
 20
98.6171524065
 30
0.0
  0
SPLINE
  5
416
330
220
100
AcDbEntity
  8
7_ALL_FEATURES
  6
Continuous
 62
     7
100
AcDbSpline
 70
     0
 71
     3
 72
    27
 73
    23
 74
     0
 42
0.000000001
 43
0.0000001
 40
0.0
 40
0.0
 40
0.0
 40
0.0
 40
0.0598124202
 40
0.1254860949
 40
0.1960323574
 40
0.2702881735
 40
0.3469711186
 40
0.4247245074
 40
0.5021599988
 40
0.5778985953
 40
0.6506121159
 40
0.7190667583
 40
0.7821717698
 40
0.8390390416
 40
0.8649423137
 40
0.8890916967
 40
0.9114774865
 40
0.9321309262
 40
0.9511303581
 40
0.9686173152
 40
0.9848067157
 40
1.0
 40
1.0
 40
1.0
 40
1.0
 10
337.0257340433
 20
129.4964757557
 30
0.0
 10
337.7239626713
 20
129.3240495566
 30
0.0
 10
339.208191147
 20
129.0389951822
 30
0.0
 10
341.5531448894
 20
128.7814367145
 30
0.0
 10
344.0836469556
 20
128.6777094423
 30
0.0
 10
346.7478090308
 20
128.7303059601
 30
0.0
 10
349.4911654372
 20
128.9383602805
 30
0.0
 10
352.2573276813
 20
129.2977261738
 30
0.0
 10
354.9894223456
 20
129.8010378854
 30
0.0
 10
357.6313096014
 20
130.4378830296
 30
0.0
 10
360.1287869758
 20
131.1950272165
 30
0.0
 10
362.4310014266
 20
132.0567389623
 30
0.0
 10
364.4910485864
 20
133.0051630332
 30
0.0
 10
366.0169344801
 20
133.8769318135
 30
0.0
 10
367.074984034
 20
134.6085391351
 30
0.0
 10
367.7587243718
 20
135.1492706959
 30
0.0
 10
368.3541621747
 20
135.6965661653
 30
0.0
 10
368.85838678
 20
136.2478129949
 30
0.0
 10
369.268724428
 20
136.8006278776
 30
0.0
 10
369.5829720221
 20
137.3527129611
 30
0.0
 10
369.7987627964
 20
137.9016129106
 30
0.0
 10
369.8774700051
 20
138.2730377598
 30
0.0
 10
369.8982946029
 20
138.4545359141
 30
0.0
  0
SPLINE
  5
417
330
220
100
AcDbEntity
  8
7_ALL_FEATURES
  6
Continuous
 62
     7
100
AcDbSpline
 70
     0
 71
     3
 72
     9
 73
     5
 74
     0
 42
0.000000001
 43
0.0000001
 40
0.0
 40
0.0
 40
0.0
 40
0.0
 40
0.2534436371
 40
1.0
 40
1.0
 40
1.0
 40
1.0
 10
369.8982946029
 20
138.4545359141
 30
0.0
 10
369.9051226038
 20
138.514045806
 30
0.0
 10
369.9248583965
 20
138.7496113859
 30
0.0
 10
369.9144706083
 20
138.9877824484
 30
0.0
 10
369.8892179802
 20
139.1624114544
 30
0.0
  0
SPLINE
  5
418
330
220
100
AcDbEntity
  8
7_ALL_FEATURES
  6
Continuous
 62
     7
100
AcDbSpline
 70
     0
 71
     3
 72
    15
 73
    11
 74
     0
 42
0.000000001
 43
0.0000001
 40
0.0
 40
0.0
 40
0.0
 40
0.0
 40
0.1617084321
 40
0.3142384041
 40
0.4566089562
 40
0.5880365651
 40
0.7080119683
 40
0.8163651268
 40
0.9133851443
 40
1.0
 40
1.0
 40
1.0
 40
1.0
 10
343.9396623178
 20
120.7098265731
 30
0.0
 10
343.4641259866
 20
120.7459718427
 30
0.0
 10
342.5414476739
 20
120.837271873
 30
0.0
 10
341.2094186127
 20
121.0394221095
 30
0.0
 10
339.9787653246
 20
121.3010617905
 30
0.0
 10
338.8609558698
 20
121.6198306314
 30
0.0
 10
337.8662011463
 20
121.9927046291
 30
0.0
 10
337.0032500231
 20
122.4166603137
 30
0.0
 10
336.279974643
 20
122.8882948752
 30
0.0
 10
335.8741170637
 20
123.2517564127
 30
0.0
 10
335.7019479176
 20
123.4404599371
 30
0.0
  0
SPLINE
  5
419
330
220
100
AcDbEntity
  8
7_ALL_FEATURES
  6
Continuous
 62
     7
100
AcDbSpline
 70
     0
 71
     3
 72
     9
 73
     5
 74
     0
 42
0.000000001
 43
0.0000001
 40
0.0
 40
0.0
 40
0.0
 40
0.0
 40
0.47562695
 40
1.0
 40
1.0
 40
1.0
 40
1.0
 10
340.9227503831
 20
102.5356056323
 30
0.0
 10
341.6641099616
 20
102.352528329
 30
0.0
 10
343.2445447921
 20
102.0541011952
 30
0.0
 10
344.8432440421
 20
101.8894958063
 30
0.0
 10
345.6831705624
 20
101.8319814483
 30
0.0
  0
SPLINE
  5
41A
330
220
100
AcDbEntity
  8
7_ALL_FEATURES
  6
Continuous
 62
     7
100
AcDbSpline
 70
     0
 71
     3
 72
    11
 73
     7
 74
     0
 42
0.000000001
 43
0.0000001
 40
0.0
 40
0.0
 40
0.0
 40
0.0
 40
0.2217747458
 40
0.4624439633
 40
0.7219960848
 40
1.0
 40
1.0
 40
1.0
 40
1.0
 10
337.4144014801
 20
103.8739378607
 30
0.0
 10
337.6546537164
 20
103.733170465
 30
0.0
 10
338.1706091291
 20
103.4648383911
 30
0.0
 10
339.0069930204
 20
103.1131930523
 30
0.0
 10
339.932598884
 20
102.7980052027
 30
0.0
 10
340.5838766497
 20
102.6192898404
 30
0.0
 10
340.9227503831
 20
102.5356056323
 30
0.0
  0
SPLINE
  5
41B
330
220
100
AcDbEntity
  8
7_ALL_FEATURES
  6
Continuous
 62
     7
100
AcDbSpline
 70
     0
 71
     3
 72
     9
 73
     5
 74
     0
 42
0.000000001
 43
0.0000001
 40
0.0
 40
0.0
 40
0.0
 40
0.0
 40
0.4914547691
 40
1.0
 40
1.0
 40
1.0
 40
1.0
 10
331.323934598
 20
133.3973453539
 30
0.0
 10
331.3570149418
 20
133.2450950223
 30
0.0
 10
331.451662505
 20
132.9406954753
 30
0.0
 10
331.5951890853
 20
132.6563761313
 30
0.0
 10
331.6782298539
 20
132.5181865494
 30
0.0
  0
SPLINE
  5
41C
330
220
100
AcDbEntity
  8
7_ALL_FEATURES
  6
Continuous
 62
     7
100
AcDbSpline
 70
     0
 71
     3
 72
     9
 73
     5
 74
     0
 42
0.000000001
 43
0.0000001
 40
0.0
 40
0.0
 40
0.0
 40
0.0
 40
0.2402304838
 40
1.0
 40
1.0
 40
1.0
 40
1.0
 10
331.8272105852
 20
132.2913758918
 30
0.0
 10
331.8669540278
 20
132.2357092013
 30
0.0
 10
332.0389716636
 20
132.0087015632
 30
0.0
 10
332.235675132
 20
131.8008540685
 30
0.0
 10
332.3942235016
 20
131.653690172
 30
0.0
  0
SPLINE
  5
41D
330
220
100
AcDbEntity
  8
7_ALL_FEATURES
  6
Continuous
 62
     7
100
AcDbSpline
 70
     0
 71
     3
 72
     9
 73
     5
 74
     0
 42
0.000000001
 43
0.0000001
 40
0.0
 40
0.0
 40
0.0
 40
0.0
 40
0.2365545292
 40
1.0
 40
1.0
 40
1.0
 40
1.0
 10
332.5956228124
 20
131.4762819063
 30
0.0
 10
332.6712502973
 20
131.4129699793
 30
0.0
 10
332.9981271383
 20
131.1539110057
 30
0.0
 10
333.3506183733
 20
130.9280648398
 30
0.0
 10
333.6276663373
 20
130.7713208958
 30
0.0
  0
SPLINE
  5
41E
330
220
100
AcDbEntity
  8
7_ALL_FEATURES
  6
Continuous
 62
     7
100
AcDbSpline
 70
     0
 71
     3
 72
     9
 73
     5
 74
     0
 42
0.000000001
 43
0.0000001
 40
0.0
 40
0.0
 40
0.0
 40
0.0
 40
0.2397981991
 40
1.0
 40
1.0
 40
1.0
 40
1.0
 10
333.8824800572
 20
130.6326402344
 30
0.0
 10
333.9673678081
 20
130.5881820629
 30
0.0
 10
334.3242062912
 20
130.4082247898
 30
0.0
 10
334.6914355222
 20
130.2491821691
 30
0.0
 10
334.9742221435
 20
130.1382073092
 30
0.0
  0
SPLINE
  5
41F
330
220
100
AcDbEntity
  8
7_ALL_FEATURES
  6
Continuous
 62
     7
100
AcDbSpline
 70
     0
 71
     3
 72
     9
 73
     5
 74
     0
 42
0.000000001
 43
0.0000001
 40
0.0
 40
0.0
 40
0.0
 40
0.0
 40
0.2394886665
 40
1.0
 40
1.0
 40
1.0
 40
1.0
 10
335.3862740433
 20
129.9842313332
 30
0.0
 10
335.5149515462
 20
129.938449485
 30
0.0
 10
336.0549626746
 20
129.7549270651
 30
0.0
 10
336.604667242
 20
129.6004573818
 30
0.0
 10
337.0257340433
 20
129.4964757557
 30
0.0
  0
SPLINE
  5
420
330
220
100
AcDbEntity
  8
7_ALL_FEATURES
  6
Continuous
 62
     7
100
AcDbSpline
 70
     0
 71
     3
 72
     9
 73
     5
 74
     0
 42
0.000000001
 43
0.0000001
 40
0.0
 40
0.0
 40
0.0
 40
0.0
 40
0.2384295283
 40
1.0
 40
1.0
 40
1.0
 40
1.0
 10
336.4720244928
 20
98.8408623899
 30
0.0
 10
336.5124934181
 20
98.7625122559
 30
0.0
 10
336.6962611528
 20
98.4411661306
 30
0.0
 10
336.9328124937
 20
98.1515286419
 30
0.0
 10
337.1302315124
 20
97.9506205622
 30
0.0
  0
SPLINE
  5
421
330
220
100
AcDbEntity
  8
7_ALL_FEATURES
  6
Continuous
 62
     7
100
AcDbSpline
 70
     0
 71
     3
 72
    11
 73
     7
 74
     0
 42
0.000000001
 43
0.0000001
 40
0.0
 40
0.0
 40
0.0
 40
0.0
 40
0.2037305575
 40
0.4373493061
 40
0.7028571785
 40
1.0
 40
1.0
 40
1.0
 40
1.0
 10
337.1302315124
 20
97.9506205622
 30
0.0
 10
337.3861073502
 20
97.6902225339
 30
0.0
 10
338.0019941317
 20
97.1959022458
 30
0.0
 10
339.1051576975
 20
96.5802969248
 30
0.0
 10
340.4322990251
 20
96.0478773797
 30
0.0
 10
341.4024939768
 20
95.7678987122
 30
0.0
 10
341.9194297539
 20
95.6402424294
 30
0.0
  0
SPLINE
  5
422
330
220
100
AcDbEntity
  8
7_ALL_FEATURES
  6
Continuous
 62
     7
100
AcDbSpline
 70
     0
 71
     3
 72
     9
 73
     5
 74
     0
 42
0.000000001
 43
0.0000001
 40
0.0
 40
0.0
 40
0.0
 40
0.0
 40
0.2384295283
 40
1.0
 40
1.0
 40
1.0
 40
1.0
 10
332.8839787579
 20
123.6641699204
 30
0.0
 10
332.9244476832
 20
123.5858197864
 30
0.0
 10
333.108215418
 20
123.2644736611
 30
0.0
 10
333.3447667588
 20
122.9748361724
 30
0.0
 10
333.5421857775
 20
122.7739280927
 30
0.0
  0
SPLINE
  5
423
330
220
100
AcDbEntity
  8
7_ALL_FEATURES
  6
Continuous
 62
     7
100
AcDbSpline
 70
     0
 71
     3
 72
    11
 73
     7
 74
     0
 42
0.000000001
 43
0.0000001
 40
0.0
 40
0.0
 40
0.0
 40
0.0
 40
0.2037305575
 40
0.4373493061
 40
0.7028571785
 40
1.0
 40
1.0
 40
1.0
 40
1.0
 10
333.5421857775
 20
122.7739280927
 30
0.0
 10
333.7980616153
 20
122.5135300644
 30
0.0
 10
334.4139483968
 20
122.0192097763
 30
0.0
 10
335.5171119626
 20
121.4036044553
 30
0.0
 10
336.8442532902
 20
120.8711849102
 30
0.0
 10
337.814448242
 20
120.5912062427
 30
0.0
 10
338.331384019
 20
120.4635499599
 30
0.0
  0
SPLINE
  5
424
330
220
100
AcDbEntity
  8
02___PRT_ALL_AXES
  6
Continuous
 62
     7
100
AcDbSpline
 70
     0
 71
     3
 72
    11
 73
     7
 74
     0
 42
0.000000001
 43
0.0000001
 40
0.0
 40
0.0
 40
0.0
 40
0.0
 40
0.2996540632
 40
0.5658152303
 40
0.7984432513
 40
1.0
 40
1.0
 40
1.0
 40
1.0
 10
338.2622214294
 20
144.1844359523
 30
0.0
 10
337.847806966
 20
144.2867747965
 30
0.0
 10
337.0724363971
 20
144.5118251539
 30
0.0
 10
336.0172590889
 20
144.9437550752
 30
0.0
 10
335.1506276215
 20
145.4449751508
 30
0.0
 10
334.675595541
 20
145.8498351406
 30
0.0
 10
334.4828736689
 20
146.0626667192
 30
0.0
  0
SPLINE
  5
425
330
220
100
AcDbEntity
  8
02___PRT_ALL_AXES
  6
Continuous
 62
     7
100
AcDbSpline
 70
     0
 71
     3
 72
    10
 73
     6
 74
     0
 42
0.000000001
 43
0.0000001
 40
0.0
 40
0.0
 40
0.0
 40
0.0
 40
0.5199859593
 40
0.7627206664
 40
1.0
 40
1.0
 40
1.0
 40
1.0
 10
334.4828736689
 20
146.0626667192
 30
0.0
 10
334.316201913
 20
146.2467299628
 30
0.0
 10
334.1002889647
 20
146.5476932004
 30
0.0
 10
333.9185132591
 20
146.9909943909
 30
0.0
 10
333.8666635502
 20
147.2155800833
 30
0.0
 10
333.8504512516
 20
147.3277235853
 30
0.0
  0
SPLINE
  5
426
330
220
100
AcDbEntity
  8
02___PRT_ALL_AXES
  6
Continuous
 62
     7
100
AcDbSpline
 70
     0
 71
     3
 72
    24
 73
    20
 74
     0
 42
0.000000001
 43
0.0000001
 40
0.0
 40
0.0
 40
0.0
 40
0.0
 40
0.057692652
 40
0.1207492362
 40
0.1883489766
 40
0.2595215746
 40
0.3331966202
 40
0.4082352145
 40
0.4834628954
 40
0.5577002725
 40
0.6297937549
 40
0.6986470392
 40
0.7632549083
 40
0.8227419475
 40
0.8764111945
 40
0.9238127456
 40
0.9451314497
 40
0.9648875589
 40
1.0
 40
1.0
 40
1.0
 40
1.0
 10
338.2622214294
 20
144.1844359523
 30
0.0
 10
338.7638420908
 20
144.0605617074
 30
0.0
 10
339.8267019937
 20
143.8527203822
 30
0.0
 10
341.5032813432
 20
143.6560314151
 30
0.0
 10
343.3096244996
 20
143.5630889055
 30
0.0
 10
345.213202257
 20
143.5758022248
 30
0.0
 10
347.1798138426
 20
143.6940634773
 30
0.0
 10
349.1739516553
 20
143.9158309074
 30
0.0
 10
351.1595870405
 20
144.2371296592
 30
0.0
 10
353.100840832
 20
144.6521370263
 30
0.0
 10
354.9626767128
 20
145.1532922342
 30
0.0
 10
356.711594736
 20
145.7314509693
 30
0.0
 10
358.3162556787
 20
146.3760667595
 30
0.0
 10
359.7483160705
 20
147.0754860167
 30
0.0
 10
360.9825513017
 20
147.8172128475
 30
0.0
 10
361.8581546341
 20
148.4818653488
 30
0.0
 10
362.433205966
 20
149.0284447734
 30
0.0
 10
362.8868210957
 20
149.5383583986
 30
0.0
 10
363.1621981068
 20
149.9521493809
 30
0.0
 10
363.2977905855
 20
150.2358780567
 30
0.0
  0
SPLINE
  5
427
330
220
100
AcDbEntity
  8
02___PRT_ALL_AXES
  6
Continuous
 62
     7
100
AcDbSpline
 70
     0
 71
     3
 72
    10
 73
     6
 74
     0
 42
0.000000001
 43
0.0000001
 40
0.0
 40
0.0
 40
0.0
 40
0.0
 40
0.5197679458
 40
0.7625796202
 40
1.0
 40
1.0
 40
1.0
 40
1.0
 10
363.2977905855
 20
150.2358780567
 30
0.0
 10
363.4041020931
 20
150.4583359952
 30
0.0
 10
363.5241353993
 20
150.806016115
 30
0.0
 10
363.5718904413
 20
151.2795284268
 30
0.0
 10
363.5579601733
 20
151.5081524375
 30
0.0
 10
363.5418462114
 20
151.6196157259
 30
0.0
  0
SPLINE
  5
428
330
220
100
AcDbEntity
  8
02___PRT_ALL_AXES
  6
Continuous
 62
     7
100
AcDbSpline
 70
     0
 71
     3
 72
    15
 73
    11
 74
     0
 42
0.000000001
 43
0.0000001
 40
0.0
 40
0.0
 40
0.0
 40
0.0
 40
0.169846574
 40
0.3258403226
 40
0.4677191718
 40
0.5957168069
 40
0.7106945761
 40
0.8143673988
 40
0.9095079752
 40
1.0
 40
1.0
 40
1.0
 40
1.0
 10
337.0257340433
 20
129.4964757557
 30
0.0
 10
336.6178809698
 20
129.5971942775
 30
0.0
 10
335.8410470641
 20
129.8146509351
 30
0.0
 10
334.7523933794
 20
130.2097214173
 30
0.0
 10
333.7969206944
 20
130.657225315
 30
0.0
 10
332.9822044519
 20
131.154031932
 30
0.0
 10
332.314707994
 20
131.6972853153
 30
0.0
 10
331.8005435937
 20
132.2848036008
 30
0.0
 10
331.4469077718
 20
132.9134703487
 30
0.0
 10
331.3224501635
 20
133.3612449426
 30
0.0
 10
331.2904258683
 20
133.582768653
 30
0.0
  0
SPLINE
  5
429
330
220
100
AcDbEntity
  8
02___PRT_ALL_AXES
  6
Continuous
 62
     7
100
AcDbSpline
 70
     0
 71
     3
 72
    28
 73
    24
 74
     0
 42
0.000000001
 43
0.0000001
 40
0.0
 40
0.0
 40
0.0
 40
0.0
 40
0.0612697776
 40
0.1287412102
 40
0.2013047874
 40
0.2776524993
 40
0.3563455971
 40
0.4358679427
 40
0.5146767897
 40
0.5912523683
 40
0.6641480867
 40
0.732045014
 40
0.7938138257
 40
0.82212918
 40
0.8486197505
 40
0.8732410698
 40
0.8959849914
 40
0.9168888918
 40
0.9360481169
 40
0.9536315354
 40
0.9698972881
 40
0.9852031708
 40
1.0
 40
1.0
 40
1.0
 40
1.0
 10
337.0257340433
 20
129.4964757557
 30
0.0
 10
337.7550166154
 20
129.3163808456
 30
0.0
 10
339.3085043853
 20
129.0216573963
 30
0.0
 10
341.7652022803
 20
128.7639649676
 30
0.0
 10
344.4185907467
 20
128.6734688783
 30
0.0
 10
347.2096212572
 20
128.752590949
 30
0.0
 10
350.0763386056
 20
128.9998386886
 30
0.0
 10
352.9547691347
 20
129.4098077064
 30
0.0
 10
355.7806870983
 20
129.9733707284
 30
0.0
 10
358.4910639129
 20
130.6778269093
 30
0.0
 10
361.02576573
 20
131.5072837335
 30
0.0
 10
363.3285300655
 20
132.4430085277
 30
0.0
 10
365.0602078128
 20
133.3175980387
 30
0.0
 10
366.2821066867
 20
134.0603010315
 30
0.0
 10
367.0838890636
 20
134.6140937405
 30
0.0
 10
367.7935112165
 20
135.1778078785
 30
0.0
 10
368.4071312327
 20
135.7485127251
 30
0.0
 10
368.9214274953
 20
136.3233333575
 30
0.0
 10
369.3335076087
 20
136.89958539
 30
0.0
 10
369.6407697608
 20
137.4747114532
 30
0.0
 10
369.840609909
 20
138.0462688186
 30
0.0
 10
369.9303924972
 20
138.610900374
 30
0.0
 10
369.9152093683
 20
138.9826422466
 30
0.0
 10
369.8892532038
 20
139.1621904872
 30
0.0
  0
SPLINE
  5
42A
330
220
100
AcDbEntity
  8
7_ALL_FEATURES
  6
Continuous
 62
     7
100
AcDbSpline
 70
     0
 71
     3
 72
     9
 73
     5
 74
     0
 42
0.000000001
 43
0.0000001
 40
0.0
 40
0.0
 40
0.0
 40
0.0
 40
0.2396960383
 40
1.0
 40
1.0
 40
1.0
 40
1.0
 10
363.5779398726
 20
151.0793395113
 30
0.0
 10
363.5654794923
 20
151.1117504272
 30
0.0
 10
363.5094563164
 20
151.2454027923
 30
0.0
 10
363.4375011528
 20
151.3721812707
 30
0.0
 10
363.3762349372
 20
151.4637105613
 30
0.0
  0
SPLINE
  5
42B
330
220
100
AcDbEntity
  8
7_ALL_FEATURES
  6
Continuous
 62
     7
100
AcDbSpline
 70
     0
 71
     3
 72
     9
 73
     5
 74
     0
 42
0.000000001
 43
0.0000001
 40
0.0
 40
0.0
 40
0.0
 40
0.0
 40
0.2404215683
 40
1.0
 40
1.0
 40
1.0
 40
1.0
 10
363.3285908153
 20
151.532161716
 30
0.0
 10
363.3116391378
 20
151.5556124853
 30
0.0
 10
363.2393558271
 20
151.6518641076
 30
0.0
 10
363.1602279393
 20
151.7429168246
 30
0.0
 10
363.0972092419
 20
151.8091450895
 30
0.0
  0
SPLINE
  5
42C
330
220
100
AcDbEntity
  8
7_ALL_FEATURES
  6
Continuous
 62
     7
100
AcDbSpline
 70
     0
 71
     3
 72
     9
 73
     5
 74
     0
 42
0.000000001
 43
0.0000001
 40
0.0
 40
0.0
 40
0.0
 40
0.0
 40
0.260196767
 40
1.0
 40
1.0
 40
1.0
 40
1.0
 10
334.2291327439
 20
147.6470547888
 30
0.0
 10
334.2143836444
 20
147.6185648194
 30
0.0
 10
334.1594275072
 20
147.508192198
 30
0.0
 10
334.1115487591
 20
147.3942389045
 30
0.0
 10
334.0810723608
 20
147.308265638
 30
0.0
  0
SPLINE
  5
42D
330
220
100
AcDbEntity
  8
7_ALL_FEATURES
  6
Continuous
 62
     7
100
AcDbSpline
 70
     0
 71
     3
 72
     9
 73
     5
 74
     0
 42
0.000000001
 43
0.0000001
 40
0.0
 40
0.0
 40
0.0
 40
0.0
 40
0.264071932
 40
1.0
 40
1.0
 40
1.0
 40
1.0
 10
334.0810723608
 20
147.308265638
 30
0.0
 10
334.0661567018
 20
147.2661888835
 30
0.0
 10
334.0141306215
 20
147.1053433792
 30
0.0
 10
333.9809894089
 20
146.9381054449
 30
0.0
 10
333.9700186278
 20
146.8141789906
 30
0.0
  0
SPLINE
  5
42E
330
220
100
AcDbEntity
  8
7_ALL_FEATURES
  6
Continuous
 62
     9
100
AcDbSpline
 70
     0
 71
     3
 72
     9
 73
     5
 74
     0
 42
0.000000001
 43
0.0000001
 40
0.0
 40
0.0
 40
0.0
 40
0.0
 40
0.2596503534
 40
1.0
 40
1.0
 40
1.0
 40
1.0
 10
362.9986312372
 20
152.0320549138
 30
0.0
 10
363.0352745627
 20
151.9930102549
 30
0.0
 10
363.1728024683
 20
151.8393429737
 30
0.0
 10
363.2952266415
 20
151.6718302099
 30
0.0
 10
363.3738099156
 20
151.5409277844
 30
0.0
  0
SPLINE
  5
42F
330
220
100
AcDbEntity
  8
7_ALL_FEATURES
  6
Continuous
 62
     9
100
AcDbSpline
 70
     0
 71
     3
 72
     9
 73
     5
 74
     0
 42
0.000000001
 43
0.0000001
 40
0.0
 40
0.0
 40
0.0
 40
0.0
 40
0.2544759281
 40
1.0
 40
1.0
 40
1.0
 40
1.0
 10
363.3976937746
 20
151.5002837663
 30
0.0
 10
363.4144736614
 20
151.4711017457
 30
0.0
 10
363.4780765486
 20
151.3551056227
 30
0.0
 10
363.5319826637
 20
151.2337427359
 30
0.0
 10
363.5657667419
 20
151.1410912432
 30
0.0
  0
SPLINE
  5
430
330
220
100
AcDbEntity
  8
02___PRT_ALL_AXES
  6
Continuous
 62
     7
100
AcDbSpline
 70
     0
 71
     3
 72
    27
 73
    23
 74
     0
 42
0.000000001
 43
0.0000001
 40
0.0
 40
0.0
 40
0.0
 40
0.0
 40
0.0147971686
 40
0.030103431
 40
0.0463694862
 40
0.0639532438
 40
0.0831130503
 40
0.1040172646
 40
0.1267616136
 40
0.1513836484
 40
0.2061671463
 40
0.2679373606
 40
0.3358359209
 40
0.408733379
 40
0.4853107015
 40
0.5641214709
 40
0.6436457321
 40
0.7223407413
 40
0.7986903079
 40
0.8712557964
 40
0.9387283543
 40
1.0
 40
1.0
 40
1.0
 40
1.0
 10
333.8504512516
 20
147.3277235853
 30
0.0
 10
333.8304844733
 20
147.4658375258
 30
0.0
 10
333.8187958218
 20
147.7517929242
 30
0.0
 10
333.8878665775
 20
148.1861237664
 30
0.0
 10
334.0415806953
 20
148.6257843248
 30
0.0
 10
334.2779306387
 20
149.0681928263
 30
0.0
 10
334.5949236474
 20
149.5114572791
 30
0.0
 10
334.9905289094
 20
149.9536279357
 30
0.0
 10
335.4625311453
 20
150.3926565958
 30
0.0
 10
336.2175595038
 20
150.9922543374
 30
0.0
 10
337.3424742781
 20
151.7109002345
 30
0.0
 10
338.8969628265
 20
152.4963192704
 30
0.0
 10
340.6685479381
 20
153.2161238072
 30
0.0
 10
342.6182517053
 20
153.8541625425
 30
0.0
 10
344.7031759905
 20
154.396060958
 30
0.0
 10
346.8769561279
 20
154.8295657808
 30
0.0
 10
349.0911371244
 20
155.1449298616
 30
0.0
 10
351.2963063943
 20
155.3351198804
 30
0.0
 10
353.4432571279
 20
155.3959901711
 30
0.0
 10
355.4843236361
 20
155.3263657393
 30
0.0
 10
357.3740947343
 20
155.1281519236
 30
0.0
 10
358.5690852791
 20
154.9014389327
 30
0.0
 10
359.1300760336
 20
154.762903359
 30
0.0
  0
SPLINE
  5
431
330
220
100
AcDbEntity
  8
7_ALL_FEATURES
  6
Continuous
 62
     9
100
AcDbSpline
 70
     0
 71
     3
 72
     9
 73
     5
 74
     0
 42
0.000000001
 43
0.0000001
 40
0.0
 40
0.0
 40
0.0
 40
0.0
 40
0.4815456397
 40
1.0
 40
1.0
 40
1.0
 40
1.0
 10
333.9635952916
 20
146.8716189783
 30
0.0
 10
333.9746922871
 20
147.0368570009
 30
0.0
 10
334.0374082657
 20
147.3780546082
 30
0.0
 10
334.1661837087
 20
147.6991744119
 30
0.0
 10
334.2454318866
 20
147.8588989167
 30
0.0
  0
SPLINE
  5
432
330
220
100
AcDbEntity
  8
02___PRT_ALL_AXES
  6
Continuous
 62
     7
100
AcDbSpline
 70
     0
 71
     3
 72
    15
 73
    11
 74
     0
 42
0.000000001
 43
0.0000001
 40
0.0
 40
0.0
 40
0.0
 40
0.0
 40
0.0904919628
 40
0.1856324775
 40
0.2893050533
 40
0.4042832315
 40
0.5322824993
 40
0.6741571875
 40
0.8301601664
 40
1.0
 40
1.0
 40
1.0
 40
1.0
 10
363.5418462114
 20
151.6196157259
 30
0.0
 10
363.5172116077
 20
151.7900178877
 30
0.0
 10
363.421471343
 20
152.1344575122
 30
0.0
 10
363.1494463672
 20
152.618045512
 30
0.0
 10
362.7539380427
 20
153.0699833898
 30
0.0
 10
362.2404747694
 20
153.4878683468
 30
0.0
 10
361.6137701149
 20
153.8700148796
 30
0.0
 10
360.8787861902
 20
154.2142624911
 30
0.0
 10
360.0413609519
 20
154.5181489143
 30
0.0
 10
359.4437958215
 20
154.6854308687
 30
0.0
 10
359.1300760336
 20
154.762903359
 30
0.0
  0
ENDSEC
  0
SECTION
  2
OBJECTS
  0
DICTIONARY
  5
C
330
0
100
AcDbDictionary
281
     1
  3
ACAD_GROUP
350
D
  3
ACAD_IMAGE_VARS
350
478
  3
ACAD_LAYOUT
350
1A
  3
ACAD_MLINESTYLE
350
17
  3
ACAD_PLOTSETTINGS
350
19
  3
ACAD_PLOTSTYLENAME
350
E
  3
ACAD_SCALELIST
350
435
  3
APPDATA
350
476
  3
DWGPROPS
350
4B2
  0
DICTIONARY
  5
D
102
{ACAD_REACTORS
330
C
102
}
330
C
100
AcDbDictionary
281
     1
  0
RASTERVARIABLES
  5
478
102
{ACAD_REACTORS
330
C
102
}
330
C
100
AcDbRasterVariables
 90
        0
 70
     1
 71
     1
 72
     1
  0
DICTIONARY
  5
1A
102
{ACAD_REACTORS
330
C
102
}
330
C
100
AcDbDictionary
281
     1
  3
Layout1
350
434
  3
Model
350
433
  0
DICTIONARY
  5
17
102
{ACAD_REACTORS
330
C
102
}
330
C
100
AcDbDictionary
281
     1
  3
Standard
350
18
  0
DICTIONARY
  5
19
102
{ACAD_REACTORS
330
C
102
}
330
C
100
AcDbDictionary
281
     1
  0
ACDBDICTIONARYWDFLT
  5
E
102
{ACAD_REACTORS
330
C
102
}
330
C
100
AcDbDictionary
281
     1
  3
Normal
350
F
100
AcDbDictionaryWithDefault
340
F
  0
DICTIONARY
  5
435
102
{ACAD_REACTORS
330
C
102
}
330
C
100
AcDbDictionary
281
     1
  3
A0
350
436
  3
A1
350
437
  3
A2
350
438
  3
A3
350
439
  3
A4
350
43A
  3
A5
350
43B
  3
A6
350
43C
  3
A7
350
43D
  3
A8
350
43E
  3
A9
350
43F
  3
B0
350
440
  3
B1
350
441
  3
B2
350
442
  3
B3
350
443
  3
B4
350
444
  3
B5
350
445
  3
B6
350
446
  3
B7
350
447
  3
B8
350
448
  3
B9
350
449
  3
C0
350
44A
  3
C1
350
44B
  3
C2
350
44C
  3
C3
350
44D
  3
C4
350
44E
  3
C5
350
44F
  3
C6
350
450
  3
C7
350
451
  3
C8
350
452
  3
C9
350
453
  3
D0
350
454
  3
D1
350
455
  3
D2
350
456
  0
DICTIONARY
  5
476
102
{ACAD_REACTORS
330
C
102
}
330
C
100
AcDbDictionary
281
     1
  0
XRECORD
  5
4B2
102
{ACAD_REACTORS
330
C
102
}
330
C
100
AcDbXrecord
280
     1
  1
DWGPROPS COOKIE
  2

  3

  4

  6

  7

  8
umberto.novello
  9

300
=
301
=
302
=
303
=
304
=
305
=
306
=
307
=
308
=
309
=
 40
0.0
 41
0.0
 42
2458444.303437604
  1

 90
        0
  0
LAYOUT
  5
434
102
{ACAD_REACTORS
330
1A
102
}
330
1A
100
AcDbPlotSettings
  1

  2
none_device
  4
ISO_A3_(420.00_x_297.00_MM)
  6

 40
0.0
 41
0.0
 42
0.0
 43
0.0
 44
420.0
 45
297.0
 46
0.0
 47
0.0
 48
0.0
 49
0.0
140
0.0
141
0.0
142
1.0
143
1.0
 70
     0
 72
     1
 73
     0
 74
     0
  7

 75
     0
147
1.0
148
0.0
149
0.0
100
AcDbLayout
  1
Layout1
 70
     0
 71
     1
 10
0.0
 20
0.0
 11
420.0
 21
297.0
 12
0.0
 22
0.0
 32
0.0
 14
0.0
 24
0.0
 34
0.0
 15
0.0
 25
0.0
 35
0.0
146
0.0
 13
0.0
 23
0.0
 33
0.0
 16
1.0
 26
0.0
 36
0.0
 17
0.0
 27
1.0
 37
0.0
 76
     0
330
221
  0
LAYOUT
  5
433
102
{ACAD_REACTORS
330
1A
102
}
330
1A
100
AcDbPlotSettings
  1

  2
none_device
  4
ISO_A3_(420.00_x_297.00_MM)
  6

 40
0.0
 41
0.0
 42
0.0
 43
0.0
 44
420.0
 45
297.0
 46
0.0
 47
0.0
 48
0.0
 49
0.0
140
0.0
141
0.0
142
1.0
143
1.0
 70
  1024
 72
     1
 73
     0
 74
     0
  7

 75
     0
147
1.0
148
0.0
149
0.0
100
AcDbLayout
  1
Model
 70
     0
 71
     0
 10
0.0
 20
0.0
 11
420.0
 21
297.0
 12
0.0
 22
0.0
 32
0.0
 14
0.0
 24
0.0
 34
0.0
 15
0.0
 25
0.0
 35
0.0
146
0.0
 13
0.0
 23
0.0
 33
0.0
 16
1.0
 26
0.0
 36
0.0
 17
0.0
 27
1.0
 37
0.0
 76
     0
330
220
331
1F4
  0
MLINESTYLE
  5
18
102
{ACAD_REACTORS
330
17
102
}
330
17
100
AcDbMlineStyle
  2
STANDARD
 70
     0
  3

 62
   256
 51
90.0
 52
90.0
 71
     2
 49
0.5
 62
   256
  6
BYLAYER
 49
-0.5
 62
   256
  6
BYLAYER
  0
ACDBPLACEHOLDER
  5
F
102
{ACAD_REACTORS
330
E
102
}
330
E
  0
SCALE
  5
436
102
{ACAD_REACTORS
330
435
102
}
330
435
100
AcDbScale
 70
     0
300
1:1
140
1.0
141
1.0
290
     1
  0
SCALE
  5
437
102
{ACAD_REACTORS
330
435
102
}
330
435
100
AcDbScale
 70
     0
300
1:2
140
1.0
141
2.0
290
     0
  0
SCALE
  5
438
102
{ACAD_REACTORS
330
435
102
}
330
435
100
AcDbScale
 70
     0
300
1:4
140
1.0
141
4.0
290
     0
  0
SCALE
  5
439
102
{ACAD_REACTORS
330
435
102
}
330
435
100
AcDbScale
 70
     0
300
1:5
140
1.0
141
5.0
290
     0
  0
SCALE
  5
43A
102
{ACAD_REACTORS
330
435
102
}
330
435
100
AcDbScale
 70
     0
300
1:8
140
1.0
141
8.0
290
     0
  0
SCALE
  5
43B
102
{ACAD_REACTORS
330
435
102
}
330
435
100
AcDbScale
 70
     0
300
1:10
140
1.0
141
10.0
290
     0
  0
SCALE
  5
43C
102
{ACAD_REACTORS
330
435
102
}
330
435
100
AcDbScale
 70
     0
300
1:16
140
1.0
141
16.0
290
     0
  0
SCALE
  5
43D
102
{ACAD_REACTORS
330
435
102
}
330
435
100
AcDbScale
 70
     0
300
1:20
140
1.0
141
20.0
290
     0
  0
SCALE
  5
43E
102
{ACAD_REACTORS
330
435
102
}
330
435
100
AcDbScale
 70
     0
300
1:30
140
1.0
141
30.0
290
     0
  0
SCALE
  5
43F
102
{ACAD_REACTORS
330
435
102
}
330
435
100
AcDbScale
 70
     0
300
1:40
140
1.0
141
40.0
290
     0
  0
SCALE
  5
440
102
{ACAD_REACTORS
330
435
102
}
330
435
100
AcDbScale
 70
     0
300
1:50
140
1.0
141
50.0
290
     0
  0
SCALE
  5
441
102
{ACAD_REACTORS
330
435
102
}
330
435
100
AcDbScale
 70
     0
300
1:100
140
1.0
141
100.0
290
     0
  0
SCALE
  5
442
102
{ACAD_REACTORS
330
435
102
}
330
435
100
AcDbScale
 70
     0
300
2:1
140
2.0
141
1.0
290
     0
  0
SCALE
  5
443
102
{ACAD_REACTORS
330
435
102
}
330
435
100
AcDbScale
 70
     0
300
4:1
140
4.0
141
1.0
290
     0
  0
SCALE
  5
444
102
{ACAD_REACTORS
330
435
102
}
330
435
100
AcDbScale
 70
     0
300
8:1
140
8.0
141
1.0
290
     0
  0
SCALE
  5
445
102
{ACAD_REACTORS
330
435
102
}
330
435
100
AcDbScale
 70
     0
300
10:1
140
10.0
141
1.0
290
     0
  0
SCALE
  5
446
102
{ACAD_REACTORS
330
435
102
}
330
435
100
AcDbScale
 70
     0
300
100:1
140
100.0
141
1.0
290
     0
  0
SCALE
  5
447
102
{ACAD_REACTORS
330
435
102
}
330
435
100
AcDbScale
 70
     0
300
1/128" = 1'-0"
140
0.0078125
141
12.0
290
     0
  0
SCALE
  5
448
102
{ACAD_REACTORS
330
435
102
}
330
435
100
AcDbScale
 70
     0
300
1/64" = 1'-0"
140
0.015625
141
12.0
290
     0
  0
SCALE
  5
449
102
{ACAD_REACTORS
330
435
102
}
330
435
100
AcDbScale
 70
     0
300
1/32" = 1'-0"
140
0.03125
141
12.0
290
     0
  0
SCALE
  5
44A
102
{ACAD_REACTORS
330
435
102
}
330
435
100
AcDbScale
 70
     0
300
1/16" = 1'-0"
140
0.0625
141
12.0
290
     0
  0
SCALE
  5
44B
102
{ACAD_REACTORS
330
435
102
}
330
435
100
AcDbScale
 70
     0
300
3/32" = 1'-0"
140
0.09375
141
12.0
290
     0
  0
SCALE
  5
44C
102
{ACAD_REACTORS
330
435
102
}
330
435
100
AcDbScale
 70
     0
300
1/8" = 1'-0"
140
0.125
141
12.0
290
     0
  0
SCALE
  5
44D
102
{ACAD_REACTORS
330
435
102
}
330
435
100
AcDbScale
 70
     0
300
3/16" = 1'-0"
140
0.1875
141
12.0
290
     0
  0
SCALE
  5
44E
102
{ACAD_REACTORS
330
435
102
}
330
435
100
AcDbScale
 70
     0
300
1/4" = 1'-0"
140
0.25
141
12.0
290
     0
  0
SCALE
  5
44F
102
{ACAD_REACTORS
330
435
102
}
330
435
100
AcDbScale
 70
     0
300
3/8" = 1'-0"
140
0.375
141
12.0
290
     0
  0
SCALE
  5
450
102
{ACAD_REACTORS
330
435
102
}
330
435
100
AcDbScale
 70
     0
300
1/2" = 1'-0"
140
0.5
141
12.0
290
     0
  0
SCALE
  5
451
102
{ACAD_REACTORS
330
435
102
}
330
435
100
AcDbScale
 70
     0
300
3/4" = 1'-0"
140
0.75
141
12.0
290
     0
  0
SCALE
  5
452
102
{ACAD_REACTORS
330
435
102
}
330
435
100
AcDbScale
 70
     0
300
1" = 1'-0"
140
1.0
141
12.0
290
     0
  0
SCALE
  5
453
102
{ACAD_REACTORS
330
435
102
}
330
435
100
AcDbScale
 70
     0
300
1-1/2" = 1'-0"
140
1.5
141
12.0
290
     0
  0
SCALE
  5
454
102
{ACAD_REACTORS
330
435
102
}
330
435
100
AcDbScale
 70
     0
300
3" = 1'-0"
140
3.0
141
12.0
290
     0
  0
SCALE
  5
455
102
{ACAD_REACTORS
330
435
102
}
330
435
100
AcDbScale
 70
     0
300
6" = 1'-0"
140
6.0
141
12.0
290
     0
  0
SCALE
  5
456
102
{ACAD_REACTORS
330
435
102
}
330
435
100
AcDbScale
 70
     0
300
1'-0" = 1'-0"
140
12.0
141
12.0
290
     0
  0
ENDSEC
  0
EOF
