999
DXF file: ba8_c_005.dxf
999
Pro/ENGINEER 2016360 by Parametric Technology Corporation
  0
SECTION
  2
HEADER
  9
$ACADVER
  1
AC1014
  9
$DWGCODEPAGE
  3
ANSI_1252
  9
$EXTMAX
 10
420.0
 20
297.0
 30
0.0
  9
$EXTMIN
 10
0.0
 20
0.0
 30
0.0
  9
$LIMMIN
 10
0.0
 20
0.0
  9
$LIMMAX
 10
420.0
 20
297.0
  9
$VIEWCTR
 10
210.0
 20
148.5
  9
$VIEWSIZE
 40
297.0
  9
$CLAYER
  8
0
  9
$LTSCALE
 40
23.1
  9
$CELTYPE
  6
BYLAYER
  9
$DIMSCALE
 40
1.0
  9
$DIMASZ
 40
2.5
  9
$DIMEXO
 40
0.75
  9
$DIMDLI
 40
15.96
  9
$DIMEXE
 40
0.75
  9
$DIMCEN
 40
3.78
  9
$DIMLFAC
 40
1.0
  9
$DIMBLK
  1
_CLOSED
  9
$DIMALT
 70
0
  9
$DIMALTF
 40
25.4
  9
$DIMTXT
 40
3.0
  9
$DIMTOL
 70
1
  9
$DIMLIM
 70
0
  9
$DIMTFAC
 40
1.0
  9
$DIMTP
 40
0.01
  9
$DIMTM
 40
0.01
  9
$DIMGAP
 40
0.625
  9
$AUNITS
 70
0
  9
$PDMODE
 70
3
  9
$PDSIZE
 40
0.3125
  9
$HANDSEED
  5
3D1
  9
$TILEMODE
 70
1
  9
$MEASUREMENT
 70
1
  0
ENDSEC
  0
SECTION
  2
CLASSES
  0
ENDSEC
  0
SECTION
  2
TABLES
  0
TABLE
  2
VPORT
  5
8
100
AcDbSymbolTable
 70
2
  0
VPORT
  5
1F4
100
AcDbSymbolTableRecord
100
AcDbViewportTableRecord
  2
*ACTIVE
 70
0
 10
0.0
 20
0.0
 11
1.0
 21
1.0
 12
210.0
 22
148.5
 13
0.0
 23
0.0
 14
1.0
 24
1.0
 15
0.0
 25
0.0
 16
0.0
 26
0.0
 36
1.0
 17
0.0
 27
0.0
 37
0.0
 40
297.0
 41
1.4141414141
 42
50.0
 43
0.0
 44
0.0
 50
0.0
 51
0.0
 71
0
 72
100
 73
1
 74
1
 75
0
 76
0
 77
0
 78
0
  0
ENDTAB
  0
TABLE
  2
LTYPE
  5
5
100
AcDbSymbolTable
 70
6
  0
LTYPE
  5
14
100
AcDbSymbolTableRecord
100
AcDbLinetypeTableRecord
  2
BYBLOCK
 70
0
  3

 72
65
 73
0
 40
0.0
  0
LTYPE
  5
15
100
AcDbSymbolTableRecord
100
AcDbLinetypeTableRecord
  2
BYLAYER
 70
0
  3

 72
65
 73
0
 40
0.0
  0
LTYPE
  5
16
100
AcDbSymbolTableRecord
100
AcDbLinetypeTableRecord
  2
CONTINUOUS
 70
64
  3
Solid line
 72
65
 73
0
 40
0.0
  0
LTYPE
  5
1F5
100
AcDbSymbolTableRecord
100
AcDbLinetypeTableRecord
  2
CENTER
 70
64
  3
____ _ ____ _ ____ _ ____ _ ____ _ ____ _ ____
 72
65
 73
4
 40
0.6
 49
0.375
 74
0
 49
-0.075
 74
0
 49
0.075
 74
0
 49
-0.075
 74
0
  0
LTYPE
  5
1F6
100
AcDbSymbolTableRecord
100
AcDbLinetypeTableRecord
  2
HIDDEN
 70
64
  3
- - - - - - - - - - - - - - - - - - - -
 72
65
 73
2
 40
0.2
 49
0.1
 74
0
 49
-0.1
 74
0
  0
LTYPE
  5
1F7
100
AcDbSymbolTableRecord
100
AcDbLinetypeTableRecord
  2
PHANTOM
 70
64
  3
_____ _ _ _____ _ _ _____ _ _ _____
 72
65
 73
6
 40
0.8
 49
0.45
 74
0
 49
-0.05
 74
0
 49
0.1
 74
0
 49
-0.05
 74
0
 49
0.1
 74
0
 49
-0.05
 74
0
  0
LTYPE
  5
1F8
100
AcDbSymbolTableRecord
100
AcDbLinetypeTableRecord
  2
DOT
 70
64
  3
. . . . . . . . . . . . . . . . . . . .
 72
65
 73
2
 40
0.2
 49
0.1
 74
0
 49
-0.1
 74
0
  0
LTYPE
  5
1F9
100
AcDbSymbolTableRecord
100
AcDbLinetypeTableRecord
  2
DASHED
 70
64
  3
- - - - - - - - - - - - - - - - - - - -
 72
65
 73
2
 40
0.2
 49
0.1
 74
0
 49
-0.1
 74
0
  0
ENDTAB
  0
TABLE
  2
LAYER
  5
2
100
AcDbSymbolTable
 70
36
  0
LAYER
  5
10
100
AcDbSymbolTableRecord
100
AcDbLayerTableRecord
  2
0
 70
0
 62
7
  6
CONTINUOUS
  0
LAYER
  5
1FA
100
AcDbSymbolTableRecord
100
AcDbLayerTableRecord
  2
DEFAULT_1
 70
0
 62
7
  6
CENTER
  0
LAYER
  5
1FB
100
AcDbSymbolTableRecord
100
AcDbLayerTableRecord
  2
DEFAULT_2
 70
0
 62
8
  6
HIDDEN
  0
LAYER
  5
1FC
100
AcDbSymbolTableRecord
100
AcDbLayerTableRecord
  2
DEFAULT_3
 70
0
 62
7
  6
PHANTOM
  0
LAYER
  5
1FD
100
AcDbSymbolTableRecord
100
AcDbLayerTableRecord
  2
01_ALL_DTM_PLN
 70
0
 62
7
  6
CONTINUOUS
  0
LAYER
  5
1FE
100
AcDbSymbolTableRecord
100
AcDbLayerTableRecord
  2
01__ASM_ALL_DTM_PLN
 70
0
 62
7
  6
CONTINUOUS
  0
LAYER
  5
1FF
100
AcDbSymbolTableRecord
100
AcDbLayerTableRecord
  2
01__ASM_DEF_DTM_PLN
 70
0
 62
7
  6
CONTINUOUS
  0
LAYER
  5
200
100
AcDbSymbolTableRecord
100
AcDbLayerTableRecord
  2
01___PRT_ALL_DTM_PLN
 70
0
 62
7
  6
CONTINUOUS
  0
LAYER
  5
201
100
AcDbSymbolTableRecord
100
AcDbLayerTableRecord
  2
01___PRT_DEF_DTM_PLN
 70
0
 62
7
  6
CONTINUOUS
  0
LAYER
  5
202
100
AcDbSymbolTableRecord
100
AcDbLayerTableRecord
  2
02_ALL_AXES
 70
0
 62
7
  6
CONTINUOUS
  0
LAYER
  5
203
100
AcDbSymbolTableRecord
100
AcDbLayerTableRecord
  2
02__ASM_ALL_AXES
 70
0
 62
7
  6
CONTINUOUS
  0
LAYER
  5
204
100
AcDbSymbolTableRecord
100
AcDbLayerTableRecord
  2
02___PRT_ALL_AXES
 70
0
 62
7
  6
CONTINUOUS
  0
LAYER
  5
205
100
AcDbSymbolTableRecord
100
AcDbLayerTableRecord
  2
03_ALL_CURVES
 70
0
 62
7
  6
CONTINUOUS
  0
LAYER
  5
206
100
AcDbSymbolTableRecord
100
AcDbLayerTableRecord
  2
03__ASM_ALL_CURVES
 70
0
 62
7
  6
CONTINUOUS
  0
LAYER
  5
207
100
AcDbSymbolTableRecord
100
AcDbLayerTableRecord
  2
03___PRT_ALL_CURVES
 70
0
 62
7
  6
CONTINUOUS
  0
LAYER
  5
208
100
AcDbSymbolTableRecord
100
AcDbLayerTableRecord
  2
04_ALL_DTM_PNT
 70
0
 62
7
  6
CONTINUOUS
  0
LAYER
  5
209
100
AcDbSymbolTableRecord
100
AcDbLayerTableRecord
  2
04__ASM_ALL_DTM_PNT
 70
0
 62
7
  6
CONTINUOUS
  0
LAYER
  5
20A
100
AcDbSymbolTableRecord
100
AcDbLayerTableRecord
  2
04___PRT_ALL_DTM_PNT
 70
0
 62
7
  6
CONTINUOUS
  0
LAYER
  5
20B
100
AcDbSymbolTableRecord
100
AcDbLayerTableRecord
  2
05_ALL_DTM_CSYS
 70
0
 62
7
  6
CONTINUOUS
  0
LAYER
  5
20C
100
AcDbSymbolTableRecord
100
AcDbLayerTableRecord
  2
05__ASM_ALL_DTM_CSYS
 70
0
 62
7
  6
CONTINUOUS
  0
LAYER
  5
20D
100
AcDbSymbolTableRecord
100
AcDbLayerTableRecord
  2
05__ASM_DEF_DTM_CSYS
 70
0
 62
7
  6
CONTINUOUS
  0
LAYER
  5
20E
100
AcDbSymbolTableRecord
100
AcDbLayerTableRecord
  2
05___PRT_ALL_DTM_CSYS
 70
0
 62
7
  6
CONTINUOUS
  0
LAYER
  5
20F
100
AcDbSymbolTableRecord
100
AcDbLayerTableRecord
  2
05___PRT_DEF_DTM_CSYS
 70
0
 62
7
  6
CONTINUOUS
  0
LAYER
  5
210
100
AcDbSymbolTableRecord
100
AcDbLayerTableRecord
  2
06_ALL_SURFS
 70
0
 62
7
  6
CONTINUOUS
  0
LAYER
  5
211
100
AcDbSymbolTableRecord
100
AcDbLayerTableRecord
  2
06__ASM_ALL_SURFS
 70
0
 62
7
  6
CONTINUOUS
  0
LAYER
  5
212
100
AcDbSymbolTableRecord
100
AcDbLayerTableRecord
  2
06___PRT_ALL_SURFS
 70
0
 62
7
  6
CONTINUOUS
  0
LAYER
  5
213
100
AcDbSymbolTableRecord
100
AcDbLayerTableRecord
  2
07__ASM_ALL_SKELETONS
 70
0
 62
7
  6
CONTINUOUS
  0
LAYER
  5
214
100
AcDbSymbolTableRecord
100
AcDbLayerTableRecord
  2
1_ALL_PLANES
 70
0
 62
7
  6
CONTINUOUS
  0
LAYER
  5
215
100
AcDbSymbolTableRecord
100
AcDbLayerTableRecord
  2
2_ALL_CSYS
 70
0
 62
7
  6
CONTINUOUS
  0
LAYER
  5
216
100
AcDbSymbolTableRecord
100
AcDbLayerTableRecord
  2
3_ALL_AXES
 70
0
 62
7
  6
CONTINUOUS
  0
LAYER
  5
217
100
AcDbSymbolTableRecord
100
AcDbLayerTableRecord
  2
4_ALL_POINTS
 70
0
 62
7
  6
CONTINUOUS
  0
LAYER
  5
218
100
AcDbSymbolTableRecord
100
AcDbLayerTableRecord
  2
5_ALL_CURVES
 70
0
 62
7
  6
CONTINUOUS
  0
LAYER
  5
219
100
AcDbSymbolTableRecord
100
AcDbLayerTableRecord
  2
5__COSTRUZIONE
 70
0
 62
7
  6
CONTINUOUS
  0
LAYER
  5
21A
100
AcDbSymbolTableRecord
100
AcDbLayerTableRecord
  2
6_ALL_SURFS
 70
0
 62
7
  6
CONTINUOUS
  0
LAYER
  5
21B
100
AcDbSymbolTableRecord
100
AcDbLayerTableRecord
  2
7_ALL_FEATURES
 70
0
 62
7
  6
CONTINUOUS
  0
LAYER
  5
21C
100
AcDbSymbolTableRecord
100
AcDbLayerTableRecord
  2
9_SOLID
 70
0
 62
7
  6
CONTINUOUS
  0
LAYER
  5
21D
100
AcDbSymbolTableRecord
100
AcDbLayerTableRecord
  2
CLOSED_SHELL
 70
0
 62
7
  6
CONTINUOUS
  0
LAYER
  5
21E
100
AcDbSymbolTableRecord
100
AcDbLayerTableRecord
  2
INTFCLR_1
 70
0
 62
7
  6
CONTINUOUS
  0
LAYER
  5
21F
100
AcDbSymbolTableRecord
100
AcDbLayerTableRecord
  2
INTFCLR_2
 70
0
 62
7
  6
CONTINUOUS
  0
LAYER
  5
220
100
AcDbSymbolTableRecord
100
AcDbLayerTableRecord
  2
XXX_SOLIDO
 70
0
 62
7
  6
CONTINUOUS
  0
ENDTAB
  0
TABLE
  2
STYLE
  5
3
100
AcDbSymbolTable
 70
1
  0
STYLE
  5
11
100
AcDbSymbolTableRecord
100
AcDbTextStyleTableRecord
  2
STANDARD
 70
0
 40
0.0
 41
1.0
 50
0.0
 71
0
 42
0.2
  3
arial.ttf
  4

  0
STYLE
  5
221
100
AcDbSymbolTableRecord
100
AcDbTextStyleTableRecord
  2
TEXTSTYLE_1
 70
0
 40
0.0
 41
0.8
 50
0.0
 71
0
 42
0.2
  3
gdt
  4

  0
STYLE
  5
222
100
AcDbSymbolTableRecord
100
AcDbTextStyleTableRecord
  2
TEXTSTYLE_2
 70
0
 40
0.0
 41
0.85
 50
0.0
 71
0
 42
0.2
  3
txt
  4

  0
ENDTAB
  0
TABLE
  2
VIEW
  5
6
100
AcDbSymbolTable
 70
0
  0
ENDTAB
  0
TABLE
  2
UCS
  5
7
100
AcDbSymbolTable
 70
0
  0
ENDTAB
  0
TABLE
  2
APPID
  5
9
100
AcDbSymbolTable
 70
1
  0
APPID
  5
223
100
AcDbSymbolTableRecord
100
AcDbRegAppTableRecord
  2
ACAD
 70
0
  0
ENDTAB
  0
TABLE
  2
BLOCK_RECORD
  5
1
100
AcDbSymbolTable
 70
0
  0
BLOCK_RECORD
  5
1F
100
AcDbSymbolTableRecord
100
AcDbBlockTableRecord
  2
*MODEL_SPACE
  0
BLOCK_RECORD
  5
1B
100
AcDbSymbolTableRecord
100
AcDbBlockTableRecord
  2
*PAPER_SPACE
  0
BLOCK_RECORD
  5
224
100
AcDbSymbolTableRecord
100
AcDbBlockTableRecord
  2
_CLOSED
  0
BLOCK_RECORD
  5
225
100
AcDbSymbolTableRecord
100
AcDbBlockTableRecord
  2
*D0
  0
BLOCK_RECORD
  5
226
100
AcDbSymbolTableRecord
100
AcDbBlockTableRecord
  2
*D1
  0
BLOCK_RECORD
  5
227
100
AcDbSymbolTableRecord
100
AcDbBlockTableRecord
  2
*D2
  0
BLOCK_RECORD
  5
228
100
AcDbSymbolTableRecord
100
AcDbBlockTableRecord
  2
LOGO2_BL0
  0
ENDTAB
  0
TABLE
  2
DIMSTYLE
  5
A
100
AcDbSymbolTable
 70
1
  0
DIMSTYLE
105
229
100
AcDbSymbolTableRecord
100
AcDbDimStyleTableRecord
  2
STANDARD
 70
0
  3

  4

  5
_CLOSED
  6
_CLOSED
  7
_CLOSED
 40
1.0
 41
2.5
 42
0.75
 43
0.38
 44
0.75
 45
0.0
 46
0.0
 47
0.01
 48
0.01
140
3.0
141
0.09
142
0.0
143
25.4
144
1.0
145
0.0
146
1.0
147
0.625
 71
1.0
 72
0.0
 73
0
 74
0
 75
0
 76
0
 77
1
 78
8
 79
2
170
0
171
1
172
0
173
0
174
0
175
0
176
0
177
0
178
0
270
2
179
2
271
2
272
2
273
2
274
2
275
0
280
0
281
0
282
0
283
1
284
8
285
0
286
0
287
3
288
0
340
11
  0
DIMSTYLE
105
22A
100
AcDbSymbolTableRecord
100
AcDbDimStyleTableRecord
  2
DIMSTYLE_1
 70
0
  3

  4

  5
_CLOSED
  6
_CLOSED
  7
_CLOSED
 40
1.0
 41
2.5
 42
0.75
 43
0.38
 44
0.75
 45
0.0
 46
0.0
 47
0.3
 48
0.3
140
3.0
141
0.09
142
0.0
143
25.4
144
1.0
145
0.0
146
1.0
147
0.75
 71
0.0
 72
0.0
 73
0
 74
0
 75
0
 76
0
 77
1
 78
8
 79
2
170
0
171
1
172
0
173
0
174
0
175
0
176
0
177
0
178
0
270
2
179
2
271
2
272
2
273
2
274
2
275
0
280
0
281
0
282
0
283
1
284
8
285
0
286
0
287
3
288
0
340
11
  0
ENDTAB
  0
ENDSEC
  0
SECTION
  2
BLOCKS
  0
BLOCK
  5
20
100
AcDbEntity
  8
0
100
AcDbBlockBegin
  2
*MODEL_SPACE
 70
0
 10
0.0
 20
0.0
 30
0.0
  3
*MODEL_SPACE
  1

  0
ENDBLK
  5
21
100
AcDbEntity
  8
0
100
AcDbBlockEnd
  0
BLOCK
  5
1C
100
AcDbEntity
  8
0
100
AcDbBlockBegin
  2
*PAPER_SPACE
 70
0
 10
0.0
 20
0.0
 30
0.0
  3
*PAPER_SPACE
  1

  0
ENDBLK
  5
1D
100
AcDbEntity
  8
0
100
AcDbBlockEnd
  0
BLOCK
  5
22B
100
AcDbEntity
  8
0
100
AcDbBlockBegin
 62
2
  6
CONTINUOUS
  2
LOGO2_BL0
 70
64
 10
333.6475659158
 20
36.9217920391
  3
LOGO2_BL0
  1

  0
LINE
  5
22C
100
AcDbEntity
  8
0
100
AcDbLine
 62
7
  6
CONTINUOUS
 10
325.390491144
 20
40.1172833779
 11
324.0861502147
 21
40.1172833779
  0
LINE
  5
22D
100
AcDbEntity
  8
0
100
AcDbLine
 62
7
  6
CONTINUOUS
 10
324.0861502147
 20
40.1172833779
 11
324.0861502147
 21
29.6582173181
  0
LINE
  5
22E
100
AcDbEntity
  8
0
100
AcDbLine
 62
7
  6
CONTINUOUS
 10
324.0861502147
 20
29.6582173181
 11
328.567205103
 21
29.6582173181
  0
LINE
  5
22F
100
AcDbEntity
  8
0
100
AcDbLine
 62
7
  6
CONTINUOUS
 10
328.567205103
 20
29.6582173181
 11
328.567205103
 21
30.8510716431
  0
LINE
  5
230
100
AcDbEntity
  8
0
100
AcDbLine
 62
7
  6
CONTINUOUS
 10
328.567205103
 20
30.8510716431
 11
325.390491144
 21
30.8510716431
  0
LINE
  5
231
100
AcDbEntity
  8
0
100
AcDbLine
 62
7
  6
CONTINUOUS
 10
325.390491144
 20
30.8510716431
 11
325.390491144
 21
40.1172833779
  0
LINE
  5
232
100
AcDbEntity
  8
0
100
AcDbLine
 62
7
  6
CONTINUOUS
 10
340.3268173604
 20
40.1172833779
 11
339.0229998423
 21
40.1172833779
  0
LINE
  5
233
100
AcDbEntity
  8
0
100
AcDbLine
 62
7
  6
CONTINUOUS
 10
339.0229998423
 20
40.1172833779
 11
339.0229998423
 21
29.6582173181
  0
LINE
  5
234
100
AcDbEntity
  8
0
100
AcDbLine
 62
7
  6
CONTINUOUS
 10
339.0229998423
 20
29.6582173181
 11
343.5041855834
 21
29.6582173181
  0
LINE
  5
235
100
AcDbEntity
  8
0
100
AcDbLine
 62
7
  6
CONTINUOUS
 10
343.5041855834
 20
29.6582173181
 11
343.5041855834
 21
30.8510716431
  0
LINE
  5
236
100
AcDbEntity
  8
0
100
AcDbLine
 62
7
  6
CONTINUOUS
 10
343.5041855834
 20
30.8510716431
 11
340.3268173604
 21
30.8510716431
  0
LINE
  5
237
100
AcDbEntity
  8
0
100
AcDbLine
 62
7
  6
CONTINUOUS
 10
340.3268173604
 20
30.8510716431
 11
340.3268173604
 21
40.1172833779
  0
LWPOLYLINE
  5
238
100
AcDbEntity
  8
0
100
AcDbPolyline
 62
7
  6
CONTINUOUS
 90
2
 70
0
 43
0.2
 10
322.4405451256
 20
26.3146660112
 10
322.4405451256
 20
24.4576027618
  0
LWPOLYLINE
  5
239
100
AcDbEntity
  8
0
100
AcDbPolyline
 62
7
  6
CONTINUOUS
 90
2
 70
0
 43
0.2
 10
322.4405451256
 20
24.4576027618
 10
323.236261136
 20
24.4576027618
  0
LWPOLYLINE
  5
23A
100
AcDbEntity
  8
0
100
AcDbPolyline
 62
7
  6
CONTINUOUS
 90
2
 70
0
 43
0.2
 10
323.236261136
 20
24.4576027618
 10
323.236261136
 20
24.6695843334
  0
LWPOLYLINE
  5
23B
100
AcDbEntity
  8
0
100
AcDbPolyline
 62
7
  6
CONTINUOUS
 90
2
 70
0
 43
0.2
 10
323.236261136
 20
24.6695843334
 10
322.6721546205
 20
24.6695843334
  0
LWPOLYLINE
  5
23C
100
AcDbEntity
  8
0
100
AcDbPolyline
 62
7
  6
CONTINUOUS
 90
2
 70
0
 43
0.2
 10
322.6721546205
 20
24.6695843334
 10
322.6721546205
 20
26.3146660112
  0
LWPOLYLINE
  5
23D
100
AcDbEntity
  8
0
100
AcDbPolyline
 62
7
  6
CONTINUOUS
 90
2
 70
0
 43
0.2
 10
322.6721546205
 20
26.3146660112
 10
322.4405451256
 20
26.3146660112
  0
SPLINE
  5
23E
100
AcDbEntity
  8
0
100
AcDbSpline
 62
7
  6
CONTINUOUS
 70
2
 71
3
 72
35
 73
31
 74
0
 42
0.0000001
 43
0.0000001
 44
0.0000000001
 40
0.0
 40
0.0
 40
0.0
 40
0.0
 40
1.0
 40
1.0
 40
1.0
 40
2.0
 40
2.0
 40
2.0
 40
3.0
 40
3.0
 40
3.0
 40
4.0
 40
4.0
 40
4.0
 40
5.0
 40
5.0
 40
5.0
 40
6.0
 40
6.0
 40
6.0
 40
7.0
 40
7.0
 40
7.0
 40
8.0
 40
8.0
 40
8.0
 40
9.0
 40
9.0
 40
9.0
 40
10.0
 40
10.0
 40
10.0
 40
10.0
 10
324.6345543915
 20
25.6101544177
 30
0.0
 10
324.6345543915
 20
25.6101544177
 30
0.0
 10
324.6345543915
 20
24.9480391385
 30
0.0
 10
324.6345543915
 20
24.9480391385
 30
0.0
 10
324.6345543915
 20
24.6329455432
 30
0.0
 10
324.7824180804
 20
24.4183469152
 30
0.0
 10
325.1225045647
 20
24.4183469152
 30
0.0
 10
325.4620676377
 20
24.4183469152
 30
0.0
 10
325.6101930321
 20
24.6329455432
 30
0.0
 10
325.6101930321
 20
24.9480391385
 30
0.0
 10
325.6101930321
 20
24.9480391385
 30
0.0
 10
325.6101930321
 20
25.6101544177
 30
0.0
 10
325.6101930321
 20
25.6101544177
 30
0.0
 10
325.6101930321
 20
25.6101544177
 30
0.0
 10
325.3881357933
 20
25.6101544177
 30
0.0
 10
325.3881357933
 20
25.6101544177
 30
0.0
 10
325.3881357933
 20
25.6101544177
 30
0.0
 10
325.3881357933
 20
24.9731628803
 30
0.0
 10
325.3881357933
 20
24.9731628803
 30
0.0
 10
325.3881357933
 20
24.7873518732
 30
0.0
 10
325.3414213358
 20
24.6245709626
 30
0.0
 10
325.1225045647
 20
24.6245709626
 30
0.0
 10
324.9030643822
 20
24.6245709626
 30
0.0
 10
324.8563499248
 20
24.7873518732
 30
0.0
 10
324.8563499248
 20
24.9731628803
 30
0.0
 10
324.8563499248
 20
24.9731628803
 30
0.0
 10
324.8563499248
 20
25.6101544177
 30
0.0
 10
324.8563499248
 20
25.6101544177
 30
0.0
 10
324.8563499248
 20
25.6101544177
 30
0.0
 10
324.6345543915
 20
25.6101544177
 30
0.0
 10
324.6345543915
 20
25.6101544177
 30
0.0
  0
SPLINE
  5
23F
100
AcDbEntity
  8
0
100
AcDbSpline
 62
7
  6
CONTINUOUS
 70
2
 71
3
 72
35
 73
31
 74
0
 42
0.0000001
 43
0.0000001
 44
0.0000000001
 40
0.0
 40
0.0
 40
0.0
 40
0.0
 40
1.0
 40
1.0
 40
1.0
 40
2.0
 40
2.0
 40
2.0
 40
3.0
 40
3.0
 40
3.0
 40
4.0
 40
4.0
 40
4.0
 40
5.0
 40
5.0
 40
5.0
 40
6.0
 40
6.0
 40
6.0
 40
7.0
 40
7.0
 40
7.0
 40
8.0
 40
8.0
 40
8.0
 40
9.0
 40
9.0
 40
9.0
 40
10.0
 40
10.0
 40
10.0
 40
10.0
 10
328.0333255893
 20
25.5688049259
 30
0.0
 10
327.9448690817
 20
25.6200992322
 30
0.0
 10
327.831419685
 20
25.645222974
 30
0.0
 10
327.72778425
 20
25.645222974
 30
0.0
 10
327.3729113969
 20
25.645222974
 30
0.0
 10
327.0974662066
 20
25.3814236849
 30
0.0
 10
327.0974662066
 20
25.0239337753
 30
0.0
 10
327.0974662066
 20
24.6790057366
 30
0.0
 10
327.3759210118
 20
24.4188703265
 30
0.0
 10
327.7154840848
 20
24.4188703265
 30
0.0
 10
327.831419685
 20
24.4188703265
 30
0.0
 10
327.9321763579
 20
24.4408536006
 30
0.0
 10
328.0333255893
 20
24.4947649632
 30
0.0
 10
328.0333255893
 20
24.4947649632
 30
0.0
 10
328.0333255893
 20
24.7774070587
 30
0.0
 10
328.0333255893
 20
24.7774070587
 30
0.0
 10
327.9494489304
 20
24.6842398494
 30
0.0
 10
327.8459443483
 20
24.6250943739
 30
0.0
 10
327.7178394356
 20
24.6250943739
 30
0.0
 10
327.4841362955
 20
24.6250943739
 30
0.0
 10
327.3188691814
 20
24.7972966876
 30
0.0
 10
327.3188691814
 20
25.0338785897
 30
0.0
 10
327.3188691814
 20
25.2458601613
 30
0.0
 10
327.4866224991
 20
25.437952104
 30
0.0
 10
327.7034456251
 20
25.437952104
 30
0.0
 10
327.8362612394
 20
25.437952104
 30
0.0
 10
327.9448690817
 20
25.3840407413
 30
0.0
 10
328.0333255893
 20
25.2830223628
 30
0.0
 10
328.0333255893
 20
25.2830223628
 30
0.0
 10
328.0333255893
 20
25.5688049259
 30
0.0
 10
328.0333255893
 20
25.5688049259
 30
0.0
  0
SPLINE
  5
240
100
AcDbEntity
  8
0
100
AcDbSpline
 62
7
  6
CONTINUOUS
 70
2
 71
3
 72
32
 73
28
 74
0
 42
0.0000001
 43
0.0000001
 44
0.0000000001
 40
0.0
 40
0.0
 40
0.0
 40
0.0
 40
1.0
 40
1.0
 40
1.0
 40
2.0
 40
2.0
 40
2.0
 40
3.0
 40
3.0
 40
3.0
 40
4.0
 40
4.0
 40
4.0
 40
5.0
 40
5.0
 40
5.0
 40
6.0
 40
6.0
 40
6.0
 40
7.0
 40
7.0
 40
7.0
 40
8.0
 40
8.0
 40
8.0
 40
9.0
 40
9.0
 40
9.0
 40
9.0
 10
330.5651968416
 20
24.9972397996
 30
0.0
 10
330.5651968416
 20
24.9972397996
 30
0.0
 10
330.5651968416
 20
25.0312615333
 30
0.0
 10
330.5651968416
 20
25.0312615333
 30
0.0
 10
330.5651968416
 20
25.3735725156
 30
0.0
 10
330.3923402638
 20
25.645222974
 30
0.0
 10
330.0256906566
 20
25.645222974
 30
0.0
 10
329.6540686422
 20
25.645222974
 30
0.0
 10
329.4643320504
 20
25.3788066284
 30
0.0
 10
329.4643320504
 20
25.0239337753
 30
0.0
 10
329.4643320504
 20
24.6842398494
 30
0.0
 10
329.6784072671
 20
24.4183469152
 30
0.0
 10
330.030532211
 20
24.4183469152
 30
0.0
 10
330.2545522422
 20
24.4183469152
 30
0.0
 10
330.4567198522
 20
24.5340208098
 30
0.0
 10
330.5651968416
 20
24.7334405105
 30
0.0
 10
330.5651968416
 20
24.7334405105
 30
0.0
 10
330.3775538949
 20
24.8402164132
 30
0.0
 10
330.3775538949
 20
24.8402164132
 30
0.0
 10
330.2940697945
 20
24.7015124219
 30
0.0
 10
330.2028653775
 20
24.6156729707
 30
0.0
 10
330.0332801203
 20
24.6156729707
 30
0.0
 10
329.8212985487
 20
24.6156729707
 30
0.0
 10
329.6883520816
 20
24.8004371554
 30
0.0
 10
329.6859967308
 20
24.9972397996
 30
0.0
 10
329.6859967308
 20
24.9972397996
 30
0.0
 10
330.5651968416
 20
24.9972397996
 30
0.0
 10
330.5651968416
 20
24.9972397996
 30
0.0
  0
SPLINE
  5
241
100
AcDbEntity
  8
0
100
AcDbSpline
 62
7
  6
CONTINUOUS
 70
2
 71
3
 72
14
 73
10
 74
0
 42
0.0000001
 43
0.0000001
 44
0.0000000001
 40
0.0
 40
0.0
 40
0.0
 40
0.0
 40
1.0
 40
1.0
 40
1.0
 40
2.0
 40
2.0
 40
2.0
 40
3.0
 40
3.0
 40
3.0
 40
3.0
 10
329.6980351904
 20
25.1647314117
 30
0.0
 10
329.7256451358
 20
25.3296059674
 30
0.0
 10
329.8534883429
 20
25.45260762
 30
0.0
 10
330.0256906566
 20
25.45260762
 30
0.0
 10
330.2028653775
 20
25.45260762
 30
0.0
 10
330.3163147742
 20
25.3369337254
 30
0.0
 10
330.3435321612
 20
25.1647314117
 30
0.0
 10
330.3435321612
 20
25.1647314117
 30
0.0
 10
329.6980351904
 20
25.1647314117
 30
0.0
 10
329.6980351904
 20
25.1647314117
 30
0.0
  0
SPLINE
  5
242
100
AcDbEntity
  8
0
100
AcDbSpline
 62
7
  6
CONTINUOUS
 70
2
 71
3
 72
20
 73
16
 74
0
 42
0.0000001
 43
0.0000001
 44
0.0000000001
 40
0.0
 40
0.0
 40
0.0
 40
0.0
 40
1.0
 40
1.0
 40
1.0
 40
2.0
 40
2.0
 40
2.0
 40
3.0
 40
3.0
 40
3.0
 40
4.0
 40
4.0
 40
4.0
 40
5.0
 40
5.0
 40
5.0
 40
5.0
 10
332.5892282918
 20
25.3740959269
 30
0.0
 10
332.5892282918
 20
25.3740959269
 30
0.0
 10
333.0003678584
 20
24.8716210905
 30
0.0
 10
333.0003678584
 20
24.8716210905
 30
0.0
 10
332.8843014053
 20
24.7559471959
 30
0.0
 10
332.7465133838
 20
24.6256177852
 30
0.0
 10
332.5745727757
 20
24.6256177852
 30
0.0
 10
332.3971363491
 20
24.6256177852
 30
0.0
 10
332.229644737
 20
24.7899689296
 30
0.0
 10
332.229644737
 20
24.9668819449
 30
0.0
 10
332.229644737
 20
25.1448417828
 30
0.0
 10
332.4394018106
 20
25.2709839031
 30
0.0
 10
332.566983312
 20
25.3589169995
 30
0.0
 10
332.566983312
 20
25.3589169995
 30
0.0
 10
332.5892282918
 20
25.3740959269
 30
0.0
 10
332.5892282918
 20
25.3740959269
 30
0.0
  0
SPLINE
  5
243
100
AcDbEntity
  8
0
100
AcDbSpline
 62
7
  6
CONTINUOUS
 70
2
 71
3
 72
23
 73
19
 74
0
 42
0.0000001
 43
0.0000001
 44
0.0000000001
 40
0.0
 40
0.0
 40
0.0
 40
0.0
 40
1.0
 40
1.0
 40
1.0
 40
2.0
 40
2.0
 40
2.0
 40
3.0
 40
3.0
 40
3.0
 40
4.0
 40
4.0
 40
4.0
 40
5.0
 40
5.0
 40
5.0
 40
6.0
 40
6.0
 40
6.0
 40
6.0
 10
332.6385598056
 20
25.6651126029
 30
0.0
 10
332.6385598056
 20
25.6651126029
 30
0.0
 10
332.5769281265
 20
25.7436242961
 30
0.0
 10
332.5769281265
 20
25.7436242961
 30
0.0
 10
332.5230167639
 20
25.8121911748
 30
0.0
 10
332.4662266391
 20
25.8812814648
 30
0.0
 10
332.4662266391
 20
25.9749720853
 30
0.0
 10
332.4662266391
 20
26.0937864477
 30
0.0
 10
332.5621417576
 20
26.1712513183
 30
0.0
 10
332.6731049506
 20
26.1712513183
 30
0.0
 10
332.7963683089
 20
26.1712513183
 30
0.0
 10
332.889666371
 20
26.1000673831
 30
0.0
 10
332.889666371
 20
25.9697379725
 30
0.0
 10
332.889666371
 20
25.8346978602
 30
0.0
 10
332.7615614583
 20
25.7582798122
 30
0.0
 10
332.6680016906
 20
25.6844788206
 30
0.0
 10
332.6680016906
 20
25.6844788206
 30
0.0
 10
332.6385598056
 20
25.6651126029
 30
0.0
 10
332.6385598056
 20
25.6651126029
 30
0.0
  0
SPLINE
  5
244
100
AcDbEntity
  8
0
100
AcDbSpline
 62
7
  6
CONTINUOUS
 70
2
 71
3
 72
50
 73
46
 74
0
 42
0.0000001
 43
0.0000001
 44
0.0000000001
 40
0.0
 40
0.0
 40
0.0
 40
0.0
 40
1.0
 40
1.0
 40
1.0
 40
2.0
 40
2.0
 40
2.0
 40
3.0
 40
3.0
 40
3.0
 40
4.0
 40
4.0
 40
4.0
 40
5.0
 40
5.0
 40
5.0
 40
6.0
 40
6.0
 40
6.0
 40
7.0
 40
7.0
 40
7.0
 40
8.0
 40
8.0
 40
8.0
 40
9.0
 40
9.0
 40
9.0
 40
10.0
 40
10.0
 40
10.0
 40
11.0
 40
11.0
 40
11.0
 40
12.0
 40
12.0
 40
12.0
 40
13.0
 40
13.0
 40
13.0
 40
14.0
 40
14.0
 40
14.0
 40
15.0
 40
15.0
 40
15.0
 40
15.0
 10
333.3407160483
 20
24.4581261731
 30
0.0
 10
333.3407160483
 20
24.4581261731
 30
0.0
 10
333.626106053
 20
24.4581261731
 30
0.0
 10
333.626106053
 20
24.4581261731
 30
0.0
 10
333.626106053
 20
24.4581261731
 30
0.0
 10
333.2937398852
 20
24.8690040341
 30
0.0
 10
333.2937398852
 20
24.8690040341
 30
0.0
 10
333.2937398852
 20
24.8690040341
 30
0.0
 10
333.5202461201
 20
25.1348969683
 30
0.0
 10
333.5202461201
 20
25.1348969683
 30
0.0
 10
333.5202461201
 20
25.1348969683
 30
0.0
 10
333.3719898728
 20
25.2877330644
 30
0.0
 10
333.3719898728
 20
25.2877330644
 30
0.0
 10
333.3719898728
 20
25.2877330644
 30
0.0
 10
333.1560827165
 20
25.0364956462
 30
0.0
 10
333.1560827165
 20
25.0364956462
 30
0.0
 10
333.1560827165
 20
25.0364956462
 30
0.0
 10
332.7690200692
 20
25.5044253375
 30
0.0
 10
332.7690200692
 20
25.5044253375
 30
0.0
 10
332.9244732216
 20
25.6185289983
 30
0.0
 10
333.1067512026
 20
25.7582798122
 30
0.0
 10
333.1067512026
 20
25.9676443273
 30
0.0
 10
333.1067512026
 20
26.2115539874
 30
0.0
 10
332.9047144455
 20
26.3549686803
 30
0.0
 10
332.6782082107
 20
26.3549686803
 30
0.0
 10
332.4340368449
 20
26.3549686803
 30
0.0
 10
332.2496652188
 20
26.2042262294
 30
0.0
 10
332.2496652188
 20
25.9477546984
 30
0.0
 10
332.2496652188
 20
25.7902079007
 30
0.0
 10
332.3483282465
 20
25.652550732
 30
0.0
 10
332.4536647682
 20
25.541587539
 30
0.0
 10
332.4536647682
 20
25.541587539
 30
0.0
 10
332.3381217264
 20
25.4578417329
 30
0.0
 10
332.3381217264
 20
25.4578417329
 30
0.0
 10
332.1604235942
 20
25.3296059674
 30
0.0
 10
332.0130833166
 20
25.2018936131
 30
0.0
 10
332.0130833166
 20
24.9647882997
 30
0.0
 10
332.0130833166
 20
24.6444605916
 30
0.0
 10
332.2716484929
 20
24.4183469152
 30
0.0
 10
332.5820313866
 20
24.4183469152
 30
0.0
 10
332.8009481577
 20
24.4183469152
 30
0.0
 10
332.9981433604
 20
24.543442213
 30
0.0
 10
333.1384175856
 20
24.7093635913
 30
0.0
 10
333.1384175856
 20
24.7093635913
 30
0.0
 10
333.3407160483
 20
24.4581261731
 30
0.0
 10
333.3407160483
 20
24.4581261731
 30
0.0
  0
LWPOLYLINE
  5
245
100
AcDbEntity
  8
0
100
AcDbPolyline
 62
7
  6
CONTINUOUS
 90
2
 70
0
 43
0.2
 10
335.276160138
 20
26.3146660112
 10
335.0448123488
 20
26.3146660112
  0
LWPOLYLINE
  5
246
100
AcDbEntity
  8
0
100
AcDbPolyline
 62
7
  6
CONTINUOUS
 90
2
 70
0
 43
0.2
 10
335.0448123488
 20
26.3146660112
 10
335.0448123488
 20
24.4576027618
  0
LWPOLYLINE
  5
247
100
AcDbEntity
  8
0
100
AcDbPolyline
 62
7
  6
CONTINUOUS
 90
2
 70
0
 43
0.2
 10
335.0448123488
 20
24.4576027618
 10
335.8401358007
 20
24.4576027618
  0
LWPOLYLINE
  5
248
100
AcDbEntity
  8
0
100
AcDbPolyline
 62
7
  6
CONTINUOUS
 90
2
 70
0
 43
0.2
 10
335.8401358007
 20
24.4576027618
 10
335.8401358007
 20
24.6695843334
  0
LWPOLYLINE
  5
249
100
AcDbEntity
  8
0
100
AcDbPolyline
 62
7
  6
CONTINUOUS
 90
2
 70
0
 43
0.2
 10
335.8401358007
 20
24.6695843334
 10
335.276160138
 20
24.6695843334
  0
LWPOLYLINE
  5
24A
100
AcDbEntity
  8
0
100
AcDbPolyline
 62
7
  6
CONTINUOUS
 90
2
 70
0
 43
0.2
 10
335.276160138
 20
24.6695843334
 10
335.276160138
 20
26.3146660112
  0
LWPOLYLINE
  5
24B
100
AcDbEntity
  8
0
100
AcDbPolyline
 62
7
  6
CONTINUOUS
 90
2
 70
0
 43
0.2
 10
337.5192392122
 20
25.6101544177
 10
337.2980979431
 20
25.6101544177
  0
LWPOLYLINE
  5
24C
100
AcDbEntity
  8
0
100
AcDbPolyline
 62
7
  6
CONTINUOUS
 90
2
 70
0
 43
0.2
 10
337.2980979431
 20
25.6101544177
 10
337.2980979431
 20
24.4581261731
  0
LWPOLYLINE
  5
24D
100
AcDbEntity
  8
0
100
AcDbPolyline
 62
7
  6
CONTINUOUS
 90
2
 70
0
 43
0.2
 10
337.2980979431
 20
24.4581261731
 10
337.5192392122
 20
24.4581261731
  0
LWPOLYLINE
  5
24E
100
AcDbEntity
  8
0
100
AcDbPolyline
 62
7
  6
CONTINUOUS
 90
2
 70
0
 43
0.2
 10
337.5192392122
 20
24.4581261731
 10
337.5192392122
 20
25.6101544177
  0
LWPOLYLINE
  5
24F
100
AcDbEntity
  8
0
100
AcDbPolyline
 62
7
  6
CONTINUOUS
 90
2
 70
1
 43
0.2
 10
337.256215935
 20
26.1401083467
 42
1.0
 10
337.5613829259
 20
26.1401083467
 42
1.0
  0
SPLINE
  5
250
100
AcDbEntity
  8
0
100
AcDbSpline
 62
7
  6
CONTINUOUS
 70
2
 71
3
 72
17
 73
13
 74
0
 42
0.0000001
 43
0.0000001
 44
0.0000000001
 40
0.0
 40
0.0
 40
0.0
 40
0.0
 40
1.0
 40
1.0
 40
1.0
 40
2.0
 40
2.0
 40
2.0
 40
3.0
 40
3.0
 40
3.0
 40
4.0
 40
4.0
 40
4.0
 40
4.0
 10
339.6495231538
 20
24.6156729707
 30
0.0
 10
339.4155583082
 20
24.6156729707
 30
0.0
 10
339.2852288975
 20
24.8177097279
 30
0.0
 10
339.2852288975
 20
25.0338785897
 30
0.0
 10
339.2852288975
 20
25.2484772178
 30
0.0
 10
339.4210541267
 20
25.4473735072
 30
0.0
 10
339.6495231538
 20
25.4473735072
 30
0.0
 10
339.888983818
 20
25.4473735072
 30
0.0
 10
340.0245473416
 20
25.2584220322
 30
0.0
 10
340.0245473416
 20
25.0338785897
 30
0.0
 10
340.0245473416
 20
24.8077649134
 30
0.0
 10
339.8913391688
 20
24.6156729707
 30
0.0
 10
339.6495231538
 20
24.6156729707
 30
0.0
  0
SPLINE
  5
251
100
AcDbEntity
  8
0
100
AcDbSpline
 62
7
  6
CONTINUOUS
 70
2
 71
3
 72
50
 73
46
 74
0
 42
0.0000001
 43
0.0000001
 44
0.0000000001
 40
0.0
 40
0.0
 40
0.0
 40
0.0
 40
1.0
 40
1.0
 40
1.0
 40
2.0
 40
2.0
 40
2.0
 40
3.0
 40
3.0
 40
3.0
 40
4.0
 40
4.0
 40
4.0
 40
5.0
 40
5.0
 40
5.0
 40
6.0
 40
6.0
 40
6.0
 40
7.0
 40
7.0
 40
7.0
 40
8.0
 40
8.0
 40
8.0
 40
9.0
 40
9.0
 40
9.0
 40
10.0
 40
10.0
 40
10.0
 40
11.0
 40
11.0
 40
11.0
 40
12.0
 40
12.0
 40
12.0
 40
13.0
 40
13.0
 40
13.0
 40
14.0
 40
14.0
 40
14.0
 40
15.0
 40
15.0
 40
15.0
 40
15.0
 10
340.2336501511
 20
25.610677829
 30
0.0
 10
340.2336501511
 20
25.610677829
 30
0.0
 10
340.0119854707
 20
25.610677829
 30
0.0
 10
340.0119854707
 20
25.610677829
 30
0.0
 10
340.0119854707
 20
25.610677829
 30
0.0
 10
340.0119854707
 20
25.4133517734
 30
0.0
 10
340.0119854707
 20
25.4133517734
 30
0.0
 10
340.0119854707
 20
25.4133517734
 30
0.0
 10
340.0072747691
 20
25.4133517734
 30
0.0
 10
340.0072747691
 20
25.4133517734
 30
0.0
 10
339.9159394994
 20
25.556243055
 30
0.0
 10
339.778020625
 20
25.6446995627
 30
0.0
 10
339.6052949
 20
25.6446995627
 30
0.0
 10
339.2729287322
 20
25.6446995627
 30
0.0
 10
339.0638259227
 20
25.3568233544
 30
0.0
 10
339.0638259227
 20
25.0412063478
 30
0.0
 10
339.0638259227
 20
24.7114572364
 30
0.0
 10
339.2608902726
 20
24.4183469152
 30
0.0
 10
339.6157631258
 20
24.4183469152
 30
0.0
 10
339.778020625
 20
24.4183469152
 30
0.0
 10
339.9180331445
 20
24.5068034229
 30
0.0
 10
340.0072747691
 20
24.6376562448
 30
0.0
 10
340.0072747691
 20
24.6376562448
 30
0.0
 10
340.0119854707
 20
24.6376562448
 30
0.0
 10
340.0119854707
 20
24.6376562448
 30
0.0
 10
340.0119854707
 20
24.6376562448
 30
0.0
 10
340.0119854707
 20
24.4183469152
 30
0.0
 10
340.0119854707
 20
24.4183469152
 30
0.0
 10
340.0119854707
 20
24.1817650131
 30
0.0
 10
339.9554570516
 20
23.9949071833
 30
0.0
 10
339.6822363593
 20
23.9949071833
 30
0.0
 10
339.4799378966
 20
23.9949071833
 30
0.0
 10
339.3373083206
 20
24.1131981344
 30
0.0
 10
339.3373083206
 20
24.3194221818
 30
0.0
 10
339.3373083206
 20
24.3194221818
 30
0.0
 10
339.1156436402
 20
24.3194221818
 30
0.0
 10
339.1156436402
 20
24.3194221818
 30
0.0
 10
339.1206160475
 20
23.9949071833
 30
0.0
 10
339.351702131
 20
23.7981045391
 30
0.0
 10
339.6720298392
 20
23.7981045391
 30
0.0
 10
340.1200699016
 20
23.7981045391
 30
0.0
 10
340.2336501511
 20
24.083363691
 30
0.0
 10
340.2336501511
 20
24.4801094472
 30
0.0
 10
340.2336501511
 20
24.4801094472
 30
0.0
 10
340.2336501511
 20
25.610677829
 30
0.0
 10
340.2336501511
 20
25.610677829
 30
0.0
  0
SPLINE
  5
252
100
AcDbEntity
  8
0
100
AcDbSpline
 62
7
  6
CONTINUOUS
 70
2
 71
3
 72
44
 73
40
 74
0
 42
0.0000001
 43
0.0000001
 44
0.0000000001
 40
0.0
 40
0.0
 40
0.0
 40
0.0
 40
1.0
 40
1.0
 40
1.0
 40
2.0
 40
2.0
 40
2.0
 40
3.0
 40
3.0
 40
3.0
 40
4.0
 40
4.0
 40
4.0
 40
5.0
 40
5.0
 40
5.0
 40
6.0
 40
6.0
 40
6.0
 40
7.0
 40
7.0
 40
7.0
 40
8.0
 40
8.0
 40
8.0
 40
9.0
 40
9.0
 40
9.0
 40
10.0
 40
10.0
 40
10.0
 40
11.0
 40
11.0
 40
11.0
 40
12.0
 40
12.0
 40
12.0
 40
13.0
 40
13.0
 40
13.0
 40
13.0
 10
341.8025754865
 20
26.5957378727
 30
0.0
 10
341.8025754865
 20
26.5957378727
 30
0.0
 10
341.8025754865
 20
24.4576027618
 30
0.0
 10
341.8025754865
 20
24.4576027618
 30
0.0
 10
341.8025754865
 20
24.4576027618
 30
0.0
 10
342.0239784613
 20
24.4576027618
 30
0.0
 10
342.0239784613
 20
24.4576027618
 30
0.0
 10
342.0239784613
 20
24.4576027618
 30
0.0
 10
342.0239784613
 20
24.9872949851
 30
0.0
 10
342.0239784613
 20
24.9872949851
 30
0.0
 10
342.0239784613
 20
25.1971829116
 30
0.0
 10
342.0239784613
 20
25.4478969184
 30
0.0
 10
342.3092376132
 20
25.4478969184
 30
0.0
 10
342.5361364065
 20
25.4478969184
 30
0.0
 10
342.5630920878
 20
25.3149504513
 30
0.0
 10
342.5630920878
 20
25.1186712184
 30
0.0
 10
342.5630920878
 20
25.1186712184
 30
0.0
 10
342.5630920878
 20
24.4576027618
 30
0.0
 10
342.5630920878
 20
24.4576027618
 30
0.0
 10
342.5630920878
 20
24.4576027618
 30
0.0
 10
342.7850184738
 20
24.4576027618
 30
0.0
 10
342.7850184738
 20
24.4576027618
 30
0.0
 10
342.7850184738
 20
24.4576027618
 30
0.0
 10
342.7850184738
 20
25.1448417828
 30
0.0
 10
342.7850184738
 20
25.1448417828
 30
0.0
 10
342.7850184738
 20
25.4253902331
 30
0.0
 10
342.7010109621
 20
25.645222974
 30
0.0
 10
342.3759725524
 20
25.645222974
 30
0.0
 10
342.2362217385
 20
25.645222974
 30
0.0
 10
342.0980411585
 20
25.5787497404
 30
0.0
 10
342.0286891629
 20
25.4557480878
 30
0.0
 10
342.0286891629
 20
25.4557480878
 30
0.0
 10
342.0239784613
 20
25.4557480878
 30
0.0
 10
342.0239784613
 20
25.4557480878
 30
0.0
 10
342.0239784613
 20
25.4557480878
 30
0.0
 10
342.0239784613
 20
26.5957378727
 30
0.0
 10
342.0239784613
 20
26.5957378727
 30
0.0
 10
342.0239784613
 20
26.5957378727
 30
0.0
 10
341.8025754865
 20
26.5957378727
 30
0.0
 10
341.8025754865
 20
26.5957378727
 30
0.0
  0
LWPOLYLINE
  5
253
100
AcDbEntity
  8
0
100
AcDbPolyline
 62
7
  6
CONTINUOUS
 90
2
 70
0
 43
0.2
 10
344.6248091507
 20
25.403406959
 10
344.8412397182
 20
25.403406959
  0
LWPOLYLINE
  5
254
100
AcDbEntity
  8
0
100
AcDbPolyline
 62
7
  6
CONTINUOUS
 90
2
 70
0
 43
0.2
 10
344.8412397182
 20
25.403406959
 10
344.8412397182
 20
25.6101544177
  0
LWPOLYLINE
  5
255
100
AcDbEntity
  8
0
100
AcDbPolyline
 62
7
  6
CONTINUOUS
 90
2
 70
0
 43
0.2
 10
344.8412397182
 20
25.6101544177
 10
344.6248091507
 20
25.6101544177
  0
LWPOLYLINE
  5
256
100
AcDbEntity
  8
0
100
AcDbPolyline
 62
7
  6
CONTINUOUS
 90
2
 70
0
 43
0.2
 10
344.6248091507
 20
25.6101544177
 10
344.6248091507
 20
26.0508667221
  0
LWPOLYLINE
  5
257
100
AcDbEntity
  8
0
100
AcDbPolyline
 62
7
  6
CONTINUOUS
 90
2
 70
0
 43
0.2
 10
344.6248091507
 20
26.0508667221
 10
344.4031444703
 20
26.0508667221
  0
LWPOLYLINE
  5
258
100
AcDbEntity
  8
0
100
AcDbPolyline
 62
7
  6
CONTINUOUS
 90
2
 70
0
 43
0.2
 10
344.4031444703
 20
26.0508667221
 10
344.4031444703
 20
25.6101544177
  0
LWPOLYLINE
  5
259
100
AcDbEntity
  8
0
100
AcDbPolyline
 62
7
  6
CONTINUOUS
 90
2
 70
0
 43
0.2
 10
344.4031444703
 20
25.6101544177
 10
344.2824981684
 20
25.6101544177
  0
LWPOLYLINE
  5
25A
100
AcDbEntity
  8
0
100
AcDbPolyline
 62
7
  6
CONTINUOUS
 90
2
 70
0
 43
0.2
 10
344.2824981684
 20
25.6101544177
 10
344.2824981684
 20
25.403406959
  0
LWPOLYLINE
  5
25B
100
AcDbEntity
  8
0
100
AcDbPolyline
 62
7
  6
CONTINUOUS
 90
2
 70
0
 43
0.2
 10
344.2824981684
 20
25.403406959
 10
344.4031444703
 20
25.403406959
  0
LWPOLYLINE
  5
25C
100
AcDbEntity
  8
0
100
AcDbPolyline
 62
7
  6
CONTINUOUS
 90
2
 70
0
 43
0.2
 10
344.4031444703
 20
25.403406959
 10
344.4031444703
 20
24.4576027618
  0
LWPOLYLINE
  5
25D
100
AcDbEntity
  8
0
100
AcDbPolyline
 62
7
  6
CONTINUOUS
 90
2
 70
0
 43
0.2
 10
344.4031444703
 20
24.4576027618
 10
344.6248091507
 20
24.4576027618
  0
LWPOLYLINE
  5
25E
100
AcDbEntity
  8
0
100
AcDbPolyline
 62
7
  6
CONTINUOUS
 90
2
 70
0
 43
0.2
 10
344.6248091507
 20
24.4576027618
 10
344.6248091507
 20
25.403406959
  0
SPLINE
  5
25F
100
AcDbEntity
  8
0
100
AcDbSpline
 62
7
  6
CONTINUOUS
 70
2
 71
3
 72
20
 73
16
 74
0
 42
0.0000001
 43
0.0000001
 44
0.0000000001
 40
0.0
 40
0.0
 40
0.0
 40
0.0
 40
1.0
 40
1.0
 40
1.0
 40
2.0
 40
2.0
 40
2.0
 40
3.0
 40
3.0
 40
3.0
 40
4.0
 40
4.0
 40
4.0
 40
5.0
 40
5.0
 40
5.0
 40
5.0
 10
332.4068194579
 20
34.8185292052
 30
0.0
 10
332.4068194579
 20
34.8185292052
 30
0.0
 10
334.7231761124
 20
31.988967783
 30
0.0
 10
334.7231761124
 20
31.988967783
 30
0.0
 10
334.071529059
 20
31.3367973183
 30
0.0
 10
333.294655855
 20
30.6008810475
 30
0.0
 10
332.3234662104
 20
30.6008810475
 30
0.0
 10
331.3249283259
 20
30.6008810475
 30
0.0
 10
330.3816103324
 20
31.5304594948
 30
0.0
 10
330.3816103324
 20
32.5296516433
 30
0.0
 10
330.3816103324
 20
33.5288437919
 30
0.0
 10
331.5604634055
 20
34.2354490305
 30
0.0
 10
332.2819858658
 20
34.7353068104
 30
0.0
 10
332.2819858658
 20
34.7353068104
 30
0.0
 10
332.4068194579
 20
34.8185292052
 30
0.0
 10
332.4068194579
 20
34.8185292052
 30
0.0
  0
SPLINE
  5
260
100
AcDbEntity
  8
0
100
AcDbSpline
 62
7
  6
CONTINUOUS
 70
2
 71
3
 72
23
 73
19
 74
0
 42
0.0000001
 43
0.0000001
 44
0.0000000001
 40
0.0
 40
0.0
 40
0.0
 40
0.0
 40
1.0
 40
1.0
 40
1.0
 40
2.0
 40
2.0
 40
2.0
 40
3.0
 40
3.0
 40
3.0
 40
4.0
 40
4.0
 40
4.0
 40
5.0
 40
5.0
 40
5.0
 40
6.0
 40
6.0
 40
6.0
 40
6.0
 10
332.6842274405
 20
36.4562831249
 30
0.0
 10
332.6842274405
 20
36.4562831249
 30
0.0
 10
332.3377291679
 20
36.8996124858
 30
0.0
 10
332.3377291679
 20
36.8996124858
 30
0.0
 10
332.031926123
 20
37.2877219557
 30
0.0
 10
331.7130377959
 20
37.6762239841
 30
0.0
 10
331.7130377959
 20
38.2031682982
 30
0.0
 10
331.7130377959
 20
38.8693400148
 30
0.0
 10
332.2543759204
 20
39.3130619341
 30
0.0
 10
332.8782821755
 20
39.3130619341
 30
0.0
 10
333.5720638376
 20
39.3130619341
 30
0.0
 10
334.0992698573
 20
38.9108203594
 30
0.0
 10
334.0992698573
 20
38.1758200584
 30
0.0
 10
334.0992698573
 20
37.4125555479
 30
0.0
 10
333.3780091026
 20
36.9824423221
 30
0.0
 10
332.8509339357
 20
36.5667229067
 30
0.0
 10
332.8509339357
 20
36.5667229067
 30
0.0
 10
332.6842274405
 20
36.4562831249
 30
0.0
 10
332.6842274405
 20
36.4562831249
 30
0.0
  0
SPLINE
  5
261
100
AcDbEntity
  8
0
100
AcDbSpline
 62
7
  6
CONTINUOUS
 70
2
 71
3
 72
50
 73
46
 74
0
 42
0.0000001
 43
0.0000001
 44
0.0000000001
 40
0.0
 40
0.0
 40
0.0
 40
0.0
 40
1.0
 40
1.0
 40
1.0
 40
2.0
 40
2.0
 40
2.0
 40
3.0
 40
3.0
 40
3.0
 40
4.0
 40
4.0
 40
4.0
 40
5.0
 40
5.0
 40
5.0
 40
6.0
 40
6.0
 40
6.0
 40
7.0
 40
7.0
 40
7.0
 40
8.0
 40
8.0
 40
8.0
 40
9.0
 40
9.0
 40
9.0
 40
10.0
 40
10.0
 40
10.0
 40
11.0
 40
11.0
 40
11.0
 40
12.0
 40
12.0
 40
12.0
 40
13.0
 40
13.0
 40
13.0
 40
14.0
 40
14.0
 40
14.0
 40
15.0
 40
15.0
 40
15.0
 40
15.0
 10
336.6378146034
 20
29.6576939068
 30
0.0
 10
336.6378146034
 20
29.6576939068
 30
0.0
 10
338.247042608
 20
29.6576939068
 30
0.0
 10
338.247042608
 20
29.6576939068
 30
0.0
 10
338.247042608
 20
29.6576939068
 30
0.0
 10
336.3740153144
 20
31.9748356782
 30
0.0
 10
336.3740153144
 20
31.9748356782
 30
0.0
 10
336.3740153144
 20
31.9748356782
 30
0.0
 10
337.6503537398
 20
33.4723153728
 30
0.0
 10
337.6503537398
 20
33.4723153728
 30
0.0
 10
337.6503537398
 20
33.4723153728
 30
0.0
 10
336.8181297921
 20
34.3333269413
 30
0.0
 10
336.8181297921
 20
34.3333269413
 30
0.0
 10
336.8181297921
 20
34.3333269413
 30
0.0
 10
335.5975346688
 20
32.9180228189
 30
0.0
 10
335.5975346688
 20
32.9180228189
 30
0.0
 10
335.5975346688
 20
32.9180228189
 30
0.0
 10
333.4196203
 20
35.5533986534
 30
0.0
 10
333.4196203
 20
35.5533986534
 30
0.0
 10
334.2931937394
 20
36.1914370133
 30
0.0
 10
335.3198649806
 20
36.9824423221
 30
0.0
 10
335.3198649806
 20
38.1612953952
 30
0.0
 10
335.3198649806
 20
39.5349883202
 30
0.0
 10
334.1819688408
 20
40.3394714696
 30
0.0
 10
332.9066772379
 20
40.3394714696
 30
0.0
 10
331.5332460185
 20
40.3394714696
 30
0.0
 10
330.4923118197
 20
39.49324627
 30
0.0
 10
330.4923118197
 20
38.0505939078
 30
0.0
 10
330.4923118197
 20
37.1630192164
 30
0.0
 10
331.0476511962
 20
36.3861460124
 30
0.0
 10
331.6438166531
 20
35.7617163459
 30
0.0
 10
331.6438166531
 20
35.7617163459
 30
0.0
 10
330.991907894
 20
35.2901227756
 30
0.0
 10
330.991907894
 20
35.2901227756
 30
0.0
 10
329.9933700096
 20
34.5688620209
 30
0.0
 10
329.1604917978
 20
33.8476012662
 30
0.0
 10
329.1604917978
 20
32.5160429498
 30
0.0
 10
329.1604917978
 20
30.7123676518
 30
0.0
 10
330.6175379704
 20
29.4357675207
 30
0.0
 10
332.3650774077
 20
29.4357675207
 30
0.0
 10
333.5999354886
 20
29.4357675207
 30
0.0
 10
334.7093057133
 20
30.1439429932
 30
0.0
 10
335.5001801693
 20
31.0724746179
 30
0.0
 10
335.5001801693
 20
31.0724746179
 30
0.0
 10
336.6378146034
 20
29.6576939068
 30
0.0
 10
336.6378146034
 20
29.6576939068
 30
0.0
  0
LINE
  5
262
100
AcDbEntity
  8
0
100
AcDbLine
 62
7
  6
CONTINUOUS
 10
322.4406759784
 20
27.6315688114
 11
344.8545867061
 21
27.6315688114
  0
LINE
  5
263
100
AcDbEntity
  8
0
100
AcDbLine
 62
7
  6
CONTINUOUS
 10
344.8545867061
 20
27.6315688114
 11
344.8545867061
 21
50.0454795391
  0
LINE
  5
264
100
AcDbEntity
  8
0
100
AcDbLine
 62
7
  6
CONTINUOUS
 10
344.8545867061
 20
50.0454795391
 11
322.4406759784
 21
50.0454795391
  0
LINE
  5
265
100
AcDbEntity
  8
0
100
AcDbLine
 62
7
  6
CONTINUOUS
 10
322.4406759784
 20
50.0454795391
 11
322.4406759784
 21
27.6315688114
  0
ENDBLK
  5
266
100
AcDbEntity
  8
0
  6
BYBLOCK
 62
0
100
AcDbBlockEnd
  0
BLOCK
  5
267
100
AcDbEntity
  8
0
100
AcDbBlockBegin
  2
_CLOSED
 70
64
 10
0.0
 20
0.0
  3
_CLOSED
  1

  0
LINE
  5
268
100
AcDbEntity
  8
0
  6
BYBLOCK
 62
0
100
AcDbLine
 10
0.0
 20
0.0
 11
-1.0
 21
0.2
  0
LINE
  5
269
100
AcDbEntity
  8
0
  6
BYBLOCK
 62
0
100
AcDbLine
 10
-1.0
 20
0.2
 11
-1.0
 21
-0.2
  0
LINE
  5
26A
100
AcDbEntity
  8
0
  6
BYBLOCK
 62
0
100
AcDbLine
 10
-1.0
 20
-0.2
 11
0.0
 21
0.0
  0
LINE
  5
26B
100
AcDbEntity
  8
0
  6
BYBLOCK
 62
0
100
AcDbLine
 10
-1.0
 20
0.0
 11
0.0
 21
0.0
  0
ENDBLK
  5
26C
100
AcDbEntity
  8
0
  6
BYBLOCK
 62
0
100
AcDbBlockEnd
  0
BLOCK
  5
26D
100
AcDbEntity
  8
0
100
AcDbBlockBegin
 62
2
  6
CONTINUOUS
  2
*D0
 70
65
 10
0.0
 20
0.0
  3
*D0
  1

  0
MTEXT
  5
26E
100
AcDbEntity
  8
0
100
AcDbMText
 62
2
  6
CONTINUOUS
  7
STANDARD
 71
2
 72
1
 10
33.2098411158
 20
209.8981787924
 30
0.0
 11
0.0
 21
1.0
 31
0.0
  1
100
 40
3.0
 41
6.9925650558
  0
LINE
  5
26F
100
AcDbEntity
  8
0
100
AcDbLine
 62
2
  6
CONTINUOUS
 10
50.8878702899
 20
259.8981787924
 11
36.2098411158
 21
259.8981787924
  0
LINE
  5
270
100
AcDbEntity
  8
0
100
AcDbLine
 62
2
  6
CONTINUOUS
 10
51.0455454846
 20
159.8981787924
 11
36.2098411158
 21
159.8981787924
  0
LINE
  5
271
100
AcDbEntity
  8
0
100
AcDbLine
 62
2
  6
CONTINUOUS
 10
36.9598411158
 20
259.8981787924
 11
36.9598411158
 21
209.8981787924
  0
LINE
  5
272
100
AcDbEntity
  8
0
100
AcDbLine
 62
2
  6
CONTINUOUS
 10
36.9598411158
 20
159.8981787924
 11
36.9598411158
 21
209.8981787924
  0
INSERT
  5
273
100
AcDbEntity
  8
0
100
AcDbBlockReference
 62
2
  6
CONTINUOUS
  2
_CLOSED
 10
36.9598411158
 20
259.8981787924
 41
2.5
 42
2.5
 43
2.5
 50
90.0
  0
INSERT
  5
274
100
AcDbEntity
  8
0
100
AcDbBlockReference
 62
2
  6
CONTINUOUS
  2
_CLOSED
 10
36.9598411158
 20
159.8981787924
 41
2.5
 42
2.5
 43
2.5
 50
270.0
  0
ENDBLK
  5
275
100
AcDbEntity
  8
0
  6
BYBLOCK
 62
0
100
AcDbBlockEnd
  0
BLOCK
  5
276
100
AcDbEntity
  8
0
100
AcDbBlockBegin
 62
2
  6
CONTINUOUS
  2
*D1
 70
65
 10
0.0
 20
0.0
  3
*D1
  1

  0
MTEXT
  5
277
100
AcDbEntity
  8
0
100
AcDbMText
 62
2
  6
CONTINUOUS
  7
STANDARD
 71
2
 72
1
 10
104.1606734045
 20
277.8561203149
 30
0.0
 11
1.0
 21
0.0
 31
0.0
  1
100
 40
3.0
 41
6.9925650558
  0
LINE
  5
278
100
AcDbEntity
  8
0
100
AcDbLine
 62
2
  6
CONTINUOUS
 10
154.1606734045
 20
263.9278228413
 11
154.1606734045
 21
274.8561203149
  0
LINE
  5
279
100
AcDbEntity
  8
0
100
AcDbLine
 62
2
  6
CONTINUOUS
 10
54.1606734045
 20
264.4323834643
 11
54.1606734045
 21
274.8561203149
  0
LINE
  5
27A
100
AcDbEntity
  8
0
100
AcDbLine
 62
2
  6
CONTINUOUS
 10
154.1606734045
 20
274.1061203149
 11
104.1606734045
 21
274.1061203149
  0
LINE
  5
27B
100
AcDbEntity
  8
0
100
AcDbLine
 62
2
  6
CONTINUOUS
 10
54.1606734045
 20
274.1061203149
 11
104.1606734045
 21
274.1061203149
  0
INSERT
  5
27C
100
AcDbEntity
  8
0
100
AcDbBlockReference
 62
2
  6
CONTINUOUS
  2
_CLOSED
 10
154.1606734045
 20
274.1061203149
 41
2.5
 42
2.5
 43
2.5
  0
INSERT
  5
27D
100
AcDbEntity
  8
0
100
AcDbBlockReference
 62
2
  6
CONTINUOUS
  2
_CLOSED
 10
54.1606734045
 20
274.1061203149
 41
2.5
 42
2.5
 43
2.5
 50
180.0
  0
ENDBLK
  5
27E
100
AcDbEntity
  8
0
  6
BYBLOCK
 62
0
100
AcDbBlockEnd
  0
BLOCK
  5
27F
100
AcDbEntity
  8
0
100
AcDbBlockBegin
 62
2
  6
CONTINUOUS
  2
*D2
 70
65
 10
0.0
 20
0.0
  3
*D2
  1

  0
MTEXT
  5
280
100
AcDbEntity
  8
0
100
AcDbMText
 62
2
  6
CONTINUOUS
  7
STANDARD
 71
2
 72
1
 10
33.2098411158
 20
76.1821149096
 30
0.0
 11
0.0
 21
1.0
 31
0.0
  1
100
 40
3.0
 41
6.9925650558
  0
LINE
  5
281
100
AcDbEntity
  8
0
100
AcDbLine
 62
2
  6
CONTINUOUS
 10
51.3924309128
 20
126.9389558439
 11
36.2098411158
 21
126.9389558439
  0
LINE
  5
282
100
AcDbEntity
  8
0
100
AcDbLine
 62
2
  6
CONTINUOUS
 10
51.1401506013
 20
26.9389558439
 11
36.2098411158
 21
26.9389558439
  0
LINE
  5
283
100
AcDbEntity
  8
0
100
AcDbLine
 62
2
  6
CONTINUOUS
 10
36.9598411158
 20
126.9389558439
 11
36.9598411158
 21
76.9389558439
  0
LINE
  5
284
100
AcDbEntity
  8
0
100
AcDbLine
 62
2
  6
CONTINUOUS
 10
36.9598411158
 20
26.9389558439
 11
36.9598411158
 21
76.9389558439
  0
INSERT
  5
285
100
AcDbEntity
  8
0
100
AcDbBlockReference
 62
2
  6
CONTINUOUS
  2
_CLOSED
 10
36.9598411158
 20
126.9389558439
 41
2.5
 42
2.5
 43
2.5
 50
90.0
  0
INSERT
  5
286
100
AcDbEntity
  8
0
100
AcDbBlockReference
 62
2
  6
CONTINUOUS
  2
_CLOSED
 10
36.9598411158
 20
26.9389558439
 41
2.5
 42
2.5
 43
2.5
 50
270.0
  0
ENDBLK
  5
287
100
AcDbEntity
  8
0
  6
BYBLOCK
 62
0
100
AcDbBlockEnd
  0
ENDSEC
  0
SECTION
  2
ENTITIES
  0
DIMENSION
  5
288
100
AcDbEntity
  8
0
100
AcDbDimension
 62
2
  6
CONTINUOUS
  2
*D0
 10
36.9598411158
 20
159.8981787924
 11
36.9598411158
 21
210.0270694157
 70
160
  3
DIMSTYLE_1
100
AcDbAlignedDimension
 13
51.6378702899
 23
259.8981787924
 14
51.7955454846
 24
159.8981787924
 50
270.0
100
AcDbRotatedDimension
  0
DIMENSION
  5
289
100
AcDbEntity
  8
0
100
AcDbDimension
 62
2
  6
CONTINUOUS
  2
*D1
 10
54.1606734045
 20
274.1061203149
 11
104.2895645142
 21
274.1061203149
 70
160
  3
DIMSTYLE_1
100
AcDbAlignedDimension
 13
154.1606734045
 23
263.1778228413
 14
54.1606734045
 24
263.6823834643
 50
180.0
100
AcDbRotatedDimension
  0
DIMENSION
  5
28A
100
AcDbEntity
  8
0
100
AcDbDimension
 62
2
  6
CONTINUOUS
  2
*D2
 10
36.9598411158
 20
26.9389558439
 11
36.9598411158
 21
76.3110055329
 70
160
  3
DIMSTYLE_1
100
AcDbAlignedDimension
 13
52.1424309128
 23
126.9389558439
 14
51.8901506013
 24
26.9389558439
 50
270.0
100
AcDbRotatedDimension
  0
LINE
  5
28B
100
AcDbEntity
  8
0
100
AcDbLine
 62
2
  6
CONTINUOUS
 10
319.8215188711
 20
50.4217920391
 11
409.8215188711
 21
50.4217920391
  0
LINE
  5
28C
100
AcDbEntity
  8
0
100
AcDbLine
 62
2
  6
CONTINUOUS
 10
319.8215188711
 20
50.4217920391
 11
319.8215188711
 21
10.4217920391
  0
LINE
  5
28D
100
AcDbEntity
  8
0
100
AcDbLine
 62
2
  6
CONTINUOUS
 10
349.8215188711
 20
44.4217920391
 11
409.8215188711
 21
44.4217920391
  0
LINE
  5
28E
100
AcDbEntity
  8
0
100
AcDbLine
 62
2
  6
CONTINUOUS
 10
349.8215188711
 20
38.4217920391
 11
409.8215188711
 21
38.4217920391
  0
LINE
  5
28F
100
AcDbEntity
  8
0
100
AcDbLine
 62
2
  6
CONTINUOUS
 10
349.8215188711
 20
28.4217920391
 11
409.8215188711
 21
28.4217920391
  0
LINE
  5
290
100
AcDbEntity
  8
0
100
AcDbLine
 62
2
  6
CONTINUOUS
 10
319.8215188711
 20
23.4217920391
 11
409.8215188711
 21
23.4217920391
  0
LINE
  5
291
100
AcDbEntity
  8
0
100
AcDbLine
 62
2
  6
CONTINUOUS
 10
319.8215188711
 20
10.4217920391
 11
409.8215188711
 21
10.4217920391
  0
LINE
  5
292
100
AcDbEntity
  8
0
100
AcDbLine
 62
2
  6
CONTINUOUS
 10
349.8215188711
 20
50.4217920391
 11
349.8215188711
 21
23.4217920391
  0
LINE
  5
293
100
AcDbEntity
  8
0
100
AcDbLine
 62
2
  6
CONTINUOUS
 10
389.8215188711
 20
50.4217920391
 11
389.8215188711
 21
38.4217920391
  0
LINE
  5
294
100
AcDbEntity
  8
0
100
AcDbLine
 62
2
  6
CONTINUOUS
 10
409.8215188711
 20
50.4217920391
 11
409.8215188711
 21
10.4217920391
  0
INSERT
  5
295
100
AcDbEntity
  8
0
100
AcDbBlockReference
 62
2
  6
CONTINUOUS
  2
LOGO2_BL0
 10
333.6475659158
 20
36.9217920391
  0
MTEXT
  5
296
100
AcDbEntity
  8
9_SOLID
100
AcDbMText
 62
2
  6
CONTINUOUS
  7
TEXTSTYLE_2
 71
1
 72
1
 10
351.3090188711
 20
48.9217920391
 30
0.0
 11
1.0
 21
0.0
 31
0.0
  1
BA8_C_005
 40
3.0
 41
32.8928571429
  0
MTEXT
  5
297
100
AcDbEntity
  8
0
100
AcDbMText
 62
2
  6
CONTINUOUS
  7
TEXTSTYLE_2
 71
1
 72
1
 10
391.3090188711
 20
49.1717920391
 30
0.0
 11
1.0
 21
0.0
 31
0.0
  1
Rev: 00
 40
3.5
 41
26.875
  0
MTEXT
  5
298
100
AcDbEntity
  8
9_SOLID
100
AcDbMText
 62
2
  6
CONTINUOUS
  7
TEXTSTYLE_2
 71
1
 72
1
 10
351.3090188711
 20
42.6717920391
 30
0.0
 11
1.0
 21
0.0
 31
0.0
  1
Scale:1:1
 40
3.5
 41
28.375
  0
MTEXT
  5
299
100
AcDbEntity
  8
9_SOLID
100
AcDbMText
 62
2
  6
CONTINUOUS
  7
TEXTSTYLE_2
 71
1
 72
1
 10
391.3090188711
 20
43.1717920391
 30
0.0
 11
1.0
 21
0.0
 31
0.0
  1
A3
 40
3.5
 41
9.25
  0
MTEXT
  5
29A
100
AcDbEntity
  8
0
100
AcDbMText
 62
2
  6
CONTINUOUS
  7
TEXTSTYLE_2
 71
1
 72
1
 10
351.3090188711
 20
35.1717920391
 30
0.0
 11
1.0
 21
0.0
 31
0.0
  1
BITPOP C 2.2 
 40
3.5
 41
53.375
  0
MTEXT
  5
29B
100
AcDbEntity
  8
0
100
AcDbMText
 62
2
  6
CONTINUOUS
  7
TEXTSTYLE_2
 71
1
 72
1
 10
351.3090188711
 20
27.1717920391
 30
0.0
 11
1.0
 21
0.0
 31
0.0
  1
DATE: 08/08/2018
 40
2.5
 41
45.9821428571
  0
MTEXT
  5
29C
100
AcDbEntity
  8
9_SOLID
100
AcDbMText
 62
2
  6
CONTINUOUS
  7
TEXTSTYLE_2
 71
1
 72
1
 10
321.3090188711
 20
23.1092920391
 30
0.0
 11
1.0
 21
0.0
 31
0.0
  1
Any integral or partial reproductions are prohibited \Pwithout prior authorisation of L {\Ftxt.shx;\W0.190476;\H2.250000; }& L Luce & Light s.r.l., \Pin accordance with the law in force. \PAll rights reserved.
 40
2.25
 41
134.5982142857
  0
LINE
  5
29D
100
AcDbEntity
  8
0
100
AcDbLine
 62
7
  6
CONTINUOUS
 10
0.0
 20
0.0
 11
0.0
 21
297.0
  0
LINE
  5
29E
100
AcDbEntity
  8
0
100
AcDbLine
 62
7
  6
CONTINUOUS
 10
0.0
 20
0.0
 11
420.0
 21
0.0
  0
LINE
  5
29F
100
AcDbEntity
  8
0
100
AcDbLine
 62
7
  6
CONTINUOUS
 10
0.0
 20
297.0
 11
420.0
 21
297.0
  0
LINE
  5
2A0
100
AcDbEntity
  8
0
100
AcDbLine
 62
7
  6
CONTINUOUS
 10
420.0
 20
0.0
 11
420.0
 21
297.0
  0
LINE
  5
2A1
100
AcDbEntity
  8
7_ALL_FEATURES
100
AcDbLine
 62
7
  6
CONTINUOUS
 10
54.1606734045
 20
259.8981787924
 11
54.1606734045
 21
159.8981787924
  0
LINE
  5
2A2
100
AcDbEntity
  8
7_ALL_FEATURES
100
AcDbLine
 62
7
  6
CONTINUOUS
 10
56.1606734045
 20
161.8981787924
 11
56.1606734045
 21
257.8981787924
  0
LINE
  5
2A3
100
AcDbEntity
  8
7_ALL_FEATURES
100
AcDbLine
 62
3
  6
CONTINUOUS
 10
56.4106734045
 20
257.1481787924
 11
56.4106734045
 21
162.6481787924
  0
LINE
  5
2A4
100
AcDbEntity
  8
7_ALL_FEATURES
100
AcDbLine
 62
3
  6
CONTINUOUS
 10
56.5606734045
 20
256.9981787924
 11
56.5606734045
 21
162.7981787924
  0
LINE
  5
2A5
100
AcDbEntity
  8
7_ALL_FEATURES
100
AcDbLine
 62
7
  6
CONTINUOUS
 10
54.1606734045
 20
159.8981787924
 11
154.1606734045
 21
159.8981787924
  0
LINE
  5
2A6
100
AcDbEntity
  8
7_ALL_FEATURES
100
AcDbLine
 62
7
  6
CONTINUOUS
 10
152.1606734045
 20
161.8981787924
 11
56.1606734045
 21
161.8981787924
  0
LINE
  5
2A7
100
AcDbEntity
  8
7_ALL_FEATURES
100
AcDbLine
 62
3
  6
CONTINUOUS
 10
56.9106734045
 20
162.1481787924
 11
151.4106734045
 21
162.1481787924
  0
LINE
  5
2A8
100
AcDbEntity
  8
7_ALL_FEATURES
100
AcDbLine
 62
3
  6
CONTINUOUS
 10
57.0606734045
 20
162.2981787924
 11
151.2606734045
 21
162.2981787924
  0
LINE
  5
2A9
100
AcDbEntity
  8
7_ALL_FEATURES
100
AcDbLine
 62
3
  6
CONTINUOUS
 10
68.5606734045
 20
175.4981787924
 11
68.5606734045
 21
204.2981787924
  0
LINE
  5
2AA
100
AcDbEntity
  8
7_ALL_FEATURES
100
AcDbLine
 62
3
  6
CONTINUOUS
 10
68.5606734045
 20
215.4981787924
 11
68.5606734045
 21
244.2981787924
  0
LINE
  5
2AB
100
AcDbEntity
  8
7_ALL_FEATURES
100
AcDbLine
 62
7
  6
CONTINUOUS
 10
68.8016550268
 20
244.258206288
 11
68.8008250754
 21
215.538910245
  0
LINE
  5
2AC
100
AcDbEntity
  8
7_ALL_FEATURES
100
AcDbLine
 62
7
  6
CONTINUOUS
 10
68.80165706
 20
204.2583330472
 11
68.8008271086
 21
175.5390370038
  0
LINE
  5
2AD
100
AcDbEntity
  8
7_ALL_FEATURES
100
AcDbLine
 62
7
  6
CONTINUOUS
 10
68.8191095871
 20
244.2407421886
 11
68.8182806447
 21
215.5563626896
  0
LINE
  5
2AE
100
AcDbEntity
  8
7_ALL_FEATURES
100
AcDbLine
 62
7
  6
CONTINUOUS
 10
68.8191168309
 20
204.2408611529
 11
68.8182878893
 21
175.5565078469
  0
LINE
  5
2AF
100
AcDbEntity
  8
7_ALL_FEATURES
100
AcDbLine
 62
7
  6
CONTINUOUS
 10
69.331620777
 20
244.2356631789
 11
69.3307921273
 21
215.5614123015
  0
LINE
  5
2B0
100
AcDbEntity
  8
7_ALL_FEATURES
100
AcDbLine
 62
7
  6
CONTINUOUS
 10
69.3316280212
 20
204.2357951489
 11
69.3307993715
 21
175.5615442711
  0
LINE
  5
2B1
100
AcDbEntity
  8
7_ALL_FEATURES
100
AcDbLine
 62
3
  6
CONTINUOUS
 10
138.5606734045
 20
174.2981787924
 11
109.7606734045
 21
174.2981787924
  0
LINE
  5
2B2
100
AcDbEntity
  8
7_ALL_FEATURES
100
AcDbLine
 62
3
  6
CONTINUOUS
 10
98.5606734045
 20
174.2981787924
 11
69.7606734045
 21
174.2981787924
  0
LINE
  5
2B3
100
AcDbEntity
  8
7_ALL_FEATURES
100
AcDbLine
 62
7
  6
CONTINUOUS
 10
69.8006459089
 20
174.5391604148
 11
98.5199419519
 21
174.5383304633
  0
LINE
  5
2B4
100
AcDbEntity
  8
7_ALL_FEATURES
100
AcDbLine
 62
7
  6
CONTINUOUS
 10
109.8005191497
 20
174.5391624479
 11
138.519815193
 21
174.5383324965
  0
LINE
  5
2B5
100
AcDbEntity
  8
7_ALL_FEATURES
100
AcDbLine
 62
7
  6
CONTINUOUS
 10
69.8181100083
 20
174.556614975
 11
98.5024895073
 21
174.5557860326
  0
LINE
  5
2B6
100
AcDbEntity
  8
7_ALL_FEATURES
100
AcDbLine
 62
7
  6
CONTINUOUS
 10
109.817991044
 20
174.5566222189
 11
138.50234435
 21
174.5557932772
  0
LINE
  5
2B7
100
AcDbEntity
  8
7_ALL_FEATURES
100
AcDbLine
 62
7
  6
CONTINUOUS
 10
69.823189018
 20
175.0691261649
 11
98.4974398954
 21
175.0682975152
  0
LINE
  5
2B8
100
AcDbEntity
  8
7_ALL_FEATURES
100
AcDbLine
 62
7
  6
CONTINUOUS
 10
109.823057048
 20
175.0691334092
 11
138.4973079258
 21
175.0683047595
  0
LINE
  5
2B9
100
AcDbEntity
  8
7_ALL_FEATURES
100
AcDbLine
 62
9
  6
CONTINUOUS
 10
72.0476744092
 20
241.5195328321
 11
72.0470027451
 21
218.2775462
  0
LINE
  5
2BA
100
AcDbEntity
  8
7_ALL_FEATURES
100
AcDbLine
 62
9
  6
CONTINUOUS
 10
72.0476013824
 20
201.5195845358
 11
72.0469297183
 21
178.2775979033
  0
LINE
  5
2BB
100
AcDbEntity
  8
7_ALL_FEATURES
100
AcDbLine
 62
9
  6
CONTINUOUS
 10
72.5393923915
 20
217.7851280938
 11
72.5400925154
 21
242.0119224786
  0
LINE
  5
2BC
100
AcDbEntity
  8
7_ALL_FEATURES
100
AcDbLine
 62
9
  6
CONTINUOUS
 10
72.5393193648
 20
177.7851797971
 11
72.5393314416
 21
178.2775836735
  0
LINE
  5
2BD
100
AcDbEntity
  8
7_ALL_FEATURES
100
AcDbLine
 62
9
  6
CONTINUOUS
 10
72.5393314416
 20
178.2775836735
 11
72.5400194886
 21
202.0119741822
  0
LINE
  5
2BE
100
AcDbEntity
  8
7_ALL_FEATURES
100
AcDbLine
 62
9
  6
CONTINUOUS
 10
98.5033720898
 20
245.2397353655
 11
98.5208276593
 21
245.2571951369
  0
LINE
  5
2BF
100
AcDbEntity
  8
7_ALL_FEATURES
100
AcDbLine
 62
9
  6
CONTINUOUS
 10
69.3307921273
 20
215.5614123015
 11
72.0470027451
 21
218.2775462
  0
LINE
  5
2C0
100
AcDbEntity
  8
7_ALL_FEATURES
100
AcDbLine
 62
9
  6
CONTINUOUS
 10
95.7820791478
 20
242.0112508144
 11
98.498289761
 21
244.7272241757
  0
LINE
  5
2C1
100
AcDbEntity
  8
7_ALL_FEATURES
100
AcDbLine
 62
9
  6
CONTINUOUS
 10
98.9906794075
 20
244.2348060695
 11
96.2744687943
 21
241.5188327083
  0
LINE
  5
2C2
100
AcDbEntity
  8
7_ALL_FEATURES
100
AcDbLine
 62
9
  6
CONTINUOUS
 10
72.5393923916
 20
217.7851280938
 11
69.8231817737
 21
215.0689941953
  0
LINE
  5
2C3
100
AcDbEntity
  8
7_ALL_FEATURES
100
AcDbLine
 62
9
  6
CONTINUOUS
 10
68.8008250754
 20
215.538910245
 11
68.8182806446
 21
215.5563595946
  0
LINE
  5
2C4
100
AcDbEntity
  8
7_ALL_FEATURES
100
AcDbLine
 62
9
  6
CONTINUOUS
 10
72.5393193648
 20
177.7851797972
 11
95.7813059969
 21
177.784508133
  0
LINE
  5
2C5
100
AcDbEntity
  8
7_ALL_FEATURES
100
AcDbLine
 62
9
  6
CONTINUOUS
 10
112.5392676611
 20
177.7851067704
 11
135.7812542936
 21
177.7844351063
  0
LINE
  5
2C6
100
AcDbEntity
  8
7_ALL_FEATURES
100
AcDbLine
 62
9
  6
CONTINUOUS
 10
96.2737241031
 20
178.2768977795
 11
72.0469297183
 21
178.2775979033
  0
LINE
  5
2C7
100
AcDbEntity
  8
7_ALL_FEATURES
100
AcDbLine
 62
9
  6
CONTINUOUS
 10
136.2736723998
 20
178.2768247527
 11
135.7812685234
 21
178.2768368295
  0
LINE
  5
2C8
100
AcDbEntity
  8
7_ALL_FEATURES
100
AcDbLine
 62
9
  6
CONTINUOUS
 10
135.7812685234
 20
178.2768368295
 11
112.0468780147
 21
178.2775248765
  0
LINE
  5
2C9
100
AcDbEntity
  8
7_ALL_FEATURES
100
AcDbLine
 62
9
  6
CONTINUOUS
 10
68.8191168314
 20
204.2408774777
 11
68.80165706
 21
204.2583330472
  0
LINE
  5
2CA
100
AcDbEntity
  8
7_ALL_FEATURES
100
AcDbLine
 62
9
  6
CONTINUOUS
 10
98.4974398954
 20
175.0682975152
 11
95.7813059969
 21
177.784508133
  0
LINE
  5
2CB
100
AcDbEntity
  8
7_ALL_FEATURES
100
AcDbLine
 62
9
  6
CONTINUOUS
 10
72.0476013824
 20
201.5195845358
 11
69.3316280212
 21
204.2357951489
  0
LINE
  5
2CC
100
AcDbEntity
  8
7_ALL_FEATURES
100
AcDbLine
 62
9
  6
CONTINUOUS
 10
69.8240461274
 20
204.7281847954
 11
72.5400194886
 21
202.0119741822
  0
LINE
  5
2CD
100
AcDbEntity
  8
7_ALL_FEATURES
100
AcDbLine
 62
9
  6
CONTINUOUS
 10
96.2737241031
 20
178.2768977795
 11
98.9898580016
 21
175.5606871617
  0
LINE
  5
2CE
100
AcDbEntity
  8
7_ALL_FEATURES
100
AcDbLine
 62
9
  6
CONTINUOUS
 10
98.5199419519
 20
174.5383304633
 11
98.5024926023
 21
174.5557860325
  0
LINE
  5
2CF
100
AcDbEntity
  8
7_ALL_FEATURES
100
AcDbLine
 62
9
  6
CONTINUOUS
 10
99.5206464597
 20
244.2573185478
 11
99.5031908902
 21
244.2398587764
  0
LINE
  5
2D0
100
AcDbEntity
  8
7_ALL_FEATURES
100
AcDbLine
 62
9
  6
CONTINUOUS
 10
69.818099445
 20
214.5564830055
 11
69.8006438758
 21
214.5390336559
  0
LINE
  5
2D1
100
AcDbEntity
  8
7_ALL_FEATURES
100
AcDbLine
 62
9
  6
CONTINUOUS
 10
69.8015336491
 20
205.2581518476
 11
69.8189934205
 21
205.2406962781
  0
LINE
  5
2D2
100
AcDbEntity
  8
7_ALL_FEATURES
100
AcDbLine
 62
9
  6
CONTINUOUS
 10
99.5023691914
 20
175.5556048329
 11
99.519818541
 21
175.5381492637
  0
LINE
  5
2D3
100
AcDbEntity
  8
7_ALL_FEATURES
100
AcDbLine
 62
9
  6
CONTINUOUS
 10
95.7820791478
 20
242.0112508145
 11
95.781379024
 21
217.7844564297
  0
LINE
  5
2D4
100
AcDbEntity
  8
7_ALL_FEATURES
100
AcDbLine
 62
9
  6
CONTINUOUS
 10
95.7813180738
 20
178.2769120094
 11
95.7813059969
 21
177.784508133
  0
LINE
  5
2D5
100
AcDbEntity
  8
7_ALL_FEATURES
100
AcDbLine
 62
9
  6
CONTINUOUS
 10
95.7820061208
 20
202.0113025181
 11
95.7813180738
 21
178.2769120094
  0
LINE
  5
2D6
100
AcDbEntity
  8
7_ALL_FEATURES
100
AcDbLine
 62
9
  6
CONTINUOUS
 10
96.2737971302
 20
218.2768460761
 11
96.2744687943
 21
241.5188327083
  0
LINE
  5
2D7
100
AcDbEntity
  8
7_ALL_FEATURES
100
AcDbLine
 62
9
  6
CONTINUOUS
 10
96.2737241031
 20
178.2768977795
 11
96.2743957672
 21
201.518884412
  0
LINE
  5
2D8
100
AcDbEntity
  8
7_ALL_FEATURES
100
AcDbLine
 62
7
  6
CONTINUOUS
 10
98.9906794074
 20
244.2348060695
 11
98.9898507577
 21
215.5605551921
  0
LINE
  5
2D9
100
AcDbEntity
  8
7_ALL_FEATURES
100
AcDbLine
 62
7
  6
CONTINUOUS
 10
98.9906866513
 20
204.2349380395
 11
98.9898580016
 21
175.5606871617
  0
LINE
  5
2DA
100
AcDbEntity
  8
7_ALL_FEATURES
100
AcDbLine
 62
7
  6
CONTINUOUS
 10
99.5031908902
 20
244.2398587764
 11
99.5023619476
 21
215.5554728633
  0
LINE
  5
2DB
100
AcDbEntity
  8
7_ALL_FEATURES
100
AcDbLine
 62
7
  6
CONTINUOUS
 10
99.5023691919
 20
175.5556213471
 11
99.5031981339
 21
204.2399874186
  0
LINE
  5
2DC
100
AcDbEntity
  8
7_ALL_FEATURES
100
AcDbLine
 62
7
  6
CONTINUOUS
 10
99.5206464597
 20
244.2573185478
 11
99.5198165083
 21
215.5380225048
  0
LINE
  5
2DD
100
AcDbEntity
  8
7_ALL_FEATURES
100
AcDbLine
 62
7
  6
CONTINUOUS
 10
99.519818541
 20
175.5381492637
 11
99.5206484924
 21
204.2574453071
  0
LINE
  5
2DE
100
AcDbEntity
  8
7_ALL_FEATURES
100
AcDbLine
 62
3
  6
CONTINUOUS
 10
99.7606734045
 20
244.2981787924
 11
99.7606734045
 21
215.4981787924
  0
LINE
  5
2DF
100
AcDbEntity
  8
7_ALL_FEATURES
100
AcDbLine
 62
3
  6
CONTINUOUS
 10
99.7606734045
 20
204.2981787924
 11
99.7606734045
 21
175.4981787924
  0
LINE
  5
2E0
100
AcDbEntity
  8
7_ALL_FEATURES
100
AcDbLine
 62
9
  6
CONTINUOUS
 10
72.0476013824
 20
201.5195845358
 11
96.2743957672
 21
201.518884412
  0
LINE
  5
2E1
100
AcDbEntity
  8
7_ALL_FEATURES
100
AcDbLine
 62
9
  6
CONTINUOUS
 10
135.7819401875
 20
201.5188234617
 11
136.2743440639
 21
201.5188113849
  0
LINE
  5
2E2
100
AcDbEntity
  8
7_ALL_FEATURES
100
AcDbLine
 62
9
  6
CONTINUOUS
 10
112.0475496788
 20
201.5195115087
 11
135.7819401875
 21
201.5188234617
  0
LINE
  5
2E3
100
AcDbEntity
  8
7_ALL_FEATURES
100
AcDbLine
 62
9
  6
CONTINUOUS
 10
95.7820061208
 20
202.0113025181
 11
72.5400194886
 21
202.0119741822
  0
LINE
  5
2E4
100
AcDbEntity
  8
7_ALL_FEATURES
100
AcDbLine
 62
9
  6
CONTINUOUS
 10
135.7819544174
 20
202.011229491
 11
112.5399677849
 21
202.0119011551
  0
LINE
  5
2E5
100
AcDbEntity
  8
7_ALL_FEATURES
100
AcDbLine
 62
7
  6
CONTINUOUS
 10
69.8240461274
 20
204.7281847954
 11
98.4982970048
 21
204.7273561457
  0
LINE
  5
2E6
100
AcDbEntity
  8
7_ALL_FEATURES
100
AcDbLine
 62
7
  6
CONTINUOUS
 10
109.8239141574
 20
204.7281920392
 11
138.4981650352
 21
204.7273633895
  0
LINE
  5
2E7
100
AcDbEntity
  8
7_ALL_FEATURES
100
AcDbLine
 62
7
  6
CONTINUOUS
 10
69.8189934205
 20
205.2406962781
 11
98.5033793336
 21
205.2398673355
  0
LINE
  5
2E8
100
AcDbEntity
  8
7_ALL_FEATURES
100
AcDbLine
 62
7
  6
CONTINUOUS
 10
138.5032308498
 20
205.2398745798
 11
109.8188647783
 21
205.2407035218
  0
LINE
  5
2E9
100
AcDbEntity
  8
7_ALL_FEATURES
100
AcDbLine
 62
7
  6
CONTINUOUS
 10
69.801533649
 20
205.2581518477
 11
98.5208296921
 21
205.2573218962
  0
LINE
  5
2EA
100
AcDbEntity
  8
7_ALL_FEATURES
100
AcDbLine
 62
7
  6
CONTINUOUS
 10
138.5207029332
 20
205.2573239289
 11
109.8014068898
 21
205.2581538804
  0
LINE
  5
2EB
100
AcDbEntity
  8
7_ALL_FEATURES
100
AcDbLine
 62
3
  6
CONTINUOUS
 10
69.7606734045
 20
205.4981787924
 11
98.5606734045
 21
205.4981787924
  0
LINE
  5
2EC
100
AcDbEntity
  8
7_ALL_FEATURES
100
AcDbLine
 62
3
  6
CONTINUOUS
 10
109.7606734045
 20
205.4981787924
 11
138.5606734045
 21
205.4981787924
  0
LINE
  5
2ED
100
AcDbEntity
  8
7_ALL_FEATURES
100
AcDbLine
 62
9
  6
CONTINUOUS
 10
98.5033793336
 20
205.2398673355
 11
98.520829692
 21
205.2573218961
  0
LINE
  5
2EE
100
AcDbEntity
  8
7_ALL_FEATURES
100
AcDbLine
 62
9
  6
CONTINUOUS
 10
108.8006983165
 20
215.5389122778
 11
108.818148675
 21
215.5563668384
  0
LINE
  5
2EF
100
AcDbEntity
  8
7_ALL_FEATURES
100
AcDbLine
 62
9
  6
CONTINUOUS
 10
109.3306601577
 20
215.5614195453
 11
112.0469510418
 21
218.2774731729
  0
LINE
  5
2F0
100
AcDbEntity
  8
7_ALL_FEATURES
100
AcDbLine
 62
9
  6
CONTINUOUS
 10
135.7820274442
 20
242.0111777877
 11
138.498157791
 21
244.7272314199
  0
LINE
  5
2F1
100
AcDbEntity
  8
7_ALL_FEATURES
100
AcDbLine
 62
9
  6
CONTINUOUS
 10
69.3307993715
 20
175.5615442711
 11
72.0469297183
 21
178.2775979033
  0
LINE
  5
2F2
100
AcDbEntity
  8
7_ALL_FEATURES
100
AcDbLine
 62
9
  6
CONTINUOUS
 10
95.7820061208
 20
202.0113025181
 11
98.4982970048
 21
204.7273561457
  0
LINE
  5
2F3
100
AcDbEntity
  8
7_ALL_FEATURES
100
AcDbLine
 62
9
  6
CONTINUOUS
 10
112.5393406882
 20
217.7850550667
 11
109.8230498041
 21
215.0690014391
  0
LINE
  5
2F4
100
AcDbEntity
  8
7_ALL_FEATURES
100
AcDbLine
 62
9
  6
CONTINUOUS
 10
138.9905474374
 20
244.2348133137
 11
136.2744170906
 21
241.5187596815
  0
LINE
  5
2F5
100
AcDbEntity
  8
7_ALL_FEATURES
100
AcDbLine
 62
9
  6
CONTINUOUS
 10
72.5393193648
 20
177.7851797972
 11
69.823189018
 21
175.0691261649
  0
LINE
  5
2F6
100
AcDbEntity
  8
7_ALL_FEATURES
100
AcDbLine
 62
9
  6
CONTINUOUS
 10
98.9906866513
 20
204.2349380395
 11
96.2743957672
 21
201.518884412
  0
LINE
  5
2F7
100
AcDbEntity
  8
7_ALL_FEATURES
100
AcDbLine
 62
9
  6
CONTINUOUS
 10
138.5032401198
 20
245.2397426097
 11
138.5207009
 21
245.2571971701
  0
LINE
  5
2F8
100
AcDbEntity
  8
7_ALL_FEATURES
100
AcDbLine
 62
9
  6
CONTINUOUS
 10
68.8008271086
 20
175.5390370038
 11
68.8182878888
 21
175.5564915642
  0
LINE
  5
2F9
100
AcDbEntity
  8
7_ALL_FEATURES
100
AcDbLine
 62
9
  6
CONTINUOUS
 10
108.8189848614
 20
204.2408847215
 11
108.8015303007
 21
204.25833508
  0
LINE
  5
2FA
100
AcDbEntity
  8
7_ALL_FEATURES
100
AcDbLine
 62
9
  6
CONTINUOUS
 10
98.5199399191
 20
214.5382037045
 11
98.5024853585
 21
214.5556540629
  0
LINE
  5
2FB
100
AcDbEntity
  8
7_ALL_FEATURES
100
AcDbLine
 62
9
  6
CONTINUOUS
 10
98.4974326516
 20
215.0681655456
 11
95.781379024
 21
217.7844564297
  0
LINE
  5
2FC
100
AcDbEntity
  8
7_ALL_FEATURES
100
AcDbLine
 62
9
  6
CONTINUOUS
 10
72.0476744092
 20
241.5195328321
 11
69.331620777
 21
244.2356631789
  0
LINE
  5
2FD
100
AcDbEntity
  8
7_ALL_FEATURES
100
AcDbLine
 62
9
  6
CONTINUOUS
 10
138.4973079258
 20
175.0683047595
 11
135.7812542936
 21
177.7844351063
  0
LINE
  5
2FE
100
AcDbEntity
  8
7_ALL_FEATURES
100
AcDbLine
 62
9
  6
CONTINUOUS
 10
112.0475496788
 20
201.5195115087
 11
109.3314960512
 21
204.2358023928
  0
LINE
  5
2FF
100
AcDbEntity
  8
7_ALL_FEATURES
100
AcDbLine
 62
9
  6
CONTINUOUS
 10
96.2737971302
 20
218.2768460761
 11
98.9898507577
 21
215.5605551921
  0
LINE
  5
300
100
AcDbEntity
  8
7_ALL_FEATURES
100
AcDbLine
 62
9
  6
CONTINUOUS
 10
69.8240388832
 20
244.7280528254
 11
72.5400925154
 21
242.0119224786
  0
LINE
  5
301
100
AcDbEntity
  8
7_ALL_FEATURES
100
AcDbLine
 62
9
  6
CONTINUOUS
 10
136.2736723997
 20
178.2768247527
 11
138.989726032
 21
175.5606944059
  0
LINE
  5
302
100
AcDbEntity
  8
7_ALL_FEATURES
100
AcDbLine
 62
9
  6
CONTINUOUS
 10
109.8239141574
 20
204.7281920392
 11
112.5399677849
 21
202.0119011551
  0
LINE
  5
303
100
AcDbEntity
  8
7_ALL_FEATURES
100
AcDbLine
 62
9
  6
CONTINUOUS
 10
68.8191095872
 20
244.2407455077
 11
68.8016550268
 21
244.258206288
  0
LINE
  5
304
100
AcDbEntity
  8
7_ALL_FEATURES
100
AcDbLine
 62
9
  6
CONTINUOUS
 10
138.519815193
 20
174.5383324965
 11
138.5023606327
 21
174.5557932768
  0
LINE
  5
305
100
AcDbEntity
  8
7_ALL_FEATURES
100
AcDbLine
 62
3
  6
CONTINUOUS
 10
108.5606734045
 20
175.4981787924
 11
108.5606734045
 21
204.2981787924
  0
LINE
  5
306
100
AcDbEntity
  8
7_ALL_FEATURES
100
AcDbLine
 62
3
  6
CONTINUOUS
 10
108.5606734045
 20
215.4981787924
 11
108.5606734045
 21
244.2981787924
  0
LINE
  5
307
100
AcDbEntity
  8
7_ALL_FEATURES
100
AcDbLine
 62
7
  6
CONTINUOUS
 10
108.801528268
 20
244.2582083211
 11
108.8006983165
 21
215.5389122778
  0
LINE
  5
308
100
AcDbEntity
  8
7_ALL_FEATURES
100
AcDbLine
 62
7
  6
CONTINUOUS
 10
108.8007003492
 20
175.539039037
 11
108.8015303007
 21
204.25833508
  0
LINE
  5
309
100
AcDbEntity
  8
7_ALL_FEATURES
100
AcDbLine
 62
7
  6
CONTINUOUS
 10
108.8189776171
 20
244.2407362377
 11
108.8181486751
 21
215.5563701662
  0
LINE
  5
30A
100
AcDbEntity
  8
7_ALL_FEATURES
100
AcDbLine
 62
7
  6
CONTINUOUS
 10
108.8181559188
 20
175.5564988084
 11
108.8189848614
 21
204.2408847215
  0
LINE
  5
30B
100
AcDbEntity
  8
7_ALL_FEATURES
100
AcDbLine
 62
7
  6
CONTINUOUS
 10
109.3306601577
 20
215.5614195453
 11
109.3314888074
 21
244.2356704231
  0
LINE
  5
30C
100
AcDbEntity
  8
7_ALL_FEATURES
100
AcDbLine
 62
7
  6
CONTINUOUS
 10
109.3306674015
 20
175.5615515153
 11
109.3314960512
 21
204.2358023928
  0
LINE
  5
30D
100
AcDbEntity
  8
7_ALL_FEATURES
100
AcDbLine
 62
9
  6
CONTINUOUS
 10
99.5206484924
 20
204.2574453071
 11
99.503198134
 21
204.2399907464
  0
LINE
  5
30E
100
AcDbEntity
  8
7_ALL_FEATURES
100
AcDbLine
 62
9
  6
CONTINUOUS
 10
109.8179674754
 20
214.5564902493
 11
109.8005171169
 21
214.5390356887
  0
LINE
  5
30F
100
AcDbEntity
  8
7_ALL_FEATURES
100
AcDbLine
 62
9
  6
CONTINUOUS
 10
139.5205197004
 20
244.257320581
 11
139.5030589201
 21
244.2398660206
  0
LINE
  5
310
100
AcDbEntity
  8
7_ALL_FEATURES
100
AcDbLine
 62
9
  6
CONTINUOUS
 10
69.8181066892
 20
174.5566149751
 11
69.8006459089
 21
174.5391604148
  0
LINE
  5
311
100
AcDbEntity
  8
7_ALL_FEATURES
100
AcDbLine
 62
3
  6
CONTINUOUS
 10
138.5606734045
 20
214.2981787924
 11
109.7606734045
 21
214.2981787924
  0
LINE
  5
312
100
AcDbEntity
  8
7_ALL_FEATURES
100
AcDbLine
 62
3
  6
CONTINUOUS
 10
98.5606734045
 20
214.2981787924
 11
69.7606734045
 21
214.2981787924
  0
LINE
  5
313
100
AcDbEntity
  8
7_ALL_FEATURES
100
AcDbLine
 62
7
  6
CONTINUOUS
 10
69.8006438758
 20
214.5390336559
 11
98.5199399191
 21
214.5382037045
  0
LINE
  5
314
100
AcDbEntity
  8
7_ALL_FEATURES
100
AcDbLine
 62
7
  6
CONTINUOUS
 10
138.5198131599
 20
214.5382057372
 11
109.8005171169
 21
214.5390356886
  0
LINE
  5
315
100
AcDbEntity
  8
7_ALL_FEATURES
100
AcDbLine
 62
7
  6
CONTINUOUS
 10
69.8181159592
 20
214.556483005
 11
98.5024820307
 21
214.555654063
  0
LINE
  5
316
100
AcDbEntity
  8
7_ALL_FEATURES
100
AcDbLine
 62
7
  6
CONTINUOUS
 10
138.5023533885
 20
214.5556613067
 11
109.8179674754
 21
214.5564902493
  0
LINE
  5
317
100
AcDbEntity
  8
7_ALL_FEATURES
100
AcDbLine
 62
7
  6
CONTINUOUS
 10
98.4974326516
 20
215.0681655456
 11
69.8231817738
 21
215.0689941953
  0
LINE
  5
318
100
AcDbEntity
  8
7_ALL_FEATURES
100
AcDbLine
 62
7
  6
CONTINUOUS
 10
138.4973006816
 20
215.0681727895
 11
109.8230498041
 21
215.0690014392
  0
LINE
  5
319
100
AcDbEntity
  8
7_ALL_FEATURES
100
AcDbLine
 62
9
  6
CONTINUOUS
 10
109.8014068898
 20
205.2581538804
 11
109.8188614505
 21
205.2407035219
  0
LINE
  5
31A
100
AcDbEntity
  8
7_ALL_FEATURES
100
AcDbLine
 62
9
  6
CONTINUOUS
 10
99.5023619476
 20
215.5554728633
 11
99.5198165082
 21
215.5380225049
  0
LINE
  5
31B
100
AcDbEntity
  8
7_ALL_FEATURES
100
AcDbLine
 62
9
  6
CONTINUOUS
 10
69.8015316159
 20
245.2580250883
 11
69.8189861763
 21
245.2405643081
  0
LINE
  5
31C
100
AcDbEntity
  8
7_ALL_FEATURES
100
AcDbLine
 62
9
  6
CONTINUOUS
 10
139.5022372218
 20
175.5556120771
 11
139.5196917821
 21
175.5381512968
  0
LINE
  5
31D
100
AcDbEntity
  8
7_ALL_FEATURES
100
AcDbLine
 62
9
  6
CONTINUOUS
 10
112.0476227059
 20
241.5194598053
 11
112.0469510418
 21
218.2774731729
  0
LINE
  5
31E
100
AcDbEntity
  8
7_ALL_FEATURES
100
AcDbLine
 62
9
  6
CONTINUOUS
 10
112.0475496788
 20
201.5195115087
 11
112.0468780147
 21
178.2775248765
  0
LINE
  5
31F
100
AcDbEntity
  8
7_ALL_FEATURES
100
AcDbLine
 62
9
  6
CONTINUOUS
 10
112.5393406882
 20
217.7850550667
 11
112.5400287352
 21
241.5194455754
  0
LINE
  5
320
100
AcDbEntity
  8
7_ALL_FEATURES
100
AcDbLine
 62
9
  6
CONTINUOUS
 10
112.5400287352
 20
241.5194455754
 11
112.540040812
 21
242.0118494518
  0
LINE
  5
321
100
AcDbEntity
  8
7_ALL_FEATURES
100
AcDbLine
 62
9
  6
CONTINUOUS
 10
112.5392676611
 20
177.7851067704
 11
112.5399677849
 21
202.0119011551
  0
LINE
  5
322
100
AcDbEntity
  8
7_ALL_FEATURES
100
AcDbLine
 62
9
  6
CONTINUOUS
 10
72.5393923916
 20
217.7851280938
 11
95.781379024
 21
217.7844564297
  0
LINE
  5
323
100
AcDbEntity
  8
7_ALL_FEATURES
100
AcDbLine
 62
9
  6
CONTINUOUS
 10
112.5393406882
 20
217.7850550667
 11
135.7813273204
 21
217.7843834026
  0
LINE
  5
324
100
AcDbEntity
  8
7_ALL_FEATURES
100
AcDbLine
 62
9
  6
CONTINUOUS
 10
96.2737971302
 20
218.2768460761
 11
72.5394066214
 21
218.2775341231
  0
LINE
  5
325
100
AcDbEntity
  8
7_ALL_FEATURES
100
AcDbLine
 62
9
  6
CONTINUOUS
 10
72.5394066214
 20
218.2775341231
 11
72.0470027451
 21
218.2775462
  0
LINE
  5
326
100
AcDbEntity
  8
7_ALL_FEATURES
100
AcDbLine
 62
9
  6
CONTINUOUS
 10
136.2737454265
 20
218.276773049
 11
112.0469510418
 21
218.2774731729
  0
LINE
  5
327
100
AcDbEntity
  8
7_ALL_FEATURES
100
AcDbLine
 62
9
  6
CONTINUOUS
 10
108.8007003493
 20
175.539039037
 11
108.8181559188
 21
175.5564988084
  0
LINE
  5
328
100
AcDbEntity
  8
7_ALL_FEATURES
100
AcDbLine
 62
9
  6
CONTINUOUS
 10
109.3306674015
 20
175.5615515153
 11
112.0468780147
 21
178.2775248765
  0
LINE
  5
329
100
AcDbEntity
  8
7_ALL_FEATURES
100
AcDbLine
 62
9
  6
CONTINUOUS
 10
135.7819544174
 20
202.011229491
 11
138.4981650352
 21
204.7273633895
  0
LINE
  5
32A
100
AcDbEntity
  8
7_ALL_FEATURES
100
AcDbLine
 62
9
  6
CONTINUOUS
 10
138.9905546817
 20
204.2349452834
 11
136.2743440638
 21
201.5188113848
  0
LINE
  5
32B
100
AcDbEntity
  8
7_ALL_FEATURES
100
AcDbLine
 62
9
  6
CONTINUOUS
 10
112.5392676611
 20
177.7851067704
 11
109.823057048
 21
175.0691334092
  0
LINE
  5
32C
100
AcDbEntity
  8
7_ALL_FEATURES
100
AcDbLine
 62
9
  6
CONTINUOUS
 10
138.503247364
 20
205.2398745793
 11
138.5207029332
 21
205.2573239289
  0
LINE
  5
32D
100
AcDbEntity
  8
7_ALL_FEATURES
100
AcDbLine
 62
9
  6
CONTINUOUS
 10
138.5198131599
 20
214.5382057372
 11
138.5023533885
 21
214.5556613067
  0
LINE
  5
32E
100
AcDbEntity
  8
7_ALL_FEATURES
100
AcDbLine
 62
9
  6
CONTINUOUS
 10
138.4973006816
 20
215.0681727894
 11
135.7813273204
 21
217.7843834026
  0
LINE
  5
32F
100
AcDbEntity
  8
7_ALL_FEATURES
100
AcDbLine
 62
9
  6
CONTINUOUS
 10
112.0476227059
 20
241.5194598053
 11
109.3314888074
 21
244.2356704231
  0
LINE
  5
330
100
AcDbEntity
  8
7_ALL_FEATURES
100
AcDbLine
 62
9
  6
CONTINUOUS
 10
109.8239069135
 20
244.7280600696
 11
112.540040812
 21
242.0118494518
  0
LINE
  5
331
100
AcDbEntity
  8
7_ALL_FEATURES
100
AcDbLine
 62
9
  6
CONTINUOUS
 10
136.2737454265
 20
218.2767730491
 11
138.9897187877
 21
215.5605624359
  0
LINE
  5
332
100
AcDbEntity
  8
7_ALL_FEATURES
100
AcDbLine
 62
9
  6
CONTINUOUS
 10
108.8189776176
 20
244.2407527519
 11
108.801528268
 21
244.2582083211
  0
LINE
  5
333
100
AcDbEntity
  8
7_ALL_FEATURES
100
AcDbLine
 62
9
  6
CONTINUOUS
 10
135.7820153674
 20
241.5187739113
 11
135.7813273204
 21
217.7843834026
  0
LINE
  5
334
100
AcDbEntity
  8
7_ALL_FEATURES
100
AcDbLine
 62
9
  6
CONTINUOUS
 10
135.7820274442
 20
242.0111777877
 11
135.7820153674
 21
241.5187739113
  0
LINE
  5
335
100
AcDbEntity
  8
7_ALL_FEATURES
100
AcDbLine
 62
9
  6
CONTINUOUS
 10
135.7819544174
 20
202.011229491
 11
135.7812542936
 21
177.7844351062
  0
LINE
  5
336
100
AcDbEntity
  8
7_ALL_FEATURES
100
AcDbLine
 62
9
  6
CONTINUOUS
 10
136.2737454265
 20
218.2767730491
 11
136.2744170906
 21
241.5187596815
  0
LINE
  5
337
100
AcDbEntity
  8
7_ALL_FEATURES
100
AcDbLine
 62
9
  6
CONTINUOUS
 10
136.2736723997
 20
178.2768247527
 11
136.2743440638
 21
201.5188113848
  0
LINE
  5
338
100
AcDbEntity
  8
7_ALL_FEATURES
100
AcDbLine
 62
9
  6
CONTINUOUS
 10
109.8179747192
 20
174.5566222193
 11
109.8005191497
 21
174.5391624479
  0
LINE
  5
339
100
AcDbEntity
  8
7_ALL_FEATURES
100
AcDbLine
 62
9
  6
CONTINUOUS
 10
139.5205217336
 20
204.2574473398
 11
139.5030661644
 21
204.2399979903
  0
LINE
  5
33A
100
AcDbEntity
  8
7_ALL_FEATURES
100
AcDbLine
 62
9
  6
CONTINUOUS
 10
72.5400782856
 20
241.5195207553
 11
96.2744687943
 21
241.5188327083
  0
LINE
  5
33B
100
AcDbEntity
  8
7_ALL_FEATURES
100
AcDbLine
 62
9
  6
CONTINUOUS
 10
72.0476744092
 20
241.5195328321
 11
72.5400782856
 21
241.5195207553
  0
LINE
  5
33C
100
AcDbEntity
  8
7_ALL_FEATURES
100
AcDbLine
 62
9
  6
CONTINUOUS
 10
112.0476227059
 20
241.5194598054
 11
136.2744170906
 21
241.5187596815
  0
LINE
  5
33D
100
AcDbEntity
  8
7_ALL_FEATURES
100
AcDbLine
 62
9
  6
CONTINUOUS
 10
95.7820791478
 20
242.0112508144
 11
72.5400925154
 21
242.0119224786
  0
LINE
  5
33E
100
AcDbEntity
  8
7_ALL_FEATURES
100
AcDbLine
 62
9
  6
CONTINUOUS
 10
135.7820274442
 20
242.0111777877
 11
112.540040812
 21
242.0118494518
  0
LINE
  5
33F
100
AcDbEntity
  8
7_ALL_FEATURES
100
AcDbLine
 62
9
  6
CONTINUOUS
 10
139.5022299775
 20
215.5554801071
 11
139.5196897489
 21
215.5380245376
  0
LINE
  5
340
100
AcDbEntity
  8
7_ALL_FEATURES
100
AcDbLine
 62
9
  6
CONTINUOUS
 10
109.8014048571
 20
245.2580271215
 11
109.8188542066
 21
245.2405715523
  0
LINE
  5
341
100
AcDbEntity
  8
7_ALL_FEATURES
100
AcDbLine
 62
7
  6
CONTINUOUS
 10
138.9897187877
 20
215.5605624359
 11
138.9905474374
 21
244.2348133137
  0
LINE
  5
342
100
AcDbEntity
  8
7_ALL_FEATURES
100
AcDbLine
 62
7
  6
CONTINUOUS
 10
138.989726032
 20
175.5606944059
 11
138.9905546817
 21
204.2349452834
  0
LINE
  5
343
100
AcDbEntity
  8
7_ALL_FEATURES
100
AcDbLine
 62
7
  6
CONTINUOUS
 10
139.502229978
 20
215.5554964319
 11
139.5030589197
 21
244.2398497379
  0
LINE
  5
344
100
AcDbEntity
  8
7_ALL_FEATURES
100
AcDbLine
 62
7
  6
CONTINUOUS
 10
139.5022372219
 20
175.5556153962
 11
139.5030661643
 21
204.2399948952
  0
LINE
  5
345
100
AcDbEntity
  8
7_ALL_FEATURES
100
AcDbLine
 62
7
  6
CONTINUOUS
 10
139.5196897489
 20
215.5380245376
 11
139.5205197004
 21
244.257320581
  0
LINE
  5
346
100
AcDbEntity
  8
7_ALL_FEATURES
100
AcDbLine
 62
7
  6
CONTINUOUS
 10
139.5196917821
 20
175.5381512968
 11
139.5205217336
 21
204.2574473398
  0
LINE
  5
347
100
AcDbEntity
  8
7_ALL_FEATURES
100
AcDbLine
 62
3
  6
CONTINUOUS
 10
139.7606734045
 20
244.2981787924
 11
139.7606734045
 21
215.4981787924
  0
LINE
  5
348
100
AcDbEntity
  8
7_ALL_FEATURES
100
AcDbLine
 62
3
  6
CONTINUOUS
 10
139.7606734045
 20
204.2981787924
 11
139.7606734045
 21
175.4981787924
  0
LINE
  5
349
100
AcDbEntity
  8
7_ALL_FEATURES
100
AcDbLine
 62
7
  6
CONTINUOUS
 10
98.498289761
 20
244.7272241757
 11
69.8240388832
 21
244.7280528254
  0
LINE
  5
34A
100
AcDbEntity
  8
7_ALL_FEATURES
100
AcDbLine
 62
7
  6
CONTINUOUS
 10
138.498157791
 20
244.7272314199
 11
109.8239069135
 21
244.7280600696
  0
LINE
  5
34B
100
AcDbEntity
  8
7_ALL_FEATURES
100
AcDbLine
 62
7
  6
CONTINUOUS
 10
98.503355765
 20
245.2397353659
 11
69.819002459
 21
245.2405643076
  0
LINE
  5
34C
100
AcDbEntity
  8
7_ALL_FEATURES
100
AcDbLine
 62
7
  6
CONTINUOUS
 10
138.5032368007
 20
245.2397426098
 11
109.8188573017
 21
245.2405715522
  0
LINE
  5
34D
100
AcDbEntity
  8
7_ALL_FEATURES
100
AcDbLine
 62
7
  6
CONTINUOUS
 10
98.5208276593
 20
245.2571951369
 11
69.8015316159
 21
245.2580250883
  0
LINE
  5
34E
100
AcDbEntity
  8
7_ALL_FEATURES
100
AcDbLine
 62
7
  6
CONTINUOUS
 10
138.5207009
 20
245.2571971701
 11
109.8014048571
 21
245.2580271215
  0
LINE
  5
34F
100
AcDbEntity
  8
7_ALL_FEATURES
100
AcDbLine
 62
3
  6
CONTINUOUS
 10
69.7606734045
 20
245.4981787924
 11
98.5606734045
 21
245.4981787924
  0
LINE
  5
350
100
AcDbEntity
  8
7_ALL_FEATURES
100
AcDbLine
 62
3
  6
CONTINUOUS
 10
109.7606734045
 20
245.4981787924
 11
138.5606734045
 21
245.4981787924
  0
LINE
  5
351
100
AcDbEntity
  8
7_ALL_FEATURES
100
AcDbLine
 62
3
  6
CONTINUOUS
 10
151.7606734045
 20
162.7981787924
 11
151.7606734045
 21
256.9981787924
  0
LINE
  5
352
100
AcDbEntity
  8
7_ALL_FEATURES
100
AcDbLine
 62
3
  6
CONTINUOUS
 10
151.9106734045
 20
162.6481787924
 11
151.9106734045
 21
257.1481787924
  0
LINE
  5
353
100
AcDbEntity
  8
7_ALL_FEATURES
100
AcDbLine
 62
3
  6
CONTINUOUS
 10
151.2606734045
 20
257.4981787924
 11
57.0606734045
 21
257.4981787924
  0
LINE
  5
354
100
AcDbEntity
  8
7_ALL_FEATURES
100
AcDbLine
 62
3
  6
CONTINUOUS
 10
151.4106734045
 20
257.6481787924
 11
56.9106734045
 21
257.6481787924
  0
LINE
  5
355
100
AcDbEntity
  8
7_ALL_FEATURES
100
AcDbLine
 62
7
  6
CONTINUOUS
 10
152.1606734045
 20
257.8981787924
 11
152.1606734045
 21
161.8981787924
  0
LINE
  5
356
100
AcDbEntity
  8
7_ALL_FEATURES
100
AcDbLine
 62
7
  6
CONTINUOUS
 10
154.1606734045
 20
159.8981787924
 11
154.1606734045
 21
259.8981787924
  0
LINE
  5
357
100
AcDbEntity
  8
7_ALL_FEATURES
100
AcDbLine
 62
7
  6
CONTINUOUS
 10
56.1606734045
 20
257.8981787924
 11
152.1606734045
 21
257.8981787924
  0
LINE
  5
358
100
AcDbEntity
  8
7_ALL_FEATURES
100
AcDbLine
 62
7
  6
CONTINUOUS
 10
154.1606734045
 20
259.8981787924
 11
54.1606734045
 21
259.8981787924
  0
LINE
  5
359
100
AcDbEntity
  8
7_ALL_FEATURES
100
AcDbLine
 62
7
  6
CONTINUOUS
 10
54.1606734045
 20
126.9389558439
 11
54.1606734045
 21
26.9389558439
  0
LINE
  5
35A
100
AcDbEntity
  8
7_ALL_FEATURES
100
AcDbLine
 62
7
  6
CONTINUOUS
 10
154.1606734045
 20
26.9389558439
 11
54.1606734045
 21
26.9389558439
  0
LINE
  5
35B
100
AcDbEntity
  8
7_ALL_FEATURES
100
AcDbLine
 62
7
  6
CONTINUOUS
 10
154.1606734045
 20
126.9389558439
 11
154.1606734045
 21
26.9389558439
  0
LINE
  5
35C
100
AcDbEntity
  8
7_ALL_FEATURES
100
AcDbLine
 62
7
  6
CONTINUOUS
 10
154.1606734045
 20
126.9389558439
 11
54.1606734045
 21
126.9389558439
  0
LINE
  5
35D
100
AcDbEntity
  8
7_ALL_FEATURES
100
AcDbLine
 62
7
  6
CONTINUOUS
 10
199.1224586074
 20
259.8981787924
 11
199.1224586074
 21
159.8981787924
  0
LINE
  5
35E
100
AcDbEntity
  8
7_ALL_FEATURES
100
AcDbLine
 62
7
  6
CONTINUOUS
 10
199.1224586074
 20
159.8981787924
 11
299.1224586074
 21
159.8981787924
  0
LINE
  5
35F
100
AcDbEntity
  8
7_ALL_FEATURES
100
AcDbLine
 62
7
  6
CONTINUOUS
 10
299.1224586074
 20
259.8981787924
 11
299.1224586074
 21
159.8981787924
  0
LINE
  5
360
100
AcDbEntity
  8
7_ALL_FEATURES
100
AcDbLine
 62
7
  6
CONTINUOUS
 10
199.1224586074
 20
259.8981787924
 11
299.1224586074
 21
259.8981787924
  0
CIRCLE
  5
361
100
AcDbEntity
  8
7_ALL_FEATURES
100
AcDbCircle
 62
7
  6
CONTINUOUS
 10
84.1606605897
 20
189.8982411577
 40
10.7
  0
ARC
  5
362
100
AcDbEntity
  8
7_ALL_FEATURES
100
AcDbCircle
 62
3
  6
CONTINUOUS
 10
98.5606734045
 20
175.4981787924
 40
1.2
100
AcDbArc
 50
270.0
 51
360.0
  0
ARC
  5
363
100
AcDbEntity
  8
7_ALL_FEATURES
100
AcDbCircle
 62
3
  6
CONTINUOUS
 10
98.5606734045
 20
204.2981787924
 40
1.2
100
AcDbArc
 50
0.0
 51
90.0
  0
ARC
  5
364
100
AcDbEntity
  8
7_ALL_FEATURES
100
AcDbCircle
 62
3
  6
CONTINUOUS
 10
69.7606734045
 20
175.4981787924
 40
1.2
100
AcDbArc
 50
180.0
 51
270.0
  0
ARC
  5
365
100
AcDbEntity
  8
7_ALL_FEATURES
100
AcDbCircle
 62
3
  6
CONTINUOUS
 10
69.7606734045
 20
204.2981787924
 40
1.2
100
AcDbArc
 50
90.0
 51
180.0
  0
ARC
  5
366
100
AcDbEntity
  8
7_ALL_FEATURES
100
AcDbCircle
 62
3
  6
CONTINUOUS
 10
56.9106734045
 20
162.6481787924
 40
0.5
100
AcDbArc
 50
180.0
 51
270.0
  0
ARC
  5
367
100
AcDbEntity
  8
7_ALL_FEATURES
100
AcDbCircle
 62
3
  6
CONTINUOUS
 10
57.0606734045
 20
162.7981787924
 40
0.5
100
AcDbArc
 50
180.0
 51
270.0
  0
CIRCLE
  5
368
100
AcDbEntity
  8
7_ALL_FEATURES
100
AcDbCircle
 62
7
  6
CONTINUOUS
 10
84.1607357698
 20
229.8981916072
 40
10.7
  0
ARC
  5
369
100
AcDbEntity
  8
7_ALL_FEATURES
100
AcDbCircle
 62
3
  6
CONTINUOUS
 10
98.5606734045
 20
215.4981787924
 40
1.2
100
AcDbArc
 50
270.0
 51
360.0
  0
ARC
  5
36A
100
AcDbEntity
  8
7_ALL_FEATURES
100
AcDbCircle
 62
3
  6
CONTINUOUS
 10
69.7606734045
 20
215.4981787924
 40
1.2
100
AcDbArc
 50
180.0
 51
270.0
  0
ARC
  5
36B
100
AcDbEntity
  8
7_ALL_FEATURES
100
AcDbCircle
 62
3
  6
CONTINUOUS
 10
69.7606734045
 20
244.2981787924
 40
1.2
100
AcDbArc
 50
90.0
 51
180.0
  0
ARC
  5
36C
100
AcDbEntity
  8
7_ALL_FEATURES
100
AcDbCircle
 62
3
  6
CONTINUOUS
 10
98.5606734045
 20
244.2981787924
 40
1.2
100
AcDbArc
 50
0.0
 51
90.0
  0
ARC
  5
36D
100
AcDbEntity
  8
7_ALL_FEATURES
100
AcDbCircle
 62
3
  6
CONTINUOUS
 10
56.9106734045
 20
257.1481787924
 40
0.5
100
AcDbArc
 50
90.0
 51
180.0
  0
ARC
  5
36E
100
AcDbEntity
  8
7_ALL_FEATURES
100
AcDbCircle
 62
3
  6
CONTINUOUS
 10
57.0606734045
 20
256.9981787924
 40
0.5
100
AcDbArc
 50
90.0
 51
180.0
  0
CIRCLE
  5
36F
100
AcDbEntity
  8
7_ALL_FEATURES
100
AcDbCircle
 62
7
  6
CONTINUOUS
 10
124.1606110392
 20
189.8981659777
 40
10.7
  0
ARC
  5
370
100
AcDbEntity
  8
7_ALL_FEATURES
100
AcDbCircle
 62
3
  6
CONTINUOUS
 10
138.5606734045
 20
175.4981787924
 40
1.2
100
AcDbArc
 50
270.0
 51
360.0
  0
ARC
  5
371
100
AcDbEntity
  8
7_ALL_FEATURES
100
AcDbCircle
 62
3
  6
CONTINUOUS
 10
138.5606734045
 20
204.2981787924
 40
1.2
100
AcDbArc
 50
0.0
 51
90.0
  0
ARC
  5
372
100
AcDbEntity
  8
7_ALL_FEATURES
100
AcDbCircle
 62
3
  6
CONTINUOUS
 10
109.7606734045
 20
204.2981787924
 40
1.2
100
AcDbArc
 50
90.0
 51
180.0
  0
ARC
  5
373
100
AcDbEntity
  8
7_ALL_FEATURES
100
AcDbCircle
 62
3
  6
CONTINUOUS
 10
109.7606734045
 20
175.4981787924
 40
1.2
100
AcDbArc
 50
180.0
 51
270.0
  0
ARC
  5
374
100
AcDbEntity
  8
7_ALL_FEATURES
100
AcDbCircle
 62
3
  6
CONTINUOUS
 10
151.4106734045
 20
162.6481787924
 40
0.5
100
AcDbArc
 50
270.0
 51
360.0
  0
ARC
  5
375
100
AcDbEntity
  8
7_ALL_FEATURES
100
AcDbCircle
 62
3
  6
CONTINUOUS
 10
151.2606734045
 20
162.7981787924
 40
0.5
100
AcDbArc
 50
270.0
 51
360.0
  0
CIRCLE
  5
376
100
AcDbEntity
  8
7_ALL_FEATURES
100
AcDbCircle
 62
7
  6
CONTINUOUS
 10
124.1606862192
 20
229.8981164271
 40
10.7
  0
ARC
  5
377
100
AcDbEntity
  8
7_ALL_FEATURES
100
AcDbCircle
 62
3
  6
CONTINUOUS
 10
138.5606734045
 20
215.4981787924
 40
1.2
100
AcDbArc
 50
270.0
 51
360.0
  0
ARC
  5
378
100
AcDbEntity
  8
7_ALL_FEATURES
100
AcDbCircle
 62
3
  6
CONTINUOUS
 10
109.7606734045
 20
215.4981787924
 40
1.2
100
AcDbArc
 50
180.0
 51
270.0
  0
ARC
  5
379
100
AcDbEntity
  8
7_ALL_FEATURES
100
AcDbCircle
 62
3
  6
CONTINUOUS
 10
109.7606734045
 20
244.2981787924
 40
1.2
100
AcDbArc
 50
90.0
 51
180.0
  0
ARC
  5
37A
100
AcDbEntity
  8
7_ALL_FEATURES
100
AcDbCircle
 62
3
  6
CONTINUOUS
 10
138.5606734045
 20
244.2981787924
 40
1.2
100
AcDbArc
 50
0.0
 51
90.0
  0
ARC
  5
37B
100
AcDbEntity
  8
7_ALL_FEATURES
100
AcDbCircle
 62
3
  6
CONTINUOUS
 10
151.4106734045
 20
257.1481787924
 40
0.5
100
AcDbArc
 50
0.0
 51
90.0
  0
ARC
  5
37C
100
AcDbEntity
  8
7_ALL_FEATURES
100
AcDbCircle
 62
3
  6
CONTINUOUS
 10
151.2606734045
 20
256.9981787924
 40
0.5
100
AcDbArc
 50
0.0
 51
90.0
  0
SPLINE
  5
37D
100
AcDbEntity
  8
7_ALL_FEATURES
100
AcDbSpline
 62
9
  6
CONTINUOUS
 70
0
 71
3
 72
9
 73
5
 74
0
 42
0.0000001
 43
0.0000001
 44
0.0000000001
 40
0.0
 40
0.0
 40
0.0
 40
0.0
 40
0.4980601804
 40
1.0
 40
1.0
 40
1.0
 40
1.0
 10
136.2744170906
 20
241.5187596815
 30
0.0
 10
136.2725130023
 20
241.5819682946
 30
0.0
 10
136.243825693
 20
241.7092420739
 30
0.0
 10
136.170134273
 20
241.8167473146
 30
0.0
 10
136.1250717502
 20
241.8618124419
 30
0.0
  0
SPLINE
  5
37E
100
AcDbEntity
  8
7_ALL_FEATURES
100
AcDbSpline
 62
9
  6
CONTINUOUS
 70
0
 71
3
 72
9
 73
5
 74
0
 42
0.0000001
 43
0.0000001
 44
0.0000000001
 40
0.0
 40
0.0
 40
0.0
 40
0.0
 40
0.5019396166
 40
1.0
 40
1.0
 40
1.0
 40
1.0
 10
136.1250717502
 20
241.8618124419
 30
0.0
 10
136.0800092194
 20
241.9068775773
 30
0.0
 10
135.9725081778
 20
241.9805752468
 30
0.0
 10
135.845236008
 20
242.0092699896
 30
0.0
 10
135.7820274442
 20
242.0111777876
 30
0.0
  0
SPLINE
  5
37F
100
AcDbEntity
  8
7_ALL_FEATURES
100
AcDbSpline
 62
9
  6
CONTINUOUS
 70
0
 71
3
 72
9
 73
5
 74
0
 42
0.0000001
 43
0.0000001
 44
0.0000000001
 40
0.0
 40
0.0
 40
0.0
 40
0.0
 40
0.4980664908
 40
1.0
 40
1.0
 40
1.0
 40
1.0
 10
135.7813273204
 20
217.7843834026
 30
0.0
 10
135.8445367617
 20
217.7862875705
 30
0.0
 10
135.9718105369
 20
217.8149755165
 30
0.0
 10
136.0793156773
 20
217.8886669441
 30
0.0
 10
136.1243802588
 20
217.933728921
 30
0.0
  0
SPLINE
  5
380
100
AcDbEntity
  8
7_ALL_FEATURES
100
AcDbSpline
 62
9
  6
CONTINUOUS
 70
0
 71
3
 72
9
 73
5
 74
0
 42
0.0000001
 43
0.0000001
 44
0.0000000001
 40
0.0
 40
0.0
 40
0.0
 40
0.0
 40
0.5019336328
 40
1.0
 40
1.0
 40
1.0
 40
1.0
 10
136.1243802588
 20
217.933728921
 30
0.0
 10
136.1694448251
 20
217.9787908828
 30
0.0
 10
136.2431424324
 20
218.0862917
 30
0.0
 10
136.2718376615
 20
218.2135637687
 30
0.0
 10
136.2737454265
 20
218.2767730491
 30
0.0
  0
SPLINE
  5
381
100
AcDbEntity
  8
7_ALL_FEATURES
100
AcDbSpline
 62
9
  6
CONTINUOUS
 70
0
 71
3
 72
9
 73
5
 74
0
 42
0.0000001
 43
0.0000001
 44
0.0000000001
 40
0.0
 40
0.0
 40
0.0
 40
0.0
 40
0.4980601886
 40
1.0
 40
1.0
 40
1.0
 40
1.0
 10
112.0469510418
 20
218.2774731729
 30
0.0
 10
112.0488552432
 20
218.2142645439
 30
0.0
 10
112.0775427374
 20
218.0869907862
 30
0.0
 10
112.1512342031
 20
217.9794855521
 30
0.0
 10
112.1962967381
 20
217.9344204124
 30
0.0
  0
SPLINE
  5
382
100
AcDbEntity
  8
7_ALL_FEATURES
100
AcDbSpline
 62
9
  6
CONTINUOUS
 70
0
 71
3
 72
9
 73
5
 74
0
 42
0.0000001
 43
0.0000001
 44
0.0000000001
 40
0.0
 40
0.0
 40
0.0
 40
0.0
 40
0.5019398557
 40
1.0
 40
1.0
 40
1.0
 40
1.0
 10
112.1962967381
 20
217.9344204124
 30
0.0
 10
112.241359251
 20
217.8893552951
 30
0.0
 10
112.3488601586
 20
217.8156576472
 30
0.0
 10
112.4761322101
 20
217.7869628656
 30
0.0
 10
112.5393406882
 20
217.7850550667
 30
0.0
  0
SPLINE
  5
383
100
AcDbEntity
  8
7_ALL_FEATURES
100
AcDbSpline
 62
9
  6
CONTINUOUS
 70
0
 71
3
 72
9
 73
5
 74
0
 42
0.0000001
 43
0.0000001
 44
0.0000000001
 40
0.0
 40
0.0
 40
0.0
 40
0.0
 40
0.4980600649
 40
1.0
 40
1.0
 40
1.0
 40
1.0
 10
112.5400408121
 20
242.0118494518
 30
0.0
 10
112.4768322339
 20
242.0099453065
 30
0.0
 10
112.3495585245
 20
241.9812578854
 30
0.0
 10
112.2420533541
 20
241.9075664533
 30
0.0
 10
112.1969882296
 20
241.8625039334
 30
0.0
  0
SPLINE
  5
384
100
AcDbEntity
  8
7_ALL_FEATURES
100
AcDbSpline
 62
9
  6
CONTINUOUS
 70
0
 71
3
 72
9
 73
5
 74
0
 42
0.0000001
 43
0.0000001
 44
0.0000000001
 40
0.0
 40
0.0
 40
0.0
 40
0.0
 40
0.501939732
 40
1.0
 40
1.0
 40
1.0
 40
1.0
 10
112.1969882296
 20
241.8625039334
 30
0.0
 10
112.1519230971
 20
241.8174414054
 30
0.0
 10
112.0782254156
 20
241.7099404341
 30
0.0
 10
112.0495305609
 20
241.5826683342
 30
0.0
 10
112.0476227059
 20
241.5194598053
 30
0.0
  0
SPLINE
  5
385
100
AcDbEntity
  8
7_ALL_FEATURES
100
AcDbSpline
 62
9
  6
CONTINUOUS
 70
0
 71
3
 72
9
 73
5
 74
0
 42
0.0000001
 43
0.0000001
 44
0.0000000001
 40
0.0
 40
0.0
 40
0.0
 40
0.0
 40
0.4980601804
 40
1.0
 40
1.0
 40
1.0
 40
1.0
 10
135.7812542936
 20
177.7844351063
 30
0.0
 10
135.8444629067
 20
177.7863391945
 30
0.0
 10
135.971736686
 20
177.8150265039
 30
0.0
 10
136.0792419266
 20
177.8887179239
 30
0.0
 10
136.124307054
 20
177.9337804467
 30
0.0
  0
SPLINE
  5
386
100
AcDbEntity
  8
7_ALL_FEATURES
100
AcDbSpline
 62
9
  6
CONTINUOUS
 70
0
 71
3
 72
9
 73
5
 74
0
 42
0.0000001
 43
0.0000001
 44
0.0000000001
 40
0.0
 40
0.0
 40
0.0
 40
0.0
 40
0.5019396166
 40
1.0
 40
1.0
 40
1.0
 40
1.0
 10
136.124307054
 20
177.9337804467
 30
0.0
 10
136.1693721894
 20
177.9788429775
 30
0.0
 10
136.2430698588
 20
178.0863440191
 30
0.0
 10
136.2717646017
 20
178.2136161888
 30
0.0
 10
136.2736723997
 20
178.2768247527
 30
0.0
  0
SPLINE
  5
387
100
AcDbEntity
  8
7_ALL_FEATURES
100
AcDbSpline
 62
9
  6
CONTINUOUS
 70
0
 71
3
 72
9
 73
5
 74
0
 42
0.0000001
 43
0.0000001
 44
0.0000000001
 40
0.0
 40
0.0
 40
0.0
 40
0.0
 40
0.4980664908
 40
1.0
 40
1.0
 40
1.0
 40
1.0
 10
112.0468780147
 20
178.2775248765
 30
0.0
 10
112.0487821825
 20
178.2143154352
 30
0.0
 10
112.0774701286
 20
178.08704166
 30
0.0
 10
112.1511615561
 20
177.9795365196
 30
0.0
 10
112.1962235331
 20
177.9344719381
 30
0.0
  0
SPLINE
  5
388
100
AcDbEntity
  8
7_ALL_FEATURES
100
AcDbSpline
 62
9
  6
CONTINUOUS
 70
0
 71
3
 72
9
 73
5
 74
0
 42
0.0000001
 43
0.0000001
 44
0.0000000001
 40
0.0
 40
0.0
 40
0.0
 40
0.0
 40
0.5019336328
 40
1.0
 40
1.0
 40
1.0
 40
1.0
 10
112.1962235331
 20
177.9344719381
 30
0.0
 10
112.2412854949
 20
177.8894073718
 30
0.0
 10
112.3487863121
 20
177.8157097645
 30
0.0
 10
112.4760583808
 20
177.7870145354
 30
0.0
 10
112.5392676611
 20
177.7851067704
 30
0.0
  0
SPLINE
  5
389
100
AcDbEntity
  8
7_ALL_FEATURES
100
AcDbSpline
 62
9
  6
CONTINUOUS
 70
0
 71
3
 72
9
 73
5
 74
0
 42
0.0000001
 43
0.0000001
 44
0.0000000001
 40
0.0
 40
0.0
 40
0.0
 40
0.0
 40
0.4980601886
 40
1.0
 40
1.0
 40
1.0
 40
1.0
 10
112.539967785
 20
202.0119011551
 30
0.0
 10
112.4767591559
 20
202.0099969537
 30
0.0
 10
112.3494853983
 20
201.9813094595
 30
0.0
 10
112.2419801642
 20
201.9076179938
 30
0.0
 10
112.1969150245
 20
201.8625554587
 30
0.0
  0
SPLINE
  5
38A
100
AcDbEntity
  8
7_ALL_FEATURES
100
AcDbSpline
 62
9
  6
CONTINUOUS
 70
0
 71
3
 72
9
 73
5
 74
0
 42
0.0000001
 43
0.0000001
 44
0.0000000001
 40
0.0
 40
0.0
 40
0.0
 40
0.0
 40
0.5019398557
 40
1.0
 40
1.0
 40
1.0
 40
1.0
 10
112.1969150245
 20
201.8625554587
 30
0.0
 10
112.1518499071
 20
201.8174929459
 30
0.0
 10
112.0781522592
 20
201.7099920383
 30
0.0
 10
112.0494574776
 20
201.5827199867
 30
0.0
 10
112.0475496788
 20
201.5195115087
 30
0.0
  0
SPLINE
  5
38B
100
AcDbEntity
  8
7_ALL_FEATURES
100
AcDbSpline
 62
9
  6
CONTINUOUS
 70
0
 71
3
 72
9
 73
5
 74
0
 42
0.0000001
 43
0.0000001
 44
0.0000000001
 40
0.0
 40
0.0
 40
0.0
 40
0.0
 40
0.4980600649
 40
1.0
 40
1.0
 40
1.0
 40
1.0
 10
136.2743440638
 20
201.5188113848
 30
0.0
 10
136.2724399186
 20
201.582019963
 30
0.0
 10
136.2437524975
 20
201.7092936724
 30
0.0
 10
136.1700610654
 20
201.8167988428
 30
0.0
 10
136.1249985455
 20
201.8618639673
 30
0.0
  0
SPLINE
  5
38C
100
AcDbEntity
  8
7_ALL_FEATURES
100
AcDbSpline
 62
9
  6
CONTINUOUS
 70
0
 71
3
 72
9
 73
5
 74
0
 42
0.0000001
 43
0.0000001
 44
0.0000000001
 40
0.0
 40
0.0
 40
0.0
 40
0.0
 40
0.501939732
 40
1.0
 40
1.0
 40
1.0
 40
1.0
 10
136.1249985455
 20
201.8618639673
 30
0.0
 10
136.0799360175
 20
201.9069290998
 30
0.0
 10
135.9724350461
 20
201.9806267813
 30
0.0
 10
135.8451629463
 20
202.009321636
 30
0.0
 10
135.7819544174
 20
202.011229491
 30
0.0
  0
SPLINE
  5
38D
100
AcDbEntity
  8
7_ALL_FEATURES
100
AcDbSpline
 62
9
  6
CONTINUOUS
 70
0
 71
3
 72
9
 73
5
 74
0
 42
0.0000001
 43
0.0000001
 44
0.0000000001
 40
0.0
 40
0.0
 40
0.0
 40
0.0
 40
0.4980601804
 40
1.0
 40
1.0
 40
1.0
 40
1.0
 10
72.0469297183
 20
178.2775979033
 30
0.0
 10
72.0488338066
 20
178.2143892902
 30
0.0
 10
72.0775211159
 20
178.0871155109
 30
0.0
 10
72.1512125359
 20
177.9796102703
 30
0.0
 10
72.1962750587
 20
177.9345451429
 30
0.0
  0
SPLINE
  5
38E
100
AcDbEntity
  8
7_ALL_FEATURES
100
AcDbSpline
 62
9
  6
CONTINUOUS
 70
0
 71
3
 72
9
 73
5
 74
0
 42
0.0000001
 43
0.0000001
 44
0.0000000001
 40
0.0
 40
0.0
 40
0.0
 40
0.0
 40
0.5019396166
 40
1.0
 40
1.0
 40
1.0
 40
1.0
 10
72.1962750587
 20
177.9345451429
 30
0.0
 10
72.2413375895
 20
177.8894800075
 30
0.0
 10
72.3488386311
 20
177.8157823381
 30
0.0
 10
72.4761108009
 20
177.7870875952
 30
0.0
 10
72.5393193648
 20
177.7851797972
 30
0.0
  0
SPLINE
  5
38F
100
AcDbEntity
  8
7_ALL_FEATURES
100
AcDbSpline
 62
9
  6
CONTINUOUS
 70
0
 71
3
 72
9
 73
5
 74
0
 42
0.0000001
 43
0.0000001
 44
0.0000000001
 40
0.0
 40
0.0
 40
0.0
 40
0.0
 40
0.4980664908
 40
1.0
 40
1.0
 40
1.0
 40
1.0
 10
72.5400194886
 20
202.0119741822
 30
0.0
 10
72.4768100473
 20
202.0100700143
 30
0.0
 10
72.349536272
 20
201.9813820683
 30
0.0
 10
72.2420311317
 20
201.9076906408
 30
0.0
 10
72.1969665502
 20
201.8626286638
 30
0.0
  0
SPLINE
  5
390
100
AcDbEntity
  8
7_ALL_FEATURES
100
AcDbSpline
 62
9
  6
CONTINUOUS
 70
0
 71
3
 72
9
 73
5
 74
0
 42
0.0000001
 43
0.0000001
 44
0.0000000001
 40
0.0
 40
0.0
 40
0.0
 40
0.0
 40
0.5019336328
 40
1.0
 40
1.0
 40
1.0
 40
1.0
 10
72.1969665502
 20
201.8626286638
 30
0.0
 10
72.1519019838
 20
201.817566702
 30
0.0
 10
72.0782043765
 20
201.7100658848
 30
0.0
 10
72.0495091475
 20
201.5827938161
 30
0.0
 10
72.0476013825
 20
201.5195845357
 30
0.0
  0
SPLINE
  5
391
100
AcDbEntity
  8
7_ALL_FEATURES
100
AcDbSpline
 62
9
  6
CONTINUOUS
 70
0
 71
3
 72
9
 73
5
 74
0
 42
0.0000001
 43
0.0000001
 44
0.0000000001
 40
0.0
 40
0.0
 40
0.0
 40
0.0
 40
0.4980601886
 40
1.0
 40
1.0
 40
1.0
 40
1.0
 10
96.2743957672
 20
201.5188844119
 30
0.0
 10
96.2724915658
 20
201.5820930409
 30
0.0
 10
96.2438040716
 20
201.7093667986
 30
0.0
 10
96.1701126059
 20
201.8168720327
 30
0.0
 10
96.1250500708
 20
201.8619371724
 30
0.0
  0
SPLINE
  5
392
100
AcDbEntity
  8
7_ALL_FEATURES
100
AcDbSpline
 62
9
  6
CONTINUOUS
 70
0
 71
3
 72
9
 73
5
 74
0
 42
0.0000001
 43
0.0000001
 44
0.0000000001
 40
0.0
 40
0.0
 40
0.0
 40
0.0
 40
0.5019398557
 40
1.0
 40
1.0
 40
1.0
 40
1.0
 10
96.1250500708
 20
201.8619371724
 30
0.0
 10
96.079987558
 20
201.9070022898
 30
0.0
 10
95.9724866504
 20
201.9806999377
 30
0.0
 10
95.8452145988
 20
202.0093947192
 30
0.0
 10
95.7820061207
 20
202.0113025181
 30
0.0
  0
SPLINE
  5
393
100
AcDbEntity
  8
7_ALL_FEATURES
100
AcDbSpline
 62
9
  6
CONTINUOUS
 70
0
 71
3
 72
9
 73
5
 74
0
 42
0.0000001
 43
0.0000001
 44
0.0000000001
 40
0.0
 40
0.0
 40
0.0
 40
0.0
 40
0.4980600649
 40
1.0
 40
1.0
 40
1.0
 40
1.0
 10
95.7813059969
 20
177.7845081331
 30
0.0
 10
95.8445145751
 20
177.7864122783
 30
0.0
 10
95.9717882845
 20
177.8150996994
 30
0.0
 10
96.0792934548
 20
177.8887911315
 30
0.0
 10
96.1243585794
 20
177.9338536514
 30
0.0
  0
SPLINE
  5
394
100
AcDbEntity
  8
7_ALL_FEATURES
100
AcDbSpline
 62
9
  6
CONTINUOUS
 70
0
 71
3
 72
9
 73
5
 74
0
 42
0.0000001
 43
0.0000001
 44
0.0000000001
 40
0.0
 40
0.0
 40
0.0
 40
0.0
 40
0.501939732
 40
1.0
 40
1.0
 40
1.0
 40
1.0
 10
96.1243585794
 20
177.9338536514
 30
0.0
 10
96.1694237119
 20
177.9789161794
 30
0.0
 10
96.2431213934
 20
178.0864171507
 30
0.0
 10
96.271816248
 20
178.2136892506
 30
0.0
 10
96.273724103
 20
178.2768977795
 30
0.0
  0
SPLINE
  5
395
100
AcDbEntity
  8
7_ALL_FEATURES
100
AcDbSpline
 62
9
  6
CONTINUOUS
 70
0
 71
3
 72
9
 73
5
 74
0
 42
0.0000001
 43
0.0000001
 44
0.0000000001
 40
0.0
 40
0.0
 40
0.0
 40
0.0
 40
0.4980601804
 40
1.0
 40
1.0
 40
1.0
 40
1.0
 10
72.5400925154
 20
242.0119224785
 30
0.0
 10
72.4768839023
 20
242.0100183903
 30
0.0
 10
72.3496101229
 20
241.9813310809
 30
0.0
 10
72.2421048823
 20
241.9076396609
 30
0.0
 10
72.197039755
 20
241.8625771381
 30
0.0
  0
SPLINE
  5
396
100
AcDbEntity
  8
7_ALL_FEATURES
100
AcDbSpline
 62
9
  6
CONTINUOUS
 70
0
 71
3
 72
9
 73
5
 74
0
 42
0.0000001
 43
0.0000001
 44
0.0000000001
 40
0.0
 40
0.0
 40
0.0
 40
0.0
 40
0.5019396166
 40
1.0
 40
1.0
 40
1.0
 40
1.0
 10
72.197039755
 20
241.8625771381
 30
0.0
 10
72.1519746196
 20
241.8175146073
 30
0.0
 10
72.0782769501
 20
241.7100135657
 30
0.0
 10
72.0495822073
 20
241.582741396
 30
0.0
 10
72.0476744092
 20
241.5195328321
 30
0.0
  0
SPLINE
  5
397
100
AcDbEntity
  8
7_ALL_FEATURES
100
AcDbSpline
 62
9
  6
CONTINUOUS
 70
0
 71
3
 72
9
 73
5
 74
0
 42
0.0000001
 43
0.0000001
 44
0.0000000001
 40
0.0
 40
0.0
 40
0.0
 40
0.0
 40
0.4980664908
 40
1.0
 40
1.0
 40
1.0
 40
1.0
 10
96.2744687943
 20
241.5188327083
 30
0.0
 10
96.2725646264
 20
241.5820421496
 30
0.0
 10
96.2438766804
 20
241.7093159249
 30
0.0
 10
96.1701852528
 20
241.8168210652
 30
0.0
 10
96.1251232759
 20
241.8618856467
 30
0.0
  0
SPLINE
  5
398
100
AcDbEntity
  8
7_ALL_FEATURES
100
AcDbSpline
 62
9
  6
CONTINUOUS
 70
0
 71
3
 72
9
 73
5
 74
0
 42
0.0000001
 43
0.0000001
 44
0.0000000001
 40
0.0
 40
0.0
 40
0.0
 40
0.0
 40
0.5019336328
 40
1.0
 40
1.0
 40
1.0
 40
1.0
 10
96.1251232759
 20
241.8618856467
 30
0.0
 10
96.0800613141
 20
241.906950213
 30
0.0
 10
95.9725604968
 20
241.9806478203
 30
0.0
 10
95.8452884281
 20
242.0093430494
 30
0.0
 10
95.7820791478
 20
242.0112508144
 30
0.0
  0
SPLINE
  5
399
100
AcDbEntity
  8
7_ALL_FEATURES
100
AcDbSpline
 62
9
  6
CONTINUOUS
 70
0
 71
3
 72
9
 73
5
 74
0
 42
0.0000001
 43
0.0000001
 44
0.0000000001
 40
0.0
 40
0.0
 40
0.0
 40
0.0
 40
0.4980601886
 40
1.0
 40
1.0
 40
1.0
 40
1.0
 10
95.781379024
 20
217.7844564297
 30
0.0
 10
95.844587653
 20
217.7863606311
 30
0.0
 10
95.9718614107
 20
217.8150481253
 30
0.0
 10
96.0793666448
 20
217.888739591
 30
0.0
 10
96.1244317844
 20
217.9338021261
 30
0.0
  0
SPLINE
  5
39A
100
AcDbEntity
  8
7_ALL_FEATURES
100
AcDbSpline
 62
9
  6
CONTINUOUS
 70
0
 71
3
 72
9
 73
5
 74
0
 42
0.0000001
 43
0.0000001
 44
0.0000000001
 40
0.0
 40
0.0
 40
0.0
 40
0.0
 40
0.5019398557
 40
1.0
 40
1.0
 40
1.0
 40
1.0
 10
96.1244317844
 20
217.9338021261
 30
0.0
 10
96.1694969018
 20
217.9788646389
 30
0.0
 10
96.2431945497
 20
218.0863655465
 30
0.0
 10
96.2718893313
 20
218.2136375981
 30
0.0
 10
96.2737971301
 20
218.2768460762
 30
0.0
  0
SPLINE
  5
39B
100
AcDbEntity
  8
7_ALL_FEATURES
100
AcDbSpline
 62
9
  6
CONTINUOUS
 70
0
 71
3
 72
9
 73
5
 74
0
 42
0.0000001
 43
0.0000001
 44
0.0000000001
 40
0.0
 40
0.0
 40
0.0
 40
0.0
 40
0.4980600649
 40
1.0
 40
1.0
 40
1.0
 40
1.0
 10
72.0470027451
 20
218.2775462
 30
0.0
 10
72.0489068904
 20
218.2143376218
 30
0.0
 10
72.0775943115
 20
218.0870639124
 30
0.0
 10
72.1512857436
 20
217.979558742
 30
0.0
 10
72.1963482635
 20
217.9344936175
 30
0.0
  0
SPLINE
  5
39C
100
AcDbEntity
  8
7_ALL_FEATURES
100
AcDbSpline
 62
9
  6
CONTINUOUS
 70
0
 71
3
 72
9
 73
5
 74
0
 42
0.0000001
 43
0.0000001
 44
0.0000000001
 40
0.0
 40
0.0
 40
0.0
 40
0.0
 40
0.501939732
 40
1.0
 40
1.0
 40
1.0
 40
1.0
 10
72.1963482635
 20
217.9344936175
 30
0.0
 10
72.2414107914
 20
217.889428485
 30
0.0
 10
72.3489117628
 20
217.8157308035
 30
0.0
 10
72.4761838626
 20
217.7870359488
 30
0.0
 10
72.5393923916
 20
217.7851280938
 30
0.0
  0
ELLIPSE
  5
39D
100
AcDbEntity
  8
7_ALL_FEATURES
100
AcDbEllipse
 62
7
  6
CONTINUOUS
 10
109.8183010114
 20
215.5566425681
 30
0.0
 11
0.7073426296
 21
0.7073017482
 31
0.0
 40
0.9996954599
 41
2.3563434561
 42
3.926854846
  0
ELLIPSE
  5
39E
100
AcDbEntity
  8
7_ALL_FEATURES
100
AcDbEllipse
 62
7
  6
CONTINUOUS
 10
138.5020776587
 20
215.5558136432
 30
0.0
 11
-0.7073017481
 21
0.7073426296
 31
0.0
 40
0.9996954599
 41
-3.9268418509
 42
-2.3563304611
  0
ELLIPSE
  5
39F
100
AcDbEntity
  8
7_ALL_FEATURES
100
AcDbEllipse
 62
7
  6
CONTINUOUS
 10
138.520367364
 20
244.2570448512
 30
0.0
 11
0.7073426296
 21
0.7073017482
 31
0.0
 40
0.9996954599
 41
-0.7852458702
 42
0.7852458701
  0
ELLIPSE
  5
3A0
100
AcDbEntity
  8
7_ALL_FEATURES
100
AcDbEllipse
 62
7
  6
CONTINUOUS
 10
109.8191299364
 20
244.2404192159
 30
0.0
 11
-0.7073017481
 21
0.7073426296
 31
0.0
 40
0.9996954599
 41
-0.7852489647
 42
0.7852623819
  0
ELLIPSE
  5
3A1
100
AcDbEntity
  8
7_ALL_FEATURES
100
AcDbEllipse
 62
7
  6
CONTINUOUS
 10
109.8392016707
 20
244.2203463214
 30
0.0
 11
-0.3643694925
 21
0.3643905528
 31
0.0
 40
0.9702875252
 41
-0.7703190329
 42
0.770319033
  0
ELLIPSE
  5
3A2
100
AcDbEntity
  8
7_ALL_FEATURES
100
AcDbEllipse
 62
7
  6
CONTINUOUS
 10
138.4828336893
 20
244.2195185566
 30
0.0
 11
0.3643905528
 21
0.3643694926
 31
0.0
 40
0.9702875252
 41
-0.770319033
 42
0.7703190329
  0
ELLIPSE
  5
3A3
100
AcDbEntity
  8
7_ALL_FEATURES
100
AcDbEllipse
 62
7
  6
CONTINUOUS
 10
138.4820059244
 20
215.5758865376
 30
0.0
 11
-0.3643694925
 21
0.3643905528
 31
0.0
 40
0.9702875252
 41
-3.9119116865
 42
-2.3712736206
  0
ELLIPSE
  5
3A4
100
AcDbEntity
  8
7_ALL_FEATURES
100
AcDbEllipse
 62
7
  6
CONTINUOUS
 10
109.8383739058
 20
215.5767143025
 30
0.0
 11
0.3643905528
 21
0.3643694926
 31
0.0
 40
0.9702875252
 41
2.3712736206
 42
3.9119116865
  0
ELLIPSE
  5
3A5
100
AcDbEntity
  8
7_ALL_FEATURES
100
AcDbEllipse
 62
7
  6
CONTINUOUS
 10
138.5029065837
 20
244.2395902909
 30
0.0
 11
0.7073426296
 21
0.7073017482
 31
0.0
 40
0.9996954599
 41
-0.7852621504
 42
0.7852491886
  0
ELLIPSE
  5
3A6
100
AcDbEntity
  8
7_ALL_FEATURES
100
AcDbEllipse
 62
7
  6
CONTINUOUS
 10
138.5195374301
 20
215.5383580737
 30
0.0
 11
-0.7073017481
 21
0.7073426296
 31
0.0
 40
0.9996954599
 41
-3.9268385237
 42
-2.3563467834
  0
ELLIPSE
  5
3A7
100
AcDbEntity
  8
7_ALL_FEATURES
100
AcDbEllipse
 62
7
  6
CONTINUOUS
 10
109.800850653
 20
215.5391880075
 30
0.0
 11
0.7073426296
 21
0.7073017482
 31
0.0
 40
0.9996954599
 41
2.3563467834
 42
3.9268385237
  0
ELLIPSE
  5
3A8
100
AcDbEntity
  8
7_ALL_FEATURES
100
AcDbEllipse
 62
7
  6
CONTINUOUS
 10
109.8016805868
 20
244.2578747851
 30
0.0
 11
-0.7073017481
 21
0.7073426296
 31
0.0
 40
0.9996954599
 41
-0.7852458701
 42
0.7852458702
  0
ELLIPSE
  5
3A9
100
AcDbEntity
  8
7_ALL_FEATURES
100
AcDbEllipse
 62
7
  6
CONTINUOUS
 10
109.8191371802
 20
204.2405511855
 30
0.0
 11
-0.7073017482
 21
0.7073426296
 31
0.0
 40
0.9996954599
 41
-0.7852491975
 42
0.7852621924
  0
ELLIPSE
  5
3AA
100
AcDbEntity
  8
7_ALL_FEATURES
100
AcDbEllipse
 62
7
  6
CONTINUOUS
 10
109.8183082552
 20
175.5567745382
 30
0.0
 11
0.7073426296
 21
0.7073017481
 31
0.0
 40
0.9996954599
 41
2.3563434563
 42
3.9268548461
  0
ELLIPSE
  5
3AB
100
AcDbEntity
  8
7_ALL_FEATURES
100
AcDbEllipse
 62
7
  6
CONTINUOUS
 10
138.5195394633
 20
175.5384848329
 30
0.0
 11
-0.7073017482
 21
0.7073426296
 31
0.0
 40
0.9996954599
 41
-3.9268385238
 42
-2.3563467835
  0
ELLIPSE
  5
3AC
100
AcDbEntity
  8
7_ALL_FEATURES
100
AcDbEllipse
 62
7
  6
CONTINUOUS
 10
138.5029138279
 20
204.2397222605
 30
0.0
 11
0.7073426296
 21
0.7073017481
 31
0.0
 40
0.9996954599
 41
-0.7852489647
 42
0.7852623819
  0
ELLIPSE
  5
3AD
100
AcDbEntity
  8
7_ALL_FEATURES
100
AcDbEllipse
 62
7
  6
CONTINUOUS
 10
138.4828409335
 20
204.2196505262
 30
0.0
 11
0.3643905528
 21
0.3643694925
 31
0.0
 40
0.9702875252
 41
-0.7703190329
 42
0.770319033
  0
ELLIPSE
  5
3AE
100
AcDbEntity
  8
7_ALL_FEATURES
100
AcDbEllipse
 62
7
  6
CONTINUOUS
 10
138.4820131686
 20
175.5760185076
 30
0.0
 11
-0.3643694926
 21
0.3643905528
 31
0.0
 40
0.9702875252
 41
-3.9119116865
 42
-2.3712736207
  0
ELLIPSE
  5
3AF
100
AcDbEntity
  8
7_ALL_FEATURES
100
AcDbEllipse
 62
7
  6
CONTINUOUS
 10
109.8383811497
 20
175.5768462725
 30
0.0
 11
0.3643905528
 21
0.3643694925
 31
0.0
 40
0.9702875252
 41
2.3712736207
 42
3.9119116865
  0
ELLIPSE
  5
3B0
100
AcDbEntity
  8
7_ALL_FEATURES
100
AcDbEllipse
 62
7
  6
CONTINUOUS
 10
109.8392089145
 20
204.2204782911
 30
0.0
 11
-0.3643694926
 21
0.3643905528
 31
0.0
 40
0.9702875252
 41
-0.770319033
 42
0.7703190329
  0
ELLIPSE
  5
3B1
100
AcDbEntity
  8
7_ALL_FEATURES
100
AcDbEllipse
 62
7
  6
CONTINUOUS
 10
138.502084903
 20
175.5559456132
 30
0.0
 11
-0.7073017482
 21
0.7073426296
 31
0.0
 40
0.9996954599
 41
-3.926854804
 42
-2.356343465
  0
ELLIPSE
  5
3B2
100
AcDbEntity
  8
7_ALL_FEATURES
100
AcDbEllipse
 62
7
  6
CONTINUOUS
 10
109.8008526857
 20
175.5393147668
 30
0.0
 11
0.7073426296
 21
0.7073017481
 31
0.0
 40
0.9996954599
 41
2.3563467835
 42
3.9268385238
  0
ELLIPSE
  5
3B3
100
AcDbEntity
  8
7_ALL_FEATURES
100
AcDbEllipse
 62
7
  6
CONTINUOUS
 10
109.8016826196
 20
204.2580015439
 30
0.0
 11
-0.7073017482
 21
0.7073426296
 31
0.0
 40
0.9996954599
 41
-0.7852458702
 42
0.7852458701
  0
ELLIPSE
  5
3B4
100
AcDbEntity
  8
7_ALL_FEATURES
100
AcDbEllipse
 62
7
  6
CONTINUOUS
 10
138.5203693971
 20
204.2571716101
 30
0.0
 11
0.7073426296
 21
0.7073017481
 31
0.0
 40
0.9996954599
 41
-0.7852458701
 42
0.7852458702
  0
ELLIPSE
  5
3B5
100
AcDbEntity
  8
7_ALL_FEATURES
100
AcDbEllipse
 62
7
  6
CONTINUOUS
 10
98.5030457976
 20
204.2397150167
 30
0.0
 11
0.7073426296
 21
0.7073017482
 31
0.0
 40
0.9996954599
 41
-0.7852491975
 42
0.7852621924
  0
ELLIPSE
  5
3B6
100
AcDbEntity
  8
7_ALL_FEATURES
100
AcDbEllipse
 62
7
  6
CONTINUOUS
 10
69.8192691502
 20
204.2405439417
 30
0.0
 11
-0.7073017481
 21
0.7073426296
 31
0.0
 40
0.9996954599
 41
-0.7852491973
 42
0.7852621925
  0
ELLIPSE
  5
3B7
100
AcDbEntity
  8
7_ALL_FEATURES
100
AcDbEllipse
 62
7
  6
CONTINUOUS
 10
69.800979445
 20
175.5393127336
 30
0.0
 11
0.7073426296
 21
0.7073017482
 31
0.0
 40
0.9996954599
 41
2.3563467834
 42
3.9268385237
  0
ELLIPSE
  5
3B8
100
AcDbEntity
  8
7_ALL_FEATURES
100
AcDbEllipse
 62
7
  6
CONTINUOUS
 10
98.5022168726
 20
175.5559383689
 30
0.0
 11
-0.7073017481
 21
0.7073426296
 31
0.0
 40
0.9996954599
 41
-3.9268416183
 42
-2.3563302717
  0
ELLIPSE
  5
3B9
100
AcDbEntity
  8
7_ALL_FEATURES
100
AcDbEllipse
 62
7
  6
CONTINUOUS
 10
98.4821451383
 20
175.5760112634
 30
0.0
 11
-0.3643694925
 21
0.3643905528
 31
0.0
 40
0.9702875252
 41
-3.9119116865
 42
-2.3712736206
  0
ELLIPSE
  5
3BA
100
AcDbEntity
  8
7_ALL_FEATURES
100
AcDbEllipse
 62
7
  6
CONTINUOUS
 10
69.8385131197
 20
175.5768390282
 30
0.0
 11
0.3643905528
 21
0.3643694926
 31
0.0
 40
0.9702875252
 41
2.3712736206
 42
3.9119116865
  0
ELLIPSE
  5
3BB
100
AcDbEntity
  8
7_ALL_FEATURES
100
AcDbEllipse
 62
7
  6
CONTINUOUS
 10
69.8393408845
 20
204.2204710472
 30
0.0
 11
-0.3643694925
 21
0.3643905528
 31
0.0
 40
0.9702875252
 41
-0.7703190329
 42
0.770319033
  0
ELLIPSE
  5
3BC
100
AcDbEntity
  8
7_ALL_FEATURES
100
AcDbEllipse
 62
7
  6
CONTINUOUS
 10
98.4829729031
 20
204.2196432824
 30
0.0
 11
0.3643905528
 21
0.3643694926
 31
0.0
 40
0.9702875252
 41
-0.770319033
 42
0.7703190329
  0
ELLIPSE
  5
3BD
100
AcDbEntity
  8
7_ALL_FEATURES
100
AcDbEllipse
 62
7
  6
CONTINUOUS
 10
69.8184402252
 20
175.5567672939
 30
0.0
 11
0.7073426296
 21
0.7073017482
 31
0.0
 40
0.9996954599
 41
2.3563305032
 42
3.9268418422
  0
ELLIPSE
  5
3BE
100
AcDbEntity
  8
7_ALL_FEATURES
100
AcDbEllipse
 62
7
  6
CONTINUOUS
 10
69.8018093788
 20
204.2579995112
 30
0.0
 11
-0.7073017481
 21
0.7073426296
 31
0.0
 40
0.9996954599
 41
-0.7852458701
 42
0.7852458702
  0
ELLIPSE
  5
3BF
100
AcDbEntity
  8
7_ALL_FEATURES
100
AcDbEllipse
 62
7
  6
CONTINUOUS
 10
98.520496156
 20
204.2571695773
 30
0.0
 11
0.7073426296
 21
0.7073017482
 31
0.0
 40
0.9996954599
 41
-0.7852458702
 42
0.7852458701
  0
ELLIPSE
  5
3C0
100
AcDbEntity
  8
7_ALL_FEATURES
100
AcDbEllipse
 62
7
  6
CONTINUOUS
 10
98.5196662222
 20
175.5384827997
 30
0.0
 11
-0.7073017481
 21
0.7073426296
 31
0.0
 40
0.9996954599
 41
-3.9268385237
 42
-2.3563467834
  0
ELLIPSE
  5
3C1
100
AcDbEntity
  8
7_ALL_FEATURES
100
AcDbEllipse
 62
7
  6
CONTINUOUS
 10
98.5022096287
 20
215.5558063993
 30
0.0
 11
-0.7073017482
 21
0.7073426296
 31
0.0
 40
0.9996954599
 41
-3.9268418511
 42
-2.3563304612
  0
ELLIPSE
  5
3C2
100
AcDbEntity
  8
7_ALL_FEATURES
100
AcDbEllipse
 62
7
  6
CONTINUOUS
 10
98.5030385537
 20
244.2395830467
 30
0.0
 11
0.7073426296
 21
0.7073017481
 31
0.0
 40
0.9996954599
 41
-0.7852491973
 42
0.7852621925
  0
ELLIPSE
  5
3C3
100
AcDbEntity
  8
7_ALL_FEATURES
100
AcDbEllipse
 62
7
  6
CONTINUOUS
 10
69.8018073457
 20
244.2578727519
 30
0.0
 11
-0.7073017482
 21
0.7073426296
 31
0.0
 40
0.9996954599
 41
-0.7852458702
 42
0.7852458701
  0
ELLIPSE
  5
3C4
100
AcDbEntity
  8
7_ALL_FEATURES
100
AcDbEllipse
 62
7
  6
CONTINUOUS
 10
69.818432981
 20
215.5566353243
 30
0.0
 11
0.7073426296
 21
0.7073017481
 31
0.0
 40
0.9996954599
 41
2.3563436889
 42
3.9268550355
  0
ELLIPSE
  5
3C5
100
AcDbEntity
  8
7_ALL_FEATURES
100
AcDbEllipse
 62
7
  6
CONTINUOUS
 10
69.8385058755
 20
215.5767070586
 30
0.0
 11
0.3643905528
 21
0.3643694925
 31
0.0
 40
0.9702875252
 41
2.3712736207
 42
3.9119116865
  0
ELLIPSE
  5
3C6
100
AcDbEntity
  8
7_ALL_FEATURES
100
AcDbEllipse
 62
7
  6
CONTINUOUS
 10
69.8393336403
 20
244.2203390772
 30
0.0
 11
-0.3643694926
 21
0.3643905528
 31
0.0
 40
0.9702875252
 41
-0.770319033
 42
0.7703190329
  0
ELLIPSE
  5
3C7
100
AcDbEntity
  8
7_ALL_FEATURES
100
AcDbEllipse
 62
7
  6
CONTINUOUS
 10
98.4829656593
 20
244.2195113123
 30
0.0
 11
0.3643905528
 21
0.3643694925
 31
0.0
 40
0.9702875252
 41
-0.7703190329
 42
0.770319033
  0
ELLIPSE
  5
3C8
100
AcDbEntity
  8
7_ALL_FEATURES
100
AcDbEllipse
 62
7
  6
CONTINUOUS
 10
98.4821378944
 20
215.5758792938
 30
0.0
 11
-0.3643694926
 21
0.3643905528
 31
0.0
 40
0.9702875252
 41
-3.9119116865
 42
-2.3712736207
  0
ELLIPSE
  5
3C9
100
AcDbEntity
  8
7_ALL_FEATURES
100
AcDbEllipse
 62
7
  6
CONTINUOUS
 10
69.819261906
 20
244.2404119716
 30
0.0
 11
-0.7073017482
 21
0.7073426296
 31
0.0
 40
0.9996954599
 41
-0.7852621504
 42
0.7852491886
  0
ELLIPSE
  5
3CA
100
AcDbEntity
  8
7_ALL_FEATURES
100
AcDbEllipse
 62
7
  6
CONTINUOUS
 10
98.5204941232
 20
244.2570428181
 30
0.0
 11
0.7073426296
 21
0.7073017481
 31
0.0
 40
0.9996954599
 41
-0.7852458701
 42
0.7852458702
  0
ELLIPSE
  5
3CB
100
AcDbEntity
  8
7_ALL_FEATURES
100
AcDbEllipse
 62
7
  6
CONTINUOUS
 10
98.5196641894
 20
215.5383560409
 30
0.0
 11
-0.7073017482
 21
0.7073426296
 31
0.0
 40
0.9996954599
 41
-3.9268385238
 42
-2.3563467835
  0
ELLIPSE
  5
3CC
100
AcDbEntity
  8
7_ALL_FEATURES
100
AcDbEllipse
 62
7
  6
CONTINUOUS
 10
69.8009774118
 20
215.5391859747
 30
0.0
 11
0.7073426296
 21
0.7073017481
 31
0.0
 40
0.9996954599
 41
2.3563467835
 42
3.9268385238
  0
ENDSEC
  0
SECTION
  2
OBJECTS
  0
DICTIONARY
  5
3CD
100
AcDbDictionary
  3
ACAD_GROUP
350
3CE
  3
ACAD_MLINESTYLE
350
3CF
  0
DICTIONARY
  5
3CE
102
{ACAD_REACTORS
330
3CD
102
}
100
AcDbDictionary
  0
DICTIONARY
  5
3CF
102
{ACAD_REACTORS
330
3CD
102
}
100
AcDbDictionary
  3
STANDARD
350
3D0
  0
MLINESTYLE
  5
3D0
102
{ACAD_REACTORS
330
3CF
102
}
100
AcDbMlineStyle
  2
STANDARD
 70
0
  3

 62
256
 51
90.0
 52
90.0
 71
2
 49
0.5
 62
256
  6
BYLAYER
 49
-0.5
 62
256
  6
BYLAYER
  0
ENDSEC
  0
EOF
