999
DXF file: 290_c_001.dxf
999
Pro/ENGINEER 2011490 by Parametric Technology Corporation
  0
SECTION
  2
HEADER
  9
$ACADVER
  1
AC1021
  9
$DWGCODEPAGE
  3
ANSI_1252
  9
$EXTMAX
 10
420.0
 20
297.0
 30
0.0
  9
$EXTMIN
 10
0.0
 20
0.0
 30
0.0
  9
$LIMMIN
 10
0.0
 20
0.0
  9
$LIMMAX
 10
420.0
 20
297.0
  9
$VIEWCTR
 10
210.0
 20
148.5
  9
$VIEWSIZE
 40
297.0
  9
$CLAYER
  8
0
  9
$LTSCALE
 40
23.1
  9
$CELTYPE
  6
BYLAYER
  9
$DIMSCALE
 40
1.0
  9
$DIMASZ
 40
2.5
  9
$DIMEXO
 40
2.625
  9
$DIMDLI
 40
15.96
  9
$DIMEXE
 40
7.56
  9
$DIMCEN
 40
3.78
  9
$DIMLFAC
 40
1.0
  9
$DIMBLK
  1
_CLOSED
  9
$DIMTXT
 40
3.0
  9
$DIMTOL
 70
1
  9
$DIMLIM
 70
0
  9
$DIMTFAC
 40
1.0
  9
$DIMTP
 40
0.01
  9
$DIMTM
 40
0.01
  9
$PDMODE
 70
3
  9
$PDSIZE
 40
0.3125
  9
$HANDSEED
  5
5E3
  9
$TILEMODE
 70
1
  9
$MEASUREMENT
 70
1
  9
$INSUNITS
 70
4
  0
ENDSEC
  0
SECTION
  2
CLASSES
  0
CLASS
  1
ACDBDICTIONARYWDFLT
  2
AcDbDictionaryWithDefault
  3
AutoCAD 2000
 90
0
 91
1
280
0
281
0
  0
CLASS
  1
ACDBPLACEHOLDER
  2
AcDbPlaceHolder
  3
AutoCAD 2000
 90
0
 91
1
280
0
281
0
  0
CLASS
  1
LAYOUT
  2
AcDbLayout
  3
AutoCAD 2000
 90
0
 91
0
280
0
281
0
  0
CLASS
  1
TABLESTYLE
  2
AcDbTableStyle
  3
ObjectDBX Classes
 90
2047
 91
1
280
0
281
0
  0
CLASS
  1
ACAD_TABLE
  2
AcDbTable
  3
ObjectDBX Classes
 90
1025
 91
1
280
0
281
1
  0
ENDSEC
  0
SECTION
  2
TABLES
  0
TABLE
  2
VPORT
  5
8
100
AcDbSymbolTable
 70
2
  0
VPORT
  5
1F4
100
AcDbSymbolTableRecord
100
AcDbViewportTableRecord
  2
*ACTIVE
 70
0
 10
0.0
 20
0.0
 11
1.0
 21
1.0
 12
210.0
 22
148.5
 13
0.0
 23
0.0
 14
1.0
 24
1.0
 15
0.0
 25
0.0
 16
0.0
 26
0.0
 36
1.0
 17
0.0
 27
0.0
 37
0.0
 40
297.0
 41
1.4141414141
 42
50.0
 43
0.0
 44
0.0
 50
0.0
 51
0.0
 71
0
 72
100
 73
1
 74
1
 75
0
 76
0
 77
0
 78
0
  0
ENDTAB
  0
TABLE
  2
LTYPE
  5
5
100
AcDbSymbolTable
 70
6
  0
LTYPE
  5
14
100
AcDbSymbolTableRecord
100
AcDbLinetypeTableRecord
  2
BYBLOCK
 70
0
  3

 72
65
 73
0
 40
0.0
  0
LTYPE
  5
15
100
AcDbSymbolTableRecord
100
AcDbLinetypeTableRecord
  2
BYLAYER
 70
0
  3

 72
65
 73
0
 40
0.0
  0
LTYPE
  5
16
100
AcDbSymbolTableRecord
100
AcDbLinetypeTableRecord
  2
CONTINUOUS
 70
64
  3
Solid line
 72
65
 73
0
 40
0.0
  0
LTYPE
  5
1F5
100
AcDbSymbolTableRecord
100
AcDbLinetypeTableRecord
  2
CENTER
 70
64
  3
____ _ ____ _ ____ _ ____ _ ____ _ ____ _ ____
 72
65
 73
4
 40
0.6
 49
0.375
 74
0
 49
-0.075
 74
0
 49
0.075
 74
0
 49
-0.075
 74
0
  0
LTYPE
  5
1F6
100
AcDbSymbolTableRecord
100
AcDbLinetypeTableRecord
  2
HIDDEN
 70
64
  3
- - - - - - - - - - - - - - - - - - - -
 72
65
 73
2
 40
0.2
 49
0.1
 74
0
 49
-0.1
 74
0
  0
LTYPE
  5
1F7
100
AcDbSymbolTableRecord
100
AcDbLinetypeTableRecord
  2
PHANTOM
 70
64
  3
_____ _ _ _____ _ _ _____ _ _ _____
 72
65
 73
6
 40
0.8
 49
0.45
 74
0
 49
-0.05
 74
0
 49
0.1
 74
0
 49
-0.05
 74
0
 49
0.1
 74
0
 49
-0.05
 74
0
  0
LTYPE
  5
1F8
100
AcDbSymbolTableRecord
100
AcDbLinetypeTableRecord
  2
DOT
 70
64
  3
. . . . . . . . . . . . . . . . . . . .
 72
65
 73
2
 40
0.2
 49
0.1
 74
0
 49
-0.1
 74
0
  0
LTYPE
  5
1F9
100
AcDbSymbolTableRecord
100
AcDbLinetypeTableRecord
  2
DASHED
 70
64
  3
- - - - - - - - - - - - - - - - - - - -
 72
65
 73
2
 40
0.2
 49
0.1
 74
0
 49
-0.1
 74
0
  0
ENDTAB
  0
TABLE
  2
LAYER
  5
2
100
AcDbSymbolTable
 70
36
  0
LAYER
  5
10
100
AcDbSymbolTableRecord
100
AcDbLayerTableRecord
  2
0
 70
0
 62
7
  6
CONTINUOUS
370
-3
390
F
  0
LAYER
  5
1FA
100
AcDbSymbolTableRecord
100
AcDbLayerTableRecord
  2
DEFAULT_1
 70
0
 62
7
  6
CENTER
370
-3
390
F
  0
LAYER
  5
1FB
100
AcDbSymbolTableRecord
100
AcDbLayerTableRecord
  2
DEFAULT_2
 70
0
 62
8
  6
HIDDEN
370
-3
390
F
  0
LAYER
  5
1FC
100
AcDbSymbolTableRecord
100
AcDbLayerTableRecord
  2
DEFAULT_3
 70
0
 62
7
  6
PHANTOM
370
-3
390
F
  0
LAYER
  5
1FD
100
AcDbSymbolTableRecord
100
AcDbLayerTableRecord
  2
01_ALL_DTM_PLN
 70
0
 62
7
  6
CONTINUOUS
370
-3
390
F
  0
LAYER
  5
1FE
100
AcDbSymbolTableRecord
100
AcDbLayerTableRecord
  2
01__ASM_ALL_DTM_PLN
 70
0
 62
7
  6
CONTINUOUS
370
-3
390
F
  0
LAYER
  5
1FF
100
AcDbSymbolTableRecord
100
AcDbLayerTableRecord
  2
01__ASM_DEF_DTM_PLN
 70
0
 62
7
  6
CONTINUOUS
370
-3
390
F
  0
LAYER
  5
200
100
AcDbSymbolTableRecord
100
AcDbLayerTableRecord
  2
01___PRT_ALL_DTM_PLN
 70
0
 62
7
  6
CONTINUOUS
370
-3
390
F
  0
LAYER
  5
201
100
AcDbSymbolTableRecord
100
AcDbLayerTableRecord
  2
01___PRT_DEF_DTM_PLN
 70
0
 62
7
  6
CONTINUOUS
370
-3
390
F
  0
LAYER
  5
202
100
AcDbSymbolTableRecord
100
AcDbLayerTableRecord
  2
02_ALL_AXES
 70
0
 62
7
  6
CONTINUOUS
370
-3
390
F
  0
LAYER
  5
203
100
AcDbSymbolTableRecord
100
AcDbLayerTableRecord
  2
02__ASM_ALL_AXES
 70
0
 62
7
  6
CONTINUOUS
370
-3
390
F
  0
LAYER
  5
204
100
AcDbSymbolTableRecord
100
AcDbLayerTableRecord
  2
02___PRT_ALL_AXES
 70
0
 62
7
  6
CONTINUOUS
370
-3
390
F
  0
LAYER
  5
205
100
AcDbSymbolTableRecord
100
AcDbLayerTableRecord
  2
03_ALL_CURVES
 70
0
 62
7
  6
CONTINUOUS
370
-3
390
F
  0
LAYER
  5
206
100
AcDbSymbolTableRecord
100
AcDbLayerTableRecord
  2
03__ASM_ALL_CURVES
 70
0
 62
7
  6
CONTINUOUS
370
-3
390
F
  0
LAYER
  5
207
100
AcDbSymbolTableRecord
100
AcDbLayerTableRecord
  2
03___PRT_ALL_CURVES
 70
0
 62
7
  6
CONTINUOUS
370
-3
390
F
  0
LAYER
  5
208
100
AcDbSymbolTableRecord
100
AcDbLayerTableRecord
  2
04_ALL_DTM_PNT
 70
0
 62
7
  6
CONTINUOUS
370
-3
390
F
  0
LAYER
  5
209
100
AcDbSymbolTableRecord
100
AcDbLayerTableRecord
  2
04__ASM_ALL_DTM_PNT
 70
0
 62
7
  6
CONTINUOUS
370
-3
390
F
  0
LAYER
  5
20A
100
AcDbSymbolTableRecord
100
AcDbLayerTableRecord
  2
04___PRT_ALL_DTM_PNT
 70
0
 62
7
  6
CONTINUOUS
370
-3
390
F
  0
LAYER
  5
20B
100
AcDbSymbolTableRecord
100
AcDbLayerTableRecord
  2
05_ALL_DTM_CSYS
 70
0
 62
7
  6
CONTINUOUS
370
-3
390
F
  0
LAYER
  5
20C
100
AcDbSymbolTableRecord
100
AcDbLayerTableRecord
  2
05__ASM_ALL_DTM_CSYS
 70
0
 62
7
  6
CONTINUOUS
370
-3
390
F
  0
LAYER
  5
20D
100
AcDbSymbolTableRecord
100
AcDbLayerTableRecord
  2
05__ASM_DEF_DTM_CSYS
 70
0
 62
7
  6
CONTINUOUS
370
-3
390
F
  0
LAYER
  5
20E
100
AcDbSymbolTableRecord
100
AcDbLayerTableRecord
  2
05___PRT_ALL_DTM_CSYS
 70
0
 62
7
  6
CONTINUOUS
370
-3
390
F
  0
LAYER
  5
20F
100
AcDbSymbolTableRecord
100
AcDbLayerTableRecord
  2
05___PRT_DEF_DTM_CSYS
 70
0
 62
7
  6
CONTINUOUS
370
-3
390
F
  0
LAYER
  5
210
100
AcDbSymbolTableRecord
100
AcDbLayerTableRecord
  2
06_ALL_SURFS
 70
0
 62
7
  6
CONTINUOUS
370
-3
390
F
  0
LAYER
  5
211
100
AcDbSymbolTableRecord
100
AcDbLayerTableRecord
  2
06__ASM_ALL_SURFS
 70
0
 62
7
  6
CONTINUOUS
370
-3
390
F
  0
LAYER
  5
212
100
AcDbSymbolTableRecord
100
AcDbLayerTableRecord
  2
06___PRT_ALL_SURFS
 70
0
 62
7
  6
CONTINUOUS
370
-3
390
F
  0
LAYER
  5
213
100
AcDbSymbolTableRecord
100
AcDbLayerTableRecord
  2
07__ASM_ALL_SKELETONS
 70
0
 62
7
  6
CONTINUOUS
370
-3
390
F
  0
LAYER
  5
214
100
AcDbSymbolTableRecord
100
AcDbLayerTableRecord
  2
1_ALL_PLANES
 70
0
 62
7
  6
CONTINUOUS
370
-3
390
F
  0
LAYER
  5
215
100
AcDbSymbolTableRecord
100
AcDbLayerTableRecord
  2
2_ALL_CSYS
 70
0
 62
7
  6
CONTINUOUS
370
-3
390
F
  0
LAYER
  5
216
100
AcDbSymbolTableRecord
100
AcDbLayerTableRecord
  2
3_ALL_AXES
 70
0
 62
7
  6
CONTINUOUS
370
-3
390
F
  0
LAYER
  5
217
100
AcDbSymbolTableRecord
100
AcDbLayerTableRecord
  2
4_ALL_POINTS
 70
0
 62
7
  6
CONTINUOUS
370
-3
390
F
  0
LAYER
  5
218
100
AcDbSymbolTableRecord
100
AcDbLayerTableRecord
  2
5_ALL_CURVES
 70
0
 62
7
  6
CONTINUOUS
370
-3
390
F
  0
LAYER
  5
219
100
AcDbSymbolTableRecord
100
AcDbLayerTableRecord
  2
6_ALL_SURFS
 70
0
 62
7
  6
CONTINUOUS
370
-3
390
F
  0
LAYER
  5
21A
100
AcDbSymbolTableRecord
100
AcDbLayerTableRecord
  2
7_ALL_FEATURES
 70
0
 62
7
  6
CONTINUOUS
370
-3
390
F
  0
LAYER
  5
21B
100
AcDbSymbolTableRecord
100
AcDbLayerTableRecord
  2
8_ALL_NOTES_BALLOONS_SYMBOLS_GT
 70
0
 62
7
  6
CONTINUOUS
370
-3
390
F
  0
LAYER
  5
21C
100
AcDbSymbolTableRecord
100
AcDbLayerTableRecord
  2
XSEC_DATUMS
 70
0
 62
7
  6
CONTINUOUS
370
-3
390
F
  0
ENDTAB
  0
TABLE
  2
STYLE
  5
3
100
AcDbSymbolTable
 70
1
  0
STYLE
  5
11
100
AcDbSymbolTableRecord
100
AcDbTextStyleTableRecord
  2
STANDARD
 70
0
 40
0.0
 41
0.85
 50
0.0
 71
0
 42
0.2
  3
txt
  4

  0
STYLE
  5
21D
100
AcDbSymbolTableRecord
100
AcDbTextStyleTableRecord
  2
TEXTSTYLE_1
 70
0
 40
0.0
 41
0.8
 50
0.0
 71
0
 42
0.2
  3
gdt
  4

  0
STYLE
  5
21E
100
AcDbSymbolTableRecord
100
AcDbTextStyleTableRecord
  2
TEXTSTYLE_2
 70
0
 40
0.0
 41
0.9
 50
0.0
 71
0
 42
0.2
  3
txt
  4

  0
STYLE
  5
21F
100
AcDbSymbolTableRecord
100
AcDbTextStyleTableRecord
  2
TEXTSTYLE_3
 70
0
 40
0.0
 41
0.9
 50
0.0
 71
0
 42
0.2
  3
txt
  4

  0
STYLE
  5
220
100
AcDbSymbolTableRecord
100
AcDbTextStyleTableRecord
  2
TEXTSTYLE_4
 70
0
 40
0.0
 41
0.85
 50
0.0
 71
0
 42
0.2
  3
txt
  4

  0
ENDTAB
  0
TABLE
  2
VIEW
  5
6
100
AcDbSymbolTable
 70
0
  0
ENDTAB
  0
TABLE
  2
UCS
  5
7
100
AcDbSymbolTable
 70
0
  0
ENDTAB
  0
TABLE
  2
APPID
  5
9
100
AcDbSymbolTable
 70
1
  0
APPID
  5
221
100
AcDbSymbolTableRecord
100
AcDbRegAppTableRecord
  2
ACAD
 70
0
  0
ENDTAB
  0
TABLE
  2
BLOCK_RECORD
  5
1
100
AcDbSymbolTable
 70
0
  0
BLOCK_RECORD
  5
222
100
AcDbSymbolTableRecord
100
AcDbBlockTableRecord
  2
*Model_Space
  0
BLOCK_RECORD
  5
223
100
AcDbSymbolTableRecord
100
AcDbBlockTableRecord
  2
*Paper_Space
  0
BLOCK_RECORD
  5
224
100
AcDbSymbolTableRecord
100
AcDbBlockTableRecord
  2
_CLOSED
  0
BLOCK_RECORD
  5
225
100
AcDbSymbolTableRecord
100
AcDbBlockTableRecord
  2
*D0
  0
BLOCK_RECORD
  5
226
100
AcDbSymbolTableRecord
100
AcDbBlockTableRecord
  2
*D1
  0
BLOCK_RECORD
  5
227
100
AcDbSymbolTableRecord
100
AcDbBlockTableRecord
  2
*D2
  0
BLOCK_RECORD
  5
228
100
AcDbSymbolTableRecord
100
AcDbBlockTableRecord
  2
LOGO2_BL0
  0
BLOCK_RECORD
  5
229
100
AcDbSymbolTableRecord
100
AcDbBlockTableRecord
  2
*T1
  0
ENDTAB
  0
TABLE
  2
DIMSTYLE
  5
A
100
AcDbSymbolTable
 70
1
100
AcDbDimStyleTable
 71
0
  0
DIMSTYLE
105
22A
100
AcDbSymbolTableRecord
100
AcDbDimStyleTableRecord
  2
STANDARD
 70
0
  3

  4

 40
1.0
 41
2.5
 42
0.0625
 43
0.38
 44
0.18
 45
0.0
 46
0.0
 47
0.01
 48
0.01
140
3.0
141
0.09
142
0.0
143
25.4
144
1.0
145
0.0
146
1.0
147
0.09
 71
1.0
 72
0.0
 73
0
 74
0
 75
0
 76
0
 77
1
 78
8
170
0
171
2
172
0
173
0
174
0
175
0
176
0
177
0
178
0
270
2
271
2
272
2
273
2
274
2
275
0
280
0
281
0
282
0
283
1
284
8
285
0
286
0
287
3
288
0
340
11
341
224
342
224
343
224
344
224
  0
DIMSTYLE
105
22B
100
AcDbSymbolTableRecord
100
AcDbDimStyleTableRecord
  2
DIMSTYLE_1
 70
0
  3

  4

 40
1.0
 41
2.5
 42
0.0625
 43
0.38
 44
0.18
 45
0.0
 46
0.0
 47
0.3
 48
0.3
140
3.0
141
0.09
142
0.0
143
25.4
144
1.0
145
0.0
146
1.0
147
0.09
 71
0.0
 72
0.0
 73
0
 74
0
 75
0
 76
0
 77
1
 78
8
170
0
171
2
172
0
173
0
174
0
175
0
176
0
177
0
178
0
270
2
271
2
272
2
273
2
274
2
275
0
280
0
281
0
282
0
283
1
284
8
285
0
286
0
287
3
288
0
340
11
341
224
342
224
343
224
344
224
  0
DIMSTYLE
105
22C
100
AcDbSymbolTableRecord
100
AcDbDimStyleTableRecord
  2
DIMSTYLE_2
 70
0
  3

  4

 40
1.0
 41
2.5
 42
0.0625
 43
0.38
 44
0.18
 45
0.0
 46
0.0
 47
0.1
 48
0.1
140
3.0
141
0.09
142
0.0
143
25.4
144
1.0
145
0.0
146
1.0
147
0.09
 71
0.0
 72
0.0
 73
0
 74
0
 75
0
 76
0
 77
1
 78
8
170
0
171
2
172
0
173
0
174
0
175
0
176
0
177
0
178
0
270
2
271
2
272
2
273
2
274
2
275
0
280
0
281
0
282
0
283
1
284
8
285
0
286
0
287
3
288
0
340
11
341
224
342
224
343
224
344
224
  0
DIMSTYLE
105
22D
100
AcDbSymbolTableRecord
100
AcDbDimStyleTableRecord
  2
DIMSTYLE_3
 70
0
  3

  4

 40
1.0
 41
2.5
 42
0.0625
 43
0.38
 44
0.18
 45
0.0
 46
0.0
 47
0.3
 48
0.3
140
3.0
141
0.09
142
0.0
143
25.4
144
1.0
145
0.0
146
1.0
147
0.09
 71
0.0
 72
0.0
 73
0
 74
0
 75
0
 76
0
 77
1
 78
8
170
0
171
2
172
0
173
0
174
0
175
0
176
0
177
0
178
0
270
2
271
2
272
2
273
2
274
2
275
0
280
0
281
0
282
0
283
1
284
8
285
0
286
0
287
3
288
0
340
11
341
224
342
224
343
224
344
224
  0
ENDTAB
  0
ENDSEC
  0
SECTION
  2
BLOCKS
  0
BLOCK
  5
20
100
AcDbEntity
  8
0
100
AcDbBlockBegin
  2
*Model_Space
 70
0
 10
0.0
 20
0.0
 30
0.0
  3
*Model_Space
  1

  0
ENDBLK
  5
21
100
AcDbEntity
  8
0
100
AcDbBlockEnd
  0
BLOCK
  5
1C
100
AcDbEntity
  8
0
100
AcDbBlockBegin
  2
*Paper_Space
 70
0
 10
0.0
 20
0.0
 30
0.0
  3
*Paper_Space
  1

  0
ENDBLK
  5
1D
100
AcDbEntity
  8
0
100
AcDbBlockEnd
  0
BLOCK
  5
22E
100
AcDbEntity
  8
0
100
AcDbBlockBegin
 62
2
  6
CONTINUOUS
  2
LOGO2_BL0
 70
64
 10
333.1473869546
 20
37.5239270671
  3
LOGO2_BL0
  1

  0
LINE
  5
22F
100
AcDbEntity
  8
0
100
AcDbLine
 62
7
  6
CONTINUOUS
 10
324.8903121828
 20
40.7194184059
 11
323.5859712535
 21
40.7194184059
  0
LINE
  5
230
100
AcDbEntity
  8
0
100
AcDbLine
 62
7
  6
CONTINUOUS
 10
323.5859712535
 20
40.7194184059
 11
323.5859712535
 21
30.260352346
  0
LINE
  5
231
100
AcDbEntity
  8
0
100
AcDbLine
 62
7
  6
CONTINUOUS
 10
323.5859712535
 20
30.260352346
 11
328.0670261417
 21
30.260352346
  0
LINE
  5
232
100
AcDbEntity
  8
0
100
AcDbLine
 62
7
  6
CONTINUOUS
 10
328.0670261417
 20
30.260352346
 11
328.0670261417
 21
31.4532066711
  0
LINE
  5
233
100
AcDbEntity
  8
0
100
AcDbLine
 62
7
  6
CONTINUOUS
 10
328.0670261417
 20
31.4532066711
 11
324.8903121828
 21
31.4532066711
  0
LINE
  5
234
100
AcDbEntity
  8
0
100
AcDbLine
 62
7
  6
CONTINUOUS
 10
324.8903121828
 20
31.4532066711
 11
324.8903121828
 21
40.7194184059
  0
LINE
  5
235
100
AcDbEntity
  8
0
100
AcDbLine
 62
7
  6
CONTINUOUS
 10
339.8266383991
 20
40.7194184059
 11
338.522820881
 21
40.7194184059
  0
LINE
  5
236
100
AcDbEntity
  8
0
100
AcDbLine
 62
7
  6
CONTINUOUS
 10
338.522820881
 20
40.7194184059
 11
338.522820881
 21
30.260352346
  0
LINE
  5
237
100
AcDbEntity
  8
0
100
AcDbLine
 62
7
  6
CONTINUOUS
 10
338.522820881
 20
30.260352346
 11
343.0040066221
 21
30.260352346
  0
LINE
  5
238
100
AcDbEntity
  8
0
100
AcDbLine
 62
7
  6
CONTINUOUS
 10
343.0040066221
 20
30.260352346
 11
343.0040066221
 21
31.4532066711
  0
LINE
  5
239
100
AcDbEntity
  8
0
100
AcDbLine
 62
7
  6
CONTINUOUS
 10
343.0040066221
 20
31.4532066711
 11
339.8266383991
 21
31.4532066711
  0
LINE
  5
23A
100
AcDbEntity
  8
0
100
AcDbLine
 62
7
  6
CONTINUOUS
 10
339.8266383991
 20
31.4532066711
 11
339.8266383991
 21
40.7194184059
  0
LWPOLYLINE
  5
23B
100
AcDbEntity
  8
0
100
AcDbPolyline
 62
7
  6
CONTINUOUS
 90
2
 70
0
 43
0.2
 10
321.9403661644
 20
26.9168010391
 10
321.9403661644
 20
25.0597377898
  0
LWPOLYLINE
  5
23C
100
AcDbEntity
  8
0
100
AcDbPolyline
 62
7
  6
CONTINUOUS
 90
2
 70
0
 43
0.2
 10
321.9403661644
 20
25.0597377898
 10
322.7360821748
 20
25.0597377898
  0
LWPOLYLINE
  5
23D
100
AcDbEntity
  8
0
100
AcDbPolyline
 62
7
  6
CONTINUOUS
 90
2
 70
0
 43
0.2
 10
322.7360821748
 20
25.0597377898
 10
322.7360821748
 20
25.2717193614
  0
LWPOLYLINE
  5
23E
100
AcDbEntity
  8
0
100
AcDbPolyline
 62
7
  6
CONTINUOUS
 90
2
 70
0
 43
0.2
 10
322.7360821748
 20
25.2717193614
 10
322.1719756593
 20
25.2717193614
  0
LWPOLYLINE
  5
23F
100
AcDbEntity
  8
0
100
AcDbPolyline
 62
7
  6
CONTINUOUS
 90
2
 70
0
 43
0.2
 10
322.1719756593
 20
25.2717193614
 10
322.1719756593
 20
26.9168010391
  0
LWPOLYLINE
  5
240
100
AcDbEntity
  8
0
100
AcDbPolyline
 62
7
  6
CONTINUOUS
 90
2
 70
0
 43
0.2
 10
322.1719756593
 20
26.9168010391
 10
321.9403661644
 20
26.9168010391
  0
SPLINE
  5
241
100
AcDbEntity
  8
0
100
AcDbSpline
 62
7
  6
CONTINUOUS
 70
2
 71
3
 72
35
 73
31
 74
0
 42
0.0000001
 43
0.0000001
 44
0.0000000001
 40
0.0
 40
0.0
 40
0.0
 40
0.0
 40
1.0
 40
1.0
 40
1.0
 40
2.0
 40
2.0
 40
2.0
 40
3.0
 40
3.0
 40
3.0
 40
4.0
 40
4.0
 40
4.0
 40
5.0
 40
5.0
 40
5.0
 40
6.0
 40
6.0
 40
6.0
 40
7.0
 40
7.0
 40
7.0
 40
8.0
 40
8.0
 40
8.0
 40
9.0
 40
9.0
 40
9.0
 40
10.0
 40
10.0
 40
10.0
 40
10.0
 10
324.1343754303
 20
26.2122894457
 30
0.0
 10
324.1343754303
 20
26.2122894457
 30
0.0
 10
324.1343754303
 20
25.5501741665
 30
0.0
 10
324.1343754303
 20
25.5501741665
 30
0.0
 10
324.1343754303
 20
25.2350805712
 30
0.0
 10
324.2822391191
 20
25.0204819432
 30
0.0
 10
324.6223256034
 20
25.0204819432
 30
0.0
 10
324.9618886764
 20
25.0204819432
 30
0.0
 10
325.1100140709
 20
25.2350805712
 30
0.0
 10
325.1100140709
 20
25.5501741665
 30
0.0
 10
325.1100140709
 20
25.5501741665
 30
0.0
 10
325.1100140709
 20
26.2122894457
 30
0.0
 10
325.1100140709
 20
26.2122894457
 30
0.0
 10
325.1100140709
 20
26.2122894457
 30
0.0
 10
324.887956832
 20
26.2122894457
 30
0.0
 10
324.887956832
 20
26.2122894457
 30
0.0
 10
324.887956832
 20
26.2122894457
 30
0.0
 10
324.887956832
 20
25.5752979083
 30
0.0
 10
324.887956832
 20
25.5752979083
 30
0.0
 10
324.887956832
 20
25.3894869011
 30
0.0
 10
324.8412423746
 20
25.2267059906
 30
0.0
 10
324.6223256034
 20
25.2267059906
 30
0.0
 10
324.402885421
 20
25.2267059906
 30
0.0
 10
324.3561709636
 20
25.3894869011
 30
0.0
 10
324.3561709636
 20
25.5752979083
 30
0.0
 10
324.3561709636
 20
25.5752979083
 30
0.0
 10
324.3561709636
 20
26.2122894457
 30
0.0
 10
324.3561709636
 20
26.2122894457
 30
0.0
 10
324.3561709636
 20
26.2122894457
 30
0.0
 10
324.1343754303
 20
26.2122894457
 30
0.0
 10
324.1343754303
 20
26.2122894457
 30
0.0
  0
SPLINE
  5
242
100
AcDbEntity
  8
0
100
AcDbSpline
 62
7
  6
CONTINUOUS
 70
2
 71
3
 72
35
 73
31
 74
0
 42
0.0000001
 43
0.0000001
 44
0.0000000001
 40
0.0
 40
0.0
 40
0.0
 40
0.0
 40
1.0
 40
1.0
 40
1.0
 40
2.0
 40
2.0
 40
2.0
 40
3.0
 40
3.0
 40
3.0
 40
4.0
 40
4.0
 40
4.0
 40
5.0
 40
5.0
 40
5.0
 40
6.0
 40
6.0
 40
6.0
 40
7.0
 40
7.0
 40
7.0
 40
8.0
 40
8.0
 40
8.0
 40
9.0
 40
9.0
 40
9.0
 40
10.0
 40
10.0
 40
10.0
 40
10.0
 10
327.5331466281
 20
26.1709399539
 30
0.0
 10
327.4446901205
 20
26.2222342601
 30
0.0
 10
327.3312407238
 20
26.2473580019
 30
0.0
 10
327.2276052888
 20
26.2473580019
 30
0.0
 10
326.8727324356
 20
26.2473580019
 30
0.0
 10
326.5972872454
 20
25.9835587129
 30
0.0
 10
326.5972872454
 20
25.6260688032
 30
0.0
 10
326.5972872454
 20
25.2811407645
 30
0.0
 10
326.8757420505
 20
25.0210053545
 30
0.0
 10
327.2153051235
 20
25.0210053545
 30
0.0
 10
327.3312407238
 20
25.0210053545
 30
0.0
 10
327.4319973967
 20
25.0429886286
 30
0.0
 10
327.5331466281
 20
25.0968999912
 30
0.0
 10
327.5331466281
 20
25.0968999912
 30
0.0
 10
327.5331466281
 20
25.3795420867
 30
0.0
 10
327.5331466281
 20
25.3795420867
 30
0.0
 10
327.4492699692
 20
25.2863748774
 30
0.0
 10
327.345765387
 20
25.2272294019
 30
0.0
 10
327.2176604743
 20
25.2272294019
 30
0.0
 10
326.9839573343
 20
25.2272294019
 30
0.0
 10
326.8186902202
 20
25.3994317156
 30
0.0
 10
326.8186902202
 20
25.6360136177
 30
0.0
 10
326.8186902202
 20
25.8479951893
 30
0.0
 10
326.9864435379
 20
26.040087132
 30
0.0
 10
327.2032666639
 20
26.040087132
 30
0.0
 10
327.3360822782
 20
26.040087132
 30
0.0
 10
327.4446901205
 20
25.9861757693
 30
0.0
 10
327.5331466281
 20
25.8851573907
 30
0.0
 10
327.5331466281
 20
25.8851573907
 30
0.0
 10
327.5331466281
 20
26.1709399539
 30
0.0
 10
327.5331466281
 20
26.1709399539
 30
0.0
  0
SPLINE
  5
243
100
AcDbEntity
  8
0
100
AcDbSpline
 62
7
  6
CONTINUOUS
 70
2
 71
3
 72
32
 73
28
 74
0
 42
0.0000001
 43
0.0000001
 44
0.0000000001
 40
0.0
 40
0.0
 40
0.0
 40
0.0
 40
1.0
 40
1.0
 40
1.0
 40
2.0
 40
2.0
 40
2.0
 40
3.0
 40
3.0
 40
3.0
 40
4.0
 40
4.0
 40
4.0
 40
5.0
 40
5.0
 40
5.0
 40
6.0
 40
6.0
 40
6.0
 40
7.0
 40
7.0
 40
7.0
 40
8.0
 40
8.0
 40
8.0
 40
9.0
 40
9.0
 40
9.0
 40
9.0
 10
330.0650178804
 20
25.5993748276
 30
0.0
 10
330.0650178804
 20
25.5993748276
 30
0.0
 10
330.0650178804
 20
25.6333965613
 30
0.0
 10
330.0650178804
 20
25.6333965613
 30
0.0
 10
330.0650178804
 20
25.9757075435
 30
0.0
 10
329.8921613025
 20
26.2473580019
 30
0.0
 10
329.5255116954
 20
26.2473580019
 30
0.0
 10
329.153889681
 20
26.2473580019
 30
0.0
 10
328.9641530891
 20
25.9809416564
 30
0.0
 10
328.9641530891
 20
25.6260688032
 30
0.0
 10
328.9641530891
 20
25.2863748774
 30
0.0
 10
329.1782283059
 20
25.0204819432
 30
0.0
 10
329.5303532498
 20
25.0204819432
 30
0.0
 10
329.754373281
 20
25.0204819432
 30
0.0
 10
329.9565408909
 20
25.1361558378
 30
0.0
 10
330.0650178804
 20
25.3355755385
 30
0.0
 10
330.0650178804
 20
25.3355755385
 30
0.0
 10
329.8773749337
 20
25.4423514412
 30
0.0
 10
329.8773749337
 20
25.4423514412
 30
0.0
 10
329.7938908332
 20
25.3036474499
 30
0.0
 10
329.7026864163
 20
25.2178079987
 30
0.0
 10
329.5331011591
 20
25.2178079987
 30
0.0
 10
329.3211195875
 20
25.2178079987
 30
0.0
 10
329.1881731204
 20
25.4025721833
 30
0.0
 10
329.1858177696
 20
25.5993748276
 30
0.0
 10
329.1858177696
 20
25.5993748276
 30
0.0
 10
330.0650178804
 20
25.5993748276
 30
0.0
 10
330.0650178804
 20
25.5993748276
 30
0.0
  0
SPLINE
  5
244
100
AcDbEntity
  8
0
100
AcDbSpline
 62
7
  6
CONTINUOUS
 70
2
 71
3
 72
14
 73
10
 74
0
 42
0.0000001
 43
0.0000001
 44
0.0000000001
 40
0.0
 40
0.0
 40
0.0
 40
0.0
 40
1.0
 40
1.0
 40
1.0
 40
2.0
 40
2.0
 40
2.0
 40
3.0
 40
3.0
 40
3.0
 40
3.0
 10
329.1978562292
 20
25.7668664397
 30
0.0
 10
329.2254661746
 20
25.9317409954
 30
0.0
 10
329.3533093817
 20
26.054742648
 30
0.0
 10
329.5255116954
 20
26.054742648
 30
0.0
 10
329.7026864163
 20
26.054742648
 30
0.0
 10
329.816135813
 20
25.9390687534
 30
0.0
 10
329.8433531999
 20
25.7668664397
 30
0.0
 10
329.8433531999
 20
25.7668664397
 30
0.0
 10
329.1978562292
 20
25.7668664397
 30
0.0
 10
329.1978562292
 20
25.7668664397
 30
0.0
  0
SPLINE
  5
245
100
AcDbEntity
  8
0
100
AcDbSpline
 62
7
  6
CONTINUOUS
 70
2
 71
3
 72
20
 73
16
 74
0
 42
0.0000001
 43
0.0000001
 44
0.0000000001
 40
0.0
 40
0.0
 40
0.0
 40
0.0
 40
1.0
 40
1.0
 40
1.0
 40
2.0
 40
2.0
 40
2.0
 40
3.0
 40
3.0
 40
3.0
 40
4.0
 40
4.0
 40
4.0
 40
5.0
 40
5.0
 40
5.0
 40
5.0
 10
332.0890493306
 20
25.9762309548
 30
0.0
 10
332.0890493306
 20
25.9762309548
 30
0.0
 10
332.5001888972
 20
25.4737561185
 30
0.0
 10
332.5001888972
 20
25.4737561185
 30
0.0
 10
332.3841224441
 20
25.3580822239
 30
0.0
 10
332.2463344226
 20
25.2277528132
 30
0.0
 10
332.0743938145
 20
25.2277528132
 30
0.0
 10
331.8969573879
 20
25.2277528132
 30
0.0
 10
331.7294657758
 20
25.3921039576
 30
0.0
 10
331.7294657758
 20
25.5690169729
 30
0.0
 10
331.7294657758
 20
25.7469768107
 30
0.0
 10
331.9392228494
 20
25.8731189311
 30
0.0
 10
332.0668043508
 20
25.9610520275
 30
0.0
 10
332.0668043508
 20
25.9610520275
 30
0.0
 10
332.0890493306
 20
25.9762309548
 30
0.0
 10
332.0890493306
 20
25.9762309548
 30
0.0
  0
SPLINE
  5
246
100
AcDbEntity
  8
0
100
AcDbSpline
 62
7
  6
CONTINUOUS
 70
2
 71
3
 72
23
 73
19
 74
0
 42
0.0000001
 43
0.0000001
 44
0.0000000001
 40
0.0
 40
0.0
 40
0.0
 40
0.0
 40
1.0
 40
1.0
 40
1.0
 40
2.0
 40
2.0
 40
2.0
 40
3.0
 40
3.0
 40
3.0
 40
4.0
 40
4.0
 40
4.0
 40
5.0
 40
5.0
 40
5.0
 40
6.0
 40
6.0
 40
6.0
 40
6.0
 10
332.1383808444
 20
26.2672476309
 30
0.0
 10
332.1383808444
 20
26.2672476309
 30
0.0
 10
332.0767491653
 20
26.3457593241
 30
0.0
 10
332.0767491653
 20
26.3457593241
 30
0.0
 10
332.0228378026
 20
26.4143262028
 30
0.0
 10
331.9660476779
 20
26.4834164928
 30
0.0
 10
331.9660476779
 20
26.5771071133
 30
0.0
 10
331.9660476779
 20
26.6959214757
 30
0.0
 10
332.0619627964
 20
26.7733863463
 30
0.0
 10
332.1729259894
 20
26.7733863463
 30
0.0
 10
332.2961893477
 20
26.7733863463
 30
0.0
 10
332.3894874098
 20
26.7022024111
 30
0.0
 10
332.3894874098
 20
26.5718730004
 30
0.0
 10
332.3894874098
 20
26.4368328882
 30
0.0
 10
332.2613824971
 20
26.3604148401
 30
0.0
 10
332.1678227294
 20
26.2866138485
 30
0.0
 10
332.1678227294
 20
26.2866138485
 30
0.0
 10
332.1383808444
 20
26.2672476309
 30
0.0
 10
332.1383808444
 20
26.2672476309
 30
0.0
  0
SPLINE
  5
247
100
AcDbEntity
  8
0
100
AcDbSpline
 62
7
  6
CONTINUOUS
 70
2
 71
3
 72
50
 73
46
 74
0
 42
0.0000001
 43
0.0000001
 44
0.0000000001
 40
0.0
 40
0.0
 40
0.0
 40
0.0
 40
1.0
 40
1.0
 40
1.0
 40
2.0
 40
2.0
 40
2.0
 40
3.0
 40
3.0
 40
3.0
 40
4.0
 40
4.0
 40
4.0
 40
5.0
 40
5.0
 40
5.0
 40
6.0
 40
6.0
 40
6.0
 40
7.0
 40
7.0
 40
7.0
 40
8.0
 40
8.0
 40
8.0
 40
9.0
 40
9.0
 40
9.0
 40
10.0
 40
10.0
 40
10.0
 40
11.0
 40
11.0
 40
11.0
 40
12.0
 40
12.0
 40
12.0
 40
13.0
 40
13.0
 40
13.0
 40
14.0
 40
14.0
 40
14.0
 40
15.0
 40
15.0
 40
15.0
 40
15.0
 10
332.8405370871
 20
25.0602612011
 30
0.0
 10
332.8405370871
 20
25.0602612011
 30
0.0
 10
333.1259270918
 20
25.0602612011
 30
0.0
 10
333.1259270918
 20
25.0602612011
 30
0.0
 10
333.1259270918
 20
25.0602612011
 30
0.0
 10
332.793560924
 20
25.471139062
 30
0.0
 10
332.793560924
 20
25.471139062
 30
0.0
 10
332.793560924
 20
25.471139062
 30
0.0
 10
333.0200671588
 20
25.7370319963
 30
0.0
 10
333.0200671588
 20
25.7370319963
 30
0.0
 10
333.0200671588
 20
25.7370319963
 30
0.0
 10
332.8718109116
 20
25.8898680923
 30
0.0
 10
332.8718109116
 20
25.8898680923
 30
0.0
 10
332.8718109116
 20
25.8898680923
 30
0.0
 10
332.6559037553
 20
25.6386306742
 30
0.0
 10
332.6559037553
 20
25.6386306742
 30
0.0
 10
332.6559037553
 20
25.6386306742
 30
0.0
 10
332.2688411079
 20
26.1065603655
 30
0.0
 10
332.2688411079
 20
26.1065603655
 30
0.0
 10
332.4242942604
 20
26.2206640263
 30
0.0
 10
332.6065722414
 20
26.3604148401
 30
0.0
 10
332.6065722414
 20
26.5697793553
 30
0.0
 10
332.6065722414
 20
26.8136890154
 30
0.0
 10
332.4045354843
 20
26.9571037083
 30
0.0
 10
332.1780292495
 20
26.9571037083
 30
0.0
 10
331.9338578837
 20
26.9571037083
 30
0.0
 10
331.7494862575
 20
26.8063612574
 30
0.0
 10
331.7494862575
 20
26.5498897263
 30
0.0
 10
331.7494862575
 20
26.3923429287
 30
0.0
 10
331.8481492853
 20
26.25468576
 30
0.0
 10
331.953485807
 20
26.1437225669
 30
0.0
 10
331.953485807
 20
26.1437225669
 30
0.0
 10
331.8379427652
 20
26.0599767609
 30
0.0
 10
331.8379427652
 20
26.0599767609
 30
0.0
 10
331.660244633
 20
25.9317409954
 30
0.0
 10
331.5129043554
 20
25.8040286411
 30
0.0
 10
331.5129043554
 20
25.5669233277
 30
0.0
 10
331.5129043554
 20
25.2465956195
 30
0.0
 10
331.7714695316
 20
25.0204819432
 30
0.0
 10
332.0818524253
 20
25.0204819432
 30
0.0
 10
332.3007691965
 20
25.0204819432
 30
0.0
 10
332.4979643992
 20
25.145577241
 30
0.0
 10
332.6382386243
 20
25.3114986192
 30
0.0
 10
332.6382386243
 20
25.3114986192
 30
0.0
 10
332.8405370871
 20
25.0602612011
 30
0.0
 10
332.8405370871
 20
25.0602612011
 30
0.0
  0
LWPOLYLINE
  5
248
100
AcDbEntity
  8
0
100
AcDbPolyline
 62
7
  6
CONTINUOUS
 90
2
 70
0
 43
0.2
 10
334.7759811768
 20
26.9168010391
 10
334.5446333876
 20
26.9168010391
  0
LWPOLYLINE
  5
249
100
AcDbEntity
  8
0
100
AcDbPolyline
 62
7
  6
CONTINUOUS
 90
2
 70
0
 43
0.2
 10
334.5446333876
 20
26.9168010391
 10
334.5446333876
 20
25.0597377898
  0
LWPOLYLINE
  5
24A
100
AcDbEntity
  8
0
100
AcDbPolyline
 62
7
  6
CONTINUOUS
 90
2
 70
0
 43
0.2
 10
334.5446333876
 20
25.0597377898
 10
335.3399568395
 20
25.0597377898
  0
LWPOLYLINE
  5
24B
100
AcDbEntity
  8
0
100
AcDbPolyline
 62
7
  6
CONTINUOUS
 90
2
 70
0
 43
0.2
 10
335.3399568395
 20
25.0597377898
 10
335.3399568395
 20
25.2717193614
  0
LWPOLYLINE
  5
24C
100
AcDbEntity
  8
0
100
AcDbPolyline
 62
7
  6
CONTINUOUS
 90
2
 70
0
 43
0.2
 10
335.3399568395
 20
25.2717193614
 10
334.7759811768
 20
25.2717193614
  0
LWPOLYLINE
  5
24D
100
AcDbEntity
  8
0
100
AcDbPolyline
 62
7
  6
CONTINUOUS
 90
2
 70
0
 43
0.2
 10
334.7759811768
 20
25.2717193614
 10
334.7759811768
 20
26.9168010391
  0
LWPOLYLINE
  5
24E
100
AcDbEntity
  8
0
100
AcDbPolyline
 62
7
  6
CONTINUOUS
 90
2
 70
0
 43
0.2
 10
337.019060251
 20
26.2122894457
 10
336.7979189819
 20
26.2122894457
  0
LWPOLYLINE
  5
24F
100
AcDbEntity
  8
0
100
AcDbPolyline
 62
7
  6
CONTINUOUS
 90
2
 70
0
 43
0.2
 10
336.7979189819
 20
26.2122894457
 10
336.7979189819
 20
25.0602612011
  0
LWPOLYLINE
  5
250
100
AcDbEntity
  8
0
100
AcDbPolyline
 62
7
  6
CONTINUOUS
 90
2
 70
0
 43
0.2
 10
336.7979189819
 20
25.0602612011
 10
337.019060251
 20
25.0602612011
  0
LWPOLYLINE
  5
251
100
AcDbEntity
  8
0
100
AcDbPolyline
 62
7
  6
CONTINUOUS
 90
2
 70
0
 43
0.2
 10
337.019060251
 20
25.0602612011
 10
337.019060251
 20
26.2122894457
  0
SPLINE
  5
252
100
AcDbEntity
  8
0
100
AcDbSpline
 62
7
  6
CONTINUOUS
 70
2
 71
3
 72
17
 73
13
 74
0
 42
0.0000001
 43
0.0000001
 44
0.0000000001
 40
0.0
 40
0.0
 40
0.0
 40
0.0
 40
1.0
 40
1.0
 40
1.0
 40
2.0
 40
2.0
 40
2.0
 40
3.0
 40
3.0
 40
3.0
 40
4.0
 40
4.0
 40
4.0
 40
4.0
 10
336.9086204693
 20
26.894817765
 30
0.0
 10
336.8246129576
 20
26.894817765
 30
0.0
 10
336.7560460788
 20
26.825727475
 30
0.0
 10
336.7560460788
 20
26.7398880238
 30
0.0
 10
336.7560460788
 20
26.6556188065
 30
0.0
 10
336.8246129576
 20
26.5896689842
 30
0.0
 10
336.9086204693
 20
26.5896689842
 30
0.0
 10
336.9923662753
 20
26.5896689842
 30
0.0
 10
337.0611948597
 20
26.6556188065
 30
0.0
 10
337.0611948597
 20
26.7398880238
 30
0.0
 10
337.0611948597
 20
26.825727475
 30
0.0
 10
336.9923662753
 20
26.894817765
 30
0.0
 10
336.9086204693
 20
26.894817765
 30
0.0
  0
SPLINE
  5
253
100
AcDbEntity
  8
0
100
AcDbSpline
 62
7
  6
CONTINUOUS
 70
2
 71
3
 72
17
 73
13
 74
0
 42
0.0000001
 43
0.0000001
 44
0.0000000001
 40
0.0
 40
0.0
 40
0.0
 40
0.0
 40
1.0
 40
1.0
 40
1.0
 40
2.0
 40
2.0
 40
2.0
 40
3.0
 40
3.0
 40
3.0
 40
4.0
 40
4.0
 40
4.0
 40
4.0
 10
339.1493441926
 20
25.2178079987
 30
0.0
 10
338.915379347
 20
25.2178079987
 30
0.0
 10
338.7850499363
 20
25.4198447558
 30
0.0
 10
338.7850499363
 20
25.6360136177
 30
0.0
 10
338.7850499363
 20
25.8506122457
 30
0.0
 10
338.9208751655
 20
26.0495085351
 30
0.0
 10
339.1493441926
 20
26.0495085351
 30
0.0
 10
339.3888048568
 20
26.0495085351
 30
0.0
 10
339.5243683804
 20
25.8605570602
 30
0.0
 10
339.5243683804
 20
25.6360136177
 30
0.0
 10
339.5243683804
 20
25.4098999414
 30
0.0
 10
339.3911602076
 20
25.2178079987
 30
0.0
 10
339.1493441926
 20
25.2178079987
 30
0.0
  0
SPLINE
  5
254
100
AcDbEntity
  8
0
100
AcDbSpline
 62
7
  6
CONTINUOUS
 70
2
 71
3
 72
50
 73
46
 74
0
 42
0.0000001
 43
0.0000001
 44
0.0000000001
 40
0.0
 40
0.0
 40
0.0
 40
0.0
 40
1.0
 40
1.0
 40
1.0
 40
2.0
 40
2.0
 40
2.0
 40
3.0
 40
3.0
 40
3.0
 40
4.0
 40
4.0
 40
4.0
 40
5.0
 40
5.0
 40
5.0
 40
6.0
 40
6.0
 40
6.0
 40
7.0
 40
7.0
 40
7.0
 40
8.0
 40
8.0
 40
8.0
 40
9.0
 40
9.0
 40
9.0
 40
10.0
 40
10.0
 40
10.0
 40
11.0
 40
11.0
 40
11.0
 40
12.0
 40
12.0
 40
12.0
 40
13.0
 40
13.0
 40
13.0
 40
14.0
 40
14.0
 40
14.0
 40
15.0
 40
15.0
 40
15.0
 40
15.0
 10
339.7334711899
 20
26.2128128569
 30
0.0
 10
339.7334711899
 20
26.2128128569
 30
0.0
 10
339.5118065095
 20
26.2128128569
 30
0.0
 10
339.5118065095
 20
26.2128128569
 30
0.0
 10
339.5118065095
 20
26.2128128569
 30
0.0
 10
339.5118065095
 20
26.0154868014
 30
0.0
 10
339.5118065095
 20
26.0154868014
 30
0.0
 10
339.5118065095
 20
26.0154868014
 30
0.0
 10
339.5070958079
 20
26.0154868014
 30
0.0
 10
339.5070958079
 20
26.0154868014
 30
0.0
 10
339.4157605382
 20
26.158378083
 30
0.0
 10
339.2778416638
 20
26.2468345907
 30
0.0
 10
339.1051159388
 20
26.2468345907
 30
0.0
 10
338.772749771
 20
26.2468345907
 30
0.0
 10
338.5636469615
 20
25.9589583823
 30
0.0
 10
338.5636469615
 20
25.6433413757
 30
0.0
 10
338.5636469615
 20
25.3135922644
 30
0.0
 10
338.7607113114
 20
25.0204819432
 30
0.0
 10
339.1155841646
 20
25.0204819432
 30
0.0
 10
339.2778416638
 20
25.0204819432
 30
0.0
 10
339.4178541833
 20
25.1089384508
 30
0.0
 10
339.5070958079
 20
25.2397912728
 30
0.0
 10
339.5070958079
 20
25.2397912728
 30
0.0
 10
339.5118065095
 20
25.2397912728
 30
0.0
 10
339.5118065095
 20
25.2397912728
 30
0.0
 10
339.5118065095
 20
25.2397912728
 30
0.0
 10
339.5118065095
 20
25.0204819432
 30
0.0
 10
339.5118065095
 20
25.0204819432
 30
0.0
 10
339.5118065095
 20
24.7839000411
 30
0.0
 10
339.4552780904
 20
24.5970422113
 30
0.0
 10
339.1820573981
 20
24.5970422113
 30
0.0
 10
338.9797589354
 20
24.5970422113
 30
0.0
 10
338.8371293594
 20
24.7153331624
 30
0.0
 10
338.8371293594
 20
24.9215572098
 30
0.0
 10
338.8371293594
 20
24.9215572098
 30
0.0
 10
338.615464679
 20
24.9215572098
 30
0.0
 10
338.615464679
 20
24.9215572098
 30
0.0
 10
338.6204370862
 20
24.5970422113
 30
0.0
 10
338.8515231698
 20
24.4002395671
 30
0.0
 10
339.171850878
 20
24.4002395671
 30
0.0
 10
339.6198909404
 20
24.4002395671
 30
0.0
 10
339.7334711899
 20
24.6854987189
 30
0.0
 10
339.7334711899
 20
25.0822444751
 30
0.0
 10
339.7334711899
 20
25.0822444751
 30
0.0
 10
339.7334711899
 20
26.2128128569
 30
0.0
 10
339.7334711899
 20
26.2128128569
 30
0.0
  0
SPLINE
  5
255
100
AcDbEntity
  8
0
100
AcDbSpline
 62
7
  6
CONTINUOUS
 70
2
 71
3
 72
44
 73
40
 74
0
 42
0.0000001
 43
0.0000001
 44
0.0000000001
 40
0.0
 40
0.0
 40
0.0
 40
0.0
 40
1.0
 40
1.0
 40
1.0
 40
2.0
 40
2.0
 40
2.0
 40
3.0
 40
3.0
 40
3.0
 40
4.0
 40
4.0
 40
4.0
 40
5.0
 40
5.0
 40
5.0
 40
6.0
 40
6.0
 40
6.0
 40
7.0
 40
7.0
 40
7.0
 40
8.0
 40
8.0
 40
8.0
 40
9.0
 40
9.0
 40
9.0
 40
10.0
 40
10.0
 40
10.0
 40
11.0
 40
11.0
 40
11.0
 40
12.0
 40
12.0
 40
12.0
 40
13.0
 40
13.0
 40
13.0
 40
13.0
 10
341.3023965253
 20
27.1978729007
 30
0.0
 10
341.3023965253
 20
27.1978729007
 30
0.0
 10
341.3023965253
 20
25.0597377898
 30
0.0
 10
341.3023965253
 20
25.0597377898
 30
0.0
 10
341.3023965253
 20
25.0597377898
 30
0.0
 10
341.5237995001
 20
25.0597377898
 30
0.0
 10
341.5237995001
 20
25.0597377898
 30
0.0
 10
341.5237995001
 20
25.0597377898
 30
0.0
 10
341.5237995001
 20
25.5894300131
 30
0.0
 10
341.5237995001
 20
25.5894300131
 30
0.0
 10
341.5237995001
 20
25.7993179395
 30
0.0
 10
341.5237995001
 20
26.0500319464
 30
0.0
 10
341.8090586519
 20
26.0500319464
 30
0.0
 10
342.0359574452
 20
26.0500319464
 30
0.0
 10
342.0629131266
 20
25.9170854793
 30
0.0
 10
342.0629131266
 20
25.7208062464
 30
0.0
 10
342.0629131266
 20
25.7208062464
 30
0.0
 10
342.0629131266
 20
25.0597377898
 30
0.0
 10
342.0629131266
 20
25.0597377898
 30
0.0
 10
342.0629131266
 20
25.0597377898
 30
0.0
 10
342.2848395126
 20
25.0597377898
 30
0.0
 10
342.2848395126
 20
25.0597377898
 30
0.0
 10
342.2848395126
 20
25.0597377898
 30
0.0
 10
342.2848395126
 20
25.7469768107
 30
0.0
 10
342.2848395126
 20
25.7469768107
 30
0.0
 10
342.2848395126
 20
26.027525261
 30
0.0
 10
342.2008320009
 20
26.2473580019
 30
0.0
 10
341.8757935911
 20
26.2473580019
 30
0.0
 10
341.7360427773
 20
26.2473580019
 30
0.0
 10
341.5978621973
 20
26.1808847684
 30
0.0
 10
341.5285102016
 20
26.0578831157
 30
0.0
 10
341.5285102016
 20
26.0578831157
 30
0.0
 10
341.5237995001
 20
26.0578831157
 30
0.0
 10
341.5237995001
 20
26.0578831157
 30
0.0
 10
341.5237995001
 20
26.0578831157
 30
0.0
 10
341.5237995001
 20
27.1978729007
 30
0.0
 10
341.5237995001
 20
27.1978729007
 30
0.0
 10
341.5237995001
 20
27.1978729007
 30
0.0
 10
341.3023965253
 20
27.1978729007
 30
0.0
 10
341.3023965253
 20
27.1978729007
 30
0.0
  0
LWPOLYLINE
  5
256
100
AcDbEntity
  8
0
100
AcDbPolyline
 62
7
  6
CONTINUOUS
 90
2
 70
0
 43
0.2
 10
344.1246301895
 20
26.005541987
 10
344.341060757
 20
26.005541987
  0
LWPOLYLINE
  5
257
100
AcDbEntity
  8
0
100
AcDbPolyline
 62
7
  6
CONTINUOUS
 90
2
 70
0
 43
0.2
 10
344.341060757
 20
26.005541987
 10
344.341060757
 20
26.2122894457
  0
LWPOLYLINE
  5
258
100
AcDbEntity
  8
0
100
AcDbPolyline
 62
7
  6
CONTINUOUS
 90
2
 70
0
 43
0.2
 10
344.341060757
 20
26.2122894457
 10
344.1246301895
 20
26.2122894457
  0
LWPOLYLINE
  5
259
100
AcDbEntity
  8
0
100
AcDbPolyline
 62
7
  6
CONTINUOUS
 90
2
 70
0
 43
0.2
 10
344.1246301895
 20
26.2122894457
 10
344.1246301895
 20
26.65300175
  0
LWPOLYLINE
  5
25A
100
AcDbEntity
  8
0
100
AcDbPolyline
 62
7
  6
CONTINUOUS
 90
2
 70
0
 43
0.2
 10
344.1246301895
 20
26.65300175
 10
343.9029655091
 20
26.65300175
  0
LWPOLYLINE
  5
25B
100
AcDbEntity
  8
0
100
AcDbPolyline
 62
7
  6
CONTINUOUS
 90
2
 70
0
 43
0.2
 10
343.9029655091
 20
26.65300175
 10
343.9029655091
 20
26.2122894457
  0
LWPOLYLINE
  5
25C
100
AcDbEntity
  8
0
100
AcDbPolyline
 62
7
  6
CONTINUOUS
 90
2
 70
0
 43
0.2
 10
343.9029655091
 20
26.2122894457
 10
343.7823192072
 20
26.2122894457
  0
LWPOLYLINE
  5
25D
100
AcDbEntity
  8
0
100
AcDbPolyline
 62
7
  6
CONTINUOUS
 90
2
 70
0
 43
0.2
 10
343.7823192072
 20
26.2122894457
 10
343.7823192072
 20
26.005541987
  0
LWPOLYLINE
  5
25E
100
AcDbEntity
  8
0
100
AcDbPolyline
 62
7
  6
CONTINUOUS
 90
2
 70
0
 43
0.2
 10
343.7823192072
 20
26.005541987
 10
343.9029655091
 20
26.005541987
  0
LWPOLYLINE
  5
25F
100
AcDbEntity
  8
0
100
AcDbPolyline
 62
7
  6
CONTINUOUS
 90
2
 70
0
 43
0.2
 10
343.9029655091
 20
26.005541987
 10
343.9029655091
 20
25.0597377898
  0
LWPOLYLINE
  5
260
100
AcDbEntity
  8
0
100
AcDbPolyline
 62
7
  6
CONTINUOUS
 90
2
 70
0
 43
0.2
 10
343.9029655091
 20
25.0597377898
 10
344.1246301895
 20
25.0597377898
  0
LWPOLYLINE
  5
261
100
AcDbEntity
  8
0
100
AcDbPolyline
 62
7
  6
CONTINUOUS
 90
2
 70
0
 43
0.2
 10
344.1246301895
 20
25.0597377898
 10
344.1246301895
 20
26.005541987
  0
SPLINE
  5
262
100
AcDbEntity
  8
0
100
AcDbSpline
 62
7
  6
CONTINUOUS
 70
2
 71
3
 72
20
 73
16
 74
0
 42
0.0000001
 43
0.0000001
 44
0.0000000001
 40
0.0
 40
0.0
 40
0.0
 40
0.0
 40
1.0
 40
1.0
 40
1.0
 40
2.0
 40
2.0
 40
2.0
 40
3.0
 40
3.0
 40
3.0
 40
4.0
 40
4.0
 40
4.0
 40
5.0
 40
5.0
 40
5.0
 40
5.0
 10
331.9066404967
 20
35.4206642332
 30
0.0
 10
331.9066404967
 20
35.4206642332
 30
0.0
 10
334.2229971512
 20
32.5911028109
 30
0.0
 10
334.2229971512
 20
32.5911028109
 30
0.0
 10
333.5713500978
 20
31.9389323462
 30
0.0
 10
332.7944768938
 20
31.2030160755
 30
0.0
 10
331.8232872491
 20
31.2030160755
 30
0.0
 10
330.8247493647
 20
31.2030160755
 30
0.0
 10
329.8814313711
 20
32.1325945228
 30
0.0
 10
329.8814313711
 20
33.1317866713
 30
0.0
 10
329.8814313711
 20
34.1309788198
 30
0.0
 10
331.0602844442
 20
34.8375840585
 30
0.0
 10
331.7818069046
 20
35.3374418384
 30
0.0
 10
331.7818069046
 20
35.3374418384
 30
0.0
 10
331.9066404967
 20
35.4206642332
 30
0.0
 10
331.9066404967
 20
35.4206642332
 30
0.0
  0
SPLINE
  5
263
100
AcDbEntity
  8
0
100
AcDbSpline
 62
7
  6
CONTINUOUS
 70
2
 71
3
 72
23
 73
19
 74
0
 42
0.0000001
 43
0.0000001
 44
0.0000000001
 40
0.0
 40
0.0
 40
0.0
 40
0.0
 40
1.0
 40
1.0
 40
1.0
 40
2.0
 40
2.0
 40
2.0
 40
3.0
 40
3.0
 40
3.0
 40
4.0
 40
4.0
 40
4.0
 40
5.0
 40
5.0
 40
5.0
 40
6.0
 40
6.0
 40
6.0
 40
6.0
 10
332.1840484793
 20
37.0584181529
 30
0.0
 10
332.1840484793
 20
37.0584181529
 30
0.0
 10
331.8375502067
 20
37.5017475137
 30
0.0
 10
331.8375502067
 20
37.5017475137
 30
0.0
 10
331.5317471618
 20
37.8898569837
 30
0.0
 10
331.2128588347
 20
38.2783590121
 30
0.0
 10
331.2128588347
 20
38.8053033262
 30
0.0
 10
331.2128588347
 20
39.4714750428
 30
0.0
 10
331.7541969591
 20
39.9151969621
 30
0.0
 10
332.3781032143
 20
39.9151969621
 30
0.0
 10
333.0718848763
 20
39.9151969621
 30
0.0
 10
333.5990908961
 20
39.5129553874
 30
0.0
 10
333.5990908961
 20
38.7779550864
 30
0.0
 10
333.5990908961
 20
38.0146905758
 30
0.0
 10
332.8778301414
 20
37.58457735
 30
0.0
 10
332.3507549745
 20
37.1688579346
 30
0.0
 10
332.3507549745
 20
37.1688579346
 30
0.0
 10
332.1840484793
 20
37.0584181529
 30
0.0
 10
332.1840484793
 20
37.0584181529
 30
0.0
  0
SPLINE
  5
264
100
AcDbEntity
  8
0
100
AcDbSpline
 62
7
  6
CONTINUOUS
 70
2
 71
3
 72
50
 73
46
 74
0
 42
0.0000001
 43
0.0000001
 44
0.0000000001
 40
0.0
 40
0.0
 40
0.0
 40
0.0
 40
1.0
 40
1.0
 40
1.0
 40
2.0
 40
2.0
 40
2.0
 40
3.0
 40
3.0
 40
3.0
 40
4.0
 40
4.0
 40
4.0
 40
5.0
 40
5.0
 40
5.0
 40
6.0
 40
6.0
 40
6.0
 40
7.0
 40
7.0
 40
7.0
 40
8.0
 40
8.0
 40
8.0
 40
9.0
 40
9.0
 40
9.0
 40
10.0
 40
10.0
 40
10.0
 40
11.0
 40
11.0
 40
11.0
 40
12.0
 40
12.0
 40
12.0
 40
13.0
 40
13.0
 40
13.0
 40
14.0
 40
14.0
 40
14.0
 40
15.0
 40
15.0
 40
15.0
 40
15.0
 10
336.1376356422
 20
30.2598289348
 30
0.0
 10
336.1376356422
 20
30.2598289348
 30
0.0
 10
337.7468636468
 20
30.2598289348
 30
0.0
 10
337.7468636468
 20
30.2598289348
 30
0.0
 10
337.7468636468
 20
30.2598289348
 30
0.0
 10
335.8738363531
 20
32.5769707062
 30
0.0
 10
335.8738363531
 20
32.5769707062
 30
0.0
 10
335.8738363531
 20
32.5769707062
 30
0.0
 10
337.1501747786
 20
34.0744504008
 30
0.0
 10
337.1501747786
 20
34.0744504008
 30
0.0
 10
337.1501747786
 20
34.0744504008
 30
0.0
 10
336.3179508309
 20
34.9354619693
 30
0.0
 10
336.3179508309
 20
34.9354619693
 30
0.0
 10
336.3179508309
 20
34.9354619693
 30
0.0
 10
335.0973557076
 20
33.5201578469
 30
0.0
 10
335.0973557076
 20
33.5201578469
 30
0.0
 10
335.0973557076
 20
33.5201578469
 30
0.0
 10
332.9194413388
 20
36.1555336813
 30
0.0
 10
332.9194413388
 20
36.1555336813
 30
0.0
 10
333.7930147782
 20
36.7935720412
 30
0.0
 10
334.8196860194
 20
37.58457735
 30
0.0
 10
334.8196860194
 20
38.7634304231
 30
0.0
 10
334.8196860194
 20
40.1371233482
 30
0.0
 10
333.6817898795
 20
40.9416064976
 30
0.0
 10
332.4064982766
 20
40.9416064976
 30
0.0
 10
331.0330670573
 20
40.9416064976
 30
0.0
 10
329.9921328585
 20
40.0953812979
 30
0.0
 10
329.9921328585
 20
38.6527289358
 30
0.0
 10
329.9921328585
 20
37.7651542444
 30
0.0
 10
330.547472235
 20
36.9882810403
 30
0.0
 10
331.1436376918
 20
36.3638513739
 30
0.0
 10
331.1436376918
 20
36.3638513739
 30
0.0
 10
330.4917289328
 20
35.8922578035
 30
0.0
 10
330.4917289328
 20
35.8922578035
 30
0.0
 10
329.4931910484
 20
35.1709970488
 30
0.0
 10
328.6603128365
 20
34.4497362942
 30
0.0
 10
328.6603128365
 20
33.1181779778
 30
0.0
 10
328.6603128365
 20
31.3145026798
 30
0.0
 10
330.1173590091
 20
30.0379025487
 30
0.0
 10
331.8648984465
 20
30.0379025487
 30
0.0
 10
333.0997565274
 20
30.0379025487
 30
0.0
 10
334.2091267521
 20
30.7460780212
 30
0.0
 10
335.000001208
 20
31.6746096459
 30
0.0
 10
335.000001208
 20
31.6746096459
 30
0.0
 10
336.1376356422
 20
30.2598289348
 30
0.0
 10
336.1376356422
 20
30.2598289348
 30
0.0
  0
LINE
  5
265
100
AcDbEntity
  8
0
100
AcDbLine
 62
7
  6
CONTINUOUS
 10
321.9404970172
 20
28.2337038394
 11
344.3544077449
 21
28.2337038394
  0
LINE
  5
266
100
AcDbEntity
  8
0
100
AcDbLine
 62
7
  6
CONTINUOUS
 10
344.3544077449
 20
28.2337038394
 11
344.3544077449
 21
50.6476145671
  0
LINE
  5
267
100
AcDbEntity
  8
0
100
AcDbLine
 62
7
  6
CONTINUOUS
 10
344.3544077449
 20
50.6476145671
 11
321.9404970172
 21
50.6476145671
  0
LINE
  5
268
100
AcDbEntity
  8
0
100
AcDbLine
 62
7
  6
CONTINUOUS
 10
321.9404970172
 20
50.6476145671
 11
321.9404970172
 21
28.2337038394
  0
ENDBLK
  5
269
100
AcDbEntity
  8
0
  6
BYBLOCK
 62
0
100
AcDbBlockEnd
  0
BLOCK
  5
26A
100
AcDbEntity
  8
0
100
AcDbBlockBegin
  2
_CLOSED
 70
64
 10
0.0
 20
0.0
  3
_CLOSED
  1

  0
LINE
  5
26B
100
AcDbEntity
  8
0
  6
BYBLOCK
 62
0
100
AcDbLine
 10
0.0
 20
0.0
 11
-1.0
 21
0.2
  0
LINE
  5
26C
100
AcDbEntity
  8
0
  6
BYBLOCK
 62
0
100
AcDbLine
 10
-1.0
 20
0.2
 11
-1.0
 21
-0.2
  0
LINE
  5
26D
100
AcDbEntity
  8
0
  6
BYBLOCK
 62
0
100
AcDbLine
 10
-1.0
 20
-0.2
 11
0.0
 21
0.0
  0
LINE
  5
26E
100
AcDbEntity
  8
0
  6
BYBLOCK
 62
0
100
AcDbLine
 10
-1.0
 20
0.0
 11
0.0
 21
0.0
  0
ENDBLK
  5
26F
100
AcDbEntity
  8
0
  6
BYBLOCK
 62
0
100
AcDbBlockEnd
  0
BLOCK
  5
270
100
AcDbEntity
  8
0
100
AcDbBlockBegin
 62
2
  6
CONTINUOUS
  2
*D0
 70
65
 10
0.0
 20
0.0
  3
*D0
  1

  0
LINE
  5
271
100
AcDbEntity
  8
0
100
AcDbLine
 62
2
  6
CONTINUOUS
 10
104.4121942912
 20
247.9893294157
 11
122.9644303688
 21
247.9893294157
  0
LINE
  5
272
100
AcDbEntity
  8
0
100
AcDbLine
 62
2
  6
CONTINUOUS
 10
104.2886606742
 20
194.9893294157
 11
122.9644303688
 21
194.9893294157
  0
LINE
  5
273
100
AcDbEntity
  8
0
100
AcDbLine
 62
2
  6
CONTINUOUS
 10
122.2144303688
 20
247.9893294157
 11
122.2144303688
 21
248.9893294157
  0
LINE
  5
274
100
AcDbEntity
  8
0
100
AcDbLine
 62
2
  6
CONTINUOUS
 10
122.2144303688
 20
248.9893294157
 11
122.2144303688
 21
221.4893294157
  0
LINE
  5
275
100
AcDbEntity
  8
0
100
AcDbLine
 62
2
  6
CONTINUOUS
 10
122.2144303688
 20
194.9893294157
 11
122.2144303688
 21
193.9893294157
  0
LINE
  5
276
100
AcDbEntity
  8
0
100
AcDbLine
 62
2
  6
CONTINUOUS
 10
122.2144303688
 20
193.9893294157
 11
122.2144303688
 21
221.4893294157
  0
INSERT
  5
277
100
AcDbEntity
  8
0
100
AcDbBlockReference
 62
2
  6
CONTINUOUS
  2
_CLOSED
 10
122.2144303688
 20
247.9893294157
 41
2.5
 42
2.5
 43
2.5
 50
270.0
  0
INSERT
  5
278
100
AcDbEntity
  8
0
100
AcDbBlockReference
 62
2
  6
CONTINUOUS
  2
_CLOSED
 10
122.2144303688
 20
194.9893294157
 41
2.5
 42
2.5
 43
2.5
 50
90.0
  0
ENDBLK
  5
279
100
AcDbEntity
  8
0
  6
BYBLOCK
 62
0
100
AcDbBlockEnd
  0
BLOCK
  5
27A
100
AcDbEntity
  8
0
100
AcDbBlockBegin
 62
2
  6
CONTINUOUS
  2
*D1
 70
65
 10
0.0
 20
0.0
  3
*D1
  1

  0
LINE
  5
27B
100
AcDbEntity
  8
0
100
AcDbLine
 62
2
  6
CONTINUOUS
 10
239.1095664802
 20
247.9893294157
 11
264.5709905606
 21
247.9893294157
  0
LINE
  5
27C
100
AcDbEntity
  8
0
100
AcDbLine
 62
2
  6
CONTINUOUS
 10
239.1095664802
 20
245.9893294157
 11
264.5709905606
 21
245.9893294157
  0
LINE
  5
27D
100
AcDbEntity
  8
0
100
AcDbLine
 62
2
  6
CONTINUOUS
 10
263.8209905606
 20
247.9893294157
 11
263.8209905606
 21
246.9893294157
  0
LINE
  5
27E
100
AcDbEntity
  8
0
100
AcDbLine
 62
2
  6
CONTINUOUS
 10
263.8209905606
 20
246.9893294157
 11
263.8209905606
 21
255.3339161212
  0
LINE
  5
27F
100
AcDbEntity
  8
0
100
AcDbLine
 62
2
  6
CONTINUOUS
 10
263.8209905606
 20
245.9893294157
 11
263.8209905606
 21
246.9893294157
  0
INSERT
  5
280
100
AcDbEntity
  8
0
100
AcDbBlockReference
 62
2
  6
CONTINUOUS
  2
_CLOSED
 10
263.8209905606
 20
247.9893294157
 41
2.5
 42
2.5
 43
2.5
 50
90.0
  0
INSERT
  5
281
100
AcDbEntity
  8
0
100
AcDbBlockReference
 62
2
  6
CONTINUOUS
  2
_CLOSED
 10
263.8209905606
 20
245.9893294157
 41
2.5
 42
2.5
 43
2.5
 50
270.0
  0
ENDBLK
  5
282
100
AcDbEntity
  8
0
  6
BYBLOCK
 62
0
100
AcDbBlockEnd
  0
BLOCK
  5
283
100
AcDbEntity
  8
0
100
AcDbBlockBegin
 62
2
  6
CONTINUOUS
  2
*D2
 70
65
 10
0.0
 20
0.0
  3
*D2
  1

  0
LINE
  5
284
100
AcDbEntity
  8
0
100
AcDbLine
 62
2
  6
CONTINUOUS
 10
101.0722855906
 20
87.6427540035
 11
116.3015765224
 21
91.1937148368
  0
INSERT
  5
285
100
AcDbEntity
  8
0
100
AcDbBlockReference
 62
2
  6
CONTINUOUS
  2
_CLOSED
 10
101.0722855906
 20
87.6427540035
 41
2.5
 42
2.5
 43
2.5
 50
193.1249579982
  0
ENDBLK
  5
286
100
AcDbEntity
  8
0
  6
BYBLOCK
 62
0
100
AcDbBlockEnd
  0
BLOCK
  5
287
100
AcDbEntity
  8
0
100
AcDbBlockBegin
  2
*T1
 70
1
 10
0.0
 20
0.0
  3
*T1
  1

  0
LINE
  5
288
100
AcDbEntity
  8
0
100
AcDbLine
 62
2
  6
CONTINUOUS
 10
0.0
 20
0.0
 11
90.0
 21
0.0
  0
LINE
  5
289
100
AcDbEntity
  8
0
100
AcDbLine
 62
2
  6
CONTINUOUS
 10
0.0
 20
0.0
 11
0.0
 21
-40.0
  0
LINE
  5
28A
100
AcDbEntity
  8
0
100
AcDbLine
 62
2
  6
CONTINUOUS
 10
30.0
 20
-6.0
 11
90.0
 21
-6.0
  0
LINE
  5
28B
100
AcDbEntity
  8
0
100
AcDbLine
 62
2
  6
CONTINUOUS
 10
30.0
 20
-12.0
 11
90.0
 21
-12.0
  0
LINE
  5
28C
100
AcDbEntity
  8
0
100
AcDbLine
 62
2
  6
CONTINUOUS
 10
30.0
 20
-22.0
 11
90.0
 21
-22.0
  0
LINE
  5
28D
100
AcDbEntity
  8
0
100
AcDbLine
 62
2
  6
CONTINUOUS
 10
0.0
 20
-27.0
 11
90.0
 21
-27.0
  0
LINE
  5
28E
100
AcDbEntity
  8
0
100
AcDbLine
 62
2
  6
CONTINUOUS
 10
0.0
 20
-40.0
 11
90.0
 21
-40.0
  0
LINE
  5
28F
100
AcDbEntity
  8
0
100
AcDbLine
 62
2
  6
CONTINUOUS
 10
30.0
 20
0.0
 11
30.0
 21
-27.0
  0
LINE
  5
290
100
AcDbEntity
  8
0
100
AcDbLine
 62
2
  6
CONTINUOUS
 10
70.0
 20
0.0
 11
70.0
 21
-12.0
  0
LINE
  5
291
100
AcDbEntity
  8
0
100
AcDbLine
 62
2
  6
CONTINUOUS
 10
90.0
 20
0.0
 11
90.0
 21
-40.0
  0
ENDBLK
  5
292
100
AcDbEntity
  8
0
100
AcDbBlockEnd
  0
ENDSEC
  0
SECTION
  2
ENTITIES
  0
DIMENSION
  5
293
100
AcDbEntity
  8
0
100
AcDbDimension
 62
2
  6
CONTINUOUS
  2
*D0
 10
122.2144303688
 20
194.9893294157
 11
121.4644303688
 21
219.3464722729
 70
160
 71
2
 42
53.0
  3
DIMSTYLE_1
100
AcDbAlignedDimension
 13
104.4121942912
 23
247.9893294157
 14
104.2886606742
 24
194.9893294157
 50
270.0
100
AcDbRotatedDimension
  0
DIMENSION
  5
294
100
AcDbEntity
  8
0
100
AcDbDimension
 62
2
  6
CONTINUOUS
  2
*D1
 10
263.8209905606
 20
245.9893294157
 11
263.0709905606
 21
252.9767732641
 70
160
 71
1
 42
2.0
  3
DIMSTYLE_2
100
AcDbAlignedDimension
 13
239.1095664802
 23
247.9893294157
 14
239.1095664802
 24
245.9893294157
 50
270.0
100
AcDbRotatedDimension
  0
DIMENSION
  5
295
100
AcDbEntity
  8
0
100
AcDbDimension
 62
2
  6
CONTINUOUS
  2
*D2
 10
101.0722855906
 20
87.6427540035
 11
107.644626162
 21
89.9453214824
 70
163
 71
1
 42
60.0
  1
<>
  3
DIMSTYLE_3
100
AcDbDiametricDimension
 15
42.6396568463
 25
74.0182210566
  0
INSERT
  5
296
100
AcDbEntity
  8
0
100
AcDbBlockReference
 62
2
  6
CONTINUOUS
  2
LOGO2_BL0
 10
333.1473869546
 20
37.5239270671
  0
LWPOLYLINE
  5
297
100
AcDbEntity
  8
0
100
AcDbPolyline
 62
2
  6
CONTINUOUS
 90
7
 70
0
 10
352.8802624512
 20
46.5239282227
 10
351.3802697754
 20
46.5239282227
 10
352.8802624512
 20
48.6667831421
 10
352.8802624512
 20
49.0953579712
 10
352.4517004395
 20
49.5239263916
 10
351.8088317871
 20
49.5239263916
 10
351.3802697754
 20
48.8810705566
  0
LWPOLYLINE
  5
298
100
AcDbEntity
  8
0
100
AcDbPolyline
 62
2
  6
CONTINUOUS
 90
10
 70
0
 10
354.1659741211
 20
46.5239282227
 10
355.0231237793
 20
47.3810714722
 10
355.2374047852
 20
48.2382147217
 10
355.2374047852
 20
49.0953579712
 10
354.8088427734
 20
49.5239263916
 10
354.1659741211
 20
49.5239263916
 10
353.7374121094
 20
49.0953579712
 10
353.7374121094
 20
48.2382147217
 10
354.1659741211
 20
47.8096398926
 10
355.0945422363
 20
47.8096398926
  0
LWPOLYLINE
  5
299
100
AcDbEntity
  8
0
100
AcDbPolyline
 62
2
  6
CONTINUOUS
 90
13
 70
0
 10
356.0945544434
 20
47.3810714722
 10
356.0945544434
 20
48.6667831421
 10
356.3088354492
 20
49.0953579712
 10
356.7374230957
 20
49.5239263916
 10
356.9517041016
 20
49.5239263916
 10
357.3802661133
 20
49.0953579712
 10
357.5945471191
 20
48.6667831421
 10
357.5945471191
 20
47.3810714722
 10
357.3802661133
 20
46.9524966431
 10
356.9517041016
 20
46.5239282227
 10
356.7374230957
 20
46.5239282227
 10
356.3088354492
 20
46.9524966431
 10
356.0945544434
 20
47.3810714722
  0
LINE
  5
29A
100
AcDbEntity
  8
0
100
AcDbLine
 62
2
  6
CONTINUOUS
 10
358.4516967773
 20
46.5239282227
 11
360.165970459
 21
46.5239282227
  0
LWPOLYLINE
  5
29B
100
AcDbEntity
  8
0
100
AcDbPolyline
 62
2
  6
CONTINUOUS
 90
6
 70
0
 10
362.0945507813
 20
46.5239282227
 10
361.237401123
 20
46.5239282227
 10
360.8088391113
 20
46.9524966431
 10
360.8088391113
 20
49.0953579712
 10
361.237401123
 20
49.5239263916
 10
362.0945507813
 20
49.5239263916
  0
LINE
  5
29C
100
AcDbEntity
  8
0
100
AcDbLine
 62
2
  6
CONTINUOUS
 10
363.3088439941
 20
46.5239282227
 11
365.0231176758
 21
46.5239282227
  0
LWPOLYLINE
  5
29D
100
AcDbEntity
  8
0
100
AcDbPolyline
 62
2
  6
CONTINUOUS
 90
13
 70
0
 10
365.6659863281
 20
47.3810714722
 10
365.6659863281
 20
48.6667831421
 10
365.880267334
 20
49.0953579712
 10
366.3088293457
 20
49.5239263916
 10
366.5231359863
 20
49.5239263916
 10
366.951697998
 20
49.0953579712
 10
367.1659790039
 20
48.6667831421
 10
367.1659790039
 20
47.3810714722
 10
366.951697998
 20
46.9524966431
 10
366.5231359863
 20
46.5239282227
 10
366.3088293457
 20
46.5239282227
 10
365.880267334
 20
46.9524966431
 10
365.6659863281
 20
47.3810714722
  0
LWPOLYLINE
  5
29E
100
AcDbEntity
  8
0
100
AcDbPolyline
 62
2
  6
CONTINUOUS
 90
13
 70
0
 10
368.0231286621
 20
47.3810714722
 10
368.0231286621
 20
48.6667831421
 10
368.237409668
 20
49.0953579712
 10
368.6659716797
 20
49.5239263916
 10
368.8802783203
 20
49.5239263916
 10
369.308840332
 20
49.0953579712
 10
369.5231213379
 20
48.6667831421
 10
369.5231213379
 20
47.3810714722
 10
369.308840332
 20
46.9524966431
 10
368.8802783203
 20
46.5239282227
 10
368.6659716797
 20
46.5239282227
 10
368.237409668
 20
46.9524966431
 10
368.0231286621
 20
47.3810714722
  0
LWPOLYLINE
  5
29F
100
AcDbEntity
  8
0
100
AcDbPolyline
 62
2
  6
CONTINUOUS
 90
3
 70
0
 10
370.3802709961
 20
48.6667831421
 10
371.2374206543
 20
49.5239263916
 10
371.2374206543
 20
46.5239282227
  0
LWPOLYLINE
  5
2A0
100
AcDbEntity
  8
0
100
AcDbPolyline
 62
2
  6
CONTINUOUS
 90
9
 70
0
 10
391.5525878906
 20
45.7739254761
 10
391.5525878906
 20
49.2739297485
 10
392.4822839355
 20
49.2739297485
 10
392.8541418457
 20
48.9822573853
 10
393.0400964355
 20
48.6905914307
 10
393.0400964355
 20
48.1072595215
 10
392.8541418457
 20
47.8155935669
 10
392.4822839355
 20
47.5239276123
 10
391.5525878906
 20
47.5239276123
  0
LINE
  5
2A1
100
AcDbEntity
  8
0
100
AcDbLine
 62
2
  6
CONTINUOUS
 10
392.4822839355
 20
47.5239276123
 11
393.0400964355
 21
45.7739254761
  0
LWPOLYLINE
  5
2A2
100
AcDbEntity
  8
0
100
AcDbPolyline
 62
2
  6
CONTINUOUS
 90
11
 70
0
 10
395.8291589355
 20
46.3572573853
 10
395.6432043457
 20
46.0655914307
 10
395.2713464355
 20
45.7739254761
 10
394.8994628906
 20
46.0655914307
 10
394.5275793457
 20
46.6489297485
 10
394.5275793457
 20
47.2322616577
 10
394.8994628906
 20
47.8155935669
 10
395.2713464355
 20
48.1072595215
 10
395.6432043457
 20
47.8155935669
 10
395.8291589355
 20
47.2322616577
 10
394.5275793457
 20
47.2322616577
  0
LWPOLYLINE
  5
2A3
100
AcDbEntity
  8
0
100
AcDbPolyline
 62
2
  6
CONTINUOUS
 90
3
 70
0
 10
397.6885253906
 20
48.1072595215
 10
398.2463378906
 20
45.7739254761
 10
398.8041503906
 20
48.1072595215
  0
LWPOLYLINE
  5
2A4
100
AcDbEntity
  8
0
100
AcDbPolyline
 62
2
  6
CONTINUOUS
 90
4
 70
0
 10
401.2213293457
 20
45.7739254761
 10
401.0354003906
 20
45.7739254761
 10
401.0354003906
 20
46.0655914307
 10
401.2213293457
 20
45.7739254761
  0
LWPOLYLINE
  5
2A5
100
AcDbEntity
  8
0
100
AcDbPolyline
 62
2
  6
CONTINUOUS
 90
4
 70
0
 10
401.2213293457
 20
48.1072595215
 10
401.2213293457
 20
47.8155935669
 10
401.0354003906
 20
48.1072595215
 10
401.2213293457
 20
48.1072595215
  0
LWPOLYLINE
  5
2A6
100
AcDbEntity
  8
0
100
AcDbPolyline
 62
2
  6
CONTINUOUS
 90
15
 70
0
 10
404.1963464355
 20
45.7739254761
 10
403.8244628906
 20
46.0655914307
 10
403.6385339355
 20
46.3572573853
 10
403.4525793457
 20
46.9405957031
 10
403.4525793457
 20
48.1072595215
 10
403.6385339355
 20
48.6905914307
 10
403.8244628906
 20
48.9822573853
 10
404.1963464355
 20
49.2739297485
 10
404.5682043457
 20
48.9822573853
 10
404.7541589355
 20
48.6905914307
 10
404.9400878906
 20
48.1072595215
 10
404.9400878906
 20
46.9405957031
 10
404.7541589355
 20
46.3572573853
 10
404.5682043457
 20
46.0655914307
 10
404.1963464355
 20
45.7739254761
  0
LINE
  5
2A7
100
AcDbEntity
  8
0
100
AcDbLine
 62
2
  6
CONTINUOUS
 10
407.1713378906
 20
49.2739297485
 11
407.1713378906
 21
45.7739254761
  0
LWPOLYLINE
  5
2A8
100
AcDbEntity
  8
0
100
AcDbPolyline
 62
2
  6
CONTINUOUS
 90
10
 70
0
 10
350.8088452148
 20
40.0239257812
 10
351.0588354492
 20
39.7739291382
 10
352.0588476563
 20
39.7739291382
 10
352.558828125
 20
40.273928833
 10
352.558828125
 20
40.7739285278
 10
350.8088452148
 20
42.2739276123
 10
350.8088452148
 20
42.7739273071
 10
351.3088513184
 20
43.273927002
 10
352.3088378906
 20
43.273927002
 10
352.558828125
 20
43.0239239502
  0
LWPOLYLINE
  5
2A9
100
AcDbEntity
  8
0
100
AcDbPolyline
 62
2
  6
CONTINUOUS
 90
6
 70
0
 10
354.8088427734
 20
39.7739291382
 10
353.8088305664
 20
39.7739291382
 10
353.558840332
 20
40.0239257812
 10
353.558840332
 20
42.0239245605
 10
353.8088305664
 20
42.2739276123
 10
354.8088427734
 20
42.2739276123
  0
LWPOLYLINE
  5
2AA
100
AcDbEntity
  8
0
100
AcDbPolyline
 62
2
  6
CONTINUOUS
 90
4
 70
0
 10
357.3088476563
 20
39.7739291382
 10
357.3088476563
 20
41.7739279175
 10
357.0588317871
 20
42.2739276123
 10
355.8088293457
 20
42.2739276123
  0
LWPOLYLINE
  5
2AB
100
AcDbEntity
  8
0
100
AcDbPolyline
 62
2
  6
CONTINUOUS
 90
6
 70
0
 10
357.3088476563
 20
39.7739291382
 10
356.3088354492
 20
39.7739291382
 10
355.8088293457
 20
40.0239257812
 10
355.8088293457
 20
40.7739285278
 10
356.3088354492
 20
41.0239251709
 10
357.3088476563
 20
41.0239251709
  0
LWPOLYLINE
  5
2AC
100
AcDbEntity
  8
0
100
AcDbPolyline
 62
2
  6
CONTINUOUS
 90
4
 70
0
 10
359.0588305664
 20
39.7739291382
 10
358.5588500977
 20
39.7739291382
 10
358.3088342285
 20
40.0239257812
 10
358.3088342285
 20
43.273927002
  0
LWPOLYLINE
  5
2AD
100
AcDbEntity
  8
0
100
AcDbPolyline
 62
2
  6
CONTINUOUS
 90
9
 70
0
 10
361.5588354492
 20
39.7739291382
 10
360.558848877
 20
39.7739291382
 10
360.0588427734
 20
40.273928833
 10
360.0588427734
 20
41.7739279175
 10
360.558848877
 20
42.2739276123
 10
361.0588293457
 20
42.2739276123
 10
361.5588354492
 20
41.7739279175
 10
361.5588354492
 20
41.0239251709
 10
360.0588427734
 20
41.0239251709
  0
LWPOLYLINE
  5
2AE
100
AcDbEntity
  8
0
100
AcDbPolyline
 62
2
  6
CONTINUOUS
 90
4
 70
0
 10
362.5588476563
 20
39.7739291382
 10
362.5588476563
 20
40.0239257812
 10
362.7254992676
 20
40.0239257812
 10
362.5588476563
 20
39.7739291382
  0
LWPOLYLINE
  5
2AF
100
AcDbEntity
  8
0
100
AcDbPolyline
 62
2
  6
CONTINUOUS
 90
4
 70
0
 10
362.5588476563
 20
41.2739282227
 10
362.5588476563
 20
41.5239248657
 10
362.7254992676
 20
41.5239248657
 10
362.5588476563
 20
41.2739282227
  0
LWPOLYLINE
  5
2B0
100
AcDbEntity
  8
0
100
AcDbPolyline
 62
2
  6
CONTINUOUS
 90
3
 70
0
 10
363.8088500977
 20
42.2739276123
 10
364.8088366699
 20
43.273927002
 10
364.8088366699
 20
39.7739291382
  0
LWPOLYLINE
  5
2B1
100
AcDbEntity
  8
0
100
AcDbPolyline
 62
2
  6
CONTINUOUS
 90
4
 70
0
 10
365.808848877
 20
39.7739291382
 10
365.808848877
 20
40.0239257812
 10
365.9755004883
 20
40.0239257812
 10
365.808848877
 20
39.7739291382
  0
LWPOLYLINE
  5
2B2
100
AcDbEntity
  8
0
100
AcDbPolyline
 62
2
  6
CONTINUOUS
 90
4
 70
0
 10
365.808848877
 20
41.2739282227
 10
365.808848877
 20
41.5239248657
 10
365.9755004883
 20
41.5239248657
 10
365.808848877
 20
41.2739282227
  0
LWPOLYLINE
  5
2B3
100
AcDbEntity
  8
0
100
AcDbPolyline
 62
2
  6
CONTINUOUS
 90
3
 70
0
 10
367.0588513184
 20
42.2739276123
 10
368.0588378906
 20
43.273927002
 10
368.0588378906
 20
39.7739291382
  0
LWPOLYLINE
  5
2B4
100
AcDbEntity
  8
0
100
AcDbPolyline
 62
2
  6
CONTINUOUS
 90
3
 70
0
 10
390.8088464355
 20
40.273928833
 10
391.8088330078
 20
43.7739266968
 10
392.8088452148
 20
40.273928833
  0
LINE
  5
2B5
100
AcDbEntity
  8
0
100
AcDbLine
 62
2
  6
CONTINUOUS
 10
391.142175293
 20
41.2739282227
 11
392.4755163574
 21
41.2739282227
  0
LWPOLYLINE
  5
2B6
100
AcDbEntity
  8
0
100
AcDbPolyline
 62
2
  6
CONTINUOUS
 90
6
 70
0
 10
393.8088317871
 20
40.273928833
 10
395.0588342285
 20
40.273928833
 10
395.3088500977
 20
40.5239254761
 10
395.3088500977
 20
41.7739279175
 10
394.8088439941
 20
42.2739276123
 10
394.3088378906
 20
42.2739276123
  0
LWPOLYLINE
  5
2B7
100
AcDbEntity
  8
0
100
AcDbPolyline
 62
2
  6
CONTINUOUS
 90
5
 70
0
 10
394.8088439941
 20
42.2739276123
 10
395.2255114746
 20
42.5239242554
 10
395.2255114746
 20
43.273927002
 10
394.8088439941
 20
43.7739266968
 10
393.8088317871
 20
43.7739266968
  0
LWPOLYLINE
  5
2B8
100
AcDbEntity
  8
0
100
AcDbPolyline
 62
2
  6
CONTINUOUS
 90
8
 70
0
 10
351.4755029297
 20
32.2739273071
 10
351.4755029297
 20
35.7739251709
 10
352.2254992676
 20
35.7739251709
 10
352.4755151367
 20
35.6905929565
 10
352.9754956055
 20
35.2739254761
 10
352.9754956055
 20
34.5239291382
 10
352.4755151367
 20
34.0239294434
 10
351.4755029297
 20
34.0239294434
  0
LWPOLYLINE
  5
2B9
100
AcDbEntity
  8
0
100
AcDbPolyline
 62
2
  6
CONTINUOUS
 90
6
 70
0
 10
352.4755151367
 20
34.0239294434
 10
352.7255053711
 20
34.0239294434
 10
353.2255114746
 20
33.5239297485
 10
353.2255114746
 20
32.773927002
 10
352.7255053711
 20
32.2739273071
 10
351.4755029297
 20
32.2739273071
  0
LWPOLYLINE
  5
2BA
100
AcDbEntity
  8
0
100
AcDbPolyline
 62
2
  6
CONTINUOUS
 90
3
 70
0
 10
354.2254980469
 20
32.2739273071
 10
354.2254980469
 20
35.7739251709
 10
355.7255163574
 20
35.7739251709
  0
LINE
  5
2BB
100
AcDbEntity
  8
0
100
AcDbLine
 62
2
  6
CONTINUOUS
 10
355.2255102539
 20
34.2739260864
 11
354.2254980469
 21
34.2739260864
  0
LINE
  5
2BC
100
AcDbEntity
  8
0
100
AcDbLine
 62
2
  6
CONTINUOUS
 10
354.2254980469
 20
32.2739273071
 11
355.7255163574
 21
32.2739273071
  0
LWPOLYLINE
  5
2BD
100
AcDbEntity
  8
0
100
AcDbPolyline
 62
2
  6
CONTINUOUS
 90
3
 70
0
 10
356.7255029297
 20
32.2739273071
 10
357.7255151367
 20
35.7739251709
 10
358.725501709
 20
32.2739273071
  0
LINE
  5
2BE
100
AcDbEntity
  8
0
100
AcDbLine
 62
2
  6
CONTINUOUS
 10
357.0588317871
 20
33.2739266968
 11
358.3921728516
 21
33.2739266968
  0
LWPOLYLINE
  5
2BF
100
AcDbEntity
  8
0
100
AcDbPolyline
 62
2
  6
CONTINUOUS
 90
5
 70
0
 10
359.725513916
 20
32.2739273071
 10
359.725513916
 20
35.7739251709
 10
360.7255004883
 20
33.7739263916
 10
361.7255126953
 20
35.7739251709
 10
361.7255126953
 20
32.2739273071
  0
LWPOLYLINE
  5
2C0
100
AcDbEntity
  8
0
100
AcDbPolyline
 62
2
  6
CONTINUOUS
 90
3
 70
0
 10
365.4754943848
 20
34.7739257812
 10
366.4755065918
 20
35.7739251709
 10
366.4755065918
 20
32.2739273071
  0
LWPOLYLINE
  5
2C1
100
AcDbEntity
  8
0
100
AcDbPolyline
 62
2
  6
CONTINUOUS
 90
7
 70
0
 10
351.2850366211
 20
25.2739251709
 10
351.2850366211
 20
27.7739300537
 10
352.1778955078
 20
27.7739300537
 10
352.5350390625
 20
27.416786499
 10
352.5350390625
 20
25.6310687256
 10
352.1778955078
 20
25.2739251709
 10
351.2850366211
 20
25.2739251709
  0
LWPOLYLINE
  5
2C2
100
AcDbEntity
  8
0
100
AcDbPolyline
 62
2
  6
CONTINUOUS
 90
3
 70
0
 10
353.5469458008
 20
25.2739251709
 10
354.2612329102
 20
27.7739300537
 10
354.9754943848
 20
25.2739251709
  0
LINE
  5
2C3
100
AcDbEntity
  8
0
100
AcDbLine
 62
2
  6
CONTINUOUS
 10
353.7850415039
 20
25.9882122803
 11
354.7373986816
 21
25.9882122803
  0
LINE
  5
2C4
100
AcDbEntity
  8
0
100
AcDbLine
 62
2
  6
CONTINUOUS
 10
356.4040686035
 20
25.2739251709
 11
356.4040686035
 21
27.7739300537
  0
LINE
  5
2C5
100
AcDbEntity
  8
0
100
AcDbLine
 62
2
  6
CONTINUOUS
 10
355.6897814941
 20
27.7739300537
 11
357.1183557129
 21
27.7739300537
  0
LWPOLYLINE
  5
2C6
100
AcDbEntity
  8
0
100
AcDbPolyline
 62
2
  6
CONTINUOUS
 90
3
 70
0
 10
357.8326428223
 20
25.2739251709
 10
357.8326428223
 20
27.7739300537
 10
358.9040734863
 20
27.7739300537
  0
LINE
  5
2C7
100
AcDbEntity
  8
0
100
AcDbLine
 62
2
  6
CONTINUOUS
 10
358.5469299316
 20
26.7024993896
 11
357.8326428223
 21
26.7024993896
  0
LINE
  5
2C8
100
AcDbEntity
  8
0
100
AcDbLine
 62
2
  6
CONTINUOUS
 10
357.8326428223
 20
25.2739251709
 11
358.9040734863
 21
25.2739251709
  0
LWPOLYLINE
  5
2C9
100
AcDbEntity
  8
0
100
AcDbPolyline
 62
2
  6
CONTINUOUS
 90
4
 70
0
 10
359.6183605957
 20
25.2739251709
 10
359.6183605957
 20
25.4524969482
 10
359.7374084473
 20
25.4524969482
 10
359.6183605957
 20
25.2739251709
  0
LWPOLYLINE
  5
2CA
100
AcDbEntity
  8
0
100
AcDbPolyline
 62
2
  6
CONTINUOUS
 90
4
 70
0
 10
359.6183605957
 20
26.345355835
 10
359.6183605957
 20
26.5239276123
 10
359.7374084473
 20
26.5239276123
 10
359.6183605957
 20
26.345355835
  0
LWPOLYLINE
  5
2CB
100
AcDbEntity
  8
0
100
AcDbPolyline
 62
2
  6
CONTINUOUS
 90
13
 70
0
 10
360.5112194824
 20
25.9882122803
 10
360.5112194824
 20
27.0596429443
 10
360.6897912598
 20
27.416786499
 10
361.0469348145
 20
27.7739300537
 10
361.2255065918
 20
27.7739300537
 10
361.5826501465
 20
27.416786499
 10
361.7612219238
 20
27.0596429443
 10
361.7612219238
 20
25.9882122803
 10
361.5826501465
 20
25.6310687256
 10
361.2255065918
 20
25.2739251709
 10
361.0469348145
 20
25.2739251709
 10
360.6897912598
 20
25.6310687256
 10
360.5112194824
 20
25.9882122803
  0
LWPOLYLINE
  5
2CC
100
AcDbEntity
  8
0
100
AcDbPolyline
 62
2
  6
CONTINUOUS
 90
4
 70
0
 10
362.4755090332
 20
27.2382147217
 10
362.4755090332
 20
27.7739300537
 10
363.7255114746
 20
27.7739300537
 10
363.0112243652
 20
25.2739251709
  0
LINE
  5
2CD
100
AcDbEntity
  8
0
100
AcDbLine
 62
2
  6
CONTINUOUS
 10
365.8683728027
 20
27.5358343506
 11
364.439798584
 21
25.3334490967
  0
LWPOLYLINE
  5
2CE
100
AcDbEntity
  8
0
100
AcDbPolyline
 62
2
  6
CONTINUOUS
 90
3
 70
0
 10
366.344564209
 20
27.0596429443
 10
367.0588513184
 20
27.7739300537
 10
367.0588513184
 20
25.2739251709
  0
LWPOLYLINE
  5
2CF
100
AcDbEntity
  8
0
100
AcDbPolyline
 62
2
  6
CONTINUOUS
 90
7
 70
0
 10
369.0231152344
 20
25.2739251709
 10
367.7731384277
 20
25.2739251709
 10
369.0231152344
 20
27.0596429443
 10
369.0231152344
 20
27.416786499
 10
368.6659716797
 20
27.7739300537
 10
368.1302563477
 20
27.7739300537
 10
367.7731384277
 20
27.2382147217
  0
LINE
  5
2D0
100
AcDbEntity
  8
0
100
AcDbLine
 62
2
  6
CONTINUOUS
 10
371.1659765625
 20
27.5358343506
 11
369.7374023437
 21
25.3334490967
  0
LWPOLYLINE
  5
2D1
100
AcDbEntity
  8
0
100
AcDbPolyline
 62
2
  6
CONTINUOUS
 90
7
 70
0
 10
372.8921704102
 20
25.2739251709
 10
371.6421679687
 20
25.2739251709
 10
372.8921704102
 20
27.0596429443
 10
372.8921704102
 20
27.416786499
 10
372.5350268555
 20
27.7739300537
 10
371.9993115234
 20
27.7739300537
 10
371.6421679687
 20
27.2382147217
  0
LWPOLYLINE
  5
2D2
100
AcDbEntity
  8
0
100
AcDbPolyline
 62
2
  6
CONTINUOUS
 90
13
 70
0
 10
373.6064575195
 20
25.9882122803
 10
373.6064575195
 20
27.0596429443
 10
373.7850292969
 20
27.416786499
 10
374.1421728516
 20
27.7739300537
 10
374.3207446289
 20
27.7739300537
 10
374.6778881836
 20
27.416786499
 10
374.8564599609
 20
27.0596429443
 10
374.8564599609
 20
25.9882122803
 10
374.6778881836
 20
25.6310687256
 10
374.3207446289
 20
25.2739251709
 10
374.1421728516
 20
25.2739251709
 10
373.7850292969
 20
25.6310687256
 10
373.6064575195
 20
25.9882122803
  0
LWPOLYLINE
  5
2D3
100
AcDbEntity
  8
0
100
AcDbPolyline
 62
2
  6
CONTINUOUS
 90
3
 70
0
 10
375.5707470703
 20
27.0596429443
 10
376.2850341797
 20
27.7739300537
 10
376.2850341797
 20
25.2739251709
  0
LWPOLYLINE
  5
2D4
100
AcDbEntity
  8
0
100
AcDbPolyline
 62
2
  6
CONTINUOUS
 90
10
 70
0
 10
377.8921801758
 20
27.7739300537
 10
377.3564648437
 20
27.2382147217
 10
376.9993212891
 20
26.5239276123
 10
376.9993212891
 20
25.6310687256
 10
377.3564648437
 20
25.2739251709
 10
377.8921801758
 20
25.2739251709
 10
378.2493237305
 20
25.6310687256
 10
378.2493237305
 20
26.345355835
 10
377.8921801758
 20
26.7024993896
 10
377.1183691406
 20
26.7024993896
  0
LWPOLYLINE
  5
2D5
100
AcDbEntity
  8
0
100
AcDbPolyline
 62
2
  6
CONTINUOUS
 90
3
 70
0
 10
321.1036889648
 20
20.4239268494
 10
321.5950817871
 20
22.273927002
 10
322.0865002441
 20
20.4239268494
  0
LINE
  5
2D6
100
AcDbEntity
  8
0
100
AcDbLine
 62
2
  6
CONTINUOUS
 10
321.3002563477
 20
21.0405935669
 11
321.8899328613
 21
21.0405935669
  0
LINE
  5
2D7
100
AcDbEntity
  8
0
100
AcDbLine
 62
2
  6
CONTINUOUS
 10
322.8727441406
 20
20.4239268494
 11
322.8727441406
 21
21.6572602844
  0
LWPOLYLINE
  5
2D8
100
AcDbEntity
  8
0
100
AcDbPolyline
 62
2
  6
CONTINUOUS
 90
5
 70
0
 10
322.8727441406
 20
21.3489285278
 10
323.0693115234
 20
21.6572602844
 10
323.2658789063
 20
21.6572602844
 10
323.4624462891
 20
21.3489285278
 10
323.4624462891
 20
20.4239268494
  0
LWPOLYLINE
  5
2D9
100
AcDbEntity
  8
0
100
AcDbPolyline
 62
2
  6
CONTINUOUS
 90
5
 70
0
 10
324.346973877
 20
21.6572602844
 10
324.7400830078
 20
20.5780943298
 10
324.6417993164
 20
20.1155950928
 10
324.4452575684
 20
19.8072601318
 10
324.2486901855
 20
19.8072601318
  0
LINE
  5
2DA
100
AcDbEntity
  8
0
100
AcDbLine
 62
2
  6
CONTINUOUS
 10
324.7400830078
 20
20.5780943298
 11
325.1332177734
 21
21.6572602844
  0
LINE
  5
2DB
100
AcDbEntity
  8
0
100
AcDbLine
 62
2
  6
CONTINUOUS
 10
327.8850842285
 20
22.273927002
 11
327.8850842285
 21
22.1197595215
  0
LINE
  5
2DC
100
AcDbEntity
  8
0
100
AcDbLine
 62
2
  6
CONTINUOUS
 10
327.8850842285
 20
21.6572602844
 11
327.8850842285
 21
20.4239268494
  0
LINE
  5
2DD
100
AcDbEntity
  8
0
100
AcDbLine
 62
2
  6
CONTINUOUS
 10
329.162746582
 20
20.4239268494
 11
329.162746582
 21
21.6572602844
  0
LWPOLYLINE
  5
2DE
100
AcDbEntity
  8
0
100
AcDbPolyline
 62
2
  6
CONTINUOUS
 90
5
 70
0
 10
329.162746582
 20
21.3489285278
 10
329.3593139648
 20
21.6572602844
 10
329.5558813477
 20
21.6572602844
 10
329.7524230957
 20
21.3489285278
 10
329.7524230957
 20
20.4239268494
  0
LINE
  5
2DF
100
AcDbEntity
  8
0
100
AcDbLine
 62
2
  6
CONTINUOUS
 10
331.0300854492
 20
20.4239268494
 11
331.0300854492
 21
22.273927002
  0
LINE
  5
2E0
100
AcDbEntity
  8
0
100
AcDbLine
 62
2
  6
CONTINUOUS
 10
330.735234375
 20
21.503092804
 11
331.3249365234
 21
21.503092804
  0
LWPOLYLINE
  5
2E1
100
AcDbEntity
  8
0
100
AcDbPolyline
 62
2
  6
CONTINUOUS
 90
11
 70
0
 10
332.8974243164
 20
20.7322618103
 10
332.799140625
 20
20.5780943298
 10
332.602598877
 20
20.4239268494
 10
332.4060314941
 20
20.5780943298
 10
332.2094641113
 20
20.8864260864
 10
332.2094641113
 20
21.1947610474
 10
332.4060314941
 20
21.503092804
 10
332.602598877
 20
21.6572602844
 10
332.799140625
 20
21.503092804
 10
332.8974243164
 20
21.1947610474
 10
332.2094641113
 20
21.1947610474
  0
LWPOLYLINE
  5
2E2
100
AcDbEntity
  8
0
100
AcDbPolyline
 62
2
  6
CONTINUOUS
 90
10
 70
0
 10
334.5682214355
 20
20.8864260864
 10
334.3716540527
 20
20.5780943298
 10
334.1750866699
 20
20.4239268494
 10
333.9785192871
 20
20.5780943298
 10
333.7819775391
 20
20.8864260864
 10
333.7819775391
 20
21.1947610474
 10
333.9785192871
 20
21.503092804
 10
334.1750866699
 20
21.6572602844
 10
334.3716540527
 20
21.503092804
 10
334.5682214355
 20
21.1947610474
  0
LWPOLYLINE
  5
2E3
100
AcDbEntity
  8
0
100
AcDbPolyline
 62
2
  6
CONTINUOUS
 90
6
 70
0
 10
334.5682214355
 20
21.6572602844
 10
334.5682214355
 20
20.2697593689
 10
334.4699377441
 20
19.9614276123
 10
334.3716540527
 20
19.8072601318
 10
333.9785192871
 20
19.8072601318
 10
333.8802355957
 20
19.9614276123
  0
LINE
  5
2E4
100
AcDbEntity
  8
0
100
AcDbLine
 62
2
  6
CONTINUOUS
 10
335.4527490234
 20
20.4239268494
 11
335.4527490234
 21
21.6572602844
  0
LWPOLYLINE
  5
2E5
100
AcDbEntity
  8
0
100
AcDbPolyline
 62
2
  6
CONTINUOUS
 90
4
 70
0
 10
335.4527490234
 20
21.3489285278
 10
335.6493164062
 20
21.6572602844
 10
335.8458837891
 20
21.6572602844
 10
335.9441418457
 20
21.503092804
  0
LWPOLYLINE
  5
2E6
100
AcDbEntity
  8
0
100
AcDbPolyline
 62
2
  6
CONTINUOUS
 90
10
 70
0
 10
337.7132226562
 20
20.8864260864
 10
337.5166552734
 20
20.5780943298
 10
337.3200878906
 20
20.4239268494
 10
337.1235205078
 20
20.5780943298
 10
336.926953125
 20
20.8864260864
 10
336.926953125
 20
21.1947610474
 10
337.1235205078
 20
21.503092804
 10
337.3200878906
 20
21.6572602844
 10
337.5166552734
 20
21.503092804
 10
337.7132226562
 20
21.1947610474
  0
LINE
  5
2E7
100
AcDbEntity
  8
0
100
AcDbLine
 62
2
  6
CONTINUOUS
 10
337.7132226562
 20
21.6572602844
 11
337.7132226562
 21
20.4239268494
  0
LINE
  5
2E8
100
AcDbEntity
  8
0
100
AcDbLine
 62
2
  6
CONTINUOUS
 10
338.8926013184
 20
20.4239268494
 11
338.8926013184
 21
22.273927002
  0
LWPOLYLINE
  5
2E9
100
AcDbEntity
  8
0
100
AcDbPolyline
 62
2
  6
CONTINUOUS
 90
11
 70
0
 10
342.4307116699
 20
20.8864260864
 10
342.2341442871
 20
20.5780943298
 10
342.0376025391
 20
20.4239268494
 10
341.8410351562
 20
20.5780943298
 10
341.6444677734
 20
20.8864260864
 10
341.6444677734
 20
21.1947610474
 10
341.8410351562
 20
21.503092804
 10
342.0376025391
 20
21.6572602844
 10
342.2341442871
 20
21.503092804
 10
342.4307116699
 20
21.1947610474
 10
342.4307116699
 20
20.8864260864
  0
LINE
  5
2EA
100
AcDbEntity
  8
0
100
AcDbLine
 62
2
  6
CONTINUOUS
 10
343.3152392578
 20
20.4239268494
 11
343.3152392578
 21
21.6572602844
  0
LWPOLYLINE
  5
2EB
100
AcDbEntity
  8
0
100
AcDbPolyline
 62
2
  6
CONTINUOUS
 90
4
 70
0
 10
343.3152392578
 20
21.3489285278
 10
343.5118066406
 20
21.6572602844
 10
343.7083740234
 20
21.6572602844
 10
343.8066577148
 20
21.503092804
  0
LWPOLYLINE
  5
2EC
100
AcDbEntity
  8
0
100
AcDbPolyline
 62
2
  6
CONTINUOUS
 90
10
 70
0
 10
346.3619567871
 20
21.1947610474
 10
346.5585241699
 20
21.503092804
 10
346.7550915527
 20
21.6572602844
 10
346.9516589355
 20
21.503092804
 10
347.1482263184
 20
21.1947610474
 10
347.1482263184
 20
20.8864260864
 10
346.9516589355
 20
20.5780943298
 10
346.7550915527
 20
20.4239268494
 10
346.5585241699
 20
20.4239268494
 10
346.3619567871
 20
20.8864260864
  0
LINE
  5
2ED
100
AcDbEntity
  8
0
100
AcDbLine
 62
2
  6
CONTINUOUS
 10
346.3619567871
 20
21.6572602844
 11
346.3619567871
 21
19.8072601318
  0
LWPOLYLINE
  5
2EE
100
AcDbEntity
  8
0
100
AcDbPolyline
 62
2
  6
CONTINUOUS
 90
10
 70
0
 10
348.7207141113
 20
20.8864260864
 10
348.5241467285
 20
20.5780943298
 10
348.3275793457
 20
20.4239268494
 10
348.1310375977
 20
20.5780943298
 10
347.9344702148
 20
20.8864260864
 10
347.9344702148
 20
21.1947610474
 10
348.1310375977
 20
21.503092804
 10
348.3275793457
 20
21.6572602844
 10
348.5241467285
 20
21.503092804
 10
348.7207141113
 20
21.1947610474
  0
LINE
  5
2EF
100
AcDbEntity
  8
0
100
AcDbLine
 62
2
  6
CONTINUOUS
 10
348.7207141113
 20
21.6572602844
 11
348.7207141113
 21
20.4239268494
  0
LINE
  5
2F0
100
AcDbEntity
  8
0
100
AcDbLine
 62
2
  6
CONTINUOUS
 10
349.6052416992
 20
20.4239268494
 11
349.6052416992
 21
21.6572602844
  0
LWPOLYLINE
  5
2F1
100
AcDbEntity
  8
0
100
AcDbPolyline
 62
2
  6
CONTINUOUS
 90
4
 70
0
 10
349.6052416992
 20
21.3489285278
 10
349.801809082
 20
21.6572602844
 10
349.9983764648
 20
21.6572602844
 10
350.0966601562
 20
21.503092804
  0
LINE
  5
2F2
100
AcDbEntity
  8
0
100
AcDbLine
 62
2
  6
CONTINUOUS
 10
351.4725805664
 20
20.4239268494
 11
351.4725805664
 21
22.273927002
  0
LINE
  5
2F3
100
AcDbEntity
  8
0
100
AcDbLine
 62
2
  6
CONTINUOUS
 10
351.177755127
 20
21.503092804
 11
351.7674316406
 21
21.503092804
  0
LINE
  5
2F4
100
AcDbEntity
  8
0
100
AcDbLine
 62
2
  6
CONTINUOUS
 10
353.0450939941
 20
22.273927002
 11
353.0450939941
 21
22.1197595215
  0
LINE
  5
2F5
100
AcDbEntity
  8
0
100
AcDbLine
 62
2
  6
CONTINUOUS
 10
353.0450939941
 20
21.6572602844
 11
353.0450939941
 21
20.4239268494
  0
LWPOLYLINE
  5
2F6
100
AcDbEntity
  8
0
100
AcDbPolyline
 62
2
  6
CONTINUOUS
 90
10
 70
0
 10
355.0107165527
 20
20.8864260864
 10
354.8141491699
 20
20.5780943298
 10
354.6175817871
 20
20.4239268494
 10
354.4210400391
 20
20.5780943298
 10
354.2244726562
 20
20.8864260864
 10
354.2244726562
 20
21.1947610474
 10
354.4210400391
 20
21.503092804
 10
354.6175817871
 20
21.6572602844
 10
354.8141491699
 20
21.503092804
 10
355.0107165527
 20
21.1947610474
  0
LINE
  5
2F7
100
AcDbEntity
  8
0
100
AcDbLine
 62
2
  6
CONTINUOUS
 10
355.0107165527
 20
21.6572602844
 11
355.0107165527
 21
20.4239268494
  0
LINE
  5
2F8
100
AcDbEntity
  8
0
100
AcDbLine
 62
2
  6
CONTINUOUS
 10
356.1900952148
 20
20.4239268494
 11
356.1900952148
 21
22.273927002
  0
LINE
  5
2F9
100
AcDbEntity
  8
0
100
AcDbLine
 62
2
  6
CONTINUOUS
 10
359.0402453613
 20
20.4239268494
 11
359.0402453613
 21
21.6572602844
  0
LWPOLYLINE
  5
2FA
100
AcDbEntity
  8
0
100
AcDbPolyline
 62
2
  6
CONTINUOUS
 90
4
 70
0
 10
359.0402453613
 20
21.3489285278
 10
359.2368127441
 20
21.6572602844
 10
359.433380127
 20
21.6572602844
 10
359.5316638184
 20
21.503092804
  0
LWPOLYLINE
  5
2FB
100
AcDbEntity
  8
0
100
AcDbPolyline
 62
2
  6
CONTINUOUS
 90
11
 70
0
 10
361.2024353027
 20
20.7322618103
 10
361.1041516113
 20
20.5780943298
 10
360.9075842285
 20
20.4239268494
 10
360.7110168457
 20
20.5780943298
 10
360.5144750977
 20
20.8864260864
 10
360.5144750977
 20
21.1947610474
 10
360.7110168457
 20
21.503092804
 10
360.9075842285
 20
21.6572602844
 10
361.1041516113
 20
21.503092804
 10
361.2024353027
 20
21.1947610474
 10
360.5144750977
 20
21.1947610474
  0
LWPOLYLINE
  5
2FC
100
AcDbEntity
  8
0
100
AcDbPolyline
 62
2
  6
CONTINUOUS
 90
10
 70
0
 10
362.0869628906
 20
21.1947610474
 10
362.2835302734
 20
21.503092804
 10
362.4800976562
 20
21.6572602844
 10
362.6766650391
 20
21.503092804
 10
362.8732067871
 20
21.1947610474
 10
362.8732067871
 20
20.8864260864
 10
362.6766650391
 20
20.5780943298
 10
362.4800976562
 20
20.4239268494
 10
362.2835302734
 20
20.4239268494
 10
362.0869628906
 20
20.8864260864
  0
LINE
  5
2FD
100
AcDbEntity
  8
0
100
AcDbLine
 62
2
  6
CONTINUOUS
 10
362.0869628906
 20
21.6572602844
 11
362.0869628906
 21
19.8072601318
  0
LINE
  5
2FE
100
AcDbEntity
  8
0
100
AcDbLine
 62
2
  6
CONTINUOUS
 10
363.757734375
 20
20.4239268494
 11
363.757734375
 21
21.6572602844
  0
LWPOLYLINE
  5
2FF
100
AcDbEntity
  8
0
100
AcDbPolyline
 62
2
  6
CONTINUOUS
 90
4
 70
0
 10
363.757734375
 20
21.3489285278
 10
363.9543017578
 20
21.6572602844
 10
364.1508691406
 20
21.6572602844
 10
364.249152832
 20
21.503092804
  0
LWPOLYLINE
  5
300
100
AcDbEntity
  8
0
100
AcDbPolyline
 62
2
  6
CONTINUOUS
 90
11
 70
0
 10
366.0182080078
 20
20.8864260864
 10
365.821640625
 20
20.5780943298
 10
365.625098877
 20
20.4239268494
 10
365.4285314941
 20
20.5780943298
 10
365.2319641113
 20
20.8864260864
 10
365.2319641113
 20
21.1947610474
 10
365.4285314941
 20
21.503092804
 10
365.625098877
 20
21.6572602844
 10
365.821640625
 20
21.503092804
 10
366.0182080078
 20
21.1947610474
 10
366.0182080078
 20
20.8864260864
  0
LWPOLYLINE
  5
301
100
AcDbEntity
  8
0
100
AcDbPolyline
 62
2
  6
CONTINUOUS
 90
10
 70
0
 10
367.5907214355
 20
20.8864260864
 10
367.3941540527
 20
20.5780943298
 10
367.1975866699
 20
20.4239268494
 10
367.0010192871
 20
20.5780943298
 10
366.8044775391
 20
20.8864260864
 10
366.8044775391
 20
21.1947610474
 10
367.0010192871
 20
21.503092804
 10
367.1975866699
 20
21.6572602844
 10
367.3941540527
 20
21.503092804
 10
367.5907214355
 20
21.1947610474
  0
LINE
  5
302
100
AcDbEntity
  8
0
100
AcDbLine
 62
2
  6
CONTINUOUS
 10
367.5907214355
 20
22.273927002
 11
367.5907214355
 21
20.4239268494
  0
LWPOLYLINE
  5
303
100
AcDbEntity
  8
0
100
AcDbPolyline
 62
2
  6
CONTINUOUS
 90
5
 70
0
 10
368.4752490234
 20
21.6572602844
 10
368.4752490234
 20
20.7322618103
 10
368.6718164063
 20
20.4239268494
 10
368.8683837891
 20
20.4239268494
 10
369.0649255371
 20
20.7322618103
  0
LINE
  5
304
100
AcDbEntity
  8
0
100
AcDbLine
 62
2
  6
CONTINUOUS
 10
369.0649255371
 20
21.6572602844
 11
369.0649255371
 21
20.4239268494
  0
LWPOLYLINE
  5
305
100
AcDbEntity
  8
0
100
AcDbPolyline
 62
2
  6
CONTINUOUS
 90
8
 70
0
 10
370.5391552734
 20
20.5780943298
 10
370.3425878906
 20
20.4239268494
 10
370.1460205078
 20
20.5780943298
 10
369.949453125
 20
20.8864260864
 10
369.949453125
 20
21.1947610474
 10
370.1460205078
 20
21.503092804
 10
370.3425878906
 20
21.6572602844
 10
370.5391552734
 20
21.503092804
  0
LINE
  5
306
100
AcDbEntity
  8
0
100
AcDbLine
 62
2
  6
CONTINUOUS
 10
371.9151013184
 20
20.4239268494
 11
371.9151013184
 21
22.273927002
  0
LINE
  5
307
100
AcDbEntity
  8
0
100
AcDbLine
 62
2
  6
CONTINUOUS
 10
371.6202502441
 20
21.503092804
 11
372.2099267578
 21
21.503092804
  0
LINE
  5
308
100
AcDbEntity
  8
0
100
AcDbLine
 62
2
  6
CONTINUOUS
 10
373.4875891113
 20
22.273927002
 11
373.4875891113
 21
22.1197595215
  0
LINE
  5
309
100
AcDbEntity
  8
0
100
AcDbLine
 62
2
  6
CONTINUOUS
 10
373.4875891113
 20
21.6572602844
 11
373.4875891113
 21
20.4239268494
  0
LWPOLYLINE
  5
30A
100
AcDbEntity
  8
0
100
AcDbPolyline
 62
2
  6
CONTINUOUS
 90
11
 70
0
 10
375.4532116699
 20
20.8864260864
 10
375.2566442871
 20
20.5780943298
 10
375.0601025391
 20
20.4239268494
 10
374.8635351563
 20
20.5780943298
 10
374.6669677734
 20
20.8864260864
 10
374.6669677734
 20
21.1947610474
 10
374.8635351563
 20
21.503092804
 10
375.0601025391
 20
21.6572602844
 10
375.2566442871
 20
21.503092804
 10
375.4532116699
 20
21.1947610474
 10
375.4532116699
 20
20.8864260864
  0
LINE
  5
30B
100
AcDbEntity
  8
0
100
AcDbLine
 62
2
  6
CONTINUOUS
 10
376.3377392578
 20
20.4239268494
 11
376.3377392578
 21
21.6572602844
  0
LWPOLYLINE
  5
30C
100
AcDbEntity
  8
0
100
AcDbPolyline
 62
2
  6
CONTINUOUS
 90
5
 70
0
 10
376.3377392578
 20
21.3489285278
 10
376.5343066406
 20
21.6572602844
 10
376.7308740234
 20
21.6572602844
 10
376.9274414063
 20
21.3489285278
 10
376.9274414063
 20
20.4239268494
  0
LWPOLYLINE
  5
30D
100
AcDbEntity
  8
0
100
AcDbPolyline
 62
2
  6
CONTINUOUS
 90
14
 70
0
 10
378.4016455078
 20
21.503092804
 10
378.3033618164
 20
21.6572602844
 10
378.1068200684
 20
21.6572602844
 10
378.008536377
 20
21.503092804
 10
378.008536377
 20
21.3489285278
 10
378.205078125
 20
21.1947610474
 10
378.4016455078
 20
21.0405935669
 10
378.4999291992
 20
20.8864260864
 10
378.4999291992
 20
20.7322618103
 10
378.4016455078
 20
20.5780943298
 10
378.3033618164
 20
20.4239268494
 10
378.1068200684
 20
20.4239268494
 10
378.008536377
 20
20.5780943298
 10
377.9102526855
 20
20.7322618103
  0
LWPOLYLINE
  5
30E
100
AcDbEntity
  8
0
100
AcDbPolyline
 62
2
  6
CONTINUOUS
 90
10
 70
0
 10
381.7432141113
 20
20.8864260864
 10
381.5466467285
 20
20.5780943298
 10
381.3500793457
 20
20.4239268494
 10
381.1535375977
 20
20.5780943298
 10
380.9569702148
 20
20.8864260864
 10
380.9569702148
 20
21.1947610474
 10
381.1535375977
 20
21.503092804
 10
381.3500793457
 20
21.6572602844
 10
381.5466467285
 20
21.503092804
 10
381.7432141113
 20
21.1947610474
  0
LINE
  5
30F
100
AcDbEntity
  8
0
100
AcDbLine
 62
2
  6
CONTINUOUS
 10
381.7432141113
 20
21.6572602844
 11
381.7432141113
 21
20.4239268494
  0
LINE
  5
310
100
AcDbEntity
  8
0
100
AcDbLine
 62
2
  6
CONTINUOUS
 10
382.6277416992
 20
20.4239268494
 11
382.6277416992
 21
21.6572602844
  0
LWPOLYLINE
  5
311
100
AcDbEntity
  8
0
100
AcDbPolyline
 62
2
  6
CONTINUOUS
 90
4
 70
0
 10
382.6277416992
 20
21.3489285278
 10
382.824309082
 20
21.6572602844
 10
383.0208764648
 20
21.6572602844
 10
383.1191601562
 20
21.503092804
  0
LWPOLYLINE
  5
312
100
AcDbEntity
  8
0
100
AcDbPolyline
 62
2
  6
CONTINUOUS
 90
11
 70
0
 10
384.7899316406
 20
20.7322618103
 10
384.6916479492
 20
20.5780943298
 10
384.4950805664
 20
20.4239268494
 10
384.2985388184
 20
20.5780943298
 10
384.1019714355
 20
20.8864260864
 10
384.1019714355
 20
21.1947610474
 10
384.2985388184
 20
21.503092804
 10
384.4950805664
 20
21.6572602844
 10
384.6916479492
 20
21.503092804
 10
384.7899316406
 20
21.1947610474
 10
384.1019714355
 20
21.1947610474
  0
LWPOLYLINE
  5
313
100
AcDbEntity
  8
0
100
AcDbPolyline
 62
2
  6
CONTINUOUS
 90
10
 70
0
 10
387.2469726562
 20
21.1947610474
 10
387.4435400391
 20
21.503092804
 10
387.6400817871
 20
21.6572602844
 10
387.8366491699
 20
21.503092804
 10
388.0332165527
 20
21.1947610474
 10
388.0332165527
 20
20.8864260864
 10
387.8366491699
 20
20.5780943298
 10
387.6400817871
 20
20.4239268494
 10
387.4435400391
 20
20.4239268494
 10
387.2469726562
 20
20.8864260864
  0
LINE
  5
314
100
AcDbEntity
  8
0
100
AcDbLine
 62
2
  6
CONTINUOUS
 10
387.2469726562
 20
21.6572602844
 11
387.2469726562
 21
19.8072601318
  0
LINE
  5
315
100
AcDbEntity
  8
0
100
AcDbLine
 62
2
  6
CONTINUOUS
 10
388.9177441406
 20
20.4239268494
 11
388.9177441406
 21
21.6572602844
  0
LWPOLYLINE
  5
316
100
AcDbEntity
  8
0
100
AcDbPolyline
 62
2
  6
CONTINUOUS
 90
4
 70
0
 10
388.9177441406
 20
21.3489285278
 10
389.1143115234
 20
21.6572602844
 10
389.3108789062
 20
21.6572602844
 10
389.4091625977
 20
21.503092804
  0
LWPOLYLINE
  5
317
100
AcDbEntity
  8
0
100
AcDbPolyline
 62
2
  6
CONTINUOUS
 90
11
 70
0
 10
391.1782177734
 20
20.8864260864
 10
390.9816503906
 20
20.5780943298
 10
390.7850830078
 20
20.4239268494
 10
390.588515625
 20
20.5780943298
 10
390.391973877
 20
20.8864260864
 10
390.391973877
 20
21.1947610474
 10
390.588515625
 20
21.503092804
 10
390.7850830078
 20
21.6572602844
 10
390.9816503906
 20
21.503092804
 10
391.1782177734
 20
21.1947610474
 10
391.1782177734
 20
20.8864260864
  0
LINE
  5
318
100
AcDbEntity
  8
0
100
AcDbLine
 62
2
  6
CONTINUOUS
 10
392.0627453613
 20
20.4239268494
 11
392.0627453613
 21
22.273927002
  0
LWPOLYLINE
  5
319
100
AcDbEntity
  8
0
100
AcDbPolyline
 62
2
  6
CONTINUOUS
 90
7
 70
0
 10
392.0627453613
 20
21.3489285278
 10
392.0627453613
 20
21.503092804
 10
392.2593127441
 20
21.6572602844
 10
392.3575964355
 20
21.6572602844
 10
392.455880127
 20
21.6572602844
 10
392.652421875
 20
21.3489285278
 10
392.652421875
 20
20.4239268494
  0
LINE
  5
31A
100
AcDbEntity
  8
0
100
AcDbLine
 62
2
  6
CONTINUOUS
 10
393.9300842285
 20
22.273927002
 11
393.9300842285
 21
22.1197595215
  0
LINE
  5
31B
100
AcDbEntity
  8
0
100
AcDbLine
 62
2
  6
CONTINUOUS
 10
393.9300842285
 20
21.6572602844
 11
393.9300842285
 21
20.4239268494
  0
LWPOLYLINE
  5
31C
100
AcDbEntity
  8
0
100
AcDbPolyline
 62
2
  6
CONTINUOUS
 90
10
 70
0
 10
395.1094628906
 20
21.1947610474
 10
395.3060302734
 20
21.503092804
 10
395.5025976562
 20
21.6572602844
 10
395.6991650391
 20
21.503092804
 10
395.8957067871
 20
21.1947610474
 10
395.8957067871
 20
20.8864260864
 10
395.6991650391
 20
20.5780943298
 10
395.5025976562
 20
20.4239268494
 10
395.3060302734
 20
20.5780943298
 10
395.1094628906
 20
20.8864260864
  0
LINE
  5
31D
100
AcDbEntity
  8
0
100
AcDbLine
 62
2
  6
CONTINUOUS
 10
395.1094628906
 20
22.273927002
 11
395.1094628906
 21
20.4239268494
  0
LINE
  5
31E
100
AcDbEntity
  8
0
100
AcDbLine
 62
2
  6
CONTINUOUS
 10
397.0750854492
 20
22.273927002
 11
397.0750854492
 21
22.1197595215
  0
LINE
  5
31F
100
AcDbEntity
  8
0
100
AcDbLine
 62
2
  6
CONTINUOUS
 10
397.0750854492
 20
21.6572602844
 11
397.0750854492
 21
20.4239268494
  0
LINE
  5
320
100
AcDbEntity
  8
0
100
AcDbLine
 62
2
  6
CONTINUOUS
 10
398.647598877
 20
20.4239268494
 11
398.647598877
 21
22.273927002
  0
LINE
  5
321
100
AcDbEntity
  8
0
100
AcDbLine
 62
2
  6
CONTINUOUS
 10
398.3527478027
 20
21.503092804
 11
398.9424243164
 21
21.503092804
  0
LWPOLYLINE
  5
322
100
AcDbEntity
  8
0
100
AcDbPolyline
 62
2
  6
CONTINUOUS
 90
11
 70
0
 10
400.5149377441
 20
20.7322618103
 10
400.4166540527
 20
20.5780943298
 10
400.2200866699
 20
20.4239268494
 10
400.0235192871
 20
20.5780943298
 10
399.8269775391
 20
20.8864260864
 10
399.8269775391
 20
21.1947610474
 10
400.0235192871
 20
21.503092804
 10
400.2200866699
 20
21.6572602844
 10
400.4166540527
 20
21.503092804
 10
400.5149377441
 20
21.1947610474
 10
399.8269775391
 20
21.1947610474
  0
LWPOLYLINE
  5
323
100
AcDbEntity
  8
0
100
AcDbPolyline
 62
2
  6
CONTINUOUS
 90
10
 70
0
 10
402.1857092285
 20
20.8864260864
 10
401.9891418457
 20
20.5780943298
 10
401.7926000977
 20
20.4239268494
 10
401.5960327148
 20
20.5780943298
 10
401.399465332
 20
20.8864260864
 10
401.399465332
 20
21.1947610474
 10
401.5960327148
 20
21.503092804
 10
401.7926000977
 20
21.6572602844
 10
401.9891418457
 20
21.503092804
 10
402.1857092285
 20
21.1947610474
  0
LINE
  5
324
100
AcDbEntity
  8
0
100
AcDbLine
 62
2
  6
CONTINUOUS
 10
402.1857092285
 20
22.273927002
 11
402.1857092285
 21
20.4239268494
  0
LWPOLYLINE
  5
325
100
AcDbEntity
  8
0
100
AcDbPolyline
 62
2
  6
CONTINUOUS
 90
5
 70
0
 10
321.1036889648
 20
18.8822616577
 10
321.3002563477
 20
17.6489282227
 10
321.5950817871
 20
18.8822616577
 10
321.7916491699
 20
17.6489282227
 10
322.0865002441
 20
18.8822616577
  0
LINE
  5
326
100
AcDbEntity
  8
0
100
AcDbLine
 62
2
  6
CONTINUOUS
 10
323.1675952148
 20
19.4989283752
 11
323.1675952148
 21
19.3447608948
  0
LINE
  5
327
100
AcDbEntity
  8
0
100
AcDbLine
 62
2
  6
CONTINUOUS
 10
323.1675952148
 20
18.8822616577
 11
323.1675952148
 21
17.6489282227
  0
LINE
  5
328
100
AcDbEntity
  8
0
100
AcDbLine
 62
2
  6
CONTINUOUS
 10
324.7400830078
 20
17.6489282227
 11
324.7400830078
 21
19.4989283752
  0
LINE
  5
329
100
AcDbEntity
  8
0
100
AcDbLine
 62
2
  6
CONTINUOUS
 10
324.4452575684
 20
18.7280941772
 11
325.034934082
 21
18.7280941772
  0
LINE
  5
32A
100
AcDbEntity
  8
0
100
AcDbLine
 62
2
  6
CONTINUOUS
 10
326.0177453613
 20
17.6489282227
 11
326.0177453613
 21
19.4989283752
  0
LWPOLYLINE
  5
32B
100
AcDbEntity
  8
0
100
AcDbPolyline
 62
2
  6
CONTINUOUS
 90
7
 70
0
 10
326.0177453613
 20
18.5739266968
 10
326.0177453613
 20
18.7280941772
 10
326.2143127441
 20
18.8822616577
 10
326.3125964355
 20
18.8822616577
 10
326.410880127
 20
18.8822616577
 10
326.607421875
 20
18.5739266968
 10
326.607421875
 20
17.6489282227
  0
LWPOLYLINE
  5
32C
100
AcDbEntity
  8
0
100
AcDbPolyline
 62
2
  6
CONTINUOUS
 90
11
 70
0
 10
328.2782189941
 20
18.1114274597
 10
328.0816516113
 20
17.8030924988
 10
327.8850842285
 20
17.6489282227
 10
327.6885168457
 20
17.8030924988
 10
327.4919750977
 20
18.1114274597
 10
327.4919750977
 20
18.4197592163
 10
327.6885168457
 20
18.7280941772
 10
327.8850842285
 20
18.8822616577
 10
328.0816516113
 20
18.7280941772
 10
328.2782189941
 20
18.4197592163
 10
328.2782189941
 20
18.1114274597
  0
LWPOLYLINE
  5
32D
100
AcDbEntity
  8
0
100
AcDbPolyline
 62
2
  6
CONTINUOUS
 90
5
 70
0
 10
329.162746582
 20
18.8822616577
 10
329.162746582
 20
17.9572599792
 10
329.3593139648
 20
17.6489282227
 10
329.5558813477
 20
17.6489282227
 10
329.7524230957
 20
17.9572599792
  0
LINE
  5
32E
100
AcDbEntity
  8
0
100
AcDbLine
 62
2
  6
CONTINUOUS
 10
329.7524230957
 20
18.8822616577
 11
329.7524230957
 21
17.6489282227
  0
LINE
  5
32F
100
AcDbEntity
  8
0
100
AcDbLine
 62
2
  6
CONTINUOUS
 10
331.0300854492
 20
17.6489282227
 11
331.0300854492
 21
19.4989283752
  0
LINE
  5
330
100
AcDbEntity
  8
0
100
AcDbLine
 62
2
  6
CONTINUOUS
 10
330.735234375
 20
18.7280941772
 11
331.3249365234
 21
18.7280941772
  0
LWPOLYLINE
  5
331
100
AcDbEntity
  8
0
100
AcDbPolyline
 62
2
  6
CONTINUOUS
 90
10
 70
0
 10
333.7819775391
 20
18.4197592163
 10
333.9785192871
 20
18.7280941772
 10
334.1750866699
 20
18.8822616577
 10
334.3716540527
 20
18.7280941772
 10
334.5682214355
 20
18.4197592163
 10
334.5682214355
 20
18.1114274597
 10
334.3716540527
 20
17.8030924988
 10
334.1750866699
 20
17.6489282227
 10
333.9785192871
 20
17.6489282227
 10
333.7819775391
 20
18.1114274597
  0
LINE
  5
332
100
AcDbEntity
  8
0
100
AcDbLine
 62
2
  6
CONTINUOUS
 10
333.7819775391
 20
18.8822616577
 11
333.7819775391
 21
17.0322615051
  0
LINE
  5
333
100
AcDbEntity
  8
0
100
AcDbLine
 62
2
  6
CONTINUOUS
 10
335.4527490234
 20
17.6489282227
 11
335.4527490234
 21
18.8822616577
  0
LWPOLYLINE
  5
334
100
AcDbEntity
  8
0
100
AcDbPolyline
 62
2
  6
CONTINUOUS
 90
4
 70
0
 10
335.4527490234
 20
18.5739266968
 10
335.6493164062
 20
18.8822616577
 10
335.8458837891
 20
18.8822616577
 10
335.9441418457
 20
18.7280941772
  0
LINE
  5
335
100
AcDbEntity
  8
0
100
AcDbLine
 62
2
  6
CONTINUOUS
 10
337.3200878906
 20
19.4989283752
 11
337.3200878906
 21
19.3447608948
  0
LINE
  5
336
100
AcDbEntity
  8
0
100
AcDbLine
 62
2
  6
CONTINUOUS
 10
337.3200878906
 20
18.8822616577
 11
337.3200878906
 21
17.6489282227
  0
LWPOLYLINE
  5
337
100
AcDbEntity
  8
0
100
AcDbPolyline
 62
2
  6
CONTINUOUS
 90
11
 70
0
 10
339.2857104492
 20
18.1114274597
 10
339.0891430664
 20
17.8030924988
 10
338.8926013184
 20
17.6489282227
 10
338.6960339355
 20
17.8030924988
 10
338.4994665527
 20
18.1114274597
 10
338.4994665527
 20
18.4197592163
 10
338.6960339355
 20
18.7280941772
 10
338.8926013184
 20
18.8822616577
 10
339.0891430664
 20
18.7280941772
 10
339.2857104492
 20
18.4197592163
 10
339.2857104492
 20
18.1114274597
  0
LINE
  5
338
100
AcDbEntity
  8
0
100
AcDbLine
 62
2
  6
CONTINUOUS
 10
340.1702380371
 20
17.6489282227
 11
340.1702380371
 21
18.8822616577
  0
LWPOLYLINE
  5
339
100
AcDbEntity
  8
0
100
AcDbPolyline
 62
2
  6
CONTINUOUS
 90
4
 70
0
 10
340.1702380371
 20
18.5739266968
 10
340.3668054199
 20
18.8822616577
 10
340.5633728027
 20
18.8822616577
 10
340.6616564941
 20
18.7280941772
  0
LWPOLYLINE
  5
33A
100
AcDbEntity
  8
0
100
AcDbPolyline
 62
2
  6
CONTINUOUS
 90
10
 70
0
 10
344.0032250977
 20
18.1114274597
 10
343.8066577148
 20
17.8030924988
 10
343.610090332
 20
17.6489282227
 10
343.4135229492
 20
17.8030924988
 10
343.2169555664
 20
18.1114274597
 10
343.2169555664
 20
18.4197592163
 10
343.4135229492
 20
18.7280941772
 10
343.610090332
 20
18.8822616577
 10
343.8066577148
 20
18.7280941772
 10
344.0032250977
 20
18.4197592163
  0
LINE
  5
33B
100
AcDbEntity
  8
0
100
AcDbLine
 62
2
  6
CONTINUOUS
 10
344.0032250977
 20
18.8822616577
 11
344.0032250977
 21
17.6489282227
  0
LWPOLYLINE
  5
33C
100
AcDbEntity
  8
0
100
AcDbPolyline
 62
2
  6
CONTINUOUS
 90
5
 70
0
 10
344.8877526855
 20
18.8822616577
 10
344.8877526855
 20
17.9572599792
 10
345.0843200684
 20
17.6489282227
 10
345.2808618164
 20
17.6489282227
 10
345.4774291992
 20
17.9572599792
  0
LINE
  5
33D
100
AcDbEntity
  8
0
100
AcDbLine
 62
2
  6
CONTINUOUS
 10
345.4774291992
 20
18.8822616577
 11
345.4774291992
 21
17.6489282227
  0
LINE
  5
33E
100
AcDbEntity
  8
0
100
AcDbLine
 62
2
  6
CONTINUOUS
 10
346.7550915527
 20
17.6489282227
 11
346.7550915527
 21
19.4989283752
  0
LINE
  5
33F
100
AcDbEntity
  8
0
100
AcDbLine
 62
2
  6
CONTINUOUS
 10
346.4602404785
 20
18.7280941772
 11
347.049942627
 21
18.7280941772
  0
LINE
  5
340
100
AcDbEntity
  8
0
100
AcDbLine
 62
2
  6
CONTINUOUS
 10
348.0327539062
 20
17.6489282227
 11
348.0327539062
 21
19.4989283752
  0
LWPOLYLINE
  5
341
100
AcDbEntity
  8
0
100
AcDbPolyline
 62
2
  6
CONTINUOUS
 90
7
 70
0
 10
348.0327539062
 20
18.5739266968
 10
348.0327539062
 20
18.7280941772
 10
348.2293212891
 20
18.8822616577
 10
348.3275793457
 20
18.8822616577
 10
348.4258630371
 20
18.8822616577
 10
348.6224304199
 20
18.5739266968
 10
348.6224304199
 20
17.6489282227
  0
LWPOLYLINE
  5
342
100
AcDbEntity
  8
0
100
AcDbPolyline
 62
2
  6
CONTINUOUS
 90
11
 70
0
 10
350.2932275391
 20
18.1114274597
 10
350.0966601562
 20
17.8030924988
 10
349.9000927734
 20
17.6489282227
 10
349.7035253906
 20
17.8030924988
 10
349.5069580078
 20
18.1114274597
 10
349.5069580078
 20
18.4197592163
 10
349.7035253906
 20
18.7280941772
 10
349.9000927734
 20
18.8822616577
 10
350.0966601562
 20
18.7280941772
 10
350.2932275391
 20
18.4197592163
 10
350.2932275391
 20
18.1114274597
  0
LINE
  5
343
100
AcDbEntity
  8
0
100
AcDbLine
 62
2
  6
CONTINUOUS
 10
351.177755127
 20
17.6489282227
 11
351.177755127
 21
18.8822616577
  0
LWPOLYLINE
  5
344
100
AcDbEntity
  8
0
100
AcDbPolyline
 62
2
  6
CONTINUOUS
 90
4
 70
0
 10
351.177755127
 20
18.5739266968
 10
351.374296875
 20
18.8822616577
 10
351.5708642578
 20
18.8822616577
 10
351.6691479492
 20
18.7280941772
  0
LINE
  5
345
100
AcDbEntity
  8
0
100
AcDbLine
 62
2
  6
CONTINUOUS
 10
353.0450939941
 20
19.4989283752
 11
353.0450939941
 21
19.3447608948
  0
LINE
  5
346
100
AcDbEntity
  8
0
100
AcDbLine
 62
2
  6
CONTINUOUS
 10
353.0450939941
 20
18.8822616577
 11
353.0450939941
 21
17.6489282227
  0
LWPOLYLINE
  5
347
100
AcDbEntity
  8
0
100
AcDbPolyline
 62
2
  6
CONTINUOUS
 90
14
 70
0
 10
354.8141491699
 20
18.7280941772
 10
354.7158654785
 20
18.8822616577
 10
354.5192980957
 20
18.8822616577
 10
354.4210400391
 20
18.7280941772
 10
354.4210400391
 20
18.5739266968
 10
354.6175817871
 20
18.4197592163
 10
354.8141491699
 20
18.2655949402
 10
354.9124328613
 20
18.1114274597
 10
354.9124328613
 20
17.9572599792
 10
354.8141491699
 20
17.8030924988
 10
354.7158654785
 20
17.6489282227
 10
354.5192980957
 20
17.6489282227
 10
354.4210400391
 20
17.8030924988
 10
354.3227563477
 20
17.9572599792
  0
LWPOLYLINE
  5
348
100
AcDbEntity
  8
0
100
AcDbPolyline
 62
2
  6
CONTINUOUS
 90
10
 70
0
 10
356.5832043457
 20
18.1114274597
 10
356.3866625977
 20
17.8030924988
 10
356.1900952148
 20
17.6489282227
 10
355.993527832
 20
17.8030924988
 10
355.7969604492
 20
18.1114274597
 10
355.7969604492
 20
18.4197592163
 10
355.993527832
 20
18.7280941772
 10
356.1900952148
 20
18.8822616577
 10
356.3866625977
 20
18.7280941772
 10
356.5832043457
 20
18.4197592163
  0
LINE
  5
349
100
AcDbEntity
  8
0
100
AcDbLine
 62
2
  6
CONTINUOUS
 10
356.5832043457
 20
18.8822616577
 11
356.5832043457
 21
17.6489282227
  0
LINE
  5
34A
100
AcDbEntity
  8
0
100
AcDbLine
 62
2
  6
CONTINUOUS
 10
357.7625830078
 20
17.6489282227
 11
357.7625830078
 21
19.4989283752
  0
LINE
  5
34B
100
AcDbEntity
  8
0
100
AcDbLine
 62
2
  6
CONTINUOUS
 10
357.4677575684
 20
18.7280941772
 11
358.057434082
 21
18.7280941772
  0
LINE
  5
34C
100
AcDbEntity
  8
0
100
AcDbLine
 62
2
  6
CONTINUOUS
 10
359.3350964355
 20
19.4989283752
 11
359.3350964355
 21
19.3447608948
  0
LINE
  5
34D
100
AcDbEntity
  8
0
100
AcDbLine
 62
2
  6
CONTINUOUS
 10
359.3350964355
 20
18.8822616577
 11
359.3350964355
 21
17.6489282227
  0
LWPOLYLINE
  5
34E
100
AcDbEntity
  8
0
100
AcDbPolyline
 62
2
  6
CONTINUOUS
 90
11
 70
0
 10
361.3007189941
 20
18.1114274597
 10
361.1041516113
 20
17.8030924988
 10
360.9075842285
 20
17.6489282227
 10
360.7110168457
 20
17.8030924988
 10
360.5144750977
 20
18.1114274597
 10
360.5144750977
 20
18.4197592163
 10
360.7110168457
 20
18.7280941772
 10
360.9075842285
 20
18.8822616577
 10
361.1041516113
 20
18.7280941772
 10
361.3007189941
 20
18.4197592163
 10
361.3007189941
 20
18.1114274597
  0
LINE
  5
34F
100
AcDbEntity
  8
0
100
AcDbLine
 62
2
  6
CONTINUOUS
 10
362.185246582
 20
17.6489282227
 11
362.185246582
 21
18.8822616577
  0
LWPOLYLINE
  5
350
100
AcDbEntity
  8
0
100
AcDbPolyline
 62
2
  6
CONTINUOUS
 90
5
 70
0
 10
362.185246582
 20
18.5739266968
 10
362.3818139648
 20
18.8822616577
 10
362.5783813477
 20
18.8822616577
 10
362.7749230957
 20
18.5739266968
 10
362.7749230957
 20
17.6489282227
  0
LWPOLYLINE
  5
351
100
AcDbEntity
  8
0
100
AcDbPolyline
 62
2
  6
CONTINUOUS
 90
11
 70
0
 10
366.0182080078
 20
18.1114274597
 10
365.821640625
 20
17.8030924988
 10
365.625098877
 20
17.6489282227
 10
365.4285314941
 20
17.8030924988
 10
365.2319641113
 20
18.1114274597
 10
365.2319641113
 20
18.4197592163
 10
365.4285314941
 20
18.7280941772
 10
365.625098877
 20
18.8822616577
 10
365.821640625
 20
18.7280941772
 10
366.0182080078
 20
18.4197592163
 10
366.0182080078
 20
18.1114274597
  0
LWPOLYLINE
  5
352
100
AcDbEntity
  8
0
100
AcDbPolyline
 62
2
  6
CONTINUOUS
 90
5
 70
0
 10
367.1975866699
 20
17.6489282227
 10
367.1975866699
 20
19.1905934143
 10
367.3941540527
 20
19.4989283752
 10
367.4924377441
 20
19.4989283752
 10
367.5907214355
 20
19.3447608948
  0
LINE
  5
353
100
AcDbEntity
  8
0
100
AcDbLine
 62
2
  6
CONTINUOUS
 10
367.0010192871
 20
18.7280941772
 11
367.3941540527
 21
18.7280941772
  0
LWPOLYLINE
  5
354
100
AcDbEntity
  8
0
100
AcDbPolyline
 62
2
  6
CONTINUOUS
 90
3
 70
0
 10
369.949453125
 20
19.4989283752
 10
369.949453125
 20
17.6489282227
 10
370.7357226563
 20
17.6489282227
  0
LWPOLYLINE
  5
355
100
AcDbEntity
  8
0
100
AcDbPolyline
 62
2
  6
CONTINUOUS
 90
19
 70
0
 10
373.9790075684
 20
18.1114274597
 10
373.880723877
 20
17.9572599792
 10
373.7824401855
 20
17.8030924988
 10
373.5858728027
 20
17.6489282227
 10
373.3893054199
 20
17.6489282227
 10
373.1927380371
 20
17.8030924988
 10
373.0944543457
 20
17.9572599792
 10
373.0944543457
 20
18.2655949402
 10
373.4875891113
 20
18.7280941772
 10
373.6841564941
 20
19.0364259338
 10
373.6841564941
 20
19.3447608948
 10
373.5858728027
 20
19.4989283752
 10
373.3893054199
 20
19.4989283752
 10
373.2910217285
 20
19.3447608948
 10
373.2910217285
 20
19.0364259338
 10
373.4875891113
 20
18.7280941772
 10
373.880723877
 20
17.9572599792
 10
373.9790075684
 20
17.8030924988
 10
374.077265625
 20
17.8030924988
  0
LWPOLYLINE
  5
356
100
AcDbEntity
  8
0
100
AcDbPolyline
 62
2
  6
CONTINUOUS
 90
3
 70
0
 10
376.2394555664
 20
19.4989283752
 10
376.2394555664
 20
17.6489282227
 10
377.0257250977
 20
17.6489282227
  0
LWPOLYLINE
  5
357
100
AcDbEntity
  8
0
100
AcDbPolyline
 62
2
  6
CONTINUOUS
 90
3
 70
0
 10
379.3844567871
 20
19.4989283752
 10
379.3844567871
 20
17.6489282227
 10
380.1707263184
 20
17.6489282227
  0
LWPOLYLINE
  5
358
100
AcDbEntity
  8
0
100
AcDbPolyline
 62
2
  6
CONTINUOUS
 90
5
 70
0
 10
381.0552539062
 20
18.8822616577
 10
381.0552539062
 20
17.9572599792
 10
381.2518212891
 20
17.6489282227
 10
381.4483630371
 20
17.6489282227
 10
381.6449304199
 20
17.9572599792
  0
LINE
  5
359
100
AcDbEntity
  8
0
100
AcDbLine
 62
2
  6
CONTINUOUS
 10
381.6449304199
 20
18.8822616577
 11
381.6449304199
 21
17.6489282227
  0
LWPOLYLINE
  5
35A
100
AcDbEntity
  8
0
100
AcDbPolyline
 62
2
  6
CONTINUOUS
 90
8
 70
0
 10
383.1191601562
 20
17.8030924988
 10
382.9225927734
 20
17.6489282227
 10
382.7260253906
 20
17.8030924988
 10
382.5294580078
 20
18.1114274597
 10
382.5294580078
 20
18.4197592163
 10
382.7260253906
 20
18.7280941772
 10
382.9225927734
 20
18.8822616577
 10
383.1191601562
 20
18.7280941772
  0
LWPOLYLINE
  5
35B
100
AcDbEntity
  8
0
100
AcDbPolyline
 62
2
  6
CONTINUOUS
 90
11
 70
0
 10
384.7899316406
 20
17.9572599792
 10
384.6916479492
 20
17.8030924988
 10
384.4950805664
 20
17.6489282227
 10
384.2985388184
 20
17.8030924988
 10
384.1019714355
 20
18.1114274597
 10
384.1019714355
 20
18.4197592163
 10
384.2985388184
 20
18.7280941772
 10
384.4950805664
 20
18.8822616577
 10
384.6916479492
 20
18.7280941772
 10
384.7899316406
 20
18.4197592163
 10
384.1019714355
 20
18.4197592163
  0
LWPOLYLINE
  5
35C
100
AcDbEntity
  8
0
100
AcDbPolyline
 62
2
  6
CONTINUOUS
 90
19
 70
0
 10
388.1315002441
 20
18.1114274597
 10
388.0332165527
 20
17.9572599792
 10
387.9349328613
 20
17.8030924988
 10
387.7383654785
 20
17.6489282227
 10
387.5417980957
 20
17.6489282227
 10
387.3452563477
 20
17.8030924988
 10
387.2469726562
 20
17.9572599792
 10
387.2469726562
 20
18.2655949402
 10
387.6400817871
 20
18.7280941772
 10
387.8366491699
 20
19.0364259338
 10
387.8366491699
 20
19.3447608948
 10
387.7383654785
 20
19.4989283752
 10
387.5417980957
 20
19.4989283752
 10
387.4435400391
 20
19.3447608948
 10
387.4435400391
 20
19.0364259338
 10
387.6400817871
 20
18.7280941772
 10
388.0332165527
 20
17.9572599792
 10
388.1315002441
 20
17.8030924988
 10
388.2297839355
 20
17.8030924988
  0
LWPOLYLINE
  5
35D
100
AcDbEntity
  8
0
100
AcDbPolyline
 62
2
  6
CONTINUOUS
 90
3
 70
0
 10
390.391973877
 20
19.4989283752
 10
390.391973877
 20
17.6489282227
 10
391.1782177734
 20
17.6489282227
  0
LINE
  5
35E
100
AcDbEntity
  8
0
100
AcDbLine
 62
2
  6
CONTINUOUS
 10
392.3575964355
 20
19.4989283752
 11
392.3575964355
 21
19.3447608948
  0
LINE
  5
35F
100
AcDbEntity
  8
0
100
AcDbLine
 62
2
  6
CONTINUOUS
 10
392.3575964355
 20
18.8822616577
 11
392.3575964355
 21
17.6489282227
  0
LWPOLYLINE
  5
360
100
AcDbEntity
  8
0
100
AcDbPolyline
 62
2
  6
CONTINUOUS
 90
10
 70
0
 10
394.3232189941
 20
18.1114274597
 10
394.1266516113
 20
17.8030924988
 10
393.9300842285
 20
17.6489282227
 10
393.7335168457
 20
17.8030924988
 10
393.5369750977
 20
18.1114274597
 10
393.5369750977
 20
18.4197592163
 10
393.7335168457
 20
18.7280941772
 10
393.9300842285
 20
18.8822616577
 10
394.1266516113
 20
18.7280941772
 10
394.3232189941
 20
18.4197592163
  0
LWPOLYLINE
  5
361
100
AcDbEntity
  8
0
100
AcDbPolyline
 62
2
  6
CONTINUOUS
 90
6
 70
0
 10
394.3232189941
 20
18.8822616577
 10
394.3232189941
 20
17.4947607422
 10
394.2249353027
 20
17.1864257812
 10
394.1266516113
 20
17.0322615051
 10
393.7335168457
 20
17.0322615051
 10
393.6352587891
 20
17.1864257812
  0
LINE
  5
362
100
AcDbEntity
  8
0
100
AcDbLine
 62
2
  6
CONTINUOUS
 10
395.207746582
 20
17.6489282227
 11
395.207746582
 21
19.4989283752
  0
LWPOLYLINE
  5
363
100
AcDbEntity
  8
0
100
AcDbPolyline
 62
2
  6
CONTINUOUS
 90
7
 70
0
 10
395.207746582
 20
18.5739266968
 10
395.207746582
 20
18.7280941772
 10
395.4043139648
 20
18.8822616577
 10
395.5025976562
 20
18.8822616577
 10
395.6008813477
 20
18.8822616577
 10
395.7974230957
 20
18.5739266968
 10
395.7974230957
 20
17.6489282227
  0
LINE
  5
364
100
AcDbEntity
  8
0
100
AcDbLine
 62
2
  6
CONTINUOUS
 10
397.0750854492
 20
17.6489282227
 11
397.0750854492
 21
19.4989283752
  0
LINE
  5
365
100
AcDbEntity
  8
0
100
AcDbLine
 62
2
  6
CONTINUOUS
 10
396.780234375
 20
18.7280941772
 11
397.3699365234
 21
18.7280941772
  0
LWPOLYLINE
  5
366
100
AcDbEntity
  8
0
100
AcDbPolyline
 62
2
  6
CONTINUOUS
 90
14
 70
0
 10
400.4166540527
 20
18.7280941772
 10
400.3183703613
 20
18.8822616577
 10
400.1218029785
 20
18.8822616577
 10
400.0235192871
 20
18.7280941772
 10
400.0235192871
 20
18.5739266968
 10
400.2200866699
 20
18.4197592163
 10
400.4166540527
 20
18.2655949402
 10
400.5149377441
 20
18.1114274597
 10
400.5149377441
 20
17.9572599792
 10
400.4166540527
 20
17.8030924988
 10
400.3183703613
 20
17.6489282227
 10
400.1218029785
 20
17.6489282227
 10
400.0235192871
 20
17.8030924988
 10
399.9252355957
 20
17.9572599792
  0
LWPOLYLINE
  5
367
100
AcDbEntity
  8
0
100
AcDbPolyline
 62
2
  6
CONTINUOUS
 90
4
 70
0
 10
401.7926000977
 20
17.6489282227
 10
401.6943164062
 20
17.6489282227
 10
401.6943164062
 20
17.8030924988
 10
401.7926000977
 20
17.6489282227
  0
LINE
  5
368
100
AcDbEntity
  8
0
100
AcDbLine
 62
2
  6
CONTINUOUS
 10
403.0702368164
 20
17.6489282227
 11
403.0702368164
 21
18.8822616577
  0
LWPOLYLINE
  5
369
100
AcDbEntity
  8
0
100
AcDbPolyline
 62
2
  6
CONTINUOUS
 90
4
 70
0
 10
403.0702368164
 20
18.5739266968
 10
403.2668041992
 20
18.8822616577
 10
403.463371582
 20
18.8822616577
 10
403.5616552734
 20
18.7280941772
  0
LWPOLYLINE
  5
36A
100
AcDbEntity
  8
0
100
AcDbPolyline
 62
2
  6
CONTINUOUS
 90
4
 70
0
 10
404.9376013184
 20
17.6489282227
 10
404.839317627
 20
17.6489282227
 10
404.839317627
 20
17.8030924988
 10
404.9376013184
 20
17.6489282227
  0
LINE
  5
36B
100
AcDbEntity
  8
0
100
AcDbLine
 62
2
  6
CONTINUOUS
 10
406.5100891113
 20
17.6489282227
 11
406.5100891113
 21
19.4989283752
  0
LWPOLYLINE
  5
36C
100
AcDbEntity
  8
0
100
AcDbPolyline
 62
2
  6
CONTINUOUS
 90
4
 70
0
 10
408.0826025391
 20
17.6489282227
 10
407.9843188477
 20
17.6489282227
 10
407.9843188477
 20
17.8030924988
 10
408.0826025391
 20
17.6489282227
  0
LWPOLYLINE
  5
36D
100
AcDbEntity
  8
0
100
AcDbPolyline
 62
2
  6
CONTINUOUS
 90
5
 70
0
 10
409.655090332
 20
17.6489282227
 10
409.5568066406
 20
17.8030924988
 10
409.655090332
 20
17.8030924988
 10
409.655090332
 20
17.6489282227
 10
409.4585229492
 20
17.3405932617
  0
LINE
  5
36E
100
AcDbEntity
  8
0
100
AcDbLine
 62
2
  6
CONTINUOUS
 10
321.5950817871
 20
16.7239265442
 11
321.5950817871
 21
16.5697590637
  0
LINE
  5
36F
100
AcDbEntity
  8
0
100
AcDbLine
 62
2
  6
CONTINUOUS
 10
321.5950817871
 20
16.1072598267
 11
321.5950817871
 21
14.8739263916
  0
LINE
  5
370
100
AcDbEntity
  8
0
100
AcDbLine
 62
2
  6
CONTINUOUS
 10
322.8727441406
 20
14.8739263916
 11
322.8727441406
 21
16.1072598267
  0
LWPOLYLINE
  5
371
100
AcDbEntity
  8
0
100
AcDbPolyline
 62
2
  6
CONTINUOUS
 90
5
 70
0
 10
322.8727441406
 20
15.7989280701
 10
323.0693115234
 20
16.1072598267
 10
323.2658789063
 20
16.1072598267
 10
323.4624462891
 20
15.7989280701
 10
323.4624462891
 20
14.8739263916
  0
LWPOLYLINE
  5
372
100
AcDbEntity
  8
0
100
AcDbPolyline
 62
2
  6
CONTINUOUS
 90
10
 70
0
 10
326.7057055664
 20
15.3364256287
 10
326.5091638184
 20
15.0280938721
 10
326.3125964355
 20
14.8739263916
 10
326.1160290527
 20
15.0280938721
 10
325.9194616699
 20
15.3364256287
 10
325.9194616699
 20
15.6447605896
 10
326.1160290527
 20
15.9530923462
 10
326.3125964355
 20
16.1072598267
 10
326.5091638184
 20
15.9530923462
 10
326.7057055664
 20
15.6447605896
  0
LINE
  5
373
100
AcDbEntity
  8
0
100
AcDbLine
 62
2
  6
CONTINUOUS
 10
326.7057055664
 20
16.1072598267
 11
326.7057055664
 21
14.8739263916
  0
LWPOLYLINE
  5
374
100
AcDbEntity
  8
0
100
AcDbPolyline
 62
2
  6
CONTINUOUS
 90
8
 70
0
 10
328.0816516113
 20
15.0280938721
 10
327.8850842285
 20
14.8739263916
 10
327.6885168457
 20
15.0280938721
 10
327.4919750977
 20
15.3364256287
 10
327.4919750977
 20
15.6447605896
 10
327.6885168457
 20
15.9530923462
 10
327.8850842285
 20
16.1072598267
 10
328.0816516113
 20
15.9530923462
  0
LWPOLYLINE
  5
375
100
AcDbEntity
  8
0
100
AcDbPolyline
 62
2
  6
CONTINUOUS
 90
8
 70
0
 10
329.6541650391
 20
15.0280938721
 10
329.4575976563
 20
14.8739263916
 10
329.2610302734
 20
15.0280938721
 10
329.0644628906
 20
15.3364256287
 10
329.0644628906
 20
15.6447605896
 10
329.2610302734
 20
15.9530923462
 10
329.4575976563
 20
16.1072598267
 10
329.6541650391
 20
15.9530923462
  0
LWPOLYLINE
  5
376
100
AcDbEntity
  8
0
100
AcDbPolyline
 62
2
  6
CONTINUOUS
 90
11
 70
0
 10
331.4232202148
 20
15.3364256287
 10
331.226652832
 20
15.0280938721
 10
331.0300854492
 20
14.8739263916
 10
330.8335180664
 20
15.0280938721
 10
330.6369763184
 20
15.3364256287
 10
330.6369763184
 20
15.6447605896
 10
330.8335180664
 20
15.9530923462
 10
331.0300854492
 20
16.1072598267
 10
331.226652832
 20
15.9530923462
 10
331.4232202148
 20
15.6447605896
 10
331.4232202148
 20
15.3364256287
  0
LINE
  5
377
100
AcDbEntity
  8
0
100
AcDbLine
 62
2
  6
CONTINUOUS
 10
332.3077478027
 20
14.8739263916
 11
332.3077478027
 21
16.1072598267
  0
LWPOLYLINE
  5
378
100
AcDbEntity
  8
0
100
AcDbPolyline
 62
2
  6
CONTINUOUS
 90
4
 70
0
 10
332.3077478027
 20
15.7989280701
 10
332.5043151855
 20
16.1072598267
 10
332.7008825684
 20
16.1072598267
 10
332.799140625
 20
15.9530923462
  0
LWPOLYLINE
  5
379
100
AcDbEntity
  8
0
100
AcDbPolyline
 62
2
  6
CONTINUOUS
 90
10
 70
0
 10
334.5682214355
 20
15.3364256287
 10
334.3716540527
 20
15.0280938721
 10
334.1750866699
 20
14.8739263916
 10
333.9785192871
 20
15.0280938721
 10
333.7819775391
 20
15.3364256287
 10
333.7819775391
 20
15.6447605896
 10
333.9785192871
 20
15.9530923462
 10
334.1750866699
 20
16.1072598267
 10
334.3716540527
 20
15.9530923462
 10
334.5682214355
 20
15.6447605896
  0
LINE
  5
37A
100
AcDbEntity
  8
0
100
AcDbLine
 62
2
  6
CONTINUOUS
 10
334.5682214355
 20
16.7239265442
 11
334.5682214355
 21
14.8739263916
  0
LWPOLYLINE
  5
37B
100
AcDbEntity
  8
0
100
AcDbPolyline
 62
2
  6
CONTINUOUS
 90
10
 70
0
 10
336.1407092285
 20
15.3364256287
 10
335.9441418457
 20
15.0280938721
 10
335.7476000977
 20
14.8739263916
 10
335.5510327148
 20
15.0280938721
 10
335.354465332
 20
15.3364256287
 10
335.354465332
 20
15.6447605896
 10
335.5510327148
 20
15.9530923462
 10
335.7476000977
 20
16.1072598267
 10
335.9441418457
 20
15.9530923462
 10
336.1407092285
 20
15.6447605896
  0
LINE
  5
37C
100
AcDbEntity
  8
0
100
AcDbLine
 62
2
  6
CONTINUOUS
 10
336.1407092285
 20
16.1072598267
 11
336.1407092285
 21
14.8739263916
  0
LINE
  5
37D
100
AcDbEntity
  8
0
100
AcDbLine
 62
2
  6
CONTINUOUS
 10
337.0252368164
 20
14.8739263916
 11
337.0252368164
 21
16.1072598267
  0
LWPOLYLINE
  5
37E
100
AcDbEntity
  8
0
100
AcDbPolyline
 62
2
  6
CONTINUOUS
 90
5
 70
0
 10
337.0252368164
 20
15.7989280701
 10
337.2218041992
 20
16.1072598267
 10
337.418371582
 20
16.1072598267
 10
337.6149389648
 20
15.7989280701
 10
337.6149389648
 20
14.8739263916
  0
LWPOLYLINE
  5
37F
100
AcDbEntity
  8
0
100
AcDbPolyline
 62
2
  6
CONTINUOUS
 90
8
 70
0
 10
339.0891430664
 20
15.0280938721
 10
338.8926013184
 20
14.8739263916
 10
338.6960339355
 20
15.0280938721
 10
338.4994665527
 20
15.3364256287
 10
338.4994665527
 20
15.6447605896
 10
338.6960339355
 20
15.9530923462
 10
338.8926013184
 20
16.1072598267
 10
339.0891430664
 20
15.9530923462
  0
LWPOLYLINE
  5
380
100
AcDbEntity
  8
0
100
AcDbPolyline
 62
2
  6
CONTINUOUS
 90
11
 70
0
 10
340.7599401855
 20
15.1822613525
 10
340.6616564941
 20
15.0280938721
 10
340.4650891113
 20
14.8739263916
 10
340.2685217285
 20
15.0280938721
 10
340.0719543457
 20
15.3364256287
 10
340.0719543457
 20
15.6447605896
 10
340.2685217285
 20
15.9530923462
 10
340.4650891113
 20
16.1072598267
 10
340.6616564941
 20
15.9530923462
 10
340.7599401855
 20
15.6447605896
 10
340.0719543457
 20
15.6447605896
  0
LWPOLYLINE
  5
381
100
AcDbEntity
  8
0
100
AcDbPolyline
 62
2
  6
CONTINUOUS
 90
5
 70
0
 10
343.118671875
 20
16.1072598267
 10
343.3152392578
 20
14.8739263916
 10
343.610090332
 20
16.1072598267
 10
343.8066577148
 20
14.8739263916
 10
344.1015087891
 20
16.1072598267
  0
LINE
  5
382
100
AcDbEntity
  8
0
100
AcDbLine
 62
2
  6
CONTINUOUS
 10
345.182578125
 20
16.7239265442
 11
345.182578125
 21
16.5697590637
  0
LINE
  5
383
100
AcDbEntity
  8
0
100
AcDbLine
 62
2
  6
CONTINUOUS
 10
345.182578125
 20
16.1072598267
 11
345.182578125
 21
14.8739263916
  0
LINE
  5
384
100
AcDbEntity
  8
0
100
AcDbLine
 62
2
  6
CONTINUOUS
 10
346.7550915527
 20
14.8739263916
 11
346.7550915527
 21
16.7239265442
  0
LINE
  5
385
100
AcDbEntity
  8
0
100
AcDbLine
 62
2
  6
CONTINUOUS
 10
346.4602404785
 20
15.9530923462
 11
347.049942627
 21
15.9530923462
  0
LINE
  5
386
100
AcDbEntity
  8
0
100
AcDbLine
 62
2
  6
CONTINUOUS
 10
348.0327539062
 20
14.8739263916
 11
348.0327539062
 21
16.7239265442
  0
LWPOLYLINE
  5
387
100
AcDbEntity
  8
0
100
AcDbPolyline
 62
2
  6
CONTINUOUS
 90
7
 70
0
 10
348.0327539062
 20
15.7989280701
 10
348.0327539062
 20
15.9530923462
 10
348.2293212891
 20
16.1072598267
 10
348.3275793457
 20
16.1072598267
 10
348.4258630371
 20
16.1072598267
 10
348.6224304199
 20
15.7989280701
 10
348.6224304199
 20
14.8739263916
  0
LINE
  5
388
100
AcDbEntity
  8
0
100
AcDbLine
 62
2
  6
CONTINUOUS
 10
351.4725805664
 20
14.8739263916
 11
351.4725805664
 21
16.7239265442
  0
LINE
  5
389
100
AcDbEntity
  8
0
100
AcDbLine
 62
2
  6
CONTINUOUS
 10
351.177755127
 20
15.9530923462
 11
351.7674316406
 21
15.9530923462
  0
LINE
  5
38A
100
AcDbEntity
  8
0
100
AcDbLine
 62
2
  6
CONTINUOUS
 10
352.7502429199
 20
14.8739263916
 11
352.7502429199
 21
16.7239265442
  0
LWPOLYLINE
  5
38B
100
AcDbEntity
  8
0
100
AcDbPolyline
 62
2
  6
CONTINUOUS
 90
7
 70
0
 10
352.7502429199
 20
15.7989280701
 10
352.7502429199
 20
15.9530923462
 10
352.9468103027
 20
16.1072598267
 10
353.0450939941
 20
16.1072598267
 10
353.1433776855
 20
16.1072598267
 10
353.3399450684
 20
15.7989280701
 10
353.3399450684
 20
14.8739263916
  0
LWPOLYLINE
  5
38C
100
AcDbEntity
  8
0
100
AcDbPolyline
 62
2
  6
CONTINUOUS
 90
11
 70
0
 10
354.9124328613
 20
15.1822613525
 10
354.8141491699
 20
15.0280938721
 10
354.6175817871
 20
14.8739263916
 10
354.4210400391
 20
15.0280938721
 10
354.2244726562
 20
15.3364256287
 10
354.2244726562
 20
15.6447605896
 10
354.4210400391
 20
15.9530923462
 10
354.6175817871
 20
16.1072598267
 10
354.8141491699
 20
15.9530923462
 10
354.9124328613
 20
15.6447605896
 10
354.2244726562
 20
15.6447605896
  0
LINE
  5
38D
100
AcDbEntity
  8
0
100
AcDbLine
 62
2
  6
CONTINUOUS
 10
357.7625830078
 20
14.8739263916
 11
357.7625830078
 21
16.7239265442
  0
LWPOLYLINE
  5
38E
100
AcDbEntity
  8
0
100
AcDbPolyline
 62
2
  6
CONTINUOUS
 90
10
 70
0
 10
359.7282055664
 20
15.3364256287
 10
359.5316638184
 20
15.0280938721
 10
359.3350964355
 20
14.8739263916
 10
359.1385290527
 20
15.0280938721
 10
358.9419616699
 20
15.3364256287
 10
358.9419616699
 20
15.6447605896
 10
359.1385290527
 20
15.9530923462
 10
359.3350964355
 20
16.1072598267
 10
359.5316638184
 20
15.9530923462
 10
359.7282055664
 20
15.6447605896
  0
LINE
  5
38F
100
AcDbEntity
  8
0
100
AcDbLine
 62
2
  6
CONTINUOUS
 10
359.7282055664
 20
16.1072598267
 11
359.7282055664
 21
14.8739263916
  0
LWPOLYLINE
  5
390
100
AcDbEntity
  8
0
100
AcDbPolyline
 62
2
  6
CONTINUOUS
 90
5
 70
0
 10
360.4161914062
 20
16.1072598267
 10
360.6127587891
 20
14.8739263916
 10
360.9075842285
 20
16.1072598267
 10
361.1041516113
 20
14.8739263916
 10
361.3990026855
 20
16.1072598267
  0
LINE
  5
391
100
AcDbEntity
  8
0
100
AcDbLine
 62
2
  6
CONTINUOUS
 10
364.0525854492
 20
16.7239265442
 11
364.0525854492
 21
16.5697590637
  0
LINE
  5
392
100
AcDbEntity
  8
0
100
AcDbLine
 62
2
  6
CONTINUOUS
 10
364.0525854492
 20
16.1072598267
 11
364.0525854492
 21
14.8739263916
  0
LINE
  5
393
100
AcDbEntity
  8
0
100
AcDbLine
 62
2
  6
CONTINUOUS
 10
365.3302478027
 20
14.8739263916
 11
365.3302478027
 21
16.1072598267
  0
LWPOLYLINE
  5
394
100
AcDbEntity
  8
0
100
AcDbPolyline
 62
2
  6
CONTINUOUS
 90
5
 70
0
 10
365.3302478027
 20
15.7989280701
 10
365.5268151855
 20
16.1072598267
 10
365.7233825684
 20
16.1072598267
 10
365.9199243164
 20
15.7989280701
 10
365.9199243164
 20
14.8739263916
  0
LWPOLYLINE
  5
395
100
AcDbEntity
  8
0
100
AcDbPolyline
 62
2
  6
CONTINUOUS
 90
5
 70
0
 10
368.7701000977
 20
14.8739263916
 10
368.7701000977
 20
16.4155947876
 10
368.9666418457
 20
16.7239265442
 10
369.0649255371
 20
16.7239265442
 10
369.1632092285
 20
16.5697590637
  0
LINE
  5
396
100
AcDbEntity
  8
0
100
AcDbLine
 62
2
  6
CONTINUOUS
 10
368.5735327148
 20
15.9530923462
 11
368.9666418457
 21
15.9530923462
  0
LWPOLYLINE
  5
397
100
AcDbEntity
  8
0
100
AcDbPolyline
 62
2
  6
CONTINUOUS
 90
11
 70
0
 10
370.7357226563
 20
15.3364256287
 10
370.5391552734
 20
15.0280938721
 10
370.3425878906
 20
14.8739263916
 10
370.1460205078
 20
15.0280938721
 10
369.949453125
 20
15.3364256287
 10
369.949453125
 20
15.6447605896
 10
370.1460205078
 20
15.9530923462
 10
370.3425878906
 20
16.1072598267
 10
370.5391552734
 20
15.9530923462
 10
370.7357226563
 20
15.6447605896
 10
370.7357226563
 20
15.3364256287
  0
LINE
  5
398
100
AcDbEntity
  8
0
100
AcDbLine
 62
2
  6
CONTINUOUS
 10
371.6202502441
 20
14.8739263916
 11
371.6202502441
 21
16.1072598267
  0
LWPOLYLINE
  5
399
100
AcDbEntity
  8
0
100
AcDbPolyline
 62
2
  6
CONTINUOUS
 90
4
 70
0
 10
371.6202502441
 20
15.7989280701
 10
371.816817627
 20
16.1072598267
 10
372.013359375
 20
16.1072598267
 10
372.1116430664
 20
15.9530923462
  0
LWPOLYLINE
  5
39A
100
AcDbEntity
  8
0
100
AcDbPolyline
 62
2
  6
CONTINUOUS
 90
8
 70
0
 10
373.6841564941
 20
15.0280938721
 10
373.4875891113
 20
14.8739263916
 10
373.2910217285
 20
15.0280938721
 10
373.0944543457
 20
15.3364256287
 10
373.0944543457
 20
15.6447605896
 10
373.2910217285
 20
15.9530923462
 10
373.4875891113
 20
16.1072598267
 10
373.6841564941
 20
15.9530923462
  0
LWPOLYLINE
  5
39B
100
AcDbEntity
  8
0
100
AcDbPolyline
 62
2
  6
CONTINUOUS
 90
11
 70
0
 10
375.3549279785
 20
15.1822613525
 10
375.2566442871
 20
15.0280938721
 10
375.0601025391
 20
14.8739263916
 10
374.8635351563
 20
15.0280938721
 10
374.6669677734
 20
15.3364256287
 10
374.6669677734
 20
15.6447605896
 10
374.8635351563
 20
15.9530923462
 10
375.0601025391
 20
16.1072598267
 10
375.2566442871
 20
15.9530923462
 10
375.3549279785
 20
15.6447605896
 10
374.6669677734
 20
15.6447605896
  0
LWPOLYLINE
  5
39C
100
AcDbEntity
  8
0
100
AcDbPolyline
 62
2
  6
CONTINUOUS
 90
4
 70
0
 10
376.632590332
 20
14.8739263916
 10
376.5343066406
 20
14.8739263916
 10
376.5343066406
 20
15.0280938721
 10
376.632590332
 20
14.8739263916
  0
LWPOLYLINE
  5
39D
100
AcDbEntity
  8
0
100
AcDbPolyline
 62
2
  6
CONTINUOUS
 90
3
 70
0
 10
321.1036889648
 20
12.0989277649
 10
321.5950817871
 20
13.9489279175
 10
322.0865002441
 20
12.0989277649
  0
LINE
  5
39E
100
AcDbEntity
  8
0
100
AcDbLine
 62
2
  6
CONTINUOUS
 10
321.3002563477
 20
12.7155944824
 11
321.8899328613
 21
12.7155944824
  0
LINE
  5
39F
100
AcDbEntity
  8
0
100
AcDbLine
 62
2
  6
CONTINUOUS
 10
323.1675952148
 20
12.0989277649
 11
323.1675952148
 21
13.9489279175
  0
LINE
  5
3A0
100
AcDbEntity
  8
0
100
AcDbLine
 62
2
  6
CONTINUOUS
 10
324.7400830078
 20
12.0989277649
 11
324.7400830078
 21
13.9489279175
  0
LINE
  5
3A1
100
AcDbEntity
  8
0
100
AcDbLine
 62
2
  6
CONTINUOUS
 10
327.5902587891
 20
12.0989277649
 11
327.5902587891
 21
13.3322612
  0
LWPOLYLINE
  5
3A2
100
AcDbEntity
  8
0
100
AcDbPolyline
 62
2
  6
CONTINUOUS
 90
4
 70
0
 10
327.5902587891
 20
13.023926239
 10
327.7868005371
 20
13.3322612
 10
327.9833679199
 20
13.3322612
 10
328.0816516113
 20
13.1780937195
  0
LINE
  5
3A3
100
AcDbEntity
  8
0
100
AcDbLine
 62
2
  6
CONTINUOUS
 10
329.4575976563
 20
13.9489279175
 11
329.4575976563
 21
13.794760437
  0
LINE
  5
3A4
100
AcDbEntity
  8
0
100
AcDbLine
 62
2
  6
CONTINUOUS
 10
329.4575976563
 20
13.3322612
 11
329.4575976563
 21
12.0989277649
  0
LWPOLYLINE
  5
3A5
100
AcDbEntity
  8
0
100
AcDbPolyline
 62
2
  6
CONTINUOUS
 90
10
 70
0
 10
331.4232202148
 20
12.561427002
 10
331.226652832
 20
12.2530952454
 10
331.0300854492
 20
12.0989277649
 10
330.8335180664
 20
12.2530952454
 10
330.6369763184
 20
12.561427002
 10
330.6369763184
 20
12.8697619629
 10
330.8335180664
 20
13.1780937195
 10
331.0300854492
 20
13.3322612
 10
331.226652832
 20
13.1780937195
 10
331.4232202148
 20
12.8697619629
  0
LWPOLYLINE
  5
3A6
100
AcDbEntity
  8
0
100
AcDbPolyline
 62
2
  6
CONTINUOUS
 90
6
 70
0
 10
331.4232202148
 20
13.3322612
 10
331.4232202148
 20
11.9447602844
 10
331.3249365234
 20
11.6364285278
 10
331.226652832
 20
11.4822610474
 10
330.8335180664
 20
11.4822610474
 10
330.735234375
 20
11.6364285278
  0
LINE
  5
3A7
100
AcDbEntity
  8
0
100
AcDbLine
 62
2
  6
CONTINUOUS
 10
332.3077478027
 20
12.0989277649
 11
332.3077478027
 21
13.9489279175
  0
LWPOLYLINE
  5
3A8
100
AcDbEntity
  8
0
100
AcDbPolyline
 62
2
  6
CONTINUOUS
 90
7
 70
0
 10
332.3077478027
 20
13.023926239
 10
332.3077478027
 20
13.1780937195
 10
332.5043151855
 20
13.3322612
 10
332.602598877
 20
13.3322612
 10
332.7008825684
 20
13.3322612
 10
332.8974243164
 20
13.023926239
 10
332.8974243164
 20
12.0989277649
  0
LINE
  5
3A9
100
AcDbEntity
  8
0
100
AcDbLine
 62
2
  6
CONTINUOUS
 10
334.1750866699
 20
12.0989277649
 11
334.1750866699
 21
13.9489279175
  0
LINE
  5
3AA
100
AcDbEntity
  8
0
100
AcDbLine
 62
2
  6
CONTINUOUS
 10
333.8802355957
 20
13.1780937195
 11
334.4699377441
 21
13.1780937195
  0
LWPOLYLINE
  5
3AB
100
AcDbEntity
  8
0
100
AcDbPolyline
 62
2
  6
CONTINUOUS
 90
14
 70
0
 10
335.9441418457
 20
13.1780937195
 10
335.8458837891
 20
13.3322612
 10
335.6493164062
 20
13.3322612
 10
335.5510327148
 20
13.1780937195
 10
335.5510327148
 20
13.023926239
 10
335.7476000977
 20
12.8697619629
 10
335.9441418457
 20
12.7155944824
 10
336.0424255371
 20
12.561427002
 10
336.0424255371
 20
12.4072595215
 10
335.9441418457
 20
12.2530952454
 10
335.8458837891
 20
12.0989277649
 10
335.6493164062
 20
12.0989277649
 10
335.5510327148
 20
12.2530952454
 10
335.4527490234
 20
12.4072595215
  0
LINE
  5
3AC
100
AcDbEntity
  8
0
100
AcDbLine
 62
2
  6
CONTINUOUS
 10
338.5977502441
 20
12.0989277649
 11
338.5977502441
 21
13.3322612
  0
LWPOLYLINE
  5
3AD
100
AcDbEntity
  8
0
100
AcDbPolyline
 62
2
  6
CONTINUOUS
 90
4
 70
0
 10
338.5977502441
 20
13.023926239
 10
338.794317627
 20
13.3322612
 10
338.990859375
 20
13.3322612
 10
339.0891430664
 20
13.1780937195
  0
LWPOLYLINE
  5
3AE
100
AcDbEntity
  8
0
100
AcDbPolyline
 62
2
  6
CONTINUOUS
 90
11
 70
0
 10
340.7599401855
 20
12.4072595215
 10
340.6616564941
 20
12.2530952454
 10
340.4650891113
 20
12.0989277649
 10
340.2685217285
 20
12.2530952454
 10
340.0719543457
 20
12.561427002
 10
340.0719543457
 20
12.8697619629
 10
340.2685217285
 20
13.1780937195
 10
340.4650891113
 20
13.3322612
 10
340.6616564941
 20
13.1780937195
 10
340.7599401855
 20
12.8697619629
 10
340.0719543457
 20
12.8697619629
  0
LWPOLYLINE
  5
3AF
100
AcDbEntity
  8
0
100
AcDbPolyline
 62
2
  6
CONTINUOUS
 90
14
 70
0
 10
342.2341442871
 20
13.1780937195
 10
342.1358605957
 20
13.3322612
 10
341.9393188477
 20
13.3322612
 10
341.8410351562
 20
13.1780937195
 10
341.8410351562
 20
13.023926239
 10
342.0376025391
 20
12.8697619629
 10
342.2341442871
 20
12.7155944824
 10
342.3324279785
 20
12.561427002
 10
342.3324279785
 20
12.4072595215
 10
342.2341442871
 20
12.2530952454
 10
342.1358605957
 20
12.0989277649
 10
341.9393188477
 20
12.0989277649
 10
341.8410351562
 20
12.2530952454
 10
341.7427514648
 20
12.4072595215
  0
LWPOLYLINE
  5
3B0
100
AcDbEntity
  8
0
100
AcDbPolyline
 62
2
  6
CONTINUOUS
 90
11
 70
0
 10
343.9049414062
 20
12.4072595215
 10
343.8066577148
 20
12.2530952454
 10
343.610090332
 20
12.0989277649
 10
343.4135229492
 20
12.2530952454
 10
343.2169555664
 20
12.561427002
 10
343.2169555664
 20
12.8697619629
 10
343.4135229492
 20
13.1780937195
 10
343.610090332
 20
13.3322612
 10
343.8066577148
 20
13.1780937195
 10
343.9049414062
 20
12.8697619629
 10
343.2169555664
 20
12.8697619629
  0
LINE
  5
3B1
100
AcDbEntity
  8
0
100
AcDbLine
 62
2
  6
CONTINUOUS
 10
344.8877526855
 20
12.0989277649
 11
344.8877526855
 21
13.3322612
  0
LWPOLYLINE
  5
3B2
100
AcDbEntity
  8
0
100
AcDbPolyline
 62
2
  6
CONTINUOUS
 90
4
 70
0
 10
344.8877526855
 20
13.023926239
 10
345.0843200684
 20
13.3322612
 10
345.2808618164
 20
13.3322612
 10
345.3791455078
 20
13.1780937195
  0
LWPOLYLINE
  5
3B3
100
AcDbEntity
  8
0
100
AcDbPolyline
 62
2
  6
CONTINUOUS
 90
3
 70
0
 10
346.4602404785
 20
13.3322612
 10
346.7550915527
 20
12.0989277649
 10
347.049942627
 20
13.3322612
  0
LWPOLYLINE
  5
3B4
100
AcDbEntity
  8
0
100
AcDbPolyline
 62
2
  6
CONTINUOUS
 90
11
 70
0
 10
348.6224304199
 20
12.4072595215
 10
348.5241467285
 20
12.2530952454
 10
348.3275793457
 20
12.0989277649
 10
348.1310375977
 20
12.2530952454
 10
347.9344702148
 20
12.561427002
 10
347.9344702148
 20
12.8697619629
 10
348.1310375977
 20
13.1780937195
 10
348.3275793457
 20
13.3322612
 10
348.5241467285
 20
13.1780937195
 10
348.6224304199
 20
12.8697619629
 10
347.9344702148
 20
12.8697619629
  0
LWPOLYLINE
  5
3B5
100
AcDbEntity
  8
0
100
AcDbPolyline
 62
2
  6
CONTINUOUS
 90
10
 70
0
 10
350.2932275391
 20
12.561427002
 10
350.0966601562
 20
12.2530952454
 10
349.9000927734
 20
12.0989277649
 10
349.7035253906
 20
12.2530952454
 10
349.5069580078
 20
12.561427002
 10
349.5069580078
 20
12.8697619629
 10
349.7035253906
 20
13.1780937195
 10
349.9000927734
 20
13.3322612
 10
350.0966601562
 20
13.1780937195
 10
350.2932275391
 20
12.8697619629
  0
LINE
  5
3B6
100
AcDbEntity
  8
0
100
AcDbLine
 62
2
  6
CONTINUOUS
 10
350.2932275391
 20
13.9489279175
 11
350.2932275391
 21
12.0989277649
  0
LWPOLYLINE
  5
3B7
100
AcDbEntity
  8
0
100
AcDbPolyline
 62
2
  6
CONTINUOUS
 90
4
 70
0
 10
351.4725805664
 20
12.0989277649
 10
351.374296875
 20
12.0989277649
 10
351.374296875
 20
12.2530952454
 10
351.4725805664
 20
12.0989277649
  0
ACAD_TABLE
  5
3B8
100
AcDbEntity
  8
0
 62
2
  6
CONTINUOUS
100
AcDbBlockReference
  2
*T1
 10
319.3213399098
 20
51.0239270671
 30
0.0
100
AcDbTable
342
       5E1
343
229
 11
1.0
 21
0.0
 31
0.0
 90
22
 91
5
 92
5
 93
0
 94
0
 95
0
 96
0
141
6.0
141
6.0
141
10.0
141
5.0
141
13.0
142
10.0
142
10.0
142
10.0
142
40.0
142
20.0
171
1
172
0
173
0
174
0
175
3
176
4
 91
1
178
0
145
0.0
170
5
171
1
172
0
173
1
174
0
175
1
176
1
 91
1
178
0
145
0.0
170
1
171
1
172
0
173
1
174
0
175
1
176
1
 91
1
178
0
145
0.0
170
1
171
1
172
0
173
0
174
0
175
1
176
1
 91
33
178
0
145
0.0
301
CELL_VALUE
 90
4
  1
{\Ftxt.shx;\W7.095238;\H3.000000; }
304
ACVALUE_END
170
4
140
3.0
171
1
172
0
173
0
174
0
175
1
176
1
 91
33
178
0
145
0.0
301
CELL_VALUE
 90
4
  1
{\Ftxt.shx;\W3.400000;\H3.500000; }{\Ftxt.shx;\W1.700000;\H3.500000; }
304
ACVALUE_END
170
1
140
3.5
171
1
172
0
173
1
174
0
175
1
176
1
 91
1
178
0
145
0.0
170
1
171
1
172
0
173
1
174
0
175
1
176
1
 91
1
178
0
145
0.0
170
1
171
1
172
0
173
1
174
0
175
1
176
1
 91
1
178
0
145
0.0
170
1
171
1
172
0
173
0
174
0
175
1
176
1
 91
33
178
0
145
0.0
301
CELL_VALUE
 90
4
  1
{\Ftxt.shx;\W3.714286;\H3.500000; }{\Ftxt.shx;\W1.500000;\H3.500000; }
304
ACVALUE_END
170
1
140
3.5
171
1
172
0
173
0
174
0
175
1
176
1
 91
33
178
0
145
0.0
301
CELL_VALUE
 90
4
  1
{\Ftxt.shx;\W1.571429;\H3.500000; }
304
ACVALUE_END
170
4
140
3.5
171
1
172
0
173
1
174
0
175
1
176
1
 91
1
178
0
145
0.0
170
1
171
1
172
0
173
1
174
0
175
1
176
1
 91
1
178
0
145
0.0
170
1
171
1
172
0
173
1
174
0
175
1
176
1
 91
1
178
0
145
0.0
170
1
171
1
172
0
173
0
174
0
175
2
176
1
 91
33
178
0
145
0.0
301
CELL_VALUE
 90
4
  1
{\Ftxt.shx;\W4.761905;\H3.500000; }{\Ftxt.shx;\W0.785714;\H3.500000; }
304
ACVALUE_END
170
4
140
3.5
171
1
172
0
173
1
174
0
175
1
176
1
 91
1
178
0
145
0.0
170
1
171
1
172
0
173
1
174
0
175
1
176
1
 91
1
178
0
145
0.0
170
1
171
1
172
0
173
1
174
0
175
1
176
1
 91
1
178
0
145
0.0
170
1
171
1
172
0
173
1
174
0
175
1
176
1
 91
1
178
0
145
0.0
170
1
171
1
172
0
173
0
174
0
175
2
176
1
 91
33
178
0
145
0.0
301
CELL_VALUE
 90
4
  1
{\Ftxt.shx;\W11.261905;\H2.500000; }
304
ACVALUE_END
170
4
140
2.5
171
1
172
0
173
1
174
0
175
1
176
1
 91
1
178
0
145
0.0
170
1
171
1
172
0
173
0
174
0
175
5
176
1
 91
33
178
0
145
0.0
301
CELL_VALUE
 90
4
  1
{\Ftxt.shx;\W45.050000;\H1.850000; }\P{\Ftxt.shx;\W28.050000;\H1.850000; }{\Ftxt.shx;\W7.650000;\H1.850000; }{\Ftxt.shx;\W13.600000;\H1.850000; }\P{\Ftxt.shx;\W31.450000;\H1.850000; }\P{\Ftxt.shx;\W17.000000;\H1.850000; }
304
ACVALUE_END
170
1
140
1.85
171
1
172
0
173
1
174
0
175
1
176
1
 91
1
178
0
145
0.0
170
1
171
1
172
0
173
1
174
0
175
1
176
1
 91
1
178
0
145
0.0
170
1
171
1
172
0
173
1
174
0
175
1
176
1
 91
1
178
0
145
0.0
170
1
171
1
172
0
173
1
174
0
175
1
176
1
 91
1
178
0
145
0.0
170
1
  0
LINE
  5
3B9
100
AcDbEntity
  8
0
100
AcDbLine
 62
7
  6
CONTINUOUS
 10
0.0
 20
0.0
 11
0.0
 21
297.0
  0
LWPOLYLINE
  5
3BA
100
AcDbEntity
  8
0
100
AcDbPolyline
 62
7
  6
CONTINUOUS
 90
2
 70
0
 43
0.1000000003
 10
7.0536312849
 20
0.0
 10
7.0536312849
 20
297.0
  0
LWPOLYLINE
  5
3BB
100
AcDbEntity
  8
0
100
AcDbPolyline
 62
7
  6
CONTINUOUS
 90
2
 70
0
 43
0.4999999952
 10
10.0536312849
 20
10.0318435754
 10
10.0536312849
 20
287.0
  0
LWPOLYLINE
  5
3BC
100
AcDbEntity
  8
0
100
AcDbPolyline
 62
2
  6
CONTINUOUS
 90
5
 70
0
 10
2.7895792007
 20
251.8807543945
 10
3.2657698059
 20
252.1664538574
 10
3.2657698059
 20
253.0236035156
 10
2.7895792007
 20
253.5950280762
 10
1.6467220688
 20
253.5950280762
  0
LINE
  5
3BD
100
AcDbEntity
  8
0
100
AcDbLine
 62
7
  6
CONTINUOUS
 10
0.0
 20
0.0
 11
420.0
 21
0.0
  0
LINE
  5
3BE
100
AcDbEntity
  8
0
100
AcDbLine
 62
2
  6
CONTINUOUS
 10
363.2799023437
 20
2.6920935059
 11
364.6298803711
 21
2.6920935059
  0
LINE
  5
3BF
100
AcDbEntity
  8
0
100
AcDbLine
 62
2
  6
CONTINUOUS
 10
262.8298937988
 20
3.6920928955
 11
264.4048937988
 21
3.6920928955
  0
LWPOLYLINE
  5
3C0
100
AcDbEntity
  8
0
100
AcDbPolyline
 62
2
  6
CONTINUOUS
 90
12
 70
0
 10
56.6978659058
 20
5.535344696
 10
57.5978704834
 20
5.535344696
 10
58.0478695679
 20
5.2020094299
 10
58.2728659058
 20
4.8686773682
 10
58.4978686523
 20
4.5353453064
 10
58.7228713989
 20
3.5353427124
 10
58.4978686523
 20
2.5353433228
 10
58.2728659058
 20
2.202011261
 10
58.0478695679
 20
1.8686759949
 10
57.5978704834
 20
1.5353439331
 10
56.6978659058
 20
1.5353439331
 10
56.6978659058
 20
5.535344696
  0
LWPOLYLINE
  5
3C1
100
AcDbEntity
  8
0
100
AcDbPolyline
 62
7
  6
CONTINUOUS
 90
2
 70
0
 43
0.1000000003
 10
0.0
 20
7.0318435754
 10
420.0
 20
7.0318435754
  0
LWPOLYLINE
  5
3C2
100
AcDbEntity
  8
0
100
AcDbPolyline
 62
7
  6
CONTINUOUS
 90
2
 70
0
 43
0.4999999952
 10
10.0536312849
 20
10.0318435754
 10
410.0
 20
10.0318435754
  0
LWPOLYLINE
  5
3C3
100
AcDbEntity
  8
0
100
AcDbPolyline
 62
2
  6
CONTINUOUS
 90
15
 70
0
 10
164.8548962402
 20
292.0254382324
 10
164.629887085
 20
291.6920837402
 10
164.1798944092
 20
291.3587548828
 10
163.729888916
 20
291.3587548828
 10
163.2798962402
 20
291.6920837402
 10
163.054887085
 20
292.0254382324
 10
162.8298907471
 20
292.3587670898
 10
162.6048944092
 20
293.3587536621
 10
162.8298907471
 20
294.3587658691
 10
163.054887085
 20
294.6920947266
 10
163.2798962402
 20
295.025423584
 10
163.729888916
 20
295.3587524414
 10
164.1798944092
 20
295.3587524414
 10
164.629887085
 20
295.025423584
 10
164.8548962402
 20
294.6920947266
  0
LINE
  5
3C4
100
AcDbEntity
  8
0
100
AcDbLine
 62
7
  6
CONTINUOUS
 10
113.0
 20
297.0
 11
113.0
 21
290.0
  0
LINE
  5
3C5
100
AcDbEntity
  8
0
100
AcDbLine
 62
7
  6
CONTINUOUS
 10
113.0
 20
7.0
 11
113.0
 21
0.0
  0
LWPOLYLINE
  5
3C6
100
AcDbEntity
  8
0
100
AcDbPolyline
 62
7
  6
CONTINUOUS
 90
2
 70
0
 43
0.1000000003
 10
123.0
 20
10.0
 10
123.0
 20
0.0
  0
LWPOLYLINE
  5
3C7
100
AcDbEntity
  8
0
100
AcDbPolyline
 62
7
  6
CONTINUOUS
 90
2
 70
0
 43
0.1000000003
 10
123.0
 20
287.0
 10
123.0
 20
297.0
  0
LINE
  5
3C8
100
AcDbEntity
  8
8_ALL_NOTES_BALLOONS_SYMBOLS_GT
100
AcDbLine
 62
7
  6
CONTINUOUS
 10
138.5743606848
 20
287.178263058
 11
138.6149428612
 21
10.0408968953
  0
LWPOLYLINE
  5
3C9
100
AcDbEntity
  8
0
100
AcDbPolyline
 62
2
  6
CONTINUOUS
 90
3
 70
0
 10
1.6467220688
 20
52.4521728516
 10
2.7895792007
 20
53.5950283813
 10
2.7895792007
 20
49.5950244141
  0
LINE
  5
3CA
100
AcDbEntity
  8
0
100
AcDbLine
 62
7
  6
CONTINUOUS
 10
-0.0
 20
99.9681564246
 11
7.0
 21
99.9681564246
  0
LWPOLYLINE
  5
3CB
100
AcDbEntity
  8
0
100
AcDbPolyline
 62
2
  6
CONTINUOUS
 90
9
 70
0
 10
56.2378820801
 20
295.2461645508
 10
56.6878811646
 20
294.5794812012
 10
56.9128839111
 20
293.5794946289
 10
56.6878811646
 20
292.5794824219
 10
56.4628848267
 20
292.2461535645
 10
56.2378820801
 20
291.912824707
 10
55.7878829956
 20
291.5794958496
 10
54.8878848267
 20
291.5794958496
 10
54.8878848267
 20
295.5794934082
  0
LINE
  5
3CC
100
AcDbEntity
  8
0
100
AcDbLine
 62
7
  6
CONTINUOUS
 10
413.0
 20
107.0
 11
420.0
 21
107.0
  0
LWPOLYLINE
  5
3CD
100
AcDbEntity
  8
0
100
AcDbPolyline
 62
7
  6
CONTINUOUS
 90
2
 70
0
 43
0.1000000003
 10
210.0
 20
10.0
 10
210.0
 20
0.0
  0
LWPOLYLINE
  5
3CE
100
AcDbEntity
  8
0
100
AcDbPolyline
 62
7
  6
CONTINUOUS
 90
2
 70
0
 43
0.1000000003
 10
210.0
 20
287.0
 10
210.0
 20
297.0
  0
LINE
  5
3CF
100
AcDbEntity
  8
8_ALL_NOTES_BALLOONS_SYMBOLS_GT
100
AcDbLine
 62
7
  6
CONTINUOUS
 10
10.123363772
 20
148.5054360743
 11
266.2540376362
 21
148.5800438601
  0
LWPOLYLINE
  5
3D0
100
AcDbEntity
  8
0
100
AcDbPolyline
 62
7
  6
CONTINUOUS
 90
2
 70
0
 43
0.1000000003
 10
10.0
 20
148.5
 10
0.0
 20
148.5
  0
LWPOLYLINE
  5
3D1
100
AcDbEntity
  8
0
100
AcDbPolyline
 62
7
  6
CONTINUOUS
 90
2
 70
0
 43
0.1000000003
 10
410.0
 20
148.5
 10
420.0
 20
148.5
  0
LWPOLYLINE
  5
3D2
100
AcDbEntity
  8
0
100
AcDbPolyline
 62
2
  6
CONTINUOUS
 90
7
 70
0
 10
3.6467220497
 20
149.5950274658
 10
1.6467220688
 20
149.5950274658
 10
3.6467220497
 20
152.4521759033
 10
3.6467220497
 20
153.0236004639
 10
3.0752934837
 20
153.5950250244
 10
2.2181506348
 20
153.5950250244
 10
1.6467220688
 20
152.7378881836
  0
LWPOLYLINE
  5
3D3
100
AcDbEntity
  8
0
100
AcDbPolyline
 62
2
  6
CONTINUOUS
 90
5
 70
0
 10
415.7895666504
 20
258.9125756836
 10
416.2657580566
 20
259.1983007812
 10
416.2657580566
 20
260.0554504395
 10
415.7895666504
 20
260.626875
 10
414.6467175293
 20
260.626875
  0
LWPOLYLINE
  5
3D4
100
AcDbEntity
  8
0
100
AcDbPolyline
 62
2
  6
CONTINUOUS
 90
7
 70
0
 10
416.6467163086
 20
156.6268743896
 10
414.6467175293
 20
156.6268743896
 10
416.6467163086
 20
159.4840100098
 10
416.6467163086
 20
160.0554473877
 10
416.075291748
 20
160.6268719482
 10
415.2181420898
 20
160.6268719482
 10
414.6467175293
 20
159.76972229
  0
LWPOLYLINE
  5
3D5
100
AcDbEntity
  8
0
100
AcDbPolyline
 62
2
  6
CONTINUOUS
 90
15
 70
0
 10
164.8548962402
 20
2.025426178
 10
164.629887085
 20
1.6920941162
 10
164.1798944092
 20
1.3587588501
 10
163.729888916
 20
1.3587588501
 10
163.2798962402
 20
1.6920941162
 10
163.054887085
 20
2.025426178
 10
162.8298907471
 20
2.3587614441
 10
162.6048944092
 20
3.3587608337
 10
162.8298907471
 20
4.3587602234
 10
163.054887085
 20
4.6920922852
 10
163.2798962402
 20
5.0254275513
 10
163.729888916
 20
5.358759613
 10
164.1798944092
 20
5.358759613
 10
164.629887085
 20
5.0254275513
 10
164.8548962402
 20
4.6920922852
  0
LINE
  5
3D6
100
AcDbEntity
  8
8_ALL_NOTES_BALLOONS_SYMBOLS_GT
100
AcDbLine
 62
7
  6
CONTINUOUS
 10
266.16435054
 20
286.9715275256
 11
266.2540376362
 21
148.5800438601
  0
LWPOLYLINE
  5
3D7
100
AcDbEntity
  8
0
100
AcDbPolyline
 62
2
  6
CONTINUOUS
 90
6
 70
0
 10
262.8298937988
 20
295.3587524414
 10
262.8298937988
 20
291.3587548828
 10
264.4048937988
 20
291.3587548828
 10
264.6298901367
 20
291.6920837402
 10
264.8548864746
 20
292.0254382324
 10
264.8548864746
 20
293.0254248047
  0
LWPOLYLINE
  5
3D8
100
AcDbEntity
  8
0
100
AcDbPolyline
 62
2
  6
CONTINUOUS
 90
12
 70
0
 10
262.8298937988
 20
5.358759613
 10
262.8298937988
 20
1.3587588501
 10
264.4048937988
 20
1.3587588501
 10
264.6298901367
 20
1.6920941162
 10
264.8548864746
 20
2.025426178
 10
264.8548864746
 20
3.0254255676
 10
264.6298901367
 20
3.3587608337
 10
264.4048937988
 20
3.6920928955
 10
264.6298901367
 20
4.0254281616
 10
264.6298901367
 20
5.0254275513
 10
264.4048937988
 20
5.358759613
 10
262.8298937988
 20
5.358759613
  0
LINE
  5
3D9
100
AcDbEntity
  8
0
100
AcDbLine
 62
7
  6
CONTINUOUS
 10
-0.0
 20
199.9681564246
 11
7.0
 21
199.9681564246
  0
LWPOLYLINE
  5
3DA
100
AcDbEntity
  8
0
100
AcDbPolyline
 62
7
  6
CONTINUOUS
 90
2
 70
0
 43
0.1000000003
 10
10.0
 20
202.9681564246
 10
0.0
 20
202.9681564246
  0
LWPOLYLINE
  5
3DB
100
AcDbEntity
  8
0
100
AcDbPolyline
 62
7
  6
CONTINUOUS
 90
2
 70
0
 43
0.1000000003
 10
410.0
 20
210.0
 10
420.0
 20
210.0
  0
LINE
  5
3DC
100
AcDbEntity
  8
0
100
AcDbLine
 62
7
  6
CONTINUOUS
 10
313.0
 20
297.0
 11
313.0
 21
290.0
  0
LINE
  5
3DD
100
AcDbEntity
  8
0
100
AcDbLine
 62
7
  6
CONTINUOUS
 10
313.0
 20
7.0
 11
313.0
 21
0.0
  0
LWPOLYLINE
  5
3DE
100
AcDbEntity
  8
0
100
AcDbPolyline
 62
2
  6
CONTINUOUS
 90
6
 70
0
 10
1.6467220688
 20
249.5950305176
 10
3.0752934837
 20
249.5950305176
 10
3.3610077667
 20
249.8807299805
 10
3.3610077667
 20
251.3093041992
 10
2.7895792007
 20
251.8807543945
 10
2.2181506348
 20
251.8807543945
  0
LWPOLYLINE
  5
3DF
100
AcDbEntity
  8
0
100
AcDbPolyline
 62
2
  6
CONTINUOUS
 90
3
 70
0
 10
362.8298840332
 20
291.3587548828
 10
363.9548913574
 20
295.3587524414
 10
365.0798986816
 20
291.3587548828
  0
LWPOLYLINE
  5
3E0
100
AcDbEntity
  8
0
100
AcDbPolyline
 62
2
  6
CONTINUOUS
 90
6
 70
0
 10
414.6467175293
 20
256.6268774414
 10
416.075291748
 20
256.6268774414
 10
416.3610168457
 20
256.9125769043
 10
416.3610168457
 20
258.341151123
 10
415.7895666504
 20
258.9125756836
 10
415.2181420898
 20
258.9125756836
  0
LWPOLYLINE
  5
3E1
100
AcDbEntity
  8
0
100
AcDbPolyline
 62
2
  6
CONTINUOUS
 90
6
 70
0
 10
264.8548864746
 20
293.0254248047
 10
264.4048937988
 20
293.6920825195
 10
264.6298901367
 20
294.0254370117
 10
264.6298901367
 20
295.025423584
 10
264.4048937988
 20
295.3587524414
 10
262.8298937988
 20
295.3587524414
  0
LWPOLYLINE
  5
3E2
100
AcDbEntity
  8
0
100
AcDbPolyline
 62
7
  6
CONTINUOUS
 90
2
 70
0
 43
0.4999999952
 10
10.0536312849
 20
287.0
 10
410.0
 20
287.0
  0
LWPOLYLINE
  5
3E3
100
AcDbEntity
  8
0
100
AcDbPolyline
 62
7
  6
CONTINUOUS
 90
2
 70
0
 43
0.1000000003
 10
0.0
 20
290.0
 10
420.0
 20
290.0
  0
LINE
  5
3E4
100
AcDbEntity
  8
0
100
AcDbLine
 62
2
  6
CONTINUOUS
 10
363.2799023437
 20
292.6920959473
 11
364.6298803711
 21
292.6920959473
  0
LINE
  5
3E5
100
AcDbEntity
  8
0
100
AcDbLine
 62
2
  6
CONTINUOUS
 10
262.8298937988
 20
293.6920825195
 11
264.4048937988
 21
293.6920825195
  0
LWPOLYLINE
  5
3E6
100
AcDbEntity
  8
0
100
AcDbPolyline
 62
2
  6
CONTINUOUS
 90
3
 70
0
 10
54.8878848267
 20
295.5794934082
 10
55.7878829956
 20
295.5794934082
 10
56.2378820801
 20
295.2461645508
  0
LINE
  5
3E7
100
AcDbEntity
  8
0
100
AcDbLine
 62
7
  6
CONTINUOUS
 10
0.0
 20
297.0
 11
420.0
 21
297.0
  0
LWPOLYLINE
  5
3E8
100
AcDbEntity
  8
0
100
AcDbPolyline
 62
2
  6
CONTINUOUS
 90
3
 70
0
 10
362.8298840332
 20
1.3587588501
 10
363.9548913574
 20
5.358759613
 10
365.0798986816
 20
1.3587588501
  0
LWPOLYLINE
  5
3E9
100
AcDbEntity
  8
0
100
AcDbPolyline
 62
7
  6
CONTINUOUS
 90
2
 70
0
 43
0.4999999952
 10
410.0
 20
10.0318435754
 10
410.0
 20
287.0
  0
LWPOLYLINE
  5
3EA
100
AcDbEntity
  8
0
100
AcDbPolyline
 62
7
  6
CONTINUOUS
 90
2
 70
0
 43
0.1000000003
 10
413.0
 20
0.0
 10
413.0
 20
297.0
  0
LINE
  5
3EB
100
AcDbEntity
  8
0
100
AcDbLine
 62
7
  6
CONTINUOUS
 10
420.0
 20
0.0
 11
420.0
 21
297.0
  0
LWPOLYLINE
  5
3EC
100
AcDbEntity
  8
0
100
AcDbPolyline
 62
2
  6
CONTINUOUS
 90
3
 70
0
 10
414.6467175293
 20
59.4840133667
 10
415.7895666504
 20
60.6268688965
 10
415.7895666504
 20
56.6268713379
  0
LINE
  5
3ED
100
AcDbEntity
  8
7_ALL_FEATURES
100
AcDbLine
 62
7
  6
CONTINUOUS
 10
90.8559712184
 20
31.920576815
 11
91.1059712184
 21
31.920576815
  0
LINE
  5
3EE
100
AcDbEntity
  8
7_ALL_FEATURES
100
AcDbLine
 62
9
  6
CONTINUOUS
 10
90.8559712184
 20
33.1348941631
 11
91.1059712184
 21
33.1348941631
  0
LINE
  5
3EF
100
AcDbEntity
  8
7_ALL_FEATURES
100
AcDbLine
 62
9
  6
CONTINUOUS
 10
90.8559712184
 20
50.1785096402
 11
91.1059712184
 21
50.1785096402
  0
LINE
  5
3F0
100
AcDbEntity
  8
7_ALL_FEATURES
100
AcDbLine
 62
9
  6
CONTINUOUS
 10
90.8559712184
 20
56.1307851465
 11
91.1059712184
 21
56.1307851465
  0
LINE
  5
3F1
100
AcDbEntity
  8
7_ALL_FEATURES
100
AcDbLine
 62
7
  6
CONTINUOUS
 10
52.6059712184
 20
103.753474936
 11
52.6059712184
 21
129.7402695573
  0
LINE
  5
3F2
100
AcDbEntity
  8
7_ALL_FEATURES
100
AcDbLine
 62
7
  6
CONTINUOUS
 10
52.8559712184
 20
129.7402695573
 11
52.8559712184
 21
103.9568650219
  0
LINE
  5
3F3
100
AcDbEntity
  8
7_ALL_FEATURES
100
AcDbLine
 62
7
  6
CONTINUOUS
 10
90.8559712184
 20
31.9207055029
 11
90.8559712184
 21
57.7041100382
  0
LINE
  5
3F4
100
AcDbEntity
  8
7_ALL_FEATURES
100
AcDbLine
 62
7
  6
CONTINUOUS
 10
91.1059712184
 20
31.9207055029
 11
91.1059712184
 21
57.9075001242
  0
LWPOLYLINE
  5
3F5
100
AcDbEntity
  8
0
100
AcDbPolyline
 62
2
  6
CONTINUOUS
 90
10
 70
0
 43
0.1500000036
 10
111.9023529053
 20
94.0185479736
 10
111.4222650146
 20
93.2465057373
 10
111.1995245361
 20
92.3144384766
 10
111.4428112793
 20
91.2710009766
 10
111.9575061035
 20
90.9509381104
 10
112.583571167
 20
91.0969152832
 10
112.9036340332
 20
91.6116101074
 10
112.7090020752
 20
92.4463677979
 10
112.194307251
 20
92.7664178467
 10
111.289989624
 20
92.5555718994
  0
LINE
  5
3F6
100
AcDbEntity
  8
7_ALL_FEATURES
100
AcDbLine
 62
9
  6
CONTINUOUS
 10
52.8559712184
 20
105.5301899137
 11
52.6059712184
 21
105.5301899137
  0
LINE
  5
3F7
100
AcDbEntity
  8
7_ALL_FEATURES
100
AcDbLine
 62
9
  6
CONTINUOUS
 10
52.8559712184
 20
111.4824654199
 11
52.6059712184
 21
111.4824654199
  0
LWPOLYLINE
  5
3F8
100
AcDbEntity
  8
0
100
AcDbPolyline
 62
2
  6
CONTINUOUS
 90
13
 70
0
 43
0.1500000036
 10
107.3040142822
 20
91.4061346436
 10
107.3771759033
 20
92.193314209
 10
107.7505718994
 20
92.7937957764
 10
108.4242150879
 20
93.2075665283
 10
109.2113946533
 20
93.1344049072
 10
109.8118634033
 20
92.7610089111
 10
110.2256469727
 20
92.0873657227
 10
110.1524853516
 20
91.3001861572
 10
109.7790765381
 20
90.6997045898
 10
109.105446167
 20
90.2859338379
 10
108.3182666016
 20
90.359095459
 10
107.7177850342
 20
90.7325042725
 10
107.3040142822
 20
91.4061346436
  0
LWPOLYLINE
  5
3F9
100
AcDbEntity
  8
0
100
AcDbPolyline
 62
2
  6
CONTINUOUS
 90
2
 70
0
 43
0.1500000036
 10
108.0584069824
 20
89.2716815186
 10
109.4712542725
 20
94.2218188477
  0
LWPOLYLINE
  5
3FA
100
AcDbEntity
  8
0
100
AcDbPolyline
 62
2
  6
CONTINUOUS
 90
13
 70
0
 43
0.1500000036
 10
113.6410693359
 20
92.2236273193
 10
113.3491149902
 20
93.4757574463
 10
113.4604852295
 20
93.941784668
 10
113.7805352783
 20
94.4564794922
 10
113.9892279053
 20
94.5051470947
 10
114.5039227295
 20
94.1850842285
 10
114.8099249268
 20
93.8163665771
 10
115.1018792725
 20
92.5642364502
 10
114.9905090332
 20
92.0982092285
 10
114.6704589844
 20
91.5835144043
 10
114.4617663574
 20
91.5348468018
 10
113.9470715332
 20
91.854909668
 10
113.6410693359
 20
92.2236273193
  0
LINE
  5
3FB
100
AcDbEntity
  8
7_ALL_FEATURES
100
AcDbLine
 62
9
  6
CONTINUOUS
 10
52.8559712184
 20
128.526080897
 11
52.6059712184
 21
128.526080897
  0
LINE
  5
3FC
100
AcDbEntity
  8
7_ALL_FEATURES
100
AcDbLine
 62
7
  6
CONTINUOUS
 10
52.8559712184
 20
129.7403982452
 11
52.6059712184
 21
129.7403982452
  0
LINE
  5
3FD
100
AcDbEntity
  8
7_ALL_FEATURES
100
AcDbLine
 62
7
  6
CONTINUOUS
 10
41.8559712184
 20
246.3215094895
 11
41.8559712184
 21
246.2893294157
  0
LINE
  5
3FE
100
AcDbEntity
  8
02___PRT_ALL_AXES
100
AcDbLine
 62
7
  6
CONTINUOUS
 10
41.8559712184
 20
246.2893294157
 11
41.8559712184
 21
246.3215094895
  0
LINE
  5
3FF
100
AcDbEntity
  8
02___PRT_ALL_AXES
100
AcDbLine
 62
7
  6
CONTINUOUS
 10
68.3559712184
 20
194.9893294157
 11
75.3559712184
 21
194.9893294157
  0
LINE
  5
400
100
AcDbEntity
  8
7_ALL_FEATURES
100
AcDbLine
 62
7
  6
CONTINUOUS
 10
68.3559712184
 20
194.9893294157
 11
75.3559712184
 21
194.9893294157
  0
LINE
  5
401
100
AcDbEntity
  8
02___PRT_ALL_AXES
100
AcDbLine
 62
9
  6
CONTINUOUS
 10
78.7841744487
 20
198.4893294157
 11
76.1860982374
 21
198.4893294157
  0
LINE
  5
402
100
AcDbEntity
  8
02___PRT_ALL_AXES
100
AcDbLine
 62
9
  6
CONTINUOUS
 10
64.9277679882
 20
198.4893294157
 11
67.5258441995
 21
198.4893294157
  0
LINE
  5
403
100
AcDbEntity
  8
02___PRT_ALL_AXES
100
AcDbLine
 62
9
  6
CONTINUOUS
 10
69.2578950071
 20
198.4893294157
 11
74.4540474298
 21
198.4893294157
  0
LINE
  5
404
100
AcDbEntity
  8
02___PRT_ALL_AXES
100
AcDbLine
 62
7
  6
CONTINUOUS
 10
78.7841744487
 20
198.9893294157
 11
76.1860982374
 21
198.9893294157
  0
LINE
  5
405
100
AcDbEntity
  8
02___PRT_ALL_AXES
100
AcDbLine
 62
7
  6
CONTINUOUS
 10
64.9277679882
 20
198.9893294157
 11
67.5258441995
 21
198.9893294157
  0
LINE
  5
406
100
AcDbEntity
  8
02___PRT_ALL_AXES
100
AcDbLine
 62
7
  6
CONTINUOUS
 10
69.2578950071
 20
198.9893294157
 11
74.4540474298
 21
198.9893294157
  0
LINE
  5
407
100
AcDbEntity
  8
02___PRT_ALL_AXES
100
AcDbLine
 62
7
  6
CONTINUOUS
 10
50.9559712184
 20
231.3343294157
 11
50.9559712184
 21
234.6443294157
  0
LINE
  5
408
100
AcDbEntity
  8
7_ALL_FEATURES
100
AcDbLine
 62
7
  6
CONTINUOUS
 10
51.8559712184
 20
225.9893294157
 11
51.8559712184
 21
224.9893294157
  0
LINE
  5
409
100
AcDbEntity
  8
02___PRT_ALL_AXES
100
AcDbLine
 62
7
  6
CONTINUOUS
 10
51.8559712184
 20
225.9893294157
 11
51.8559712184
 21
224.9893294157
  0
LINE
  5
40A
100
AcDbEntity
  8
7_ALL_FEATURES
100
AcDbLine
 62
7
  6
CONTINUOUS
 10
51.8559712184
 20
222.4893294157
 11
51.8559712184
 21
220.4893294157
  0
LINE
  5
40B
100
AcDbEntity
  8
02___PRT_ALL_AXES
100
AcDbLine
 62
7
  6
CONTINUOUS
 10
51.8559712184
 20
222.4893294157
 11
51.8559712184
 21
220.4893294157
  0
LINE
  5
40C
100
AcDbEntity
  8
7_ALL_FEATURES
100
AcDbLine
 62
7
  6
CONTINUOUS
 10
51.8559712184
 20
217.9893294157
 11
51.8559712184
 21
215.9893294157
  0
LINE
  5
40D
100
AcDbEntity
  8
02___PRT_ALL_AXES
100
AcDbLine
 62
7
  6
CONTINUOUS
 10
51.8559712184
 20
217.9893294157
 11
51.8559712184
 21
215.9893294157
  0
LINE
  5
40E
100
AcDbEntity
  8
7_ALL_FEATURES
100
AcDbLine
 62
7
  6
CONTINUOUS
 10
51.8559712184
 20
213.4893294157
 11
51.8559712184
 21
211.9893294157
  0
LINE
  5
40F
100
AcDbEntity
  8
02___PRT_ALL_AXES
100
AcDbLine
 62
7
  6
CONTINUOUS
 10
51.8559712184
 20
213.4893294157
 11
51.8559712184
 21
211.9893294157
  0
LINE
  5
410
100
AcDbEntity
  8
7_ALL_FEATURES
100
AcDbLine
 62
7
  6
CONTINUOUS
 10
51.8559712184
 20
240.4893294157
 11
51.8559712184
 21
245.9893294157
  0
LINE
  5
411
100
AcDbEntity
  8
02___PRT_ALL_AXES
100
AcDbLine
 62
7
  6
CONTINUOUS
 10
52.2259712184
 20
230.2393294157
 11
52.2259712184
 21
235.7393294157
  0
LINE
  5
412
100
AcDbEntity
  8
7_ALL_FEATURES
100
AcDbLine
 62
7
  6
CONTINUOUS
 10
52.6059712184
 20
225.9893294157
 11
52.6059712184
 21
240.4893294157
  0
LINE
  5
413
100
AcDbEntity
  8
7_ALL_FEATURES
100
AcDbLine
 62
7
  6
CONTINUOUS
 10
52.8559712184
 20
225.9893294157
 11
52.8559712184
 21
240.4893294157
  0
LINE
  5
414
100
AcDbEntity
  8
7_ALL_FEATURES
100
AcDbLine
 62
7
  6
CONTINUOUS
 10
51.8559712184
 20
211.9893294157
 11
52.8559712184
 21
210.9893294157
  0
LINE
  5
415
100
AcDbEntity
  8
7_ALL_FEATURES
100
AcDbLine
 62
7
  6
CONTINUOUS
 10
55.3559712184
 20
224.9893294157
 11
55.3559712184
 21
222.4893294157
  0
LINE
  5
416
100
AcDbEntity
  8
7_ALL_FEATURES
100
AcDbLine
 62
7
  6
CONTINUOUS
 10
55.3559712184
 20
220.4893294157
 11
55.3559712184
 21
217.9893294157
  0
LINE
  5
417
100
AcDbEntity
  8
7_ALL_FEATURES
100
AcDbLine
 62
7
  6
CONTINUOUS
 10
55.3559712184
 20
215.9893294157
 11
55.3559712184
 21
213.4893294157
  0
LINE
  5
418
100
AcDbEntity
  8
02___PRT_ALL_AXES
100
AcDbLine
 62
7
  6
CONTINUOUS
 10
78.7841744487
 20
204.4893294157
 11
64.9277679882
 21
204.4893294157
  0
LINE
  5
419
100
AcDbEntity
  8
02___PRT_ALL_AXES
100
AcDbLine
 62
7
  6
CONTINUOUS
 10
78.7841744487
 20
207.4893294157
 11
64.9277679882
 21
207.4893294157
  0
LINE
  5
41A
100
AcDbEntity
  8
7_ALL_FEATURES
100
AcDbLine
 62
7
  6
CONTINUOUS
 10
90.8559712184
 20
210.9893294157
 11
52.8559712184
 21
210.9893294157
  0
LINE
  5
41B
100
AcDbEntity
  8
7_ALL_FEATURES
100
AcDbLine
 62
7
  6
CONTINUOUS
 10
91.8559712184
 20
211.9893294157
 11
51.8559712184
 21
211.9893294157
  0
LINE
  5
41C
100
AcDbEntity
  8
7_ALL_FEATURES
100
AcDbLine
 62
7
  6
CONTINUOUS
 10
51.8559712184
 20
213.4893294157
 11
91.8559712184
 21
213.4893294157
  0
LINE
  5
41D
100
AcDbEntity
  8
02___PRT_ALL_AXES
100
AcDbLine
 62
7
  6
CONTINUOUS
 10
64.9277679882
 20
210.9893294157
 11
64.9277679882
 21
207.4893294157
  0
LINE
  5
41E
100
AcDbEntity
  8
02___PRT_ALL_AXES
100
AcDbLine
 62
7
  6
CONTINUOUS
 10
64.9277679882
 20
197.7841673141
 11
64.9277679882
 21
204.4893294157
  0
LINE
  5
41F
100
AcDbEntity
  8
02___PRT_ALL_AXES
100
AcDbLine
 62
7
  6
CONTINUOUS
 10
65.8559712184
 20
204.4893294157
 11
65.8559712184
 21
207.4893294157
  0
LINE
  5
420
100
AcDbEntity
  8
7_ALL_FEATURES
100
AcDbLine
 62
7
  6
CONTINUOUS
 10
91.8559712184
 20
215.9893294157
 11
51.8559712184
 21
215.9893294157
  0
LINE
  5
421
100
AcDbEntity
  8
02___PRT_ALL_AXES
100
AcDbLine
 62
7
  6
CONTINUOUS
 10
67.5258441995
 20
198.4893294157
 11
67.5258441995
 21
198.9893294157
  0
LINE
  5
422
100
AcDbEntity
  8
02___PRT_ALL_AXES
100
AcDbLine
 62
7
  6
CONTINUOUS
 10
69.2578950071
 20
198.4893294157
 11
69.2578950071
 21
198.9893294157
  0
LINE
  5
423
100
AcDbEntity
  8
7_ALL_FEATURES
100
AcDbLine
 62
7
  6
CONTINUOUS
 10
51.8559712184
 20
217.9893294157
 11
91.8559712184
 21
217.9893294157
  0
LINE
  5
424
100
AcDbEntity
  8
02___PRT_ALL_AXES
100
AcDbLine
 62
7
  6
CONTINUOUS
 10
71.8559712184
 20
210.9893294157
 11
71.8559712184
 21
207.4893294157
  0
LINE
  5
425
100
AcDbEntity
  8
02___PRT_ALL_AXES
100
AcDbLine
 62
7
  6
CONTINUOUS
 10
71.8559712184
 20
204.4893294157
 11
71.8559712184
 21
199.9893294157
  0
LINE
  5
426
100
AcDbEntity
  8
7_ALL_FEATURES
100
AcDbLine
 62
7
  6
CONTINUOUS
 10
91.8559712184
 20
220.4893294157
 11
51.8559712184
 21
220.4893294157
  0
LINE
  5
427
100
AcDbEntity
  8
02___PRT_ALL_AXES
100
AcDbLine
 62
7
  6
CONTINUOUS
 10
74.4540474298
 20
198.4893294157
 11
74.4540474298
 21
198.9893294157
  0
LINE
  5
428
100
AcDbEntity
  8
7_ALL_FEATURES
100
AcDbLine
 62
7
  6
CONTINUOUS
 10
51.8559712184
 20
222.4893294157
 11
91.8559712184
 21
222.4893294157
  0
LINE
  5
429
100
AcDbEntity
  8
02___PRT_ALL_AXES
100
AcDbLine
 62
7
  6
CONTINUOUS
 10
76.1860982374
 20
198.4893294157
 11
76.1860982374
 21
198.9893294157
  0
LINE
  5
42A
100
AcDbEntity
  8
7_ALL_FEATURES
100
AcDbLine
 62
7
  6
CONTINUOUS
 10
91.8559712184
 20
224.9893294157
 11
51.8559712184
 21
224.9893294157
  0
LINE
  5
42B
100
AcDbEntity
  8
7_ALL_FEATURES
100
AcDbLine
 62
7
  6
CONTINUOUS
 10
90.8559712184
 20
225.7393294157
 11
91.1059712184
 21
225.7393294157
  0
LINE
  5
42C
100
AcDbEntity
  8
7_ALL_FEATURES
100
AcDbLine
 62
7
  6
CONTINUOUS
 10
91.8559712184
 20
225.9893294157
 11
91.1059712184
 21
225.9893294157
  0
LINE
  5
42D
100
AcDbEntity
  8
7_ALL_FEATURES
100
AcDbLine
 62
7
  6
CONTINUOUS
 10
52.8559712184
 20
225.9893294157
 11
51.8559712184
 21
225.9893294157
  0
LINE
  5
42E
100
AcDbEntity
  8
02___PRT_ALL_AXES
100
AcDbLine
 62
7
  6
CONTINUOUS
 10
77.8559712184
 20
204.4893294157
 11
77.8559712184
 21
207.4893294157
  0
LINE
  5
42F
100
AcDbEntity
  8
02___PRT_ALL_AXES
100
AcDbLine
 62
7
  6
CONTINUOUS
 10
78.7841744487
 20
210.9893294157
 11
78.7841744487
 21
207.4893294157
  0
LINE
  5
430
100
AcDbEntity
  8
02___PRT_ALL_AXES
100
AcDbLine
 62
7
  6
CONTINUOUS
 10
78.7841744487
 20
197.7841673141
 11
78.7841744487
 21
204.4893294157
  0
LINE
  5
431
100
AcDbEntity
  8
02___PRT_ALL_AXES
100
AcDbLine
 62
7
  6
CONTINUOUS
 10
91.4859712184
 20
230.2393294157
 11
91.1059712184
 21
230.2393294157
  0
LINE
  5
432
100
AcDbEntity
  8
02___PRT_ALL_AXES
100
AcDbLine
 62
7
  6
CONTINUOUS
 10
52.6059712184
 20
230.2393294157
 11
52.2259712184
 21
230.2393294157
  0
LINE
  5
433
100
AcDbEntity
  8
7_ALL_FEATURES
100
AcDbLine
 62
9
  6
CONTINUOUS
 10
90.8559712184
 20
231.1500009958
 11
91.1059712184
 21
231.1500009958
  0
LINE
  5
434
100
AcDbEntity
  8
7_ALL_FEATURES
100
AcDbLine
 62
9
  6
CONTINUOUS
 10
52.8559712184
 20
231.7393294157
 11
52.6059712184
 21
231.7393294157
  0
LINE
  5
435
100
AcDbEntity
  8
7_ALL_FEATURES
100
AcDbLine
 62
9
  6
CONTINUOUS
 10
52.8559712184
 20
234.2393294157
 11
52.6059712184
 21
234.2393294157
  0
LINE
  5
436
100
AcDbEntity
  8
02___PRT_ALL_AXES
100
AcDbLine
 62
7
  6
CONTINUOUS
 10
91.4859712184
 20
235.7393294157
 11
91.1059712184
 21
235.7393294157
  0
LINE
  5
437
100
AcDbEntity
  8
02___PRT_ALL_AXES
100
AcDbLine
 62
7
  6
CONTINUOUS
 10
52.6059712184
 20
235.7393294157
 11
52.2259712184
 21
235.7393294157
  0
LINE
  5
438
100
AcDbEntity
  8
7_ALL_FEATURES
100
AcDbLine
 62
7
  6
CONTINUOUS
 10
88.3559712184
 20
224.9893294157
 11
88.3559712184
 21
222.4893294157
  0
LINE
  5
439
100
AcDbEntity
  8
7_ALL_FEATURES
100
AcDbLine
 62
7
  6
CONTINUOUS
 10
88.3559712184
 20
220.4893294157
 11
88.3559712184
 21
217.9893294157
  0
LINE
  5
43A
100
AcDbEntity
  8
7_ALL_FEATURES
100
AcDbLine
 62
7
  6
CONTINUOUS
 10
88.3559712184
 20
215.9893294157
 11
88.3559712184
 21
213.4893294157
  0
LINE
  5
43B
100
AcDbEntity
  8
7_ALL_FEATURES
100
AcDbLine
 62
7
  6
CONTINUOUS
 10
90.8559712184
 20
225.7393294157
 11
90.8559712184
 21
245.7393294157
  0
LINE
  5
43C
100
AcDbEntity
  8
7_ALL_FEATURES
100
AcDbLine
 62
7
  6
CONTINUOUS
 10
90.8559712184
 20
239.9893294157
 11
52.8559712184
 21
239.9893294157
  0
LINE
  5
43D
100
AcDbEntity
  8
7_ALL_FEATURES
100
AcDbLine
 62
7
  6
CONTINUOUS
 10
52.8559712184
 20
240.2393294157
 11
52.6059712184
 21
240.2393294157
  0
LINE
  5
43E
100
AcDbEntity
  8
7_ALL_FEATURES
100
AcDbLine
 62
7
  6
CONTINUOUS
 10
51.8559712184
 20
240.4893294157
 11
90.8559712184
 21
240.4893294157
  0
LINE
  5
43F
100
AcDbEntity
  8
7_ALL_FEATURES
100
AcDbLine
 62
7
  6
CONTINUOUS
 10
91.1059712184
 20
240.4893294157
 11
91.8559712184
 21
240.4893294157
  0
LINE
  5
440
100
AcDbEntity
  8
7_ALL_FEATURES
100
AcDbLine
 62
7
  6
CONTINUOUS
 10
91.1059712184
 20
225.7393294157
 11
91.1059712184
 21
245.7393294157
  0
LINE
  5
441
100
AcDbEntity
  8
02___PRT_ALL_AXES
100
AcDbLine
 62
7
  6
CONTINUOUS
 10
91.4859712184
 20
235.7393294157
 11
91.4859712184
 21
230.2393294157
  0
LINE
  5
442
100
AcDbEntity
  8
7_ALL_FEATURES
100
AcDbLine
 62
7
  6
CONTINUOUS
 10
91.8559712184
 20
225.9893294157
 11
91.8559712184
 21
224.9893294157
  0
LINE
  5
443
100
AcDbEntity
  8
02___PRT_ALL_AXES
100
AcDbLine
 62
7
  6
CONTINUOUS
 10
91.8559712184
 20
225.9893294157
 11
91.8559712184
 21
224.9893294157
  0
LINE
  5
444
100
AcDbEntity
  8
7_ALL_FEATURES
100
AcDbLine
 62
7
  6
CONTINUOUS
 10
91.8559712184
 20
222.4893294157
 11
91.8559712184
 21
220.4893294157
  0
LINE
  5
445
100
AcDbEntity
  8
02___PRT_ALL_AXES
100
AcDbLine
 62
7
  6
CONTINUOUS
 10
91.8559712184
 20
222.4893294157
 11
91.8559712184
 21
220.4893294157
  0
LINE
  5
446
100
AcDbEntity
  8
7_ALL_FEATURES
100
AcDbLine
 62
7
  6
CONTINUOUS
 10
91.8559712184
 20
217.9893294157
 11
91.8559712184
 21
215.9893294157
  0
LINE
  5
447
100
AcDbEntity
  8
02___PRT_ALL_AXES
100
AcDbLine
 62
7
  6
CONTINUOUS
 10
91.8559712184
 20
217.9893294157
 11
91.8559712184
 21
215.9893294157
  0
LINE
  5
448
100
AcDbEntity
  8
7_ALL_FEATURES
100
AcDbLine
 62
7
  6
CONTINUOUS
 10
91.8559712184
 20
213.4893294157
 11
91.8559712184
 21
211.9893294157
  0
LINE
  5
449
100
AcDbEntity
  8
02___PRT_ALL_AXES
100
AcDbLine
 62
7
  6
CONTINUOUS
 10
91.8559712184
 20
213.4893294157
 11
91.8559712184
 21
211.9893294157
  0
LINE
  5
44A
100
AcDbEntity
  8
7_ALL_FEATURES
100
AcDbLine
 62
7
  6
CONTINUOUS
 10
91.8559712184
 20
240.4893294157
 11
91.8559712184
 21
245.9893294157
  0
LINE
  5
44B
100
AcDbEntity
  8
02___PRT_ALL_AXES
100
AcDbLine
 62
7
  6
CONTINUOUS
 10
92.7559712184
 20
234.6443294157
 11
92.7559712184
 21
231.3343294157
  0
LINE
  5
44C
100
AcDbEntity
  8
7_ALL_FEATURES
100
AcDbLine
 62
7
  6
CONTINUOUS
 10
91.8559712184
 20
211.9893294157
 11
90.8559712184
 21
210.9893294157
  0
LINE
  5
44D
100
AcDbEntity
  8
7_ALL_FEATURES
100
AcDbLine
 62
9
  6
CONTINUOUS
 10
90.8559712184
 20
243.7749013492
 11
91.1059712184
 21
243.7749013492
  0
LINE
  5
44E
100
AcDbEntity
  8
7_ALL_FEATURES
100
AcDbLine
 62
7
  6
CONTINUOUS
 10
90.8559712184
 20
245.7393294157
 11
91.1059712184
 21
245.7393294157
  0
LINE
  5
44F
100
AcDbEntity
  8
7_ALL_FEATURES
100
AcDbLine
 62
7
  6
CONTINUOUS
 10
101.5559712184
 20
245.9893294157
 11
42.1559712184
 21
245.9893294157
  0
LINE
  5
450
100
AcDbEntity
  8
7_ALL_FEATURES
100
AcDbLine
 62
9
  6
CONTINUOUS
 10
101.8559712184
 20
246.2893294157
 11
41.8559712184
 21
246.2893294157
  0
LINE
  5
451
100
AcDbEntity
  8
7_ALL_FEATURES
100
AcDbLine
 62
9
  6
CONTINUOUS
 10
41.8559712184
 20
246.3215094895
 11
101.8559712184
 21
246.3215094895
  0
LINE
  5
452
100
AcDbEntity
  8
7_ALL_FEATURES
100
AcDbLine
 62
9
  6
CONTINUOUS
 10
42.0212415829
 20
246.5184710401
 11
101.690700854
 21
246.5184710401
  0
LINE
  5
453
100
AcDbEntity
  8
7_ALL_FEATURES
100
AcDbLine
 62
7
  6
CONTINUOUS
 10
50.3628939479
 20
247.9893294157
 11
93.349048489
 21
247.9893294157
  0
LINE
  5
454
100
AcDbEntity
  8
02___PRT_ALL_AXES
100
AcDbLine
 62
7
  6
CONTINUOUS
 10
101.8559712184
 20
246.2893294157
 11
101.8559712184
 21
246.3215094895
  0
LINE
  5
455
100
AcDbEntity
  8
7_ALL_FEATURES
100
AcDbLine
 62
7
  6
CONTINUOUS
 10
42.0212415829
 20
246.5184710401
 11
50.3628939479
 21
247.9893294157
  0
LINE
  5
456
100
AcDbEntity
  8
7_ALL_FEATURES
100
AcDbLine
 62
7
  6
CONTINUOUS
 10
101.690700854
 20
246.5184710401
 11
93.349048489
 21
247.9893294157
  0
LWPOLYLINE
  5
457
100
AcDbEntity
  8
0
100
AcDbPolyline
 62
2
  6
CONTINUOUS
 90
8
 70
0
 43
0.1500000036
 10
121.4644281006
 20
219.3464685059
 10
121.4644281006
 20
220.2036181641
 10
121.0358532715
 20
220.6321801758
 10
120.1787164307
 20
220.6321801758
 10
119.7501416016
 20
220.2036181641
 10
119.7501416016
 20
219.3464685059
 10
118.4644299316
 20
219.3464685059
 10
118.4644299316
 20
220.6321801758
  0
LWPOLYLINE
  5
458
100
AcDbEntity
  8
0
100
AcDbPolyline
 62
2
  6
CONTINUOUS
 90
6
 70
0
 43
0.1500000036
 10
121.4644281006
 20
221.489329834
 10
121.4644281006
 20
222.560760498
 10
121.2501470947
 20
222.7750415039
 10
120.1787164307
 20
222.7750415039
 10
119.7501416016
 20
222.3464794922
 10
119.7501416016
 20
221.9178918457
  0
LWPOLYLINE
  5
459
100
AcDbEntity
  8
0
100
AcDbPolyline
 62
2
  6
CONTINUOUS
 90
5
 70
0
 43
0.1500000036
 10
119.7501416016
 20
222.3464794922
 10
119.5358605957
 20
222.7036230469
 10
118.8930047607
 20
222.7036230469
 10
118.4644299316
 20
222.3464794922
 10
118.4644299316
 20
221.489329834
  0
LINE
  5
45A
100
AcDbEntity
  8
7_ALL_FEATURES
100
AcDbLine
 62
7
  6
CONTINUOUS
 10
157.1695353444
 20
231.1500009958
 11
174.2131508215
 21
243.7749013492
  0
LINE
  5
45B
100
AcDbEntity
  8
02___PRT_ALL_AXES
100
AcDbLine
 62
7
  6
CONTINUOUS
 10
174.8651287113
 20
246.2893294157
 11
174.8651287113
 21
246.3215094895
  0
LINE
  5
45C
100
AcDbEntity
  8
02___PRT_ALL_AXES
100
AcDbLine
 62
7
  6
CONTINUOUS
 10
211.3651287113
 20
194.9893294157
 11
218.3651287113
 21
194.9893294157
  0
LINE
  5
45D
100
AcDbEntity
  8
7_ALL_FEATURES
100
AcDbLine
 62
7
  6
CONTINUOUS
 10
211.3651287113
 20
194.9893294157
 11
218.3651287113
 21
194.9893294157
  0
LINE
  5
45E
100
AcDbEntity
  8
02___PRT_ALL_AXES
100
AcDbLine
 62
9
  6
CONTINUOUS
 10
207.8651287113
 20
198.4893294157
 11
208.3651287113
 21
198.4893294157
  0
LINE
  5
45F
100
AcDbEntity
  8
02___PRT_ALL_AXES
100
AcDbLine
 62
9
  6
CONTINUOUS
 10
209.3651287113
 20
198.4893294157
 11
213.8651287113
 21
198.4893294157
  0
LINE
  5
460
100
AcDbEntity
  8
02___PRT_ALL_AXES
100
AcDbLine
 62
9
  6
CONTINUOUS
 10
215.8651287113
 20
198.4893294157
 11
220.3651287113
 21
198.4893294157
  0
LINE
  5
461
100
AcDbEntity
  8
02___PRT_ALL_AXES
100
AcDbLine
 62
9
  6
CONTINUOUS
 10
221.3651287113
 20
198.4893294157
 11
221.8651287113
 21
198.4893294157
  0
LINE
  5
462
100
AcDbEntity
  8
02___PRT_ALL_AXES
100
AcDbLine
 62
7
  6
CONTINUOUS
 10
207.8651287113
 20
198.9893294157
 11
208.3651287113
 21
198.9893294157
  0
LINE
  5
463
100
AcDbEntity
  8
02___PRT_ALL_AXES
100
AcDbLine
 62
7
  6
CONTINUOUS
 10
209.3651287113
 20
198.9893294157
 11
213.8651287113
 21
198.9893294157
  0
LINE
  5
464
100
AcDbEntity
  8
02___PRT_ALL_AXES
100
AcDbLine
 62
7
  6
CONTINUOUS
 10
215.8651287113
 20
198.9893294157
 11
220.3651287113
 21
198.9893294157
  0
LINE
  5
465
100
AcDbEntity
  8
02___PRT_ALL_AXES
100
AcDbLine
 62
7
  6
CONTINUOUS
 10
221.3651287113
 20
198.9893294157
 11
221.8651287113
 21
198.9893294157
  0
LINE
  5
466
100
AcDbEntity
  8
02___PRT_ALL_AXES
100
AcDbLine
 62
7
  6
CONTINUOUS
 10
184.8651287113
 20
225.7393294157
 11
184.8651287113
 21
224.9893294157
  0
LINE
  5
467
100
AcDbEntity
  8
02___PRT_ALL_AXES
100
AcDbLine
 62
7
  6
CONTINUOUS
 10
184.8651287113
 20
222.4893294157
 11
184.8651287113
 21
220.4893294157
  0
LINE
  5
468
100
AcDbEntity
  8
02___PRT_ALL_AXES
100
AcDbLine
 62
7
  6
CONTINUOUS
 10
184.8651287113
 20
217.9893294157
 11
184.8651287113
 21
215.9893294157
  0
LINE
  5
469
100
AcDbEntity
  8
02___PRT_ALL_AXES
100
AcDbLine
 62
7
  6
CONTINUOUS
 10
184.8651287113
 20
213.4893294157
 11
184.8651287113
 21
211.9893294157
  0
LINE
  5
46A
100
AcDbEntity
  8
7_ALL_FEATURES
100
AcDbLine
 62
7
  6
CONTINUOUS
 10
184.8651287113
 20
211.9893294157
 11
185.8651287113
 21
210.9893294157
  0
LINE
  5
46B
100
AcDbEntity
  8
7_ALL_FEATURES
100
AcDbLine
 62
7
  6
CONTINUOUS
 10
188.3651287113
 20
224.9893294157
 11
188.3651287113
 21
222.4893294157
  0
LINE
  5
46C
100
AcDbEntity
  8
7_ALL_FEATURES
100
AcDbLine
 62
7
  6
CONTINUOUS
 10
188.3651287113
 20
220.4893294157
 11
188.3651287113
 21
217.9893294157
  0
LINE
  5
46D
100
AcDbEntity
  8
7_ALL_FEATURES
100
AcDbLine
 62
7
  6
CONTINUOUS
 10
188.3651287113
 20
215.9893294157
 11
188.3651287113
 21
213.4893294157
  0
LINE
  5
46E
100
AcDbEntity
  8
02___PRT_ALL_AXES
100
AcDbLine
 62
7
  6
CONTINUOUS
 10
222.8651287113
 20
204.4893294157
 11
206.8651287113
 21
204.4893294157
  0
LINE
  5
46F
100
AcDbEntity
  8
7_ALL_FEATURES
100
AcDbLine
 62
7
  6
CONTINUOUS
 10
204.8651287113
 20
234.1440299541
 11
203.8651287113
 21
233.5666796849
  0
LINE
  5
470
100
AcDbEntity
  8
02___PRT_ALL_AXES
100
AcDbLine
 62
7
  6
CONTINUOUS
 10
222.8651287113
 20
207.4893294157
 11
206.8651287113
 21
207.4893294157
  0
LINE
  5
471
100
AcDbEntity
  8
02___PRT_ALL_AXES
100
AcDbLine
 62
7
  6
CONTINUOUS
 10
207.8651287113
 20
198.9893294157
 11
206.8651287113
 21
199.9893294157
  0
LINE
  5
472
100
AcDbEntity
  8
7_ALL_FEATURES
100
AcDbLine
 62
7
  6
CONTINUOUS
 10
194.8651287113
 20
242.7393294157
 11
194.8651287113
 21
242.2393294157
  0
LINE
  5
473
100
AcDbEntity
  8
7_ALL_FEATURES
100
AcDbLine
 62
7
  6
CONTINUOUS
 10
204.8651287113
 20
231.8346288774
 11
205.8651287113
 21
232.4119791465
  0
LINE
  5
474
100
AcDbEntity
  8
7_ALL_FEATURES
100
AcDbLine
 62
7
  6
CONTINUOUS
 10
223.8649060847
 20
210.9893294157
 11
185.865351338
 21
210.9893294157
  0
LINE
  5
475
100
AcDbEntity
  8
7_ALL_FEATURES
100
AcDbLine
 62
7
  6
CONTINUOUS
 10
224.8651287113
 20
211.9893294157
 11
184.8651287113
 21
211.9893294157
  0
LINE
  5
476
100
AcDbEntity
  8
7_ALL_FEATURES
100
AcDbLine
 62
7
  6
CONTINUOUS
 10
184.8651287113
 20
213.4893294157
 11
224.8651287113
 21
213.4893294157
  0
LINE
  5
477
100
AcDbEntity
  8
7_ALL_FEATURES
100
AcDbLine
 62
7
  6
CONTINUOUS
 10
198.4620044739
 20
240.9893294157
 11
198.4620044739
 21
245.6893294157
  0
LINE
  5
478
100
AcDbEntity
  8
7_ALL_FEATURES
100
AcDbLine
 62
7
  6
CONTINUOUS
 10
224.8651287113
 20
215.9893294157
 11
184.8651287113
 21
215.9893294157
  0
LINE
  5
479
100
AcDbEntity
  8
7_ALL_FEATURES
100
AcDbLine
 62
7
  6
CONTINUOUS
 10
184.8651287113
 20
217.9893294157
 11
224.8651287113
 21
217.9893294157
  0
LINE
  5
47A
100
AcDbEntity
  8
7_ALL_FEATURES
100
AcDbLine
 62
7
  6
CONTINUOUS
 10
203.8651287113
 20
233.5666796849
 11
203.8651287113
 21
232.4119791465
  0
LINE
  5
47B
100
AcDbEntity
  8
7_ALL_FEATURES
100
AcDbLine
 62
7
  6
CONTINUOUS
 10
224.8651287113
 20
220.4893294157
 11
184.8651287113
 21
220.4893294157
  0
LINE
  5
47C
100
AcDbEntity
  8
7_ALL_FEATURES
100
AcDbLine
 62
7
  6
CONTINUOUS
 10
205.8651287113
 20
232.4119791465
 11
205.8651287113
 21
233.5666796849
  0
LINE
  5
47D
100
AcDbEntity
  8
02___PRT_ALL_AXES
100
AcDbLine
 62
7
  6
CONTINUOUS
 10
206.8651287113
 20
210.9893294157
 11
206.8651287113
 21
207.4893294157
  0
LINE
  5
47E
100
AcDbEntity
  8
02___PRT_ALL_AXES
100
AcDbLine
 62
7
  6
CONTINUOUS
 10
206.8651287113
 20
204.4893294157
 11
206.8651287113
 21
199.9893294157
  0
LINE
  5
47F
100
AcDbEntity
  8
02___PRT_ALL_AXES
100
AcDbLine
 62
7
  6
CONTINUOUS
 10
207.8651287113
 20
198.4893294157
 11
207.8651287113
 21
198.9893294157
  0
LINE
  5
480
100
AcDbEntity
  8
02___PRT_ALL_AXES
100
AcDbLine
 62
7
  6
CONTINUOUS
 10
208.3651287113
 20
198.4893294157
 11
208.3651287113
 21
198.9893294157
  0
LINE
  5
481
100
AcDbEntity
  8
02___PRT_ALL_AXES
100
AcDbLine
 62
7
  6
CONTINUOUS
 10
208.8651287113
 20
207.4893294157
 11
208.8651287113
 21
204.4893294157
  0
LINE
  5
482
100
AcDbEntity
  8
7_ALL_FEATURES
100
AcDbLine
 62
7
  6
CONTINUOUS
 10
184.8651287113
 20
222.4893294157
 11
224.8651287113
 21
222.4893294157
  0
LINE
  5
483
100
AcDbEntity
  8
7_ALL_FEATURES
100
AcDbLine
 62
7
  6
CONTINUOUS
 10
224.8651287113
 20
224.9893294157
 11
184.8651287113
 21
224.9893294157
  0
LINE
  5
484
100
AcDbEntity
  8
02___PRT_ALL_AXES
100
AcDbLine
 62
7
  6
CONTINUOUS
 10
209.3651287113
 20
198.4893294157
 11
209.3651287113
 21
198.9893294157
  0
LINE
  5
485
100
AcDbEntity
  8
02___PRT_ALL_AXES
100
AcDbLine
 62
7
  6
CONTINUOUS
 10
210.8651287113
 20
210.9893294157
 11
210.8651287113
 21
207.4893294157
  0
LINE
  5
486
100
AcDbEntity
  8
02___PRT_ALL_AXES
100
AcDbLine
 62
7
  6
CONTINUOUS
 10
210.8651287113
 20
204.4893294157
 11
210.8651287113
 21
199.9893294157
  0
LINE
  5
487
100
AcDbEntity
  8
7_ALL_FEATURES
100
AcDbLine
 62
7
  6
CONTINUOUS
 10
211.1101267097
 20
239.9893294157
 11
211.1101267097
 21
237.8839845217
  0
LINE
  5
488
100
AcDbEntity
  8
7_ALL_FEATURES
100
AcDbLine
 62
7
  6
CONTINUOUS
 10
211.1101267097
 20
228.0946968763
 11
211.1101267097
 21
225.9893294157
  0
LINE
  5
489
100
AcDbEntity
  8
7_ALL_FEATURES
100
AcDbLine
 62
7
  6
CONTINUOUS
 10
211.2682529488
 20
240.4893294157
 11
211.2682529488
 21
245.9893294157
  0
LINE
  5
48A
100
AcDbEntity
  8
7_ALL_FEATURES
100
AcDbLine
 62
7
  6
CONTINUOUS
 10
212.3651287113
 20
234.2393294157
 11
212.3651287113
 21
231.7393294157
  0
LINE
  5
48B
100
AcDbEntity
  8
7_ALL_FEATURES
100
AcDbLine
 62
7
  6
CONTINUOUS
 10
158.9552179963
 20
225.7393294157
 11
206.3651287113
 21
225.7393294157
  0
LINE
  5
48C
100
AcDbEntity
  8
7_ALL_FEATURES
100
AcDbLine
 62
7
  6
CONTINUOUS
 10
224.8651287113
 20
225.7393294157
 11
250.7750394264
 21
225.7393294157
  0
LINE
  5
48D
100
AcDbEntity
  8
7_ALL_FEATURES
100
AcDbLine
 62
7
  6
CONTINUOUS
 10
211.1101267108
 20
225.9893294157
 11
198.6201307119
 21
225.9893294157
  0
LINE
  5
48E
100
AcDbEntity
  8
02___PRT_ALL_AXES
100
AcDbLine
 62
7
  6
CONTINUOUS
 10
213.8651287113
 20
198.4893294157
 11
213.8651287113
 21
198.9893294157
  0
LINE
  5
48F
100
AcDbEntity
  8
02___PRT_ALL_AXES
100
AcDbLine
 62
7
  6
CONTINUOUS
 10
215.8651287113
 20
198.4893294157
 11
215.8651287113
 21
198.9893294157
  0
LINE
  5
490
100
AcDbEntity
  8
7_ALL_FEATURES
100
AcDbLine
 62
7
  6
CONTINUOUS
 10
203.8651287113
 20
232.4119791465
 11
204.8651287113
 21
231.8346288774
  0
LINE
  5
491
100
AcDbEntity
  8
7_ALL_FEATURES
100
AcDbLine
 62
7
  6
CONTINUOUS
 10
205.8651287113
 20
233.5666796849
 11
204.8651287113
 21
234.1440299541
  0
LINE
  5
492
100
AcDbEntity
  8
02___PRT_ALL_AXES
100
AcDbLine
 62
7
  6
CONTINUOUS
 10
218.8651287113
 20
210.9893294157
 11
218.8651287113
 21
207.4893294157
  0
LINE
  5
493
100
AcDbEntity
  8
02___PRT_ALL_AXES
100
AcDbLine
 62
7
  6
CONTINUOUS
 10
218.8651287113
 20
204.4893294157
 11
218.8651287113
 21
199.9893294157
  0
LINE
  5
494
100
AcDbEntity
  8
02___PRT_ALL_AXES
100
AcDbLine
 62
7
  6
CONTINUOUS
 10
220.3651287113
 20
198.4893294157
 11
220.3651287113
 21
198.9893294157
  0
LINE
  5
495
100
AcDbEntity
  8
02___PRT_ALL_AXES
100
AcDbLine
 62
7
  6
CONTINUOUS
 10
220.8651287113
 20
207.4893294157
 11
220.8651287113
 21
204.4893294157
  0
LINE
  5
496
100
AcDbEntity
  8
7_ALL_FEATURES
100
AcDbLine
 62
7
  6
CONTINUOUS
 10
221.3651287113
 20
224.9893294157
 11
221.3651287113
 21
222.4893294157
  0
LINE
  5
497
100
AcDbEntity
  8
7_ALL_FEATURES
100
AcDbLine
 62
7
  6
CONTINUOUS
 10
221.3651287113
 20
220.4893294157
 11
221.3651287113
 21
217.9893294157
  0
LINE
  5
498
100
AcDbEntity
  8
7_ALL_FEATURES
100
AcDbLine
 62
7
  6
CONTINUOUS
 10
221.3651287113
 20
215.9893294157
 11
221.3651287113
 21
213.4893294157
  0
LINE
  5
499
100
AcDbEntity
  8
02___PRT_ALL_AXES
100
AcDbLine
 62
7
  6
CONTINUOUS
 10
221.3651287113
 20
198.4893294157
 11
221.3651287113
 21
198.9893294157
  0
LINE
  5
49A
100
AcDbEntity
  8
02___PRT_ALL_AXES
100
AcDbLine
 62
7
  6
CONTINUOUS
 10
221.8651287113
 20
198.4893294157
 11
221.8651287113
 21
198.9893294157
  0
LINE
  5
49B
100
AcDbEntity
  8
02___PRT_ALL_AXES
100
AcDbLine
 62
7
  6
CONTINUOUS
 10
222.8651287113
 20
210.9893294157
 11
222.8651287113
 21
207.4893294157
  0
LINE
  5
49C
100
AcDbEntity
  8
02___PRT_ALL_AXES
100
AcDbLine
 62
7
  6
CONTINUOUS
 10
222.8651287113
 20
204.4893294157
 11
222.8651287113
 21
199.9893294157
  0
LINE
  5
49D
100
AcDbEntity
  8
7_ALL_FEATURES
100
AcDbLine
 62
7
  6
CONTINUOUS
 10
223.8651287113
 20
240.4893294157
 11
223.8651287113
 21
239.9893294157
  0
LINE
  5
49E
100
AcDbEntity
  8
7_ALL_FEATURES
100
AcDbLine
 62
7
  6
CONTINUOUS
 10
224.8651287113
 20
239.9893294157
 11
207.9990092405
 21
239.9893294157
  0
LINE
  5
49F
100
AcDbEntity
  8
7_ALL_FEATURES
100
AcDbLine
 62
7
  6
CONTINUOUS
 10
206.3651287113
 20
240.2393294157
 11
196.8651287113
 21
240.2393294157
  0
LINE
  5
4A0
100
AcDbEntity
  8
7_ALL_FEATURES
100
AcDbLine
 62
7
  6
CONTINUOUS
 10
195.9148244408
 20
240.4893294157
 11
225.8651287113
 21
240.4893294157
  0
LINE
  5
4A1
100
AcDbEntity
  8
02___PRT_ALL_AXES
100
AcDbLine
 62
7
  6
CONTINUOUS
 10
224.8651287113
 20
239.9893294157
 11
224.8651287113
 21
224.9893294157
  0
LINE
  5
4A2
100
AcDbEntity
  8
02___PRT_ALL_AXES
100
AcDbLine
 62
7
  6
CONTINUOUS
 10
224.8651287113
 20
222.4893294157
 11
224.8651287113
 21
220.4893294157
  0
LINE
  5
4A3
100
AcDbEntity
  8
02___PRT_ALL_AXES
100
AcDbLine
 62
7
  6
CONTINUOUS
 10
224.8651287113
 20
217.9893294157
 11
224.8651287113
 21
215.9893294157
  0
LINE
  5
4A4
100
AcDbEntity
  8
02___PRT_ALL_AXES
100
AcDbLine
 62
7
  6
CONTINUOUS
 10
224.8651287113
 20
213.4893294157
 11
224.8651287113
 21
211.9893294157
  0
LINE
  5
4A5
100
AcDbEntity
  8
02___PRT_ALL_AXES
100
AcDbLine
 62
7
  6
CONTINUOUS
 10
225.8651287113
 20
240.4893294157
 11
225.8651287113
 21
245.9893294157
  0
LINE
  5
4A6
100
AcDbEntity
  8
7_ALL_FEATURES
100
AcDbLine
 62
7
  6
CONTINUOUS
 10
224.8651287113
 20
211.9893294157
 11
223.8651287113
 21
210.9893294157
  0
LINE
  5
4A7
100
AcDbEntity
  8
7_ALL_FEATURES
100
AcDbLine
 62
9
  6
CONTINUOUS
 10
195.3039232062
 20
240.9893294157
 11
198.4620044739
 21
240.9893294157
  0
LINE
  5
4A8
100
AcDbEntity
  8
7_ALL_FEATURES
100
AcDbLine
 62
9
  6
CONTINUOUS
 10
198.4620044739
 20
245.6893294157
 11
192.3792271779
 21
245.6893294157
  0
LINE
  5
4A9
100
AcDbEntity
  8
7_ALL_FEATURES
100
AcDbLine
 62
7
  6
CONTINUOUS
 10
229.5648310949
 20
245.7393294157
 11
225.8651287113
 21
245.7393294157
  0
LINE
  5
4AA
100
AcDbEntity
  8
7_ALL_FEATURES
100
AcDbLine
 62
7
  6
CONTINUOUS
 10
180.1654263278
 20
245.7393294157
 11
191.8651287113
 21
245.7393294157
  0
LINE
  5
4AB
100
AcDbEntity
  8
7_ALL_FEATURES
100
AcDbLine
 62
7
  6
CONTINUOUS
 10
234.5648866741
 20
245.9893294157
 11
175.1653707486
 21
245.9893294157
  0
LINE
  5
4AC
100
AcDbEntity
  8
7_ALL_FEATURES
100
AcDbLine
 62
9
  6
CONTINUOUS
 10
234.8651287113
 20
246.2893294157
 11
174.8651287113
 21
246.2893294157
  0
LINE
  5
4AD
100
AcDbEntity
  8
7_ALL_FEATURES
100
AcDbLine
 62
9
  6
CONTINUOUS
 10
174.8651287113
 20
246.3215094895
 11
234.8651287113
 21
246.3215094895
  0
LINE
  5
4AE
100
AcDbEntity
  8
7_ALL_FEATURES
100
AcDbLine
 62
9
  6
CONTINUOUS
 10
175.0303990758
 20
246.5184710401
 11
234.6998583469
 21
246.5184710401
  0
LINE
  5
4AF
100
AcDbEntity
  8
02___PRT_ALL_AXES
100
AcDbLine
 62
7
  6
CONTINUOUS
 10
234.8651287113
 20
246.2893294157
 11
234.8651287113
 21
246.3215094895
  0
LINE
  5
4B0
100
AcDbEntity
  8
02___PRT_ALL_AXES
100
AcDbLine
 62
7
  6
CONTINUOUS
 10
221.8651287113
 20
198.9893294157
 11
222.8651287113
 21
199.9893294157
  0
LINE
  5
4B1
100
AcDbEntity
  8
7_ALL_FEATURES
100
AcDbLine
 62
7
  6
CONTINUOUS
 10
175.0303990758
 20
246.5184710401
 11
183.3720514408
 21
247.9893294157
  0
LINE
  5
4B2
100
AcDbEntity
  8
7_ALL_FEATURES
100
AcDbLine
 62
7
  6
CONTINUOUS
 10
183.3720514408
 20
247.9893294157
 11
226.3582059819
 21
247.9893294157
  0
LINE
  5
4B3
100
AcDbEntity
  8
7_ALL_FEATURES
100
AcDbLine
 62
7
  6
CONTINUOUS
 10
234.6998583469
 20
246.5184710401
 11
226.3582059819
 21
247.9893294157
  0
LINE
  5
4B4
100
AcDbEntity
  8
7_ALL_FEATURES
100
AcDbLine
 62
7
  6
CONTINUOUS
 10
252.5607220783
 20
231.1500009958
 11
235.5171066012
 21
243.7749013492
  0
LWPOLYLINE
  5
4B5
100
AcDbEntity
  8
0
100
AcDbPolyline
 62
2
  6
CONTINUOUS
 90
7
 70
0
 43
0.1500000036
 10
263.0709887695
 20
254.4767614746
 10
263.0709887695
 20
252.9767687988
 10
260.9281274414
 20
254.4767614746
 10
260.4995654297
 20
254.4767614746
 10
260.0709777832
 20
254.0481994629
 10
260.0709777832
 20
253.4053564453
 10
260.7138464355
 20
252.9767687988
  0
LINE
  5
4B6
100
AcDbEntity
  8
7_ALL_FEATURES
100
AcDbLine
 62
7
  6
CONTINUOUS
 10
286.4263720511
 20
150.8727495944
 11
286.3270754999
 21
150.8231013188
  0
LINE
  5
4B7
100
AcDbEntity
  8
7_ALL_FEATURES
100
AcDbLine
 62
9
  6
CONTINUOUS
 10
286.5053445254
 20
150.908505006
 11
286.4278643813
 21
150.8697649339
  0
LINE
  5
4B8
100
AcDbEntity
  8
7_ALL_FEATURES
100
AcDbLine
 62
9
  6
CONTINUOUS
 10
298.5570006052
 20
155.8161613924
 11
298.3802239099
 21
155.7277730447
  0
LINE
  5
4B9
100
AcDbEntity
  8
7_ALL_FEATURES
100
AcDbLine
 62
9
  6
CONTINUOUS
 10
302.7658949792
 20
155.4129588149
 11
302.5891182839
 21
155.3245704673
  0
LINE
  5
4BA
100
AcDbEntity
  8
7_ALL_FEATURES
100
AcDbLine
 62
7
  6
CONTINUOUS
 10
286.426482051
 20
150.8734954188
 11
286.5053445254
 21
150.908505006
  0
LINE
  5
4BB
100
AcDbEntity
  8
7_ALL_FEATURES
100
AcDbLine
 62
7
  6
CONTINUOUS
 10
286.3285678301
 20
150.8201166583
 11
286.2497053557
 21
150.7851070711
  0
LINE
  5
4BC
100
AcDbEntity
  8
7_ALL_FEATURES
100
AcDbLine
 62
7
  6
CONTINUOUS
 10
286.5053445254
 20
150.908505006
 11
298.5570006052
 21
155.8161613924
  0
LINE
  5
4BD
100
AcDbEntity
  8
7_ALL_FEATURES
100
AcDbLine
 62
7
  6
CONTINUOUS
 10
286.3285678301
 20
150.8201166583
 11
298.3802239099
 21
155.7277730447
  0
LINE
  5
4BE
100
AcDbEntity
  8
02___PRT_ALL_AXES
100
AcDbLine
 62
7
  6
CONTINUOUS
 10
303.6662508704
 20
153.8741236839
 11
303.6662508704
 21
153.9019924453
  0
LINE
  5
4BF
100
AcDbEntity
  8
02___PRT_ALL_AXES
100
AcDbLine
 62
7
  6
CONTINUOUS
 10
346.3941729318
 20
111.310300775
 11
338.6667663215
 21
110.2750245946
  0
LINE
  5
4C0
100
AcDbEntity
  8
02___PRT_ALL_AXES
100
AcDbLine
 62
7
  6
CONTINUOUS
 10
346.3941729318
 20
113.9083769864
 11
338.6667663215
 21
112.873100806
  0
LINE
  5
4C1
100
AcDbEntity
  8
02___PRT_ALL_AXES
100
AcDbLine
 62
7
  6
CONTINUOUS
 10
334.9969464757
 20
107.3724950112
 11
335.1312324155
 21
107.2796518268
  0
LINE
  5
4C2
100
AcDbEntity
  8
7_ALL_FEATURES
100
AcDbLine
 62
7
  6
CONTINUOUS
 10
317.3363192519
 20
118.3959496422
 11
318.1528158328
 21
117.818599373
  0
LINE
  5
4C3
100
AcDbEntity
  8
02___PRT_ALL_AXES
100
AcDbLine
 62
7
  6
CONTINUOUS
 10
313.6662508704
 20
132.4654960983
 11
313.6662508704
 21
131.5306682663
  0
LINE
  5
4C4
100
AcDbEntity
  8
02___PRT_ALL_AXES
100
AcDbLine
 62
7
  6
CONTINUOUS
 10
313.6662508704
 20
129.3656047568
 11
313.6662508704
 21
127.6335539492
  0
LINE
  5
4C5
100
AcDbEntity
  8
02___PRT_ALL_AXES
100
AcDbLine
 62
7
  6
CONTINUOUS
 10
313.6662508704
 20
125.4684904398
 11
313.6662508704
 21
124.1694523341
  0
LINE
  5
4C6
100
AcDbEntity
  8
02___PRT_ALL_AXES
100
AcDbLine
 62
7
  6
CONTINUOUS
 10
338.6667663215
 20
110.2750245946
 11
333.009912072
 21
113.1034517194
  0
LINE
  5
4C7
100
AcDbEntity
  8
7_ALL_FEATURES
100
AcDbLine
 62
7
  6
CONTINUOUS
 10
315.8153415947
 20
141.6997991375
 11
315.8153415947
 21
131.7842337824
  0
LINE
  5
4C8
100
AcDbEntity
  8
7_ALL_FEATURES
100
AcDbLine
 62
7
  6
CONTINUOUS
 10
318.1806123625
 20
135.8202733408
 11
318.1806123625
 21
134.8202733408
  0
LINE
  5
4C9
100
AcDbEntity
  8
02___PRT_ALL_AXES
100
AcDbLine
 62
7
  6
CONTINUOUS
 10
338.6667663215
 20
112.873100806
 11
336.5445534459
 21
113.9342072438
  0
LINE
  5
4CA
100
AcDbEntity
  8
7_ALL_FEATURES
100
AcDbLine
 62
7
  6
CONTINUOUS
 10
319.2412725342
 20
135.5399432549
 11
319.2412725342
 21
135.3506034267
  0
LINE
  5
4CB
100
AcDbEntity
  8
7_ALL_FEATURES
100
AcDbLine
 62
7
  6
CONTINUOUS
 10
319.5948259248
 20
134.1131665596
 11
319.5948259248
 21
135.1131665596
  0
LINE
  5
4CC
100
AcDbEntity
  8
02___PRT_ALL_AXES
100
AcDbLine
 62
7
  6
CONTINUOUS
 10
320.1662508704
 20
154.0473287647
 11
320.1662508704
 21
155.1731617896
  0
LINE
  5
4CD
100
AcDbEntity
  8
7_ALL_FEATURES
100
AcDbLine
 62
7
  6
CONTINUOUS
 10
287.5912361423
 20
145.5030034624
 11
321.1151055044
 21
128.7410687813
  0
LINE
  5
4CE
100
AcDbEntity
  8
02___PRT_ALL_AXES
100
AcDbLine
 62
7
  6
CONTINUOUS
 10
347.3666490813
 20
115.7230421859
 11
348.4647252926
 21
115.1740040802
  0
LINE
  5
4CF
100
AcDbEntity
  8
7_ALL_FEATURES
100
AcDbLine
 62
7
  6
CONTINUOUS
 10
324.6471024618
 20
127.3683533489
 11
315.815341594
 21
131.7842337828
  0
LINE
  5
4D0
100
AcDbEntity
  8
7_ALL_FEATURES
100
AcDbLine
 62
7
  6
CONTINUOUS
 10
318.1806123625
 20
134.8202733408
 11
318.8877191436
 21
133.9667199502
  0
LINE
  5
4D1
100
AcDbEntity
  8
7_ALL_FEATURES
100
AcDbLine
 62
7
  6
CONTINUOUS
 10
319.2412725342
 20
135.3506034267
 11
319.5948259248
 21
134.9238267314
  0
LINE
  5
4D2
100
AcDbEntity
  8
7_ALL_FEATURES
100
AcDbLine
 62
7
  6
CONTINUOUS
 10
319.5948259248
 20
135.1131665596
 11
318.8877191436
 21
135.9667199502
  0
LINE
  5
4D3
100
AcDbEntity
  8
7_ALL_FEATURES
100
AcDbLine
 62
7
  6
CONTINUOUS
 10
324.6471024611
 20
139.3822642178
 11
324.6471024611
 21
137.6694268402
  0
LINE
  5
4D4
100
AcDbEntity
  8
7_ALL_FEATURES
100
AcDbLine
 62
7
  6
CONTINUOUS
 10
324.6471024611
 20
129.1916550544
 11
324.6471024611
 21
127.3683533492
  0
LINE
  5
4D5
100
AcDbEntity
  8
7_ALL_FEATURES
100
AcDbLine
 62
7
  6
CONTINUOUS
 10
325.3577461915
 20
133.9809643699
 11
325.3577461915
 21
131.8159008605
  0
LINE
  5
4D6
100
AcDbEntity
  8
7_ALL_FEATURES
100
AcDbLine
 62
7
  6
CONTINUOUS
 10
325.5345228868
 20
134.0693527176
 11
325.5345228868
 21
131.9042892081
  0
LINE
  5
4D7
100
AcDbEntity
  8
02___PRT_ALL_AXES
100
AcDbLine
 62
7
  6
CONTINUOUS
 10
318.824607945
 20
138.0097578199
 11
318.5559073681
 21
137.8754075315
  0
LINE
  5
4D8
100
AcDbEntity
  8
7_ALL_FEATURES
100
AcDbLine
 62
7
  6
CONTINUOUS
 10
318.1806123625
 20
134.8202733408
 11
319.2412725342
 21
135.3506034267
  0
LINE
  5
4D9
100
AcDbEntity
  8
7_ALL_FEATURES
100
AcDbLine
 62
7
  6
CONTINUOUS
 10
318.8877191436
 20
133.9667199502
 11
319.5948259248
 21
134.3202733408
  0
LINE
  5
4DA
100
AcDbEntity
  8
02___PRT_ALL_AXES
100
AcDbLine
 62
7
  6
CONTINUOUS
 10
333.009912072
 20
113.1034517194
 11
333.009912072
 21
109.2063374024
  0
LINE
  5
4DB
100
AcDbEntity
  8
02___PRT_ALL_AXES
100
AcDbLine
 62
7
  6
CONTINUOUS
 10
321.2842827202
 20
133.0904082694
 11
321.0155821434
 21
132.956057981
  0
LINE
  5
4DC
100
AcDbEntity
  8
7_ALL_FEATURES
100
AcDbLine
 62
9
  6
CONTINUOUS
 10
325.5345228868
 20
134.0693527176
 11
325.3577461915
 21
133.9809643699
  0
LINE
  5
4DD
100
AcDbEntity
  8
7_ALL_FEATURES
100
AcDbLine
 62
9
  6
CONTINUOUS
 10
325.5345228868
 20
131.9042892081
 11
325.3577461915
 21
131.8159008605
  0
LINE
  5
4DE
100
AcDbEntity
  8
7_ALL_FEATURES
100
AcDbLine
 62
9
  6
CONTINUOUS
 10
364.5666067617
 20
151.3826606087
 11
364.743383457
 21
151.4710489564
  0
LINE
  5
4DF
100
AcDbEntity
  8
02___PRT_ALL_AXES
100
AcDbLine
 62
7
  6
CONTINUOUS
 10
335.1312324155
 20
106.8466391249
 11
335.1312324155
 21
107.2796518268
  0
LINE
  5
4E0
100
AcDbEntity
  8
02___PRT_ALL_AXES
100
AcDbLine
 62
7
  6
CONTINUOUS
 10
336.5454459779
 20
106.1395323437
 11
336.5454459779
 21
106.5725450456
  0
LINE
  5
4E1
100
AcDbEntity
  8
7_ALL_FEATURES
100
AcDbLine
 62
7
  6
CONTINUOUS
 10
318.8877191436
 20
133.9667199502
 11
319.5948259248
 21
134.1131665596
  0
LINE
  5
4E2
100
AcDbEntity
  8
7_ALL_FEATURES
100
AcDbLine
 62
7
  6
CONTINUOUS
 10
318.8877191436
 20
135.9667199502
 11
318.1806123625
 21
135.8202733408
  0
LINE
  5
4E3
100
AcDbEntity
  8
7_ALL_FEATURES
100
AcDbLine
 62
7
  6
CONTINUOUS
 10
302.5891182839
 20
155.3245704673
 11
303.7735084978
 21
154.7323753603
  0
LINE
  5
4E4
100
AcDbEntity
  8
7_ALL_FEATURES
100
AcDbLine
 62
7
  6
CONTINUOUS
 10
302.7658949792
 20
155.4129588149
 11
303.794956911
 21
154.898427849
  0
LINE
  5
4E5
100
AcDbEntity
  8
02___PRT_ALL_AXES
100
AcDbLine
 62
7
  6
CONTINUOUS
 10
338.6667663215
 20
114.1416449396
 11
338.6667663215
 21
112.873100806
  0
LINE
  5
4E6
100
AcDbEntity
  8
02___PRT_ALL_AXES
100
AcDbLine
 62
7
  6
CONTINUOUS
 10
338.6667663215
 20
110.2750245946
 11
338.6667663215
 21
106.3779102776
  0
LINE
  5
4E7
100
AcDbEntity
  8
02___PRT_ALL_AXES
100
AcDbLine
 62
7
  6
CONTINUOUS
 10
341.5645438003
 20
105.4671007396
 11
341.5645438003
 21
105.9001134415
  0
LINE
  5
4E8
100
AcDbEntity
  8
7_ALL_FEATURES
100
AcDbLine
 62
9
  6
CONTINUOUS
 10
368.7755011357
 20
147.5769688122
 11
368.952277831
 21
147.6653571599
  0
LINE
  5
4E9
100
AcDbEntity
  8
02___PRT_ALL_AXES
100
AcDbLine
 62
7
  6
CONTINUOUS
 10
343.4963954529
 20
105.7259197847
 11
343.4963954529
 21
106.1589324866
  0
LINE
  5
4EA
100
AcDbEntity
  8
02___PRT_ALL_AXES
100
AcDbLine
 62
7
  6
CONTINUOUS
 10
333.009912072
 20
113.1034517194
 11
333.3929706627
 21
113.8182487808
  0
LINE
  5
4EB
100
AcDbEntity
  8
7_ALL_FEATURES
100
AcDbLine
 62
7
  6
CONTINUOUS
 10
353.6662508704
 20
139.5123304787
 11
379.5644889033
 21
126.5632114623
  0
LINE
  5
4EC
100
AcDbEntity
  8
02___PRT_ALL_AXES
100
AcDbLine
 62
7
  6
CONTINUOUS
 10
346.3941729318
 20
116.269926184
 11
346.3941729318
 21
113.9083769864
  0
LINE
  5
4ED
100
AcDbEntity
  8
02___PRT_ALL_AXES
100
AcDbLine
 62
7
  6
CONTINUOUS
 10
346.3941729318
 20
111.310300775
 11
346.3941729318
 21
107.413186458
  0
LINE
  5
4EE
100
AcDbEntity
  8
02___PRT_ALL_AXES
100
AcDbLine
 62
7
  6
CONTINUOUS
 10
346.7373186823
 20
114.1387278998
 11
346.7373186823
 21
114.548695674
  0
LINE
  5
4EF
100
AcDbEntity
  8
02___PRT_ALL_AXES
100
AcDbLine
 62
7
  6
CONTINUOUS
 10
347.1662508704
 20
154.0473287647
 11
347.1662508704
 21
155.1731617896
  0
LINE
  5
4F0
100
AcDbEntity
  8
02___PRT_ALL_AXES
100
AcDbLine
 62
7
  6
CONTINUOUS
 10
347.1706300671
 20
107.5630370918
 11
347.1706300671
 21
107.9960497937
  0
LINE
  5
4F1
100
AcDbEntity
  8
02___PRT_ALL_AXES
100
AcDbLine
 62
7
  6
CONTINUOUS
 10
347.6882681573
 20
108.5289629181
 11
347.6882681573
 21
108.96197562
  0
LINE
  5
4F2
100
AcDbEntity
  8
02___PRT_ALL_AXES
100
AcDbLine
 62
7
  6
CONTINUOUS
 10
347.7373186823
 20
108.9425754771
 11
347.7373186823
 21
109.0850278333
  0
LINE
  5
4F3
100
AcDbEntity
  8
02___PRT_ALL_AXES
100
AcDbLine
 62
7
  6
CONTINUOUS
 10
348.4647252926
 20
115.1740040802
 11
348.4647252926
 21
111.2768897632
  0
LINE
  5
4F4
100
AcDbEntity
  8
02___PRT_ALL_AXES
100
AcDbLine
 62
9
  6
CONTINUOUS
 10
347.7373186823
 20
108.9425754771
 11
347.6882681573
 21
108.5289629181
  0
LINE
  5
4F5
100
AcDbEntity
  8
02___PRT_ALL_AXES
100
AcDbLine
 62
7
  6
CONTINUOUS
 10
353.6662508704
 20
142.6088586068
 11
353.6662508704
 21
135.4277825833
  0
LINE
  5
4F6
100
AcDbEntity
  8
02___PRT_ALL_AXES
100
AcDbLine
 62
7
  6
CONTINUOUS
 10
353.6662508704
 20
133.2627190738
 11
353.6662508704
 21
131.5306682663
  0
LINE
  5
4F7
100
AcDbEntity
  8
02___PRT_ALL_AXES
100
AcDbLine
 62
7
  6
CONTINUOUS
 10
353.6662508704
 20
129.3656047568
 11
353.6662508704
 21
127.6335539492
  0
LINE
  5
4F8
100
AcDbEntity
  8
02___PRT_ALL_AXES
100
AcDbLine
 62
7
  6
CONTINUOUS
 10
353.6662508704
 20
125.4684904398
 11
353.6662508704
 21
124.1694523341
  0
LINE
  5
4F9
100
AcDbEntity
  8
02___PRT_ALL_AXES
100
AcDbLine
 62
7
  6
CONTINUOUS
 10
348.1292730525
 20
117.1461178897
 11
346.3941729318
 21
113.9083769864
  0
LINE
  5
4FA
100
AcDbEntity
  8
02___PRT_ALL_AXES
100
AcDbLine
 62
7
  6
CONTINUOUS
 10
348.4647252926
 20
115.1740040802
 11
346.3941729318
 21
111.310300775
  0
LINE
  5
4FB
100
AcDbEntity
  8
7_ALL_FEATURES
100
AcDbLine
 62
7
  6
CONTINUOUS
 10
349.996182489
 20
118.3959496422
 11
349.1796859081
 21
117.818599373
  0
LINE
  5
4FC
100
AcDbEntity
  8
7_ALL_FEATURES
100
AcDbLine
 62
9
  6
CONTINUOUS
 10
380.8271572155
 20
130.617656346
 11
381.0039339108
 21
130.7060446937
  0
LINE
  5
4FD
100
AcDbEntity
  8
7_ALL_FEATURES
100
AcDbLine
 62
7
  6
CONTINUOUS
 10
364.5666067617
 20
151.3826606087
 11
363.4202747311
 21
151.955826624
  0
LINE
  5
4FE
100
AcDbEntity
  8
7_ALL_FEATURES
100
AcDbLine
 62
7
  6
CONTINUOUS
 10
364.743383457
 20
151.4710489564
 11
363.4415764339
 21
152.121952468
  0
LINE
  5
4FF
100
AcDbEntity
  8
02___PRT_ALL_AXES
100
AcDbLine
 62
7
  6
CONTINUOUS
 10
363.6662508704
 20
153.8741236839
 11
363.6662508704
 21
153.9019924453
  0
LINE
  5
500
100
AcDbEntity
  8
02___PRT_ALL_AXES
100
AcDbLine
 62
7
  6
CONTINUOUS
 10
346.4527947488
 20
107.3548622368
 11
346.771974593
 21
107.580556469
  0
LINE
  5
501
100
AcDbEntity
  8
7_ALL_FEATURES
100
AcDbLine
 62
7
  6
CONTINUOUS
 10
380.9061296898
 20
126.4780061006
 11
381.0829063851
 21
126.5663944483
  0
LINE
  5
502
100
AcDbEntity
  8
7_ALL_FEATURES
100
AcDbLine
 62
7
  6
CONTINUOUS
 10
380.8271572155
 20
130.617656346
 11
368.7755011357
 21
147.5769688122
  0
LINE
  5
503
100
AcDbEntity
  8
7_ALL_FEATURES
100
AcDbLine
 62
7
  6
CONTINUOUS
 10
381.0039339108
 20
130.7060446937
 11
368.952277831
 21
147.6653571599
  0
CIRCLE
  5
504
100
AcDbEntity
  8
7_ALL_FEATURES
100
AcDbCircle
 62
7
  6
CONTINUOUS
 10
71.8559712184
 20
80.8304875301
 40
30.0
  0
CIRCLE
  5
505
100
AcDbEntity
  8
7_ALL_FEATURES
100
AcDbCircle
 62
9
  6
CONTINUOUS
 10
71.8559712184
 20
80.8304875301
 40
29.8347296355
  0
CIRCLE
  5
506
100
AcDbEntity
  8
7_ALL_FEATURES
100
AcDbCircle
 62
7
  6
CONTINUOUS
 10
71.8559712184
 20
80.8304875301
 40
21.4930772706
  0
CIRCLE
  5
507
100
AcDbEntity
  8
7_ALL_FEATURES
100
AcDbCircle
 62
9
  6
CONTINUOUS
 10
71.8559712184
 20
80.8304875301
 40
14.15
  0
CIRCLE
  5
508
100
AcDbEntity
  8
7_ALL_FEATURES
100
AcDbCircle
 62
7
  6
CONTINUOUS
 10
71.8559712184
 20
80.8304875301
 40
13.65
  0
CIRCLE
  5
509
100
AcDbEntity
  8
7_ALL_FEATURES
100
AcDbCircle
 62
7
  6
CONTINUOUS
 10
71.8559712184
 20
80.8304875301
 40
13.5
  0
CIRCLE
  5
50A
100
AcDbEntity
  8
7_ALL_FEATURES
100
AcDbCircle
 62
7
  6
CONTINUOUS
 10
71.8559712184
 20
80.8304875301
 40
13.3
  0
ARC
  5
50B
100
AcDbEntity
  8
02___PRT_ALL_AXES
100
AcDbCircle
 62
7
  6
CONTINUOUS
 10
68.3559712184
 20
198.4893294157
 40
3.5
100
AcDbArc
 50
191.5683651059
 51
270.0
  0
ARC
  5
50C
100
AcDbEntity
  8
02___PRT_ALL_AXES
100
AcDbCircle
 62
7
  6
CONTINUOUS
 10
53.437874628
 20
232.9289000368
 40
2.95
100
AcDbArc
 50
212.7198899268
 51
245.7439757901
  0
ARC
  5
50D
100
AcDbEntity
  8
02___PRT_ALL_AXES
100
AcDbCircle
 62
7
  6
CONTINUOUS
 10
53.437874628
 20
233.0497587946
 40
2.95
100
AcDbArc
 50
114.2560242099
 51
147.2801100732
  0
ARC
  5
50E
100
AcDbEntity
  8
7_ALL_FEATURES
100
AcDbCircle
 62
7
  6
CONTINUOUS
 10
42.1559712184
 20
246.2893294157
 40
0.3
100
AcDbArc
 50
180.0
 51
270.0
  0
ARC
  5
50F
100
AcDbEntity
  8
7_ALL_FEATURES
100
AcDbCircle
 62
7
  6
CONTINUOUS
 10
42.0559712184
 20
246.3215094895
 40
0.2
100
AcDbArc
 50
99.9999999995
 51
180.0
  0
ARC
  5
510
100
AcDbEntity
  8
02___PRT_ALL_AXES
100
AcDbCircle
 62
7
  6
CONTINUOUS
 10
75.3559712184
 20
198.4893294157
 40
3.5
100
AcDbArc
 50
270.0
 51
348.4316348941
  0
ARC
  5
511
100
AcDbEntity
  8
02___PRT_ALL_AXES
100
AcDbCircle
 62
7
  6
CONTINUOUS
 10
90.2740678089
 20
233.0497587946
 40
2.95
100
AcDbArc
 50
32.7198899268
 51
65.7439757901
  0
ARC
  5
512
100
AcDbEntity
  8
02___PRT_ALL_AXES
100
AcDbCircle
 62
7
  6
CONTINUOUS
 10
90.2740678089
 20
232.9289000368
 40
2.95
100
AcDbArc
 50
294.2560242099
 51
327.2801100732
  0
ARC
  5
513
100
AcDbEntity
  8
7_ALL_FEATURES
100
AcDbCircle
 62
7
  6
CONTINUOUS
 10
101.5559712184
 20
246.2893294157
 40
0.3
100
AcDbArc
 50
270.0
 51
360.0
  0
ARC
  5
514
100
AcDbEntity
  8
7_ALL_FEATURES
100
AcDbCircle
 62
7
  6
CONTINUOUS
 10
101.6559712184
 20
246.3215094895
 40
0.2
100
AcDbArc
 50
0.0
 51
80.0000000005
  0
ARC
  5
515
100
AcDbEntity
  8
7_ALL_FEATURES
100
AcDbCircle
 62
7
  6
CONTINUOUS
 10
229.5648310949
 20
235.7393294157
 40
10.0
100
AcDbArc
 50
53.471144633
 51
90.0
  0
ARC
  5
516
100
AcDbEntity
  8
7_ALL_FEATURES
100
AcDbCircle
 62
7
  6
CONTINUOUS
 10
180.1654263278
 20
235.7393294157
 40
10.0
100
AcDbArc
 50
90.0
 51
126.528855367
  0
ARC
  5
517
100
AcDbEntity
  8
7_ALL_FEATURES
100
AcDbCircle
 62
7
  6
CONTINUOUS
 10
206.3651287113
 20
234.2393294157
 40
6.0
100
AcDbArc
 50
0.0
 51
90.0
  0
ARC
  5
518
100
AcDbEntity
  8
7_ALL_FEATURES
100
AcDbCircle
 62
7
  6
CONTINUOUS
 10
206.3651287113
 20
231.7393294157
 40
6.0
100
AcDbArc
 50
285.863671274
 51
360.0
  0
ARC
  5
519
100
AcDbEntity
  8
02___PRT_ALL_AXES
100
AcDbCircle
 62
7
  6
CONTINUOUS
 10
218.3651287113
 20
198.4893294157
 40
3.5
100
AcDbArc
 50
270.0
 51
360.0
  0
ARC
  5
51A
100
AcDbEntity
  8
02___PRT_ALL_AXES
100
AcDbCircle
 62
7
  6
CONTINUOUS
 10
211.3651287113
 20
198.4893294157
 40
3.5
100
AcDbArc
 50
180.0
 51
270.0
  0
ARC
  5
51B
100
AcDbEntity
  8
7_ALL_FEATURES
100
AcDbCircle
 62
7
  6
CONTINUOUS
 10
211.3651287113
 20
198.4893294157
 40
3.5
100
AcDbArc
 50
180.0
 51
270.0
  0
ARC
  5
51C
100
AcDbEntity
  8
7_ALL_FEATURES
100
AcDbCircle
 62
7
  6
CONTINUOUS
 10
218.3651287113
 20
198.4893294157
 40
3.5
100
AcDbArc
 50
270.0
 51
360.0
  0
ARC
  5
51D
100
AcDbEntity
  8
7_ALL_FEATURES
100
AcDbCircle
 62
7
  6
CONTINUOUS
 10
250.7750394264
 20
228.7393294157
 40
3.0
100
AcDbArc
 50
270.0
 51
53.471144633
  0
ARC
  5
51E
100
AcDbEntity
  8
7_ALL_FEATURES
100
AcDbCircle
 62
7
  6
CONTINUOUS
 10
158.9552179963
 20
228.7393294157
 40
3.0
100
AcDbArc
 50
126.528855367
 51
270.0
  0
ARC
  5
51F
100
AcDbEntity
  8
7_ALL_FEATURES
100
AcDbCircle
 62
7
  6
CONTINUOUS
 10
191.8651287113
 20
242.7393294157
 40
3.0
100
AcDbArc
 50
0.0
 51
90.0
  0
CIRCLE
  5
520
100
AcDbEntity
  8
02___PRT_ALL_AXES
100
AcDbCircle
 62
7
  6
CONTINUOUS
 10
204.8651287113
 20
232.9893294157
 40
2.75
  0
ARC
  5
521
100
AcDbEntity
  8
7_ALL_FEATURES
100
AcDbCircle
 62
7
  6
CONTINUOUS
 10
196.8651287113
 20
242.2393294157
 40
2.0
100
AcDbArc
 50
180.0
 51
270.0
  0
CIRCLE
  5
522
100
AcDbEntity
  8
02___PRT_ALL_AXES
100
AcDbCircle
 62
7
  6
CONTINUOUS
 10
204.8651287113
 20
232.9893294157
 40
1.655
  0
ARC
  5
523
100
AcDbEntity
  8
7_ALL_FEATURES
100
AcDbCircle
 62
7
  6
CONTINUOUS
 10
175.1651287113
 20
246.2893294157
 40
0.3
100
AcDbArc
 50
180.0
 51
270.0
  0
ARC
  5
524
100
AcDbEntity
  8
7_ALL_FEATURES
100
AcDbCircle
 62
7
  6
CONTINUOUS
 10
234.5651287113
 20
246.2893294157
 40
0.3
100
AcDbArc
 50
270.0
 51
360.0
  0
ARC
  5
525
100
AcDbEntity
  8
7_ALL_FEATURES
100
AcDbCircle
 62
7
  6
CONTINUOUS
 10
183.5651287113
 20
245.6893294157
 40
0.3
100
AcDbArc
 50
9.7992222366
 51
90.0
  0
ARC
  5
526
100
AcDbEntity
  8
7_ALL_FEATURES
100
AcDbCircle
 62
7
  6
CONTINUOUS
 10
175.0651287113
 20
246.3215094895
 40
0.2
100
AcDbArc
 50
100.0
 51
180.0
  0
ARC
  5
527
100
AcDbEntity
  8
7_ALL_FEATURES
100
AcDbCircle
 62
7
  6
CONTINUOUS
 10
234.6651287113
 20
246.3215094895
 40
0.2
100
AcDbArc
 50
0.0
 51
80.0
  0
ARC
  5
528
100
AcDbEntity
  8
7_ALL_FEATURES
100
AcDbCircle
 62
9
  6
CONTINUOUS
 10
325.7461155406
 20
169.8818298594
 40
29.7244748546
100
AcDbArc
 50
243.4352099501
 51
243.7084563416
  0
ARC
  5
529
100
AcDbEntity
  8
7_ALL_FEATURES
100
AcDbCircle
 62
9
  6
CONTINUOUS
 10
325.7403914233
 20
169.8424688917
 40
29.7116360096
100
AcDbArc
 50
243.4351721414
 51
243.6878474383
  0
ARC
  5
52A
100
AcDbEntity
  8
7_ALL_FEATURES
100
AcDbCircle
 62
7
  6
CONTINUOUS
 10
325.6807140566
 20
169.4049685591
 40
29.4038986267
100
AcDbArc
 50
243.1358337862
 51
243.4352201871
  0
ARC
  5
52B
100
AcDbEntity
  8
7_ALL_FEATURES
100
AcDbCircle
 62
7
  6
CONTINUOUS
 10
328.8328561358
 20
135.7383113751
 40
20.835055316
100
AcDbArc
 50
243.462552316
 51
245.7423868462
  0
ARC
  5
52C
100
AcDbEntity
  8
7_ALL_FEATURES
100
AcDbCircle
 62
7
  6
CONTINUOUS
 10
328.2365805746
 20
132.6053667434
 40
17.9083410574
100
AcDbArc
 50
240.5865601763
 51
243.4474500206
  0
ARC
  5
52D
100
AcDbEntity
  8
7_ALL_FEATURES
100
AcDbCircle
 62
7
  6
CONTINUOUS
 10
326.1810714322
 20
130.9351240991
 40
15.3447287604
100
AcDbArc
 50
234.8020068878
 51
238.4378793004
  0
ARC
  5
52E
100
AcDbEntity
  8
7_ALL_FEATURES
100
AcDbCircle
 62
7
  6
CONTINUOUS
 10
341.327900617
 20
130.6654349862
 40
15.0226130679
100
AcDbArc
 50
301.4650140298
 51
305.2408216279
  0
ARC
  5
52F
100
AcDbEntity
  8
7_ALL_FEATURES
100
AcDbCircle
 62
9
  6
CONTINUOUS
 10
329.9889833177
 20
163.0013494538
 40
14.1515463135
100
AcDbArc
 50
243.437078611
 51
244.2133235489
  0
ARC
  5
530
100
AcDbEntity
  8
7_ALL_FEATURES
100
AcDbCircle
 62
7
  6
CONTINUOUS
 10
329.7945305345
 20
162.1794071256
 40
13.2167151522
100
AcDbArc
 50
242.5932235734
 51
243.4371826078
  0
ARC
  5
531
100
AcDbEntity
  8
7_ALL_FEATURES
100
AcDbCircle
 62
7
  6
CONTINUOUS
 10
328.094283848
 20
151.7059300258
 40
9.1599336514
100
AcDbArc
 50
125.257745037
 51
126.5266482045
  0
ARC
  5
532
100
AcDbEntity
  8
7_ALL_FEATURES
100
AcDbCircle
 62
7
  6
CONTINUOUS
 10
339.2405473727
 20
151.7094197085
 40
9.1557532909
100
AcDbArc
 50
53.4717910598
 51
54.7415504226
  0
ARC
  5
533
100
AcDbEntity
  8
7_ALL_FEATURES
100
AcDbCircle
 62
9
  6
CONTINUOUS
 10
355.1148976632
 20
154.1513433557
 40
8.5839344945
100
AcDbArc
 50
338.7134298351
 51
342.1342165227
  0
ARC
  5
534
100
AcDbEntity
  8
7_ALL_FEATURES
100
AcDbCircle
 62
9
  6
CONTINUOUS
 10
355.166525529
 20
154.1040837476
 40
8.5288402937
100
AcDbArc
 50
337.8943087904
 51
342.5641189309
  0
ARC
  5
535
100
AcDbEntity
  8
7_ALL_FEATURES
100
AcDbCircle
 62
9
  6
CONTINUOUS
 10
356.100043183
 20
153.9047660748
 40
7.5662076949
100
AcDbArc
 50
351.6910546076
 51
359.6913307443
  0
ARC
  5
536
100
AcDbEntity
  8
7_ALL_FEATURES
100
AcDbCircle
 62
9
  6
CONTINUOUS
 10
356.1294033064
 20
153.8744941636
 40
7.5368324735
100
AcDbArc
 50
351.3206672271
 51
359.997183565
  0
ARC
  5
537
100
AcDbEntity
  8
7_ALL_FEATURES
100
AcDbCircle
 62
9
  6
CONTINUOUS
 10
311.1702515446
 20
153.9023029318
 40
7.5039856161
100
AcDbArc
 50
180.2129656154
 51
181.0459558932
  0
ARC
  5
538
100
AcDbEntity
  8
7_ALL_FEATURES
100
AcDbCircle
 62
7
  6
CONTINUOUS
 10
318.7653545026
 20
125.4625631854
 40
5.0990856836
100
AcDbArc
 50
167.6501739686
 51
179.9333985032
  0
ARC
  5
539
100
AcDbEntity
  8
7_ALL_FEATURES
100
AcDbCircle
 62
7
  6
CONTINUOUS
 10
318.7653545026
 20
129.3596775024
 40
5.0990856836
100
AcDbArc
 50
167.6501739686
 51
179.9333985032
  0
ARC
  5
53A
100
AcDbEntity
  8
02___PRT_ALL_AXES
100
AcDbCircle
 62
7
  6
CONTINUOUS
 10
343.3558826948
 20
108.9427961794
 40
4.3814359931
100
AcDbArc
 50
354.5411545848
 51
359.9971138885
  0
ARC
  5
53B
100
AcDbEntity
  8
7_ALL_FEATURES
100
AcDbCircle
 62
7
  6
CONTINUOUS
 10
299.8057644977
 20
152.2264874192
 40
3.7803659874
100
AcDbArc
 50
109.2525781685
 51
112.1535855411
  0
ARC
  5
53C
100
AcDbEntity
  8
7_ALL_FEATURES
100
AcDbCircle
 62
9
  6
CONTINUOUS
 10
343.8651991818
 20
154.7378227501
 40
3.4510959237
100
AcDbArc
 50
2.8752615583
 51
7.4581581667
  0
ARC
  5
53D
100
AcDbEntity
  8
7_ALL_FEATURES
100
AcDbCircle
 62
9
  6
CONTINUOUS
 10
323.4601064059
 20
154.7384235996
 40
3.4439012607
100
AcDbArc
 50
172.3375696725
 51
177.0927885583
  0
ARC
  5
53E
100
AcDbEntity
  8
7_ALL_FEATURES
100
AcDbCircle
 62
9
  6
CONTINUOUS
 10
343.8910782071
 20
154.9128581096
 40
3.4251568705
100
AcDbArc
 50
0.0082980324
 51
4.6078860665
  0
ARC
  5
53F
100
AcDbEntity
  8
7_ALL_FEATURES
100
AcDbCircle
 62
9
  6
CONTINUOUS
 10
343.8942570242
 20
154.7396936557
 40
3.4219808388
100
AcDbArc
 50
1.6884518919
 51
2.868380685
  0
ARC
  5
540
100
AcDbEntity
  8
7_ALL_FEATURES
100
AcDbCircle
 62
9
  6
CONTINUOUS
 10
323.4366536875
 20
154.9134021842
 40
3.4203869886
100
AcDbArc
 50
175.0762488866
 51
180.0008044594
  0
ARC
  5
541
100
AcDbEntity
  8
7_ALL_FEATURES
100
AcDbCircle
 62
9
  6
CONTINUOUS
 10
323.433615609
 20
154.7402593914
 40
3.4173514841
100
AcDbArc
 50
177.1010014823
 51
177.6690725912
  0
ARC
  5
542
100
AcDbEntity
  8
02___PRT_ALL_AXES
100
AcDbCircle
 62
7
  6
CONTINUOUS
 10
323.542868036
 20
154.0473358433
 40
3.376613461
100
AcDbArc
 50
179.9998981341
 51
180.6131434989
  0
ARC
  5
543
100
AcDbEntity
  8
02___PRT_ALL_AXES
100
AcDbCircle
 62
7
  6
CONTINUOUS
 10
318.5208642758
 20
135.1400317973
 40
3.1929100144
100
AcDbArc
 50
49.3158380858
 51
49.8066438326
  0
ARC
  5
544
100
AcDbEntity
  8
7_ALL_FEATURES
100
AcDbCircle
 62
7
  6
CONTINUOUS
 10
323.0500004463
 20
154.9134745267
 40
3.0337495783
100
AcDbArc
 50
180.0022731011
 51
183.1627327766
  0
ARC
  5
545
100
AcDbEntity
  8
7_ALL_FEATURES
100
AcDbCircle
 62
7
  6
CONTINUOUS
 10
344.2830068784
 20
154.9134765259
 40
3.0332439945
100
AcDbArc
 50
356.840051438
 51
359.9976887558
  0
ARC
  5
546
100
AcDbEntity
  8
02___PRT_ALL_AXES
100
AcDbCircle
 62
7
  6
CONTINUOUS
 10
320.6600797458
 20
135.8251428072
 40
2.9875354326
100
AcDbArc
 50
243.4220075388
 51
265.2467987477
  0
ARC
  5
547
100
AcDbEntity
  8
7_ALL_FEATURES
100
AcDbCircle
 62
7
  6
CONTINUOUS
 10
322.8868769223
 20
154.735671132
 40
2.8707831754
100
AcDbArc
 50
171.0545629357
 51
176.6077457038
  0
ARC
  5
548
100
AcDbEntity
  8
7_ALL_FEATURES
100
AcDbCircle
 62
7
  6
CONTINUOUS
 10
344.4608309748
 20
154.7373683552
 40
2.8555054542
100
AcDbArc
 50
3.3830195629
 51
8.9646235816
  0
ARC
  5
549
100
AcDbEntity
  8
7_ALL_FEATURES
100
AcDbCircle
 62
7
  6
CONTINUOUS
 10
344.4976788836
 20
154.739824171
 40
2.8185768526
100
AcDbArc
 50
1.7139720344
 51
3.3773862598
  0
ARC
  5
54A
100
AcDbEntity
  8
7_ALL_FEATURES
100
AcDbCircle
 62
7
  6
CONTINUOUS
 10
322.8340412518
 20
154.7398096808
 40
2.817795377
100
AcDbArc
 50
176.62817961
 51
178.3163786343
  0
ARC
  5
54B
100
AcDbEntity
  8
7_ALL_FEATURES
100
AcDbCircle
 62
7
  6
CONTINUOUS
 10
322.7905078413
 20
130.5861181501
 40
2.2534191352
100
AcDbArc
 50
296.5690663286
 51
301.5010458229
  0
ARC
  5
54C
100
AcDbEntity
  8
02___PRT_ALL_AXES
100
AcDbCircle
 62
7
  6
CONTINUOUS
 10
318.3093819906
 20
135.2439521513
 40
1.2926337375
100
AcDbArc
 50
63.4223720544
 51
65.4863954121
  0
ARC
  5
54D
100
AcDbEntity
  8
7_ALL_FEATURES
100
AcDbCircle
 62
7
  6
CONTINUOUS
 10
380.3776653785
 20
127.5215284972
 40
1.1701298062
100
AcDbArc
 50
306.4597308575
 51
310.4481352631
  0
ARC
  5
54E
100
AcDbEntity
  8
7_ALL_FEATURES
100
AcDbCircle
 62
7
  6
CONTINUOUS
 10
380.396076939
 20
127.4964451844
 40
1.1390147251
100
AcDbArc
 50
296.5985897578
 51
306.4646604545
  0
SPLINE
  5
54F
100
AcDbEntity
  8
02___PRT_ALL_AXES
100
AcDbSpline
 62
7
  6
CONTINUOUS
 70
0
 71
3
 72
11
 73
7
 74
0
 42
0.0000001
 43
0.0000001
 44
0.0000000001
 40
0.0
 40
0.0
 40
0.0
 40
0.0
 40
0.2528641712
 40
0.5038317346
 40
0.7528115376
 40
1.0
 40
1.0
 40
1.0
 40
1.0
 10
71.8559712184
 20
199.9893294157
 30
0.0
 10
72.0602175154
 20
199.8714077612
 30
0.0
 10
72.4740447789
 20
199.6479968835
 30
0.0
 10
73.1149563034
 20
199.3594078813
 30
0.0
 10
73.7743152357
 20
199.1307184879
 30
0.0
 10
74.2265719175
 20
199.0268531438
 30
0.0
 10
74.4540474298
 20
198.9893294157
 30
0.0
  0
SPLINE
  5
550
100
AcDbEntity
  8
02___PRT_ALL_AXES
100
AcDbSpline
 62
7
  6
CONTINUOUS
 70
0
 71
3
 72
11
 73
7
 74
0
 42
0.0000001
 43
0.0000001
 44
0.0000000001
 40
0.0
 40
0.0
 40
0.0
 40
0.0
 40
0.2528641712
 40
0.5038317346
 40
0.7528115376
 40
1.0
 40
1.0
 40
1.0
 40
1.0
 10
64.9277679882
 20
199.9893294157
 30
0.0
 10
65.1320142851
 20
199.8714077612
 30
0.0
 10
65.5458415486
 20
199.6479968835
 30
0.0
 10
66.1867530731
 20
199.3594078813
 30
0.0
 10
66.8461120054
 20
199.1307184879
 30
0.0
 10
67.2983686872
 20
199.0268531438
 30
0.0
 10
67.5258441995
 20
198.9893294157
 30
0.0
  0
SPLINE
  5
551
100
AcDbEntity
  8
02___PRT_ALL_AXES
100
AcDbSpline
 62
7
  6
CONTINUOUS
 70
0
 71
3
 72
11
 73
7
 74
0
 42
0.0000001
 43
0.0000001
 44
0.0000000001
 40
0.0
 40
0.0
 40
0.0
 40
0.0
 40
0.2471884812
 40
0.4961682871
 40
0.7471358372
 40
1.0
 40
1.0
 40
1.0
 40
1.0
 10
69.2578950071
 20
198.9893294157
 30
0.0
 10
69.4853705367
 20
199.0268531467
 30
0.0
 10
69.937627238
 20
199.130718497
 30
0.0
 10
70.596986175
 20
199.3594079003
 30
0.0
 10
71.2378976815
 20
199.6479968991
 30
0.0
 10
71.6517249283
 20
199.8714077651
 30
0.0
 10
71.8559712184
 20
199.9893294157
 30
0.0
  0
SPLINE
  5
552
100
AcDbEntity
  8
02___PRT_ALL_AXES
100
AcDbSpline
 62
7
  6
CONTINUOUS
 70
0
 71
3
 72
19
 73
15
 74
0
 42
0.0000001
 43
0.0000001
 44
0.0000000001
 40
0.0
 40
0.0
 40
0.0
 40
0.0
 40
0.067939647
 40
0.1343369129
 40
0.1986396402
 40
0.2610648807
 40
0.3817414899
 40
0.5000607139
 40
0.6183763092
 40
0.739024176
 40
0.8014382043
 40
0.865725454
 40
0.9320917545
 40
1.0
 40
1.0
 40
1.0
 40
1.0
 10
67.5258441995
 20
198.4893294157
 30
0.0
 10
67.5258441995
 20
198.4334437652
 30
0.0
 10
67.5422310364
 20
198.3222988004
 30
0.0
 10
67.6104058167
 20
198.1718389131
 30
0.0
 10
67.7098188515
 20
198.0461521495
 30
0.0
 10
67.8672627331
 20
197.9154103159
 30
0.0
 10
68.0972539477
 20
197.810770011
 30
0.0
 10
68.3920191687
 20
197.7707915266
 30
0.0
 10
68.6867478923
 20
197.8108559513
 30
0.0
 10
68.9166787052
 20
197.9155353545
 30
0.0
 10
69.0740577944
 20
198.0462852425
 30
0.0
 10
69.1734007203
 20
198.1719662332
 30
0.0
 10
69.2415217285
 20
198.3223766246
 30
0.0
 10
69.2578950071
 20
198.4334695954
 30
0.0
 10
69.2578950071
 20
198.4893294157
 30
0.0
  0
SPLINE
  5
553
100
AcDbEntity
  8
02___PRT_ALL_AXES
100
AcDbSpline
 62
7
  6
CONTINUOUS
 70
0
 71
3
 72
11
 73
7
 74
0
 42
0.0000001
 43
0.0000001
 44
0.0000000001
 40
0.0
 40
0.0
 40
0.0
 40
0.0
 40
0.2471884812
 40
0.4961682871
 40
0.7471358372
 40
1.0
 40
1.0
 40
1.0
 40
1.0
 10
76.1860982374
 20
198.9893294157
 30
0.0
 10
76.4135737669
 20
199.0268531467
 30
0.0
 10
76.8658304682
 20
199.130718497
 30
0.0
 10
77.5251894053
 20
199.3594079003
 30
0.0
 10
78.1661009118
 20
199.6479968991
 30
0.0
 10
78.5799281586
 20
199.8714077651
 30
0.0
 10
78.7841744487
 20
199.9893294157
 30
0.0
  0
SPLINE
  5
554
100
AcDbEntity
  8
02___PRT_ALL_AXES
100
AcDbSpline
 62
7
  6
CONTINUOUS
 70
0
 71
3
 72
19
 73
15
 74
0
 42
0.0000001
 43
0.0000001
 44
0.0000000001
 40
0.0
 40
0.0
 40
0.0
 40
0.0
 40
0.0679313718
 40
0.134330414
 40
0.1986328954
 40
0.2610542132
 40
0.3817238737
 40
0.5000536105
 40
0.6183773004
 40
0.7390372629
 40
0.8014553941
 40
0.8657396837
 40
0.9320963707
 40
1.0
 40
1.0
 40
1.0
 40
1.0
 10
74.4540474298
 20
198.4893294157
 30
0.0
 10
74.4540474298
 20
198.4334505642
 30
0.0
 10
74.4704331705
 20
198.3223115523
 30
0.0
 10
74.5385984722
 20
198.1718534761
 30
0.0
 10
74.6380080348
 20
198.0461659895
 30
0.0
 10
74.7954423623
 20
197.9154276394
 30
0.0
 10
75.0254270284
 20
197.8107744938
 30
0.0
 10
75.3202026985
 20
197.7707907868
 30
0.0
 10
75.6149570454
 20
197.8108546014
 30
0.0
 10
75.8449066376
 20
197.915545384
 30
0.0
 10
76.0022876423
 20
198.0463109944
 30
0.0
 10
76.1016163751
 20
198.1719938848
 30
0.0
 10
76.169728564
 20
198.3223918718
 30
0.0
 10
76.1860982374
 20
198.4334733846
 30
0.0
 10
76.1860982374
 20
198.4893294157
 30
0.0
  0
SPLINE
  5
555
100
AcDbEntity
  8
02___PRT_ALL_AXES
100
AcDbSpline
 62
7
  6
CONTINUOUS
 70
0
 71
3
 72
19
 73
15
 74
0
 42
0.0000001
 43
0.0000001
 44
0.0000000001
 40
0.0
 40
0.0
 40
0.0
 40
0.0
 40
0.1683075029
 40
0.2404576968
 40
0.3036660769
 40
0.4090527407
 40
0.4554823394
 40
0.5000445236
 40
0.5446094138
 40
0.5910415449
 40
0.6964181475
 40
0.7596236278
 40
0.8317654351
 40
1.0
 40
1.0
 40
1.0
 40
1.0
 10
220.3651287113
 20
198.4893294157
 30
0.0
 10
220.3651287113
 20
198.3827190834
 30
0.0
 10
220.3893036383
 20
198.2283878861
 30
0.0
 10
220.4681267406
 20
198.0519899645
 30
0.0
 10
220.554078348
 20
197.9254546437
 30
0.0
 10
220.6615227346
 20
197.8344732459
 30
0.0
 10
220.7791567525
 20
197.7910029657
 30
0.0
 10
220.8652175604
 20
197.7806287872
 30
0.0
 10
220.9512783118
 20
197.7910349177
 30
0.0
 10
221.0688796411
 20
197.8345835732
 30
0.0
 10
221.1762927267
 20
197.9255777246
 30
0.0
 10
221.2622080039
 20
198.0521238212
 30
0.0
 10
221.3409668486
 20
198.2284903582
 30
0.0
 10
221.3651287113
 20
198.3827652842
 30
0.0
 10
221.3651287113
 20
198.4893294157
 30
0.0
  0
SPLINE
  5
556
100
AcDbEntity
  8
02___PRT_ALL_AXES
100
AcDbSpline
 62
7
  6
CONTINUOUS
 70
0
 71
3
 72
11
 73
7
 74
0
 42
0.0000001
 43
0.0000001
 44
0.0000000001
 40
0.0
 40
0.0
 40
0.0
 40
0.0
 40
0.2699449571
 40
0.5270499909
 40
0.7701654741
 40
1.0
 40
1.0
 40
1.0
 40
1.0
 10
206.8651287113
 20
199.9893294157
 30
0.0
 10
206.9809546763
 20
199.8735034508
 30
0.0
 10
207.2144892909
 20
199.6545031394
 30
0.0
 10
207.5829998922
 20
199.3657444938
 30
0.0
 10
207.9630006629
 20
199.1355574936
 30
0.0
 10
208.2310310881
 20
199.0276430224
 30
0.0
 10
208.3651287113
 20
198.9893294157
 30
0.0
  0
SPLINE
  5
557
100
AcDbEntity
  8
02___PRT_ALL_AXES
100
AcDbSpline
 62
7
  6
CONTINUOUS
 70
0
 71
3
 72
11
 73
7
 74
0
 42
0.0000001
 43
0.0000001
 44
0.0000000001
 40
0.0
 40
0.0
 40
0.0
 40
0.0
 40
0.2500103617
 40
0.5000189242
 40
0.7500124732
 40
1.0
 40
1.0
 40
1.0
 40
1.0
 10
210.8651287113
 20
199.9893294157
 30
0.0
 10
211.1018013891
 20
199.8709930769
 30
0.0
 10
211.5815689015
 20
199.6468083414
 30
0.0
 10
212.3218596186
 20
199.3583713435
 30
0.0
 10
213.0830768882
 20
199.1300209403
 30
0.0
 10
213.6032039842
 20
199.0267472339
 30
0.0
 10
213.8651287113
 20
198.9893294157
 30
0.0
  0
SPLINE
  5
558
100
AcDbEntity
  8
02___PRT_ALL_AXES
100
AcDbSpline
 62
7
  6
CONTINUOUS
 70
0
 71
3
 72
11
 73
7
 74
0
 42
0.0000001
 43
0.0000001
 44
0.0000000001
 40
0.0
 40
0.0
 40
0.0
 40
0.0
 40
0.2499875457
 40
0.4999810974
 40
0.7499896465
 40
1.0
 40
1.0
 40
1.0
 40
1.0
 10
215.8651287113
 20
198.9893294157
 30
0.0
 10
216.1270534583
 20
199.0267472367
 30
0.0
 10
216.6471805766
 20
199.1300209493
 30
0.0
 10
217.4083978522
 20
199.3583713625
 30
0.0
 10
218.1486885488
 20
199.6468083571
 30
0.0
 10
218.6284560415
 20
199.8709930808
 30
0.0
 10
218.8651287113
 20
199.9893294157
 30
0.0
  0
SPLINE
  5
559
100
AcDbEntity
  8
02___PRT_ALL_AXES
100
AcDbSpline
 62
7
  6
CONTINUOUS
 70
0
 71
3
 72
19
 73
15
 74
0
 42
0.0000001
 43
0.0000001
 44
0.0000000001
 40
0.0
 40
0.0
 40
0.0
 40
0.0
 40
0.062499569
 40
0.1250450196
 40
0.1876243679
 40
0.2502137548
 40
0.3750836247
 40
0.5000591496
 40
0.6250261711
 40
0.7498800617
 40
0.8124624827
 40
0.8750225901
 40
0.9375286272
 40
1.0
 40
1.0
 40
1.0
 40
1.0
 10
213.8651287113
 20
198.4893294157
 30
0.0
 10
213.8651287113
 20
198.433255804
 30
0.0
 10
213.8846378264
 20
198.3202667101
 30
0.0
 10
213.9644217965
 20
198.1695443268
 30
0.0
 10
214.079481251
 20
198.044494618
 30
0.0
 10
214.2629249507
 20
197.913328752
 30
0.0
 10
214.5283248881
 20
197.8101980007
 30
0.0
 10
214.8652825992
 20
197.7709415781
 30
0.0
 10
215.2022144323
 20
197.8102792902
 30
0.0
 10
215.467568619
 20
197.913447608
 30
0.0
 10
215.6509502462
 20
198.0446387643
 30
0.0
 10
215.7659210162
 20
198.1696887934
 30
0.0
 10
215.8456387919
 20
198.3203528968
 30
0.0
 10
215.8651287113
 20
198.4332811012
 30
0.0
 10
215.8651287113
 20
198.4893294157
 30
0.0
  0
SPLINE
  5
55A
100
AcDbEntity
  8
02___PRT_ALL_AXES
100
AcDbSpline
 62
7
  6
CONTINUOUS
 70
0
 71
3
 72
11
 73
7
 74
0
 42
0.0000001
 43
0.0000001
 44
0.0000000001
 40
0.0
 40
0.0
 40
0.0
 40
0.0
 40
0.2699449571
 40
0.5270499909
 40
0.7701654741
 40
1.0
 40
1.0
 40
1.0
 40
1.0
 10
218.8651287113
 20
199.9893294157
 30
0.0
 10
218.9809546763
 20
199.8735034508
 30
0.0
 10
219.2144892909
 20
199.6545031394
 30
0.0
 10
219.5829998922
 20
199.3657444938
 30
0.0
 10
219.9630006629
 20
199.1355574936
 30
0.0
 10
220.2310310881
 20
199.0276430224
 30
0.0
 10
220.3651287113
 20
198.9893294157
 30
0.0
  0
SPLINE
  5
55B
100
AcDbEntity
  8
02___PRT_ALL_AXES
100
AcDbSpline
 62
7
  6
CONTINUOUS
 70
0
 71
3
 72
11
 73
7
 74
0
 42
0.0000001
 43
0.0000001
 44
0.0000000001
 40
0.0
 40
0.0
 40
0.0
 40
0.0
 40
0.2298345438
 40
0.4729500311
 40
0.7300550521
 40
1.0
 40
1.0
 40
1.0
 40
1.0
 10
209.3651287113
 20
198.9893294157
 30
0.0
 10
209.499226345
 20
199.0276430253
 30
0.0
 10
209.7672567822
 20
199.1355575035
 30
0.0
 10
210.1472575538
 20
199.3657445126
 30
0.0
 10
210.5157681442
 20
199.6545031539
 30
0.0
 10
210.7493027504
 20
199.8735034548
 30
0.0
 10
210.8651287113
 20
199.9893294157
 30
0.0
  0
SPLINE
  5
55C
100
AcDbEntity
  8
02___PRT_ALL_AXES
100
AcDbSpline
 62
7
  6
CONTINUOUS
 70
0
 71
3
 72
19
 73
15
 74
0
 42
0.0000001
 43
0.0000001
 44
0.0000000001
 40
0.0
 40
0.0
 40
0.0
 40
0.0
 40
0.1683000113
 40
0.2404505744
 40
0.3036556532
 40
0.4090388234
 40
0.4554737865
 40
0.5000393211
 40
0.5446067335
 40
0.591042408
 40
0.696430429
 40
0.7596418824
 40
0.8317824151
 40
1.0
 40
1.0
 40
1.0
 40
1.0
 10
208.3651287113
 20
198.4893294157
 30
0.0
 10
208.3651287113
 20
198.3827237405
 30
0.0
 10
208.3893015761
 20
198.2283973139
 30
0.0
 10
208.4681186525
 20
198.052003591
 30
0.0
 10
208.5540664058
 20
197.9254707271
 30
0.0
 10
208.6615032765
 20
197.8344830706
 30
0.0
 10
208.7791388377
 20
197.7910053693
 30
0.0
 10
208.8652066479
 20
197.7806292901
 30
0.0
 10
208.9512739334
 20
197.7910323777
 30
0.0
 10
209.0688859765
 20
197.8345853877
 30
0.0
 10
209.1763087653
 20
197.9255905231
 30
0.0
 10
209.2622229902
 20
198.0521501426
 30
0.0
 10
209.3409691145
 20
198.2285136599
 30
0.0
 10
209.3651287113
 20
198.3827759516
 30
0.0
 10
209.3651287113
 20
198.4893294157
 30
0.0
  0
SPLINE
  5
55D
100
AcDbEntity
  8
02___PRT_ALL_AXES
100
AcDbSpline
 62
7
  6
CONTINUOUS
 70
0
 71
3
 72
11
 73
7
 74
0
 42
0.0000001
 43
0.0000001
 44
0.0000000001
 40
0.0
 40
0.0
 40
0.0
 40
0.0
 40
0.2298345438
 40
0.4729500311
 40
0.7300550521
 40
1.0
 40
1.0
 40
1.0
 40
1.0
 10
221.3651287113
 20
198.9893294157
 30
0.0
 10
221.499226345
 20
199.0276430253
 30
0.0
 10
221.7672567822
 20
199.1355575035
 30
0.0
 10
222.1472575538
 20
199.3657445126
 30
0.0
 10
222.5157681442
 20
199.6545031539
 30
0.0
 10
222.7493027504
 20
199.8735034548
 30
0.0
 10
222.8651287113
 20
199.9893294157
 30
0.0
  0
SPLINE
  5
55E
100
AcDbEntity
  8
7_ALL_FEATURES
100
AcDbSpline
 62
7
  6
CONTINUOUS
 70
0
 71
3
 72
15
 73
11
 74
0
 42
0.0000001
 43
0.0000001
 44
0.0000000001
 40
0.0
 40
0.0
 40
0.0
 40
0.0
 40
0.2500551945
 40
0.5000710626
 40
0.6251194897
 40
0.7501364007
 40
0.8126802012
 40
0.8752105697
 40
0.9377026476
 40
1.0
 40
1.0
 40
1.0
 40
1.0
 10
197.5377826707
 20
245.9893294157
 30
0.0
 10
197.622882468
 20
245.9893294157
 30
0.0
 10
197.793141412
 20
245.980866724
 30
0.0
 10
198.0040315962
 20
245.9491058586
 30
0.0
 10
198.1690177728
 20
245.9068120209
 30
0.0
 10
198.2694309649
 20
245.8707718141
 30
0.0
 10
198.3457791568
 20
245.8328520067
 30
0.0
 10
198.3991850242
 20
245.7975034237
 30
0.0
 10
198.445567087
 20
245.7529373533
 30
0.0
 10
198.4620044739
 20
245.7105307032
 30
0.0
 10
198.4620044739
 20
245.6893294157
 30
0.0
  0
SPLINE
  5
55F
100
AcDbEntity
  8
7_ALL_FEATURES
100
AcDbSpline
 62
7
  6
CONTINUOUS
 70
0
 71
3
 72
19
 73
15
 74
0
 42
0.0000001
 43
0.0000001
 44
0.0000000001
 40
0.0
 40
0.0
 40
0.0
 40
0.0
 40
0.0312989455
 40
0.0626134264
 40
0.0939218012
 40
0.1251898917
 40
0.1876618417
 40
0.2501489458
 40
0.3126408536
 40
0.3751336455
 40
0.5000999819
 40
0.6250771084
 40
0.7500586261
 40
1.0
 40
1.0
 40
1.0
 40
1.0
 10
198.4620044739
 20
240.9893294157
 30
0.0
 10
198.4620044739
 20
240.96782464
 30
0.0
 10
198.4718616207
 20
240.9245409024
 30
0.0
 10
198.50680947
 20
240.8694055374
 30
0.0
 10
198.5528487446
 20
240.8237351859
 30
0.0
 10
198.6218379953
 20
240.7722347084
 30
0.0
 10
198.7168269822
 20
240.7212059354
 30
0.0
 10
198.836497035
 20
240.6732665169
 30
0.0
 10
198.9594891523
 20
240.6346533274
 30
0.0
 10
199.1260437691
 20
240.5925385737
 30
0.0
 10
199.3373794342
 20
240.5536400084
 30
0.0
 10
199.5931472424
 20
240.5221442725
 30
0.0
 10
199.935671086
 20
240.4955760914
 30
0.0
 10
200.1933998203
 20
240.4893294157
 30
0.0
 10
200.3651287113
 20
240.4893294157
 30
0.0
  0
SPLINE
  5
560
100
AcDbEntity
  8
02___PRT_ALL_AXES
100
AcDbSpline
 62
7
  6
CONTINUOUS
 70
0
 71
3
 72
13
 73
9
 74
0
 42
0.0000001
 43
0.0000001
 44
0.0000000001
 40
0.0
 40
0.0
 40
0.0
 40
0.0
 40
0.1130318083
 40
0.2274217246
 40
0.3444445056
 40
0.4652191182
 40
0.7210476959
 40
1.0
 40
1.0
 40
1.0
 40
1.0
 10
318.8245381872
 20
138.0097214369
 30
0.0
 10
318.8675654987
 20
138.0312370499
 30
0.0
 10
318.9573023618
 20
138.0684968008
 30
0.0
 10
319.0995898863
 20
138.1055367303
 30
0.0
 10
319.2488214978
 20
138.1236722402
 30
0.0
 10
319.4593946775
 20
138.1224873929
 30
0.0
 10
319.735986039
 20
138.0706117974
 30
0.0
 10
319.9482558778
 20
137.9847476325
 30
0.0
 10
320.0544453326
 20
137.9316529051
 30
0.0
  0
SPLINE
  5
561
100
AcDbEntity
  8
02___PRT_ALL_AXES
100
AcDbSpline
 62
7
  6
CONTINUOUS
 70
0
 71
3
 72
11
 73
7
 74
0
 42
0.0000001
 43
0.0000001
 44
0.0000000001
 40
0.0
 40
0.0
 40
0.0
 40
0.0
 40
0.2603264839
 40
0.5120040812
 40
0.7575805665
 40
1.0
 40
1.0
 40
1.0
 40
1.0
 10
318.1075310163
 20
137.4578627161
 30
0.0
 10
318.1361407484
 20
137.5034264729
 30
0.0
 10
318.1978165652
 20
137.5898091241
 30
0.0
 10
318.3049378415
 20
137.7046314218
 30
0.0
 10
318.4240688485
 20
137.8012086561
 30
0.0
 10
318.5110959039
 20
137.8530025296
 30
0.0
 10
318.5559079698
 20
137.875406328
 30
0.0
  0
SPLINE
  5
562
100
AcDbEntity
  8
02___PRT_ALL_AXES
100
AcDbSpline
 62
7
  6
CONTINUOUS
 70
0
 71
3
 72
19
 73
15
 74
0
 42
0.0000001
 43
0.0000001
 44
0.0000000001
 40
0.0
 40
0.0
 40
0.0
 40
0.0
 40
0.1249206513
 40
0.2498578302
 40
0.3124131946
 40
0.3749618404
 40
0.4375053277
 40
0.500045536
 40
0.6249558296
 40
0.7498603172
 40
0.8123939501
 40
0.8749247879
 40
0.9374640212
 40
1.0
 40
1.0
 40
1.0
 40
1.0
 10
318.1075297718
 20
137.4578642304
 30
0.0
 10
317.9961892872
 20
137.2805549905
 30
0.0
 10
317.8104419573
 20
136.9012267715
 30
0.0
 10
317.682861947
 20
136.3892537879
 30
0.0
 10
317.6463300439
 20
135.9711222747
 30
0.0
 10
317.6517621397
 20
135.6560818396
 30
0.0
 10
317.6899344491
 20
135.343343354
 30
0.0
 10
317.7836096951
 20
134.9343096091
 30
0.0
 10
317.9793257269
 20
134.4444771471
 30
0.0
 10
318.2714028762
 20
134.0052404304
 30
0.0
 10
318.5549357875
 20
133.6959586078
 30
0.0
 10
318.7907267046
 20
133.4870472934
 30
0.0
 10
319.0469453275
 20
133.3038610613
 30
0.0
 10
319.2296638107
 20
133.2001847037
 30
0.0
 10
319.323409768
 20
133.153311725
 30
0.0
  0
SPLINE
  5
563
100
AcDbEntity
  8
02___PRT_ALL_AXES
100
AcDbSpline
 62
7
  6
CONTINUOUS
 70
0
 71
3
 72
15
 73
11
 74
0
 42
0.0000001
 43
0.0000001
 44
0.0000000001
 40
0.0
 40
0.0
 40
0.0
 40
0.0
 40
0.1058641617
 40
0.2141866642
 40
0.3271317642
 40
0.4463681565
 40
0.572987915
 40
0.7075191712
 40
0.8499883938
 40
1.0
 40
1.0
 40
1.0
 40
1.0
 10
321.284352478
 20
133.0904446524
 30
0.0
 10
321.3446292426
 20
133.1205857767
 30
0.0
 10
321.4608446402
 20
133.1938431713
 30
0.0
 10
321.6133060842
 20
133.337389838
 30
0.0
 10
321.7426816036
 20
133.5126488385
 30
0.0
 10
321.8472444717
 20
133.7167187812
 30
0.0
 10
321.9258093002
 20
133.9465540043
 30
0.0
 10
321.9774814226
 20
134.1988786466
 30
0.0
 10
322.0016871914
 20
134.4701321032
 30
0.0
 10
321.9993937123
 20
134.656647899
 30
0.0
 10
321.9939297694
 20
134.7519882412
 30
0.0
  0
SPLINE
  5
564
100
AcDbEntity
  8
02___PRT_ALL_AXES
100
AcDbSpline
 62
7
  6
CONTINUOUS
 70
0
 71
3
 72
15
 73
11
 74
0
 42
0.0000001
 43
0.0000001
 44
0.0000000001
 40
0.0
 40
0.0
 40
0.0
 40
0.0
 40
0.1186352591
 40
0.2424892326
 40
0.370007486
 40
0.499443013
 40
0.628952805
 40
0.7566903014
 40
0.8808971027
 40
1.0
 40
1.0
 40
1.0
 40
1.0
 10
321.9939297694
 20
134.7519882412
 30
0.0
 10
321.9866627573
 20
134.8787903371
 30
0.0
 10
321.9562985215
 20
135.1372566605
 30
0.0
 10
321.8688729151
 20
135.524261938
 30
0.0
 10
321.7404036926
 20
135.911848464
 30
0.0
 10
321.5738002741
 20
136.2912136553
 30
0.0
 10
321.3728287498
 20
136.6538138971
 30
0.0
 10
321.1420073645
 20
136.9914703859
 30
0.0
 10
320.8865859319
 20
137.2965227426
 30
0.0
 10
320.6989805867
 20
137.4781399019
 30
0.0
 10
320.6022865865
 20
137.5612619649
 30
0.0
  0
SPLINE
  5
565
100
AcDbEntity
  8
02___PRT_ALL_AXES
100
AcDbSpline
 62
7
  6
CONTINUOUS
 70
0
 71
3
 72
9
 73
5
 74
0
 42
0.0000001
 43
0.0000001
 44
0.0000000001
 40
0.0
 40
0.0
 40
0.0
 40
0.0
 40
0.2613059281
 40
1.0
 40
1.0
 40
1.0
 40
1.0
 10
320.5814697895
 20
137.5790027436
 30
0.0
 10
320.5392241663
 20
137.614694059
 30
0.0
 10
320.3740568103
 20
137.7470052526
 30
0.0
 10
320.1942813468
 20
137.861734898
 30
0.0
 10
320.0544453326
 20
137.9316529051
 30
0.0
  0
SPLINE
  5
566
100
AcDbEntity
  8
02___PRT_ALL_AXES
100
AcDbSpline
 62
7
  6
CONTINUOUS
 70
0
 71
3
 72
11
 73
7
 74
0
 42
0.0000001
 43
0.0000001
 44
0.0000000001
 40
0.0
 40
0.0
 40
0.0
 40
0.0
 40
0.2603304591
 40
0.5120064533
 40
0.7575814232
 40
1.0
 40
1.0
 40
1.0
 40
1.0
 10
320.4125201796
 20
132.8478850189
 30
0.0
 10
320.4661381633
 20
132.8434378358
 30
0.0
 10
320.5722502577
 20
132.8409374069
 30
0.0
 10
320.7283796203
 20
132.8577549926
 30
0.0
 10
320.8771226524
 20
132.895100581
 30
0.0
 10
320.9707695993
 20
132.9336554478
 30
0.0
 10
321.0155815417
 20
132.9560591844
 30
0.0
  0
SPLINE
  5
567
100
AcDbEntity
  8
02___PRT_ALL_AXES
100
AcDbSpline
 62
7
  6
CONTINUOUS
 70
0
 71
3
 72
13
 73
9
 74
0
 42
0.0000001
 43
0.0000001
 44
0.0000000001
 40
0.0
 40
0.0
 40
0.0
 40
0.0
 40
0.1130313861
 40
0.2274214144
 40
0.3444446042
 40
0.4652196924
 40
0.7210487441
 40
1.0
 40
1.0
 40
1.0
 40
1.0
 10
318.5559079698
 20
137.875406328
 30
0.0
 10
318.5989341227
 20
137.896917259
 30
0.0
 10
318.6886679748
 20
137.9341682307
 30
0.0
 10
318.8309489833
 20
137.9711972668
 30
0.0
 10
318.980172669
 20
137.9893244416
 30
0.0
 10
319.1907333783
 20
137.9881318195
 30
0.0
 10
319.4673062346
 20
137.9362536804
 30
0.0
 10
319.6795622129
 20
137.8503938881
 30
0.0
 10
319.7857447557
 20
137.7973026166
 30
0.0
  0
SPLINE
  5
568
100
AcDbEntity
  8
02___PRT_ALL_AXES
100
AcDbSpline
 62
7
  6
CONTINUOUS
 70
0
 71
3
 72
26
 73
22
 74
0
 42
0.0000001
 43
0.0000001
 44
0.0000000001
 40
0.0
 40
0.0
 40
0.0
 40
0.0
 40
0.0632021404
 40
0.1316447961
 40
0.2042705791
 40
0.2796067515
 40
0.355951032
 40
0.4315177449
 40
0.5045848062
 40
0.573643761
 40
0.6375663359
 40
0.6958016299
 40
0.7486062195
 40
0.7733897967
 40
0.7973856122
 40
0.8209113154
 40
0.8443218289
 40
0.8679815
 40
0.8922347389
 40
0.943538518
 40
1.0
 40
1.0
 40
1.0
 40
1.0
 10
318.8877191436
 20
133.5334479069
 30
0.0
 10
318.8085588654
 20
133.573028046
 30
0.0
 10
318.6516242635
 20
133.671850915
 30
0.0
 10
318.4357923433
 20
133.8609768606
 30
0.0
 10
318.2366645726
 20
134.0905694957
 30
0.0
 10
318.0615281084
 20
134.3522288972
 30
0.0
 10
317.9167111363
 20
134.6364182636
 30
0.0
 10
317.8075169342
 20
134.9327420371
 30
0.0
 10
317.7379437396
 20
135.2303999714
 30
0.0
 10
317.7105600654
 20
135.5186207118
 30
0.0
 10
317.7265712964
 20
135.7871774116
 30
0.0
 10
317.7857706938
 20
136.0265412911
 30
0.0
 10
317.8724097439
 20
136.1983374182
 30
0.0
 10
317.9616244295
 20
136.3097044126
 30
0.0
 10
318.0360926226
 20
136.3788853236
 30
0.0
 10
318.1187855434
 20
136.4346514732
 30
0.0
 10
318.208849997
 20
136.4764136389
 30
0.0
 10
318.3053495717
 20
136.5037136179
 30
0.0
 10
318.443703505
 20
136.5208716302
 30
0.0
 10
318.6300710545
 20
136.5030225842
 30
0.0
 10
318.7737672317
 20
136.4528707803
 30
0.0
 10
318.8457077454
 20
136.4200714752
 30
0.0
  0
SPLINE
  5
569
100
AcDbEntity
  8
02___PRT_ALL_AXES
100
AcDbSpline
 62
7
  6
CONTINUOUS
 70
0
 71
3
 72
24
 73
20
 74
0
 42
0.0000001
 43
0.0000001
 44
0.0000000001
 40
0.0
 40
0.0
 40
0.0
 40
0.0
 40
0.0223776777
 40
0.0449725303
 40
0.0915398348
 40
0.1411547539
 40
0.1946963864
 40
0.2525393228
 40
0.3146207485
 40
0.3805300495
 40
0.4495934787
 40
0.5209477384
 40
0.5936041603
 40
0.6665067145
 40
0.7385870165
 40
0.8088182698
 40
0.8762729027
 40
0.9401793847
 40
1.0
 40
1.0
 40
1.0
 40
1.0
 10
321.0155815417
 20
132.9560591844
 30
0.0
 10
321.0541683569
 20
132.9753506679
 30
0.0
 10
321.1293564326
 20
133.0190714193
 30
0.0
 10
321.2700330013
 20
133.1262425686
 30
0.0
 10
321.4252172161
 20
133.2977127017
 30
0.0
 10
321.5686787584
 20
133.5503872161
 30
0.0
 10
321.6693172454
 20
133.8456586326
 30
0.0
 10
321.7254678478
 20
134.1765611567
 30
0.0
 10
321.7363308678
 20
134.5356420832
 30
0.0
 10
321.7018596085
 20
134.914792224
 30
0.0
 10
321.6229386293
 20
135.3053827474
 30
0.0
 10
321.5014194112
 20
135.6984525456
 30
0.0
 10
321.3401208647
 20
136.0849369239
 30
0.0
 10
321.1427789573
 20
136.4558983572
 30
0.0
 10
320.9139555615
 20
136.8027522748
 30
0.0
 10
320.6589399846
 20
137.1174775948
 30
0.0
 10
320.3835487453
 20
137.3928211172
 30
0.0
 10
320.0941470897
 20
137.6223942467
 30
0.0
 10
319.8888940197
 20
137.7457279847
 30
0.0
 10
319.7857447557
 20
137.7973026166
 30
0.0
  0
SPLINE
  5
56A
100
AcDbEntity
  8
02___PRT_ALL_AXES
100
AcDbSpline
 62
7
  6
CONTINUOUS
 70
0
 71
3
 72
26
 73
22
 74
0
 42
0.0000001
 43
0.0000001
 44
0.0000000001
 40
0.0
 40
0.0
 40
0.0
 40
0.0
 40
0.0574922002
 40
0.1096010066
 40
0.1341210212
 40
0.1579398103
 40
0.1813981565
 40
0.2048662029
 40
0.2287129715
 40
0.2532761935
 40
0.3055113916
 40
0.3631481609
 40
0.4265550707
 40
0.4952392848
 40
0.5680888424
 40
0.6435827155
 40
0.7199674345
 40
0.7954149209
 40
0.8681762586
 40
0.9367349882
 40
1.0
 40
1.0
 40
1.0
 40
1.0
 10
318.8877191436
 20
133.5334479069
 30
0.0
 10
318.9605230992
 20
133.4970459291
 30
0.0
 10
319.1061495124
 20
133.4399246149
 30
0.0
 10
319.2965006601
 20
133.4132206686
 30
0.0
 10
319.4387774589
 20
133.4241345003
 30
0.0
 10
319.5381993929
 20
133.4472189945
 30
0.0
 10
319.6313481145
 20
133.4851920688
 30
0.0
 10
319.7172233999
 20
133.5376516971
 30
0.0
 10
319.7949006307
 20
133.6040373971
 30
0.0
 10
319.8883820615
 20
133.7122064497
 30
0.0
 10
319.9803174816
 20
133.881561853
 30
0.0
 10
320.0449129074
 20
134.1199783533
 30
0.0
 10
320.0653936701
 20
134.3891600466
 30
0.0
 10
320.0414397143
 20
134.6793621531
 30
0.0
 10
319.974186655
 20
134.9800771476
 30
0.0
 10
319.8661803976
 20
135.2801915779
 30
0.0
 10
319.7214669726
 20
135.5685255965
 30
0.0
 10
319.5454645708
 20
135.8342937362
 30
0.0
 10
319.344677446
 20
136.0675903357
 30
0.0
 10
319.1266210141
 20
136.2596875853
 30
0.0
 10
318.9678333695
 20
136.3599348805
 30
0.0
 10
318.8877191436
 20
136.3999919934
 30
0.0
  0
SPLINE
  5
56B
100
AcDbEntity
  8
02___PRT_ALL_AXES
100
AcDbSpline
 62
7
  6
CONTINUOUS
 70
0
 71
3
 72
14
 73
10
 74
0
 42
0.0000001
 43
0.0000001
 44
0.0000000001
 40
0.0
 40
0.0
 40
0.0
 40
0.0
 40
0.2483567468
 40
0.3722999593
 40
0.4966256779
 40
0.6215914216
 40
0.7472303265
 40
0.873453233
 40
1.0
 40
1.0
 40
1.0
 40
1.0
 10
344.7774400007
 20
104.5746434415
 30
0.0
 10
345.1582232457
 20
104.765035064
 30
0.0
 10
345.7054266067
 20
105.1047542828
 30
0.0
 10
346.3448854045
 20
105.6690506629
 30
0.0
 10
346.7711583431
 20
106.1485146751
 30
0.0
 10
347.1333717722
 20
106.6817138509
 30
0.0
 10
347.4207930437
 20
107.2626100477
 30
0.0
 10
347.6233002265
 20
107.8811315047
 30
0.0
 10
347.6968109898
 20
108.3100465907
 30
0.0
 10
347.7174479378
 20
108.52598688
 30
0.0
  0
SPLINE
  5
56C
100
AcDbEntity
  8
02___PRT_ALL_AXES
100
AcDbSpline
 62
7
  6
CONTINUOUS
 70
0
 71
3
 72
22
 73
18
 74
0
 42
0.0000001
 43
0.0000001
 44
0.0000000001
 40
0.0
 40
0.0
 40
0.0
 40
0.0
 40
0.0615581854
 40
0.1228543138
 40
0.183747584
 40
0.2442568231
 40
0.3045960243
 40
0.3651714636
 40
0.4264602537
 40
0.4888419453
 40
0.5524313832
 40
0.6170568676
 40
0.6822974744
 40
0.7475874247
 40
0.8123553611
 40
0.8761258883
 40
1.0
 40
1.0
 40
1.0
 40
1.0
 10
333.7710576708
 20
108.4000705328
 30
0.0
 10
333.8049901699
 20
108.1281775156
 30
0.0
 10
333.9241152568
 20
107.5906226718
 30
0.0
 10
334.2457001556
 20
106.8340192149
 30
0.0
 10
334.692130521
 20
106.1494980596
 30
0.0
 10
335.2413209071
 20
105.5509933887
 30
0.0
 10
335.8723606384
 20
105.0427281203
 30
0.0
 10
336.5684618264
 20
104.6223727551
 30
0.0
 10
337.3175662143
 20
104.2843870223
 30
0.0
 10
338.1107614398
 20
104.0237433436
 30
0.0
 10
338.9395686626
 20
103.8371137031
 30
0.0
 10
339.7941295281
 20
103.7229478822
 30
0.0
 10
340.6627832757
 20
103.6808163957
 30
0.0
 10
341.5325197931
 20
103.7106104065
 30
0.0
 10
342.3904643223
 20
103.8125357317
 30
0.0
 10
343.4909473686
 20
104.0421491384
 30
0.0
 10
344.2842731808
 20
104.3280600316
 30
0.0
 10
344.7774400007
 20
104.5746434415
 30
0.0
  0
SPLINE
  5
56D
100
AcDbEntity
  8
02___PRT_ALL_AXES
100
AcDbSpline
 62
7
  6
CONTINUOUS
 70
0
 71
3
 72
10
 73
6
 74
0
 42
0.0000001
 43
0.0000001
 44
0.0000000001
 40
0.0
 40
0.0
 40
0.0
 40
0.0
 40
0.2239453833
 40
0.4682062947
 40
1.0
 40
1.0
 40
1.0
 40
1.0
 10
347.6882681573
 20
108.96197562
 30
0.0
 10
347.7598290995
 20
109.1297169531
 30
0.0
 10
347.8991891819
 20
109.4848106942
 30
0.0
 10
348.1661668987
 20
110.2542707005
 30
0.0
 10
348.3469694649
 20
110.8601450578
 30
0.0
 10
348.4647252926
 20
111.2768897632
 30
0.0
  0
SPLINE
  5
56E
100
AcDbEntity
  8
02___PRT_ALL_AXES
100
AcDbSpline
 62
7
  6
CONTINUOUS
 70
0
 71
3
 72
9
 73
5
 74
0
 42
0.0000001
 43
0.0000001
 44
0.0000000001
 40
0.0
 40
0.0
 40
0.0
 40
0.0
 40
0.512584921
 40
1.0
 40
1.0
 40
1.0
 40
1.0
 10
333.009912072
 20
109.2063374024
 30
0.0
 10
333.3192439422
 20
108.8622451565
 30
0.0
 10
333.9448920016
 20
108.2103860037
 30
0.0
 10
334.6377515762
 20
107.6265579369
 30
0.0
 10
334.9969434744
 20
107.3724748025
 30
0.0
  0
SPLINE
  5
56F
100
AcDbEntity
  8
02___PRT_ALL_AXES
100
AcDbSpline
 62
7
  6
CONTINUOUS
 70
0
 71
3
 72
9
 73
5
 74
0
 42
0.0000001
 43
0.0000001
 44
0.0000000001
 40
0.0
 40
0.0
 40
0.0
 40
0.0
 40
0.4517501769
 40
1.0
 40
1.0
 40
1.0
 40
1.0
 10
346.7669671659
 20
107.5770147139
 30
0.0
 10
346.8387696127
 20
107.6277402947
 30
0.0
 10
346.9854017679
 20
107.7576661671
 30
0.0
 10
347.1082634949
 20
107.9094839882
 30
0.0
 10
347.1706300671
 20
107.9960497937
 30
0.0
  0
SPLINE
  5
570
100
AcDbEntity
  8
02___PRT_ALL_AXES
100
AcDbSpline
 62
7
  6
CONTINUOUS
 70
0
 71
3
 72
9
 73
5
 74
0
 42
0.0000001
 43
0.0000001
 44
0.0000000001
 40
0.0
 40
0.0
 40
0.0
 40
0.0
 40
0.4698073636
 40
1.0
 40
1.0
 40
1.0
 40
1.0
 10
346.3941729318
 20
107.413186458
 30
0.0
 10
346.4571489763
 20
107.4253403809
 30
0.0
 10
346.5886455493
 20
107.4663983861
 30
0.0
 10
346.7078495546
 20
107.5352504662
 30
0.0
 10
346.7669671659
 20
107.5770147139
 30
0.0
  0
SPLINE
  5
571
100
AcDbEntity
  8
02___PRT_ALL_AXES
100
AcDbSpline
 62
7
  6
CONTINUOUS
 70
0
 71
3
 72
10
 73
6
 74
0
 42
0.0000001
 43
0.0000001
 44
0.0000000001
 40
0.0
 40
0.0
 40
0.0
 40
0.0
 40
0.4929740318
 40
0.7445141467
 40
1.0
 40
1.0
 40
1.0
 40
1.0
 10
338.6667663215
 20
106.3779102776
 30
0.0
 10
339.1288029753
 20
106.2326860862
 30
0.0
 10
339.8403286324
 20
106.051126007
 30
0.0
 10
340.8149603818
 20
105.92021938
 30
0.0
 10
341.3135461835
 20
105.8986344667
 30
0.0
 10
341.5645438003
 20
105.9001134415
 30
0.0
  0
SPLINE
  5
572
100
AcDbEntity
  8
02___PRT_ALL_AXES
100
AcDbSpline
 62
7
  6
CONTINUOUS
 70
0
 71
3
 72
10
 73
6
 74
0
 42
0.0000001
 43
0.0000001
 44
0.0000000001
 40
0.0
 40
0.0
 40
0.0
 40
0.0
 40
0.2487752088
 40
0.6239907574
 40
1.0
 40
1.0
 40
1.0
 40
1.0
 10
343.4963954529
 20
106.1589324866
 30
0.0
 10
343.7503741852
 20
106.2254893421
 30
0.0
 10
344.379893005
 20
106.4221029403
 30
0.0
 10
345.3524924373
 20
106.8370566285
 30
0.0
 10
346.0512343979
 20
107.2135062674
 30
0.0
 10
346.3941729318
 20
107.413186458
 30
0.0
  0
SPLINE
  5
573
100
AcDbEntity
  8
02___PRT_ALL_AXES
100
AcDbSpline
 62
7
  6
CONTINUOUS
 70
0
 71
3
 72
19
 73
15
 74
0
 42
0.0000001
 43
0.0000001
 44
0.0000000001
 40
0.0
 40
0.0
 40
0.0
 40
0.0
 40
0.056731464
 40
0.1127766838
 40
0.1699513205
 40
0.2289195336
 40
0.3517350266
 40
0.4800683885
 40
0.6120600822
 40
0.7456798635
 40
0.8122505285
 40
0.8775739348
 40
0.9404724878
 40
1.0
 40
1.0
 40
1.0
 40
1.0
 10
341.5645438003
 20
105.4671007396
 30
0.0
 10
341.5645438003
 20
105.4195550554
 30
0.0
 10
341.5828345222
 20
105.323922662
 30
0.0
 10
341.661392913
 20
105.2018115737
 30
0.0
 10
341.7735384615
 20
105.1083332838
 30
0.0
 10
341.9535759786
 20
105.0178182296
 30
0.0
 10
342.2121081792
 20
104.9644056637
 30
0.0
 10
342.5351889621
 20
104.97509347
 30
0.0
 10
342.8582475458
 20
105.0530009509
 30
0.0
 10
343.1116927325
 20
105.1753907713
 30
0.0
 10
343.2883375726
 20
105.312069097
 30
0.0
 10
343.3986913709
 20
105.4338725808
 30
0.0
 10
343.4759788843
 20
105.5729149079
 30
0.0
 10
343.4963954529
 20
105.6760307796
 30
0.0
 10
343.4963954529
 20
105.7259197847
 30
0.0
  0
SPLINE
  5
574
100
AcDbEntity
  8
02___PRT_ALL_AXES
100
AcDbSpline
 62
7
  6
CONTINUOUS
 70
0
 71
3
 72
10
 73
6
 74
0
 42
0.0000001
 43
0.0000001
 44
0.0000000001
 40
0.0
 40
0.0
 40
0.0
 40
0.0
 40
0.2652984028
 40
0.5184659904
 40
1.0
 40
1.0
 40
1.0
 40
1.0
 10
336.5454459779
 20
106.5725450456
 30
0.0
 10
336.7258226344
 20
106.5139160581
 30
0.0
 10
337.0856477532
 20
106.4203261875
 30
0.0
 10
337.7953629269
 20
106.3243289926
 30
0.0
 10
338.3246637264
 20
106.3394673757
 30
0.0
 10
338.6667663215
 20
106.3779102776
 30
0.0
  0
SPLINE
  5
575
100
AcDbEntity
  8
02___PRT_ALL_AXES
100
AcDbSpline
 62
7
  6
CONTINUOUS
 70
0
 71
3
 72
20
 73
16
 74
0
 42
0.0000001
 43
0.0000001
 44
0.0000000001
 40
0.0
 40
0.0
 40
0.0
 40
0.0
 40
0.0710840126
 40
0.1473517215
 40
0.2246376918
 40
0.3003967464
 40
0.443107931
 40
0.5723034257
 40
0.6872583035
 40
0.7396345136
 40
0.7889882359
 40
0.8364851398
 40
0.8847232121
 40
0.9379206647
 40
1.0
 40
1.0
 40
1.0
 40
1.0
 10
335.1312324155
 20
106.8466391249
 30
0.0
 10
335.1312324155
 20
106.7950405151
 30
0.0
 10
335.1466632437
 20
106.6879499663
 30
0.0
 10
335.2019499797
 20
106.5337918351
 30
0.0
 10
335.2818965586
 20
106.387129324
 30
0.0
 10
335.4080434763
 20
106.2129163258
 30
0.0
 10
335.5885077492
 20
106.033602669
 30
0.0
 10
335.8243484788
 20
105.8781573957
 30
0.0
 10
336.0286364903
 20
105.8015125703
 30
0.0
 10
336.1856727134
 20
105.7832645968
 30
0.0
 10
336.2945309417
 20
105.7929312062
 30
0.0
 10
336.3947789751
 20
105.8302396736
 30
0.0
 10
336.4791603575
 20
105.9018672215
 30
0.0
 10
336.5348589093
 20
106.0098472154
 30
0.0
 10
336.5454459779
 20
106.0944700677
 30
0.0
 10
336.5454459779
 20
106.1395323437
 30
0.0
  0
SPLINE
  5
576
100
AcDbEntity
  8
02___PRT_ALL_AXES
100
AcDbSpline
 62
7
  6
CONTINUOUS
 70
0
 71
3
 72
13
 73
9
 74
0
 42
0.0000001
 43
0.0000001
 44
0.0000000001
 40
0.0
 40
0.0
 40
0.0
 40
0.0
 40
0.1021505208
 40
0.2071678725
 40
0.3175953298
 40
0.4354419985
 40
0.6979096975
 40
1.0
 40
1.0
 40
1.0
 40
1.0
 10
346.7373117254
 20
114.1389401607
 30
0.0
 10
346.7373183685
 20
114.0404430778
 30
0.0
 10
346.717415033
 20
113.8401550553
 30
0.0
 10
346.6286980723
 20
113.5453026177
 30
0.0
 10
346.4826905833
 20
113.2572987195
 30
0.0
 10
346.2042856986
 20
112.8726564401
 30
0.0
 10
345.7111215008
 20
112.4267875919
 30
0.0
 10
345.2404934621
 20
112.1476746026
 30
0.0
 10
344.9799593694
 20
112.0174075562
 30
0.0
  0
SPLINE
  5
577
100
AcDbEntity
  8
02___PRT_ALL_AXES
100
AcDbSpline
 62
9
  6
CONTINUOUS
 70
0
 71
3
 72
11
 73
7
 74
0
 42
0.0000001
 43
0.0000001
 44
0.0000000001
 40
0.0
 40
0.0
 40
0.0
 40
0.0
 40
0.2201460123
 40
0.4578770607
 40
0.7172022255
 40
1.0
 40
1.0
 40
1.0
 40
1.0
 10
333.8409826038
 20
108.3424560637
 30
0.0
 10
333.8894095779
 20
108.2033384492
 30
0.0
 10
334.0228357292
 20
107.9247360135
 30
0.0
 10
334.3091464034
 20
107.5368131023
 30
0.0
 10
334.6828367838
 20
107.1699959862
 30
0.0
 10
334.9739324618
 20
106.951823272
 30
0.0
 10
335.1312324155
 20
106.8466391249
 30
0.0
  0
SPLINE
  5
578
100
AcDbEntity
  8
02___PRT_ALL_AXES
100
AcDbSpline
 62
7
  6
CONTINUOUS
 70
0
 71
3
 72
23
 73
19
 74
0
 42
0.0000001
 43
0.0000001
 44
0.0000000001
 40
0.0
 40
0.0
 40
0.0
 40
0.0
 40
0.0388770732
 40
0.0810968419
 40
0.1278738803
 40
0.1797975628
 40
0.2369485442
 40
0.2990250683
 40
0.365443511
 40
0.4354139122
 40
0.5079984169
 40
0.5821594995
 40
0.656802734
 40
0.7308163907
 40
0.8031131709
 40
0.8726612135
 40
0.9385516739
 40
1.0
 40
1.0
 40
1.0
 40
1.0
 10
334.7664763294
 20
113.8433771193
 30
0.0
 10
334.7949877154
 20
113.6993184981
 30
0.0
 10
334.897789383
 20
113.4063384511
 30
0.0
 10
335.1650617537
 20
112.9996232529
 30
0.0
 10
335.5411860847
 20
112.6189365778
 30
0.0
 10
336.0179812137
 20
112.2702200248
 30
0.0
 10
336.5863249289
 20
111.9589128145
 30
0.0
 10
337.2354808127
 20
111.6905594367
 30
0.0
 10
337.953045731
 20
111.4701658899
 30
0.0
 10
338.7251451371
 20
111.3019889358
 30
0.0
 10
339.5367277911
 20
111.1893260005
 30
0.0
 10
340.3718949615
 20
111.1344068623
 30
0.0
 10
341.2142410389
 20
111.1383220608
 30
0.0
 10
342.047220683
 20
111.2009827307
 30
0.0
 10
342.8544510282
 20
111.3211634189
 30
0.0
 10
343.6202074728
 20
111.4964648982
 30
0.0
 10
344.3293887419
 20
111.7234625003
 30
0.0
 10
344.7723513484
 20
111.9136035457
 30
0.0
 10
344.9799593694
 20
112.0174075562
 30
0.0
  0
SPLINE
  5
579
100
AcDbEntity
  8
02___PRT_ALL_AXES
100
AcDbSpline
 62
7
  6
CONTINUOUS
 70
0
 71
3
 72
11
 73
7
 74
0
 42
0.0000001
 43
0.0000001
 44
0.0000000001
 40
0.0
 40
0.0
 40
0.0
 40
0.0
 40
0.2327907449
 40
0.4812979365
 40
0.7393139773
 40
1.0
 40
1.0
 40
1.0
 40
1.0
 10
336.5454459779
 20
106.5725450456
 30
0.0
 10
336.9158919463
 20
106.4340471462
 30
0.0
 10
337.7014368509
 20
106.198853942
 30
0.0
 10
338.938833957
 20
105.9716297822
 30
0.0
 10
340.2397288929
 20
105.8636012535
 30
0.0
 10
341.1224449392
 20
105.8738065834
 30
0.0
 10
341.5645438003
 20
105.9001134415
 30
0.0
  0
SPLINE
  5
57A
100
AcDbEntity
  8
02___PRT_ALL_AXES
100
AcDbSpline
 62
7
  6
CONTINUOUS
 70
0
 71
3
 72
11
 73
7
 74
0
 42
0.0000001
 43
0.0000001
 44
0.0000000001
 40
0.0
 40
0.0
 40
0.0
 40
0.0
 40
0.2754089251
 40
0.5355723909
 40
0.7777192802
 40
1.0
 40
1.0
 40
1.0
 40
1.0
 10
343.4963954529
 20
106.1589324866
 30
0.0
 10
343.7844122089
 20
106.2206938637
 30
0.0
 10
344.3402660532
 20
106.3620525554
 30
0.0
 10
345.127111055
 20
106.6353059225
 30
0.0
 10
345.832375188
 20
106.9596348429
 30
0.0
 10
346.2586854424
 20
107.2176061297
 30
0.0
 10
346.4528009386
 20
107.3548646556
 30
0.0
  0
SPLINE
  5
57B
100
AcDbEntity
  8
02___PRT_ALL_AXES
100
AcDbSpline
 62
7
  6
CONTINUOUS
 70
0
 71
3
 72
27
 73
23
 74
0
 42
0.0000001
 43
0.0000001
 44
0.0000000001
 40
0.0
 40
0.0
 40
0.0
 40
0.0
 40
0.0764050804
 40
0.1067705031
 40
0.131786428
 40
0.1518518368
 40
0.1677576268
 40
0.1805970248
 40
0.1918539653
 40
0.2153566642
 40
0.2298083187
 40
0.2464845921
 40
0.2868284774
 40
0.3364297845
 40
0.394963879
 40
0.4621387728
 40
0.5377165583
 40
0.6214135647
 40
0.7125730427
 40
0.8094506753
 40
0.9078562816
 40
1.0
 40
1.0
 40
1.0
 40
1.0
 10
347.1706300671
 20
107.5630370918
 30
0.0
 10
347.1706300671
 20
107.519576779
 30
0.0
 10
347.1730876593
 20
107.4586662489
 30
0.0
 10
347.1850549156
 20
107.3845811236
 30
0.0
 10
347.1960954975
 20
107.3430120072
 30
0.0
 10
347.2095173117
 20
107.3108675351
 30
0.0
 10
347.2250272887
 20
107.2875534226
 30
0.0
 10
347.2426559641
 20
107.2725299641
 30
0.0
 10
347.2690573481
 20
107.26363544
 30
0.0
 10
347.2979884768
 20
107.2722314945
 30
0.0
 10
347.3234219702
 20
107.2899060163
 30
0.0
 10
347.3532965888
 20
107.3177522609
 30
0.0
 10
347.3902035527
 20
107.3662466098
 30
0.0
 10
347.4330485886
 20
107.4391457296
 30
0.0
 10
347.4760678369
 20
107.5292214118
 30
0.0
 10
347.5186156506
 20
107.6355825101
 30
0.0
 10
347.5598709393
 20
107.7576661237
 30
0.0
 10
347.5987866136
 20
107.8947548777
 30
0.0
 10
347.6338342512
 20
108.0453565054
 30
0.0
 10
347.6627709693
 20
108.2057811887
 30
0.0
 10
347.6826210819
 20
108.368151924
 30
0.0
 10
347.6882681573
 20
108.4765502408
 30
0.0
 10
347.6882681573
 20
108.5289629181
 30
0.0
  0
SPLINE
  5
57C
100
AcDbEntity
  8
02___PRT_ALL_AXES
100
AcDbSpline
 62
9
  6
CONTINUOUS
 70
0
 71
3
 72
11
 73
7
 74
0
 42
0.0000001
 43
0.0000001
 44
0.0000000001
 40
0.0
 40
0.0
 40
0.0
 40
0.0
 40
0.2327907449
 40
0.4812979365
 40
0.7393139773
 40
1.0
 40
1.0
 40
1.0
 40
1.0
 10
336.5454459779
 20
106.1395323437
 30
0.0
 10
336.9158919463
 20
106.0010344443
 30
0.0
 10
337.7014368509
 20
105.7658412401
 30
0.0
 10
338.938833957
 20
105.5386170803
 30
0.0
 10
340.2397288929
 20
105.4305885516
 30
0.0
 10
341.1224449392
 20
105.4407938815
 30
0.0
 10
341.5645438003
 20
105.4671007396
 30
0.0
  0
SPLINE
  5
57D
100
AcDbEntity
  8
02___PRT_ALL_AXES
100
AcDbSpline
 62
9
  6
CONTINUOUS
 70
0
 71
3
 72
9
 73
5
 74
0
 42
0.0000001
 43
0.0000001
 44
0.0000000001
 40
0.0
 40
0.0
 40
0.0
 40
0.0
 40
0.5216404622
 40
1.0
 40
1.0
 40
1.0
 40
1.0
 10
343.4963954529
 20
105.7259197847
 30
0.0
 10
343.8903811554
 20
105.8104047983
 30
0.0
 10
344.6380204321
 20
106.0113682389
 30
0.0
 10
345.3565665342
 20
106.3024519347
 30
0.0
 10
345.6870661506
 20
106.4677017429
 30
0.0
  0
SPLINE
  5
57E
100
AcDbEntity
  8
02___PRT_ALL_AXES
100
AcDbSpline
 62
9
  6
CONTINUOUS
 70
0
 71
3
 72
10
 73
6
 74
0
 42
0.0000001
 43
0.0000001
 44
0.0000000001
 40
0.0
 40
0.0
 40
0.0
 40
0.0
 40
0.4659255803
 40
0.7245580093
 40
1.0
 40
1.0
 40
1.0
 40
1.0
 10
347.1706300671
 20
107.5630370918
 30
0.0
 10
346.9831723288
 20
107.3444904361
 30
0.0
 10
346.6444737617
 20
107.0440917954
 30
0.0
 10
346.1293531544
 20
106.7024391426
 30
0.0
 10
345.8393114269
 20
106.5438243811
 30
0.0
 10
345.6870661506
 20
106.4677017429
 30
0.0
  0
SPLINE
  5
57F
100
AcDbEntity
  8
7_ALL_FEATURES
100
AcDbSpline
 62
7
  6
CONTINUOUS
 70
0
 71
3
 72
13
 73
9
 74
0
 42
0.0000001
 43
0.0000001
 44
0.0000000001
 40
0.0
 40
0.0
 40
0.0
 40
0.0
 40
0.1085466825
 40
0.2189875247
 40
0.3330751183
 40
0.4523274271
 40
0.7104892994
 40
1.0
 40
1.0
 40
1.0
 40
1.0
 10
347.1662296975
 20
155.1731617896
 30
0.0
 10
347.1662298529
 20
155.3466074618
 30
0.0
 10
347.1390669021
 20
155.6971096365
 30
0.0
 10
347.0173669934
 20
156.2171401323
 30
0.0
 10
346.8159930471
 20
156.7301702821
 30
0.0
 10
346.433280427
 20
157.4182817279
 30
0.0
 10
345.7468528748
 20
158.2454623299
 30
0.0
 10
345.0666709184
 20
158.8031902389
 30
0.0
 10
344.6889543828
 20
159.0702759899
 30
0.0
  0
SPLINE
  5
580
100
AcDbEntity
  8
7_ALL_FEATURES
100
AcDbSpline
 62
7
  6
CONTINUOUS
 70
0
 71
3
 72
13
 73
9
 74
0
 42
0.0000001
 43
0.0000001
 44
0.0000000001
 40
0.0
 40
0.0
 40
0.0
 40
0.0
 40
0.1085453742
 40
0.2189847173
 40
0.3330710758
 40
0.4523227019
 40
0.7104765005
 40
1.0
 40
1.0
 40
1.0
 40
1.0
 10
320.1662720434
 20
155.1731617896
 30
0.0
 10
320.1662721988
 20
155.3466057256
 30
0.0
 10
320.1934345621
 20
155.6971040368
 30
0.0
 10
320.3151303659
 20
156.2171298624
 30
0.0
 10
320.5165013975
 20
156.730156871
 30
0.0
 10
320.8992113002
 20
157.4182525745
 30
0.0
 10
321.5856182365
 20
158.2454614835
 30
0.0
 10
322.2658261957
 20
158.8031769962
 30
0.0
 10
322.6435636434
 20
159.070270232
 30
0.0
  0
SPLINE
  5
581
100
AcDbEntity
  8
7_ALL_FEATURES
100
AcDbSpline
 62
7
  6
CONTINUOUS
 70
0
 71
3
 72
9
 73
5
 74
0
 42
0.0000001
 43
0.0000001
 44
0.0000000001
 40
0.0
 40
0.0
 40
0.0
 40
0.0
 40
0.4804753669
 40
1.0
 40
1.0
 40
1.0
 40
1.0
 10
344.5258489388
 20
159.185608957
 30
0.0
 10
344.1944606108
 20
159.4199482848
 30
0.0
 10
343.4730665937
 20
159.8635429491
 30
0.0
 10
342.7101734637
 20
160.2294821662
 30
0.0
 10
342.3066081745
 20
160.4019139638
 30
0.0
  0
SPLINE
  5
582
100
AcDbEntity
  8
7_ALL_FEATURES
100
AcDbSpline
 62
7
  6
CONTINUOUS
 70
0
 71
3
 72
17
 73
13
 74
0
 42
0.0000001
 43
0.0000001
 44
0.0000000001
 40
0.0
 40
0.0
 40
0.0
 40
0.0
 40
0.0500946544
 40
0.1036641605
 40
0.1605141708
 40
0.2203528643
 40
0.3474001326
 40
0.481255384
 40
0.6177306602
 40
0.7524352319
 40
0.8811084739
 40
1.0
 40
1.0
 40
1.0
 40
1.0
 10
322.8066610772
 20
159.1855977946
 30
0.0
 10
323.0822316276
 20
159.3804609903
 30
0.0
 10
323.6743202809
 20
159.7533624372
 30
0.0
 10
324.6384030638
 20
160.2458895081
 30
0.0
 10
325.6989227167
 20
160.6859796359
 30
0.0
 10
327.2574613357
 20
161.2067872925
 30
0.0
 10
329.3697629337
 20
161.6893789016
 30
0.0
 10
332.0345572834
 20
161.9934858163
 30
0.0
 10
334.768133031
 20
162.0206929469
 30
0.0
 10
337.4555180021
 20
161.7697102177
 30
0.0
 10
339.9835882786
 20
161.2516386845
 30
0.0
 10
341.5700106607
 20
160.7166408169
 30
0.0
 10
342.3066081745
 20
160.4019139638
 30
0.0
  0
SPLINE
  5
583
100
AcDbEntity
  8
7_ALL_FEATURES
100
AcDbSpline
 62
7
  6
CONTINUOUS
 70
0
 71
3
 72
25
 73
21
 74
0
 42
0.0000001
 43
0.0000001
 44
0.0000000001
 40
0.0
 40
0.0
 40
0.0
 40
0.0
 40
0.0650560523
 40
0.1342425585
 40
0.2066586759
 40
0.2812894483
 40
0.3570264723
 40
0.4327255429
 40
0.50724234
 40
0.5794758324
 40
0.648411179
 40
0.713168121
 40
0.7730579951
 40
0.827656058
 40
0.8768974573
 40
0.9212019918
 40
0.9418381665
 40
0.96168783
 40
0.9809862898
 40
1.0
 40
1.0
 40
1.0
 40
1.0
 10
324.8959633813
 20
150.0415914315
 30
0.0
 10
325.400753421
 20
149.8259092202
 30
0.0
 10
326.4666879485
 20
149.4364780586
 30
0.0
 10
328.1534788326
 20
148.986846515
 30
0.0
 10
329.9504983793
 20
148.6603833224
 30
0.0
 10
331.8216753066
 20
148.4636492557
 30
0.0
 10
333.7297742118
 20
148.4006380624
 30
0.0
 10
335.636591501
 20
148.4725986309
 30
0.0
 10
337.5040083981
 20
148.6780897648
 30
0.0
 10
339.2947433147
 20
149.0129649972
 30
0.0
 10
340.9731877865
 20
149.4705147961
 30
0.0
 10
342.5062036028
 20
150.0417097506
 30
0.0
 10
343.8638231516
 20
150.7154747251
 30
0.0
 10
345.0199486385
 20
151.4796171281
 30
0.0
 10
345.9520893658
 20
152.3205886818
 30
0.0
 10
346.5398741289
 20
153.0939378998
 30
0.0
 10
346.866785655
 20
153.7321562973
 30
0.0
 10
347.0390654719
 20
154.2078456165
 30
0.0
 10
347.1430489716
 20
154.6889865008
 30
0.0
 10
347.1662295538
 20
155.0127258552
 30
0.0
 10
347.1662296975
 20
155.1731617896
 30
0.0
  0
SPLINE
  5
584
100
AcDbEntity
  8
7_ALL_FEATURES
100
AcDbSpline
 62
7
  6
CONTINUOUS
 70
0
 71
3
 72
29
 73
25
 74
0
 42
0.0000001
 43
0.0000001
 44
0.0000000001
 40
0.0
 40
0.0
 40
0.0
 40
0.0
 40
0.0700246426
 40
0.145295893
 40
0.2242179346
 40
0.3049568568
 40
0.3855788753
 40
0.4641551824
 40
0.5388767498
 40
0.6081764151
 40
0.6708756442
 40
0.6995632048
 40
0.7264423226
 40
0.7515777
 40
0.775107924
 40
0.7972610176
 40
0.8183559293
 40
0.8387981803
 40
0.859053933
 40
0.8796078986
 40
0.9009149728
 40
0.9233626691
 40
0.9472487881
 40
1.0
 40
1.0
 40
1.0
 40
1.0
 10
325.0258935664
 20
150.2908197769
 30
0.0
 10
325.6581539532
 20
150.0206731661
 30
0.0
 10
327.0088284522
 20
149.548806915
 30
0.0
 10
329.1573540334
 20
149.0527978058
 30
0.0
 10
331.448115216
 20
148.7537828101
 30
0.0
 10
333.8087065672
 20
148.6615346055
 30
0.0
 10
336.1648397631
 20
148.7789227517
 30
0.0
 10
338.4421724884
 20
149.1022023895
 30
0.0
 10
340.5694599566
 20
149.6211517004
 30
0.0
 10
342.4800994468
 20
150.3193874432
 30
0.0
 10
343.8837868752
 20
151.0542006155
 30
0.0
 10
344.8366057698
 20
151.7204759456
 30
0.0
 10
345.4409543367
 20
152.2350871431
 30
0.0
 10
345.9515276623
 20
152.7754364444
 30
0.0
 10
346.3638999977
 20
153.3378433015
 30
0.0
 10
346.6743636992
 20
153.9181558718
 30
0.0
 10
346.8793832087
 20
154.5120070605
 30
0.0
 10
346.9762865613
 20
155.1141827777
 30
0.0
 10
346.9635600538
 20
155.718763637
 30
0.0
 10
346.8413243508
 20
156.3195054827
 30
0.0
 10
346.6116011174
 20
156.910644371
 30
0.0
 10
346.2771118662
 20
157.4872257456
 30
0.0
 10
345.676785733
 20
158.2557492487
 30
0.0
 10
345.1064148263
 20
158.7583401307
 30
0.0
 10
344.6902209722
 20
159.0666526111
 30
0.0
  0
SPLINE
  5
585
100
AcDbEntity
  8
7_ALL_FEATURES
100
AcDbSpline
 62
7
  6
CONTINUOUS
 70
0
 71
3
 72
9
 73
5
 74
0
 42
0.0000001
 43
0.0000001
 44
0.0000000001
 40
0.0
 40
0.0
 40
0.0
 40
0.0
 40
0.2551755454
 40
1.0
 40
1.0
 40
1.0
 40
1.0
 10
324.8959633813
 20
150.0415914315
 30
0.0
 10
324.8126026619
 20
150.0772090604
 30
0.0
 10
324.487182991
 20
150.2197107903
 30
0.0
 10
324.1669126065
 20
150.3740520379
 30
0.0
 10
323.9321835786
 20
150.4961784549
 30
0.0
  0
SPLINE
  5
586
100
AcDbEntity
  8
7_ALL_FEATURES
100
AcDbSpline
 62
7
  6
CONTINUOUS
 70
0
 71
3
 72
15
 73
11
 74
0
 42
0.0000001
 43
0.0000001
 44
0.0000000001
 40
0.0
 40
0.0
 40
0.0
 40
0.0
 40
0.1553204909
 40
0.3008534801
 40
0.4366336047
 40
0.5630499801
 40
0.6809296801
 40
0.7916638801
 40
0.8972054152
 40
1.0
 40
1.0
 40
1.0
 40
1.0
 10
323.9321835786
 20
150.4961784549
 30
0.0
 10
323.642733026
 20
150.6467757594
 30
0.0
 10
323.092764117
 20
150.9598808731
 30
0.0
 10
322.3377081228
 20
151.4829774353
 30
0.0
 10
321.6851416376
 20
152.0403482034
 30
0.0
 10
321.1408904737
 20
152.6273797247
 30
0.0
 10
320.710369217
 20
153.2395384424
 30
0.0
 10
320.398268483
 20
153.8718725593
 30
0.0
 10
320.2088033398
 20
154.5184673272
 30
0.0
 10
320.1662718499
 20
154.957219799
 30
0.0
 10
320.1662720434
 20
155.1731617896
 30
0.0
  0
SPLINE
  5
587
100
AcDbEntity
  8
7_ALL_FEATURES
100
AcDbSpline
 62
7
  6
CONTINUOUS
 70
0
 71
3
 72
21
 73
17
 74
0
 42
0.0000001
 43
0.0000001
 44
0.0000000001
 40
0.0
 40
0.0
 40
0.0
 40
0.0
 40
0.1611707815
 40
0.2349335255
 40
0.3040218101
 40
0.3685796477
 40
0.4289267703
 40
0.4856216227
 40
0.5394648997
 40
0.5914914686
 40
0.6429066809
 40
0.6949788175
 40
0.7489087434
 40
0.8057240232
 40
0.8662148974
 40
1.0
 40
1.0
 40
1.0
 40
1.0
 10
325.0258935664
 20
150.2908197769
 30
0.0
 10
324.4440713907
 20
150.5394155961
 30
0.0
 10
323.6158598906
 20
150.9555823185
 30
0.0
 10
322.6246685951
 20
151.6227013086
 30
0.0
 10
321.9937969713
 20
152.1396637091
 30
0.0
 10
321.4586717288
 20
152.6838590763
 30
0.0
 10
321.0239654106
 20
153.2514957851
 30
0.0
 10
320.6936850625
 20
153.8382830698
 30
0.0
 10
320.4716332256
 20
154.4397462893
 30
0.0
 10
320.3606992655
 20
155.0505201264
 30
0.0
 10
320.3627514738
 20
155.6644677855
 30
0.0
 10
320.4777651915
 20
156.27500908
 30
0.0
 10
320.703788889
 20
156.8760159153
 30
0.0
 10
321.037962999
 20
157.4622414462
 30
0.0
 10
321.6425664511
 20
158.2438344064
 30
0.0
 10
322.2202971394
 20
158.754055904
 30
0.0
 10
322.6423225251
 20
159.0666706292
 30
0.0
  0
LINE
  5
588
100
AcDbEntity
  8
02___PRT_ALL_AXES
100
AcDbLine
 62
7
  6
CONTINUOUS
 10
347.1662028052
 20
154.0300143772
 11
347.1662471658
 21
154.0473156828
  0
SPLINE
  5
589
100
AcDbEntity
  8
7_ALL_FEATURES
100
AcDbSpline
 62
7
  6
CONTINUOUS
 70
0
 71
3
 72
11
 73
7
 74
0
 42
0.0000001
 43
0.0000001
 44
0.0000000001
 40
0.0
 40
0.0
 40
0.0
 40
0.0
 40
0.2792233698
 40
0.5353283132
 40
0.7728893905
 40
1.0
 40
1.0
 40
1.0
 40
1.0
 10
321.1151055044
 20
128.7410687813
 30
0.0
 10
321.3467696518
 20
128.6252367076
 30
0.0
 10
321.810051524
 20
128.4379269941
 30
0.0
 10
322.5200849893
 20
128.3045209976
 30
0.0
 10
323.194748221
 20
128.338272648
 30
0.0
 10
323.6099794145
 20
128.476459144
 30
0.0
 10
323.7984087552
 20
128.5706694292
 30
0.0
  0
SPLINE
  5
58A
100
AcDbEntity
  8
7_ALL_FEATURES
100
AcDbSpline
 62
7
  6
CONTINUOUS
 70
0
 71
3
 72
17
 73
13
 74
0
 42
0.0000001
 43
0.0000001
 44
0.0000000001
 40
0.0
 40
0.0
 40
0.0
 40
0.0
 40
0.0449574116
 40
0.0915918018
 40
0.1412699992
 40
0.1948812173
 40
0.3146713075
 40
0.4496217191
 40
0.5936632794
 40
0.7386809072
 40
0.8763641572
 40
1.0
 40
1.0
 40
1.0
 40
1.0
 10
286.2499877106
 20
150.7845422774
 30
0.0
 10
286.1655230101
 20
150.7423266465
 30
0.0
 10
286.0037325351
 20
150.6339227068
 30
0.0
 10
285.8030039013
 20
150.4119524867
 30
0.0
 10
285.6463181594
 20
150.1362587035
 30
0.0
 10
285.4944846889
 20
149.6906140202
 30
0.0
 10
285.4404424864
 20
149.0356838891
 30
0.0
 10
285.5697243249
 20
148.2024004502
 30
0.0
 10
285.877268151
 20
147.3608816399
 30
0.0
 10
286.3364225056
 20
146.5849336887
 30
0.0
 10
286.9062540122
 20
145.9425718068
 30
0.0
 10
287.358971042
 20
145.6191360125
 30
0.0
 10
287.5912361423
 20
145.5030034624
 30
0.0
  0
SPLINE
  5
58B
100
AcDbEntity
  8
7_ALL_FEATURES
100
AcDbSpline
 62
7
  6
CONTINUOUS
 70
0
 71
3
 72
11
 73
7
 74
0
 42
0.0000001
 43
0.0000001
 44
0.0000000001
 40
0.0
 40
0.0
 40
0.0
 40
0.0
 40
0.2270510085
 40
0.4655562824
 40
0.7219954535
 40
1.0
 40
1.0
 40
1.0
 40
1.0
 10
298.5570006052
 20
155.8161613924
 30
0.0
 10
298.8619924527
 20
155.9403596916
 30
0.0
 10
299.5239232661
 20
156.1124005942
 30
0.0
 10
300.579935988
 20
156.120649016
 30
0.0
 10
301.6842218315
 20
155.8891165641
 30
0.0
 10
302.4052509778
 20
155.5932808156
 30
0.0
 10
302.7658949792
 20
155.4129588149
 30
0.0
  0
SPLINE
  5
58C
100
AcDbEntity
  8
7_ALL_FEATURES
100
AcDbSpline
 62
7
  6
CONTINUOUS
 70
0
 71
3
 72
12
 73
8
 74
0
 42
0.0000001
 43
0.0000001
 44
0.0000000001
 40
0.0
 40
0.0
 40
0.0
 40
0.0
 40
0.2895046157
 40
0.5491137015
 40
0.7821770936
 40
0.8921628228
 40
1.0
 40
1.0
 40
1.0
 40
1.0
 10
325.5345228868
 20
131.9042892081
 30
0.0
 10
325.5345228868
 20
131.5393661446
 30
0.0
 10
325.4754356476
 20
130.8444774433
 30
0.0
 10
325.1792699149
 20
129.8945966728
 30
0.0
 10
324.7558677556
 20
129.2475345001
 30
0.0
 10
324.3316349809
 20
128.8654795553
 30
0.0
 10
324.0967657943
 20
128.7198451193
 30
0.0
 10
323.9751854505
 20
128.6590577768
 30
0.0
  0
SPLINE
  5
58D
100
AcDbEntity
  8
7_ALL_FEATURES
100
AcDbSpline
 62
7
  6
CONTINUOUS
 70
0
 71
3
 72
11
 73
7
 74
0
 42
0.0000001
 43
0.0000001
 44
0.0000000001
 40
0.0
 40
0.0
 40
0.0
 40
0.0
 40
0.254065357
 40
0.5126664493
 40
0.7646722916
 40
1.0
 40
1.0
 40
1.0
 40
1.0
 10
323.3803236725
 20
139.6694610113
 30
0.0
 10
323.712640166
 20
139.2731557497
 30
0.0
 10
324.3127624056
 20
138.4123221312
 30
0.0
 10
324.9908980045
 20
137.0041372702
 30
0.0
 10
325.4238508869
 20
135.5418551437
 30
0.0
 10
325.5345228868
 20
134.5484052107
 30
0.0
 10
325.5345228868
 20
134.0693527176
 30
0.0
  0
SPLINE
  5
58E
100
AcDbEntity
  8
7_ALL_FEATURES
100
AcDbSpline
 62
7
  6
CONTINUOUS
 70
0
 71
3
 72
11
 73
7
 74
0
 42
0.0000001
 43
0.0000001
 44
0.0000000001
 40
0.0
 40
0.0
 40
0.0
 40
0.0
 40
0.2357221961
 40
0.4883573254
 40
0.7470707059
 40
1.0
 40
1.0
 40
1.0
 40
1.0
 10
325.3577461915
 20
133.9809643699
 30
0.0
 10
325.3577461915
 20
134.4760883196
 30
0.0
 10
325.2395654096
 20
135.5033444795
 30
0.0
 10
324.7795356421
 20
137.0110346267
 30
0.0
 10
324.0615485582
 20
138.4545890207
 30
0.0
 10
323.4271013269
 20
139.3299701417
 30
0.0
 10
323.0764952051
 20
139.7291187908
 30
0.0
  0
SPLINE
  5
58F
100
AcDbEntity
  8
7_ALL_FEATURES
100
AcDbSpline
 62
7
  6
CONTINUOUS
 70
0
 71
3
 72
12
 73
8
 74
0
 42
0.0000001
 43
0.0000001
 44
0.0000000001
 40
0.0
 40
0.0
 40
0.0
 40
0.0
 40
0.1075527464
 40
0.2178924597
 40
0.4523118773
 40
0.7122138067
 40
1.0
 40
1.0
 40
1.0
 40
1.0
 10
323.9679511755
 20
128.6647839799
 30
0.0
 10
324.0776697708
 20
128.7320150123
 30
0.0
 10
324.2886834758
 20
128.8875773064
 30
0.0
 10
324.6672820603
 20
129.2770927023
 30
0.0
 10
325.0421199672
 20
129.908444251
 30
0.0
 10
325.3049266975
 20
130.81407729
 30
0.0
 10
325.3577461915
 20
131.4715867874
 30
0.0
 10
325.3577461915
 20
131.8159008605
 30
0.0
  0
SPLINE
  5
590
100
AcDbEntity
  8
7_ALL_FEATURES
100
AcDbSpline
 62
7
  6
CONTINUOUS
 70
0
 71
3
 72
11
 73
7
 74
0
 42
0.0000001
 43
0.0000001
 44
0.0000000001
 40
0.0
 40
0.0
 40
0.0
 40
0.0
 40
0.2770624729
 40
0.5336266501
 40
0.7727373491
 40
1.0
 40
1.0
 40
1.0
 40
1.0
 10
302.5891182839
 20
155.3245704673
 30
0.0
 10
302.2454030278
 20
155.4964280953
 30
0.0
 10
301.5582817917
 20
155.7811013251
 30
0.0
 10
300.5064587255
 20
156.0167089051
 30
0.0
 10
299.4965231213
 20
156.0363925663
 30
0.0
 10
298.8568316388
 20
155.8993851598
 30
0.0
 10
298.559252601
 20
155.7954333547
 30
0.0
  0
SPLINE
  5
591
100
AcDbEntity
  8
7_ALL_FEATURES
100
AcDbSpline
 62
7
  6
CONTINUOUS
 70
0
 71
3
 72
16
 73
12
 74
0
 42
0.0000001
 43
0.0000001
 44
0.0000000001
 40
0.0
 40
0.0
 40
0.0
 40
0.0
 40
0.1475447266
 40
0.2955390927
 40
0.4392688943
 40
0.5745100857
 40
0.6981361818
 40
0.8088002435
 40
0.9077823942
 40
0.9543699249
 40
1.0
 40
1.0
 40
1.0
 40
1.0
 10
381.0039339108
 20
130.7060446937
 30
0.0
 10
381.1346370693
 20
130.522116801
 30
0.0
 10
381.3699490968
 20
130.1341772116
 30
0.0
 10
381.6371088573
 20
129.5156101612
 30
0.0
 10
381.8098458808
 20
128.8834689237
 30
0.0
 10
381.8794074847
 20
128.2689389697
 30
0.0
 10
381.8416497427
 20
127.7013901505
 30
0.0
 10
381.6968641164
 20
127.2076030458
 30
0.0
 10
381.4826564319
 20
126.8708383811
 30
0.0
 10
381.2657646398
 20
126.672659998
 30
0.0
 10
381.1452463246
 20
126.5975754099
 30
0.0
 10
381.0828327609
 20
126.5663661372
 30
0.0
  0
SPLINE
  5
592
100
AcDbEntity
  8
7_ALL_FEATURES
100
AcDbSpline
 62
7
  6
CONTINUOUS
 70
0
 71
3
 72
11
 73
7
 74
0
 42
0.0000001
 43
0.0000001
 44
0.0000000001
 40
0.0
 40
0.0
 40
0.0
 40
0.0
 40
0.2283540659
 40
0.4728190383
 40
0.7311116949
 40
1.0
 40
1.0
 40
1.0
 40
1.0
 10
364.743383457
 20
151.4710489564
 30
0.0
 10
365.1332103276
 20
151.2761355211
 30
0.0
 10
365.9085638603
 20
150.8070615176
 30
0.0
 10
366.9981614722
 20
149.929919255
 30
0.0
 10
368.0308226408
 20
148.8755632916
 30
0.0
 10
368.6549999497
 20
148.0836920713
 30
0.0
 10
368.952277831
 20
147.6653571599
 30
0.0
  0
SPLINE
  5
593
100
AcDbEntity
  8
7_ALL_FEATURES
100
AcDbSpline
 62
7
  6
CONTINUOUS
 70
0
 71
3
 72
11
 73
7
 74
0
 42
0.0000001
 43
0.0000001
 44
0.0000000001
 40
0.0
 40
0.0
 40
0.0
 40
0.0
 40
0.2791721436
 40
0.5353300455
 40
0.7728833487
 40
1.0
 40
1.0
 40
1.0
 40
1.0
 10
379.5644889033
 20
126.5632114623
 30
0.0
 10
379.6802914824
 20
126.5053101727
 30
0.0
 10
379.9119187982
 20
126.4116763661
 30
0.0
 10
380.2669037863
 20
126.3449341942
 30
0.0
 10
380.604228221
 20
126.3618386532
 30
0.0
 10
380.8118479767
 20
126.4308699853
 30
0.0
 10
380.9060560656
 20
126.4779777895
 30
0.0
  0
SPLINE
  5
594
100
AcDbEntity
  8
7_ALL_FEATURES
100
AcDbSpline
 62
7
  6
CONTINUOUS
 70
0
 71
3
 72
11
 73
7
 74
0
 42
0.0000001
 43
0.0000001
 44
0.0000000001
 40
0.0
 40
0.0
 40
0.0
 40
0.0
 40
0.2688883051
 40
0.5271809617
 40
0.7716459341
 40
1.0
 40
1.0
 40
1.0
 40
1.0
 10
368.7755011357
 20
147.5769688122
 30
0.0
 10
368.4782232544
 20
147.9953037236
 30
0.0
 10
367.8540459455
 20
148.787174944
 30
0.0
 10
366.8213847769
 20
149.8415309074
 30
0.0
 10
365.731787165
 20
150.7186731699
 30
0.0
 10
364.9564336323
 20
151.1877471734
 30
0.0
 10
364.5666067617
 20
151.3826606087
 30
0.0
  0
SPLINE
  5
595
100
AcDbEntity
  8
7_ALL_FEATURES
100
AcDbSpline
 62
7
  6
CONTINUOUS
 70
0
 71
3
 72
14
 73
10
 74
0
 42
0.0000001
 43
0.0000001
 44
0.0000000001
 40
0.0
 40
0.0
 40
0.0
 40
0.0
 40
0.0933725476
 40
0.1958845406
 40
0.3097987636
 40
0.4350904199
 40
0.570021579
 40
0.7117000496
 40
1.0
 40
1.0
 40
1.0
 40
1.0
 10
381.1367981538
 20
126.6310672723
 30
0.0
 10
381.2388625201
 20
126.7180566146
 30
0.0
 10
381.4222158808
 20
126.9384620879
 30
0.0
 10
381.6008832606
 20
127.3508316496
 30
0.0
 10
381.6903896768
 20
127.8369145534
 30
0.0
 10
381.6889340928
 20
128.3767463162
 30
0.0
 10
381.5975841207
 20
128.9489156876
 30
0.0
 10
381.3603180957
 20
129.7264405532
 30
0.0
 10
381.0670098802
 20
130.2801312574
 30
0.0
 10
380.8271572155
 20
130.617656346
 30
0.0
  0
SPLINE
  5
596
100
AcDbEntity
  8
7_ALL_FEATURES
100
AcDbSpline
 62
7
  6
CONTINUOUS
 70
0
 71
3
 72
15
 73
11
 74
0
 42
0.0000001
 43
0.0000001
 44
0.0000000001
 40
0.0
 40
0.0
 40
0.0
 40
0.0
 40
0.1559888327
 40
0.3021556783
 40
0.4383305255
 40
0.5648874776
 40
0.6826428771
 40
0.7929886227
 40
0.8979276599
 40
1.0
 40
1.0
 40
1.0
 40
1.0
 10
319.5241152467
 20
120.5624861374
 30
0.0
 10
319.0753732611
 20
120.7868571302
 30
0.0
 10
318.2221069139
 20
121.2547379523
 30
0.0
 10
317.0488798309
 20
122.0401024715
 30
0.0
 10
316.0336565736
 20
122.8802149024
 30
0.0
 10
315.1863153819
 20
123.7676560272
 30
0.0
 10
314.5153340825
 20
124.6951116279
 30
0.0
 10
314.0284783902
 20
125.6549199797
 30
0.0
 10
313.7327473688
 20
126.6376961496
 30
0.0
 10
313.6662721768
 20
127.3052574325
 30
0.0
 10
313.666272264
 20
127.6335539493
 30
0.0
  0
SPLINE
  5
597
100
AcDbEntity
  8
7_ALL_FEATURES
100
AcDbSpline
 62
7
  6
CONTINUOUS
 70
0
 71
3
 72
15
 73
11
 74
0
 42
0.0000001
 43
0.0000001
 44
0.0000000001
 40
0.0
 40
0.0
 40
0.0
 40
0.0
 40
0.1559888327
 40
0.3021556783
 40
0.4383305255
 40
0.5648874776
 40
0.6826428771
 40
0.7929886227
 40
0.8979276599
 40
1.0
 40
1.0
 40
1.0
 40
1.0
 10
319.5241152467
 20
124.4596004544
 30
0.0
 10
319.0753732611
 20
124.6839714472
 30
0.0
 10
318.2221069139
 20
125.1518522693
 30
0.0
 10
317.0488798309
 20
125.9372167885
 30
0.0
 10
316.0336565736
 20
126.7773292194
 30
0.0
 10
315.1863153819
 20
127.6647703443
 30
0.0
 10
314.5153340825
 20
128.592225945
 30
0.0
 10
314.0284783902
 20
129.5520342967
 30
0.0
 10
313.7327473688
 20
130.5348104666
 30
0.0
 10
313.6662721768
 20
131.2023717495
 30
0.0
 10
313.666272264
 20
131.5306682663
 30
0.0
  0
SPLINE
  5
598
100
AcDbEntity
  8
7_ALL_FEATURES
100
AcDbSpline
 62
7
  6
CONTINUOUS
 70
0
 71
3
 72
10
 73
6
 74
0
 42
0.0000001
 43
0.0000001
 44
0.0000000001
 40
0.0
 40
0.0
 40
0.0
 40
0.0
 40
0.2775721046
 40
0.5369066959
 40
1.0
 40
1.0
 40
1.0
 40
1.0
 10
319.5241152467
 20
128.3567147714
 30
0.0
 10
319.0578377224
 20
128.5898535336
 30
0.0
 10
318.1726968209
 20
129.0769546422
 30
0.0
 10
316.6173629737
 20
130.1304120105
 30
0.0
 10
315.6093750583
 20
131.0660499252
 30
0.0
 10
315.0695667943
 20
131.7480060877
 30
0.0
  0
SPLINE
  5
599
100
AcDbEntity
  8
7_ALL_FEATURES
100
AcDbSpline
 62
7
  6
CONTINUOUS
 70
0
 71
3
 72
9
 73
5
 74
0
 42
0.0000001
 43
0.0000001
 44
0.0000000001
 40
0.0
 40
0.0
 40
0.0
 40
0.0
 40
0.2569254958
 40
1.0
 40
1.0
 40
1.0
 40
1.0
 10
319.4416492235
 20
117.0054352706
 30
0.0
 10
319.3280259307
 20
117.0695968477
 30
0.0
 10
318.8887231359
 20
117.324465831
 30
0.0
 10
318.4614848146
 20
117.6003551532
 30
0.0
 10
318.1533335405
 20
117.818227115
 30
0.0
  0
SPLINE
  5
59A
100
AcDbEntity
  8
7_ALL_FEATURES
100
AcDbSpline
 62
7
  6
CONTINUOUS
 70
0
 71
3
 72
15
 73
11
 74
0
 42
0.0000001
 43
0.0000001
 44
0.0000000001
 40
0.0
 40
0.0
 40
0.0
 40
0.0
 40
0.0965963232
 40
0.1970717428
 40
0.3046905541
 40
0.4217707292
 40
0.5496568135
 40
0.6888542504
 40
0.8391977918
 40
1.0
 40
1.0
 40
1.0
 40
1.0
 10
353.6662294769
 20
135.4277825833
 30
0.0
 10
353.6662293719
 20
135.0321244535
 30
0.0
 10
353.5684657965
 20
134.2219516327
 30
0.0
 10
353.1368091356
 20
133.0409554529
 30
0.0
 10
352.4316644916
 20
131.9016082894
 30
0.0
 10
351.4673925922
 20
130.8185032795
 30
0.0
 10
350.2590852305
 20
129.8034207411
 30
0.0
 10
348.8234873332
 20
128.8682415924
 30
0.0
 10
347.1800656726
 20
128.024599828
 30
0.0
 10
345.9972711937
 20
127.545359503
 30
0.0
 10
345.3777930836
 20
127.3216178639
 30
0.0
  0
SPLINE
  5
59B
100
AcDbEntity
  8
7_ALL_FEATURES
100
AcDbSpline
 62
7
  6
CONTINUOUS
 70
0
 71
3
 72
9
 73
5
 74
0
 42
0.0000001
 43
0.0000001
 44
0.0000000001
 40
0.0
 40
0.0
 40
0.0
 40
0.0
 40
0.485367501
 40
1.0
 40
1.0
 40
1.0
 40
1.0
 10
345.3777930836
 20
127.3216178639
 30
0.0
 10
344.4354216299
 20
126.9812543705
 30
0.0
 10
342.4522404103
 20
126.3925698254
 30
0.0
 10
340.4224165351
 20
125.9996931769
 30
0.0
 10
339.3716224081
 20
125.8433176682
 30
0.0
  0
SPLINE
  5
59C
100
AcDbEntity
  8
7_ALL_FEATURES
100
AcDbSpline
 62
7
  6
CONTINUOUS
 70
0
 71
3
 72
15
 73
11
 74
0
 42
0.0000001
 43
0.0000001
 44
0.0000000001
 40
0.0
 40
0.0
 40
0.0
 40
0.0
 40
0.1299162683
 40
0.2618814328
 40
0.394121207
 40
0.5248521569
 40
0.6523404352
 40
0.7749561656
 40
0.8912490754
 40
1.0
 40
1.0
 40
1.0
 40
1.0
 10
339.3716224081
 20
125.8433176682
 30
0.0
 10
338.5027317389
 20
125.7140123963
 30
0.0
 10
336.741299276
 20
125.5164865216
 30
0.0
 10
334.0770066135
 20
125.4000456094
 30
0.0
 10
331.405245894
 20
125.4618550984
 30
0.0
 10
328.7738334273
 20
125.7008200642
 30
0.0
 10
326.2296410172
 20
126.1126462425
 30
0.0
 10
323.8177399095
 20
126.6899771193
 30
0.0
 10
321.5811779133
 20
127.4224505241
 30
0.0
 10
320.1818277361
 20
128.0278585267
 30
0.0
 10
319.5241152467
 20
128.3567147714
 30
0.0
  0
SPLINE
  5
59D
100
AcDbEntity
  8
7_ALL_FEATURES
100
AcDbSpline
 62
7
  6
CONTINUOUS
 70
0
 71
3
 72
9
 73
5
 74
0
 42
0.0000001
 43
0.0000001
 44
0.0000000001
 40
0.0
 40
0.0
 40
0.0
 40
0.0
 40
0.2488134243
 40
1.0
 40
1.0
 40
1.0
 40
1.0
 10
353.6662294769
 20
133.2627190738
 30
0.0
 10
353.6662295009
 20
133.3533083591
 30
0.0
 10
353.6563797519
 20
133.7173409933
 30
0.0
 10
353.6065615508
 20
134.0801790899
 30
0.0
 10
353.5482392297
 20
134.3473841088
 30
0.0
  0
SPLINE
  5
59E
100
AcDbEntity
  8
7_ALL_FEATURES
100
AcDbSpline
 62
7
  6
CONTINUOUS
 70
0
 71
3
 72
15
 73
11
 74
0
 42
0.0000001
 43
0.0000001
 44
0.0000000001
 40
0.0
 40
0.0
 40
0.0
 40
0.0
 40
0.0965963232
 40
0.1970717428
 40
0.3046905541
 40
0.4217707292
 40
0.5496568135
 40
0.6888542504
 40
0.8391977918
 40
1.0
 40
1.0
 40
1.0
 40
1.0
 10
353.6662294769
 20
131.5306682663
 30
0.0
 10
353.6662293719
 20
131.1350101364
 30
0.0
 10
353.5684657965
 20
130.3248373157
 30
0.0
 10
353.1368091356
 20
129.1438411359
 30
0.0
 10
352.4316644916
 20
128.0044939724
 30
0.0
 10
351.4673925922
 20
126.9213889625
 30
0.0
 10
350.2590852305
 20
125.9063064241
 30
0.0
 10
348.8234873332
 20
124.9711272754
 30
0.0
 10
347.1800656726
 20
124.127485511
 30
0.0
 10
345.9972711937
 20
123.648245186
 30
0.0
 10
345.3777930836
 20
123.4245035469
 30
0.0
  0
SPLINE
  5
59F
100
AcDbEntity
  8
7_ALL_FEATURES
100
AcDbSpline
 62
7
  6
CONTINUOUS
 70
0
 71
3
 72
15
 73
11
 74
0
 42
0.0000001
 43
0.0000001
 44
0.0000000001
 40
0.0
 40
0.0
 40
0.0
 40
0.0
 40
0.1192775642
 40
0.2459666686
 40
0.3773420658
 40
0.5104071568
 40
0.642071386
 40
0.7693231402
 40
0.8893980448
 40
1.0
 40
1.0
 40
1.0
 40
1.0
 10
345.3777930836
 20
123.4245035469
 30
0.0
 10
344.3877882322
 20
123.0669359355
 30
0.0
 10
342.3001433924
 20
122.4538051034
 30
0.0
 10
339.0219208199
 20
121.8428157458
 30
0.0
 10
335.580179141
 20
121.525145876
 30
0.0
 10
332.0802334647
 20
121.5108281112
 30
0.0
 10
328.6286389718
 20
121.8002184281
 30
0.0
 10
325.3302498209
 20
122.3845147098
 30
0.0
 10
322.2855646238
 20
123.2453979882
 30
0.0
 10
320.3971105369
 20
124.0231028093
 30
0.0
 10
319.5241152467
 20
124.4596004544
 30
0.0
  0
SPLINE
  5
5A0
100
AcDbEntity
  8
7_ALL_FEATURES
100
AcDbSpline
 62
7
  6
CONTINUOUS
 70
0
 71
3
 72
9
 73
5
 74
0
 42
0.0000001
 43
0.0000001
 44
0.0000000001
 40
0.0
 40
0.0
 40
0.0
 40
0.0
 40
0.2488134243
 40
1.0
 40
1.0
 40
1.0
 40
1.0
 10
353.6662294769
 20
129.3656047568
 30
0.0
 10
353.6662295009
 20
129.4561940421
 30
0.0
 10
353.6563797519
 20
129.8202266762
 30
0.0
 10
353.6065615508
 20
130.1830647729
 30
0.0
 10
353.5482392297
 20
130.4502697917
 30
0.0
  0
SPLINE
  5
5A1
100
AcDbEntity
  8
7_ALL_FEATURES
100
AcDbSpline
 62
7
  6
CONTINUOUS
 70
0
 71
3
 72
15
 73
11
 74
0
 42
0.0000001
 43
0.0000001
 44
0.0000000001
 40
0.0
 40
0.0
 40
0.0
 40
0.0
 40
0.0965963232
 40
0.1970717428
 40
0.3046905541
 40
0.4217707292
 40
0.5496568135
 40
0.6888542504
 40
0.8391977918
 40
1.0
 40
1.0
 40
1.0
 40
1.0
 10
353.6662294769
 20
127.6335539492
 30
0.0
 10
353.6662293719
 20
127.2378958194
 30
0.0
 10
353.5684657965
 20
126.4277229987
 30
0.0
 10
353.1368091356
 20
125.2467268189
 30
0.0
 10
352.4316644916
 20
124.1073796554
 30
0.0
 10
351.4673925922
 20
123.0242746455
 30
0.0
 10
350.2590852305
 20
122.0091921071
 30
0.0
 10
348.8234873332
 20
121.0740129584
 30
0.0
 10
347.1800656726
 20
120.230371194
 30
0.0
 10
345.9972711937
 20
119.751130869
 30
0.0
 10
345.3777930836
 20
119.5273892299
 30
0.0
  0
SPLINE
  5
5A2
100
AcDbEntity
  8
7_ALL_FEATURES
100
AcDbSpline
 62
7
  6
CONTINUOUS
 70
0
 71
3
 72
15
 73
11
 74
0
 42
0.0000001
 43
0.0000001
 44
0.0000000001
 40
0.0
 40
0.0
 40
0.0
 40
0.0
 40
0.1192775642
 40
0.2459666686
 40
0.3773420658
 40
0.5104071568
 40
0.642071386
 40
0.7693231402
 40
0.8893980448
 40
1.0
 40
1.0
 40
1.0
 40
1.0
 10
345.3777930836
 20
119.5273892299
 30
0.0
 10
344.3877882322
 20
119.1698216185
 30
0.0
 10
342.3001433924
 20
118.5566907864
 30
0.0
 10
339.0219208199
 20
117.9457014287
 30
0.0
 10
335.580179141
 20
117.6280315589
 30
0.0
 10
332.0802334647
 20
117.6137137942
 30
0.0
 10
328.6286389718
 20
117.9031041111
 30
0.0
 10
325.3302498209
 20
118.4874003927
 30
0.0
 10
322.2855646238
 20
119.3482836712
 30
0.0
 10
320.3971105369
 20
120.1259884923
 30
0.0
 10
319.5241152467
 20
120.5624861374
 30
0.0
  0
SPLINE
  5
5A3
100
AcDbEntity
  8
7_ALL_FEATURES
100
AcDbSpline
 62
7
  6
CONTINUOUS
 70
0
 71
3
 72
9
 73
5
 74
0
 42
0.0000001
 43
0.0000001
 44
0.0000000001
 40
0.0
 40
0.0
 40
0.0
 40
0.0
 40
0.2488134243
 40
1.0
 40
1.0
 40
1.0
 40
1.0
 10
353.6662294769
 20
125.4684904398
 30
0.0
 10
353.6662295009
 20
125.559079725
 30
0.0
 10
353.6563797519
 20
125.9231123592
 30
0.0
 10
353.6065615508
 20
126.2859504559
 30
0.0
 10
353.5482392297
 20
126.5531554747
 30
0.0
  0
SPLINE
  5
5A4
100
AcDbEntity
  8
7_ALL_FEATURES
100
AcDbSpline
 62
7
  6
CONTINUOUS
 70
0
 71
3
 72
14
 73
10
 74
0
 42
0.0000001
 43
0.0000001
 44
0.0000000001
 40
0.0
 40
0.0
 40
0.0
 40
0.0
 40
0.1085047698
 40
0.2189015335
 40
0.3329458721
 40
0.4521511528
 40
0.5777303385
 40
0.7105856439
 40
1.0
 40
1.0
 40
1.0
 40
1.0
 10
353.6662365372
 20
124.1694523343
 30
0.0
 10
353.6662231538
 20
123.9124973479
 30
0.0
 10
353.6259450871
 20
123.3932495565
 30
0.0
 10
353.4457229163
 20
122.6228167034
 30
0.0
 10
353.1473392313
 20
121.8628219271
 30
0.0
 10
352.7332641401
 20
121.1181934166
 30
0.0
 10
352.2065746345
 20
120.3929506699
 30
0.0
 10
351.3341276475
 20
119.430172005
 30
0.0
 10
350.5557774929
 20
118.7916477242
 30
0.0
 10
349.9961641198
 20
118.3959561369
 30
0.0
  0
SPLINE
  5
5A5
100
AcDbEntity
  8
7_ALL_FEATURES
100
AcDbSpline
 62
7
  6
CONTINUOUS
 70
0
 71
3
 72
14
 73
10
 74
0
 42
0.0000001
 43
0.0000001
 44
0.0000000001
 40
0.0
 40
0.0
 40
0.0
 40
0.0
 40
0.2894062415
 40
0.4222619592
 40
0.5478459986
 40
0.667051816
 40
0.7810966001
 40
0.8914945531
 40
1.0
 40
1.0
 40
1.0
 40
1.0
 10
317.3363130936
 20
118.3959474649
 30
0.0
 10
316.7767219116
 20
118.7916348951
 30
0.0
 10
315.9983740379
 20
119.4301356595
 30
0.0
 10
315.1259773179
 20
120.3929432514
 30
0.0
 10
314.5992263702
 20
121.1181574896
 30
0.0
 10
314.1851817248
 20
121.8628172551
 30
0.0
 10
313.8867678557
 20
122.6228047387
 30
0.0
 10
313.7065780673
 20
123.3932464533
 30
0.0
 10
313.6662518202
 20
123.9124962324
 30
0.0
 10
313.6662652036
 20
124.1694523339
 30
0.0
  0
SPLINE
  5
5A6
100
AcDbEntity
  8
7_ALL_FEATURES
100
AcDbSpline
 62
7
  6
CONTINUOUS
 70
0
 71
3
 72
19
 73
15
 74
0
 42
0.0000001
 43
0.0000001
 44
0.0000000001
 40
0.0
 40
0.0
 40
0.0
 40
0.0
 40
0.0504335072
 40
0.1045162864
 40
0.1620266351
 40
0.222631696
 40
0.3513187161
 40
0.4865720869
 40
0.6237173688
 40
0.7579194824
 40
0.8224938168
 40
0.8846554203
 40
0.9439618901
 40
1.0
 40
1.0
 40
1.0
 40
1.0
 10
349.1800542405
 20
117.8188783328
 30
0.0
 10
348.7671811832
 20
117.5269221668
 30
0.0
 10
347.8772130304
 20
116.9696106638
 30
0.0
 10
346.4243319196
 20
116.2385762506
 30
0.0
 10
344.8221560905
 20
115.5903751709
 30
0.0
 10
342.4648630695
 20
114.8318082222
 30
0.0
 10
339.2736680763
 20
114.1498059477
 30
0.0
 10
335.2629715746
 20
113.763258693
 30
0.0
 10
331.1788296234
 20
113.8111250431
 30
0.0
 10
327.8271256788
 20
114.2159971354
 30
0.0
 10
325.2668523966
 20
114.7613483271
 30
0.0
 10
323.4693953055
 20
115.2653447584
 30
0.0
 10
321.7916448997
 20
115.8635120728
 30
0.0
 10
320.7337692115
 20
116.3346389172
 30
0.0
 10
320.2312220279
 20
116.5859125091
 30
0.0
  0
SPLINE
  5
5A7
100
AcDbEntity
  8
7_ALL_FEATURES
100
AcDbSpline
 62
7
  6
CONTINUOUS
 70
0
 71
3
 72
15
 73
11
 74
0
 42
0.0000001
 43
0.0000001
 44
0.0000000001
 40
0.0
 40
0.0
 40
0.0
 40
0.0
 40
0.1149769263
 40
0.2383633776
 40
0.3676660846
 40
0.5000089637
 40
0.6323516871
 40
0.7616531744
 40
0.8850421927
 40
1.0
 40
1.0
 40
1.0
 40
1.0
 10
344.3352147807
 20
119.1752155138
 30
0.0
 10
343.5651109265
 20
118.8488289501
 30
0.0
 10
341.9229533324
 20
118.2773202915
 30
0.0
 10
339.3134758759
 20
117.6721768644
 30
0.0
 10
336.5330963333
 20
117.3013817311
 30
0.0
 10
333.6660478514
 20
117.1765530647
 30
0.0
 10
330.7990115076
 20
117.3014215483
 30
0.0
 10
328.0186230952
 20
117.6722325314
 30
0.0
 10
325.4092943663
 20
118.2774360261
 30
0.0
 10
323.7672391807
 20
118.8488667219
 30
0.0
 10
322.9972650005
 20
119.1752028272
 30
0.0
  0
SPLINE
  5
5A8
100
AcDbEntity
  8
7_ALL_FEATURES
100
AcDbSpline
 62
7
  6
CONTINUOUS
 70
0
 71
3
 72
25
 73
21
 74
0
 42
0.0000001
 43
0.0000001
 44
0.0000000001
 40
0.0
 40
0.0
 40
0.0
 40
0.0
 40
0.062594952
 40
0.1298612819
 40
0.2009392439
 40
0.2747922574
 40
0.3502702617
 40
0.426158799
 40
0.5012279077
 40
0.5742790895
 40
0.644194224
 40
0.7099888627
 40
0.7708744757
 40
0.8263366399
 40
0.8762391202
 40
0.9209618614
 40
0.941719255
 40
0.9616398661
 40
0.9809721988
 40
1.0
 40
1.0
 40
1.0
 40
1.0
 10
319.5241152467
 20
126.191651262
 30
0.0
 10
320.2475796939
 20
125.8299190384
 30
0.0
 10
321.794913981
 20
125.1704232261
 30
0.0
 10
324.2759086918
 20
124.3929826687
 30
0.0
 10
326.9573018294
 20
123.8041252427
 30
0.0
 10
329.7817979244
 20
123.4166432429
 30
0.0
 10
332.6893358455
 20
123.2387963922
 30
0.0
 10
335.6177551329
 20
123.274453483
 30
0.0
 10
338.5044518251
 20
123.5228338276
 30
0.0
 10
341.2877834898
 20
123.9785812169
 30
0.0
 10
343.90852429
 20
124.6319034231
 30
0.0
 10
346.3112932364
 20
125.4689721893
 30
0.0
 10
348.4458209461
 20
126.4723482278
 30
0.0
 10
350.2682619878
 20
127.6225152229
 30
0.0
 10
351.7408889122
 20
128.8975696968
 30
0.0
 10
352.6726659705
 20
130.0777122275
 30
0.0
 10
353.1913240512
 20
131.0547664015
 30
0.0
 10
353.4644913952
 20
131.7830725452
 30
0.0
 10
353.6294209256
 20
132.5203880331
 30
0.0
 10
353.6662294116
 20
133.0168400416
 30
0.0
 10
353.6662294769
 20
133.2627190738
 30
0.0
  0
SPLINE
  5
5A9
100
AcDbEntity
  8
7_ALL_FEATURES
100
AcDbSpline
 62
7
  6
CONTINUOUS
 70
0
 71
3
 72
15
 73
11
 74
0
 42
0.0000001
 43
0.0000001
 44
0.0000000001
 40
0.0
 40
0.0
 40
0.0
 40
0.0
 40
0.1149769263
 40
0.2383633776
 40
0.3676660846
 40
0.5000089637
 40
0.6323516871
 40
0.7616531744
 40
0.8850421927
 40
1.0
 40
1.0
 40
1.0
 40
1.0
 10
344.3352147807
 20
123.0723298308
 30
0.0
 10
343.5651109265
 20
122.7459432671
 30
0.0
 10
341.9229533324
 20
122.1744346085
 30
0.0
 10
339.3134758759
 20
121.5692911814
 30
0.0
 10
336.5330963333
 20
121.1984960482
 30
0.0
 10
333.6660478514
 20
121.0736673817
 30
0.0
 10
330.7990115076
 20
121.1985358653
 30
0.0
 10
328.0186230952
 20
121.5693468484
 30
0.0
 10
325.4092943663
 20
122.1745503431
 30
0.0
 10
323.7672391807
 20
122.7459810389
 30
0.0
 10
322.9972650005
 20
123.0723171442
 30
0.0
  0
SPLINE
  5
5AA
100
AcDbEntity
  8
7_ALL_FEATURES
100
AcDbSpline
 62
7
  6
CONTINUOUS
 70
0
 71
3
 72
15
 73
11
 74
0
 42
0.0000001
 43
0.0000001
 44
0.0000000001
 40
0.0
 40
0.0
 40
0.0
 40
0.0
 40
0.1149769263
 40
0.2383633776
 40
0.3676660846
 40
0.5000089637
 40
0.6323516871
 40
0.7616531744
 40
0.8850421927
 40
1.0
 40
1.0
 40
1.0
 40
1.0
 10
344.3352147807
 20
126.9694441479
 30
0.0
 10
343.5651109265
 20
126.6430575842
 30
0.0
 10
341.9229533324
 20
126.0715489255
 30
0.0
 10
339.3134758759
 20
125.4664054985
 30
0.0
 10
336.5330963333
 20
125.0956103652
 30
0.0
 10
333.6660478514
 20
124.9707816987
 30
0.0
 10
330.7990115076
 20
125.0956501824
 30
0.0
 10
328.0186230952
 20
125.4664611655
 30
0.0
 10
325.4092943663
 20
126.0716646602
 30
0.0
 10
323.7672391807
 20
126.6430953559
 30
0.0
 10
322.9972650005
 20
126.9694314613
 30
0.0
  0
SPLINE
  5
5AB
100
AcDbEntity
  8
7_ALL_FEATURES
100
AcDbSpline
 62
7
  6
CONTINUOUS
 70
0
 71
3
 72
9
 73
5
 74
0
 42
0.0000001
 43
0.0000001
 44
0.0000000001
 40
0.0
 40
0.0
 40
0.0
 40
0.0
 40
0.519041548
 40
1.0
 40
1.0
 40
1.0
 40
1.0
 10
324.6471024618
 20
127.3683533489
 30
0.0
 10
323.7318722824
 20
127.5995627704
 30
0.0
 10
321.9873753754
 20
128.1246939396
 30
0.0
 10
320.3064896742
 20
128.8315529615
 30
0.0
 10
319.5241152467
 20
129.2227401752
 30
0.0
  0
SPLINE
  5
5AC
100
AcDbEntity
  8
7_ALL_FEATURES
100
AcDbSpline
 62
7
  6
CONTINUOUS
 70
0
 71
3
 72
9
 73
5
 74
0
 42
0.0000001
 43
0.0000001
 44
0.0000000001
 40
0.0
 40
0.0
 40
0.0
 40
0.0
 40
0.5277314962
 40
1.0
 40
1.0
 40
1.0
 40
1.0
 10
319.5241152467
 20
129.2227401752
 30
0.0
 10
318.8127533456
 20
129.5784211258
 30
0.0
 10
317.5028664431
 20
130.3335615952
 30
0.0
 10
316.3212388596
 20
131.2835919382
 30
0.0
 10
315.815341594
 20
131.7842337828
 30
0.0
  0
SPLINE
  5
5AD
100
AcDbEntity
  8
7_ALL_FEATURES
100
AcDbSpline
 62
7
  6
CONTINUOUS
 70
0
 71
3
 72
9
 73
5
 74
0
 42
0.0000001
 43
0.0000001
 44
0.0000000001
 40
0.0
 40
0.0
 40
0.0
 40
0.0
 40
0.2559894474
 40
1.0
 40
1.0
 40
1.0
 40
1.0
 10
319.5241152467
 20
117.0983845222
 30
0.0
 10
319.4041301163
 20
117.1583770874
 30
0.0
 10
318.9378358311
 20
117.3975149689
 30
0.0
 10
318.4814286432
 20
117.656092404
 30
0.0
 10
318.1492920881
 20
117.8602925018
 30
0.0
  0
SPLINE
  5
5AE
100
AcDbEntity
  8
7_ALL_FEATURES
100
AcDbSpline
 62
7
  6
CONTINUOUS
 70
0
 71
3
 72
25
 73
21
 74
0
 42
0.0000001
 43
0.0000001
 44
0.0000000001
 40
0.0
 40
0.0
 40
0.0
 40
0.0
 40
0.062594952
 40
0.1298612819
 40
0.2009392439
 40
0.2747922574
 40
0.3502702617
 40
0.426158799
 40
0.5012279077
 40
0.5742790895
 40
0.644194224
 40
0.7099888627
 40
0.7708744757
 40
0.8263366399
 40
0.8762391202
 40
0.9209618614
 40
0.941719255
 40
0.9616398661
 40
0.9809721988
 40
1.0
 40
1.0
 40
1.0
 40
1.0
 10
319.5241152467
 20
118.3974226279
 30
0.0
 10
320.2475796939
 20
118.0356904043
 30
0.0
 10
321.794913981
 20
117.376194592
 30
0.0
 10
324.2759086918
 20
116.5987540347
 30
0.0
 10
326.9573018294
 20
116.0098966087
 30
0.0
 10
329.7817979244
 20
115.6224146088
 30
0.0
 10
332.6893358455
 20
115.4445677581
 30
0.0
 10
335.6177551329
 20
115.4802248489
 30
0.0
 10
338.5044518251
 20
115.7286051936
 30
0.0
 10
341.2877834898
 20
116.1843525829
 30
0.0
 10
343.90852429
 20
116.837674789
 30
0.0
 10
346.3112932364
 20
117.6747435552
 30
0.0
 10
348.4458209461
 20
118.6781195938
 30
0.0
 10
350.2682619878
 20
119.8282865888
 30
0.0
 10
351.7408889122
 20
121.1033410627
 30
0.0
 10
352.6726659705
 20
122.2834835934
 30
0.0
 10
353.1913240512
 20
123.2605377675
 30
0.0
 10
353.4644913952
 20
123.9888439111
 30
0.0
 10
353.6294209256
 20
124.7261593991
 30
0.0
 10
353.6662294116
 20
125.2226114075
 30
0.0
 10
353.6662294769
 20
125.4684904398
 30
0.0
  0
SPLINE
  5
5AF
100
AcDbEntity
  8
7_ALL_FEATURES
100
AcDbSpline
 62
7
  6
CONTINUOUS
 70
0
 71
3
 72
13
 73
9
 74
0
 42
0.0000001
 43
0.0000001
 44
0.0000000001
 40
0.0
 40
0.0
 40
0.0
 40
0.0
 40
0.1019572217
 40
0.2081281092
 40
0.3202141515
 40
0.4395013174
 40
0.7024001656
 40
1.0
 40
1.0
 40
1.0
 40
1.0
 10
313.737235764
 20
132.4209568729
 30
0.0
 10
313.7870740639
 20
132.126032947
 30
0.0
 10
313.9417941367
 20
131.5318705725
 30
0.0
 10
314.323641939
 20
130.6697388244
 30
0.0
 10
314.8542325446
 20
129.8298297193
 30
0.0
 10
315.7835007795
 20
128.712262298
 30
0.0
 10
317.3174701619
 20
127.4146676449
 30
0.0
 10
318.743236165
 20
126.5820908029
 30
0.0
 10
319.5241152467
 20
126.191651262
 30
0.0
  0
SPLINE
  5
5B0
100
AcDbEntity
  8
7_ALL_FEATURES
100
AcDbSpline
 62
7
  6
CONTINUOUS
 70
0
 71
3
 72
15
 73
11
 74
0
 42
0.0000001
 43
0.0000001
 44
0.0000000001
 40
0.0
 40
0.0
 40
0.0
 40
0.0
 40
0.1020723401
 40
0.2070113773
 40
0.3173571229
 40
0.4351125224
 40
0.5616694745
 40
0.6978443217
 40
0.8440111673
 40
1.0
 40
1.0
 40
1.0
 40
1.0
 10
313.666272264
 20
129.3656047568
 30
0.0
 10
313.6662721768
 20
129.03730824
 30
0.0
 10
313.7327473688
 20
128.3697469572
 30
0.0
 10
314.0284783902
 20
127.3869707873
 30
0.0
 10
314.5153340825
 20
126.4271624355
 30
0.0
 10
315.1863153819
 20
125.4997068348
 30
0.0
 10
316.0336565736
 20
124.61226571
 30
0.0
 10
317.0488798309
 20
123.7721532791
 30
0.0
 10
318.2221069139
 20
122.9867887599
 30
0.0
 10
319.0753732611
 20
122.5189079378
 30
0.0
 10
319.5241152467
 20
122.2945369449
 30
0.0
  0
SPLINE
  5
5B1
100
AcDbEntity
  8
7_ALL_FEATURES
100
AcDbSpline
 62
7
  6
CONTINUOUS
 70
0
 71
3
 72
15
 73
11
 74
0
 42
0.0000001
 43
0.0000001
 44
0.0000000001
 40
0.0
 40
0.0
 40
0.0
 40
0.0
 40
0.1020723401
 40
0.2070113773
 40
0.3173571229
 40
0.4351125224
 40
0.5616694745
 40
0.6978443217
 40
0.8440111673
 40
1.0
 40
1.0
 40
1.0
 40
1.0
 10
313.666272264
 20
125.4684904398
 30
0.0
 10
313.6662721768
 20
125.140193923
 30
0.0
 10
313.7327473688
 20
124.4726326401
 30
0.0
 10
314.0284783902
 20
123.4898564703
 30
0.0
 10
314.5153340825
 20
122.5300481185
 30
0.0
 10
315.1863153819
 20
121.6025925178
 30
0.0
 10
316.0336565736
 20
120.715151393
 30
0.0
 10
317.0488798309
 20
119.875038962
 30
0.0
 10
318.2221069139
 20
119.0896744428
 30
0.0
 10
319.0753732611
 20
118.6217936207
 30
0.0
 10
319.5241152467
 20
118.3974226279
 30
0.0
  0
SPLINE
  5
5B2
100
AcDbEntity
  8
7_ALL_FEATURES
100
AcDbSpline
 62
7
  6
CONTINUOUS
 70
0
 71
3
 72
25
 73
21
 74
0
 42
0.0000001
 43
0.0000001
 44
0.0000000001
 40
0.0
 40
0.0
 40
0.0
 40
0.0
 40
0.062594952
 40
0.1298612819
 40
0.2009392439
 40
0.2747922574
 40
0.3502702617
 40
0.426158799
 40
0.5012279077
 40
0.5742790895
 40
0.644194224
 40
0.7099888627
 40
0.7708744757
 40
0.8263366399
 40
0.8762391202
 40
0.9209618614
 40
0.941719255
 40
0.9616398661
 40
0.9809721988
 40
1.0
 40
1.0
 40
1.0
 40
1.0
 10
319.5241152467
 20
122.2945369449
 30
0.0
 10
320.2475796939
 20
121.9328047214
 30
0.0
 10
321.794913981
 20
121.273308909
 30
0.0
 10
324.2759086918
 20
120.4958683517
 30
0.0
 10
326.9573018294
 20
119.9070109257
 30
0.0
 10
329.7817979244
 20
119.5195289259
 30
0.0
 10
332.6893358455
 20
119.3416820751
 30
0.0
 10
335.6177551329
 20
119.3773391659
 30
0.0
 10
338.5044518251
 20
119.6257195106
 30
0.0
 10
341.2877834898
 20
120.0814668999
 30
0.0
 10
343.90852429
 20
120.734789106
 30
0.0
 10
346.3112932364
 20
121.5718578723
 30
0.0
 10
348.4458209461
 20
122.5752339108
 30
0.0
 10
350.2682619878
 20
123.7254009059
 30
0.0
 10
351.7408889122
 20
125.0004553798
 30
0.0
 10
352.6726659705
 20
126.1805979104
 30
0.0
 10
353.1913240512
 20
127.1576520845
 30
0.0
 10
353.4644913952
 20
127.8859582282
 30
0.0
 10
353.6294209256
 20
128.6232737161
 30
0.0
 10
353.6662294116
 20
129.1197257246
 30
0.0
 10
353.6662294769
 20
129.3656047568
 30
0.0
  0
SPLINE
  5
5B3
100
AcDbEntity
  8
7_ALL_FEATURES
100
AcDbSpline
 62
7
  6
CONTINUOUS
 70
0
 71
3
 72
17
 73
13
 74
0
 42
0.0000001
 43
0.0000001
 44
0.0000000001
 40
0.0
 40
0.0
 40
0.0
 40
0.0
 40
0.0519841628
 40
0.1072246097
 40
0.1654797078
 40
0.2264279567
 40
0.3547663131
 40
0.4887051588
 40
0.6242144479
 40
0.7571492157
 40
0.8835522009
 40
1.0
 40
1.0
 40
1.0
 40
1.0
 10
349.1693715553
 20
117.8517611606
 30
0.0
 10
348.7286054631
 20
117.5813451595
 30
0.0
 10
347.7926568964
 20
117.0665242942
 30
0.0
 10
346.2898927448
 20
116.3911805284
 30
0.0
 10
344.6587675138
 20
115.7949544914
 30
0.0
 10
342.2944367782
 20
115.1019113206
 30
0.0
 10
339.1321038007
 20
114.4803317404
 30
0.0
 10
335.1839937282
 20
114.1308597625
 30
0.0
 10
331.1748987519
 20
114.1795813096
 30
0.0
 10
327.2651648268
 20
114.6245968488
 30
0.0
 10
323.6112303336
 20
115.4474725813
 30
0.0
 10
321.3289871604
 20
116.2667764638
 30
0.0
 10
320.2729820305
 20
116.7428359843
 30
0.0
  0
LINE
  5
5B4
100
AcDbEntity
  8
7_ALL_FEATURES
100
AcDbLine
 62
7
  6
CONTINUOUS
 10
354.8274756689
 20
164.6167689232
 11
354.7749352507
 21
164.6429740539
  0
SPLINE
  5
5B5
100
AcDbEntity
  8
7_ALL_FEATURES
100
AcDbSpline
 62
7
  6
CONTINUOUS
 70
0
 71
3
 72
25
 73
21
 74
0
 42
0.0000001
 43
0.0000001
 44
0.0000000001
 40
0.0
 40
0.0
 40
0.0
 40
0.0
 40
0.0626240774
 40
0.1298391857
 40
0.2008067108
 40
0.27450265
 40
0.349789894
 40
0.4254657629
 40
0.5003125019
 40
0.5731451934
 40
0.6428617996
 40
0.70849792
 40
0.7692905782
 40
0.8247577374
 40
0.8748016647
 40
0.9198388972
 40
0.9408236826
 40
0.9610147155
 40
0.9806508997
 40
1.0
 40
1.0
 40
1.0
 40
1.0
 10
354.7749352507
 20
164.6429740539
 30
0.0
 10
353.6889020402
 20
165.1833037044
 30
0.0
 10
351.3682438307
 20
166.1677539703
 30
0.0
 10
347.6500957718
 20
167.3270032514
 30
0.0
 10
343.6357060161
 20
168.2033322794
 30
0.0
 10
339.4100012494
 20
168.7780938306
 30
0.0
 10
335.0622348484
 20
169.0392789189
 30
0.0
 10
330.684795418
 20
168.9812821477
 30
0.0
 10
326.3707332849
 20
168.6053543982
 30
0.0
 10
322.2115908892
 20
167.919470043
 30
0.0
 10
318.2951770485
 20
166.9380733617
 30
0.0
 10
314.7033889003
 20
165.6813933082
 30
0.0
 10
311.510332536
 20
164.1746284126
 30
0.0
 10
308.7805159864
 20
162.4454330431
 30
0.0
 10
306.5698580503
 20
160.524148071
 30
0.0
 10
305.1683231579
 20
158.7419726407
 30
0.0
 10
304.3858607363
 20
157.2622292827
 30
0.0
 10
303.9721576571
 20
156.1554798854
 30
0.0
 10
303.7222459396
 20
155.0330575131
 30
0.0
 10
303.6662508704
 20
154.2767827884
 30
0.0
 10
303.6662508704
 20
153.9019924453
 30
0.0
  0
SPLINE
  5
5B6
100
AcDbEntity
  8
7_ALL_FEATURES
100
AcDbSpline
 62
7
  6
CONTINUOUS
 70
0
 71
3
 72
15
 73
11
 74
0
 42
0.0000001
 43
0.0000001
 44
0.0000000001
 40
0.0
 40
0.0
 40
0.0
 40
0.0
 40
0.1030685038
 40
0.2088313832
 40
0.3197031684
 40
0.437630998
 40
0.564009138
 40
0.6996765104
 40
0.8450415886
 40
1.0
 40
1.0
 40
1.0
 40
1.0
 10
363.6662508704
 20
153.9019924453
 30
0.0
 10
363.6662508704
 20
154.4035285364
 30
0.0
 10
363.5649091411
 20
155.4223734988
 30
0.0
 10
363.1148560734
 20
156.9204125998
 30
0.0
 10
362.3757670475
 20
158.3796006787
 30
0.0
 10
361.3598964704
 20
159.7853915419
 30
0.0
 10
360.0802142336
 20
161.1267497726
 30
0.0
 10
358.5502675855
 20
162.393673185
 30
0.0
 10
356.7849718612
 20
163.5759017885
 30
0.0
 10
355.5019048739
 20
164.2795543207
 30
0.0
 10
354.8274756689
 20
164.6167689232
 30
0.0
  0
SPLINE
  5
5B7
100
AcDbEntity
  8
7_ALL_FEATURES
100
AcDbSpline
 62
7
  6
CONTINUOUS
 70
0
 71
3
 72
9
 73
5
 74
0
 42
0.0000001
 43
0.0000001
 44
0.0000000001
 40
0.0
 40
0.0
 40
0.0
 40
0.0
 40
0.2462633057
 40
1.0
 40
1.0
 40
1.0
 40
1.0
 10
320.0208716895
 20
154.7460962776
 30
0.0
 10
320.0240868019
 20
154.687879927
 30
0.0
 10
320.0439059616
 20
154.4518872597
 30
0.0
 10
320.091052519
 20
154.2183194599
 30
0.0
 10
320.1402275914
 20
154.0467746161
 30
0.0
  0
SPLINE
  5
5B8
100
AcDbEntity
  8
7_ALL_FEATURES
100
AcDbSpline
 62
7
  6
CONTINUOUS
 70
0
 71
3
 72
11
 73
7
 74
0
 42
0.0000001
 43
0.0000001
 44
0.0000000001
 40
0.0
 40
0.0
 40
0.0
 40
0.0
 40
0.2019812687
 40
0.4329842067
 40
0.6987585953
 40
1.0
 40
1.0
 40
1.0
 40
1.0
 10
320.1402275914
 20
154.0467746161
 30
0.0
 10
320.2366409489
 20
153.7104413165
 30
0.0
 10
320.558402741
 20
153.0204258643
 30
0.0
 10
321.3306191763
 20
152.0767182229
 30
0.0
 10
322.400678979
 20
151.1908918449
 30
0.0
 10
323.2475699524
 20
150.6863386173
 30
0.0
 10
323.7108133167
 20
150.4461235175
 30
0.0
  0
SPLINE
  5
5B9
100
AcDbEntity
  8
7_ALL_FEATURES
100
AcDbSpline
 62
7
  6
CONTINUOUS
 70
0
 71
3
 72
21
 73
17
 74
0
 42
0.0000001
 43
0.0000001
 44
0.0000000001
 40
0.0
 40
0.0
 40
0.0
 40
0.0
 40
0.0610221033
 40
0.1266847502
 40
0.1961618483
 40
0.2685150918
 40
0.4175815254
 40
0.5652869407
 40
0.6359771666
 40
0.7031962406
 40
0.7660728393
 40
0.8238888144
 40
0.8761369193
 40
0.9226180709
 40
0.9635739479
 40
1.0
 40
1.0
 40
1.0
 40
1.0
 10
323.8842967144
 20
150.3577872871
 30
0.0
 10
324.348740929
 20
150.1255651798
 30
0.0
 10
325.3410040141
 20
149.6984819881
 30
0.0
 10
326.931272854
 20
149.184753155
 30
0.0
 10
328.6526276504
 20
148.7830667469
 30
0.0
 10
331.1009066719
 20
148.4049432333
 30
0.0
 10
334.2491047115
 20
148.2593592054
 30
0.0
 10
337.3748030292
 20
148.5358184384
 30
0.0
 10
339.7590995694
 20
149.0179434545
 30
0.0
 10
341.4032535163
 20
149.4902491043
 30
0.0
 10
342.8968351735
 20
150.0680196073
 30
0.0
 10
344.2102509365
 20
150.7385395837
 30
0.0
 10
345.3176527758
 20
151.4859854746
 30
0.0
 10
346.1976542485
 20
152.2931113592
 30
0.0
 10
346.8363470462
 20
153.1400384181
 30
0.0
 10
347.10699392
 20
153.7491616713
 30
0.0
 10
347.1923737002
 20
154.0471364438
 30
0.0
  0
SPLINE
  5
5BA
100
AcDbEntity
  8
7_ALL_FEATURES
100
AcDbSpline
 62
7
  6
CONTINUOUS
 70
0
 71
3
 72
9
 73
5
 74
0
 42
0.0000001
 43
0.0000001
 44
0.0000000001
 40
0.0
 40
0.0
 40
0.0
 40
0.0
 40
0.2547904295
 40
1.0
 40
1.0
 40
1.0
 40
1.0
 10
347.1923737002
 20
154.0471364438
 30
0.0
 10
347.208985034
 20
154.1051098701
 30
0.0
 10
347.2680790832
 20
154.3343373114
 30
0.0
 10
347.301921319
 20
154.5701576055
 30
0.0
 10
347.3116389501
 20
154.7462733432
 30
0.0
  0
SPLINE
  5
5BB
100
AcDbEntity
  8
7_ALL_FEATURES
100
AcDbSpline
 62
7
  6
CONTINUOUS
 70
0
 71
3
 72
15
 73
11
 74
0
 42
0.0000001
 43
0.0000001
 44
0.0000000001
 40
0.0
 40
0.0
 40
0.0
 40
0.0
 40
0.1038078788
 40
0.2101769842
 40
0.3214464532
 40
0.4395065616
 40
0.5657487706
 40
0.7010318275
 40
0.8457980033
 40
1.0
 40
1.0
 40
1.0
 40
1.0
 10
303.6662508704
 20
153.8741236839
 30
0.0
 10
303.6662508704
 20
153.3726344379
 30
0.0
 10
303.7664687083
 20
152.3546654804
 30
0.0
 10
304.2115010354
 20
150.8582191233
 30
0.0
 10
304.9416258426
 20
149.401665931
 30
0.0
 10
305.9442751918
 20
147.9994915173
 30
0.0
 10
307.2061303266
 20
146.6622833609
 30
0.0
 10
308.713727595
 20
145.3993994379
 30
0.0
 10
310.4525625111
 20
144.2203969409
 30
0.0
 10
311.7166328833
 20
143.5177461039
 30
0.0
 10
312.3810127867
 20
143.1807965912
 30
0.0
  0
LINE
  5
5BC
100
AcDbEntity
  8
7_ALL_FEATURES
100
AcDbLine
 62
7
  6
CONTINUOUS
 10
312.3810127867
 20
143.1807965912
 11
312.3937722313
 21
143.1743293868
  0
SPLINE
  5
5BD
100
AcDbEntity
  8
7_ALL_FEATURES
100
AcDbSpline
 62
7
  6
CONTINUOUS
 70
0
 71
3
 72
11
 73
7
 74
0
 42
0.0000001
 43
0.0000001
 44
0.0000000001
 40
0.0
 40
0.0
 40
0.0
 40
0.0
 40
0.231214437
 40
0.4761653426
 40
0.7331079207
 40
1.0
 40
1.0
 40
1.0
 40
1.0
 10
312.5310153905
 20
143.105259826
 30
0.0
 10
313.3645319927
 20
142.6885015249
 30
0.0
 10
315.1219628942
 20
141.9104469725
 30
0.0
 10
317.9130926883
 20
140.9328562438
 30
0.0
 10
320.9057605875
 20
140.1205470251
 30
0.0
 10
322.9769537896
 20
139.7025278241
 30
0.0
 10
324.0373737025
 20
139.5218793748
 30
0.0
  0
SPLINE
  5
5BE
100
AcDbEntity
  8
7_ALL_FEATURES
100
AcDbSpline
 62
7
  6
CONTINUOUS
 70
0
 71
3
 72
21
 73
17
 74
0
 42
0.0000001
 43
0.0000001
 44
0.0000000001
 40
0.0
 40
0.0
 40
0.0
 40
0.0
 40
0.1511694689
 40
0.3047802721
 40
0.3805319645
 40
0.4545177557
 40
0.5260119861
 40
0.5943612781
 40
0.6590114573
 40
0.7195392413
 40
0.775690813
 40
0.827429283
 40
0.8749900937
 40
0.918936833
 40
0.9601907209
 40
1.0
 40
1.0
 40
1.0
 40
1.0
 10
324.0373737025
 20
139.5218793748
 30
0.0
 10
326.3265262638
 20
139.1319094623
 30
0.0
 10
330.9966150453
 20
138.646008854
 30
0.0
 10
336.8554509389
 20
138.7269209558
 30
0.0
 10
341.4926645066
 20
139.2099697945
 30
0.0
 10
344.8465448777
 20
139.7727062018
 30
0.0
 10
348.0454502177
 20
140.5295155335
 30
0.0
 10
351.0456078015
 20
141.4702897184
 30
0.0
 10
353.8062167242
 20
142.5826095516
 30
0.0
 10
356.2901878916
 20
143.8523368792
 30
0.0
 10
358.4644726784
 20
145.2641734244
 30
0.0
 10
360.2999581689
 20
146.8024817582
 30
0.0
 10
361.7705354273
 20
148.4515708935
 30
0.0
 10
362.8509941233
 20
150.1956623683
 30
0.0
 10
363.5154330543
 20
152.012780675
 30
0.0
 10
363.6662508704
 20
153.262608722
 30
0.0
 10
363.6662508704
 20
153.8741236839
 30
0.0
  0
SPLINE
  5
5BF
100
AcDbEntity
  8
7_ALL_FEATURES
100
AcDbSpline
 62
7
  6
CONTINUOUS
 70
0
 71
3
 72
9
 73
5
 74
0
 42
0.0000001
 43
0.0000001
 44
0.0000000001
 40
0.0
 40
0.0
 40
0.0
 40
0.0
 40
0.2580401365
 40
1.0
 40
1.0
 40
1.0
 40
1.0
 10
320.2402418017
 20
155.8615301014
 30
0.0
 10
320.2176666785
 20
155.8051420047
 30
0.0
 10
320.1359306526
 20
155.5843801641
 30
0.0
 10
320.0781427608
 20
155.3545873978
 30
0.0
 10
320.0510114682
 20
155.1820601623
 30
0.0
  0
SPLINE
  5
5C0
100
AcDbEntity
  8
7_ALL_FEATURES
100
AcDbSpline
 62
7
  6
CONTINUOUS
 70
0
 71
3
 72
9
 73
5
 74
0
 42
0.0000001
 43
0.0000001
 44
0.0000000001
 40
0.0
 40
0.0
 40
0.0
 40
0.0
 40
0.2432367241
 40
1.0
 40
1.0
 40
1.0
 40
1.0
 10
347.2814556886
 20
155.1823263559
 30
0.0
 10
347.2726569178
 20
155.2382477624
 30
0.0
 10
347.2298079616
 20
155.4670770999
 30
0.0
 10
347.1602216944
 20
155.690700755
 30
0.0
 10
347.0951267073
 20
155.854354097
 30
0.0
  0
SPLINE
  5
5C1
100
AcDbEntity
  8
7_ALL_FEATURES
100
AcDbSpline
 62
9
  6
CONTINUOUS
 70
0
 71
3
 72
9
 73
5
 74
0
 42
0.0000001
 43
0.0000001
 44
0.0000000001
 40
0.0
 40
0.0
 40
0.0
 40
0.0
 40
0.5169509111
 40
1.0
 40
1.0
 40
1.0
 40
1.0
 10
346.608394016
 20
157.082626199
 30
0.0
 10
346.8037362654
 20
156.7913145482
 30
0.0
 10
347.124990434
 20
156.1856507187
 30
0.0
 10
347.2788474529
 20
155.5147053223
 30
0.0
 10
347.3051643904
 20
155.1880219163
 30
0.0
  0
SPLINE
  5
5C2
100
AcDbEntity
  8
7_ALL_FEATURES
100
AcDbSpline
 62
9
  6
CONTINUOUS
 70
0
 71
3
 72
9
 73
5
 74
0
 42
0.0000001
 43
0.0000001
 44
0.0000000001
 40
0.0
 40
0.0
 40
0.0
 40
0.0
 40
0.2550961029
 40
1.0
 40
1.0
 40
1.0
 40
1.0
 10
347.0545703262
 20
156.0700742225
 30
0.0
 10
347.0833222566
 20
155.9977165119
 30
0.0
 10
347.1878024818
 20
155.7108943258
 30
0.0
 10
347.2576072335
 20
155.4112223302
 30
0.0
 10
347.2870985488
 20
155.1857823427
 30
0.0
  0
SPLINE
  5
5C3
100
AcDbEntity
  8
7_ALL_FEATURES
100
AcDbSpline
 62
9
  6
CONTINUOUS
 70
0
 71
3
 72
33
 73
29
 74
0
 42
0.0000001
 43
0.0000001
 44
0.0000000001
 40
0.0
 40
0.0
 40
0.0
 40
0.0
 40
0.0329749435
 40
0.0677067776
 40
0.1416257317
 40
0.2200010907
 40
0.3006885596
 40
0.3813836038
 40
0.459781266
 40
0.5337375958
 40
0.568486361
 40
0.6014883104
 40
0.6326077701
 40
0.6617617684
 40
0.6889330393
 40
0.7141858403
 40
0.7376821012
 40
0.7596970959
 40
0.7806271275
 40
0.8009760626
 40
0.8213135464
 40
0.8422107193
 40
0.8641746637
 40
0.8876065426
 40
0.912786732
 40
0.9398791489
 40
0.9689593558
 40
1.0
 40
1.0
 40
1.0
 40
1.0
 10
312.5699112303
 20
143.5243963316
 30
0.0
 10
313.2793463009
 20
143.1696787963
 30
0.0
 10
314.7657490796
 20
142.4996857837
 30
0.0
 10
317.9636702529
 20
141.3194990141
 30
0.0
 10
322.3259680782
 20
140.1732627054
 30
0.0
 10
327.8776830669
 20
139.3427092854
 30
0.0
 10
333.647207942
 20
139.0610367763
 30
0.0
 10
339.4174350796
 20
139.3390360336
 30
0.0
 10
344.971331767
 20
140.1661046518
 30
0.0
 10
349.33616908
 20
141.3094904531
 30
0.0
 10
352.5371262133
 20
142.4875673623
 30
0.0
 10
354.7081653049
 20
143.4637059498
 30
0.0
 10
356.6789252807
 20
144.5413758196
 30
0.0
 10
358.4309407842
 20
145.7108711024
 30
0.0
 10
359.9477203666
 20
146.9618422124
 30
0.0
 10
361.2148170993
 20
148.283552889
 30
0.0
 10
362.2194426928
 20
149.6650419367
 30
0.0
 10
362.9499770028
 20
151.0947794276
 30
0.0
 10
363.3960607715
 20
152.5595423178
 30
0.0
 10
363.5497341348
 20
154.0432959608
 30
0.0
 10
363.4077214757
 20
155.5274414306
 30
0.0
 10
362.9729545486
 20
156.9932611228
 30
0.0
 10
362.253429363
 20
158.4246344396
 30
0.0
 10
361.2594182051
 20
159.8082830498
 30
0.0
 10
360.002423739
 20
161.1325077363
 30
0.0
 10
358.4951448475
 20
162.3865470454
 30
0.0
 10
356.7521437203
 20
163.5593420247
 30
0.0
 10
355.4839103321
 20
164.2582806362
 30
0.0
 10
354.8167820861
 20
164.5935701915
 30
0.0
  0
LINE
  5
5C4
100
AcDbEntity
  8
7_ALL_FEATURES
100
AcDbLine
 62
9
  6
CONTINUOUS
 10
354.8167820861
 20
164.5935701915
 11
354.7625905106
 21
164.6207359718
  0
SPLINE
  5
5C5
100
AcDbEntity
  8
7_ALL_FEATURES
100
AcDbSpline
 62
7
  6
CONTINUOUS
 70
0
 71
3
 72
20
 73
16
 74
0
 42
0.0000001
 43
0.0000001
 44
0.0000000001
 40
0.0
 40
0.0
 40
0.0
 40
0.0
 40
0.0566439686
 40
0.1167091114
 40
0.1797364777
 40
0.2452354836
 40
0.3812293917
 40
0.5196964038
 40
0.6553484824
 40
0.7205573928
 40
0.783228572
 40
0.842861742
 40
0.8990441392
 40
0.9514750892
 40
1.0
 40
1.0
 40
1.0
 40
1.0
 10
318.4683501838
 20
147.7474165271
 30
0.0
 10
319.060826862
 20
147.451178188
 30
0.0
 10
320.3104308315
 20
146.897460862
 30
0.0
 10
322.2951658748
 20
146.200086584
 30
0.0
 10
324.4244694489
 20
145.618727151
 30
0.0
 10
327.4572570989
 20
145.0006323409
 30
0.0
 10
331.4194637411
 20
144.5683428761
 30
0.0
 10
336.2245613016
 20
144.585701458
 30
0.0
 10
340.1761506924
 20
145.0468977435
 30
0.0
 10
343.1924892736
 20
145.6875432575
 30
0.0
 10
345.3043650661
 20
146.2844920512
 30
0.0
 10
347.2686034041
 20
146.996323495
 30
0.0
 10
349.0607439542
 20
147.8143081097
 30
0.0
 10
350.6580868665
 20
148.728218213
 30
0.0
 10
351.6175750868
 20
149.4215324876
 30
0.0
 10
352.0550166964
 20
149.7830000252
 30
0.0
  0
SPLINE
  5
5C6
100
AcDbEntity
  8
7_ALL_FEATURES
100
AcDbSpline
 62
7
  6
CONTINUOUS
 70
0
 71
3
 72
11
 73
7
 74
0
 42
0.0000001
 43
0.0000001
 44
0.0000000001
 40
0.0
 40
0.0
 40
0.0
 40
0.0
 40
0.2757354428
 40
0.5328186257
 40
0.7732234385
 40
1.0
 40
1.0
 40
1.0
 40
1.0
 10
352.0550166964
 20
149.7830000252
 30
0.0
 10
352.3903717624
 20
150.0601112264
 30
0.0
 10
353.0124057208
 20
150.6285194666
 30
0.0
 10
353.8109930196
 20
151.5550585508
 30
0.0
 10
354.4341369958
 20
152.5174442648
 30
0.0
 10
354.7352481163
 20
153.194579717
 30
0.0
 10
354.8511543143
 20
153.5330751206
 30
0.0
  0
SPLINE
  5
5C7
100
AcDbEntity
  8
7_ALL_FEATURES
100
AcDbSpline
 62
7
  6
CONTINUOUS
 70
0
 71
3
 72
15
 73
11
 74
0
 42
0.0000001
 43
0.0000001
 44
0.0000000001
 40
0.0
 40
0.0
 40
0.0
 40
0.0
 40
0.1068843512
 40
0.2119065439
 40
0.3194840604
 40
0.4336053482
 40
0.5572988543
 40
0.6924569669
 40
0.8400279384
 40
1.0
 40
1.0
 40
1.0
 40
1.0
 10
354.8511543143
 20
153.5330751206
 30
0.0
 10
354.9920659541
 20
153.9445970518
 30
0.0
 10
355.1836335533
 20
154.7947622915
 30
0.0
 10
355.157991719
 20
156.1069993138
 30
0.0
 10
354.8147955548
 20
157.4038748517
 30
0.0
 10
354.1654203996
 20
158.6613092127
 30
0.0
 10
353.2255503018
 20
159.8625725152
 30
0.0
 10
352.0115974238
 20
160.9942216319
 30
0.0
 10
350.5413882529
 20
162.0427115929
 30
0.0
 10
349.4464463541
 20
162.6541698151
 30
0.0
 10
348.864151557
 20
162.9453172136
 30
0.0
  0
SPLINE
  5
5C8
100
AcDbEntity
  8
7_ALL_FEATURES
100
AcDbSpline
 62
9
  6
CONTINUOUS
 70
0
 71
3
 72
10
 73
6
 74
0
 42
0.0000001
 43
0.0000001
 44
0.0000000001
 40
0.0
 40
0.0
 40
0.0
 40
0.0
 40
0.2323132634
 40
0.477461985
 40
1.0
 40
1.0
 40
1.0
 40
1.0
 10
354.7625905106
 20
164.6207359718
 30
0.0
 10
354.0215894373
 20
164.9912365084
 30
0.0
 10
352.4661298143
 20
165.6890415769
 30
0.0
 10
349.113190725
 20
166.9096052062
 30
0.0
 10
346.451015195
 20
167.5866637592
 30
0.0
 10
344.6228507273
 20
167.947579731
 30
0.0
  0
SPLINE
  5
5C9
100
AcDbEntity
  8
7_ALL_FEATURES
100
AcDbSpline
 62
9
  6
CONTINUOUS
 70
0
 71
3
 72
15
 73
11
 74
0
 42
0.0000001
 43
0.0000001
 44
0.0000000001
 40
0.0
 40
0.0
 40
0.0
 40
0.0
 40
0.1324450496
 40
0.2684347137
 40
0.4050069512
 40
0.5391697367
 40
0.6680573808
 40
0.7890974125
 40
0.9002004639
 40
1.0
 40
1.0
 40
1.0
 40
1.0
 10
344.6228507273
 20
167.947579731
 30
0.0
 10
343.0047243207
 20
168.2670300183
 30
0.0
 10
339.6922620045
 20
168.7561342457
 30
0.0
 10
334.6516323663
 20
169.0539603391
 30
0.0
 10
329.5821130205
 20
168.9223304429
 30
0.0
 10
324.6303704756
 20
168.3649671837
 30
0.0
 10
319.9386615313
 20
167.3982078603
 30
0.0
 10
315.6402694069
 20
166.0494903086
 30
0.0
 10
311.8577319985
 20
164.3577900189
 30
0.0
 10
309.6234981115
 20
162.9513148088
 30
0.0
 10
308.6390320608
 20
162.1927474926
 30
0.0
  0
SPLINE
  5
5CA
100
AcDbEntity
  8
7_ALL_FEATURES
100
AcDbSpline
 62
9
  6
CONTINUOUS
 70
0
 71
3
 72
21
 73
17
 74
0
 42
0.0000001
 43
0.0000001
 44
0.0000000001
 40
0.0
 40
0.0
 40
0.0
 40
0.0
 40
0.0699532713
 40
0.1355995542
 40
0.255121971
 40
0.3104489755
 40
0.3638622524
 40
0.4164126489
 40
0.4692275453
 40
0.5234106563
 40
0.5799470152
 40
0.639644102
 40
0.7031063912
 40
0.7707312869
 40
0.8427473705
 40
1.0
 40
1.0
 40
1.0
 40
1.0
 10
308.6390320608
 20
162.1927474926
 30
0.0
 10
308.1928220074
 20
161.8489262279
 30
0.0
 10
307.3559142795
 20
161.1438963854
 30
0.0
 10
305.9257027529
 20
159.6669834619
 30
0.0
 10
304.8154467074
 20
158.0475142728
 30
0.0
 10
304.1387255409
 20
156.3313322336
 30
0.0
 10
303.8599204283
 20
155.0566068057
 30
0.0
 10
303.8010399718
 20
153.7731347474
 30
0.0
 10
303.9626970418
 20
152.4923425909
 30
0.0
 10
304.3429085641
 20
151.2256193661
 30
0.0
 10
304.936896466
 20
149.9830512329
 30
0.0
 10
305.7387349898
 20
148.7734899371
 30
0.0
 10
306.7415117377
 20
147.6050587196
 30
0.0
 10
307.937345291
 20
146.4850190893
 30
0.0
 10
309.8330484972
 20
145.0238334148
 30
0.0
 10
311.4372991474
 20
144.090702373
 30
0.0
 10
312.5699112303
 20
143.5243963316
 30
0.0
  0
SPLINE
  5
5CB
100
AcDbEntity
  8
7_ALL_FEATURES
100
AcDbSpline
 62
7
  6
CONTINUOUS
 70
0
 71
3
 72
9
 73
5
 74
0
 42
0.0000001
 43
0.0000001
 44
0.0000000001
 40
0.0
 40
0.0
 40
0.0
 40
0.0
 40
0.5203985734
 40
1.0
 40
1.0
 40
1.0
 40
1.0
 10
318.4683501838
 20
147.7474165271
 30
0.0
 10
317.8801800905
 20
148.0415015737
 30
0.0
 10
316.7751136852
 20
148.6592118999
 30
0.0
 10
315.7446333611
 20
149.3969454486
 30
0.0
 10
315.2774561099
 20
149.7829915984
 30
0.0
  0
SPLINE
  5
5CC
100
AcDbEntity
  8
7_ALL_FEATURES
100
AcDbSpline
 62
7
  6
CONTINUOUS
 70
0
 71
3
 72
11
 73
7
 74
0
 42
0.0000001
 43
0.0000001
 44
0.0000000001
 40
0.0
 40
0.0
 40
0.0
 40
0.0
 40
0.2744924529
 40
0.5313964694
 40
0.7723784289
 40
1.0
 40
1.0
 40
1.0
 40
1.0
 10
315.2774561099
 20
149.7829915984
 30
0.0
 10
314.9596023355
 20
150.045646138
 30
0.0
 10
314.3677223816
 20
150.583750816
 30
0.0
 10
313.5998815117
 20
151.4571865632
 30
0.0
 10
312.9884019116
 20
152.3631203647
 30
0.0
 10
312.6815635203
 20
153.0002787764
 30
0.0
 10
312.5589430089
 20
153.3194605396
 30
0.0
  0
SPLINE
  5
5CD
100
AcDbEntity
  8
7_ALL_FEATURES
100
AcDbSpline
 62
7
  6
CONTINUOUS
 70
0
 71
3
 72
27
 73
23
 74
0
 42
0.0000001
 43
0.0000001
 44
0.0000000001
 40
0.0
 40
0.0
 40
0.0
 40
0.0
 40
0.0201889906
 40
0.0398789631
 40
0.0594267397
 40
0.0792008717
 40
0.0995520245
 40
0.1207883562
 40
0.1431611832
 40
0.1668586194
 40
0.2186334474
 40
0.276595568
 40
0.340503562
 40
0.4096536464
 40
0.4830162184
 40
0.5593375211
 40
0.6372212727
 40
0.7152000473
 40
0.7918020427
 40
0.8656182821
 40
0.9353717692
 40
1.0
 40
1.0
 40
1.0
 40
1.0
 10
312.5589430089
 20
153.3194605396
 30
0.0
 10
312.4533987959
 20
153.5941926182
 30
0.0
 10
312.2831226817
 20
154.1526956051
 30
0.0
 10
312.160493246
 20
155.0137698872
 30
0.0
 10
312.1764855072
 20
155.8776013121
 30
0.0
 10
312.3308402308
 20
156.7372908189
 30
0.0
 10
312.6219933565
 20
157.5865195353
 30
0.0
 10
313.0469897393
 20
158.4195858516
 30
0.0
 10
313.6024327821
 20
159.2313521101
 30
0.0
 10
314.5389855009
 20
160.3106222685
 30
0.0
 10
316.0359900761
 20
161.5714713627
 30
0.0
 10
318.2122873606
 20
162.8794495338
 30
0.0
 10
320.7690480367
 20
163.9990816974
 30
0.0
 10
323.6441880862
 20
164.9037298692
 30
0.0
 10
326.7679089532
 20
165.5716985786
 30
0.0
 10
330.0631035948
 20
165.9863270737
 30
0.0
 10
333.4480002221
 20
166.137228602
 30
0.0
 10
336.838342464
 20
166.0205819541
 30
0.0
 10
340.1496676296
 20
165.6393613066
 30
0.0
 10
343.299925488
 20
165.0030504491
 30
0.0
 10
346.210680286
 20
164.1277932263
 30
0.0
 10
348.0214865395
 20
163.3666497224
 30
0.0
 10
348.864151557
 20
162.9453172136
 30
0.0
  0
SPLINE
  5
5CE
100
AcDbEntity
  8
7_ALL_FEATURES
100
AcDbSpline
 62
9
  6
CONTINUOUS
 70
0
 71
3
 72
28
 73
24
 74
0
 42
0.0000001
 43
0.0000001
 44
0.0000000001
 40
0.0
 40
0.0
 40
0.0
 40
0.0
 40
0.0602121555
 40
0.0873927432
 40
0.1126613138
 40
0.1361822673
 40
0.1582238691
 40
0.1791784331
 40
0.1995438424
 40
0.2198839956
 40
0.2407658522
 40
0.2859339843
 40
0.3110440144
 40
0.3380544948
 40
0.3979221233
 40
0.465296857
 40
0.5389776555
 40
0.6171997195
 40
0.6978528644
 40
0.778657256
 40
0.8573243291
 40
0.9317072744
 40
1.0
 40
1.0
 40
1.0
 40
1.0
 10
343.6718118242
 20
160.3491473472
 30
0.0
 10
344.2830762376
 20
160.0435151406
 30
0.0
 10
345.1425039331
 20
159.5341076234
 30
0.0
 10
346.1305802225
 20
158.719076094
 30
0.0
 10
346.729043383
 20
158.0951143169
 30
0.0
 10
347.2042590651
 20
157.4432044931
 30
0.0
 10
347.5506521112
 20
156.7684977746
 30
0.0
 10
347.7635448286
 20
156.0773107742
 30
0.0
 10
347.8390469289
 20
155.3770522806
 30
0.0
 10
347.7755915488
 20
154.6763474081
 30
0.0
 10
347.5010047668
 20
153.7295420139
 30
0.0
 10
346.944592622
 20
152.8329409779
 30
0.0
 10
346.1877964925
 20
152.0272515165
 30
0.0
 10
345.2128535667
 20
151.2071491733
 30
0.0
 10
343.7047375977
 20
150.2976393025
 30
0.0
 10
341.5882521587
 20
149.4308580951
 30
0.0
 10
339.1793982968
 20
148.7824831341
 30
0.0
 10
336.5665891928
 20
148.3763791598
 30
0.0
 10
333.8459256451
 20
148.2276833535
 30
0.0
 10
331.1186390383
 20
148.3419930514
 30
0.0
 10
328.485893719
 20
148.7151182374
 30
0.0
 10
326.0456630658
 20
149.3325986742
 30
0.0
 10
324.5306829799
 20
149.921790644
 30
0.0
 10
323.8327531913
 20
150.2590147504
 30
0.0
  0
SPLINE
  5
5CF
100
AcDbEntity
  8
7_ALL_FEATURES
100
AcDbSpline
 62
9
  6
CONTINUOUS
 70
0
 71
3
 72
28
 73
24
 74
0
 42
0.0000001
 43
0.0000001
 44
0.0000000001
 40
0.0
 40
0.0
 40
0.0
 40
0.0
 40
0.0601804082
 40
0.0873298697
 40
0.1125591597
 40
0.1360363055
 40
0.1580354358
 40
0.1789566574
 40
0.1993064759
 40
0.2196562482
 40
0.2405774219
 40
0.2859135278
 40
0.3111450774
 40
0.3382954141
 40
0.3984738944
 40
0.4661616294
 40
0.5401125417
 40
0.6185199805
 40
0.6992367252
 40
0.7799531904
 40
0.858361506
 40
0.9323098643
 40
1.0
 40
1.0
 40
1.0
 40
1.0
 10
323.6606899166
 20
150.3435863935
 30
0.0
 10
323.046315271
 20
150.6507737163
 30
0.0
 10
322.1827770977
 20
151.1630163429
 30
0.0
 10
321.191196425
 20
151.983323972
 30
0.0
 10
320.5917216987
 20
152.6112842386
 30
0.0
 10
320.1169530137
 20
153.2674054217
 30
0.0
 10
319.77255916
 20
153.9464490856
 30
0.0
 10
319.563297262
 20
154.6419655062
 30
0.0
 10
319.4930605777
 20
155.346357811
 30
0.0
 10
319.5633673739
 20
156.0508041024
 30
0.0
 10
319.8494267344
 20
157.0026127667
 30
0.0
 10
320.4196721337
 20
157.9019557908
 30
0.0
 10
321.1910492629
 20
158.7090934762
 30
0.0
 10
322.18312789
 20
159.5300130908
 30
0.0
 10
323.7137006101
 20
160.4381080677
 30
0.0
 10
325.8570908074
 20
161.2998400168
 30
0.0
 10
328.2918425291
 20
161.9394735326
 30
0.0
 10
330.9275784847
 20
162.3331711276
 30
0.0
 10
333.6662594396
 20
162.466090049
 30
0.0
 10
336.4048756752
 20
162.3331795574
 30
0.0
 10
339.0408001796
 20
161.939383771
 30
0.0
 10
341.4748511831
 20
161.3000808043
 30
0.0
 10
342.9807712616
 20
160.6946676285
 30
0.0
 10
343.6718118242
 20
160.3491473472
 30
0.0
  0
SPLINE
  5
5D0
100
AcDbEntity
  8
7_ALL_FEATURES
100
AcDbSpline
 62
9
  6
CONTINUOUS
 70
0
 71
3
 72
11
 73
7
 74
0
 42
0.0000001
 43
0.0000001
 44
0.0000000001
 40
0.0
 40
0.0
 40
0.0
 40
0.0
 40
0.2311771302
 40
0.4761440876
 40
0.73310732
 40
1.0
 40
1.0
 40
1.0
 40
1.0
 10
312.5799901579
 20
143.2322980101
 30
0.0
 10
313.4129208459
 20
142.820786258
 30
0.0
 10
315.1682693675
 20
142.0522684909
 30
0.0
 10
317.9542580565
 20
141.0862435343
 30
0.0
 10
320.9401954378
 20
140.2832170713
 30
0.0
 10
323.0061064565
 20
139.8698221615
 30
0.0
 10
324.0636948975
 20
139.6911709739
 30
0.0
  0
SPLINE
  5
5D1
100
AcDbEntity
  8
7_ALL_FEATURES
100
AcDbSpline
 62
9
  6
CONTINUOUS
 70
0
 71
3
 72
20
 73
16
 74
0
 42
0.0000001
 43
0.0000001
 44
0.0000000001
 40
0.0
 40
0.0
 40
0.0
 40
0.0
 40
0.1456231557
 40
0.2938997041
 40
0.4398159668
 40
0.5103937554
 40
0.5786140945
 40
0.6439760019
 40
0.7060482459
 40
0.7644886419
 40
0.8190681344
 40
0.8697009139
 40
0.9164802738
 40
0.9597209169
 40
1.0
 40
1.0
 40
1.0
 40
1.0
 10
324.0636948975
 20
139.6911709739
 30
0.0
 10
326.1227970354
 20
139.3433409221
 30
0.0
 10
330.3225266538
 20
138.8833765543
 30
0.0
 10
336.6400268492
 20
138.8640957342
 30
0.0
 10
341.8550870422
 20
139.4012964004
 30
0.0
 10
345.8674353276
 20
140.1676965146
 30
0.0
 10
348.7065221073
 20
140.8906738465
 30
0.0
 10
351.3765345418
 20
141.7597738773
 30
0.0
 10
353.8477954734
 20
142.7654000521
 30
0.0
 10
356.092860875
 20
143.8965018808
 30
0.0
 10
358.0869654518
 20
145.1409656039
 30
0.0
 10
359.8081509956
 20
146.4857296256
 30
0.0
 10
361.237294776
 20
147.9176778339
 30
0.0
 10
362.3572194769
 20
149.4222254269
 30
0.0
 10
362.9035784369
 20
150.4968619225
 30
0.0
 10
363.1132047825
 20
151.0350932646
 30
0.0
  0
SPLINE
  5
5D2
100
AcDbEntity
  8
7_ALL_FEATURES
100
AcDbSpline
 62
9
  6
CONTINUOUS
 70
0
 71
3
 72
9
 73
5
 74
0
 42
0.0000001
 43
0.0000001
 44
0.0000000001
 40
0.0
 40
0.0
 40
0.0
 40
0.0
 40
0.2529637395
 40
1.0
 40
1.0
 40
1.0
 40
1.0
 10
363.2848958211
 20
151.5178928614
 30
0.0
 10
363.3192408666
 20
151.6245726271
 30
0.0
 10
363.4465345261
 20
152.0489632282
 30
0.0
 10
363.5390675156
 20
152.4838686072
 30
0.0
 10
363.5868302053
 20
152.8113681764
 30
0.0
  0
LINE
  5
5D3
100
AcDbEntity
  8
7_ALL_FEATURES
100
AcDbLine
 62
9
  6
CONTINUOUS
 10
363.6661410813
 20
153.8640048805
 11
363.6661852172
 21
153.874155339
  0
LINE
  5
5D4
100
AcDbEntity
  8
7_ALL_FEATURES
100
AcDbLine
 62
9
  6
CONTINUOUS
 10
363.6661852172
 20
153.874155339
 11
363.6662357697
 21
153.9019922842
  0
SPLINE
  5
5D5
100
AcDbEntity
  8
7_ALL_FEATURES
100
AcDbSpline
 62
9
  6
CONTINUOUS
 70
0
 71
3
 72
9
 73
5
 74
0
 42
0.0000001
 43
0.0000001
 44
0.0000000001
 40
0.0
 40
0.0
 40
0.0
 40
0.0
 40
0.2477557625
 40
1.0
 40
1.0
 40
1.0
 40
1.0
 10
363.5799268683
 20
152.7371541145
 30
0.0
 10
363.5647665877
 20
152.6374606346
 30
0.0
 10
363.4956855899
 20
152.2363042906
 30
0.0
 10
363.3951709809
 20
151.8406400135
 30
0.0
 10
363.3034900827
 20
151.548516373
 30
0.0
  0
SPLINE
  5
5D6
100
AcDbEntity
  8
7_ALL_FEATURES
100
AcDbSpline
 62
9
  6
CONTINUOUS
 70
0
 71
3
 72
20
 73
16
 74
0
 42
0.0000001
 43
0.0000001
 44
0.0000000001
 40
0.0
 40
0.0
 40
0.0
 40
0.0
 40
0.0403921209
 40
0.0837754507
 40
0.1307031655
 40
0.1814719665
 40
0.2361629958
 40
0.2946831694
 40
0.3567999539
 40
0.4221703859
 40
0.4903646794
 40
0.5608850215
 40
0.7066116863
 40
0.8546371491
 40
1.0
 40
1.0
 40
1.0
 40
1.0
 10
363.0684214833
 20
150.8945421788
 30
0.0
 10
362.8513932549
 20
150.3591961089
 30
0.0
 10
362.2914928716
 20
149.2913175908
 30
0.0
 10
361.1560940756
 20
147.7977694472
 30
0.0
 10
359.7151553681
 20
146.3770104714
 30
0.0
 10
357.9857531667
 20
145.0434216642
 30
0.0
 10
355.9869049056
 20
143.8099471417
 30
0.0
 10
353.740429487
 20
142.6894532319
 30
0.0
 10
351.2708964982
 20
141.6938639786
 30
0.0
 10
348.6055049868
 20
140.8340282363
 30
0.0
 10
345.7736309641
 20
140.1193620158
 30
0.0
 10
341.7746810466
 20
139.3627779962
 30
0.0
 10
336.5803033582
 20
138.8342672542
 30
0.0
 10
330.2900560024
 20
138.8582915732
 30
0.0
 10
326.1092251223
 20
139.3175924075
 30
0.0
 10
324.0593983629
 20
139.6640281789
 30
0.0
  0
SPLINE
  5
5D7
100
AcDbEntity
  8
7_ALL_FEATURES
100
AcDbSpline
 62
9
  6
CONTINUOUS
 70
0
 71
3
 72
11
 73
7
 74
0
 42
0.0000001
 43
0.0000001
 44
0.0000000001
 40
0.0
 40
0.0
 40
0.0
 40
0.0
 40
0.2669134427
 40
0.5238850524
 40
0.7688459804
 40
1.0
 40
1.0
 40
1.0
 40
1.0
 10
324.0593983629
 20
139.6640281789
 30
0.0
 10
323.0011839092
 20
139.8428741906
 30
0.0
 10
320.9341076558
 20
140.2567246376
 30
0.0
 10
317.9466252978
 20
141.0606653893
 30
0.0
 10
315.159453549
 20
142.027789296
 30
0.0
 10
313.4035114384
 20
142.7971961838
 30
0.0
 10
312.5703722002
 20
143.2091831757
 30
0.0
  0
SPLINE
  5
5D8
100
AcDbEntity
  8
7_ALL_FEATURES
100
AcDbSpline
 62
9
  6
CONTINUOUS
 70
0
 71
3
 72
15
 73
11
 74
0
 42
0.0000001
 43
0.0000001
 44
0.0000000001
 40
0.0
 40
0.0
 40
0.0
 40
0.0
 40
0.1559935276
 40
0.3021545051
 40
0.438329561
 40
0.5648883815
 40
0.682642862
 40
0.7929881719
 40
0.8979275681
 40
1.0
 40
1.0
 40
1.0
 40
1.0
 10
312.4530474348
 20
143.2675219661
 30
0.0
 10
311.7799140032
 20
143.6040886819
 30
0.0
 10
310.5000114055
 20
144.305893952
 30
0.0
 10
308.7401851522
 20
145.4839569793
 30
0.0
 10
307.2173744777
 20
146.7441238801
 30
0.0
 10
305.946328696
 20
148.0752612388
 30
0.0
 10
304.9398657929
 20
149.46646011
 30
0.0
 10
304.2096213554
 20
150.9061817396
 30
0.0
 10
303.7659656121
 20
152.3803312964
 30
0.0
 10
303.6662854122
 20
153.381678324
 30
0.0
 10
303.6662659701
 20
153.8741236841
 30
0.0
  0
LINE
  5
5D9
100
AcDbEntity
  8
7_ALL_FEATURES
100
AcDbLine
 62
9
  6
CONTINUOUS
 10
303.6662659712
 20
153.9019924454
 11
303.6663177649
 21
153.8744110478
  0
SPLINE
  5
5DA
100
AcDbEntity
  8
7_ALL_FEATURES
100
AcDbSpline
 62
9
  6
CONTINUOUS
 70
0
 71
3
 72
9
 73
5
 74
0
 42
0.0000001
 43
0.0000001
 44
0.0000000001
 40
0.0
 40
0.0
 40
0.0
 40
0.0
 40
0.2486345623
 40
1.0
 40
1.0
 40
1.0
 40
1.0
 10
303.6675162779
 20
153.7653224752
 30
0.0
 10
303.6699094675
 20
153.6342377165
 30
0.0
 10
303.6933049851
 20
153.1073414944
 30
0.0
 10
303.772326409
 20
152.5830683879
 30
0.0
 10
303.8607170946
 20
152.1968542141
 30
0.0
  0
SPLINE
  5
5DB
100
AcDbEntity
  8
7_ALL_FEATURES
100
AcDbSpline
 62
9
  6
CONTINUOUS
 70
0
 71
3
 72
13
 73
9
 74
0
 42
0.0000001
 43
0.0000001
 44
0.0000000001
 40
0.0
 40
0.0
 40
0.0
 40
0.0
 40
0.1022067504
 40
0.2089327526
 40
0.321624221
 40
0.4413604634
 40
0.7041950629
 40
1.0
 40
1.0
 40
1.0
 40
1.0
 10
303.8607170946
 20
152.1968542141
 30
0.0
 10
303.957642674
 20
151.7733476838
 30
0.0
 10
304.2276403604
 20
150.9226989007
 30
0.0
 10
304.834752334
 20
149.6928134386
 30
0.0
 10
305.6448614287
 20
148.4953549762
 30
0.0
 10
307.0298218665
 20
146.9040780445
 30
0.0
 10
309.2671065621
 20
145.0546330119
 30
0.0
 10
311.3283984017
 20
143.8577152441
 30
0.0
 10
312.4530474348
 20
143.2953907275
 30
0.0
  0
SPLINE
  5
5DC
100
AcDbEntity
  8
7_ALL_FEATURES
100
AcDbSpline
 62
9
  6
CONTINUOUS
 70
0
 71
3
 72
9
 73
5
 74
0
 42
0.0000001
 43
0.0000001
 44
0.0000000001
 40
0.0
 40
0.0
 40
0.0
 40
0.0
 40
0.4888450624
 40
1.0
 40
1.0
 40
1.0
 40
1.0
 10
320.0288886032
 20
155.2069737802
 30
0.0
 10
320.0502298978
 20
155.4547612277
 30
0.0
 10
320.1497852314
 20
155.9581019951
 30
0.0
 10
320.349049257
 20
156.4299769621
 30
0.0
 10
320.470736745
 20
156.6598048091
 30
0.0
  0
SPLINE
  5
5DD
100
AcDbEntity
  8
7_ALL_FEATURES
100
AcDbSpline
 62
9
  6
CONTINUOUS
 70
0
 71
3
 72
9
 73
5
 74
0
 42
0.0000001
 43
0.0000001
 44
0.0000000001
 40
0.0
 40
0.0
 40
0.0
 40
0.0
 40
0.2445463873
 40
1.0
 40
1.0
 40
1.0
 40
1.0
 10
320.470736745
 20
156.6598048091
 30
0.0
 10
320.4968621614
 20
156.7091471721
 30
0.0
 10
320.6074683435
 20
156.908907879
 30
0.0
 10
320.7327163868
 20
157.1004735265
 30
0.0
 10
320.8339729033
 20
157.2400986551
 30
0.0
  0
ENDSEC
  0
SECTION
  2
OBJECTS
  0
DICTIONARY
  5
C
100
AcDbDictionary
280
0
281
1
  3
ACAD_GROUP
350
D
  3
ACAD_MLINESTYLE
350
17
  3
ACAD_LAYOUT
350
1A
  3
ACAD_PLOTSETTINGS
350
19
  3
ACAD_PLOTSTYLENAME
350
E
  3
ACAD_TABLESTYLE
350
       5DE
  0
DICTIONARY
  5
D
102
{ACAD_REACTORS
330
C
102
}
100
AcDbDictionary
280
0
281
1
  0
ACDBDICTIONARYWDFLT
  5
E
102
{ACAD_REACTORS
330
C
102
}
100
AcDbDictionary
281
1
  3
Normal
350
F
100
AcDbDictionaryWithDefault
340
F
  0
DICTIONARY
  5
17
102
{ACAD_REACTORS
330
C
102
}
100
AcDbDictionary
280
0
281
1
  3
Standard
350
18
  0
DICTIONARY
  5
5DE
330
C
100
AcDbDictionary
281
1
  3
Standard
350
       5E1
  3
Standard1
350
       5E2
  0
DICTIONARY
  5
19
102
{ACAD_REACTORS
330
C
102
}
100
AcDbDictionary
281
1
  0
DICTIONARY
  5
1A
102
{ACAD_REACTORS
330
C
102
}
100
AcDbDictionary
281
1
  3
Model
350
5DF
  3
Layout1
350
5E0
  0
ACDBPLACEHOLDER
  5
F
102
{ACAD_REACTORS
330
E
102
}
  0
MLINESTYLE
  5
18
102
{ACAD_REACTORS
330
17
102
}
100
AcDbMlineStyle
  2
STANDARD
 70
0
  3

 62
256
 51
90.0
 52
90.0
 71
2
 49
0.5
 62
256
  6
BYLAYER
 49
-0.5
 62
256
  6
BYLAYER
  0
LAYOUT
  5
5DF
102
{ACAD_REACTORS
330
1A
102
}
100
AcDbPlotSettings
  1

  2
none_device
  4
ISO_A3_(420.00_x_297.00_MM)
  6

 40
0.0
 41
0.0
 42
0.0
 43
0.0
 44
420.0
 45
297.0
 46
0.0
 47
0.0
 48
0.0
 49
0.0
140
0.0
141
0.0
142
1.0
143
1.0
 70
1024
 72
1
 73
0
 74
0
  7

 75
0
147
1.0
148
0.0
149
0.0
100
AcDbLayout
  1
Model
 70
0
 71
0
 10
0.0
 20
0.0
 11
420.0
 21
297.0
 12
0.0
 22
0.0
 32
0.0
 14
0.0
 24
0.0
 34
0.0
 15
0.0
 25
0.0
 35
0.0
146
0.0
 13
0.0
 23
0.0
 33
0.0
 16
1.0
 26
0.0
 36
0.0
 17
0.0
 27
1.0
 37
0.0
 76
0
330
222
345
0
346
0
  0
LAYOUT
  5
5E0
102
{ACAD_REACTORS
330
1A
102
}
100
AcDbPlotSettings
  1

  2
none_device
  4
ISO_A3_(420.00_x_297.00_MM)
  6

 40
0.0
 41
0.0
 42
0.0
 43
0.0
 44
420.0
 45
297.0
 46
0.0
 47
0.0
 48
0.0
 49
0.0
140
0.0
141
0.0
142
1.0
143
1.0
 70
0
 72
1
 73
0
 74
0
  7

 75
0
147
1.0
148
0.0
149
0.0
100
AcDbLayout
  1
Layout1
 70
0
 71
1
 10
0.0
 20
0.0
 11
420.0
 21
297.0
 12
0.0
 22
0.0
 32
0.0
 14
0.0
 24
0.0
 34
0.0
 15
0.0
 25
0.0
 35
0.0
146
0.0
 13
0.0
 23
0.0
 33
0.0
 16
1.0
 26
0.0
 36
0.0
 17
0.0
 27
1.0
 37
0.0
 76
0
330
223
345
0
346
0
  0
TABLESTYLE
  5
5E1
102
{ACAD_REACTORS
330
5DE
330
3B8
102
}
330
5DE
100
AcDbTableStyle
  3
Standard
 70
0
 71
0
 40
0.06
 41
0.06
280
1
281
1
  7
Standard
140
0.18
170
1
 62
0
 63
7
283
0
  7
Standard
140
0.18
170
1
 62
0
 63
7
283
0
  7
Standard
140
0.18
170
1
 62
0
 63
7
283
0
  0
TABLESTYLE
  5
5E2
102
{ACAD_REACTORS
330
5DE
102
}
330
5DE
100
AcDbTableStyle
  3
Standard1
 70
1
 71
0
 40
0.06
 41
0.06
280
1
281
1
  7
Standard
140
0.18
170
1
 62
0
 63
7
283
0
  7
Standard
140
0.18
170
1
 62
0
 63
7
283
0
  7
Standard
140
0.18
170
1
 62
0
 63
7
283
0
  0
ENDSEC
  0
EOF
