  0
SECTION
  2
HEADER
  9
$ACADVER
  1
AC1027
  9
$ACADMAINTVER
 70
     8
  9
$DWGCODEPAGE
  3
ANSI_1252
  9
$REQUIREDVERSIONS
160
                 0
  9
$INSBASE
 10
0.0
 20
0.0
 30
0.0
  9
$EXTMIN
 10
0.0
 20
0.0
 30
0.0
  9
$EXTMAX
 10
594.0
 20
420.0
 30
0.0
  9
$LIMMIN
 10
0.0
 20
0.0
  9
$LIMMAX
 10
594.0
 20
420.0
  9
$ORTHOMODE
 70
     0
  9
$REGENMODE
 70
     1
  9
$FILLMODE
 70
     1
  9
$QTEXTMODE
 70
     0
  9
$MIRRTEXT
 70
     1
  9
$LTSCALE
 40
32.67
  9
$ATTMODE
 70
     1
  9
$TEXTSIZE
 40
0.2
  9
$TRACEWID
 40
0.05
  9
$TEXTSTYLE
  7
STANDARD
  9
$CLAYER
  8
0
  9
$CELTYPE
  6
BYLAYER
  9
$CECOLOR
 62
   256
  9
$CELTSCALE
 40
1.0
  9
$DISPSILH
 70
     0
  9
$DIMSCALE
 40
1.0
  9
$DIMASZ
 40
2.5
  9
$DIMEXO
 40
0.75
  9
$DIMDLI
 40
22.572
  9
$DIMRND
 40
0.0
  9
$DIMDLE
 40
0.0
  9
$DIMEXE
 40
0.75
  9
$DIMTP
 40
0.01
  9
$DIMTM
 40
0.01
  9
$DIMTXT
 40
3.0
  9
$DIMCEN
 40
5.346
  9
$DIMTSZ
 40
0.0
  9
$DIMTOL
 70
     1
  9
$DIMLIM
 70
     0
  9
$DIMTIH
 70
     1
  9
$DIMTOH
 70
     1
  9
$DIMSE1
 70
     0
  9
$DIMSE2
 70
     0
  9
$DIMTAD
 70
     0
  9
$DIMZIN
 70
     0
  9
$DIMBLK
  1
CLOSED
  9
$DIMASO
 70
     1
  9
$DIMSHO
 70
     1
  9
$DIMPOST
  1

  9
$DIMAPOST
  1

  9
$DIMALT
 70
     0
  9
$DIMALTD
 70
     2
  9
$DIMALTF
 40
25.4
  9
$DIMLFAC
 40
1.0
  9
$DIMTOFL
 70
     0
  9
$DIMTVP
 40
0.0
  9
$DIMTIX
 70
     0
  9
$DIMSOXD
 70
     0
  9
$DIMSAH
 70
     0
  9
$DIMBLK1
  1

  9
$DIMBLK2
  1

  9
$DIMSTYLE
  2
STANDARD
  9
$DIMCLRD
 70
     0
  9
$DIMCLRE
 70
     0
  9
$DIMCLRT
 70
     0
  9
$DIMTFAC
 40
1.0
  9
$DIMGAP
 40
0.625
  9
$DIMJUST
 70
     0
  9
$DIMSD1
 70
     0
  9
$DIMSD2
 70
     0
  9
$DIMTOLJ
 70
     1
  9
$DIMTZIN
 70
     0
  9
$DIMALTZ
 70
     0
  9
$DIMALTTZ
 70
     0
  9
$DIMUPT
 70
     0
  9
$DIMDEC
 70
     4
  9
$DIMTDEC
 70
     4
  9
$DIMALTU
 70
     2
  9
$DIMALTTD
 70
     2
  9
$DIMTXSTY
  7
STANDARD
  9
$DIMAUNIT
 70
     0
  9
$DIMADEC
 70
     0
  9
$DIMALTRND
 40
0.0
  9
$DIMAZIN
 70
     0
  9
$DIMDSEP
 70
    44
  9
$DIMATFIT
 70
     3
  9
$DIMFRAC
 70
     0
  9
$DIMLDRBLK
  1

  9
$DIMLUNIT
 70
     2
  9
$DIMLWD
 70
    -2
  9
$DIMLWE
 70
    -2
  9
$DIMTMOVE
 70
     0
  9
$DIMFXL
 40
1.0
  9
$DIMFXLON
 70
     0
  9
$DIMJOGANG
 40
0.785398
  9
$DIMTFILL
 70
     0
  9
$DIMTFILLCLR
 70
     0
  9
$DIMARCSYM
 70
     0
  9
$DIMLTYPE
  6

  9
$DIMLTEX1
  6

  9
$DIMLTEX2
  6

  9
$DIMTXTDIRECTION
 70
     0
  9
$LUNITS
 70
     2
  9
$LUPREC
 70
     4
  9
$SKETCHINC
 40
0.1
  9
$FILLETRAD
 40
0.5
  9
$AUNITS
 70
     0
  9
$AUPREC
 70
     0
  9
$MENU
  1
.
  9
$ELEVATION
 40
0.0
  9
$PELEVATION
 40
0.0
  9
$THICKNESS
 40
0.0
  9
$LIMCHECK
 70
     0
  9
$CHAMFERA
 40
0.0
  9
$CHAMFERB
 40
0.0
  9
$CHAMFERC
 40
0.0
  9
$CHAMFERD
 40
0.0
  9
$SKPOLY
 70
     0
  9
$TDCREATE
 40
2447893.041666667
  9
$TDUCREATE
 40
0.0
  9
$TDUPDATE
 40
2458864.408997859
  9
$TDUUPDATE
 40
2458864.367331192
  9
$TDINDWG
 40
0.0
  9
$TDUSRTIMER
 40
0.0
  9
$USRTIMER
 70
     1
  9
$ANGBASE
 50
0.0
  9
$ANGDIR
 70
     0
  9
$PDMODE
 70
     3
  9
$PDSIZE
 40
0.3125
  9
$PLINEWID
 40
0.0
  9
$SPLFRAME
 70
     0
  9
$SPLINETYPE
 70
     6
  9
$SPLINESEGS
 70
     8
  9
$HANDSEED
  5
467
  9
$SURFTAB1
 70
     6
  9
$SURFTAB2
 70
     6
  9
$SURFTYPE
 70
     6
  9
$SURFU
 70
     6
  9
$SURFV
 70
     6
  9
$UCSBASE
  2

  9
$UCSNAME
  2

  9
$UCSORG
 10
0.0
 20
0.0
 30
0.0
  9
$UCSXDIR
 10
1.0
 20
0.0
 30
0.0
  9
$UCSYDIR
 10
0.0
 20
1.0
 30
0.0
  9
$UCSORTHOREF
  2

  9
$UCSORTHOVIEW
 70
     0
  9
$UCSORGTOP
 10
0.0
 20
0.0
 30
0.0
  9
$UCSORGBOTTOM
 10
0.0
 20
0.0
 30
0.0
  9
$UCSORGLEFT
 10
0.0
 20
0.0
 30
0.0
  9
$UCSORGRIGHT
 10
0.0
 20
0.0
 30
0.0
  9
$UCSORGFRONT
 10
0.0
 20
0.0
 30
0.0
  9
$UCSORGBACK
 10
0.0
 20
0.0
 30
0.0
  9
$PUCSBASE
  2

  9
$PUCSNAME
  2

  9
$PUCSORG
 10
0.0
 20
0.0
 30
0.0
  9
$PUCSXDIR
 10
1.0
 20
0.0
 30
0.0
  9
$PUCSYDIR
 10
0.0
 20
1.0
 30
0.0
  9
$PUCSORTHOREF
  2

  9
$PUCSORTHOVIEW
 70
     0
  9
$PUCSORGTOP
 10
0.0
 20
0.0
 30
0.0
  9
$PUCSORGBOTTOM
 10
0.0
 20
0.0
 30
0.0
  9
$PUCSORGLEFT
 10
0.0
 20
0.0
 30
0.0
  9
$PUCSORGRIGHT
 10
0.0
 20
0.0
 30
0.0
  9
$PUCSORGFRONT
 10
0.0
 20
0.0
 30
0.0
  9
$PUCSORGBACK
 10
0.0
 20
0.0
 30
0.0
  9
$USERI1
 70
     0
  9
$USERI2
 70
     0
  9
$USERI3
 70
     0
  9
$USERI4
 70
     0
  9
$USERI5
 70
     0
  9
$USERR1
 40
0.0
  9
$USERR2
 40
0.0
  9
$USERR3
 40
0.0
  9
$USERR4
 40
0.0
  9
$USERR5
 40
0.0
  9
$WORLDVIEW
 70
     1
  9
$SHADEDGE
 70
     3
  9
$SHADEDIF
 70
    70
  9
$TILEMODE
 70
     1
  9
$MAXACTVP
 70
    64
  9
$PINSBASE
 10
0.0
 20
0.0
 30
0.0
  9
$PLIMCHECK
 70
     0
  9
$PEXTMIN
 10
1.000000E+20
 20
1.000000E+20
 30
1.000000E+20
  9
$PEXTMAX
 10
-1.000000E+20
 20
-1.000000E+20
 30
-1.000000E+20
  9
$PLIMMIN
 10
0.0
 20
0.0
  9
$PLIMMAX
 10
12.0
 20
9.0
  9
$UNITMODE
 70
     0
  9
$VISRETAIN
 70
     1
  9
$PLINEGEN
 70
     0
  9
$PSLTSCALE
 70
     0
  9
$TREEDEPTH
 70
  3020
  9
$CMLSTYLE
  2

  9
$CMLJUST
 70
     0
  9
$CMLSCALE
 40
1.0
  9
$PROXYGRAPHICS
 70
     1
  9
$MEASUREMENT
 70
     1
  9
$CELWEIGHT
370
    -1
  9
$ENDCAPS
280
     0
  9
$JOINSTYLE
280
     0
  9
$LWDISPLAY
290
     0
  9
$INSUNITS
 70
     4
  9
$HYPERLINKBASE
  1

  9
$STYLESHEET
  1

  9
$XEDIT
290
     1
  9
$CEPSNTYPE
380
     0
  9
$PSTYLEMODE
290
     1
  9
$FINGERPRINTGUID
  2
{F02F321F-A6DC-4DB2-8D95-FED25E837E66}
  9
$VERSIONGUID
  2
{FAEB1C32-E019-11D5-929B-00C0DF256EC4}
  9
$EXTNAMES
290
     1
  9
$PSVPSCALE
 40
0.0
  9
$OLESTARTUP
290
     0
  9
$SORTENTS
280
   127
  9
$INDEXCTL
280
     0
  9
$HIDETEXT
280
     1
  9
$XCLIPFRAME
280
     2
  9
$HALOGAP
280
     0
  9
$OBSCOLOR
 70
   257
  9
$OBSLTYPE
280
     0
  9
$INTERSECTIONDISPLAY
280
     0
  9
$INTERSECTIONCOLOR
 70
   257
  9
$DIMASSOC
280
     2
  9
$PROJECTNAME
  1

  9
$CAMERADISPLAY
290
     0
  9
$LENSLENGTH
 40
50.0
  9
$CAMERAHEIGHT
 40
0.0
  9
$STEPSPERSEC
 40
2.0
  9
$STEPSIZE
 40
6.0
  9
$3DDWFPREC
 40
2.0
  9
$PSOLWIDTH
 40
0.25
  9
$PSOLHEIGHT
 40
4.0
  9
$LOFTANG1
 40
1.570796
  9
$LOFTANG2
 40
1.570796
  9
$LOFTMAG1
 40
0.0
  9
$LOFTMAG2
 40
0.0
  9
$LOFTPARAM
 70
     7
  9
$LOFTNORMALS
280
     1
  9
$LATITUDE
 40
37.795
  9
$LONGITUDE
 40
-122.394
  9
$NORTHDIRECTION
 40
0.0
  9
$TIMEZONE
 70
 -8000
  9
$LIGHTGLYPHDISPLAY
280
     1
  9
$TILEMODELIGHTSYNCH
280
     1
  9
$SOLIDHIST
280
     1
  9
$SHOWHIST
280
     1
  9
$DWFFRAME
280
     2
  9
$DGNFRAME
280
     2
  9
$REALWORLDSCALE
290
     1
  9
$INTERFERECOLOR
 62
   256
  9
$CSHADOW
280
     0
  9
$SHADOWPLANELOCATION
 40
0.0
  0
ENDSEC
  0
SECTION
  2
CLASSES
  0
CLASS
  1
ACDBDICTIONARYWDFLT
  2
AcDbDictionaryWithDefault
  3
ObjectDBX Classes
 90
        0
 91
        6
280
     0
281
     0
  0
CLASS
  1
ACDBPLACEHOLDER
  2
AcDbPlaceHolder
  3
ObjectDBX Classes
 90
        0
 91
        1
280
     0
281
     0
  0
CLASS
  1
LAYOUT
  2
AcDbLayout
  3
ObjectDBX Classes
 90
        0
 91
        1
280
     0
281
     0
  0
CLASS
  1
TABLESTYLE
  2
AcDbTableStyle
  3
ObjectDBX Classes
 90
     4095
 91
        5
280
     0
281
     0
  0
CLASS
  1
ACAD_TABLE
  2
AcDbTable
  3
ObjectDBX Classes
 90
     1025
 91
        5
280
     0
281
     1
  0
CLASS
  1
SCALE
  2
AcDbScale
  3
ObjectDBX Classes
 90
     1153
 91
        5
280
     0
281
     0
  0
CLASS
  1
TABLEGEOMETRY
  2
AcDbTableGeometry
  3
ObjectDBX Classes
 90
     1152
 91
        4
280
     0
281
     0
  0
CLASS
  1
VISUALSTYLE
  2
AcDbVisualStyle
  3
ObjectDBX Classes
 90
     4095
 91
        5
280
     0
281
     0
  0
CLASS
  1
MATERIAL
  2
AcDbMaterial
  3
ObjectDBX Classes
 90
     1153
 91
        5
280
     0
281
     0
  0
CLASS
  1
SUN
  2
AcDbSun
  3
SCENEOE
 90
     1153
 91
        5
280
     0
281
     0
  0
CLASS
  1
CSACDOCUMENTOPTIONS
  2
CDocDataContainer
  3
"DERU003_CSAPP"
 90
     4095
 91
        4
280
     0
281
     0
  0
CLASS
  1
TABLECONTENT
  2
AcDbTableContent
  3
ObjectDBX Classes
 90
     1152
 91
        4
280
     0
281
     0
  0
CLASS
  1
DICTIONARYVAR
  2
AcDbDictionaryVar
  3
ObjectDBX Classes
 90
        0
 91
        4
280
     0
281
     0
  0
CLASS
  1
CELLSTYLEMAP
  2
AcDbCellStyleMap
  3
ObjectDBX Classes
 90
     1152
 91
        4
280
     0
281
     0
  0
ENDSEC
  0
SECTION
  2
TABLES
  0
TABLE
  2
VPORT
  5
8
330
0
100
AcDbSymbolTable
 70
     1
  0
VPORT
  5
1F4
330
8
100
AcDbSymbolTableRecord
100
AcDbViewportTableRecord
  2
*ACTIVE
 70
     0
 10
0.0
 20
0.0
 11
1.0
 21
1.0
 12
297.0
 22
210.0
 13
0.0
 23
0.0
 14
1.0
 24
1.0
 15
0.0
 25
0.0
 16
0.0
 26
0.0
 36
1.0
 17
0.0
 27
0.0
 37
0.0
 40
420.0
 41
2.107285
 42
50.0
 43
0.0
 44
0.0
 50
0.0
 51
0.0
 71
    16
 72
   100
 73
     1
 74
     1
 75
     0
 76
     0
 77
     0
 78
     0
281
     0
 65
     1
110
0.0
120
0.0
130
0.0
111
1.0
121
0.0
131
0.0
112
0.0
122
1.0
132
0.0
 79
     0
146
0.0
 60
     3
 61
     5
292
     1
282
     1
141
0.0
142
0.0
 63
   256
361
452
  0
ENDTAB
  0
TABLE
  2
LTYPE
  5
5
330
0
100
AcDbSymbolTable
 70
     6
  0
LTYPE
  5
14
330
5
100
AcDbSymbolTableRecord
100
AcDbLinetypeTableRecord
  2
BYBLOCK
 70
     0
  3

 72
    65
 73
     0
 40
0.0
  0
LTYPE
  5
15
330
5
100
AcDbSymbolTableRecord
100
AcDbLinetypeTableRecord
  2
BYLAYER
 70
     0
  3

 72
    65
 73
     0
 40
0.0
  0
LTYPE
  5
16
330
5
100
AcDbSymbolTableRecord
100
AcDbLinetypeTableRecord
  2
CONTINUOUS
 70
     0
  3
Solid line
 72
    65
 73
     0
 40
0.0
  0
LTYPE
  5
1F5
330
5
100
AcDbSymbolTableRecord
100
AcDbLinetypeTableRecord
  2
CENTER
 70
     0
  3
____ _ ____ _ ____ _ ____ _ ____ _ ____ _ ____
 72
    65
 73
     4
 40
0.6
 49
0.375
 74
     0
 49
-0.075
 74
     0
 49
0.075
 74
     0
 49
-0.075
 74
     0
  0
LTYPE
  5
1F6
330
5
100
AcDbSymbolTableRecord
100
AcDbLinetypeTableRecord
  2
HIDDEN
 70
     0
  3
- - - - - - - - - - - - - - - - - - - -
 72
    65
 73
     2
 40
0.2
 49
0.1
 74
     0
 49
-0.1
 74
     0
  0
LTYPE
  5
1F7
330
5
100
AcDbSymbolTableRecord
100
AcDbLinetypeTableRecord
  2
PHANTOM
 70
     0
  3
_____ _ _ _____ _ _ _____ _ _ _____
 72
    65
 73
     6
 40
0.8
 49
0.45
 74
     0
 49
-0.05
 74
     0
 49
0.1
 74
     0
 49
-0.05
 74
     0
 49
0.1
 74
     0
 49
-0.05
 74
     0
  0
LTYPE
  5
1F8
330
5
100
AcDbSymbolTableRecord
100
AcDbLinetypeTableRecord
  2
DOT
 70
     0
  3
. . . . . . . . . . . . . . . . . . . .
 72
    65
 73
     2
 40
0.2
 49
0.1
 74
     0
 49
-0.1
 74
     0
  0
LTYPE
  5
1F9
330
5
100
AcDbSymbolTableRecord
100
AcDbLinetypeTableRecord
  2
DASHED
 70
     0
  3
- - - - - - - - - - - - - - - - - - - -
 72
    65
 73
     2
 40
0.2
 49
0.1
 74
     0
 49
-0.1
 74
     0
  0
ENDTAB
  0
TABLE
  2
LAYER
  5
2
330
0
100
AcDbSymbolTable
 70
    13
  0
LAYER
  5
10
330
2
100
AcDbSymbolTableRecord
100
AcDbLayerTableRecord
  2
0
 70
     0
 62
     7
  6
CONTINUOUS
370
    -3
390
F
347
44C
348
0
  0
LAYER
  5
1FA
330
2
100
AcDbSymbolTableRecord
100
AcDbLayerTableRecord
  2
DEFAULT_1
 70
     0
 62
     7
  6
CENTER
370
    -3
390
F
347
44C
348
0
  0
LAYER
  5
1FB
330
2
100
AcDbSymbolTableRecord
100
AcDbLayerTableRecord
  2
DEFAULT_2
 70
     0
 62
     8
  6
HIDDEN
370
    -3
390
F
347
44C
348
0
  0
LAYER
  5
1FC
330
2
100
AcDbSymbolTableRecord
100
AcDbLayerTableRecord
  2
DEFAULT_3
 70
     0
 62
     7
  6
PHANTOM
370
    -3
390
F
347
44C
348
0
  0
LAYER
  5
1FD
330
2
100
AcDbSymbolTableRecord
100
AcDbLayerTableRecord
  2
1_ALL_PLANES
 70
     0
 62
     7
  6
CONTINUOUS
370
    -3
390
F
347
44C
348
0
  0
LAYER
  5
1FE
330
2
100
AcDbSymbolTableRecord
100
AcDbLayerTableRecord
  2
2_ALL_CSYS
 70
     0
 62
     7
  6
CONTINUOUS
370
    -3
390
F
347
44C
348
0
  0
LAYER
  5
1FF
330
2
100
AcDbSymbolTableRecord
100
AcDbLayerTableRecord
  2
3_ALL_AXES
 70
     0
 62
     7
  6
CONTINUOUS
370
    -3
390
F
347
44C
348
0
  0
LAYER
  5
200
330
2
100
AcDbSymbolTableRecord
100
AcDbLayerTableRecord
  2
4_ALL_POINTS
 70
     0
 62
     7
  6
CONTINUOUS
370
    -3
390
F
347
44C
348
0
  0
LAYER
  5
201
330
2
100
AcDbSymbolTableRecord
100
AcDbLayerTableRecord
  2
5_ALL_CURVES
 70
     0
 62
     7
  6
CONTINUOUS
370
    -3
390
F
347
44C
348
0
  0
LAYER
  5
202
330
2
100
AcDbSymbolTableRecord
100
AcDbLayerTableRecord
  2
6_ALL_SURFS
 70
     0
 62
     7
  6
CONTINUOUS
370
    -3
390
F
347
44C
348
0
  0
LAYER
  5
203
330
2
100
AcDbSymbolTableRecord
100
AcDbLayerTableRecord
  2
7_ALL_FEATURES
 70
     0
 62
     7
  6
CONTINUOUS
370
    -3
390
F
347
44C
348
0
  0
LAYER
  5
204
330
2
100
AcDbSymbolTableRecord
100
AcDbLayerTableRecord
  2
9_SOLID
 70
     0
 62
     7
  6
CONTINUOUS
370
    -3
390
F
347
44C
348
0
  0
LAYER
  5
205
330
2
100
AcDbSymbolTableRecord
100
AcDbLayerTableRecord
  2
NO_CAVO
 70
     0
 62
     7
  6
CONTINUOUS
370
    -3
390
F
347
44C
348
0
  0
ENDTAB
  0
TABLE
  2
STYLE
  5
3
330
0
100
AcDbSymbolTable
 70
     6
  0
STYLE
  5
11
330
3
100
AcDbSymbolTableRecord
100
AcDbTextStyleTableRecord
  2
STANDARD
 70
     0
 40
0.0
 41
1.0
 50
0.0
 71
     0
 42
0.2
  3
arial.ttf
  4

  0
STYLE
  5
206
330
3
100
AcDbSymbolTableRecord
100
AcDbTextStyleTableRecord
  2
TEXTSTYLE_1
 70
     0
 40
0.0
 41
0.8
 50
0.0
 71
     0
 42
0.2
  3
gdt
  4

  0
STYLE
  5
207
330
3
100
AcDbSymbolTableRecord
100
AcDbTextStyleTableRecord
  2
TEXTSTYLE_2
 70
     0
 40
0.0
 41
0.9
 50
0.0
 71
     0
 42
0.2
  3
txt
  4

  0
STYLE
  5
208
330
3
100
AcDbSymbolTableRecord
100
AcDbTextStyleTableRecord
  2
TEXTSTYLE_3
 70
     0
 40
0.0
 41
0.9
 50
0.0
 71
     0
 42
0.2
  3
txt
  4

  0
STYLE
  5
209
330
3
100
AcDbSymbolTableRecord
100
AcDbTextStyleTableRecord
  2
TEXTSTYLE_4
 70
     0
 40
0.0
 41
0.85
 50
0.0
 71
     0
 42
0.2
  3
gdt
  4

  0
STYLE
  5
20A
330
3
100
AcDbSymbolTableRecord
100
AcDbTextStyleTableRecord
  2
TEXTSTYLE_5
 70
     0
 40
0.0
 41
0.85
 50
0.0
 71
     0
 42
0.2
  3
txt
  4

  0
ENDTAB
  0
TABLE
  2
VIEW
  5
6
330
0
100
AcDbSymbolTable
 70
     0
  0
ENDTAB
  0
TABLE
  2
UCS
  5
7
330
0
100
AcDbSymbolTable
 70
     0
  0
ENDTAB
  0
TABLE
  2
APPID
  5
9
330
0
100
AcDbSymbolTable
 70
     6
  0
APPID
  5
20B
330
9
100
AcDbSymbolTableRecord
100
AcDbRegAppTableRecord
  2
ACAD
 70
     0
  0
APPID
  5
44D
330
9
100
AcDbSymbolTableRecord
100
AcDbRegAppTableRecord
  2
MCS_DIM1
 70
     0
  0
APPID
  5
44E
330
9
100
AcDbSymbolTableRecord
100
AcDbRegAppTableRecord
  2
McsXdata5
 70
     0
  0
APPID
  5
451
330
9
100
AcDbSymbolTableRecord
100
AcDbRegAppTableRecord
  2
MCS_DOCUMENT_ID
 70
     0
  0
APPID
  5
457
330
9
100
AcDbSymbolTableRecord
100
AcDbRegAppTableRecord
  2
MCS_PARAMS_DATA
 70
     0
  0
APPID
  5
459
330
9
100
AcDbSymbolTableRecord
100
AcDbRegAppTableRecord
  2
MC_VERSION_DATA
 70
     0
  0
ENDTAB
  0
TABLE
  2
DIMSTYLE
  5
A
330
0
100
AcDbSymbolTable
 70
     4
100
AcDbDimStyleTable
  0
DIMSTYLE
105
214
330
A
100
AcDbSymbolTableRecord
100
AcDbDimStyleTableRecord
  2
STANDARD
 70
     0
 41
2.5
 42
0.75
 44
0.75
 47
0.01
 48
0.01
 71
     1
 73
     0
 74
     0
 77
     1
 78
     8
 79
     2
140
3.0
147
0.625
171
     1
178
     0
179
     2
271
     2
272
     2
278
    44
284
     8
340
11
341
20E
342
20E
343
20E
344
20E
  0
DIMSTYLE
105
215
330
A
100
AcDbSymbolTableRecord
100
AcDbDimStyleTableRecord
  2
DIMSTYLE_1
 70
     0
  3
<>
 41
2.5
 42
0.75
 44
0.75
 47
0.5
 48
0.5
 73
     0
 74
     0
 77
     1
 78
     8
 79
     2
140
3.0
147
0.625
171
     1
172
     1
178
     0
179
     2
271
     2
272
     2
278
    44
284
     8
288
     1
289
     2
340
11
341
20E
342
20E
343
20E
344
20E
  0
DIMSTYLE
105
216
330
A
100
AcDbSymbolTableRecord
100
AcDbDimStyleTableRecord
  2
DIMSTYLE_2
 70
     0
  3
<>
 41
2.5
 42
0.75
 44
0.75
 47
0.3
 48
0.3
 73
     0
 74
     0
 77
     1
 78
     8
 79
     2
140
3.0
147
0.625
171
     1
172
     1
178
     0
179
     2
271
     2
272
     2
278
    44
284
     8
288
     1
289
     2
340
11
341
20E
342
20E
343
20E
344
20E
  0
DIMSTYLE
105
217
330
A
100
AcDbSymbolTableRecord
100
AcDbDimStyleTableRecord
  2
DIMSTYLE_3
 70
     0
 41
2.5
 42
0.75
 44
0.75
 47
0.2
 48
0.2
 73
     0
 74
     0
 77
     1
 78
     8
 79
     2
140
3.0
147
0.75
171
     1
178
     0
179
     2
271
     2
272
     2
278
    44
284
     8
340
11
341
20E
342
20E
343
20E
344
20E
  0
ENDTAB
  0
TABLE
  2
BLOCK_RECORD
  5
1
330
0
100
AcDbSymbolTable
 70
     6
  0
BLOCK_RECORD
  5
20C
330
1
100
AcDbSymbolTableRecord
100
AcDbBlockTableRecord
  2
*Model_Space
340
407
 70
     0
280
     1
281
     0
  0
BLOCK_RECORD
  5
20D
330
1
100
AcDbSymbolTableRecord
100
AcDbBlockTableRecord
  2
*Paper_Space
340
408
 70
     0
280
     1
281
     0
  0
BLOCK_RECORD
  5
20E
330
1
100
AcDbSymbolTableRecord
100
AcDbBlockTableRecord
  2
_CLOSED
340
0
102
{BLKREFS
331
25D
331
263
331
264
331
26C
331
26D
102
}
 70
     0
280
     1
281
     0
  0
BLOCK_RECORD
  5
20F
330
1
100
AcDbSymbolTableRecord
100
AcDbBlockTableRecord
  2
*D1
340
0
 70
     0
280
     1
281
     0
  0
BLOCK_RECORD
  5
210
330
1
100
AcDbSymbolTableRecord
100
AcDbBlockTableRecord
  2
*D2
340
0
 70
     0
280
     1
281
     0
  0
BLOCK_RECORD
  5
211
330
1
100
AcDbSymbolTableRecord
100
AcDbBlockTableRecord
  2
*D3
340
0
 70
     0
280
     1
281
     0
  0
BLOCK_RECORD
  5
212
330
1
100
AcDbSymbolTableRecord
100
AcDbBlockTableRecord
  2
LOGO2_BL0
340
0
102
{BLKREFS
331
404
102
}
 70
     0
280
     1
281
     0
  0
BLOCK_RECORD
  5
213
330
1
100
AcDbSymbolTableRecord
100
AcDbBlockTableRecord
  2
*T5
340
0
102
{BLKREFS
331
405
102
}
 70
     0
280
     1
281
     0
  0
ENDTAB
  0
ENDSEC
  0
SECTION
  2
BLOCKS
  0
BLOCK
  5
20
330
20C
100
AcDbEntity
  8
0
100
AcDbBlockBegin
  2
*Model_Space
 70
     0
 10
0.0
 20
0.0
 30
0.0
  3
*Model_Space
  1
*Model_Space
  0
ENDBLK
  5
21
330
20C
100
AcDbEntity
  8
0
100
AcDbBlockEnd
  0
BLOCK
  5
1C
330
20D
100
AcDbEntity
 67
     1
  8
0
100
AcDbBlockBegin
  2
*Paper_Space
 70
     0
 10
0.0
 20
0.0
 30
0.0
  3
*Paper_Space
  1
*Paper_Space
  0
ENDBLK
  5
1D
330
20D
100
AcDbEntity
 67
     1
  8
0
100
AcDbBlockEnd
  0
BLOCK
  5
254
330
20E
100
AcDbEntity
  8
0
100
AcDbBlockBegin
  2
_CLOSED
 70
     0
 10
0.0
 20
0.0
 30
0.0
  3
_CLOSED
  1
_CLOSED
  0
LINE
  5
255
330
20E
100
AcDbEntity
  8
0
  6
ByBlock
 62
     0
100
AcDbLine
 10
0.0
 20
0.0
 30
0.0
 11
-1.0
 21
0.2
 31
0.0
  0
LINE
  5
256
330
20E
100
AcDbEntity
  8
0
  6
ByBlock
 62
     0
100
AcDbLine
 10
-1.0
 20
0.2
 30
0.0
 11
-1.0
 21
-0.2
 31
0.0
  0
LINE
  5
257
330
20E
100
AcDbEntity
  8
0
  6
ByBlock
 62
     0
100
AcDbLine
 10
-1.0
 20
-0.2
 30
0.0
 11
0.0
 21
0.0
 31
0.0
  0
LINE
  5
258
330
20E
100
AcDbEntity
  8
0
  6
ByBlock
 62
     0
100
AcDbLine
 10
-1.0
 20
0.0
 30
0.0
 11
0.0
 21
0.0
 31
0.0
  0
ENDBLK
  5
259
330
20E
100
AcDbEntity
  8
0
  6
ByBlock
 62
     0
100
AcDbBlockEnd
  0
BLOCK
  5
25A
330
20F
100
AcDbEntity
  8
0
100
AcDbBlockBegin
  2
*D1
 70
     1
 10
0.0
 20
0.0
 30
0.0
  3
*D1
  1
*D1
  0
MTEXT
  5
25B
330
20F
100
AcDbEntity
  8
0
  6
Continuous
 62
     2
100
AcDbMText
 10
235.343573
 20
371.544264
 30
0.0
 40
3.0
 41
10.992565
 46
0.0
 71
     1
 72
     1
  1
{\Fgdt;n}\Farial.ttf;200
  7
TEXTSTYLE_4
 11
0.7080188787
 21
0.7061935056999999
 31
0.0
 73
     1
 44
0.9
  0
LINE
  5
25C
330
20F
100
AcDbEntity
  8
0
  6
Continuous
 62
     2
100
AcDbLine
 10
224.666928
 20
355.598677
 30
0.0
 11
245.774742
 21
376.652072
 31
0.0
  0
INSERT
  5
25D
330
20F
100
AcDbEntity
  8
0
  6
Continuous
 62
     2
100
AcDbBlockReference
  2
_CLOSED
 10
224.666928
 20
355.598677
 30
0.0
 41
2.5
 42
2.5
 43
2.5
 50
224.926046
  0
ENDBLK
  5
25E
330
20F
100
AcDbEntity
  8
0
  6
ByBlock
 62
     0
100
AcDbBlockEnd
  0
BLOCK
  5
25F
330
210
100
AcDbEntity
  8
0
100
AcDbBlockBegin
  2
*D2
 70
     1
 10
0.0
 20
0.0
 30
0.0
  3
*D2
  1
*D2
  0
MTEXT
  5
260
330
210
100
AcDbEntity
  8
0
  6
Continuous
 62
     2
100
AcDbMText
 10
139.725277
 20
298.589983
 30
0.0
 40
3.0
 41
8.66171
 46
0.0
 71
     2
 72
     1
  1
{\Fgdt;n}\Farial.ttf;80
  7
TEXTSTYLE_4
 11
0.8396925915
 21
-0.5430620147
 31
0.0
 73
     1
 44
0.9
  0
LINE
  5
261
330
210
100
AcDbEntity
  8
0
  6
Continuous
 62
     2
100
AcDbLine
 10
120.277337
 20
306.701807
 30
0.0
 11
153.86504
 21
284.979326
 31
0.0
  0
LINE
  5
262
330
210
100
AcDbEntity
  8
0
  6
Continuous
 62
     2
100
AcDbLine
 10
187.452744
 20
263.256845
 30
0.0
 11
153.86504
 21
284.979326
 31
0.0
  0
INSERT
  5
263
330
210
100
AcDbEntity
  8
0
  6
Continuous
 62
     2
100
AcDbBlockReference
  2
_CLOSED
 10
120.277337
 20
306.701807
 30
0.0
 41
2.5
 42
2.5
 43
2.5
 50
147.107672
  0
INSERT
  5
264
330
210
100
AcDbEntity
  8
0
  6
Continuous
 62
     2
100
AcDbBlockReference
  2
_CLOSED
 10
187.452744
 20
263.256845
 30
0.0
 41
2.5
 42
2.5
 43
2.5
 50
327.107672
  0
ENDBLK
  5
265
330
210
100
AcDbEntity
  8
0
  6
ByBlock
 62
     0
100
AcDbBlockEnd
  0
BLOCK
  5
266
330
211
100
AcDbEntity
  8
0
100
AcDbBlockBegin
  2
*D3
 70
     1
 10
0.0
 20
0.0
 30
0.0
  3
*D3
  1
*D3
  0
MTEXT
  5
267
330
211
100
AcDbEntity
  8
0
  6
Continuous
 62
     2
100
AcDbMText
 10
291.597147
 20
120.260283
 30
0.0
 40
3.0
 41
8.152416
 46
0.0
 71
     2
 72
     1
  1
10,3
 11
0.0
 21
1.0
 31
0.0
 73
     1
 44
0.9
  0
LINE
  5
268
330
211
100
AcDbEntity
  8
0
  6
Continuous
 62
     2
100
AcDbLine
 10
281.122394
 20
115.110283
 30
0.0
 11
296.097147
 21
115.110283
 31
0.0
  0
LINE
  5
269
330
211
100
AcDbEntity
  8
0
  6
Continuous
 62
     2
100
AcDbLine
 10
281.838467
 20
125.410283
 30
0.0
 11
296.097147
 21
125.410283
 31
0.0
  0
LINE
  5
26A
330
211
100
AcDbEntity
  8
0
  6
Continuous
 62
     2
100
AcDbLine
 10
295.347147
 20
115.110283
 30
0.0
 11
295.347147
 21
120.260283
 31
0.0
  0
LINE
  5
26B
330
211
100
AcDbEntity
  8
0
  6
Continuous
 62
     2
100
AcDbLine
 10
295.347147
 20
125.410283
 30
0.0
 11
295.347147
 21
120.260283
 31
0.0
  0
INSERT
  5
26C
330
211
100
AcDbEntity
  8
0
  6
Continuous
 62
     2
100
AcDbBlockReference
  2
_CLOSED
 10
295.347147
 20
115.110283
 30
0.0
 41
2.5
 42
2.5
 43
2.5
 50
270.0
  0
INSERT
  5
26D
330
211
100
AcDbEntity
  8
0
  6
Continuous
 62
     2
100
AcDbBlockReference
  2
_CLOSED
 10
295.347147
 20
125.410283
 30
0.0
 41
2.5
 42
2.5
 43
2.5
 50
90.0
  0
ENDBLK
  5
26E
330
211
100
AcDbEntity
  8
0
  6
ByBlock
 62
     0
100
AcDbBlockEnd
  0
BLOCK
  5
218
330
212
100
AcDbEntity
  8
0
100
AcDbBlockBegin
  2
LOGO2_BL0
 70
     0
 10
507.572747
 20
36.774325
 30
0.0
  3
LOGO2_BL0
  1
LOGO2_BL0
  0
LINE
  5
219
330
212
100
AcDbEntity
  8
0
  6
Continuous
 62
     7
100
AcDbLine
 10
499.315672
 20
39.969816
 30
0.0
 11
498.011331
 21
39.969816
 31
0.0
  0
LINE
  5
21A
330
212
100
AcDbEntity
  8
0
  6
Continuous
 62
     7
100
AcDbLine
 10
498.011331
 20
39.969816
 30
0.0
 11
498.011331
 21
29.51075
 31
0.0
  0
LINE
  5
21B
330
212
100
AcDbEntity
  8
0
  6
Continuous
 62
     7
100
AcDbLine
 10
498.011331
 20
29.51075
 30
0.0
 11
502.492386
 21
29.51075
 31
0.0
  0
LINE
  5
21C
330
212
100
AcDbEntity
  8
0
  6
Continuous
 62
     7
100
AcDbLine
 10
502.492386
 20
29.51075
 30
0.0
 11
502.492386
 21
30.703604
 31
0.0
  0
LINE
  5
21D
330
212
100
AcDbEntity
  8
0
  6
Continuous
 62
     7
100
AcDbLine
 10
502.492386
 20
30.703604
 30
0.0
 11
499.315672
 21
30.703604
 31
0.0
  0
LINE
  5
21E
330
212
100
AcDbEntity
  8
0
  6
Continuous
 62
     7
100
AcDbLine
 10
499.315672
 20
30.703604
 30
0.0
 11
499.315672
 21
39.969816
 31
0.0
  0
LINE
  5
21F
330
212
100
AcDbEntity
  8
0
  6
Continuous
 62
     7
100
AcDbLine
 10
514.251999
 20
39.969816
 30
0.0
 11
512.948181
 21
39.969816
 31
0.0
  0
LINE
  5
220
330
212
100
AcDbEntity
  8
0
  6
Continuous
 62
     7
100
AcDbLine
 10
512.948181
 20
39.969816
 30
0.0
 11
512.948181
 21
29.51075
 31
0.0
  0
LINE
  5
221
330
212
100
AcDbEntity
  8
0
  6
Continuous
 62
     7
100
AcDbLine
 10
512.948181
 20
29.51075
 30
0.0
 11
517.429367
 21
29.51075
 31
0.0
  0
LINE
  5
222
330
212
100
AcDbEntity
  8
0
  6
Continuous
 62
     7
100
AcDbLine
 10
517.429367
 20
29.51075
 30
0.0
 11
517.429367
 21
30.703604
 31
0.0
  0
LINE
  5
223
330
212
100
AcDbEntity
  8
0
  6
Continuous
 62
     7
100
AcDbLine
 10
517.429367
 20
30.703604
 30
0.0
 11
514.251999
 21
30.703604
 31
0.0
  0
LINE
  5
224
330
212
100
AcDbEntity
  8
0
  6
Continuous
 62
     7
100
AcDbLine
 10
514.251999
 20
30.703604
 30
0.0
 11
514.251999
 21
39.969816
 31
0.0
  0
LWPOLYLINE
  5
225
330
212
100
AcDbEntity
  8
0
  6
Continuous
 62
     7
100
AcDbPolyline
 90
        2
 70
     0
 43
0.2
 10
496.365726
 20
26.167199
 10
496.365726
 20
24.310135
  0
LWPOLYLINE
  5
226
330
212
100
AcDbEntity
  8
0
  6
Continuous
 62
     7
100
AcDbPolyline
 90
        2
 70
     0
 43
0.2
 10
496.365726
 20
24.310135
 10
497.161442
 20
24.310135
  0
LWPOLYLINE
  5
227
330
212
100
AcDbEntity
  8
0
  6
Continuous
 62
     7
100
AcDbPolyline
 90
        2
 70
     0
 43
0.2
 10
497.161442
 20
24.310135
 10
497.161442
 20
24.522117
  0
LWPOLYLINE
  5
228
330
212
100
AcDbEntity
  8
0
  6
Continuous
 62
     7
100
AcDbPolyline
 90
        2
 70
     0
 43
0.2
 10
497.161442
 20
24.522117
 10
496.597336
 20
24.522117
  0
LWPOLYLINE
  5
229
330
212
100
AcDbEntity
  8
0
  6
Continuous
 62
     7
100
AcDbPolyline
 90
        2
 70
     0
 43
0.2
 10
496.597336
 20
24.522117
 10
496.597336
 20
26.167199
  0
LWPOLYLINE
  5
22A
330
212
100
AcDbEntity
  8
0
  6
Continuous
 62
     7
100
AcDbPolyline
 90
        2
 70
     0
 43
0.2
 10
496.597336
 20
26.167199
 10
496.365726
 20
26.167199
  0
SPLINE
  5
22B
330
212
100
AcDbEntity
  8
0
  6
Continuous
 62
     7
100
AcDbSpline
 70
     3
 71
     3
 72
    35
 73
    31
 74
     0
 42
0.000000001
 43
0.0000001
 40
0.0
 40
0.0
 40
0.0
 40
0.0
 40
1.0
 40
1.0
 40
1.0
 40
2.0
 40
2.0
 40
2.0
 40
3.0
 40
3.0
 40
3.0
 40
4.0
 40
4.0
 40
4.0
 40
5.0
 40
5.0
 40
5.0
 40
6.0
 40
6.0
 40
6.0
 40
7.0
 40
7.0
 40
7.0
 40
8.0
 40
8.0
 40
8.0
 40
9.0
 40
9.0
 40
9.0
 40
10.0
 40
10.0
 40
10.0
 40
10.0
 10
498.5597355802
 20
25.462687021
 30
0.0
 10
498.5597355802
 20
25.462687021
 30
0.0
 10
498.5597355802
 20
24.8005717418
 30
0.0
 10
498.5597355802
 20
24.8005717418
 30
0.0
 10
498.5597355802
 20
24.4854781465
 30
0.0
 10
498.707599269
 20
24.2708795185
 30
0.0
 10
499.0476857533
 20
24.2708795185
 30
0.0
 10
499.3872488263
 20
24.2708795185
 30
0.0
 10
499.5353742208
 20
24.4854781465
 30
0.0
 10
499.5353742208
 20
24.8005717418
 30
0.0
 10
499.5353742208
 20
24.8005717418
 30
0.0
 10
499.5353742208
 20
25.462687021
 30
0.0
 10
499.5353742208
 20
25.462687021
 30
0.0
 10
499.5353742208
 20
25.462687021
 30
0.0
 10
499.3133169819
 20
25.462687021
 30
0.0
 10
499.3133169819
 20
25.462687021
 30
0.0
 10
499.3133169819
 20
25.462687021
 30
0.0
 10
499.3133169819
 20
24.8256954836
 30
0.0
 10
499.3133169819
 20
24.8256954836
 30
0.0
 10
499.3133169819
 20
24.6398844764
 30
0.0
 10
499.2666025245
 20
24.4771035659
 30
0.0
 10
499.0476857533
 20
24.4771035659
 30
0.0
 10
498.8282455709
 20
24.4771035659
 30
0.0
 10
498.7815311134
 20
24.6398844764
 30
0.0
 10
498.7815311134
 20
24.8256954836
 30
0.0
 10
498.7815311134
 20
24.8256954836
 30
0.0
 10
498.7815311134
 20
25.462687021
 30
0.0
 10
498.7815311134
 20
25.462687021
 30
0.0
 10
498.7815311134
 20
25.462687021
 30
0.0
 10
498.5597355802
 20
25.462687021
 30
0.0
 10
498.5597355802
 20
25.462687021
 30
0.0
  0
SPLINE
  5
22C
330
212
100
AcDbEntity
  8
0
  6
Continuous
 62
     7
100
AcDbSpline
 70
     3
 71
     3
 72
    35
 73
    31
 74
     0
 42
0.000000001
 43
0.0000001
 40
0.0
 40
0.0
 40
0.0
 40
0.0
 40
1.0
 40
1.0
 40
1.0
 40
2.0
 40
2.0
 40
2.0
 40
3.0
 40
3.0
 40
3.0
 40
4.0
 40
4.0
 40
4.0
 40
5.0
 40
5.0
 40
5.0
 40
6.0
 40
6.0
 40
6.0
 40
7.0
 40
7.0
 40
7.0
 40
8.0
 40
8.0
 40
8.0
 40
9.0
 40
9.0
 40
9.0
 40
10.0
 40
10.0
 40
10.0
 40
10.0
 10
501.958506778
 20
25.4213375292
 30
0.0
 10
501.8700502703
 20
25.4726318354
 30
0.0
 10
501.7566008737
 20
25.4977555772
 30
0.0
 10
501.6529654387
 20
25.4977555772
 30
0.0
 10
501.2980925855
 20
25.4977555772
 30
0.0
 10
501.0226473953
 20
25.2339562882
 30
0.0
 10
501.0226473953
 20
24.8764663785
 30
0.0
 10
501.0226473953
 20
24.5315383398
 30
0.0
 10
501.3011022004
 20
24.2714029298
 30
0.0
 10
501.6406652734
 20
24.2714029298
 30
0.0
 10
501.7566008737
 20
24.2714029298
 30
0.0
 10
501.8573575466
 20
24.2933862038
 30
0.0
 10
501.958506778
 20
24.3472975665
 30
0.0
 10
501.958506778
 20
24.3472975665
 30
0.0
 10
501.958506778
 20
24.6299396619
 30
0.0
 10
501.958506778
 20
24.6299396619
 30
0.0
 10
501.8746301191
 20
24.5367724527
 30
0.0
 10
501.7711255369
 20
24.4776269772
 30
0.0
 10
501.6430206242
 20
24.4776269772
 30
0.0
 10
501.4093174842
 20
24.4776269772
 30
0.0
 10
501.24405037
 20
24.6498292909
 30
0.0
 10
501.24405037
 20
24.886411193
 30
0.0
 10
501.24405037
 20
25.0983927646
 30
0.0
 10
501.4118036878
 20
25.2904847072
 30
0.0
 10
501.6286268138
 20
25.2904847072
 30
0.0
 10
501.7614424281
 20
25.2904847072
 30
0.0
 10
501.8700502703
 20
25.2365733446
 30
0.0
 10
501.958506778
 20
25.135554966
 30
0.0
 10
501.958506778
 20
25.135554966
 30
0.0
 10
501.958506778
 20
25.4213375292
 30
0.0
 10
501.958506778
 20
25.4213375292
 30
0.0
  0
SPLINE
  5
22D
330
212
100
AcDbEntity
  8
0
  6
Continuous
 62
     7
100
AcDbSpline
 70
     3
 71
     3
 72
    32
 73
    28
 74
     0
 42
0.000000001
 43
0.0000001
 40
0.0
 40
0.0
 40
0.0
 40
0.0
 40
1.0
 40
1.0
 40
1.0
 40
2.0
 40
2.0
 40
2.0
 40
3.0
 40
3.0
 40
3.0
 40
4.0
 40
4.0
 40
4.0
 40
5.0
 40
5.0
 40
5.0
 40
6.0
 40
6.0
 40
6.0
 40
7.0
 40
7.0
 40
7.0
 40
8.0
 40
8.0
 40
8.0
 40
9.0
 40
9.0
 40
9.0
 40
9.0
 10
504.4903780302
 20
24.8497724029
 30
0.0
 10
504.4903780302
 20
24.8497724029
 30
0.0
 10
504.4903780302
 20
24.8837941366
 30
0.0
 10
504.4903780302
 20
24.8837941366
 30
0.0
 10
504.4903780302
 20
25.2261051188
 30
0.0
 10
504.3175214524
 20
25.4977555772
 30
0.0
 10
503.9508718453
 20
25.4977555772
 30
0.0
 10
503.5792498309
 20
25.4977555772
 30
0.0
 10
503.389513239
 20
25.2313392317
 30
0.0
 10
503.389513239
 20
24.8764663785
 30
0.0
 10
503.389513239
 20
24.5367724527
 30
0.0
 10
503.6035884557
 20
24.2708795185
 30
0.0
 10
503.9557133997
 20
24.2708795185
 30
0.0
 10
504.1797334309
 20
24.2708795185
 30
0.0
 10
504.3819010408
 20
24.3865534131
 30
0.0
 10
504.4903780302
 20
24.5859731138
 30
0.0
 10
504.4903780302
 20
24.5859731138
 30
0.0
 10
504.3027350835
 20
24.6927490165
 30
0.0
 10
504.3027350835
 20
24.6927490165
 30
0.0
 10
504.2192509831
 20
24.5540450252
 30
0.0
 10
504.1280465662
 20
24.468205574
 30
0.0
 10
503.9584613089
 20
24.468205574
 30
0.0
 10
503.7464797373
 20
24.468205574
 30
0.0
 10
503.6135332702
 20
24.6529697586
 30
0.0
 10
503.6111779194
 20
24.8497724029
 30
0.0
 10
503.6111779194
 20
24.8497724029
 30
0.0
 10
504.4903780302
 20
24.8497724029
 30
0.0
 10
504.4903780302
 20
24.8497724029
 30
0.0
  0
SPLINE
  5
22E
330
212
100
AcDbEntity
  8
0
  6
Continuous
 62
     7
100
AcDbSpline
 70
     3
 71
     3
 72
    14
 73
    10
 74
     0
 42
0.000000001
 43
0.0000001
 40
0.0
 40
0.0
 40
0.0
 40
0.0
 40
1.0
 40
1.0
 40
1.0
 40
2.0
 40
2.0
 40
2.0
 40
3.0
 40
3.0
 40
3.0
 40
3.0
 10
503.623216379
 20
25.017264015
 30
0.0
 10
503.6508263245
 20
25.1821385707
 30
0.0
 10
503.7786695315
 20
25.3051402233
 30
0.0
 10
503.9508718453
 20
25.3051402233
 30
0.0
 10
504.1280465662
 20
25.3051402233
 30
0.0
 10
504.2414959628
 20
25.1894663287
 30
0.0
 10
504.2687133498
 20
25.017264015
 30
0.0
 10
504.2687133498
 20
25.017264015
 30
0.0
 10
503.623216379
 20
25.017264015
 30
0.0
 10
503.623216379
 20
25.017264015
 30
0.0
  0
SPLINE
  5
22F
330
212
100
AcDbEntity
  8
0
  6
Continuous
 62
     7
100
AcDbSpline
 70
     3
 71
     3
 72
    20
 73
    16
 74
     0
 42
0.000000001
 43
0.0000001
 40
0.0
 40
0.0
 40
0.0
 40
0.0
 40
1.0
 40
1.0
 40
1.0
 40
2.0
 40
2.0
 40
2.0
 40
3.0
 40
3.0
 40
3.0
 40
4.0
 40
4.0
 40
4.0
 40
5.0
 40
5.0
 40
5.0
 40
5.0
 10
506.5144094804
 20
25.2266285301
 30
0.0
 10
506.5144094804
 20
25.2266285301
 30
0.0
 10
506.925549047
 20
24.7241536938
 30
0.0
 10
506.925549047
 20
24.7241536938
 30
0.0
 10
506.809482594
 20
24.6084797991
 30
0.0
 10
506.6716945724
 20
24.4781503885
 30
0.0
 10
506.4997539644
 20
24.4781503885
 30
0.0
 10
506.3223175378
 20
24.4781503885
 30
0.0
 10
506.1548259257
 20
24.6425015329
 30
0.0
 10
506.1548259257
 20
24.8194145482
 30
0.0
 10
506.1548259257
 20
24.997374386
 30
0.0
 10
506.3645829993
 20
25.1235165064
 30
0.0
 10
506.4921645007
 20
25.2114496028
 30
0.0
 10
506.4921645007
 20
25.2114496028
 30
0.0
 10
506.5144094804
 20
25.2266285301
 30
0.0
 10
506.5144094804
 20
25.2266285301
 30
0.0
  0
SPLINE
  5
230
330
212
100
AcDbEntity
  8
0
  6
Continuous
 62
     7
100
AcDbSpline
 70
     3
 71
     3
 72
    23
 73
    19
 74
     0
 42
0.000000001
 43
0.0000001
 40
0.0
 40
0.0
 40
0.0
 40
0.0
 40
1.0
 40
1.0
 40
1.0
 40
2.0
 40
2.0
 40
2.0
 40
3.0
 40
3.0
 40
3.0
 40
4.0
 40
4.0
 40
4.0
 40
5.0
 40
5.0
 40
5.0
 40
6.0
 40
6.0
 40
6.0
 40
6.0
 10
506.5637409943
 20
25.5176452062
 30
0.0
 10
506.5637409943
 20
25.5176452062
 30
0.0
 10
506.5021093152
 20
25.5961568994
 30
0.0
 10
506.5021093152
 20
25.5961568994
 30
0.0
 10
506.4481979525
 20
25.6647237781
 30
0.0
 10
506.3914078278
 20
25.7338140681
 30
0.0
 10
506.3914078278
 20
25.8275046886
 30
0.0
 10
506.3914078278
 20
25.9463190509
 30
0.0
 10
506.4873229463
 20
26.0237839215
 30
0.0
 10
506.5982861393
 20
26.0237839215
 30
0.0
 10
506.7215494976
 20
26.0237839215
 30
0.0
 10
506.8148475597
 20
25.9525999864
 30
0.0
 10
506.8148475597
 20
25.8222705757
 30
0.0
 10
506.8148475597
 20
25.6872304634
 30
0.0
 10
506.6867426469
 20
25.6108124154
 30
0.0
 10
506.5931828792
 20
25.5370114238
 30
0.0
 10
506.5931828792
 20
25.5370114238
 30
0.0
 10
506.5637409943
 20
25.5176452062
 30
0.0
 10
506.5637409943
 20
25.5176452062
 30
0.0
  0
SPLINE
  5
231
330
212
100
AcDbEntity
  8
0
  6
Continuous
 62
     7
100
AcDbSpline
 70
     3
 71
     3
 72
    50
 73
    46
 74
     0
 42
0.000000001
 43
0.0000001
 40
0.0
 40
0.0
 40
0.0
 40
0.0
 40
1.0
 40
1.0
 40
1.0
 40
2.0
 40
2.0
 40
2.0
 40
3.0
 40
3.0
 40
3.0
 40
4.0
 40
4.0
 40
4.0
 40
5.0
 40
5.0
 40
5.0
 40
6.0
 40
6.0
 40
6.0
 40
7.0
 40
7.0
 40
7.0
 40
8.0
 40
8.0
 40
8.0
 40
9.0
 40
9.0
 40
9.0
 40
10.0
 40
10.0
 40
10.0
 40
11.0
 40
11.0
 40
11.0
 40
12.0
 40
12.0
 40
12.0
 40
13.0
 40
13.0
 40
13.0
 40
14.0
 40
14.0
 40
14.0
 40
15.0
 40
15.0
 40
15.0
 40
15.0
 10
507.265897237
 20
24.3106587763
 30
0.0
 10
507.265897237
 20
24.3106587763
 30
0.0
 10
507.5512872417
 20
24.3106587763
 30
0.0
 10
507.5512872417
 20
24.3106587763
 30
0.0
 10
507.5512872417
 20
24.3106587763
 30
0.0
 10
507.2189210739
 20
24.7215366373
 30
0.0
 10
507.2189210739
 20
24.7215366373
 30
0.0
 10
507.2189210739
 20
24.7215366373
 30
0.0
 10
507.4454273087
 20
24.9874295716
 30
0.0
 10
507.4454273087
 20
24.9874295716
 30
0.0
 10
507.4454273087
 20
24.9874295716
 30
0.0
 10
507.2971710614
 20
25.1402656676
 30
0.0
 10
507.2971710614
 20
25.1402656676
 30
0.0
 10
507.2971710614
 20
25.1402656676
 30
0.0
 10
507.0812639052
 20
24.8890282494
 30
0.0
 10
507.0812639052
 20
24.8890282494
 30
0.0
 10
507.0812639052
 20
24.8890282494
 30
0.0
 10
506.6942012578
 20
25.3569579408
 30
0.0
 10
506.6942012578
 20
25.3569579408
 30
0.0
 10
506.8496544103
 20
25.4710616016
 30
0.0
 10
507.0319323913
 20
25.6108124154
 30
0.0
 10
507.0319323913
 20
25.8201769306
 30
0.0
 10
507.0319323913
 20
26.0640865907
 30
0.0
 10
506.8298956342
 20
26.2075012836
 30
0.0
 10
506.6033893994
 20
26.2075012836
 30
0.0
 10
506.3592180336
 20
26.2075012836
 30
0.0
 10
506.1748464074
 20
26.0567588327
 30
0.0
 10
506.1748464074
 20
25.8002873016
 30
0.0
 10
506.1748464074
 20
25.642740504
 30
0.0
 10
506.2735094352
 20
25.5050833353
 30
0.0
 10
506.3788459569
 20
25.3941201422
 30
0.0
 10
506.3788459569
 20
25.3941201422
 30
0.0
 10
506.2633029151
 20
25.3103743362
 30
0.0
 10
506.2633029151
 20
25.3103743362
 30
0.0
 10
506.0856047828
 20
25.1821385707
 30
0.0
 10
505.9382645053
 20
25.0544262164
 30
0.0
 10
505.9382645053
 20
24.817320903
 30
0.0
 10
505.9382645053
 20
24.4969931948
 30
0.0
 10
506.1968296815
 20
24.2708795185
 30
0.0
 10
506.5072125752
 20
24.2708795185
 30
0.0
 10
506.7261293464
 20
24.2708795185
 30
0.0
 10
506.9233245491
 20
24.3959748163
 30
0.0
 10
507.0635987742
 20
24.5618961945
 30
0.0
 10
507.0635987742
 20
24.5618961945
 30
0.0
 10
507.265897237
 20
24.3106587763
 30
0.0
 10
507.265897237
 20
24.3106587763
 30
0.0
  0
LWPOLYLINE
  5
232
330
212
100
AcDbEntity
  8
0
  6
Continuous
 62
     7
100
AcDbPolyline
 90
        2
 70
     0
 43
0.2
 10
509.201341
 20
26.167199
 10
508.969994
 20
26.167199
  0
LWPOLYLINE
  5
233
330
212
100
AcDbEntity
  8
0
  6
Continuous
 62
     7
100
AcDbPolyline
 90
        2
 70
     0
 43
0.2
 10
508.969994
 20
26.167199
 10
508.969994
 20
24.310135
  0
LWPOLYLINE
  5
234
330
212
100
AcDbEntity
  8
0
  6
Continuous
 62
     7
100
AcDbPolyline
 90
        2
 70
     0
 43
0.2
 10
508.969994
 20
24.310135
 10
509.765317
 20
24.310135
  0
LWPOLYLINE
  5
235
330
212
100
AcDbEntity
  8
0
  6
Continuous
 62
     7
100
AcDbPolyline
 90
        2
 70
     0
 43
0.2
 10
509.765317
 20
24.310135
 10
509.765317
 20
24.522117
  0
LWPOLYLINE
  5
236
330
212
100
AcDbEntity
  8
0
  6
Continuous
 62
     7
100
AcDbPolyline
 90
        2
 70
     0
 43
0.2
 10
509.765317
 20
24.522117
 10
509.201341
 20
24.522117
  0
LWPOLYLINE
  5
237
330
212
100
AcDbEntity
  8
0
  6
Continuous
 62
     7
100
AcDbPolyline
 90
        2
 70
     0
 43
0.2
 10
509.201341
 20
24.522117
 10
509.201341
 20
26.167199
  0
LWPOLYLINE
  5
238
330
212
100
AcDbEntity
  8
0
  6
Continuous
 62
     7
100
AcDbPolyline
 90
        2
 70
     0
 43
0.2
 10
511.44442
 20
25.462687
 10
511.223279
 20
25.462687
  0
LWPOLYLINE
  5
239
330
212
100
AcDbEntity
  8
0
  6
Continuous
 62
     7
100
AcDbPolyline
 90
        2
 70
     0
 43
0.2
 10
511.223279
 20
25.462687
 10
511.223279
 20
24.310659
  0
LWPOLYLINE
  5
23A
330
212
100
AcDbEntity
  8
0
  6
Continuous
 62
     7
100
AcDbPolyline
 90
        2
 70
     0
 43
0.2
 10
511.223279
 20
24.310659
 10
511.44442
 20
24.310659
  0
LWPOLYLINE
  5
23B
330
212
100
AcDbEntity
  8
0
  6
Continuous
 62
     7
100
AcDbPolyline
 90
        2
 70
     0
 43
0.2
 10
511.44442
 20
24.310659
 10
511.44442
 20
25.462687
  0
LWPOLYLINE
  5
23C
330
212
100
AcDbEntity
  8
0
  6
Continuous
 62
     7
100
AcDbPolyline
 90
        2
 70
     1
 43
0.2
 10
511.181397
 20
25.992641
 42
1.0
 10
511.486564
 20
25.992641
 42
1.0
  0
SPLINE
  5
23D
330
212
100
AcDbEntity
  8
0
  6
Continuous
 62
     7
100
AcDbSpline
 70
     3
 71
     3
 72
    17
 73
    13
 74
     0
 42
0.000000001
 43
0.0000001
 40
0.0
 40
0.0
 40
0.0
 40
0.0
 40
1.0
 40
1.0
 40
1.0
 40
2.0
 40
2.0
 40
2.0
 40
3.0
 40
3.0
 40
3.0
 40
4.0
 40
4.0
 40
4.0
 40
4.0
 10
513.5747043425
 20
24.468205574
 30
0.0
 10
513.3407394968
 20
24.468205574
 30
0.0
 10
513.2104100861
 20
24.6702423311
 30
0.0
 10
513.2104100861
 20
24.886411193
 30
0.0
 10
513.2104100861
 20
25.101009821
 30
0.0
 10
513.3462353153
 20
25.2999061104
 30
0.0
 10
513.5747043425
 20
25.2999061104
 30
0.0
 10
513.8141650067
 20
25.2999061104
 30
0.0
 10
513.9497285303
 20
25.1109546355
 30
0.0
 10
513.9497285303
 20
24.886411193
 30
0.0
 10
513.9497285303
 20
24.6602975166
 30
0.0
 10
513.8165203575
 20
24.468205574
 30
0.0
 10
513.5747043425
 20
24.468205574
 30
0.0
  0
SPLINE
  5
23E
330
212
100
AcDbEntity
  8
0
  6
Continuous
 62
     7
100
AcDbSpline
 70
     3
 71
     3
 72
    50
 73
    46
 74
     0
 42
0.000000001
 43
0.0000001
 40
0.0
 40
0.0
 40
0.0
 40
0.0
 40
1.0
 40
1.0
 40
1.0
 40
2.0
 40
2.0
 40
2.0
 40
3.0
 40
3.0
 40
3.0
 40
4.0
 40
4.0
 40
4.0
 40
5.0
 40
5.0
 40
5.0
 40
6.0
 40
6.0
 40
6.0
 40
7.0
 40
7.0
 40
7.0
 40
8.0
 40
8.0
 40
8.0
 40
9.0
 40
9.0
 40
9.0
 40
10.0
 40
10.0
 40
10.0
 40
11.0
 40
11.0
 40
11.0
 40
12.0
 40
12.0
 40
12.0
 40
13.0
 40
13.0
 40
13.0
 40
14.0
 40
14.0
 40
14.0
 40
15.0
 40
15.0
 40
15.0
 40
15.0
 10
514.1588313398
 20
25.4632104322
 30
0.0
 10
514.1588313398
 20
25.4632104322
 30
0.0
 10
513.9371666593
 20
25.4632104322
 30
0.0
 10
513.9371666593
 20
25.4632104322
 30
0.0
 10
513.9371666593
 20
25.4632104322
 30
0.0
 10
513.9371666593
 20
25.2658843767
 30
0.0
 10
513.9371666593
 20
25.2658843767
 30
0.0
 10
513.9371666593
 20
25.2658843767
 30
0.0
 10
513.9324559578
 20
25.2658843767
 30
0.0
 10
513.9324559578
 20
25.2658843767
 30
0.0
 10
513.841120688
 20
25.4087756583
 30
0.0
 10
513.7032018137
 20
25.4972321659
 30
0.0
 10
513.5304760887
 20
25.4972321659
 30
0.0
 10
513.1981099209
 20
25.4972321659
 30
0.0
 10
512.9890071114
 20
25.2093559576
 30
0.0
 10
512.9890071114
 20
24.893738951
 30
0.0
 10
512.9890071114
 20
24.5639898397
 30
0.0
 10
513.1860714613
 20
24.2708795185
 30
0.0
 10
513.5409443144
 20
24.2708795185
 30
0.0
 10
513.7032018137
 20
24.2708795185
 30
0.0
 10
513.8432143332
 20
24.3593360261
 30
0.0
 10
513.9324559578
 20
24.4901888481
 30
0.0
 10
513.9324559578
 20
24.4901888481
 30
0.0
 10
513.9371666593
 20
24.4901888481
 30
0.0
 10
513.9371666593
 20
24.4901888481
 30
0.0
 10
513.9371666593
 20
24.4901888481
 30
0.0
 10
513.9371666593
 20
24.2708795185
 30
0.0
 10
513.9371666593
 20
24.2708795185
 30
0.0
 10
513.9371666593
 20
24.0342976164
 30
0.0
 10
513.8806382403
 20
23.8474397866
 30
0.0
 10
513.607417548
 20
23.8474397866
 30
0.0
 10
513.4051190852
 20
23.8474397866
 30
0.0
 10
513.2624895093
 20
23.9657307376
 30
0.0
 10
513.2624895093
 20
24.1719547851
 30
0.0
 10
513.2624895093
 20
24.1719547851
 30
0.0
 10
513.0408248289
 20
24.1719547851
 30
0.0
 10
513.0408248289
 20
24.1719547851
 30
0.0
 10
513.0457972361
 20
23.8474397866
 30
0.0
 10
513.2768833197
 20
23.6506371423
 30
0.0
 10
513.5972110279
 20
23.6506371423
 30
0.0
 10
514.0452510903
 20
23.6506371423
 30
0.0
 10
514.1588313398
 20
23.9358962942
 30
0.0
 10
514.1588313398
 20
24.3326420504
 30
0.0
 10
514.1588313398
 20
24.3326420504
 30
0.0
 10
514.1588313398
 20
25.4632104322
 30
0.0
 10
514.1588313398
 20
25.4632104322
 30
0.0
  0
SPLINE
  5
23F
330
212
100
AcDbEntity
  8
0
  6
Continuous
 62
     7
100
AcDbSpline
 70
     3
 71
     3
 72
    44
 73
    40
 74
     0
 42
0.000000001
 43
0.0000001
 40
0.0
 40
0.0
 40
0.0
 40
0.0
 40
1.0
 40
1.0
 40
1.0
 40
2.0
 40
2.0
 40
2.0
 40
3.0
 40
3.0
 40
3.0
 40
4.0
 40
4.0
 40
4.0
 40
5.0
 40
5.0
 40
5.0
 40
6.0
 40
6.0
 40
6.0
 40
7.0
 40
7.0
 40
7.0
 40
8.0
 40
8.0
 40
8.0
 40
9.0
 40
9.0
 40
9.0
 40
10.0
 40
10.0
 40
10.0
 40
11.0
 40
11.0
 40
11.0
 40
12.0
 40
12.0
 40
12.0
 40
13.0
 40
13.0
 40
13.0
 40
13.0
 10
515.7277566752
 20
26.448270476
 30
0.0
 10
515.7277566752
 20
26.448270476
 30
0.0
 10
515.7277566752
 20
24.3101353651
 30
0.0
 10
515.7277566752
 20
24.3101353651
 30
0.0
 10
515.7277566752
 20
24.3101353651
 30
0.0
 10
515.9491596499
 20
24.3101353651
 30
0.0
 10
515.9491596499
 20
24.3101353651
 30
0.0
 10
515.9491596499
 20
24.3101353651
 30
0.0
 10
515.9491596499
 20
24.8398275884
 30
0.0
 10
515.9491596499
 20
24.8398275884
 30
0.0
 10
515.9491596499
 20
25.0497155148
 30
0.0
 10
515.9491596499
 20
25.3004295217
 30
0.0
 10
516.2344188018
 20
25.3004295217
 30
0.0
 10
516.4613175951
 20
25.3004295217
 30
0.0
 10
516.4882732764
 20
25.1674830546
 30
0.0
 10
516.4882732764
 20
24.9712038216
 30
0.0
 10
516.4882732764
 20
24.9712038216
 30
0.0
 10
516.4882732764
 20
24.3101353651
 30
0.0
 10
516.4882732764
 20
24.3101353651
 30
0.0
 10
516.4882732764
 20
24.3101353651
 30
0.0
 10
516.7101996625
 20
24.3101353651
 30
0.0
 10
516.7101996625
 20
24.3101353651
 30
0.0
 10
516.7101996625
 20
24.3101353651
 30
0.0
 10
516.7101996625
 20
24.997374386
 30
0.0
 10
516.7101996625
 20
24.997374386
 30
0.0
 10
516.7101996625
 20
25.2779228363
 30
0.0
 10
516.6261921508
 20
25.4977555772
 30
0.0
 10
516.301153741
 20
25.4977555772
 30
0.0
 10
516.1614029272
 20
25.4977555772
 30
0.0
 10
516.0232223472
 20
25.4312823437
 30
0.0
 10
515.9538703515
 20
25.308280691
 30
0.0
 10
515.9538703515
 20
25.308280691
 30
0.0
 10
515.9491596499
 20
25.308280691
 30
0.0
 10
515.9491596499
 20
25.308280691
 30
0.0
 10
515.9491596499
 20
25.308280691
 30
0.0
 10
515.9491596499
 20
26.448270476
 30
0.0
 10
515.9491596499
 20
26.448270476
 30
0.0
 10
515.9491596499
 20
26.448270476
 30
0.0
 10
515.7277566752
 20
26.448270476
 30
0.0
 10
515.7277566752
 20
26.448270476
 30
0.0
  0
LWPOLYLINE
  5
240
330
212
100
AcDbEntity
  8
0
  6
Continuous
 62
     7
100
AcDbPolyline
 90
        2
 70
     0
 43
0.2
 10
518.54999
 20
25.25594
 10
518.766421
 20
25.25594
  0
LWPOLYLINE
  5
241
330
212
100
AcDbEntity
  8
0
  6
Continuous
 62
     7
100
AcDbPolyline
 90
        2
 70
     0
 43
0.2
 10
518.766421
 20
25.25594
 10
518.766421
 20
25.462687
  0
LWPOLYLINE
  5
242
330
212
100
AcDbEntity
  8
0
  6
Continuous
 62
     7
100
AcDbPolyline
 90
        2
 70
     0
 43
0.2
 10
518.766421
 20
25.462687
 10
518.54999
 20
25.462687
  0
LWPOLYLINE
  5
243
330
212
100
AcDbEntity
  8
0
  6
Continuous
 62
     7
100
AcDbPolyline
 90
        2
 70
     0
 43
0.2
 10
518.54999
 20
25.462687
 10
518.54999
 20
25.903399
  0
LWPOLYLINE
  5
244
330
212
100
AcDbEntity
  8
0
  6
Continuous
 62
     7
100
AcDbPolyline
 90
        2
 70
     0
 43
0.2
 10
518.54999
 20
25.903399
 10
518.328326
 20
25.903399
  0
LWPOLYLINE
  5
245
330
212
100
AcDbEntity
  8
0
  6
Continuous
 62
     7
100
AcDbPolyline
 90
        2
 70
     0
 43
0.2
 10
518.328326
 20
25.903399
 10
518.328326
 20
25.462687
  0
LWPOLYLINE
  5
246
330
212
100
AcDbEntity
  8
0
  6
Continuous
 62
     7
100
AcDbPolyline
 90
        2
 70
     0
 43
0.2
 10
518.328326
 20
25.462687
 10
518.207679
 20
25.462687
  0
LWPOLYLINE
  5
247
330
212
100
AcDbEntity
  8
0
  6
Continuous
 62
     7
100
AcDbPolyline
 90
        2
 70
     0
 43
0.2
 10
518.207679
 20
25.462687
 10
518.207679
 20
25.25594
  0
LWPOLYLINE
  5
248
330
212
100
AcDbEntity
  8
0
  6
Continuous
 62
     7
100
AcDbPolyline
 90
        2
 70
     0
 43
0.2
 10
518.207679
 20
25.25594
 10
518.328326
 20
25.25594
  0
LWPOLYLINE
  5
249
330
212
100
AcDbEntity
  8
0
  6
Continuous
 62
     7
100
AcDbPolyline
 90
        2
 70
     0
 43
0.2
 10
518.328326
 20
25.25594
 10
518.328326
 20
24.310135
  0
LWPOLYLINE
  5
24A
330
212
100
AcDbEntity
  8
0
  6
Continuous
 62
     7
100
AcDbPolyline
 90
        2
 70
     0
 43
0.2
 10
518.328326
 20
24.310135
 10
518.54999
 20
24.310135
  0
LWPOLYLINE
  5
24B
330
212
100
AcDbEntity
  8
0
  6
Continuous
 62
     7
100
AcDbPolyline
 90
        2
 70
     0
 43
0.2
 10
518.54999
 20
24.310135
 10
518.54999
 20
25.25594
  0
SPLINE
  5
24C
330
212
100
AcDbEntity
  8
0
  6
Continuous
 62
     7
100
AcDbSpline
 70
     3
 71
     3
 72
    20
 73
    16
 74
     0
 42
0.000000001
 43
0.0000001
 40
0.0
 40
0.0
 40
0.0
 40
0.0
 40
1.0
 40
1.0
 40
1.0
 40
2.0
 40
2.0
 40
2.0
 40
3.0
 40
3.0
 40
3.0
 40
4.0
 40
4.0
 40
4.0
 40
5.0
 40
5.0
 40
5.0
 40
5.0
 10
506.3320006466
 20
34.6710618084
 30
0.0
 10
506.3320006466
 20
34.6710618084
 30
0.0
 10
508.6483573011
 20
31.8415003862
 30
0.0
 10
508.6483573011
 20
31.8415003862
 30
0.0
 10
507.9967102477
 20
31.1893299215
 30
0.0
 10
507.2198370436
 20
30.4534136508
 30
0.0
 10
506.248647399
 20
30.4534136508
 30
0.0
 10
505.2501095146
 20
30.4534136508
 30
0.0
 10
504.306791521
 20
31.382992098
 30
0.0
 10
504.306791521
 20
32.3821842466
 30
0.0
 10
504.306791521
 20
33.3813763951
 30
0.0
 10
505.4856445941
 20
34.0879816338
 30
0.0
 10
506.2071670544
 20
34.5878394137
 30
0.0
 10
506.2071670544
 20
34.5878394137
 30
0.0
 10
506.3320006466
 20
34.6710618084
 30
0.0
 10
506.3320006466
 20
34.6710618084
 30
0.0
  0
SPLINE
  5
24D
330
212
100
AcDbEntity
  8
0
  6
Continuous
 62
     7
100
AcDbSpline
 70
     3
 71
     3
 72
    23
 73
    19
 74
     0
 42
0.000000001
 43
0.0000001
 40
0.0
 40
0.0
 40
0.0
 40
0.0
 40
1.0
 40
1.0
 40
1.0
 40
2.0
 40
2.0
 40
2.0
 40
3.0
 40
3.0
 40
3.0
 40
4.0
 40
4.0
 40
4.0
 40
5.0
 40
5.0
 40
5.0
 40
6.0
 40
6.0
 40
6.0
 40
6.0
 10
506.6094086292
 20
36.3088157282
 30
0.0
 10
506.6094086292
 20
36.3088157282
 30
0.0
 10
506.2629103566
 20
36.752145089
 30
0.0
 10
506.2629103566
 20
36.752145089
 30
0.0
 10
505.9571073117
 20
37.140254559
 30
0.0
 10
505.6382189845
 20
37.5287565874
 30
0.0
 10
505.6382189845
 20
38.0557009015
 30
0.0
 10
505.6382189845
 20
38.7218726181
 30
0.0
 10
506.179557109
 20
39.1655945374
 30
0.0
 10
506.8034633641
 20
39.1655945374
 30
0.0
 10
507.4972450262
 20
39.1655945374
 30
0.0
 10
508.0244510459
 20
38.7633529627
 30
0.0
 10
508.0244510459
 20
38.0283526617
 30
0.0
 10
508.0244510459
 20
37.2650881511
 30
0.0
 10
507.3031902912
 20
36.8349749253
 30
0.0
 10
506.7761151244
 20
36.4192555099
 30
0.0
 10
506.7761151244
 20
36.4192555099
 30
0.0
 10
506.6094086292
 20
36.3088157282
 30
0.0
 10
506.6094086292
 20
36.3088157282
 30
0.0
  0
SPLINE
  5
24E
330
212
100
AcDbEntity
  8
0
  6
Continuous
 62
     7
100
AcDbSpline
 70
     3
 71
     3
 72
    50
 73
    46
 74
     0
 42
0.000000001
 43
0.0000001
 40
0.0
 40
0.0
 40
0.0
 40
0.0
 40
1.0
 40
1.0
 40
1.0
 40
2.0
 40
2.0
 40
2.0
 40
3.0
 40
3.0
 40
3.0
 40
4.0
 40
4.0
 40
4.0
 40
5.0
 40
5.0
 40
5.0
 40
6.0
 40
6.0
 40
6.0
 40
7.0
 40
7.0
 40
7.0
 40
8.0
 40
8.0
 40
8.0
 40
9.0
 40
9.0
 40
9.0
 40
10.0
 40
10.0
 40
10.0
 40
11.0
 40
11.0
 40
11.0
 40
12.0
 40
12.0
 40
12.0
 40
13.0
 40
13.0
 40
13.0
 40
14.0
 40
14.0
 40
14.0
 40
15.0
 40
15.0
 40
15.0
 40
15.0
 10
510.5629957921
 20
29.51022651
 30
0.0
 10
510.5629957921
 20
29.51022651
 30
0.0
 10
512.1722237966
 20
29.51022651
 30
0.0
 10
512.1722237966
 20
29.51022651
 30
0.0
 10
512.1722237966
 20
29.51022651
 30
0.0
 10
510.299196503
 20
31.8273682815
 30
0.0
 10
510.299196503
 20
31.8273682815
 30
0.0
 10
510.299196503
 20
31.8273682815
 30
0.0
 10
511.5755349285
 20
33.324847976
 30
0.0
 10
511.5755349285
 20
33.324847976
 30
0.0
 10
511.5755349285
 20
33.324847976
 30
0.0
 10
510.7433109808
 20
34.1858595446
 30
0.0
 10
510.7433109808
 20
34.1858595446
 30
0.0
 10
510.7433109808
 20
34.1858595446
 30
0.0
 10
509.5227158575
 20
32.7705554222
 30
0.0
 10
509.5227158575
 20
32.7705554222
 30
0.0
 10
509.5227158575
 20
32.7705554222
 30
0.0
 10
507.3448014886
 20
35.4059312566
 30
0.0
 10
507.3448014886
 20
35.4059312566
 30
0.0
 10
508.2183749281
 20
36.0439696165
 30
0.0
 10
509.2450461692
 20
36.8349749253
 30
0.0
 10
509.2450461692
 20
38.0138279984
 30
0.0
 10
509.2450461692
 20
39.3875209234
 30
0.0
 10
508.1071500294
 20
40.1920040729
 30
0.0
 10
506.8318584265
 20
40.1920040729
 30
0.0
 10
505.4584272071
 20
40.1920040729
 30
0.0
 10
504.4174930084
 20
39.3457788732
 30
0.0
 10
504.4174930084
 20
37.903126511
 30
0.0
 10
504.4174930084
 20
37.0155518196
 30
0.0
 10
504.9728323848
 20
36.2386786156
 30
0.0
 10
505.5689978417
 20
35.6142489492
 30
0.0
 10
505.5689978417
 20
35.6142489492
 30
0.0
 10
504.9170890827
 20
35.1426553788
 30
0.0
 10
504.9170890827
 20
35.1426553788
 30
0.0
 10
503.9185511982
 20
34.4213946241
 30
0.0
 10
503.0856729864
 20
33.7001338694
 30
0.0
 10
503.0856729864
 20
32.3685755531
 30
0.0
 10
503.0856729864
 20
30.5649002551
 30
0.0
 10
504.542719159
 20
29.288300124
 30
0.0
 10
506.2902585964
 20
29.288300124
 30
0.0
 10
507.5251166773
 20
29.288300124
 30
0.0
 10
508.6344869019
 20
29.9964755965
 30
0.0
 10
509.4253613579
 20
30.9250072212
 30
0.0
 10
509.4253613579
 20
30.9250072212
 30
0.0
 10
510.5629957921
 20
29.51022651
 30
0.0
 10
510.5629957921
 20
29.51022651
 30
0.0
  0
LINE
  5
24F
330
212
100
AcDbEntity
  8
0
  6
Continuous
 62
     7
100
AcDbLine
 10
496.365857
 20
27.484101
 30
0.0
 11
518.779768
 21
27.484101
 31
0.0
  0
LINE
  5
250
330
212
100
AcDbEntity
  8
0
  6
Continuous
 62
     7
100
AcDbLine
 10
518.779768
 20
27.484101
 30
0.0
 11
518.779768
 21
49.898012
 31
0.0
  0
LINE
  5
251
330
212
100
AcDbEntity
  8
0
  6
Continuous
 62
     7
100
AcDbLine
 10
518.779768
 20
49.898012
 30
0.0
 11
496.365857
 21
49.898012
 31
0.0
  0
LINE
  5
252
330
212
100
AcDbEntity
  8
0
  6
Continuous
 62
     7
100
AcDbLine
 10
496.365857
 20
49.898012
 30
0.0
 11
496.365857
 21
27.484101
 31
0.0
  0
ENDBLK
  5
253
330
212
100
AcDbEntity
  8
0
  6
ByBlock
 62
     0
100
AcDbBlockEnd
  0
BLOCK
  5
26F
330
213
100
AcDbEntity
  8
0
100
AcDbBlockBegin
  2
*T5
 70
     1
 10
0.0
 20
0.0
 30
0.0
  3
*T5
  1
*T5
  0
LINE
  5
270
330
213
100
AcDbEntity
  8
0
  6
Continuous
 62
     2
100
AcDbLine
 10
0.0
 20
0.0
 30
0.0
 11
90.0
 21
0.0
 31
0.0
  0
LINE
  5
271
330
213
100
AcDbEntity
  8
0
  6
Continuous
 62
     2
100
AcDbLine
 10
0.0
 20
0.0
 30
0.0
 11
0.0
 21
-40.0
 31
0.0
  0
LINE
  5
272
330
213
100
AcDbEntity
  8
0
  6
Continuous
 62
     2
100
AcDbLine
 10
30.0
 20
-6.0
 30
0.0
 11
90.0
 21
-6.0
 31
0.0
  0
LINE
  5
273
330
213
100
AcDbEntity
  8
0
  6
Continuous
 62
     2
100
AcDbLine
 10
30.0
 20
-12.0
 30
0.0
 11
90.0
 21
-12.0
 31
0.0
  0
LINE
  5
274
330
213
100
AcDbEntity
  8
0
  6
Continuous
 62
     2
100
AcDbLine
 10
30.0
 20
-22.0
 30
0.0
 11
90.0
 21
-22.0
 31
0.0
  0
LINE
  5
275
330
213
100
AcDbEntity
  8
0
  6
Continuous
 62
     2
100
AcDbLine
 10
0.0
 20
-27.0
 30
0.0
 11
90.0
 21
-27.0
 31
0.0
  0
LINE
  5
276
330
213
100
AcDbEntity
  8
0
  6
Continuous
 62
     2
100
AcDbLine
 10
0.0
 20
-40.0
 30
0.0
 11
90.0
 21
-40.0
 31
0.0
  0
LINE
  5
277
330
213
100
AcDbEntity
  8
0
  6
Continuous
 62
     2
100
AcDbLine
 10
30.0
 20
0.0
 30
0.0
 11
30.0
 21
-27.0
 31
0.0
  0
LINE
  5
278
330
213
100
AcDbEntity
  8
0
  6
Continuous
 62
     2
100
AcDbLine
 10
70.0
 20
0.0
 30
0.0
 11
70.0
 21
-12.0
 31
0.0
  0
LINE
  5
279
330
213
100
AcDbEntity
  8
0
  6
Continuous
 62
     2
100
AcDbLine
 10
90.0
 20
0.0
 30
0.0
 11
90.0
 21
-40.0
 31
0.0
  0
MTEXT
  5
27A
330
213
100
AcDbEntity
  8
9_SOLID
  6
Continuous
 62
     2
100
AcDbMText
 10
31.4875
 20
-1.5
 30
0.0
 40
3.0
 41
48.571429
 46
0.0
 71
     1
 72
     1
  1
A057_C_006
  7
TEXTSTYLE_5
 73
     1
 44
0.9
  0
MTEXT
  5
27B
330
213
100
AcDbEntity
  8
9_SOLID
  6
Continuous
 62
     2
100
AcDbMText
 10
71.4875
 20
-1.25
 30
0.0
 40
3.5
 41
30.333333
 46
0.0
 71
     1
 72
     1
  1
Rev:00
  7
TEXTSTYLE_5
 73
     1
 44
0.9
  0
MTEXT
  5
27C
330
213
100
AcDbEntity
  8
9_SOLID
  6
Continuous
 62
     2
100
AcDbMText
 10
31.4875
 20
-7.75
 30
0.0
 40
3.5
 41
36.5
 46
0.0
 71
     1
 72
     1
  1
Scale:1:1
  7
TEXTSTYLE_5
 73
     1
 44
0.9
  0
MTEXT
  5
27D
330
213
100
AcDbEntity
  8
9_SOLID
  6
Continuous
 62
     2
100
AcDbMText
 10
71.4875
 20
-7.25
 30
0.0
 40
3.5
 41
11.5
 46
0.0
 71
     1
 72
     1
  1
A2
  7
TEXTSTYLE_5
 73
     1
 44
0.9
  0
MTEXT
  5
27E
330
213
100
AcDbEntity
  8
9_SOLID
  6
Continuous
 62
     2
100
AcDbMText
 10
31.4875
 20
-15.65
 30
0.0
 40
2.7
 41
116.1
 46
0.0
 71
     1
 72
     1
  1
FRONTALE PIANO TONDO COMBO4
  7
TEXTSTYLE_5
 73
     1
 44
0.9
  0
MTEXT
  5
27F
330
213
100
AcDbEntity
  8
9_SOLID
  6
Continuous
 62
     2
100
AcDbMText
 10
31.4875
 20
-23.25
 30
0.0
 40
2.5
 41
45.47619
 46
0.0
 71
     1
 72
     1
  1
DATE:12.12.19
  7
TEXTSTYLE_5
 73
     1
 44
0.9
  0
MTEXT
  5
280
330
213
100
AcDbEntity
  8
9_SOLID
  6
Continuous
 62
     2
100
AcDbMText
 10
1.4875
 20
-27.3125
 30
0.0
 40
2.25
 41
178.607143
 46
0.0
 71
     1
 72
     1
  1
Any integral or partial reproductions are prohibited \Pwithout prior authorisation of L & L Luce & Light s.r.l., \Pin accordance with the law in force. \PAll rights reserved.
  7
TEXTSTYLE_5
 73
     1
 44
0.9
  0
ENDBLK
  5
281
330
213
100
AcDbEntity
  8
0
  6
ByBlock
 62
     0
100
AcDbBlockEnd
  0
ENDSEC
  0
SECTION
  2
ENTITIES
  0
LINE
  5
282
330
20C
100
AcDbEntity
  8
0
  6
Continuous
 62
     7
100
AcDbLine
 10
0.0
 20
0.0
 30
0.0
 11
594.0
 21
0.0
 31
0.0
  0
LINE
  5
283
330
20C
100
AcDbEntity
  8
0
  6
Continuous
 62
     7
100
AcDbLine
 10
594.0
 20
0.0
 30
0.0
 11
594.0
 21
420.0
 31
0.0
  0
LINE
  5
284
330
20C
100
AcDbEntity
  8
0
  6
Continuous
 62
     7
100
AcDbLine
 10
0.0
 20
420.0
 30
0.0
 11
594.0
 21
420.0
 31
0.0
  0
LINE
  5
285
330
20C
100
AcDbEntity
  8
0
  6
Continuous
 62
     7
100
AcDbLine
 10
0.0
 20
0.0
 30
0.0
 11
0.0
 21
420.0
 31
0.0
  0
LWPOLYLINE
  5
286
330
20C
100
AcDbEntity
  8
0
  6
Continuous
 62
     7
100
AcDbPolyline
 90
        2
 70
     0
 43
0.5
 10
584.0
 20
10.031844
 10
584.0
 20
410.0
  0
LWPOLYLINE
  5
287
330
20C
100
AcDbEntity
  8
0
  6
Continuous
 62
     7
100
AcDbPolyline
 90
        2
 70
     0
 43
0.5
 10
10.053631
 20
10.031844
 10
10.053631
 20
410.0
  0
LWPOLYLINE
  5
288
330
20C
100
AcDbEntity
  8
0
  6
Continuous
 62
     7
100
AcDbPolyline
 90
        2
 70
     0
 43
0.5
 10
10.053631
 20
10.031844
 10
584.0
 20
10.031844
  0
LWPOLYLINE
  5
289
330
20C
100
AcDbEntity
  8
0
  6
Continuous
 62
     7
100
AcDbPolyline
 90
        2
 70
     0
 43
0.1
 10
297.0
 20
10.0
 10
297.0
 20
0.0
  0
LWPOLYLINE
  5
28A
330
20C
100
AcDbEntity
  8
0
  6
Continuous
 62
     7
100
AcDbPolyline
 90
        2
 70
     0
 43
0.1
 10
297.0
 20
410.0
 10
297.0
 20
420.0
  0
LWPOLYLINE
  5
28B
330
20C
100
AcDbEntity
  8
0
  6
Continuous
 62
     7
100
AcDbPolyline
 90
        2
 70
     0
 43
0.1
 10
584.0
 20
210.0
 10
594.0
 20
210.0
  0
LWPOLYLINE
  5
28C
330
20C
100
AcDbEntity
  8
0
  6
Continuous
 62
     7
100
AcDbPolyline
 90
        2
 70
     0
 43
0.1
 10
10.0
 20
210.0
 10
0.0
 20
210.0
  0
LWPOLYLINE
  5
28D
330
20C
100
AcDbEntity
  8
0
  6
Continuous
 62
     7
100
AcDbPolyline
 90
        2
 70
     0
 43
0.5
 10
10.053631
 20
410.0
 10
584.0
 20
410.0
  0
LWPOLYLINE
  5
28E
330
20C
100
AcDbEntity
  8
0
  6
Continuous
 62
     7
100
AcDbPolyline
 90
        2
 70
     0
 43
0.1
 10
0.0
 20
413.0
 10
594.0
 20
413.0
  0
LWPOLYLINE
  5
28F
330
20C
100
AcDbEntity
  8
0
  6
Continuous
 62
     7
100
AcDbPolyline
 90
        2
 70
     0
 43
0.1
 10
7.053631
 20
0.0
 10
7.053631
 20
420.0
  0
LWPOLYLINE
  5
290
330
20C
100
AcDbEntity
  8
0
  6
Continuous
 62
     7
100
AcDbPolyline
 90
        2
 70
     0
 43
0.1
 10
587.0
 20
0.0
 10
587.0
 20
420.0
  0
LWPOLYLINE
  5
291
330
20C
100
AcDbEntity
  8
0
  6
Continuous
 62
     7
100
AcDbPolyline
 90
        2
 70
     0
 43
0.1
 10
0.0
 20
7.031844
 10
594.0
 20
7.031844
  0
LINE
  5
292
330
20C
100
AcDbEntity
  8
0
  6
Continuous
 62
     7
100
AcDbLine
 10
384.0
 20
0.0
 30
0.0
 11
384.0
 21
10.0
 31
0.0
  0
LINE
  5
293
330
20C
100
AcDbEntity
  8
0
  6
Continuous
 62
     7
100
AcDbLine
 10
487.0
 20
7.0
 30
0.0
 11
487.0
 21
0.0
 31
0.0
  0
LINE
  5
294
330
20C
100
AcDbEntity
  8
0
  6
Continuous
 62
     7
100
AcDbLine
 10
287.0
 20
7.0
 30
0.0
 11
287.0
 21
0.0
 31
0.0
  0
LINE
  5
295
330
20C
100
AcDbEntity
  8
0
  6
Continuous
 62
     7
100
AcDbLine
 10
187.0
 20
7.0
 30
0.0
 11
187.0
 21
0.0
 31
0.0
  0
LINE
  5
296
330
20C
100
AcDbEntity
  8
0
  6
Continuous
 62
     7
100
AcDbLine
 10
87.0
 20
7.0
 30
0.0
 11
87.0
 21
0.0
 31
0.0
  0
LINE
  5
297
330
20C
100
AcDbEntity
  8
0
  6
Continuous
 62
     7
100
AcDbLine
 10
173.5
 20
420.0
 30
0.0
 11
173.5
 21
410.0
 31
0.0
  0
LINE
  5
298
330
20C
100
AcDbEntity
  8
0
  6
Continuous
 62
     7
100
AcDbLine
 10
384.0
 20
410.0
 30
0.0
 11
384.0
 21
420.0
 31
0.0
  0
LINE
  5
299
330
20C
100
AcDbEntity
  8
0
  6
Continuous
 62
     7
100
AcDbLine
 10
487.0
 20
420.0
 30
0.0
 11
487.0
 21
413.0
 31
0.0
  0
LINE
  5
29A
330
20C
100
AcDbEntity
  8
0
  6
Continuous
 62
     7
100
AcDbLine
 10
287.0
 20
420.0
 30
0.0
 11
287.0
 21
413.0
 31
0.0
  0
LINE
  5
29B
330
20C
100
AcDbEntity
  8
0
  6
Continuous
 62
     7
100
AcDbLine
 10
187.0
 20
420.0
 30
0.0
 11
187.0
 21
413.0
 31
0.0
  0
LINE
  5
29C
330
20C
100
AcDbEntity
  8
0
  6
Continuous
 62
     7
100
AcDbLine
 10
87.0
 20
420.0
 30
0.0
 11
87.0
 21
413.0
 31
0.0
  0
LINE
  5
29D
330
20C
100
AcDbEntity
  8
0
  6
Continuous
 62
     7
100
AcDbLine
 10
587.0
 20
307.0
 30
0.0
 11
594.0
 21
307.0
 31
0.0
  0
LINE
  5
29E
330
20C
100
AcDbEntity
  8
0
  6
Continuous
 62
     7
100
AcDbLine
 10
0.0
 20
107.0
 30
0.0
 11
7.0
 21
107.0
 31
0.0
  0
LINE
  5
29F
330
20C
100
AcDbEntity
  8
0
  6
Continuous
 62
     7
100
AcDbLine
 10
0.0
 20
207.0
 30
0.0
 11
7.0
 21
207.0
 31
0.0
  0
LINE
  5
2A0
330
20C
100
AcDbEntity
  8
0
  6
Continuous
 62
     7
100
AcDbLine
 10
0.0
 20
307.0
 30
0.0
 11
7.0
 21
307.0
 31
0.0
  0
MTEXT
  5
2A1
330
20C
100
AcDbEntity
  8
0
  6
Continuous
 62
     2
100
AcDbMText
 10
536.154891
 20
5.35876
 30
0.0
 40
4.0
 41
3.6
 46
0.0
 71
     1
 72
     1
  1
A
  7
TEXTSTYLE_2
 73
     1
 44
0.9
  0
MTEXT
  5
2A2
330
20C
100
AcDbEntity
  8
0
  6
Continuous
 62
     2
100
AcDbMText
 10
436.154891
 20
5.35876
 30
0.0
 40
4.0
 41
3.6
 46
0.0
 71
     1
 72
     1
  1
B
  7
TEXTSTYLE_2
 73
     1
 44
0.9
  0
MTEXT
  5
2A3
330
20C
100
AcDbEntity
  8
0
  6
Continuous
 62
     2
100
AcDbMText
 10
336.154891
 20
5.35876
 30
0.0
 40
4.0
 41
3.6
 46
0.0
 71
     1
 72
     1
  1
C
  7
TEXTSTYLE_2
 73
     1
 44
0.9
  0
MTEXT
  5
2A4
330
20C
100
AcDbEntity
  8
0
  6
Continuous
 62
     2
100
AcDbMText
 10
236.154891
 20
5.35876
 30
0.0
 40
4.0
 41
3.6
 46
0.0
 71
     1
 72
     1
  1
D
  7
TEXTSTYLE_2
 73
     1
 44
0.9
  0
MTEXT
  5
2A5
330
20C
100
AcDbEntity
  8
0
  6
Continuous
 62
     2
100
AcDbMText
 10
136.154891
 20
5.35876
 30
0.0
 40
4.0
 41
3.6
 46
0.0
 71
     1
 72
     1
  1
E
  7
TEXTSTYLE_2
 73
     1
 44
0.9
  0
MTEXT
  5
2A6
330
20C
100
AcDbEntity
  8
0
  6
Continuous
 62
     2
100
AcDbMText
 10
588.646722
 20
60.626871
 30
0.0
 40
4.0
 41
3.428571
 46
0.0
 71
     1
 72
     1
  1
1
  7
TEXTSTYLE_3
 73
     1
 44
0.9
  0
MTEXT
  5
2A7
330
20C
100
AcDbEntity
  8
0
  6
Continuous
 62
     2
100
AcDbMText
 10
588.646722
 20
260.626871
 30
0.0
 40
4.0
 41
4.285714
 46
0.0
 71
     1
 72
     1
  1
3
  7
TEXTSTYLE_3
 73
     1
 44
0.9
  0
MTEXT
  5
2A8
330
20C
100
AcDbEntity
  8
0
  6
Continuous
 62
     2
100
AcDbMText
 10
588.646722
 20
360.626871
 30
0.0
 40
4.0
 41
4.714286
 46
0.0
 71
     1
 72
     1
  1
4
  7
TEXTSTYLE_3
 73
     1
 44
0.9
  0
MTEXT
  5
2A9
330
20C
100
AcDbEntity
  8
0
  6
Continuous
 62
     2
100
AcDbMText
 10
36.154891
 20
5.35876
 30
0.0
 40
4.0
 41
3.6
 46
0.0
 71
     1
 72
     1
  1
F
  7
TEXTSTYLE_2
 73
     1
 44
0.9
  0
MTEXT
  5
2AA
330
20C
100
AcDbEntity
  8
0
  6
Continuous
 62
     2
100
AcDbMText
 10
536.154891
 20
418.35876
 30
0.0
 40
4.0
 41
3.6
 46
0.0
 71
     1
 72
     1
  1
A
  7
TEXTSTYLE_2
 73
     1
 44
0.9
  0
MTEXT
  5
2AB
330
20C
100
AcDbEntity
  8
0
  6
Continuous
 62
     2
100
AcDbMText
 10
436.154891
 20
418.35876
 30
0.0
 40
4.0
 41
3.6
 46
0.0
 71
     1
 72
     1
  1
B
  7
TEXTSTYLE_2
 73
     1
 44
0.9
  0
MTEXT
  5
2AC
330
20C
100
AcDbEntity
  8
0
  6
Continuous
 62
     2
100
AcDbMText
 10
336.154891
 20
418.35876
 30
0.0
 40
4.0
 41
3.6
 46
0.0
 71
     1
 72
     1
  1
C
  7
TEXTSTYLE_2
 73
     1
 44
0.9
  0
MTEXT
  5
2AD
330
20C
100
AcDbEntity
  8
0
  6
Continuous
 62
     2
100
AcDbMText
 10
236.154891
 20
418.35876
 30
0.0
 40
4.0
 41
3.6
 46
0.0
 71
     1
 72
     1
  1
D
  7
TEXTSTYLE_2
 73
     1
 44
0.9
  0
MTEXT
  5
2AE
330
20C
100
AcDbEntity
  8
0
  6
Continuous
 62
     2
100
AcDbMText
 10
136.154891
 20
418.35876
 30
0.0
 40
4.0
 41
3.6
 46
0.0
 71
     1
 72
     1
  1
E
  7
TEXTSTYLE_2
 73
     1
 44
0.9
  0
MTEXT
  5
2AF
330
20C
100
AcDbEntity
  8
0
  6
Continuous
 62
     2
100
AcDbMText
 10
36.154891
 20
418.35876
 30
0.0
 40
4.0
 41
3.6
 46
0.0
 71
     1
 72
     1
  1
F
  7
TEXTSTYLE_2
 73
     1
 44
0.9
  0
MTEXT
  5
2B0
330
20C
100
AcDbEntity
  8
0
  6
Continuous
 62
     2
100
AcDbMText
 10
1.646722
 20
60.626871
 30
0.0
 40
4.0
 41
3.428571
 46
0.0
 71
     1
 72
     1
  1
1
  7
TEXTSTYLE_3
 73
     1
 44
0.9
  0
MTEXT
  5
2B1
330
20C
100
AcDbEntity
  8
0
  6
Continuous
 62
     2
100
AcDbMText
 10
1.646722
 20
160.626871
 30
0.0
 40
4.0
 41
4.714286
 46
0.0
 71
     1
 72
     1
  1
2
  7
TEXTSTYLE_3
 73
     1
 44
0.9
  0
MTEXT
  5
2B2
330
20C
100
AcDbEntity
  8
0
  6
Continuous
 62
     2
100
AcDbMText
 10
1.646722
 20
260.626871
 30
0.0
 40
4.0
 41
4.285714
 46
0.0
 71
     1
 72
     1
  1
3
  7
TEXTSTYLE_3
 73
     1
 44
0.9
  0
MTEXT
  5
2B3
330
20C
100
AcDbEntity
  8
0
  6
Continuous
 62
     2
100
AcDbMText
 10
1.646722
 20
360.626871
 30
0.0
 40
4.0
 41
4.714286
 46
0.0
 71
     1
 72
     1
  1
4
  7
TEXTSTYLE_3
 73
     1
 44
0.9
  0
ARC
  5
2B4
330
20C
100
AcDbEntity
  8
7_ALL_FEATURES
  6
Continuous
 62
     7
100
AcDbCircle
 10
153.86504
 20
284.979326
 30
0.0
 40
100.0
100
AcDbArc
 50
180.0
 51
360.0
  0
ARC
  5
2B5
330
20C
100
AcDbEntity
  8
7_ALL_FEATURES
  6
Continuous
 62
     7
100
AcDbCircle
 10
153.86504
 20
284.979326
 30
0.0
 40
100.0
100
AcDbArc
 50
0.0
 51
180.0
  0
ARC
  5
2B6
330
20C
100
AcDbEntity
  8
7_ALL_FEATURES
  6
Continuous
 62
     7
100
AcDbCircle
 10
153.86504
 20
284.979326
 30
0.0
 40
40.0
100
AcDbArc
 50
180.0
 51
360.0
  0
ARC
  5
2B7
330
20C
100
AcDbEntity
  8
7_ALL_FEATURES
  6
Continuous
 62
     7
100
AcDbCircle
 10
153.86504
 20
284.979326
 30
0.0
 40
40.0
100
AcDbArc
 50
0.0
 51
180.0
  0
ARC
  5
2B8
330
20C
100
AcDbEntity
  8
7_ALL_FEATURES
  6
Continuous
 62
     9
100
AcDbCircle
 10
153.86504
 20
284.979326
 30
0.0
 40
99.8855771405
100
AcDbArc
 50
0.0
 51
180.0
  0
ARC
  5
2B9
330
20C
100
AcDbEntity
  8
7_ALL_FEATURES
  6
Continuous
 62
     9
100
AcDbCircle
 10
153.86504
 20
284.979326
 30
0.0
 40
40.0332465026
100
AcDbArc
 50
180.0
 51
360.0
  0
ARC
  5
2BA
330
20C
100
AcDbEntity
  8
7_ALL_FEATURES
  6
Continuous
 62
     9
100
AcDbCircle
 10
153.86504
 20
284.979326
 30
0.0
 40
99.8855771405
100
AcDbArc
 50
180.0
 51
360.0
  0
ARC
  5
2BB
330
20C
100
AcDbEntity
  8
7_ALL_FEATURES
  6
Continuous
 62
     9
100
AcDbCircle
 10
153.86504
 20
284.979326
 30
0.0
 40
99.1358341468
100
AcDbArc
 50
180.0
 51
360.0
  0
ARC
  5
2BC
330
20C
100
AcDbEntity
  8
7_ALL_FEATURES
  6
Continuous
 62
     9
100
AcDbCircle
 10
153.86504
 20
284.979326
 30
0.0
 40
99.1358341468
100
AcDbArc
 50
0.0
 51
180.0
  0
ARC
  5
2BD
330
20C
100
AcDbEntity
  8
7_ALL_FEATURES
  6
Continuous
 62
     9
100
AcDbCircle
 10
153.86504
 20
284.979326
 30
0.0
 40
40.7829894963
100
AcDbArc
 50
180.0
 51
360.0
  0
ARC
  5
2BE
330
20C
100
AcDbEntity
  8
7_ALL_FEATURES
  6
Continuous
 62
     9
100
AcDbCircle
 10
153.86504
 20
284.979326
 30
0.0
 40
40.7829894963
100
AcDbArc
 50
0.0
 51
180.0
  0
ARC
  5
2BF
330
20C
100
AcDbEntity
  8
7_ALL_FEATURES
  6
Continuous
 62
     9
100
AcDbCircle
 10
153.86504
 20
284.979326
 30
0.0
 40
40.0332465026
100
AcDbArc
 50
0.0
 51
180.0
  0
ARC
  5
2C0
330
20C
100
AcDbEntity
  8
6_ALL_SURFS
  6
Continuous
 62
     7
100
AcDbCircle
 10
69.844229
 20
124.660283
 30
0.0
 40
0.75
100
AcDbArc
 50
90.0
 51
178.0
  0
LINE
  5
2C1
330
20C
100
AcDbEntity
  8
7_ALL_FEATURES
  6
Continuous
 62
     7
100
AcDbLine
 10
237.88506
 20
125.410283
 30
0.0
 11
237.305781
 21
125.410283
 31
0.0
  0
LINE
  5
2C2
330
20C
100
AcDbEntity
  8
7_ALL_FEATURES
  6
Continuous
 62
     7
100
AcDbLine
 10
237.305781
 20
125.410283
 30
0.0
 11
236.844229
 21
125.410283
 31
0.0
  0
LINE
  5
2C3
330
20C
100
AcDbEntity
  8
7_ALL_FEATURES
  6
Continuous
 62
     7
100
AcDbLine
 10
236.844229
 20
125.410283
 30
0.0
 11
228.665008
 21
125.410283
 31
0.0
  0
LINE
  5
2C4
330
20C
100
AcDbEntity
  8
7_ALL_FEATURES
  6
Continuous
 62
     7
100
AcDbLine
 10
228.665008
 20
125.410283
 30
0.0
 11
227.758542
 21
125.410283
 31
0.0
  0
ARC
  5
2C5
330
20C
100
AcDbEntity
  8
6_ALL_SURFS
  6
Continuous
 62
     7
100
AcDbCircle
 10
237.885852
 20
124.660283
 30
0.0
 40
0.75
100
AcDbArc
 50
2.0
 51
90.0
  0
LINE
  5
2C6
330
20C
100
AcDbEntity
  8
6_ALL_SURFS
  6
Continuous
 62
     7
100
AcDbLine
 10
237.305781
 20
125.410283
 30
0.0
 11
237.877883
 21
125.410283
 31
0.0
  0
LINE
  5
2C7
330
20C
100
AcDbEntity
  8
6_ALL_SURFS
  6
Continuous
 62
     7
100
AcDbLine
 10
227.758725
 20
125.410283
 30
0.0
 11
228.665008
 21
125.410283
 31
0.0
  0
LINE
  5
2C8
330
20C
100
AcDbEntity
  8
6_ALL_SURFS
  6
Continuous
 62
     7
100
AcDbLine
 10
228.665008
 20
125.410283
 30
0.0
 11
236.844229
 21
125.410283
 31
0.0
  0
LINE
  5
2C9
330
20C
100
AcDbEntity
  8
6_ALL_SURFS
  6
Continuous
 62
     7
100
AcDbLine
 10
236.844229
 20
125.410283
 30
0.0
 11
237.305781
 21
125.410283
 31
0.0
  0
LINE
  5
2CA
330
20C
100
AcDbEntity
  8
7_ALL_FEATURES
  6
Continuous
 62
     7
100
AcDbLine
 10
79.971173
 20
125.410283
 30
0.0
 11
79.065073
 21
125.410283
 31
0.0
  0
LINE
  5
2CB
330
20C
100
AcDbEntity
  8
7_ALL_FEATURES
  6
Continuous
 62
     7
100
AcDbLine
 10
79.065073
 20
125.410283
 30
0.0
 11
70.885852
 21
125.410283
 31
0.0
  0
LINE
  5
2CC
330
20C
100
AcDbEntity
  8
7_ALL_FEATURES
  6
Continuous
 62
     7
100
AcDbLine
 10
70.885852
 20
125.410283
 30
0.0
 11
69.845022
 21
125.410283
 31
0.0
  0
LINE
  5
2CD
330
20C
100
AcDbEntity
  8
6_ALL_SURFS
  6
Continuous
 62
     7
100
AcDbLine
 10
69.862452
 20
125.410283
 30
0.0
 11
70.855669
 21
125.410283
 31
0.0
  0
LINE
  5
2CE
330
20C
100
AcDbEntity
  8
6_ALL_SURFS
  6
Continuous
 62
     7
100
AcDbLine
 10
70.855669
 20
125.410283
 30
0.0
 11
70.885852
 21
125.410283
 31
0.0
  0
LINE
  5
2CF
330
20C
100
AcDbEntity
  8
6_ALL_SURFS
  6
Continuous
 62
     7
100
AcDbLine
 10
70.885852
 20
125.410283
 30
0.0
 11
79.065073
 21
125.410283
 31
0.0
  0
LINE
  5
2D0
330
20C
100
AcDbEntity
  8
6_ALL_SURFS
  6
Continuous
 62
     7
100
AcDbLine
 10
79.065073
 20
125.410283
 30
0.0
 11
79.971355
 21
125.410283
 31
0.0
  0
LINE
  5
2D1
330
20C
100
AcDbEntity
  8
6_ALL_SURFS
  6
Continuous
 62
     7
100
AcDbLine
 10
68.938374
 20
120.210283
 30
0.0
 11
69.094685
 21
124.686458
 31
0.0
  0
LINE
  5
2D2
330
20C
100
AcDbEntity
  8
6_ALL_SURFS
  6
Continuous
 62
     7
100
AcDbLine
 10
238.791707
 20
120.210283
 30
0.0
 11
238.635395
 21
124.686458
 31
0.0
  0
LINE
  5
2D3
330
20C
100
AcDbEntity
  8
6_ALL_SURFS
  6
Continuous
 62
     7
100
AcDbLine
 10
225.828793
 20
125.410283
 30
0.0
 11
226.424073
 21
125.410283
 31
0.0
  0
LINE
  5
2D4
330
20C
100
AcDbEntity
  8
6_ALL_SURFS
  6
Continuous
 62
     7
100
AcDbLine
 10
156.178855
 20
125.410283
 30
0.0
 11
155.161969
 21
125.410283
 31
0.0
  0
LINE
  5
2D5
330
20C
100
AcDbEntity
  8
6_ALL_SURFS
  6
Continuous
 62
     7
100
AcDbLine
 10
152.568156
 20
125.410283
 30
0.0
 11
151.550706
 21
125.410283
 31
0.0
  0
LINE
  5
2D6
330
20C
100
AcDbEntity
  8
7_ALL_FEATURES
  6
Continuous
 62
     7
100
AcDbLine
 10
227.758542
 20
125.410283
 30
0.0
 11
227.540366
 21
125.410283
 31
0.0
  0
LINE
  5
2D7
330
20C
100
AcDbEntity
  8
7_ALL_FEATURES
  6
Continuous
 62
     7
100
AcDbLine
 10
227.540366
 20
125.410283
 30
0.0
 11
226.581172
 21
125.410283
 31
0.0
  0
LINE
  5
2D8
330
20C
100
AcDbEntity
  8
7_ALL_FEATURES
  6
Continuous
 62
     7
100
AcDbLine
 10
226.581172
 20
125.410283
 30
0.0
 11
226.335443
 21
125.410283
 31
0.0
  0
LINE
  5
2D9
330
20C
100
AcDbEntity
  8
7_ALL_FEATURES
  6
Continuous
 62
     7
100
AcDbLine
 10
226.335443
 20
125.410283
 30
0.0
 11
225.943886
 21
125.410283
 31
0.0
  0
LINE
  5
2DA
330
20C
100
AcDbEntity
  8
7_ALL_FEATURES
  6
Continuous
 62
     7
100
AcDbLine
 10
225.943886
 20
125.410283
 30
0.0
 11
225.444735
 21
125.410283
 31
0.0
  0
LINE
  5
2DB
330
20C
100
AcDbEntity
  8
7_ALL_FEATURES
  6
Continuous
 62
     7
100
AcDbLine
 10
156.178855
 20
125.410283
 30
0.0
 11
155.06853
 21
125.410283
 31
0.0
  0
LINE
  5
2DC
330
20C
100
AcDbEntity
  8
7_ALL_FEATURES
  6
Continuous
 62
     7
100
AcDbLine
 10
155.06853
 20
125.410283
 30
0.0
 11
152.661551
 21
125.410283
 31
0.0
  0
LINE
  5
2DD
330
20C
100
AcDbEntity
  8
7_ALL_FEATURES
  6
Continuous
 62
     7
100
AcDbLine
 10
152.661551
 20
125.410283
 30
0.0
 11
151.550706
 21
125.410283
 31
0.0
  0
LINE
  5
2DE
330
20C
100
AcDbEntity
  8
7_ALL_FEATURES
  6
Continuous
 62
     7
100
AcDbLine
 10
82.285503
 20
125.410283
 30
0.0
 11
81.394638
 21
125.410283
 31
0.0
  0
LINE
  5
2DF
330
20C
100
AcDbEntity
  8
7_ALL_FEATURES
  6
Continuous
 62
     7
100
AcDbLine
 10
81.394638
 20
125.410283
 30
0.0
 11
80.884809
 21
125.410283
 31
0.0
  0
LINE
  5
2E0
330
20C
100
AcDbEntity
  8
7_ALL_FEATURES
  6
Continuous
 62
     7
100
AcDbLine
 10
80.884809
 20
125.410283
 30
0.0
 11
80.190465
 21
125.410283
 31
0.0
  0
LINE
  5
2E1
330
20C
100
AcDbEntity
  8
7_ALL_FEATURES
  6
Continuous
 62
     7
100
AcDbLine
 10
80.190465
 20
125.410283
 30
0.0
 11
79.971173
 21
125.410283
 31
0.0
  0
LINE
  5
2E2
330
20C
100
AcDbEntity
  8
6_ALL_SURFS
  6
Continuous
 62
     7
100
AcDbLine
 10
81.394638
 20
125.410283
 30
0.0
 11
81.901288
 21
125.410283
 31
0.0
  0
SPLINE
  5
2E3
330
20C
100
AcDbEntity
  8
7_ALL_FEATURES
  6
Continuous
 62
     7
100
AcDbSpline
 70
     0
 71
     3
 72
    11
 73
     7
 74
     0
 42
0.000000001
 43
0.0000001
 40
0.0
 40
0.0
 40
0.0
 40
0.0
 40
0.2730673694
 40
0.5
 40
0.7269326306
 40
1.0
 40
1.0
 40
1.0
 40
1.0
 10
253.7506174678
 20
115.8406502445
 30
0.0
 10
253.7477897327
 20
115.7326633964
 30
0.0
 10
253.7225306334
 20
115.5327376026
 30
0.0
 10
253.570704951
 20
115.275335609
 30
0.0
 10
253.3094168296
 20
115.1302999521
 30
0.0
 10
253.1088983392
 20
115.1102829557
 30
0.0
 10
253.0008744741
 20
115.1102829557
 30
0.0
  0
SPLINE
  5
2E4
330
20C
100
AcDbEntity
  8
7_ALL_FEATURES
  6
Continuous
 62
     7
100
AcDbSpline
 70
     0
 71
     3
 72
    11
 73
     7
 74
     0
 42
0.000000001
 43
0.0000001
 40
0.0
 40
0.0
 40
0.0
 40
0.0
 40
0.2730673694
 40
0.5
 40
0.7269326306
 40
1.0
 40
1.0
 40
1.0
 40
1.0
 10
53.9794631867
 20
115.8406502445
 30
0.0
 10
53.9822909218
 20
115.7326633964
 30
0.0
 10
54.0075500211
 20
115.5327376026
 30
0.0
 10
54.1593757035
 20
115.275335609
 30
0.0
 10
54.4206638249
 20
115.1302999521
 30
0.0
 10
54.6211823153
 20
115.1102829557
 30
0.0
 10
54.7292061804
 20
115.1102829557
 30
0.0
  0
LINE
  5
2E5
330
20C
100
AcDbEntity
  8
7_ALL_FEATURES
  6
Continuous
 62
     7
100
AcDbLine
 10
54.729206
 20
115.110283
 30
0.0
 11
113.082051
 21
115.110283
 31
0.0
  0
LINE
  5
2E6
330
20C
100
AcDbEntity
  8
7_ALL_FEATURES
  6
Continuous
 62
     7
100
AcDbLine
 10
113.082051
 20
115.110283
 30
0.0
 11
194.64803
 21
115.110283
 31
0.0
  0
LINE
  5
2E7
330
20C
100
AcDbEntity
  8
7_ALL_FEATURES
  6
Continuous
 62
     7
100
AcDbLine
 10
194.64803
 20
115.110283
 30
0.0
 11
253.000874
 21
115.110283
 31
0.0
  0
LINE
  5
2E8
330
20C
100
AcDbEntity
  8
7_ALL_FEATURES
  6
Continuous
 62
     7
100
AcDbLine
 10
253.750617
 20
115.84065
 30
0.0
 11
253.86504
 21
120.210283
 31
0.0
  0
LINE
  5
2E9
330
20C
100
AcDbEntity
  8
7_ALL_FEATURES
  6
Continuous
 62
     7
100
AcDbLine
 10
53.979463
 20
115.84065
 30
0.0
 11
53.86504
 21
120.210283
 31
0.0
  0
LINE
  5
2EA
330
20C
100
AcDbEntity
  8
7_ALL_FEATURES
  6
Continuous
 62
     7
100
AcDbLine
 10
53.86504
 20
120.210283
 30
0.0
 11
55.128017
 21
120.210283
 31
0.0
  0
LINE
  5
2EB
330
20C
100
AcDbEntity
  8
7_ALL_FEATURES
  6
Continuous
 62
     7
100
AcDbLine
 10
55.128017
 20
120.210283
 30
0.0
 11
252.602063
 21
120.210283
 31
0.0
  0
LINE
  5
2EC
330
20C
100
AcDbEntity
  8
7_ALL_FEATURES
  6
Continuous
 62
     7
100
AcDbLine
 10
252.602063
 20
120.210283
 30
0.0
 11
253.86504
 21
120.210283
 31
0.0
  0
LINE
  5
2ED
330
20C
100
AcDbEntity
  8
7_ALL_FEATURES
  6
Continuous
 62
     7
100
AcDbLine
 10
225.444735
 20
125.410283
 30
0.0
 11
222.582204
 21
125.410283
 31
0.0
  0
LINE
  5
2EE
330
20C
100
AcDbEntity
  8
7_ALL_FEATURES
  6
Continuous
 62
     7
100
AcDbLine
 10
222.582204
 20
125.410283
 30
0.0
 11
222.37584
 21
125.410283
 31
0.0
  0
LINE
  5
2EF
330
20C
100
AcDbEntity
  8
7_ALL_FEATURES
  6
Continuous
 62
     7
100
AcDbLine
 10
222.37584
 20
125.410283
 30
0.0
 11
221.420414
 21
125.410283
 31
0.0
  0
LINE
  5
2F0
330
20C
100
AcDbEntity
  8
7_ALL_FEATURES
  6
Continuous
 62
     7
100
AcDbLine
 10
221.420414
 20
125.410283
 30
0.0
 11
220.449433
 21
125.410283
 31
0.0
  0
LINE
  5
2F1
330
20C
100
AcDbEntity
  8
7_ALL_FEATURES
  6
Continuous
 62
     7
100
AcDbLine
 10
220.449433
 20
125.410283
 30
0.0
 11
217.324334
 21
125.410283
 31
0.0
  0
LINE
  5
2F2
330
20C
100
AcDbEntity
  8
7_ALL_FEATURES
  6
Continuous
 62
     7
100
AcDbLine
 10
217.324334
 20
125.410283
 30
0.0
 11
160.154208
 21
125.410283
 31
0.0
  0
LINE
  5
2F3
330
20C
100
AcDbEntity
  8
7_ALL_FEATURES
  6
Continuous
 62
     7
100
AcDbLine
 10
160.154208
 20
125.410283
 30
0.0
 11
159.082165
 21
125.410283
 31
0.0
  0
LINE
  5
2F4
330
20C
100
AcDbEntity
  8
7_ALL_FEATURES
  6
Continuous
 62
     7
100
AcDbLine
 10
159.082165
 20
125.410283
 30
0.0
 11
158.838026
 21
125.410283
 31
0.0
  0
LINE
  5
2F5
330
20C
100
AcDbEntity
  8
7_ALL_FEATURES
  6
Continuous
 62
     7
100
AcDbLine
 10
158.838026
 20
125.410283
 30
0.0
 11
158.75775
 21
125.410283
 31
0.0
  0
LINE
  5
2F6
330
20C
100
AcDbEntity
  8
7_ALL_FEATURES
  6
Continuous
 62
     7
100
AcDbLine
 10
158.75775
 20
125.410283
 30
0.0
 11
158.047885
 21
125.410283
 31
0.0
  0
LINE
  5
2F7
330
20C
100
AcDbEntity
  8
7_ALL_FEATURES
  6
Continuous
 62
     7
100
AcDbLine
 10
158.047885
 20
125.410283
 30
0.0
 11
156.178855
 21
125.410283
 31
0.0
  0
LINE
  5
2F8
330
20C
100
AcDbEntity
  8
7_ALL_FEATURES
  6
Continuous
 62
     7
100
AcDbLine
 10
151.550706
 20
125.410283
 30
0.0
 11
149.682196
 21
125.410283
 31
0.0
  0
LINE
  5
2F9
330
20C
100
AcDbEntity
  8
7_ALL_FEATURES
  6
Continuous
 62
     7
100
AcDbLine
 10
149.682196
 20
125.410283
 30
0.0
 11
148.972331
 21
125.410283
 31
0.0
  0
LINE
  5
2FA
330
20C
100
AcDbEntity
  8
7_ALL_FEATURES
  6
Continuous
 62
     7
100
AcDbLine
 10
148.972331
 20
125.410283
 30
0.0
 11
148.892055
 21
125.410283
 31
0.0
  0
LINE
  5
2FB
330
20C
100
AcDbEntity
  8
7_ALL_FEATURES
  6
Continuous
 62
     7
100
AcDbLine
 10
148.892055
 20
125.410283
 30
0.0
 11
148.647885
 21
125.410283
 31
0.0
  0
LINE
  5
2FC
330
20C
100
AcDbEntity
  8
7_ALL_FEATURES
  6
Continuous
 62
     7
100
AcDbLine
 10
148.647885
 20
125.410283
 30
0.0
 11
147.575873
 21
125.410283
 31
0.0
  0
LINE
  5
2FD
330
20C
100
AcDbEntity
  8
7_ALL_FEATURES
  6
Continuous
 62
     7
100
AcDbLine
 10
147.575873
 20
125.410283
 30
0.0
 11
90.405758
 21
125.410283
 31
0.0
  0
LINE
  5
2FE
330
20C
100
AcDbEntity
  8
7_ALL_FEATURES
  6
Continuous
 62
     7
100
AcDbLine
 10
90.405758
 20
125.410283
 30
0.0
 11
87.280648
 21
125.410283
 31
0.0
  0
LINE
  5
2FF
330
20C
100
AcDbEntity
  8
7_ALL_FEATURES
  6
Continuous
 62
     7
100
AcDbLine
 10
87.280648
 20
125.410283
 30
0.0
 11
86.309667
 21
125.410283
 31
0.0
  0
LINE
  5
300
330
20C
100
AcDbEntity
  8
7_ALL_FEATURES
  6
Continuous
 62
     7
100
AcDbLine
 10
86.309667
 20
125.410283
 30
0.0
 11
85.35424
 21
125.410283
 31
0.0
  0
LINE
  5
301
330
20C
100
AcDbEntity
  8
7_ALL_FEATURES
  6
Continuous
 62
     7
100
AcDbLine
 10
85.35424
 20
125.410283
 30
0.0
 11
85.147877
 21
125.410283
 31
0.0
  0
LINE
  5
302
330
20C
100
AcDbEntity
  8
7_ALL_FEATURES
  6
Continuous
 62
     7
100
AcDbLine
 10
85.147877
 20
125.410283
 30
0.0
 11
82.285503
 21
125.410283
 31
0.0
  0
SPLINE
  5
303
330
20C
100
AcDbEntity
  8
7_ALL_FEATURES
  6
Continuous
 62
     9
100
AcDbSpline
 70
     0
 71
     3
 72
    11
 73
     7
 74
     0
 42
0.000000001
 43
0.0000001
 40
0.0
 40
0.0
 40
0.0
 40
0.0
 40
0.1917858491
 40
0.4524573598
 40
0.7344444874
 40
1.0
 40
1.0
 40
1.0
 40
1.0
 10
228.0176446887
 20
124.9277326934
 30
0.0
 10
228.0479426307
 20
124.9274933004
 30
0.0
 10
228.1127369242
 20
124.8843244558
 30
0.0
 10
228.1952835807
 20
124.8066985215
 30
0.0
 10
228.291372226
 20
124.7223359468
 30
0.0
 10
228.3759757928
 20
124.6861272946
 30
0.0
 10
228.4179277262
 20
124.6864576689
 30
0.0
  0
SPLINE
  5
304
330
20C
100
AcDbEntity
  8
7_ALL_FEATURES
  6
Continuous
 62
     9
100
AcDbSpline
 70
     0
 71
     3
 72
     9
 73
     5
 74
     0
 42
0.000000001
 43
0.0000001
 40
0.0
 40
0.0
 40
0.0
 40
0.0
 40
0.2033737934
 40
1.0
 40
1.0
 40
1.0
 40
1.0
 10
228.0255838017
 20
124.6864575788
 30
0.0
 10
228.0521793126
 20
124.686125234
 30
0.0
 10
228.1829581411
 20
124.6850803384
 30
0.0
 10
228.3137441716
 20
124.6856725383
 30
0.0
 10
228.4179254096
 20
124.6864575782
 30
0.0
  0
ARC
  5
305
330
20C
100
AcDbEntity
  8
7_ALL_FEATURES
  6
Continuous
 62
     9
100
AcDbCircle
 10
226.394172
 20
173.523494
 30
0.0
 40
48.8380275131
100
AcDbArc
 50
269.634949
 51
270.36505
  0
SPLINE
  5
306
330
20C
100
AcDbEntity
  8
7_ALL_FEATURES
  6
Continuous
 62
     9
100
AcDbSpline
 70
     0
 71
     3
 72
    10
 73
     6
 74
     0
 42
0.000000001
 43
0.0000001
 40
0.0
 40
0.0
 40
0.0
 40
0.0
 40
0.220967721
 40
0.4729586535
 40
1.0
 40
1.0
 40
1.0
 40
1.0
 10
226.0830119492
 20
124.6864576678
 30
0.0
 10
226.131922962
 20
124.6860917262
 30
0.0
 10
226.2344534465
 20
124.7252916814
 30
0.0
 10
226.4177620737
 20
124.8416257798
 30
0.0
 10
226.5822229859
 20
124.9273586395
 30
0.0
 10
226.6988857949
 20
124.927732694
 30
0.0
  0
SPLINE
  5
307
330
20C
100
AcDbEntity
  8
7_ALL_FEATURES
  6
Continuous
 62
     9
100
AcDbSpline
 70
     0
 71
     3
 72
     9
 73
     5
 74
     0
 42
0.000000001
 43
0.0000001
 40
0.0
 40
0.0
 40
0.0
 40
0.0
 40
0.4969960905
 40
1.0
 40
1.0
 40
1.0
 40
1.0
 10
155.1837992325
 20
124.9277326934
 30
0.0
 10
155.3568215806
 20
124.9273297202
 30
0.0
 10
155.6914468229
 20
124.8102150483
 30
0.0
 10
156.0248429447
 20
124.6858011963
 30
0.0
 10
156.1999560767
 20
124.6864576689
 30
0.0
  0
ARC
  5
308
330
20C
100
AcDbEntity
  8
7_ALL_FEATURES
  6
Continuous
 62
     9
100
AcDbCircle
 10
155.692624
 20
263.574848
 30
0.0
 40
138.8893168503
100
AcDbArc
 50
269.790711
 51
270.209289
  0
ARC
  5
309
330
20C
100
AcDbEntity
  8
7_ALL_FEATURES
  6
Continuous
 62
     9
100
AcDbCircle
 10
152.037458
 20
265.28178
 30
0.0
 40
140.5962382613
100
AcDbArc
 50
269.793251
 51
270.206748
  0
SPLINE
  5
30A
330
20C
100
AcDbEntity
  8
7_ALL_FEATURES
  6
Continuous
 62
     9
100
AcDbSpline
 70
     0
 71
     3
 72
     9
 73
     5
 74
     0
 42
0.000000001
 43
0.0000001
 40
0.0
 40
0.0
 40
0.0
 40
0.0
 40
0.503004432
 40
1.0
 40
1.0
 40
1.0
 40
1.0
 10
151.5301245788
 20
124.6864576678
 30
0.0
 10
151.705237777
 20
124.6857711909
 30
0.0
 10
152.0386340773
 20
124.8102239538
 30
0.0
 10
152.3732592259
 20
124.9273414578
 30
0.0
 10
152.5462814184
 20
124.927732694
 30
0.0
  0
SPLINE
  5
30B
330
20C
100
AcDbEntity
  8
7_ALL_FEATURES
  6
Continuous
 62
     9
100
AcDbSpline
 70
     0
 71
     3
 72
    10
 73
     6
 74
     0
 42
0.000000001
 43
0.0000001
 40
0.0
 40
0.0
 40
0.0
 40
0.0
 40
0.5270420888
 40
0.779031532
 40
1.0
 40
1.0
 40
1.0
 40
1.0
 10
81.0311948711
 20
124.9277326934
 30
0.0
 10
81.1478577143
 20
124.9273474169
 30
0.0
 10
81.3123172963
 20
124.8416316702
 30
0.0
 10
81.4956284926
 20
124.7252863775
 30
0.0
 10
81.5981574217
 20
124.6861077167
 30
0.0
 10
81.6470686777
 20
124.6864576689
 30
0.0
  0
ARC
  5
30C
330
20C
100
AcDbEntity
  8
7_ALL_FEATURES
  6
Continuous
 62
     9
100
AcDbCircle
 10
81.33591
 20
180.637951
 30
0.0
 40
55.9523587808
100
AcDbArc
 50
269.681366
 51
270.318634
  0
SPLINE
  5
30D
330
20C
100
AcDbEntity
  8
7_ALL_FEATURES
  6
Continuous
 62
     9
100
AcDbSpline
 70
     0
 71
     3
 72
     9
 73
     5
 74
     0
 42
0.000000001
 43
0.0000001
 40
0.0
 40
0.0
 40
0.0
 40
0.0
 40
0.2959706186
 40
1.0
 40
1.0
 40
1.0
 40
1.0
 10
79.3121552449
 20
124.6864575782
 30
0.0
 10
79.350861627
 20
124.6861655445
 30
0.0
 10
79.481639719
 20
124.6853901924
 30
0.0
 10
79.6124300349
 20
124.6853056334
 30
0.0
 10
79.7044968527
 20
124.6864575764
 30
0.0
  0
SPLINE
  5
30E
330
20C
100
AcDbEntity
  8
7_ALL_FEATURES
  6
Continuous
 62
     9
100
AcDbSpline
 70
     0
 71
     3
 72
    11
 73
     7
 74
     0
 42
0.000000001
 43
0.0000001
 40
0.0
 40
0.0
 40
0.0
 40
0.0
 40
0.2655536724
 40
0.5475440731
 40
0.8082144863
 40
1.0
 40
1.0
 40
1.0
 40
1.0
 10
79.3121529568
 20
124.6864576678
 30
0.0
 10
79.3541045222
 20
124.6861121934
 30
0.0
 10
79.4387098334
 20
124.7223399588
 30
0.0
 10
79.5347963787
 20
124.8066985423
 30
0.0
 10
79.6173442505
 20
124.8843198224
 30
0.0
 10
79.6821379755
 20
124.9275002721
 30
0.0
 10
79.7124359507
 20
124.927732694
 30
0.0
  0
LINE
  5
30F
330
20C
100
AcDbEntity
  8
7_ALL_FEATURES
  6
Continuous
 62
     9
100
AcDbLine
 10
53.979463
 20
115.84065
 30
0.0
 11
113.831794
 21
115.84065
 31
0.0
  0
LINE
  5
310
330
20C
100
AcDbEntity
  8
7_ALL_FEATURES
  6
Continuous
 62
     9
100
AcDbLine
 10
113.831794
 20
115.84065
 30
0.0
 11
193.898287
 21
115.84065
 31
0.0
  0
LINE
  5
311
330
20C
100
AcDbEntity
  8
7_ALL_FEATURES
  6
Continuous
 62
     9
100
AcDbLine
 10
193.898287
 20
115.84065
 30
0.0
 11
253.750617
 21
115.84065
 31
0.0
  0
LINE
  5
312
330
20C
100
AcDbEntity
  8
7_ALL_FEATURES
  6
Continuous
 62
     9
100
AcDbLine
 10
69.094685
 20
124.686458
 30
0.0
 11
79.312155
 21
124.686458
 31
0.0
  0
LINE
  5
313
330
20C
100
AcDbEntity
  8
7_ALL_FEATURES
  6
Continuous
 62
     9
100
AcDbLine
 10
79.704497
 20
124.686459
 30
0.0
 11
79.557264
 21
120.210283
 31
0.0
  0
LINE
  5
314
330
20C
100
AcDbEntity
  8
7_ALL_FEATURES
  6
Continuous
 62
     9
100
AcDbLine
 10
79.712436
 20
124.927733
 30
0.0
 11
79.704497
 21
124.686459
 31
0.0
  0
LINE
  5
315
330
20C
100
AcDbEntity
  8
7_ALL_FEATURES
  6
Continuous
 62
     9
100
AcDbLine
 10
81.031195
 20
124.927733
 30
0.0
 11
79.712436
 21
124.927733
 31
0.0
  0
LINE
  5
316
330
20C
100
AcDbEntity
  8
7_ALL_FEATURES
  6
Continuous
 62
     9
100
AcDbLine
 10
81.024748
 20
124.686453
 30
0.0
 11
81.031195
 21
124.927733
 31
0.0
  0
LINE
  5
317
330
20C
100
AcDbEntity
  8
7_ALL_FEATURES
  6
Continuous
 62
     9
100
AcDbLine
 10
80.905063
 20
120.210283
 30
0.0
 11
81.024748
 21
124.686453
 31
0.0
  0
SPLINE
  5
318
330
20C
100
AcDbEntity
  8
7_ALL_FEATURES
  6
Continuous
 62
     9
100
AcDbSpline
 70
     0
 71
     3
 72
     9
 73
     5
 74
     0
 42
0.000000001
 43
0.0000001
 40
0.0
 40
0.0
 40
0.0
 40
0.0
 40
0.5076486294
 40
1.0
 40
1.0
 40
1.0
 40
1.0
 10
79.7124356753
 20
124.9277327041
 30
0.0
 10
79.7175218697
 20
125.0516893015
 30
0.0
 10
79.8175675303
 20
125.3035713218
 30
0.0
 10
80.0708710271
 20
125.4102945259
 30
0.0
 10
80.1911935324
 20
125.4102829534
 30
0.0
  0
SPLINE
  5
319
330
20C
100
AcDbEntity
  8
7_ALL_FEATURES
  6
Continuous
 62
     9
100
AcDbSpline
 70
     0
 71
     3
 72
     9
 73
     5
 74
     0
 42
0.000000001
 43
0.0000001
 40
0.0
 40
0.0
 40
0.0
 40
0.0
 40
0.2714255574
 40
1.0
 40
1.0
 40
1.0
 40
1.0
 10
81.0311946505
 20
124.9277327041
 30
0.0
 10
81.0315350574
 20
124.969839128
 30
0.0
 10
81.0496530285
 20
125.1232825206
 30
0.0
 10
81.1263620659
 20
125.2778932804
 30
0.0
 10
81.2164294615
 20
125.3461807278
 30
0.0
  0
SPLINE
  5
31A
330
20C
100
AcDbEntity
  8
7_ALL_FEATURES
  6
Continuous
 62
     9
100
AcDbSpline
 70
     0
 71
     3
 72
     9
 73
     5
 74
     0
 42
0.000000001
 43
0.0000001
 40
0.0
 40
0.0
 40
0.0
 40
0.0
 40
0.2667847235
 40
1.0
 40
1.0
 40
1.0
 40
1.0
 10
81.2164294615
 20
125.3461807278
 30
0.0
 10
81.2299760041
 20
125.356451468
 30
0.0
 10
81.2834870682
 20
125.3909952273
 30
0.0
 10
81.3479159737
 20
125.4102829557
 30
0.0
 10
81.3946375142
 20
125.4102829557
 30
0.0
  0
LINE
  5
31B
330
20C
100
AcDbEntity
  8
7_ALL_FEATURES
  6
Continuous
 62
     9
100
AcDbLine
 10
228.417925
 20
124.686458
 30
0.0
 11
238.635395
 21
124.686458
 31
0.0
  0
SPLINE
  5
31C
330
20C
100
AcDbEntity
  8
7_ALL_FEATURES
  6
Continuous
 62
     9
100
AcDbSpline
 70
     0
 71
     3
 72
    11
 73
     7
 74
     0
 42
0.000000001
 43
0.0000001
 40
0.0
 40
0.0
 40
0.0
 40
0.0
 40
0.2646439977
 40
0.5207020175
 40
0.7647176621
 40
1.0
 40
1.0
 40
1.0
 40
1.0
 10
228.4179254096
 20
124.6864575782
 30
0.0
 10
228.4180160763
 20
124.781317733
 30
0.0
 10
228.3763603073
 20
124.968459208
 30
0.0
 10
228.233091542
 20
125.207989894
 30
0.0
 10
228.0168484007
 20
125.3711564046
 30
0.0
 10
227.8430608812
 20
125.4102829557
 30
0.0
 10
227.7587252099
 20
125.4102829557
 30
0.0
  0
LINE
  5
31D
330
20C
100
AcDbEntity
  8
7_ALL_FEATURES
  6
Continuous
 62
     9
100
AcDbLine
 10
156.199956
 20
124.686458
 30
0.0
 11
157.548189
 21
124.686458
 31
0.0
  0
LINE
  5
31E
330
20C
100
AcDbEntity
  8
7_ALL_FEATURES
  6
Continuous
 62
     9
100
AcDbLine
 10
157.548189
 20
124.686458
 30
0.0
 11
159.291481
 21
124.686458
 31
0.0
  0
LINE
  5
31F
330
20C
100
AcDbEntity
  8
7_ALL_FEATURES
  6
Continuous
 62
     9
100
AcDbLine
 10
159.291481
 20
124.686458
 30
0.0
 11
159.581891
 21
124.686458
 31
0.0
  0
LINE
  5
320
330
20C
100
AcDbEntity
  8
7_ALL_FEATURES
  6
Continuous
 62
     9
100
AcDbLine
 10
159.581891
 20
124.686458
 30
0.0
 11
226.08301
 21
124.686458
 31
0.0
  0
SPLINE
  5
321
330
20C
100
AcDbEntity
  8
7_ALL_FEATURES
  6
Continuous
 62
     9
100
AcDbSpline
 70
     0
 71
     3
 72
    11
 73
     7
 74
     0
 42
0.000000001
 43
0.0000001
 40
0.0
 40
0.0
 40
0.0
 40
0.0
 40
0.2681401894
 40
0.525697658
 40
0.7683238656
 40
1.0
 40
1.0
 40
1.0
 40
1.0
 10
226.0830097327
 20
124.6864575782
 30
0.0
 10
226.0770062743
 20
124.7810023154
 30
0.0
 10
226.04596456
 20
124.9675293159
 30
0.0
 10
225.9044972021
 20
125.2067199362
 30
0.0
 10
225.6960479715
 20
125.3706446894
 30
0.0
 10
225.5263080194
 20
125.4102829557
 30
0.0
 10
225.4444557852
 20
125.4102829557
 30
0.0
  0
LINE
  5
322
330
20C
100
AcDbEntity
  8
7_ALL_FEATURES
  6
Continuous
 62
     9
100
AcDbLine
 10
152.544789
 20
124.686459
 30
0.0
 11
152.517242
 21
120.210283
 31
0.0
  0
LINE
  5
323
330
20C
100
AcDbEntity
  8
7_ALL_FEATURES
  6
Continuous
 62
     9
100
AcDbLine
 10
152.546281
 20
124.927733
 30
0.0
 11
152.544789
 21
124.686459
 31
0.0
  0
LINE
  5
324
330
20C
100
AcDbEntity
  8
7_ALL_FEATURES
  6
Continuous
 62
     9
100
AcDbLine
 10
155.183799
 20
124.927733
 30
0.0
 11
152.546281
 21
124.927733
 31
0.0
  0
LINE
  5
325
330
20C
100
AcDbEntity
  8
7_ALL_FEATURES
  6
Continuous
 62
     9
100
AcDbLine
 10
155.185292
 20
124.686453
 30
0.0
 11
155.183799
 21
124.927733
 31
0.0
  0
LINE
  5
326
330
20C
100
AcDbEntity
  8
7_ALL_FEATURES
  6
Continuous
 62
     9
100
AcDbLine
 10
155.21284
 20
120.210283
 30
0.0
 11
155.185292
 21
124.686453
 31
0.0
  0
SPLINE
  5
327
330
20C
100
AcDbEntity
  8
7_ALL_FEATURES
  6
Continuous
 62
     9
100
AcDbSpline
 70
     0
 71
     3
 72
    17
 73
    13
 74
     0
 42
0.000000001
 43
0.0000001
 40
0.0
 40
0.0
 40
0.0
 40
0.0
 40
0.3802698402
 40
0.551014114
 40
0.7000168867
 40
0.8221988041
 40
0.8717301569
 40
0.9128697714
 40
0.9455294173
 40
0.9691266703
 40
0.9835574828
 40
1.0
 40
1.0
 40
1.0
 40
1.0
 10
156.1999560041
 20
124.6864575782
 30
0.0
 10
156.2059935734
 20
124.7792224288
 30
0.0
 10
156.1980605681
 20
124.9141769046
 30
0.0
 10
156.195975683
 20
125.0851994916
 30
0.0
 10
156.1948816772
 20
125.1932976283
 30
0.0
 10
156.188893625
 20
125.271464364
 30
0.0
 10
156.1859589129
 20
125.32346554
 30
0.0
 10
156.1861441205
 20
125.3535563697
 30
0.0
 10
156.1896395073
 20
125.3775102939
 30
0.0
 10
156.1936397092
 20
125.39354917
 30
0.0
 10
156.1927855474
 20
125.4090186065
 30
0.0
 10
156.1833293203
 20
125.4102829557
 30
0.0
 10
156.1793097672
 20
125.4102829557
 30
0.0
  0
LINE
  5
328
330
20C
100
AcDbEntity
  8
7_ALL_FEATURES
  6
Continuous
 62
     9
100
AcDbLine
 10
81.647071
 20
124.686458
 30
0.0
 11
148.148189
 21
124.686458
 31
0.0
  0
LINE
  5
329
330
20C
100
AcDbEntity
  8
7_ALL_FEATURES
  6
Continuous
 62
     9
100
AcDbLine
 10
148.148189
 20
124.686458
 30
0.0
 11
148.450397
 21
124.686458
 31
0.0
  0
LINE
  5
32A
330
20C
100
AcDbEntity
  8
7_ALL_FEATURES
  6
Continuous
 62
     9
100
AcDbLine
 10
148.450397
 20
124.686458
 30
0.0
 11
150.181891
 21
124.686458
 31
0.0
  0
LINE
  5
32B
330
20C
100
AcDbEntity
  8
7_ALL_FEATURES
  6
Continuous
 62
     9
100
AcDbLine
 10
150.181891
 20
124.686458
 30
0.0
 11
151.530125
 21
124.686458
 31
0.0
  0
SPLINE
  5
32C
330
20C
100
AcDbEntity
  8
7_ALL_FEATURES
  6
Continuous
 62
     9
100
AcDbSpline
 70
     0
 71
     3
 72
    14
 73
    10
 74
     0
 42
0.000000001
 43
0.0000001
 40
0.0
 40
0.0
 40
0.0
 40
0.0
 40
0.3844964852
 40
0.5571509086
 40
0.707796401
 40
0.8311941296
 40
0.9229051387
 40
0.9791898369
 40
1.0
 40
1.0
 40
1.0
 40
1.0
 10
151.5301246504
 20
124.6864575782
 30
0.0
 10
151.5241986293
 20
124.7792296206
 30
0.0
 10
151.5315816269
 20
124.9142921755
 30
0.0
 10
151.5346909961
 20
125.0850419367
 30
0.0
 10
151.5359872359
 20
125.1937030359
 30
0.0
 10
151.5393492839
 20
125.2802671638
 30
0.0
 10
151.5434379403
 20
125.3500781806
 30
0.0
 10
151.5435118172
 20
125.383043021
 30
0.0
 10
151.5457395674
 20
125.4102829557
 30
0.0
 10
151.5507709164
 20
125.4102829557
 30
0.0
  0
SPLINE
  5
32D
330
20C
100
AcDbEntity
  8
7_ALL_FEATURES
  6
Continuous
 62
     9
100
AcDbSpline
 70
     0
 71
     3
 72
    11
 73
     7
 74
     0
 42
0.000000001
 43
0.0000001
 40
0.0
 40
0.0
 40
0.0
 40
0.0
 40
0.2681396839
 40
0.5256976159
 40
0.7683203836
 40
1.0
 40
1.0
 40
1.0
 40
1.0
 10
81.6470709218
 20
124.6864575782
 30
0.0
 10
81.6531337209
 20
124.7809984447
 30
0.0
 10
81.6840872892
 20
124.9675319469
 30
0.0
 10
81.825590569
 20
125.2067172499
 30
0.0
 10
82.0340282783
 20
125.3706471692
 30
0.0
 10
82.2037713382
 20
125.4102829557
 30
0.0
 10
82.2856248845
 20
125.4102829557
 30
0.0
  0
SPLINE
  5
32E
330
20C
100
AcDbEntity
  8
7_ALL_FEATURES
  6
Continuous
 62
     9
100
AcDbSpline
 70
     0
 71
     3
 72
    11
 73
     7
 74
     0
 42
0.000000001
 43
0.0000001
 40
0.0
 40
0.0
 40
0.0
 40
0.0
 40
0.2646437394
 40
0.5207012462
 40
0.7647193386
 40
1.0
 40
1.0
 40
1.0
 40
1.0
 10
79.3121552449
 20
124.6864575782
 30
0.0
 10
79.312119328
 20
124.7813177174
 30
0.0
 10
79.3536949006
 20
124.9684588457
 30
0.0
 10
79.4969936952
 20
125.2079915329
 30
0.0
 10
79.7132315161
 20
125.3711549696
 30
0.0
 10
79.8870203522
 20
125.4102829557
 30
0.0
 10
79.9713554585
 20
125.4102829557
 30
0.0
  0
SPLINE
  5
32F
330
20C
100
AcDbEntity
  8
7_ALL_FEATURES
  6
Continuous
 62
     9
100
AcDbSpline
 70
     0
 71
     3
 72
    12
 73
     8
 74
     0
 42
0.000000001
 43
0.0000001
 40
0.0
 40
0.0
 40
0.0
 40
0.0
 40
0.3633970607
 40
0.6733136087
 40
0.7946451062
 40
0.8879992907
 40
1.0
 40
1.0
 40
1.0
 40
1.0
 10
152.546281352
 20
124.9277327041
 30
0.0
 10
152.5483626274
 20
124.989686829
 30
0.0
 10
152.553068284
 20
125.1046336601
 30
0.0
 10
152.5717183456
 20
125.2388577949
 30
0.0
 10
152.5974304734
 20
125.3257916337
 30
0.0
 10
152.6149402068
 20
125.3761603226
 30
0.0
 10
152.6424454884
 20
125.4102829557
 30
0.0
 10
152.661550817
 20
125.4102829557
 30
0.0
  0
SPLINE
  5
330
330
20C
100
AcDbEntity
  8
7_ALL_FEATURES
  6
Continuous
 62
     9
100
AcDbSpline
 70
     0
 71
     3
 72
    12
 73
     8
 74
     0
 42
0.000000001
 43
0.0000001
 40
0.0
 40
0.0
 40
0.0
 40
0.0
 40
0.3634089814
 40
0.6733319563
 40
0.7946700299
 40
0.8880849755
 40
1.0
 40
1.0
 40
1.0
 40
1.0
 10
155.1837993025
 20
124.9277327041
 30
0.0
 10
155.1817748335
 20
124.9896886424
 30
0.0
 10
155.1770140835
 20
125.1046380759
 30
0.0
 10
155.1583624461
 20
125.2388464271
 30
0.0
 10
155.1326965899
 20
125.3258167154
 30
0.0
 10
155.1150552642
 20
125.376113711
 30
0.0
 10
155.0876199014
 20
125.4102829557
 30
0.0
 10
155.0685298365
 20
125.4102829557
 30
0.0
  0
LINE
  5
331
330
20C
100
AcDbEntity
  8
7_ALL_FEATURES
  6
Continuous
 62
     9
100
AcDbLine
 10
79.312155
 20
124.686458
 30
0.0
 11
79.167477
 21
120.210283
 31
0.0
  0
LINE
  5
332
330
20C
100
AcDbEntity
  8
7_ALL_FEATURES
  6
Continuous
 62
     9
100
AcDbLine
 10
151.530125
 20
124.686458
 30
0.0
 11
151.51068
 21
120.210283
 31
0.0
  0
LINE
  5
333
330
20C
100
AcDbEntity
  8
7_ALL_FEATURES
  6
Continuous
 62
     9
100
AcDbLine
 10
81.521837
 20
120.210283
 30
0.0
 11
81.647071
 21
124.686458
 31
0.0
  0
LINE
  5
334
330
20C
100
AcDbEntity
  8
7_ALL_FEATURES
  6
Continuous
 62
     9
100
AcDbLine
 10
226.08301
 20
124.686458
 30
0.0
 11
226.208243
 21
120.210283
 31
0.0
  0
LINE
  5
335
330
20C
100
AcDbEntity
  8
7_ALL_FEATURES
  6
Continuous
 62
     9
100
AcDbLine
 10
156.219401
 20
120.210283
 30
0.0
 11
156.199956
 21
124.686458
 31
0.0
  0
LINE
  5
336
330
20C
100
AcDbEntity
  8
7_ALL_FEATURES
  6
Continuous
 62
     9
100
AcDbLine
 10
228.562604
 20
120.210283
 30
0.0
 11
228.417925
 21
124.686458
 31
0.0
  0
LINE
  5
337
330
20C
100
AcDbEntity
  8
7_ALL_FEATURES
  6
Continuous
 62
     9
100
AcDbLine
 10
226.705332
 20
124.686459
 30
0.0
 11
226.825018
 21
120.210283
 31
0.0
  0
LINE
  5
338
330
20C
100
AcDbEntity
  8
7_ALL_FEATURES
  6
Continuous
 62
     9
100
AcDbLine
 10
226.698886
 20
124.927733
 30
0.0
 11
226.705332
 21
124.686459
 31
0.0
  0
LINE
  5
339
330
20C
100
AcDbEntity
  8
7_ALL_FEATURES
  6
Continuous
 62
     9
100
AcDbLine
 10
228.017645
 20
124.927733
 30
0.0
 11
226.698886
 21
124.927733
 31
0.0
  0
LINE
  5
33A
330
20C
100
AcDbEntity
  8
7_ALL_FEATURES
  6
Continuous
 62
     9
100
AcDbLine
 10
228.025584
 20
124.686453
 30
0.0
 11
228.017645
 21
124.927733
 31
0.0
  0
LINE
  5
33B
330
20C
100
AcDbEntity
  8
7_ALL_FEATURES
  6
Continuous
 62
     9
100
AcDbLine
 10
228.172817
 20
120.210283
 30
0.0
 11
228.025584
 21
124.686453
 31
0.0
  0
SPLINE
  5
33C
330
20C
100
AcDbEntity
  8
7_ALL_FEATURES
  6
Continuous
 62
     9
100
AcDbSpline
 70
     0
 71
     3
 72
     9
 73
     5
 74
     0
 42
0.000000001
 43
0.0000001
 40
0.0
 40
0.0
 40
0.0
 40
0.0
 40
0.2714135374
 40
1.0
 40
1.0
 40
1.0
 40
1.0
 10
226.698886004
 20
124.9277327041
 30
0.0
 10
226.6985728129
 20
124.9698382165
 30
0.0
 10
226.6804373154
 20
125.1232844263
 30
0.0
 10
226.6037492094
 20
125.2779272228
 30
0.0
 10
226.5136513241
 20
125.3461808247
 30
0.0
  0
SPLINE
  5
33D
330
20C
100
AcDbEntity
  8
7_ALL_FEATURES
  6
Continuous
 62
     9
100
AcDbSpline
 70
     0
 71
     3
 72
     9
 73
     5
 74
     0
 42
0.000000001
 43
0.0000001
 40
0.0
 40
0.0
 40
0.0
 40
0.0
 40
0.2669912871
 40
1.0
 40
1.0
 40
1.0
 40
1.0
 10
226.5136513241
 20
125.3461808247
 30
0.0
 10
226.5000905613
 20
125.3564537729
 30
0.0
 10
226.4465598356
 20
125.3909598971
 30
0.0
 10
226.382150157
 20
125.4102829557
 30
0.0
 10
226.3354431396
 20
125.4102829557
 30
0.0
  0
SPLINE
  5
33E
330
20C
100
AcDbEntity
  8
7_ALL_FEATURES
  6
Continuous
 62
     9
100
AcDbSpline
 70
     0
 71
     3
 72
     9
 73
     5
 74
     0
 42
0.000000001
 43
0.0000001
 40
0.0
 40
0.0
 40
0.0
 40
0.0
 40
0.5076649505
 40
1.0
 40
1.0
 40
1.0
 40
1.0
 10
228.0176449792
 20
124.9277327041
 30
0.0
 10
228.0125922312
 20
125.051694919
 30
0.0
 10
227.9124712417
 20
125.3035636119
 30
0.0
 10
227.659193542
 20
125.4102976265
 30
0.0
 10
227.5388747759
 20
125.4102829521
 30
0.0
  0
LINE
  5
33F
330
20C
100
AcDbEntity
  8
7_ALL_FEATURES
  6
Continuous
 62
     7
100
AcDbLine
 10
357.191866
 20
125.410283
 30
0.0
 11
356.814812
 21
125.410283
 31
0.0
  0
SPLINE
  5
340
330
20C
100
AcDbEntity
  8
7_ALL_FEATURES
  6
Continuous
 62
     7
100
AcDbSpline
 70
     0
 71
     3
 72
     8
 73
     4
 74
     0
 42
0.000000001
 43
0.0000001
 40
0.0
 40
0.0
 40
0.0
 40
0.0
 40
1.0
 40
1.0
 40
1.0
 40
1.0
 10
525.597267287
 20
125.283501957
 30
0.0
 10
525.4765482464
 20
125.3643762091
 30
0.0
 10
525.325499607
 20
125.4102829557
 30
0.0
 10
525.1801939587
 20
125.4102829557
 30
0.0
  0
LINE
  5
341
330
20C
100
AcDbEntity
  8
7_ALL_FEATURES
  6
Continuous
 62
     7
100
AcDbLine
 10
525.392745
 20
125.410283
 30
0.0
 11
525.325222
 21
125.410283
 31
0.0
  0
LINE
  5
342
330
20C
100
AcDbEntity
  8
7_ALL_FEATURES
  6
Continuous
 62
     7
100
AcDbLine
 10
525.325222
 20
125.410283
 30
0.0
 11
525.180367
 21
125.410283
 31
0.0
  0
LWPOLYLINE
  5
343
330
20C
100
AcDbEntity
  8
7_ALL_FEATURES
  6
Continuous
 62
     7
100
AcDbPolyline
 90
        3
 70
     0
 43
0.0
 10
358.45193
 20
125.410286
 10
358.445053
 20
125.410287
 10
358.448244
 20
125.41028
  0
LWPOLYLINE
  5
344
330
20C
100
AcDbEntity
  8
7_ALL_FEATURES
  6
Continuous
 62
     7
100
AcDbPolyline
 90
        3
 70
     0
 43
0.0
 10
358.452355
 20
125.410284
 10
358.445319
 20
125.410288
 10
358.448251
 20
125.41028
  0
LINE
  5
345
330
20C
100
AcDbEntity
  8
7_ALL_FEATURES
  6
Continuous
 62
     7
100
AcDbLine
 10
342.055426
 20
115.110283
 30
0.0
 11
400.408985
 21
115.110283
 31
0.0
  0
LINE
  5
346
330
20C
100
AcDbEntity
  8
7_ALL_FEATURES
  6
Continuous
 62
     7
100
AcDbLine
 10
400.408985
 20
115.110283
 30
0.0
 11
402.404332
 21
115.110283
 31
0.0
  0
LINE
  5
347
330
20C
100
AcDbEntity
  8
7_ALL_FEATURES
  6
Continuous
 62
     7
100
AcDbLine
 10
402.404332
 20
115.110283
 30
0.0
 11
441.19126
 21
115.110283
 31
0.0
  0
LINE
  5
348
330
20C
100
AcDbEntity
  8
7_ALL_FEATURES
  6
Continuous
 62
     7
100
AcDbLine
 10
342.056235
 20
115.110283
 30
0.0
 11
400.408985
 21
115.110283
 31
0.0
  0
LINE
  5
349
330
20C
100
AcDbEntity
  8
7_ALL_FEATURES
  6
Continuous
 62
     7
100
AcDbLine
 10
400.408985
 20
115.110283
 30
0.0
 11
401.728959
 21
115.110283
 31
0.0
  0
LINE
  5
34A
330
20C
100
AcDbEntity
  8
7_ALL_FEATURES
  6
Continuous
 62
     7
100
AcDbLine
 10
401.728959
 20
115.110283
 30
0.0
 11
402.404332
 21
115.110283
 31
0.0
  0
LINE
  5
34B
330
20C
100
AcDbEntity
  8
7_ALL_FEATURES
  6
Continuous
 62
     7
100
AcDbLine
 10
402.404332
 20
115.110283
 30
0.0
 11
441.19126
 21
115.110283
 31
0.0
  0
SPLINE
  5
34C
330
20C
100
AcDbEntity
  8
7_ALL_FEATURES
  6
Continuous
 62
     7
100
AcDbSpline
 70
     0
 71
     3
 72
    11
 73
     7
 74
     0
 42
0.000000001
 43
0.0000001
 40
0.0
 40
0.0
 40
0.0
 40
0.0
 40
0.2730673694
 40
0.5
 40
0.7269326306
 40
1.0
 40
1.0
 40
1.0
 40
1.0
 10
342.0554261784
 20
115.1102829557
 30
0.0
 10
341.9474023133
 20
115.1102829557
 30
0.0
 10
341.7468838229
 20
115.1302999521
 30
0.0
 10
341.4855957015
 20
115.275335609
 30
0.0
 10
341.333770019
 20
115.5327376026
 30
0.0
 10
341.3085109198
 20
115.7326633964
 30
0.0
 10
341.3056831847
 20
115.8406502445
 30
0.0
  0
LINE
  5
34D
330
20C
100
AcDbEntity
  8
7_ALL_FEATURES
  6
Continuous
 62
     7
100
AcDbLine
 10
535.475041
 20
115.110283
 30
0.0
 11
540.326286
 21
115.110283
 31
0.0
  0
LINE
  5
34E
330
20C
100
AcDbEntity
  8
7_ALL_FEATURES
  6
Continuous
 62
     7
100
AcDbLine
 10
441.19126
 20
115.110283
 30
0.0
 11
479.978188
 21
115.110283
 31
0.0
  0
LINE
  5
34F
330
20C
100
AcDbEntity
  8
7_ALL_FEATURES
  6
Continuous
 62
     7
100
AcDbLine
 10
479.978188
 20
115.110283
 30
0.0
 11
480.653562
 21
115.110283
 31
0.0
  0
LINE
  5
350
330
20C
100
AcDbEntity
  8
7_ALL_FEATURES
  6
Continuous
 62
     7
100
AcDbLine
 10
480.653562
 20
115.110283
 30
0.0
 11
481.973535
 21
115.110283
 31
0.0
  0
LINE
  5
351
330
20C
100
AcDbEntity
  8
7_ALL_FEATURES
  6
Continuous
 62
     7
100
AcDbLine
 10
481.973535
 20
115.110283
 30
0.0
 11
535.475041
 21
115.110283
 31
0.0
  0
LINE
  5
352
330
20C
100
AcDbEntity
  8
7_ALL_FEATURES
  6
Continuous
 62
     7
100
AcDbLine
 10
535.475041
 20
115.110283
 30
0.0
 11
540.326286
 21
115.110283
 31
0.0
  0
LINE
  5
353
330
20C
100
AcDbEntity
  8
7_ALL_FEATURES
  6
Continuous
 62
     7
100
AcDbLine
 10
441.19126
 20
115.110283
 30
0.0
 11
479.978188
 21
115.110283
 31
0.0
  0
LINE
  5
354
330
20C
100
AcDbEntity
  8
7_ALL_FEATURES
  6
Continuous
 62
     7
100
AcDbLine
 10
479.978188
 20
115.110283
 30
0.0
 11
535.475041
 21
115.110283
 31
0.0
  0
SPLINE
  5
355
330
20C
100
AcDbEntity
  8
7_ALL_FEATURES
  6
Continuous
 62
     7
100
AcDbSpline
 70
     0
 71
     3
 72
    11
 73
     7
 74
     0
 42
0.000000001
 43
0.0000001
 40
0.0
 40
0.0
 40
0.0
 40
0.0
 40
0.2730673694
 40
0.5
 40
0.7269326306
 40
1.0
 40
1.0
 40
1.0
 40
1.0
 10
540.327094472
 20
115.1102829557
 30
0.0
 10
540.4351183371
 20
115.1102829557
 30
0.0
 10
540.6356368275
 20
115.1302999521
 30
0.0
 10
540.896924949
 20
115.275335609
 30
0.0
 10
541.0487506314
 20
115.5327376026
 30
0.0
 10
541.0740097306
 20
115.7326633964
 30
0.0
 10
541.0768374658
 20
115.8406502445
 30
0.0
  0
LINE
  5
356
330
20C
100
AcDbEntity
  8
7_ALL_FEATURES
  6
Continuous
 62
     7
100
AcDbLine
 10
525.180367
 20
125.410283
 30
0.0
 11
524.011023
 21
125.410283
 31
0.0
  0
LINE
  5
357
330
20C
100
AcDbEntity
  8
7_ALL_FEATURES
  6
Continuous
 62
     7
100
AcDbLine
 10
524.011023
 20
125.410283
 30
0.0
 11
523.93816
 21
125.410283
 31
0.0
  0
LINE
  5
358
330
20C
100
AcDbEntity
  8
7_ALL_FEATURES
  6
Continuous
 62
     7
100
AcDbLine
 10
523.93816
 20
125.410283
 30
0.0
 11
523.917868
 21
125.410283
 31
0.0
  0
LINE
  5
359
330
20C
100
AcDbEntity
  8
7_ALL_FEATURES
  6
Continuous
 62
     7
100
AcDbLine
 10
523.917868
 20
125.410283
 30
0.0
 11
522.068641
 21
125.410283
 31
0.0
  0
LINE
  5
35A
330
20C
100
AcDbEntity
  8
7_ALL_FEATURES
  6
Continuous
 62
     7
100
AcDbLine
 10
522.068641
 20
125.410283
 30
0.0
 11
520.49126
 21
125.410283
 31
0.0
  0
LINE
  5
35B
330
20C
100
AcDbEntity
  8
7_ALL_FEATURES
  6
Continuous
 62
     7
100
AcDbLine
 10
520.49126
 20
125.410283
 30
0.0
 11
516.746749
 21
125.410283
 31
0.0
  0
LINE
  5
35C
330
20C
100
AcDbEntity
  8
7_ALL_FEATURES
  6
Continuous
 62
     7
100
AcDbLine
 10
516.746749
 20
125.410283
 30
0.0
 11
516.308416
 21
125.410283
 31
0.0
  0
LINE
  5
35D
330
20C
100
AcDbEntity
  8
7_ALL_FEATURES
  6
Continuous
 62
     7
100
AcDbLine
 10
516.308416
 20
125.410283
 30
0.0
 11
515.274951
 21
125.410283
 31
0.0
  0
LINE
  5
35E
330
20C
100
AcDbEntity
  8
7_ALL_FEATURES
  6
Continuous
 62
     7
100
AcDbLine
 10
515.274951
 20
125.410283
 30
0.0
 11
488.008094
 21
125.410283
 31
0.0
  0
LINE
  5
35F
330
20C
100
AcDbEntity
  8
7_ALL_FEATURES
  6
Continuous
 62
     7
100
AcDbLine
 10
488.008094
 20
125.410283
 30
0.0
 11
485.936682
 21
125.410283
 31
0.0
  0
LINE
  5
360
330
20C
100
AcDbEntity
  8
7_ALL_FEATURES
  6
Continuous
 62
     7
100
AcDbLine
 10
485.936682
 20
125.410283
 30
0.0
 11
485.190089
 21
125.410283
 31
0.0
  0
LINE
  5
361
330
20C
100
AcDbEntity
  8
6_ALL_SURFS
  6
Continuous
 62
     7
100
AcDbLine
 10
525.010974
 20
125.410283
 30
0.0
 11
525.180194
 21
125.410283
 31
0.0
  0
LINE
  5
362
330
20C
100
AcDbEntity
  8
6_ALL_SURFS
  6
Continuous
 62
     7
100
AcDbLine
 10
485.189943
 20
125.410283
 30
0.0
 11
485.936682
 21
125.410283
 31
0.0
  0
LINE
  5
363
330
20C
100
AcDbEntity
  8
6_ALL_SURFS
  6
Continuous
 62
     7
100
AcDbLine
 10
485.936682
 20
125.410283
 30
0.0
 11
488.008094
 21
125.410283
 31
0.0
  0
LINE
  5
364
330
20C
100
AcDbEntity
  8
6_ALL_SURFS
  6
Continuous
 62
     7
100
AcDbLine
 10
488.008094
 20
125.410283
 30
0.0
 11
521.867662
 21
125.410283
 31
0.0
  0
LINE
  5
365
330
20C
100
AcDbEntity
  8
6_ALL_SURFS
  6
Continuous
 62
     7
100
AcDbLine
 10
521.867662
 20
125.410283
 30
0.0
 11
522.068641
 21
125.410283
 31
0.0
  0
LINE
  5
366
330
20C
100
AcDbEntity
  8
6_ALL_SURFS
  6
Continuous
 62
     7
100
AcDbLine
 10
522.068641
 20
125.410283
 30
0.0
 11
523.917868
 21
125.410283
 31
0.0
  0
LINE
  5
367
330
20C
100
AcDbEntity
  8
6_ALL_SURFS
  6
Continuous
 62
     7
100
AcDbLine
 10
523.917868
 20
125.410283
 30
0.0
 11
523.93816
 21
125.410283
 31
0.0
  0
LINE
  5
368
330
20C
100
AcDbEntity
  8
6_ALL_SURFS
  6
Continuous
 62
     7
100
AcDbLine
 10
523.93816
 20
125.410283
 30
0.0
 11
525.010974
 21
125.410283
 31
0.0
  0
LINE
  5
369
330
20C
100
AcDbEntity
  8
7_ALL_FEATURES
  6
Continuous
 62
     7
100
AcDbLine
 10
401.200589
 20
125.410283
 30
0.0
 11
400.05143
 21
125.410283
 31
0.0
  0
LINE
  5
36A
330
20C
100
AcDbEntity
  8
7_ALL_FEATURES
  6
Continuous
 62
     7
100
AcDbLine
 10
400.05143
 20
125.410283
 30
0.0
 11
397.960784
 21
125.410283
 31
0.0
  0
LINE
  5
36B
330
20C
100
AcDbEntity
  8
7_ALL_FEATURES
  6
Continuous
 62
     7
100
AcDbLine
 10
397.960784
 20
125.410283
 30
0.0
 11
397.313789
 21
125.410283
 31
0.0
  0
LINE
  5
36C
330
20C
100
AcDbEntity
  8
7_ALL_FEATURES
  6
Continuous
 62
     7
100
AcDbLine
 10
397.313789
 20
125.410283
 30
0.0
 11
397.192957
 21
125.410283
 31
0.0
  0
LINE
  5
36D
330
20C
100
AcDbEntity
  8
7_ALL_FEATURES
  6
Continuous
 62
     7
100
AcDbLine
 10
357.202276
 20
125.410283
 30
0.0
 11
357.191866
 21
125.410283
 31
0.0
  0
LINE
  5
36E
330
20C
100
AcDbEntity
  8
7_ALL_FEATURES
  6
Continuous
 62
     7
100
AcDbLine
 10
356.814812
 20
125.410283
 30
0.0
 11
356.674113
 21
125.410283
 31
0.0
  0
LINE
  5
36F
330
20C
100
AcDbEntity
  8
7_ALL_FEATURES
  6
Continuous
 62
     7
100
AcDbLine
 10
357.057298
 20
125.410283
 30
0.0
 11
357.159835
 21
125.410283
 31
0.0
  0
LINE
  5
370
330
20C
100
AcDbEntity
  8
7_ALL_FEATURES
  6
Continuous
 62
     7
100
AcDbLine
 10
525.567708
 20
125.410283
 30
0.0
 11
525.692775
 21
125.410283
 31
0.0
  0
LINE
  5
371
330
20C
100
AcDbEntity
  8
7_ALL_FEATURES
  6
Continuous
 62
     7
100
AcDbLine
 10
525.692775
 20
125.410283
 30
0.0
 11
525.708407
 21
125.410283
 31
0.0
  0
LINE
  5
372
330
20C
100
AcDbEntity
  8
7_ALL_FEATURES
  6
Continuous
 62
     7
100
AcDbLine
 10
525.567708
 20
125.410283
 30
0.0
 11
525.460244
 21
125.410283
 31
0.0
  0
LINE
  5
373
330
20C
100
AcDbEntity
  8
7_ALL_FEATURES
  6
Continuous
 62
     7
100
AcDbLine
 10
525.460244
 20
125.410283
 30
0.0
 11
525.392745
 21
125.410283
 31
0.0
  0
LINE
  5
374
330
20C
100
AcDbEntity
  8
7_ALL_FEATURES
  6
Continuous
 62
     7
100
AcDbLine
 10
485.190089
 20
125.410283
 30
0.0
 11
484.64354
 21
125.410283
 31
0.0
  0
LINE
  5
375
330
20C
100
AcDbEntity
  8
7_ALL_FEATURES
  6
Continuous
 62
     7
100
AcDbLine
 10
484.64354
 20
125.410283
 30
0.0
 11
484.421737
 21
125.410283
 31
0.0
  0
LINE
  5
376
330
20C
100
AcDbEntity
  8
7_ALL_FEATURES
  6
Continuous
 62
     7
100
AcDbLine
 10
484.421737
 20
125.410283
 30
0.0
 11
482.333484
 21
125.410283
 31
0.0
  0
LINE
  5
377
330
20C
100
AcDbEntity
  8
7_ALL_FEATURES
  6
Continuous
 62
     7
100
AcDbLine
 10
482.333484
 20
125.410283
 30
0.0
 11
481.181542
 21
125.410283
 31
0.0
  0
LINE
  5
378
330
20C
100
AcDbEntity
  8
7_ALL_FEATURES
  6
Continuous
 62
     7
100
AcDbLine
 10
525.708407
 20
125.410283
 30
0.0
 11
525.597267
 21
125.410283
 31
0.0
  0
LINE
  5
379
330
20C
100
AcDbEntity
  8
7_ALL_FEATURES
  6
Continuous
 62
     7
100
AcDbLine
 10
525.597267
 20
125.410283
 30
0.0
 11
525.567708
 21
125.410283
 31
0.0
  0
ARC
  5
37A
330
20C
100
AcDbEntity
  8
6_ALL_SURFS
  6
Continuous
 62
     7
100
AcDbCircle
 10
525.708416
 20
124.910283
 30
0.0
 40
0.5
100
AcDbArc
 50
2.0
 51
31.333333
  0
ARC
  5
37B
330
20C
100
AcDbEntity
  8
6_ALL_SURFS
  6
Continuous
 62
     7
100
AcDbCircle
 10
525.708416
 20
124.910283
 30
0.0
 40
0.5
100
AcDbArc
 50
31.333333
 51
90.0
  0
LINE
  5
37C
330
20C
100
AcDbEntity
  8
6_ALL_SURFS
  6
Continuous
 62
     7
100
AcDbLine
 10
526.372848
 20
120.210283
 30
0.0
 11
526.208111
 21
124.927733
 31
0.0
  0
LINE
  5
37D
330
20C
100
AcDbEntity
  8
6_ALL_SURFS
  6
Continuous
 62
     7
100
AcDbLine
 10
485.437426
 20
125.410283
 30
0.0
 11
484.589172
 21
125.410283
 31
0.0
  0
LINE
  5
37E
330
20C
100
AcDbEntity
  8
6_ALL_SURFS
  6
Continuous
 62
     7
100
AcDbLine
 10
485.019367
 20
125.410283
 30
0.0
 11
484.906197
 21
125.410283
 31
0.0
  0
LINE
  5
37F
330
20C
100
AcDbEntity
  8
6_ALL_SURFS
  6
Continuous
 62
     7
100
AcDbLine
 10
481.181542
 20
125.410283
 30
0.0
 11
481.238865
 21
125.410283
 31
0.0
  0
LINE
  5
380
330
20C
100
AcDbEntity
  8
6_ALL_SURFS
  6
Continuous
 62
     7
100
AcDbLine
 10
397.358416
 20
125.410283
 30
0.0
 11
397.363154
 21
125.410283
 31
0.0
  0
LINE
  5
381
330
20C
100
AcDbEntity
  8
6_ALL_SURFS
  6
Continuous
 62
     7
100
AcDbLine
 10
401.143656
 20
125.410283
 30
0.0
 11
401.200589
 21
125.410283
 31
0.0
  0
LINE
  5
382
330
20C
100
AcDbEntity
  8
7_ALL_FEATURES
  6
Continuous
 62
     7
100
AcDbLine
 10
356.674113
 20
125.410283
 30
0.0
 11
356.814812
 21
125.410283
 31
0.0
  0
ARC
  5
383
330
20C
100
AcDbEntity
  8
6_ALL_SURFS
  6
Continuous
 62
     7
100
AcDbCircle
 10
356.674105
 20
124.910283
 30
0.0
 40
0.5
100
AcDbArc
 50
148.666667
 51
178.0
  0
ARC
  5
384
330
20C
100
AcDbEntity
  8
6_ALL_SURFS
  6
Continuous
 62
     7
100
AcDbCircle
 10
356.674105
 20
124.910283
 30
0.0
 40
0.5
100
AcDbArc
 50
90.0
 51
148.666667
  0
LINE
  5
385
330
20C
100
AcDbEntity
  8
6_ALL_SURFS
  6
Continuous
 62
     7
100
AcDbLine
 10
356.009672
 20
120.210283
 30
0.0
 11
356.174409
 21
124.927733
 31
0.0
  0
LINE
  5
386
330
20C
100
AcDbEntity
  8
7_ALL_FEATURES
  6
Continuous
 62
     7
100
AcDbLine
 10
341.305683
 20
115.84065
 30
0.0
 11
341.19126
 21
120.210283
 31
0.0
  0
LINE
  5
387
330
20C
100
AcDbEntity
  8
7_ALL_FEATURES
  6
Continuous
 62
     7
100
AcDbLine
 10
541.076837
 20
115.84065
 30
0.0
 11
541.19126
 21
120.210283
 31
0.0
  0
LINE
  5
388
330
20C
100
AcDbEntity
  8
7_ALL_FEATURES
  6
Continuous
 62
     7
100
AcDbLine
 10
441.19126
 20
120.210283
 30
0.0
 11
539.927479
 21
120.210283
 31
0.0
  0
LINE
  5
389
330
20C
100
AcDbEntity
  8
7_ALL_FEATURES
  6
Continuous
 62
     7
100
AcDbLine
 10
539.927479
 20
120.210283
 30
0.0
 11
541.189516
 21
120.210283
 31
0.0
  0
LINE
  5
38A
330
20C
100
AcDbEntity
  8
7_ALL_FEATURES
  6
Continuous
 62
     7
100
AcDbLine
 10
441.19126
 20
120.210283
 30
0.0
 11
342.454237
 21
120.210283
 31
0.0
  0
LINE
  5
38B
330
20C
100
AcDbEntity
  8
7_ALL_FEATURES
  6
Continuous
 62
     7
100
AcDbLine
 10
342.454237
 20
120.210283
 30
0.0
 11
341.193005
 21
120.210283
 31
0.0
  0
LINE
  5
38C
330
20C
100
AcDbEntity
  8
7_ALL_FEATURES
  6
Continuous
 62
     7
100
AcDbLine
 10
397.192957
 20
125.410283
 30
0.0
 11
396.550571
 21
125.410283
 31
0.0
  0
LINE
  5
38D
330
20C
100
AcDbEntity
  8
7_ALL_FEATURES
  6
Continuous
 62
     7
100
AcDbLine
 10
396.550571
 20
125.410283
 30
0.0
 11
396.445838
 21
125.410283
 31
0.0
  0
LINE
  5
38E
330
20C
100
AcDbEntity
  8
7_ALL_FEATURES
  6
Continuous
 62
     7
100
AcDbLine
 10
396.445838
 20
125.410283
 30
0.0
 11
394.374426
 21
125.410283
 31
0.0
  0
LINE
  5
38F
330
20C
100
AcDbEntity
  8
7_ALL_FEATURES
  6
Continuous
 62
     7
100
AcDbLine
 10
394.374426
 20
125.410283
 30
0.0
 11
367.10757
 21
125.410283
 31
0.0
  0
LINE
  5
390
330
20C
100
AcDbEntity
  8
7_ALL_FEATURES
  6
Continuous
 62
     7
100
AcDbLine
 10
367.10757
 20
125.410283
 30
0.0
 11
366.074105
 21
125.410283
 31
0.0
  0
LINE
  5
391
330
20C
100
AcDbEntity
  8
7_ALL_FEATURES
  6
Continuous
 62
     7
100
AcDbLine
 10
366.074105
 20
125.410283
 30
0.0
 11
365.624574
 21
125.410283
 31
0.0
  0
LINE
  5
392
330
20C
100
AcDbEntity
  8
7_ALL_FEATURES
  6
Continuous
 62
     7
100
AcDbLine
 10
365.624574
 20
125.410283
 30
0.0
 11
361.89126
 21
125.410283
 31
0.0
  0
LINE
  5
393
330
20C
100
AcDbEntity
  8
7_ALL_FEATURES
  6
Continuous
 62
     7
100
AcDbLine
 10
361.89126
 20
125.410283
 30
0.0
 11
360.31388
 21
125.410283
 31
0.0
  0
LINE
  5
394
330
20C
100
AcDbEntity
  8
7_ALL_FEATURES
  6
Continuous
 62
     7
100
AcDbLine
 10
360.31388
 20
125.410283
 30
0.0
 11
358.464795
 21
125.410283
 31
0.0
  0
LINE
  5
395
330
20C
100
AcDbEntity
  8
7_ALL_FEATURES
  6
Continuous
 62
     7
100
AcDbLine
 10
358.464795
 20
125.410283
 30
0.0
 11
358.447776
 21
125.410283
 31
0.0
  0
LINE
  5
396
330
20C
100
AcDbEntity
  8
7_ALL_FEATURES
  6
Continuous
 62
     7
100
AcDbLine
 10
358.447776
 20
125.410283
 30
0.0
 11
358.365053
 21
125.410283
 31
0.0
  0
LINE
  5
397
330
20C
100
AcDbEntity
  8
7_ALL_FEATURES
  6
Continuous
 62
     7
100
AcDbLine
 10
358.365053
 20
125.410283
 30
0.0
 11
357.202276
 21
125.410283
 31
0.0
  0
LINE
  5
398
330
20C
100
AcDbEntity
  8
7_ALL_FEATURES
  6
Continuous
 62
     7
100
AcDbLine
 10
481.181542
 20
125.410283
 30
0.0
 11
477.826509
 21
125.410283
 31
0.0
  0
LINE
  5
399
330
20C
100
AcDbEntity
  8
7_ALL_FEATURES
  6
Continuous
 62
     7
100
AcDbLine
 10
477.826509
 20
125.410283
 30
0.0
 11
477.323219
 21
125.410283
 31
0.0
  0
LINE
  5
39A
330
20C
100
AcDbEntity
  8
7_ALL_FEATURES
  6
Continuous
 62
     7
100
AcDbLine
 10
477.323219
 20
125.410283
 30
0.0
 11
477.114937
 21
125.410283
 31
0.0
  0
LINE
  5
39B
330
20C
100
AcDbEntity
  8
7_ALL_FEATURES
  6
Continuous
 62
     7
100
AcDbLine
 10
477.114937
 20
125.410283
 30
0.0
 11
405.267584
 21
125.410283
 31
0.0
  0
LINE
  5
39C
330
20C
100
AcDbEntity
  8
7_ALL_FEATURES
  6
Continuous
 62
     7
100
AcDbLine
 10
405.267584
 20
125.410283
 30
0.0
 11
405.059302
 21
125.410283
 31
0.0
  0
LINE
  5
39D
330
20C
100
AcDbEntity
  8
7_ALL_FEATURES
  6
Continuous
 62
     7
100
AcDbLine
 10
405.059302
 20
125.410283
 30
0.0
 11
404.556012
 21
125.410283
 31
0.0
  0
LINE
  5
39E
330
20C
100
AcDbEntity
  8
7_ALL_FEATURES
  6
Continuous
 62
     7
100
AcDbLine
 10
404.556012
 20
125.410283
 30
0.0
 11
401.200589
 21
125.410283
 31
0.0
  0
LINE
  5
39F
330
20C
100
AcDbEntity
  8
7_ALL_FEATURES
  6
Continuous
 62
     9
100
AcDbLine
 10
526.208111
 20
124.927733
 30
0.0
 11
526.053927
 21
124.927733
 31
0.0
  0
SPLINE
  5
3A0
330
20C
100
AcDbEntity
  8
7_ALL_FEATURES
  6
Continuous
 62
     9
100
AcDbSpline
 70
     0
 71
     3
 72
    13
 73
     9
 74
     0
 42
0.000000001
 43
0.0000001
 40
0.0
 40
0.0
 40
0.0
 40
0.0
 40
0.2293699448
 40
0.5447165014
 40
0.7070708576
 40
0.8513382919
 40
0.9570802628
 40
1.0
 40
1.0
 40
1.0
 40
1.0
 10
356.3285939558
 20
124.9277326934
 30
0.0
 10
356.3500850709
 20
124.9275214848
 30
0.0
 10
356.3922400145
 20
124.8837032791
 30
0.0
 10
356.4127995571
 20
124.8227354964
 30
0.0
 10
356.4303097825
 20
124.767827288
 30
0.0
 10
356.4388250453
 20
124.7274560136
 30
0.0
 10
356.4478307033
 20
124.7075450094
 30
0.0
 10
356.4490801486
 20
124.6859176688
 30
0.0
 10
356.4530653444
 20
124.6864576689
 30
0.0
  0
SPLINE
  5
3A1
330
20C
100
AcDbEntity
  8
7_ALL_FEATURES
  6
Continuous
 62
     9
100
AcDbSpline
 70
     0
 71
     3
 72
     9
 73
     5
 74
     0
 42
0.000000001
 43
0.0000001
 40
0.0
 40
0.0
 40
0.0
 40
0.0
 40
0.6958469782
 40
1.0
 40
1.0
 40
1.0
 40
1.0
 10
356.3202885111
 20
124.6864575788
 30
0.0
 10
356.3510863386
 20
124.6859784432
 30
0.0
 10
356.3952344099
 20
124.6863687262
 30
0.0
 10
356.4397163377
 20
124.6847273343
 30
0.0
 10
356.4530679775
 20
124.6864575782
 30
0.0
  0
SPLINE
  5
3A2
330
20C
100
AcDbEntity
  8
7_ALL_FEATURES
  6
Continuous
 62
     9
100
AcDbSpline
 70
     0
 71
     3
 72
     9
 73
     5
 74
     0
 42
0.000000001
 43
0.0000001
 40
0.0
 40
0.0
 40
0.0
 40
0.0
 40
0.3041513329
 40
1.0
 40
1.0
 40
1.0
 40
1.0
 10
525.9294526729
 20
124.6864575782
 30
0.0
 10
525.9428039652
 20
124.6847252049
 30
0.0
 10
525.9872864431
 20
124.686368535
 30
0.0
 10
526.0314342378
 20
124.6859778293
 30
0.0
 10
526.0622321397
 20
124.6864575681
 30
0.0
  0
SPLINE
  5
3A3
330
20C
100
AcDbEntity
  8
7_ALL_FEATURES
  6
Continuous
 62
     9
100
AcDbSpline
 70
     0
 71
     3
 72
    13
 73
     9
 74
     0
 42
0.000000001
 43
0.0000001
 40
0.0
 40
0.0
 40
0.0
 40
0.0
 40
0.0429368213
 40
0.1486536967
 40
0.292916633
 40
0.4552833261
 40
0.7706293108
 40
1.0
 40
1.0
 40
1.0
 40
1.0
 10
525.9294552736
 20
124.6864576678
 30
0.0
 10
525.9334387084
 20
124.6858933469
 30
0.0
 10
525.9346899722
 20
124.7075749365
 30
0.0
 10
525.9436965712
 20
124.7274412303
 30
0.0
 10
525.9522115819
 20
124.7678301919
 30
0.0
 10
525.9697197595
 20
124.8227324267
 30
0.0
 10
525.9902812394
 20
124.8836995919
 30
0.0
 10
526.0324355003
 20
124.9275276372
 30
0.0
 10
526.05392671
 20
124.927732694
 30
0.0
  0
SPLINE
  5
3A4
330
20C
100
AcDbEntity
  8
7_ALL_FEATURES
  6
Continuous
 62
     9
100
AcDbSpline
 70
     0
 71
     3
 72
     9
 73
     5
 74
     0
 42
0.000000001
 43
0.0000001
 40
0.0
 40
0.0
 40
0.0
 40
0.0
 40
0.4819051591
 40
1.0
 40
1.0
 40
1.0
 40
1.0
 10
484.7646722234
 20
124.9277326934
 30
0.0
 10
484.9016363658
 20
124.927305966
 30
0.0
 10
485.1670332916
 20
124.802929078
 30
0.0
 10
485.4352051275
 20
124.6858099109
 30
0.0
 10
485.5824541703
 20
124.6864576689
 30
0.0
  0
ARC
  5
3A5
330
20C
100
AcDbEntity
  8
7_ALL_FEATURES
  6
Continuous
 62
     9
100
AcDbCircle
 10
485.176285
 20
210.681805
 30
0.0
 40
85.9963068895
100
AcDbArc
 50
269.729386
 51
270.270614
  0
ARC
  5
3A6
330
20C
100
AcDbEntity
  8
7_ALL_FEATURES
  6
Continuous
 62
     9
100
AcDbCircle
 10
482.010818
 20
243.232331
 30
0.0
 40
118.5468150568
100
AcDbArc
 50
269.771604
 51
270.228396
  0
SPLINE
  5
3A7
330
20C
100
AcDbEntity
  8
7_ALL_FEATURES
  6
Continuous
 62
     9
100
AcDbSpline
 70
     0
 71
     3
 72
     9
 73
     5
 74
     0
 42
0.000000001
 43
0.0000001
 40
0.0
 40
0.0
 40
0.0
 40
0.0
 40
0.489823835
 40
1.0
 40
1.0
 40
1.0
 40
1.0
 10
481.5382614455
 20
124.6864576678
 30
0.0
 10
481.6970766784
 20
124.6857500725
 30
0.0
 10
482.0037942676
 20
124.8166016249
 30
0.0
 10
482.3150995411
 20
124.9273527769
 30
0.0
 10
482.480514801
 20
124.927732694
 30
0.0
  0
ARC
  5
3A8
330
20C
100
AcDbEntity
  8
7_ALL_FEATURES
  6
Continuous
 62
     9
100
AcDbCircle
 10
397.206237
 20
217.621759
 30
0.0
 40
92.9361893519
100
AcDbArc
 50
269.749594
 51
270.250405
  0
SPLINE
  5
3A9
330
20C
100
AcDbEntity
  8
7_ALL_FEATURES
  6
Continuous
 62
     9
100
AcDbSpline
 70
     0
 71
     3
 72
     9
 73
     5
 74
     0
 42
0.000000001
 43
0.0000001
 40
0.0
 40
0.0
 40
0.0
 40
0.0
 40
0.5180954459
 40
1.0
 40
1.0
 40
1.0
 40
1.0
 10
396.8000664971
 20
124.6864576678
 30
0.0
 10
396.9473155741
 20
124.6857803017
 30
0.0
 10
397.2154876215
 20
124.8029361487
 30
0.0
 10
397.4808844118
 20
124.9273183951
 30
0.0
 10
397.6178484163
 20
124.927732694
 30
0.0
  0
SPLINE
  5
3AA
330
20C
100
AcDbEntity
  8
7_ALL_FEATURES
  6
Continuous
 62
     9
100
AcDbSpline
 70
     0
 71
     3
 72
     9
 73
     5
 74
     0
 42
0.000000001
 43
0.0000001
 40
0.0
 40
0.0
 40
0.0
 40
0.0
 40
0.5101766167
 40
1.0
 40
1.0
 40
1.0
 40
1.0
 10
399.9020058539
 20
124.9277326934
 30
0.0
 10
400.0674212303
 20
124.9273413787
 30
0.0
 10
400.3787265924
 20
124.8165909355
 30
0.0
 10
400.6854439716
 20
124.6857809987
 30
0.0
 10
400.8442591895
 20
124.6864576689
 30
0.0
  0
ARC
  5
3AB
330
20C
100
AcDbEntity
  8
7_ALL_FEATURES
  6
Continuous
 62
     9
100
AcDbCircle
 10
400.371703
 20
248.552921
 30
0.0
 40
123.8673646005
100
AcDbArc
 50
269.781415
 51
270.218585
  0
LINE
  5
3AC
330
20C
100
AcDbEntity
  8
7_ALL_FEATURES
  6
Continuous
 62
     9
100
AcDbLine
 10
441.19126
 20
115.84065
 30
0.0
 11
541.076837
 21
115.84065
 31
0.0
  0
LINE
  5
3AD
330
20C
100
AcDbEntity
  8
7_ALL_FEATURES
  6
Continuous
 62
     9
100
AcDbLine
 10
356.174409
 20
124.927733
 30
0.0
 11
356.328594
 21
124.927733
 31
0.0
  0
LINE
  5
3AE
330
20C
100
AcDbEntity
  8
7_ALL_FEATURES
  6
Continuous
 62
     9
100
AcDbLine
 10
341.305683
 20
115.84065
 30
0.0
 11
441.19126
 21
115.84065
 31
0.0
  0
LINE
  5
3AF
330
20C
100
AcDbEntity
  8
7_ALL_FEATURES
  6
Continuous
 62
     9
100
AcDbLine
 10
356.320288
 20
124.686453
 30
0.0
 11
356.328594
 21
124.927733
 31
0.0
  0
LINE
  5
3B0
330
20C
100
AcDbEntity
  8
7_ALL_FEATURES
  6
Continuous
 62
     9
100
AcDbLine
 10
356.166183
 20
120.210283
 30
0.0
 11
356.320288
 21
124.686453
 31
0.0
  0
SPLINE
  5
3B1
330
20C
100
AcDbEntity
  8
7_ALL_FEATURES
  6
Continuous
 62
     9
100
AcDbSpline
 70
     0
 71
     3
 72
     9
 73
     5
 74
     0
 42
0.000000001
 43
0.0000001
 40
0.0
 40
0.0
 40
0.0
 40
0.0
 40
0.5046545332
 40
1.0
 40
1.0
 40
1.0
 40
1.0
 10
356.3285936607
 20
124.9277327041
 30
0.0
 10
356.3320979517
 20
125.0519958088
 30
0.0
 10
356.4375925017
 20
125.3055308489
 30
0.0
 10
356.6927928018
 20
125.4102829557
 30
0.0
 10
356.8148121883
 20
125.4102829557
 30
0.0
  0
LINE
  5
3B2
330
20C
100
AcDbEntity
  8
7_ALL_FEATURES
  6
Continuous
 62
     9
100
AcDbLine
 10
397.612403
 20
124.686459
 30
0.0
 11
397.511494
 21
120.210283
 31
0.0
  0
LINE
  5
3B3
330
20C
100
AcDbEntity
  8
7_ALL_FEATURES
  6
Continuous
 62
     9
100
AcDbLine
 10
397.617848
 20
124.927733
 30
0.0
 11
397.612403
 21
124.686459
 31
0.0
  0
LINE
  5
3B4
330
20C
100
AcDbEntity
  8
7_ALL_FEATURES
  6
Continuous
 62
     9
100
AcDbLine
 10
399.902006
 20
124.927733
 30
0.0
 11
397.617848
 21
124.927733
 31
0.0
  0
LINE
  5
3B5
330
20C
100
AcDbEntity
  8
7_ALL_FEATURES
  6
Continuous
 62
     9
100
AcDbLine
 10
399.899146
 20
124.686453
 30
0.0
 11
399.902006
 21
124.927733
 31
0.0
  0
LINE
  5
3B6
330
20C
100
AcDbEntity
  8
7_ALL_FEATURES
  6
Continuous
 62
     9
100
AcDbLine
 10
399.845951
 20
120.210283
 30
0.0
 11
399.899146
 21
124.686453
 31
0.0
  0
SPLINE
  5
3B7
330
20C
100
AcDbEntity
  8
7_ALL_FEATURES
  6
Continuous
 62
     9
100
AcDbSpline
 70
     0
 71
     3
 72
    12
 73
     8
 74
     0
 42
0.000000001
 43
0.0000001
 40
0.0
 40
0.0
 40
0.0
 40
0.0
 40
0.3547409773
 40
0.6589421277
 40
0.8779380015
 40
0.9535676138
 40
1.0
 40
1.0
 40
1.0
 40
1.0
 10
399.902005767
 20
124.9277327041
 30
0.0
 10
399.9011252109
 20
124.9897528128
 30
0.0
 10
399.9105542865
 20
125.1053710102
 30
0.0
 10
399.9357372645
 20
125.2556658126
 30
0.0
 10
399.9748991366
 20
125.3573936239
 30
0.0
 10
400.0173804168
 20
125.398700383
 30
0.0
 10
400.0371873998
 20
125.4102884817
 30
0.0
 10
400.0453060875
 20
125.4102829521
 30
0.0
  0
SPLINE
  5
3B8
330
20C
100
AcDbEntity
  8
7_ALL_FEATURES
  6
Continuous
 62
     9
100
AcDbSpline
 70
     0
 71
     3
 72
     9
 73
     5
 74
     0
 42
0.000000001
 43
0.0000001
 40
0.0
 40
0.0
 40
0.0
 40
0.0
 40
0.27464998
 40
1.0
 40
1.0
 40
1.0
 40
1.0
 10
397.617848219
 20
124.9277327041
 30
0.0
 10
397.6196615661
 20
124.9698201089
 30
0.0
 10
397.6361601074
 20
125.1213228423
 30
0.0
 10
397.7070639213
 20
125.275219319
 30
0.0
 10
397.792751336
 20
125.3461808247
 30
0.0
  0
SPLINE
  5
3B9
330
20C
100
AcDbEntity
  8
7_ALL_FEATURES
  6
Continuous
 62
     9
100
AcDbSpline
 70
     0
 71
     3
 72
     9
 73
     5
 74
     0
 42
0.000000001
 43
0.0000001
 40
0.0
 40
0.0
 40
0.0
 40
0.0
 40
0.2622171071
 40
1.0
 40
1.0
 40
1.0
 40
1.0
 10
397.792751336
 20
125.3461808247
 30
0.0
 10
397.8049962724
 20
125.3563213935
 30
0.0
 10
397.8541205118
 20
125.3918985275
 30
0.0
 10
397.9160505661
 20
125.4102829557
 30
0.0
 10
397.9607837678
 20
125.4102829557
 30
0.0
  0
LINE
  5
3BA
330
20C
100
AcDbEntity
  8
7_ALL_FEATURES
  6
Continuous
 62
     9
100
AcDbLine
 10
482.483375
 20
124.686459
 30
0.0
 11
482.536571
 21
120.210283
 31
0.0
  0
LINE
  5
3BB
330
20C
100
AcDbEntity
  8
7_ALL_FEATURES
  6
Continuous
 62
     9
100
AcDbLine
 10
482.480515
 20
124.927733
 30
0.0
 11
482.483375
 21
124.686459
 31
0.0
  0
LINE
  5
3BC
330
20C
100
AcDbEntity
  8
7_ALL_FEATURES
  6
Continuous
 62
     9
100
AcDbLine
 10
484.764672
 20
124.927733
 30
0.0
 11
482.480515
 21
124.927733
 31
0.0
  0
LINE
  5
3BD
330
20C
100
AcDbEntity
  8
7_ALL_FEATURES
  6
Continuous
 62
     9
100
AcDbLine
 10
484.770118
 20
124.686453
 30
0.0
 11
484.764672
 21
124.927733
 31
0.0
  0
LINE
  5
3BE
330
20C
100
AcDbEntity
  8
7_ALL_FEATURES
  6
Continuous
 62
     9
100
AcDbLine
 10
484.871028
 20
120.210283
 30
0.0
 11
484.770118
 21
124.686453
 31
0.0
  0
SPLINE
  5
3BF
330
20C
100
AcDbEntity
  8
7_ALL_FEATURES
  6
Continuous
 62
     9
100
AcDbSpline
 70
     0
 71
     3
 72
    12
 73
     8
 74
     0
 42
0.000000001
 43
0.0000001
 40
0.0
 40
0.0
 40
0.0
 40
0.0
 40
0.3546606897
 40
0.6588501105
 40
0.8775818678
 40
0.9529550113
 40
1.0
 40
1.0
 40
1.0
 40
1.0
 10
482.4805148835
 20
124.9277327041
 30
0.0
 10
482.4814514023
 20
124.9897500162
 30
0.0
 10
482.4720832634
 20
125.105376701
 30
0.0
 10
482.4466033491
 20
125.255646968
 30
0.0
 10
482.407694307
 20
125.3572012344
 30
0.0
 10
482.365425581
 20
125.3989014731
 30
0.0
 10
482.3454456633
 20
125.4102871709
 30
0.0
 10
482.3372182614
 20
125.4102829534
 30
0.0
  0
SPLINE
  5
3C0
330
20C
100
AcDbEntity
  8
7_ALL_FEATURES
  6
Continuous
 62
     9
100
AcDbSpline
 70
     0
 71
     3
 72
     9
 73
     5
 74
     0
 42
0.000000001
 43
0.0000001
 40
0.0
 40
0.0
 40
0.0
 40
0.0
 40
0.2746411157
 40
1.0
 40
1.0
 40
1.0
 40
1.0
 10
484.7646724315
 20
124.9277327041
 30
0.0
 10
484.7628879626
 20
124.9698207338
 30
0.0
 10
484.746373051
 20
125.1213247716
 30
0.0
 10
484.6754892638
 20
125.2752528124
 30
0.0
 10
484.5897697045
 20
125.3461807278
 30
0.0
  0
SPLINE
  5
3C1
330
20C
100
AcDbEntity
  8
7_ALL_FEATURES
  6
Continuous
 62
     9
100
AcDbSpline
 70
     0
 71
     3
 72
     9
 73
     5
 74
     0
 42
0.000000001
 43
0.0000001
 40
0.0
 40
0.0
 40
0.0
 40
0.0
 40
0.262417955
 40
1.0
 40
1.0
 40
1.0
 40
1.0
 10
484.5897697045
 20
125.3461807278
 30
0.0
 10
484.577511555
 20
125.3563236287
 30
0.0
 10
484.5283653717
 20
125.3918631522
 30
0.0
 10
484.4664564653
 20
125.4102829557
 30
0.0
 10
484.4217368819
 20
125.4102829557
 30
0.0
  0
LINE
  5
3C2
330
20C
100
AcDbEntity
  8
7_ALL_FEATURES
  6
Continuous
 62
     9
100
AcDbLine
 10
526.062232
 20
124.686459
 30
0.0
 11
526.216338
 21
120.210283
 31
0.0
  0
LINE
  5
3C3
330
20C
100
AcDbEntity
  8
7_ALL_FEATURES
  6
Continuous
 62
     9
100
AcDbLine
 10
526.053927
 20
124.927733
 30
0.0
 11
526.062232
 21
124.686459
 31
0.0
  0
SPLINE
  5
3C4
330
20C
100
AcDbEntity
  8
7_ALL_FEATURES
  6
Continuous
 62
     9
100
AcDbSpline
 70
     0
 71
     3
 72
     9
 73
     5
 74
     0
 42
0.000000001
 43
0.0000001
 40
0.0
 40
0.0
 40
0.0
 40
0.0
 40
0.503747246
 40
1.0
 40
1.0
 40
1.0
 40
1.0
 10
526.0539269897
 20
124.9277327041
 30
0.0
 10
526.0507207901
 20
125.0423039001
 30
0.0
 10
525.9613835276
 20
125.2752950574
 30
0.0
 10
525.7399550585
 20
125.3913752591
 30
0.0
 10
525.6280270247
 20
125.4062404991
 30
0.0
  0
ARC
  5
3C5
330
20C
100
AcDbEntity
  8
7_ALL_FEATURES
  6
Continuous
 62
     9
100
AcDbCircle
 10
525.567263
 20
124.9516
 30
0.0
 40
0.4586835742
100
AcDbArc
 50
82.387368
 51
89.94435
  0
LINE
  5
3C6
330
20C
100
AcDbEntity
  8
7_ALL_FEATURES
  6
Continuous
 62
     9
100
AcDbLine
 10
485.582453
 20
124.686458
 30
0.0
 11
525.929453
 21
124.686458
 31
0.0
  0
SPLINE
  5
3C7
330
20C
100
AcDbEntity
  8
7_ALL_FEATURES
  6
Continuous
 62
     9
100
AcDbSpline
 70
     0
 71
     3
 72
     9
 73
     5
 74
     0
 42
0.000000001
 43
0.0000001
 40
0.0
 40
0.0
 40
0.0
 40
0.0
 40
0.5002066231
 40
1.0
 40
1.0
 40
1.0
 40
1.0
 10
525.9294526729
 20
124.6864575782
 30
0.0
 10
525.9251851152
 20
124.8035619892
 30
0.0
 10
525.8607195852
 20
125.0391714758
 30
0.0
 10
525.6945410645
 20
125.2183345737
 30
0.0
 10
525.597267287
 20
125.283501957
 30
0.0
  0
SPLINE
  5
3C8
330
20C
100
AcDbEntity
  8
7_ALL_FEATURES
  6
Continuous
 62
     9
100
AcDbSpline
 70
     0
 71
     3
 72
    11
 73
     7
 74
     0
 42
0.000000001
 43
0.0000001
 40
0.0
 40
0.0
 40
0.0
 40
0.0
 40
0.3164558523
 40
0.5977670866
 40
0.8233115971
 40
1.0
 40
1.0
 40
1.0
 40
1.0
 10
485.5824527909
 20
124.6864575782
 30
0.0
 10
485.5860205745
 20
124.7800302541
 30
0.0
 10
485.5582922239
 20
124.9574099486
 30
0.0
 10
485.4805615711
 20
125.1894099471
 30
0.0
 10
485.3605561979
 20
125.3586541499
 30
0.0
 10
485.2422261376
 20
125.4102829557
 30
0.0
 10
485.1899432678
 20
125.4102829557
 30
0.0
  0
SPLINE
  5
3C9
330
20C
100
AcDbEntity
  8
7_ALL_FEATURES
  6
Continuous
 62
     9
100
AcDbSpline
 70
     0
 71
     3
 72
     9
 73
     5
 74
     0
 42
0.000000001
 43
0.0000001
 40
0.0
 40
0.0
 40
0.0
 40
0.0
 40
0.5002026412
 40
1.0
 40
1.0
 40
1.0
 40
1.0
 10
356.4530679775
 20
124.6864575782
 30
0.0
 10
356.4582443533
 20
124.8283811022
 30
0.0
 10
356.5525149323
 20
125.1151445796
 30
0.0
 10
356.789613128
 20
125.3028794676
 30
0.0
 10
356.9213507315
 20
125.3556204872
 30
0.0
  0
SPLINE
  5
3CA
330
20C
100
AcDbEntity
  8
7_ALL_FEATURES
  6
Continuous
 62
     9
100
AcDbSpline
 70
     0
 71
     3
 72
     8
 73
     4
 74
     0
 42
0.000000001
 43
0.0000001
 40
0.0
 40
0.0
 40
0.0
 40
0.0
 40
1.0
 40
1.0
 40
1.0
 40
1.0
 10
356.9213507315
 20
125.3556204872
 30
0.0
 10
357.0099302791
 20
125.3910832217
 30
0.0
 10
357.106912114
 20
125.4102829557
 30
0.0
 10
357.2023266925
 20
125.4102829557
 30
0.0
  0
LINE
  5
3CB
330
20C
100
AcDbEntity
  8
7_ALL_FEATURES
  6
Continuous
 62
     9
100
AcDbLine
 10
356.453068
 20
124.686458
 30
0.0
 11
396.800068
 21
124.686458
 31
0.0
  0
SPLINE
  5
3CC
330
20C
100
AcDbEntity
  8
7_ALL_FEATURES
  6
Continuous
 62
     9
100
AcDbSpline
 70
     0
 71
     3
 72
    13
 73
     9
 74
     0
 42
0.000000001
 43
0.0000001
 40
0.0
 40
0.0
 40
0.0
 40
0.0
 40
0.315071414
 40
0.5951529314
 40
0.716391714
 40
0.820588651
 40
0.9064561264
 40
1.0
 40
1.0
 40
1.0
 40
1.0
 10
396.8000678595
 20
124.6864575782
 30
0.0
 10
396.7965963559
 20
124.7800337997
 30
0.0
 10
396.8249240179
 20
124.9567071001
 30
0.0
 10
396.890431635
 20
125.1618130857
 30
0.0
 10
396.9752888259
 20
125.2871374319
 30
0.0
 10
397.0392945608
 20
125.3540940204
 30
0.0
 10
397.1098954123
 20
125.4033461179
 30
0.0
 10
397.164775762
 20
125.4102829557
 30
0.0
 10
397.1925774075
 20
125.4102829557
 30
0.0
  0
LINE
  5
3CD
330
20C
100
AcDbEntity
  8
7_ALL_FEATURES
  6
Continuous
 62
     9
100
AcDbLine
 10
400.84426
 20
124.686458
 30
0.0
 11
481.53826
 21
124.686458
 31
0.0
  0
SPLINE
  5
3CE
330
20C
100
AcDbEntity
  8
7_ALL_FEATURES
  6
Continuous
 62
     9
100
AcDbSpline
 70
     0
 71
     3
 72
     9
 73
     5
 74
     0
 42
0.000000001
 43
0.0000001
 40
0.0
 40
0.0
 40
0.0
 40
0.0
 40
0.61723563
 40
1.0
 40
1.0
 40
1.0
 40
1.0
 10
481.5382602072
 20
124.6864575782
 30
0.0
 10
481.525432691
 20
124.8608855675
 30
0.0
 10
481.5125280216
 20
125.1351460676
 30
0.0
 10
481.289970617
 20
125.4102829557
 30
0.0
 10
481.181511041
 20
125.4102829557
 30
0.0
  0
SPLINE
  5
3CF
330
20C
100
AcDbEntity
  8
7_ALL_FEATURES
  6
Continuous
 62
     9
100
AcDbSpline
 70
     0
 71
     3
 72
     9
 73
     5
 74
     0
 42
0.000000001
 43
0.0000001
 40
0.0
 40
0.0
 40
0.0
 40
0.0
 40
0.6172331787
 40
1.0
 40
1.0
 40
1.0
 40
1.0
 10
400.8442604432
 20
124.6864575782
 30
0.0
 10
400.8572719911
 20
124.8608716713
 30
0.0
 10
400.8699298774
 20
125.1351531903
 30
0.0
 10
401.0925490974
 20
125.4102829557
 30
0.0
 10
401.2010096351
 20
125.4102829557
 30
0.0
  0
LINE
  5
3D0
330
20C
100
AcDbEntity
  8
7_ALL_FEATURES
  6
Continuous
 62
     9
100
AcDbLine
 10
396.800068
 20
124.686458
 30
0.0
 11
396.705312
 21
120.210283
 31
0.0
  0
LINE
  5
3D1
330
20C
100
AcDbEntity
  8
7_ALL_FEATURES
  6
Continuous
 62
     9
100
AcDbLine
 10
356.297234
 20
120.210283
 30
0.0
 11
356.453068
 21
124.686458
 31
0.0
  0
LINE
  5
3D2
330
20C
100
AcDbEntity
  8
7_ALL_FEATURES
  6
Continuous
 62
     9
100
AcDbLine
 10
481.53826
 20
124.686458
 30
0.0
 11
481.599338
 21
120.210283
 31
0.0
  0
LINE
  5
3D3
330
20C
100
AcDbEntity
  8
7_ALL_FEATURES
  6
Continuous
 62
     9
100
AcDbLine
 10
400.783183
 20
120.210283
 30
0.0
 11
400.84426
 21
124.686458
 31
0.0
  0
LINE
  5
3D4
330
20C
100
AcDbEntity
  8
7_ALL_FEATURES
  6
Continuous
 62
     9
100
AcDbLine
 10
485.677209
 20
120.210283
 30
0.0
 11
485.582453
 21
124.686458
 31
0.0
  0
LINE
  5
3D5
330
20C
100
AcDbEntity
  8
7_ALL_FEATURES
  6
Continuous
 62
     9
100
AcDbLine
 10
525.929453
 20
124.686458
 30
0.0
 11
526.085286
 21
120.210283
 31
0.0
  0
SPLINE
  5
3D6
330
20C
100
AcDbEntity
  8
7_ALL_FEATURES
  6
Continuous
 62
     7
100
AcDbSpline
 70
     0
 71
     3
 72
    14
 73
    10
 74
     0
 42
0.000000001
 43
0.0000001
 40
0.0
 40
0.0
 40
0.0
 40
0.0
 40
0.298767797
 40
0.4341136277
 40
0.5603505306
 40
0.6782967281
 40
0.7893684336
 40
0.8956161575
 40
1.0
 40
1.0
 40
1.0
 40
1.0
 10
503.150357401
 20
266.9403286698
 30
0.0
 10
507.4119189538
 20
269.0711501697
 30
0.0
 10
513.4116749315
 20
272.6209295928
 30
0.0
 10
520.336834146
 20
278.2912053768
 30
0.0
 10
524.5640147621
 20
282.6446071194
 30
0.0
 10
527.9537755453
 20
287.2073290239
 30
0.0
 10
530.4676277958
 20
291.9528108068
 30
0.0
 10
532.0712773231
 20
296.853757483
 30
0.0
 10
532.5041237925
 20
300.2092477876
 30
0.0
 10
532.5573814521
 20
301.8730532651
 30
0.0
  0
LINE
  5
3D7
330
20C
100
AcDbEntity
  8
7_ALL_FEATURES
  6
Continuous
 62
     7
100
AcDbLine
 10
332.812658
 20
301.856267
 30
0.0
 11
332.810661
 21
301.919666
 31
0.0
  0
SPLINE
  5
3D8
330
20C
100
AcDbEntity
  8
7_ALL_FEATURES
  6
Continuous
 62
     7
100
AcDbSpline
 70
     0
 71
     3
 72
    24
 73
    20
 74
     0
 42
0.000000001
 43
0.0000001
 40
0.0
 40
0.0
 40
0.0
 40
0.0
 40
0.019666694
 40
0.0394809601
 40
0.080819606
 40
0.1261018813
 40
0.1763977184
 40
0.2320881178
 40
0.2930412722
 40
0.3587555725
 40
0.4284623425
 40
0.5012022955
 40
0.575886304
 40
0.6513474452
 40
0.7263888329
 40
0.7998294106
 40
0.8705525255
 40
0.9375511101
 40
1.0
 40
1.0
 40
1.0
 40
1.0
 10
332.8128618809
 20
301.8558819456
 30
0.0
 10
332.854111296
 20
300.5939071553
 30
0.0
 10
333.1221648746
 20
298.062584368
 30
0.0
 10
334.4035814676
 20
293.0191267657
 30
0.0
 10
337.4510839222
 20
286.8124208424
 30
0.0
 10
343.0580416876
 20
279.9666821492
 30
0.0
 10
350.5100053967
 20
273.6706731307
 30
0.0
 10
359.6509836083
 20
268.0150352363
 30
0.0
 10
370.2999230307
 20
263.0922170938
 30
0.0
 10
382.2434442031
 20
258.9948636596
 30
0.0
 10
395.2379506203
 20
255.80417291
 30
0.0
 10
409.0149315513
 20
253.5855405651
 30
0.0
 10
423.2874114206
 20
252.3851253598
 30
0.0
 10
437.7567873982
 20
252.2280883855
 30
0.0
 10
452.1199046626
 20
253.1177869521
 30
0.0
 10
466.0759266968
 20
255.0353739445
 30
0.0
 10
479.3341560521
 20
257.9412939121
 30
0.0
 10
491.6179478239
 20
261.7743507641
 30
0.0
 10
499.2880225337
 20
265.0234533066
 30
0.0
 10
502.8796012343
 20
266.8054729798
 30
0.0
  0
ARC
  5
3D9
330
20C
100
AcDbEntity
  8
7_ALL_FEATURES
  6
Continuous
 62
     7
100
AcDbCircle
 10
458.96638
 20
355.310965
 30
0.0
 40
98.8007750707
100
AcDbArc
 50
296.388943
 51
296.564374
  0
SPLINE
  5
3DA
330
20C
100
AcDbEntity
  8
7_ALL_FEATURES
  6
Continuous
 62
     7
100
AcDbSpline
 70
     0
 71
     3
 72
    20
 73
    16
 74
     0
 42
0.000000001
 43
0.0000001
 40
0.0
 40
0.0
 40
0.0
 40
0.0
 40
0.0626312438
 40
0.130020323
 40
0.2752767706
 40
0.4272274135
 40
0.5761661416
 40
0.646616668
 40
0.7129649091
 40
0.7743775899
 40
0.8302666775
 40
0.8803774946
 40
0.9248766338
 40
0.9644903494
 40
1.0
 40
1.0
 40
1.0
 40
1.0
 10
404.2128719453
 20
316.4091263356
 30
0.0
 10
405.6516444585
 20
317.1284515193
 30
0.0
 10
408.7301475449
 20
318.4424075006
 30
0.0
 10
415.4823410339
 20
320.5659263088
 30
0.0
 10
424.7510275448
 20
322.1853141822
 30
0.0
 10
436.2397286241
 20
322.4967226402
 30
0.0
 10
445.7541026277
 20
321.3927769471
 30
0.0
 10
452.8944730937
 20
319.6654450588
 30
0.0
 10
457.7233581297
 20
318.0293013097
 30
0.0
 10
462.0221659326
 20
316.0655213664
 30
0.0
 10
465.7014714935
 20
313.8164977392
 30
0.0
 10
468.6827593151
 20
311.3303324389
 30
0.0
 10
470.9039368336
 20
308.6621565203
 30
0.0
 10
472.2971047284
 20
305.8897648062
 30
0.0
 10
472.6756573635
 20
303.9660030666
 30
0.0
 10
472.7109762934
 20
303.0546866112
 30
0.0
  0
SPLINE
  5
3DB
330
20C
100
AcDbEntity
  8
7_ALL_FEATURES
  6
Continuous
 62
     7
100
AcDbSpline
 70
     0
 71
     3
 72
    13
 73
     9
 74
     0
 42
0.000000001
 43
0.0000001
 40
0.0
 40
0.0
 40
0.0
 40
0.0
 40
0.095721898
 40
0.1982336277
 40
0.4264737657
 40
0.5546756612
 40
0.6929954644
 40
1.0
 40
1.0
 40
1.0
 40
1.0
 10
392.6591460265
 20
303.0665483824
 30
0.0
 10
392.6823210002
 20
303.6448320107
 30
0.0
 10
392.8478410611
 20
304.8403997715
 30
0.0
 10
393.664911219
 20
307.298456125
 30
0.0
 10
395.2102419787
 20
309.6630462202
 30
0.0
 10
397.2893209977
 20
311.8178115858
 30
0.0
 10
399.9651865616
 20
314.0338067922
 30
0.0
 10
402.2885884607
 20
315.42955096
 30
0.0
 10
403.9423194645
 20
316.272534856
 30
0.0
  0
ARC
  5
3DC
330
20C
100
AcDbEntity
  8
7_ALL_FEATURES
  6
Continuous
 62
     7
100
AcDbCircle
 10
421.724868
 20
281.386548
 30
0.0
 40
39.1567506168
100
AcDbArc
 50
116.566178
 51
117.009452
  0
SPLINE
  5
3DD
330
20C
100
AcDbEntity
  8
7_ALL_FEATURES
  6
Continuous
 62
     7
100
AcDbSpline
 70
     0
 71
     3
 72
    25
 73
    21
 74
     0
 42
0.000000001
 43
0.0000001
 40
0.0
 40
0.0
 40
0.0
 40
0.0
 40
0.01905085
 40
0.0383487614
 40
0.0581876762
 40
0.078827293
 40
0.1232513429
 40
0.1728407331
 40
0.2280300899
 40
0.2887150752
 40
0.3543952111
 40
0.424284716
 40
0.4973928416
 40
0.5725897364
 40
0.6486607726
 40
0.7243574399
 40
0.7984454501
 40
0.8697553307
 40
0.9372312263
 40
1.0
 40
1.0
 40
1.0
 40
1.0
 10
532.6733141307
 20
305.7030150713
 30
0.0
 10
532.710697854
 20
306.9381144674
 30
0.0
 10
532.600421925
 20
309.4338624434
 30
0.0
 10
531.8782191623
 20
313.1510489453
 30
0.0
 10
530.6055919358
 20
316.826593524
 30
0.0
 10
528.1289919659
 20
321.7605270798
 30
0.0
 10
523.5880923748
 20
327.7333362089
 30
0.0
 10
516.3245491183
 20
334.1952821344
 30
0.0
 10
507.2769158466
 20
340.0326297342
 30
0.0
 10
496.6349215738
 20
345.1338307938
 30
0.0
 10
484.6196158577
 20
349.3990044263
 30
0.0
 10
471.4853049005
 20
352.7383947461
 30
0.0
 10
457.5128623514
 20
355.0804767315
 30
0.0
 10
443.0033011778
 20
356.3743428865
 30
0.0
 10
428.2703375629
 20
356.5917069742
 30
0.0
 10
413.6329319044
 20
355.727782293
 30
0.0
 10
399.407977269
 20
353.8016066689
 30
0.0
 10
385.9018705017
 20
350.8547272447
 30
0.0
 10
373.4067796498
 20
346.9520744311
 30
0.0
 10
365.6155995481
 20
343.6350037354
 30
0.0
 10
361.974143804
 20
341.8142758634
 30
0.0
  0
LINE
  5
3DE
330
20C
100
AcDbEntity
  8
7_ALL_FEATURES
  6
Continuous
 62
     7
100
AcDbLine
 10
532.558983
 20
301.919666
 30
0.0
 11
532.55754
 21
301.873368
 31
0.0
  0
LINE
  5
3DF
330
20C
100
AcDbEntity
  8
7_ALL_FEATURES
  6
Continuous
 62
     7
100
AcDbLine
 10
532.558983
 20
301.919666
 30
0.0
 11
532.673393
 21
305.703014
 31
0.0
  0
SPLINE
  5
3E0
330
20C
100
AcDbEntity
  8
7_ALL_FEATURES
  6
Continuous
 62
     7
100
AcDbSpline
 70
     0
 71
     3
 72
    15
 73
    11
 74
     0
 42
0.000000001
 43
0.0000001
 40
0.0
 40
0.0
 40
0.0
 40
0.0
 40
0.1022549878
 40
0.2070594073
 40
0.3171178988
 40
0.4345839227
 40
0.5609671695
 40
0.6971515956
 40
0.8435430876
 40
1.0
 40
1.0
 40
1.0
 40
1.0
 10
332.6962727204
 20
305.7030144572
 30
0.0
 10
332.6458541316
 20
307.3723489998
 30
0.0
 10
332.8865774131
 20
310.7725003192
 30
0.0
 10
334.2713235136
 20
315.7945970421
 30
0.0
 10
336.6527199014
 20
320.7025073011
 30
0.0
 10
339.9943065932
 20
325.4456385549
 30
0.0
 10
344.2550684808
 20
329.9831021939
 30
0.0
 10
349.389874041
 20
334.2766055254
 30
0.0
 10
355.3470759559
 20
338.2870068633
 30
0.0
 10
359.6885627807
 20
340.6714853517
 30
0.0
 10
361.974143804
 20
341.8142758634
 30
0.0
  0
LINE
  5
3E1
330
20C
100
AcDbEntity
  8
7_ALL_FEATURES
  6
Continuous
 62
     7
100
AcDbLine
 10
332.810661
 20
301.919666
 30
0.0
 11
332.696251
 21
305.703014
 31
0.0
  0
SPLINE
  5
3E2
330
20C
100
AcDbEntity
  8
7_ALL_FEATURES
  6
Continuous
 62
     7
100
AcDbSpline
 70
     0
 71
     3
 72
    20
 73
    16
 74
     0
 42
0.000000001
 43
0.0000001
 40
0.0
 40
0.0
 40
0.0
 40
0.0
 40
0.0621437183
 40
0.1288694676
 40
0.2724672498
 40
0.4226867981
 40
0.5702283657
 40
0.640221606
 40
0.7063319452
 40
0.7677680481
 40
0.8239809833
 40
0.8747572594
 40
0.9203401075
 40
0.9615724319
 40
1.0
 40
1.0
 40
1.0
 40
1.0
 10
460.9690931701
 20
289.6321224286
 30
0.0
 10
459.5485135213
 20
288.9218326042
 30
0.0
 10
456.5130525198
 20
287.6240876292
 30
0.0
 10
449.8653617638
 20
285.5234645006
 30
0.0
 10
440.7484397221
 20
283.9103196098
 30
0.0
 10
429.4398516976
 20
283.5700304996
 30
0.0
 10
420.059850847
 20
284.6194581435
 30
0.0
 10
412.9969031881
 20
286.2851127628
 30
0.0
 10
408.1965565499
 20
287.8730270689
 30
0.0
 10
403.898517752
 20
289.7882880837
 30
0.0
 10
400.1883672355
 20
291.9941653372
 30
0.0
 10
397.1395952754
 20
294.4506464107
 30
0.0
 10
394.8147350743
 20
297.1194269427
 30
0.0
 10
393.2726115507
 20
299.9582737697
 30
0.0
 10
392.799564735
 20
301.9711440169
 30
0.0
 10
392.7188111842
 20
302.9499423279
 30
0.0
  0
LINE
  5
3E3
330
20C
100
AcDbEntity
  8
7_ALL_FEATURES
  6
Continuous
 62
     7
100
AcDbLine
 10
392.718811
 20
302.949942
 30
0.0
 11
392.716462
 21
302.978926
 31
0.0
  0
LINE
  5
3E4
330
20C
100
AcDbEntity
  8
7_ALL_FEATURES
  6
Continuous
 62
     7
100
AcDbLine
 10
392.718811
 20
302.949942
 30
0.0
 11
392.718055
 21
302.978958
 31
0.0
  0
ARC
  5
3E5
330
20C
100
AcDbEntity
  8
7_ALL_FEATURES
  6
Continuous
 62
     7
100
AcDbCircle
 10
402.728086
 20
303.775766
 30
0.0
 40
10.0432847895
100
AcDbArc
 50
184.037603
 51
184.550663
  0
ARC
  5
3E6
330
20C
100
AcDbEntity
  8
7_ALL_FEATURES
  6
Continuous
 62
     7
100
AcDbCircle
 10
402.705936
 20
303.77427
 30
0.0
 40
10.0210838755
100
AcDbArc
 50
181.981377
 51
184.037986
  0
SPLINE
  5
3E7
330
20C
100
AcDbEntity
  8
7_ALL_FEATURES
  6
Continuous
 62
     7
100
AcDbSpline
 70
     0
 71
     3
 72
    12
 73
     8
 74
     0
 42
0.000000001
 43
0.0000001
 40
0.0
 40
0.0
 40
0.0
 40
0.0
 40
0.3003061722
 40
0.5632515167
 40
0.7925219249
 40
0.8980542631
 40
1.0
 40
1.0
 40
1.0
 40
1.0
 10
460.9690931701
 20
289.6321224286
 30
0.0
 10
462.6249535897
 20
290.4600526384
 30
0.0
 10
465.6323378671
 20
292.2326865135
 30
0.0
 10
469.3341149049
 20
295.4720498001
 30
0.0
 10
471.4538246117
 20
298.5575001034
 30
0.0
 10
472.3842978534
 20
301.0969081914
 30
0.0
 10
472.6050808064
 20
302.3654491933
 30
0.0
 10
472.6541349076
 20
302.9920003896
 30
0.0
  0
ARC
  5
3E8
330
20C
100
AcDbEntity
  8
7_ALL_FEATURES
  6
Continuous
 62
     7
100
AcDbCircle
 10
462.611001
 20
303.778308
 30
0.0
 40
10.0738685895
100
AcDbArc
 50
355.52327
 51
355.962616
  0
ARC
  5
3E9
330
20C
100
AcDbEntity
  8
7_ALL_FEATURES
  6
Continuous
 62
     7
100
AcDbCircle
 10
462.652022
 20
303.775646
 30
0.0
 40
10.0327612658
100
AcDbArc
 50
355.96129
 51
359.417062
  0
SPLINE
  5
3EA
330
20C
100
AcDbEntity
  8
7_ALL_FEATURES
  6
Continuous
 62
     9
100
AcDbSpline
 70
     0
 71
     3
 72
    13
 73
     9
 74
     0
 42
0.000000001
 43
0.0000001
 40
0.0
 40
0.0
 40
0.0
 40
0.0
 40
0.1023632062
 40
0.2072776196
 40
0.4343036975
 40
0.5608096544
 40
0.6971406764
 40
1.0
 40
1.0
 40
1.0
 40
1.0
 10
472.7134692709
 20
302.977343987
 30
0.0
 10
472.7336304369
 20
302.309054275
 30
0.0
 10
472.6370971079
 20
300.9477620027
 30
0.0
 10
471.8797466325
 20
298.1979151746
 30
0.0
 10
470.2802651102
 20
295.5919892051
 30
0.0
 10
468.0865803125
 20
293.2580125223
 30
0.0
 10
465.2458179923
 20
290.8824840079
 30
0.0
 10
462.7619138153
 20
289.4054897423
 30
0.0
 10
460.9926019976
 20
288.5208338335
 30
0.0
  0
ARC
  5
3EB
330
20C
100
AcDbEntity
  8
7_ALL_FEATURES
  6
Continuous
 62
     9
100
AcDbCircle
 10
357.907634
 20
302.671495
 30
0.0
 40
25.1082117483
100
AcDbArc
 50
173.142929
 51
181.715894
  0
SPLINE
  5
3EC
330
20C
100
AcDbEntity
  8
7_ALL_FEATURES
  6
Continuous
 62
     9
100
AcDbSpline
 70
     0
 71
     3
 72
    13
 73
     9
 74
     0
 42
0.000000001
 43
0.0000001
 40
0.0
 40
0.0
 40
0.0
 40
0.0
 40
0.1018705515
 40
0.2076408338
 40
0.3192384274
 40
0.4381338011
 40
0.7010085429
 40
1.0
 40
1.0
 40
1.0
 40
1.0
 10
332.9790195842
 20
305.6692390448
 30
0.0
 10
333.1619171725
 20
307.1921224193
 30
0.0
 10
333.820087551
 20
310.2681086709
 30
0.0
 10
335.6191446613
 20
314.7471523981
 30
0.0
 10
338.2191236402
 20
319.113131075
 30
0.0
 10
342.8719897815
 20
324.9290440086
 30
0.0
 10
350.6995263166
 20
331.6769444175
 30
0.0
 10
358.028517807
 20
335.9763407519
 30
0.0
 10
362.0550529839
 20
337.9896083403
 30
0.0
  0
SPLINE
  5
3ED
330
20C
100
AcDbEntity
  8
7_ALL_FEATURES
  6
Continuous
 62
     9
100
AcDbSpline
 70
     0
 71
     3
 72
    20
 73
    16
 74
     0
 42
0.000000001
 43
0.0000001
 40
0.0
 40
0.0
 40
0.0
 40
0.0
 40
0.0627986816
 40
0.130315219
 40
0.2756689355
 40
0.4274114536
 40
0.5756823329
 40
0.6456087095
 40
0.7113236007
 40
0.7720403705
 40
0.8272587432
 40
0.8768740237
 40
0.9213214805
 40
0.9617338801
 40
1.0
 40
1.0
 40
1.0
 40
1.0
 10
460.9926019976
 20
288.5208338335
 30
0.0
 10
459.5348832746
 20
287.791974472
 30
0.0
 10
456.4156815424
 20
286.4638640825
 30
0.0
 10
449.5782719509
 20
284.3294029184
 30
0.0
 10
440.204860057
 20
282.7273779724
 30
0.0
 10
428.6134158399
 20
282.4782221437
 30
0.0
 10
419.0429827375
 20
283.6675709969
 30
0.0
 10
411.8937469184
 20
285.4842409693
 30
0.0
 10
407.0835048129
 20
287.1919184081
 30
0.0
 10
402.8231695987
 20
289.2341600722
 30
0.0
 10
399.2012657941
 20
291.5707151826
 30
0.0
 10
396.2929999725
 20
294.1587453279
 30
0.0
 10
394.1634147142
 20
296.9582614484
 30
0.0
 10
392.8776918082
 20
299.9226883283
 30
0.0
 10
392.6261432728
 20
301.9846999169
 30
0.0
 10
392.6562174195
 20
302.9773436617
 30
0.0
  0
SPLINE
  5
3EE
330
20C
100
AcDbEntity
  8
7_ALL_FEATURES
  6
Continuous
 62
     9
100
AcDbSpline
 70
     0
 71
     3
 72
    27
 73
    23
 74
     0
 42
0.000000001
 43
0.0000001
 40
0.0
 40
0.0
 40
0.0
 40
0.0
 40
0.0676989419
 40
0.1416577325
 40
0.2200769979
 40
0.3008048281
 40
0.3815329325
 40
0.4599514124
 40
0.5339127454
 40
0.6016100226
 40
0.6617969757
 40
0.6889511307
 40
0.7141862204
 40
0.7595286874
 40
0.7804527963
 40
0.800805428
 40
0.8211581129
 40
0.8420822972
 40
0.8874254671
 40
0.912658398
 40
0.9398117193
 40
1.0
 40
1.0
 40
1.0
 40
1.0
 10
461.5227503526
 20
287.6232430298
 30
0.0
 10
459.5310588481
 20
286.6273972775
 30
0.0
 10
455.1907276708
 20
284.8824870755
 30
0.0
 10
448.1753488137
 20
283.0398885399
 30
0.0
 10
440.5781061128
 20
281.9048905192
 30
0.0
 10
432.6848868774
 20
281.5218106741
 30
0.0
 10
424.7914775208
 20
281.9049061138
 30
0.0
 10
417.1947752102
 20
283.0396165638
 30
0.0
 10
410.1773478067
 20
284.883162812
 30
0.0
 10
403.9996806696
 20
287.3668405301
 30
0.0
 10
399.5882741262
 20
289.9841475073
 30
0.0
 10
396.7289114221
 20
292.3501965773
 30
0.0
 10
394.5056577002
 20
294.6765260627
 30
0.0
 10
392.8620935894
 20
297.2686006334
 30
0.0
 10
392.0376387176
 20
300.0119113655
 30
0.0
 10
391.8349554716
 20
302.042224793
 30
0.0
 10
392.0375717738
 20
304.0725589704
 30
0.0
 10
392.8622548899
 20
306.8158432401
 30
0.0
 10
394.5057460426
 20
309.4078048427
 30
0.0
 10
396.7289298579
 20
311.7342866266
 30
0.0
 10
399.5876039943
 20
314.1000386467
 30
0.0
 10
402.0761643793
 20
315.575806903
 30
0.0
 10
403.8468934928
 20
316.4611714597
 30
0.0
  0
ARC
  5
3EF
330
20C
100
AcDbEntity
  8
7_ALL_FEATURES
  6
Continuous
 62
     9
100
AcDbCircle
 10
421.953558
 20
280.24682
 30
0.0
 40
40.4886467342
100
AcDbArc
 50
116.13676
 51
116.564404
  0
SPLINE
  5
3F0
330
20C
100
AcDbEntity
  8
7_ALL_FEATURES
  6
Continuous
 62
     9
100
AcDbSpline
 70
     0
 71
     3
 72
    20
 73
    16
 74
     0
 42
0.000000001
 43
0.0000001
 40
0.0
 40
0.0
 40
0.0
 40
0.0
 40
0.0622500287
 40
0.1289734849
 40
0.2723202436
 40
0.422106497
 40
0.5692609394
 40
0.6391445805
 40
0.7052314305
 40
0.7667407752
 40
0.8231234564
 40
0.874147349
 40
0.9200111781
 40
0.961481918
 40
1.0
 40
1.0
 40
1.0
 40
1.0
 10
404.1176915357
 20
316.5953057809
 30
0.0
 10
405.5621284694
 20
317.3040978452
 30
0.0
 10
408.6420217102
 20
318.5988167976
 30
0.0
 10
415.3701206916
 20
320.6929778327
 30
0.0
 10
424.5750532568
 20
322.3003008479
 30
0.0
 10
435.9833633292
 20
322.6364585635
 30
0.0
 10
445.4454488778
 20
321.5861478277
 30
0.0
 10
452.5790316737
 20
319.9220354508
 30
0.0
 10
457.437918158
 20
318.3347813014
 30
0.0
 10
461.7999878802
 20
316.4194906652
 30
0.0
 10
465.5801172347
 20
314.2122004939
 30
0.0
 10
468.7050342048
 20
311.7524931009
 30
0.0
 10
471.112378069
 20
309.0784188596
 30
0.0
 10
472.7444899514
 20
306.2318467786
 30
0.0
 10
473.2861556155
 20
304.2046389528
 30
0.0
 10
473.4002221574
 20
303.2156222508
 30
0.0
  0
SPLINE
  5
3F1
330
20C
100
AcDbEntity
  8
7_ALL_FEATURES
  6
Continuous
 62
     9
100
AcDbSpline
 70
     0
 71
     3
 72
    14
 73
    10
 74
     0
 42
0.000000001
 43
0.0000001
 40
0.0
 40
0.0
 40
0.0
 40
0.0
 40
0.1030618053
 40
0.2076630352
 40
0.3169892481
 40
0.4336501863
 40
0.5594942914
 40
0.6956540877
 40
1.0
 40
1.0
 40
1.0
 40
1.0
 10
473.4002221574
 20
303.2156222508
 30
0.0
 10
473.4822483925
 20
302.5044118019
 30
0.0
 10
473.4966678579
 20
301.0491576987
 30
0.0
 10
473.0513505311
 20
298.8773724973
 30
0.0
 10
472.1496292236
 20
296.7503859577
 30
0.0
 10
470.8088402479
 20
294.6940064145
 30
0.0
 10
469.0489064532
 20
292.7271621408
 30
0.0
 10
466.0609705948
 20
290.155347453
 30
0.0
 10
463.4137099472
 20
288.5687228271
 30
0.0
 10
461.5227503526
 20
287.6232430298
 30
0.0
  0
SPLINE
  5
3F2
330
20C
100
AcDbEntity
  8
7_ALL_FEATURES
  6
Continuous
 62
     9
100
AcDbSpline
 70
     0
 71
     3
 72
    31
 73
    27
 74
     0
 42
0.000000001
 43
0.0000001
 40
0.0
 40
0.0
 40
0.0
 40
0.0
 40
0.0676717939
 40
0.1416020887
 40
0.2199893871
 40
0.3006852842
 40
0.3813811173
 40
0.4597683166
 40
0.5337003983
 40
0.6013706406
 40
0.6324659374
 40
0.6615933296
 40
0.6887365535
 40
0.7139613328
 40
0.7374315999
 40
0.7594251175
 40
0.7803409343
 40
0.8006854659
 40
0.8210300044
 40
0.8419459718
 40
0.8639394255
 40
0.8874096272
 40
0.9126346658
 40
0.9397764112
 40
0.9689083195
 40
1.0
 40
1.0
 40
1.0
 40
1.0
 10
502.7844425065
 20
266.9923969528
 30
0.0
 10
497.9430246924
 20
264.5716880458
 30
0.0
 10
487.3924020755
 20
260.3302072728
 30
0.0
 10
470.3393891026
 20
255.8509023828
 30
0.0
 10
451.871854291
 20
253.0921390244
 30
0.0
 10
432.6848774524
 20
252.160916849
 30
0.0
 10
413.4978046827
 20
253.0921512748
 30
0.0
 10
395.0304306798
 20
255.8507198036
 30
0.0
 10
377.9764750114
 20
260.3310209764
 30
0.0
 10
365.1115307888
 20
265.5010317418
 30
0.0
 10
356.1313970302
 20
270.4233307041
 30
0.0
 10
350.3157731869
 20
274.3169040537
 30
0.0
 10
345.2838420974
 20
278.4808455938
 30
0.0
 10
341.0836133156
 20
282.879759102
 30
0.0
 10
337.757609849
 20
287.4770286831
 30
0.0
 10
335.344479768
 20
292.2342195977
 30
0.0
 10
333.8786834081
 20
297.1071568442
 30
0.0
 10
333.3865309812
 20
302.042218565
 30
0.0
 10
333.8785441682
 20
306.9773268808
 30
0.0
 10
335.3445674679
 20
311.8502126305
 30
0.0
 10
337.7577021754
 20
316.6073783518
 30
0.0
 10
341.0835862532
 20
321.2047643281
 30
0.0
 10
345.2838037678
 20
325.6035085046
 30
0.0
 10
350.3159778794
 20
329.7677678457
 30
0.0
 10
356.1313588275
 20
333.6607058797
 30
0.0
 10
360.3608208816
 20
335.979827308
 30
0.0
 10
362.5852013389
 20
337.0920175366
 30
0.0
  0
SPLINE
  5
3F3
330
20C
100
AcDbEntity
  8
7_ALL_FEATURES
  6
Continuous
 62
     9
100
AcDbSpline
 70
     0
 71
     3
 72
    11
 73
     7
 74
     0
 42
0.000000001
 43
0.0000001
 40
0.0
 40
0.0
 40
0.0
 40
0.0
 40
0.2271330382
 40
0.4720089579
 40
0.731066637
 40
1.0
 40
1.0
 40
1.0
 40
1.0
 10
362.5852013389
 20
337.0920175366
 30
0.0
 10
366.3961425109
 20
338.9974881226
 30
0.0
 10
374.5756850714
 20
342.4477670932
 30
0.0
 10
387.7162647896
 20
346.4404835288
 30
0.0
 10
401.932829656
 20
349.3746644622
 30
0.0
 10
411.7786347254
 20
350.5622257295
 30
0.0
 10
416.8070012834
 20
350.9701911599
 30
0.0
  0
SPLINE
  5
3F4
330
20C
100
AcDbEntity
  8
7_ALL_FEATURES
  6
Continuous
 62
     9
100
AcDbSpline
 70
     0
 71
     3
 72
    11
 73
     7
 74
     0
 42
0.000000001
 43
0.0000001
 40
0.0
 40
0.0
 40
0.0
 40
0.0
 40
0.259406365
 40
0.5173992716
 40
0.7665335306
 40
1.0
 40
1.0
 40
1.0
 40
1.0
 10
416.8070012834
 20
350.9701911599
 30
0.0
 10
423.2977716986
 20
351.4968055017
 30
0.0
 10
436.305227336
 20
351.8950464151
 30
0.0
 10
455.5354016777
 20
350.6013791385
 30
0.0
 10
473.8947335803
 20
347.4732535717
 30
0.0
 10
485.5701826312
 20
344.1061104323
 30
0.0
 10
491.0768011312
 20
342.0992762244
 30
0.0
  0
ARC
  5
3F5
330
20C
100
AcDbEntity
  8
7_ALL_FEATURES
  6
Continuous
 62
     9
100
AcDbCircle
 10
448.192652
 20
224.424465
 30
0.0
 40
125.245405063
100
AcDbArc
 50
69.550861
 51
69.976778
  0
ARC
  5
3F6
330
20C
100
AcDbEntity
  8
7_ALL_FEATURES
  6
Continuous
 62
     9
100
AcDbCircle
 10
449.196334
 20
227.11062
 30
0.0
 40
122.3778619029
100
AcDbArc
 50
68.58163
 51
69.551776
  0
SPLINE
  5
3F7
330
20C
100
AcDbEntity
  8
7_ALL_FEATURES
  6
Continuous
 62
     9
100
AcDbSpline
 70
     0
 71
     3
 72
    23
 73
    19
 74
     0
 42
0.000000001
 43
0.0000001
 40
0.0
 40
0.0
 40
0.0
 40
0.0
 40
0.081709353
 40
0.1584979941
 40
0.2301151555
 40
0.29650797
 40
0.357871713
 40
0.4147043196
 40
0.4678549723
 40
0.5185362522
 40
0.5682569677
 40
0.6186545746
 40
0.6712746599
 40
0.7273900254
 40
0.7879156549
 40
0.8534017212
 40
0.9241083713
 40
1.0
 40
1.0
 40
1.0
 40
1.0
 10
493.8857031669
 20
341.0369180338
 30
0.0
 10
496.5498568803
 20
339.9916195091
 30
0.0
 10
501.6480354911
 20
337.7782181205
 30
0.0
 10
508.7608393154
 20
333.9665033476
 30
0.0
 10
515.0401317188
 20
329.7994880714
 30
0.0
 10
520.4174773566
 20
325.3194379684
 30
0.0
 10
524.8336928025
 20
320.5696840313
 30
0.0
 10
528.2361510094
 20
315.5945358721
 30
0.0
 10
530.5765776185
 20
310.4416646579
 30
0.0
 10
531.8114687063
 20
305.1684027716
 30
0.0
 10
531.9114357714
 20
299.8473191621
 30
0.0
 10
530.873869745
 20
294.560044536
 30
0.0
 10
528.7244150132
 20
289.3815003813
 30
0.0
 10
525.5047059447
 20
284.3715107109
 30
0.0
 10
521.2624211876
 20
279.5792282607
 30
0.0
 10
516.049307136
 20
275.0484540834
 30
0.0
 10
509.9237518682
 20
270.8238751871
 30
0.0
 10
505.429236445
 20
268.3245788735
 30
0.0
 10
503.055460977
 20
267.128433671
 30
0.0
  0
ARC
  5
3F8
330
20C
100
AcDbEntity
  8
7_ALL_FEATURES
  6
Continuous
 62
     9
100
AcDbCircle
 10
459.249083
 20
354.063484
 30
0.0
 40
97.3483522448
100
AcDbArc
 50
296.564954
 51
296.743433
  0
SPLINE
  5
3F9
330
20C
100
AcDbEntity
  8
7_ALL_FEATURES
  6
Continuous
 62
     9
100
AcDbSpline
 70
     0
 71
     3
 72
    11
 73
     7
 74
     0
 42
0.000000001
 43
0.0000001
 40
0.0
 40
0.0
 40
0.0
 40
0.0
 40
0.2287705897
 40
0.473516871
 40
0.7316354933
 40
1.0
 40
1.0
 40
1.0
 40
1.0
 10
362.0550529839
 20
337.9896083403
 30
0.0
 10
365.3709902269
 20
339.6475769619
 30
0.0
 10
372.4293977759
 20
342.6970215266
 30
0.0
 10
383.7146516034
 20
346.3775179009
 30
0.0
 10
395.886828484
 20
349.268119121
 30
0.0
 10
404.3208651064
 20
350.6131853197
 30
0.0
 10
408.6367639489
 20
351.1484780029
 30
0.0
  0
ARC
  5
3FA
330
20C
100
AcDbEntity
  8
7_ALL_FEATURES
  6
Continuous
 62
     9
100
AcDbCircle
 10
431.633775
 20
165.730173
 30
0.0
 40
186.8389953743
100
AcDbArc
 50
96.946972
 51
97.07016
  0
ARC
  5
3FB
330
20C
100
AcDbEntity
  8
7_ALL_FEATURES
  6
Continuous
 62
     9
100
AcDbCircle
 10
431.694753
 20
165.228957
 30
0.0
 40
187.343907814
100
AcDbArc
 50
96.776895
 51
96.946944
  0
ARC
  5
3FC
330
20C
100
AcDbEntity
  8
7_ALL_FEATURES
  6
Continuous
 62
     9
100
AcDbCircle
 10
431.884644
 20
163.608949
 30
0.0
 40
188.9750048017
100
AcDbArc
 50
96.040345
 51
96.776106
  0
ARC
  5
3FD
330
20C
100
AcDbEntity
  8
7_ALL_FEATURES
  6
Continuous
 62
     9
100
AcDbCircle
 10
432.07441
 20
161.837114
 30
0.0
 40
190.7569714006
100
AcDbArc
 50
95.712374
 51
96.041025
  0
SPLINE
  5
3FE
330
20C
100
AcDbEntity
  8
7_ALL_FEATURES
  6
Continuous
 62
     9
100
AcDbSpline
 70
     0
 71
     3
 72
    20
 73
    16
 74
     0
 42
0.000000001
 43
0.0000001
 40
0.0
 40
0.0
 40
0.0
 40
0.0
 40
0.1543629671
 40
0.3083258097
 40
0.4566942439
 40
0.5273092949
 40
0.5948218894
 40
0.6587985916
 40
0.7189051795
 40
0.7749328164
 40
0.8268314727
 40
0.8747505459
 40
0.9190837615
 40
0.9605093404
 40
1.0
 40
1.0
 40
1.0
 40
1.0
 10
413.0874830542
 20
351.6468047212
 30
0.0
 10
420.1305966286
 20
352.3513556514
 30
0.0
 10
434.2871131325
 20
352.9841691046
 30
0.0
 10
455.2256685155
 20
351.7112325799
 30
0.0
 10
472.1229682051
 20
348.8100324505
 30
0.0
 10
484.814639031
 20
345.387235663
 30
0.0
 10
493.5883815771
 20
342.3787840268
 30
0.0
 10
501.6746883914
 20
338.9214883594
 30
0.0
 10
508.983722962
 20
335.0530575485
 30
0.0
 10
515.4343866776
 20
330.8150667386
 30
0.0
 10
520.9551744174
 20
326.2513109877
 30
0.0
 10
525.4836423922
 20
321.4073289159
 30
0.0
 10
528.9644886528
 20
316.3282788436
 30
0.0
 10
531.3466165032
 20
311.0672515518
 30
0.0
 10
532.1836139721
 20
307.4202085989
 30
0.0
 10
532.3962975044
 20
305.6219100987
 30
0.0
  0
ARC
  5
3FF
330
20C
100
AcDbEntity
  8
7_ALL_FEATURES
  6
Continuous
 62
     9
100
AcDbCircle
 10
507.501828
 20
302.673806
 30
0.0
 40
25.0684249678
100
AcDbArc
 50
358.276099
 51
6.753745
  0
DIMENSION
  5
400
330
20C
100
AcDbEntity
  8
0
  6
Continuous
 62
     2
100
AcDbDimension
280
     0
  2
*D1
 10
224.666928
 20
355.598677
 30
0.0
 11
240.294335
 21
374.363675
 31
0.0
 70
   163
  1
%%c<>
 71
     1
 42
200.0
 73
     0
 74
     0
 75
     0
  3
DIMSTYLE_1
100
AcDbDiametricDimension
 15
83.063152
 25
214.359975
 35
0.0
 40
0.0
  0
DIMENSION
  5
401
330
20C
100
AcDbEntity
  8
0
  6
Continuous
 62
     2
100
AcDbDimension
280
     0
  2
*D2
 10
120.277337
 20
306.701807
 30
0.0
 11
138.910684
 21
297.330445
 31
0.0
 70
   163
  1
%%c<>
 71
     2
 42
80.0
 73
     0
 74
     0
 75
     0
  3
DIMSTYLE_2
100
AcDbDiametricDimension
 15
187.452744
 25
263.256845
 35
0.0
 40
0.0
  0
ARC
  5
402
330
20C
100
AcDbEntity
  8
0
  6
Continuous
 62
     2
100
AcDbCircle
 10
153.86504
 20
284.979326
 30
0.0
 40
40.0
100
AcDbArc
 50
326.033502
 51
331.504615
  0
DIMENSION
  5
403
330
20C
100
AcDbEntity
  8
0
  6
Continuous
 62
     2
100
AcDbDimension
280
     0
  2
*D3
 10
295.347147
 20
125.410283
 30
0.0
 11
295.347147
 21
120.390219
 31
0.0
 70
   160
 71
     2
 42
10.3
 73
     0
 74
     0
 75
     0
  3
DIMSTYLE_3
100
AcDbAlignedDimension
 13
280.372394
 23
115.110283
 33
0.0
 14
281.088467
 24
125.410283
 34
0.0
 50
90.0
100
AcDbRotatedDimension
  0
INSERT
  5
404
330
20C
100
AcDbEntity
  8
0
  6
Continuous
 62
     2
100
AcDbBlockReference
  2
LOGO2_BL0
 10
507.572747
 20
36.774325
 30
0.0
  0
ACAD_TABLE
  5
405
102
{ACAD_XDICTIONARY
360
45C
102
}
330
20C
100
AcDbEntity
  8
0
  6
Continuous
 62
     2
160
              3220
310
940C000017000000880000001D000000000000000000F03F000000000000000000000000000000005305C37BF2DB7E400000000000000000000000000000F03F00000000000000002C95E3111D23494000000000000000000000000000000000000000000000F03F0000000000000000000000000000000000000000000000
310
000000000000000000000000000000F03F54000000200000000200000000000000000000000000000000000000000000000000000000000000008056400000000000000000000000000000000000000000000000000000000000000000000000000000F03F5400000020000000020000000000000000000000000000000000
310
00000000000000000000000000000000000000000000000044C0000000000000000000000000000000000000000000000000000000000000F03F5400000020000000020000000000000000003E4000000000000018C00000000000000000000000000080564000000000000018C00000000000000000000000000000000000
310
00000000000000000000000000F03F5400000020000000020000000000000000003E4000000000000028C00000000000000000000000000080564000000000000028C0000000000000000000000000000000000000000000000000000000000000F03F5400000020000000020000000000000000003E4000000000000036C0
310
0000000000000000000000000080564000000000000036C0000000000000000000000000000000000000000000000000000000000000F03F54000000200000000200000000000000000000000000000000003BC0000000000000000000000000008056400000000000003BC000000000000000000000000000000000000000
310
0000000000000000000000F03F540000002000000002000000000000000000000000000000000044C00000000000000000000000000080564000000000000044C0000000000000000000000000000000000000000000000000000000000000F03F5400000020000000020000000000000000003E4000000000000000000000
310
0000000000000000000000003E400000000000003BC0000000000000000000000000000000000000000000000000000000000000F03F540000002000000002000000000000000080514000000000000000000000000000000000000000000080514000000000000028C0000000000000000000000000000000000000000000
310
000000000000000000F03F540000002000000002000000000000000080564000000000000000000000000000000000000000000080564000000000000044C0000000000000000000000000000000000000000000000000000000000000F03F0C000000100000000B000000C400000026000000CDCCCCCCCC7C3F4000000000
310
000012C0000000000000000000000000000000000000000000000000000000000000F03F000000000000F03F0000000000000000000000000000000041003000350037005F0043005F003000300036000000000014000000010000000000000000000840333333333333EB3F0000000000000000000000000000F03F000000
310
00000000000000000000000000000000000000000000000000000000000000000000000000740078007400000000000000BC000000260000003333333333DF514000000000000013C0000000000000000000000000000000000000000000000000000000000000F03F000000000000F03F0000000000000000000000000000
310
00005200650076003A0030003000000000000C000000010000000000000000000C40333333333333EB3F0000000000000000000000000000F03F00000000000000000000000000000000000000000000000000000000000000000000000000000000740078007400000000000000C000000026000000CDCCCCCCCC7C3F4000
310
000000008026C0000000000000000000000000000000000000000000000000000000000000F03F000000000000F03F000000000000000000000000000000005300630061006C0065003A0031003A003100000012000000010000000000000000000C40333333333333EB3F0000000000000000000000000000F03F00000000
310
000000000000000000000000000000000000000000000000000000000000000000000000740078007400000000000000B4000000260000003333333333DF514000000000008025C0000000000000000000000000000000000000000000000000000000000000F03F000000000000F03F000000000000000000000000000000
310
00410032000000000004000000010000000000000000000C40333333333333EB3F0000000000000000000000000000F03F00000000000000000000000000000000000000000000000000000000000000000000000000000000740078007400000000000000E400000026000000CDCCCCCCCC7C3F409A999999995932C00000
310
00000000000000000000000000000000000000000000000000000000F03F000000000000F03F00000000000000000000000000000000460052004F004E00540041004C00450020005000490041004E004F00200054004F004E0044004F00200043004F004D0042004F003400000036000000010000009A9999999999054033
310
3333333333EB3F0000000000000000000000000000F03F00000000000000000000000000000000000000000000000000000000000000000000000000000000740078007400000000000000C800000026000000CDCCCCCCCC7C3F400000000000C039C000000000000000000000000000000000000000000000000000000000
310
0000F03F000000000000F03F0000000000000000000000000000000044004100540045003A00310032002E00310032002E003100390000001A000000010000000000000000000440333333333333EB3F0000000000000000000000000000F03F00000000000000000000000000000000000000000000000000000000000000
310
0000000000000000007400780074000000000000001801000026000000CDCCCCCCCCCCF73F0000000000903DC0000000000000000000000000000000000000000000000000000000000000F03F000000000000F03F0000000000000000000000000000000041006E007900200069006E00740065006700720061006C002000
310
6F00720020007000610072007400690061006C00200072006500700072006F00640075006300740069006F006E00730020006100720065002000700072006F0068006900620069007400650064000000000068000000010000000000000000000240333333333333EB3F0000000000000000000000000000F03F0000000000
310
00000000000000000000000000000000000000000000000000000000000000000000007400780074000000000000002001000026000000CDCCCCCCCCCCF73F00000000007840C0000000000000000000000000000000000000000000000000000000000000F03F000000000000F03F00000000000000000000000000000000
310
77006900740068006F007500740020007000720069006F007200200061007500740068006F007200690073006100740069006F006E0020006F00660020004C002000260020004C0020004C007500630065002000260020004C006900670068007400200073002E0072002E006C002E002C0000007200000001000000000000
310
0000000240333333333333EB3F0000000000000000000000000000F03F00000000000000000000000000000000000000000000000000000000000000000000000000000000740078007400000000000000F800000026000000CDCCCCCCCCCCF73F00000000002842C000000000000000000000000000000000000000000000
310
0000000000000000F03F000000000000F03F0000000000000000000000000000000069006E0020006100630063006F007200640061006E006300650020007700690074006800200074006800650020006C0061007700200069006E00200066006F007200630065002E00000000004800000001000000000000000000024033
310
3333333333EB3F0000000000000000000000000000F03F00000000000000000000000000000000000000000000000000000000000000000000000000000000740078007400000000000000D800000026000000CDCCCCCCCCCCF73F0000000000D843C000000000000000000000000000000000000000000000000000000000
310
0000F03F000000000000F03F0000000000000000000000000000000041006C006C0020007200690067006800740073002000720065007300650072007600650064002E000000000028000000010000000000000000000240333333333333EB3F0000000000000000000000000000F03F000000000000000000000000000000
310
00000000000000000000000000000000000000000000000000740078007400000000000000080000001F000000
100
AcDbBlockReference
  2
*T5
 10
493.7467
 20
50.274325
 30
0.0
100
AcDbTable
342
42E
343
213
 11
1.0
 21
0.0
 31
0.0
 90
       22
 91
        5
 92
        5
 93
        0
 94
        0
 95
        0
 96
        0
141
6.0
141
6.0
141
10.0
141
5.0
141
13.0
142
10.0
142
10.0
142
10.0
142
40.0
142
20.0
171
     1
172
     0
173
     0
174
     0
175
     3
176
     4
 91
       32
178
     0
145
0.0
140
3.5
 92
        0
301
CELL_VALUE
 93
        2
 90
        4
  1
 
 94
        0
300

302
 
304
ACVALUE_END
171
     1
172
     0
173
     1
174
     0
175
     1
176
     1
 91
        0
178
     0
145
0.0
 92
        0
301
CELL_VALUE
 93
        3
 90
        0
 91
        0
 94
        0
300

302

304
ACVALUE_END
171
     1
172
     0
173
     1
174
     0
175
     1
176
     1
 91
        0
178
     0
145
0.0
 92
        0
301
CELL_VALUE
 93
        3
 90
        0
 91
        0
 94
        0
300

302

304
ACVALUE_END
171
     1
172
     0
173
     0
174
     0
175
     1
176
     1
 91
       49
178
     0
145
0.0
170
     4
  7
TEXTSTYLE_5
140
3.0
 92
        0
301
CELL_VALUE
 93
        2
 90
        4
  1
A057_C_006
 94
        0
300

302
A057_C_006
304
ACVALUE_END
171
     1
172
     0
173
     0
174
     0
175
     1
176
     1
 91
       49
178
     0
145
0.0
170
     4
  7
TEXTSTYLE_5
140
3.5
 92
        0
301
CELL_VALUE
 93
        2
 90
        4
  1
Rev:00
 94
        0
300

302
Rev:00
304
ACVALUE_END
171
     1
172
     0
173
     1
174
     0
175
     1
176
     1
 91
        0
178
     0
145
0.0
 92
        0
301
CELL_VALUE
 93
        3
 90
        0
 91
        0
 94
        0
300

302

304
ACVALUE_END
171
     1
172
     0
173
     1
174
     0
175
     1
176
     1
 91
        0
178
     0
145
0.0
 92
        0
301
CELL_VALUE
 93
        3
 90
        0
 91
        0
 94
        0
300

302

304
ACVALUE_END
171
     1
172
     0
173
     1
174
     0
175
     1
176
     1
 91
        0
178
     0
145
0.0
 92
        0
301
CELL_VALUE
 93
        3
 90
        0
 91
        0
 94
        0
300

302

304
ACVALUE_END
171
     1
172
     0
173
     0
174
     0
175
     1
176
     1
 91
       49
178
     0
145
0.0
170
     1
  7
TEXTSTYLE_5
140
3.5
 92
        0
301
CELL_VALUE
 93
        2
 90
        4
  1
Scale:1:1
 94
        0
300

302
Scale:1:1
304
ACVALUE_END
171
     1
172
     0
173
     0
174
     0
175
     1
176
     1
 91
       49
178
     0
145
0.0
170
     4
  7
TEXTSTYLE_5
140
3.5
 92
        0
301
CELL_VALUE
 93
        2
 90
        4
  1
A2
 94
        0
300

302
A2
304
ACVALUE_END
171
     1
172
     0
173
     1
174
     0
175
     1
176
     1
 91
        0
178
     0
145
0.0
 92
        0
301
CELL_VALUE
 93
        3
 90
        0
 91
        0
 94
        0
300

302

304
ACVALUE_END
171
     1
172
     0
173
     1
174
     0
175
     1
176
     1
 91
        0
178
     0
145
0.0
 92
        0
301
CELL_VALUE
 93
        3
 90
        0
 91
        0
 94
        0
300

302

304
ACVALUE_END
171
     1
172
     0
173
     1
174
     0
175
     1
176
     1
 91
        0
178
     0
145
0.0
 92
        0
301
CELL_VALUE
 93
        3
 90
        0
 91
        0
 94
        0
300

302

304
ACVALUE_END
171
     1
172
     0
173
     0
174
     0
175
     2
176
     1
 91
       49
178
     0
145
0.0
170
     4
  7
TEXTSTYLE_5
140
2.7
 92
        0
301
CELL_VALUE
 93
        2
 90
        4
  1
FRONTALE PIANO TONDO COMBO4
 94
        0
300

302
FRONTALE PIANO TONDO COMBO4
304
ACVALUE_END
171
     1
172
     0
173
     1
174
     0
175
     1
176
     1
 91
        0
178
     0
145
0.0
 92
        0
301
CELL_VALUE
 93
        3
 90
        0
 91
        0
 94
        0
300

302

304
ACVALUE_END
171
     1
172
     0
173
     1
174
     0
175
     1
176
     1
 91
        0
178
     0
145
0.0
 92
        0
301
CELL_VALUE
 93
        3
 90
        0
 91
        0
 94
        0
300

302

304
ACVALUE_END
171
     1
172
     0
173
     1
174
     0
175
     1
176
     1
 91
        0
178
     0
145
0.0
 92
        0
301
CELL_VALUE
 93
        3
 90
        0
 91
        0
 94
        0
300

302

304
ACVALUE_END
171
     1
172
     0
173
     1
174
     0
175
     1
176
     1
 91
        0
178
     0
145
0.0
 92
        0
301
CELL_VALUE
 93
        3
 90
        0
 91
        0
 94
        0
300

302

304
ACVALUE_END
171
     1
172
     0
173
     0
174
     0
175
     2
176
     1
 91
       49
178
     0
145
0.0
170
     4
  7
TEXTSTYLE_5
140
2.5
 92
        0
301
CELL_VALUE
 93
        2
 90
        4
  1
DATE:12.12.19
 94
        0
300

302
DATE:12.12.19
304
ACVALUE_END
171
     1
172
     0
173
     1
174
     0
175
     1
176
     1
 91
        0
178
     0
145
0.0
 92
        0
301
CELL_VALUE
 93
        3
 90
        0
 91
        0
 94
        0
300

302

304
ACVALUE_END
171
     1
172
     0
173
     0
174
     0
175
     5
176
     1
 91
       49
178
     0
145
0.0
170
     4
  7
TEXTSTYLE_5
140
2.25
 92
        0
301
CELL_VALUE
 93
        2
 90
        4
  1
Any integral or partial reproductions are prohibited \Pwithout prior authorisation of L & L Luce & Light s.r.l., \Pin accordance with the law in force. \PAll rights reserved.
 94
        0
300

302
Any integral or partial reproductions are prohibited \Pwithout prior authorisation of L & L Luce & Light s.r.l., \Pin accordance with the law in force. \PAll rights reserved.
304
ACVALUE_END
171
     1
172
     0
173
     1
174
     0
175
     1
176
     1
 91
        0
178
     0
145
0.0
 92
        0
301
CELL_VALUE
 93
        3
 90
        0
 91
        0
 94
        0
300

302

304
ACVALUE_END
171
     1
172
     0
173
     1
174
     0
175
     1
176
     1
 91
        0
178
     0
145
0.0
 92
        0
301
CELL_VALUE
 93
        3
 90
        0
 91
        0
 94
        0
300

302

304
ACVALUE_END
171
     1
172
     0
173
     1
174
     0
175
     1
176
     1
 91
        0
178
     0
145
0.0
 92
        0
301
CELL_VALUE
 93
        3
 90
        0
 91
        0
 94
        0
300

302

304
ACVALUE_END
171
     1
172
     0
173
     1
174
     0
175
     1
176
     1
 91
        0
178
     0
145
0.0
 92
        0
301
CELL_VALUE
 93
        3
 90
        0
 91
        0
 94
        0
300

302

304
ACVALUE_END
  0
ENDSEC
  0
SECTION
  2
OBJECTS
  0
DICTIONARY
  5
C
330
0
100
AcDbDictionary
281
     1
  3
ACAD_DETAILVIEWSTYLE
350
465
  3
ACAD_GROUP
350
D
  3
ACAD_IMAGE_DICT
350
455
  3
ACAD_LAYOUT
350
1A
  3
ACAD_MATERIAL
350
449
  3
ACAD_MLEADERSTYLE
350
464
  3
ACAD_MLINESTYLE
350
17
  3
ACAD_PLOTSETTINGS
350
19
  3
ACAD_PLOTSTYLENAME
350
E
  3
ACAD_SCALELIST
350
40B
  3
ACAD_SECTIONVIEWSTYLE
350
466
  3
ACAD_TABLESTYLE
350
42D
  3
ACAD_VISUALSTYLE
350
430
  3
ACDB_RECOMPOSE_DATA
350
462
  3
AcDbVariableDictionary
350
45E
  3
HOST_DOC_SETTINGS
350
453
  3
MCS_STREAM_DICT
350
44F
  0
SUN
  5
452
330
1F4
100
AcDbSun
 90
        1
290
     0
 63
     7
421
 16777215
 40
1.0
291
     1
 91
  2455826
 92
 54000000
292
     0
 70
     2
 71
   256
280
     1
  0
DICTIONARY
  5
45C
330
405
100
AcDbDictionary
280
     1
281
     1
  3
ACAD_XREC_ROUNDTRIP
360
45D
  0
DICTIONARY
  5
465
102
{ACAD_REACTORS
330
C
102
}
330
C
100
AcDbDictionary
281
     1
  0
DICTIONARY
  5
D
102
{ACAD_REACTORS
330
C
102
}
330
C
100
AcDbDictionary
281
     1
  0
DICTIONARY
  5
455
102
{ACAD_REACTORS
330
C
102
}
330
C
100
AcDbDictionary
281
     1
  0
DICTIONARY
  5
1A
102
{ACAD_REACTORS
330
C
102
}
330
C
100
AcDbDictionary
281
     1
  3
Layout1
350
408
  3
Model
350
407
  0
DICTIONARY
  5
449
102
{ACAD_REACTORS
330
C
102
}
330
C
100
AcDbDictionary
281
     1
  3
ByBlock
350
44B
  3
ByLayer
350
44A
  3
Global
350
44C
  0
DICTIONARY
  5
464
102
{ACAD_REACTORS
330
C
102
}
330
C
100
AcDbDictionary
281
     1
  0
DICTIONARY
  5
17
102
{ACAD_REACTORS
330
C
102
}
330
C
100
AcDbDictionary
281
     1
  3
Standard
350
18
  0
DICTIONARY
  5
19
102
{ACAD_REACTORS
330
C
102
}
330
C
100
AcDbDictionary
281
     1
  0
ACDBDICTIONARYWDFLT
  5
E
102
{ACAD_REACTORS
330
C
102
}
330
C
100
AcDbDictionary
281
     1
  3
Normal
350
F
100
AcDbDictionaryWithDefault
340
F
  0
DICTIONARY
  5
40B
102
{ACAD_REACTORS
330
C
102
}
330
C
100
AcDbDictionary
281
     1
  3
A0
350
40C
  3
A1
350
40D
  3
A2
350
40E
  3
A3
350
40F
  3
A4
350
410
  3
A5
350
411
  3
A6
350
412
  3
A7
350
413
  3
A8
350
414
  3
A9
350
415
  3
B0
350
416
  3
B1
350
417
  3
B2
350
418
  3
B3
350
419
  3
B4
350
41A
  3
B5
350
41B
  3
B6
350
41C
  3
B7
350
41D
  3
B8
350
41E
  3
B9
350
41F
  3
C0
350
420
  3
C1
350
421
  3
C2
350
422
  3
C3
350
423
  3
C4
350
424
  3
C5
350
425
  3
C6
350
426
  3
C7
350
427
  3
C8
350
428
  3
C9
350
429
  3
D0
350
42A
  3
D1
350
42B
  3
D2
350
42C
  0
DICTIONARY
  5
466
102
{ACAD_REACTORS
330
C
102
}
330
C
100
AcDbDictionary
281
     1
  0
DICTIONARY
  5
42D
102
{ACAD_REACTORS
330
C
102
}
330
C
100
AcDbDictionary
281
     1
  3
Standard
350
42E
  0
DICTIONARY
  5
430
102
{ACAD_REACTORS
330
C
102
}
330
C
100
AcDbDictionary
281
     1
  3
2dWireframe
350
435
  3
Basic
350
438
  3
Brighten
350
43C
  3
ColorChange
350
440
  3
Conceptual
350
43A
  3
Dim
350
43B
  3
EdgeColorOff
350
443
  3
Facepattern
350
43F
  3
Flat
350
431
  3
FlatWithEdges
350
432
  3
Gouraud
350
433
  3
GouraudWithEdges
350
434
  3
Hidden
350
437
  3
JitterOff
350
441
  3
Linepattern
350
43E
  3
OverhangOff
350
442
  3
Realistic
350
439
  3
Shaded
350
448
  3
Shaded with edges
350
447
  3
Shades of Gray
350
444
  3
Sketchy
350
445
  3
Thicken
350
43D
  3
Wireframe
350
436
  3
X-Ray
350
446
  0
XRECORD
  5
462
102
{ACAD_REACTORS
330
C
102
}
330
C
100
AcDbXrecord
280
     1
 90
        1
330
405
330
42E
  0
DICTIONARY
  5
45E
102
{ACAD_REACTORS
330
C
102
}
330
C
100
AcDbDictionary
281
     1
  3
CANNOSCALE
350
45F
  3
CTABLESTYLE
350
463
  0
DICTIONARY
  5
453
102
{ACAD_REACTORS
330
C
102
}
330
C
100
AcDbDictionary
281
     1
  3
NCDocParameters
350
454
  0
DICTIONARY
  5
44F
102
{ACAD_REACTORS
330
C
102
}
330
C
100
AcDbDictionary
281
     1
  3
MC_VERSION_DATA
350
458
  3
MCS_DOCUMENT_ID
350
450
  3
MCS_PARAMS_DATA
350
456
  0
XRECORD
  5
45D
102
{ACAD_REACTORS
330
45C
102
}
330
45C
100
AcDbXrecord
280
     1
102
ACAD_ROUNDTRIP_2008_TABLE_ENTITY
360
45A
 70
     2
 90
        1
 10
0.0
 20
0.0
 30
0.0
 90
        0
 90
        4
361
45B
  0
LAYOUT
  5
408
102
{ACAD_REACTORS
330
1A
102
}
330
1A
100
AcDbPlotSettings
  1

  2
none_device
  4
ISO_A2_(594.00_x_420.00_MM)
  6

 40
0.0
 41
0.0
 42
0.0
 43
0.0
 44
594.0
 45
420.0
 46
0.0
 47
0.0
 48
0.0
 49
0.0
140
0.0
141
0.0
142
1.0
143
1.0
 70
     0
 72
     1
 73
     0
 74
     0
  7

 75
     0
 76
     0
 77
     2
 78
   300
147
1.0
148
0.0
149
0.0
100
AcDbLayout
  1
Layout1
 70
     0
 71
     1
 10
0.0
 20
0.0
 11
594.0
 21
420.0
 12
0.0
 22
0.0
 32
0.0
 14
0.0
 24
0.0
 34
0.0
 15
0.0
 25
0.0
 35
0.0
146
0.0
 13
0.0
 23
0.0
 33
0.0
 16
1.0
 26
0.0
 36
0.0
 17
0.0
 27
1.0
 37
0.0
 76
     0
330
20D
  0
LAYOUT
  5
407
102
{ACAD_REACTORS
330
1A
102
}
330
1A
100
AcDbPlotSettings
  1

  2
none_device
  4
ISO_A2_(594.00_x_420.00_MM)
  6

 40
0.0
 41
0.0
 42
0.0
 43
0.0
 44
594.0
 45
420.0
 46
0.0
 47
0.0
 48
0.0
 49
0.0
140
0.0
141
0.0
142
1.0
143
1.0
 70
  1024
 72
     1
 73
     0
 74
     0
  7

 75
     0
 76
     0
 77
     2
 78
   300
147
1.0
148
0.0
149
0.0
100
AcDbLayout
  1
Model
 70
     0
 71
     0
 10
0.0
 20
0.0
 11
594.0
 21
420.0
 12
0.0
 22
0.0
 32
0.0
 14
0.0
 24
0.0
 34
0.0
 15
0.0
 25
0.0
 35
0.0
146
0.0
 13
0.0
 23
0.0
 33
0.0
 16
1.0
 26
0.0
 36
0.0
 17
0.0
 27
1.0
 37
0.0
 76
     0
330
20C
331
1F4
  0
MATERIAL
  5
44B
102
{ACAD_REACTORS
330
449
102
}
330
449
100
AcDbMaterial
  1
ByBlock
 72
     1
 94
      127
  0
MATERIAL
  5
44A
102
{ACAD_REACTORS
330
449
102
}
330
449
100
AcDbMaterial
  1
ByLayer
 72
     1
 94
      127
  0
MATERIAL
  5
44C
102
{ACAD_REACTORS
330
449
102
}
330
449
100
AcDbMaterial
  1
Global
 72
     1
 94
      127
  0
MLINESTYLE
  5
18
102
{ACAD_REACTORS
330
17
102
}
330
17
100
AcDbMlineStyle
  2
STANDARD
 70
     0
  3

 62
   256
 51
90.0
 52
90.0
 71
     2
 49
0.5
 62
   256
  6
BYLAYER
 49
-0.5
 62
   256
  6
BYLAYER
  0
ACDBPLACEHOLDER
  5
F
102
{ACAD_REACTORS
330
E
102
}
330
E
  0
SCALE
  5
40C
102
{ACAD_REACTORS
330
40B
102
}
330
40B
100
AcDbScale
 70
     0
300
1:1
140
1.0
141
1.0
290
     1
  0
SCALE
  5
40D
102
{ACAD_REACTORS
330
40B
102
}
330
40B
100
AcDbScale
 70
     0
300
1:2
140
1.0
141
2.0
290
     0
  0
SCALE
  5
40E
102
{ACAD_REACTORS
330
40B
102
}
330
40B
100
AcDbScale
 70
     0
300
1:4
140
1.0
141
4.0
290
     0
  0
SCALE
  5
40F
102
{ACAD_REACTORS
330
40B
102
}
330
40B
100
AcDbScale
 70
     0
300
1:5
140
1.0
141
5.0
290
     0
  0
SCALE
  5
410
102
{ACAD_REACTORS
330
40B
102
}
330
40B
100
AcDbScale
 70
     0
300
1:8
140
1.0
141
8.0
290
     0
  0
SCALE
  5
411
102
{ACAD_REACTORS
330
40B
102
}
330
40B
100
AcDbScale
 70
     0
300
1:10
140
1.0
141
10.0
290
     0
  0
SCALE
  5
412
102
{ACAD_REACTORS
330
40B
102
}
330
40B
100
AcDbScale
 70
     0
300
1:16
140
1.0
141
16.0
290
     0
  0
SCALE
  5
413
102
{ACAD_REACTORS
330
40B
102
}
330
40B
100
AcDbScale
 70
     0
300
1:20
140
1.0
141
20.0
290
     0
  0
SCALE
  5
414
102
{ACAD_REACTORS
330
40B
102
}
330
40B
100
AcDbScale
 70
     0
300
1:30
140
1.0
141
30.0
290
     0
  0
SCALE
  5
415
102
{ACAD_REACTORS
330
40B
102
}
330
40B
100
AcDbScale
 70
     0
300
1:40
140
1.0
141
40.0
290
     0
  0
SCALE
  5
416
102
{ACAD_REACTORS
330
40B
102
}
330
40B
100
AcDbScale
 70
     0
300
1:50
140
1.0
141
50.0
290
     0
  0
SCALE
  5
417
102
{ACAD_REACTORS
330
40B
102
}
330
40B
100
AcDbScale
 70
     0
300
1:100
140
1.0
141
100.0
290
     0
  0
SCALE
  5
418
102
{ACAD_REACTORS
330
40B
102
}
330
40B
100
AcDbScale
 70
     0
300
2:1
140
2.0
141
1.0
290
     0
  0
SCALE
  5
419
102
{ACAD_REACTORS
330
40B
102
}
330
40B
100
AcDbScale
 70
     0
300
4:1
140
4.0
141
1.0
290
     0
  0
SCALE
  5
41A
102
{ACAD_REACTORS
330
40B
102
}
330
40B
100
AcDbScale
 70
     0
300
8:1
140
8.0
141
1.0
290
     0
  0
SCALE
  5
41B
102
{ACAD_REACTORS
330
40B
102
}
330
40B
100
AcDbScale
 70
     0
300
10:1
140
10.0
141
1.0
290
     0
  0
SCALE
  5
41C
102
{ACAD_REACTORS
330
40B
102
}
330
40B
100
AcDbScale
 70
     0
300
100:1
140
100.0
141
1.0
290
     0
  0
SCALE
  5
41D
102
{ACAD_REACTORS
330
40B
102
}
330
40B
100
AcDbScale
 70
     0
300
1/128" = 1'-0"
140
0.007812
141
12.0
290
     0
  0
SCALE
  5
41E
102
{ACAD_REACTORS
330
40B
102
}
330
40B
100
AcDbScale
 70
     0
300
1/64" = 1'-0"
140
0.015625
141
12.0
290
     0
  0
SCALE
  5
41F
102
{ACAD_REACTORS
330
40B
102
}
330
40B
100
AcDbScale
 70
     0
300
1/32" = 1'-0"
140
0.03125
141
12.0
290
     0
  0
SCALE
  5
420
102
{ACAD_REACTORS
330
40B
102
}
330
40B
100
AcDbScale
 70
     0
300
1/16" = 1'-0"
140
0.0625
141
12.0
290
     0
  0
SCALE
  5
421
102
{ACAD_REACTORS
330
40B
102
}
330
40B
100
AcDbScale
 70
     0
300
3/32" = 1'-0"
140
0.09375
141
12.0
290
     0
  0
SCALE
  5
422
102
{ACAD_REACTORS
330
40B
102
}
330
40B
100
AcDbScale
 70
     0
300
1/8" = 1'-0"
140
0.125
141
12.0
290
     0
  0
SCALE
  5
423
102
{ACAD_REACTORS
330
40B
102
}
330
40B
100
AcDbScale
 70
     0
300
3/16" = 1'-0"
140
0.1875
141
12.0
290
     0
  0
SCALE
  5
424
102
{ACAD_REACTORS
330
40B
102
}
330
40B
100
AcDbScale
 70
     0
300
1/4" = 1'-0"
140
0.25
141
12.0
290
     0
  0
SCALE
  5
425
102
{ACAD_REACTORS
330
40B
102
}
330
40B
100
AcDbScale
 70
     0
300
3/8" = 1'-0"
140
0.375
141
12.0
290
     0
  0
SCALE
  5
426
102
{ACAD_REACTORS
330
40B
102
}
330
40B
100
AcDbScale
 70
     0
300
1/2" = 1'-0"
140
0.5
141
12.0
290
     0
  0
SCALE
  5
427
102
{ACAD_REACTORS
330
40B
102
}
330
40B
100
AcDbScale
 70
     0
300
3/4" = 1'-0"
140
0.75
141
12.0
290
     0
  0
SCALE
  5
428
102
{ACAD_REACTORS
330
40B
102
}
330
40B
100
AcDbScale
 70
     0
300
1" = 1'-0"
140
1.0
141
12.0
290
     0
  0
SCALE
  5
429
102
{ACAD_REACTORS
330
40B
102
}
330
40B
100
AcDbScale
 70
     0
300
1-1/2" = 1'-0"
140
1.5
141
12.0
290
     0
  0
SCALE
  5
42A
102
{ACAD_REACTORS
330
40B
102
}
330
40B
100
AcDbScale
 70
     0
300
3" = 1'-0"
140
3.0
141
12.0
290
     0
  0
SCALE
  5
42B
102
{ACAD_REACTORS
330
40B
102
}
330
40B
100
AcDbScale
 70
     0
300
6" = 1'-0"
140
6.0
141
12.0
290
     0
  0
SCALE
  5
42C
102
{ACAD_REACTORS
330
40B
102
}
330
40B
100
AcDbScale
 70
     0
300
1'-0" = 1'-0"
140
12.0
141
12.0
290
     0
  0
TABLESTYLE
  5
42E
102
{ACAD_REACTORS
330
42D
102
}
102
{ACAD_XDICTIONARY
360
460
102
}
330
42D
100
AcDbTableStyle
  3
Standard
 70
     0
 71
     0
 40
0.06
 41
0.06
280
     0
281
     0
  7
STANDARD
140
4.5
170
     2
 62
     0
 63
   257
283
     0
 90
        4
 91
        0
  1

274
    -2
284
     1
 64
     0
275
    -2
285
     1
 65
     0
276
    -2
286
     1
 66
     0
277
    -2
287
     1
 67
     0
278
    -2
288
     1
 68
     0
279
    -2
289
     1
 69
     0
  7
STANDARD
140
6.0
170
     5
 62
     0
 63
   257
283
     0
 90
        4
 91
        0
  1

274
    -2
284
     1
 64
     0
275
    -2
285
     1
 65
     0
276
    -2
286
     1
 66
     0
277
    -2
287
     1
 67
     0
278
    -2
288
     1
 68
     0
279
    -2
289
     1
 69
     0
  7
STANDARD
140
4.5
170
     5
 62
     0
 63
   257
283
     0
 90
        4
 91
        0
  1

274
    -2
284
     1
 64
     0
275
    -2
285
     1
 65
     0
276
    -2
286
     1
 66
     0
277
    -2
287
     1
 67
     0
278
    -2
288
     1
 68
     0
279
    -2
289
     1
 69
     0
  0
VISUALSTYLE
  5
435
102
{ACAD_REACTORS
330
430
102
}
330
430
100
AcDbVisualStyle
  2
2dWireframe
 70
     4
177
     3
291
     0
 70
    58
 90
        0
176
     1
 90
        2
176
     1
 90
        0
176
     1
 90
        0
176
     1
 40
0.6
176
     1
 40
30.0
176
     1
 62
     7
420
 16777215
176
     1
 90
        1
176
     1
 90
        4
176
     1
 62
     7
176
     1
 62
   257
176
     1
 90
        1
176
     1
 90
        1
176
     1
 40
1.0
176
     1
 90
        0
176
     1
 62
   257
176
     1
 40
1.0
176
     1
 90
        1
176
     1
 90
        6
176
     1
 90
        2
176
     1
 62
     7
176
     1
 90
        5
176
     1
 90
        0
176
     1
 90
        0
176
     1
290
     0
176
     1
 90
        1
176
     1
 40
0.0
176
     1
 90
        0
176
     1
290
     1
176
     1
290
     1
176
     1
290
     0
176
     1
290
     0
176
     1
290
     0
176
     1
290
     0
176
     1
290
     0
176
     1
290
     0
176
     1
290
     0
176
     1
 90
       50
176
     1
 40
0.0
176
     1
 40
1.0
176
     1
 90
        0
176
     1
 62
    18
420
        0
176
     1
 90
       50
176
     1
 90
        3
176
     1
 62
     5
420
      255
176
     1
290
     0
176
     1
 90
       50
176
     1
 90
       50
176
     1
 90
       50
176
     1
290
     0
176
     1
 90
       50
176
     1
 62
   256
176
     0
 40
1.0
176
     0
 90
        2
176
     1
  1
strokes_ogs.tif
176
     1
290
     0
176
     1
 40
1.0
176
     1
 40
1.0
176
     1
  0
VISUALSTYLE
  5
438
102
{ACAD_REACTORS
330
430
102
}
330
430
100
AcDbVisualStyle
  2
Basic
 70
     7
177
     3
291
     1
 70
    58
 90
        1
176
     1
 90
        0
176
     1
 90
        1
176
     1
 90
        0
176
     1
 40
0.6
176
     1
 40
30.0
176
     1
 62
     7
420
 16777215
176
     1
 90
        0
176
     1
 90
        4
176
     1
 62
     7
176
     1
 62
   257
176
     1
 90
        1
176
     1
 90
        1
176
     1
 40
1.0
176
     1
 90
        8
176
     1
 62
     7
176
     1
 40
1.0
176
     1
 90
        1
176
     1
 90
        6
176
     1
 90
        2
176
     1
 62
     7
176
     1
 90
        5
176
     1
 90
        0
176
     1
 90
        0
176
     1
290
     0
176
     1
 90
        1
176
     1
 40
0.0
176
     1
 90
        0
176
     1
290
     0
176
     1
290
     1
176
     1
290
     1
176
     1
290
     0
176
     1
290
     0
176
     1
290
     0
176
     1
290
     0
176
     1
290
     0
176
     1
290
     0
176
     1
 90
       50
176
     1
 40
0.0
176
     1
 40
1.0
176
     1
 90
        0
176
     1
 62
    18
420
        0
176
     1
 90
       50
176
     1
 90
        3
176
     1
 62
     5
420
      255
176
     1
290
     0
176
     1
 90
       50
176
     1
 90
       50
176
     1
 90
       50
176
     1
290
     0
176
     1
 90
       50
176
     1
 62
   256
176
     0
 40
1.0
176
     0
 90
        2
176
     1
  1
strokes_ogs.tif
176
     1
290
     0
176
     1
 40
1.0
176
     1
 40
1.0
176
     1
  0
VISUALSTYLE
  5
43C
102
{ACAD_REACTORS
330
430
102
}
330
430
100
AcDbVisualStyle
  2
Brighten
 70
    12
177
     3
291
     1
 70
    58
 90
        2
176
     1
 90
        2
176
     1
 90
        0
176
     1
 90
        0
176
     1
 40
0.6
176
     1
 40
30.0
176
     1
 62
     7
420
 16777215
176
     1
 90
        1
176
     1
 90
        4
176
     1
 62
     7
176
     1
 62
   257
176
     1
 90
        1
176
     1
 90
        1
176
     1
 40
1.0
176
     1
 90
        8
176
     1
 62
     7
176
     1
 40
1.0
176
     1
 90
        1
176
     1
 90
        6
176
     1
 90
        2
176
     1
 62
     7
176
     1
 90
        5
176
     1
 90
        0
176
     1
 90
        0
176
     1
290
     0
176
     1
 90
        1
176
     1
 40
50.0
176
     1
 90
        0
176
     1
290
     0
176
     1
290
     1
176
     1
290
     1
176
     1
290
     0
176
     1
290
     0
176
     1
290
     0
176
     1
290
     0
176
     1
290
     0
176
     1
290
     0
176
     1
 90
       50
176
     1
 40
0.0
176
     1
 40
1.0
176
     1
 90
        0
176
     1
 62
    18
420
        0
176
     1
 90
       50
176
     1
 90
        3
176
     1
 62
     5
420
      255
176
     1
290
     0
176
     1
 90
       50
176
     1
 90
       50
176
     1
 90
       50
176
     1
290
     0
176
     1
 90
       50
176
     1
 62
   256
176
     0
 40
1.0
176
     0
 90
        2
176
     1
  1
strokes_ogs.tif
176
     1
290
     0
176
     1
 40
1.0
176
     1
 40
1.0
176
     1
  0
VISUALSTYLE
  5
440
102
{ACAD_REACTORS
330
430
102
}
330
430
100
AcDbVisualStyle
  2
ColorChange
 70
    16
177
     3
291
     1
 70
    58
 90
        2
176
     1
 90
        2
176
     1
 90
        3
176
     1
 90
        0
176
     1
 40
0.6
176
     1
 40
30.0
176
     1
 62
     8
420
  8421504
176
     1
 90
        1
176
     1
 90
        4
176
     1
 62
     7
176
     1
 62
   257
176
     1
 90
        1
176
     1
 90
        1
176
     1
 40
1.0
176
     1
 90
        8
176
     1
 62
     8
420
  8421504
176
     1
 40
1.0
176
     1
 90
        1
176
     1
 90
        6
176
     1
 90
        2
176
     1
 62
     7
176
     1
 90
        5
176
     1
 90
        0
176
     1
 90
        0
176
     1
290
     0
176
     1
 90
        1
176
     1
 40
0.0
176
     1
 90
        0
176
     1
290
     0
176
     1
290
     1
176
     1
290
     1
176
     1
290
     0
176
     1
290
     0
176
     1
290
     0
176
     1
290
     0
176
     1
290
     0
176
     1
290
     0
176
     1
 90
       50
176
     1
 40
0.0
176
     1
 40
1.0
176
     1
 90
        0
176
     1
 62
    18
420
        0
176
     1
 90
       50
176
     1
 90
        3
176
     1
 62
     5
420
      255
176
     1
290
     0
176
     1
 90
       50
176
     1
 90
       50
176
     1
 90
       50
176
     1
290
     0
176
     1
 90
       50
176
     1
 62
   256
176
     0
 40
1.0
176
     0
 90
        2
176
     1
  1
strokes_ogs.tif
176
     1
290
     0
176
     1
 40
1.0
176
     1
 40
1.0
176
     1
  0
VISUALSTYLE
  5
43A
102
{ACAD_REACTORS
330
430
102
}
330
430
100
AcDbVisualStyle
  2
Conceptual
 70
     9
177
     3
291
     0
 70
    58
 90
        3
176
     1
 90
        2
176
     1
 90
        0
176
     1
 90
        0
176
     1
 40
0.6
176
     1
 40
30.0
176
     1
 62
     7
420
 16777215
176
     1
 90
        2
176
     1
 90
        2
176
     1
 62
     7
176
     1
 62
   257
176
     1
 90
        1
176
     1
 90
        1
176
     1
 40
179.0
176
     1
 90
        8
176
     1
 62
     7
176
     1
 40
1.0
176
     1
 90
        1
176
     1
 90
        6
176
     1
 90
        2
176
     1
 62
     7
176
     1
 90
        3
176
     1
 90
        0
176
     1
 90
        0
176
     1
290
     0
176
     1
 90
        1
176
     1
 40
0.0
176
     1
 90
        0
176
     1
290
     0
176
     1
290
     1
176
     1
290
     1
176
     1
290
     0
176
     1
290
     0
176
     1
290
     0
176
     1
290
     0
176
     1
290
     0
176
     1
290
     0
176
     1
 90
       50
176
     1
 40
0.0
176
     1
 40
1.0
176
     1
 90
        0
176
     1
 62
    18
420
        0
176
     1
 90
       50
176
     1
 90
        3
176
     1
 62
     5
420
      255
176
     1
290
     0
176
     1
 90
       50
176
     1
 90
       50
176
     1
 90
       50
176
     1
290
     0
176
     1
 90
       50
176
     1
 62
   256
176
     0
 40
1.0
176
     0
 90
        2
176
     1
  1
strokes_ogs.tif
176
     1
290
     0
176
     1
 40
1.0
176
     1
 40
1.0
176
     1
  0
VISUALSTYLE
  5
43B
102
{ACAD_REACTORS
330
430
102
}
330
430
100
AcDbVisualStyle
  2
Dim
 70
    11
177
     3
291
     1
 70
    58
 90
        2
176
     1
 90
        2
176
     1
 90
        0
176
     1
 90
        0
176
     1
 40
0.6
176
     1
 40
30.0
176
     1
 62
     7
420
 16777215
176
     1
 90
        1
176
     1
 90
        4
176
     1
 62
     7
176
     1
 62
   257
176
     1
 90
        1
176
     1
 90
        1
176
     1
 40
1.0
176
     1
 90
        8
176
     1
 62
     7
176
     1
 40
1.0
176
     1
 90
        1
176
     1
 90
        6
176
     1
 90
        2
176
     1
 62
     7
176
     1
 90
        5
176
     1
 90
        0
176
     1
 90
        0
176
     1
290
     0
176
     1
 90
        1
176
     1
 40
-50.0
176
     1
 90
        0
176
     1
290
     0
176
     1
290
     1
176
     1
290
     1
176
     1
290
     0
176
     1
290
     0
176
     1
290
     0
176
     1
290
     0
176
     1
290
     0
176
     1
290
     0
176
     1
 90
       50
176
     1
 40
0.0
176
     1
 40
1.0
176
     1
 90
        0
176
     1
 62
    18
420
        0
176
     1
 90
       50
176
     1
 90
        3
176
     1
 62
     5
420
      255
176
     1
290
     0
176
     1
 90
       50
176
     1
 90
       50
176
     1
 90
       50
176
     1
290
     0
176
     1
 90
       50
176
     1
 62
   256
176
     0
 40
1.0
176
     0
 90
        2
176
     1
  1
strokes_ogs.tif
176
     1
290
     0
176
     1
 40
1.0
176
     1
 40
1.0
176
     1
  0
VISUALSTYLE
  5
443
102
{ACAD_REACTORS
330
430
102
}
330
430
100
AcDbVisualStyle
  2
EdgeColorOff
 70
    22
177
     3
291
     1
 70
    58
 90
        2
176
     0
 90
        2
176
     0
 90
        0
176
     0
 90
        0
176
     0
 40
0.6
176
     0
 40
30.0
176
     0
 62
     7
420
 16777215
176
     0
 90
        1
176
     0
 90
        4
176
     0
 62
     7
176
     0
 62
   257
176
     0
 90
        1
176
     0
 90
        1
176
     0
 40
1.0
176
     0
 90
        8
176
     2
 62
     7
176
     0
 40
1.0
176
     0
 90
        1
176
     0
 90
        6
176
     0
 90
        2
176
     0
 62
     7
176
     0
 90
        5
176
     0
 90
        0
176
     0
 90
        0
176
     0
290
     0
176
     0
 90
        1
176
     0
 40
0.0
176
     0
 90
        0
176
     0
290
     0
176
     0
290
     1
176
     0
290
     1
176
     0
290
     0
176
     0
290
     0
176
     0
290
     0
176
     0
290
     0
176
     0
290
     0
176
     0
290
     0
176
     0
 90
       50
176
     0
 40
0.0
176
     0
 40
1.0
176
     0
 90
        0
176
     0
 62
    18
420
        0
176
     0
 90
       50
176
     0
 90
        3
176
     0
 62
     5
420
      255
176
     0
290
     0
176
     0
 90
       50
176
     0
 90
       50
176
     0
 90
       50
176
     0
290
     0
176
     0
 90
       50
176
     0
 62
   256
176
     0
 40
1.0
176
     0
 90
        2
176
     0
  1
strokes_ogs.tif
176
     0
290
     0
176
     0
 40
1.0
176
     0
 40
1.0
176
     0
  0
VISUALSTYLE
  5
43F
102
{ACAD_REACTORS
330
430
102
}
330
430
100
AcDbVisualStyle
  2
Facepattern
 70
    15
177
     3
291
     1
 70
    58
 90
        2
176
     1
 90
        2
176
     1
 90
        0
176
     1
 90
        0
176
     1
 40
0.6
176
     1
 40
30.0
176
     1
 62
     7
420
 16777215
176
     1
 90
        1
176
     1
 90
        4
176
     1
 62
     7
176
     1
 62
   257
176
     1
 90
        1
176
     1
 90
        1
176
     1
 40
1.0
176
     1
 90
        8
176
     1
 62
     7
176
     1
 40
1.0
176
     1
 90
        1
176
     1
 90
        6
176
     1
 90
        2
176
     1
 62
     7
176
     1
 90
        5
176
     1
 90
        0
176
     1
 90
        0
176
     1
290
     0
176
     1
 90
        1
176
     1
 40
0.0
176
     1
 90
        0
176
     1
290
     0
176
     1
290
     1
176
     1
290
     1
176
     1
290
     0
176
     1
290
     0
176
     1
290
     0
176
     1
290
     0
176
     1
290
     0
176
     1
290
     0
176
     1
 90
       50
176
     1
 40
0.0
176
     1
 40
1.0
176
     1
 90
        0
176
     1
 62
    18
420
        0
176
     1
 90
       50
176
     1
 90
        3
176
     1
 62
     5
420
      255
176
     1
290
     0
176
     1
 90
       50
176
     1
 90
       50
176
     1
 90
       50
176
     1
290
     0
176
     1
 90
       50
176
     1
 62
   256
176
     0
 40
1.0
176
     0
 90
        2
176
     1
  1
strokes_ogs.tif
176
     1
290
     0
176
     1
 40
1.0
176
     1
 40
1.0
176
     1
  0
VISUALSTYLE
  5
431
102
{ACAD_REACTORS
330
430
102
}
330
430
100
AcDbVisualStyle
  2
Flat
 70
     0
177
     3
291
     1
 70
    58
 90
        2
176
     1
 90
        1
176
     1
 90
        1
176
     1
 90
        2
176
     1
 40
0.6
176
     1
 40
30.0
176
     1
 62
     7
420
 16777215
176
     1
 90
        0
176
     1
 90
        0
176
     1
 62
     7
176
     1
 62
   257
176
     1
 90
        1
176
     1
 90
        1
176
     1
 40
1.0
176
     1
 90
        8
176
     1
 62
     7
176
     1
 40
1.0
176
     1
 90
        1
176
     1
 90
        6
176
     1
 90
        2
176
     1
 62
     7
176
     1
 90
        5
176
     1
 90
        0
176
     1
 90
        0
176
     1
290
     0
176
     1
 90
       13
176
     1
 40
0.0
176
     1
 90
        0
176
     1
290
     0
176
     1
290
     1
176
     1
290
     1
176
     1
290
     0
176
     1
290
     0
176
     1
290
     0
176
     1
290
     0
176
     1
290
     0
176
     1
290
     0
176
     1
 90
       50
176
     1
 40
0.0
176
     1
 40
1.0
176
     1
 90
        0
176
     1
 62
    18
420
        0
176
     1
 90
       50
176
     1
 90
        3
176
     1
 62
     5
420
      255
176
     1
290
     0
176
     1
 90
       50
176
     1
 90
       50
176
     1
 90
       50
176
     1
290
     0
176
     1
 90
       50
176
     1
 62
   256
176
     0
 40
1.0
176
     0
 90
        2
176
     1
  1
strokes_ogs.tif
176
     1
290
     0
176
     1
 40
1.0
176
     1
 40
1.0
176
     1
  0
VISUALSTYLE
  5
432
102
{ACAD_REACTORS
330
430
102
}
330
430
100
AcDbVisualStyle
  2
FlatWithEdges
 70
     1
177
     3
291
     1
 70
    58
 90
        2
176
     1
 90
        1
176
     1
 90
        1
176
     1
 90
        2
176
     1
 40
0.6
176
     1
 40
30.0
176
     1
 62
     7
420
 16777215
176
     1
 90
        1
176
     1
 90
        0
176
     1
 62
     7
176
     1
 62
   257
176
     1
 90
        1
176
     1
 90
        1
176
     1
 40
1.0
176
     1
 90
        0
176
     1
 62
   257
176
     1
 40
1.0
176
     1
 90
        1
176
     1
 90
        6
176
     1
 90
        2
176
     1
 62
     7
176
     1
 90
        5
176
     1
 90
        0
176
     1
 90
        0
176
     1
290
     0
176
     1
 90
       13
176
     1
 40
0.0
176
     1
 90
        0
176
     1
290
     0
176
     1
290
     1
176
     1
290
     1
176
     1
290
     0
176
     1
290
     0
176
     1
290
     0
176
     1
290
     0
176
     1
290
     0
176
     1
290
     0
176
     1
 90
       50
176
     1
 40
0.0
176
     1
 40
1.0
176
     1
 90
        0
176
     1
 62
    18
420
        0
176
     1
 90
       50
176
     1
 90
        3
176
     1
 62
     5
420
      255
176
     1
290
     0
176
     1
 90
       50
176
     1
 90
       50
176
     1
 90
       50
176
     1
290
     0
176
     1
 90
       50
176
     1
 62
   256
176
     0
 40
1.0
176
     0
 90
        2
176
     1
  1
strokes_ogs.tif
176
     1
290
     0
176
     1
 40
1.0
176
     1
 40
1.0
176
     1
  0
VISUALSTYLE
  5
433
102
{ACAD_REACTORS
330
430
102
}
330
430
100
AcDbVisualStyle
  2
Gouraud
 70
     2
177
     3
291
     1
 70
    58
 90
        2
176
     1
 90
        2
176
     1
 90
        1
176
     1
 90
        2
176
     1
 40
0.6
176
     1
 40
30.0
176
     1
 62
     7
420
 16777215
176
     1
 90
        0
176
     1
 90
        0
176
     1
 62
     7
176
     1
 62
   257
176
     1
 90
        1
176
     1
 90
        1
176
     1
 40
1.0
176
     1
 90
        0
176
     1
 62
     7
176
     1
 40
1.0
176
     1
 90
        1
176
     1
 90
        6
176
     1
 90
        2
176
     1
 62
     7
176
     1
 90
        5
176
     1
 90
        0
176
     1
 90
        0
176
     1
290
     0
176
     1
 90
       13
176
     1
 40
0.0
176
     1
 90
        0
176
     1
290
     0
176
     1
290
     1
176
     1
290
     1
176
     1
290
     0
176
     1
290
     0
176
     1
290
     0
176
     1
290
     0
176
     1
290
     0
176
     1
290
     0
176
     1
 90
       50
176
     1
 40
0.0
176
     1
 40
1.0
176
     1
 90
        0
176
     1
 62
    18
420
        0
176
     1
 90
       50
176
     1
 90
        3
176
     1
 62
     5
420
      255
176
     1
290
     0
176
     1
 90
       50
176
     1
 90
       50
176
     1
 90
       50
176
     1
290
     0
176
     1
 90
       50
176
     1
 62
   256
176
     0
 40
1.0
176
     0
 90
        2
176
     1
  1
strokes_ogs.tif
176
     1
290
     0
176
     1
 40
1.0
176
     1
 40
1.0
176
     1
  0
VISUALSTYLE
  5
434
102
{ACAD_REACTORS
330
430
102
}
330
430
100
AcDbVisualStyle
  2
GouraudWithEdges
 70
     3
177
     3
291
     1
 70
    58
 90
        2
176
     1
 90
        2
176
     1
 90
        1
176
     1
 90
        2
176
     1
 40
0.6
176
     1
 40
30.0
176
     1
 62
     7
420
 16777215
176
     1
 90
        1
176
     1
 90
        0
176
     1
 62
     7
176
     1
 62
   257
176
     1
 90
        1
176
     1
 90
        1
176
     1
 40
1.0
176
     1
 90
        0
176
     1
 62
   257
176
     1
 40
1.0
176
     1
 90
        1
176
     1
 90
        6
176
     1
 90
        2
176
     1
 62
     7
176
     1
 90
        5
176
     1
 90
        0
176
     1
 90
        0
176
     1
290
     0
176
     1
 90
       13
176
     1
 40
0.0
176
     1
 90
        0
176
     1
290
     0
176
     1
290
     1
176
     1
290
     1
176
     1
290
     0
176
     1
290
     0
176
     1
290
     0
176
     1
290
     0
176
     1
290
     0
176
     1
290
     0
176
     1
 90
       50
176
     1
 40
0.0
176
     1
 40
1.0
176
     1
 90
        0
176
     1
 62
    18
420
        0
176
     1
 90
       50
176
     1
 90
        3
176
     1
 62
     5
420
      255
176
     1
290
     0
176
     1
 90
       50
176
     1
 90
       50
176
     1
 90
       50
176
     1
290
     0
176
     1
 90
       50
176
     1
 62
   256
176
     0
 40
1.0
176
     0
 90
        2
176
     1
  1
strokes_ogs.tif
176
     1
290
     0
176
     1
 40
1.0
176
     1
 40
1.0
176
     1
  0
VISUALSTYLE
  5
437
102
{ACAD_REACTORS
330
430
102
}
330
430
100
AcDbVisualStyle
  2
Hidden
 70
     6
177
     3
291
     0
 70
    58
 90
        1
176
     1
 90
        2
176
     1
 90
        2
176
     1
 90
        0
176
     1
 40
0.6
176
     1
 40
30.0
176
     1
 62
     7
420
 16777215
176
     1
 90
        2
176
     1
 90
        2
176
     1
 62
     7
176
     1
 62
   257
176
     1
 90
        2
176
     1
 90
        1
176
     1
 40
40.0
176
     1
 90
        0
176
     1
 62
   257
176
     1
 40
1.0
176
     1
 90
        1
176
     1
 90
        6
176
     1
 90
        2
176
     1
 62
     7
176
     1
 90
        3
176
     1
 90
        0
176
     1
 90
        0
176
     1
290
     0
176
     1
 90
        1
176
     1
 40
0.0
176
     1
 90
        0
176
     1
290
     0
176
     1
290
     1
176
     1
290
     1
176
     1
290
     0
176
     1
290
     0
176
     1
290
     0
176
     1
290
     0
176
     1
290
     0
176
     1
290
     0
176
     1
 90
       50
176
     1
 40
0.0
176
     1
 40
1.0
176
     1
 90
        0
176
     1
 62
    18
420
        0
176
     1
 90
       50
176
     1
 90
        3
176
     1
 62
     5
420
      255
176
     1
290
     0
176
     1
 90
       50
176
     1
 90
       50
176
     1
 90
       50
176
     1
290
     0
176
     1
 90
       50
176
     1
 62
   256
176
     0
 40
1.0
176
     0
 90
        2
176
     1
  1
strokes_ogs.tif
176
     1
290
     0
176
     1
 40
1.0
176
     1
 40
1.0
176
     1
  0
VISUALSTYLE
  5
441
102
{ACAD_REACTORS
330
430
102
}
330
430
100
AcDbVisualStyle
  2
JitterOff
 70
    20
177
     3
291
     1
 70
    58
 90
        2
176
     0
 90
        2
176
     0
 90
        0
176
     0
 90
        0
176
     0
 40
0.6
176
     0
 40
30.0
176
     0
 62
     7
420
 16777215
176
     0
 90
        1
176
     0
 90
        4
176
     0
 62
     7
176
     0
 62
   257
176
     0
 90
        1
176
     0
 90
        1
176
     0
 40
1.0
176
     0
 90
       10
176
     2
 62
     7
176
     0
 40
1.0
176
     0
 90
        1
176
     0
 90
        6
176
     0
 90
        2
176
     0
 62
     7
176
     0
 90
        5
176
     0
 90
        0
176
     0
 90
        0
176
     0
290
     0
176
     0
 90
        1
176
     0
 40
0.0
176
     0
 90
        0
176
     0
290
     0
176
     0
290
     1
176
     0
290
     1
176
     0
290
     0
176
     0
290
     0
176
     0
290
     0
176
     0
290
     0
176
     0
290
     0
176
     0
290
     0
176
     0
 90
       50
176
     0
 40
0.0
176
     0
 40
1.0
176
     0
 90
        0
176
     0
 62
    18
420
        0
176
     0
 90
       50
176
     0
 90
        3
176
     0
 62
     5
420
      255
176
     0
290
     0
176
     0
 90
       50
176
     0
 90
       50
176
     0
 90
       50
176
     0
290
     0
176
     0
 90
       50
176
     0
 62
   256
176
     0
 40
1.0
176
     0
 90
        2
176
     0
  1
strokes_ogs.tif
176
     0
290
     0
176
     0
 40
1.0
176
     0
 40
1.0
176
     0
  0
VISUALSTYLE
  5
43E
102
{ACAD_REACTORS
330
430
102
}
330
430
100
AcDbVisualStyle
  2
Linepattern
 70
    14
177
     3
291
     1
 70
    58
 90
        2
176
     1
 90
        2
176
     1
 90
        0
176
     1
 90
        0
176
     1
 40
0.6
176
     1
 40
30.0
176
     1
 62
     7
420
 16777215
176
     1
 90
        1
176
     1
 90
        4
176
     1
 62
     7
176
     1
 62
   257
176
     1
 90
        7
176
     1
 90
        7
176
     1
 40
1.0
176
     1
 90
        8
176
     1
 62
     7
176
     1
 40
1.0
176
     1
 90
        1
176
     1
 90
        6
176
     1
 90
        2
176
     1
 62
     7
176
     1
 90
        5
176
     1
 90
        0
176
     1
 90
        0
176
     1
290
     0
176
     1
 90
        1
176
     1
 40
0.0
176
     1
 90
        0
176
     1
290
     0
176
     1
290
     1
176
     1
290
     1
176
     1
290
     0
176
     1
290
     0
176
     1
290
     0
176
     1
290
     0
176
     1
290
     0
176
     1
290
     0
176
     1
 90
       50
176
     1
 40
0.0
176
     1
 40
1.0
176
     1
 90
        0
176
     1
 62
    18
420
        0
176
     1
 90
       50
176
     1
 90
        3
176
     1
 62
     5
420
      255
176
     1
290
     0
176
     1
 90
       50
176
     1
 90
       50
176
     1
 90
       50
176
     1
290
     0
176
     1
 90
       50
176
     1
 62
   256
176
     0
 40
1.0
176
     0
 90
        2
176
     1
  1
strokes_ogs.tif
176
     1
290
     0
176
     1
 40
1.0
176
     1
 40
1.0
176
     1
  0
VISUALSTYLE
  5
442
102
{ACAD_REACTORS
330
430
102
}
330
430
100
AcDbVisualStyle
  2
OverhangOff
 70
    21
177
     3
291
     1
 70
    58
 90
        2
176
     0
 90
        2
176
     0
 90
        0
176
     0
 90
        0
176
     0
 40
0.6
176
     0
 40
30.0
176
     0
 62
     7
420
 16777215
176
     0
 90
        1
176
     0
 90
        4
176
     0
 62
     7
176
     0
 62
   257
176
     0
 90
        1
176
     0
 90
        1
176
     0
 40
1.0
176
     0
 90
        9
176
     2
 62
     7
176
     0
 40
1.0
176
     0
 90
        1
176
     0
 90
        6
176
     0
 90
        2
176
     0
 62
     7
176
     0
 90
        5
176
     0
 90
        0
176
     0
 90
        0
176
     0
290
     0
176
     0
 90
        1
176
     0
 40
0.0
176
     0
 90
        0
176
     0
290
     0
176
     0
290
     1
176
     0
290
     1
176
     0
290
     0
176
     0
290
     0
176
     0
290
     0
176
     0
290
     0
176
     0
290
     0
176
     0
290
     0
176
     0
 90
       50
176
     0
 40
0.0
176
     0
 40
1.0
176
     0
 90
        0
176
     0
 62
    18
420
        0
176
     0
 90
       50
176
     0
 90
        3
176
     0
 62
     5
420
      255
176
     0
290
     0
176
     0
 90
       50
176
     0
 90
       50
176
     0
 90
       50
176
     0
290
     0
176
     0
 90
       50
176
     0
 62
   256
176
     0
 40
1.0
176
     0
 90
        2
176
     0
  1
strokes_ogs.tif
176
     0
290
     0
176
     0
 40
1.0
176
     0
 40
1.0
176
     0
  0
VISUALSTYLE
  5
439
102
{ACAD_REACTORS
330
430
102
}
330
430
100
AcDbVisualStyle
  2
Realistic
 70
     8
177
     3
291
     0
 70
    58
 90
        2
176
     1
 90
        3
176
     1
 90
        0
176
     1
 90
        2
176
     1
 40
0.6
176
     1
 40
30.0
176
     1
 62
     7
420
 16777215
176
     1
 90
        0
176
     1
 90
        0
176
     1
 62
     7
176
     1
 62
   257
176
     1
 90
        1
176
     1
 90
        1
176
     1
 40
1.0
176
     1
 90
        8
176
     1
 62
   257
176
     1
 40
1.0
176
     1
 90
        1
176
     1
 90
        6
176
     1
 90
        2
176
     1
 62
     7
176
     1
 90
        3
176
     1
 90
        0
176
     1
 90
        0
176
     1
290
     0
176
     1
 90
       13
176
     1
 40
0.0
176
     1
 90
        0
176
     1
290
     0
176
     1
290
     1
176
     1
290
     1
176
     1
290
     0
176
     1
290
     0
176
     1
290
     0
176
     1
290
     0
176
     1
290
     0
176
     1
290
     0
176
     1
 90
       50
176
     1
 40
0.0
176
     1
 40
1.0
176
     1
 90
        0
176
     1
 62
    18
420
        0
176
     1
 90
       50
176
     1
 90
        3
176
     1
 62
     5
420
      255
176
     1
290
     0
176
     1
 90
       50
176
     1
 90
       50
176
     1
 90
       50
176
     1
290
     0
176
     1
 90
       50
176
     1
 62
   256
176
     0
 40
1.0
176
     0
 90
        2
176
     1
  1
strokes_ogs.tif
176
     1
290
     0
176
     1
 40
1.0
176
     1
 40
1.0
176
     1
  0
VISUALSTYLE
  5
448
102
{ACAD_REACTORS
330
430
102
}
330
430
100
AcDbVisualStyle
  2
Shaded
 70
    27
177
     3
291
     0
 70
    58
 90
        2
176
     1
 90
        2
176
     1
 90
        1
176
     1
 90
        2
176
     1
 40
0.6
176
     1
 40
30.0
176
     1
 62
     7
420
 16777215
176
     1
 90
        0
176
     1
 90
        4
176
     1
 62
     7
176
     1
 62
   257
176
     1
 90
        1
176
     1
 90
        1
176
     1
 40
1.0
176
     1
 90
        8
176
     1
 62
   257
176
     1
 40
1.0
176
     1
 90
        1
176
     1
 90
        6
176
     1
 90
        2
176
     1
 62
     8
420
  7895160
176
     1
 90
        3
176
     1
 90
        0
176
     1
 90
        0
176
     1
290
     0
176
     1
 90
        5
176
     1
 40
0.0
176
     1
 90
        0
176
     1
290
     0
176
     1
290
     1
176
     1
290
     1
176
     1
290
     0
176
     1
290
     0
176
     1
290
     0
176
     1
290
     0
176
     1
290
     0
176
     1
290
     0
176
     1
 90
       50
176
     1
 40
0.0
176
     1
 40
1.0
176
     1
 90
        0
176
     1
 62
    18
420
        0
176
     1
 90
       50
176
     1
 90
        3
176
     1
 62
     5
420
      255
176
     1
290
     0
176
     1
 90
       50
176
     1
 90
       50
176
     1
 90
       50
176
     1
290
     0
176
     1
 90
       50
176
     1
 62
   256
176
     0
 40
1.0
176
     0
 90
        2
176
     1
  1
strokes_ogs.tif
176
     1
290
     0
176
     1
 40
1.0
176
     1
 40
1.0
176
     1
  0
VISUALSTYLE
  5
447
102
{ACAD_REACTORS
330
430
102
}
330
430
100
AcDbVisualStyle
  2
Shaded with edges
 70
    26
177
     3
291
     0
 70
    58
 90
        2
176
     1
 90
        2
176
     1
 90
        1
176
     1
 90
        2
176
     1
 40
0.6
176
     1
 40
30.0
176
     1
 62
     7
420
 16777215
176
     1
 90
        1
176
     1
 90
       10
176
     1
 62
     7
176
     1
 62
   257
176
     1
 90
        2
176
     1
 90
        1
176
     1
 40
1.0
176
     1
 90
        8
176
     1
 62
   257
176
     1
 40
1.0
176
     1
 90
        1
176
     1
 90
        6
176
     1
 90
        2
176
     1
 62
     7
176
     1
 90
        3
176
     1
 90
        0
176
     1
 90
        0
176
     1
290
     0
176
     1
 90
        5
176
     1
 40
0.0
176
     1
 90
        0
176
     1
290
     0
176
     1
290
     1
176
     1
290
     1
176
     1
290
     0
176
     1
290
     0
176
     1
290
     0
176
     1
290
     0
176
     1
290
     0
176
     1
290
     0
176
     1
 90
       50
176
     1
 40
0.0
176
     1
 40
1.0
176
     1
 90
        0
176
     1
 62
    18
420
        0
176
     1
 90
       50
176
     1
 90
        3
176
     1
 62
     5
420
      255
176
     1
290
     0
176
     1
 90
       50
176
     1
 90
       50
176
     1
 90
       50
176
     1
290
     0
176
     1
 90
       50
176
     1
 62
   256
176
     0
 40
1.0
176
     0
 90
        2
176
     1
  1
strokes_ogs.tif
176
     1
290
     0
176
     1
 40
1.0
176
     1
 40
1.0
176
     1
  0
VISUALSTYLE
  5
444
102
{ACAD_REACTORS
330
430
102
}
330
430
100
AcDbVisualStyle
  2
Shades of Gray
 70
    23
177
     3
291
     0
 70
    58
 90
        2
176
     1
 90
        2
176
     1
 90
        3
176
     1
 90
        0
176
     1
 40
0.6
176
     1
 40
30.0
176
     1
 62
     7
420
 16777215
176
     1
 90
        2
176
     1
 90
        2
176
     1
 62
     7
176
     1
 62
     7
176
     1
 90
        1
176
     1
 90
        1
176
     1
 40
40.0
176
     1
 90
        8
176
     1
 62
     7
176
     1
 40
1.0
176
     1
 90
        1
176
     1
 90
        6
176
     1
 90
        2
176
     1
 62
     7
176
     1
 90
        3
176
     1
 90
        0
176
     1
 90
        0
176
     1
290
     0
176
     1
 90
        1
176
     1
 40
0.0
176
     1
 90
        0
176
     1
290
     0
176
     1
290
     1
176
     1
290
     1
176
     1
290
     0
176
     1
290
     0
176
     1
290
     0
176
     1
290
     0
176
     1
290
     0
176
     1
290
     0
176
     1
 90
       50
176
     1
 40
0.0
176
     1
 40
1.0
176
     1
 90
        0
176
     1
 62
    18
420
        0
176
     1
 90
       50
176
     1
 90
        3
176
     1
 62
     5
420
      255
176
     1
290
     0
176
     1
 90
       50
176
     1
 90
       50
176
     1
 90
       50
176
     1
290
     0
176
     1
 90
       50
176
     1
 62
   256
176
     0
 40
1.0
176
     0
 90
        2
176
     1
  1
strokes_ogs.tif
176
     1
290
     0
176
     1
 40
1.0
176
     1
 40
1.0
176
     1
  0
VISUALSTYLE
  5
445
102
{ACAD_REACTORS
330
430
102
}
330
430
100
AcDbVisualStyle
  2
Sketchy
 70
    24
177
     3
291
     0
 70
    58
 90
        1
176
     1
 90
        2
176
     1
 90
        2
176
     1
 90
        0
176
     1
 40
0.6
176
     1
 40
30.0
176
     1
 62
     7
420
 16777215
176
     1
 90
        2
176
     1
 90
        2
176
     1
 62
     7
176
     1
 62
     7
176
     1
 90
        1
176
     1
 90
        1
176
     1
 40
40.0
176
     1
 90
       11
176
     1
 62
     7
176
     1
 40
1.0
176
     1
 90
        1
176
     1
 90
        6
176
     1
 90
        2
176
     1
 62
     7
176
     1
 90
        6
176
     1
 90
        0
176
     1
 90
        0
176
     1
290
     0
176
     1
 90
        1
176
     1
 40
0.0
176
     1
 90
        0
176
     1
290
     0
176
     1
290
     1
176
     1
290
     1
176
     1
290
     0
176
     1
290
     0
176
     1
290
     0
176
     1
290
     0
176
     1
290
     0
176
     1
290
     0
176
     1
 90
       50
176
     1
 40
0.0
176
     1
 40
1.0
176
     1
 90
        0
176
     1
 62
    18
420
        0
176
     1
 90
       50
176
     1
 90
        3
176
     1
 62
     5
420
      255
176
     1
290
     0
176
     1
 90
       50
176
     1
 90
       50
176
     1
 90
       50
176
     1
290
     0
176
     1
 90
       50
176
     1
 62
   256
176
     0
 40
1.0
176
     0
 90
        2
176
     1
  1
strokes_ogs.tif
176
     1
290
     0
176
     1
 40
1.0
176
     1
 40
1.0
176
     1
  0
VISUALSTYLE
  5
43D
102
{ACAD_REACTORS
330
430
102
}
330
430
100
AcDbVisualStyle
  2
Thicken
 70
    13
177
     3
291
     1
 70
    58
 90
        2
176
     1
 90
        2
176
     1
 90
        0
176
     1
 90
        0
176
     1
 40
0.6
176
     1
 40
30.0
176
     1
 62
     7
420
 16777215
176
     1
 90
        1
176
     1
 90
        4
176
     1
 62
     7
176
     1
 62
   257
176
     1
 90
        1
176
     1
 90
        1
176
     1
 40
1.0
176
     1
 90
       12
176
     1
 62
     7
176
     1
 40
1.0
176
     1
 90
        1
176
     1
 90
        6
176
     1
 90
        2
176
     1
 62
     7
176
     1
 90
        5
176
     1
 90
        0
176
     1
 90
        0
176
     1
290
     0
176
     1
 90
        1
176
     1
 40
0.0
176
     1
 90
        0
176
     1
290
     0
176
     1
290
     1
176
     1
290
     1
176
     1
290
     0
176
     1
290
     0
176
     1
290
     0
176
     1
290
     0
176
     1
290
     0
176
     1
290
     0
176
     1
 90
       50
176
     1
 40
0.0
176
     1
 40
1.0
176
     1
 90
        0
176
     1
 62
    18
420
        0
176
     1
 90
       50
176
     1
 90
        3
176
     1
 62
     5
420
      255
176
     1
290
     0
176
     1
 90
       50
176
     1
 90
       50
176
     1
 90
       50
176
     1
290
     0
176
     1
 90
       50
176
     1
 62
   256
176
     0
 40
1.0
176
     0
 90
        2
176
     1
  1
strokes_ogs.tif
176
     1
290
     0
176
     1
 40
1.0
176
     1
 40
1.0
176
     1
  0
VISUALSTYLE
  5
436
102
{ACAD_REACTORS
330
430
102
}
330
430
100
AcDbVisualStyle
  2
Wireframe
 70
     5
177
     3
291
     0
 70
    58
 90
        0
176
     1
 90
        2
176
     1
 90
        0
176
     1
 90
        0
176
     1
 40
0.6
176
     1
 40
30.0
176
     1
 62
     7
420
 16777215
176
     1
 90
        1
176
     1
 90
        4
176
     1
 62
     7
176
     1
 62
   257
176
     1
 90
        1
176
     1
 90
        1
176
     1
 40
1.0
176
     1
 90
        0
176
     1
 62
   257
176
     1
 40
1.0
176
     1
 90
        1
176
     1
 90
        6
176
     1
 90
        2
176
     1
 62
     7
176
     1
 90
        3
176
     1
 90
        0
176
     1
 90
        0
176
     1
290
     0
176
     1
 90
        1
176
     1
 40
0.0
176
     1
 90
        0
176
     1
290
     0
176
     1
290
     1
176
     1
290
     1
176
     1
290
     0
176
     1
290
     0
176
     1
290
     0
176
     1
290
     0
176
     1
290
     0
176
     1
290
     0
176
     1
 90
       50
176
     1
 40
0.0
176
     1
 40
1.0
176
     1
 90
        0
176
     1
 62
    18
420
        0
176
     1
 90
       50
176
     1
 90
        3
176
     1
 62
     5
420
      255
176
     1
290
     0
176
     1
 90
       50
176
     1
 90
       50
176
     1
 90
       50
176
     1
290
     0
176
     1
 90
       50
176
     1
 62
   256
176
     0
 40
1.0
176
     0
 90
        2
176
     1
  1
strokes_ogs.tif
176
     1
290
     0
176
     1
 40
1.0
176
     1
 40
1.0
176
     1
  0
VISUALSTYLE
  5
446
102
{ACAD_REACTORS
330
430
102
}
330
430
100
AcDbVisualStyle
  2
X-Ray
 70
    25
177
     3
291
     0
 70
    58
 90
        2
176
     1
 90
        2
176
     1
 90
        1
176
     1
 90
        1
176
     1
 40
0.5
176
     1
 40
30.0
176
     1
 62
     7
420
 16777215
176
     1
 90
        1
176
     1
 90
        0
176
     1
 62
     7
176
     1
 62
   257
176
     1
 90
        1
176
     1
 90
        1
176
     1
 40
1.0
176
     1
 90
        8
176
     1
 62
     7
176
     1
 40
1.0
176
     1
 90
        1
176
     1
 90
        6
176
     1
 90
        2
176
     1
 62
     7
176
     1
 90
        3
176
     1
 90
        0
176
     1
 90
        0
176
     1
290
     0
176
     1
 90
       13
176
     1
 40
0.0
176
     1
 90
        0
176
     1
290
     0
176
     1
290
     1
176
     1
290
     1
176
     1
290
     0
176
     1
290
     0
176
     1
290
     0
176
     1
290
     0
176
     1
290
     0
176
     1
290
     0
176
     1
 90
       50
176
     1
 40
0.0
176
     1
 40
1.0
176
     1
 90
        0
176
     1
 62
    18
420
        0
176
     1
 90
       50
176
     1
 90
        3
176
     1
 62
     5
420
      255
176
     1
290
     0
176
     1
 90
       50
176
     1
 90
       50
176
     1
 90
       50
176
     1
290
     0
176
     1
 90
       50
176
     1
 62
   256
176
     0
 40
1.0
176
     0
 90
        2
176
     1
  1
strokes_ogs.tif
176
     1
290
     0
176
     1
 40
1.0
176
     1
 40
1.0
176
     1
  0
DICTIONARYVAR
  5
45F
102
{ACAD_REACTORS
330
45E
102
}
330
45E
100
DictionaryVariables
280
     0
  1
1:1
  0
DICTIONARYVAR
  5
463
102
{ACAD_REACTORS
330
45E
102
}
330
45E
100
DictionaryVariables
280
     0
  1
Standard
  0
CSACDOCUMENTOPTIONS
  5
454
102
{ACAD_REACTORS
330
453
102
}
330
453
  0
XRECORD
  5
458
102
{ACAD_REACTORS
330
44F
102
}
330
44F
100
AcDbXrecord
280
     1
300
MC_VERSION_DATA
 90
       95
310
0600000002000000570000001C000000E404000000000000000000007801936764E5D8CF7A8393818115C460606066E0646662626666706006F214793899F8DE3171E725E6E53B3BBA2878E6951050AF75FEFFFFFF520032DE0F3057000000
  0
XRECORD
  5
450
102
{ACAD_REACTORS
330
44F
102
}
330
44F
100
AcDbXrecord
280
     1
300
MCS_DOCUMENT_ID
 90
       60
310
0600000002000000150000001C000000E404000000000000000000007801E33D23BD2AD26AE616AF65113DA6B3D58FCCFC0F0400697E0BA315000000
  0
XRECORD
  5
456
102
{ACAD_REACTORS
330
44F
102
}
330
44F
100
AcDbXrecord
280
     1
300
MCS_PARAMS_DATA
 90
     3313
310
0600000002000000F64B00001C000000E404000000000000000000007801C55C5B905C45199EE99EBDCCE67E5DA218172C303B91307B4B8C459531245054850D55591F78B236BB49B9BAC9E6B22A082A9655BE5865596569A965F9209288CF16503EC8834088C10B092404211702988430422E9084CDAEFFD7A7FBF4DFA7CF
310
D9D99D9D39930798FF3F7DCEF7DFFAFBBBFBCC6CDBFC46297252EECB48F9CDF5ED5234493921A5206D76815820B252E4F3225F128D7D5F59BF69E3162948D9A2D485B3131313747328BF06593E960915079422437734AA3BDAA5CCD053F5ED4FD2557D257BAB94DF007A03479F859BB2B22193C9108EC1CDCADC0464C27506
310
28605703E48886E0B986E10F03BF91E33707F8E3140E7A9091C8268236920C1C662240B94888A1C8E07600AE99C32D5131CA8B3925D172EFE62D7D6D9DABBA8ADDD6F17CE16D13F0457AE8AC9268DE32DABF73B07FCFA013F9BF8491D7C17E2550D8E8FFCA8DFE4E98B3929B331718B291824FFF72EB941D9E8E2211D5A93C
310
784A44C557923911258BD0C8640531AEEC61A924855B11378280384364A422680C0A928DB9C10CD89D581114199665B722B26E4590C82B0222AB08FAA8A60626C028E0044F81BA246F5360E167F2D27C56A10E05C058C13C59DEC6207679103AFC5DEADF992F2B284F67B31C8EE359B64A9665A62453228F64269D98455E3B
310
A4B35817F7EC92C86FB8EFFE8DBD5BEEDBDCAB0CD3B5FC8E99065A7E55D536E39DE7826237F1C8BBBCB3CFADFC93302087C80397EE69C2FF69CA32234F0763E41851010DA578E8294D435524988818E84710A7B2643B4F7C034F6CE5C9368F203BE8094C6268541D70D35EE4B585DAE170F4942EB8D2D422560A9917F34B62
310
CE86919D9F1F6DDBB36DD770FFC0B6BC682E898607BEB5737424F8D83B323AF07529CFC0B69BB96D9FD3CFF9B410ED79B1A42416161FEA29AEEDEEEC5ADF532C76DEF3C5AEEEB5CAECF97A60330D2C1C3579EAD0DA7621F20269BD6768746FDBF0D0DE51F3B0EE356B3ABBD6F474F7740D76770EACED08FCFC92BEAF13F701
310
B5AF7FEBF0B6B691ED6D7D23C3DBF6F4EF840FDA9AD583C58E81E240FFEAADDD5BD70EAC0E669D2A25F27FB610851F9335859F059541B9E5971EC7A5A7E83F2CE53DB9A4040555A2661A4DDBF2C560B2E54E7D5483931EF871F7C88E5DFDA3435B878687461F6EDB313248FE3596847C70DBDEBC682809D13B22E56A5856E4
310
E9998738519B6E2A89DCE6EDDBDB542AF4E4380F8F61A4965F57116093E5A052A06AF588670205D9A715FB49B140D81A90855F902680EBB8B3A3187EEA96F2B224E392BAF898328CB1AD47DA34C1601A1B421AD816D190715CC3F276A5DE067C546F03AED6DB808FEB6DC0B57A1BB00853B49EB3E0937A47E07ABD0D188301
310
71CB797197D3603B1D06BFCB6DB024827C0C834324E60945463B3712E196397079076E990B47228783C8E09631B8F129C211385B3E540C97413DC70673C524DEAD70BD23917B079179B782793791AE77D944EFDCDC5529988B13E1069D6092C472A7F777A6F648E4C184C88239C8822913E16AE29D48176E29E0727C316496
310
EF2A967C95165E504B0C2B218EEE82DD5C63513CD614C5091F6D6FA7551865CC5C5030A1E0A3E84BEC86CFD04EC5DD01AA74CBDB05AB8C403295A124BB2908C4B032B4682A032283FB103E391B4E03172C7199C4E0F88E871E8855ADA1482D3238FA1846E0B807A77785BFF935FE1D74369F5647D0D171CA5F4F09337C2559
310
105132935A503D6DBC7A94B54D2B6DF1E0339960F436A97441791E5EC104D40283580888C4FDED577B1FD8B4B9AF6FE30605D8AAD7F1F34A62F6DD5BBEC62E92057A31FEA25A9DB3F5FBD3C1729D9CD723B0BF0DE8402BB05A67160DDE4416E59079C0D9EAA575B7321F67115FC018C76AB5B3A33D06B68CBD9BFBDC93C073
310
800CC384FD360C544F539B6F02B1820953BE9D01DE01C0D85A6C50369A5AC4065C7760793B965800321749E4B50891C0C2AB0CAE9808178444974C70F875952A9381563C01BE9D08EAFA481283ABD8C7EF7870DAABE068E68833DFAC8EA0A3E3F87C0B07AA507B2311F0889285BDC333294C4E2DB27C67BA70ABD2857B688A
310
70552AA7873DB8489E55063D5D2DCBE9BB9E49F1E554A5083C922EDCA3E9C27D2F5DB8EF7B705EE9D87E1E920E88313AAE6AECF4FBD668D3D30DB4E51ADA9BEDB0D7AFCEB4DDED85F7C4ECF6551B3BCE2AFF6E835E49458EC94883D6E73C45753FAE614C3C0A0362777435D915EC025C33F7578776011DE6F3D066954C59D6
310
D76F86AC9CD58A53F4122CF0552BAE070AEA3B5AF15752304F1F47569D50AB71F41A31FA5A51C904CD43C6B0F51D2ACEFC112ACC4CC1B0FF086CE7AD5A4D096A005126387AAD451EE384D9C035A925859E39C1AA865EE9A9B8DA21CEE289167F7CF1D4C4BC7A125EC5AED5D8BB0B5A9D9144D134CFA71BF85A8D44BE568348
310
F6AA55A2F3CAEA4F6982FD21118CC249D3CBF852A586F244BA70FBD285DB9F085793EDE56E143F0AD06C6B4CB2242BDD3DD1419166C2865E81F9CE1648F3CBD84597B22E28992A3DDCE24C77F3F311A01C8A722828EC3CF15F7D987933F818F8E59BC138E5CD4CE8AC24C94E68BA32F5C3CBAB808B6B06B9936E642F9F804C
310
903AF2F3709D37832318A078E4B37AEBDCFAA66859945B9EBB25776BAE2DD3995995E9CA1433DDFA4DAC7ECE6FE93696E96BB06712968ED2661884A9EE40230F60D0D73DE8C858453B9E8E4212D5A9B0784A762662599FEDD18C9299F4094C728A91F536658E91CDA6DFC8E89F363B15B4CB31404FD2581CF722BBF229B517
310
430944E56AB2E2A8E3461950730F2B7ECA7BC570E389706E8BA9D241C744225C40C29385944F707279EA277D998065D9EAD604B1263E66D38513E9C2490F4EE7CC6E8AA89C3D9DA588701CA708AB6414C194931EE3FC0D4515D71A4FBFE712F8CB4A26532A6E8DCF01CA61A3745BE3F3C09F6E6B442F0CD7BAD36A8D2F002E
310
AE359E3BE646F6B8926D6BBC0CD9926FBEF08C5220B9BAE91D0E14769FF44B52301E3C00E8FA74C117BD24F396E22C7F1005F2DA2902EB76053DE720B0D3EE397F2F036AE8B24A3DE750225C4DF8F8A544B81AF69C7F2482D6C4C77F067093EF36FE359541FF8E0E8A50399BA22F63681CEF0EBDEBB2C3834A9E09EF1E0654
310
1D79F708F0A7CBBB956F495E015C1CEFEE3EEC46B65FC996771F856C09285F58A7148C77872F6104D6DC9A8897D30896D457015D1FDE3DEA25B91CEFF2EBD6EB0A68F718A0D3A6DDD7CA805699768F27C2D584925E4F84AB9476A39B03E744D09CD6610FF59F44E89A78FA46BA70DDDE0ADC144A4DBCEBF1E0221D416DC23D
310
1D715254A766A8A7AC60C1FF26021ED7783E889CD89C52F24C1ACF0940D5B1F19C047E7A8DE714E0E21ACFD5436EE339AB64DB78E44B91C6730003ECCB897CE1D28548E3798246B0C6731AD0536D3CB3E90740046E0B5FD5161351555C247A084506FA9607AAEBD39C44F1E2B63A5BDCA18E17B755B2E2664A322602C34C3A
310
0393625B51C09BC60D77315EF1E1C8DB80730A9C37D5B8CD0EBF3EA3A6FB4EA2A7C18B1B2746D53A5F7BB70C687C78291FE10E3A386EE3054657F9CB297E9CF703B0E71DFC4DA3397B4068C3CF33A1A81F02C2C920DB8E7ABF712005813923946BAE06DE453454B45CC32AF6311810C751E3F85A979E7874424F9299B34AB2
310
210DC430A45A3473162283FB2F3218C7FE178FBB1CF59692CDAD957C0DECAC3739580882F7E26636C4FC0874E66F42CE013F2EB274A4C323CBB88082C5B980AE4CFD4DC879C0C5B1FFF5E7DDC89E57324556799F2F34BC006EC70CD18A8318C0D9FF0AB6807CDBB19F46B0A4BE07E8B4D9FF8207EA504E3D7E65FA3E4C7226
310
B329B0E8D703AAFEBAA304E869379E693123CD68457958A4FF2F11AE86ECFF4119D078F6E7138AD87FF2370F86D6E1E38789702D76FED2134932CCA824CB8C811832A3160D33426421BD980847AF6F0C11D33DEECB1CFE9B7175D1F926045DE5BD8DBFBDBE94081764D0049324E6DDB40A8607F372225C4D16463974B5B836
310
F393232E193EA2E499B49986C93A780A6DA631A981D7A6CD34012EAECDFCFC5937B23F52B26D33BF83CCDBCC56A5C0ECD07DE7A7A7226D661D8D6033A419D0536D33E07F56B8C4CA7C0D48229F9610695A461A0883CE7B494E8DD95B004DF38E8247AB09FE45AC1A52EDAC32A0861DD8DA85D8A76276989D08579353913989
310
700119397510D9BB4CAB9DF096393711B4263ECE4B176E7EBA700B3C389DB3F0B5335AA6A7234288EA142D784A9083AFB414616018456CF24C3293C4CD2F49D3E5A5F0410CEE7E0F2E6A6FEA11580893E29AEE529C2FC11C4DF48D4AA628982DB44A422820F8563073C8F989CF2240392BED74F7768B819FDEDE6E09E0E29A
310
EE72FA030B3CB273954C91D5916E87CC9BEEFB4FAB1E6B73B10CFB6CBEB73B4423589D2D05F4CC9AAE2E4C768646F0614DBB4BD40606DDEA2539B5A67B13A0D36EBACBCA809A9055A7E9E24B8E0D79912B896C91FE0C1655C17843E129FA335B3277F4E8510807513CB9CC44868E210AF7FE19028691B0917E39482B125CF8
310
D4FF01F0B312DAF64B0000
  0
TABLECONTENT
  5
45A
330
45D
100
AcDbLinkedData
  1

300

100
AcDbLinkedTableData
 90
        5
300
COLUMN
  1
LINKEDTABLEDATACOLUMN_BEGIN
300

 91
        0
301
CUSTOMDATA
  1
DATAMAP_BEGIN
 90
        0
309
DATAMAP_END
309
LINKEDTABLEDATACOLUMN_END
  1
FORMATTEDTABLEDATACOLUMN_BEGIN
300
COLUMNTABLEFORMAT
  1
TABLEFORMAT_BEGIN
 90
        3
170
     0
309
TABLEFORMAT_END
309
FORMATTEDTABLEDATACOLUMN_END
  1
TABLECOLUMN_BEGIN
 90
        0
 40
10.0
309
TABLECOLUMN_END
300
COLUMN
  1
LINKEDTABLEDATACOLUMN_BEGIN
300

 91
        0
301
CUSTOMDATA
  1
DATAMAP_BEGIN
 90
        0
309
DATAMAP_END
309
LINKEDTABLEDATACOLUMN_END
  1
FORMATTEDTABLEDATACOLUMN_BEGIN
300
COLUMNTABLEFORMAT
  1
TABLEFORMAT_BEGIN
 90
        3
170
     0
309
TABLEFORMAT_END
309
FORMATTEDTABLEDATACOLUMN_END
  1
TABLECOLUMN_BEGIN
 90
        0
 40
10.0
309
TABLECOLUMN_END
300
COLUMN
  1
LINKEDTABLEDATACOLUMN_BEGIN
300

 91
        0
301
CUSTOMDATA
  1
DATAMAP_BEGIN
 90
        0
309
DATAMAP_END
309
LINKEDTABLEDATACOLUMN_END
  1
FORMATTEDTABLEDATACOLUMN_BEGIN
300
COLUMNTABLEFORMAT
  1
TABLEFORMAT_BEGIN
 90
        3
170
     0
309
TABLEFORMAT_END
309
FORMATTEDTABLEDATACOLUMN_END
  1
TABLECOLUMN_BEGIN
 90
        0
 40
10.0
309
TABLECOLUMN_END
300
COLUMN
  1
LINKEDTABLEDATACOLUMN_BEGIN
300

 91
        0
301
CUSTOMDATA
  1
DATAMAP_BEGIN
 90
        0
309
DATAMAP_END
309
LINKEDTABLEDATACOLUMN_END
  1
FORMATTEDTABLEDATACOLUMN_BEGIN
300
COLUMNTABLEFORMAT
  1
TABLEFORMAT_BEGIN
 90
        3
170
     0
309
TABLEFORMAT_END
309
FORMATTEDTABLEDATACOLUMN_END
  1
TABLECOLUMN_BEGIN
 90
        0
 40
40.0
309
TABLECOLUMN_END
300
COLUMN
  1
LINKEDTABLEDATACOLUMN_BEGIN
300

 91
        0
301
CUSTOMDATA
  1
DATAMAP_BEGIN
 90
        0
309
DATAMAP_END
309
LINKEDTABLEDATACOLUMN_END
  1
FORMATTEDTABLEDATACOLUMN_BEGIN
300
COLUMNTABLEFORMAT
  1
TABLEFORMAT_BEGIN
 90
        3
170
     0
309
TABLEFORMAT_END
309
FORMATTEDTABLEDATACOLUMN_END
  1
TABLECOLUMN_BEGIN
 90
        0
 40
20.0
309
TABLECOLUMN_END
 91
        5
301
ROW
  1
LINKEDTABLEDATAROW_BEGIN
 90
        5
300
CELL
  1
LINKEDTABLEDATACELL_BEGIN
 90
        0
300

 91
        0
301
CUSTOMDATA
  1
DATAMAP_BEGIN
 90
        1
300
ACAD_ROUNDTRIP_2008_CELL_CHECKSUM
301
DATAMAP_VALUE
 93
        2
 90
        2
140
32.0
 94
        0
300

302

304
ACVALUE_END
309
DATAMAP_END
 92
        0
 95
        1
302
CONTENT
  1
CELLCONTENT_BEGIN
 90
        1
300
VALUE
 93
        2
 90
        4
  1
 
 94
        0
300

302
 
304
ACVALUE_END
 91
        0
309
CELLCONTENT_END
  1
FORMATTEDCELLCONTENT_BEGIN
170
     1
300
CONTENTFORMAT
  1
CONTENTFORMAT_BEGIN
 90
      132
 91
        0
 92
      512
 93
        0
300

 40
0.0
140
1.0
 94
        1
 62
     0
340
0
144
3.5
309
CONTENTFORMAT_END
309
FORMATTEDCELLCONTENT_END
309
LINKEDTABLEDATACELL_END
  1
FORMATTEDTABLEDATACELL_BEGIN
300
CELLTABLEFORMAT
  1
TABLEFORMAT_BEGIN
 90
        1
170
     1
 91
        0
 92
        0
 62
   257
 93
        1
300
CONTENTFORMAT
  1
CONTENTFORMAT_BEGIN
 90
        0
 91
        0
 92
      512
 93
        0
300

 40
0.0
140
1.0
 94
        1
 62
     0
340
0
144
0.18
309
CONTENTFORMAT_END
171
     0
 94
        0
309
TABLEFORMAT_END
309
FORMATTEDTABLEDATACELL_END
  1
TABLECELL_BEGIN
 90
        0
 91
        0
309
TABLECELL_END
300
CELL
  1
LINKEDTABLEDATACELL_BEGIN
 90
        0
300

 91
        0
301
CUSTOMDATA
  1
DATAMAP_BEGIN
 90
        0
309
DATAMAP_END
 92
        0
 95
        0
309
LINKEDTABLEDATACELL_END
  1
FORMATTEDTABLEDATACELL_BEGIN
300
CELLTABLEFORMAT
  1
TABLEFORMAT_BEGIN
 90
        1
170
     1
 91
        0
 92
        0
 62
   257
 93
        1
300
CONTENTFORMAT
  1
CONTENTFORMAT_BEGIN
 90
        0
 91
        0
 92
      512
 93
        0
300

 40
0.0
140
1.0
 94
        1
 62
     0
340
0
144
0.18
309
CONTENTFORMAT_END
171
     0
 94
        0
309
TABLEFORMAT_END
309
FORMATTEDTABLEDATACELL_END
  1
TABLECELL_BEGIN
 90
        0
 91
        0
309
TABLECELL_END
300
CELL
  1
LINKEDTABLEDATACELL_BEGIN
 90
        0
300

 91
        0
301
CUSTOMDATA
  1
DATAMAP_BEGIN
 90
        0
309
DATAMAP_END
 92
        0
 95
        0
309
LINKEDTABLEDATACELL_END
  1
FORMATTEDTABLEDATACELL_BEGIN
300
CELLTABLEFORMAT
  1
TABLEFORMAT_BEGIN
 90
        1
170
     1
 91
        0
 92
        0
 62
   257
 93
        1
300
CONTENTFORMAT
  1
CONTENTFORMAT_BEGIN
 90
        0
 91
        0
 92
      512
 93
        0
300

 40
0.0
140
1.0
 94
        1
 62
     0
340
0
144
0.18
309
CONTENTFORMAT_END
171
     0
 94
        0
309
TABLEFORMAT_END
309
FORMATTEDTABLEDATACELL_END
  1
TABLECELL_BEGIN
 90
        0
 91
        0
309
TABLECELL_END
300
CELL
  1
LINKEDTABLEDATACELL_BEGIN
 90
        0
300

 91
        0
301
CUSTOMDATA
  1
DATAMAP_BEGIN
 90
        1
300
ACAD_ROUNDTRIP_2008_CELL_CHECKSUM
301
DATAMAP_VALUE
 93
        2
 90
        2
140
3438.0
 94
        0
300

302

304
ACVALUE_END
309
DATAMAP_END
 92
        0
 95
        1
302
CONTENT
  1
CELLCONTENT_BEGIN
 90
        1
300
VALUE
 93
        2
 90
        4
  1
A057_C_006
 94
        0
300

302
A057_C_006
304
ACVALUE_END
 91
        0
309
CELLCONTENT_END
  1
FORMATTEDCELLCONTENT_BEGIN
170
     1
300
CONTENTFORMAT
  1
CONTENTFORMAT_BEGIN
 90
      196
 91
        0
 92
      512
 93
        0
300

 40
0.0
140
1.0
 94
        1
 62
     0
340
20A
144
3.0
309
CONTENTFORMAT_END
309
FORMATTEDCELLCONTENT_END
309
LINKEDTABLEDATACELL_END
  1
FORMATTEDTABLEDATACELL_BEGIN
300
CELLTABLEFORMAT
  1
TABLEFORMAT_BEGIN
 90
        1
170
     1
 91
       16
 92
        0
 62
   257
 93
        1
300
CONTENTFORMAT
  1
CONTENTFORMAT_BEGIN
 90
       16
 91
        0
 92
      512
 93
        0
300

 40
0.0
140
1.0
 94
        4
 62
     0
340
0
144
0.18
309
CONTENTFORMAT_END
171
     0
 94
        4
 95
        1
302
GRIDFORMAT
  1
GRIDFORMAT_BEGIN
 90
       26
 91
        1
 62
     0
 92
       -2
340
0
 93
        0
 40
0.045
309
GRIDFORMAT_END
 95
        4
302
GRIDFORMAT
  1
GRIDFORMAT_BEGIN
 90
       26
 91
        1
 62
     0
 92
       -2
340
0
 93
        0
 40
0.045
309
GRIDFORMAT_END
 95
        8
302
GRIDFORMAT
  1
GRIDFORMAT_BEGIN
 90
       26
 91
        1
 62
     0
 92
       -2
340
0
 93
        0
 40
0.045
309
GRIDFORMAT_END
 95
       32
302
GRIDFORMAT
  1
GRIDFORMAT_BEGIN
 90
       26
 91
        1
 62
     0
 92
       -2
340
0
 93
        0
 40
0.045
309
GRIDFORMAT_END
309
TABLEFORMAT_END
309
FORMATTEDTABLEDATACELL_END
  1
TABLECELL_BEGIN
 90
        0
 91
        0
309
TABLECELL_END
300
CELL
  1
LINKEDTABLEDATACELL_BEGIN
 90
        0
300

 91
        0
301
CUSTOMDATA
  1
DATAMAP_BEGIN
 90
        1
300
ACAD_ROUNDTRIP_2008_CELL_CHECKSUM
301
DATAMAP_VALUE
 93
        2
 90
        2
140
1398.0
 94
        0
300

302

304
ACVALUE_END
309
DATAMAP_END
 92
        0
 95
        1
302
CONTENT
  1
CELLCONTENT_BEGIN
 90
        1
300
VALUE
 93
        2
 90
        4
  1
Rev:00
 94
        0
300

302
Rev:00
304
ACVALUE_END
 91
        0
309
CELLCONTENT_END
  1
FORMATTEDCELLCONTENT_BEGIN
170
     1
300
CONTENTFORMAT
  1
CONTENTFORMAT_BEGIN
 90
      196
 91
        0
 92
      512
 93
        0
300

 40
0.0
140
1.0
 94
        1
 62
     0
340
20A
144
3.5
309
CONTENTFORMAT_END
309
FORMATTEDCELLCONTENT_END
309
LINKEDTABLEDATACELL_END
  1
FORMATTEDTABLEDATACELL_BEGIN
300
CELLTABLEFORMAT
  1
TABLEFORMAT_BEGIN
 90
        1
170
     1
 91
       16
 92
        0
 62
   257
 93
        1
300
CONTENTFORMAT
  1
CONTENTFORMAT_BEGIN
 90
       16
 91
        0
 92
      512
 93
        0
300

 40
0.0
140
1.0
 94
        4
 62
     0
340
0
144
0.18
309
CONTENTFORMAT_END
171
     0
 94
        4
 95
        1
302
GRIDFORMAT
  1
GRIDFORMAT_BEGIN
 90
       26
 91
        1
 62
     0
 92
       -2
340
0
 93
        0
 40
0.045
309
GRIDFORMAT_END
 95
        4
302
GRIDFORMAT
  1
GRIDFORMAT_BEGIN
 90
       26
 91
        1
 62
     0
 92
       -2
340
0
 93
        0
 40
0.045
309
GRIDFORMAT_END
 95
        8
302
GRIDFORMAT
  1
GRIDFORMAT_BEGIN
 90
       26
 91
        1
 62
     0
 92
       -2
340
0
 93
        0
 40
0.045
309
GRIDFORMAT_END
 95
       32
302
GRIDFORMAT
  1
GRIDFORMAT_BEGIN
 90
       26
 91
        1
 62
     0
 92
       -2
340
0
 93
        0
 40
0.045
309
GRIDFORMAT_END
309
TABLEFORMAT_END
309
FORMATTEDTABLEDATACELL_END
  1
TABLECELL_BEGIN
 90
        0
 91
        0
309
TABLECELL_END
 91
        0
301
CUSTOMDATA
  1
DATAMAP_BEGIN
 90
        0
309
DATAMAP_END
309
LINKEDTABLEDATAROW_END
  1
FORMATTEDTABLEDATAROW_BEGIN
300
ROWTABLEFORMAT
  1
TABLEFORMAT_BEGIN
 90
        2
170
     0
309
TABLEFORMAT_END
309
FORMATTEDTABLEDATAROW_END
  1
TABLEROW_BEGIN
 90
        1
 40
6.0
309
TABLEROW_END
301
ROW
  1
LINKEDTABLEDATAROW_BEGIN
 90
        5
300
CELL
  1
LINKEDTABLEDATACELL_BEGIN
 90
        0
300

 91
        0
301
CUSTOMDATA
  1
DATAMAP_BEGIN
 90
        0
309
DATAMAP_END
 92
        0
 95
        0
309
LINKEDTABLEDATACELL_END
  1
FORMATTEDTABLEDATACELL_BEGIN
300
CELLTABLEFORMAT
  1
TABLEFORMAT_BEGIN
 90
        1
170
     1
 91
        0
 92
        0
 62
   257
 93
        1
300
CONTENTFORMAT
  1
CONTENTFORMAT_BEGIN
 90
        0
 91
        0
 92
      512
 93
        0
300

 40
0.0
140
1.0
 94
        1
 62
     0
340
0
144
0.18
309
CONTENTFORMAT_END
171
     0
 94
        0
309
TABLEFORMAT_END
309
FORMATTEDTABLEDATACELL_END
  1
TABLECELL_BEGIN
 90
        0
 91
        0
309
TABLECELL_END
300
CELL
  1
LINKEDTABLEDATACELL_BEGIN
 90
        0
300

 91
        0
301
CUSTOMDATA
  1
DATAMAP_BEGIN
 90
        0
309
DATAMAP_END
 92
        0
 95
        0
309
LINKEDTABLEDATACELL_END
  1
FORMATTEDTABLEDATACELL_BEGIN
300
CELLTABLEFORMAT
  1
TABLEFORMAT_BEGIN
 90
        1
170
     1
 91
        0
 92
        0
 62
   257
 93
        1
300
CONTENTFORMAT
  1
CONTENTFORMAT_BEGIN
 90
        0
 91
        0
 92
      512
 93
        0
300

 40
0.0
140
1.0
 94
        1
 62
     0
340
0
144
0.18
309
CONTENTFORMAT_END
171
     0
 94
        0
309
TABLEFORMAT_END
309
FORMATTEDTABLEDATACELL_END
  1
TABLECELL_BEGIN
 90
        0
 91
        0
309
TABLECELL_END
300
CELL
  1
LINKEDTABLEDATACELL_BEGIN
 90
        0
300

 91
        0
301
CUSTOMDATA
  1
DATAMAP_BEGIN
 90
        0
309
DATAMAP_END
 92
        0
 95
        0
309
LINKEDTABLEDATACELL_END
  1
FORMATTEDTABLEDATACELL_BEGIN
300
CELLTABLEFORMAT
  1
TABLEFORMAT_BEGIN
 90
        1
170
     1
 91
        0
 92
        0
 62
   257
 93
        1
300
CONTENTFORMAT
  1
CONTENTFORMAT_BEGIN
 90
        0
 91
        0
 92
      512
 93
        0
300

 40
0.0
140
1.0
 94
        1
 62
     0
340
0
144
0.18
309
CONTENTFORMAT_END
171
     0
 94
        0
309
TABLEFORMAT_END
309
FORMATTEDTABLEDATACELL_END
  1
TABLECELL_BEGIN
 90
        0
 91
        0
309
TABLECELL_END
300
CELL
  1
LINKEDTABLEDATACELL_BEGIN
 90
        0
300

 91
        0
301
CUSTOMDATA
  1
DATAMAP_BEGIN
 90
        1
300
ACAD_ROUNDTRIP_2008_CELL_CHECKSUM
301
DATAMAP_VALUE
 93
        2
 90
        2
140
3105.0
 94
        0
300

302

304
ACVALUE_END
309
DATAMAP_END
 92
        0
 95
        1
302
CONTENT
  1
CELLCONTENT_BEGIN
 90
        1
300
VALUE
 93
        2
 90
        4
  1
Scale:1:1
 94
        0
300

302
Scale:1:1
304
ACVALUE_END
 91
        0
309
CELLCONTENT_END
  1
FORMATTEDCELLCONTENT_BEGIN
170
     1
300
CONTENTFORMAT
  1
CONTENTFORMAT_BEGIN
 90
      196
 91
        0
 92
      512
 93
        0
300

 40
0.0
140
1.0
 94
        1
 62
     0
340
20A
144
3.5
309
CONTENTFORMAT_END
309
FORMATTEDCELLCONTENT_END
309
LINKEDTABLEDATACELL_END
  1
FORMATTEDTABLEDATACELL_BEGIN
300
CELLTABLEFORMAT
  1
TABLEFORMAT_BEGIN
 90
        1
170
     1
 91
       16
 92
        0
 62
   257
 93
        1
300
CONTENTFORMAT
  1
CONTENTFORMAT_BEGIN
 90
       16
 91
        0
 92
      512
 93
        0
300

 40
0.0
140
1.0
 94
        1
 62
     0
340
0
144
0.18
309
CONTENTFORMAT_END
171
     0
 94
        4
 95
        1
302
GRIDFORMAT
  1
GRIDFORMAT_BEGIN
 90
       26
 91
        1
 62
     0
 92
       -2
340
0
 93
        0
 40
0.045
309
GRIDFORMAT_END
 95
        4
302
GRIDFORMAT
  1
GRIDFORMAT_BEGIN
 90
       26
 91
        1
 62
     0
 92
       -2
340
0
 93
        0
 40
0.045
309
GRIDFORMAT_END
 95
        8
302
GRIDFORMAT
  1
GRIDFORMAT_BEGIN
 90
       26
 91
        1
 62
     0
 92
       -2
340
0
 93
        0
 40
0.045
309
GRIDFORMAT_END
 95
       32
302
GRIDFORMAT
  1
GRIDFORMAT_BEGIN
 90
       26
 91
        1
 62
     0
 92
       -2
340
0
 93
        0
 40
0.045
309
GRIDFORMAT_END
309
TABLEFORMAT_END
309
FORMATTEDTABLEDATACELL_END
  1
TABLECELL_BEGIN
 90
        0
 91
        0
309
TABLECELL_END
300
CELL
  1
LINKEDTABLEDATACELL_BEGIN
 90
        0
300

 91
        0
301
CUSTOMDATA
  1
DATAMAP_BEGIN
 90
        1
300
ACAD_ROUNDTRIP_2008_CELL_CHECKSUM
301
DATAMAP_VALUE
 93
        2
 90
        2
140
165.0
 94
        0
300

302

304
ACVALUE_END
309
DATAMAP_END
 92
        0
 95
        1
302
CONTENT
  1
CELLCONTENT_BEGIN
 90
        1
300
VALUE
 93
        2
 90
        4
  1
A2
 94
        0
300

302
A2
304
ACVALUE_END
 91
        0
309
CELLCONTENT_END
  1
FORMATTEDCELLCONTENT_BEGIN
170
     1
300
CONTENTFORMAT
  1
CONTENTFORMAT_BEGIN
 90
      196
 91
        0
 92
      512
 93
        0
300

 40
0.0
140
1.0
 94
        1
 62
     0
340
20A
144
3.5
309
CONTENTFORMAT_END
309
FORMATTEDCELLCONTENT_END
309
LINKEDTABLEDATACELL_END
  1
FORMATTEDTABLEDATACELL_BEGIN
300
CELLTABLEFORMAT
  1
TABLEFORMAT_BEGIN
 90
        1
170
     1
 91
       16
 92
        0
 62
   257
 93
        1
300
CONTENTFORMAT
  1
CONTENTFORMAT_BEGIN
 90
       16
 91
        0
 92
      512
 93
        0
300

 40
0.0
140
1.0
 94
        4
 62
     0
340
0
144
0.18
309
CONTENTFORMAT_END
171
     0
 94
        4
 95
        1
302
GRIDFORMAT
  1
GRIDFORMAT_BEGIN
 90
       26
 91
        1
 62
     0
 92
       -2
340
0
 93
        0
 40
0.045
309
GRIDFORMAT_END
 95
        4
302
GRIDFORMAT
  1
GRIDFORMAT_BEGIN
 90
       26
 91
        1
 62
     0
 92
       -2
340
0
 93
        0
 40
0.045
309
GRIDFORMAT_END
 95
        8
302
GRIDFORMAT
  1
GRIDFORMAT_BEGIN
 90
       26
 91
        1
 62
     0
 92
       -2
340
0
 93
        0
 40
0.045
309
GRIDFORMAT_END
 95
       32
302
GRIDFORMAT
  1
GRIDFORMAT_BEGIN
 90
       26
 91
        1
 62
     0
 92
       -2
340
0
 93
        0
 40
0.045
309
GRIDFORMAT_END
309
TABLEFORMAT_END
309
FORMATTEDTABLEDATACELL_END
  1
TABLECELL_BEGIN
 90
        0
 91
        0
309
TABLECELL_END
 91
        0
301
CUSTOMDATA
  1
DATAMAP_BEGIN
 90
        0
309
DATAMAP_END
309
LINKEDTABLEDATAROW_END
  1
FORMATTEDTABLEDATAROW_BEGIN
300
ROWTABLEFORMAT
  1
TABLEFORMAT_BEGIN
 90
        2
170
     0
309
TABLEFORMAT_END
309
FORMATTEDTABLEDATAROW_END
  1
TABLEROW_BEGIN
 90
        2
 40
6.0
309
TABLEROW_END
301
ROW
  1
LINKEDTABLEDATAROW_BEGIN
 90
        5
300
CELL
  1
LINKEDTABLEDATACELL_BEGIN
 90
        0
300

 91
        0
301
CUSTOMDATA
  1
DATAMAP_BEGIN
 90
        0
309
DATAMAP_END
 92
        0
 95
        0
309
LINKEDTABLEDATACELL_END
  1
FORMATTEDTABLEDATACELL_BEGIN
300
CELLTABLEFORMAT
  1
TABLEFORMAT_BEGIN
 90
        1
170
     1
 91
        0
 92
        0
 62
   257
 93
        1
300
CONTENTFORMAT
  1
CONTENTFORMAT_BEGIN
 90
        0
 91
        0
 92
      512
 93
        0
300

 40
0.0
140
1.0
 94
        1
 62
     0
340
0
144
0.18
309
CONTENTFORMAT_END
171
     0
 94
        0
309
TABLEFORMAT_END
309
FORMATTEDTABLEDATACELL_END
  1
TABLECELL_BEGIN
 90
        0
 91
        0
309
TABLECELL_END
300
CELL
  1
LINKEDTABLEDATACELL_BEGIN
 90
        0
300

 91
        0
301
CUSTOMDATA
  1
DATAMAP_BEGIN
 90
        0
309
DATAMAP_END
 92
        0
 95
        0
309
LINKEDTABLEDATACELL_END
  1
FORMATTEDTABLEDATACELL_BEGIN
300
CELLTABLEFORMAT
  1
TABLEFORMAT_BEGIN
 90
        1
170
     1
 91
        0
 92
        0
 62
   257
 93
        1
300
CONTENTFORMAT
  1
CONTENTFORMAT_BEGIN
 90
        0
 91
        0
 92
      512
 93
        0
300

 40
0.0
140
1.0
 94
        1
 62
     0
340
0
144
0.18
309
CONTENTFORMAT_END
171
     0
 94
        0
309
TABLEFORMAT_END
309
FORMATTEDTABLEDATACELL_END
  1
TABLECELL_BEGIN
 90
        0
 91
        0
309
TABLECELL_END
300
CELL
  1
LINKEDTABLEDATACELL_BEGIN
 90
        0
300

 91
        0
301
CUSTOMDATA
  1
DATAMAP_BEGIN
 90
        0
309
DATAMAP_END
 92
        0
 95
        0
309
LINKEDTABLEDATACELL_END
  1
FORMATTEDTABLEDATACELL_BEGIN
300
CELLTABLEFORMAT
  1
TABLEFORMAT_BEGIN
 90
        1
170
     1
 91
        0
 92
        0
 62
   257
 93
        1
300
CONTENTFORMAT
  1
CONTENTFORMAT_BEGIN
 90
        0
 91
        0
 92
      512
 93
        0
300

 40
0.0
140
1.0
 94
        1
 62
     0
340
0
144
0.18
309
CONTENTFORMAT_END
171
     0
 94
        0
309
TABLEFORMAT_END
309
FORMATTEDTABLEDATACELL_END
  1
TABLECELL_BEGIN
 90
        0
 91
        0
309
TABLECELL_END
300
CELL
  1
LINKEDTABLEDATACELL_BEGIN
 90
        0
300

 91
        0
301
CUSTOMDATA
  1
DATAMAP_BEGIN
 90
        1
300
ACAD_ROUNDTRIP_2008_CELL_CHECKSUM
301
DATAMAP_VALUE
 93
        2
 90
        2
140
25830.0
 94
        0
300

302

304
ACVALUE_END
309
DATAMAP_END
 92
        0
 95
        1
302
CONTENT
  1
CELLCONTENT_BEGIN
 90
        1
300
VALUE
 93
        2
 90
        4
  1
FRONTALE PIANO TONDO COMBO4
 94
        0
300

302
FRONTALE PIANO TONDO COMBO4
304
ACVALUE_END
 91
        0
309
CELLCONTENT_END
  1
FORMATTEDCELLCONTENT_BEGIN
170
     1
300
CONTENTFORMAT
  1
CONTENTFORMAT_BEGIN
 90
      196
 91
        0
 92
      512
 93
        0
300

 40
0.0
140
1.0
 94
        1
 62
     0
340
20A
144
2.7
309
CONTENTFORMAT_END
309
FORMATTEDCELLCONTENT_END
309
LINKEDTABLEDATACELL_END
  1
FORMATTEDTABLEDATACELL_BEGIN
300
CELLTABLEFORMAT
  1
TABLEFORMAT_BEGIN
 90
        1
170
     1
 91
       16
 92
        0
 62
   257
 93
        1
300
CONTENTFORMAT
  1
CONTENTFORMAT_BEGIN
 90
       16
 91
        0
 92
      512
 93
        0
300

 40
0.0
140
1.0
 94
        4
 62
     0
340
0
144
0.18
309
CONTENTFORMAT_END
171
     0
 94
        4
 95
        1
302
GRIDFORMAT
  1
GRIDFORMAT_BEGIN
 90
       26
 91
        1
 62
     0
 92
       -2
340
0
 93
        0
 40
0.045
309
GRIDFORMAT_END
 95
        4
302
GRIDFORMAT
  1
GRIDFORMAT_BEGIN
 90
       26
 91
        1
 62
     0
 92
       -2
340
0
 93
        0
 40
0.045
309
GRIDFORMAT_END
 95
        8
302
GRIDFORMAT
  1
GRIDFORMAT_BEGIN
 90
       26
 91
        1
 62
     0
 92
       -2
340
0
 93
        0
 40
0.045
309
GRIDFORMAT_END
 95
       32
302
GRIDFORMAT
  1
GRIDFORMAT_BEGIN
 90
       26
 91
        1
 62
     0
 92
       -2
340
0
 93
        0
 40
0.045
309
GRIDFORMAT_END
309
TABLEFORMAT_END
309
FORMATTEDTABLEDATACELL_END
  1
TABLECELL_BEGIN
 90
        0
 91
        0
309
TABLECELL_END
300
CELL
  1
LINKEDTABLEDATACELL_BEGIN
 90
        0
300

 91
        0
301
CUSTOMDATA
  1
DATAMAP_BEGIN
 90
        0
309
DATAMAP_END
 92
        0
 95
        0
309
LINKEDTABLEDATACELL_END
  1
FORMATTEDTABLEDATACELL_BEGIN
300
CELLTABLEFORMAT
  1
TABLEFORMAT_BEGIN
 90
        1
170
     1
 91
        0
 92
        0
 62
   257
 93
        1
300
CONTENTFORMAT
  1
CONTENTFORMAT_BEGIN
 90
        0
 91
        0
 92
      512
 93
        0
300

 40
0.0
140
1.0
 94
        1
 62
     0
340
0
144
0.18
309
CONTENTFORMAT_END
171
     0
 94
        0
309
TABLEFORMAT_END
309
FORMATTEDTABLEDATACELL_END
  1
TABLECELL_BEGIN
 90
        0
 91
        0
309
TABLECELL_END
 91
        0
301
CUSTOMDATA
  1
DATAMAP_BEGIN
 90
        0
309
DATAMAP_END
309
LINKEDTABLEDATAROW_END
  1
FORMATTEDTABLEDATAROW_BEGIN
300
ROWTABLEFORMAT
  1
TABLEFORMAT_BEGIN
 90
        2
170
     0
309
TABLEFORMAT_END
309
FORMATTEDTABLEDATAROW_END
  1
TABLEROW_BEGIN
 90
        3
 40
10.0
309
TABLEROW_END
301
ROW
  1
LINKEDTABLEDATAROW_BEGIN
 90
        5
300
CELL
  1
LINKEDTABLEDATACELL_BEGIN
 90
        0
300

 91
        0
301
CUSTOMDATA
  1
DATAMAP_BEGIN
 90
        0
309
DATAMAP_END
 92
        0
 95
        0
309
LINKEDTABLEDATACELL_END
  1
FORMATTEDTABLEDATACELL_BEGIN
300
CELLTABLEFORMAT
  1
TABLEFORMAT_BEGIN
 90
        1
170
     1
 91
        0
 92
        0
 62
   257
 93
        1
300
CONTENTFORMAT
  1
CONTENTFORMAT_BEGIN
 90
        0
 91
        0
 92
      512
 93
        0
300

 40
0.0
140
1.0
 94
        1
 62
     0
340
0
144
0.18
309
CONTENTFORMAT_END
171
     0
 94
        0
309
TABLEFORMAT_END
309
FORMATTEDTABLEDATACELL_END
  1
TABLECELL_BEGIN
 90
        0
 91
        0
309
TABLECELL_END
300
CELL
  1
LINKEDTABLEDATACELL_BEGIN
 90
        0
300

 91
        0
301
CUSTOMDATA
  1
DATAMAP_BEGIN
 90
        0
309
DATAMAP_END
 92
        0
 95
        0
309
LINKEDTABLEDATACELL_END
  1
FORMATTEDTABLEDATACELL_BEGIN
300
CELLTABLEFORMAT
  1
TABLEFORMAT_BEGIN
 90
        1
170
     1
 91
        0
 92
        0
 62
   257
 93
        1
300
CONTENTFORMAT
  1
CONTENTFORMAT_BEGIN
 90
        0
 91
        0
 92
      512
 93
        0
300

 40
0.0
140
1.0
 94
        1
 62
     0
340
0
144
0.18
309
CONTENTFORMAT_END
171
     0
 94
        0
309
TABLEFORMAT_END
309
FORMATTEDTABLEDATACELL_END
  1
TABLECELL_BEGIN
 90
        0
 91
        0
309
TABLECELL_END
300
CELL
  1
LINKEDTABLEDATACELL_BEGIN
 90
        0
300

 91
        0
301
CUSTOMDATA
  1
DATAMAP_BEGIN
 90
        0
309
DATAMAP_END
 92
        0
 95
        0
309
LINKEDTABLEDATACELL_END
  1
FORMATTEDTABLEDATACELL_BEGIN
300
CELLTABLEFORMAT
  1
TABLEFORMAT_BEGIN
 90
        1
170
     1
 91
        0
 92
        0
 62
   257
 93
        1
300
CONTENTFORMAT
  1
CONTENTFORMAT_BEGIN
 90
        0
 91
        0
 92
      512
 93
        0
300

 40
0.0
140
1.0
 94
        1
 62
     0
340
0
144
0.18
309
CONTENTFORMAT_END
171
     0
 94
        0
309
TABLEFORMAT_END
309
FORMATTEDTABLEDATACELL_END
  1
TABLECELL_BEGIN
 90
        0
 91
        0
309
TABLECELL_END
300
CELL
  1
LINKEDTABLEDATACELL_BEGIN
 90
        0
300

 91
        0
301
CUSTOMDATA
  1
DATAMAP_BEGIN
 90
        1
300
ACAD_ROUNDTRIP_2008_CELL_CHECKSUM
301
DATAMAP_VALUE
 93
        2
 90
        2
140
4804.0
 94
        0
300

302

304
ACVALUE_END
309
DATAMAP_END
 92
        0
 95
        1
302
CONTENT
  1
CELLCONTENT_BEGIN
 90
        1
300
VALUE
 93
        2
 90
        4
  1
DATE:12.12.19
 94
        0
300

302
DATE:12.12.19
304
ACVALUE_END
 91
        0
309
CELLCONTENT_END
  1
FORMATTEDCELLCONTENT_BEGIN
170
     1
300
CONTENTFORMAT
  1
CONTENTFORMAT_BEGIN
 90
      196
 91
        0
 92
      512
 93
        0
300

 40
0.0
140
1.0
 94
        1
 62
     0
340
20A
144
2.5
309
CONTENTFORMAT_END
309
FORMATTEDCELLCONTENT_END
309
LINKEDTABLEDATACELL_END
  1
FORMATTEDTABLEDATACELL_BEGIN
300
CELLTABLEFORMAT
  1
TABLEFORMAT_BEGIN
 90
        1
170
     1
 91
       16
 92
        0
 62
   257
 93
        1
300
CONTENTFORMAT
  1
CONTENTFORMAT_BEGIN
 90
       16
 91
        0
 92
      512
 93
        0
300

 40
0.0
140
1.0
 94
        4
 62
     0
340
0
144
0.18
309
CONTENTFORMAT_END
171
     0
 94
        4
 95
        1
302
GRIDFORMAT
  1
GRIDFORMAT_BEGIN
 90
       26
 91
        1
 62
     0
 92
       -2
340
0
 93
        0
 40
0.045
309
GRIDFORMAT_END
 95
        4
302
GRIDFORMAT
  1
GRIDFORMAT_BEGIN
 90
       26
 91
        1
 62
     0
 92
       -2
340
0
 93
        0
 40
0.045
309
GRIDFORMAT_END
 95
        8
302
GRIDFORMAT
  1
GRIDFORMAT_BEGIN
 90
       26
 91
        1
 62
     0
 92
       -2
340
0
 93
        0
 40
0.045
309
GRIDFORMAT_END
 95
       32
302
GRIDFORMAT
  1
GRIDFORMAT_BEGIN
 90
       26
 91
        1
 62
     0
 92
       -2
340
0
 93
        0
 40
0.045
309
GRIDFORMAT_END
309
TABLEFORMAT_END
309
FORMATTEDTABLEDATACELL_END
  1
TABLECELL_BEGIN
 90
        0
 91
        0
309
TABLECELL_END
300
CELL
  1
LINKEDTABLEDATACELL_BEGIN
 90
        0
300

 91
        0
301
CUSTOMDATA
  1
DATAMAP_BEGIN
 90
        0
309
DATAMAP_END
 92
        0
 95
        0
309
LINKEDTABLEDATACELL_END
  1
FORMATTEDTABLEDATACELL_BEGIN
300
CELLTABLEFORMAT
  1
TABLEFORMAT_BEGIN
 90
        1
170
     1
 91
        0
 92
        0
 62
   257
 93
        1
300
CONTENTFORMAT
  1
CONTENTFORMAT_BEGIN
 90
        0
 91
        0
 92
      512
 93
        0
300

 40
0.0
140
1.0
 94
        1
 62
     0
340
0
144
0.18
309
CONTENTFORMAT_END
171
     0
 94
        0
309
TABLEFORMAT_END
309
FORMATTEDTABLEDATACELL_END
  1
TABLECELL_BEGIN
 90
        0
 91
        0
309
TABLECELL_END
 91
        0
301
CUSTOMDATA
  1
DATAMAP_BEGIN
 90
        0
309
DATAMAP_END
309
LINKEDTABLEDATAROW_END
  1
FORMATTEDTABLEDATAROW_BEGIN
300
ROWTABLEFORMAT
  1
TABLEFORMAT_BEGIN
 90
        2
170
     0
309
TABLEFORMAT_END
309
FORMATTEDTABLEDATAROW_END
  1
TABLEROW_BEGIN
 90
        3
 40
5.0
309
TABLEROW_END
301
ROW
  1
LINKEDTABLEDATAROW_BEGIN
 90
        5
300
CELL
  1
LINKEDTABLEDATACELL_BEGIN
 90
        0
300

 91
        0
301
CUSTOMDATA
  1
DATAMAP_BEGIN
 90
        1
300
ACAD_ROUNDTRIP_2008_CELL_CHECKSUM
301
DATAMAP_VALUE
 93
        2
 90
        2
140
1361482.0
 94
        0
300

302

304
ACVALUE_END
309
DATAMAP_END
 92
        0
 95
        1
302
CONTENT
  1
CELLCONTENT_BEGIN
 90
        1
300
VALUE
 93
        2
 90
        4
  1
Any integral or partial reproductions are prohibited \Pwithout prior authorisation of L & L Luce & Light s.r.l., \Pin accordance with the law in force. \PAll rights reserved.
 94
        0
300

302
Any integral or partial reproductions are prohibited \Pwithout prior authorisation of L & L Luce & Light s.r.l., \Pin accordance with the law in force. \PAll rights reserved.
304
ACVALUE_END
 91
        0
309
CELLCONTENT_END
  1
FORMATTEDCELLCONTENT_BEGIN
170
     1
300
CONTENTFORMAT
  1
CONTENTFORMAT_BEGIN
 90
      196
 91
        0
 92
      512
 93
        0
300

 40
0.0
140
1.0
 94
        1
 62
     0
340
20A
144
2.25
309
CONTENTFORMAT_END
309
FORMATTEDCELLCONTENT_END
309
LINKEDTABLEDATACELL_END
  1
FORMATTEDTABLEDATACELL_BEGIN
300
CELLTABLEFORMAT
  1
TABLEFORMAT_BEGIN
 90
        1
170
     1
 91
       16
 92
        0
 62
   257
 93
        1
300
CONTENTFORMAT
  1
CONTENTFORMAT_BEGIN
 90
       16
 91
        0
 92
      512
 93
        0
300

 40
0.0
140
1.0
 94
        4
 62
     0
340
0
144
0.18
309
CONTENTFORMAT_END
171
     0
 94
        4
 95
        1
302
GRIDFORMAT
  1
GRIDFORMAT_BEGIN
 90
       26
 91
        1
 62
     0
 92
       -2
340
0
 93
        0
 40
0.045
309
GRIDFORMAT_END
 95
        4
302
GRIDFORMAT
  1
GRIDFORMAT_BEGIN
 90
       26
 91
        1
 62
     0
 92
       -2
340
0
 93
        0
 40
0.045
309
GRIDFORMAT_END
 95
        8
302
GRIDFORMAT
  1
GRIDFORMAT_BEGIN
 90
       26
 91
        1
 62
     0
 92
       -2
340
0
 93
        0
 40
0.045
309
GRIDFORMAT_END
 95
       32
302
GRIDFORMAT
  1
GRIDFORMAT_BEGIN
 90
       26
 91
        1
 62
     0
 92
       -2
340
0
 93
        0
 40
0.045
309
GRIDFORMAT_END
309
TABLEFORMAT_END
309
FORMATTEDTABLEDATACELL_END
  1
TABLECELL_BEGIN
 90
        0
 91
        0
309
TABLECELL_END
300
CELL
  1
LINKEDTABLEDATACELL_BEGIN
 90
        0
300

 91
        0
301
CUSTOMDATA
  1
DATAMAP_BEGIN
 90
        0
309
DATAMAP_END
 92
        0
 95
        0
309
LINKEDTABLEDATACELL_END
  1
FORMATTEDTABLEDATACELL_BEGIN
300
CELLTABLEFORMAT
  1
TABLEFORMAT_BEGIN
 90
        1
170
     1
 91
        0
 92
        0
 62
   257
 93
        1
300
CONTENTFORMAT
  1
CONTENTFORMAT_BEGIN
 90
        0
 91
        0
 92
      512
 93
        0
300

 40
0.0
140
1.0
 94
        1
 62
     0
340
0
144
0.18
309
CONTENTFORMAT_END
171
     0
 94
        0
309
TABLEFORMAT_END
309
FORMATTEDTABLEDATACELL_END
  1
TABLECELL_BEGIN
 90
        0
 91
        0
309
TABLECELL_END
300
CELL
  1
LINKEDTABLEDATACELL_BEGIN
 90
        0
300

 91
        0
301
CUSTOMDATA
  1
DATAMAP_BEGIN
 90
        0
309
DATAMAP_END
 92
        0
 95
        0
309
LINKEDTABLEDATACELL_END
  1
FORMATTEDTABLEDATACELL_BEGIN
300
CELLTABLEFORMAT
  1
TABLEFORMAT_BEGIN
 90
        1
170
     1
 91
        0
 92
        0
 62
   257
 93
        1
300
CONTENTFORMAT
  1
CONTENTFORMAT_BEGIN
 90
        0
 91
        0
 92
      512
 93
        0
300

 40
0.0
140
1.0
 94
        1
 62
     0
340
0
144
0.18
309
CONTENTFORMAT_END
171
     0
 94
        0
309
TABLEFORMAT_END
309
FORMATTEDTABLEDATACELL_END
  1
TABLECELL_BEGIN
 90
        0
 91
        0
309
TABLECELL_END
300
CELL
  1
LINKEDTABLEDATACELL_BEGIN
 90
        0
300

 91
        0
301
CUSTOMDATA
  1
DATAMAP_BEGIN
 90
        0
309
DATAMAP_END
 92
        0
 95
        0
309
LINKEDTABLEDATACELL_END
  1
FORMATTEDTABLEDATACELL_BEGIN
300
CELLTABLEFORMAT
  1
TABLEFORMAT_BEGIN
 90
        1
170
     1
 91
        0
 92
        0
 62
   257
 93
        1
300
CONTENTFORMAT
  1
CONTENTFORMAT_BEGIN
 90
        0
 91
        0
 92
      512
 93
        0
300

 40
0.0
140
1.0
 94
        1
 62
     0
340
0
144
0.18
309
CONTENTFORMAT_END
171
     0
 94
        0
309
TABLEFORMAT_END
309
FORMATTEDTABLEDATACELL_END
  1
TABLECELL_BEGIN
 90
        0
 91
        0
309
TABLECELL_END
300
CELL
  1
LINKEDTABLEDATACELL_BEGIN
 90
        0
300

 91
        0
301
CUSTOMDATA
  1
DATAMAP_BEGIN
 90
        0
309
DATAMAP_END
 92
        0
 95
        0
309
LINKEDTABLEDATACELL_END
  1
FORMATTEDTABLEDATACELL_BEGIN
300
CELLTABLEFORMAT
  1
TABLEFORMAT_BEGIN
 90
        1
170
     1
 91
        0
 92
        0
 62
   257
 93
        1
300
CONTENTFORMAT
  1
CONTENTFORMAT_BEGIN
 90
        0
 91
        0
 92
      512
 93
        0
300

 40
0.0
140
1.0
 94
        1
 62
     0
340
0
144
0.18
309
CONTENTFORMAT_END
171
     0
 94
        0
309
TABLEFORMAT_END
309
FORMATTEDTABLEDATACELL_END
  1
TABLECELL_BEGIN
 90
        0
 91
        0
309
TABLECELL_END
 91
        0
301
CUSTOMDATA
  1
DATAMAP_BEGIN
 90
        0
309
DATAMAP_END
309
LINKEDTABLEDATAROW_END
  1
FORMATTEDTABLEDATAROW_BEGIN
300
ROWTABLEFORMAT
  1
TABLEFORMAT_BEGIN
 90
        2
170
     0
309
TABLEFORMAT_END
309
FORMATTEDTABLEDATAROW_END
  1
TABLEROW_BEGIN
 90
        3
 40
13.0
309
TABLEROW_END
100
AcDbFormattedTableData
300
TABLEFORMAT
  1
TABLEFORMAT_BEGIN
 90
        4
170
     1
 91
    15360
 92
        0
 62
   257
 93
        1
300
CONTENTFORMAT
  1
CONTENTFORMAT_BEGIN
 90
        0
 91
        0
 92
      512
 93
        0
300

 40
0.0
140
1.0
 94
        1
 62
     0
340
0
144
0.18
309
CONTENTFORMAT_END
171
     1
301
MARGIN
  1
CELLMARGIN_BEGIN
 40
0.06
 40
0.06
 40
0.06
 40
0.06
 40
0.06
 40
0.06
309
CELLMARGIN_END
 94
        0
309
TABLEFORMAT_END
 90
        4
 91
        0
 92
        0
 93
        3
 94
        2
 91
        2
 92
        3
 93
        2
 94
        4
 91
        3
 92
        3
 93
        3
 94
        4
 91
        4
 92
        0
 93
        4
 94
        4
100
AcDbTableContent
340
42E
  0
TABLEGEOMETRY
  5
45B
330
45D
100
AcDbTableGeometry
 90
        5
 91
        5
 92
       25
 93
        0
 40
0.0
 41
0.0
330
0
 94
        0
 93
        0
 40
0.0
 41
0.0
330
0
 94
        0
 93
        0
 40
0.0
 41
0.0
330
0
 94
        0
 93
        0
 40
0.0
 41
0.0
330
0
 94
        0
 93
        0
 40
0.0
 41
0.0
330
0
 94
        0
 93
        0
 40
0.0
 41
0.0
330
0
 94
        0
 93
        0
 40
0.0
 41
0.0
330
0
 94
        0
 93
        0
 40
0.0
 41
0.0
330
0
 94
        0
 93
        0
 40
0.0
 41
0.0
330
0
 94
        0
 93
        0
 40
0.0
 41
0.0
330
0
 94
        0
 93
        0
 40
0.0
 41
0.0
330
0
 94
        0
 93
        0
 40
0.0
 41
0.0
330
0
 94
        0
 93
        0
 40
0.0
 41
0.0
330
0
 94
        0
 93
        0
 40
0.0
 41
0.0
330
0
 94
        0
 93
        0
 40
0.0
 41
0.0
330
0
 94
        0
 93
        0
 40
0.0
 41
0.0
330
0
 94
        0
 93
        0
 40
0.0
 41
0.0
330
0
 94
        0
 93
        0
 40
0.0
 41
0.0
330
0
 94
        0
 93
        0
 40
0.0
 41
0.0
330
0
 94
        0
 93
        0
 40
0.0
 41
0.0
330
0
 94
        0
 93
        0
 40
0.0
 41
0.0
330
0
 94
        0
 93
        0
 40
0.0
 41
0.0
330
0
 94
        0
 93
        0
 40
0.0
 41
0.0
330
0
 94
        0
 93
        0
 40
0.0
 41
0.0
330
0
 94
        0
 93
        0
 40
0.0
 41
0.0
330
0
 94
        0
  0
DICTIONARY
  5
460
330
42E
100
AcDbDictionary
280
     1
281
     1
  3
ACAD_ROUNDTRIP_2008_TABLESTYLE_CELLSTYLEMAP
360
461
  0
CELLSTYLEMAP
  5
461
102
{ACAD_REACTORS
330
460
102
}
330
460
100
AcDbCellStyleMap
 90
        3
300
CELLSTYLE
  1
TABLEFORMAT_BEGIN
 90
        5
170
     1
 91
        0
 92
        0
 62
   257
 93
        1
300
CONTENTFORMAT
  1
CONTENTFORMAT_BEGIN
 90
        0
 91
        0
 92
        4
 93
        0
300

 40
0.0
140
1.0
 94
        5
 62
     0
340
11
144
6.0
309
CONTENTFORMAT_END
171
     1
301
MARGIN
  1
CELLMARGIN_BEGIN
 40
1.5
 40
1.5
 40
1.5
 40
1.5
 40
1.5
 40
1.5
309
CELLMARGIN_END
 94
        6
 95
        1
302
GRIDFORMAT
  1
GRIDFORMAT_BEGIN
 90
        0
 91
        1
 62
     0
 92
       -2
340
14
 93
        0
 40
0.045
309
GRIDFORMAT_END
 95
        2
302
GRIDFORMAT
  1
GRIDFORMAT_BEGIN
 90
        0
 91
        1
 62
     0
 92
       -2
340
14
 93
        0
 40
0.045
309
GRIDFORMAT_END
 95
        4
302
GRIDFORMAT
  1
GRIDFORMAT_BEGIN
 90
        0
 91
        1
 62
     0
 92
       -2
340
14
 93
        0
 40
0.045
309
GRIDFORMAT_END
 95
        8
302
GRIDFORMAT
  1
GRIDFORMAT_BEGIN
 90
        0
 91
        1
 62
     0
 92
       -2
340
14
 93
        0
 40
0.045
309
GRIDFORMAT_END
 95
       16
302
GRIDFORMAT
  1
GRIDFORMAT_BEGIN
 90
        0
 91
        1
 62
     0
 92
       -2
340
14
 93
        0
 40
0.045
309
GRIDFORMAT_END
 95
       32
302
GRIDFORMAT
  1
GRIDFORMAT_BEGIN
 90
        0
 91
        1
 62
     0
 92
       -2
340
14
 93
        0
 40
0.045
309
GRIDFORMAT_END
309
TABLEFORMAT_END
  1
CELLSTYLE_BEGIN
 90
        1
 91
        1
300
_TITLE
309
CELLSTYLE_END
300
CELLSTYLE
  1
TABLEFORMAT_BEGIN
 90
        5
170
     1
 91
        0
 92
        0
 62
   257
 93
        1
300
CONTENTFORMAT
  1
CONTENTFORMAT_BEGIN
 90
        0
 91
        0
 92
        4
 93
        0
300

 40
0.0
140
1.0
 94
        5
 62
     0
340
11
144
4.5
309
CONTENTFORMAT_END
171
     1
301
MARGIN
  1
CELLMARGIN_BEGIN
 40
1.5
 40
1.5
 40
1.5
 40
1.5
 40
1.5
 40
1.5
309
CELLMARGIN_END
 94
        6
 95
        1
302
GRIDFORMAT
  1
GRIDFORMAT_BEGIN
 90
        0
 91
        1
 62
     0
 92
       -2
340
14
 93
        0
 40
0.045
309
GRIDFORMAT_END
 95
        2
302
GRIDFORMAT
  1
GRIDFORMAT_BEGIN
 90
        0
 91
        1
 62
     0
 92
       -2
340
14
 93
        0
 40
0.045
309
GRIDFORMAT_END
 95
        4
302
GRIDFORMAT
  1
GRIDFORMAT_BEGIN
 90
        0
 91
        1
 62
     0
 92
       -2
340
14
 93
        0
 40
0.045
309
GRIDFORMAT_END
 95
        8
302
GRIDFORMAT
  1
GRIDFORMAT_BEGIN
 90
        0
 91
        1
 62
     0
 92
       -2
340
14
 93
        0
 40
0.045
309
GRIDFORMAT_END
 95
       16
302
GRIDFORMAT
  1
GRIDFORMAT_BEGIN
 90
        0
 91
        1
 62
     0
 92
       -2
340
14
 93
        0
 40
0.045
309
GRIDFORMAT_END
 95
       32
302
GRIDFORMAT
  1
GRIDFORMAT_BEGIN
 90
        0
 91
        1
 62
     0
 92
       -2
340
14
 93
        0
 40
0.045
309
GRIDFORMAT_END
309
TABLEFORMAT_END
  1
CELLSTYLE_BEGIN
 90
        2
 91
        1
300
_HEADER
309
CELLSTYLE_END
300
CELLSTYLE
  1
TABLEFORMAT_BEGIN
 90
        5
170
     1
 91
        0
 92
        0
 62
   257
 93
        1
300
CONTENTFORMAT
  1
CONTENTFORMAT_BEGIN
 90
        0
 91
        0
 92
        4
 93
        0
300

 40
0.0
140
1.0
 94
        2
 62
     0
340
11
144
4.5
309
CONTENTFORMAT_END
171
     1
301
MARGIN
  1
CELLMARGIN_BEGIN
 40
1.5
 40
1.5
 40
1.5
 40
1.5
 40
1.5
 40
1.5
309
CELLMARGIN_END
 94
        6
 95
        1
302
GRIDFORMAT
  1
GRIDFORMAT_BEGIN
 90
        0
 91
        1
 62
     0
 92
       -2
340
14
 93
        0
 40
0.045
309
GRIDFORMAT_END
 95
        2
302
GRIDFORMAT
  1
GRIDFORMAT_BEGIN
 90
        0
 91
        1
 62
     0
 92
       -2
340
14
 93
        0
 40
0.045
309
GRIDFORMAT_END
 95
        4
302
GRIDFORMAT
  1
GRIDFORMAT_BEGIN
 90
        0
 91
        1
 62
     0
 92
       -2
340
14
 93
        0
 40
0.045
309
GRIDFORMAT_END
 95
        8
302
GRIDFORMAT
  1
GRIDFORMAT_BEGIN
 90
        0
 91
        1
 62
     0
 92
       -2
340
14
 93
        0
 40
0.045
309
GRIDFORMAT_END
 95
       16
302
GRIDFORMAT
  1
GRIDFORMAT_BEGIN
 90
        0
 91
        1
 62
     0
 92
       -2
340
14
 93
        0
 40
0.045
309
GRIDFORMAT_END
 95
       32
302
GRIDFORMAT
  1
GRIDFORMAT_BEGIN
 90
        0
 91
        1
 62
     0
 92
       -2
340
14
 93
        0
 40
0.045
309
GRIDFORMAT_END
309
TABLEFORMAT_END
  1
CELLSTYLE_BEGIN
 90
        3
 91
        2
300
_DATA
309
CELLSTYLE_END
  0
ENDSEC
  0
EOF
