  0
SECTION
  2
HEADER
  9
$ACADVER
  1
AC1027
  9
$ACADMAINTVER
 70
     8
  9
$DWGCODEPAGE
  3
ANSI_1252
  9
$REQUIREDVERSIONS
160
                 0
  9
$INSBASE
 10
0.0
 20
0.0
 30
0.0
  9
$EXTMIN
 10
0.0
 20
0.0
 30
0.0
  9
$EXTMAX
 10
297.0
 20
210.0
 30
0.0
  9
$LIMMIN
 10
0.0
 20
0.0
  9
$LIMMAX
 10
297.0
 20
210.0
  9
$ORTHOMODE
 70
     0
  9
$REGENMODE
 70
     1
  9
$FILLMODE
 70
     1
  9
$QTEXTMODE
 70
     0
  9
$MIRRTEXT
 70
     1
  9
$LTSCALE
 40
16.335
  9
$ATTMODE
 70
     1
  9
$TEXTSIZE
 40
0.2
  9
$TRACEWID
 40
0.05
  9
$TEXTSTYLE
  7
STANDARD
  9
$CLAYER
  8
0
  9
$CELTYPE
  6
BYLAYER
  9
$CECOLOR
 62
   256
  9
$CELTSCALE
 40
1.0
  9
$DISPSILH
 70
     0
  9
$DIMSCALE
 40
1.0
  9
$DIMASZ
 40
2.5
  9
$DIMEXO
 40
0.75
  9
$DIMDLI
 40
11.286
  9
$DIMRND
 40
0.0
  9
$DIMDLE
 40
0.0
  9
$DIMEXE
 40
0.75
  9
$DIMTP
 40
0.01
  9
$DIMTM
 40
0.01
  9
$DIMTXT
 40
3.0
  9
$DIMCEN
 40
2.673
  9
$DIMTSZ
 40
0.0
  9
$DIMTOL
 70
     1
  9
$DIMLIM
 70
     0
  9
$DIMTIH
 70
     1
  9
$DIMTOH
 70
     1
  9
$DIMSE1
 70
     0
  9
$DIMSE2
 70
     0
  9
$DIMTAD
 70
     0
  9
$DIMZIN
 70
     0
  9
$DIMBLK
  1
CLOSED
  9
$DIMASO
 70
     1
  9
$DIMSHO
 70
     1
  9
$DIMPOST
  1

  9
$DIMAPOST
  1

  9
$DIMALT
 70
     0
  9
$DIMALTD
 70
     2
  9
$DIMALTF
 40
25.4
  9
$DIMLFAC
 40
1.0
  9
$DIMTOFL
 70
     0
  9
$DIMTVP
 40
0.0
  9
$DIMTIX
 70
     0
  9
$DIMSOXD
 70
     0
  9
$DIMSAH
 70
     0
  9
$DIMBLK1
  1

  9
$DIMBLK2
  1

  9
$DIMSTYLE
  2
STANDARD
  9
$DIMCLRD
 70
     0
  9
$DIMCLRE
 70
     0
  9
$DIMCLRT
 70
     0
  9
$DIMTFAC
 40
1.0
  9
$DIMGAP
 40
0.625
  9
$DIMJUST
 70
     0
  9
$DIMSD1
 70
     0
  9
$DIMSD2
 70
     0
  9
$DIMTOLJ
 70
     1
  9
$DIMTZIN
 70
     0
  9
$DIMALTZ
 70
     0
  9
$DIMALTTZ
 70
     0
  9
$DIMUPT
 70
     0
  9
$DIMDEC
 70
     4
  9
$DIMTDEC
 70
     4
  9
$DIMALTU
 70
     2
  9
$DIMALTTD
 70
     2
  9
$DIMTXSTY
  7
STANDARD
  9
$DIMAUNIT
 70
     0
  9
$DIMADEC
 70
     0
  9
$DIMALTRND
 40
0.0
  9
$DIMAZIN
 70
     0
  9
$DIMDSEP
 70
    44
  9
$DIMATFIT
 70
     3
  9
$DIMFRAC
 70
     0
  9
$DIMLDRBLK
  1

  9
$DIMLUNIT
 70
     2
  9
$DIMLWD
 70
    -2
  9
$DIMLWE
 70
    -2
  9
$DIMTMOVE
 70
     0
  9
$DIMFXL
 40
1.0
  9
$DIMFXLON
 70
     0
  9
$DIMJOGANG
 40
0.785398
  9
$DIMTFILL
 70
     0
  9
$DIMTFILLCLR
 70
     0
  9
$DIMARCSYM
 70
     0
  9
$DIMLTYPE
  6

  9
$DIMLTEX1
  6

  9
$DIMLTEX2
  6

  9
$DIMTXTDIRECTION
 70
     0
  9
$LUNITS
 70
     2
  9
$LUPREC
 70
     4
  9
$SKETCHINC
 40
0.1
  9
$FILLETRAD
 40
0.5
  9
$AUNITS
 70
     0
  9
$AUPREC
 70
     0
  9
$MENU
  1
.
  9
$ELEVATION
 40
0.0
  9
$PELEVATION
 40
0.0
  9
$THICKNESS
 40
0.0
  9
$LIMCHECK
 70
     0
  9
$CHAMFERA
 40
0.0
  9
$CHAMFERB
 40
0.0
  9
$CHAMFERC
 40
0.0
  9
$CHAMFERD
 40
0.0
  9
$SKPOLY
 70
     0
  9
$TDCREATE
 40
2447893.041666667
  9
$TDUCREATE
 40
0.0
  9
$TDUPDATE
 40
2458856.449868125
  9
$TDUUPDATE
 40
2458856.408201458
  9
$TDINDWG
 40
0.0
  9
$TDUSRTIMER
 40
0.0
  9
$USRTIMER
 70
     1
  9
$ANGBASE
 50
0.0
  9
$ANGDIR
 70
     0
  9
$PDMODE
 70
     3
  9
$PDSIZE
 40
0.3125
  9
$PLINEWID
 40
0.0
  9
$SPLFRAME
 70
     0
  9
$SPLINETYPE
 70
     6
  9
$SPLINESEGS
 70
     8
  9
$HANDSEED
  5
4EE
  9
$SURFTAB1
 70
     6
  9
$SURFTAB2
 70
     6
  9
$SURFTYPE
 70
     6
  9
$SURFU
 70
     6
  9
$SURFV
 70
     6
  9
$UCSBASE
  2

  9
$UCSNAME
  2

  9
$UCSORG
 10
0.0
 20
0.0
 30
0.0
  9
$UCSXDIR
 10
1.0
 20
0.0
 30
0.0
  9
$UCSYDIR
 10
0.0
 20
1.0
 30
0.0
  9
$UCSORTHOREF
  2

  9
$UCSORTHOVIEW
 70
     0
  9
$UCSORGTOP
 10
0.0
 20
0.0
 30
0.0
  9
$UCSORGBOTTOM
 10
0.0
 20
0.0
 30
0.0
  9
$UCSORGLEFT
 10
0.0
 20
0.0
 30
0.0
  9
$UCSORGRIGHT
 10
0.0
 20
0.0
 30
0.0
  9
$UCSORGFRONT
 10
0.0
 20
0.0
 30
0.0
  9
$UCSORGBACK
 10
0.0
 20
0.0
 30
0.0
  9
$PUCSBASE
  2

  9
$PUCSNAME
  2

  9
$PUCSORG
 10
0.0
 20
0.0
 30
0.0
  9
$PUCSXDIR
 10
1.0
 20
0.0
 30
0.0
  9
$PUCSYDIR
 10
0.0
 20
1.0
 30
0.0
  9
$PUCSORTHOREF
  2

  9
$PUCSORTHOVIEW
 70
     0
  9
$PUCSORGTOP
 10
0.0
 20
0.0
 30
0.0
  9
$PUCSORGBOTTOM
 10
0.0
 20
0.0
 30
0.0
  9
$PUCSORGLEFT
 10
0.0
 20
0.0
 30
0.0
  9
$PUCSORGRIGHT
 10
0.0
 20
0.0
 30
0.0
  9
$PUCSORGFRONT
 10
0.0
 20
0.0
 30
0.0
  9
$PUCSORGBACK
 10
0.0
 20
0.0
 30
0.0
  9
$USERI1
 70
     0
  9
$USERI2
 70
     0
  9
$USERI3
 70
     0
  9
$USERI4
 70
     0
  9
$USERI5
 70
     0
  9
$USERR1
 40
0.0
  9
$USERR2
 40
0.0
  9
$USERR3
 40
0.0
  9
$USERR4
 40
0.0
  9
$USERR5
 40
0.0
  9
$WORLDVIEW
 70
     1
  9
$SHADEDGE
 70
     3
  9
$SHADEDIF
 70
    70
  9
$TILEMODE
 70
     1
  9
$MAXACTVP
 70
    64
  9
$PINSBASE
 10
0.0
 20
0.0
 30
0.0
  9
$PLIMCHECK
 70
     0
  9
$PEXTMIN
 10
1.000000E+20
 20
1.000000E+20
 30
1.000000E+20
  9
$PEXTMAX
 10
-1.000000E+20
 20
-1.000000E+20
 30
-1.000000E+20
  9
$PLIMMIN
 10
0.0
 20
0.0
  9
$PLIMMAX
 10
12.0
 20
9.0
  9
$UNITMODE
 70
     0
  9
$VISRETAIN
 70
     1
  9
$PLINEGEN
 70
     0
  9
$PSLTSCALE
 70
     0
  9
$TREEDEPTH
 70
  3020
  9
$CMLSTYLE
  2

  9
$CMLJUST
 70
     0
  9
$CMLSCALE
 40
1.0
  9
$PROXYGRAPHICS
 70
     1
  9
$MEASUREMENT
 70
     1
  9
$CELWEIGHT
370
    -1
  9
$ENDCAPS
280
     0
  9
$JOINSTYLE
280
     0
  9
$LWDISPLAY
290
     0
  9
$INSUNITS
 70
     4
  9
$HYPERLINKBASE
  1

  9
$STYLESHEET
  1

  9
$XEDIT
290
     1
  9
$CEPSNTYPE
380
     0
  9
$PSTYLEMODE
290
     1
  9
$FINGERPRINTGUID
  2
{DA525E3C-CDED-4924-A89F-8DDCB0098471}
  9
$VERSIONGUID
  2
{FAEB1C32-E019-11D5-929B-00C0DF256EC4}
  9
$EXTNAMES
290
     1
  9
$PSVPSCALE
 40
0.0
  9
$OLESTARTUP
290
     0
  9
$SORTENTS
280
   127
  9
$INDEXCTL
280
     0
  9
$HIDETEXT
280
     1
  9
$XCLIPFRAME
280
     2
  9
$HALOGAP
280
     0
  9
$OBSCOLOR
 70
   257
  9
$OBSLTYPE
280
     0
  9
$INTERSECTIONDISPLAY
280
     0
  9
$INTERSECTIONCOLOR
 70
   257
  9
$DIMASSOC
280
     2
  9
$PROJECTNAME
  1

  9
$CAMERADISPLAY
290
     0
  9
$LENSLENGTH
 40
50.0
  9
$CAMERAHEIGHT
 40
0.0
  9
$STEPSPERSEC
 40
2.0
  9
$STEPSIZE
 40
6.0
  9
$3DDWFPREC
 40
2.0
  9
$PSOLWIDTH
 40
0.25
  9
$PSOLHEIGHT
 40
4.0
  9
$LOFTANG1
 40
1.570796
  9
$LOFTANG2
 40
1.570796
  9
$LOFTMAG1
 40
0.0
  9
$LOFTMAG2
 40
0.0
  9
$LOFTPARAM
 70
     7
  9
$LOFTNORMALS
280
     1
  9
$LATITUDE
 40
37.795
  9
$LONGITUDE
 40
-122.394
  9
$NORTHDIRECTION
 40
0.0
  9
$TIMEZONE
 70
 -8000
  9
$LIGHTGLYPHDISPLAY
280
     1
  9
$TILEMODELIGHTSYNCH
280
     1
  9
$SOLIDHIST
280
     1
  9
$SHOWHIST
280
     1
  9
$DWFFRAME
280
     2
  9
$DGNFRAME
280
     2
  9
$REALWORLDSCALE
290
     1
  9
$INTERFERECOLOR
 62
   256
  9
$CSHADOW
280
     0
  9
$SHADOWPLANELOCATION
 40
0.0
  0
ENDSEC
  0
SECTION
  2
CLASSES
  0
CLASS
  1
ACDBDICTIONARYWDFLT
  2
AcDbDictionaryWithDefault
  3
ObjectDBX Classes
 90
        0
 91
        6
280
     0
281
     0
  0
CLASS
  1
ACDBPLACEHOLDER
  2
AcDbPlaceHolder
  3
ObjectDBX Classes
 90
        0
 91
        1
280
     0
281
     0
  0
CLASS
  1
LAYOUT
  2
AcDbLayout
  3
ObjectDBX Classes
 90
        0
 91
        1
280
     0
281
     0
  0
CLASS
  1
TABLESTYLE
  2
AcDbTableStyle
  3
ObjectDBX Classes
 90
     4095
 91
        5
280
     0
281
     0
  0
CLASS
  1
ACAD_TABLE
  2
AcDbTable
  3
ObjectDBX Classes
 90
     1025
 91
        5
280
     0
281
     1
  0
CLASS
  1
SCALE
  2
AcDbScale
  3
ObjectDBX Classes
 90
     1153
 91
        5
280
     0
281
     0
  0
CLASS
  1
TABLEGEOMETRY
  2
AcDbTableGeometry
  3
ObjectDBX Classes
 90
     1152
 91
        4
280
     0
281
     0
  0
CLASS
  1
VISUALSTYLE
  2
AcDbVisualStyle
  3
ObjectDBX Classes
 90
     4095
 91
        5
280
     0
281
     0
  0
CLASS
  1
MATERIAL
  2
AcDbMaterial
  3
ObjectDBX Classes
 90
     1153
 91
        5
280
     0
281
     0
  0
CLASS
  1
SUN
  2
AcDbSun
  3
SCENEOE
 90
     1153
 91
        5
280
     0
281
     0
  0
CLASS
  1
CSACDOCUMENTOPTIONS
  2
CDocDataContainer
  3
"DERU003_CSAPP"
 90
     4095
 91
        4
280
     0
281
     0
  0
CLASS
  1
TABLECONTENT
  2
AcDbTableContent
  3
ObjectDBX Classes
 90
     1152
 91
        4
280
     0
281
     0
  0
CLASS
  1
DICTIONARYVAR
  2
AcDbDictionaryVar
  3
ObjectDBX Classes
 90
        0
 91
        4
280
     0
281
     0
  0
CLASS
  1
CELLSTYLEMAP
  2
AcDbCellStyleMap
  3
ObjectDBX Classes
 90
     1152
 91
        4
280
     0
281
     0
  0
ENDSEC
  0
SECTION
  2
TABLES
  0
TABLE
  2
VPORT
  5
8
330
0
100
AcDbSymbolTable
 70
     1
  0
VPORT
  5
1F4
330
8
100
AcDbSymbolTableRecord
100
AcDbViewportTableRecord
  2
*ACTIVE
 70
     0
 10
0.0
 20
0.0
 11
1.0
 21
1.0
 12
148.5
 22
105.0
 13
0.0
 23
0.0
 14
1.0
 24
1.0
 15
0.0
 25
0.0
 16
0.0
 26
0.0
 36
1.0
 17
0.0
 27
0.0
 37
0.0
 40
210.0
 41
1.818286
 42
50.0
 43
0.0
 44
0.0
 50
0.0
 51
0.0
 71
    16
 72
   100
 73
     1
 74
     1
 75
     0
 76
     0
 77
     0
 78
     0
281
     0
 65
     1
110
0.0
120
0.0
130
0.0
111
1.0
121
0.0
131
0.0
112
0.0
122
1.0
132
0.0
 79
     0
146
0.0
 60
     3
 61
     5
292
     1
282
     1
141
0.0
142
0.0
 63
   256
361
4D9
  0
ENDTAB
  0
TABLE
  2
LTYPE
  5
5
330
0
100
AcDbSymbolTable
 70
     6
  0
LTYPE
  5
14
330
5
100
AcDbSymbolTableRecord
100
AcDbLinetypeTableRecord
  2
BYBLOCK
 70
     0
  3

 72
    65
 73
     0
 40
0.0
  0
LTYPE
  5
15
330
5
100
AcDbSymbolTableRecord
100
AcDbLinetypeTableRecord
  2
BYLAYER
 70
     0
  3

 72
    65
 73
     0
 40
0.0
  0
LTYPE
  5
16
330
5
100
AcDbSymbolTableRecord
100
AcDbLinetypeTableRecord
  2
CONTINUOUS
 70
     0
  3
Solid line
 72
    65
 73
     0
 40
0.0
  0
LTYPE
  5
1F5
330
5
100
AcDbSymbolTableRecord
100
AcDbLinetypeTableRecord
  2
CENTER
 70
     0
  3
____ _ ____ _ ____ _ ____ _ ____ _ ____ _ ____
 72
    65
 73
     4
 40
0.6
 49
0.375
 74
     0
 49
-0.075
 74
     0
 49
0.075
 74
     0
 49
-0.075
 74
     0
  0
LTYPE
  5
1F6
330
5
100
AcDbSymbolTableRecord
100
AcDbLinetypeTableRecord
  2
HIDDEN
 70
     0
  3
- - - - - - - - - - - - - - - - - - - -
 72
    65
 73
     2
 40
0.2
 49
0.1
 74
     0
 49
-0.1
 74
     0
  0
LTYPE
  5
1F7
330
5
100
AcDbSymbolTableRecord
100
AcDbLinetypeTableRecord
  2
PHANTOM
 70
     0
  3
_____ _ _ _____ _ _ _____ _ _ _____
 72
    65
 73
     6
 40
0.8
 49
0.45
 74
     0
 49
-0.05
 74
     0
 49
0.1
 74
     0
 49
-0.05
 74
     0
 49
0.1
 74
     0
 49
-0.05
 74
     0
  0
LTYPE
  5
1F8
330
5
100
AcDbSymbolTableRecord
100
AcDbLinetypeTableRecord
  2
DOT
 70
     0
  3
. . . . . . . . . . . . . . . . . . . .
 72
    65
 73
     2
 40
0.2
 49
0.1
 74
     0
 49
-0.1
 74
     0
  0
LTYPE
  5
1F9
330
5
100
AcDbSymbolTableRecord
100
AcDbLinetypeTableRecord
  2
DASHED
 70
     0
  3
- - - - - - - - - - - - - - - - - - - -
 72
    65
 73
     2
 40
0.2
 49
0.1
 74
     0
 49
-0.1
 74
     0
  0
ENDTAB
  0
TABLE
  2
LAYER
  5
2
330
0
100
AcDbSymbolTable
 70
    12
  0
LAYER
  5
10
330
2
100
AcDbSymbolTableRecord
100
AcDbLayerTableRecord
  2
0
 70
     0
 62
     7
  6
CONTINUOUS
370
    -3
390
F
347
4D3
348
0
  0
LAYER
  5
1FA
330
2
100
AcDbSymbolTableRecord
100
AcDbLayerTableRecord
  2
DEFAULT_1
 70
     0
 62
     7
  6
CENTER
370
    -3
390
F
347
4D3
348
0
  0
LAYER
  5
1FB
330
2
100
AcDbSymbolTableRecord
100
AcDbLayerTableRecord
  2
DEFAULT_2
 70
     0
 62
     8
  6
HIDDEN
370
    -3
390
F
347
4D3
348
0
  0
LAYER
  5
1FC
330
2
100
AcDbSymbolTableRecord
100
AcDbLayerTableRecord
  2
DEFAULT_3
 70
     0
 62
     7
  6
PHANTOM
370
    -3
390
F
347
4D3
348
0
  0
LAYER
  5
1FD
330
2
100
AcDbSymbolTableRecord
100
AcDbLayerTableRecord
  2
1_ALL_PLANES
 70
     0
 62
     7
  6
CONTINUOUS
370
    -3
390
F
347
4D3
348
0
  0
LAYER
  5
1FE
330
2
100
AcDbSymbolTableRecord
100
AcDbLayerTableRecord
  2
2_ALL_CSYS
 70
     0
 62
     7
  6
CONTINUOUS
370
    -3
390
F
347
4D3
348
0
  0
LAYER
  5
1FF
330
2
100
AcDbSymbolTableRecord
100
AcDbLayerTableRecord
  2
3_ALL_AXES
 70
     0
 62
     7
  6
CONTINUOUS
370
    -3
390
F
347
4D3
348
0
  0
LAYER
  5
200
330
2
100
AcDbSymbolTableRecord
100
AcDbLayerTableRecord
  2
4_ALL_POINTS
 70
     0
 62
     7
  6
CONTINUOUS
370
    -3
390
F
347
4D3
348
0
  0
LAYER
  5
201
330
2
100
AcDbSymbolTableRecord
100
AcDbLayerTableRecord
  2
5_ALL_CURVES
 70
     0
 62
     7
  6
CONTINUOUS
370
    -3
390
F
347
4D3
348
0
  0
LAYER
  5
202
330
2
100
AcDbSymbolTableRecord
100
AcDbLayerTableRecord
  2
6_ALL_SURFS
 70
     0
 62
     7
  6
CONTINUOUS
370
    -3
390
F
347
4D3
348
0
  0
LAYER
  5
203
330
2
100
AcDbSymbolTableRecord
100
AcDbLayerTableRecord
  2
7_ALL_FEATURES
 70
     0
 62
     7
  6
CONTINUOUS
370
    -3
390
F
347
4D3
348
0
  0
LAYER
  5
204
330
2
100
AcDbSymbolTableRecord
100
AcDbLayerTableRecord
  2
9_SOLID
 70
     0
 62
     7
  6
CONTINUOUS
370
    -3
390
F
347
4D3
348
0
  0
ENDTAB
  0
TABLE
  2
STYLE
  5
3
330
0
100
AcDbSymbolTable
 70
     3
  0
STYLE
  5
11
330
3
100
AcDbSymbolTableRecord
100
AcDbTextStyleTableRecord
  2
STANDARD
 70
     0
 40
0.0
 41
1.0
 50
0.0
 71
     0
 42
0.2
  3
arial.ttf
  4

  0
STYLE
  5
205
330
3
100
AcDbSymbolTableRecord
100
AcDbTextStyleTableRecord
  2
TEXTSTYLE_1
 70
     0
 40
0.0
 41
0.8
 50
0.0
 71
     0
 42
0.2
  3
gdt
  4

  0
STYLE
  5
206
330
3
100
AcDbSymbolTableRecord
100
AcDbTextStyleTableRecord
  2
TEXTSTYLE_2
 70
     0
 40
0.0
 41
0.85
 50
0.0
 71
     0
 42
0.2
  3
txt
  4

  0
ENDTAB
  0
TABLE
  2
VIEW
  5
6
330
0
100
AcDbSymbolTable
 70
     0
  0
ENDTAB
  0
TABLE
  2
UCS
  5
7
330
0
100
AcDbSymbolTable
 70
     0
  0
ENDTAB
  0
TABLE
  2
APPID
  5
9
330
0
100
AcDbSymbolTable
 70
     6
  0
APPID
  5
207
330
9
100
AcDbSymbolTableRecord
100
AcDbRegAppTableRecord
  2
ACAD
 70
     0
  0
APPID
  5
4D4
330
9
100
AcDbSymbolTableRecord
100
AcDbRegAppTableRecord
  2
MCS_DIM1
 70
     0
  0
APPID
  5
4D5
330
9
100
AcDbSymbolTableRecord
100
AcDbRegAppTableRecord
  2
McsXdata5
 70
     0
  0
APPID
  5
4D8
330
9
100
AcDbSymbolTableRecord
100
AcDbRegAppTableRecord
  2
MCS_DOCUMENT_ID
 70
     0
  0
APPID
  5
4DE
330
9
100
AcDbSymbolTableRecord
100
AcDbRegAppTableRecord
  2
MCS_PARAMS_DATA
 70
     0
  0
APPID
  5
4E0
330
9
100
AcDbSymbolTableRecord
100
AcDbRegAppTableRecord
  2
MC_VERSION_DATA
 70
     0
  0
ENDTAB
  0
TABLE
  2
DIMSTYLE
  5
A
330
0
100
AcDbSymbolTable
 70
     3
100
AcDbDimStyleTable
  0
DIMSTYLE
105
212
330
A
100
AcDbSymbolTableRecord
100
AcDbDimStyleTableRecord
  2
STANDARD
 70
     0
 41
2.5
 42
0.75
 44
0.75
 47
0.01
 48
0.01
 71
     1
 73
     0
 74
     0
 77
     1
 78
     8
 79
     2
140
3.0
147
0.625
171
     1
178
     0
179
     2
271
     2
272
     2
278
    44
284
     8
340
11
341
20A
342
20A
343
20A
344
20A
  0
DIMSTYLE
105
213
330
A
100
AcDbSymbolTableRecord
100
AcDbDimStyleTableRecord
  2
DIMSTYLE_1
 70
     0
 41
2.5
 42
0.75
 44
0.75
 47
0.3
 48
0.3
 73
     0
 74
     0
 77
     1
 78
     8
 79
     2
140
3.0
147
0.75
171
     1
178
     0
179
     2
271
     2
272
     2
278
    44
284
     8
340
11
341
20A
342
20A
343
20A
344
20A
  0
DIMSTYLE
105
214
330
A
100
AcDbSymbolTableRecord
100
AcDbDimStyleTableRecord
  2
DIMSTYLE_2
 70
     0
 41
2.5
 42
0.75
 44
0.75
 47
0.2
 48
0.2
 73
     0
 74
     0
 77
     1
 78
     8
 79
     2
140
3.0
147
0.75
171
     1
178
     0
179
     2
271
     2
272
     2
278
    44
284
     8
340
11
341
20A
342
20A
343
20A
344
20A
  0
ENDTAB
  0
TABLE
  2
BLOCK_RECORD
  5
1
330
0
100
AcDbSymbolTable
 70
     8
  0
BLOCK_RECORD
  5
208
330
1
100
AcDbSymbolTableRecord
100
AcDbBlockTableRecord
  2
*Model_Space
340
48E
 70
     0
280
     1
281
     0
  0
BLOCK_RECORD
  5
209
330
1
100
AcDbSymbolTableRecord
100
AcDbBlockTableRecord
  2
*Paper_Space
340
48F
 70
     0
280
     1
281
     0
  0
BLOCK_RECORD
  5
20A
330
1
100
AcDbSymbolTableRecord
100
AcDbBlockTableRecord
  2
_CLOSED
340
0
102
{BLKREFS
331
25D
331
25E
331
266
331
267
331
26F
331
270
331
278
331
279
331
283
331
284
102
}
 70
     0
280
     1
281
     0
  0
BLOCK_RECORD
  5
20B
330
1
100
AcDbSymbolTableRecord
100
AcDbBlockTableRecord
  2
*D1
340
0
 70
     0
280
     1
281
     0
  0
BLOCK_RECORD
  5
20C
330
1
100
AcDbSymbolTableRecord
100
AcDbBlockTableRecord
  2
*D2
340
0
 70
     0
280
     1
281
     0
  0
BLOCK_RECORD
  5
20D
330
1
100
AcDbSymbolTableRecord
100
AcDbBlockTableRecord
  2
*D3
340
0
 70
     0
280
     1
281
     0
  0
BLOCK_RECORD
  5
20E
330
1
100
AcDbSymbolTableRecord
100
AcDbBlockTableRecord
  2
*D4
340
0
 70
     0
280
     1
281
     0
  0
BLOCK_RECORD
  5
20F
330
1
100
AcDbSymbolTableRecord
100
AcDbBlockTableRecord
  2
*D5
340
0
 70
     0
280
     1
281
     0
  0
BLOCK_RECORD
  5
210
330
1
100
AcDbSymbolTableRecord
100
AcDbBlockTableRecord
  2
LOGO2_BL0
340
0
102
{BLKREFS
331
48B
102
}
 70
     0
280
     1
281
     0
  0
BLOCK_RECORD
  5
211
330
1
100
AcDbSymbolTableRecord
100
AcDbBlockTableRecord
  2
*T7
340
0
102
{BLKREFS
331
48C
102
}
 70
     0
280
     1
281
     0
  0
ENDTAB
  0
ENDSEC
  0
SECTION
  2
BLOCKS
  0
BLOCK
  5
20
330
208
100
AcDbEntity
  8
0
100
AcDbBlockBegin
  2
*Model_Space
 70
     0
 10
0.0
 20
0.0
 30
0.0
  3
*Model_Space
  1
*Model_Space
  0
ENDBLK
  5
21
330
208
100
AcDbEntity
  8
0
100
AcDbBlockEnd
  0
BLOCK
  5
1C
330
209
100
AcDbEntity
 67
     1
  8
0
100
AcDbBlockBegin
  2
*Paper_Space
 70
     0
 10
0.0
 20
0.0
 30
0.0
  3
*Paper_Space
  1
*Paper_Space
  0
ENDBLK
  5
1D
330
209
100
AcDbEntity
 67
     1
  8
0
100
AcDbBlockEnd
  0
BLOCK
  5
251
330
20A
100
AcDbEntity
  8
0
100
AcDbBlockBegin
  2
_CLOSED
 70
     0
 10
0.0
 20
0.0
 30
0.0
  3
_CLOSED
  1
_CLOSED
  0
LINE
  5
252
330
20A
100
AcDbEntity
  8
0
  6
ByBlock
 62
     0
100
AcDbLine
 10
0.0
 20
0.0
 30
0.0
 11
-1.0
 21
0.2
 31
0.0
  0
LINE
  5
253
330
20A
100
AcDbEntity
  8
0
  6
ByBlock
 62
     0
100
AcDbLine
 10
-1.0
 20
0.2
 30
0.0
 11
-1.0
 21
-0.2
 31
0.0
  0
LINE
  5
254
330
20A
100
AcDbEntity
  8
0
  6
ByBlock
 62
     0
100
AcDbLine
 10
-1.0
 20
-0.2
 30
0.0
 11
0.0
 21
0.0
 31
0.0
  0
LINE
  5
255
330
20A
100
AcDbEntity
  8
0
  6
ByBlock
 62
     0
100
AcDbLine
 10
-1.0
 20
0.0
 30
0.0
 11
0.0
 21
0.0
 31
0.0
  0
ENDBLK
  5
256
330
20A
100
AcDbEntity
  8
0
  6
ByBlock
 62
     0
100
AcDbBlockEnd
  0
BLOCK
  5
257
330
20B
100
AcDbEntity
  8
0
100
AcDbBlockBegin
  2
*D1
 70
     1
 10
0.0
 20
0.0
 30
0.0
  3
*D1
  1
*D1
  0
MTEXT
  5
258
330
20B
100
AcDbEntity
  8
0
  6
Continuous
 62
     2
100
AcDbMText
 10
83.452861
 20
192.538817
 30
0.0
 40
3.0
 41
4.66171
 46
0.0
 71
     2
 72
     1
  1
85
 73
     1
 44
0.9
  0
LINE
  5
259
330
20B
100
AcDbEntity
  8
0
  6
Continuous
 62
     2
100
AcDbLine
 10
125.952861
 20
180.918784
 30
0.0
 11
125.952861
 21
189.538817
 31
0.0
  0
LINE
  5
25A
330
20B
100
AcDbEntity
  8
0
  6
Continuous
 62
     2
100
AcDbLine
 10
40.952861
 20
180.918784
 30
0.0
 11
40.952861
 21
189.538817
 31
0.0
  0
LINE
  5
25B
330
20B
100
AcDbEntity
  8
0
  6
Continuous
 62
     2
100
AcDbLine
 10
125.952861
 20
188.788817
 30
0.0
 11
83.452861
 21
188.788817
 31
0.0
  0
LINE
  5
25C
330
20B
100
AcDbEntity
  8
0
  6
Continuous
 62
     2
100
AcDbLine
 10
40.952861
 20
188.788817
 30
0.0
 11
83.452861
 21
188.788817
 31
0.0
  0
INSERT
  5
25D
330
20B
100
AcDbEntity
  8
0
  6
Continuous
 62
     2
100
AcDbBlockReference
  2
_CLOSED
 10
125.952861
 20
188.788817
 30
0.0
 41
2.5
 42
2.5
 43
2.5
  0
INSERT
  5
25E
330
20B
100
AcDbEntity
  8
0
  6
Continuous
 62
     2
100
AcDbBlockReference
  2
_CLOSED
 10
40.952861
 20
188.788817
 30
0.0
 41
2.5
 42
2.5
 43
2.5
 50
180.0
  0
ENDBLK
  5
25F
330
20B
100
AcDbEntity
  8
0
  6
ByBlock
 62
     0
100
AcDbBlockEnd
  0
BLOCK
  5
260
330
20C
100
AcDbEntity
  8
0
100
AcDbBlockBegin
  2
*D2
 70
     1
 10
0.0
 20
0.0
 30
0.0
  3
*D2
  1
*D2
  0
MTEXT
  5
261
330
20C
100
AcDbEntity
  8
0
  6
Continuous
 62
     2
100
AcDbMText
 10
16.468338
 20
131.565962
 30
0.0
 40
3.0
 41
4.66171
 46
0.0
 71
     2
 72
     1
  1
85
 11
0.0
 21
1.0
 31
0.0
 73
     1
 44
0.9
  0
LINE
  5
262
330
20C
100
AcDbEntity
  8
0
  6
Continuous
 62
     2
100
AcDbLine
 10
34.729261
 20
173.744616
 30
0.0
 11
19.468338
 21
173.744616
 31
0.0
  0
LINE
  5
263
330
20C
100
AcDbEntity
  8
0
  6
Continuous
 62
     2
100
AcDbLine
 10
34.729261
 20
88.744616
 30
0.0
 11
19.468338
 21
88.744616
 31
0.0
  0
LINE
  5
264
330
20C
100
AcDbEntity
  8
0
  6
Continuous
 62
     2
100
AcDbLine
 10
20.218338
 20
173.744616
 30
0.0
 11
20.218338
 21
131.244616
 31
0.0
  0
LINE
  5
265
330
20C
100
AcDbEntity
  8
0
  6
Continuous
 62
     2
100
AcDbLine
 10
20.218338
 20
88.744616
 30
0.0
 11
20.218338
 21
131.244616
 31
0.0
  0
INSERT
  5
266
330
20C
100
AcDbEntity
  8
0
  6
Continuous
 62
     2
100
AcDbBlockReference
  2
_CLOSED
 10
20.218338
 20
173.744616
 30
0.0
 41
2.5
 42
2.5
 43
2.5
 50
90.0
  0
INSERT
  5
267
330
20C
100
AcDbEntity
  8
0
  6
Continuous
 62
     2
100
AcDbBlockReference
  2
_CLOSED
 10
20.218338
 20
88.744616
 30
0.0
 41
2.5
 42
2.5
 43
2.5
 50
270.0
  0
ENDBLK
  5
268
330
20C
100
AcDbEntity
  8
0
  6
ByBlock
 62
     0
100
AcDbBlockEnd
  0
BLOCK
  5
269
330
20D
100
AcDbEntity
  8
0
100
AcDbBlockBegin
  2
*D3
 70
     1
 10
0.0
 20
0.0
 30
0.0
  3
*D3
  1
*D3
  0
MTEXT
  5
26A
330
20D
100
AcDbEntity
  8
0
  6
Continuous
 62
     2
100
AcDbMText
 10
83.452861
 20
184.599006
 30
0.0
 40
3.0
 41
4.66171
 46
0.0
 71
     2
 72
     1
  1
35
 73
     1
 44
0.9
  0
LINE
  5
26B
330
20D
100
AcDbEntity
  8
0
  6
Continuous
 62
     2
100
AcDbLine
 10
65.952861
 20
180.613592
 30
0.0
 11
65.952861
 21
181.599006
 31
0.0
  0
LINE
  5
26C
330
20D
100
AcDbEntity
  8
0
  6
Continuous
 62
     2
100
AcDbLine
 10
100.952861
 20
180.099006
 30
0.0
 11
100.952861
 21
180.918784
 31
0.0
  0
LINE
  5
26D
330
20D
100
AcDbEntity
  8
0
  6
Continuous
 62
     2
100
AcDbLine
 10
65.952861
 20
180.849006
 30
0.0
 11
83.452861
 21
180.849006
 31
0.0
  0
LINE
  5
26E
330
20D
100
AcDbEntity
  8
0
  6
Continuous
 62
     2
100
AcDbLine
 10
100.952861
 20
180.849006
 30
0.0
 11
83.452861
 21
180.849006
 31
0.0
  0
INSERT
  5
26F
330
20D
100
AcDbEntity
  8
0
  6
Continuous
 62
     2
100
AcDbBlockReference
  2
_CLOSED
 10
65.952861
 20
180.849006
 30
0.0
 41
2.5
 42
2.5
 43
2.5
 50
180.0
  0
INSERT
  5
270
330
20D
100
AcDbEntity
  8
0
  6
Continuous
 62
     2
100
AcDbBlockReference
  2
_CLOSED
 10
100.952861
 20
180.849006
 30
0.0
 41
2.5
 42
2.5
 43
2.5
  0
ENDBLK
  5
271
330
20D
100
AcDbEntity
  8
0
  6
ByBlock
 62
     0
100
AcDbBlockEnd
  0
BLOCK
  5
272
330
20E
100
AcDbEntity
  8
0
100
AcDbBlockBegin
  2
*D4
 70
     1
 10
0.0
 20
0.0
 30
0.0
  3
*D4
  1
*D4
  0
MTEXT
  5
273
330
20E
100
AcDbEntity
  8
0
  6
Continuous
 62
     2
100
AcDbMText
 10
23.588289
 20
131.244616
 30
0.0
 40
3.0
 41
4.66171
 46
0.0
 71
     2
 72
     1
  1
35
 11
0.0
 21
1.0
 31
0.0
 73
     1
 44
0.9
  0
LINE
  5
274
330
20E
100
AcDbEntity
  8
0
  6
Continuous
 62
     2
100
AcDbLine
 10
34.729261
 20
113.744616
 30
0.0
 11
26.588289
 21
113.744616
 31
0.0
  0
LINE
  5
275
330
20E
100
AcDbEntity
  8
0
  6
Continuous
 62
     2
100
AcDbLine
 10
34.692911
 20
148.744616
 30
0.0
 11
26.588289
 21
148.744616
 31
0.0
  0
LINE
  5
276
330
20E
100
AcDbEntity
  8
0
  6
Continuous
 62
     2
100
AcDbLine
 10
27.338289
 20
113.744616
 30
0.0
 11
27.338289
 21
131.244616
 31
0.0
  0
LINE
  5
277
330
20E
100
AcDbEntity
  8
0
  6
Continuous
 62
     2
100
AcDbLine
 10
27.338289
 20
148.744616
 30
0.0
 11
27.338289
 21
131.244616
 31
0.0
  0
INSERT
  5
278
330
20E
100
AcDbEntity
  8
0
  6
Continuous
 62
     2
100
AcDbBlockReference
  2
_CLOSED
 10
27.338289
 20
113.744616
 30
0.0
 41
2.5
 42
2.5
 43
2.5
 50
270.0
  0
INSERT
  5
279
330
20E
100
AcDbEntity
  8
0
  6
Continuous
 62
     2
100
AcDbBlockReference
  2
_CLOSED
 10
27.338289
 20
148.744616
 30
0.0
 41
2.5
 42
2.5
 43
2.5
 50
90.0
  0
ENDBLK
  5
27A
330
20E
100
AcDbEntity
  8
0
  6
ByBlock
 62
     0
100
AcDbBlockEnd
  0
BLOCK
  5
27B
330
20F
100
AcDbEntity
  8
0
100
AcDbBlockBegin
  2
*D5
 70
     1
 10
0.0
 20
0.0
 30
0.0
  3
*D5
  1
*D5
  0
MTEXT
  5
27C
330
20F
100
AcDbEntity
  8
0
  6
Continuous
 62
     2
100
AcDbMText
 10
147.053209
 20
69.63332
 30
0.0
 40
3.0
 41
5.821561
 46
0.0
 71
     2
 72
     1
  1
9,5
 11
0.0
 21
1.0
 31
0.0
 73
     1
 44
0.9
  0
LINE
  5
27D
330
20F
100
AcDbEntity
  8
0
  6
Continuous
 62
     2
100
AcDbLine
 10
140.161714
 20
64.88332
 30
0.0
 11
151.553209
 21
64.88332
 31
0.0
  0
LINE
  5
27E
330
20F
100
AcDbEntity
  8
0
  6
Continuous
 62
     2
100
AcDbLine
 10
139.881009
 20
74.38332
 30
0.0
 11
151.553209
 21
74.38332
 31
0.0
  0
LINE
  5
27F
330
20F
100
AcDbEntity
  8
0
  6
Continuous
 62
     2
100
AcDbLine
 10
150.803209
 20
64.88332
 30
0.0
 11
150.803209
 21
63.88332
 31
0.0
  0
LINE
  5
280
330
20F
100
AcDbEntity
  8
0
  6
Continuous
 62
     2
100
AcDbLine
 10
150.803209
 20
63.88332
 30
0.0
 11
150.803209
 21
69.63332
 31
0.0
  0
LINE
  5
281
330
20F
100
AcDbEntity
  8
0
  6
Continuous
 62
     2
100
AcDbLine
 10
150.803209
 20
74.38332
 30
0.0
 11
150.803209
 21
75.38332
 31
0.0
  0
LINE
  5
282
330
20F
100
AcDbEntity
  8
0
  6
Continuous
 62
     2
100
AcDbLine
 10
150.803209
 20
75.38332
 30
0.0
 11
150.803209
 21
69.63332
 31
0.0
  0
INSERT
  5
283
330
20F
100
AcDbEntity
  8
0
  6
Continuous
 62
     2
100
AcDbBlockReference
  2
_CLOSED
 10
150.803209
 20
64.88332
 30
0.0
 41
2.5
 42
2.5
 43
2.5
 50
90.0
  0
INSERT
  5
284
330
20F
100
AcDbEntity
  8
0
  6
Continuous
 62
     2
100
AcDbBlockReference
  2
_CLOSED
 10
150.803209
 20
74.38332
 30
0.0
 41
2.5
 42
2.5
 43
2.5
 50
270.0
  0
ENDBLK
  5
285
330
20F
100
AcDbEntity
  8
0
  6
ByBlock
 62
     0
100
AcDbBlockEnd
  0
BLOCK
  5
215
330
210
100
AcDbEntity
  8
0
100
AcDbBlockBegin
  2
LOGO2_BL0
 70
     0
 10
207.828459
 20
39.543518
 30
0.0
  3
LOGO2_BL0
  1
LOGO2_BL0
  0
LINE
  5
216
330
210
100
AcDbEntity
  8
0
  6
Continuous
 62
     7
100
AcDbLine
 10
199.571384
 20
42.739009
 30
0.0
 11
198.267043
 21
42.739009
 31
0.0
  0
LINE
  5
217
330
210
100
AcDbEntity
  8
0
  6
Continuous
 62
     7
100
AcDbLine
 10
198.267043
 20
42.739009
 30
0.0
 11
198.267043
 21
32.279943
 31
0.0
  0
LINE
  5
218
330
210
100
AcDbEntity
  8
0
  6
Continuous
 62
     7
100
AcDbLine
 10
198.267043
 20
32.279943
 30
0.0
 11
202.748098
 21
32.279943
 31
0.0
  0
LINE
  5
219
330
210
100
AcDbEntity
  8
0
  6
Continuous
 62
     7
100
AcDbLine
 10
202.748098
 20
32.279943
 30
0.0
 11
202.748098
 21
33.472797
 31
0.0
  0
LINE
  5
21A
330
210
100
AcDbEntity
  8
0
  6
Continuous
 62
     7
100
AcDbLine
 10
202.748098
 20
33.472797
 30
0.0
 11
199.571384
 21
33.472797
 31
0.0
  0
LINE
  5
21B
330
210
100
AcDbEntity
  8
0
  6
Continuous
 62
     7
100
AcDbLine
 10
199.571384
 20
33.472797
 30
0.0
 11
199.571384
 21
42.739009
 31
0.0
  0
LINE
  5
21C
330
210
100
AcDbEntity
  8
0
  6
Continuous
 62
     7
100
AcDbLine
 10
214.50771
 20
42.739009
 30
0.0
 11
213.203893
 21
42.739009
 31
0.0
  0
LINE
  5
21D
330
210
100
AcDbEntity
  8
0
  6
Continuous
 62
     7
100
AcDbLine
 10
213.203893
 20
42.739009
 30
0.0
 11
213.203893
 21
32.279943
 31
0.0
  0
LINE
  5
21E
330
210
100
AcDbEntity
  8
0
  6
Continuous
 62
     7
100
AcDbLine
 10
213.203893
 20
32.279943
 30
0.0
 11
217.685078
 21
32.279943
 31
0.0
  0
LINE
  5
21F
330
210
100
AcDbEntity
  8
0
  6
Continuous
 62
     7
100
AcDbLine
 10
217.685078
 20
32.279943
 30
0.0
 11
217.685078
 21
33.472797
 31
0.0
  0
LINE
  5
220
330
210
100
AcDbEntity
  8
0
  6
Continuous
 62
     7
100
AcDbLine
 10
217.685078
 20
33.472797
 30
0.0
 11
214.50771
 21
33.472797
 31
0.0
  0
LINE
  5
221
330
210
100
AcDbEntity
  8
0
  6
Continuous
 62
     7
100
AcDbLine
 10
214.50771
 20
33.472797
 30
0.0
 11
214.50771
 21
42.739009
 31
0.0
  0
LWPOLYLINE
  5
222
330
210
100
AcDbEntity
  8
0
  6
Continuous
 62
     7
100
AcDbPolyline
 90
        2
 70
     0
 43
0.2
 10
196.621438
 20
28.936392
 10
196.621438
 20
27.079329
  0
LWPOLYLINE
  5
223
330
210
100
AcDbEntity
  8
0
  6
Continuous
 62
     7
100
AcDbPolyline
 90
        2
 70
     0
 43
0.2
 10
196.621438
 20
27.079329
 10
197.417154
 20
27.079329
  0
LWPOLYLINE
  5
224
330
210
100
AcDbEntity
  8
0
  6
Continuous
 62
     7
100
AcDbPolyline
 90
        2
 70
     0
 43
0.2
 10
197.417154
 20
27.079329
 10
197.417154
 20
27.29131
  0
LWPOLYLINE
  5
225
330
210
100
AcDbEntity
  8
0
  6
Continuous
 62
     7
100
AcDbPolyline
 90
        2
 70
     0
 43
0.2
 10
197.417154
 20
27.29131
 10
196.853047
 20
27.29131
  0
LWPOLYLINE
  5
226
330
210
100
AcDbEntity
  8
0
  6
Continuous
 62
     7
100
AcDbPolyline
 90
        2
 70
     0
 43
0.2
 10
196.853047
 20
27.29131
 10
196.853047
 20
28.936392
  0
LWPOLYLINE
  5
227
330
210
100
AcDbEntity
  8
0
  6
Continuous
 62
     7
100
AcDbPolyline
 90
        2
 70
     0
 43
0.2
 10
196.853047
 20
28.936392
 10
196.621438
 20
28.936392
  0
SPLINE
  5
228
330
210
100
AcDbEntity
  8
0
  6
Continuous
 62
     7
100
AcDbSpline
 70
     3
 71
     3
 72
    35
 73
    31
 74
     0
 42
0.000000001
 43
0.0000001
 40
0.0
 40
0.0
 40
0.0
 40
0.0
 40
1.0
 40
1.0
 40
1.0
 40
2.0
 40
2.0
 40
2.0
 40
3.0
 40
3.0
 40
3.0
 40
4.0
 40
4.0
 40
4.0
 40
5.0
 40
5.0
 40
5.0
 40
6.0
 40
6.0
 40
6.0
 40
7.0
 40
7.0
 40
7.0
 40
8.0
 40
8.0
 40
8.0
 40
9.0
 40
9.0
 40
9.0
 40
10.0
 40
10.0
 40
10.0
 40
10.0
 10
198.8154472326
 20
28.2318802186
 30
0.0
 10
198.8154472326
 20
28.2318802186
 30
0.0
 10
198.8154472326
 20
27.5697649394
 30
0.0
 10
198.8154472326
 20
27.5697649394
 30
0.0
 10
198.8154472326
 20
27.2546713441
 30
0.0
 10
198.9633109215
 20
27.0400727161
 30
0.0
 10
199.3033974058
 20
27.0400727161
 30
0.0
 10
199.6429604788
 20
27.0400727161
 30
0.0
 10
199.7910858732
 20
27.2546713441
 30
0.0
 10
199.7910858732
 20
27.5697649394
 30
0.0
 10
199.7910858732
 20
27.5697649394
 30
0.0
 10
199.7910858732
 20
28.2318802186
 30
0.0
 10
199.7910858732
 20
28.2318802186
 30
0.0
 10
199.7910858732
 20
28.2318802186
 30
0.0
 10
199.5690286344
 20
28.2318802186
 30
0.0
 10
199.5690286344
 20
28.2318802186
 30
0.0
 10
199.5690286344
 20
28.2318802186
 30
0.0
 10
199.5690286344
 20
27.5948886813
 30
0.0
 10
199.5690286344
 20
27.5948886813
 30
0.0
 10
199.5690286344
 20
27.4090776741
 30
0.0
 10
199.5223141769
 20
27.2462967635
 30
0.0
 10
199.3033974058
 20
27.2462967635
 30
0.0
 10
199.0839572233
 20
27.2462967635
 30
0.0
 10
199.0372427659
 20
27.4090776741
 30
0.0
 10
199.0372427659
 20
27.5948886813
 30
0.0
 10
199.0372427659
 20
27.5948886813
 30
0.0
 10
199.0372427659
 20
28.2318802186
 30
0.0
 10
199.0372427659
 20
28.2318802186
 30
0.0
 10
199.0372427659
 20
28.2318802186
 30
0.0
 10
198.8154472326
 20
28.2318802186
 30
0.0
 10
198.8154472326
 20
28.2318802186
 30
0.0
  0
SPLINE
  5
229
330
210
100
AcDbEntity
  8
0
  6
Continuous
 62
     7
100
AcDbSpline
 70
     3
 71
     3
 72
    35
 73
    31
 74
     0
 42
0.000000001
 43
0.0000001
 40
0.0
 40
0.0
 40
0.0
 40
0.0
 40
1.0
 40
1.0
 40
1.0
 40
2.0
 40
2.0
 40
2.0
 40
3.0
 40
3.0
 40
3.0
 40
4.0
 40
4.0
 40
4.0
 40
5.0
 40
5.0
 40
5.0
 40
6.0
 40
6.0
 40
6.0
 40
7.0
 40
7.0
 40
7.0
 40
8.0
 40
8.0
 40
8.0
 40
9.0
 40
9.0
 40
9.0
 40
10.0
 40
10.0
 40
10.0
 40
10.0
 10
202.2142184304
 20
28.1905307269
 30
0.0
 10
202.1257619228
 20
28.2418250331
 30
0.0
 10
202.0123125261
 20
28.2669487749
 30
0.0
 10
201.9086770911
 20
28.2669487749
 30
0.0
 10
201.553804238
 20
28.2669487749
 30
0.0
 10
201.2783590477
 20
28.0031494858
 30
0.0
 10
201.2783590477
 20
27.6456595762
 30
0.0
 10
201.2783590477
 20
27.3007315375
 30
0.0
 10
201.5568138529
 20
27.0405961274
 30
0.0
 10
201.8963769259
 20
27.0405961274
 30
0.0
 10
202.0123125261
 20
27.0405961274
 30
0.0
 10
202.113069199
 20
27.0625794015
 30
0.0
 10
202.2142184304
 20
27.1164907641
 30
0.0
 10
202.2142184304
 20
27.1164907641
 30
0.0
 10
202.2142184304
 20
27.3991328596
 30
0.0
 10
202.2142184304
 20
27.3991328596
 30
0.0
 10
202.1303417715
 20
27.3059656504
 30
0.0
 10
202.0268371894
 20
27.2468201748
 30
0.0
 10
201.8987322767
 20
27.2468201748
 30
0.0
 10
201.6650291366
 20
27.2468201748
 30
0.0
 10
201.4997620225
 20
27.4190224885
 30
0.0
 10
201.4997620225
 20
27.6556043907
 30
0.0
 10
201.4997620225
 20
27.8675859622
 30
0.0
 10
201.6675153402
 20
28.0596779049
 30
0.0
 10
201.8843384662
 20
28.0596779049
 30
0.0
 10
202.0171540805
 20
28.0596779049
 30
0.0
 10
202.1257619228
 20
28.0057665422
 30
0.0
 10
202.2142184304
 20
27.9047481637
 30
0.0
 10
202.2142184304
 20
27.9047481637
 30
0.0
 10
202.2142184304
 20
28.1905307269
 30
0.0
 10
202.2142184304
 20
28.1905307269
 30
0.0
  0
SPLINE
  5
22A
330
210
100
AcDbEntity
  8
0
  6
Continuous
 62
     7
100
AcDbSpline
 70
     3
 71
     3
 72
    32
 73
    28
 74
     0
 42
0.000000001
 43
0.0000001
 40
0.0
 40
0.0
 40
0.0
 40
0.0
 40
1.0
 40
1.0
 40
1.0
 40
2.0
 40
2.0
 40
2.0
 40
3.0
 40
3.0
 40
3.0
 40
4.0
 40
4.0
 40
4.0
 40
5.0
 40
5.0
 40
5.0
 40
6.0
 40
6.0
 40
6.0
 40
7.0
 40
7.0
 40
7.0
 40
8.0
 40
8.0
 40
8.0
 40
9.0
 40
9.0
 40
9.0
 40
9.0
 10
204.7460896827
 20
27.6189656005
 30
0.0
 10
204.7460896827
 20
27.6189656005
 30
0.0
 10
204.7460896827
 20
27.6529873342
 30
0.0
 10
204.7460896827
 20
27.6529873342
 30
0.0
 10
204.7460896827
 20
27.9952983165
 30
0.0
 10
204.5732331049
 20
28.2669487749
 30
0.0
 10
204.2065834977
 20
28.2669487749
 30
0.0
 10
203.8349614833
 20
28.2669487749
 30
0.0
 10
203.6452248915
 20
28.0005324294
 30
0.0
 10
203.6452248915
 20
27.6456595762
 30
0.0
 10
203.6452248915
 20
27.3059656504
 30
0.0
 10
203.8593001082
 20
27.0400727161
 30
0.0
 10
204.2114250521
 20
27.0400727161
 30
0.0
 10
204.4354450833
 20
27.0400727161
 30
0.0
 10
204.6376126933
 20
27.1557466107
 30
0.0
 10
204.7460896827
 20
27.3551663114
 30
0.0
 10
204.7460896827
 20
27.3551663114
 30
0.0
 10
204.558446736
 20
27.4619422141
 30
0.0
 10
204.558446736
 20
27.4619422141
 30
0.0
 10
204.4749626356
 20
27.3232382229
 30
0.0
 10
204.3837582186
 20
27.2373987716
 30
0.0
 10
204.2141729614
 20
27.2373987716
 30
0.0
 10
204.0021913898
 20
27.2373987716
 30
0.0
 10
203.8692449227
 20
27.4221629563
 30
0.0
 10
203.8668895719
 20
27.6189656005
 30
0.0
 10
203.8668895719
 20
27.6189656005
 30
0.0
 10
204.7460896827
 20
27.6189656005
 30
0.0
 10
204.7460896827
 20
27.6189656005
 30
0.0
  0
SPLINE
  5
22B
330
210
100
AcDbEntity
  8
0
  6
Continuous
 62
     7
100
AcDbSpline
 70
     3
 71
     3
 72
    14
 73
    10
 74
     0
 42
0.000000001
 43
0.0000001
 40
0.0
 40
0.0
 40
0.0
 40
0.0
 40
1.0
 40
1.0
 40
1.0
 40
2.0
 40
2.0
 40
2.0
 40
3.0
 40
3.0
 40
3.0
 40
3.0
 10
203.8789280315
 20
27.7864572126
 30
0.0
 10
203.9065379769
 20
27.9513317683
 30
0.0
 10
204.034381184
 20
28.0743334209
 30
0.0
 10
204.2065834977
 20
28.0743334209
 30
0.0
 10
204.3837582186
 20
28.0743334209
 30
0.0
 10
204.4972076153
 20
27.9586595263
 30
0.0
 10
204.5244250023
 20
27.7864572126
 30
0.0
 10
204.5244250023
 20
27.7864572126
 30
0.0
 10
203.8789280315
 20
27.7864572126
 30
0.0
 10
203.8789280315
 20
27.7864572126
 30
0.0
  0
SPLINE
  5
22C
330
210
100
AcDbEntity
  8
0
  6
Continuous
 62
     7
100
AcDbSpline
 70
     3
 71
     3
 72
    20
 73
    16
 74
     0
 42
0.000000001
 43
0.0000001
 40
0.0
 40
0.0
 40
0.0
 40
0.0
 40
1.0
 40
1.0
 40
1.0
 40
2.0
 40
2.0
 40
2.0
 40
3.0
 40
3.0
 40
3.0
 40
4.0
 40
4.0
 40
4.0
 40
5.0
 40
5.0
 40
5.0
 40
5.0
 10
206.7701211329
 20
27.9958217278
 30
0.0
 10
206.7701211329
 20
27.9958217278
 30
0.0
 10
207.1812606995
 20
27.4933468914
 30
0.0
 10
207.1812606995
 20
27.4933468914
 30
0.0
 10
207.0651942464
 20
27.3776729968
 30
0.0
 10
206.9274062249
 20
27.2473435861
 30
0.0
 10
206.7554656168
 20
27.2473435861
 30
0.0
 10
206.5780291902
 20
27.2473435861
 30
0.0
 10
206.4105375781
 20
27.4116947305
 30
0.0
 10
206.4105375781
 20
27.5886077458
 30
0.0
 10
206.4105375781
 20
27.7665675837
 30
0.0
 10
206.6202946517
 20
27.8927097041
 30
0.0
 10
206.7478761531
 20
27.9806428004
 30
0.0
 10
206.7478761531
 20
27.9806428004
 30
0.0
 10
206.7701211329
 20
27.9958217278
 30
0.0
 10
206.7701211329
 20
27.9958217278
 30
0.0
  0
SPLINE
  5
22D
330
210
100
AcDbEntity
  8
0
  6
Continuous
 62
     7
100
AcDbSpline
 70
     3
 71
     3
 72
    23
 73
    19
 74
     0
 42
0.000000001
 43
0.0000001
 40
0.0
 40
0.0
 40
0.0
 40
0.0
 40
1.0
 40
1.0
 40
1.0
 40
2.0
 40
2.0
 40
2.0
 40
3.0
 40
3.0
 40
3.0
 40
4.0
 40
4.0
 40
4.0
 40
5.0
 40
5.0
 40
5.0
 40
6.0
 40
6.0
 40
6.0
 40
6.0
 10
206.8194526468
 20
28.2868384038
 30
0.0
 10
206.8194526468
 20
28.2868384038
 30
0.0
 10
206.7578209676
 20
28.365350097
 30
0.0
 10
206.7578209676
 20
28.365350097
 30
0.0
 10
206.703909605
 20
28.4339169757
 30
0.0
 10
206.6471194802
 20
28.5030072657
 30
0.0
 10
206.6471194802
 20
28.5966978862
 30
0.0
 10
206.6471194802
 20
28.7155122486
 30
0.0
 10
206.7430345987
 20
28.7929771192
 30
0.0
 10
206.8539977918
 20
28.7929771192
 30
0.0
 10
206.97726115
 20
28.7929771192
 30
0.0
 10
207.0705592121
 20
28.721793184
 30
0.0
 10
207.0705592121
 20
28.5914637734
 30
0.0
 10
207.0705592121
 20
28.4564236611
 30
0.0
 10
206.9424542994
 20
28.3800056131
 30
0.0
 10
206.8488945317
 20
28.3062046215
 30
0.0
 10
206.8488945317
 20
28.3062046215
 30
0.0
 10
206.8194526468
 20
28.2868384038
 30
0.0
 10
206.8194526468
 20
28.2868384038
 30
0.0
  0
SPLINE
  5
22E
330
210
100
AcDbEntity
  8
0
  6
Continuous
 62
     7
100
AcDbSpline
 70
     3
 71
     3
 72
    50
 73
    46
 74
     0
 42
0.000000001
 43
0.0000001
 40
0.0
 40
0.0
 40
0.0
 40
0.0
 40
1.0
 40
1.0
 40
1.0
 40
2.0
 40
2.0
 40
2.0
 40
3.0
 40
3.0
 40
3.0
 40
4.0
 40
4.0
 40
4.0
 40
5.0
 40
5.0
 40
5.0
 40
6.0
 40
6.0
 40
6.0
 40
7.0
 40
7.0
 40
7.0
 40
8.0
 40
8.0
 40
8.0
 40
9.0
 40
9.0
 40
9.0
 40
10.0
 40
10.0
 40
10.0
 40
11.0
 40
11.0
 40
11.0
 40
12.0
 40
12.0
 40
12.0
 40
13.0
 40
13.0
 40
13.0
 40
14.0
 40
14.0
 40
14.0
 40
15.0
 40
15.0
 40
15.0
 40
15.0
 10
207.5216088894
 20
27.079851974
 30
0.0
 10
207.5216088894
 20
27.079851974
 30
0.0
 10
207.8069988941
 20
27.079851974
 30
0.0
 10
207.8069988941
 20
27.079851974
 30
0.0
 10
207.8069988941
 20
27.079851974
 30
0.0
 10
207.4746327263
 20
27.490729835
 30
0.0
 10
207.4746327263
 20
27.490729835
 30
0.0
 10
207.4746327263
 20
27.490729835
 30
0.0
 10
207.7011389612
 20
27.7566227692
 30
0.0
 10
207.7011389612
 20
27.7566227692
 30
0.0
 10
207.7011389612
 20
27.7566227692
 30
0.0
 10
207.5528827139
 20
27.9094588653
 30
0.0
 10
207.5528827139
 20
27.9094588653
 30
0.0
 10
207.5528827139
 20
27.9094588653
 30
0.0
 10
207.3369755576
 20
27.6582214471
 30
0.0
 10
207.3369755576
 20
27.6582214471
 30
0.0
 10
207.3369755576
 20
27.6582214471
 30
0.0
 10
206.9499129103
 20
28.1261511384
 30
0.0
 10
206.9499129103
 20
28.1261511384
 30
0.0
 10
207.1053660628
 20
28.2402547992
 30
0.0
 10
207.2876440438
 20
28.3800056131
 30
0.0
 10
207.2876440438
 20
28.5893701282
 30
0.0
 10
207.2876440438
 20
28.8332797884
 30
0.0
 10
207.0856072866
 20
28.9766944812
 30
0.0
 10
206.8591010518
 20
28.9766944812
 30
0.0
 10
206.614929686
 20
28.9766944812
 30
0.0
 10
206.4305580599
 20
28.8259520303
 30
0.0
 10
206.4305580599
 20
28.5694804993
 30
0.0
 10
206.4305580599
 20
28.4119337016
 30
0.0
 10
206.5292210876
 20
28.2742765329
 30
0.0
 10
206.6345576093
 20
28.1633133399
 30
0.0
 10
206.6345576093
 20
28.1633133399
 30
0.0
 10
206.5190145675
 20
28.0795675338
 30
0.0
 10
206.5190145675
 20
28.0795675338
 30
0.0
 10
206.3413164353
 20
27.9513317683
 30
0.0
 10
206.1939761577
 20
27.8236194141
 30
0.0
 10
206.1939761577
 20
27.5865141007
 30
0.0
 10
206.1939761577
 20
27.2661863925
 30
0.0
 10
206.452541334
 20
27.0400727161
 30
0.0
 10
206.7629242277
 20
27.0400727161
 30
0.0
 10
206.9818409988
 20
27.0400727161
 30
0.0
 10
207.1790362015
 20
27.1651680139
 30
0.0
 10
207.3193104267
 20
27.3310893922
 30
0.0
 10
207.3193104267
 20
27.3310893922
 30
0.0
 10
207.5216088894
 20
27.079851974
 30
0.0
 10
207.5216088894
 20
27.079851974
 30
0.0
  0
LWPOLYLINE
  5
22F
330
210
100
AcDbEntity
  8
0
  6
Continuous
 62
     7
100
AcDbPolyline
 90
        2
 70
     0
 43
0.2
 10
209.457053
 20
28.936392
 10
209.225705
 20
28.936392
  0
LWPOLYLINE
  5
230
330
210
100
AcDbEntity
  8
0
  6
Continuous
 62
     7
100
AcDbPolyline
 90
        2
 70
     0
 43
0.2
 10
209.225705
 20
28.936392
 10
209.225705
 20
27.079329
  0
LWPOLYLINE
  5
231
330
210
100
AcDbEntity
  8
0
  6
Continuous
 62
     7
100
AcDbPolyline
 90
        2
 70
     0
 43
0.2
 10
209.225705
 20
27.079329
 10
210.021029
 20
27.079329
  0
LWPOLYLINE
  5
232
330
210
100
AcDbEntity
  8
0
  6
Continuous
 62
     7
100
AcDbPolyline
 90
        2
 70
     0
 43
0.2
 10
210.021029
 20
27.079329
 10
210.021029
 20
27.29131
  0
LWPOLYLINE
  5
233
330
210
100
AcDbEntity
  8
0
  6
Continuous
 62
     7
100
AcDbPolyline
 90
        2
 70
     0
 43
0.2
 10
210.021029
 20
27.29131
 10
209.457053
 20
27.29131
  0
LWPOLYLINE
  5
234
330
210
100
AcDbEntity
  8
0
  6
Continuous
 62
     7
100
AcDbPolyline
 90
        2
 70
     0
 43
0.2
 10
209.457053
 20
27.29131
 10
209.457053
 20
28.936392
  0
LWPOLYLINE
  5
235
330
210
100
AcDbEntity
  8
0
  6
Continuous
 62
     7
100
AcDbPolyline
 90
        2
 70
     0
 43
0.2
 10
211.700132
 20
28.23188
 10
211.478991
 20
28.23188
  0
LWPOLYLINE
  5
236
330
210
100
AcDbEntity
  8
0
  6
Continuous
 62
     7
100
AcDbPolyline
 90
        2
 70
     0
 43
0.2
 10
211.478991
 20
28.23188
 10
211.478991
 20
27.079852
  0
LWPOLYLINE
  5
237
330
210
100
AcDbEntity
  8
0
  6
Continuous
 62
     7
100
AcDbPolyline
 90
        2
 70
     0
 43
0.2
 10
211.478991
 20
27.079852
 10
211.700132
 20
27.079852
  0
LWPOLYLINE
  5
238
330
210
100
AcDbEntity
  8
0
  6
Continuous
 62
     7
100
AcDbPolyline
 90
        2
 70
     0
 43
0.2
 10
211.700132
 20
27.079852
 10
211.700132
 20
28.23188
  0
SPLINE
  5
239
330
210
100
AcDbEntity
  8
0
  6
Continuous
 62
     7
100
AcDbSpline
 70
     3
 71
     3
 72
    17
 73
    13
 74
     0
 42
0.000000001
 43
0.0000001
 40
0.0
 40
0.0
 40
0.0
 40
0.0
 40
1.0
 40
1.0
 40
1.0
 40
2.0
 40
2.0
 40
2.0
 40
3.0
 40
3.0
 40
3.0
 40
4.0
 40
4.0
 40
4.0
 40
4.0
 10
211.5896922716
 20
28.914408538
 30
0.0
 10
211.5056847599
 20
28.914408538
 30
0.0
 10
211.4371178812
 20
28.845318248
 30
0.0
 10
211.4371178812
 20
28.7594787968
 30
0.0
 10
211.4371178812
 20
28.6752095794
 30
0.0
 10
211.5056847599
 20
28.6092597572
 30
0.0
 10
211.5896922716
 20
28.6092597572
 30
0.0
 10
211.6734380776
 20
28.6092597572
 30
0.0
 10
211.742266662
 20
28.6752095794
 30
0.0
 10
211.742266662
 20
28.7594787968
 30
0.0
 10
211.742266662
 20
28.845318248
 30
0.0
 10
211.6734380776
 20
28.914408538
 30
0.0
 10
211.5896922716
 20
28.914408538
 30
0.0
  0
SPLINE
  5
23A
330
210
100
AcDbEntity
  8
0
  6
Continuous
 62
     7
100
AcDbSpline
 70
     3
 71
     3
 72
    17
 73
    13
 74
     0
 42
0.000000001
 43
0.0000001
 40
0.0
 40
0.0
 40
0.0
 40
0.0
 40
1.0
 40
1.0
 40
1.0
 40
2.0
 40
2.0
 40
2.0
 40
3.0
 40
3.0
 40
3.0
 40
4.0
 40
4.0
 40
4.0
 40
4.0
 10
213.830415995
 20
27.2373987716
 30
0.0
 10
213.5964511493
 20
27.2373987716
 30
0.0
 10
213.4661217386
 20
27.4394355288
 30
0.0
 10
213.4661217386
 20
27.6556043907
 30
0.0
 10
213.4661217386
 20
27.8702030187
 30
0.0
 10
213.6019469678
 20
28.0690993081
 30
0.0
 10
213.830415995
 20
28.0690993081
 30
0.0
 10
214.0698766592
 20
28.0690993081
 30
0.0
 10
214.2054401827
 20
27.8801478331
 30
0.0
 10
214.2054401827
 20
27.6556043907
 30
0.0
 10
214.2054401827
 20
27.4294907143
 30
0.0
 10
214.0722320099
 20
27.2373987716
 30
0.0
 10
213.830415995
 20
27.2373987716
 30
0.0
  0
SPLINE
  5
23B
330
210
100
AcDbEntity
  8
0
  6
Continuous
 62
     7
100
AcDbSpline
 70
     3
 71
     3
 72
    50
 73
    46
 74
     0
 42
0.000000001
 43
0.0000001
 40
0.0
 40
0.0
 40
0.0
 40
0.0
 40
1.0
 40
1.0
 40
1.0
 40
2.0
 40
2.0
 40
2.0
 40
3.0
 40
3.0
 40
3.0
 40
4.0
 40
4.0
 40
4.0
 40
5.0
 40
5.0
 40
5.0
 40
6.0
 40
6.0
 40
6.0
 40
7.0
 40
7.0
 40
7.0
 40
8.0
 40
8.0
 40
8.0
 40
9.0
 40
9.0
 40
9.0
 40
10.0
 40
10.0
 40
10.0
 40
11.0
 40
11.0
 40
11.0
 40
12.0
 40
12.0
 40
12.0
 40
13.0
 40
13.0
 40
13.0
 40
14.0
 40
14.0
 40
14.0
 40
15.0
 40
15.0
 40
15.0
 40
15.0
 10
214.4145429922
 20
28.2324036299
 30
0.0
 10
214.4145429922
 20
28.2324036299
 30
0.0
 10
214.1928783118
 20
28.2324036299
 30
0.0
 10
214.1928783118
 20
28.2324036299
 30
0.0
 10
214.1928783118
 20
28.2324036299
 30
0.0
 10
214.1928783118
 20
28.0350775744
 30
0.0
 10
214.1928783118
 20
28.0350775744
 30
0.0
 10
214.1928783118
 20
28.0350775744
 30
0.0
 10
214.1881676102
 20
28.0350775744
 30
0.0
 10
214.1881676102
 20
28.0350775744
 30
0.0
 10
214.0968323405
 20
28.1779688559
 30
0.0
 10
213.9589134661
 20
28.2664253636
 30
0.0
 10
213.7861877411
 20
28.2664253636
 30
0.0
 10
213.4538215733
 20
28.2664253636
 30
0.0
 10
213.2447187638
 20
27.9785491553
 30
0.0
 10
213.2447187638
 20
27.6629321487
 30
0.0
 10
213.2447187638
 20
27.3331830373
 30
0.0
 10
213.4417831137
 20
27.0400727161
 30
0.0
 10
213.7966559669
 20
27.0400727161
 30
0.0
 10
213.9589134661
 20
27.0400727161
 30
0.0
 10
214.0989259856
 20
27.1285292238
 30
0.0
 10
214.1881676102
 20
27.2593820457
 30
0.0
 10
214.1881676102
 20
27.2593820457
 30
0.0
 10
214.1928783118
 20
27.2593820457
 30
0.0
 10
214.1928783118
 20
27.2593820457
 30
0.0
 10
214.1928783118
 20
27.2593820457
 30
0.0
 10
214.1928783118
 20
27.0400727161
 30
0.0
 10
214.1928783118
 20
27.0400727161
 30
0.0
 10
214.1928783118
 20
26.803490814
 30
0.0
 10
214.1363498927
 20
26.6166329842
 30
0.0
 10
213.8631292004
 20
26.6166329842
 30
0.0
 10
213.6608307377
 20
26.6166329842
 30
0.0
 10
213.5182011617
 20
26.7349239353
 30
0.0
 10
213.5182011617
 20
26.9411479827
 30
0.0
 10
213.5182011617
 20
26.9411479827
 30
0.0
 10
213.2965364813
 20
26.9411479827
 30
0.0
 10
213.2965364813
 20
26.9411479827
 30
0.0
 10
213.3015088886
 20
26.6166329842
 30
0.0
 10
213.5325949722
 20
26.41983034
 30
0.0
 10
213.8529226803
 20
26.41983034
 30
0.0
 10
214.3009627427
 20
26.41983034
 30
0.0
 10
214.4145429922
 20
26.7050894919
 30
0.0
 10
214.4145429922
 20
27.1018352481
 30
0.0
 10
214.4145429922
 20
27.1018352481
 30
0.0
 10
214.4145429922
 20
28.2324036299
 30
0.0
 10
214.4145429922
 20
28.2324036299
 30
0.0
  0
SPLINE
  5
23C
330
210
100
AcDbEntity
  8
0
  6
Continuous
 62
     7
100
AcDbSpline
 70
     3
 71
     3
 72
    44
 73
    40
 74
     0
 42
0.000000001
 43
0.0000001
 40
0.0
 40
0.0
 40
0.0
 40
0.0
 40
1.0
 40
1.0
 40
1.0
 40
2.0
 40
2.0
 40
2.0
 40
3.0
 40
3.0
 40
3.0
 40
4.0
 40
4.0
 40
4.0
 40
5.0
 40
5.0
 40
5.0
 40
6.0
 40
6.0
 40
6.0
 40
7.0
 40
7.0
 40
7.0
 40
8.0
 40
8.0
 40
8.0
 40
9.0
 40
9.0
 40
9.0
 40
10.0
 40
10.0
 40
10.0
 40
11.0
 40
11.0
 40
11.0
 40
12.0
 40
12.0
 40
12.0
 40
13.0
 40
13.0
 40
13.0
 40
13.0
 10
215.9834683276
 20
29.2174636737
 30
0.0
 10
215.9834683276
 20
29.2174636737
 30
0.0
 10
215.9834683276
 20
27.0793285627
 30
0.0
 10
215.9834683276
 20
27.0793285627
 30
0.0
 10
215.9834683276
 20
27.0793285627
 30
0.0
 10
216.2048713024
 20
27.0793285627
 30
0.0
 10
216.2048713024
 20
27.0793285627
 30
0.0
 10
216.2048713024
 20
27.0793285627
 30
0.0
 10
216.2048713024
 20
27.609020786
 30
0.0
 10
216.2048713024
 20
27.609020786
 30
0.0
 10
216.2048713024
 20
27.8189087125
 30
0.0
 10
216.2048713024
 20
28.0696227194
 30
0.0
 10
216.4901304543
 20
28.0696227194
 30
0.0
 10
216.7170292476
 20
28.0696227194
 30
0.0
 10
216.7439849289
 20
27.9366762522
 30
0.0
 10
216.7439849289
 20
27.7403970193
 30
0.0
 10
216.7439849289
 20
27.7403970193
 30
0.0
 10
216.7439849289
 20
27.0793285627
 30
0.0
 10
216.7439849289
 20
27.0793285627
 30
0.0
 10
216.7439849289
 20
27.0793285627
 30
0.0
 10
216.9659113149
 20
27.0793285627
 30
0.0
 10
216.9659113149
 20
27.0793285627
 30
0.0
 10
216.9659113149
 20
27.0793285627
 30
0.0
 10
216.9659113149
 20
27.7665675837
 30
0.0
 10
216.9659113149
 20
27.7665675837
 30
0.0
 10
216.9659113149
 20
28.047116034
 30
0.0
 10
216.8819038032
 20
28.2669487749
 30
0.0
 10
216.5568653935
 20
28.2669487749
 30
0.0
 10
216.4171145796
 20
28.2669487749
 30
0.0
 10
216.2789339996
 20
28.2004755413
 30
0.0
 10
216.209582004
 20
28.0774738887
 30
0.0
 10
216.209582004
 20
28.0774738887
 30
0.0
 10
216.2048713024
 20
28.0774738887
 30
0.0
 10
216.2048713024
 20
28.0774738887
 30
0.0
 10
216.2048713024
 20
28.0774738887
 30
0.0
 10
216.2048713024
 20
29.2174636737
 30
0.0
 10
216.2048713024
 20
29.2174636737
 30
0.0
 10
216.2048713024
 20
29.2174636737
 30
0.0
 10
215.9834683276
 20
29.2174636737
 30
0.0
 10
215.9834683276
 20
29.2174636737
 30
0.0
  0
LWPOLYLINE
  5
23D
330
210
100
AcDbEntity
  8
0
  6
Continuous
 62
     7
100
AcDbPolyline
 90
        2
 70
     0
 43
0.2
 10
218.805702
 20
28.025133
 10
219.022133
 20
28.025133
  0
LWPOLYLINE
  5
23E
330
210
100
AcDbEntity
  8
0
  6
Continuous
 62
     7
100
AcDbPolyline
 90
        2
 70
     0
 43
0.2
 10
219.022133
 20
28.025133
 10
219.022133
 20
28.23188
  0
LWPOLYLINE
  5
23F
330
210
100
AcDbEntity
  8
0
  6
Continuous
 62
     7
100
AcDbPolyline
 90
        2
 70
     0
 43
0.2
 10
219.022133
 20
28.23188
 10
218.805702
 20
28.23188
  0
LWPOLYLINE
  5
240
330
210
100
AcDbEntity
  8
0
  6
Continuous
 62
     7
100
AcDbPolyline
 90
        2
 70
     0
 43
0.2
 10
218.805702
 20
28.23188
 10
218.805702
 20
28.672593
  0
LWPOLYLINE
  5
241
330
210
100
AcDbEntity
  8
0
  6
Continuous
 62
     7
100
AcDbPolyline
 90
        2
 70
     0
 43
0.2
 10
218.805702
 20
28.672593
 10
218.584037
 20
28.672593
  0
LWPOLYLINE
  5
242
330
210
100
AcDbEntity
  8
0
  6
Continuous
 62
     7
100
AcDbPolyline
 90
        2
 70
     0
 43
0.2
 10
218.584037
 20
28.672593
 10
218.584037
 20
28.23188
  0
LWPOLYLINE
  5
243
330
210
100
AcDbEntity
  8
0
  6
Continuous
 62
     7
100
AcDbPolyline
 90
        2
 70
     0
 43
0.2
 10
218.584037
 20
28.23188
 10
218.463391
 20
28.23188
  0
LWPOLYLINE
  5
244
330
210
100
AcDbEntity
  8
0
  6
Continuous
 62
     7
100
AcDbPolyline
 90
        2
 70
     0
 43
0.2
 10
218.463391
 20
28.23188
 10
218.463391
 20
28.025133
  0
LWPOLYLINE
  5
245
330
210
100
AcDbEntity
  8
0
  6
Continuous
 62
     7
100
AcDbPolyline
 90
        2
 70
     0
 43
0.2
 10
218.463391
 20
28.025133
 10
218.584037
 20
28.025133
  0
LWPOLYLINE
  5
246
330
210
100
AcDbEntity
  8
0
  6
Continuous
 62
     7
100
AcDbPolyline
 90
        2
 70
     0
 43
0.2
 10
218.584037
 20
28.025133
 10
218.584037
 20
27.079329
  0
LWPOLYLINE
  5
247
330
210
100
AcDbEntity
  8
0
  6
Continuous
 62
     7
100
AcDbPolyline
 90
        2
 70
     0
 43
0.2
 10
218.584037
 20
27.079329
 10
218.805702
 20
27.079329
  0
LWPOLYLINE
  5
248
330
210
100
AcDbEntity
  8
0
  6
Continuous
 62
     7
100
AcDbPolyline
 90
        2
 70
     0
 43
0.2
 10
218.805702
 20
27.079329
 10
218.805702
 20
28.025133
  0
SPLINE
  5
249
330
210
100
AcDbEntity
  8
0
  6
Continuous
 62
     7
100
AcDbSpline
 70
     3
 71
     3
 72
    20
 73
    16
 74
     0
 42
0.000000001
 43
0.0000001
 40
0.0
 40
0.0
 40
0.0
 40
0.0
 40
1.0
 40
1.0
 40
1.0
 40
2.0
 40
2.0
 40
2.0
 40
3.0
 40
3.0
 40
3.0
 40
4.0
 40
4.0
 40
4.0
 40
5.0
 40
5.0
 40
5.0
 40
5.0
 10
206.587712299
 20
37.4402550061
 30
0.0
 10
206.587712299
 20
37.4402550061
 30
0.0
 10
208.9040689535
 20
34.6106935839
 30
0.0
 10
208.9040689535
 20
34.6106935839
 30
0.0
 10
208.2524219001
 20
33.9585231192
 30
0.0
 10
207.4755486961
 20
33.2226068484
 30
0.0
 10
206.5043590515
 20
33.2226068484
 30
0.0
 10
205.505821167
 20
33.2226068484
 30
0.0
 10
204.5625031735
 20
34.1521852957
 30
0.0
 10
204.5625031735
 20
35.1513774442
 30
0.0
 10
204.5625031735
 20
36.1505695928
 30
0.0
 10
205.7413562466
 20
36.8571748314
 30
0.0
 10
206.4628787069
 20
37.3570326113
 30
0.0
 10
206.4628787069
 20
37.3570326113
 30
0.0
 10
206.587712299
 20
37.4402550061
 30
0.0
 10
206.587712299
 20
37.4402550061
 30
0.0
  0
SPLINE
  5
24A
330
210
100
AcDbEntity
  8
0
  6
Continuous
 62
     7
100
AcDbSpline
 70
     3
 71
     3
 72
    23
 73
    19
 74
     0
 42
0.000000001
 43
0.0000001
 40
0.0
 40
0.0
 40
0.0
 40
0.0
 40
1.0
 40
1.0
 40
1.0
 40
2.0
 40
2.0
 40
2.0
 40
3.0
 40
3.0
 40
3.0
 40
4.0
 40
4.0
 40
4.0
 40
5.0
 40
5.0
 40
5.0
 40
6.0
 40
6.0
 40
6.0
 40
6.0
 10
206.8651202816
 20
39.0780089258
 30
0.0
 10
206.8651202816
 20
39.0780089258
 30
0.0
 10
206.518622009
 20
39.5213382867
 30
0.0
 10
206.518622009
 20
39.5213382867
 30
0.0
 10
206.2128189641
 20
39.9094477566
 30
0.0
 10
205.893930637
 20
40.297949785
 30
0.0
 10
205.893930637
 20
40.8248940991
 30
0.0
 10
205.893930637
 20
41.4910658157
 30
0.0
 10
206.4352687615
 20
41.934787735
 30
0.0
 10
207.0591750166
 20
41.934787735
 30
0.0
 10
207.7529566787
 20
41.934787735
 30
0.0
 10
208.2801626984
 20
41.5325461603
 30
0.0
 10
208.2801626984
 20
40.7975458593
 30
0.0
 10
208.2801626984
 20
40.0342813488
 30
0.0
 10
207.5589019437
 20
39.604168123
 30
0.0
 10
207.0318267768
 20
39.1884487076
 30
0.0
 10
207.0318267768
 20
39.1884487076
 30
0.0
 10
206.8651202816
 20
39.0780089258
 30
0.0
 10
206.8651202816
 20
39.0780089258
 30
0.0
  0
SPLINE
  5
24B
330
210
100
AcDbEntity
  8
0
  6
Continuous
 62
     7
100
AcDbSpline
 70
     3
 71
     3
 72
    50
 73
    46
 74
     0
 42
0.000000001
 43
0.0000001
 40
0.0
 40
0.0
 40
0.0
 40
0.0
 40
1.0
 40
1.0
 40
1.0
 40
2.0
 40
2.0
 40
2.0
 40
3.0
 40
3.0
 40
3.0
 40
4.0
 40
4.0
 40
4.0
 40
5.0
 40
5.0
 40
5.0
 40
6.0
 40
6.0
 40
6.0
 40
7.0
 40
7.0
 40
7.0
 40
8.0
 40
8.0
 40
8.0
 40
9.0
 40
9.0
 40
9.0
 40
10.0
 40
10.0
 40
10.0
 40
11.0
 40
11.0
 40
11.0
 40
12.0
 40
12.0
 40
12.0
 40
13.0
 40
13.0
 40
13.0
 40
14.0
 40
14.0
 40
14.0
 40
15.0
 40
15.0
 40
15.0
 40
15.0
 10
210.8187074445
 20
32.2794197077
 30
0.0
 10
210.8187074445
 20
32.2794197077
 30
0.0
 10
212.4279354491
 20
32.2794197077
 30
0.0
 10
212.4279354491
 20
32.2794197077
 30
0.0
 10
212.4279354491
 20
32.2794197077
 30
0.0
 10
210.5549081555
 20
34.5965614791
 30
0.0
 10
210.5549081555
 20
34.5965614791
 30
0.0
 10
210.5549081555
 20
34.5965614791
 30
0.0
 10
211.8312465809
 20
36.0940411737
 30
0.0
 10
211.8312465809
 20
36.0940411737
 30
0.0
 10
211.8312465809
 20
36.0940411737
 30
0.0
 10
210.9990226332
 20
36.9550527422
 30
0.0
 10
210.9990226332
 20
36.9550527422
 30
0.0
 10
210.9990226332
 20
36.9550527422
 30
0.0
 10
209.7784275099
 20
35.5397486198
 30
0.0
 10
209.7784275099
 20
35.5397486198
 30
0.0
 10
209.7784275099
 20
35.5397486198
 30
0.0
 10
207.6005131411
 20
38.1751244543
 30
0.0
 10
207.6005131411
 20
38.1751244543
 30
0.0
 10
208.4740865805
 20
38.8131628142
 30
0.0
 10
209.5007578217
 20
39.604168123
 30
0.0
 10
209.5007578217
 20
40.7830211961
 30
0.0
 10
209.5007578217
 20
42.1567141211
 30
0.0
 10
208.3628616819
 20
42.9611972706
 30
0.0
 10
207.087570079
 20
42.9611972706
 30
0.0
 10
205.7141388596
 20
42.9611972706
 30
0.0
 10
204.6732046608
 20
42.1149720709
 30
0.0
 10
204.6732046608
 20
40.6723197087
 30
0.0
 10
204.6732046608
 20
39.7847450173
 30
0.0
 10
205.2285440373
 20
39.0078718133
 30
0.0
 10
205.8247094942
 20
38.3834421468
 30
0.0
 10
205.8247094942
 20
38.3834421468
 30
0.0
 10
205.1728007351
 20
37.9118485765
 30
0.0
 10
205.1728007351
 20
37.9118485765
 30
0.0
 10
204.1742628507
 20
37.1905878218
 30
0.0
 10
203.3413846389
 20
36.4693270671
 30
0.0
 10
203.3413846389
 20
35.1377687508
 30
0.0
 10
203.3413846389
 20
33.3340934528
 30
0.0
 10
204.7984308115
 20
32.0574933216
 30
0.0
 10
206.5459702488
 20
32.0574933216
 30
0.0
 10
207.7808283297
 20
32.0574933216
 30
0.0
 10
208.8901985544
 20
32.7656687941
 30
0.0
 10
209.6810730104
 20
33.6942004188
 30
0.0
 10
209.6810730104
 20
33.6942004188
 30
0.0
 10
210.8187074445
 20
32.2794197077
 30
0.0
 10
210.8187074445
 20
32.2794197077
 30
0.0
  0
LINE
  5
24C
330
210
100
AcDbEntity
  8
0
  6
Continuous
 62
     7
100
AcDbLine
 10
196.621569
 20
30.253295
 30
0.0
 11
219.03548
 21
30.253295
 31
0.0
  0
LINE
  5
24D
330
210
100
AcDbEntity
  8
0
  6
Continuous
 62
     7
100
AcDbLine
 10
219.03548
 20
30.253295
 30
0.0
 11
219.03548
 21
52.667205
 31
0.0
  0
LINE
  5
24E
330
210
100
AcDbEntity
  8
0
  6
Continuous
 62
     7
100
AcDbLine
 10
219.03548
 20
52.667205
 30
0.0
 11
196.621569
 21
52.667205
 31
0.0
  0
LINE
  5
24F
330
210
100
AcDbEntity
  8
0
  6
Continuous
 62
     7
100
AcDbLine
 10
196.621569
 20
52.667205
 30
0.0
 11
196.621569
 21
30.253295
 31
0.0
  0
ENDBLK
  5
250
330
210
100
AcDbEntity
  8
0
  6
ByBlock
 62
     0
100
AcDbBlockEnd
  0
BLOCK
  5
286
330
211
100
AcDbEntity
  8
0
100
AcDbBlockBegin
  2
*T7
 70
     1
 10
0.0
 20
0.0
 30
0.0
  3
*T7
  1
*T7
  0
LINE
  5
287
330
211
100
AcDbEntity
  8
0
  6
Continuous
 62
     2
100
AcDbLine
 10
0.0
 20
0.0
 30
0.0
 11
90.0
 21
0.0
 31
0.0
  0
LINE
  5
288
330
211
100
AcDbEntity
  8
0
  6
Continuous
 62
     2
100
AcDbLine
 10
0.0
 20
0.0
 30
0.0
 11
0.0
 21
-40.0
 31
0.0
  0
LINE
  5
289
330
211
100
AcDbEntity
  8
0
  6
Continuous
 62
     2
100
AcDbLine
 10
30.0
 20
-6.0
 30
0.0
 11
90.0
 21
-6.0
 31
0.0
  0
LINE
  5
28A
330
211
100
AcDbEntity
  8
0
  6
Continuous
 62
     2
100
AcDbLine
 10
30.0
 20
-12.0
 30
0.0
 11
90.0
 21
-12.0
 31
0.0
  0
LINE
  5
28B
330
211
100
AcDbEntity
  8
0
  6
Continuous
 62
     2
100
AcDbLine
 10
30.0
 20
-22.0
 30
0.0
 11
90.0
 21
-22.0
 31
0.0
  0
LINE
  5
28C
330
211
100
AcDbEntity
  8
0
  6
Continuous
 62
     2
100
AcDbLine
 10
0.0
 20
-27.0
 30
0.0
 11
90.0
 21
-27.0
 31
0.0
  0
LINE
  5
28D
330
211
100
AcDbEntity
  8
0
  6
Continuous
 62
     2
100
AcDbLine
 10
0.0
 20
-40.0
 30
0.0
 11
90.0
 21
-40.0
 31
0.0
  0
LINE
  5
28E
330
211
100
AcDbEntity
  8
0
  6
Continuous
 62
     2
100
AcDbLine
 10
30.0
 20
0.0
 30
0.0
 11
30.0
 21
-27.0
 31
0.0
  0
LINE
  5
28F
330
211
100
AcDbEntity
  8
0
  6
Continuous
 62
     2
100
AcDbLine
 10
70.0
 20
0.0
 30
0.0
 11
70.0
 21
-12.0
 31
0.0
  0
LINE
  5
290
330
211
100
AcDbEntity
  8
0
  6
Continuous
 62
     2
100
AcDbLine
 10
90.0
 20
0.0
 30
0.0
 11
90.0
 21
-40.0
 31
0.0
  0
MTEXT
  5
291
330
211
100
AcDbEntity
  8
9_SOLID
  6
Continuous
 62
     2
100
AcDbMText
 10
31.4875
 20
-1.5
 30
0.0
 40
3.0
 41
48.571429
 46
0.0
 71
     1
 72
     1
  1
A050_C_004
  7
TEXTSTYLE_2
 73
     1
 44
0.9
  0
MTEXT
  5
292
330
211
100
AcDbEntity
  8
9_SOLID
  6
Continuous
 62
     2
100
AcDbMText
 10
71.4875
 20
-1.25
 30
0.0
 40
3.5
 41
30.333333
 46
0.0
 71
     1
 72
     1
  1
Rev:00
  7
TEXTSTYLE_2
 73
     1
 44
0.9
  0
MTEXT
  5
293
330
211
100
AcDbEntity
  8
9_SOLID
  6
Continuous
 62
     2
100
AcDbMText
 10
31.4875
 20
-7.75
 30
0.0
 40
3.5
 41
36.5
 46
0.0
 71
     1
 72
     1
  1
Scale:1:1
  7
TEXTSTYLE_2
 73
     1
 44
0.9
  0
MTEXT
  5
294
330
211
100
AcDbEntity
  8
9_SOLID
  6
Continuous
 62
     2
100
AcDbMText
 10
71.4875
 20
-7.25
 30
0.0
 40
3.5
 41
11.5
 46
0.0
 71
     1
 72
     1
  1
A4
  7
TEXTSTYLE_2
 73
     1
 44
0.9
  0
MTEXT
  5
295
330
211
100
AcDbEntity
  8
9_SOLID
  6
Continuous
 62
     2
100
AcDbMText
 10
31.4875
 20
-15.25
 30
0.0
 40
3.5
 41
181.5
 46
0.0
 71
     1
 72
     1
  1
FRONTALE SEMI PROF. QUADRO COMBO2
  7
TEXTSTYLE_2
 73
     1
 44
0.9
  0
MTEXT
  5
296
330
211
100
AcDbEntity
  8
9_SOLID
  6
Continuous
 62
     2
100
AcDbMText
 10
31.4875
 20
-23.25
 30
0.0
 40
2.5
 41
44.404762
 46
0.0
 71
     1
 72
     1
  1
DATE:11.12.19
  7
TEXTSTYLE_2
 73
     1
 44
0.9
  0
MTEXT
  5
297
330
211
100
AcDbEntity
  8
9_SOLID
  6
Continuous
 62
     2
100
AcDbMText
 10
1.4875
 20
-27.3125
 30
0.0
 40
2.25
 41
178.607143
 46
0.0
 71
     1
 72
     1
  1
Any integral or partial reproductions are prohibited \Pwithout prior authorisation of L & L Luce & Light s.r.l., \Pin accordance with the law in force. \PAll rights reserved.
  7
TEXTSTYLE_2
 73
     1
 44
0.9
  0
ENDBLK
  5
298
330
211
100
AcDbEntity
  8
0
  6
ByBlock
 62
     0
100
AcDbBlockEnd
  0
ENDSEC
  0
SECTION
  2
ENTITIES
  0
LWPOLYLINE
  5
299
330
208
100
AcDbEntity
  8
0
  6
Continuous
 62
     7
100
AcDbPolyline
 90
        2
 70
     0
 43
0.5
 10
284.0
 20
13.0
 10
284.0
 20
197.0
  0
LWPOLYLINE
  5
29A
330
208
100
AcDbEntity
  8
0
  6
Continuous
 62
     7
100
AcDbPolyline
 90
        2
 70
     0
 43
0.5
 10
13.0
 20
13.0
 10
13.0
 20
197.0
  0
LWPOLYLINE
  5
29B
330
208
100
AcDbEntity
  8
0
  6
Continuous
 62
     7
100
AcDbPolyline
 90
        2
 70
     0
 43
0.5
 10
13.0
 20
13.0
 10
284.0
 20
13.0
  0
LWPOLYLINE
  5
29C
330
208
100
AcDbEntity
  8
0
  6
Continuous
 62
     7
100
AcDbPolyline
 90
        2
 70
     0
 43
0.1
 10
148.5
 20
197.0
 10
148.5
 20
200.0
  0
LWPOLYLINE
  5
29D
330
208
100
AcDbEntity
  8
0
  6
Continuous
 62
     7
100
AcDbPolyline
 90
        2
 70
     0
 43
0.1
 10
284.0
 20
105.0
 10
287.0
 20
105.0
  0
LWPOLYLINE
  5
29E
330
208
100
AcDbEntity
  8
0
  6
Continuous
 62
     7
100
AcDbPolyline
 90
        2
 70
     0
 43
0.1
 10
13.0
 20
105.0
 10
10.0
 20
105.0
  0
LWPOLYLINE
  5
29F
330
208
100
AcDbEntity
  8
0
  6
Continuous
 62
     7
100
AcDbPolyline
 90
        2
 70
     0
 43
0.5
 10
13.0
 20
197.0
 10
284.0
 20
197.0
  0
LWPOLYLINE
  5
2A0
330
208
100
AcDbEntity
  8
0
  6
Continuous
 62
     7
100
AcDbPolyline
 90
        2
 70
     0
 43
0.1
 10
10.0
 20
200.0
 10
287.0
 20
200.0
  0
LWPOLYLINE
  5
2A1
330
208
100
AcDbEntity
  8
0
  6
Continuous
 62
     7
100
AcDbPolyline
 90
        2
 70
     0
 43
0.1
 10
10.0
 20
10.0
 10
10.0
 20
200.0
  0
LWPOLYLINE
  5
2A2
330
208
100
AcDbEntity
  8
0
  6
Continuous
 62
     7
100
AcDbPolyline
 90
        2
 70
     0
 43
0.1
 10
287.0
 20
10.0
 10
287.0
 20
200.0
  0
LWPOLYLINE
  5
2A3
330
208
100
AcDbEntity
  8
0
  6
Continuous
 62
     7
100
AcDbPolyline
 90
        2
 70
     0
 43
0.1
 10
10.0
 20
10.0
 10
287.0
 20
10.0
  0
LWPOLYLINE
  5
2A4
330
208
100
AcDbEntity
  8
0
  6
Continuous
 62
     7
100
AcDbPolyline
 90
        2
 70
     0
 43
0.1
 10
148.5
 20
13.0
 10
148.5
 20
10.0
  0
LINE
  5
2A5
330
208
100
AcDbEntity
  8
7_ALL_FEATURES
  6
Continuous
 62
     7
100
AcDbLine
 10
124.952861
 20
88.744616
 30
0.0
 11
41.952861
 21
88.744616
 31
0.0
  0
LINE
  5
2A6
330
208
100
AcDbEntity
  8
7_ALL_FEATURES
  6
Continuous
 62
     7
100
AcDbLine
 10
125.952861
 20
172.744616
 30
0.0
 11
125.952861
 21
89.744616
 31
0.0
  0
LINE
  5
2A7
330
208
100
AcDbEntity
  8
7_ALL_FEATURES
  6
Continuous
 62
     7
100
AcDbLine
 10
41.952861
 20
173.744616
 30
0.0
 11
124.952861
 21
173.744616
 31
0.0
  0
LINE
  5
2A8
330
208
100
AcDbEntity
  8
7_ALL_FEATURES
  6
Continuous
 62
     7
100
AcDbLine
 10
40.952861
 20
89.744616
 30
0.0
 11
40.952861
 21
172.744616
 31
0.0
  0
SPLINE
  5
2A9
330
208
100
AcDbEntity
  8
7_ALL_FEATURES
  6
Continuous
 62
     7
100
AcDbSpline
 70
     0
 71
     3
 72
    15
 73
    11
 74
     0
 42
0.000000001
 43
0.0000001
 40
0.0
 40
0.0
 40
0.0
 40
0.0
 40
0.1449418218
 40
0.2735739625
 40
0.3900712797
 40
0.5
 40
0.6099287203
 40
0.7264260375
 40
0.8550581782
 40
1.0
 40
1.0
 40
1.0
 40
1.0
 10
41.9528610642
 20
88.7446157095
 30
0.0
 10
41.8745626456
 20
88.7446157095
 30
0.0
 10
41.7264689618
 20
88.7531750193
 30
0.0
 10
41.5196092702
 20
88.7986781745
 30
0.0
 10
41.3428215848
 20
88.8770333475
 30
0.0
 10
41.1974288216
 20
88.9891834669
 30
0.0
 10
41.0852787022
 20
89.13457623
 30
0.0
 10
41.0069235293
 20
89.3113639154
 30
0.0
 10
40.961420374
 20
89.518223607
 30
0.0
 10
40.9528610642
 20
89.6663172908
 30
0.0
 10
40.9528610642
 20
89.7446157095
 30
0.0
  0
SPLINE
  5
2AA
330
208
100
AcDbEntity
  8
7_ALL_FEATURES
  6
Continuous
 62
     7
100
AcDbSpline
 70
     0
 71
     3
 72
    15
 73
    11
 74
     0
 42
0.000000001
 43
0.0000001
 40
0.0
 40
0.0
 40
0.0
 40
0.0
 40
0.1449418218
 40
0.2735739625
 40
0.3900712797
 40
0.5
 40
0.6099287203
 40
0.7264260375
 40
0.8550581782
 40
1.0
 40
1.0
 40
1.0
 40
1.0
 10
40.9528610642
 20
172.7446157095
 30
0.0
 10
40.9528610642
 20
172.8229141281
 30
0.0
 10
40.961420374
 20
172.9710078119
 30
0.0
 10
41.0069235293
 20
173.1778675035
 30
0.0
 10
41.0852787022
 20
173.3546551889
 30
0.0
 10
41.1974288216
 20
173.5000479521
 30
0.0
 10
41.3428215848
 20
173.6121980714
 30
0.0
 10
41.5196092702
 20
173.6905532444
 30
0.0
 10
41.7264689618
 20
173.7360563996
 30
0.0
 10
41.8745626456
 20
173.7446157095
 30
0.0
 10
41.9528610642
 20
173.7446157095
 30
0.0
  0
SPLINE
  5
2AB
330
208
100
AcDbEntity
  8
7_ALL_FEATURES
  6
Continuous
 62
     7
100
AcDbSpline
 70
     0
 71
     3
 72
    15
 73
    11
 74
     0
 42
0.000000001
 43
0.0000001
 40
0.0
 40
0.0
 40
0.0
 40
0.0
 40
0.1449418218
 40
0.2735739625
 40
0.3900712797
 40
0.5
 40
0.6099287203
 40
0.7264260375
 40
0.8550581782
 40
1.0
 40
1.0
 40
1.0
 40
1.0
 10
124.9528610642
 20
173.7446157095
 30
0.0
 10
125.0311594828
 20
173.7446157095
 30
0.0
 10
125.1792531666
 20
173.7360563996
 30
0.0
 10
125.3861128582
 20
173.6905532444
 30
0.0
 10
125.5629005436
 20
173.6121980714
 30
0.0
 10
125.7082933068
 20
173.5000479521
 30
0.0
 10
125.8204434262
 20
173.3546551889
 30
0.0
 10
125.8987985991
 20
173.1778675035
 30
0.0
 10
125.9443017544
 20
172.9710078119
 30
0.0
 10
125.9528610642
 20
172.8229141281
 30
0.0
 10
125.9528610642
 20
172.7446157095
 30
0.0
  0
SPLINE
  5
2AC
330
208
100
AcDbEntity
  8
7_ALL_FEATURES
  6
Continuous
 62
     7
100
AcDbSpline
 70
     0
 71
     3
 72
    15
 73
    11
 74
     0
 42
0.000000001
 43
0.0000001
 40
0.0
 40
0.0
 40
0.0
 40
0.0
 40
0.1449418218
 40
0.2735739625
 40
0.3900712797
 40
0.5
 40
0.6099287203
 40
0.7264260375
 40
0.8550581782
 40
1.0
 40
1.0
 40
1.0
 40
1.0
 10
125.9528610642
 20
89.7446157095
 30
0.0
 10
125.9528610642
 20
89.6663172908
 30
0.0
 10
125.9443017544
 20
89.518223607
 30
0.0
 10
125.8987985991
 20
89.3113639154
 30
0.0
 10
125.8204434262
 20
89.13457623
 30
0.0
 10
125.7082933068
 20
88.9891834669
 30
0.0
 10
125.5629005436
 20
88.8770333475
 30
0.0
 10
125.3861128582
 20
88.7986781745
 30
0.0
 10
125.1792531666
 20
88.7531750193
 30
0.0
 10
125.0311594828
 20
88.7446157095
 30
0.0
 10
124.9528610642
 20
88.7446157095
 30
0.0
  0
ARC
  5
2AD
330
208
100
AcDbEntity
  8
7_ALL_FEATURES
  6
Continuous
 62
     7
100
AcDbCircle
 10
66.452861
 20
148.244616
 30
0.0
 40
0.5
100
AcDbArc
 50
90.0
 51
180.0
  0
ARC
  5
2AE
330
208
100
AcDbEntity
  8
7_ALL_FEATURES
  6
Continuous
 62
     7
100
AcDbCircle
 10
100.452861
 20
148.244616
 30
0.0
 40
0.5
100
AcDbArc
 50
0.0
 51
90.0
  0
ARC
  5
2AF
330
208
100
AcDbEntity
  8
7_ALL_FEATURES
  6
Continuous
 62
     7
100
AcDbCircle
 10
100.452861
 20
114.244616
 30
0.0
 40
0.5
100
AcDbArc
 50
270.0
 51
360.0
  0
ARC
  5
2B0
330
208
100
AcDbEntity
  8
7_ALL_FEATURES
  6
Continuous
 62
     7
100
AcDbCircle
 10
66.452861
 20
114.244616
 30
0.0
 40
0.5
100
AcDbArc
 50
180.0
 51
270.0
  0
LINE
  5
2B1
330
208
100
AcDbEntity
  8
7_ALL_FEATURES
  6
Continuous
 62
     7
100
AcDbLine
 10
66.452861
 20
148.744616
 30
0.0
 11
100.452861
 21
148.744616
 31
0.0
  0
LINE
  5
2B2
330
208
100
AcDbEntity
  8
7_ALL_FEATURES
  6
Continuous
 62
     7
100
AcDbLine
 10
65.952861
 20
114.244616
 30
0.0
 11
65.952861
 21
148.244616
 31
0.0
  0
LINE
  5
2B3
330
208
100
AcDbEntity
  8
7_ALL_FEATURES
  6
Continuous
 62
     7
100
AcDbLine
 10
100.452861
 20
113.744616
 30
0.0
 11
66.452861
 21
113.744616
 31
0.0
  0
LINE
  5
2B4
330
208
100
AcDbEntity
  8
7_ALL_FEATURES
  6
Continuous
 62
     7
100
AcDbLine
 10
100.952861
 20
148.244616
 30
0.0
 11
100.952861
 21
114.244616
 31
0.0
  0
LINE
  5
2B5
330
208
100
AcDbEntity
  8
7_ALL_FEATURES
  6
Continuous
 62
     9
100
AcDbLine
 10
66.452861
 20
113.732434
 30
0.0
 11
66.452861
 21
113.198202
 31
0.0
  0
SPLINE
  5
2B6
330
208
100
AcDbEntity
  8
7_ALL_FEATURES
  6
Continuous
 62
     9
100
AcDbSpline
 70
     0
 71
     3
 72
    13
 73
     9
 74
     0
 42
0.000000001
 43
0.0000001
 40
0.0
 40
0.0
 40
0.0
 40
0.0
 40
0.0310524516
 40
0.0852135736
 40
0.1664367033
 40
0.2757782039
 40
0.5802152851
 40
1.0
 40
1.0
 40
1.0
 40
1.0
 10
66.2887633533
 20
113.7599906062
 30
0.0
 10
66.2830162501
 20
113.7603521558
 30
0.0
 10
66.268243219
 20
113.7507846513
 30
0.0
 10
66.2497910154
 20
113.7268157303
 30
0.0
 10
66.2259021301
 20
113.6877656056
 30
0.0
 10
66.1844693889
 20
113.606002972
 30
0.0
 10
66.1235780974
 20
113.4636603063
 30
0.0
 10
66.0754580592
 20
113.3383218224
 30
0.0
 10
66.0483055994
 20
113.2653644735
 30
0.0
  0
SPLINE
  5
2B7
330
208
100
AcDbEntity
  8
7_ALL_FEATURES
  6
Continuous
 62
     9
100
AcDbSpline
 70
     0
 71
     3
 72
    13
 73
     9
 74
     0
 42
0.000000001
 43
0.0000001
 40
0.0
 40
0.0
 40
0.0
 40
0.0
 40
0.0310524516
 40
0.0852135736
 40
0.1664367033
 40
0.2757782039
 40
0.5802152851
 40
1.0
 40
1.0
 40
1.0
 40
1.0
 10
65.9682359609
 20
114.0805179986
 30
0.0
 10
65.9685975105
 20
114.0747708954
 30
0.0
 10
65.9590300061
 20
114.0599978643
 30
0.0
 10
65.9350610851
 20
114.0415456606
 30
0.0
 10
65.8960109604
 20
114.0176567754
 30
0.0
 10
65.8142483267
 20
113.9762240342
 30
0.0
 10
65.671905661
 20
113.9153327427
 30
0.0
 10
65.5465671771
 20
113.8672127044
 30
0.0
 10
65.4736098283
 20
113.8400602447
 30
0.0
  0
LINE
  5
2B8
330
208
100
AcDbEntity
  8
7_ALL_FEATURES
  6
Continuous
 62
     9
100
AcDbLine
 10
65.94068
 20
114.244616
 30
0.0
 11
65.406448
 21
114.244616
 31
0.0
  0
LINE
  5
2B9
330
208
100
AcDbEntity
  8
7_ALL_FEATURES
  6
Continuous
 62
     9
100
AcDbLine
 10
65.94068
 20
148.244616
 30
0.0
 11
65.406448
 21
148.244616
 31
0.0
  0
SPLINE
  5
2BA
330
208
100
AcDbEntity
  8
7_ALL_FEATURES
  6
Continuous
 62
     9
100
AcDbSpline
 70
     0
 71
     3
 72
    13
 73
     9
 74
     0
 42
0.000000001
 43
0.0000001
 40
0.0
 40
0.0
 40
0.0
 40
0.0
 40
0.0310524516
 40
0.0852135736
 40
0.1664367033
 40
0.2757782039
 40
0.5802152851
 40
1.0
 40
1.0
 40
1.0
 40
1.0
 10
65.9682359609
 20
148.4087134204
 30
0.0
 10
65.9685975105
 20
148.4144605235
 30
0.0
 10
65.9590300061
 20
148.4292335546
 30
0.0
 10
65.9350610851
 20
148.4476857583
 30
0.0
 10
65.8960109604
 20
148.4715746436
 30
0.0
 10
65.8142483267
 20
148.5130073848
 30
0.0
 10
65.671905661
 20
148.5738986762
 30
0.0
 10
65.5465671771
 20
148.6220187145
 30
0.0
 10
65.4736098283
 20
148.6491711742
 30
0.0
  0
SPLINE
  5
2BB
330
208
100
AcDbEntity
  8
7_ALL_FEATURES
  6
Continuous
 62
     9
100
AcDbSpline
 70
     0
 71
     3
 72
    13
 73
     9
 74
     0
 42
0.000000001
 43
0.0000001
 40
0.0
 40
0.0
 40
0.0
 40
0.0
 40
0.0310524516
 40
0.0852135736
 40
0.1664367033
 40
0.2757782039
 40
0.5802152851
 40
1.0
 40
1.0
 40
1.0
 40
1.0
 10
66.2887633533
 20
148.7292408127
 30
0.0
 10
66.2830162501
 20
148.7288792631
 30
0.0
 10
66.268243219
 20
148.7384467676
 30
0.0
 10
66.2497910154
 20
148.7624156886
 30
0.0
 10
66.2259021301
 20
148.8014658133
 30
0.0
 10
66.1844693889
 20
148.883228447
 30
0.0
 10
66.1235780974
 20
149.0255711126
 30
0.0
 10
66.0754580592
 20
149.1509095965
 30
0.0
 10
66.0483055994
 20
149.2238669454
 30
0.0
  0
LINE
  5
2BC
330
208
100
AcDbEntity
  8
7_ALL_FEATURES
  6
Continuous
 62
     9
100
AcDbLine
 10
66.452861
 20
148.756797
 30
0.0
 11
66.452861
 21
149.291029
 31
0.0
  0
LINE
  5
2BD
330
208
100
AcDbEntity
  8
7_ALL_FEATURES
  6
Continuous
 62
     9
100
AcDbLine
 10
120.097007
 20
168.463458
 30
0.0
 11
120.097007
 21
169.038153
 31
0.0
  0
LINE
  5
2BE
330
208
100
AcDbEntity
  8
7_ALL_FEATURES
  6
Continuous
 62
     9
100
AcDbLine
 10
120.671703
 20
167.888762
 30
0.0
 11
121.246399
 21
167.888762
 31
0.0
  0
LINE
  5
2BF
330
208
100
AcDbEntity
  8
7_ALL_FEATURES
  6
Continuous
 62
     9
100
AcDbLine
 10
120.671703
 20
94.60047
 30
0.0
 11
121.246399
 21
94.60047
 31
0.0
  0
LINE
  5
2C0
330
208
100
AcDbEntity
  8
7_ALL_FEATURES
  6
Continuous
 62
     9
100
AcDbLine
 10
120.097007
 20
94.025774
 30
0.0
 11
120.097007
 21
93.451078
 31
0.0
  0
LINE
  5
2C1
330
208
100
AcDbEntity
  8
7_ALL_FEATURES
  6
Continuous
 62
     9
100
AcDbLine
 10
46.808715
 20
94.025774
 30
0.0
 11
46.808715
 21
93.451078
 31
0.0
  0
LINE
  5
2C2
330
208
100
AcDbEntity
  8
7_ALL_FEATURES
  6
Continuous
 62
     9
100
AcDbLine
 10
46.234019
 20
94.60047
 30
0.0
 11
45.659323
 21
94.60047
 31
0.0
  0
LINE
  5
2C3
330
208
100
AcDbEntity
  8
7_ALL_FEATURES
  6
Continuous
 62
     9
100
AcDbLine
 10
46.234019
 20
167.888762
 30
0.0
 11
45.659323
 21
167.888762
 31
0.0
  0
LINE
  5
2C4
330
208
100
AcDbEntity
  8
7_ALL_FEATURES
  6
Continuous
 62
     9
100
AcDbLine
 10
46.808715
 20
168.463458
 30
0.0
 11
46.808715
 21
169.038153
 31
0.0
  0
SPLINE
  5
2C5
330
208
100
AcDbEntity
  8
7_ALL_FEATURES
  6
Continuous
 62
     9
100
AcDbSpline
 70
     0
 71
     3
 72
    15
 73
    11
 74
     0
 42
0.000000001
 43
0.0000001
 40
0.0
 40
0.0
 40
0.0
 40
0.0
 40
0.1388798809
 40
0.2710697124
 40
0.3919529098
 40
0.499919259
 40
0.6079526026
 40
0.7288539871
 40
0.8612142256
 40
1.0
 40
1.0
 40
1.0
 40
1.0
 10
46.2340193657
 20
94.6004702245
 30
0.0
 10
46.217630021
 20
94.5483521575
 30
0.0
 10
46.1887578651
 20
94.4455059141
 30
0.0
 10
46.1652664589
 20
94.2926573664
 30
0.0
 10
46.1699238274
 20
94.1491623941
 30
0.0
 10
46.2312384564
 20
94.0231042686
 30
0.0
 10
46.3572681169
 20
93.9616791339
 30
0.0
 10
46.5008724208
 20
93.9569927714
 30
0.0
 10
46.6537483402
 20
93.9805463037
 30
0.0
 10
46.7566304746
 20
94.009395088
 30
0.0
 10
46.8087132419
 20
94.0257732759
 30
0.0
  0
SPLINE
  5
2C6
330
208
100
AcDbEntity
  8
7_ALL_FEATURES
  6
Continuous
 62
     9
100
AcDbSpline
 70
     0
 71
     3
 72
     9
 73
     5
 74
     0
 42
0.000000001
 43
0.0000001
 40
0.0
 40
0.0
 40
0.0
 40
0.0
 40
0.4999722917
 40
1.0
 40
1.0
 40
1.0
 40
1.0
 10
65.4736103566
 20
113.8400577372
 30
0.0
 10
65.5028554263
 20
113.7012517688
 30
0.0
 10
65.636928739
 20
113.4286986004
 30
0.0
 10
65.909482062
 20
113.2946131849
 30
0.0
 10
66.0483034277
 20
113.2653649311
 30
0.0
  0
SPLINE
  5
2C7
330
208
100
AcDbEntity
  8
7_ALL_FEATURES
  6
Continuous
 62
     9
100
AcDbSpline
 70
     0
 71
     3
 72
    15
 73
    11
 74
     0
 42
0.000000001
 43
0.0000001
 40
0.0
 40
0.0
 40
0.0
 40
0.0
 40
0.1388923008
 40
0.2710597343
 40
0.3919432386
 40
0.499899791
 40
0.607934161
 40
0.7288291942
 40
0.8612526513
 40
1.0
 40
1.0
 40
1.0
 40
1.0
 10
120.0970064891
 20
94.0257740298
 30
0.0
 10
120.1491291871
 20
94.0093832274
 30
0.0
 10
120.2519709206
 20
93.9805080508
 30
0.0
 10
120.4048161801
 20
93.9570258258
 30
0.0
 10
120.5482992563
 20
93.9616740231
 30
0.0
 10
120.674353326
 20
94.0229842049
 30
0.0
 10
120.7357915955
 20
94.1489981237
 30
0.0
 10
120.7404988705
 20
94.2926269802
 30
0.0
 10
120.7169195824
 20
94.4455070255
 30
0.0
 10
120.6880770296
 20
94.5483999554
 30
0.0
 10
120.6717033772
 20
94.6004682704
 30
0.0
  0
SPLINE
  5
2C8
330
208
100
AcDbEntity
  8
7_ALL_FEATURES
  6
Continuous
 62
     9
100
AcDbSpline
 70
     0
 71
     3
 72
     9
 73
     5
 74
     0
 42
0.000000001
 43
0.0000001
 40
0.0
 40
0.0
 40
0.0
 40
0.0
 40
0.500033927
 40
1.0
 40
1.0
 40
1.0
 40
1.0
 10
100.8574190637
 20
113.2653650076
 30
0.0
 10
100.996242159
 20
113.2946136908
 30
0.0
 10
101.2687954465
 20
113.4287006704
 30
0.0
 10
101.4028672423
 20
113.7012539329
 30
0.0
 10
101.432111871
 20
113.840058208
 30
0.0
  0
SPLINE
  5
2C9
330
208
100
AcDbEntity
  8
7_ALL_FEATURES
  6
Continuous
 62
     9
100
AcDbSpline
 70
     0
 71
     3
 72
    15
 73
    11
 74
     0
 42
0.000000001
 43
0.0000001
 40
0.0
 40
0.0
 40
0.0
 40
0.0
 40
0.1388923007
 40
0.2710597351
 40
0.39194324
 40
0.4998997921
 40
0.607934162
 40
0.7288291955
 40
0.8612526495
 40
1.0
 40
1.0
 40
1.0
 40
1.0
 10
120.6717027439
 20
167.8887611345
 30
0.0
 10
120.6880935462
 20
167.9408838324
 30
0.0
 10
120.7169687231
 20
168.0437255662
 30
0.0
 10
120.7404509483
 20
168.1965708263
 30
0.0
 10
120.7358027502
 20
168.3400539029
 30
0.0
 10
120.6744925678
 20
168.4661079726
 30
0.0
 10
120.5484786486
 20
168.5275462411
 30
0.0
 10
120.4048497934
 20
168.532253515
 30
0.0
 10
120.2519697483
 20
168.5086742281
 30
0.0
 10
120.149076819
 20
168.4798316751
 30
0.0
 10
120.0970085032
 20
168.4634580225
 30
0.0
  0
SPLINE
  5
2CA
330
208
100
AcDbEntity
  8
7_ALL_FEATURES
  6
Continuous
 62
     9
100
AcDbSpline
 70
     0
 71
     3
 72
     9
 73
     5
 74
     0
 42
0.000000001
 43
0.0000001
 40
0.0
 40
0.0
 40
0.0
 40
0.0
 40
0.500033927
 40
1.0
 40
1.0
 40
1.0
 40
1.0
 10
101.4321117661
 20
148.649173709
 30
0.0
 10
101.4028630829
 20
148.7879968042
 30
0.0
 10
101.2687761032
 20
149.0605500918
 30
0.0
 10
100.9962228407
 20
149.1946218875
 30
0.0
 10
100.8574185657
 20
149.2238665163
 30
0.0
  0
SPLINE
  5
2CB
330
208
100
AcDbEntity
  8
7_ALL_FEATURES
  6
Continuous
 62
     9
100
AcDbSpline
 70
     0
 71
     3
 72
    15
 73
    11
 74
     0
 42
0.000000001
 43
0.0000001
 40
0.0
 40
0.0
 40
0.0
 40
0.0
 40
0.1388923009
 40
0.2710597343
 40
0.3919432384
 40
0.4998997908
 40
0.6079341609
 40
0.728829194
 40
0.8612526516
 40
1.0
 40
1.0
 40
1.0
 40
1.0
 10
46.8087156393
 20
168.4634573891
 30
0.0
 10
46.7565929413
 20
168.4798481915
 30
0.0
 10
46.6537512078
 20
168.5087233682
 30
0.0
 10
46.5009059483
 20
168.5322055932
 30
0.0
 10
46.3574228723
 20
168.5275573958
 30
0.0
 10
46.2313688024
 20
168.4662472141
 30
0.0
 10
46.169930533
 20
168.3402332954
 30
0.0
 10
46.1652232577
 20
168.1966044388
 30
0.0
 10
46.188802546
 20
168.0437243934
 30
0.0
 10
46.2176450988
 20
167.9408314635
 30
0.0
 10
46.2340187512
 20
167.8887631485
 30
0.0
  0
SPLINE
  5
2CC
330
208
100
AcDbEntity
  8
7_ALL_FEATURES
  6
Continuous
 62
     9
100
AcDbSpline
 70
     0
 71
     3
 72
     9
 73
     5
 74
     0
 42
0.000000001
 43
0.0000001
 40
0.0
 40
0.0
 40
0.0
 40
0.0
 40
0.500033927
 40
1.0
 40
1.0
 40
1.0
 40
1.0
 10
66.0483030646
 20
149.2238664113
 30
0.0
 10
65.9094799694
 20
149.1946177282
 30
0.0
 10
65.6369266819
 20
149.0605307485
 30
0.0
 10
65.5028548861
 20
148.787977486
 30
0.0
 10
65.4736102574
 20
148.6491732109
 30
0.0
  0
SPLINE
  5
2CD
330
208
100
AcDbEntity
  8
7_ALL_FEATURES
  6
Continuous
 62
     7
100
AcDbSpline
 70
     0
 71
     3
 72
    11
 73
     7
 74
     0
 42
0.000000001
 43
0.0000001
 40
0.0
 40
0.0
 40
0.0
 40
0.0
 40
0.235073343
 40
0.4851961276
 40
0.7419086083
 40
1.0
 40
1.0
 40
1.0
 40
1.0
 10
41.2769464896
 20
173.420530284
 30
0.0
 10
41.3163390675
 20
173.3792053526
 30
0.0
 10
41.4004827315
 20
173.2966648708
 30
0.0
 10
41.5282967614
 20
173.1696721084
 30
0.0
 10
41.6593168045
 20
173.0379587422
 30
0.0
 10
41.7480465078
 20
172.9498682603
 30
0.0
 10
41.7921502919
 20
172.9053264818
 30
0.0
  0
SPLINE
  5
2CE
330
208
100
AcDbEntity
  8
7_ALL_FEATURES
  6
Continuous
 62
     7
100
AcDbSpline
 70
     0
 71
     3
 72
    11
 73
     7
 74
     0
 42
0.000000001
 43
0.0000001
 40
0.0
 40
0.0
 40
0.0
 40
0.0
 40
0.235073343
 40
0.4851961276
 40
0.7419086083
 40
1.0
 40
1.0
 40
1.0
 40
1.0
 10
125.6287756387
 20
173.420530284
 30
0.0
 10
125.5874507073
 20
173.3811377061
 30
0.0
 10
125.5049102255
 20
173.2969940422
 30
0.0
 10
125.3779174631
 20
173.1691800122
 30
0.0
 10
125.2462040969
 20
173.0381599691
 30
0.0
 10
125.158113615
 20
172.9494302658
 30
0.0
 10
125.1135718365
 20
172.9053264818
 30
0.0
  0
SPLINE
  5
2CF
330
208
100
AcDbEntity
  8
7_ALL_FEATURES
  6
Continuous
 62
     7
100
AcDbSpline
 70
     0
 71
     3
 72
    11
 73
     7
 74
     0
 42
0.000000001
 43
0.0000001
 40
0.0
 40
0.0
 40
0.0
 40
0.0
 40
0.235073343
 40
0.4851961276
 40
0.7419086083
 40
1.0
 40
1.0
 40
1.0
 40
1.0
 10
125.6287756387
 20
89.0687011349
 30
0.0
 10
125.5893830609
 20
89.1100260663
 30
0.0
 10
125.5052393969
 20
89.1925665481
 30
0.0
 10
125.3774253669
 20
89.3195593105
 30
0.0
 10
125.2464053238
 20
89.4512726767
 30
0.0
 10
125.1576756206
 20
89.5393631587
 30
0.0
 10
125.1135718365
 20
89.5839049372
 30
0.0
  0
SPLINE
  5
2D0
330
208
100
AcDbEntity
  8
7_ALL_FEATURES
  6
Continuous
 62
     7
100
AcDbSpline
 70
     0
 71
     3
 72
    11
 73
     7
 74
     0
 42
0.000000001
 43
0.0000001
 40
0.0
 40
0.0
 40
0.0
 40
0.0
 40
0.235073343
 40
0.4851961276
 40
0.7419086083
 40
1.0
 40
1.0
 40
1.0
 40
1.0
 10
41.2769464896
 20
89.0687011349
 30
0.0
 10
41.318271421
 20
89.1080937128
 30
0.0
 10
41.4008119028
 20
89.1922373768
 30
0.0
 10
41.5278046652
 20
89.3200514067
 30
0.0
 10
41.6595180314
 20
89.4510714498
 30
0.0
 10
41.7476085134
 20
89.5398011531
 30
0.0
 10
41.7921502919
 20
89.5839049372
 30
0.0
  0
SPLINE
  5
2D1
330
208
100
AcDbEntity
  8
7_ALL_FEATURES
  6
Continuous
 62
     7
100
AcDbSpline
 70
     0
 71
     3
 72
    11
 73
     7
 74
     0
 42
0.000000001
 43
0.0000001
 40
0.0
 40
0.0
 40
0.0
 40
0.0
 40
0.2663890031
 40
0.5275522484
 40
0.7766455692
 40
1.0
 40
1.0
 40
1.0
 40
1.0
 10
41.2769464896
 20
89.0687011349
 30
0.0
 10
41.2302313884
 20
89.1139865077
 30
0.0
 10
41.1513362392
 20
89.2189307514
 30
0.0
 10
41.0839654518
 20
89.3979765263
 30
0.0
 10
41.0514911773
 20
89.5747699566
 30
0.0
 10
41.0440559432
 20
89.6900892426
 30
0.0
 10
41.0424072982
 20
89.7446157095
 30
0.0
  0
SPLINE
  5
2D2
330
208
100
AcDbEntity
  8
7_ALL_FEATURES
  6
Continuous
 62
     7
100
AcDbSpline
 70
     0
 71
     3
 72
    11
 73
     7
 74
     0
 42
0.000000001
 43
0.0000001
 40
0.0
 40
0.0
 40
0.0
 40
0.0
 40
0.2233544308
 40
0.4724477516
 40
0.7336109969
 40
1.0
 40
1.0
 40
1.0
 40
1.0
 10
41.9528610642
 20
88.8341619434
 30
0.0
 10
41.8983345973
 20
88.8358105885
 30
0.0
 10
41.7830153113
 20
88.8432458225
 30
0.0
 10
41.606221881
 20
88.8757200971
 30
0.0
 10
41.4271761061
 20
88.9430908844
 30
0.0
 10
41.3222318625
 20
89.0219860337
 30
0.0
 10
41.2769464896
 20
89.0687011349
 30
0.0
  0
SPLINE
  5
2D3
330
208
100
AcDbEntity
  8
7_ALL_FEATURES
  6
Continuous
 62
     7
100
AcDbSpline
 70
     0
 71
     3
 72
    11
 73
     7
 74
     0
 42
0.000000001
 43
0.0000001
 40
0.0
 40
0.0
 40
0.0
 40
0.0
 40
0.2233544308
 40
0.4724477516
 40
0.7336109969
 40
1.0
 40
1.0
 40
1.0
 40
1.0
 10
41.0424072982
 20
172.7446157095
 30
0.0
 10
41.0440559432
 20
172.7991421763
 30
0.0
 10
41.0514911773
 20
172.9144614624
 30
0.0
 10
41.0839654518
 20
173.0912548926
 30
0.0
 10
41.1513362392
 20
173.2703006676
 30
0.0
 10
41.2302313884
 20
173.3752449112
 30
0.0
 10
41.2769464896
 20
173.420530284
 30
0.0
  0
SPLINE
  5
2D4
330
208
100
AcDbEntity
  8
7_ALL_FEATURES
  6
Continuous
 62
     7
100
AcDbSpline
 70
     0
 71
     3
 72
    11
 73
     7
 74
     0
 42
0.000000001
 43
0.0000001
 40
0.0
 40
0.0
 40
0.0
 40
0.0
 40
0.2663890031
 40
0.5275522484
 40
0.7766455692
 40
1.0
 40
1.0
 40
1.0
 40
1.0
 10
41.2769464896
 20
173.420530284
 30
0.0
 10
41.3222318625
 20
173.4672453852
 30
0.0
 10
41.4271761061
 20
173.5461405345
 30
0.0
 10
41.606221881
 20
173.6135113218
 30
0.0
 10
41.7830153113
 20
173.6459855964
 30
0.0
 10
41.8983345973
 20
173.6534208304
 30
0.0
 10
41.9528610642
 20
173.6550694755
 30
0.0
  0
SPLINE
  5
2D5
330
208
100
AcDbEntity
  8
7_ALL_FEATURES
  6
Continuous
 62
     7
100
AcDbSpline
 70
     0
 71
     3
 72
    11
 73
     7
 74
     0
 42
0.000000001
 43
0.0000001
 40
0.0
 40
0.0
 40
0.0
 40
0.0
 40
0.2233544308
 40
0.4724477516
 40
0.7336109969
 40
1.0
 40
1.0
 40
1.0
 40
1.0
 10
124.9528610642
 20
173.6550694755
 30
0.0
 10
125.0073875311
 20
173.6534208304
 30
0.0
 10
125.1227068171
 20
173.6459855964
 30
0.0
 10
125.2995002474
 20
173.6135113218
 30
0.0
 10
125.4785460223
 20
173.5461405345
 30
0.0
 10
125.5834902659
 20
173.4672453852
 30
0.0
 10
125.6287756387
 20
173.420530284
 30
0.0
  0
SPLINE
  5
2D6
330
208
100
AcDbEntity
  8
7_ALL_FEATURES
  6
Continuous
 62
     7
100
AcDbSpline
 70
     0
 71
     3
 72
    11
 73
     7
 74
     0
 42
0.000000001
 43
0.0000001
 40
0.0
 40
0.0
 40
0.0
 40
0.0
 40
0.2663890031
 40
0.5275522484
 40
0.7766455692
 40
1.0
 40
1.0
 40
1.0
 40
1.0
 10
125.6287756387
 20
173.420530284
 30
0.0
 10
125.6754907399
 20
173.3752449112
 30
0.0
 10
125.7543858892
 20
173.2703006676
 30
0.0
 10
125.8217566766
 20
173.0912548926
 30
0.0
 10
125.8542309511
 20
172.9144614624
 30
0.0
 10
125.8616661852
 20
172.7991421763
 30
0.0
 10
125.8633148302
 20
172.7446157095
 30
0.0
  0
SPLINE
  5
2D7
330
208
100
AcDbEntity
  8
7_ALL_FEATURES
  6
Continuous
 62
     7
100
AcDbSpline
 70
     0
 71
     3
 72
    11
 73
     7
 74
     0
 42
0.000000001
 43
0.0000001
 40
0.0
 40
0.0
 40
0.0
 40
0.0
 40
0.2233544308
 40
0.4724477516
 40
0.7336109969
 40
1.0
 40
1.0
 40
1.0
 40
1.0
 10
125.8633148302
 20
89.7446157095
 30
0.0
 10
125.8616661852
 20
89.6900892426
 30
0.0
 10
125.8542309511
 20
89.5747699566
 30
0.0
 10
125.8217566766
 20
89.3979765263
 30
0.0
 10
125.7543858892
 20
89.2189307514
 30
0.0
 10
125.6754907399
 20
89.1139865077
 30
0.0
 10
125.6287756387
 20
89.0687011349
 30
0.0
  0
SPLINE
  5
2D8
330
208
100
AcDbEntity
  8
7_ALL_FEATURES
  6
Continuous
 62
     7
100
AcDbSpline
 70
     0
 71
     3
 72
    11
 73
     7
 74
     0
 42
0.000000001
 43
0.0000001
 40
0.0
 40
0.0
 40
0.0
 40
0.0
 40
0.2663890031
 40
0.5275522484
 40
0.7766455692
 40
1.0
 40
1.0
 40
1.0
 40
1.0
 10
125.6287756387
 20
89.0687011349
 30
0.0
 10
125.5834902659
 20
89.0219860337
 30
0.0
 10
125.4785460223
 20
88.9430908844
 30
0.0
 10
125.2995002474
 20
88.8757200971
 30
0.0
 10
125.1227068171
 20
88.8432458225
 30
0.0
 10
125.0073875311
 20
88.8358105885
 30
0.0
 10
124.9528610642
 20
88.8341619434
 30
0.0
  0
LINE
  5
2D9
330
208
100
AcDbEntity
  8
7_ALL_FEATURES
  6
Continuous
 62
     9
100
AcDbLine
 10
41.952861
 20
88.834162
 30
0.0
 11
41.952861
 21
88.744616
 31
0.0
  0
LINE
  5
2DA
330
208
100
AcDbEntity
  8
7_ALL_FEATURES
  6
Continuous
 62
     9
100
AcDbLine
 10
124.952861
 20
88.744616
 30
0.0
 11
124.952861
 21
88.834162
 31
0.0
  0
LINE
  5
2DB
330
208
100
AcDbEntity
  8
7_ALL_FEATURES
  6
Continuous
 62
     9
100
AcDbLine
 10
41.952861
 20
88.834162
 30
0.0
 11
124.952861
 21
88.834162
 31
0.0
  0
LINE
  5
2DC
330
208
100
AcDbEntity
  8
7_ALL_FEATURES
  6
Continuous
 62
     9
100
AcDbLine
 10
125.952861
 20
89.744616
 30
0.0
 11
125.863315
 21
89.744616
 31
0.0
  0
LINE
  5
2DD
330
208
100
AcDbEntity
  8
7_ALL_FEATURES
  6
Continuous
 62
     9
100
AcDbLine
 10
125.952861
 20
172.744616
 30
0.0
 11
125.863315
 21
172.744616
 31
0.0
  0
LINE
  5
2DE
330
208
100
AcDbEntity
  8
7_ALL_FEATURES
  6
Continuous
 62
     9
100
AcDbLine
 10
125.863315
 20
89.744616
 30
0.0
 11
125.863315
 21
172.744616
 31
0.0
  0
LINE
  5
2DF
330
208
100
AcDbEntity
  8
7_ALL_FEATURES
  6
Continuous
 62
     9
100
AcDbLine
 10
124.952861
 20
173.744616
 30
0.0
 11
124.952861
 21
173.655069
 31
0.0
  0
LINE
  5
2E0
330
208
100
AcDbEntity
  8
7_ALL_FEATURES
  6
Continuous
 62
     9
100
AcDbLine
 10
41.952861
 20
173.744616
 30
0.0
 11
41.952861
 21
173.655069
 31
0.0
  0
LINE
  5
2E1
330
208
100
AcDbEntity
  8
7_ALL_FEATURES
  6
Continuous
 62
     9
100
AcDbLine
 10
124.952861
 20
173.655069
 30
0.0
 11
41.952861
 21
173.655069
 31
0.0
  0
LINE
  5
2E2
330
208
100
AcDbEntity
  8
7_ALL_FEATURES
  6
Continuous
 62
     9
100
AcDbLine
 10
120.097007
 20
169.038153
 30
0.0
 11
46.808715
 21
169.038153
 31
0.0
  0
SPLINE
  5
2E3
330
208
100
AcDbEntity
  8
7_ALL_FEATURES
  6
Continuous
 62
     9
100
AcDbSpline
 70
     0
 71
     3
 72
    15
 73
    11
 74
     0
 42
0.000000001
 43
0.0000001
 40
0.0
 40
0.0
 40
0.0
 40
0.0
 40
0.1167074402
 40
0.2380566523
 40
0.365811753
 40
0.4998726766
 40
0.6340451442
 40
0.7618663717
 40
0.8833228547
 40
1.0
 40
1.0
 40
1.0
 40
1.0
 10
121.2463987368
 20
167.8887618398
 30
0.0
 10
121.2463987368
 20
167.961132533
 30
0.0
 10
121.2393040885
 20
168.1089155884
 30
0.0
 10
121.1990298643
 20
168.3330182806
 30
0.0
 10
121.1136524463
 20
168.556865508
 30
0.0
 10
120.9669191242
 20
168.7584301242
 30
0.0
 10
120.7653930136
 20
168.9052993655
 30
0.0
 10
120.5413893744
 20
168.9907944538
 30
0.0
 10
120.3171846237
 20
169.0309989057
 30
0.0
 10
120.1693591017
 20
169.0381533821
 30
0.0
 10
120.0970071945
 20
169.0381533821
 30
0.0
  0
LINE
  5
2E4
330
208
100
AcDbEntity
  8
7_ALL_FEATURES
  6
Continuous
 62
     9
100
AcDbLine
 10
121.246399
 20
94.60047
 30
0.0
 11
121.246399
 21
167.888762
 31
0.0
  0
SPLINE
  5
2E5
330
208
100
AcDbEntity
  8
7_ALL_FEATURES
  6
Continuous
 62
     9
100
AcDbSpline
 70
     0
 71
     3
 72
    15
 73
    11
 74
     0
 42
0.000000001
 43
0.0000001
 40
0.0
 40
0.0
 40
0.0
 40
0.0
 40
0.1167074402
 40
0.2380566518
 40
0.3658117513
 40
0.4998726751
 40
0.6340451431
 40
0.7618663708
 40
0.8833228553
 40
1.0
 40
1.0
 40
1.0
 40
1.0
 10
120.0970071945
 20
93.4510780369
 30
0.0
 10
120.1693778877
 20
93.4510780369
 30
0.0
 10
120.3171609427
 20
93.4581726854
 30
0.0
 10
120.5412636339
 20
93.4984469094
 30
0.0
 10
120.7651108607
 20
93.5838243263
 30
0.0
 10
120.9666754768
 20
93.7305576478
 30
0.0
 10
121.1135447192
 20
93.9320837582
 30
0.0
 10
121.1990398092
 20
94.1560873982
 30
0.0
 10
121.2392442595
 20
94.3802921499
 30
0.0
 10
121.2463987368
 20
94.5281176723
 30
0.0
 10
121.2463987368
 20
94.6004695791
 30
0.0
  0
LINE
  5
2E6
330
208
100
AcDbEntity
  8
7_ALL_FEATURES
  6
Continuous
 62
     9
100
AcDbLine
 10
46.808715
 20
93.451078
 30
0.0
 11
120.097007
 21
93.451078
 31
0.0
  0
SPLINE
  5
2E7
330
208
100
AcDbEntity
  8
7_ALL_FEATURES
  6
Continuous
 62
     9
100
AcDbSpline
 70
     0
 71
     3
 72
    15
 73
    11
 74
     0
 42
0.000000001
 43
0.0000001
 40
0.0
 40
0.0
 40
0.0
 40
0.0
 40
0.1167051629
 40
0.2380640658
 40
0.3658237813
 40
0.4998971121
 40
0.6340667648
 40
0.7618819322
 40
0.883312761
 40
1.0
 40
1.0
 40
1.0
 40
1.0
 10
45.6593233916
 20
94.6004695791
 30
0.0
 10
45.6593233916
 20
94.5281002543
 30
0.0
 10
45.6664230122
 20
94.3803130406
 30
0.0
 10
45.7066913338
 20
94.1562012017
 30
0.0
 10
45.7920835586
 20
93.9323414917
 30
0.0
 10
45.9388231618
 20
93.7307697442
 30
0.0
 10
46.1403643748
 20
93.5839129234
 30
0.0
 10
46.3643537645
 20
93.4984501805
 30
0.0
 10
46.5885384959
 20
93.4582094381
 30
0.0
 10
46.7363567236
 20
93.4510780369
 30
0.0
 10
46.8087149338
 20
93.4510780369
 30
0.0
  0
LINE
  5
2E8
330
208
100
AcDbEntity
  8
7_ALL_FEATURES
  6
Continuous
 62
     9
100
AcDbLine
 10
45.659323
 20
167.888762
 30
0.0
 11
45.659323
 21
94.60047
 31
0.0
  0
SPLINE
  5
2E9
330
208
100
AcDbEntity
  8
7_ALL_FEATURES
  6
Continuous
 62
     9
100
AcDbSpline
 70
     0
 71
     3
 72
    15
 73
    11
 74
     0
 42
0.000000001
 43
0.0000001
 40
0.0
 40
0.0
 40
0.0
 40
0.0
 40
0.1167074403
 40
0.2380566517
 40
0.3658117511
 40
0.4998726749
 40
0.6340451429
 40
0.7618663707
 40
0.8833228554
 40
1.0
 40
1.0
 40
1.0
 40
1.0
 10
46.8087149338
 20
169.0381533821
 30
0.0
 10
46.7363442407
 20
169.0381533821
 30
0.0
 10
46.5885611856
 20
169.0310587339
 30
0.0
 10
46.3644584947
 20
168.9907845096
 30
0.0
 10
46.140611268
 20
168.9054070927
 30
0.0
 10
45.9390466518
 20
168.7586737714
 30
0.0
 10
45.7921774094
 20
168.557147661
 30
0.0
 10
45.706682319
 20
168.3331440209
 30
0.0
 10
45.666477869
 20
168.108939269
 30
0.0
 10
45.6593233916
 20
167.9611137466
 30
0.0
 10
45.6593233916
 20
167.8887618398
 30
0.0
  0
LINE
  5
2EA
330
208
100
AcDbEntity
  8
7_ALL_FEATURES
  6
Continuous
 62
     9
100
AcDbLine
 10
125.113572
 20
89.583905
 30
0.0
 11
125.113572
 21
172.905326
 31
0.0
  0
LINE
  5
2EB
330
208
100
AcDbEntity
  8
7_ALL_FEATURES
  6
Continuous
 62
     9
100
AcDbLine
 10
125.113572
 20
172.905326
 30
0.0
 11
41.79215
 21
172.905326
 31
0.0
  0
LINE
  5
2EC
330
208
100
AcDbEntity
  8
7_ALL_FEATURES
  6
Continuous
 62
     9
100
AcDbLine
 10
41.79215
 20
172.905326
 30
0.0
 11
41.79215
 21
89.583905
 31
0.0
  0
LINE
  5
2ED
330
208
100
AcDbEntity
  8
7_ALL_FEATURES
  6
Continuous
 62
     9
100
AcDbLine
 10
41.79215
 20
89.583905
 30
0.0
 11
125.113572
 21
89.583905
 31
0.0
  0
LINE
  5
2EE
330
208
100
AcDbEntity
  8
7_ALL_FEATURES
  6
Continuous
 62
     9
100
AcDbLine
 10
40.952861
 20
172.744616
 30
0.0
 11
41.042407
 21
172.744616
 31
0.0
  0
LINE
  5
2EF
330
208
100
AcDbEntity
  8
7_ALL_FEATURES
  6
Continuous
 62
     9
100
AcDbLine
 10
41.042407
 20
89.744616
 30
0.0
 11
40.952861
 21
89.744616
 31
0.0
  0
LINE
  5
2F0
330
208
100
AcDbEntity
  8
7_ALL_FEATURES
  6
Continuous
 62
     9
100
AcDbLine
 10
41.042407
 20
172.744616
 30
0.0
 11
41.042407
 21
89.744616
 31
0.0
  0
ARC
  5
2F1
330
208
100
AcDbEntity
  8
7_ALL_FEATURES
  6
Continuous
 62
     9
100
AcDbCircle
 10
66.458599
 20
148.238878
 30
0.0
 40
0.5189409951
100
AcDbArc
 50
109.103346
 51
160.896654
  0
ARC
  5
2F2
330
208
100
AcDbEntity
  8
7_ALL_FEATURES
  6
Continuous
 62
     9
100
AcDbCircle
 10
66.446503
 20
148.244037
 30
0.0
 40
0.5058235374
100
AcDbArc
 50
161.00049
 51
179.934502
  0
LINE
  5
2F3
330
208
100
AcDbEntity
  8
7_ALL_FEATURES
  6
Continuous
 62
     9
100
AcDbLine
 10
100.452861
 20
148.756797
 30
0.0
 11
100.452861
 21
149.291029
 31
0.0
  0
ARC
  5
2F4
330
208
100
AcDbEntity
  8
7_ALL_FEATURES
  6
Continuous
 62
     9
100
AcDbCircle
 10
66.453439
 20
148.250974
 30
0.0
 40
0.5058235374
100
AcDbArc
 50
90.065498
 51
108.99951
  0
ARC
  5
2F5
330
208
100
AcDbEntity
  8
7_ALL_FEATURES
  6
Continuous
 62
     9
100
AcDbCircle
 10
100.447123
 20
148.238878
 30
0.0
 40
0.5189409951
100
AcDbArc
 50
19.103346
 51
70.896654
  0
ARC
  5
2F6
330
208
100
AcDbEntity
  8
7_ALL_FEATURES
  6
Continuous
 62
     9
100
AcDbCircle
 10
100.452283
 20
148.250974
 30
0.0
 40
0.5058235374
100
AcDbArc
 50
71.00049
 51
89.934502
  0
SPLINE
  5
2F7
330
208
100
AcDbEntity
  8
7_ALL_FEATURES
  6
Continuous
 62
     9
100
AcDbSpline
 70
     0
 71
     3
 72
    13
 73
     9
 74
     0
 42
0.000000001
 43
0.0000001
 40
0.0
 40
0.0
 40
0.0
 40
0.0
 40
0.0310524516
 40
0.0852135736
 40
0.1664367033
 40
0.2757782039
 40
0.5802152851
 40
1.0
 40
1.0
 40
1.0
 40
1.0
 10
100.6169587751
 20
148.7292408127
 30
0.0
 10
100.6227058782
 20
148.7288792631
 30
0.0
 10
100.6374789094
 20
148.7384467676
 30
0.0
 10
100.655931113
 20
148.7624156886
 30
0.0
 10
100.6798199983
 20
148.8014658133
 30
0.0
 10
100.7212527395
 20
148.883228447
 30
0.0
 10
100.7821440309
 20
149.0255711126
 30
0.0
 10
100.8302640692
 20
149.1509095965
 30
0.0
 10
100.857416529
 20
149.2238669454
 30
0.0
  0
ARC
  5
2F8
330
208
100
AcDbEntity
  8
7_ALL_FEATURES
  6
Continuous
 62
     9
100
AcDbCircle
 10
100.459219
 20
148.244037
 30
0.0
 40
0.5058235374
100
AcDbArc
 50
0.065498
 51
18.99951
  0
ARC
  5
2F9
330
208
100
AcDbEntity
  8
7_ALL_FEATURES
  6
Continuous
 62
     9
100
AcDbCircle
 10
100.447123
 20
114.250353
 30
0.0
 40
0.5189409951
100
AcDbArc
 50
289.103346
 51
340.896654
  0
ARC
  5
2FA
330
208
100
AcDbEntity
  8
7_ALL_FEATURES
  6
Continuous
 62
     9
100
AcDbCircle
 10
100.459219
 20
114.245194
 30
0.0
 40
0.5058235374
100
AcDbArc
 50
341.00049
 51
359.934502
  0
SPLINE
  5
2FB
330
208
100
AcDbEntity
  8
7_ALL_FEATURES
  6
Continuous
 62
     9
100
AcDbSpline
 70
     0
 71
     3
 72
    13
 73
     9
 74
     0
 42
0.000000001
 43
0.0000001
 40
0.0
 40
0.0
 40
0.0
 40
0.0
 40
0.0310524516
 40
0.0852135736
 40
0.1664367033
 40
0.2757782039
 40
0.5802152851
 40
1.0
 40
1.0
 40
1.0
 40
1.0
 10
100.9374861675
 20
148.4087134204
 30
0.0
 10
100.9371246178
 20
148.4144605235
 30
0.0
 10
100.9466921223
 20
148.4292335546
 30
0.0
 10
100.9706610433
 20
148.4476857583
 30
0.0
 10
101.009711168
 20
148.4715746436
 30
0.0
 10
101.0914738017
 20
148.5130073848
 30
0.0
 10
101.2338164673
 20
148.5738986762
 30
0.0
 10
101.3591549512
 20
148.6220187145
 30
0.0
 10
101.4321123001
 20
148.6491711742
 30
0.0
  0
ARC
  5
2FC
330
208
100
AcDbEntity
  8
7_ALL_FEATURES
  6
Continuous
 62
     9
100
AcDbCircle
 10
100.452283
 20
114.238258
 30
0.0
 40
0.5058235374
100
AcDbArc
 50
270.065498
 51
288.99951
  0
ARC
  5
2FD
330
208
100
AcDbEntity
  8
7_ALL_FEATURES
  6
Continuous
 62
     9
100
AcDbCircle
 10
66.458599
 20
114.250353
 30
0.0
 40
0.5189409947
100
AcDbArc
 50
199.103346
 51
250.896654
  0
ARC
  5
2FE
330
208
100
AcDbEntity
  8
7_ALL_FEATURES
  6
Continuous
 62
     9
100
AcDbCircle
 10
66.453439
 20
114.238258
 30
0.0
 40
0.5058235374
100
AcDbArc
 50
251.00049
 51
269.934502
  0
LINE
  5
2FF
330
208
100
AcDbEntity
  8
7_ALL_FEATURES
  6
Continuous
 62
     9
100
AcDbLine
 10
100.965042
 20
148.244616
 30
0.0
 11
101.499274
 21
148.244616
 31
0.0
  0
ARC
  5
300
330
208
100
AcDbEntity
  8
7_ALL_FEATURES
  6
Continuous
 62
     9
100
AcDbCircle
 10
66.446503
 20
114.245194
 30
0.0
 40
0.5058235374
100
AcDbArc
 50
180.065498
 51
198.99951
  0
LINE
  5
301
330
208
100
AcDbEntity
  8
7_ALL_FEATURES
  6
Continuous
 62
     9
100
AcDbLine
 10
100.452861
 20
113.744616
 30
0.0
 11
100.452861
 21
113.732434
 31
0.0
  0
LINE
  5
302
330
208
100
AcDbEntity
  8
7_ALL_FEATURES
  6
Continuous
 62
     9
100
AcDbLine
 10
66.452861
 20
113.732434
 30
0.0
 11
66.452861
 21
113.744616
 31
0.0
  0
LINE
  5
303
330
208
100
AcDbEntity
  8
7_ALL_FEATURES
  6
Continuous
 62
     9
100
AcDbLine
 10
66.452861
 20
113.732434
 30
0.0
 11
100.452861
 21
113.732434
 31
0.0
  0
LINE
  5
304
330
208
100
AcDbEntity
  8
7_ALL_FEATURES
  6
Continuous
 62
     9
100
AcDbLine
 10
46.808715
 20
94.025774
 30
0.0
 11
66.048306
 21
113.265364
 31
0.0
  0
LINE
  5
305
330
208
100
AcDbEntity
  8
7_ALL_FEATURES
  6
Continuous
 62
     9
100
AcDbLine
 10
46.808715
 20
94.025774
 30
0.0
 11
120.097007
 21
94.025774
 31
0.0
  0
LINE
  5
306
330
208
100
AcDbEntity
  8
7_ALL_FEATURES
  6
Continuous
 62
     9
100
AcDbLine
 10
100.857417
 20
113.265364
 30
0.0
 11
120.097007
 21
94.025774
 31
0.0
  0
ARC
  5
307
330
208
100
AcDbEntity
  8
7_ALL_FEATURES
  6
Continuous
 62
     9
100
AcDbCircle
 10
100.452303
 20
114.453578
 30
0.0
 40
1.2553755943
100
AcDbArc
 50
270.025477
 51
288.82648
  0
LINE
  5
308
330
208
100
AcDbEntity
  8
7_ALL_FEATURES
  6
Continuous
 62
     9
100
AcDbLine
 10
66.452861
 20
113.198202
 30
0.0
 11
100.452861
 21
113.198202
 31
0.0
  0
ARC
  5
309
330
208
100
AcDbEntity
  8
7_ALL_FEATURES
  6
Continuous
 62
     9
100
AcDbCircle
 10
66.453419
 20
114.453578
 30
0.0
 40
1.2553756004
100
AcDbArc
 50
251.17352
 51
269.974523
  0
LINE
  5
30A
330
208
100
AcDbEntity
  8
7_ALL_FEATURES
  6
Continuous
 62
     9
100
AcDbLine
 10
100.952861
 20
148.244616
 30
0.0
 11
100.965042
 21
148.244616
 31
0.0
  0
LINE
  5
30B
330
208
100
AcDbEntity
  8
7_ALL_FEATURES
  6
Continuous
 62
     9
100
AcDbLine
 10
100.952861
 20
114.244616
 30
0.0
 11
100.965042
 21
114.244616
 31
0.0
  0
LINE
  5
30C
330
208
100
AcDbEntity
  8
7_ALL_FEATURES
  6
Continuous
 62
     9
100
AcDbLine
 10
100.965042
 20
114.244616
 30
0.0
 11
100.965042
 21
148.244616
 31
0.0
  0
LINE
  5
30D
330
208
100
AcDbEntity
  8
7_ALL_FEATURES
  6
Continuous
 62
     9
100
AcDbLine
 10
101.432112
 20
113.84006
 30
0.0
 11
120.671703
 21
94.60047
 31
0.0
  0
LINE
  5
30E
330
208
100
AcDbEntity
  8
7_ALL_FEATURES
  6
Continuous
 62
     9
100
AcDbLine
 10
120.671703
 20
94.60047
 30
0.0
 11
120.671703
 21
167.888762
 31
0.0
  0
LINE
  5
30F
330
208
100
AcDbEntity
  8
7_ALL_FEATURES
  6
Continuous
 62
     9
100
AcDbLine
 10
101.432112
 20
148.649171
 30
0.0
 11
120.671703
 21
167.888762
 31
0.0
  0
ARC
  5
310
330
208
100
AcDbEntity
  8
7_ALL_FEATURES
  6
Continuous
 62
     9
100
AcDbCircle
 10
100.243899
 20
148.244057
 30
0.0
 40
1.2553755943
100
AcDbArc
 50
0.025477
 51
18.82648
  0
LINE
  5
311
330
208
100
AcDbEntity
  8
7_ALL_FEATURES
  6
Continuous
 62
     9
100
AcDbLine
 10
101.499274
 20
114.244616
 30
0.0
 11
101.499274
 21
148.244616
 31
0.0
  0
ARC
  5
312
330
208
100
AcDbEntity
  8
7_ALL_FEATURES
  6
Continuous
 62
     9
100
AcDbCircle
 10
100.243899
 20
114.245174
 30
0.0
 40
1.2553756004
100
AcDbArc
 50
341.17352
 51
359.974523
  0
LINE
  5
313
330
208
100
AcDbEntity
  8
7_ALL_FEATURES
  6
Continuous
 62
     9
100
AcDbLine
 10
66.452861
 20
148.744616
 30
0.0
 11
66.452861
 21
148.756797
 31
0.0
  0
LINE
  5
314
330
208
100
AcDbEntity
  8
7_ALL_FEATURES
  6
Continuous
 62
     9
100
AcDbLine
 10
100.452861
 20
148.744616
 30
0.0
 11
100.452861
 21
148.756797
 31
0.0
  0
LINE
  5
315
330
208
100
AcDbEntity
  8
7_ALL_FEATURES
  6
Continuous
 62
     9
100
AcDbLine
 10
100.452861
 20
148.756797
 30
0.0
 11
66.452861
 21
148.756797
 31
0.0
  0
LINE
  5
316
330
208
100
AcDbEntity
  8
7_ALL_FEATURES
  6
Continuous
 62
     9
100
AcDbLine
 10
100.452861
 20
149.291029
 30
0.0
 11
66.452861
 21
149.291029
 31
0.0
  0
ARC
  5
317
330
208
100
AcDbEntity
  8
7_ALL_FEATURES
  6
Continuous
 62
     9
100
AcDbCircle
 10
100.452303
 20
148.035654
 30
0.0
 40
1.2553756004
100
AcDbArc
 50
71.17352
 51
89.974523
  0
LINE
  5
318
330
208
100
AcDbEntity
  8
7_ALL_FEATURES
  6
Continuous
 62
     9
100
AcDbLine
 10
100.857417
 20
149.223867
 30
0.0
 11
120.097007
 21
168.463458
 31
0.0
  0
LINE
  5
319
330
208
100
AcDbEntity
  8
7_ALL_FEATURES
  6
Continuous
 62
     9
100
AcDbLine
 10
120.097007
 20
168.463458
 30
0.0
 11
46.808715
 21
168.463458
 31
0.0
  0
LINE
  5
31A
330
208
100
AcDbEntity
  8
7_ALL_FEATURES
  6
Continuous
 62
     9
100
AcDbLine
 10
66.048306
 20
149.223867
 30
0.0
 11
46.808715
 21
168.463458
 31
0.0
  0
ARC
  5
31B
330
208
100
AcDbEntity
  8
7_ALL_FEATURES
  6
Continuous
 62
     9
100
AcDbCircle
 10
66.453419
 20
148.035654
 30
0.0
 40
1.2553755943
100
AcDbArc
 50
90.025477
 51
108.82648
  0
LINE
  5
31C
330
208
100
AcDbEntity
  8
7_ALL_FEATURES
  6
Continuous
 62
     9
100
AcDbLine
 10
100.965042
 20
114.244616
 30
0.0
 11
101.499274
 21
114.244616
 31
0.0
  0
SPLINE
  5
31D
330
208
100
AcDbEntity
  8
7_ALL_FEATURES
  6
Continuous
 62
     9
100
AcDbSpline
 70
     0
 71
     3
 72
    13
 73
     9
 74
     0
 42
0.000000001
 43
0.0000001
 40
0.0
 40
0.0
 40
0.0
 40
0.0
 40
0.0310524516
 40
0.0852135736
 40
0.1664367033
 40
0.2757782039
 40
0.5802152851
 40
1.0
 40
1.0
 40
1.0
 40
1.0
 10
100.9374861675
 20
114.0805179986
 30
0.0
 10
100.9371246178
 20
114.0747708954
 30
0.0
 10
100.9466921223
 20
114.0599978643
 30
0.0
 10
100.9706610433
 20
114.0415456606
 30
0.0
 10
101.009711168
 20
114.0176567754
 30
0.0
 10
101.0914738017
 20
113.9762240342
 30
0.0
 10
101.2338164673
 20
113.9153327427
 30
0.0
 10
101.3591549512
 20
113.8672127044
 30
0.0
 10
101.4321123001
 20
113.8400602447
 30
0.0
  0
SPLINE
  5
31E
330
208
100
AcDbEntity
  8
7_ALL_FEATURES
  6
Continuous
 62
     9
100
AcDbSpline
 70
     0
 71
     3
 72
    13
 73
     9
 74
     0
 42
0.000000001
 43
0.0000001
 40
0.0
 40
0.0
 40
0.0
 40
0.0
 40
0.0310524516
 40
0.0852135736
 40
0.1664367033
 40
0.2757782039
 40
0.5802152851
 40
1.0
 40
1.0
 40
1.0
 40
1.0
 10
100.6169587751
 20
113.7599906062
 30
0.0
 10
100.6227058782
 20
113.7603521558
 30
0.0
 10
100.6374789094
 20
113.7507846513
 30
0.0
 10
100.655931113
 20
113.7268157303
 30
0.0
 10
100.6798199983
 20
113.6877656056
 30
0.0
 10
100.7212527395
 20
113.606002972
 30
0.0
 10
100.7821440309
 20
113.4636603063
 30
0.0
 10
100.8302640692
 20
113.3383218224
 30
0.0
 10
100.857416529
 20
113.2653644735
 30
0.0
  0
LINE
  5
31F
330
208
100
AcDbEntity
  8
7_ALL_FEATURES
  6
Continuous
 62
     9
100
AcDbLine
 10
100.452861
 20
113.732434
 30
0.0
 11
100.452861
 21
113.198202
 31
0.0
  0
LINE
  5
320
330
208
100
AcDbEntity
  8
7_ALL_FEATURES
  6
Continuous
 62
     9
100
AcDbLine
 10
65.94068
 20
114.244616
 30
0.0
 11
65.952861
 21
114.244616
 31
0.0
  0
LINE
  5
321
330
208
100
AcDbEntity
  8
7_ALL_FEATURES
  6
Continuous
 62
     9
100
AcDbLine
 10
65.952861
 20
148.244616
 30
0.0
 11
65.94068
 21
148.244616
 31
0.0
  0
LINE
  5
322
330
208
100
AcDbEntity
  8
7_ALL_FEATURES
  6
Continuous
 62
     9
100
AcDbLine
 10
65.94068
 20
148.244616
 30
0.0
 11
65.94068
 21
114.244616
 31
0.0
  0
LINE
  5
323
330
208
100
AcDbEntity
  8
7_ALL_FEATURES
  6
Continuous
 62
     9
100
AcDbLine
 10
65.47361
 20
148.649171
 30
0.0
 11
46.234019
 21
167.888762
 31
0.0
  0
LINE
  5
324
330
208
100
AcDbEntity
  8
7_ALL_FEATURES
  6
Continuous
 62
     9
100
AcDbLine
 10
46.234019
 20
167.888762
 30
0.0
 11
46.234019
 21
94.60047
 31
0.0
  0
LINE
  5
325
330
208
100
AcDbEntity
  8
7_ALL_FEATURES
  6
Continuous
 62
     9
100
AcDbLine
 10
46.234019
 20
94.60047
 30
0.0
 11
65.47361
 21
113.84006
 31
0.0
  0
ARC
  5
326
330
208
100
AcDbEntity
  8
7_ALL_FEATURES
  6
Continuous
 62
     9
100
AcDbCircle
 10
66.661823
 20
114.245174
 30
0.0
 40
1.2553755943
100
AcDbArc
 50
180.025477
 51
198.82648
  0
LINE
  5
327
330
208
100
AcDbEntity
  8
7_ALL_FEATURES
  6
Continuous
 62
     9
100
AcDbLine
 10
65.406448
 20
148.244616
 30
0.0
 11
65.406448
 21
114.244616
 31
0.0
  0
ARC
  5
328
330
208
100
AcDbEntity
  8
7_ALL_FEATURES
  6
Continuous
 62
     9
100
AcDbCircle
 10
66.661823
 20
148.244057
 30
0.0
 40
1.2553756004
100
AcDbArc
 50
161.17352
 51
179.974523
  0
LINE
  5
329
330
208
100
AcDbEntity
  8
7_ALL_FEATURES
  6
Continuous
 62
     7
100
AcDbLine
 10
99.515838
 20
74.38332
 30
0.0
 11
99.202861
 21
74.38332
 31
0.0
  0
ARC
  5
32A
330
208
100
AcDbEntity
  8
7_ALL_FEATURES
  6
Continuous
 62
     7
100
AcDbCircle
 10
99.516144
 20
73.98332
 30
0.0
 40
0.4
100
AcDbArc
 50
1.0
 51
90.0
  0
LINE
  5
32B
330
208
100
AcDbEntity
  8
7_ALL_FEATURES
  6
Continuous
 62
     7
100
AcDbLine
 10
99.516144
 20
74.38332
 30
0.0
 11
99.202861
 21
74.38332
 31
0.0
  0
LINE
  5
32C
330
208
100
AcDbEntity
  8
7_ALL_FEATURES
  6
Continuous
 62
     7
100
AcDbLine
 10
99.202861
 20
74.38332
 30
0.0
 11
99.516144
 21
74.38332
 31
0.0
  0
ARC
  5
32D
330
208
100
AcDbEntity
  8
7_ALL_FEATURES
  6
Continuous
 62
     7
100
AcDbCircle
 10
67.389578
 20
73.98332
 30
0.0
 40
0.4
100
AcDbArc
 50
90.0
 51
179.0
  0
LINE
  5
32E
330
208
100
AcDbEntity
  8
7_ALL_FEATURES
  6
Continuous
 62
     7
100
AcDbLine
 10
67.389578
 20
74.38332
 30
0.0
 11
67.702861
 21
74.38332
 31
0.0
  0
LINE
  5
32F
330
208
100
AcDbEntity
  8
7_ALL_FEATURES
  6
Continuous
 62
     7
100
AcDbLine
 10
67.702861
 20
74.38332
 30
0.0
 11
67.389884
 21
74.38332
 31
0.0
  0
LINE
  5
330
330
208
100
AcDbEntity
  8
7_ALL_FEATURES
  6
Continuous
 62
     7
100
AcDbLine
 10
67.702861
 20
74.38332
 30
0.0
 11
67.389578
 21
74.38332
 31
0.0
  0
LINE
  5
331
330
208
100
AcDbEntity
  8
7_ALL_FEATURES
  6
Continuous
 62
     7
100
AcDbLine
 10
66.989639
 20
73.990301
 30
0.0
 11
66.97468
 21
73.13332
 31
0.0
  0
LINE
  5
332
330
208
100
AcDbEntity
  8
7_ALL_FEATURES
  6
Continuous
 62
     7
100
AcDbLine
 10
99.931042
 20
73.13332
 30
0.0
 11
99.916084
 21
73.990301
 31
0.0
  0
LINE
  5
333
330
208
100
AcDbEntity
  8
7_ALL_FEATURES
  6
Continuous
 62
     7
100
AcDbLine
 10
62.931042
 20
73.13332
 30
0.0
 11
62.916084
 21
73.990301
 31
0.0
  0
LINE
  5
334
330
208
100
AcDbEntity
  8
7_ALL_FEATURES
  6
Continuous
 62
     7
100
AcDbLine
 10
62.516144
 20
74.38332
 30
0.0
 11
61.889578
 21
74.38332
 31
0.0
  0
LINE
  5
335
330
208
100
AcDbEntity
  8
7_ALL_FEATURES
  6
Continuous
 62
     7
100
AcDbLine
 10
99.202861
 20
74.38332
 30
0.0
 11
67.702861
 21
74.38332
 31
0.0
  0
LINE
  5
336
330
208
100
AcDbEntity
  8
7_ALL_FEATURES
  6
Continuous
 62
     7
100
AcDbLine
 10
104.389578
 20
74.38332
 30
0.0
 11
105.016144
 21
74.38332
 31
0.0
  0
LINE
  5
337
330
208
100
AcDbEntity
  8
7_ALL_FEATURES
  6
Continuous
 62
     7
100
AcDbLine
 10
61.47468
 20
73.13332
 30
0.0
 11
61.489639
 21
73.990301
 31
0.0
  0
LINE
  5
338
330
208
100
AcDbEntity
  8
7_ALL_FEATURES
  6
Continuous
 62
     7
100
AcDbLine
 10
103.97468
 20
73.13332
 30
0.0
 11
103.989639
 21
73.990301
 31
0.0
  0
LINE
  5
339
330
208
100
AcDbEntity
  8
7_ALL_FEATURES
  6
Continuous
 62
     7
100
AcDbLine
 10
105.431042
 20
73.13332
 30
0.0
 11
105.416084
 21
73.990301
 31
0.0
  0
SPLINE
  5
33A
330
208
100
AcDbEntity
  8
7_ALL_FEATURES
  6
Continuous
 62
     7
100
AcDbSpline
 70
     0
 71
     3
 72
     9
 73
     5
 74
     0
 42
0.000000001
 43
0.0000001
 40
0.0
 40
0.0
 40
0.0
 40
0.0
 40
0.5
 40
1.0
 40
1.0
 40
1.0
 40
1.0
 10
41.2769464896
 20
65.0322155862
 30
0.0
 10
41.3493927951
 20
64.9723427784
 30
0.0
 10
41.521167805
 20
64.8880794759
 30
0.0
 10
41.702730891
 20
64.8833202703
 30
0.0
 10
41.7921502919
 20
64.8833202703
 30
0.0
  0
SPLINE
  5
33B
330
208
100
AcDbEntity
  8
7_ALL_FEATURES
  6
Continuous
 62
     7
100
AcDbSpline
 70
     0
 71
     3
 72
     9
 73
     5
 74
     0
 42
0.000000001
 43
0.0000001
 40
0.0
 40
0.0
 40
0.0
 40
0.0
 40
0.5
 40
1.0
 40
1.0
 40
1.0
 40
1.0
 10
125.6287756387
 20
65.0322155862
 30
0.0
 10
125.5563293333
 20
64.9723427784
 30
0.0
 10
125.3845543234
 20
64.8880794759
 30
0.0
 10
125.2029912374
 20
64.8833202703
 30
0.0
 10
125.1135718365
 20
64.8833202703
 30
0.0
  0
ARC
  5
33C
330
208
100
AcDbEntity
  8
7_ALL_FEATURES
  6
Continuous
 62
     7
100
AcDbCircle
 10
105.016144
 20
73.98332
 30
0.0
 40
0.4
100
AcDbArc
 50
1.0
 51
90.0
  0
ARC
  5
33D
330
208
100
AcDbEntity
  8
7_ALL_FEATURES
  6
Continuous
 62
     7
100
AcDbCircle
 10
104.389578
 20
73.98332
 30
0.0
 40
0.4
100
AcDbArc
 50
90.0
 51
179.0
  0
ARC
  5
33E
330
208
100
AcDbEntity
  8
7_ALL_FEATURES
  6
Continuous
 62
     7
100
AcDbCircle
 10
61.889578
 20
73.98332
 30
0.0
 40
0.4
100
AcDbArc
 50
90.0
 51
179.0
  0
ARC
  5
33F
330
208
100
AcDbEntity
  8
7_ALL_FEATURES
  6
Continuous
 62
     7
100
AcDbCircle
 10
62.516144
 20
73.98332
 30
0.0
 40
0.4
100
AcDbArc
 50
1.0
 51
90.0
  0
SPLINE
  5
340
330
208
100
AcDbEntity
  8
7_ALL_FEATURES
  6
Continuous
 62
     7
100
AcDbSpline
 70
     0
 71
     3
 72
     9
 73
     5
 74
     0
 42
0.000000001
 43
0.0000001
 40
0.0
 40
0.0
 40
0.0
 40
0.0
 40
0.5
 40
1.0
 40
1.0
 40
1.0
 40
1.0
 10
41.0424072982
 20
65.613687559
 30
0.0
 10
41.0451666619
 20
65.5083117078
 30
0.0
 10
41.0598792198
 20
65.2926696285
 30
0.0
 10
41.1915432334
 20
65.1027965872
 30
0.0
 10
41.2769464896
 20
65.0322155862
 30
0.0
  0
SPLINE
  5
341
330
208
100
AcDbEntity
  8
7_ALL_FEATURES
  6
Continuous
 62
     7
100
AcDbSpline
 70
     0
 71
     3
 72
     9
 73
     5
 74
     0
 42
0.000000001
 43
0.0000001
 40
0.0
 40
0.0
 40
0.0
 40
0.0
 40
0.5
 40
1.0
 40
1.0
 40
1.0
 40
1.0
 10
125.6287756387
 20
65.0322155862
 30
0.0
 10
125.714178895
 20
65.1027965872
 30
0.0
 10
125.8458429086
 20
65.2926696285
 30
0.0
 10
125.8605554664
 20
65.5083117078
 30
0.0
 10
125.8633148302
 20
65.613687559
 30
0.0
  0
LINE
  5
342
330
208
100
AcDbEntity
  8
6_ALL_SURFS
  6
Continuous
 62
     7
100
AcDbLine
 10
116.465783
 20
73.13332
 30
0.0
 11
115.700101
 21
73.13332
 31
0.0
  0
LINE
  5
343
330
208
100
AcDbEntity
  8
6_ALL_SURFS
  6
Continuous
 62
     7
100
AcDbLine
 10
115.700101
 20
73.13332
 30
0.0
 11
112.952861
 21
73.13332
 31
0.0
  0
LINE
  5
344
330
208
100
AcDbEntity
  8
6_ALL_SURFS
  6
Continuous
 62
     7
100
AcDbLine
 10
112.952861
 20
73.13332
 30
0.0
 11
53.952861
 21
73.13332
 31
0.0
  0
LINE
  5
345
330
208
100
AcDbEntity
  8
6_ALL_SURFS
  6
Continuous
 62
     7
100
AcDbLine
 10
53.952861
 20
73.13332
 30
0.0
 11
51.205623
 21
73.13332
 31
0.0
  0
LINE
  5
346
330
208
100
AcDbEntity
  8
6_ALL_SURFS
  6
Continuous
 62
     7
100
AcDbLine
 10
51.205623
 20
73.13332
 30
0.0
 11
50.439939
 21
73.13332
 31
0.0
  0
ARC
  5
347
330
208
100
AcDbEntity
  8
6_ALL_SURFS
  6
Continuous
 62
     7
100
AcDbCircle
 10
116.465783
 20
72.63332
 30
0.0
 40
0.5
100
AcDbArc
 50
1.5
 51
90.0
  0
ARC
  5
348
330
208
100
AcDbEntity
  8
6_ALL_SURFS
  6
Continuous
 62
     7
100
AcDbCircle
 10
50.439939
 20
72.63332
 30
0.0
 40
0.5
100
AcDbArc
 50
90.0
 51
178.5
  0
LINE
  5
349
330
208
100
AcDbEntity
  8
7_ALL_FEATURES
  6
Continuous
 62
     7
100
AcDbLine
 10
116.965611
 20
72.646409
 30
0.0
 11
117.060223
 21
69.03332
 31
0.0
  0
LINE
  5
34A
330
208
100
AcDbEntity
  8
7_ALL_FEATURES
  6
Continuous
 62
     7
100
AcDbLine
 10
124.952861
 20
69.03332
 30
0.0
 11
125.952861
 21
69.03332
 31
0.0
  0
LINE
  5
34B
330
208
100
AcDbEntity
  8
7_ALL_FEATURES
  6
Continuous
 62
     7
100
AcDbLine
 10
40.952861
 20
69.03332
 30
0.0
 11
41.952861
 21
69.03332
 31
0.0
  0
LINE
  5
34C
330
208
100
AcDbEntity
  8
7_ALL_FEATURES
  6
Continuous
 62
     7
100
AcDbLine
 10
41.042407
 20
65.613688
 30
0.0
 11
40.952861
 21
69.03332
 31
0.0
  0
LINE
  5
34D
330
208
100
AcDbEntity
  8
7_ALL_FEATURES
  6
Continuous
 62
     7
100
AcDbLine
 10
40.952861
 20
69.03332
 30
0.0
 11
41.042407
 21
65.613688
 31
0.0
  0
LINE
  5
34E
330
208
100
AcDbEntity
  8
7_ALL_FEATURES
  6
Continuous
 62
     7
100
AcDbLine
 10
49.940111
 20
72.646409
 30
0.0
 11
49.845499
 21
69.03332
 31
0.0
  0
LINE
  5
34F
330
208
100
AcDbEntity
  8
7_ALL_FEATURES
  6
Continuous
 62
     7
100
AcDbLine
 10
125.113572
 20
64.88332
 30
0.0
 11
41.79215
 21
64.88332
 31
0.0
  0
LINE
  5
350
330
208
100
AcDbEntity
  8
7_ALL_FEATURES
  6
Continuous
 62
     7
100
AcDbLine
 10
46.808715
 20
64.88332
 30
0.0
 11
46.462224
 21
64.88332
 31
0.0
  0
LINE
  5
351
330
208
100
AcDbEntity
  8
7_ALL_FEATURES
  6
Continuous
 62
     7
100
AcDbLine
 10
46.462224
 20
64.88332
 30
0.0
 11
45.659323
 21
64.88332
 31
0.0
  0
LINE
  5
352
330
208
100
AcDbEntity
  8
7_ALL_FEATURES
  6
Continuous
 62
     7
100
AcDbLine
 10
45.9518
 20
64.88332
 30
0.0
 11
46.467115
 21
64.88332
 31
0.0
  0
LINE
  5
353
330
208
100
AcDbEntity
  8
7_ALL_FEATURES
  6
Continuous
 62
     7
100
AcDbLine
 10
46.467115
 20
64.88332
 30
0.0
 11
46.808715
 21
64.88332
 31
0.0
  0
LINE
  5
354
330
208
100
AcDbEntity
  8
7_ALL_FEATURES
  6
Continuous
 62
     7
100
AcDbLine
 10
46.808715
 20
64.88332
 30
0.0
 11
120.097007
 21
64.88332
 31
0.0
  0
LINE
  5
355
330
208
100
AcDbEntity
  8
7_ALL_FEATURES
  6
Continuous
 62
     7
100
AcDbLine
 10
120.097007
 20
64.88332
 30
0.0
 11
120.443498
 21
64.88332
 31
0.0
  0
LINE
  5
356
330
208
100
AcDbEntity
  8
7_ALL_FEATURES
  6
Continuous
 62
     7
100
AcDbLine
 10
120.443498
 20
64.88332
 30
0.0
 11
120.961136
 21
64.88332
 31
0.0
  0
LINE
  5
357
330
208
100
AcDbEntity
  8
7_ALL_FEATURES
  6
Continuous
 62
     7
100
AcDbLine
 10
120.961136
 20
64.88332
 30
0.0
 11
121.246399
 21
64.88332
 31
0.0
  0
LINE
  5
358
330
208
100
AcDbEntity
  8
7_ALL_FEATURES
  6
Continuous
 62
     7
100
AcDbLine
 10
121.246399
 20
64.88332
 30
0.0
 11
120.438569
 21
64.88332
 31
0.0
  0
LINE
  5
359
330
208
100
AcDbEntity
  8
7_ALL_FEATURES
  6
Continuous
 62
     7
100
AcDbLine
 10
120.438569
 20
64.88332
 30
0.0
 11
120.097007
 21
64.88332
 31
0.0
  0
LINE
  5
35A
330
208
100
AcDbEntity
  8
7_ALL_FEATURES
  6
Continuous
 62
     7
100
AcDbLine
 10
120.097007
 20
64.88332
 30
0.0
 11
46.808715
 21
64.88332
 31
0.0
  0
LINE
  5
35B
330
208
100
AcDbEntity
  8
7_ALL_FEATURES
  6
Continuous
 62
     7
100
AcDbLine
 10
41.952861
 20
69.03332
 30
0.0
 11
124.952861
 21
69.03332
 31
0.0
  0
LINE
  5
35C
330
208
100
AcDbEntity
  8
7_ALL_FEATURES
  6
Continuous
 62
     7
100
AcDbLine
 10
125.952861
 20
69.03332
 30
0.0
 11
125.863315
 21
65.613688
 31
0.0
  0
LINE
  5
35D
330
208
100
AcDbEntity
  8
7_ALL_FEATURES
  6
Continuous
 62
     7
100
AcDbLine
 10
125.952861
 20
69.03332
 30
0.0
 11
125.863315
 21
65.613688
 31
0.0
  0
LINE
  5
35E
330
208
100
AcDbEntity
  8
7_ALL_FEATURES
  6
Continuous
 62
     9
100
AcDbLine
 10
99.202861
 20
73.990301
 30
0.0
 11
67.702861
 21
73.990301
 31
0.0
  0
LINE
  5
35F
330
208
100
AcDbEntity
  8
7_ALL_FEATURES
  6
Continuous
 62
     9
100
AcDbLine
 10
99.202861
 20
73.13332
 30
0.0
 11
99.202861
 21
73.990301
 31
0.0
  0
LINE
  5
360
330
208
100
AcDbEntity
  8
7_ALL_FEATURES
  6
Continuous
 62
     9
100
AcDbLine
 10
67.702861
 20
73.990301
 30
0.0
 11
67.702861
 21
73.13332
 31
0.0
  0
ARC
  5
361
330
208
100
AcDbEntity
  8
7_ALL_FEATURES
  6
Continuous
 62
     9
100
AcDbCircle
 10
117.495437
 20
69.040857
 30
0.0
 40
1.1704458247
100
AcDbArc
 50
175.633861
 51
180.437758
  0
ARC
  5
362
330
208
100
AcDbEntity
  8
7_ALL_FEATURES
  6
Continuous
 62
     9
100
AcDbCircle
 10
117.025701
 20
69.401706
 30
0.0
 40
1.7582725682
100
AcDbArc
 50
188.890777
 51
192.140832
  0
ARC
  5
363
330
208
100
AcDbEntity
  8
7_ALL_FEATURES
  6
Continuous
 62
     9
100
AcDbCircle
 10
49.880002
 20
69.401716
 30
0.0
 40
1.7582930826
100
AcDbArc
 50
347.859002
 51
351.109021
  0
ARC
  5
364
330
208
100
AcDbEntity
  8
7_ALL_FEATURES
  6
Continuous
 62
     9
100
AcDbCircle
 10
49.410277
 20
69.04086
 30
0.0
 40
1.1704538382
100
AcDbArc
 50
359.562112
 51
4.365978
  0
LINE
  5
365
330
208
100
AcDbEntity
  8
7_ALL_FEATURES
  6
Continuous
 62
     9
100
AcDbLine
 10
99.202861
 20
73.990301
 30
0.0
 11
99.202861
 21
74.38332
 31
0.0
  0
LINE
  5
366
330
208
100
AcDbEntity
  8
7_ALL_FEATURES
  6
Continuous
 62
     9
100
AcDbLine
 10
67.702861
 20
73.990301
 30
0.0
 11
67.702861
 21
74.38332
 31
0.0
  0
LINE
  5
367
330
208
100
AcDbEntity
  8
7_ALL_FEATURES
  6
Continuous
 62
     9
100
AcDbLine
 10
99.916084
 20
73.990301
 30
0.0
 11
99.202861
 21
73.990301
 31
0.0
  0
SPLINE
  5
368
330
208
100
AcDbEntity
  8
7_ALL_FEATURES
  6
Continuous
 62
     7
100
AcDbSpline
 70
     0
 71
     3
 72
    13
 73
     9
 74
     0
 42
0.000000001
 43
0.0000001
 40
0.0
 40
0.0
 40
0.0
 40
0.0
 40
0.2270645226
 40
0.3508317573
 40
0.4779390885
 40
0.6071824843
 40
0.7376594042
 40
1.0
 40
1.0
 40
1.0
 40
1.0
 10
41.2769464896
 20
65.0322155862
 30
0.0
 10
41.3283858094
 20
65.0760694585
 30
0.0
 10
41.4077887534
 20
65.143964427
 30
0.0
 10
41.5201871616
 20
65.2312462964
 30
0.0
 10
41.6111171274
 20
65.2985905508
 30
0.0
 10
41.7023976607
 20
65.3688528186
 30
0.0
 10
41.8201347168
 20
65.470408303
 30
0.0
 10
41.9017333664
 20
65.5546527478
 30
0.0
 10
41.9528610642
 20
65.613687559
 30
0.0
  0
SPLINE
  5
369
330
208
100
AcDbEntity
  8
7_ALL_FEATURES
  6
Continuous
 62
     7
100
AcDbSpline
 70
     0
 71
     3
 72
    13
 73
     9
 74
     0
 42
0.000000001
 43
0.0000001
 40
0.0
 40
0.0
 40
0.0
 40
0.0
 40
0.2623405958
 40
0.3928175157
 40
0.5220609115
 40
0.6491682427
 40
0.7729354774
 40
1.0
 40
1.0
 40
1.0
 40
1.0
 10
124.9528610642
 20
65.613687559
 30
0.0
 10
125.003988762
 20
65.5546527478
 30
0.0
 10
125.0855874116
 20
65.470408303
 30
0.0
 10
125.2033244677
 20
65.3688528186
 30
0.0
 10
125.2946050009
 20
65.2985905508
 30
0.0
 10
125.3855349668
 20
65.2312462964
 30
0.0
 10
125.497933375
 20
65.143964427
 30
0.0
 10
125.577336319
 20
65.0760694585
 30
0.0
 10
125.6287756387
 20
65.0322155862
 30
0.0
  0
LINE
  5
36A
330
208
100
AcDbEntity
  8
7_ALL_FEATURES
  6
Continuous
 62
     9
100
AcDbLine
 10
103.989639
 20
73.990301
 30
0.0
 11
105.416084
 21
73.990301
 31
0.0
  0
LINE
  5
36B
330
208
100
AcDbEntity
  8
7_ALL_FEATURES
  6
Continuous
 62
     9
100
AcDbLine
 10
67.702861
 20
73.990301
 30
0.0
 11
66.989639
 21
73.990301
 31
0.0
  0
LINE
  5
36C
330
208
100
AcDbEntity
  8
7_ALL_FEATURES
  6
Continuous
 62
     9
100
AcDbLine
 10
62.916084
 20
73.990301
 30
0.0
 11
61.489639
 21
73.990301
 31
0.0
  0
LINE
  5
36D
330
208
100
AcDbEntity
  8
6_ALL_SURFS
  6
Continuous
 62
     9
100
AcDbLine
 10
112.952861
 20
72.646409
 30
0.0
 11
112.952861
 21
73.13332
 31
0.0
  0
LINE
  5
36E
330
208
100
AcDbEntity
  8
6_ALL_SURFS
  6
Continuous
 62
     9
100
AcDbLine
 10
53.952861
 20
72.646409
 30
0.0
 11
53.952861
 21
73.13332
 31
0.0
  0
SPLINE
  5
36F
330
208
100
AcDbEntity
  8
7_ALL_FEATURES
  6
Continuous
 62
     9
100
AcDbSpline
 70
     0
 71
     3
 72
     9
 73
     5
 74
     0
 42
0.000000001
 43
0.0000001
 40
0.0
 40
0.0
 40
0.0
 40
0.0
 40
0.2836602736
 40
1.0
 40
1.0
 40
1.0
 40
1.0
 10
115.2885544914
 20
69.1299628631
 30
0.0
 10
115.3844436926
 20
69.1549708504
 30
0.0
 10
115.7250455365
 20
69.2261034094
 30
0.0
 10
116.0938690419
 20
69.2172993759
 30
0.0
 10
116.3283874977
 20
69.1299628631
 30
0.0
  0
LINE
  5
370
330
208
100
AcDbEntity
  8
7_ALL_FEATURES
  6
Continuous
 62
     9
100
AcDbLine
 10
116.328387
 20
69.129963
 30
0.0
 11
116.603511
 21
69.027504
 31
0.0
  0
LINE
  5
371
330
208
100
AcDbEntity
  8
7_ALL_FEATURES
  6
Continuous
 62
     9
100
AcDbLine
 10
116.328387
 20
69.129963
 30
0.0
 11
116.587891
 21
69.03332
 31
0.0
  0
LINE
  5
372
330
208
100
AcDbEntity
  8
6_ALL_SURFS
  6
Continuous
 62
     9
100
AcDbLine
 10
116.965611
 20
72.646409
 30
0.0
 11
112.952861
 21
72.646409
 31
0.0
  0
SPLINE
  5
373
330
208
100
AcDbEntity
  8
7_ALL_FEATURES
  6
Continuous
 62
     9
100
AcDbSpline
 70
     0
 71
     3
 72
     9
 73
     5
 74
     0
 42
0.000000001
 43
0.0000001
 40
0.0
 40
0.0
 40
0.0
 40
0.0
 40
0.2569287091
 40
1.0
 40
1.0
 40
1.0
 40
1.0
 10
114.8331943108
 20
69.0270722673
 30
0.0
 10
114.8724481154
 20
69.0346851707
 30
0.0
 10
115.0250053784
 20
69.0654491219
 30
0.0
 10
115.1766530783
 20
69.1007866679
 30
0.0
 10
115.2885544914
 20
69.1299628631
 30
0.0
  0
LINE
  5
374
330
208
100
AcDbEntity
  8
7_ALL_FEATURES
  6
Continuous
 62
     9
100
AcDbLine
 10
112.952861
 20
72.646409
 30
0.0
 11
112.952861
 21
69.03332
 31
0.0
  0
LINE
  5
375
330
208
100
AcDbEntity
  8
6_ALL_SURFS
  6
Continuous
 62
     9
100
AcDbLine
 10
112.952861
 20
72.646409
 30
0.0
 11
53.952861
 21
72.646409
 31
0.0
  0
LINE
  5
376
330
208
100
AcDbEntity
  8
7_ALL_FEATURES
  6
Continuous
 62
     9
100
AcDbLine
 10
53.952861
 20
72.646409
 30
0.0
 11
53.952861
 21
69.03332
 31
0.0
  0
SPLINE
  5
377
330
208
100
AcDbEntity
  8
7_ALL_FEATURES
  6
Continuous
 62
     9
100
AcDbSpline
 70
     0
 71
     3
 72
    10
 73
     6
 74
     0
 42
0.000000001
 43
0.0000001
 40
0.0
 40
0.0
 40
0.0
 40
0.0
 40
0.219276037
 40
0.5850645401
 40
1.0
 40
1.0
 40
1.0
 40
1.0
 10
50.5773346306
 20
69.1299628631
 30
0.0
 10
50.6495325638
 20
69.1568520764
 30
0.0
 10
50.8500571113
 20
69.2083356412
 30
0.0
 10
51.20474481
 20
69.216641137
 30
0.0
 10
51.4760980515
 20
69.1667514727
 30
0.0
 10
51.617167637
 20
69.1299628631
 30
0.0
  0
SPLINE
  5
378
330
208
100
AcDbEntity
  8
7_ALL_FEATURES
  6
Continuous
 62
     9
100
AcDbSpline
 70
     0
 71
     3
 72
     9
 73
     5
 74
     0
 42
0.000000001
 43
0.0000001
 40
0.0
 40
0.0
 40
0.0
 40
0.0
 40
0.2428792979
 40
1.0
 40
1.0
 40
1.0
 40
1.0
 10
51.617167637
 20
69.1299628631
 30
0.0
 10
51.6535654348
 20
69.1204725893
 30
0.0
 10
51.8037584205
 20
69.0826831184
 30
0.0
 10
51.9551899444
 20
69.049861243
 30
0.0
 10
52.0702939513
 20
69.0275039137
 30
0.0
  0
LINE
  5
379
330
208
100
AcDbEntity
  8
6_ALL_SURFS
  6
Continuous
 62
     9
100
AcDbLine
 10
53.952861
 20
72.646409
 30
0.0
 11
49.940111
 21
72.646409
 31
0.0
  0
LINE
  5
37A
330
208
100
AcDbEntity
  8
7_ALL_FEATURES
  6
Continuous
 62
     9
100
AcDbLine
 10
50.301049
 20
69.027072
 30
0.0
 11
50.577335
 21
69.129963
 31
0.0
  0
LINE
  5
37B
330
208
100
AcDbEntity
  8
7_ALL_FEATURES
  6
Continuous
 62
     9
100
AcDbLine
 10
50.317829
 20
69.03332
 30
0.0
 11
50.577335
 21
69.129963
 31
0.0
  0
LINE
  5
37C
330
208
100
AcDbEntity
  8
7_ALL_FEATURES
  6
Continuous
 62
     9
100
AcDbLine
 10
124.952861
 20
65.613688
 30
0.0
 11
41.952861
 21
65.613688
 31
0.0
  0
LINE
  5
37D
330
208
100
AcDbEntity
  8
7_ALL_FEATURES
  6
Continuous
 62
     9
100
AcDbLine
 10
41.952861
 20
69.03332
 30
0.0
 11
41.952861
 21
65.613688
 31
0.0
  0
LINE
  5
37E
330
208
100
AcDbEntity
  8
7_ALL_FEATURES
  6
Continuous
 62
     9
100
AcDbLine
 10
124.952861
 20
69.03332
 30
0.0
 11
124.952861
 21
65.613688
 31
0.0
  0
LINE
  5
37F
330
208
100
AcDbEntity
  8
7_ALL_FEATURES
  6
Continuous
 62
     7
100
AcDbLine
 10
223.023113
 20
74.38332
 30
0.0
 11
222.710135
 21
74.38332
 31
0.0
  0
ARC
  5
380
330
208
100
AcDbEntity
  8
7_ALL_FEATURES
  6
Continuous
 62
     7
100
AcDbCircle
 10
223.023419
 20
73.98332
 30
0.0
 40
0.4
100
AcDbArc
 50
1.0
 51
90.0
  0
LINE
  5
381
330
208
100
AcDbEntity
  8
7_ALL_FEATURES
  6
Continuous
 62
     7
100
AcDbLine
 10
223.023419
 20
74.38332
 30
0.0
 11
222.710135
 21
74.38332
 31
0.0
  0
LINE
  5
382
330
208
100
AcDbEntity
  8
7_ALL_FEATURES
  6
Continuous
 62
     7
100
AcDbLine
 10
222.710135
 20
74.38332
 30
0.0
 11
223.023419
 21
74.38332
 31
0.0
  0
ARC
  5
383
330
208
100
AcDbEntity
  8
7_ALL_FEATURES
  6
Continuous
 62
     7
100
AcDbCircle
 10
190.896852
 20
73.98332
 30
0.0
 40
0.4
100
AcDbArc
 50
90.0
 51
179.0
  0
LINE
  5
384
330
208
100
AcDbEntity
  8
7_ALL_FEATURES
  6
Continuous
 62
     7
100
AcDbLine
 10
191.210135
 20
74.38332
 30
0.0
 11
190.897158
 21
74.38332
 31
0.0
  0
LINE
  5
385
330
208
100
AcDbEntity
  8
7_ALL_FEATURES
  6
Continuous
 62
     7
100
AcDbLine
 10
190.896852
 20
74.38332
 30
0.0
 11
191.210135
 21
74.38332
 31
0.0
  0
LINE
  5
386
330
208
100
AcDbEntity
  8
7_ALL_FEATURES
  6
Continuous
 62
     7
100
AcDbLine
 10
191.210135
 20
74.38332
 30
0.0
 11
190.896852
 21
74.38332
 31
0.0
  0
LINE
  5
387
330
208
100
AcDbEntity
  8
7_ALL_FEATURES
  6
Continuous
 62
     7
100
AcDbLine
 10
190.481954
 20
73.13332
 30
0.0
 11
190.496913
 21
73.990301
 31
0.0
  0
LINE
  5
388
330
208
100
AcDbEntity
  8
7_ALL_FEATURES
  6
Continuous
 62
     7
100
AcDbLine
 10
223.438317
 20
73.13332
 30
0.0
 11
223.423358
 21
73.990301
 31
0.0
  0
LINE
  5
389
330
208
100
AcDbEntity
  8
7_ALL_FEATURES
  6
Continuous
 62
     7
100
AcDbLine
 10
185.396852
 20
74.38332
 30
0.0
 11
186.023419
 21
74.38332
 31
0.0
  0
LINE
  5
38A
330
208
100
AcDbEntity
  8
7_ALL_FEATURES
  6
Continuous
 62
     7
100
AcDbLine
 10
222.710135
 20
74.38332
 30
0.0
 11
191.210135
 21
74.38332
 31
0.0
  0
LINE
  5
38B
330
208
100
AcDbEntity
  8
7_ALL_FEATURES
  6
Continuous
 62
     7
100
AcDbLine
 10
228.523419
 20
74.38332
 30
0.0
 11
227.896852
 21
74.38332
 31
0.0
  0
LINE
  5
38C
330
208
100
AcDbEntity
  8
7_ALL_FEATURES
  6
Continuous
 62
     7
100
AcDbLine
 10
227.496913
 20
73.990301
 30
0.0
 11
227.481954
 21
73.13332
 31
0.0
  0
LINE
  5
38D
330
208
100
AcDbEntity
  8
7_ALL_FEATURES
  6
Continuous
 62
     7
100
AcDbLine
 10
228.923358
 20
73.990301
 30
0.0
 11
228.938317
 21
73.13332
 31
0.0
  0
SPLINE
  5
38E
330
208
100
AcDbEntity
  8
7_ALL_FEATURES
  6
Continuous
 62
     7
100
AcDbSpline
 70
     0
 71
     3
 72
     9
 73
     5
 74
     0
 42
0.000000001
 43
0.0000001
 40
0.0
 40
0.0
 40
0.0
 40
0.0
 40
0.5
 40
1.0
 40
1.0
 40
1.0
 40
1.0
 10
249.1360500475
 20
65.0322155862
 30
0.0
 10
249.0636037421
 20
64.9723427784
 30
0.0
 10
248.8918287322
 20
64.8880794759
 30
0.0
 10
248.7102656462
 20
64.8833202703
 30
0.0
 10
248.6208462453
 20
64.8833202703
 30
0.0
  0
SPLINE
  5
38F
330
208
100
AcDbEntity
  8
7_ALL_FEATURES
  6
Continuous
 62
     7
100
AcDbSpline
 70
     0
 71
     3
 72
     9
 73
     5
 74
     0
 42
0.000000001
 43
0.0000001
 40
0.0
 40
0.0
 40
0.0
 40
0.0
 40
0.5
 40
1.0
 40
1.0
 40
1.0
 40
1.0
 10
164.7842208984
 20
65.0322155862
 30
0.0
 10
164.8566672038
 20
64.9723427784
 30
0.0
 10
165.0284422138
 20
64.8880794759
 30
0.0
 10
165.2100052998
 20
64.8833202703
 30
0.0
 10
165.2994247007
 20
64.8833202703
 30
0.0
  0
LINE
  5
390
330
208
100
AcDbEntity
  8
7_ALL_FEATURES
  6
Continuous
 62
     7
100
AcDbLine
 10
186.423358
 20
73.990301
 30
0.0
 11
186.438317
 21
73.13332
 31
0.0
  0
LINE
  5
391
330
208
100
AcDbEntity
  8
7_ALL_FEATURES
  6
Continuous
 62
     7
100
AcDbLine
 10
184.996913
 20
73.990301
 30
0.0
 11
184.981954
 21
73.13332
 31
0.0
  0
ARC
  5
392
330
208
100
AcDbEntity
  8
7_ALL_FEATURES
  6
Continuous
 62
     7
100
AcDbCircle
 10
227.896852
 20
73.98332
 30
0.0
 40
0.4
100
AcDbArc
 50
90.0
 51
179.0
  0
ARC
  5
393
330
208
100
AcDbEntity
  8
7_ALL_FEATURES
  6
Continuous
 62
     7
100
AcDbCircle
 10
228.523419
 20
73.98332
 30
0.0
 40
0.4
100
AcDbArc
 50
1.0
 51
90.0
  0
ARC
  5
394
330
208
100
AcDbEntity
  8
7_ALL_FEATURES
  6
Continuous
 62
     7
100
AcDbCircle
 10
186.023419
 20
73.98332
 30
0.0
 40
0.4
100
AcDbArc
 50
1.0
 51
90.0
  0
ARC
  5
395
330
208
100
AcDbEntity
  8
7_ALL_FEATURES
  6
Continuous
 62
     7
100
AcDbCircle
 10
185.396852
 20
73.98332
 30
0.0
 40
0.4
100
AcDbArc
 50
90.0
 51
179.0
  0
SPLINE
  5
396
330
208
100
AcDbEntity
  8
7_ALL_FEATURES
  6
Continuous
 62
     7
100
AcDbSpline
 70
     0
 71
     3
 72
     9
 73
     5
 74
     0
 42
0.000000001
 43
0.0000001
 40
0.0
 40
0.0
 40
0.0
 40
0.0
 40
0.5
 40
1.0
 40
1.0
 40
1.0
 40
1.0
 10
164.5496817069
 20
65.613687559
 30
0.0
 10
164.5524410707
 20
65.5083117078
 30
0.0
 10
164.5671536286
 20
65.2926696285
 30
0.0
 10
164.6988176422
 20
65.1027965872
 30
0.0
 10
164.7842208984
 20
65.0322155862
 30
0.0
  0
SPLINE
  5
397
330
208
100
AcDbEntity
  8
7_ALL_FEATURES
  6
Continuous
 62
     7
100
AcDbSpline
 70
     0
 71
     3
 72
     9
 73
     5
 74
     0
 42
0.000000001
 43
0.0000001
 40
0.0
 40
0.0
 40
0.0
 40
0.0
 40
0.5
 40
1.0
 40
1.0
 40
1.0
 40
1.0
 10
249.1360500475
 20
65.0322155862
 30
0.0
 10
249.2214533038
 20
65.1027965872
 30
0.0
 10
249.3531173174
 20
65.2926696285
 30
0.0
 10
249.3678298752
 20
65.5083117078
 30
0.0
 10
249.370589239
 20
65.613687559
 30
0.0
  0
LINE
  5
398
330
208
100
AcDbEntity
  8
6_ALL_SURFS
  6
Continuous
 62
     7
100
AcDbLine
 10
239.973057
 20
73.13332
 30
0.0
 11
239.207376
 21
73.13332
 31
0.0
  0
LINE
  5
399
330
208
100
AcDbEntity
  8
6_ALL_SURFS
  6
Continuous
 62
     7
100
AcDbLine
 10
239.207376
 20
73.13332
 30
0.0
 11
236.460135
 21
73.13332
 31
0.0
  0
LINE
  5
39A
330
208
100
AcDbEntity
  8
6_ALL_SURFS
  6
Continuous
 62
     7
100
AcDbLine
 10
236.460135
 20
73.13332
 30
0.0
 11
177.460135
 21
73.13332
 31
0.0
  0
LINE
  5
39B
330
208
100
AcDbEntity
  8
6_ALL_SURFS
  6
Continuous
 62
     7
100
AcDbLine
 10
177.460135
 20
73.13332
 30
0.0
 11
174.712895
 21
73.13332
 31
0.0
  0
LINE
  5
39C
330
208
100
AcDbEntity
  8
6_ALL_SURFS
  6
Continuous
 62
     7
100
AcDbLine
 10
174.712895
 20
73.13332
 30
0.0
 11
173.947214
 21
73.13332
 31
0.0
  0
ARC
  5
39D
330
208
100
AcDbEntity
  8
6_ALL_SURFS
  6
Continuous
 62
     7
100
AcDbCircle
 10
239.973057
 20
72.63332
 30
0.0
 40
0.5
100
AcDbArc
 50
1.5
 51
90.0
  0
ARC
  5
39E
330
208
100
AcDbEntity
  8
6_ALL_SURFS
  6
Continuous
 62
     7
100
AcDbCircle
 10
173.947214
 20
72.63332
 30
0.0
 40
0.5
100
AcDbArc
 50
90.0
 51
178.5
  0
LINE
  5
39F
330
208
100
AcDbEntity
  8
7_ALL_FEATURES
  6
Continuous
 62
     7
100
AcDbLine
 10
240.472886
 20
72.646409
 30
0.0
 11
240.567498
 21
69.03332
 31
0.0
  0
LINE
  5
3A0
330
208
100
AcDbEntity
  8
7_ALL_FEATURES
  6
Continuous
 62
     7
100
AcDbLine
 10
248.460135
 20
69.03332
 30
0.0
 11
249.460135
 21
69.03332
 31
0.0
  0
LINE
  5
3A1
330
208
100
AcDbEntity
  8
7_ALL_FEATURES
  6
Continuous
 62
     7
100
AcDbLine
 10
164.460135
 20
69.03332
 30
0.0
 11
165.460135
 21
69.03332
 31
0.0
  0
LINE
  5
3A2
330
208
100
AcDbEntity
  8
7_ALL_FEATURES
  6
Continuous
 62
     7
100
AcDbLine
 10
165.460135
 20
69.03332
 30
0.0
 11
248.460135
 21
69.03332
 31
0.0
  0
LINE
  5
3A3
330
208
100
AcDbEntity
  8
7_ALL_FEATURES
  6
Continuous
 62
     7
100
AcDbLine
 10
248.620846
 20
64.88332
 30
0.0
 11
165.299425
 21
64.88332
 31
0.0
  0
LINE
  5
3A4
330
208
100
AcDbEntity
  8
7_ALL_FEATURES
  6
Continuous
 62
     7
100
AcDbLine
 10
244.753673
 20
64.88332
 30
0.0
 11
243.945844
 21
64.88332
 31
0.0
  0
LINE
  5
3A5
330
208
100
AcDbEntity
  8
7_ALL_FEATURES
  6
Continuous
 62
     7
100
AcDbLine
 10
243.945844
 20
64.88332
 30
0.0
 11
243.604282
 21
64.88332
 31
0.0
  0
LINE
  5
3A6
330
208
100
AcDbEntity
  8
7_ALL_FEATURES
  6
Continuous
 62
     7
100
AcDbLine
 10
243.604282
 20
64.88332
 30
0.0
 11
170.315989
 21
64.88332
 31
0.0
  0
LINE
  5
3A7
330
208
100
AcDbEntity
  8
7_ALL_FEATURES
  6
Continuous
 62
     7
100
AcDbLine
 10
170.315989
 20
64.88332
 30
0.0
 11
169.969546
 21
64.88332
 31
0.0
  0
LINE
  5
3A8
330
208
100
AcDbEntity
  8
7_ALL_FEATURES
  6
Continuous
 62
     7
100
AcDbLine
 10
169.969546
 20
64.88332
 30
0.0
 11
169.166598
 21
64.88332
 31
0.0
  0
LINE
  5
3A9
330
208
100
AcDbEntity
  8
7_ALL_FEATURES
  6
Continuous
 62
     7
100
AcDbLine
 10
169.459102
 20
64.88332
 30
0.0
 11
169.974427
 21
64.88332
 31
0.0
  0
LINE
  5
3AA
330
208
100
AcDbEntity
  8
7_ALL_FEATURES
  6
Continuous
 62
     7
100
AcDbLine
 10
169.974427
 20
64.88332
 30
0.0
 11
170.315989
 21
64.88332
 31
0.0
  0
LINE
  5
3AB
330
208
100
AcDbEntity
  8
7_ALL_FEATURES
  6
Continuous
 62
     7
100
AcDbLine
 10
170.315989
 20
64.88332
 30
0.0
 11
243.604282
 21
64.88332
 31
0.0
  0
LINE
  5
3AC
330
208
100
AcDbEntity
  8
7_ALL_FEATURES
  6
Continuous
 62
     7
100
AcDbLine
 10
243.604282
 20
64.88332
 30
0.0
 11
243.950773
 21
64.88332
 31
0.0
  0
LINE
  5
3AD
330
208
100
AcDbEntity
  8
7_ALL_FEATURES
  6
Continuous
 62
     7
100
AcDbLine
 10
243.950773
 20
64.88332
 30
0.0
 11
244.46841
 21
64.88332
 31
0.0
  0
LINE
  5
3AE
330
208
100
AcDbEntity
  8
7_ALL_FEATURES
  6
Continuous
 62
     7
100
AcDbLine
 10
244.46841
 20
64.88332
 30
0.0
 11
244.753673
 21
64.88332
 31
0.0
  0
LINE
  5
3AF
330
208
100
AcDbEntity
  8
7_ALL_FEATURES
  6
Continuous
 62
     7
100
AcDbLine
 10
173.352773
 20
69.03332
 30
0.0
 11
173.447385
 21
72.646409
 31
0.0
  0
LINE
  5
3B0
330
208
100
AcDbEntity
  8
7_ALL_FEATURES
  6
Continuous
 62
     7
100
AcDbLine
 10
249.460135
 20
69.03332
 30
0.0
 11
249.370589
 21
65.613688
 31
0.0
  0
LINE
  5
3B1
330
208
100
AcDbEntity
  8
7_ALL_FEATURES
  6
Continuous
 62
     7
100
AcDbLine
 10
249.460135
 20
69.03332
 30
0.0
 11
249.370589
 21
65.613688
 31
0.0
  0
LINE
  5
3B2
330
208
100
AcDbEntity
  8
7_ALL_FEATURES
  6
Continuous
 62
     7
100
AcDbLine
 10
164.460135
 20
69.03332
 30
0.0
 11
164.549682
 21
65.613688
 31
0.0
  0
LINE
  5
3B3
330
208
100
AcDbEntity
  8
7_ALL_FEATURES
  6
Continuous
 62
     7
100
AcDbLine
 10
164.549682
 20
65.613688
 30
0.0
 11
164.460135
 21
69.03332
 31
0.0
  0
ARC
  5
3B4
330
208
100
AcDbEntity
  8
7_ALL_FEATURES
  6
Continuous
 62
     9
100
AcDbCircle
 10
173.387276
 20
69.401716
 30
0.0
 40
1.7582930593
100
AcDbArc
 50
347.859003
 51
351.109022
  0
ARC
  5
3B5
330
208
100
AcDbEntity
  8
7_ALL_FEATURES
  6
Continuous
 62
     9
100
AcDbCircle
 10
172.917552
 20
69.04086
 30
0.0
 40
1.1704538321
100
AcDbArc
 50
359.562112
 51
4.365978
  0
ARC
  5
3B6
330
208
100
AcDbEntity
  8
7_ALL_FEATURES
  6
Continuous
 62
     9
100
AcDbCircle
 10
241.002711
 20
69.040857
 30
0.0
 40
1.1704458247
100
AcDbArc
 50
175.633861
 51
180.437758
  0
ARC
  5
3B7
330
208
100
AcDbEntity
  8
7_ALL_FEATURES
  6
Continuous
 62
     9
100
AcDbCircle
 10
240.532973
 20
69.401705
 30
0.0
 40
1.7582699039
100
AcDbArc
 50
188.89075
 51
192.140811
  0
LINE
  5
3B8
330
208
100
AcDbEntity
  8
7_ALL_FEATURES
  6
Continuous
 62
     9
100
AcDbLine
 10
223.423358
 20
73.990301
 30
0.0
 11
222.710135
 21
73.990301
 31
0.0
  0
LINE
  5
3B9
330
208
100
AcDbEntity
  8
7_ALL_FEATURES
  6
Continuous
 62
     9
100
AcDbLine
 10
222.710135
 20
73.990301
 30
0.0
 11
222.710135
 21
74.38332
 31
0.0
  0
LINE
  5
3BA
330
208
100
AcDbEntity
  8
7_ALL_FEATURES
  6
Continuous
 62
     9
100
AcDbLine
 10
191.210135
 20
73.990301
 30
0.0
 11
191.210135
 21
74.38332
 31
0.0
  0
SPLINE
  5
3BB
330
208
100
AcDbEntity
  8
7_ALL_FEATURES
  6
Continuous
 62
     7
100
AcDbSpline
 70
     0
 71
     3
 72
    13
 73
     9
 74
     0
 42
0.000000001
 43
0.0000001
 40
0.0
 40
0.0
 40
0.0
 40
0.0
 40
0.2270645226
 40
0.3508317573
 40
0.4779390885
 40
0.6071824843
 40
0.7376594042
 40
1.0
 40
1.0
 40
1.0
 40
1.0
 10
164.7842208984
 20
65.0322155862
 30
0.0
 10
164.8356602182
 20
65.0760694585
 30
0.0
 10
164.9150631622
 20
65.143964427
 30
0.0
 10
165.0274615704
 20
65.2312462964
 30
0.0
 10
165.1183915362
 20
65.2985905508
 30
0.0
 10
165.2096720695
 20
65.3688528186
 30
0.0
 10
165.3274091256
 20
65.470408303
 30
0.0
 10
165.4090077752
 20
65.5546527478
 30
0.0
 10
165.460135473
 20
65.613687559
 30
0.0
  0
SPLINE
  5
3BC
330
208
100
AcDbEntity
  8
7_ALL_FEATURES
  6
Continuous
 62
     7
100
AcDbSpline
 70
     0
 71
     3
 72
    13
 73
     9
 74
     0
 42
0.000000001
 43
0.0000001
 40
0.0
 40
0.0
 40
0.0
 40
0.0
 40
0.2623405958
 40
0.3928175157
 40
0.5220609115
 40
0.6491682427
 40
0.7729354774
 40
1.0
 40
1.0
 40
1.0
 40
1.0
 10
248.460135473
 20
65.613687559
 30
0.0
 10
248.5112631708
 20
65.5546527478
 30
0.0
 10
248.5928618204
 20
65.470408303
 30
0.0
 10
248.7105988765
 20
65.3688528186
 30
0.0
 10
248.8018794097
 20
65.2985905508
 30
0.0
 10
248.8928093756
 20
65.2312462964
 30
0.0
 10
249.0052077838
 20
65.143964427
 30
0.0
 10
249.0846107277
 20
65.0760694585
 30
0.0
 10
249.1360500475
 20
65.0322155862
 30
0.0
  0
LINE
  5
3BD
330
208
100
AcDbEntity
  8
7_ALL_FEATURES
  6
Continuous
 62
     9
100
AcDbLine
 10
228.923358
 20
73.990301
 30
0.0
 11
227.496913
 21
73.990301
 31
0.0
  0
LINE
  5
3BE
330
208
100
AcDbEntity
  8
7_ALL_FEATURES
  6
Continuous
 62
     9
100
AcDbLine
 10
184.996913
 20
73.990301
 30
0.0
 11
186.423358
 21
73.990301
 31
0.0
  0
LINE
  5
3BF
330
208
100
AcDbEntity
  8
7_ALL_FEATURES
  6
Continuous
 62
     9
100
AcDbLine
 10
191.210135
 20
73.990301
 30
0.0
 11
190.496913
 21
73.990301
 31
0.0
  0
LINE
  5
3C0
330
208
100
AcDbEntity
  8
6_ALL_SURFS
  6
Continuous
 62
     9
100
AcDbLine
 10
236.460135
 20
72.646409
 30
0.0
 11
236.460135
 21
73.13332
 31
0.0
  0
LINE
  5
3C1
330
208
100
AcDbEntity
  8
6_ALL_SURFS
  6
Continuous
 62
     9
100
AcDbLine
 10
177.460135
 20
72.646409
 30
0.0
 11
177.460135
 21
73.13332
 31
0.0
  0
SPLINE
  5
3C2
330
208
100
AcDbEntity
  8
7_ALL_FEATURES
  6
Continuous
 62
     9
100
AcDbSpline
 70
     0
 71
     3
 72
     9
 73
     5
 74
     0
 42
0.000000001
 43
0.0000001
 40
0.0
 40
0.0
 40
0.0
 40
0.0
 40
0.2836585012
 40
1.0
 40
1.0
 40
1.0
 40
1.0
 10
238.7958289002
 20
69.1299628631
 30
0.0
 10
238.8917175014
 20
69.1549707123
 30
0.0
 10
239.2323192257
 20
69.2261040659
 30
0.0
 10
239.6011427903
 20
69.2172994035
 30
0.0
 10
239.8356619065
 20
69.1299628631
 30
0.0
  0
LINE
  5
3C3
330
208
100
AcDbEntity
  8
7_ALL_FEATURES
  6
Continuous
 62
     9
100
AcDbLine
 10
239.835662
 20
69.129963
 30
0.0
 11
240.110785
 21
69.027504
 31
0.0
  0
LINE
  5
3C4
330
208
100
AcDbEntity
  8
7_ALL_FEATURES
  6
Continuous
 62
     9
100
AcDbLine
 10
239.835662
 20
69.129963
 30
0.0
 11
240.095165
 21
69.03332
 31
0.0
  0
LINE
  5
3C5
330
208
100
AcDbEntity
  8
6_ALL_SURFS
  6
Continuous
 62
     9
100
AcDbLine
 10
240.472886
 20
72.646409
 30
0.0
 11
236.460135
 21
72.646409
 31
0.0
  0
SPLINE
  5
3C6
330
208
100
AcDbEntity
  8
7_ALL_FEATURES
  6
Continuous
 62
     9
100
AcDbSpline
 70
     0
 71
     3
 72
     9
 73
     5
 74
     0
 42
0.000000001
 43
0.0000001
 40
0.0
 40
0.0
 40
0.0
 40
0.0
 40
0.2569287091
 40
1.0
 40
1.0
 40
1.0
 40
1.0
 10
238.3404687196
 20
69.0270722673
 30
0.0
 10
238.3797225241
 20
69.0346851707
 30
0.0
 10
238.5322797872
 20
69.0654491219
 30
0.0
 10
238.6839274871
 20
69.1007866679
 30
0.0
 10
238.7958289002
 20
69.1299628631
 30
0.0
  0
LINE
  5
3C7
330
208
100
AcDbEntity
  8
7_ALL_FEATURES
  6
Continuous
 62
     9
100
AcDbLine
 10
236.460135
 20
72.646409
 30
0.0
 11
236.460135
 21
69.03332
 31
0.0
  0
LINE
  5
3C8
330
208
100
AcDbEntity
  8
6_ALL_SURFS
  6
Continuous
 62
     9
100
AcDbLine
 10
236.460135
 20
72.646409
 30
0.0
 11
177.460135
 21
72.646409
 31
0.0
  0
LINE
  5
3C9
330
208
100
AcDbEntity
  8
7_ALL_FEATURES
  6
Continuous
 62
     9
100
AcDbLine
 10
177.460135
 20
69.03332
 30
0.0
 11
177.460135
 21
72.646409
 31
0.0
  0
LINE
  5
3CA
330
208
100
AcDbEntity
  8
7_ALL_FEATURES
  6
Continuous
 62
     9
100
AcDbLine
 10
248.460135
 20
65.613688
 30
0.0
 11
165.460135
 21
65.613688
 31
0.0
  0
LINE
  5
3CB
330
208
100
AcDbEntity
  8
7_ALL_FEATURES
  6
Continuous
 62
     9
100
AcDbLine
 10
165.460135
 20
65.613688
 30
0.0
 11
165.460135
 21
69.03332
 31
0.0
  0
LINE
  5
3CC
330
208
100
AcDbEntity
  8
7_ALL_FEATURES
  6
Continuous
 62
     9
100
AcDbLine
 10
248.460135
 20
69.03332
 30
0.0
 11
248.460135
 21
65.613688
 31
0.0
  0
SPLINE
  5
3CD
330
208
100
AcDbEntity
  8
7_ALL_FEATURES
  6
Continuous
 62
     9
100
AcDbSpline
 70
     0
 71
     3
 72
    10
 73
     6
 74
     0
 42
0.000000001
 43
0.0000001
 40
0.0
 40
0.0
 40
0.0
 40
0.0
 40
0.2192760189
 40
0.5850645237
 40
1.0
 40
1.0
 40
1.0
 40
1.0
 10
174.0846090394
 20
69.1299628631
 30
0.0
 10
174.1568069666
 20
69.1568520745
 30
0.0
 10
174.3573315064
 20
69.208335646
 30
0.0
 10
174.7120192067
 20
69.2166411356
 30
0.0
 10
174.9833724544
 20
69.1667514735
 30
0.0
 10
175.1244420458
 20
69.1299628631
 30
0.0
  0
SPLINE
  5
3CE
330
208
100
AcDbEntity
  8
7_ALL_FEATURES
  6
Continuous
 62
     9
100
AcDbSpline
 70
     0
 71
     3
 72
     9
 73
     5
 74
     0
 42
0.000000001
 43
0.0000001
 40
0.0
 40
0.0
 40
0.0
 40
0.0
 40
0.2430392306
 40
1.0
 40
1.0
 40
1.0
 40
1.0
 10
175.1244420458
 20
69.1299628631
 30
0.0
 10
175.1601736362
 20
69.1206458776
 30
0.0
 10
175.3075138594
 20
69.083545029
 30
0.0
 10
175.4560480999
 20
69.051227109
 30
0.0
 10
175.568923458
 20
69.0291750574
 30
0.0
  0
LINE
  5
3CF
330
208
100
AcDbEntity
  8
6_ALL_SURFS
  6
Continuous
 62
     9
100
AcDbLine
 10
177.460135
 20
72.646409
 30
0.0
 11
173.447385
 21
72.646409
 31
0.0
  0
LINE
  5
3D0
330
208
100
AcDbEntity
  8
7_ALL_FEATURES
  6
Continuous
 62
     9
100
AcDbLine
 10
173.807902
 20
69.026916
 30
0.0
 11
174.084609
 21
69.129963
 31
0.0
  0
LINE
  5
3D1
330
208
100
AcDbEntity
  8
7_ALL_FEATURES
  6
Continuous
 62
     9
100
AcDbLine
 10
173.825103
 20
69.03332
 30
0.0
 11
174.084609
 21
69.129963
 31
0.0
  0
LINE
  5
3D2
330
208
100
AcDbEntity
  8
7_ALL_FEATURES
  6
Continuous
 62
     9
100
AcDbLine
 10
222.710135
 20
73.990301
 30
0.0
 11
191.210135
 21
73.990301
 31
0.0
  0
LINE
  5
3D3
330
208
100
AcDbEntity
  8
7_ALL_FEATURES
  6
Continuous
 62
     9
100
AcDbLine
 10
222.710135
 20
73.13332
 30
0.0
 11
222.710135
 21
73.990301
 31
0.0
  0
LINE
  5
3D4
330
208
100
AcDbEntity
  8
7_ALL_FEATURES
  6
Continuous
 62
     9
100
AcDbLine
 10
191.210135
 20
73.13332
 30
0.0
 11
191.210135
 21
73.990301
 31
0.0
  0
LINE
  5
3D5
330
208
100
AcDbEntity
  8
7_ALL_FEATURES
  6
Continuous
 62
     7
100
AcDbLine
 10
215.632515
 20
158.679532
 30
0.0
 11
215.807917
 21
158.591831
 31
0.0
  0
LINE
  5
3D6
330
208
100
AcDbEntity
  8
7_ALL_FEATURES
  6
Continuous
 62
     7
100
AcDbLine
 10
215.807917
 20
158.591831
 30
0.0
 11
239.674146
 21
146.658717
 31
0.0
  0
LINE
  5
3D7
330
208
100
AcDbEntity
  8
7_ALL_FEATURES
  6
Continuous
 62
     7
100
AcDbLine
 10
239.674096
 20
146.658742
 30
0.0
 11
239.674146
 21
146.658717
 31
0.0
  0
LWPOLYLINE
  5
3D8
330
208
100
AcDbEntity
  8
7_ALL_FEATURES
  6
Continuous
 62
     7
100
AcDbPolyline
 90
        3
 70
     0
 43
0.0
 10
239.674096
 20
146.658742
 10
239.754711
 20
146.612952
 10
239.771211
 20
146.600936
  0
LINE
  5
3D9
330
208
100
AcDbEntity
  8
7_ALL_FEATURES
  6
Continuous
 62
     7
100
AcDbLine
 10
239.771169
 20
146.600972
 30
0.0
 11
239.771211
 21
146.600936
 31
0.0
  0
LINE
  5
3DA
330
208
100
AcDbEntity
  8
7_ALL_FEATURES
  6
Continuous
 62
     7
100
AcDbLine
 10
190.524349
 20
146.658724
 30
0.0
 11
190.524334
 21
146.658717
 31
0.0
  0
LWPOLYLINE
  5
3DB
330
208
100
AcDbEntity
  8
7_ALL_FEATURES
  6
Continuous
 62
     7
100
AcDbPolyline
 90
        4
 70
     0
 43
0.0
 10
190.430749
 20
146.603974
 10
190.429794
 20
146.603201
 10
190.431203
 20
146.604243
 10
190.437915
 20
146.608954
  0
LWPOLYLINE
  5
3DC
330
208
100
AcDbEntity
  8
7_ALL_FEATURES
  6
Continuous
 62
     7
100
AcDbPolyline
 90
        6
 70
     0
 43
0.0
 10
190.437915
 20
146.608954
 10
190.448384
 20
146.615926
 10
190.460587
 20
146.623662
 10
190.473995
 20
146.631717
 10
190.489378
 20
146.640432
 10
190.507494
 20
146.650125
  0
LINE
  5
3DD
330
208
100
AcDbEntity
  8
7_ALL_FEATURES
  6
Continuous
 62
     7
100
AcDbLine
 10
190.507494
 20
146.650125
 30
0.0
 11
190.524349
 21
146.658724
 31
0.0
  0
LINE
  5
3DE
330
208
100
AcDbEntity
  8
7_ALL_FEATURES
  6
Continuous
 62
     7
100
AcDbLine
 10
190.433422
 20
146.60626
 30
0.0
 11
190.433282
 21
146.606136
 31
0.0
  0
LINE
  5
3DF
330
208
100
AcDbEntity
  8
7_ALL_FEATURES
  6
Continuous
 62
     7
100
AcDbLine
 10
190.524334
 20
146.658717
 30
0.0
 11
214.390562
 21
158.591831
 31
0.0
  0
LINE
  5
3E0
330
208
100
AcDbEntity
  8
7_ALL_FEATURES
  6
Continuous
 62
     7
100
AcDbLine
 10
214.390562
 20
158.591831
 30
0.0
 11
214.565965
 21
158.679532
 31
0.0
  0
LINE
  5
3E1
330
208
100
AcDbEntity
  8
7_ALL_FEATURES
  6
Continuous
 62
     7
100
AcDbLine
 10
214.797144
 20
158.773214
 30
0.0
 11
214.797102
 21
158.7732
 31
0.0
  0
LINE
  5
3E2
330
208
100
AcDbEntity
  8
7_ALL_FEATURES
  6
Continuous
 62
     7
100
AcDbLine
 10
214.565983
 20
158.679541
 30
0.0
 11
214.565965
 21
158.679532
 31
0.0
  0
LWPOLYLINE
  5
3E3
330
208
100
AcDbEntity
  8
7_ALL_FEATURES
  6
Continuous
 62
     7
100
AcDbPolyline
 90
        3
 70
     0
 43
0.0
 10
214.565983
 20
158.679541
 10
214.58526
 20
158.68896
 10
214.713234
 20
158.739848
  0
LINE
  5
3E4
330
208
100
AcDbEntity
  8
7_ALL_FEATURES
  6
Continuous
 62
     7
100
AcDbLine
 10
214.713234
 20
158.739848
 30
0.0
 11
214.797144
 21
158.773214
 31
0.0
  0
LINE
  5
3E5
330
208
100
AcDbEntity
  8
7_ALL_FEATURES
  6
Continuous
 62
     7
100
AcDbLine
 10
215.401933
 20
158.773017
 30
0.0
 11
215.402413
 21
158.772862
 31
0.0
  0
LINE
  5
3E6
330
208
100
AcDbEntity
  8
7_ALL_FEATURES
  6
Continuous
 62
     7
100
AcDbLine
 10
214.797102
 20
158.7732
 30
0.0
 11
214.809306
 21
158.777171
 31
0.0
  0
LINE
  5
3E7
330
208
100
AcDbEntity
  8
7_ALL_FEATURES
  6
Continuous
 62
     7
100
AcDbLine
 10
214.809306
 20
158.777171
 30
0.0
 11
214.906946
 21
158.801346
 31
0.0
  0
LWPOLYLINE
  5
3E8
330
208
100
AcDbEntity
  8
7_ALL_FEATURES
  6
Continuous
 62
     7
100
AcDbPolyline
 90
        4
 70
     0
 43
0.0
 10
214.906946
 20
158.801346
 10
215.01453
 20
158.815986
 10
215.125735
 20
158.819336
 10
215.237842
 20
158.81008
  0
LWPOLYLINE
  5
3E9
330
208
100
AcDbEntity
  8
7_ALL_FEATURES
  6
Continuous
 62
     7
100
AcDbPolyline
 90
        3
 70
     0
 43
0.0
 10
215.237842
 20
158.81008
 10
215.346559
 20
158.788872
 10
215.401933
 20
158.773017
  0
LINE
  5
3EA
330
208
100
AcDbEntity
  8
7_ALL_FEATURES
  6
Continuous
 62
     7
100
AcDbLine
 10
215.632255
 20
158.679662
 30
0.0
 11
215.632515
 21
158.679532
 31
0.0
  0
LWPOLYLINE
  5
3EB
330
208
100
AcDbEntity
  8
7_ALL_FEATURES
  6
Continuous
 62
     7
100
AcDbPolyline
 90
        3
 70
     0
 43
0.0
 10
215.402413
 20
158.772862
 10
215.456304
 20
158.754184
 10
215.54777
 20
158.718225
  0
LINE
  5
3EC
330
208
100
AcDbEntity
  8
7_ALL_FEATURES
  6
Continuous
 62
     7
100
AcDbLine
 10
215.54777
 20
158.718225
 30
0.0
 11
215.632255
 21
158.679662
 31
0.0
  0
LINE
  5
3ED
330
208
100
AcDbEntity
  8
7_ALL_FEATURES
  6
Continuous
 62
     7
100
AcDbLine
 10
215.099335
 20
111.515467
 30
0.0
 11
215.193388
 21
111.562493
 31
0.0
  0
LINE
  5
3EE
330
208
100
AcDbEntity
  8
7_ALL_FEATURES
  6
Continuous
 62
     7
100
AcDbLine
 10
215.193388
 20
111.562493
 30
0.0
 11
274.11053
 21
141.021064
 31
0.0
  0
LINE
  5
3EF
330
208
100
AcDbEntity
  8
7_ALL_FEATURES
  6
Continuous
 62
     7
100
AcDbLine
 10
274.11053
 20
141.021064
 30
0.0
 11
274.740885
 21
141.336242
 31
0.0
  0
LINE
  5
3F0
330
208
100
AcDbEntity
  8
7_ALL_FEATURES
  6
Continuous
 62
     7
100
AcDbLine
 10
155.457595
 20
141.336242
 30
0.0
 11
156.08795
 21
141.021064
 31
0.0
  0
LINE
  5
3F1
330
208
100
AcDbEntity
  8
7_ALL_FEATURES
  6
Continuous
 62
     7
100
AcDbLine
 10
156.08795
 20
141.021064
 30
0.0
 11
215.005092
 21
111.562493
 31
0.0
  0
LINE
  5
3F2
330
208
100
AcDbEntity
  8
7_ALL_FEATURES
  6
Continuous
 62
     7
100
AcDbLine
 10
215.005092
 20
111.562493
 30
0.0
 11
215.099145
 21
111.515467
 31
0.0
  0
LINE
  5
3F3
330
208
100
AcDbEntity
  8
7_ALL_FEATURES
  6
Continuous
 62
     7
100
AcDbLine
 10
155.453406
 20
141.338667
 30
0.0
 11
155.453489
 21
141.338307
 31
0.0
  0
SPLINE
  5
3F4
330
208
100
AcDbEntity
  8
7_ALL_FEATURES
  6
Continuous
 62
     7
100
AcDbSpline
 70
     0
 71
     3
 72
    11
 73
     7
 74
     0
 42
0.000000001
 43
0.0000001
 40
0.0
 40
0.0
 40
0.0
 40
0.0
 40
0.1746319461
 40
0.3857472529
 40
0.657055127
 40
1.0
 40
1.0
 40
1.0
 40
1.0
 10
155.3487976782
 20
144.7980193183
 30
0.0
 10
155.3478713762
 20
144.8286517201
 30
0.0
 10
155.3652282463
 20
144.897299948
 30
0.0
 10
155.4385766751
 20
144.9887717439
 30
0.0
 10
155.5539006063
 20
145.0775595938
 30
0.0
 10
155.6484401514
 20
145.1300032629
 30
0.0
 10
155.7022702452
 20
145.1569183098
 30
0.0
  0
LINE
  5
3F5
330
208
100
AcDbEntity
  8
7_ALL_FEATURES
  6
Continuous
 62
     7
100
AcDbLine
 10
155.348798
 20
144.798019
 30
0.0
 11
155.453412
 21
141.338476
 31
0.0
  0
LINE
  5
3F6
330
208
100
AcDbEntity
  8
7_ALL_FEATURES
  6
Continuous
 62
     7
100
AcDbLine
 10
274.745068
 20
141.338476
 30
0.0
 11
274.849682
 21
144.798019
 31
0.0
  0
LINE
  5
3F7
330
208
100
AcDbEntity
  8
7_ALL_FEATURES
  6
Continuous
 62
     7
100
AcDbLine
 10
239.148241
 20
146.921669
 30
0.0
 11
218.522213
 21
136.608655
 31
0.0
  0
LINE
  5
3F8
330
208
100
AcDbEntity
  8
7_ALL_FEATURES
  6
Continuous
 62
     7
100
AcDbLine
 10
218.522213
 20
136.608655
 30
0.0
 11
218.354952
 21
136.525025
 31
0.0
  0
LINE
  5
3F9
330
208
100
AcDbEntity
  8
7_ALL_FEATURES
  6
Continuous
 62
     7
100
AcDbLine
 10
218.354952
 20
136.525025
 30
0.0
 11
215.452793
 21
135.073945
 31
0.0
  0
LINE
  5
3FA
330
208
100
AcDbEntity
  8
7_ALL_FEATURES
  6
Continuous
 62
     7
100
AcDbLine
 10
214.745686
 20
135.073945
 30
0.0
 11
211.843528
 21
136.525025
 31
0.0
  0
LINE
  5
3FB
330
208
100
AcDbEntity
  8
7_ALL_FEATURES
  6
Continuous
 62
     7
100
AcDbLine
 10
211.843528
 20
136.525025
 30
0.0
 11
211.676266
 21
136.608655
 31
0.0
  0
LINE
  5
3FC
330
208
100
AcDbEntity
  8
7_ALL_FEATURES
  6
Continuous
 62
     7
100
AcDbLine
 10
211.676266
 20
136.608655
 30
0.0
 11
191.050239
 21
146.921669
 31
0.0
  0
LINE
  5
3FD
330
208
100
AcDbEntity
  8
7_ALL_FEATURES
  6
Continuous
 62
     7
100
AcDbLine
 10
274.74499
 20
141.338307
 30
0.0
 11
274.740885
 21
141.336337
 31
0.0
  0
LINE
  5
3FE
330
208
100
AcDbEntity
  8
7_ALL_FEATURES
  6
Continuous
 62
     7
100
AcDbLine
 10
155.453489
 20
141.338307
 30
0.0
 11
155.457595
 21
141.336242
 31
0.0
  0
LINE
  5
3FF
330
208
100
AcDbEntity
  8
7_ALL_FEATURES
  6
Continuous
 62
     7
100
AcDbLine
 10
274.74499
 20
141.338307
 30
0.0
 11
274.745073
 21
141.338667
 31
0.0
  0
LINE
  5
400
330
208
100
AcDbEntity
  8
7_ALL_FEATURES
  6
Continuous
 62
     7
100
AcDbLine
 10
215.806347
 20
174.50185
 30
0.0
 11
274.496209
 21
145.156918
 31
0.0
  0
LINE
  5
401
330
208
100
AcDbEntity
  8
7_ALL_FEATURES
  6
Continuous
 62
     7
100
AcDbLine
 10
155.70227
 20
145.156918
 30
0.0
 11
214.392133
 21
174.50185
 31
0.0
  0
SPLINE
  5
402
330
208
100
AcDbEntity
  8
7_ALL_FEATURES
  6
Continuous
 62
     7
100
AcDbSpline
 70
     0
 71
     3
 72
    11
 73
     7
 74
     0
 42
0.000000001
 43
0.0000001
 40
0.0
 40
0.0
 40
0.0
 40
0.0
 40
0.2572524752
 40
0.5
 40
0.7427475248
 40
1.0
 40
1.0
 40
1.0
 40
1.0
 10
214.3921330837
 20
174.5018497291
 30
0.0
 10
214.5047102177
 20
174.5581382961
 30
0.0
 10
214.7351014421
 20
174.6470108852
 30
0.0
 10
215.0992398649
 20
174.6939756121
 30
0.0
 10
215.4633782877
 20
174.6470108852
 30
0.0
 10
215.693769512
 20
174.5581382961
 30
0.0
 10
215.8063466461
 20
174.5018497291
 30
0.0
  0
SPLINE
  5
403
330
208
100
AcDbEntity
  8
7_ALL_FEATURES
  6
Continuous
 62
     7
100
AcDbSpline
 70
     0
 71
     3
 72
    11
 73
     7
 74
     0
 42
0.000000001
 43
0.0000001
 40
0.0
 40
0.0
 40
0.0
 40
0.0
 40
0.342944873
 40
0.6142527471
 40
0.8253680539
 40
1.0
 40
1.0
 40
1.0
 40
1.0
 10
274.4962094845
 20
145.1569183098
 30
0.0
 10
274.5500395783
 20
145.1300032629
 30
0.0
 10
274.6445791234
 20
145.0775595938
 30
0.0
 10
274.7599030546
 20
144.988771744
 30
0.0
 10
274.8332514834
 20
144.8972999481
 30
0.0
 10
274.8506083535
 20
144.8286517202
 30
0.0
 10
274.8496820516
 20
144.7980193183
 30
0.0
  0
SPLINE
  5
404
330
208
100
AcDbEntity
  8
7_ALL_FEATURES
  6
Continuous
 62
     7
100
AcDbSpline
 70
     0
 71
     3
 72
    11
 73
     7
 74
     0
 42
0.000000001
 43
0.0000001
 40
0.0
 40
0.0
 40
0.0
 40
0.0
 40
0.2353701082
 40
0.5
 40
0.7646298918
 40
1.0
 40
1.0
 40
1.0
 40
1.0
 10
214.7456864743
 20
135.0739453445
 30
0.0
 10
214.7966762588
 20
135.0484504523
 30
0.0
 10
214.9138614548
 20
135.0120822007
 30
0.0
 10
215.0992398649
 20
134.9947095635
 30
0.0
 10
215.284618275
 20
135.0120822007
 30
0.0
 10
215.4018034709
 20
135.0484504523
 30
0.0
 10
215.4527932555
 20
135.0739453445
 30
0.0
  0
SPLINE
  5
405
330
208
100
AcDbEntity
  8
7_ALL_FEATURES
  6
Continuous
 62
     9
100
AcDbSpline
 70
     0
 71
     3
 72
     9
 73
     5
 74
     0
 42
0.000000001
 43
0.0000001
 40
0.0
 40
0.0
 40
0.0
 40
0.0
 40
0.2401902764
 40
1.0
 40
1.0
 40
1.0
 40
1.0
 10
239.6741456135
 20
146.6587165242
 30
0.0
 10
239.6813422489
 20
146.6551182065
 30
0.0
 10
239.7120320637
 20
146.6415939859
 30
0.0
 10
239.7452127125
 20
146.6341153192
 30
0.0
 10
239.7705048524
 20
146.6312608824
 30
0.0
  0
SPLINE
  5
406
330
208
100
AcDbEntity
  8
7_ALL_FEATURES
  6
Continuous
 62
     9
100
AcDbSpline
 70
     0
 71
     3
 72
     9
 73
     5
 74
     0
 42
0.000000001
 43
0.0000001
 40
0.0
 40
0.0
 40
0.0
 40
0.0
 40
0.234177743
 40
1.0
 40
1.0
 40
1.0
 40
1.0
 10
239.7705048524
 20
146.6312608824
 30
0.0
 10
239.7790740437
 20
146.6302937751
 30
0.0
 10
239.8158187996
 20
146.627509847
 30
0.0
 10
239.8528396862
 20
146.629806147
 30
0.0
 10
239.8807964579
 20
146.633512559
 30
0.0
  0
SPLINE
  5
407
330
208
100
AcDbEntity
  8
7_ALL_FEATURES
  6
Continuous
 62
     9
100
AcDbSpline
 70
     0
 71
     3
 72
     9
 73
     5
 74
     0
 42
0.000000001
 43
0.0000001
 40
0.0
 40
0.0
 40
0.0
 40
0.0
 40
0.2252634922
 40
1.0
 40
1.0
 40
1.0
 40
1.0
 10
215.6325150532
 20
158.6795318044
 30
0.0
 10
215.646623675
 20
158.6724774935
 30
0.0
 10
215.7123707724
 20
158.647181062
 30
0.0
 10
215.7853860872
 20
158.6471978981
 30
0.0
 10
215.8391658975
 20
158.6543278392
 30
0.0
  0
SPLINE
  5
408
330
208
100
AcDbEntity
  8
7_ALL_FEATURES
  6
Continuous
 62
     9
100
AcDbSpline
 70
     0
 71
     3
 72
     9
 73
     5
 74
     0
 42
0.000000001
 43
0.0000001
 40
0.0
 40
0.0
 40
0.0
 40
0.0
 40
0.4625103481
 40
1.0
 40
1.0
 40
1.0
 40
1.0
 10
239.7712105536
 20
146.6009360125
 30
0.0
 10
239.815001229
 20
146.5637967851
 30
0.0
 10
239.9279587171
 20
146.5041649108
 30
0.0
 10
240.052692752
 20
146.486784502
 30
0.0
 10
240.1193695271
 20
146.4841844311
 30
0.0
  0
ARC
  5
409
330
208
100
AcDbEntity
  8
7_ALL_FEATURES
  6
Continuous
 62
     9
100
AcDbCircle
 10
215.711499
 20
155.784322
 30
0.0
 40
3.174603243
100
AcDbArc
 50
108.715469
 51
111.012727
  0
ARC
  5
40A
330
208
100
AcDbEntity
  8
7_ALL_FEATURES
  6
Continuous
 62
     9
100
AcDbCircle
 10
215.558048
 20
156.186341
 30
0.0
 40
2.7442943794
100
AcDbArc
 50
111.031667
 51
113.558529
  0
SPLINE
  5
40B
330
208
100
AcDbEntity
  8
7_ALL_FEATURES
  6
Continuous
 62
     9
100
AcDbSpline
 70
     0
 71
     3
 72
     9
 73
     5
 74
     0
 42
0.000000001
 43
0.0000001
 40
0.0
 40
0.0
 40
0.0
 40
0.0
 40
0.2567470436
 40
1.0
 40
1.0
 40
1.0
 40
1.0
 10
214.4611929673
 20
158.701904459
 30
0.0
 10
214.4523755475
 20
158.6980489282
 30
0.0
 10
214.4181217125
 20
158.6828301294
 30
0.0
 10
214.3842316405
 20
158.6667867433
 30
0.0
 10
214.3593138322
 20
158.6543278392
 30
0.0
  0
LINE
  5
40C
330
208
100
AcDbEntity
  8
7_ALL_FEATURES
  6
Continuous
 62
     9
100
AcDbLine
 10
214.359314
 20
158.654328
 30
0.0
 11
190.493086
 21
146.721214
 31
0.0
  0
LINE
  5
40D
330
208
100
AcDbEntity
  8
7_ALL_FEATURES
  6
Continuous
 62
     9
100
AcDbLine
 10
190.493086
 20
146.721214
 30
0.0
 11
190.317683
 21
146.633513
 31
0.0
  0
SPLINE
  5
40E
330
208
100
AcDbEntity
  8
7_ALL_FEATURES
  6
Continuous
 62
     9
100
AcDbSpline
 70
     0
 71
     3
 72
     9
 73
     5
 74
     0
 42
0.000000001
 43
0.0000001
 40
0.0
 40
0.0
 40
0.0
 40
0.0
 40
0.2805643822
 40
1.0
 40
1.0
 40
1.0
 40
1.0
 10
190.3176832719
 20
146.633512559
 30
0.0
 10
190.2941151538
 20
146.6217285
 30
0.0
 10
190.2110730628
 20
146.5779803888
 30
0.0
 10
190.1311542445
 20
146.5272752128
 30
0.0
 10
190.0791102026
 20
146.4841844311
 30
0.0
  0
LINE
  5
40F
330
208
100
AcDbEntity
  8
7_ALL_FEATURES
  6
Continuous
 62
     9
100
AcDbLine
 10
162.87022
 20
141.485592
 30
0.0
 11
190.07911
 21
146.484184
 31
0.0
  0
LINE
  5
410
330
208
100
AcDbEntity
  8
7_ALL_FEATURES
  6
Continuous
 62
     9
100
AcDbLine
 10
214.692869
 20
167.396916
 30
0.0
 11
214.437469
 21
167.269217
 31
0.0
  0
LINE
  5
411
330
208
100
AcDbEntity
  8
7_ALL_FEATURES
  6
Continuous
 62
     9
100
AcDbLine
 10
214.437469
 20
167.269217
 30
0.0
 11
175.484432
 21
147.792698
 31
0.0
  0
LINE
  5
412
330
208
100
AcDbEntity
  8
7_ALL_FEATURES
  6
Continuous
 62
     9
100
AcDbLine
 10
175.484432
 20
147.792698
 30
0.0
 11
162.87022
 21
141.485592
 31
0.0
  0
LINE
  5
413
330
208
100
AcDbEntity
  8
7_ALL_FEATURES
  6
Continuous
 62
     9
100
AcDbLine
 10
214.692869
 20
158.791064
 30
0.0
 11
214.692869
 21
162.525843
 31
0.0
  0
LINE
  5
414
330
208
100
AcDbEntity
  8
7_ALL_FEATURES
  6
Continuous
 62
     9
100
AcDbLine
 10
214.692869
 20
162.525843
 30
0.0
 11
214.692869
 21
165.296295
 31
0.0
  0
LINE
  5
415
330
208
100
AcDbEntity
  8
7_ALL_FEATURES
  6
Continuous
 62
     9
100
AcDbLine
 10
214.692869
 20
165.296295
 30
0.0
 11
214.692869
 21
167.396916
 31
0.0
  0
SPLINE
  5
416
330
208
100
AcDbEntity
  8
7_ALL_FEATURES
  6
Continuous
 62
     9
100
AcDbSpline
 70
     0
 71
     3
 72
     9
 73
     5
 74
     0
 42
0.000000001
 43
0.0000001
 40
0.0
 40
0.0
 40
0.0
 40
0.0
 40
0.4622264423
 40
1.0
 40
1.0
 40
1.0
 40
1.0
 10
190.4332815436
 20
146.606136116
 30
0.0
 10
190.3893431251
 20
146.5673828277
 30
0.0
 10
190.2746588239
 20
146.5048297792
 30
0.0
 10
190.1472206576
 20
146.4868404086
 30
0.0
 10
190.0791102026
 20
146.4841844311
 30
0.0
  0
SPLINE
  5
417
330
208
100
AcDbEntity
  8
7_ALL_FEATURES
  6
Continuous
 62
     9
100
AcDbSpline
 70
     0
 71
     3
 72
     9
 73
     5
 74
     0
 42
0.000000001
 43
0.0000001
 40
0.0
 40
0.0
 40
0.0
 40
0.0
 40
0.2252634922
 40
1.0
 40
1.0
 40
1.0
 40
1.0
 10
214.5659646766
 20
158.6795318044
 30
0.0
 10
214.5518560547
 20
158.6724774935
 30
0.0
 10
214.4861089573
 20
158.647181062
 30
0.0
 10
214.4130936425
 20
158.6471978981
 30
0.0
 10
214.3593138322
 20
158.6543278392
 30
0.0
  0
SPLINE
  5
418
330
208
100
AcDbEntity
  8
7_ALL_FEATURES
  6
Continuous
 62
     9
100
AcDbSpline
 70
     0
 71
     3
 72
     9
 73
     5
 74
     0
 42
0.000000001
 43
0.0000001
 40
0.0
 40
0.0
 40
0.0
 40
0.0
 40
0.2406431596
 40
1.0
 40
1.0
 40
1.0
 40
1.0
 10
190.5243341162
 20
146.6587165242
 30
0.0
 10
190.5173803346
 20
146.6552396334
 30
0.0
 10
190.487806224
 20
146.6421491629
 30
0.0
 10
190.4558922823
 20
146.6346840955
 30
0.0
 10
190.4315437581
 20
146.63168221
 30
0.0
  0
SPLINE
  5
419
330
208
100
AcDbEntity
  8
7_ALL_FEATURES
  6
Continuous
 62
     9
100
AcDbSpline
 70
     0
 71
     3
 72
     9
 73
     5
 74
     0
 42
0.000000001
 43
0.0000001
 40
0.0
 40
0.0
 40
0.0
 40
0.0
 40
0.233706395
 40
1.0
 40
1.0
 40
1.0
 40
1.0
 10
190.4315437581
 20
146.63168221
 30
0.0
 10
190.4227253807
 20
146.6305950081
 30
0.0
 10
190.3848129291
 20
146.6273968489
 30
0.0
 10
190.3465638274
 20
146.6296836749
 30
0.0
 10
190.3176832719
 20
146.633512559
 30
0.0
  0
SPLINE
  5
41A
330
208
100
AcDbEntity
  8
7_ALL_FEATURES
  6
Continuous
 62
     9
100
AcDbSpline
 70
     0
 71
     3
 72
     9
 73
     5
 74
     0
 42
0.000000001
 43
0.0000001
 40
0.0
 40
0.0
 40
0.0
 40
0.0
 40
0.2091630705
 40
1.0
 40
1.0
 40
1.0
 40
1.0
 10
214.7971019348
 20
158.7732002706
 30
0.0
 10
214.7899955129
 20
158.7708180502
 30
0.0
 10
214.7541573209
 20
158.7646135703
 30
0.0
 10
214.7181385256
 20
158.7782376512
 30
0.0
 10
214.692868588
 20
158.7910636238
 30
0.0
  0
SPLINE
  5
41B
330
208
100
AcDbEntity
  8
7_ALL_FEATURES
  6
Continuous
 62
     9
100
AcDbSpline
 70
     0
 71
     3
 72
     9
 73
     5
 74
     0
 42
0.000000001
 43
0.0000001
 40
0.0
 40
0.0
 40
0.0
 40
0.0
 40
0.2092300889
 40
1.0
 40
1.0
 40
1.0
 40
1.0
 10
215.4024126052
 20
158.7728615067
 30
0.0
 10
215.4094849605
 20
158.7706014324
 30
0.0
 10
215.4450238971
 20
158.7648783442
 30
0.0
 10
215.4805886337
 20
158.7783632361
 30
0.0
 10
215.5056111418
 20
158.7910636238
 30
0.0
  0
SPLINE
  5
41C
330
208
100
AcDbEntity
  8
7_ALL_FEATURES
  6
Continuous
 62
     9
100
AcDbSpline
 70
     0
 71
     3
 72
     9
 73
     5
 74
     0
 42
0.000000001
 43
0.0000001
 40
0.0
 40
0.0
 40
0.0
 40
0.0
 40
0.2375301659
 40
1.0
 40
1.0
 40
1.0
 40
1.0
 10
215.8391658975
 20
158.6543278392
 30
0.0
 10
215.8226338226
 20
158.6625938767
 30
0.0
 10
215.7525334314
 20
158.6963907082
 30
0.0
 10
215.6806872502
 20
158.7265061481
 30
0.0
 10
215.6253147176
 20
158.7478163508
 30
0.0
  0
ARC
  5
41D
330
208
100
AcDbEntity
  8
7_ALL_FEATURES
  6
Continuous
 62
     9
100
AcDbCircle
 10
214.508666
 20
155.844346
 30
0.0
 40
3.1107942918
100
AcDbArc
 50
68.963708
 51
71.308096
  0
LINE
  5
41E
330
208
100
AcDbEntity
  8
7_ALL_FEATURES
  6
Continuous
 62
     9
100
AcDbLine
 10
215.505611
 20
158.791064
 30
0.0
 11
215.505611
 21
162.525806
 31
0.0
  0
LINE
  5
41F
330
208
100
AcDbEntity
  8
7_ALL_FEATURES
  6
Continuous
 62
     9
100
AcDbLine
 10
215.505611
 20
162.525806
 30
0.0
 11
215.505611
 21
165.296295
 31
0.0
  0
LINE
  5
420
330
208
100
AcDbEntity
  8
7_ALL_FEATURES
  6
Continuous
 62
     9
100
AcDbLine
 10
215.505611
 20
165.296295
 30
0.0
 11
215.505611
 21
167.396916
 31
0.0
  0
LINE
  5
421
330
208
100
AcDbEntity
  8
7_ALL_FEATURES
  6
Continuous
 62
     9
100
AcDbLine
 10
267.32826
 20
141.485592
 30
0.0
 11
254.714048
 21
147.792698
 31
0.0
  0
LINE
  5
422
330
208
100
AcDbEntity
  8
7_ALL_FEATURES
  6
Continuous
 62
     9
100
AcDbLine
 10
254.714048
 20
147.792698
 30
0.0
 11
215.761009
 21
167.269217
 31
0.0
  0
LINE
  5
423
330
208
100
AcDbEntity
  8
7_ALL_FEATURES
  6
Continuous
 62
     9
100
AcDbLine
 10
215.761009
 20
167.269217
 30
0.0
 11
215.505611
 21
167.396916
 31
0.0
  0
LINE
  5
424
330
208
100
AcDbEntity
  8
7_ALL_FEATURES
  6
Continuous
 62
     9
100
AcDbLine
 10
240.11937
 20
146.484184
 30
0.0
 11
267.32826
 21
141.485592
 31
0.0
  0
SPLINE
  5
425
330
208
100
AcDbEntity
  8
7_ALL_FEATURES
  6
Continuous
 62
     9
100
AcDbSpline
 70
     0
 71
     3
 72
     9
 73
     5
 74
     0
 42
0.000000001
 43
0.0000001
 40
0.0
 40
0.0
 40
0.0
 40
0.0
 40
0.2187925389
 40
1.0
 40
1.0
 40
1.0
 40
1.0
 10
240.1193695271
 20
146.4841844311
 30
0.0
 10
240.1035391852
 20
146.4972914417
 30
0.0
 10
240.0286564243
 20
146.554138998
 30
0.0
 10
239.9464317552
 20
146.6006949103
 30
0.0
 10
239.8807964579
 20
146.633512559
 30
0.0
  0
LINE
  5
426
330
208
100
AcDbEntity
  8
7_ALL_FEATURES
  6
Continuous
 62
     9
100
AcDbLine
 10
239.880796
 20
146.633513
 30
0.0
 11
239.705394
 21
146.721214
 31
0.0
  0
LINE
  5
427
330
208
100
AcDbEntity
  8
7_ALL_FEATURES
  6
Continuous
 62
     9
100
AcDbLine
 10
239.705394
 20
146.721214
 30
0.0
 11
215.839166
 21
158.654328
 31
0.0
  0
SPLINE
  5
428
330
208
100
AcDbEntity
  8
7_ALL_FEATURES
  6
Continuous
 62
     9
100
AcDbSpline
 70
     0
 71
     3
 72
     9
 73
     5
 74
     0
 42
0.000000001
 43
0.0000001
 40
0.0
 40
0.0
 40
0.0
 40
0.0
 40
0.2622877479
 40
1.0
 40
1.0
 40
1.0
 40
1.0
 10
215.5056111418
 20
133.7709339616
 30
0.0
 10
215.5358222186
 20
133.7755244386
 30
0.0
 10
215.6503185176
 20
133.7969170151
 30
0.0
 10
215.7622923981
 20
133.8343344964
 30
0.0
 10
215.8391658975
 20
133.8727712462
 30
0.0
  0
LINE
  5
429
330
208
100
AcDbEntity
  8
7_ALL_FEATURES
  6
Continuous
 62
     9
100
AcDbLine
 10
215.839166
 20
133.872771
 30
0.0
 11
239.880796
 21
145.893587
 31
0.0
  0
SPLINE
  5
42A
330
208
100
AcDbEntity
  8
7_ALL_FEATURES
  6
Continuous
 62
     9
100
AcDbSpline
 70
     0
 71
     3
 72
     9
 73
     5
 74
     0
 42
0.000000001
 43
0.0000001
 40
0.0
 40
0.0
 40
0.0
 40
0.0
 40
0.2647491322
 40
1.0
 40
1.0
 40
1.0
 40
1.0
 10
239.8807964579
 20
145.8935865263
 30
0.0
 10
239.9046820987
 20
145.9055293468
 30
0.0
 10
239.9927839585
 20
145.954584171
 30
0.0
 10
240.072099502
 20
146.0206656474
 30
0.0
 10
240.1193695271
 20
146.0778131542
 30
0.0
  0
LINE
  5
42B
330
208
100
AcDbEntity
  8
7_ALL_FEATURES
  6
Continuous
 62
     9
100
AcDbLine
 10
240.11937
 20
146.077813
 30
0.0
 11
267.32826
 21
141.079221
 31
0.0
  0
LINE
  5
42C
330
208
100
AcDbEntity
  8
7_ALL_FEATURES
  6
Continuous
 62
     9
100
AcDbLine
 10
215.505611
 20
115.167897
 30
0.0
 11
267.32826
 21
141.079221
 31
0.0
  0
LINE
  5
42D
330
208
100
AcDbEntity
  8
7_ALL_FEATURES
  6
Continuous
 62
     9
100
AcDbLine
 10
215.505611
 20
133.770934
 30
0.0
 11
215.505611
 21
124.254039
 31
0.0
  0
LINE
  5
42E
330
208
100
AcDbEntity
  8
7_ALL_FEATURES
  6
Continuous
 62
     9
100
AcDbLine
 10
215.505611
 20
124.254039
 30
0.0
 11
215.505611
 21
115.167897
 31
0.0
  0
LINE
  5
42F
330
208
100
AcDbEntity
  8
7_ALL_FEATURES
  6
Continuous
 62
     9
100
AcDbLine
 10
215.461407
 20
134.666775
 30
0.0
 11
218.686804
 21
136.279474
 31
0.0
  0
LINE
  5
430
330
208
100
AcDbEntity
  8
7_ALL_FEATURES
  6
Continuous
 62
     9
100
AcDbLine
 10
218.686804
 20
136.279474
 30
0.0
 11
239.503037
 21
146.68759
 31
0.0
  0
LINE
  5
431
330
208
100
AcDbEntity
  8
7_ALL_FEATURES
  6
Continuous
 62
     9
100
AcDbLine
 10
215.452793
 20
135.073945
 30
0.0
 11
215.461407
 21
134.666775
 31
0.0
  0
LINE
  5
432
330
208
100
AcDbEntity
  8
7_ALL_FEATURES
  6
Continuous
 62
     9
100
AcDbLine
 10
239.501825
 20
146.744877
 30
0.0
 11
239.503037
 21
146.68759
 31
0.0
  0
SPLINE
  5
433
330
208
100
AcDbEntity
  8
7_ALL_FEATURES
  6
Continuous
 62
     9
100
AcDbSpline
 70
     0
 71
     3
 72
     9
 73
     5
 74
     0
 42
0.000000001
 43
0.0000001
 40
0.0
 40
0.0
 40
0.0
 40
0.0
 40
0.2533607191
 40
1.0
 40
1.0
 40
1.0
 40
1.0
 10
239.6106601511
 20
146.687703191
 30
0.0
 10
239.612688812
 20
146.6765814263
 30
0.0
 10
239.6216046169
 20
146.6328564193
 30
0.0
 10
239.6342507141
 20
146.5898816891
 30
0.0
 10
239.6457977795
 20
146.5586307825
 30
0.0
  0
ARC
  5
434
330
208
100
AcDbEntity
  8
7_ALL_FEATURES
  6
Continuous
 62
     9
100
AcDbCircle
 10
240.338581
 20
146.814598
 30
0.0
 40
0.7385580209
100
AcDbArc
 50
200.278084
 51
201.969641
  0
SPLINE
  5
435
330
208
100
AcDbEntity
  8
7_ALL_FEATURES
  6
Continuous
 62
     9
100
AcDbSpline
 70
     0
 71
     3
 72
    10
 73
     6
 74
     0
 42
0.000000001
 43
0.0000001
 40
0.0
 40
0.0
 40
0.0
 40
0.0
 40
0.2310624928
 40
0.4691041688
 40
1.0
 40
1.0
 40
1.0
 40
1.0
 10
239.6536555602
 20
146.5382920929
 30
0.0
 10
239.6729045329
 20
146.4905789481
 30
0.0
 10
239.722481308
 20
146.397567381
 30
0.0
 10
239.8667035148
 20
146.2262242147
 30
0.0
 10
240.0134912504
 20
146.1303861249
 30
0.0
 10
240.1193695271
 20
146.0778131542
 30
0.0
  0
ARC
  5
436
330
208
100
AcDbEntity
  8
7_ALL_FEATURES
  6
Continuous
 62
     9
100
AcDbCircle
 10
240.725796
 20
146.713282
 30
0.0
 40
1.2230286409
100
AcDbArc
 50
181.203691
 51
183.414189
  0
SPLINE
  5
437
330
208
100
AcDbEntity
  8
7_ALL_FEATURES
  6
Continuous
 62
     9
100
AcDbSpline
 70
     0
 71
     3
 72
    11
 73
     7
 74
     0
 42
0.000000001
 43
0.0000001
 40
0.0
 40
0.0
 40
0.0
 40
0.0
 40
0.2512281337
 40
0.4945913705
 40
0.7407448732
 40
1.0
 40
1.0
 40
1.0
 40
1.0
 10
239.5049381895
 20
146.6404462964
 30
0.0
 10
239.5092312881
 20
146.5686633035
 30
0.0
 10
239.5306019694
 20
146.4276137854
 30
0.0
 10
239.6058079351
 20
146.2276846279
 30
0.0
 10
239.7229901919
 20
146.0464126117
 30
0.0
 10
239.8247386092
 20
145.9422124195
 30
0.0
 10
239.8807964579
 20
145.8935865263
 30
0.0
  0
SPLINE
  5
438
330
208
100
AcDbEntity
  8
7_ALL_FEATURES
  6
Continuous
 62
     9
100
AcDbSpline
 70
     0
 71
     3
 72
    11
 73
     7
 74
     0
 42
0.000000001
 43
0.0000001
 40
0.0
 40
0.0
 40
0.0
 40
0.0
 40
0.253298807
 40
0.4966305485
 40
0.7417062936
 40
1.0
 40
1.0
 40
1.0
 40
1.0
 10
215.4614067713
 20
134.6667748042
 30
0.0
 10
215.4630240718
 20
134.5903232028
 30
0.0
 10
215.4800918239
 20
134.4401374567
 30
0.0
 10
215.5535256559
 20
134.226660354
 30
0.0
 10
215.6737611028
 20
134.0338567436
 30
0.0
 10
215.7802618833
 20
133.9238659701
 30
0.0
 10
215.8391658975
 20
133.8727712462
 30
0.0
  0
SPLINE
  5
439
330
208
100
AcDbEntity
  8
7_ALL_FEATURES
  6
Continuous
 62
     9
100
AcDbSpline
 70
     0
 71
     3
 72
     9
 73
     5
 74
     0
 42
0.000000001
 43
0.0000001
 40
0.0
 40
0.0
 40
0.0
 40
0.0
 40
0.5184712386
 40
1.0
 40
1.0
 40
1.0
 40
1.0
 10
215.3258869576
 20
134.6359493569
 30
0.0
 10
215.3129729263
 20
134.481866226
 30
0.0
 10
215.3232339162
 20
134.1790383504
 30
0.0
 10
215.4320947457
 20
133.894295344
 30
0.0
 10
215.5056111418
 20
133.7709339616
 30
0.0
  0
SPLINE
  5
43A
330
208
100
AcDbEntity
  8
7_ALL_FEATURES
  6
Continuous
 62
     9
100
AcDbSpline
 70
     0
 71
     3
 72
     9
 73
     5
 74
     0
 42
0.000000001
 43
0.0000001
 40
0.0
 40
0.0
 40
0.0
 40
0.0
 40
0.5184712386
 40
1.0
 40
1.0
 40
1.0
 40
1.0
 10
214.8725927722
 20
134.6359493569
 30
0.0
 10
214.8855068034
 20
134.481866226
 30
0.0
 10
214.8752458135
 20
134.1790383504
 30
0.0
 10
214.766384984
 20
133.894295344
 30
0.0
 10
214.692868588
 20
133.7709339616
 30
0.0
  0
SPLINE
  5
43B
330
208
100
AcDbEntity
  8
7_ALL_FEATURES
  6
Continuous
 62
     9
100
AcDbSpline
 70
     0
 71
     3
 72
    11
 73
     7
 74
     0
 42
0.000000001
 43
0.0000001
 40
0.0
 40
0.0
 40
0.0
 40
0.0
 40
0.253298807
 40
0.4966305485
 40
0.7417062936
 40
1.0
 40
1.0
 40
1.0
 40
1.0
 10
214.7370729584
 20
134.6667748042
 30
0.0
 10
214.735455658
 20
134.5903232028
 30
0.0
 10
214.7183879058
 20
134.4401374567
 30
0.0
 10
214.6449540738
 20
134.226660354
 30
0.0
 10
214.5247186269
 20
134.0338567436
 30
0.0
 10
214.4182178464
 20
133.9238659701
 30
0.0
 10
214.3593138322
 20
133.8727712462
 30
0.0
  0
ARC
  5
43C
330
208
100
AcDbEntity
  8
7_ALL_FEATURES
  6
Continuous
 62
     9
100
AcDbCircle
 10
189.472684
 20
146.713282
 30
0.0
 40
1.2230286411
100
AcDbArc
 50
356.585811
 51
358.796309
  0
SPLINE
  5
43D
330
208
100
AcDbEntity
  8
7_ALL_FEATURES
  6
Continuous
 62
     9
100
AcDbSpline
 70
     0
 71
     3
 72
    11
 73
     7
 74
     0
 42
0.000000001
 43
0.0000001
 40
0.0
 40
0.0
 40
0.0
 40
0.0
 40
0.2512281337
 40
0.4945913705
 40
0.7407448732
 40
1.0
 40
1.0
 40
1.0
 40
1.0
 10
190.6935415402
 20
146.6404462964
 30
0.0
 10
190.6892484417
 20
146.5686633035
 30
0.0
 10
190.6678777603
 20
146.4276137854
 30
0.0
 10
190.5926717947
 20
146.2276846279
 30
0.0
 10
190.4754895378
 20
146.0464126117
 30
0.0
 10
190.3737411206
 20
145.9422124195
 30
0.0
 10
190.3176832719
 20
145.8935865263
 30
0.0
  0
SPLINE
  5
43E
330
208
100
AcDbEntity
  8
7_ALL_FEATURES
  6
Continuous
 62
     9
100
AcDbSpline
 70
     0
 71
     3
 72
     9
 73
     5
 74
     0
 42
0.000000001
 43
0.0000001
 40
0.0
 40
0.0
 40
0.0
 40
0.0
 40
0.2533607191
 40
1.0
 40
1.0
 40
1.0
 40
1.0
 10
190.5878195786
 20
146.687703191
 30
0.0
 10
190.5857909178
 20
146.6765814263
 30
0.0
 10
190.5768751129
 20
146.6328564193
 30
0.0
 10
190.5642290157
 20
146.5898816891
 30
0.0
 10
190.5526819502
 20
146.5586307825
 30
0.0
  0
ARC
  5
43F
330
208
100
AcDbEntity
  8
7_ALL_FEATURES
  6
Continuous
 62
     9
100
AcDbCircle
 10
189.859461
 20
146.814764
 30
0.0
 40
0.7390259702
100
AcDbArc
 50
338.353841
 51
339.721614
  0
SPLINE
  5
440
330
208
100
AcDbEntity
  8
7_ALL_FEATURES
  6
Continuous
 62
     9
100
AcDbSpline
 70
     0
 71
     3
 72
    10
 73
     6
 74
     0
 42
0.000000001
 43
0.0000001
 40
0.0
 40
0.0
 40
0.0
 40
0.0
 40
0.2311497537
 40
0.4691275965
 40
1.0
 40
1.0
 40
1.0
 40
1.0
 10
190.5463705676
 20
146.5421566537
 30
0.0
 10
190.5272673796
 20
146.4940225638
 30
0.0
 10
190.4778503983
 20
146.4001699169
 30
0.0
 10
190.3332982323
 20
146.227269523
 30
0.0
 10
190.1856363565
 20
146.1307078229
 30
0.0
 10
190.0791102026
 20
146.0778131542
 30
0.0
  0
SPLINE
  5
441
330
208
100
AcDbEntity
  8
7_ALL_FEATURES
  6
Continuous
 62
     9
100
AcDbSpline
 70
     0
 71
     3
 72
     9
 73
     5
 74
     0
 42
0.000000001
 43
0.0000001
 40
0.0
 40
0.0
 40
0.0
 40
0.0
 40
0.23737819
 40
1.0
 40
1.0
 40
1.0
 40
1.0
 10
267.3282595809
 20
141.4855921487
 30
0.0
 10
267.3618200912
 20
141.490041485
 30
0.0
 10
267.5023088483
 20
141.5155255616
 30
0.0
 10
267.6373504236
 20
141.5670905533
 30
0.0
 10
267.7346308578
 20
141.6157307704
 30
0.0
  0
SPLINE
  5
442
330
208
100
AcDbEntity
  8
7_ALL_FEATURES
  6
Continuous
 62
     9
100
AcDbSpline
 70
     0
 71
     3
 72
     9
 73
     5
 74
     0
 42
0.000000001
 43
0.0000001
 40
0.0
 40
0.0
 40
0.0
 40
0.0
 40
0.2626486864
 40
1.0
 40
1.0
 40
1.0
 40
1.0
 10
267.3282595809
 20
141.0792208718
 30
0.0
 10
267.3608029388
 20
141.0509919996
 30
0.0
 10
267.4875228081
 20
140.9468743427
 30
0.0
 10
267.6264560553
 20
140.8570756179
 30
0.0
 10
267.7346308577
 20
140.8029882166
 30
0.0
  0
SPLINE
  5
443
330
208
100
AcDbEntity
  8
7_ALL_FEATURES
  6
Continuous
 62
     9
100
AcDbSpline
 70
     0
 71
     3
 72
     9
 73
     5
 74
     0
 42
0.000000001
 43
0.0000001
 40
0.0
 40
0.0
 40
0.0
 40
0.0
 40
0.2626486864
 40
1.0
 40
1.0
 40
1.0
 40
1.0
 10
215.5056111418
 20
115.1678966523
 30
0.0
 10
215.5381544997
 20
115.1396677801
 30
0.0
 10
215.664874369
 20
115.0355501232
 30
0.0
 10
215.8038076162
 20
114.9457513983
 30
0.0
 10
215.9119824186
 20
114.8916639971
 30
0.0
  0
SPLINE
  5
444
330
208
100
AcDbEntity
  8
7_ALL_FEATURES
  6
Continuous
 62
     9
100
AcDbSpline
 70
     0
 71
     3
 72
     9
 73
     5
 74
     0
 42
0.000000001
 43
0.0000001
 40
0.0
 40
0.0
 40
0.0
 40
0.0
 40
0.2626486864
 40
1.0
 40
1.0
 40
1.0
 40
1.0
 10
214.692868588
 20
115.1678966523
 30
0.0
 10
214.66032523
 20
115.1396677801
 30
0.0
 10
214.5336053608
 20
115.0355501232
 30
0.0
 10
214.3946721136
 20
114.9457513983
 30
0.0
 10
214.2864973111
 20
114.8916639971
 30
0.0
  0
SPLINE
  5
445
330
208
100
AcDbEntity
  8
7_ALL_FEATURES
  6
Continuous
 62
     9
100
AcDbSpline
 70
     0
 71
     3
 72
     9
 73
     5
 74
     0
 42
0.000000001
 43
0.0000001
 40
0.0
 40
0.0
 40
0.0
 40
0.0
 40
0.2626486864
 40
1.0
 40
1.0
 40
1.0
 40
1.0
 10
162.8702201489
 20
141.0792208718
 30
0.0
 10
162.8376767909
 20
141.0509919996
 30
0.0
 10
162.7109569217
 20
140.9468743427
 30
0.0
 10
162.5720236745
 20
140.8570756179
 30
0.0
 10
162.463848872
 20
140.8029882166
 30
0.0
  0
SPLINE
  5
446
330
208
100
AcDbEntity
  8
7_ALL_FEATURES
  6
Continuous
 62
     9
100
AcDbSpline
 70
     0
 71
     3
 72
     9
 73
     5
 74
     0
 42
0.000000001
 43
0.0000001
 40
0.0
 40
0.0
 40
0.0
 40
0.0
 40
0.23737819
 40
1.0
 40
1.0
 40
1.0
 40
1.0
 10
162.8702201489
 20
141.4855921487
 30
0.0
 10
162.8366596385
 20
141.490041485
 30
0.0
 10
162.6961708815
 20
141.5155255616
 30
0.0
 10
162.5611293061
 20
141.5670905533
 30
0.0
 10
162.463848872
 20
141.6157307704
 30
0.0
  0
SPLINE
  5
447
330
208
100
AcDbEntity
  8
7_ALL_FEATURES
  6
Continuous
 62
     9
100
AcDbSpline
 70
     0
 71
     3
 72
     9
 73
     5
 74
     0
 42
0.000000001
 43
0.0000001
 40
0.0
 40
0.0
 40
0.0
 40
0.0
 40
0.23737819
 40
1.0
 40
1.0
 40
1.0
 40
1.0
 10
214.692868588
 20
167.3969163683
 30
0.0
 10
214.6593080776
 20
167.4013657046
 30
0.0
 10
214.5188193206
 20
167.4268497811
 30
0.0
 10
214.3837777452
 20
167.4784147729
 30
0.0
 10
214.2864973111
 20
167.52705499
 30
0.0
  0
SPLINE
  5
448
330
208
100
AcDbEntity
  8
7_ALL_FEATURES
  6
Continuous
 62
     9
100
AcDbSpline
 70
     0
 71
     3
 72
     9
 73
     5
 74
     0
 42
0.000000001
 43
0.0000001
 40
0.0
 40
0.0
 40
0.0
 40
0.0
 40
0.23737819
 40
1.0
 40
1.0
 40
1.0
 40
1.0
 10
215.5056111418
 20
167.3969163683
 30
0.0
 10
215.5391716521
 20
167.4013657046
 30
0.0
 10
215.6796604092
 20
167.4268497811
 30
0.0
 10
215.8147019845
 20
167.4784147729
 30
0.0
 10
215.9119824186
 20
167.52705499
 30
0.0
  0
SPLINE
  5
449
330
208
100
AcDbEntity
  8
7_ALL_FEATURES
  6
Continuous
 62
     9
100
AcDbSpline
 70
     0
 71
     3
 72
    19
 73
    15
 74
     0
 42
0.000000001
 43
0.0000001
 40
0.0
 40
0.0
 40
0.0
 40
0.0
 40
0.164356454
 40
0.3132217957
 40
0.3783880558
 40
0.4344910569
 40
0.51450074
 40
0.5488104949
 40
0.5904035918
 40
0.6419630607
 40
0.7026103892
 40
0.7702046941
 40
0.8432515447
 40
1.0
 40
1.0
 40
1.0
 40
1.0
 10
162.8702207488
 20
141.4855923579
 30
0.0
 10
162.8224469616
 20
141.4689352758
 30
0.0
 10
162.7318971224
 20
141.4354441115
 30
0.0
 10
162.6257310515
 20
141.3878448731
 30
0.0
 10
162.5533170039
 20
141.3454491087
 30
0.0
 10
162.5048538925
 20
141.3096011536
 30
0.0
 10
162.4663161458
 20
141.2616664386
 30
0.0
 10
162.4830519859
 20
141.2130782601
 30
0.0
 10
162.5124862424
 20
141.1860660048
 30
0.0
 10
162.5537634187
 20
141.162549959
 30
0.0
 10
162.6052395817
 20
141.14190075
 30
0.0
 10
162.6643756245
 20
141.1232937173
 30
0.0
 10
162.7531414704
 20
141.100753841
 30
0.0
 10
162.8226713601
 20
141.0874404237
 30
0.0
 10
162.8702185763
 20
141.0792211437
 30
0.0
  0
SPLINE
  5
44A
330
208
100
AcDbEntity
  8
7_ALL_FEATURES
  6
Continuous
 62
     9
100
AcDbSpline
 70
     0
 71
     3
 72
    12
 73
     8
 74
     0
 42
0.000000001
 43
0.0000001
 40
0.0
 40
0.0
 40
0.0
 40
0.0
 40
0.2596795861
 40
0.3715238811
 40
0.4786073407
 40
0.7109817493
 40
1.0
 40
1.0
 40
1.0
 40
1.0
 10
190.0791088031
 20
146.4841834951
 30
0.0
 10
190.0436609662
 20
146.4604740255
 30
0.0
 10
189.9957378497
 20
146.4193550587
 30
0.0
 10
189.958800952
 20
146.3488997216
 30
0.0
 10
189.9462145761
 20
146.2743158381
 30
0.0
 10
189.983880542
 20
146.1721112609
 30
0.0
 10
190.0432112503
 20
146.108865881
 30
0.0
 10
190.0791089905
 20
146.0778142027
 30
0.0
  0
SPLINE
  5
44B
330
208
100
AcDbEntity
  8
7_ALL_FEATURES
  6
Continuous
 62
     9
100
AcDbSpline
 70
     0
 71
     3
 72
    13
 73
     9
 74
     0
 42
0.000000001
 43
0.0000001
 40
0.0
 40
0.0
 40
0.0
 40
0.0
 40
0.2447737822
 40
0.37103427
 40
0.4998750721
 40
0.6288305914
 40
0.7551221703
 40
1.0
 40
1.0
 40
1.0
 40
1.0
 10
214.692868246
 20
115.1678970377
 30
0.0
 10
214.7449777059
 20
115.1091561661
 30
0.0
 10
214.8323180305
 20
115.0255157988
 30
0.0
 10
214.9755142863
 20
114.9501726835
 30
0.0
 10
215.0991537139
 20
114.9270123482
 30
0.0
 10
215.2228225449
 20
114.9501040832
 30
0.0
 10
215.3661142289
 20
115.0254464248
 30
0.0
 10
215.4534788375
 20
115.1091301489
 30
0.0
 10
215.5056105074
 20
115.1678959371
 30
0.0
  0
SPLINE
  5
44C
330
208
100
AcDbEntity
  8
7_ALL_FEATURES
  6
Continuous
 62
     9
100
AcDbSpline
 70
     0
 71
     3
 72
     9
 73
     5
 74
     0
 42
0.000000001
 43
0.0000001
 40
0.0
 40
0.0
 40
0.0
 40
0.0
 40
0.5000367197
 40
1.0
 40
1.0
 40
1.0
 40
1.0
 10
214.692870758
 20
133.770933393
 30
0.0
 10
214.8248667095
 20
133.7363457959
 30
0.0
 10
215.0992506503
 20
133.7072848623
 30
0.0
 10
215.3736328451
 20
133.7363509399
 30
0.0
 10
215.5056093982
 20
133.7709335047
 30
0.0
  0
SPLINE
  5
44D
330
208
100
AcDbEntity
  8
7_ALL_FEATURES
  6
Continuous
 62
     9
100
AcDbSpline
 70
     0
 71
     3
 72
    19
 73
    15
 74
     0
 42
0.000000001
 43
0.0000001
 40
0.0
 40
0.0
 40
0.0
 40
0.0
 40
0.1568744523
 40
0.2298056801
 40
0.2972969717
 40
0.3579243085
 40
0.4095041199
 40
0.4510944032
 40
0.4853886024
 40
0.5653985623
 40
0.6214710409
 40
0.6866596585
 40
0.8358042344
 40
1.0
 40
1.0
 40
1.0
 40
1.0
 10
267.3282589253
 20
141.0792207585
 30
0.0
 10
267.3758442046
 20
141.0874465887
 30
0.0
 10
267.4453793831
 20
141.1007488308
 30
0.0
 10
267.5341159646
 20
141.1232882096
 30
0.0
 10
267.5931772711
 20
141.141886996
 30
0.0
 10
267.6446211621
 20
141.162531283
 30
0.0
 10
267.6859049187
 20
141.1860257259
 30
0.0
 10
267.7153828066
 20
141.2129910383
 30
0.0
 10
267.7321757318
 20
141.2615517177
 30
0.0
 10
267.6937168719
 20
141.3095334079
 30
0.0
 10
267.6452724524
 20
141.34540918
 30
0.0
 10
267.572780534
 20
141.387838783
 30
0.0
 10
267.466563894
 20
141.4354285022
 30
0.0
 10
267.3759877072
 20
141.4689509614
 30
0.0
 10
267.3282607973
 20
141.4855917246
 30
0.0
  0
SPLINE
  5
44E
330
208
100
AcDbEntity
  8
7_ALL_FEATURES
  6
Continuous
 62
     9
100
AcDbSpline
 70
     0
 71
     3
 72
    12
 73
     8
 74
     0
 42
0.000000001
 43
0.0000001
 40
0.0
 40
0.0
 40
0.0
 40
0.0
 40
0.2890201936
 40
0.5213959793
 40
0.6284753844
 40
0.7403143976
 40
1.0
 40
1.0
 40
1.0
 40
1.0
 10
240.1193709418
 20
146.077814378
 30
0.0
 10
240.1552689619
 20
146.1088663266
 30
0.0
 10
240.2145986639
 20
146.1721138571
 30
0.0
 10
240.2522640801
 20
146.2743177204
 30
0.0
 10
240.2396807214
 20
146.3489008011
 30
0.0
 10
240.2027443009
 20
146.4193562674
 30
0.0
 10
240.1548193891
 20
146.4604736399
 30
0.0
 10
240.1193706639
 20
146.4841836708
 30
0.0
  0
SPLINE
  5
44F
330
208
100
AcDbEntity
  8
7_ALL_FEATURES
  6
Continuous
 62
     9
100
AcDbSpline
 70
     0
 71
     3
 72
    11
 73
     7
 74
     0
 42
0.000000001
 43
0.0000001
 40
0.0
 40
0.0
 40
0.0
 40
0.0
 40
0.2332484242
 40
0.4998666081
 40
0.7666516053
 40
1.0
 40
1.0
 40
1.0
 40
1.0
 10
215.5056114837
 20
167.396916098
 30
0.0
 10
215.4514705983
 20
167.4396967802
 30
0.0
 10
215.3268780738
 20
167.521670767
 30
0.0
 10
215.0993171316
 20
167.5794343822
 30
0.0
 10
214.8716865271
 20
167.5217465416
 30
0.0
 10
214.7470333563
 20
167.4397158322
 30
0.0
 10
214.6928692224
 20
167.3969168695
 30
0.0
  0
ARC
  5
450
330
208
100
AcDbEntity
  8
7_ALL_FEATURES
  6
Continuous
 62
     9
100
AcDbCircle
 10
215.093473
 20
157.731116
 30
0.0
 40
1.1372539243
100
AcDbArc
 50
68.752623
 51
79.378517
  0
SPLINE
  5
451
330
208
100
AcDbEntity
  8
7_ALL_FEATURES
  6
Continuous
 62
     9
100
AcDbSpline
 70
     0
 71
     3
 72
     9
 73
     5
 74
     0
 42
0.000000001
 43
0.0000001
 40
0.0
 40
0.0
 40
0.0
 40
0.0
 40
0.5000187573
 40
1.0
 40
1.0
 40
1.0
 40
1.0
 10
215.3030919296
 20
158.8488845606
 30
0.0
 10
215.2360846096
 20
158.8615406387
 30
0.0
 10
215.0994536291
 20
158.875192406
 30
0.0
 10
214.9628161876
 20
158.8615986622
 30
0.0
 10
214.8958093093
 20
158.8489678361
 30
0.0
  0
SPLINE
  5
452
330
208
100
AcDbEntity
  8
7_ALL_FEATURES
  6
Continuous
 62
     9
100
AcDbSpline
 70
     0
 71
     3
 72
     9
 73
     5
 74
     0
 42
0.000000001
 43
0.0000001
 40
0.0
 40
0.0
 40
0.0
 40
0.0
 40
0.2558764265
 40
1.0
 40
1.0
 40
1.0
 40
1.0
 10
214.8958093093
 20
158.8489678361
 30
0.0
 10
214.8781067354
 20
158.8456308931
 30
0.0
 10
214.8092391822
 20
158.8309734049
 30
0.0
 10
214.7416793884
 20
158.8100957017
 30
0.0
 10
214.6928703316
 20
158.7910643037
 30
0.0
  0
SPLINE
  5
453
330
208
100
AcDbEntity
  8
7_ALL_FEATURES
  6
Continuous
 62
     7
100
AcDbSpline
 70
     0
 71
     3
 72
    11
 73
     7
 74
     0
 42
0.000000001
 43
0.0000001
 40
0.0
 40
0.0
 40
0.0
 40
0.0
 40
0.3106102631
 40
0.5781393605
 40
0.8032595389
 40
1.0
 40
1.0
 40
1.0
 40
1.0
 10
215.0992398649
 20
171.1611818181
 30
0.0
 10
215.0980102143
 20
171.1101267712
 30
0.0
 10
215.0987857026
 20
171.0150499911
 30
0.0
 10
215.0996297258
 20
170.8829887869
 30
0.0
 10
215.0990854755
 20
170.7696400798
 30
0.0
 10
215.0995595061
 20
170.7002766419
 30
0.0
 10
215.0992398649
 20
170.6679305897
 30
0.0
  0
SPLINE
  5
454
330
208
100
AcDbEntity
  8
7_ALL_FEATURES
  6
Continuous
 62
     9
100
AcDbSpline
 70
     0
 71
     3
 72
     9
 73
     5
 74
     0
 42
0.000000001
 43
0.0000001
 40
0.0
 40
0.0
 40
0.0
 40
0.0
 40
0.2374074728
 40
1.0
 40
1.0
 40
1.0
 40
1.0
 10
190.0791102026
 20
146.0778131542
 30
0.0
 10
190.0943773
 20
146.0593558645
 30
0.0
 10
190.1633518697
 20
145.9854834988
 30
0.0
 10
190.2488645344
 20
145.9279958951
 30
0.0
 10
190.3176832719
 20
145.8935865263
 30
0.0
  0
LINE
  5
455
330
208
100
AcDbEntity
  8
7_ALL_FEATURES
  6
Continuous
 62
     9
100
AcDbLine
 10
190.317683
 20
145.893587
 30
0.0
 11
214.359314
 21
133.872771
 31
0.0
  0
SPLINE
  5
456
330
208
100
AcDbEntity
  8
7_ALL_FEATURES
  6
Continuous
 62
     9
100
AcDbSpline
 70
     0
 71
     3
 72
     9
 73
     5
 74
     0
 42
0.000000001
 43
0.0000001
 40
0.0
 40
0.0
 40
0.0
 40
0.0
 40
0.2379659477
 40
1.0
 40
1.0
 40
1.0
 40
1.0
 10
214.3593138322
 20
133.8727712462
 30
0.0
 10
214.3841153293
 20
133.8603704976
 30
0.0
 10
214.4907571275
 20
133.8131259763
 30
0.0
 10
214.6050804159
 20
133.7842730952
 30
0.0
 10
214.692868588
 20
133.7709339616
 30
0.0
  0
LINE
  5
457
330
208
100
AcDbEntity
  8
7_ALL_FEATURES
  6
Continuous
 62
     9
100
AcDbLine
 10
214.692869
 20
133.770934
 30
0.0
 11
214.692869
 21
124.254039
 31
0.0
  0
LINE
  5
458
330
208
100
AcDbEntity
  8
7_ALL_FEATURES
  6
Continuous
 62
     9
100
AcDbLine
 10
214.692869
 20
124.254039
 30
0.0
 11
214.692869
 21
115.167897
 31
0.0
  0
LINE
  5
459
330
208
100
AcDbEntity
  8
7_ALL_FEATURES
  6
Continuous
 62
     9
100
AcDbLine
 10
162.87022
 20
141.079221
 30
0.0
 11
214.692869
 21
115.167897
 31
0.0
  0
LINE
  5
45A
330
208
100
AcDbEntity
  8
7_ALL_FEATURES
  6
Continuous
 62
     9
100
AcDbLine
 10
162.87022
 20
141.079221
 30
0.0
 11
190.07911
 21
146.077813
 31
0.0
  0
LINE
  5
45B
330
208
100
AcDbEntity
  8
7_ALL_FEATURES
  6
Continuous
 62
     9
100
AcDbLine
 10
190.695442
 20
146.68759
 30
0.0
 11
211.511675
 21
136.279474
 31
0.0
  0
LINE
  5
45C
330
208
100
AcDbEntity
  8
7_ALL_FEATURES
  6
Continuous
 62
     9
100
AcDbLine
 10
211.511675
 20
136.279474
 30
0.0
 11
214.737073
 21
134.666775
 31
0.0
  0
LINE
  5
45D
330
208
100
AcDbEntity
  8
7_ALL_FEATURES
  6
Continuous
 62
     9
100
AcDbLine
 10
190.695442
 20
146.68759
 30
0.0
 11
190.696654
 21
146.744877
 31
0.0
  0
LINE
  5
45E
330
208
100
AcDbEntity
  8
7_ALL_FEATURES
  6
Continuous
 62
     9
100
AcDbLine
 10
214.745686
 20
135.073945
 30
0.0
 11
214.737073
 21
134.666775
 31
0.0
  0
SPLINE
  5
45F
330
208
100
AcDbEntity
  8
7_ALL_FEATURES
  6
Continuous
 62
     7
100
AcDbSpline
 70
     0
 71
     3
 72
    11
 73
     7
 74
     0
 42
0.000000001
 43
0.0000001
 40
0.0
 40
0.0
 40
0.0
 40
0.0
 40
0.2368513439
 40
0.4829493492
 40
0.7380365936
 40
1.0
 40
1.0
 40
1.0
 40
1.0
 10
155.453489468
 20
141.3383066197
 30
0.0
 10
155.4524112923
 20
141.4086535788
 30
0.0
 10
155.4725317635
 20
141.552932117
 30
0.0
 10
155.5535640488
 20
141.7576805977
 30
0.0
 10
155.6595671226
 20
141.9580885356
 30
0.0
 10
155.7306415151
 20
142.0942447003
 30
0.0
 10
155.7655889945
 20
142.1637701356
 30
0.0
  0
SPLINE
  5
460
330
208
100
AcDbEntity
  8
7_ALL_FEATURES
  6
Continuous
 62
     7
100
AcDbSpline
 70
     0
 71
     3
 72
    12
 73
     8
 74
     0
 42
0.000000001
 43
0.0000001
 40
0.0
 40
0.0
 40
0.0
 40
0.0
 40
0.2100627416
 40
0.4407476874
 40
0.5677722566
 40
0.7036826189
 40
1.0
 40
1.0
 40
1.0
 40
1.0
 10
214.4554518329
 20
171.5087015549
 30
0.0
 10
214.4936036757
 20
171.474288516
 30
0.0
 10
214.5808074236
 20
171.4094234126
 30
0.0
 10
214.7068496418
 20
171.3500934695
 30
0.0
 10
214.8177786047
 20
171.3025656958
 30
0.0
 10
214.9416272608
 20
171.2443692075
 30
0.0
 10
215.0349832529
 20
171.1947062004
 30
0.0
 10
215.0992398649
 20
171.1611818181
 30
0.0
  0
SPLINE
  5
461
330
208
100
AcDbEntity
  8
7_ALL_FEATURES
  6
Continuous
 62
     7
100
AcDbSpline
 70
     0
 71
     3
 72
    12
 73
     8
 74
     0
 42
0.000000001
 43
0.0000001
 40
0.0
 40
0.0
 40
0.0
 40
0.0
 40
0.2963173811
 40
0.4322277434
 40
0.5592523126
 40
0.7899372584
 40
1.0
 40
1.0
 40
1.0
 40
1.0
 10
215.0992398649
 20
171.1611818181
 30
0.0
 10
215.1634964768
 20
171.1947062004
 30
0.0
 10
215.2568524689
 20
171.2443692075
 30
0.0
 10
215.380701125
 20
171.3025656958
 30
0.0
 10
215.4916300879
 20
171.3500934695
 30
0.0
 10
215.6176723062
 20
171.4094234126
 30
0.0
 10
215.704876054
 20
171.474288516
 30
0.0
 10
215.7430278968
 20
171.5087015549
 30
0.0
  0
SPLINE
  5
462
330
208
100
AcDbEntity
  8
7_ALL_FEATURES
  6
Continuous
 62
     7
100
AcDbSpline
 70
     0
 71
     3
 72
    11
 73
     7
 74
     0
 42
0.000000001
 43
0.0000001
 40
0.0
 40
0.0
 40
0.0
 40
0.0
 40
0.2619634064
 40
0.5170506508
 40
0.7631486561
 40
1.0
 40
1.0
 40
1.0
 40
1.0
 10
274.4328907353
 20
142.1637701356
 30
0.0
 10
274.4678382146
 20
142.0942447003
 30
0.0
 10
274.5389126072
 20
141.9580885356
 30
0.0
 10
274.6449156809
 20
141.7576805977
 30
0.0
 10
274.7259479662
 20
141.552932117
 30
0.0
 10
274.7460684374
 20
141.4086535788
 30
0.0
 10
274.7449902617
 20
141.3383066197
 30
0.0
  0
SPLINE
  5
463
330
208
100
AcDbEntity
  8
7_ALL_FEATURES
  6
Continuous
 62
     7
100
AcDbSpline
 70
     0
 71
     3
 72
    10
 73
     6
 74
     0
 42
0.000000001
 43
0.0000001
 40
0.0
 40
0.0
 40
0.0
 40
0.0
 40
0.2466343326
 40
0.4968826744
 40
1.0
 40
1.0
 40
1.0
 40
1.0
 10
274.7408848323
 20
141.3363371036
 30
0.0
 10
274.6858381977
 20
141.3100541078
 30
0.0
 10
274.5709042626
 20
141.2649866894
 30
0.0
 10
274.3283311992
 20
141.2119760809
 30
0.0
 10
274.1408163374
 20
141.2090520809
 30
0.0
 10
274.0163820571
 20
141.2093594935
 30
0.0
  0
SPLINE
  5
464
330
208
100
AcDbEntity
  8
7_ALL_FEATURES
  6
Continuous
 62
     7
100
AcDbSpline
 70
     0
 71
     3
 72
    16
 73
    12
 74
     0
 42
0.000000001
 43
0.0000001
 40
0.0
 40
0.0
 40
0.0
 40
0.0
 40
0.0070382761
 40
0.0225629299
 40
0.0469137646
 40
0.0799558281
 40
0.171365008
 40
0.2941842095
 40
0.4439268203
 40
0.6157922562
 40
1.0
 40
1.0
 40
1.0
 40
1.0
 10
215.0993348306
 20
111.515467137
 30
0.0
 10
215.0998271558
 20
111.5157177036
 30
0.0
 10
215.1000741353
 20
111.51785421
 30
0.0
 10
215.100177139
 20
111.5212388638
 30
0.0
 10
215.0999504302
 20
111.5271133006
 30
0.0
 10
215.0994495746
 20
111.5386922015
 30
0.0
 10
215.0989629062
 20
111.5581607576
 30
0.0
 10
215.0990778003
 20
111.5867002975
 30
0.0
 10
215.0992699273
 20
111.6215920904
 30
0.0
 10
215.0991685647
 20
111.6769856889
 30
0.0
 10
215.0989418832
 20
111.72063419
 30
0.0
 10
215.0992398649
 20
111.7507883974
 30
0.0
  0
LINE
  5
465
330
208
100
AcDbEntity
  8
7_ALL_FEATURES
  6
Continuous
 62
     9
100
AcDbLine
 10
274.496209
 20
145.156918
 30
0.0
 11
274.432891
 21
142.16377
 31
0.0
  0
SPLINE
  5
466
330
208
100
AcDbEntity
  8
7_ALL_FEATURES
  6
Continuous
 62
     7
100
AcDbSpline
 70
     0
 71
     3
 72
    10
 73
     6
 74
     0
 42
0.000000001
 43
0.0000001
 40
0.0
 40
0.0
 40
0.0
 40
0.0
 40
0.495922375
 40
0.7478269991
 40
1.0
 40
1.0
 40
1.0
 40
1.0
 10
155.4575948974
 20
141.3362421378
 30
0.0
 10
155.5671837979
 20
141.2814695805
 30
0.0
 10
155.7490261948
 20
141.2307961007
 30
0.0
 10
155.9951479406
 20
141.2097635052
 30
0.0
 10
156.119800199
 20
141.2095133983
 30
0.0
 10
156.1820976726
 20
141.2093594935
 30
0.0
  0
LINE
  5
467
330
208
100
AcDbEntity
  8
7_ALL_FEATURES
  6
Continuous
 62
     9
100
AcDbLine
 10
215.806347
 20
174.50185
 30
0.0
 11
215.743028
 21
171.508702
 31
0.0
  0
LINE
  5
468
330
208
100
AcDbEntity
  8
7_ALL_FEATURES
  6
Continuous
 62
     9
100
AcDbLine
 10
274.432891
 20
142.16377
 30
0.0
 11
259.528902
 21
149.615764
 31
0.0
  0
LINE
  5
469
330
208
100
AcDbEntity
  8
7_ALL_FEATURES
  6
Continuous
 62
     9
100
AcDbLine
 10
259.528902
 20
149.615764
 30
0.0
 11
217.809602
 21
170.475415
 31
0.0
  0
LINE
  5
46A
330
208
100
AcDbEntity
  8
7_ALL_FEATURES
  6
Continuous
 62
     9
100
AcDbLine
 10
217.809602
 20
170.475415
 30
0.0
 11
215.743028
 21
171.508702
 31
0.0
  0
LINE
  5
46B
330
208
100
AcDbEntity
  8
7_ALL_FEATURES
  6
Continuous
 62
     9
100
AcDbLine
 10
267.734631
 20
141.615731
 30
0.0
 11
259.948331
 21
145.508881
 31
0.0
  0
LINE
  5
46C
330
208
100
AcDbEntity
  8
7_ALL_FEATURES
  6
Continuous
 62
     9
100
AcDbLine
 10
259.948331
 20
145.508881
 30
0.0
 11
218.228552
 21
166.36877
 31
0.0
  0
LINE
  5
46D
330
208
100
AcDbEntity
  8
7_ALL_FEATURES
  6
Continuous
 62
     9
100
AcDbLine
 10
218.228552
 20
166.36877
 30
0.0
 11
215.911982
 21
167.527055
 31
0.0
  0
SPLINE
  5
46E
330
208
100
AcDbEntity
  8
7_ALL_FEATURES
  6
Continuous
 62
     9
100
AcDbSpline
 70
     0
 71
     3
 72
    15
 73
    11
 74
     0
 42
0.000000001
 43
0.0000001
 40
0.0
 40
0.0
 40
0.0
 40
0.0
 40
0.1390663906
 40
0.2711965908
 40
0.3920761903
 40
0.4999006675
 40
0.6077919545
 40
0.7287186252
 40
0.8609805526
 40
1.0
 40
1.0
 40
1.0
 40
1.0
 10
267.7346308578
 20
140.8029882166
 30
0.0
 10
267.7841466522
 20
140.8277461138
 30
0.0
 10
267.8790896679
 20
140.8795295284
 30
0.0
 10
268.0067274397
 20
140.9701733353
 30
0.0
 10
268.1069742036
 20
141.0753219969
 30
0.0
 10
268.1538454199
 20
141.2092568256
 30
0.0
 10
268.1071027973
 20
141.3432776623
 30
0.0
 10
268.0067946071
 20
141.4485221414
 30
0.0
 10
267.8790826097
 20
141.5391476495
 30
0.0
 10
267.7841299376
 20
141.5909812305
 30
0.0
 10
267.7346308577
 20
141.6157307704
 30
0.0
  0
LINE
  5
46F
330
208
100
AcDbEntity
  8
7_ALL_FEATURES
  6
Continuous
 62
     9
100
AcDbLine
 10
215.911982
 20
114.891664
 30
0.0
 11
267.734631
 21
140.802988
 31
0.0
  0
SPLINE
  5
470
330
208
100
AcDbEntity
  8
7_ALL_FEATURES
  6
Continuous
 62
     9
100
AcDbSpline
 70
     0
 71
     3
 72
    11
 73
     7
 74
     0
 42
0.000000001
 43
0.0000001
 40
0.0
 40
0.0
 40
0.0
 40
0.0
 40
0.2215637542
 40
0.4998601533
 40
0.7783605546
 40
1.0
 40
1.0
 40
1.0
 40
1.0
 10
214.2864973111
 20
114.8916639971
 30
0.0
 10
214.3978851317
 20
114.8359700868
 30
0.0
 10
214.6603948718
 20
114.7310634891
 30
0.0
 10
215.0991129276
 20
114.6664674762
 30
0.0
 10
215.5379013864
 20
114.7309793182
 30
0.0
 10
215.8005565454
 20
114.8359510605
 30
0.0
 10
215.9119824186
 20
114.8916639971
 30
0.0
  0
LINE
  5
471
330
208
100
AcDbEntity
  8
7_ALL_FEATURES
  6
Continuous
 62
     9
100
AcDbLine
 10
162.463849
 20
140.802988
 30
0.0
 11
214.286497
 21
114.891664
 31
0.0
  0
SPLINE
  5
472
330
208
100
AcDbEntity
  8
7_ALL_FEATURES
  6
Continuous
 62
     9
100
AcDbSpline
 70
     0
 71
     3
 72
    15
 73
    11
 74
     0
 42
0.000000001
 43
0.0000001
 40
0.0
 40
0.0
 40
0.0
 40
0.0
 40
0.1390626694
 40
0.2712042853
 40
0.3920862681
 40
0.4999195829
 40
0.6078117059
 40
0.7287375776
 40
0.8609645684
 40
1.0
 40
1.0
 40
1.0
 40
1.0
 10
162.463848872
 20
141.6157307704
 30
0.0
 10
162.4143343262
 20
141.5909734975
 30
0.0
 10
162.3193903768
 20
141.5391857207
 30
0.0
 10
162.1917454198
 20
141.4485436187
 30
0.0
 10
162.091497569
 20
141.3433840763
 30
0.0
 10
162.0446257092
 20
141.2094410157
 30
0.0
 10
162.0913920886
 20
141.0754219236
 30
0.0
 10
162.1916996871
 20
140.9702009602
 30
0.0
 10
162.3193894241
 20
140.8795570439
 30
0.0
 10
162.4143440245
 20
140.8277406404
 30
0.0
 10
162.463848872
 20
140.8029882166
 30
0.0
  0
LINE
  5
473
330
208
100
AcDbEntity
  8
7_ALL_FEATURES
  6
Continuous
 62
     9
100
AcDbLine
 10
214.286497
 20
167.527055
 30
0.0
 11
211.969928
 21
166.36877
 31
0.0
  0
LINE
  5
474
330
208
100
AcDbEntity
  8
7_ALL_FEATURES
  6
Continuous
 62
     9
100
AcDbLine
 10
211.969928
 20
166.36877
 30
0.0
 11
170.250174
 21
145.508893
 31
0.0
  0
LINE
  5
475
330
208
100
AcDbEntity
  8
7_ALL_FEATURES
  6
Continuous
 62
     9
100
AcDbLine
 10
170.250174
 20
145.508893
 30
0.0
 11
162.463849
 21
141.615731
 31
0.0
  0
SPLINE
  5
476
330
208
100
AcDbEntity
  8
7_ALL_FEATURES
  6
Continuous
 62
     9
100
AcDbSpline
 70
     0
 71
     3
 72
    11
 73
     7
 74
     0
 42
0.000000001
 43
0.0000001
 40
0.0
 40
0.0
 40
0.0
 40
0.0
 40
0.2215637541
 40
0.4998601531
 40
0.7783605545
 40
1.0
 40
1.0
 40
1.0
 40
1.0
 10
215.9119824186
 20
167.52705499
 30
0.0
 10
215.8005945981
 20
167.5827489002
 30
0.0
 10
215.5380848582
 20
167.687655498
 30
0.0
 10
215.0993668023
 20
167.7522515108
 30
0.0
 10
214.6605783435
 20
167.6877396689
 30
0.0
 10
214.3979231844
 20
167.5827679266
 30
0.0
 10
214.2864973111
 20
167.52705499
 30
0.0
  0
LINE
  5
477
330
208
100
AcDbEntity
  8
7_ALL_FEATURES
  6
Continuous
 62
     9
100
AcDbLine
 10
215.09924
 20
111.750788
 30
0.0
 11
274.016382
 21
141.209359
 31
0.0
  0
LINE
  5
478
330
208
100
AcDbEntity
  8
7_ALL_FEATURES
  6
Continuous
 62
     9
100
AcDbLine
 10
274.016382
 20
141.209359
 30
0.0
 11
215.09924
 21
170.667931
 31
0.0
  0
LINE
  5
479
330
208
100
AcDbEntity
  8
7_ALL_FEATURES
  6
Continuous
 62
     9
100
AcDbLine
 10
215.09924
 20
170.667931
 30
0.0
 11
156.182098
 21
141.209359
 31
0.0
  0
LINE
  5
47A
330
208
100
AcDbEntity
  8
7_ALL_FEATURES
  6
Continuous
 62
     9
100
AcDbLine
 10
156.182098
 20
141.209359
 30
0.0
 11
215.09924
 21
111.750788
 31
0.0
  0
LINE
  5
47B
330
208
100
AcDbEntity
  8
7_ALL_FEATURES
  6
Continuous
 62
     9
100
AcDbLine
 10
214.392133
 20
174.50185
 30
0.0
 11
214.455452
 21
171.508702
 31
0.0
  0
LINE
  5
47C
330
208
100
AcDbEntity
  8
7_ALL_FEATURES
  6
Continuous
 62
     9
100
AcDbLine
 10
155.765589
 20
142.16377
 30
0.0
 11
155.70227
 21
145.156918
 31
0.0
  0
LINE
  5
47D
330
208
100
AcDbEntity
  8
7_ALL_FEATURES
  6
Continuous
 62
     9
100
AcDbLine
 10
214.455452
 20
171.508702
 30
0.0
 11
212.388878
 21
170.475415
 31
0.0
  0
LINE
  5
47E
330
208
100
AcDbEntity
  8
7_ALL_FEATURES
  6
Continuous
 62
     9
100
AcDbLine
 10
212.388878
 20
170.475415
 30
0.0
 11
170.669578
 21
149.615764
 31
0.0
  0
LINE
  5
47F
330
208
100
AcDbEntity
  8
7_ALL_FEATURES
  6
Continuous
 62
     9
100
AcDbLine
 10
170.669578
 20
149.615764
 30
0.0
 11
155.765589
 21
142.16377
 31
0.0
  0
ARC
  5
480
330
208
100
AcDbEntity
  8
7_ALL_FEATURES
  6
Continuous
 62
     9
100
AcDbCircle
 10
190.805798
 20
146.910039
 30
0.0
 40
0.2482727987
100
AcDbArc
 50
230.114815
 51
233.670343
  0
ARC
  5
481
330
208
100
AcDbEntity
  8
7_ALL_FEATURES
  6
Continuous
 62
     9
100
AcDbCircle
 10
190.808627
 20
146.914168
 30
0.0
 40
0.2532751413
100
AcDbArc
 50
233.708016
 51
243.455961
  0
SPLINE
  5
482
330
208
100
AcDbEntity
  8
7_ALL_FEATURES
  6
Continuous
 62
     9
100
AcDbSpline
 70
     0
 71
     3
 72
     9
 73
     5
 74
     0
 42
0.000000001
 43
0.0000001
 40
0.0
 40
0.0
 40
0.0
 40
0.0
 40
0.2398936284
 40
1.0
 40
1.0
 40
1.0
 40
1.0
 10
214.7370729584
 20
134.6667748042
 30
0.0
 10
214.7470623714
 20
134.6617800977
 30
0.0
 10
214.7900471149
 20
134.6436543537
 30
0.0
 10
214.8372082127
 20
134.6364102747
 30
0.0
 10
214.8725927722
 20
134.6359493569
 30
0.0
  0
SPLINE
  5
483
330
208
100
AcDbEntity
  8
7_ALL_FEATURES
  6
Continuous
 62
     9
100
AcDbSpline
 70
     0
 71
     3
 72
     9
 73
     5
 74
     0
 42
0.000000001
 43
0.0000001
 40
0.0
 40
0.0
 40
0.0
 40
0.0
 40
0.2627908493
 40
1.0
 40
1.0
 40
1.0
 40
1.0
 10
215.3258869576
 20
134.6359493569
 30
0.0
 10
215.3381163224
 20
134.6361086561
 30
0.0
 10
215.3845567997
 20
134.6389288597
 30
0.0
 10
215.4307189389
 20
134.6514308879
 30
0.0
 10
215.4614067713
 20
134.6667748042
 30
0.0
  0
SPLINE
  5
484
330
208
100
AcDbEntity
  8
7_ALL_FEATURES
  6
Continuous
 62
     9
100
AcDbSpline
 70
     0
 71
     3
 72
     9
 73
     5
 74
     0
 42
0.000000001
 43
0.0000001
 40
0.0
 40
0.0
 40
0.0
 40
0.0
 40
0.5000372354
 40
1.0
 40
1.0
 40
1.0
 40
1.0
 10
214.8725927722
 20
134.6359493569
 30
0.0
 10
214.9481422605
 20
134.6349652525
 30
0.0
 10
215.0992454918
 20
134.6395309071
 30
0.0
 10
215.2503487208
 20
134.634965399
 30
0.0
 10
215.3258869576
 20
134.6359493569
 30
0.0
  0
ARC
  5
485
330
208
100
AcDbEntity
  8
7_ALL_FEATURES
  6
Continuous
 62
     9
100
AcDbCircle
 10
239.39024
 20
146.91342
 30
0.0
 40
0.2524335297
100
AcDbArc
 50
296.541213
 51
309.818375
  0
DIMENSION
  5
486
330
208
100
AcDbEntity
  8
0
  6
Continuous
 62
     2
100
AcDbDimension
280
     0
  2
*D1
 10
40.952861
 20
188.788817
 30
0.0
 11
83.450393
 21
188.788817
 31
0.0
 70
   160
 71
     2
 42
85.0
 73
     0
 74
     0
 75
     0
  3
DIMSTYLE_1
100
AcDbAlignedDimension
 13
125.952861
 23
180.168784
 33
0.0
 14
40.952861
 24
180.168784
 34
0.0
 50
180.0
100
AcDbRotatedDimension
  0
DIMENSION
  5
487
330
208
100
AcDbEntity
  8
0
  6
Continuous
 62
     2
100
AcDbDimension
280
     0
  2
*D2
 10
20.218338
 20
88.744616
 30
0.0
 11
20.218338
 21
131.563493
 31
0.0
 70
   160
 71
     2
 42
85.0
 73
     0
 74
     0
 75
     0
  3
DIMSTYLE_1
100
AcDbAlignedDimension
 13
35.479261
 23
173.744616
 33
0.0
 14
35.479261
 24
88.744616
 34
0.0
 50
270.0
100
AcDbRotatedDimension
  0
DIMENSION
  5
488
330
208
100
AcDbEntity
  8
0
  6
Continuous
 62
     2
100
AcDbDimension
280
     0
  2
*D3
 10
100.952861
 20
180.849006
 30
0.0
 11
83.461545
 21
180.849006
 31
0.0
 70
   160
 71
     2
 42
35.0
 73
     0
 74
     0
 75
     0
  3
DIMSTYLE_1
100
AcDbAlignedDimension
 13
65.952861
 23
182.349006
 33
0.0
 14
100.952861
 24
179.349006
 34
0.0
100
AcDbRotatedDimension
  0
DIMENSION
  5
489
330
208
100
AcDbEntity
  8
0
  6
Continuous
 62
     2
100
AcDbDimension
280
     0
  2
*D4
 10
27.338289
 20
148.744616
 30
0.0
 11
27.338289
 21
131.253298
 31
0.0
 70
   160
 71
     2
 42
35.0
 73
     0
 74
     0
 75
     0
  3
DIMSTYLE_1
100
AcDbAlignedDimension
 13
35.479261
 23
113.744616
 33
0.0
 14
35.442911
 24
148.744616
 34
0.0
 50
90.0
100
AcDbRotatedDimension
  0
DIMENSION
  5
48A
330
208
100
AcDbEntity
  8
0
  6
Continuous
 62
     2
100
AcDbDimension
280
     0
  2
*D5
 10
150.803209
 20
74.38332
 30
0.0
 11
150.803209
 21
69.637468
 31
0.0
 70
   160
 71
     2
 42
9.5
 73
     0
 74
     0
 75
     0
  3
DIMSTYLE_2
100
AcDbAlignedDimension
 13
139.411714
 23
64.88332
 33
0.0
 14
139.131009
 24
74.38332
 34
0.0
 50
90.0
100
AcDbRotatedDimension
  0
INSERT
  5
48B
330
208
100
AcDbEntity
  8
0
  6
Continuous
 62
     2
100
AcDbBlockReference
  2
LOGO2_BL0
 10
207.828459
 20
39.543518
 30
0.0
  0
ACAD_TABLE
  5
48C
102
{ACAD_XDICTIONARY
360
4E3
102
}
330
208
100
AcDbEntity
  8
0
  6
Continuous
 62
     2
160
              3232
310
A00C000017000000880000001D000000000000000000F03F00000000000000000000000000000000D820BAC1134068400000000000000000000000000000F03F0000000000000000D9CB19FE91854A4000000000000000000000000000000000000000000000F03F0000000000000000000000000000000000000000000000
310
000000000000000000000000000000F03F54000000200000000200000000000000000000000000000000000000000000000000000000000000008056400000000000000000000000000000000000000000000000000000000000000000000000000000F03F5400000020000000020000000000000000000000000000000000
310
00000000000000000000000000000000000000000000000044C0000000000000000000000000000000000000000000000000000000000000F03F5400000020000000020000000000000000003E4000000000000018C00000000000000000000000000080564000000000000018C00000000000000000000000000000000000
310
00000000000000000000000000F03F5400000020000000020000000000000000003E4000000000000028C00000000000000000000000000080564000000000000028C0000000000000000000000000000000000000000000000000000000000000F03F5400000020000000020000000000000000003E4000000000000036C0
310
0000000000000000000000000080564000000000000036C0000000000000000000000000000000000000000000000000000000000000F03F54000000200000000200000000000000000000000000000000003BC0000000000000000000000000008056400000000000003BC000000000000000000000000000000000000000
310
0000000000000000000000F03F540000002000000002000000000000000000000000000000000044C00000000000000000000000000080564000000000000044C0000000000000000000000000000000000000000000000000000000000000F03F5400000020000000020000000000000000003E4000000000000000000000
310
0000000000000000000000003E400000000000003BC0000000000000000000000000000000000000000000000000000000000000F03F540000002000000002000000000000000080514000000000000000000000000000000000000000000080514000000000000028C0000000000000000000000000000000000000000000
310
000000000000000000F03F540000002000000002000000000000000080564000000000000000000000000000000000000000000080564000000000000044C0000000000000000000000000000000000000000000000000000000000000F03F0C000000100000000B000000C400000026000000CDCCCCCCCC7C3F4000000000
310
000012C0000000000000000000000000000000000000000000000000000000000000F03F000000000000F03F0000000000000000000000000000000041003000350030005F0043005F003000300034000000000014000000010000000000000000000840333333333333EB3F0000000000000000000000000000F03F000000
310
00000000000000000000000000000000000000000000000000000000000000000000000000740078007400000000000000BC000000260000003333333333DF514000000000000013C0000000000000000000000000000000000000000000000000000000000000F03F000000000000F03F0000000000000000000000000000
310
00005200650076003A0030003000000000000C000000010000000000000000000C40333333333333EB3F0000000000000000000000000000F03F00000000000000000000000000000000000000000000000000000000000000000000000000000000740078007400000000000000C000000026000000CDCCCCCCCC7C3F4000
310
000000008026C0000000000000000000000000000000000000000000000000000000000000F03F000000000000F03F000000000000000000000000000000005300630061006C0065003A0031003A003100000012000000010000000000000000000C40333333333333EB3F0000000000000000000000000000F03F00000000
310
000000000000000000000000000000000000000000000000000000000000000000000000740078007400000000000000B4000000260000003333333333DF514000000000008025C0000000000000000000000000000000000000000000000000000000000000F03F000000000000F03F000000000000000000000000000000
310
00410034000000000004000000010000000000000000000C40333333333333EB3F0000000000000000000000000000F03F00000000000000000000000000000000000000000000000000000000000000000000000000000000740078007400000000000000F000000026000000CDCCCCCCCC7C3F400000000000C032C00000
310
00000000000000000000000000000000000000000000000000000000F03F000000000000F03F00000000000000000000000000000000460052004F004E00540041004C0045002000530045004D0049002000500052004F0046002E002000510055004100440052004F00200043004F004D0042004F00320000004200000001
310
0000000000000000000C40333333333333EB3F0000000000000000000000000000F03F00000000000000000000000000000000000000000000000000000000000000000000000000000000740078007400000000000000C800000026000000CDCCCCCCCC7C3F400000000000C039C000000000000000000000000000000000
310
0000000000000000000000000000F03F000000000000F03F0000000000000000000000000000000044004100540045003A00310031002E00310032002E003100390000001A000000010000000000000000000440333333333333EB3F0000000000000000000000000000F03F00000000000000000000000000000000000000
310
0000000000000000000000000000000000000000007400780074000000000000001801000026000000CDCCCCCCCCCCF73F0000000000903DC0000000000000000000000000000000000000000000000000000000000000F03F000000000000F03F0000000000000000000000000000000041006E007900200069006E007400
310
65006700720061006C0020006F00720020007000610072007400690061006C00200072006500700072006F00640075006300740069006F006E00730020006100720065002000700072006F0068006900620069007400650064000000000068000000010000000000000000000240333333333333EB3F000000000000000000
310
0000000000F03F000000000000000000000000000000000000000000000000000000000000000000000000000000007400780074000000000000002001000026000000CDCCCCCCCCCCF73F00000000007840C0000000000000000000000000000000000000000000000000000000000000F03F000000000000F03F00000000
310
00000000000000000000000077006900740068006F007500740020007000720069006F007200200061007500740068006F007200690073006100740069006F006E0020006F00660020004C002000260020004C0020004C007500630065002000260020004C006900670068007400200073002E0072002E006C002E002C0000
310
0072000000010000000000000000000240333333333333EB3F0000000000000000000000000000F03F00000000000000000000000000000000000000000000000000000000000000000000000000000000740078007400000000000000F800000026000000CDCCCCCCCCCCF73F00000000002842C000000000000000000000
310
0000000000000000000000000000000000000000F03F000000000000F03F0000000000000000000000000000000069006E0020006100630063006F007200640061006E006300650020007700690074006800200074006800650020006C0061007700200069006E00200066006F007200630065002E00000000004800000001
310
0000000000000000000240333333333333EB3F0000000000000000000000000000F03F00000000000000000000000000000000000000000000000000000000000000000000000000000000740078007400000000000000D800000026000000CDCCCCCCCCCCF73F0000000000D843C000000000000000000000000000000000
310
0000000000000000000000000000F03F000000000000F03F0000000000000000000000000000000041006C006C0020007200690067006800740073002000720065007300650072007600650064002E000000000028000000010000000000000000000240333333333333EB3F0000000000000000000000000000F03F000000
310
00000000000000000000000000000000000000000000000000000000000000000000000000740078007400000000000000080000001F000000
100
AcDbBlockReference
  2
*T7
 10
194.002412
 20
53.043518
 30
0.0
100
AcDbTable
342
4B5
343
211
 11
1.0
 21
0.0
 31
0.0
 90
       22
 91
        5
 92
        5
 93
        0
 94
        0
 95
        0
 96
        0
141
6.0
141
6.0
141
10.0
141
5.0
141
13.0
142
10.0
142
10.0
142
10.0
142
40.0
142
20.0
171
     1
172
     0
173
     0
174
     0
175
     3
176
     4
 91
       32
178
     0
145
0.0
140
3.5
 92
        0
301
CELL_VALUE
 93
        2
 90
        4
  1
 
 94
        0
300

302
 
304
ACVALUE_END
171
     1
172
     0
173
     1
174
     0
175
     1
176
     1
 91
        0
178
     0
145
0.0
 92
        0
301
CELL_VALUE
 93
        3
 90
        0
 91
        0
 94
        0
300

302

304
ACVALUE_END
171
     1
172
     0
173
     1
174
     0
175
     1
176
     1
 91
        0
178
     0
145
0.0
 92
        0
301
CELL_VALUE
 93
        3
 90
        0
 91
        0
 94
        0
300

302

304
ACVALUE_END
171
     1
172
     0
173
     0
174
     0
175
     1
176
     1
 91
       49
178
     0
145
0.0
170
     4
  7
TEXTSTYLE_2
140
3.0
 92
        0
301
CELL_VALUE
 93
        2
 90
        4
  1
A050_C_004
 94
        0
300

302
A050_C_004
304
ACVALUE_END
171
     1
172
     0
173
     0
174
     0
175
     1
176
     1
 91
       49
178
     0
145
0.0
170
     4
  7
TEXTSTYLE_2
140
3.5
 92
        0
301
CELL_VALUE
 93
        2
 90
        4
  1
Rev:00
 94
        0
300

302
Rev:00
304
ACVALUE_END
171
     1
172
     0
173
     1
174
     0
175
     1
176
     1
 91
        0
178
     0
145
0.0
 92
        0
301
CELL_VALUE
 93
        3
 90
        0
 91
        0
 94
        0
300

302

304
ACVALUE_END
171
     1
172
     0
173
     1
174
     0
175
     1
176
     1
 91
        0
178
     0
145
0.0
 92
        0
301
CELL_VALUE
 93
        3
 90
        0
 91
        0
 94
        0
300

302

304
ACVALUE_END
171
     1
172
     0
173
     1
174
     0
175
     1
176
     1
 91
        0
178
     0
145
0.0
 92
        0
301
CELL_VALUE
 93
        3
 90
        0
 91
        0
 94
        0
300

302

304
ACVALUE_END
171
     1
172
     0
173
     0
174
     0
175
     1
176
     1
 91
       49
178
     0
145
0.0
170
     1
  7
TEXTSTYLE_2
140
3.5
 92
        0
301
CELL_VALUE
 93
        2
 90
        4
  1
Scale:1:1
 94
        0
300

302
Scale:1:1
304
ACVALUE_END
171
     1
172
     0
173
     0
174
     0
175
     1
176
     1
 91
       49
178
     0
145
0.0
170
     4
  7
TEXTSTYLE_2
140
3.5
 92
        0
301
CELL_VALUE
 93
        2
 90
        4
  1
A4
 94
        0
300

302
A4
304
ACVALUE_END
171
     1
172
     0
173
     1
174
     0
175
     1
176
     1
 91
        0
178
     0
145
0.0
 92
        0
301
CELL_VALUE
 93
        3
 90
        0
 91
        0
 94
        0
300

302

304
ACVALUE_END
171
     1
172
     0
173
     1
174
     0
175
     1
176
     1
 91
        0
178
     0
145
0.0
 92
        0
301
CELL_VALUE
 93
        3
 90
        0
 91
        0
 94
        0
300

302

304
ACVALUE_END
171
     1
172
     0
173
     1
174
     0
175
     1
176
     1
 91
        0
178
     0
145
0.0
 92
        0
301
CELL_VALUE
 93
        3
 90
        0
 91
        0
 94
        0
300

302

304
ACVALUE_END
171
     1
172
     0
173
     0
174
     0
175
     2
176
     1
 91
       49
178
     0
145
0.0
170
     4
  7
TEXTSTYLE_2
140
3.5
 92
        0
301
CELL_VALUE
 93
        2
 90
        4
  1
FRONTALE SEMI PROF. QUADRO COMBO2
 94
        0
300

302
FRONTALE SEMI PROF. QUADRO COMBO2
304
ACVALUE_END
171
     1
172
     0
173
     1
174
     0
175
     1
176
     1
 91
        0
178
     0
145
0.0
 92
        0
301
CELL_VALUE
 93
        3
 90
        0
 91
        0
 94
        0
300

302

304
ACVALUE_END
171
     1
172
     0
173
     1
174
     0
175
     1
176
     1
 91
        0
178
     0
145
0.0
 92
        0
301
CELL_VALUE
 93
        3
 90
        0
 91
        0
 94
        0
300

302

304
ACVALUE_END
171
     1
172
     0
173
     1
174
     0
175
     1
176
     1
 91
        0
178
     0
145
0.0
 92
        0
301
CELL_VALUE
 93
        3
 90
        0
 91
        0
 94
        0
300

302

304
ACVALUE_END
171
     1
172
     0
173
     1
174
     0
175
     1
176
     1
 91
        0
178
     0
145
0.0
 92
        0
301
CELL_VALUE
 93
        3
 90
        0
 91
        0
 94
        0
300

302

304
ACVALUE_END
171
     1
172
     0
173
     0
174
     0
175
     2
176
     1
 91
       49
178
     0
145
0.0
170
     4
  7
TEXTSTYLE_2
140
2.5
 92
        0
301
CELL_VALUE
 93
        2
 90
        4
  1
DATE:11.12.19
 94
        0
300

302
DATE:11.12.19
304
ACVALUE_END
171
     1
172
     0
173
     1
174
     0
175
     1
176
     1
 91
        0
178
     0
145
0.0
 92
        0
301
CELL_VALUE
 93
        3
 90
        0
 91
        0
 94
        0
300

302

304
ACVALUE_END
171
     1
172
     0
173
     0
174
     0
175
     5
176
     1
 91
       49
178
     0
145
0.0
170
     4
  7
TEXTSTYLE_2
140
2.25
 92
        0
301
CELL_VALUE
 93
        2
 90
        4
  1
Any integral or partial reproductions are prohibited \Pwithout prior authorisation of L & L Luce & Light s.r.l., \Pin accordance with the law in force. \PAll rights reserved.
 94
        0
300

302
Any integral or partial reproductions are prohibited \Pwithout prior authorisation of L & L Luce & Light s.r.l., \Pin accordance with the law in force. \PAll rights reserved.
304
ACVALUE_END
171
     1
172
     0
173
     1
174
     0
175
     1
176
     1
 91
        0
178
     0
145
0.0
 92
        0
301
CELL_VALUE
 93
        3
 90
        0
 91
        0
 94
        0
300

302

304
ACVALUE_END
171
     1
172
     0
173
     1
174
     0
175
     1
176
     1
 91
        0
178
     0
145
0.0
 92
        0
301
CELL_VALUE
 93
        3
 90
        0
 91
        0
 94
        0
300

302

304
ACVALUE_END
171
     1
172
     0
173
     1
174
     0
175
     1
176
     1
 91
        0
178
     0
145
0.0
 92
        0
301
CELL_VALUE
 93
        3
 90
        0
 91
        0
 94
        0
300

302

304
ACVALUE_END
171
     1
172
     0
173
     1
174
     0
175
     1
176
     1
 91
        0
178
     0
145
0.0
 92
        0
301
CELL_VALUE
 93
        3
 90
        0
 91
        0
 94
        0
300

302

304
ACVALUE_END
  0
ENDSEC
  0
SECTION
  2
OBJECTS
  0
DICTIONARY
  5
C
330
0
100
AcDbDictionary
281
     1
  3
ACAD_DETAILVIEWSTYLE
350
4EC
  3
ACAD_GROUP
350
D
  3
ACAD_IMAGE_DICT
350
4DC
  3
ACAD_LAYOUT
350
1A
  3
ACAD_MATERIAL
350
4D0
  3
ACAD_MLEADERSTYLE
350
4EB
  3
ACAD_MLINESTYLE
350
17
  3
ACAD_PLOTSETTINGS
350
19
  3
ACAD_PLOTSTYLENAME
350
E
  3
ACAD_SCALELIST
350
492
  3
ACAD_SECTIONVIEWSTYLE
350
4ED
  3
ACAD_TABLESTYLE
350
4B4
  3
ACAD_VISUALSTYLE
350
4B7
  3
ACDB_RECOMPOSE_DATA
350
4E9
  3
AcDbVariableDictionary
350
4E5
  3
HOST_DOC_SETTINGS
350
4DA
  3
MCS_STREAM_DICT
350
4D6
  0
SUN
  5
4D9
330
1F4
100
AcDbSun
 90
        1
290
     0
 63
     7
421
 16777215
 40
1.0
291
     1
 91
  2455826
 92
 54000000
292
     0
 70
     2
 71
   256
280
     1
  0
DICTIONARY
  5
4E3
330
48C
100
AcDbDictionary
280
     1
281
     1
  3
ACAD_XREC_ROUNDTRIP
360
4E4
  0
DICTIONARY
  5
4EC
102
{ACAD_REACTORS
330
C
102
}
330
C
100
AcDbDictionary
281
     1
  0
DICTIONARY
  5
D
102
{ACAD_REACTORS
330
C
102
}
330
C
100
AcDbDictionary
281
     1
  0
DICTIONARY
  5
4DC
102
{ACAD_REACTORS
330
C
102
}
330
C
100
AcDbDictionary
281
     1
  0
DICTIONARY
  5
1A
102
{ACAD_REACTORS
330
C
102
}
330
C
100
AcDbDictionary
281
     1
  3
Layout1
350
48F
  3
Model
350
48E
  0
DICTIONARY
  5
4D0
102
{ACAD_REACTORS
330
C
102
}
330
C
100
AcDbDictionary
281
     1
  3
ByBlock
350
4D2
  3
ByLayer
350
4D1
  3
Global
350
4D3
  0
DICTIONARY
  5
4EB
102
{ACAD_REACTORS
330
C
102
}
330
C
100
AcDbDictionary
281
     1
  0
DICTIONARY
  5
17
102
{ACAD_REACTORS
330
C
102
}
330
C
100
AcDbDictionary
281
     1
  3
Standard
350
18
  0
DICTIONARY
  5
19
102
{ACAD_REACTORS
330
C
102
}
330
C
100
AcDbDictionary
281
     1
  0
ACDBDICTIONARYWDFLT
  5
E
102
{ACAD_REACTORS
330
C
102
}
330
C
100
AcDbDictionary
281
     1
  3
Normal
350
F
100
AcDbDictionaryWithDefault
340
F
  0
DICTIONARY
  5
492
102
{ACAD_REACTORS
330
C
102
}
330
C
100
AcDbDictionary
281
     1
  3
A0
350
493
  3
A1
350
494
  3
A2
350
495
  3
A3
350
496
  3
A4
350
497
  3
A5
350
498
  3
A6
350
499
  3
A7
350
49A
  3
A8
350
49B
  3
A9
350
49C
  3
B0
350
49D
  3
B1
350
49E
  3
B2
350
49F
  3
B3
350
4A0
  3
B4
350
4A1
  3
B5
350
4A2
  3
B6
350
4A3
  3
B7
350
4A4
  3
B8
350
4A5
  3
B9
350
4A6
  3
C0
350
4A7
  3
C1
350
4A8
  3
C2
350
4A9
  3
C3
350
4AA
  3
C4
350
4AB
  3
C5
350
4AC
  3
C6
350
4AD
  3
C7
350
4AE
  3
C8
350
4AF
  3
C9
350
4B0
  3
D0
350
4B1
  3
D1
350
4B2
  3
D2
350
4B3
  0
DICTIONARY
  5
4ED
102
{ACAD_REACTORS
330
C
102
}
330
C
100
AcDbDictionary
281
     1
  0
DICTIONARY
  5
4B4
102
{ACAD_REACTORS
330
C
102
}
330
C
100
AcDbDictionary
281
     1
  3
Standard
350
4B5
  0
DICTIONARY
  5
4B7
102
{ACAD_REACTORS
330
C
102
}
330
C
100
AcDbDictionary
281
     1
  3
2dWireframe
350
4BC
  3
Basic
350
4BF
  3
Brighten
350
4C3
  3
ColorChange
350
4C7
  3
Conceptual
350
4C1
  3
Dim
350
4C2
  3
EdgeColorOff
350
4CA
  3
Facepattern
350
4C6
  3
Flat
350
4B8
  3
FlatWithEdges
350
4B9
  3
Gouraud
350
4BA
  3
GouraudWithEdges
350
4BB
  3
Hidden
350
4BE
  3
JitterOff
350
4C8
  3
Linepattern
350
4C5
  3
OverhangOff
350
4C9
  3
Realistic
350
4C0
  3
Shaded
350
4CF
  3
Shaded with edges
350
4CE
  3
Shades of Gray
350
4CB
  3
Sketchy
350
4CC
  3
Thicken
350
4C4
  3
Wireframe
350
4BD
  3
X-Ray
350
4CD
  0
XRECORD
  5
4E9
102
{ACAD_REACTORS
330
C
102
}
330
C
100
AcDbXrecord
280
     1
 90
        1
330
48C
330
4B5
  0
DICTIONARY
  5
4E5
102
{ACAD_REACTORS
330
C
102
}
330
C
100
AcDbDictionary
281
     1
  3
CANNOSCALE
350
4E6
  3
CTABLESTYLE
350
4EA
  0
DICTIONARY
  5
4DA
102
{ACAD_REACTORS
330
C
102
}
330
C
100
AcDbDictionary
281
     1
  3
NCDocParameters
350
4DB
  0
DICTIONARY
  5
4D6
102
{ACAD_REACTORS
330
C
102
}
330
C
100
AcDbDictionary
281
     1
  3
MC_VERSION_DATA
350
4DF
  3
MCS_DOCUMENT_ID
350
4D7
  3
MCS_PARAMS_DATA
350
4DD
  0
XRECORD
  5
4E4
102
{ACAD_REACTORS
330
4E3
102
}
330
4E3
100
AcDbXrecord
280
     1
102
ACAD_ROUNDTRIP_2008_TABLE_ENTITY
360
4E1
 70
     2
 90
        1
 10
0.0
 20
0.0
 30
0.0
 90
        0
 90
        4
361
4E2
  0
LAYOUT
  5
48F
102
{ACAD_REACTORS
330
1A
102
}
330
1A
100
AcDbPlotSettings
  1

  2
none_device
  4
ISO_A4_(297.00_x_210.00_MM)
  6

 40
0.0
 41
0.0
 42
0.0
 43
0.0
 44
297.0
 45
210.0
 46
0.0
 47
0.0
 48
0.0
 49
0.0
140
0.0
141
0.0
142
1.0
143
1.0
 70
     0
 72
     1
 73
     0
 74
     0
  7

 75
     0
 76
     0
 77
     2
 78
   300
147
1.0
148
0.0
149
0.0
100
AcDbLayout
  1
Layout1
 70
     0
 71
     1
 10
0.0
 20
0.0
 11
297.0
 21
210.0
 12
0.0
 22
0.0
 32
0.0
 14
0.0
 24
0.0
 34
0.0
 15
0.0
 25
0.0
 35
0.0
146
0.0
 13
0.0
 23
0.0
 33
0.0
 16
1.0
 26
0.0
 36
0.0
 17
0.0
 27
1.0
 37
0.0
 76
     0
330
209
  0
LAYOUT
  5
48E
102
{ACAD_REACTORS
330
1A
102
}
330
1A
100
AcDbPlotSettings
  1

  2
none_device
  4
ISO_A4_(297.00_x_210.00_MM)
  6

 40
0.0
 41
0.0
 42
0.0
 43
0.0
 44
297.0
 45
210.0
 46
0.0
 47
0.0
 48
0.0
 49
0.0
140
0.0
141
0.0
142
1.0
143
1.0
 70
  1024
 72
     1
 73
     0
 74
     0
  7

 75
     0
 76
     0
 77
     2
 78
   300
147
1.0
148
0.0
149
0.0
100
AcDbLayout
  1
Model
 70
     0
 71
     0
 10
0.0
 20
0.0
 11
297.0
 21
210.0
 12
0.0
 22
0.0
 32
0.0
 14
0.0
 24
0.0
 34
0.0
 15
0.0
 25
0.0
 35
0.0
146
0.0
 13
0.0
 23
0.0
 33
0.0
 16
1.0
 26
0.0
 36
0.0
 17
0.0
 27
1.0
 37
0.0
 76
     0
330
208
331
1F4
  0
MATERIAL
  5
4D2
102
{ACAD_REACTORS
330
4D0
102
}
330
4D0
100
AcDbMaterial
  1
ByBlock
 72
     1
 94
      127
  0
MATERIAL
  5
4D1
102
{ACAD_REACTORS
330
4D0
102
}
330
4D0
100
AcDbMaterial
  1
ByLayer
 72
     1
 94
      127
  0
MATERIAL
  5
4D3
102
{ACAD_REACTORS
330
4D0
102
}
330
4D0
100
AcDbMaterial
  1
Global
 72
     1
 94
      127
  0
MLINESTYLE
  5
18
102
{ACAD_REACTORS
330
17
102
}
330
17
100
AcDbMlineStyle
  2
STANDARD
 70
     0
  3

 62
   256
 51
90.0
 52
90.0
 71
     2
 49
0.5
 62
   256
  6
BYLAYER
 49
-0.5
 62
   256
  6
BYLAYER
  0
ACDBPLACEHOLDER
  5
F
102
{ACAD_REACTORS
330
E
102
}
330
E
  0
SCALE
  5
493
102
{ACAD_REACTORS
330
492
102
}
330
492
100
AcDbScale
 70
     0
300
1:1
140
1.0
141
1.0
290
     1
  0
SCALE
  5
494
102
{ACAD_REACTORS
330
492
102
}
330
492
100
AcDbScale
 70
     0
300
1:2
140
1.0
141
2.0
290
     0
  0
SCALE
  5
495
102
{ACAD_REACTORS
330
492
102
}
330
492
100
AcDbScale
 70
     0
300
1:4
140
1.0
141
4.0
290
     0
  0
SCALE
  5
496
102
{ACAD_REACTORS
330
492
102
}
330
492
100
AcDbScale
 70
     0
300
1:5
140
1.0
141
5.0
290
     0
  0
SCALE
  5
497
102
{ACAD_REACTORS
330
492
102
}
330
492
100
AcDbScale
 70
     0
300
1:8
140
1.0
141
8.0
290
     0
  0
SCALE
  5
498
102
{ACAD_REACTORS
330
492
102
}
330
492
100
AcDbScale
 70
     0
300
1:10
140
1.0
141
10.0
290
     0
  0
SCALE
  5
499
102
{ACAD_REACTORS
330
492
102
}
330
492
100
AcDbScale
 70
     0
300
1:16
140
1.0
141
16.0
290
     0
  0
SCALE
  5
49A
102
{ACAD_REACTORS
330
492
102
}
330
492
100
AcDbScale
 70
     0
300
1:20
140
1.0
141
20.0
290
     0
  0
SCALE
  5
49B
102
{ACAD_REACTORS
330
492
102
}
330
492
100
AcDbScale
 70
     0
300
1:30
140
1.0
141
30.0
290
     0
  0
SCALE
  5
49C
102
{ACAD_REACTORS
330
492
102
}
330
492
100
AcDbScale
 70
     0
300
1:40
140
1.0
141
40.0
290
     0
  0
SCALE
  5
49D
102
{ACAD_REACTORS
330
492
102
}
330
492
100
AcDbScale
 70
     0
300
1:50
140
1.0
141
50.0
290
     0
  0
SCALE
  5
49E
102
{ACAD_REACTORS
330
492
102
}
330
492
100
AcDbScale
 70
     0
300
1:100
140
1.0
141
100.0
290
     0
  0
SCALE
  5
49F
102
{ACAD_REACTORS
330
492
102
}
330
492
100
AcDbScale
 70
     0
300
2:1
140
2.0
141
1.0
290
     0
  0
SCALE
  5
4A0
102
{ACAD_REACTORS
330
492
102
}
330
492
100
AcDbScale
 70
     0
300
4:1
140
4.0
141
1.0
290
     0
  0
SCALE
  5
4A1
102
{ACAD_REACTORS
330
492
102
}
330
492
100
AcDbScale
 70
     0
300
8:1
140
8.0
141
1.0
290
     0
  0
SCALE
  5
4A2
102
{ACAD_REACTORS
330
492
102
}
330
492
100
AcDbScale
 70
     0
300
10:1
140
10.0
141
1.0
290
     0
  0
SCALE
  5
4A3
102
{ACAD_REACTORS
330
492
102
}
330
492
100
AcDbScale
 70
     0
300
100:1
140
100.0
141
1.0
290
     0
  0
SCALE
  5
4A4
102
{ACAD_REACTORS
330
492
102
}
330
492
100
AcDbScale
 70
     0
300
1/128" = 1'-0"
140
0.007812
141
12.0
290
     0
  0
SCALE
  5
4A5
102
{ACAD_REACTORS
330
492
102
}
330
492
100
AcDbScale
 70
     0
300
1/64" = 1'-0"
140
0.015625
141
12.0
290
     0
  0
SCALE
  5
4A6
102
{ACAD_REACTORS
330
492
102
}
330
492
100
AcDbScale
 70
     0
300
1/32" = 1'-0"
140
0.03125
141
12.0
290
     0
  0
SCALE
  5
4A7
102
{ACAD_REACTORS
330
492
102
}
330
492
100
AcDbScale
 70
     0
300
1/16" = 1'-0"
140
0.0625
141
12.0
290
     0
  0
SCALE
  5
4A8
102
{ACAD_REACTORS
330
492
102
}
330
492
100
AcDbScale
 70
     0
300
3/32" = 1'-0"
140
0.09375
141
12.0
290
     0
  0
SCALE
  5
4A9
102
{ACAD_REACTORS
330
492
102
}
330
492
100
AcDbScale
 70
     0
300
1/8" = 1'-0"
140
0.125
141
12.0
290
     0
  0
SCALE
  5
4AA
102
{ACAD_REACTORS
330
492
102
}
330
492
100
AcDbScale
 70
     0
300
3/16" = 1'-0"
140
0.1875
141
12.0
290
     0
  0
SCALE
  5
4AB
102
{ACAD_REACTORS
330
492
102
}
330
492
100
AcDbScale
 70
     0
300
1/4" = 1'-0"
140
0.25
141
12.0
290
     0
  0
SCALE
  5
4AC
102
{ACAD_REACTORS
330
492
102
}
330
492
100
AcDbScale
 70
     0
300
3/8" = 1'-0"
140
0.375
141
12.0
290
     0
  0
SCALE
  5
4AD
102
{ACAD_REACTORS
330
492
102
}
330
492
100
AcDbScale
 70
     0
300
1/2" = 1'-0"
140
0.5
141
12.0
290
     0
  0
SCALE
  5
4AE
102
{ACAD_REACTORS
330
492
102
}
330
492
100
AcDbScale
 70
     0
300
3/4" = 1'-0"
140
0.75
141
12.0
290
     0
  0
SCALE
  5
4AF
102
{ACAD_REACTORS
330
492
102
}
330
492
100
AcDbScale
 70
     0
300
1" = 1'-0"
140
1.0
141
12.0
290
     0
  0
SCALE
  5
4B0
102
{ACAD_REACTORS
330
492
102
}
330
492
100
AcDbScale
 70
     0
300
1-1/2" = 1'-0"
140
1.5
141
12.0
290
     0
  0
SCALE
  5
4B1
102
{ACAD_REACTORS
330
492
102
}
330
492
100
AcDbScale
 70
     0
300
3" = 1'-0"
140
3.0
141
12.0
290
     0
  0
SCALE
  5
4B2
102
{ACAD_REACTORS
330
492
102
}
330
492
100
AcDbScale
 70
     0
300
6" = 1'-0"
140
6.0
141
12.0
290
     0
  0
SCALE
  5
4B3
102
{ACAD_REACTORS
330
492
102
}
330
492
100
AcDbScale
 70
     0
300
1'-0" = 1'-0"
140
12.0
141
12.0
290
     0
  0
TABLESTYLE
  5
4B5
102
{ACAD_REACTORS
330
4B4
102
}
102
{ACAD_XDICTIONARY
360
4E7
102
}
330
4B4
100
AcDbTableStyle
  3
Standard
 70
     0
 71
     0
 40
0.06
 41
0.06
280
     0
281
     0
  7
STANDARD
140
4.5
170
     2
 62
     0
 63
   257
283
     0
 90
        4
 91
        0
  1

274
    -2
284
     1
 64
     0
275
    -2
285
     1
 65
     0
276
    -2
286
     1
 66
     0
277
    -2
287
     1
 67
     0
278
    -2
288
     1
 68
     0
279
    -2
289
     1
 69
     0
  7
STANDARD
140
6.0
170
     5
 62
     0
 63
   257
283
     0
 90
        4
 91
        0
  1

274
    -2
284
     1
 64
     0
275
    -2
285
     1
 65
     0
276
    -2
286
     1
 66
     0
277
    -2
287
     1
 67
     0
278
    -2
288
     1
 68
     0
279
    -2
289
     1
 69
     0
  7
STANDARD
140
4.5
170
     5
 62
     0
 63
   257
283
     0
 90
        4
 91
        0
  1

274
    -2
284
     1
 64
     0
275
    -2
285
     1
 65
     0
276
    -2
286
     1
 66
     0
277
    -2
287
     1
 67
     0
278
    -2
288
     1
 68
     0
279
    -2
289
     1
 69
     0
  0
VISUALSTYLE
  5
4BC
102
{ACAD_REACTORS
330
4B7
102
}
330
4B7
100
AcDbVisualStyle
  2
2dWireframe
 70
     4
177
     3
291
     0
 70
    58
 90
        0
176
     1
 90
        2
176
     1
 90
        0
176
     1
 90
        0
176
     1
 40
0.6
176
     1
 40
30.0
176
     1
 62
     7
420
 16777215
176
     1
 90
        1
176
     1
 90
        4
176
     1
 62
     7
176
     1
 62
   257
176
     1
 90
        1
176
     1
 90
        1
176
     1
 40
1.0
176
     1
 90
        0
176
     1
 62
   257
176
     1
 40
1.0
176
     1
 90
        1
176
     1
 90
        6
176
     1
 90
        2
176
     1
 62
     7
176
     1
 90
        5
176
     1
 90
        0
176
     1
 90
        0
176
     1
290
     0
176
     1
 90
        1
176
     1
 40
0.0
176
     1
 90
        0
176
     1
290
     1
176
     1
290
     1
176
     1
290
     0
176
     1
290
     0
176
     1
290
     0
176
     1
290
     0
176
     1
290
     0
176
     1
290
     0
176
     1
290
     0
176
     1
 90
       50
176
     1
 40
0.0
176
     1
 40
1.0
176
     1
 90
        0
176
     1
 62
    18
420
        0
176
     1
 90
       50
176
     1
 90
        3
176
     1
 62
     5
420
      255
176
     1
290
     0
176
     1
 90
       50
176
     1
 90
       50
176
     1
 90
       50
176
     1
290
     0
176
     1
 90
       50
176
     1
 62
   256
176
     0
 40
1.0
176
     0
 90
        2
176
     1
  1
strokes_ogs.tif
176
     1
290
     0
176
     1
 40
1.0
176
     1
 40
1.0
176
     1
  0
VISUALSTYLE
  5
4BF
102
{ACAD_REACTORS
330
4B7
102
}
330
4B7
100
AcDbVisualStyle
  2
Basic
 70
     7
177
     3
291
     1
 70
    58
 90
        1
176
     1
 90
        0
176
     1
 90
        1
176
     1
 90
        0
176
     1
 40
0.6
176
     1
 40
30.0
176
     1
 62
     7
420
 16777215
176
     1
 90
        0
176
     1
 90
        4
176
     1
 62
     7
176
     1
 62
   257
176
     1
 90
        1
176
     1
 90
        1
176
     1
 40
1.0
176
     1
 90
        8
176
     1
 62
     7
176
     1
 40
1.0
176
     1
 90
        1
176
     1
 90
        6
176
     1
 90
        2
176
     1
 62
     7
176
     1
 90
        5
176
     1
 90
        0
176
     1
 90
        0
176
     1
290
     0
176
     1
 90
        1
176
     1
 40
0.0
176
     1
 90
        0
176
     1
290
     0
176
     1
290
     1
176
     1
290
     1
176
     1
290
     0
176
     1
290
     0
176
     1
290
     0
176
     1
290
     0
176
     1
290
     0
176
     1
290
     0
176
     1
 90
       50
176
     1
 40
0.0
176
     1
 40
1.0
176
     1
 90
        0
176
     1
 62
    18
420
        0
176
     1
 90
       50
176
     1
 90
        3
176
     1
 62
     5
420
      255
176
     1
290
     0
176
     1
 90
       50
176
     1
 90
       50
176
     1
 90
       50
176
     1
290
     0
176
     1
 90
       50
176
     1
 62
   256
176
     0
 40
1.0
176
     0
 90
        2
176
     1
  1
strokes_ogs.tif
176
     1
290
     0
176
     1
 40
1.0
176
     1
 40
1.0
176
     1
  0
VISUALSTYLE
  5
4C3
102
{ACAD_REACTORS
330
4B7
102
}
330
4B7
100
AcDbVisualStyle
  2
Brighten
 70
    12
177
     3
291
     1
 70
    58
 90
        2
176
     1
 90
        2
176
     1
 90
        0
176
     1
 90
        0
176
     1
 40
0.6
176
     1
 40
30.0
176
     1
 62
     7
420
 16777215
176
     1
 90
        1
176
     1
 90
        4
176
     1
 62
     7
176
     1
 62
   257
176
     1
 90
        1
176
     1
 90
        1
176
     1
 40
1.0
176
     1
 90
        8
176
     1
 62
     7
176
     1
 40
1.0
176
     1
 90
        1
176
     1
 90
        6
176
     1
 90
        2
176
     1
 62
     7
176
     1
 90
        5
176
     1
 90
        0
176
     1
 90
        0
176
     1
290
     0
176
     1
 90
        1
176
     1
 40
50.0
176
     1
 90
        0
176
     1
290
     0
176
     1
290
     1
176
     1
290
     1
176
     1
290
     0
176
     1
290
     0
176
     1
290
     0
176
     1
290
     0
176
     1
290
     0
176
     1
290
     0
176
     1
 90
       50
176
     1
 40
0.0
176
     1
 40
1.0
176
     1
 90
        0
176
     1
 62
    18
420
        0
176
     1
 90
       50
176
     1
 90
        3
176
     1
 62
     5
420
      255
176
     1
290
     0
176
     1
 90
       50
176
     1
 90
       50
176
     1
 90
       50
176
     1
290
     0
176
     1
 90
       50
176
     1
 62
   256
176
     0
 40
1.0
176
     0
 90
        2
176
     1
  1
strokes_ogs.tif
176
     1
290
     0
176
     1
 40
1.0
176
     1
 40
1.0
176
     1
  0
VISUALSTYLE
  5
4C7
102
{ACAD_REACTORS
330
4B7
102
}
330
4B7
100
AcDbVisualStyle
  2
ColorChange
 70
    16
177
     3
291
     1
 70
    58
 90
        2
176
     1
 90
        2
176
     1
 90
        3
176
     1
 90
        0
176
     1
 40
0.6
176
     1
 40
30.0
176
     1
 62
     8
420
  8421504
176
     1
 90
        1
176
     1
 90
        4
176
     1
 62
     7
176
     1
 62
   257
176
     1
 90
        1
176
     1
 90
        1
176
     1
 40
1.0
176
     1
 90
        8
176
     1
 62
     8
420
  8421504
176
     1
 40
1.0
176
     1
 90
        1
176
     1
 90
        6
176
     1
 90
        2
176
     1
 62
     7
176
     1
 90
        5
176
     1
 90
        0
176
     1
 90
        0
176
     1
290
     0
176
     1
 90
        1
176
     1
 40
0.0
176
     1
 90
        0
176
     1
290
     0
176
     1
290
     1
176
     1
290
     1
176
     1
290
     0
176
     1
290
     0
176
     1
290
     0
176
     1
290
     0
176
     1
290
     0
176
     1
290
     0
176
     1
 90
       50
176
     1
 40
0.0
176
     1
 40
1.0
176
     1
 90
        0
176
     1
 62
    18
420
        0
176
     1
 90
       50
176
     1
 90
        3
176
     1
 62
     5
420
      255
176
     1
290
     0
176
     1
 90
       50
176
     1
 90
       50
176
     1
 90
       50
176
     1
290
     0
176
     1
 90
       50
176
     1
 62
   256
176
     0
 40
1.0
176
     0
 90
        2
176
     1
  1
strokes_ogs.tif
176
     1
290
     0
176
     1
 40
1.0
176
     1
 40
1.0
176
     1
  0
VISUALSTYLE
  5
4C1
102
{ACAD_REACTORS
330
4B7
102
}
330
4B7
100
AcDbVisualStyle
  2
Conceptual
 70
     9
177
     3
291
     0
 70
    58
 90
        3
176
     1
 90
        2
176
     1
 90
        0
176
     1
 90
        0
176
     1
 40
0.6
176
     1
 40
30.0
176
     1
 62
     7
420
 16777215
176
     1
 90
        2
176
     1
 90
        2
176
     1
 62
     7
176
     1
 62
   257
176
     1
 90
        1
176
     1
 90
        1
176
     1
 40
179.0
176
     1
 90
        8
176
     1
 62
     7
176
     1
 40
1.0
176
     1
 90
        1
176
     1
 90
        6
176
     1
 90
        2
176
     1
 62
     7
176
     1
 90
        3
176
     1
 90
        0
176
     1
 90
        0
176
     1
290
     0
176
     1
 90
        1
176
     1
 40
0.0
176
     1
 90
        0
176
     1
290
     0
176
     1
290
     1
176
     1
290
     1
176
     1
290
     0
176
     1
290
     0
176
     1
290
     0
176
     1
290
     0
176
     1
290
     0
176
     1
290
     0
176
     1
 90
       50
176
     1
 40
0.0
176
     1
 40
1.0
176
     1
 90
        0
176
     1
 62
    18
420
        0
176
     1
 90
       50
176
     1
 90
        3
176
     1
 62
     5
420
      255
176
     1
290
     0
176
     1
 90
       50
176
     1
 90
       50
176
     1
 90
       50
176
     1
290
     0
176
     1
 90
       50
176
     1
 62
   256
176
     0
 40
1.0
176
     0
 90
        2
176
     1
  1
strokes_ogs.tif
176
     1
290
     0
176
     1
 40
1.0
176
     1
 40
1.0
176
     1
  0
VISUALSTYLE
  5
4C2
102
{ACAD_REACTORS
330
4B7
102
}
330
4B7
100
AcDbVisualStyle
  2
Dim
 70
    11
177
     3
291
     1
 70
    58
 90
        2
176
     1
 90
        2
176
     1
 90
        0
176
     1
 90
        0
176
     1
 40
0.6
176
     1
 40
30.0
176
     1
 62
     7
420
 16777215
176
     1
 90
        1
176
     1
 90
        4
176
     1
 62
     7
176
     1
 62
   257
176
     1
 90
        1
176
     1
 90
        1
176
     1
 40
1.0
176
     1
 90
        8
176
     1
 62
     7
176
     1
 40
1.0
176
     1
 90
        1
176
     1
 90
        6
176
     1
 90
        2
176
     1
 62
     7
176
     1
 90
        5
176
     1
 90
        0
176
     1
 90
        0
176
     1
290
     0
176
     1
 90
        1
176
     1
 40
-50.0
176
     1
 90
        0
176
     1
290
     0
176
     1
290
     1
176
     1
290
     1
176
     1
290
     0
176
     1
290
     0
176
     1
290
     0
176
     1
290
     0
176
     1
290
     0
176
     1
290
     0
176
     1
 90
       50
176
     1
 40
0.0
176
     1
 40
1.0
176
     1
 90
        0
176
     1
 62
    18
420
        0
176
     1
 90
       50
176
     1
 90
        3
176
     1
 62
     5
420
      255
176
     1
290
     0
176
     1
 90
       50
176
     1
 90
       50
176
     1
 90
       50
176
     1
290
     0
176
     1
 90
       50
176
     1
 62
   256
176
     0
 40
1.0
176
     0
 90
        2
176
     1
  1
strokes_ogs.tif
176
     1
290
     0
176
     1
 40
1.0
176
     1
 40
1.0
176
     1
  0
VISUALSTYLE
  5
4CA
102
{ACAD_REACTORS
330
4B7
102
}
330
4B7
100
AcDbVisualStyle
  2
EdgeColorOff
 70
    22
177
     3
291
     1
 70
    58
 90
        2
176
     0
 90
        2
176
     0
 90
        0
176
     0
 90
        0
176
     0
 40
0.6
176
     0
 40
30.0
176
     0
 62
     7
420
 16777215
176
     0
 90
        1
176
     0
 90
        4
176
     0
 62
     7
176
     0
 62
   257
176
     0
 90
        1
176
     0
 90
        1
176
     0
 40
1.0
176
     0
 90
        8
176
     2
 62
     7
176
     0
 40
1.0
176
     0
 90
        1
176
     0
 90
        6
176
     0
 90
        2
176
     0
 62
     7
176
     0
 90
        5
176
     0
 90
        0
176
     0
 90
        0
176
     0
290
     0
176
     0
 90
        1
176
     0
 40
0.0
176
     0
 90
        0
176
     0
290
     0
176
     0
290
     1
176
     0
290
     1
176
     0
290
     0
176
     0
290
     0
176
     0
290
     0
176
     0
290
     0
176
     0
290
     0
176
     0
290
     0
176
     0
 90
       50
176
     0
 40
0.0
176
     0
 40
1.0
176
     0
 90
        0
176
     0
 62
    18
420
        0
176
     0
 90
       50
176
     0
 90
        3
176
     0
 62
     5
420
      255
176
     0
290
     0
176
     0
 90
       50
176
     0
 90
       50
176
     0
 90
       50
176
     0
290
     0
176
     0
 90
       50
176
     0
 62
   256
176
     0
 40
1.0
176
     0
 90
        2
176
     0
  1
strokes_ogs.tif
176
     0
290
     0
176
     0
 40
1.0
176
     0
 40
1.0
176
     0
  0
VISUALSTYLE
  5
4C6
102
{ACAD_REACTORS
330
4B7
102
}
330
4B7
100
AcDbVisualStyle
  2
Facepattern
 70
    15
177
     3
291
     1
 70
    58
 90
        2
176
     1
 90
        2
176
     1
 90
        0
176
     1
 90
        0
176
     1
 40
0.6
176
     1
 40
30.0
176
     1
 62
     7
420
 16777215
176
     1
 90
        1
176
     1
 90
        4
176
     1
 62
     7
176
     1
 62
   257
176
     1
 90
        1
176
     1
 90
        1
176
     1
 40
1.0
176
     1
 90
        8
176
     1
 62
     7
176
     1
 40
1.0
176
     1
 90
        1
176
     1
 90
        6
176
     1
 90
        2
176
     1
 62
     7
176
     1
 90
        5
176
     1
 90
        0
176
     1
 90
        0
176
     1
290
     0
176
     1
 90
        1
176
     1
 40
0.0
176
     1
 90
        0
176
     1
290
     0
176
     1
290
     1
176
     1
290
     1
176
     1
290
     0
176
     1
290
     0
176
     1
290
     0
176
     1
290
     0
176
     1
290
     0
176
     1
290
     0
176
     1
 90
       50
176
     1
 40
0.0
176
     1
 40
1.0
176
     1
 90
        0
176
     1
 62
    18
420
        0
176
     1
 90
       50
176
     1
 90
        3
176
     1
 62
     5
420
      255
176
     1
290
     0
176
     1
 90
       50
176
     1
 90
       50
176
     1
 90
       50
176
     1
290
     0
176
     1
 90
       50
176
     1
 62
   256
176
     0
 40
1.0
176
     0
 90
        2
176
     1
  1
strokes_ogs.tif
176
     1
290
     0
176
     1
 40
1.0
176
     1
 40
1.0
176
     1
  0
VISUALSTYLE
  5
4B8
102
{ACAD_REACTORS
330
4B7
102
}
330
4B7
100
AcDbVisualStyle
  2
Flat
 70
     0
177
     3
291
     1
 70
    58
 90
        2
176
     1
 90
        1
176
     1
 90
        1
176
     1
 90
        2
176
     1
 40
0.6
176
     1
 40
30.0
176
     1
 62
     7
420
 16777215
176
     1
 90
        0
176
     1
 90
        0
176
     1
 62
     7
176
     1
 62
   257
176
     1
 90
        1
176
     1
 90
        1
176
     1
 40
1.0
176
     1
 90
        8
176
     1
 62
     7
176
     1
 40
1.0
176
     1
 90
        1
176
     1
 90
        6
176
     1
 90
        2
176
     1
 62
     7
176
     1
 90
        5
176
     1
 90
        0
176
     1
 90
        0
176
     1
290
     0
176
     1
 90
       13
176
     1
 40
0.0
176
     1
 90
        0
176
     1
290
     0
176
     1
290
     1
176
     1
290
     1
176
     1
290
     0
176
     1
290
     0
176
     1
290
     0
176
     1
290
     0
176
     1
290
     0
176
     1
290
     0
176
     1
 90
       50
176
     1
 40
0.0
176
     1
 40
1.0
176
     1
 90
        0
176
     1
 62
    18
420
        0
176
     1
 90
       50
176
     1
 90
        3
176
     1
 62
     5
420
      255
176
     1
290
     0
176
     1
 90
       50
176
     1
 90
       50
176
     1
 90
       50
176
     1
290
     0
176
     1
 90
       50
176
     1
 62
   256
176
     0
 40
1.0
176
     0
 90
        2
176
     1
  1
strokes_ogs.tif
176
     1
290
     0
176
     1
 40
1.0
176
     1
 40
1.0
176
     1
  0
VISUALSTYLE
  5
4B9
102
{ACAD_REACTORS
330
4B7
102
}
330
4B7
100
AcDbVisualStyle
  2
FlatWithEdges
 70
     1
177
     3
291
     1
 70
    58
 90
        2
176
     1
 90
        1
176
     1
 90
        1
176
     1
 90
        2
176
     1
 40
0.6
176
     1
 40
30.0
176
     1
 62
     7
420
 16777215
176
     1
 90
        1
176
     1
 90
        0
176
     1
 62
     7
176
     1
 62
   257
176
     1
 90
        1
176
     1
 90
        1
176
     1
 40
1.0
176
     1
 90
        0
176
     1
 62
   257
176
     1
 40
1.0
176
     1
 90
        1
176
     1
 90
        6
176
     1
 90
        2
176
     1
 62
     7
176
     1
 90
        5
176
     1
 90
        0
176
     1
 90
        0
176
     1
290
     0
176
     1
 90
       13
176
     1
 40
0.0
176
     1
 90
        0
176
     1
290
     0
176
     1
290
     1
176
     1
290
     1
176
     1
290
     0
176
     1
290
     0
176
     1
290
     0
176
     1
290
     0
176
     1
290
     0
176
     1
290
     0
176
     1
 90
       50
176
     1
 40
0.0
176
     1
 40
1.0
176
     1
 90
        0
176
     1
 62
    18
420
        0
176
     1
 90
       50
176
     1
 90
        3
176
     1
 62
     5
420
      255
176
     1
290
     0
176
     1
 90
       50
176
     1
 90
       50
176
     1
 90
       50
176
     1
290
     0
176
     1
 90
       50
176
     1
 62
   256
176
     0
 40
1.0
176
     0
 90
        2
176
     1
  1
strokes_ogs.tif
176
     1
290
     0
176
     1
 40
1.0
176
     1
 40
1.0
176
     1
  0
VISUALSTYLE
  5
4BA
102
{ACAD_REACTORS
330
4B7
102
}
330
4B7
100
AcDbVisualStyle
  2
Gouraud
 70
     2
177
     3
291
     1
 70
    58
 90
        2
176
     1
 90
        2
176
     1
 90
        1
176
     1
 90
        2
176
     1
 40
0.6
176
     1
 40
30.0
176
     1
 62
     7
420
 16777215
176
     1
 90
        0
176
     1
 90
        0
176
     1
 62
     7
176
     1
 62
   257
176
     1
 90
        1
176
     1
 90
        1
176
     1
 40
1.0
176
     1
 90
        0
176
     1
 62
     7
176
     1
 40
1.0
176
     1
 90
        1
176
     1
 90
        6
176
     1
 90
        2
176
     1
 62
     7
176
     1
 90
        5
176
     1
 90
        0
176
     1
 90
        0
176
     1
290
     0
176
     1
 90
       13
176
     1
 40
0.0
176
     1
 90
        0
176
     1
290
     0
176
     1
290
     1
176
     1
290
     1
176
     1
290
     0
176
     1
290
     0
176
     1
290
     0
176
     1
290
     0
176
     1
290
     0
176
     1
290
     0
176
     1
 90
       50
176
     1
 40
0.0
176
     1
 40
1.0
176
     1
 90
        0
176
     1
 62
    18
420
        0
176
     1
 90
       50
176
     1
 90
        3
176
     1
 62
     5
420
      255
176
     1
290
     0
176
     1
 90
       50
176
     1
 90
       50
176
     1
 90
       50
176
     1
290
     0
176
     1
 90
       50
176
     1
 62
   256
176
     0
 40
1.0
176
     0
 90
        2
176
     1
  1
strokes_ogs.tif
176
     1
290
     0
176
     1
 40
1.0
176
     1
 40
1.0
176
     1
  0
VISUALSTYLE
  5
4BB
102
{ACAD_REACTORS
330
4B7
102
}
330
4B7
100
AcDbVisualStyle
  2
GouraudWithEdges
 70
     3
177
     3
291
     1
 70
    58
 90
        2
176
     1
 90
        2
176
     1
 90
        1
176
     1
 90
        2
176
     1
 40
0.6
176
     1
 40
30.0
176
     1
 62
     7
420
 16777215
176
     1
 90
        1
176
     1
 90
        0
176
     1
 62
     7
176
     1
 62
   257
176
     1
 90
        1
176
     1
 90
        1
176
     1
 40
1.0
176
     1
 90
        0
176
     1
 62
   257
176
     1
 40
1.0
176
     1
 90
        1
176
     1
 90
        6
176
     1
 90
        2
176
     1
 62
     7
176
     1
 90
        5
176
     1
 90
        0
176
     1
 90
        0
176
     1
290
     0
176
     1
 90
       13
176
     1
 40
0.0
176
     1
 90
        0
176
     1
290
     0
176
     1
290
     1
176
     1
290
     1
176
     1
290
     0
176
     1
290
     0
176
     1
290
     0
176
     1
290
     0
176
     1
290
     0
176
     1
290
     0
176
     1
 90
       50
176
     1
 40
0.0
176
     1
 40
1.0
176
     1
 90
        0
176
     1
 62
    18
420
        0
176
     1
 90
       50
176
     1
 90
        3
176
     1
 62
     5
420
      255
176
     1
290
     0
176
     1
 90
       50
176
     1
 90
       50
176
     1
 90
       50
176
     1
290
     0
176
     1
 90
       50
176
     1
 62
   256
176
     0
 40
1.0
176
     0
 90
        2
176
     1
  1
strokes_ogs.tif
176
     1
290
     0
176
     1
 40
1.0
176
     1
 40
1.0
176
     1
  0
VISUALSTYLE
  5
4BE
102
{ACAD_REACTORS
330
4B7
102
}
330
4B7
100
AcDbVisualStyle
  2
Hidden
 70
     6
177
     3
291
     0
 70
    58
 90
        1
176
     1
 90
        2
176
     1
 90
        2
176
     1
 90
        0
176
     1
 40
0.6
176
     1
 40
30.0
176
     1
 62
     7
420
 16777215
176
     1
 90
        2
176
     1
 90
        2
176
     1
 62
     7
176
     1
 62
   257
176
     1
 90
        2
176
     1
 90
        1
176
     1
 40
40.0
176
     1
 90
        0
176
     1
 62
   257
176
     1
 40
1.0
176
     1
 90
        1
176
     1
 90
        6
176
     1
 90
        2
176
     1
 62
     7
176
     1
 90
        3
176
     1
 90
        0
176
     1
 90
        0
176
     1
290
     0
176
     1
 90
        1
176
     1
 40
0.0
176
     1
 90
        0
176
     1
290
     0
176
     1
290
     1
176
     1
290
     1
176
     1
290
     0
176
     1
290
     0
176
     1
290
     0
176
     1
290
     0
176
     1
290
     0
176
     1
290
     0
176
     1
 90
       50
176
     1
 40
0.0
176
     1
 40
1.0
176
     1
 90
        0
176
     1
 62
    18
420
        0
176
     1
 90
       50
176
     1
 90
        3
176
     1
 62
     5
420
      255
176
     1
290
     0
176
     1
 90
       50
176
     1
 90
       50
176
     1
 90
       50
176
     1
290
     0
176
     1
 90
       50
176
     1
 62
   256
176
     0
 40
1.0
176
     0
 90
        2
176
     1
  1
strokes_ogs.tif
176
     1
290
     0
176
     1
 40
1.0
176
     1
 40
1.0
176
     1
  0
VISUALSTYLE
  5
4C8
102
{ACAD_REACTORS
330
4B7
102
}
330
4B7
100
AcDbVisualStyle
  2
JitterOff
 70
    20
177
     3
291
     1
 70
    58
 90
        2
176
     0
 90
        2
176
     0
 90
        0
176
     0
 90
        0
176
     0
 40
0.6
176
     0
 40
30.0
176
     0
 62
     7
420
 16777215
176
     0
 90
        1
176
     0
 90
        4
176
     0
 62
     7
176
     0
 62
   257
176
     0
 90
        1
176
     0
 90
        1
176
     0
 40
1.0
176
     0
 90
       10
176
     2
 62
     7
176
     0
 40
1.0
176
     0
 90
        1
176
     0
 90
        6
176
     0
 90
        2
176
     0
 62
     7
176
     0
 90
        5
176
     0
 90
        0
176
     0
 90
        0
176
     0
290
     0
176
     0
 90
        1
176
     0
 40
0.0
176
     0
 90
        0
176
     0
290
     0
176
     0
290
     1
176
     0
290
     1
176
     0
290
     0
176
     0
290
     0
176
     0
290
     0
176
     0
290
     0
176
     0
290
     0
176
     0
290
     0
176
     0
 90
       50
176
     0
 40
0.0
176
     0
 40
1.0
176
     0
 90
        0
176
     0
 62
    18
420
        0
176
     0
 90
       50
176
     0
 90
        3
176
     0
 62
     5
420
      255
176
     0
290
     0
176
     0
 90
       50
176
     0
 90
       50
176
     0
 90
       50
176
     0
290
     0
176
     0
 90
       50
176
     0
 62
   256
176
     0
 40
1.0
176
     0
 90
        2
176
     0
  1
strokes_ogs.tif
176
     0
290
     0
176
     0
 40
1.0
176
     0
 40
1.0
176
     0
  0
VISUALSTYLE
  5
4C5
102
{ACAD_REACTORS
330
4B7
102
}
330
4B7
100
AcDbVisualStyle
  2
Linepattern
 70
    14
177
     3
291
     1
 70
    58
 90
        2
176
     1
 90
        2
176
     1
 90
        0
176
     1
 90
        0
176
     1
 40
0.6
176
     1
 40
30.0
176
     1
 62
     7
420
 16777215
176
     1
 90
        1
176
     1
 90
        4
176
     1
 62
     7
176
     1
 62
   257
176
     1
 90
        7
176
     1
 90
        7
176
     1
 40
1.0
176
     1
 90
        8
176
     1
 62
     7
176
     1
 40
1.0
176
     1
 90
        1
176
     1
 90
        6
176
     1
 90
        2
176
     1
 62
     7
176
     1
 90
        5
176
     1
 90
        0
176
     1
 90
        0
176
     1
290
     0
176
     1
 90
        1
176
     1
 40
0.0
176
     1
 90
        0
176
     1
290
     0
176
     1
290
     1
176
     1
290
     1
176
     1
290
     0
176
     1
290
     0
176
     1
290
     0
176
     1
290
     0
176
     1
290
     0
176
     1
290
     0
176
     1
 90
       50
176
     1
 40
0.0
176
     1
 40
1.0
176
     1
 90
        0
176
     1
 62
    18
420
        0
176
     1
 90
       50
176
     1
 90
        3
176
     1
 62
     5
420
      255
176
     1
290
     0
176
     1
 90
       50
176
     1
 90
       50
176
     1
 90
       50
176
     1
290
     0
176
     1
 90
       50
176
     1
 62
   256
176
     0
 40
1.0
176
     0
 90
        2
176
     1
  1
strokes_ogs.tif
176
     1
290
     0
176
     1
 40
1.0
176
     1
 40
1.0
176
     1
  0
VISUALSTYLE
  5
4C9
102
{ACAD_REACTORS
330
4B7
102
}
330
4B7
100
AcDbVisualStyle
  2
OverhangOff
 70
    21
177
     3
291
     1
 70
    58
 90
        2
176
     0
 90
        2
176
     0
 90
        0
176
     0
 90
        0
176
     0
 40
0.6
176
     0
 40
30.0
176
     0
 62
     7
420
 16777215
176
     0
 90
        1
176
     0
 90
        4
176
     0
 62
     7
176
     0
 62
   257
176
     0
 90
        1
176
     0
 90
        1
176
     0
 40
1.0
176
     0
 90
        9
176
     2
 62
     7
176
     0
 40
1.0
176
     0
 90
        1
176
     0
 90
        6
176
     0
 90
        2
176
     0
 62
     7
176
     0
 90
        5
176
     0
 90
        0
176
     0
 90
        0
176
     0
290
     0
176
     0
 90
        1
176
     0
 40
0.0
176
     0
 90
        0
176
     0
290
     0
176
     0
290
     1
176
     0
290
     1
176
     0
290
     0
176
     0
290
     0
176
     0
290
     0
176
     0
290
     0
176
     0
290
     0
176
     0
290
     0
176
     0
 90
       50
176
     0
 40
0.0
176
     0
 40
1.0
176
     0
 90
        0
176
     0
 62
    18
420
        0
176
     0
 90
       50
176
     0
 90
        3
176
     0
 62
     5
420
      255
176
     0
290
     0
176
     0
 90
       50
176
     0
 90
       50
176
     0
 90
       50
176
     0
290
     0
176
     0
 90
       50
176
     0
 62
   256
176
     0
 40
1.0
176
     0
 90
        2
176
     0
  1
strokes_ogs.tif
176
     0
290
     0
176
     0
 40
1.0
176
     0
 40
1.0
176
     0
  0
VISUALSTYLE
  5
4C0
102
{ACAD_REACTORS
330
4B7
102
}
330
4B7
100
AcDbVisualStyle
  2
Realistic
 70
     8
177
     3
291
     0
 70
    58
 90
        2
176
     1
 90
        3
176
     1
 90
        0
176
     1
 90
        2
176
     1
 40
0.6
176
     1
 40
30.0
176
     1
 62
     7
420
 16777215
176
     1
 90
        0
176
     1
 90
        0
176
     1
 62
     7
176
     1
 62
   257
176
     1
 90
        1
176
     1
 90
        1
176
     1
 40
1.0
176
     1
 90
        8
176
     1
 62
   257
176
     1
 40
1.0
176
     1
 90
        1
176
     1
 90
        6
176
     1
 90
        2
176
     1
 62
     7
176
     1
 90
        3
176
     1
 90
        0
176
     1
 90
        0
176
     1
290
     0
176
     1
 90
       13
176
     1
 40
0.0
176
     1
 90
        0
176
     1
290
     0
176
     1
290
     1
176
     1
290
     1
176
     1
290
     0
176
     1
290
     0
176
     1
290
     0
176
     1
290
     0
176
     1
290
     0
176
     1
290
     0
176
     1
 90
       50
176
     1
 40
0.0
176
     1
 40
1.0
176
     1
 90
        0
176
     1
 62
    18
420
        0
176
     1
 90
       50
176
     1
 90
        3
176
     1
 62
     5
420
      255
176
     1
290
     0
176
     1
 90
       50
176
     1
 90
       50
176
     1
 90
       50
176
     1
290
     0
176
     1
 90
       50
176
     1
 62
   256
176
     0
 40
1.0
176
     0
 90
        2
176
     1
  1
strokes_ogs.tif
176
     1
290
     0
176
     1
 40
1.0
176
     1
 40
1.0
176
     1
  0
VISUALSTYLE
  5
4CF
102
{ACAD_REACTORS
330
4B7
102
}
330
4B7
100
AcDbVisualStyle
  2
Shaded
 70
    27
177
     3
291
     0
 70
    58
 90
        2
176
     1
 90
        2
176
     1
 90
        1
176
     1
 90
        2
176
     1
 40
0.6
176
     1
 40
30.0
176
     1
 62
     7
420
 16777215
176
     1
 90
        0
176
     1
 90
        4
176
     1
 62
     7
176
     1
 62
   257
176
     1
 90
        1
176
     1
 90
        1
176
     1
 40
1.0
176
     1
 90
        8
176
     1
 62
   257
176
     1
 40
1.0
176
     1
 90
        1
176
     1
 90
        6
176
     1
 90
        2
176
     1
 62
     8
420
  7895160
176
     1
 90
        3
176
     1
 90
        0
176
     1
 90
        0
176
     1
290
     0
176
     1
 90
        5
176
     1
 40
0.0
176
     1
 90
        0
176
     1
290
     0
176
     1
290
     1
176
     1
290
     1
176
     1
290
     0
176
     1
290
     0
176
     1
290
     0
176
     1
290
     0
176
     1
290
     0
176
     1
290
     0
176
     1
 90
       50
176
     1
 40
0.0
176
     1
 40
1.0
176
     1
 90
        0
176
     1
 62
    18
420
        0
176
     1
 90
       50
176
     1
 90
        3
176
     1
 62
     5
420
      255
176
     1
290
     0
176
     1
 90
       50
176
     1
 90
       50
176
     1
 90
       50
176
     1
290
     0
176
     1
 90
       50
176
     1
 62
   256
176
     0
 40
1.0
176
     0
 90
        2
176
     1
  1
strokes_ogs.tif
176
     1
290
     0
176
     1
 40
1.0
176
     1
 40
1.0
176
     1
  0
VISUALSTYLE
  5
4CE
102
{ACAD_REACTORS
330
4B7
102
}
330
4B7
100
AcDbVisualStyle
  2
Shaded with edges
 70
    26
177
     3
291
     0
 70
    58
 90
        2
176
     1
 90
        2
176
     1
 90
        1
176
     1
 90
        2
176
     1
 40
0.6
176
     1
 40
30.0
176
     1
 62
     7
420
 16777215
176
     1
 90
        1
176
     1
 90
       10
176
     1
 62
     7
176
     1
 62
   257
176
     1
 90
        2
176
     1
 90
        1
176
     1
 40
1.0
176
     1
 90
        8
176
     1
 62
   257
176
     1
 40
1.0
176
     1
 90
        1
176
     1
 90
        6
176
     1
 90
        2
176
     1
 62
     7
176
     1
 90
        3
176
     1
 90
        0
176
     1
 90
        0
176
     1
290
     0
176
     1
 90
        5
176
     1
 40
0.0
176
     1
 90
        0
176
     1
290
     0
176
     1
290
     1
176
     1
290
     1
176
     1
290
     0
176
     1
290
     0
176
     1
290
     0
176
     1
290
     0
176
     1
290
     0
176
     1
290
     0
176
     1
 90
       50
176
     1
 40
0.0
176
     1
 40
1.0
176
     1
 90
        0
176
     1
 62
    18
420
        0
176
     1
 90
       50
176
     1
 90
        3
176
     1
 62
     5
420
      255
176
     1
290
     0
176
     1
 90
       50
176
     1
 90
       50
176
     1
 90
       50
176
     1
290
     0
176
     1
 90
       50
176
     1
 62
   256
176
     0
 40
1.0
176
     0
 90
        2
176
     1
  1
strokes_ogs.tif
176
     1
290
     0
176
     1
 40
1.0
176
     1
 40
1.0
176
     1
  0
VISUALSTYLE
  5
4CB
102
{ACAD_REACTORS
330
4B7
102
}
330
4B7
100
AcDbVisualStyle
  2
Shades of Gray
 70
    23
177
     3
291
     0
 70
    58
 90
        2
176
     1
 90
        2
176
     1
 90
        3
176
     1
 90
        0
176
     1
 40
0.6
176
     1
 40
30.0
176
     1
 62
     7
420
 16777215
176
     1
 90
        2
176
     1
 90
        2
176
     1
 62
     7
176
     1
 62
     7
176
     1
 90
        1
176
     1
 90
        1
176
     1
 40
40.0
176
     1
 90
        8
176
     1
 62
     7
176
     1
 40
1.0
176
     1
 90
        1
176
     1
 90
        6
176
     1
 90
        2
176
     1
 62
     7
176
     1
 90
        3
176
     1
 90
        0
176
     1
 90
        0
176
     1
290
     0
176
     1
 90
        1
176
     1
 40
0.0
176
     1
 90
        0
176
     1
290
     0
176
     1
290
     1
176
     1
290
     1
176
     1
290
     0
176
     1
290
     0
176
     1
290
     0
176
     1
290
     0
176
     1
290
     0
176
     1
290
     0
176
     1
 90
       50
176
     1
 40
0.0
176
     1
 40
1.0
176
     1
 90
        0
176
     1
 62
    18
420
        0
176
     1
 90
       50
176
     1
 90
        3
176
     1
 62
     5
420
      255
176
     1
290
     0
176
     1
 90
       50
176
     1
 90
       50
176
     1
 90
       50
176
     1
290
     0
176
     1
 90
       50
176
     1
 62
   256
176
     0
 40
1.0
176
     0
 90
        2
176
     1
  1
strokes_ogs.tif
176
     1
290
     0
176
     1
 40
1.0
176
     1
 40
1.0
176
     1
  0
VISUALSTYLE
  5
4CC
102
{ACAD_REACTORS
330
4B7
102
}
330
4B7
100
AcDbVisualStyle
  2
Sketchy
 70
    24
177
     3
291
     0
 70
    58
 90
        1
176
     1
 90
        2
176
     1
 90
        2
176
     1
 90
        0
176
     1
 40
0.6
176
     1
 40
30.0
176
     1
 62
     7
420
 16777215
176
     1
 90
        2
176
     1
 90
        2
176
     1
 62
     7
176
     1
 62
     7
176
     1
 90
        1
176
     1
 90
        1
176
     1
 40
40.0
176
     1
 90
       11
176
     1
 62
     7
176
     1
 40
1.0
176
     1
 90
        1
176
     1
 90
        6
176
     1
 90
        2
176
     1
 62
     7
176
     1
 90
        6
176
     1
 90
        0
176
     1
 90
        0
176
     1
290
     0
176
     1
 90
        1
176
     1
 40
0.0
176
     1
 90
        0
176
     1
290
     0
176
     1
290
     1
176
     1
290
     1
176
     1
290
     0
176
     1
290
     0
176
     1
290
     0
176
     1
290
     0
176
     1
290
     0
176
     1
290
     0
176
     1
 90
       50
176
     1
 40
0.0
176
     1
 40
1.0
176
     1
 90
        0
176
     1
 62
    18
420
        0
176
     1
 90
       50
176
     1
 90
        3
176
     1
 62
     5
420
      255
176
     1
290
     0
176
     1
 90
       50
176
     1
 90
       50
176
     1
 90
       50
176
     1
290
     0
176
     1
 90
       50
176
     1
 62
   256
176
     0
 40
1.0
176
     0
 90
        2
176
     1
  1
strokes_ogs.tif
176
     1
290
     0
176
     1
 40
1.0
176
     1
 40
1.0
176
     1
  0
VISUALSTYLE
  5
4C4
102
{ACAD_REACTORS
330
4B7
102
}
330
4B7
100
AcDbVisualStyle
  2
Thicken
 70
    13
177
     3
291
     1
 70
    58
 90
        2
176
     1
 90
        2
176
     1
 90
        0
176
     1
 90
        0
176
     1
 40
0.6
176
     1
 40
30.0
176
     1
 62
     7
420
 16777215
176
     1
 90
        1
176
     1
 90
        4
176
     1
 62
     7
176
     1
 62
   257
176
     1
 90
        1
176
     1
 90
        1
176
     1
 40
1.0
176
     1
 90
       12
176
     1
 62
     7
176
     1
 40
1.0
176
     1
 90
        1
176
     1
 90
        6
176
     1
 90
        2
176
     1
 62
     7
176
     1
 90
        5
176
     1
 90
        0
176
     1
 90
        0
176
     1
290
     0
176
     1
 90
        1
176
     1
 40
0.0
176
     1
 90
        0
176
     1
290
     0
176
     1
290
     1
176
     1
290
     1
176
     1
290
     0
176
     1
290
     0
176
     1
290
     0
176
     1
290
     0
176
     1
290
     0
176
     1
290
     0
176
     1
 90
       50
176
     1
 40
0.0
176
     1
 40
1.0
176
     1
 90
        0
176
     1
 62
    18
420
        0
176
     1
 90
       50
176
     1
 90
        3
176
     1
 62
     5
420
      255
176
     1
290
     0
176
     1
 90
       50
176
     1
 90
       50
176
     1
 90
       50
176
     1
290
     0
176
     1
 90
       50
176
     1
 62
   256
176
     0
 40
1.0
176
     0
 90
        2
176
     1
  1
strokes_ogs.tif
176
     1
290
     0
176
     1
 40
1.0
176
     1
 40
1.0
176
     1
  0
VISUALSTYLE
  5
4BD
102
{ACAD_REACTORS
330
4B7
102
}
330
4B7
100
AcDbVisualStyle
  2
Wireframe
 70
     5
177
     3
291
     0
 70
    58
 90
        0
176
     1
 90
        2
176
     1
 90
        0
176
     1
 90
        0
176
     1
 40
0.6
176
     1
 40
30.0
176
     1
 62
     7
420
 16777215
176
     1
 90
        1
176
     1
 90
        4
176
     1
 62
     7
176
     1
 62
   257
176
     1
 90
        1
176
     1
 90
        1
176
     1
 40
1.0
176
     1
 90
        0
176
     1
 62
   257
176
     1
 40
1.0
176
     1
 90
        1
176
     1
 90
        6
176
     1
 90
        2
176
     1
 62
     7
176
     1
 90
        3
176
     1
 90
        0
176
     1
 90
        0
176
     1
290
     0
176
     1
 90
        1
176
     1
 40
0.0
176
     1
 90
        0
176
     1
290
     0
176
     1
290
     1
176
     1
290
     1
176
     1
290
     0
176
     1
290
     0
176
     1
290
     0
176
     1
290
     0
176
     1
290
     0
176
     1
290
     0
176
     1
 90
       50
176
     1
 40
0.0
176
     1
 40
1.0
176
     1
 90
        0
176
     1
 62
    18
420
        0
176
     1
 90
       50
176
     1
 90
        3
176
     1
 62
     5
420
      255
176
     1
290
     0
176
     1
 90
       50
176
     1
 90
       50
176
     1
 90
       50
176
     1
290
     0
176
     1
 90
       50
176
     1
 62
   256
176
     0
 40
1.0
176
     0
 90
        2
176
     1
  1
strokes_ogs.tif
176
     1
290
     0
176
     1
 40
1.0
176
     1
 40
1.0
176
     1
  0
VISUALSTYLE
  5
4CD
102
{ACAD_REACTORS
330
4B7
102
}
330
4B7
100
AcDbVisualStyle
  2
X-Ray
 70
    25
177
     3
291
     0
 70
    58
 90
        2
176
     1
 90
        2
176
     1
 90
        1
176
     1
 90
        1
176
     1
 40
0.5
176
     1
 40
30.0
176
     1
 62
     7
420
 16777215
176
     1
 90
        1
176
     1
 90
        0
176
     1
 62
     7
176
     1
 62
   257
176
     1
 90
        1
176
     1
 90
        1
176
     1
 40
1.0
176
     1
 90
        8
176
     1
 62
     7
176
     1
 40
1.0
176
     1
 90
        1
176
     1
 90
        6
176
     1
 90
        2
176
     1
 62
     7
176
     1
 90
        3
176
     1
 90
        0
176
     1
 90
        0
176
     1
290
     0
176
     1
 90
       13
176
     1
 40
0.0
176
     1
 90
        0
176
     1
290
     0
176
     1
290
     1
176
     1
290
     1
176
     1
290
     0
176
     1
290
     0
176
     1
290
     0
176
     1
290
     0
176
     1
290
     0
176
     1
290
     0
176
     1
 90
       50
176
     1
 40
0.0
176
     1
 40
1.0
176
     1
 90
        0
176
     1
 62
    18
420
        0
176
     1
 90
       50
176
     1
 90
        3
176
     1
 62
     5
420
      255
176
     1
290
     0
176
     1
 90
       50
176
     1
 90
       50
176
     1
 90
       50
176
     1
290
     0
176
     1
 90
       50
176
     1
 62
   256
176
     0
 40
1.0
176
     0
 90
        2
176
     1
  1
strokes_ogs.tif
176
     1
290
     0
176
     1
 40
1.0
176
     1
 40
1.0
176
     1
  0
DICTIONARYVAR
  5
4E6
102
{ACAD_REACTORS
330
4E5
102
}
330
4E5
100
DictionaryVariables
280
     0
  1
1:1
  0
DICTIONARYVAR
  5
4EA
102
{ACAD_REACTORS
330
4E5
102
}
330
4E5
100
DictionaryVariables
280
     0
  1
Standard
  0
CSACDOCUMENTOPTIONS
  5
4DB
102
{ACAD_REACTORS
330
4DA
102
}
330
4DA
  0
XRECORD
  5
4DF
102
{ACAD_REACTORS
330
4D6
102
}
330
4D6
100
AcDbXrecord
280
     1
300
MC_VERSION_DATA
 90
       95
310
0600000002000000570000001C000000E404000000000000000000007801936764E5D8CF7A8393818115C460606066E0646662626666706006F214793899F8DE3171E725E6E53B3BBA2878E6951050AF75FEFFFFFF520032DE0F3057000000
  0
XRECORD
  5
4D7
102
{ACAD_REACTORS
330
4D6
102
}
330
4D6
100
AcDbXrecord
280
     1
300
MCS_DOCUMENT_ID
 90
       60
310
0600000002000000150000001C000000E404000000000000000000007801E3BDE27FE4D551771EEF4D935EFC89E6F2ABFE0F04007BAE0C9415000000
  0
XRECORD
  5
4DD
102
{ACAD_REACTORS
330
4D6
102
}
330
4D6
100
AcDbXrecord
280
     1
300
MCS_PARAMS_DATA
 90
     3313
310
0600000002000000F64B00001C000000E404000000000000000000007801C55C5B905C45199EE99EBDCCE67E5DA218172C303B91307B4B8C459531245054850D55591F78B236BB49B9BAC9E6B22A082A9655BE5865596569A965F9209288CF16503EC8834088C10B092404211702988430422E9084CDAEFFD7A7FBF4DFA7CF
310
D9D99D9D39930798FF3F7DCEF7DFFAFBBBFBCC6CDBFC46297252EECB48F9CDF5ED5234493921A5206D76815820B252E4F3225F128D7D5F59BF69E3162948D9A2D485B3131313747328BF06593E960915079422437734AA3BDAA5CCD053F5ED4FD2557D257BAB94DF007A03479F859BB2B22193C9108EC1CDCADC0464C27506
310
28605703E48886E0B986E10F03BF91E33707F8E3140E7A9091C8268236920C1C662240B94888A1C8E07600AE99C32D5131CA8B3925D172EFE62D7D6D9DABBA8ADDD6F17CE16D13F0457AE8AC9268DE32DABF73B07FCFA013F9BF8491D7C17E2550D8E8FFCA8DFE4E98B3929B331718B291824FFF72EB941D9E8E2211D5A93C
310
784A44C557923911258BD0C8640531AEEC61A924855B11378280384364A422680C0A928DB9C10CD89D581114199665B722B26E4590C82B0222AB08FAA8A60626C028E0044F81BA246F5360E167F2D27C56A10E05C058C13C59DEC6207679103AFC5DEADF992F2B284F67B31C8EE359B64A9665A62453228F64269D98455E3B
310
A4B35817F7EC92C86FB8EFFE8DBD5BEEDBDCAB0CD3B5FC8E99065A7E55D536E39DE7826237F1C8BBBCB3CFADFC93302087C80397EE69C2FF69CA32234F0763E41851010DA578E8294D435524988818E84710A7B2643B4F7C034F6CE5C9368F203BE8094C6268541D70D35EE4B585DAE170F4942EB8D2D422560A9917F34B62
310
CE86919D9F1F6DDBB36DD770FFC0B6BC682E898607BEB5737424F8D83B323AF07529CFC0B69BB96D9FD3CFF9B410ED79B1A42416161FEA29AEEDEEEC5ADF532C76DEF3C5AEEEB5CAECF97A60330D2C1C3579EAD0DA7621F20269BD6768746FDBF0D0DE51F3B0EE356B3ABBD6F474F7740D76770EACED08FCFC92BEAF13F701
310
B5AF7FEBF0B6B691ED6D7D23C3DBF6F4EF840FDA9AD583C58E81E240FFEAADDD5BD70EAC0E669D2A25F27FB610851F9335859F059541B9E5971EC7A5A7E83F2CE53DB9A4040555A2661A4DDBF2C560B2E54E7D5483931EF871F7C88E5DFDA3435B878687461F6EDB313248FE3596847C70DBDEBC682809D13B22E56A5856E4
310
E9998738519B6E2A89DCE6EDDBDB542AF4E4380F8F61A4965F57116093E5A052A06AF588670205D9A715FB49B140D81A90855F902680EBB8B3A3187EEA96F2B224E392BAF898328CB1AD47DA34C1601A1B421AD816D190715CC3F276A5DE067C546F03AED6DB808FEB6DC0B57A1BB00853B49EB3E0937A47E07ABD0D188301
310
71CB797197D3603B1D06BFCB6DB024827C0C834324E60945463B3712E196397079076E990B47228783C8E09631B8F129C211385B3E540C97413DC70673C524DEAD70BD23917B079179B782793791AE77D944EFDCDC5529988B13E1069D6092C472A7F777A6F648E4C184C88239C8822913E16AE29D48176E29E0727C316496
310
EF2A967C95165E504B0C2B218EEE82DD5C63513CD614C5091F6D6FA7551865CC5C5030A1E0A3E84BEC86CFD04EC5DD01AA74CBDB05AB8C403295A124BB2908C4B032B4682A032283FB103E391B4E03172C7199C4E0F88E871E8855ADA1482D3238FA1846E0B807A77785BFF935FE1D74369F5647D0D171CA5F4F09337C2559
310
105132935A503D6DBC7A94B54D2B6DF1E0339960F436A97441791E5EC104D40283580888C4FDED577B1FD8B4B9AF6FE30605D8AAD7F1F34A62F6DD5BBEC62E92057A31FEA25A9DB3F5FBD3C1729D9CD723B0BF0DE8402BB05A67160DDE4416E59079C0D9EAA575B7321F67115FC018C76AB5B3A33D06B68CBD9BFBDC93C073
310
800CC384FD360C544F539B6F02B1820953BE9D01DE01C0D85A6C50369A5AC4065C7760793B965800321749E4B50891C0C2AB0CAE9808178444974C70F875952A9381563C01BE9D08EAFA481283ABD8C7EF7870DAABE068E68833DFAC8EA0A3E3F87C0B07AA507B2311F0889285BDC333294C4E2DB27C67BA70ABD2857B688A
310
70552AA7873DB8489E55063D5D2DCBE9BB9E49F1E554A5083C922EDCA3E9C27D2F5DB8EF7B705EE9D87E1E920E88313AAE6AECF4FBD668D3D30DB4E51ADA9BEDB0D7AFCEB4DDED85F7C4ECF6551B3BCE2AFF6E835E49458EC94883D6E73C45753FAE614C3C0A0362777435D915EC025C33F7578776011DE6F3D066954C59D6
310
D76F86AC9CD58A53F4122CF0552BAE070AEA3B5AF15752304F1F47569D50AB71F41A31FA5A51C904CD43C6B0F51D2ACEFC112ACC4CC1B0FF086CE7AD5A4D096A005126387AAD451EE384D9C035A925859E39C1AA865EE9A9B8DA21CEE289167F7CF1D4C4BC7A125EC5AED5D8BB0B5A9D9144D134CFA71BF85A8D44BE568348
310
F6AA55A2F3CAEA4F6982FD21118CC249D3CBF852A586F244BA70FBD285DB9F085793EDE56E143F0AD06C6B4CB2242BDD3DD1419166C2865E81F9CE1648F3CBD84597B22E28992A3DDCE24C77F3F311A01C8A722828EC3CF15F7D987933F818F8E59BC138E5CD4CE8AC24C94E68BA32F5C3CBAB808B6B06B9936E642F9F804C
310
903AF2F3709D37832318A078E4B37AEBDCFAA66859945B9EBB25776BAE2DD3995995E9CA1433DDFA4DAC7ECE6FE93696E96BB06712968ED2661884A9EE40230F60D0D73DE8C858453B9E8E4212D5A9B0784A762662599FEDD18C9299F4094C728A91F536658E91CDA6DFC8E89F363B15B4CB31404FD2581CF722BBF229B517
310
430944E56AB2E2A8E3461950730F2B7ECA7BC570E389706E8BA9D241C744225C40C29385944F707279EA277D998065D9EAD604B1263E66D38513E9C2490F4EE7CC6E8AA89C3D9DA588701CA708AB6414C194931EE3FC0D4515D71A4FBFE712F8CB4A26532A6E8DCF01CA61A3745BE3F3C09F6E6B442F0CD7BAD36A8D2F002E
310
AE359E3BE646F6B8926D6BBC0CD9926FBEF08C5220B9BAE91D0E14769FF44B52301E3C00E8FA74C117BD24F396E22C7F1005F2DA2902EB76053DE720B0D3EE397F2F036AE8B24A3DE750225C4DF8F8A544B81AF69C7F2482D6C4C77F067093EF36FE359541FF8E0E8A50399BA22F63681CEF0EBDEBB2C3834A9E09EF1E0654
310
1D79F708F0A7CBBB956F495E015C1CEFEE3EEC46B65FC996771F856C09285F58A7148C77872F6104D6DC9A8897D30896D457015D1FDE3DEA25B91CEFF2EBD6EB0A68F718A0D3A6DDD7CA805699768F27C2D584925E4F84AB9476A39B03E744D09CD6610FF59F44E89A78FA46BA70DDDE0ADC144A4DBCEBF1E0221D416DC23D
310
1D715254A766A8A7AC60C1FF26021ED7783E889CD89C52F24C1ACF0940D5B1F19C047E7A8DE714E0E21ACFD5436EE339AB64DB78E44B91C6730003ECCB897CE1D28548E3798246B0C6731AD0536D3CB3E90740046E0B5FD5161351555C247A084506FA9607AAEBD39C44F1E2B63A5BDCA18E17B755B2E2664A322602C34C3A
310
0393625B51C09BC60D77315EF1E1C8DB80730A9C37D5B8CD0EBF3EA3A6FB4EA2A7C18B1B2746D53A5F7BB70C687C78291FE10E3A386EE3054657F9CB297E9CF703B0E71DFC4DA3397B4068C3CF33A1A81F02C2C920DB8E7ABF712005813923946BAE06DE453454B45CC32AF6311810C751E3F85A979E7874424F9299B34AB2
310
210DC430A45A3473162283FB2F3218C7FE178FBB1CF59692CDAD957C0DECAC3739580882F7E26636C4FC0874E66F42CE013F2EB274A4C323CBB88082C5B980AE4CFD4DC879C0C5B1FFF5E7DDC89E57324556799F2F34BC006EC70CD18A8318C0D9FF0AB6807CDBB19F46B0A4BE07E8B4D9FF8207EA504E3D7E65FA3E4C7226
310
B329B0E8D703AAFEBAA304E869379E693123CD68457958A4FF2F11AE86ECFF4119D078F6E7138AD87FF2370F86D6E1E38789702D76FED2134932CCA824CB8C811832A3160D33426421BD980847AF6F0C11D33DEECB1CFE9B7175D1F926045DE5BD8DBFBDBE94081764D0049324E6DDB40A8607F372225C4D16463974B5B836
310
F393232E193EA2E499B49986C93A780A6DA631A981D7A6CD34012EAECDFCFC5937B23F52B26D33BF83CCDBCC56A5C0ECD07DE7A7A7226D661D8D6033A419D0536D33E07F56B8C4CA7C0D48229F9610695A461A0883CE7B494E8DD95B004DF38E8247AB09FE45AC1A52EDAC32A0861DD8DA85D8A76276989D08579353913989
310
700119397510D9BB4CAB9DF096393711B4263ECE4B176E7EBA700B3C389DB3F0B5335AA6A7234288EA142D784A9083AFB414616018456CF24C3293C4CD2F49D3E5A5F0410CEE7E0F2E6A6FEA11580893E29AEE529C2FC11C4DF48D4AA628982DB44A422820F8563073C8F989CF2240392BED74F7768B819FDEDE6E09E0E29A
310
EE72FA030B3CB273954C91D5916E87CC9BEEFB4FAB1E6B73B10CFB6CBEB73B4423589D2D05F4CC9AAE2E4C768646F0614DBB4BD40606DDEA2539B5A67B13A0D36EBACBCA809A9055A7E9E24B8E0D79912B896C91FE0C1655C17843E129FA335B3277F4E8510807513CB9CC44868E210AF7FE19028691B0917E39482B125CF8
310
D4FF01F0B312DAF64B0000
  0
TABLECONTENT
  5
4E1
330
4E4
100
AcDbLinkedData
  1

300

100
AcDbLinkedTableData
 90
        5
300
COLUMN
  1
LINKEDTABLEDATACOLUMN_BEGIN
300

 91
        0
301
CUSTOMDATA
  1
DATAMAP_BEGIN
 90
        0
309
DATAMAP_END
309
LINKEDTABLEDATACOLUMN_END
  1
FORMATTEDTABLEDATACOLUMN_BEGIN
300
COLUMNTABLEFORMAT
  1
TABLEFORMAT_BEGIN
 90
        3
170
     0
309
TABLEFORMAT_END
309
FORMATTEDTABLEDATACOLUMN_END
  1
TABLECOLUMN_BEGIN
 90
        0
 40
10.0
309
TABLECOLUMN_END
300
COLUMN
  1
LINKEDTABLEDATACOLUMN_BEGIN
300

 91
        0
301
CUSTOMDATA
  1
DATAMAP_BEGIN
 90
        0
309
DATAMAP_END
309
LINKEDTABLEDATACOLUMN_END
  1
FORMATTEDTABLEDATACOLUMN_BEGIN
300
COLUMNTABLEFORMAT
  1
TABLEFORMAT_BEGIN
 90
        3
170
     0
309
TABLEFORMAT_END
309
FORMATTEDTABLEDATACOLUMN_END
  1
TABLECOLUMN_BEGIN
 90
        0
 40
10.0
309
TABLECOLUMN_END
300
COLUMN
  1
LINKEDTABLEDATACOLUMN_BEGIN
300

 91
        0
301
CUSTOMDATA
  1
DATAMAP_BEGIN
 90
        0
309
DATAMAP_END
309
LINKEDTABLEDATACOLUMN_END
  1
FORMATTEDTABLEDATACOLUMN_BEGIN
300
COLUMNTABLEFORMAT
  1
TABLEFORMAT_BEGIN
 90
        3
170
     0
309
TABLEFORMAT_END
309
FORMATTEDTABLEDATACOLUMN_END
  1
TABLECOLUMN_BEGIN
 90
        0
 40
10.0
309
TABLECOLUMN_END
300
COLUMN
  1
LINKEDTABLEDATACOLUMN_BEGIN
300

 91
        0
301
CUSTOMDATA
  1
DATAMAP_BEGIN
 90
        0
309
DATAMAP_END
309
LINKEDTABLEDATACOLUMN_END
  1
FORMATTEDTABLEDATACOLUMN_BEGIN
300
COLUMNTABLEFORMAT
  1
TABLEFORMAT_BEGIN
 90
        3
170
     0
309
TABLEFORMAT_END
309
FORMATTEDTABLEDATACOLUMN_END
  1
TABLECOLUMN_BEGIN
 90
        0
 40
40.0
309
TABLECOLUMN_END
300
COLUMN
  1
LINKEDTABLEDATACOLUMN_BEGIN
300

 91
        0
301
CUSTOMDATA
  1
DATAMAP_BEGIN
 90
        0
309
DATAMAP_END
309
LINKEDTABLEDATACOLUMN_END
  1
FORMATTEDTABLEDATACOLUMN_BEGIN
300
COLUMNTABLEFORMAT
  1
TABLEFORMAT_BEGIN
 90
        3
170
     0
309
TABLEFORMAT_END
309
FORMATTEDTABLEDATACOLUMN_END
  1
TABLECOLUMN_BEGIN
 90
        0
 40
20.0
309
TABLECOLUMN_END
 91
        5
301
ROW
  1
LINKEDTABLEDATAROW_BEGIN
 90
        5
300
CELL
  1
LINKEDTABLEDATACELL_BEGIN
 90
        0
300

 91
        0
301
CUSTOMDATA
  1
DATAMAP_BEGIN
 90
        1
300
ACAD_ROUNDTRIP_2008_CELL_CHECKSUM
301
DATAMAP_VALUE
 93
        2
 90
        2
140
32.0
 94
        0
300

302

304
ACVALUE_END
309
DATAMAP_END
 92
        0
 95
        1
302
CONTENT
  1
CELLCONTENT_BEGIN
 90
        1
300
VALUE
 93
        2
 90
        4
  1
 
 94
        0
300

302
 
304
ACVALUE_END
 91
        0
309
CELLCONTENT_END
  1
FORMATTEDCELLCONTENT_BEGIN
170
     1
300
CONTENTFORMAT
  1
CONTENTFORMAT_BEGIN
 90
      132
 91
        0
 92
      512
 93
        0
300

 40
0.0
140
1.0
 94
        1
 62
     0
340
0
144
3.5
309
CONTENTFORMAT_END
309
FORMATTEDCELLCONTENT_END
309
LINKEDTABLEDATACELL_END
  1
FORMATTEDTABLEDATACELL_BEGIN
300
CELLTABLEFORMAT
  1
TABLEFORMAT_BEGIN
 90
        1
170
     1
 91
        0
 92
        0
 62
   257
 93
        1
300
CONTENTFORMAT
  1
CONTENTFORMAT_BEGIN
 90
        0
 91
        0
 92
      512
 93
        0
300

 40
0.0
140
1.0
 94
        1
 62
     0
340
0
144
0.18
309
CONTENTFORMAT_END
171
     0
 94
        0
309
TABLEFORMAT_END
309
FORMATTEDTABLEDATACELL_END
  1
TABLECELL_BEGIN
 90
        0
 91
        0
309
TABLECELL_END
300
CELL
  1
LINKEDTABLEDATACELL_BEGIN
 90
        0
300

 91
        0
301
CUSTOMDATA
  1
DATAMAP_BEGIN
 90
        0
309
DATAMAP_END
 92
        0
 95
        0
309
LINKEDTABLEDATACELL_END
  1
FORMATTEDTABLEDATACELL_BEGIN
300
CELLTABLEFORMAT
  1
TABLEFORMAT_BEGIN
 90
        1
170
     1
 91
        0
 92
        0
 62
   257
 93
        1
300
CONTENTFORMAT
  1
CONTENTFORMAT_BEGIN
 90
        0
 91
        0
 92
      512
 93
        0
300

 40
0.0
140
1.0
 94
        1
 62
     0
340
0
144
0.18
309
CONTENTFORMAT_END
171
     0
 94
        0
309
TABLEFORMAT_END
309
FORMATTEDTABLEDATACELL_END
  1
TABLECELL_BEGIN
 90
        0
 91
        0
309
TABLECELL_END
300
CELL
  1
LINKEDTABLEDATACELL_BEGIN
 90
        0
300

 91
        0
301
CUSTOMDATA
  1
DATAMAP_BEGIN
 90
        0
309
DATAMAP_END
 92
        0
 95
        0
309
LINKEDTABLEDATACELL_END
  1
FORMATTEDTABLEDATACELL_BEGIN
300
CELLTABLEFORMAT
  1
TABLEFORMAT_BEGIN
 90
        1
170
     1
 91
        0
 92
        0
 62
   257
 93
        1
300
CONTENTFORMAT
  1
CONTENTFORMAT_BEGIN
 90
        0
 91
        0
 92
      512
 93
        0
300

 40
0.0
140
1.0
 94
        1
 62
     0
340
0
144
0.18
309
CONTENTFORMAT_END
171
     0
 94
        0
309
TABLEFORMAT_END
309
FORMATTEDTABLEDATACELL_END
  1
TABLECELL_BEGIN
 90
        0
 91
        0
309
TABLECELL_END
300
CELL
  1
LINKEDTABLEDATACELL_BEGIN
 90
        0
300

 91
        0
301
CUSTOMDATA
  1
DATAMAP_BEGIN
 90
        1
300
ACAD_ROUNDTRIP_2008_CELL_CHECKSUM
301
DATAMAP_VALUE
 93
        2
 90
        2
140
3390.0
 94
        0
300

302

304
ACVALUE_END
309
DATAMAP_END
 92
        0
 95
        1
302
CONTENT
  1
CELLCONTENT_BEGIN
 90
        1
300
VALUE
 93
        2
 90
        4
  1
A050_C_004
 94
        0
300

302
A050_C_004
304
ACVALUE_END
 91
        0
309
CELLCONTENT_END
  1
FORMATTEDCELLCONTENT_BEGIN
170
     1
300
CONTENTFORMAT
  1
CONTENTFORMAT_BEGIN
 90
      196
 91
        0
 92
      512
 93
        0
300

 40
0.0
140
1.0
 94
        1
 62
     0
340
206
144
3.0
309
CONTENTFORMAT_END
309
FORMATTEDCELLCONTENT_END
309
LINKEDTABLEDATACELL_END
  1
FORMATTEDTABLEDATACELL_BEGIN
300
CELLTABLEFORMAT
  1
TABLEFORMAT_BEGIN
 90
        1
170
     1
 91
       16
 92
        0
 62
   257
 93
        1
300
CONTENTFORMAT
  1
CONTENTFORMAT_BEGIN
 90
       16
 91
        0
 92
      512
 93
        0
300

 40
0.0
140
1.0
 94
        4
 62
     0
340
0
144
0.18
309
CONTENTFORMAT_END
171
     0
 94
        4
 95
        1
302
GRIDFORMAT
  1
GRIDFORMAT_BEGIN
 90
       26
 91
        1
 62
     0
 92
       -2
340
0
 93
        0
 40
0.045
309
GRIDFORMAT_END
 95
        4
302
GRIDFORMAT
  1
GRIDFORMAT_BEGIN
 90
       26
 91
        1
 62
     0
 92
       -2
340
0
 93
        0
 40
0.045
309
GRIDFORMAT_END
 95
        8
302
GRIDFORMAT
  1
GRIDFORMAT_BEGIN
 90
       26
 91
        1
 62
     0
 92
       -2
340
0
 93
        0
 40
0.045
309
GRIDFORMAT_END
 95
       32
302
GRIDFORMAT
  1
GRIDFORMAT_BEGIN
 90
       26
 91
        1
 62
     0
 92
       -2
340
0
 93
        0
 40
0.045
309
GRIDFORMAT_END
309
TABLEFORMAT_END
309
FORMATTEDTABLEDATACELL_END
  1
TABLECELL_BEGIN
 90
        0
 91
        0
309
TABLECELL_END
300
CELL
  1
LINKEDTABLEDATACELL_BEGIN
 90
        0
300

 91
        0
301
CUSTOMDATA
  1
DATAMAP_BEGIN
 90
        1
300
ACAD_ROUNDTRIP_2008_CELL_CHECKSUM
301
DATAMAP_VALUE
 93
        2
 90
        2
140
1398.0
 94
        0
300

302

304
ACVALUE_END
309
DATAMAP_END
 92
        0
 95
        1
302
CONTENT
  1
CELLCONTENT_BEGIN
 90
        1
300
VALUE
 93
        2
 90
        4
  1
Rev:00
 94
        0
300

302
Rev:00
304
ACVALUE_END
 91
        0
309
CELLCONTENT_END
  1
FORMATTEDCELLCONTENT_BEGIN
170
     1
300
CONTENTFORMAT
  1
CONTENTFORMAT_BEGIN
 90
      196
 91
        0
 92
      512
 93
        0
300

 40
0.0
140
1.0
 94
        1
 62
     0
340
206
144
3.5
309
CONTENTFORMAT_END
309
FORMATTEDCELLCONTENT_END
309
LINKEDTABLEDATACELL_END
  1
FORMATTEDTABLEDATACELL_BEGIN
300
CELLTABLEFORMAT
  1
TABLEFORMAT_BEGIN
 90
        1
170
     1
 91
       16
 92
        0
 62
   257
 93
        1
300
CONTENTFORMAT
  1
CONTENTFORMAT_BEGIN
 90
       16
 91
        0
 92
      512
 93
        0
300

 40
0.0
140
1.0
 94
        4
 62
     0
340
0
144
0.18
309
CONTENTFORMAT_END
171
     0
 94
        4
 95
        1
302
GRIDFORMAT
  1
GRIDFORMAT_BEGIN
 90
       26
 91
        1
 62
     0
 92
       -2
340
0
 93
        0
 40
0.045
309
GRIDFORMAT_END
 95
        4
302
GRIDFORMAT
  1
GRIDFORMAT_BEGIN
 90
       26
 91
        1
 62
     0
 92
       -2
340
0
 93
        0
 40
0.045
309
GRIDFORMAT_END
 95
        8
302
GRIDFORMAT
  1
GRIDFORMAT_BEGIN
 90
       26
 91
        1
 62
     0
 92
       -2
340
0
 93
        0
 40
0.045
309
GRIDFORMAT_END
 95
       32
302
GRIDFORMAT
  1
GRIDFORMAT_BEGIN
 90
       26
 91
        1
 62
     0
 92
       -2
340
0
 93
        0
 40
0.045
309
GRIDFORMAT_END
309
TABLEFORMAT_END
309
FORMATTEDTABLEDATACELL_END
  1
TABLECELL_BEGIN
 90
        0
 91
        0
309
TABLECELL_END
 91
        0
301
CUSTOMDATA
  1
DATAMAP_BEGIN
 90
        0
309
DATAMAP_END
309
LINKEDTABLEDATAROW_END
  1
FORMATTEDTABLEDATAROW_BEGIN
300
ROWTABLEFORMAT
  1
TABLEFORMAT_BEGIN
 90
        2
170
     0
309
TABLEFORMAT_END
309
FORMATTEDTABLEDATAROW_END
  1
TABLEROW_BEGIN
 90
        1
 40
6.0
309
TABLEROW_END
301
ROW
  1
LINKEDTABLEDATAROW_BEGIN
 90
        5
300
CELL
  1
LINKEDTABLEDATACELL_BEGIN
 90
        0
300

 91
        0
301
CUSTOMDATA
  1
DATAMAP_BEGIN
 90
        0
309
DATAMAP_END
 92
        0
 95
        0
309
LINKEDTABLEDATACELL_END
  1
FORMATTEDTABLEDATACELL_BEGIN
300
CELLTABLEFORMAT
  1
TABLEFORMAT_BEGIN
 90
        1
170
     1
 91
        0
 92
        0
 62
   257
 93
        1
300
CONTENTFORMAT
  1
CONTENTFORMAT_BEGIN
 90
        0
 91
        0
 92
      512
 93
        0
300

 40
0.0
140
1.0
 94
        1
 62
     0
340
0
144
0.18
309
CONTENTFORMAT_END
171
     0
 94
        0
309
TABLEFORMAT_END
309
FORMATTEDTABLEDATACELL_END
  1
TABLECELL_BEGIN
 90
        0
 91
        0
309
TABLECELL_END
300
CELL
  1
LINKEDTABLEDATACELL_BEGIN
 90
        0
300

 91
        0
301
CUSTOMDATA
  1
DATAMAP_BEGIN
 90
        0
309
DATAMAP_END
 92
        0
 95
        0
309
LINKEDTABLEDATACELL_END
  1
FORMATTEDTABLEDATACELL_BEGIN
300
CELLTABLEFORMAT
  1
TABLEFORMAT_BEGIN
 90
        1
170
     1
 91
        0
 92
        0
 62
   257
 93
        1
300
CONTENTFORMAT
  1
CONTENTFORMAT_BEGIN
 90
        0
 91
        0
 92
      512
 93
        0
300

 40
0.0
140
1.0
 94
        1
 62
     0
340
0
144
0.18
309
CONTENTFORMAT_END
171
     0
 94
        0
309
TABLEFORMAT_END
309
FORMATTEDTABLEDATACELL_END
  1
TABLECELL_BEGIN
 90
        0
 91
        0
309
TABLECELL_END
300
CELL
  1
LINKEDTABLEDATACELL_BEGIN
 90
        0
300

 91
        0
301
CUSTOMDATA
  1
DATAMAP_BEGIN
 90
        0
309
DATAMAP_END
 92
        0
 95
        0
309
LINKEDTABLEDATACELL_END
  1
FORMATTEDTABLEDATACELL_BEGIN
300
CELLTABLEFORMAT
  1
TABLEFORMAT_BEGIN
 90
        1
170
     1
 91
        0
 92
        0
 62
   257
 93
        1
300
CONTENTFORMAT
  1
CONTENTFORMAT_BEGIN
 90
        0
 91
        0
 92
      512
 93
        0
300

 40
0.0
140
1.0
 94
        1
 62
     0
340
0
144
0.18
309
CONTENTFORMAT_END
171
     0
 94
        0
309
TABLEFORMAT_END
309
FORMATTEDTABLEDATACELL_END
  1
TABLECELL_BEGIN
 90
        0
 91
        0
309
TABLECELL_END
300
CELL
  1
LINKEDTABLEDATACELL_BEGIN
 90
        0
300

 91
        0
301
CUSTOMDATA
  1
DATAMAP_BEGIN
 90
        1
300
ACAD_ROUNDTRIP_2008_CELL_CHECKSUM
301
DATAMAP_VALUE
 93
        2
 90
        2
140
3105.0
 94
        0
300

302

304
ACVALUE_END
309
DATAMAP_END
 92
        0
 95
        1
302
CONTENT
  1
CELLCONTENT_BEGIN
 90
        1
300
VALUE
 93
        2
 90
        4
  1
Scale:1:1
 94
        0
300

302
Scale:1:1
304
ACVALUE_END
 91
        0
309
CELLCONTENT_END
  1
FORMATTEDCELLCONTENT_BEGIN
170
     1
300
CONTENTFORMAT
  1
CONTENTFORMAT_BEGIN
 90
      196
 91
        0
 92
      512
 93
        0
300

 40
0.0
140
1.0
 94
        1
 62
     0
340
206
144
3.5
309
CONTENTFORMAT_END
309
FORMATTEDCELLCONTENT_END
309
LINKEDTABLEDATACELL_END
  1
FORMATTEDTABLEDATACELL_BEGIN
300
CELLTABLEFORMAT
  1
TABLEFORMAT_BEGIN
 90
        1
170
     1
 91
       16
 92
        0
 62
   257
 93
        1
300
CONTENTFORMAT
  1
CONTENTFORMAT_BEGIN
 90
       16
 91
        0
 92
      512
 93
        0
300

 40
0.0
140
1.0
 94
        1
 62
     0
340
0
144
0.18
309
CONTENTFORMAT_END
171
     0
 94
        4
 95
        1
302
GRIDFORMAT
  1
GRIDFORMAT_BEGIN
 90
       26
 91
        1
 62
     0
 92
       -2
340
0
 93
        0
 40
0.045
309
GRIDFORMAT_END
 95
        4
302
GRIDFORMAT
  1
GRIDFORMAT_BEGIN
 90
       26
 91
        1
 62
     0
 92
       -2
340
0
 93
        0
 40
0.045
309
GRIDFORMAT_END
 95
        8
302
GRIDFORMAT
  1
GRIDFORMAT_BEGIN
 90
       26
 91
        1
 62
     0
 92
       -2
340
0
 93
        0
 40
0.045
309
GRIDFORMAT_END
 95
       32
302
GRIDFORMAT
  1
GRIDFORMAT_BEGIN
 90
       26
 91
        1
 62
     0
 92
       -2
340
0
 93
        0
 40
0.045
309
GRIDFORMAT_END
309
TABLEFORMAT_END
309
FORMATTEDTABLEDATACELL_END
  1
TABLECELL_BEGIN
 90
        0
 91
        0
309
TABLECELL_END
300
CELL
  1
LINKEDTABLEDATACELL_BEGIN
 90
        0
300

 91
        0
301
CUSTOMDATA
  1
DATAMAP_BEGIN
 90
        1
300
ACAD_ROUNDTRIP_2008_CELL_CHECKSUM
301
DATAMAP_VALUE
 93
        2
 90
        2
140
169.0
 94
        0
300

302

304
ACVALUE_END
309
DATAMAP_END
 92
        0
 95
        1
302
CONTENT
  1
CELLCONTENT_BEGIN
 90
        1
300
VALUE
 93
        2
 90
        4
  1
A4
 94
        0
300

302
A4
304
ACVALUE_END
 91
        0
309
CELLCONTENT_END
  1
FORMATTEDCELLCONTENT_BEGIN
170
     1
300
CONTENTFORMAT
  1
CONTENTFORMAT_BEGIN
 90
      196
 91
        0
 92
      512
 93
        0
300

 40
0.0
140
1.0
 94
        1
 62
     0
340
206
144
3.5
309
CONTENTFORMAT_END
309
FORMATTEDCELLCONTENT_END
309
LINKEDTABLEDATACELL_END
  1
FORMATTEDTABLEDATACELL_BEGIN
300
CELLTABLEFORMAT
  1
TABLEFORMAT_BEGIN
 90
        1
170
     1
 91
       16
 92
        0
 62
   257
 93
        1
300
CONTENTFORMAT
  1
CONTENTFORMAT_BEGIN
 90
       16
 91
        0
 92
      512
 93
        0
300

 40
0.0
140
1.0
 94
        4
 62
     0
340
0
144
0.18
309
CONTENTFORMAT_END
171
     0
 94
        4
 95
        1
302
GRIDFORMAT
  1
GRIDFORMAT_BEGIN
 90
       26
 91
        1
 62
     0
 92
       -2
340
0
 93
        0
 40
0.045
309
GRIDFORMAT_END
 95
        4
302
GRIDFORMAT
  1
GRIDFORMAT_BEGIN
 90
       26
 91
        1
 62
     0
 92
       -2
340
0
 93
        0
 40
0.045
309
GRIDFORMAT_END
 95
        8
302
GRIDFORMAT
  1
GRIDFORMAT_BEGIN
 90
       26
 91
        1
 62
     0
 92
       -2
340
0
 93
        0
 40
0.045
309
GRIDFORMAT_END
 95
       32
302
GRIDFORMAT
  1
GRIDFORMAT_BEGIN
 90
       26
 91
        1
 62
     0
 92
       -2
340
0
 93
        0
 40
0.045
309
GRIDFORMAT_END
309
TABLEFORMAT_END
309
FORMATTEDTABLEDATACELL_END
  1
TABLECELL_BEGIN
 90
        0
 91
        0
309
TABLECELL_END
 91
        0
301
CUSTOMDATA
  1
DATAMAP_BEGIN
 90
        0
309
DATAMAP_END
309
LINKEDTABLEDATAROW_END
  1
FORMATTEDTABLEDATAROW_BEGIN
300
ROWTABLEFORMAT
  1
TABLEFORMAT_BEGIN
 90
        2
170
     0
309
TABLEFORMAT_END
309
FORMATTEDTABLEDATAROW_END
  1
TABLEROW_BEGIN
 90
        2
 40
6.0
309
TABLEROW_END
301
ROW
  1
LINKEDTABLEDATAROW_BEGIN
 90
        5
300
CELL
  1
LINKEDTABLEDATACELL_BEGIN
 90
        0
300

 91
        0
301
CUSTOMDATA
  1
DATAMAP_BEGIN
 90
        0
309
DATAMAP_END
 92
        0
 95
        0
309
LINKEDTABLEDATACELL_END
  1
FORMATTEDTABLEDATACELL_BEGIN
300
CELLTABLEFORMAT
  1
TABLEFORMAT_BEGIN
 90
        1
170
     1
 91
        0
 92
        0
 62
   257
 93
        1
300
CONTENTFORMAT
  1
CONTENTFORMAT_BEGIN
 90
        0
 91
        0
 92
      512
 93
        0
300

 40
0.0
140
1.0
 94
        1
 62
     0
340
0
144
0.18
309
CONTENTFORMAT_END
171
     0
 94
        0
309
TABLEFORMAT_END
309
FORMATTEDTABLEDATACELL_END
  1
TABLECELL_BEGIN
 90
        0
 91
        0
309
TABLECELL_END
300
CELL
  1
LINKEDTABLEDATACELL_BEGIN
 90
        0
300

 91
        0
301
CUSTOMDATA
  1
DATAMAP_BEGIN
 90
        0
309
DATAMAP_END
 92
        0
 95
        0
309
LINKEDTABLEDATACELL_END
  1
FORMATTEDTABLEDATACELL_BEGIN
300
CELLTABLEFORMAT
  1
TABLEFORMAT_BEGIN
 90
        1
170
     1
 91
        0
 92
        0
 62
   257
 93
        1
300
CONTENTFORMAT
  1
CONTENTFORMAT_BEGIN
 90
        0
 91
        0
 92
      512
 93
        0
300

 40
0.0
140
1.0
 94
        1
 62
     0
340
0
144
0.18
309
CONTENTFORMAT_END
171
     0
 94
        0
309
TABLEFORMAT_END
309
FORMATTEDTABLEDATACELL_END
  1
TABLECELL_BEGIN
 90
        0
 91
        0
309
TABLECELL_END
300
CELL
  1
LINKEDTABLEDATACELL_BEGIN
 90
        0
300

 91
        0
301
CUSTOMDATA
  1
DATAMAP_BEGIN
 90
        0
309
DATAMAP_END
 92
        0
 95
        0
309
LINKEDTABLEDATACELL_END
  1
FORMATTEDTABLEDATACELL_BEGIN
300
CELLTABLEFORMAT
  1
TABLEFORMAT_BEGIN
 90
        1
170
     1
 91
        0
 92
        0
 62
   257
 93
        1
300
CONTENTFORMAT
  1
CONTENTFORMAT_BEGIN
 90
        0
 91
        0
 92
      512
 93
        0
300

 40
0.0
140
1.0
 94
        1
 62
     0
340
0
144
0.18
309
CONTENTFORMAT_END
171
     0
 94
        0
309
TABLEFORMAT_END
309
FORMATTEDTABLEDATACELL_END
  1
TABLECELL_BEGIN
 90
        0
 91
        0
309
TABLECELL_END
300
CELL
  1
LINKEDTABLEDATACELL_BEGIN
 90
        0
300

 91
        0
301
CUSTOMDATA
  1
DATAMAP_BEGIN
 90
        1
300
ACAD_ROUNDTRIP_2008_CELL_CHECKSUM
301
DATAMAP_VALUE
 93
        2
 90
        2
140
37871.0
 94
        0
300

302

304
ACVALUE_END
309
DATAMAP_END
 92
        0
 95
        1
302
CONTENT
  1
CELLCONTENT_BEGIN
 90
        1
300
VALUE
 93
        2
 90
        4
  1
FRONTALE SEMI PROF. QUADRO COMBO2
 94
        0
300

302
FRONTALE SEMI PROF. QUADRO COMBO2
304
ACVALUE_END
 91
        0
309
CELLCONTENT_END
  1
FORMATTEDCELLCONTENT_BEGIN
170
     1
300
CONTENTFORMAT
  1
CONTENTFORMAT_BEGIN
 90
      196
 91
        0
 92
      512
 93
        0
300

 40
0.0
140
1.0
 94
        1
 62
     0
340
206
144
3.5
309
CONTENTFORMAT_END
309
FORMATTEDCELLCONTENT_END
309
LINKEDTABLEDATACELL_END
  1
FORMATTEDTABLEDATACELL_BEGIN
300
CELLTABLEFORMAT
  1
TABLEFORMAT_BEGIN
 90
        1
170
     1
 91
       16
 92
        0
 62
   257
 93
        1
300
CONTENTFORMAT
  1
CONTENTFORMAT_BEGIN
 90
       16
 91
        0
 92
      512
 93
        0
300

 40
0.0
140
1.0
 94
        4
 62
     0
340
0
144
0.18
309
CONTENTFORMAT_END
171
     0
 94
        4
 95
        1
302
GRIDFORMAT
  1
GRIDFORMAT_BEGIN
 90
       26
 91
        1
 62
     0
 92
       -2
340
0
 93
        0
 40
0.045
309
GRIDFORMAT_END
 95
        4
302
GRIDFORMAT
  1
GRIDFORMAT_BEGIN
 90
       26
 91
        1
 62
     0
 92
       -2
340
0
 93
        0
 40
0.045
309
GRIDFORMAT_END
 95
        8
302
GRIDFORMAT
  1
GRIDFORMAT_BEGIN
 90
       26
 91
        1
 62
     0
 92
       -2
340
0
 93
        0
 40
0.045
309
GRIDFORMAT_END
 95
       32
302
GRIDFORMAT
  1
GRIDFORMAT_BEGIN
 90
       26
 91
        1
 62
     0
 92
       -2
340
0
 93
        0
 40
0.045
309
GRIDFORMAT_END
309
TABLEFORMAT_END
309
FORMATTEDTABLEDATACELL_END
  1
TABLECELL_BEGIN
 90
        0
 91
        0
309
TABLECELL_END
300
CELL
  1
LINKEDTABLEDATACELL_BEGIN
 90
        0
300

 91
        0
301
CUSTOMDATA
  1
DATAMAP_BEGIN
 90
        0
309
DATAMAP_END
 92
        0
 95
        0
309
LINKEDTABLEDATACELL_END
  1
FORMATTEDTABLEDATACELL_BEGIN
300
CELLTABLEFORMAT
  1
TABLEFORMAT_BEGIN
 90
        1
170
     1
 91
        0
 92
        0
 62
   257
 93
        1
300
CONTENTFORMAT
  1
CONTENTFORMAT_BEGIN
 90
        0
 91
        0
 92
      512
 93
        0
300

 40
0.0
140
1.0
 94
        1
 62
     0
340
0
144
0.18
309
CONTENTFORMAT_END
171
     0
 94
        0
309
TABLEFORMAT_END
309
FORMATTEDTABLEDATACELL_END
  1
TABLECELL_BEGIN
 90
        0
 91
        0
309
TABLECELL_END
 91
        0
301
CUSTOMDATA
  1
DATAMAP_BEGIN
 90
        0
309
DATAMAP_END
309
LINKEDTABLEDATAROW_END
  1
FORMATTEDTABLEDATAROW_BEGIN
300
ROWTABLEFORMAT
  1
TABLEFORMAT_BEGIN
 90
        2
170
     0
309
TABLEFORMAT_END
309
FORMATTEDTABLEDATAROW_END
  1
TABLEROW_BEGIN
 90
        3
 40
10.0
309
TABLEROW_END
301
ROW
  1
LINKEDTABLEDATAROW_BEGIN
 90
        5
300
CELL
  1
LINKEDTABLEDATACELL_BEGIN
 90
        0
300

 91
        0
301
CUSTOMDATA
  1
DATAMAP_BEGIN
 90
        0
309
DATAMAP_END
 92
        0
 95
        0
309
LINKEDTABLEDATACELL_END
  1
FORMATTEDTABLEDATACELL_BEGIN
300
CELLTABLEFORMAT
  1
TABLEFORMAT_BEGIN
 90
        1
170
     1
 91
        0
 92
        0
 62
   257
 93
        1
300
CONTENTFORMAT
  1
CONTENTFORMAT_BEGIN
 90
        0
 91
        0
 92
      512
 93
        0
300

 40
0.0
140
1.0
 94
        1
 62
     0
340
0
144
0.18
309
CONTENTFORMAT_END
171
     0
 94
        0
309
TABLEFORMAT_END
309
FORMATTEDTABLEDATACELL_END
  1
TABLECELL_BEGIN
 90
        0
 91
        0
309
TABLECELL_END
300
CELL
  1
LINKEDTABLEDATACELL_BEGIN
 90
        0
300

 91
        0
301
CUSTOMDATA
  1
DATAMAP_BEGIN
 90
        0
309
DATAMAP_END
 92
        0
 95
        0
309
LINKEDTABLEDATACELL_END
  1
FORMATTEDTABLEDATACELL_BEGIN
300
CELLTABLEFORMAT
  1
TABLEFORMAT_BEGIN
 90
        1
170
     1
 91
        0
 92
        0
 62
   257
 93
        1
300
CONTENTFORMAT
  1
CONTENTFORMAT_BEGIN
 90
        0
 91
        0
 92
      512
 93
        0
300

 40
0.0
140
1.0
 94
        1
 62
     0
340
0
144
0.18
309
CONTENTFORMAT_END
171
     0
 94
        0
309
TABLEFORMAT_END
309
FORMATTEDTABLEDATACELL_END
  1
TABLECELL_BEGIN
 90
        0
 91
        0
309
TABLECELL_END
300
CELL
  1
LINKEDTABLEDATACELL_BEGIN
 90
        0
300

 91
        0
301
CUSTOMDATA
  1
DATAMAP_BEGIN
 90
        0
309
DATAMAP_END
 92
        0
 95
        0
309
LINKEDTABLEDATACELL_END
  1
FORMATTEDTABLEDATACELL_BEGIN
300
CELLTABLEFORMAT
  1
TABLEFORMAT_BEGIN
 90
        1
170
     1
 91
        0
 92
        0
 62
   257
 93
        1
300
CONTENTFORMAT
  1
CONTENTFORMAT_BEGIN
 90
        0
 91
        0
 92
      512
 93
        0
300

 40
0.0
140
1.0
 94
        1
 62
     0
340
0
144
0.18
309
CONTENTFORMAT_END
171
     0
 94
        0
309
TABLEFORMAT_END
309
FORMATTEDTABLEDATACELL_END
  1
TABLECELL_BEGIN
 90
        0
 91
        0
309
TABLECELL_END
300
CELL
  1
LINKEDTABLEDATACELL_BEGIN
 90
        0
300

 91
        0
301
CUSTOMDATA
  1
DATAMAP_BEGIN
 90
        1
300
ACAD_ROUNDTRIP_2008_CELL_CHECKSUM
301
DATAMAP_VALUE
 93
        2
 90
        2
140
4797.0
 94
        0
300

302

304
ACVALUE_END
309
DATAMAP_END
 92
        0
 95
        1
302
CONTENT
  1
CELLCONTENT_BEGIN
 90
        1
300
VALUE
 93
        2
 90
        4
  1
DATE:11.12.19
 94
        0
300

302
DATE:11.12.19
304
ACVALUE_END
 91
        0
309
CELLCONTENT_END
  1
FORMATTEDCELLCONTENT_BEGIN
170
     1
300
CONTENTFORMAT
  1
CONTENTFORMAT_BEGIN
 90
      196
 91
        0
 92
      512
 93
        0
300

 40
0.0
140
1.0
 94
        1
 62
     0
340
206
144
2.5
309
CONTENTFORMAT_END
309
FORMATTEDCELLCONTENT_END
309
LINKEDTABLEDATACELL_END
  1
FORMATTEDTABLEDATACELL_BEGIN
300
CELLTABLEFORMAT
  1
TABLEFORMAT_BEGIN
 90
        1
170
     1
 91
       16
 92
        0
 62
   257
 93
        1
300
CONTENTFORMAT
  1
CONTENTFORMAT_BEGIN
 90
       16
 91
        0
 92
      512
 93
        0
300

 40
0.0
140
1.0
 94
        4
 62
     0
340
0
144
0.18
309
CONTENTFORMAT_END
171
     0
 94
        4
 95
        1
302
GRIDFORMAT
  1
GRIDFORMAT_BEGIN
 90
       26
 91
        1
 62
     0
 92
       -2
340
0
 93
        0
 40
0.045
309
GRIDFORMAT_END
 95
        4
302
GRIDFORMAT
  1
GRIDFORMAT_BEGIN
 90
       26
 91
        1
 62
     0
 92
       -2
340
0
 93
        0
 40
0.045
309
GRIDFORMAT_END
 95
        8
302
GRIDFORMAT
  1
GRIDFORMAT_BEGIN
 90
       26
 91
        1
 62
     0
 92
       -2
340
0
 93
        0
 40
0.045
309
GRIDFORMAT_END
 95
       32
302
GRIDFORMAT
  1
GRIDFORMAT_BEGIN
 90
       26
 91
        1
 62
     0
 92
       -2
340
0
 93
        0
 40
0.045
309
GRIDFORMAT_END
309
TABLEFORMAT_END
309
FORMATTEDTABLEDATACELL_END
  1
TABLECELL_BEGIN
 90
        0
 91
        0
309
TABLECELL_END
300
CELL
  1
LINKEDTABLEDATACELL_BEGIN
 90
        0
300

 91
        0
301
CUSTOMDATA
  1
DATAMAP_BEGIN
 90
        0
309
DATAMAP_END
 92
        0
 95
        0
309
LINKEDTABLEDATACELL_END
  1
FORMATTEDTABLEDATACELL_BEGIN
300
CELLTABLEFORMAT
  1
TABLEFORMAT_BEGIN
 90
        1
170
     1
 91
        0
 92
        0
 62
   257
 93
        1
300
CONTENTFORMAT
  1
CONTENTFORMAT_BEGIN
 90
        0
 91
        0
 92
      512
 93
        0
300

 40
0.0
140
1.0
 94
        1
 62
     0
340
0
144
0.18
309
CONTENTFORMAT_END
171
     0
 94
        0
309
TABLEFORMAT_END
309
FORMATTEDTABLEDATACELL_END
  1
TABLECELL_BEGIN
 90
        0
 91
        0
309
TABLECELL_END
 91
        0
301
CUSTOMDATA
  1
DATAMAP_BEGIN
 90
        0
309
DATAMAP_END
309
LINKEDTABLEDATAROW_END
  1
FORMATTEDTABLEDATAROW_BEGIN
300
ROWTABLEFORMAT
  1
TABLEFORMAT_BEGIN
 90
        2
170
     0
309
TABLEFORMAT_END
309
FORMATTEDTABLEDATAROW_END
  1
TABLEROW_BEGIN
 90
        3
 40
5.0
309
TABLEROW_END
301
ROW
  1
LINKEDTABLEDATAROW_BEGIN
 90
        5
300
CELL
  1
LINKEDTABLEDATACELL_BEGIN
 90
        0
300

 91
        0
301
CUSTOMDATA
  1
DATAMAP_BEGIN
 90
        1
300
ACAD_ROUNDTRIP_2008_CELL_CHECKSUM
301
DATAMAP_VALUE
 93
        2
 90
        2
140
1361482.0
 94
        0
300

302

304
ACVALUE_END
309
DATAMAP_END
 92
        0
 95
        1
302
CONTENT
  1
CELLCONTENT_BEGIN
 90
        1
300
VALUE
 93
        2
 90
        4
  1
Any integral or partial reproductions are prohibited \Pwithout prior authorisation of L & L Luce & Light s.r.l., \Pin accordance with the law in force. \PAll rights reserved.
 94
        0
300

302
Any integral or partial reproductions are prohibited \Pwithout prior authorisation of L & L Luce & Light s.r.l., \Pin accordance with the law in force. \PAll rights reserved.
304
ACVALUE_END
 91
        0
309
CELLCONTENT_END
  1
FORMATTEDCELLCONTENT_BEGIN
170
     1
300
CONTENTFORMAT
  1
CONTENTFORMAT_BEGIN
 90
      196
 91
        0
 92
      512
 93
        0
300

 40
0.0
140
1.0
 94
        1
 62
     0
340
206
144
2.25
309
CONTENTFORMAT_END
309
FORMATTEDCELLCONTENT_END
309
LINKEDTABLEDATACELL_END
  1
FORMATTEDTABLEDATACELL_BEGIN
300
CELLTABLEFORMAT
  1
TABLEFORMAT_BEGIN
 90
        1
170
     1
 91
       16
 92
        0
 62
   257
 93
        1
300
CONTENTFORMAT
  1
CONTENTFORMAT_BEGIN
 90
       16
 91
        0
 92
      512
 93
        0
300

 40
0.0
140
1.0
 94
        4
 62
     0
340
0
144
0.18
309
CONTENTFORMAT_END
171
     0
 94
        4
 95
        1
302
GRIDFORMAT
  1
GRIDFORMAT_BEGIN
 90
       26
 91
        1
 62
     0
 92
       -2
340
0
 93
        0
 40
0.045
309
GRIDFORMAT_END
 95
        4
302
GRIDFORMAT
  1
GRIDFORMAT_BEGIN
 90
       26
 91
        1
 62
     0
 92
       -2
340
0
 93
        0
 40
0.045
309
GRIDFORMAT_END
 95
        8
302
GRIDFORMAT
  1
GRIDFORMAT_BEGIN
 90
       26
 91
        1
 62
     0
 92
       -2
340
0
 93
        0
 40
0.045
309
GRIDFORMAT_END
 95
       32
302
GRIDFORMAT
  1
GRIDFORMAT_BEGIN
 90
       26
 91
        1
 62
     0
 92
       -2
340
0
 93
        0
 40
0.045
309
GRIDFORMAT_END
309
TABLEFORMAT_END
309
FORMATTEDTABLEDATACELL_END
  1
TABLECELL_BEGIN
 90
        0
 91
        0
309
TABLECELL_END
300
CELL
  1
LINKEDTABLEDATACELL_BEGIN
 90
        0
300

 91
        0
301
CUSTOMDATA
  1
DATAMAP_BEGIN
 90
        0
309
DATAMAP_END
 92
        0
 95
        0
309
LINKEDTABLEDATACELL_END
  1
FORMATTEDTABLEDATACELL_BEGIN
300
CELLTABLEFORMAT
  1
TABLEFORMAT_BEGIN
 90
        1
170
     1
 91
        0
 92
        0
 62
   257
 93
        1
300
CONTENTFORMAT
  1
CONTENTFORMAT_BEGIN
 90
        0
 91
        0
 92
      512
 93
        0
300

 40
0.0
140
1.0
 94
        1
 62
     0
340
0
144
0.18
309
CONTENTFORMAT_END
171
     0
 94
        0
309
TABLEFORMAT_END
309
FORMATTEDTABLEDATACELL_END
  1
TABLECELL_BEGIN
 90
        0
 91
        0
309
TABLECELL_END
300
CELL
  1
LINKEDTABLEDATACELL_BEGIN
 90
        0
300

 91
        0
301
CUSTOMDATA
  1
DATAMAP_BEGIN
 90
        0
309
DATAMAP_END
 92
        0
 95
        0
309
LINKEDTABLEDATACELL_END
  1
FORMATTEDTABLEDATACELL_BEGIN
300
CELLTABLEFORMAT
  1
TABLEFORMAT_BEGIN
 90
        1
170
     1
 91
        0
 92
        0
 62
   257
 93
        1
300
CONTENTFORMAT
  1
CONTENTFORMAT_BEGIN
 90
        0
 91
        0
 92
      512
 93
        0
300

 40
0.0
140
1.0
 94
        1
 62
     0
340
0
144
0.18
309
CONTENTFORMAT_END
171
     0
 94
        0
309
TABLEFORMAT_END
309
FORMATTEDTABLEDATACELL_END
  1
TABLECELL_BEGIN
 90
        0
 91
        0
309
TABLECELL_END
300
CELL
  1
LINKEDTABLEDATACELL_BEGIN
 90
        0
300

 91
        0
301
CUSTOMDATA
  1
DATAMAP_BEGIN
 90
        0
309
DATAMAP_END
 92
        0
 95
        0
309
LINKEDTABLEDATACELL_END
  1
FORMATTEDTABLEDATACELL_BEGIN
300
CELLTABLEFORMAT
  1
TABLEFORMAT_BEGIN
 90
        1
170
     1
 91
        0
 92
        0
 62
   257
 93
        1
300
CONTENTFORMAT
  1
CONTENTFORMAT_BEGIN
 90
        0
 91
        0
 92
      512
 93
        0
300

 40
0.0
140
1.0
 94
        1
 62
     0
340
0
144
0.18
309
CONTENTFORMAT_END
171
     0
 94
        0
309
TABLEFORMAT_END
309
FORMATTEDTABLEDATACELL_END
  1
TABLECELL_BEGIN
 90
        0
 91
        0
309
TABLECELL_END
300
CELL
  1
LINKEDTABLEDATACELL_BEGIN
 90
        0
300

 91
        0
301
CUSTOMDATA
  1
DATAMAP_BEGIN
 90
        0
309
DATAMAP_END
 92
        0
 95
        0
309
LINKEDTABLEDATACELL_END
  1
FORMATTEDTABLEDATACELL_BEGIN
300
CELLTABLEFORMAT
  1
TABLEFORMAT_BEGIN
 90
        1
170
     1
 91
        0
 92
        0
 62
   257
 93
        1
300
CONTENTFORMAT
  1
CONTENTFORMAT_BEGIN
 90
        0
 91
        0
 92
      512
 93
        0
300

 40
0.0
140
1.0
 94
        1
 62
     0
340
0
144
0.18
309
CONTENTFORMAT_END
171
     0
 94
        0
309
TABLEFORMAT_END
309
FORMATTEDTABLEDATACELL_END
  1
TABLECELL_BEGIN
 90
        0
 91
        0
309
TABLECELL_END
 91
        0
301
CUSTOMDATA
  1
DATAMAP_BEGIN
 90
        0
309
DATAMAP_END
309
LINKEDTABLEDATAROW_END
  1
FORMATTEDTABLEDATAROW_BEGIN
300
ROWTABLEFORMAT
  1
TABLEFORMAT_BEGIN
 90
        2
170
     0
309
TABLEFORMAT_END
309
FORMATTEDTABLEDATAROW_END
  1
TABLEROW_BEGIN
 90
        3
 40
13.0
309
TABLEROW_END
100
AcDbFormattedTableData
300
TABLEFORMAT
  1
TABLEFORMAT_BEGIN
 90
        4
170
     1
 91
    15360
 92
        0
 62
   257
 93
        1
300
CONTENTFORMAT
  1
CONTENTFORMAT_BEGIN
 90
        0
 91
        0
 92
      512
 93
        0
300

 40
0.0
140
1.0
 94
        1
 62
     0
340
0
144
0.18
309
CONTENTFORMAT_END
171
     1
301
MARGIN
  1
CELLMARGIN_BEGIN
 40
0.06
 40
0.06
 40
0.06
 40
0.06
 40
0.06
 40
0.06
309
CELLMARGIN_END
 94
        0
309
TABLEFORMAT_END
 90
        4
 91
        0
 92
        0
 93
        3
 94
        2
 91
        2
 92
        3
 93
        2
 94
        4
 91
        3
 92
        3
 93
        3
 94
        4
 91
        4
 92
        0
 93
        4
 94
        4
100
AcDbTableContent
340
4B5
  0
TABLEGEOMETRY
  5
4E2
330
4E4
100
AcDbTableGeometry
 90
        5
 91
        5
 92
       25
 93
        0
 40
0.0
 41
0.0
330
0
 94
        0
 93
        0
 40
0.0
 41
0.0
330
0
 94
        0
 93
        0
 40
0.0
 41
0.0
330
0
 94
        0
 93
        0
 40
0.0
 41
0.0
330
0
 94
        0
 93
        0
 40
0.0
 41
0.0
330
0
 94
        0
 93
        0
 40
0.0
 41
0.0
330
0
 94
        0
 93
        0
 40
0.0
 41
0.0
330
0
 94
        0
 93
        0
 40
0.0
 41
0.0
330
0
 94
        0
 93
        0
 40
0.0
 41
0.0
330
0
 94
        0
 93
        0
 40
0.0
 41
0.0
330
0
 94
        0
 93
        0
 40
0.0
 41
0.0
330
0
 94
        0
 93
        0
 40
0.0
 41
0.0
330
0
 94
        0
 93
        0
 40
0.0
 41
0.0
330
0
 94
        0
 93
        0
 40
0.0
 41
0.0
330
0
 94
        0
 93
        0
 40
0.0
 41
0.0
330
0
 94
        0
 93
        0
 40
0.0
 41
0.0
330
0
 94
        0
 93
        0
 40
0.0
 41
0.0
330
0
 94
        0
 93
        0
 40
0.0
 41
0.0
330
0
 94
        0
 93
        0
 40
0.0
 41
0.0
330
0
 94
        0
 93
        0
 40
0.0
 41
0.0
330
0
 94
        0
 93
        0
 40
0.0
 41
0.0
330
0
 94
        0
 93
        0
 40
0.0
 41
0.0
330
0
 94
        0
 93
        0
 40
0.0
 41
0.0
330
0
 94
        0
 93
        0
 40
0.0
 41
0.0
330
0
 94
        0
 93
        0
 40
0.0
 41
0.0
330
0
 94
        0
  0
DICTIONARY
  5
4E7
330
4B5
100
AcDbDictionary
280
     1
281
     1
  3
ACAD_ROUNDTRIP_2008_TABLESTYLE_CELLSTYLEMAP
360
4E8
  0
CELLSTYLEMAP
  5
4E8
102
{ACAD_REACTORS
330
4E7
102
}
330
4E7
100
AcDbCellStyleMap
 90
        3
300
CELLSTYLE
  1
TABLEFORMAT_BEGIN
 90
        5
170
     1
 91
        0
 92
        0
 62
   257
 93
        1
300
CONTENTFORMAT
  1
CONTENTFORMAT_BEGIN
 90
        0
 91
        0
 92
        4
 93
        0
300

 40
0.0
140
1.0
 94
        5
 62
     0
340
11
144
6.0
309
CONTENTFORMAT_END
171
     1
301
MARGIN
  1
CELLMARGIN_BEGIN
 40
1.5
 40
1.5
 40
1.5
 40
1.5
 40
1.5
 40
1.5
309
CELLMARGIN_END
 94
        6
 95
        1
302
GRIDFORMAT
  1
GRIDFORMAT_BEGIN
 90
        0
 91
        1
 62
     0
 92
       -2
340
14
 93
        0
 40
0.045
309
GRIDFORMAT_END
 95
        2
302
GRIDFORMAT
  1
GRIDFORMAT_BEGIN
 90
        0
 91
        1
 62
     0
 92
       -2
340
14
 93
        0
 40
0.045
309
GRIDFORMAT_END
 95
        4
302
GRIDFORMAT
  1
GRIDFORMAT_BEGIN
 90
        0
 91
        1
 62
     0
 92
       -2
340
14
 93
        0
 40
0.045
309
GRIDFORMAT_END
 95
        8
302
GRIDFORMAT
  1
GRIDFORMAT_BEGIN
 90
        0
 91
        1
 62
     0
 92
       -2
340
14
 93
        0
 40
0.045
309
GRIDFORMAT_END
 95
       16
302
GRIDFORMAT
  1
GRIDFORMAT_BEGIN
 90
        0
 91
        1
 62
     0
 92
       -2
340
14
 93
        0
 40
0.045
309
GRIDFORMAT_END
 95
       32
302
GRIDFORMAT
  1
GRIDFORMAT_BEGIN
 90
        0
 91
        1
 62
     0
 92
       -2
340
14
 93
        0
 40
0.045
309
GRIDFORMAT_END
309
TABLEFORMAT_END
  1
CELLSTYLE_BEGIN
 90
        1
 91
        1
300
_TITLE
309
CELLSTYLE_END
300
CELLSTYLE
  1
TABLEFORMAT_BEGIN
 90
        5
170
     1
 91
        0
 92
        0
 62
   257
 93
        1
300
CONTENTFORMAT
  1
CONTENTFORMAT_BEGIN
 90
        0
 91
        0
 92
        4
 93
        0
300

 40
0.0
140
1.0
 94
        5
 62
     0
340
11
144
4.5
309
CONTENTFORMAT_END
171
     1
301
MARGIN
  1
CELLMARGIN_BEGIN
 40
1.5
 40
1.5
 40
1.5
 40
1.5
 40
1.5
 40
1.5
309
CELLMARGIN_END
 94
        6
 95
        1
302
GRIDFORMAT
  1
GRIDFORMAT_BEGIN
 90
        0
 91
        1
 62
     0
 92
       -2
340
14
 93
        0
 40
0.045
309
GRIDFORMAT_END
 95
        2
302
GRIDFORMAT
  1
GRIDFORMAT_BEGIN
 90
        0
 91
        1
 62
     0
 92
       -2
340
14
 93
        0
 40
0.045
309
GRIDFORMAT_END
 95
        4
302
GRIDFORMAT
  1
GRIDFORMAT_BEGIN
 90
        0
 91
        1
 62
     0
 92
       -2
340
14
 93
        0
 40
0.045
309
GRIDFORMAT_END
 95
        8
302
GRIDFORMAT
  1
GRIDFORMAT_BEGIN
 90
        0
 91
        1
 62
     0
 92
       -2
340
14
 93
        0
 40
0.045
309
GRIDFORMAT_END
 95
       16
302
GRIDFORMAT
  1
GRIDFORMAT_BEGIN
 90
        0
 91
        1
 62
     0
 92
       -2
340
14
 93
        0
 40
0.045
309
GRIDFORMAT_END
 95
       32
302
GRIDFORMAT
  1
GRIDFORMAT_BEGIN
 90
        0
 91
        1
 62
     0
 92
       -2
340
14
 93
        0
 40
0.045
309
GRIDFORMAT_END
309
TABLEFORMAT_END
  1
CELLSTYLE_BEGIN
 90
        2
 91
        1
300
_HEADER
309
CELLSTYLE_END
300
CELLSTYLE
  1
TABLEFORMAT_BEGIN
 90
        5
170
     1
 91
        0
 92
        0
 62
   257
 93
        1
300
CONTENTFORMAT
  1
CONTENTFORMAT_BEGIN
 90
        0
 91
        0
 92
        4
 93
        0
300

 40
0.0
140
1.0
 94
        2
 62
     0
340
11
144
4.5
309
CONTENTFORMAT_END
171
     1
301
MARGIN
  1
CELLMARGIN_BEGIN
 40
1.5
 40
1.5
 40
1.5
 40
1.5
 40
1.5
 40
1.5
309
CELLMARGIN_END
 94
        6
 95
        1
302
GRIDFORMAT
  1
GRIDFORMAT_BEGIN
 90
        0
 91
        1
 62
     0
 92
       -2
340
14
 93
        0
 40
0.045
309
GRIDFORMAT_END
 95
        2
302
GRIDFORMAT
  1
GRIDFORMAT_BEGIN
 90
        0
 91
        1
 62
     0
 92
       -2
340
14
 93
        0
 40
0.045
309
GRIDFORMAT_END
 95
        4
302
GRIDFORMAT
  1
GRIDFORMAT_BEGIN
 90
        0
 91
        1
 62
     0
 92
       -2
340
14
 93
        0
 40
0.045
309
GRIDFORMAT_END
 95
        8
302
GRIDFORMAT
  1
GRIDFORMAT_BEGIN
 90
        0
 91
        1
 62
     0
 92
       -2
340
14
 93
        0
 40
0.045
309
GRIDFORMAT_END
 95
       16
302
GRIDFORMAT
  1
GRIDFORMAT_BEGIN
 90
        0
 91
        1
 62
     0
 92
       -2
340
14
 93
        0
 40
0.045
309
GRIDFORMAT_END
 95
       32
302
GRIDFORMAT
  1
GRIDFORMAT_BEGIN
 90
        0
 91
        1
 62
     0
 92
       -2
340
14
 93
        0
 40
0.045
309
GRIDFORMAT_END
309
TABLEFORMAT_END
  1
CELLSTYLE_BEGIN
 90
        3
 91
        2
300
_DATA
309
CELLSTYLE_END
  0
ENDSEC
  0
EOF
