  0
SECTION
  2
HEADER
  9
$ACADVER
  1
AC1027
  9
$ACADMAINTVER
 70
     8
  9
$DWGCODEPAGE
  3
ANSI_1252
  9
$REQUIREDVERSIONS
160
                 0
  9
$INSBASE
 10
0.0
 20
0.0
 30
0.0
  9
$EXTMIN
 10
0.0
 20
0.0
 30
0.0
  9
$EXTMAX
 10
297.0
 20
210.0
 30
0.0
  9
$LIMMIN
 10
0.0
 20
0.0
  9
$LIMMAX
 10
297.0
 20
210.0
  9
$ORTHOMODE
 70
     0
  9
$REGENMODE
 70
     1
  9
$FILLMODE
 70
     1
  9
$QTEXTMODE
 70
     0
  9
$MIRRTEXT
 70
     1
  9
$LTSCALE
 40
16.335
  9
$ATTMODE
 70
     1
  9
$TEXTSIZE
 40
0.2
  9
$TRACEWID
 40
0.05
  9
$TEXTSTYLE
  7
STANDARD
  9
$CLAYER
  8
0
  9
$CELTYPE
  6
BYLAYER
  9
$CECOLOR
 62
   256
  9
$CELTSCALE
 40
1.0
  9
$DISPSILH
 70
     0
  9
$DIMSCALE
 40
1.0
  9
$DIMASZ
 40
2.5
  9
$DIMEXO
 40
0.75
  9
$DIMDLI
 40
11.286
  9
$DIMRND
 40
0.0
  9
$DIMDLE
 40
0.0
  9
$DIMEXE
 40
0.75
  9
$DIMTP
 40
0.01
  9
$DIMTM
 40
0.01
  9
$DIMTXT
 40
3.0
  9
$DIMCEN
 40
2.673
  9
$DIMTSZ
 40
0.0
  9
$DIMTOL
 70
     1
  9
$DIMLIM
 70
     0
  9
$DIMTIH
 70
     1
  9
$DIMTOH
 70
     1
  9
$DIMSE1
 70
     0
  9
$DIMSE2
 70
     0
  9
$DIMTAD
 70
     0
  9
$DIMZIN
 70
     0
  9
$DIMBLK
  1
CLOSED
  9
$DIMASO
 70
     1
  9
$DIMSHO
 70
     1
  9
$DIMPOST
  1

  9
$DIMAPOST
  1

  9
$DIMALT
 70
     0
  9
$DIMALTD
 70
     2
  9
$DIMALTF
 40
25.4
  9
$DIMLFAC
 40
1.0
  9
$DIMTOFL
 70
     0
  9
$DIMTVP
 40
0.0
  9
$DIMTIX
 70
     0
  9
$DIMSOXD
 70
     0
  9
$DIMSAH
 70
     0
  9
$DIMBLK1
  1

  9
$DIMBLK2
  1

  9
$DIMSTYLE
  2
STANDARD
  9
$DIMCLRD
 70
     0
  9
$DIMCLRE
 70
     0
  9
$DIMCLRT
 70
     0
  9
$DIMTFAC
 40
1.0
  9
$DIMGAP
 40
0.625
  9
$DIMJUST
 70
     0
  9
$DIMSD1
 70
     0
  9
$DIMSD2
 70
     0
  9
$DIMTOLJ
 70
     1
  9
$DIMTZIN
 70
     0
  9
$DIMALTZ
 70
     0
  9
$DIMALTTZ
 70
     0
  9
$DIMUPT
 70
     0
  9
$DIMDEC
 70
     4
  9
$DIMTDEC
 70
     4
  9
$DIMALTU
 70
     2
  9
$DIMALTTD
 70
     2
  9
$DIMTXSTY
  7
STANDARD
  9
$DIMAUNIT
 70
     0
  9
$DIMADEC
 70
     0
  9
$DIMALTRND
 40
0.0
  9
$DIMAZIN
 70
     0
  9
$DIMDSEP
 70
    44
  9
$DIMATFIT
 70
     3
  9
$DIMFRAC
 70
     0
  9
$DIMLDRBLK
  1

  9
$DIMLUNIT
 70
     2
  9
$DIMLWD
 70
    -2
  9
$DIMLWE
 70
    -2
  9
$DIMTMOVE
 70
     0
  9
$DIMFXL
 40
1.0
  9
$DIMFXLON
 70
     0
  9
$DIMJOGANG
 40
0.785398
  9
$DIMTFILL
 70
     0
  9
$DIMTFILLCLR
 70
     0
  9
$DIMARCSYM
 70
     0
  9
$DIMLTYPE
  6

  9
$DIMLTEX1
  6

  9
$DIMLTEX2
  6

  9
$DIMTXTDIRECTION
 70
     0
  9
$LUNITS
 70
     2
  9
$LUPREC
 70
     4
  9
$SKETCHINC
 40
0.1
  9
$FILLETRAD
 40
0.5
  9
$AUNITS
 70
     0
  9
$AUPREC
 70
     0
  9
$MENU
  1
.
  9
$ELEVATION
 40
0.0
  9
$PELEVATION
 40
0.0
  9
$THICKNESS
 40
0.0
  9
$LIMCHECK
 70
     0
  9
$CHAMFERA
 40
0.0
  9
$CHAMFERB
 40
0.0
  9
$CHAMFERC
 40
0.0
  9
$CHAMFERD
 40
0.0
  9
$SKPOLY
 70
     0
  9
$TDCREATE
 40
2447893.041666667
  9
$TDUCREATE
 40
0.0
  9
$TDUPDATE
 40
2458856.401974746
  9
$TDUUPDATE
 40
2458856.360308079
  9
$TDINDWG
 40
0.0
  9
$TDUSRTIMER
 40
0.0
  9
$USRTIMER
 70
     1
  9
$ANGBASE
 50
0.0
  9
$ANGDIR
 70
     0
  9
$PDMODE
 70
     3
  9
$PDSIZE
 40
0.3125
  9
$PLINEWID
 40
0.0
  9
$SPLFRAME
 70
     0
  9
$SPLINETYPE
 70
     6
  9
$SPLINESEGS
 70
     8
  9
$HANDSEED
  5
42F
  9
$SURFTAB1
 70
     6
  9
$SURFTAB2
 70
     6
  9
$SURFTYPE
 70
     6
  9
$SURFU
 70
     6
  9
$SURFV
 70
     6
  9
$UCSBASE
  2

  9
$UCSNAME
  2

  9
$UCSORG
 10
0.0
 20
0.0
 30
0.0
  9
$UCSXDIR
 10
1.0
 20
0.0
 30
0.0
  9
$UCSYDIR
 10
0.0
 20
1.0
 30
0.0
  9
$UCSORTHOREF
  2

  9
$UCSORTHOVIEW
 70
     0
  9
$UCSORGTOP
 10
0.0
 20
0.0
 30
0.0
  9
$UCSORGBOTTOM
 10
0.0
 20
0.0
 30
0.0
  9
$UCSORGLEFT
 10
0.0
 20
0.0
 30
0.0
  9
$UCSORGRIGHT
 10
0.0
 20
0.0
 30
0.0
  9
$UCSORGFRONT
 10
0.0
 20
0.0
 30
0.0
  9
$UCSORGBACK
 10
0.0
 20
0.0
 30
0.0
  9
$PUCSBASE
  2

  9
$PUCSNAME
  2

  9
$PUCSORG
 10
0.0
 20
0.0
 30
0.0
  9
$PUCSXDIR
 10
1.0
 20
0.0
 30
0.0
  9
$PUCSYDIR
 10
0.0
 20
1.0
 30
0.0
  9
$PUCSORTHOREF
  2

  9
$PUCSORTHOVIEW
 70
     0
  9
$PUCSORGTOP
 10
0.0
 20
0.0
 30
0.0
  9
$PUCSORGBOTTOM
 10
0.0
 20
0.0
 30
0.0
  9
$PUCSORGLEFT
 10
0.0
 20
0.0
 30
0.0
  9
$PUCSORGRIGHT
 10
0.0
 20
0.0
 30
0.0
  9
$PUCSORGFRONT
 10
0.0
 20
0.0
 30
0.0
  9
$PUCSORGBACK
 10
0.0
 20
0.0
 30
0.0
  9
$USERI1
 70
     0
  9
$USERI2
 70
     0
  9
$USERI3
 70
     0
  9
$USERI4
 70
     0
  9
$USERI5
 70
     0
  9
$USERR1
 40
0.0
  9
$USERR2
 40
0.0
  9
$USERR3
 40
0.0
  9
$USERR4
 40
0.0
  9
$USERR5
 40
0.0
  9
$WORLDVIEW
 70
     1
  9
$SHADEDGE
 70
     3
  9
$SHADEDIF
 70
    70
  9
$TILEMODE
 70
     1
  9
$MAXACTVP
 70
    64
  9
$PINSBASE
 10
0.0
 20
0.0
 30
0.0
  9
$PLIMCHECK
 70
     0
  9
$PEXTMIN
 10
0.0
 20
0.0
 30
0.0
  9
$PEXTMAX
 10
0.0
 20
0.0
 30
0.0
  9
$PLIMMIN
 10
0.0
 20
0.0
  9
$PLIMMAX
 10
12.0
 20
9.0
  9
$UNITMODE
 70
     0
  9
$VISRETAIN
 70
     1
  9
$PLINEGEN
 70
     0
  9
$PSLTSCALE
 70
     0
  9
$TREEDEPTH
 70
  3020
  9
$CMLSTYLE
  2

  9
$CMLJUST
 70
     0
  9
$CMLSCALE
 40
1.0
  9
$PROXYGRAPHICS
 70
     1
  9
$MEASUREMENT
 70
     1
  9
$CELWEIGHT
370
    -1
  9
$ENDCAPS
280
     0
  9
$JOINSTYLE
280
     0
  9
$LWDISPLAY
290
     0
  9
$INSUNITS
 70
     4
  9
$HYPERLINKBASE
  1

  9
$STYLESHEET
  1

  9
$XEDIT
290
     1
  9
$CEPSNTYPE
380
     0
  9
$PSTYLEMODE
290
     1
  9
$FINGERPRINTGUID
  2
{1F053DCF-4DE9-4629-863A-BB717BE863A9}
  9
$VERSIONGUID
  2
{FAEB1C32-E019-11D5-929B-00C0DF256EC4}
  9
$EXTNAMES
290
     1
  9
$PSVPSCALE
 40
0.0
  9
$OLESTARTUP
290
     0
  9
$SORTENTS
280
   127
  9
$INDEXCTL
280
     0
  9
$HIDETEXT
280
     1
  9
$XCLIPFRAME
280
     2
  9
$HALOGAP
280
     0
  9
$OBSCOLOR
 70
   257
  9
$OBSLTYPE
280
     0
  9
$INTERSECTIONDISPLAY
280
     0
  9
$INTERSECTIONCOLOR
 70
   257
  9
$DIMASSOC
280
     2
  9
$PROJECTNAME
  1

  9
$CAMERADISPLAY
290
     0
  9
$LENSLENGTH
 40
50.0
  9
$CAMERAHEIGHT
 40
0.0
  9
$STEPSPERSEC
 40
2.0
  9
$STEPSIZE
 40
6.0
  9
$3DDWFPREC
 40
2.0
  9
$PSOLWIDTH
 40
0.25
  9
$PSOLHEIGHT
 40
4.0
  9
$LOFTANG1
 40
1.570796
  9
$LOFTANG2
 40
1.570796
  9
$LOFTMAG1
 40
0.0
  9
$LOFTMAG2
 40
0.0
  9
$LOFTPARAM
 70
     7
  9
$LOFTNORMALS
280
     1
  9
$LATITUDE
 40
37.795
  9
$LONGITUDE
 40
-122.394
  9
$NORTHDIRECTION
 40
0.0
  9
$TIMEZONE
 70
 -8000
  9
$LIGHTGLYPHDISPLAY
280
     1
  9
$TILEMODELIGHTSYNCH
280
     1
  9
$SOLIDHIST
280
     1
  9
$SHOWHIST
280
     1
  9
$DWFFRAME
280
     2
  9
$DGNFRAME
280
     2
  9
$REALWORLDSCALE
290
     1
  9
$INTERFERECOLOR
 62
   256
  9
$CSHADOW
280
     0
  9
$SHADOWPLANELOCATION
 40
0.0
  0
ENDSEC
  0
SECTION
  2
CLASSES
  0
CLASS
  1
ACDBDICTIONARYWDFLT
  2
AcDbDictionaryWithDefault
  3
ObjectDBX Classes
 90
        0
 91
        6
280
     0
281
     0
  0
CLASS
  1
ACDBPLACEHOLDER
  2
AcDbPlaceHolder
  3
ObjectDBX Classes
 90
        0
 91
        1
280
     0
281
     0
  0
CLASS
  1
LAYOUT
  2
AcDbLayout
  3
ObjectDBX Classes
 90
        0
 91
        1
280
     0
281
     0
  0
CLASS
  1
TABLESTYLE
  2
AcDbTableStyle
  3
ObjectDBX Classes
 90
     4095
 91
        5
280
     0
281
     0
  0
CLASS
  1
ACAD_TABLE
  2
AcDbTable
  3
ObjectDBX Classes
 90
     1025
 91
        5
280
     0
281
     1
  0
CLASS
  1
SCALE
  2
AcDbScale
  3
ObjectDBX Classes
 90
     1153
 91
        5
280
     0
281
     0
  0
CLASS
  1
TABLEGEOMETRY
  2
AcDbTableGeometry
  3
ObjectDBX Classes
 90
     1152
 91
        4
280
     0
281
     0
  0
CLASS
  1
VISUALSTYLE
  2
AcDbVisualStyle
  3
ObjectDBX Classes
 90
     4095
 91
        5
280
     0
281
     0
  0
CLASS
  1
MATERIAL
  2
AcDbMaterial
  3
ObjectDBX Classes
 90
     1153
 91
        5
280
     0
281
     0
  0
CLASS
  1
SUN
  2
AcDbSun
  3
SCENEOE
 90
     1153
 91
        5
280
     0
281
     0
  0
CLASS
  1
CSACDOCUMENTOPTIONS
  2
CDocDataContainer
  3
"DERU003_CSAPP"
 90
     4095
 91
        4
280
     0
281
     0
  0
CLASS
  1
TABLECONTENT
  2
AcDbTableContent
  3
ObjectDBX Classes
 90
     1152
 91
        4
280
     0
281
     0
  0
CLASS
  1
DICTIONARYVAR
  2
AcDbDictionaryVar
  3
ObjectDBX Classes
 90
        0
 91
        4
280
     0
281
     0
  0
CLASS
  1
CELLSTYLEMAP
  2
AcDbCellStyleMap
  3
ObjectDBX Classes
 90
     1152
 91
        4
280
     0
281
     0
  0
ENDSEC
  0
SECTION
  2
TABLES
  0
TABLE
  2
VPORT
  5
8
330
0
100
AcDbSymbolTable
 70
     1
  0
VPORT
  5
1F4
330
8
100
AcDbSymbolTableRecord
100
AcDbViewportTableRecord
  2
*ACTIVE
 70
     0
 10
0.0
 20
0.0
 11
1.0
 21
1.0
 12
148.5
 22
105.0
 13
0.0
 23
0.0
 14
1.0
 24
1.0
 15
0.0
 25
0.0
 16
0.0
 26
0.0
 36
1.0
 17
0.0
 27
0.0
 37
0.0
 40
210.0
 41
1.818286
 42
50.0
 43
0.0
 44
0.0
 50
0.0
 51
0.0
 71
    16
 72
   100
 73
     1
 74
     1
 75
     0
 76
     0
 77
     0
 78
     0
281
     0
 65
     1
110
0.0
120
0.0
130
0.0
111
1.0
121
0.0
131
0.0
112
0.0
122
1.0
132
0.0
 79
     0
146
0.0
 60
     3
 61
     5
292
     1
282
     1
141
0.0
142
0.0
 63
   256
361
418
  0
ENDTAB
  0
TABLE
  2
LTYPE
  5
5
330
0
100
AcDbSymbolTable
 70
     6
  0
LTYPE
  5
14
330
5
100
AcDbSymbolTableRecord
100
AcDbLinetypeTableRecord
  2
BYBLOCK
 70
     0
  3

 72
    65
 73
     0
 40
0.0
  0
LTYPE
  5
15
330
5
100
AcDbSymbolTableRecord
100
AcDbLinetypeTableRecord
  2
BYLAYER
 70
     0
  3

 72
    65
 73
     0
 40
0.0
  0
LTYPE
  5
16
330
5
100
AcDbSymbolTableRecord
100
AcDbLinetypeTableRecord
  2
CONTINUOUS
 70
     0
  3
Solid line
 72
    65
 73
     0
 40
0.0
  0
LTYPE
  5
1F5
330
5
100
AcDbSymbolTableRecord
100
AcDbLinetypeTableRecord
  2
CENTER
 70
     0
  3
____ _ ____ _ ____ _ ____ _ ____ _ ____ _ ____
 72
    65
 73
     4
 40
0.6
 49
0.375
 74
     0
 49
-0.075
 74
     0
 49
0.075
 74
     0
 49
-0.075
 74
     0
  0
LTYPE
  5
1F6
330
5
100
AcDbSymbolTableRecord
100
AcDbLinetypeTableRecord
  2
HIDDEN
 70
     0
  3
- - - - - - - - - - - - - - - - - - - -
 72
    65
 73
     2
 40
0.2
 49
0.1
 74
     0
 49
-0.1
 74
     0
  0
LTYPE
  5
1F7
330
5
100
AcDbSymbolTableRecord
100
AcDbLinetypeTableRecord
  2
PHANTOM
 70
     0
  3
_____ _ _ _____ _ _ _____ _ _ _____
 72
    65
 73
     6
 40
0.8
 49
0.45
 74
     0
 49
-0.05
 74
     0
 49
0.1
 74
     0
 49
-0.05
 74
     0
 49
0.1
 74
     0
 49
-0.05
 74
     0
  0
LTYPE
  5
1F8
330
5
100
AcDbSymbolTableRecord
100
AcDbLinetypeTableRecord
  2
DOT
 70
     0
  3
. . . . . . . . . . . . . . . . . . . .
 72
    65
 73
     2
 40
0.2
 49
0.1
 74
     0
 49
-0.1
 74
     0
  0
LTYPE
  5
1F9
330
5
100
AcDbSymbolTableRecord
100
AcDbLinetypeTableRecord
  2
DASHED
 70
     0
  3
- - - - - - - - - - - - - - - - - - - -
 72
    65
 73
     2
 40
0.2
 49
0.1
 74
     0
 49
-0.1
 74
     0
  0
ENDTAB
  0
TABLE
  2
LAYER
  5
2
330
0
100
AcDbSymbolTable
 70
    12
  0
LAYER
  5
10
330
2
100
AcDbSymbolTableRecord
100
AcDbLayerTableRecord
  2
0
 70
     0
 62
     7
  6
CONTINUOUS
370
    -3
390
F
347
412
348
0
  0
LAYER
  5
1FA
330
2
100
AcDbSymbolTableRecord
100
AcDbLayerTableRecord
  2
DEFAULT_1
 70
     0
 62
     7
  6
CENTER
370
    -3
390
F
347
412
348
0
  0
LAYER
  5
1FB
330
2
100
AcDbSymbolTableRecord
100
AcDbLayerTableRecord
  2
DEFAULT_2
 70
     0
 62
     8
  6
HIDDEN
370
    -3
390
F
347
412
348
0
  0
LAYER
  5
1FC
330
2
100
AcDbSymbolTableRecord
100
AcDbLayerTableRecord
  2
DEFAULT_3
 70
     0
 62
     7
  6
PHANTOM
370
    -3
390
F
347
412
348
0
  0
LAYER
  5
1FD
330
2
100
AcDbSymbolTableRecord
100
AcDbLayerTableRecord
  2
1_ALL_PLANES
 70
     0
 62
     7
  6
CONTINUOUS
370
    -3
390
F
347
412
348
0
  0
LAYER
  5
1FE
330
2
100
AcDbSymbolTableRecord
100
AcDbLayerTableRecord
  2
2_ALL_CSYS
 70
     0
 62
     7
  6
CONTINUOUS
370
    -3
390
F
347
412
348
0
  0
LAYER
  5
1FF
330
2
100
AcDbSymbolTableRecord
100
AcDbLayerTableRecord
  2
3_ALL_AXES
 70
     0
 62
     7
  6
CONTINUOUS
370
    -3
390
F
347
412
348
0
  0
LAYER
  5
200
330
2
100
AcDbSymbolTableRecord
100
AcDbLayerTableRecord
  2
4_ALL_POINTS
 70
     0
 62
     7
  6
CONTINUOUS
370
    -3
390
F
347
412
348
0
  0
LAYER
  5
201
330
2
100
AcDbSymbolTableRecord
100
AcDbLayerTableRecord
  2
5_ALL_CURVES
 70
     0
 62
     7
  6
CONTINUOUS
370
    -3
390
F
347
412
348
0
  0
LAYER
  5
202
330
2
100
AcDbSymbolTableRecord
100
AcDbLayerTableRecord
  2
6_ALL_SURFS
 70
     0
 62
     7
  6
CONTINUOUS
370
    -3
390
F
347
412
348
0
  0
LAYER
  5
203
330
2
100
AcDbSymbolTableRecord
100
AcDbLayerTableRecord
  2
7_ALL_FEATURES
 70
     0
 62
     7
  6
CONTINUOUS
370
    -3
390
F
347
412
348
0
  0
LAYER
  5
204
330
2
100
AcDbSymbolTableRecord
100
AcDbLayerTableRecord
  2
9_SOLID
 70
     0
 62
     7
  6
CONTINUOUS
370
    -3
390
F
347
412
348
0
  0
ENDTAB
  0
TABLE
  2
STYLE
  5
3
330
0
100
AcDbSymbolTable
 70
     3
  0
STYLE
  5
11
330
3
100
AcDbSymbolTableRecord
100
AcDbTextStyleTableRecord
  2
STANDARD
 70
     0
 40
0.0
 41
1.0
 50
0.0
 71
     0
 42
0.2
  3
arial.ttf
  4

  0
STYLE
  5
205
330
3
100
AcDbSymbolTableRecord
100
AcDbTextStyleTableRecord
  2
TEXTSTYLE_1
 70
     0
 40
0.0
 41
0.8
 50
0.0
 71
     0
 42
0.2
  3
gdt
  4

  0
STYLE
  5
206
330
3
100
AcDbSymbolTableRecord
100
AcDbTextStyleTableRecord
  2
TEXTSTYLE_2
 70
     0
 40
0.0
 41
0.85
 50
0.0
 71
     0
 42
0.2
  3
txt
  4

  0
ENDTAB
  0
TABLE
  2
VIEW
  5
6
330
0
100
AcDbSymbolTable
 70
     0
  0
ENDTAB
  0
TABLE
  2
UCS
  5
7
330
0
100
AcDbSymbolTable
 70
     0
  0
ENDTAB
  0
TABLE
  2
APPID
  5
9
330
0
100
AcDbSymbolTable
 70
     6
  0
APPID
  5
207
330
9
100
AcDbSymbolTableRecord
100
AcDbRegAppTableRecord
  2
ACAD
 70
     0
  0
APPID
  5
413
330
9
100
AcDbSymbolTableRecord
100
AcDbRegAppTableRecord
  2
MCS_DIM1
 70
     0
  0
APPID
  5
414
330
9
100
AcDbSymbolTableRecord
100
AcDbRegAppTableRecord
  2
McsXdata5
 70
     0
  0
APPID
  5
417
330
9
100
AcDbSymbolTableRecord
100
AcDbRegAppTableRecord
  2
MCS_DOCUMENT_ID
 70
     0
  0
APPID
  5
41F
330
9
100
AcDbSymbolTableRecord
100
AcDbRegAppTableRecord
  2
MCS_PARAMS_DATA
 70
     0
  0
APPID
  5
421
330
9
100
AcDbSymbolTableRecord
100
AcDbRegAppTableRecord
  2
MC_VERSION_DATA
 70
     0
  0
ENDTAB
  0
TABLE
  2
DIMSTYLE
  5
A
330
0
100
AcDbSymbolTable
 70
     3
100
AcDbDimStyleTable
  0
DIMSTYLE
105
212
330
A
100
AcDbSymbolTableRecord
100
AcDbDimStyleTableRecord
  2
STANDARD
 70
     0
 41
2.5
 42
0.75
 44
0.75
 47
0.01
 48
0.01
 71
     1
 73
     0
 74
     0
 77
     1
 78
     8
 79
     2
140
3.0
147
0.625
171
     1
178
     0
179
     2
271
     2
272
     2
278
    44
284
     8
340
11
341
20A
342
20A
343
20A
344
20A
  0
DIMSTYLE
105
213
330
A
100
AcDbSymbolTableRecord
100
AcDbDimStyleTableRecord
  2
DIMSTYLE_1
 70
     0
 41
2.5
 42
0.75
 44
0.75
 47
0.3
 48
0.3
 73
     0
 74
     0
 77
     1
 78
     8
 79
     2
140
3.0
147
0.75
171
     1
178
     0
179
     2
271
     2
272
     2
278
    44
284
     8
340
11
341
20A
342
20A
343
20A
344
20A
  0
DIMSTYLE
105
214
330
A
100
AcDbSymbolTableRecord
100
AcDbDimStyleTableRecord
  2
DIMSTYLE_2
 70
     0
 41
2.5
 42
0.75
 44
0.75
 47
0.2
 48
0.2
 73
     0
 74
     0
 77
     1
 78
     8
 79
     2
140
3.0
147
0.75
171
     1
178
     0
179
     2
271
     2
272
     2
278
    44
284
     8
340
11
341
20A
342
20A
343
20A
344
20A
  0
ENDTAB
  0
TABLE
  2
BLOCK_RECORD
  5
1
330
0
100
AcDbSymbolTable
 70
     8
  0
BLOCK_RECORD
  5
208
330
1
100
AcDbSymbolTableRecord
100
AcDbBlockTableRecord
  2
*Model_Space
340
3CD
 70
     0
280
     1
281
     0
  0
BLOCK_RECORD
  5
209
330
1
100
AcDbSymbolTableRecord
100
AcDbBlockTableRecord
  2
*Paper_Space
340
3CE
 70
     0
280
     1
281
     0
  0
BLOCK_RECORD
  5
20A
330
1
100
AcDbSymbolTableRecord
100
AcDbBlockTableRecord
  2
_CLOSED
340
0
102
{BLKREFS
331
25D
331
25E
331
266
331
267
331
26F
331
270
331
278
331
279
331
282
331
283
102
}
 70
     0
280
     1
281
     0
  0
BLOCK_RECORD
  5
20B
330
1
100
AcDbSymbolTableRecord
100
AcDbBlockTableRecord
  2
*D1
340
0
 70
     0
280
     1
281
     0
  0
BLOCK_RECORD
  5
20C
330
1
100
AcDbSymbolTableRecord
100
AcDbBlockTableRecord
  2
*D2
340
0
 70
     0
280
     1
281
     0
  0
BLOCK_RECORD
  5
20D
330
1
100
AcDbSymbolTableRecord
100
AcDbBlockTableRecord
  2
*D3
340
0
 70
     0
280
     1
281
     0
  0
BLOCK_RECORD
  5
20E
330
1
100
AcDbSymbolTableRecord
100
AcDbBlockTableRecord
  2
*D4
340
0
 70
     0
280
     1
281
     0
  0
BLOCK_RECORD
  5
20F
330
1
100
AcDbSymbolTableRecord
100
AcDbBlockTableRecord
  2
*D5
340
0
 70
     0
280
     1
281
     0
  0
BLOCK_RECORD
  5
210
330
1
100
AcDbSymbolTableRecord
100
AcDbBlockTableRecord
  2
LOGO2_BL0
340
0
102
{BLKREFS
331
3CA
102
}
 70
     0
280
     1
281
     0
  0
BLOCK_RECORD
  5
211
330
1
100
AcDbSymbolTableRecord
100
AcDbBlockTableRecord
  2
*T7
340
0
102
{BLKREFS
331
3CB
102
}
 70
     0
280
     1
281
     0
  0
ENDTAB
  0
ENDSEC
  0
SECTION
  2
BLOCKS
  0
BLOCK
  5
20
330
208
100
AcDbEntity
  8
0
100
AcDbBlockBegin
  2
*Model_Space
 70
     0
 10
0.0
 20
0.0
 30
0.0
  3
*Model_Space
  1
*Model_Space
  0
ENDBLK
  5
21
330
208
100
AcDbEntity
  8
0
100
AcDbBlockEnd
  0
BLOCK
  5
1C
330
209
100
AcDbEntity
 67
     1
  8
0
100
AcDbBlockBegin
  2
*Paper_Space
 70
     0
 10
0.0
 20
0.0
 30
0.0
  3
*Paper_Space
  1
*Paper_Space
  0
ENDBLK
  5
1D
330
209
100
AcDbEntity
 67
     1
  8
0
100
AcDbBlockEnd
  0
BLOCK
  5
251
330
20A
100
AcDbEntity
  8
0
100
AcDbBlockBegin
  2
_CLOSED
 70
     0
 10
0.0
 20
0.0
 30
0.0
  3
_CLOSED
  1
_CLOSED
  0
LINE
  5
252
330
20A
100
AcDbEntity
  8
0
  6
ByBlock
 62
     0
100
AcDbLine
 10
0.0
 20
0.0
 30
0.0
 11
-1.0
 21
0.2
 31
0.0
  0
LINE
  5
253
330
20A
100
AcDbEntity
  8
0
  6
ByBlock
 62
     0
100
AcDbLine
 10
-1.0
 20
0.2
 30
0.0
 11
-1.0
 21
-0.2
 31
0.0
  0
LINE
  5
254
330
20A
100
AcDbEntity
  8
0
  6
ByBlock
 62
     0
100
AcDbLine
 10
-1.0
 20
-0.2
 30
0.0
 11
0.0
 21
0.0
 31
0.0
  0
LINE
  5
255
330
20A
100
AcDbEntity
  8
0
  6
ByBlock
 62
     0
100
AcDbLine
 10
-1.0
 20
0.0
 30
0.0
 11
0.0
 21
0.0
 31
0.0
  0
ENDBLK
  5
256
330
20A
100
AcDbEntity
  8
0
  6
ByBlock
 62
     0
100
AcDbBlockEnd
  0
BLOCK
  5
257
330
20B
100
AcDbEntity
  8
0
100
AcDbBlockBegin
  2
*D1
 70
     1
 10
0.0
 20
0.0
 30
0.0
  3
*D1
  1
*D1
  0
MTEXT
  5
258
330
20B
100
AcDbEntity
  8
0
  6
Continuous
 62
     2
100
AcDbMText
 10
85.146062
 20
191.773347
 30
0.0
 40
3.0
 41
4.66171
 46
0.0
 71
     2
 72
     1
  1
85
 73
     1
 44
0.9
  0
LINE
  5
259
330
20B
100
AcDbEntity
  8
0
  6
Continuous
 62
     2
100
AcDbLine
 10
42.646062
 20
179.811787
 30
0.0
 11
42.646062
 21
188.773347
 31
0.0
  0
LINE
  5
25A
330
20B
100
AcDbEntity
  8
0
  6
Continuous
 62
     2
100
AcDbLine
 10
127.646062
 20
179.811787
 30
0.0
 11
127.646062
 21
188.773347
 31
0.0
  0
LINE
  5
25B
330
20B
100
AcDbEntity
  8
0
  6
Continuous
 62
     2
100
AcDbLine
 10
42.646062
 20
188.023347
 30
0.0
 11
85.146062
 21
188.023347
 31
0.0
  0
LINE
  5
25C
330
20B
100
AcDbEntity
  8
0
  6
Continuous
 62
     2
100
AcDbLine
 10
127.646062
 20
188.023347
 30
0.0
 11
85.146062
 21
188.023347
 31
0.0
  0
INSERT
  5
25D
330
20B
100
AcDbEntity
  8
0
  6
Continuous
 62
     2
100
AcDbBlockReference
  2
_CLOSED
 10
42.646062
 20
188.023347
 30
0.0
 41
2.5
 42
2.5
 43
2.5
 50
180.0
  0
INSERT
  5
25E
330
20B
100
AcDbEntity
  8
0
  6
Continuous
 62
     2
100
AcDbBlockReference
  2
_CLOSED
 10
127.646062
 20
188.023347
 30
0.0
 41
2.5
 42
2.5
 43
2.5
  0
ENDBLK
  5
25F
330
20B
100
AcDbEntity
  8
0
  6
ByBlock
 62
     0
100
AcDbBlockEnd
  0
BLOCK
  5
260
330
20C
100
AcDbEntity
  8
0
100
AcDbBlockBegin
  2
*D2
 70
     1
 10
0.0
 20
0.0
 30
0.0
  3
*D2
  1
*D2
  0
MTEXT
  5
261
330
20C
100
AcDbEntity
  8
0
  6
Continuous
 62
     2
100
AcDbMText
 10
17.655093
 20
132.655617
 30
0.0
 40
3.0
 41
4.66171
 46
0.0
 71
     2
 72
     1
  1
85
 11
0.0
 21
1.0
 31
0.0
 73
     1
 44
0.9
  0
LINE
  5
262
330
20C
100
AcDbEntity
  8
0
  6
Continuous
 62
     2
100
AcDbLine
 10
33.834554
 20
175.155617
 30
0.0
 11
20.655093
 21
175.155617
 31
0.0
  0
LINE
  5
263
330
20C
100
AcDbEntity
  8
0
  6
Continuous
 62
     2
100
AcDbLine
 10
33.834554
 20
90.155617
 30
0.0
 11
20.655093
 21
90.155617
 31
0.0
  0
LINE
  5
264
330
20C
100
AcDbEntity
  8
0
  6
Continuous
 62
     2
100
AcDbLine
 10
21.405093
 20
175.155617
 30
0.0
 11
21.405093
 21
132.655617
 31
0.0
  0
LINE
  5
265
330
20C
100
AcDbEntity
  8
0
  6
Continuous
 62
     2
100
AcDbLine
 10
21.405093
 20
90.155617
 30
0.0
 11
21.405093
 21
132.655617
 31
0.0
  0
INSERT
  5
266
330
20C
100
AcDbEntity
  8
0
  6
Continuous
 62
     2
100
AcDbBlockReference
  2
_CLOSED
 10
21.405093
 20
175.155617
 30
0.0
 41
2.5
 42
2.5
 43
2.5
 50
90.0
  0
INSERT
  5
267
330
20C
100
AcDbEntity
  8
0
  6
Continuous
 62
     2
100
AcDbBlockReference
  2
_CLOSED
 10
21.405093
 20
90.155617
 30
0.0
 41
2.5
 42
2.5
 43
2.5
 50
270.0
  0
ENDBLK
  5
268
330
20C
100
AcDbEntity
  8
0
  6
ByBlock
 62
     0
100
AcDbBlockEnd
  0
BLOCK
  5
269
330
20D
100
AcDbEntity
  8
0
100
AcDbBlockBegin
  2
*D3
 70
     1
 10
0.0
 20
0.0
 30
0.0
  3
*D3
  1
*D3
  0
MTEXT
  5
26A
330
20D
100
AcDbEntity
  8
0
  6
Continuous
 62
     2
100
AcDbMText
 10
85.146062
 20
184.555347
 30
0.0
 40
3.0
 41
4.66171
 46
0.0
 71
     2
 72
     1
  1
35
 73
     1
 44
0.9
  0
LINE
  5
26B
330
20D
100
AcDbEntity
  8
0
  6
Continuous
 62
     2
100
AcDbLine
 10
67.646062
 20
180.181715
 30
0.0
 11
67.646062
 21
181.555347
 31
0.0
  0
LINE
  5
26C
330
20D
100
AcDbEntity
  8
0
  6
Continuous
 62
     2
100
AcDbLine
 10
102.646062
 20
179.811787
 30
0.0
 11
102.646062
 21
181.555347
 31
0.0
  0
LINE
  5
26D
330
20D
100
AcDbEntity
  8
0
  6
Continuous
 62
     2
100
AcDbLine
 10
67.646062
 20
180.805347
 30
0.0
 11
85.146062
 21
180.805347
 31
0.0
  0
LINE
  5
26E
330
20D
100
AcDbEntity
  8
0
  6
Continuous
 62
     2
100
AcDbLine
 10
102.646062
 20
180.805347
 30
0.0
 11
85.146062
 21
180.805347
 31
0.0
  0
INSERT
  5
26F
330
20D
100
AcDbEntity
  8
0
  6
Continuous
 62
     2
100
AcDbBlockReference
  2
_CLOSED
 10
67.646062
 20
180.805347
 30
0.0
 41
2.5
 42
2.5
 43
2.5
 50
180.0
  0
INSERT
  5
270
330
20D
100
AcDbEntity
  8
0
  6
Continuous
 62
     2
100
AcDbBlockReference
  2
_CLOSED
 10
102.646062
 20
180.805347
 30
0.0
 41
2.5
 42
2.5
 43
2.5
  0
ENDBLK
  5
271
330
20D
100
AcDbEntity
  8
0
  6
ByBlock
 62
     0
100
AcDbBlockEnd
  0
BLOCK
  5
272
330
20E
100
AcDbEntity
  8
0
100
AcDbBlockBegin
  2
*D4
 70
     1
 10
0.0
 20
0.0
 30
0.0
  3
*D4
  1
*D4
  0
MTEXT
  5
273
330
20E
100
AcDbEntity
  8
0
  6
Continuous
 62
     2
100
AcDbMText
 10
26.020871
 20
132.655617
 30
0.0
 40
3.0
 41
4.66171
 46
0.0
 71
     2
 72
     1
  1
35
 11
0.0
 21
1.0
 31
0.0
 73
     1
 44
0.9
  0
LINE
  5
274
330
20E
100
AcDbEntity
  8
0
  6
Continuous
 62
     2
100
AcDbLine
 10
34.459322
 20
150.155617
 30
0.0
 11
29.020871
 21
150.155617
 31
0.0
  0
LINE
  5
275
330
20E
100
AcDbEntity
  8
0
  6
Continuous
 62
     2
100
AcDbLine
 10
33.834554
 20
115.155617
 30
0.0
 11
29.020871
 21
115.155617
 31
0.0
  0
LINE
  5
276
330
20E
100
AcDbEntity
  8
0
  6
Continuous
 62
     2
100
AcDbLine
 10
29.770871
 20
150.155617
 30
0.0
 11
29.770871
 21
132.655617
 31
0.0
  0
LINE
  5
277
330
20E
100
AcDbEntity
  8
0
  6
Continuous
 62
     2
100
AcDbLine
 10
29.770871
 20
115.155617
 30
0.0
 11
29.770871
 21
132.655617
 31
0.0
  0
INSERT
  5
278
330
20E
100
AcDbEntity
  8
0
  6
Continuous
 62
     2
100
AcDbBlockReference
  2
_CLOSED
 10
29.770871
 20
150.155617
 30
0.0
 41
2.5
 42
2.5
 43
2.5
 50
90.0
  0
INSERT
  5
279
330
20E
100
AcDbEntity
  8
0
  6
Continuous
 62
     2
100
AcDbBlockReference
  2
_CLOSED
 10
29.770871
 20
115.155617
 30
0.0
 41
2.5
 42
2.5
 43
2.5
 50
270.0
  0
ENDBLK
  5
27A
330
20E
100
AcDbEntity
  8
0
  6
ByBlock
 62
     0
100
AcDbBlockEnd
  0
BLOCK
  5
27B
330
20F
100
AcDbEntity
  8
0
100
AcDbBlockBegin
  2
*D5
 70
     1
 10
0.0
 20
0.0
 30
0.0
  3
*D5
  1
*D5
  0
MTEXT
  5
27C
330
20F
100
AcDbEntity
  8
0
  6
Continuous
 62
     2
100
AcDbMText
 10
144.358926
 20
79.136974
 30
0.0
 40
3.0
 41
8.152416
 46
0.0
 71
     1
 72
     1
  1
8,25
 11
0.0
 21
1.0
 31
0.0
 73
     1
 44
0.9
  0
LINE
  5
27D
330
20F
100
AcDbEntity
  8
0
  6
Continuous
 62
     2
100
AcDbLine
 10
140.001757
 20
69.268581
 30
0.0
 11
148.858926
 21
69.268581
 31
0.0
  0
LINE
  5
27E
330
20F
100
AcDbEntity
  8
0
  6
Continuous
 62
     2
100
AcDbLine
 10
138.912386
 20
77.518581
 30
0.0
 11
148.858926
 21
77.518581
 31
0.0
  0
LINE
  5
27F
330
20F
100
AcDbEntity
  8
0
  6
Continuous
 62
     2
100
AcDbLine
 10
148.108926
 20
69.268581
 30
0.0
 11
148.108926
 21
73.393581
 31
0.0
  0
LINE
  5
280
330
20F
100
AcDbEntity
  8
0
  6
Continuous
 62
     2
100
AcDbLine
 10
148.108926
 20
77.518581
 30
0.0
 11
148.108926
 21
73.393581
 31
0.0
  0
LINE
  5
281
330
20F
100
AcDbEntity
  8
0
  6
Continuous
 62
     2
100
AcDbLine
 10
148.108926
 20
73.393581
 30
0.0
 11
148.108926
 21
87.28939
 31
0.0
  0
INSERT
  5
282
330
20F
100
AcDbEntity
  8
0
  6
Continuous
 62
     2
100
AcDbBlockReference
  2
_CLOSED
 10
148.108926
 20
69.268581
 30
0.0
 41
2.5
 42
2.5
 43
2.5
 50
270.0
  0
INSERT
  5
283
330
20F
100
AcDbEntity
  8
0
  6
Continuous
 62
     2
100
AcDbBlockReference
  2
_CLOSED
 10
148.108926
 20
77.518581
 30
0.0
 41
2.5
 42
2.5
 43
2.5
 50
90.0
  0
ENDBLK
  5
284
330
20F
100
AcDbEntity
  8
0
  6
ByBlock
 62
     0
100
AcDbBlockEnd
  0
BLOCK
  5
215
330
210
100
AcDbEntity
  8
0
100
AcDbBlockBegin
  2
LOGO2_BL0
 70
     0
 10
207.828459
 20
39.543518
 30
0.0
  3
LOGO2_BL0
  1
LOGO2_BL0
  0
LINE
  5
216
330
210
100
AcDbEntity
  8
0
  6
Continuous
 62
     7
100
AcDbLine
 10
199.571384
 20
42.739009
 30
0.0
 11
198.267043
 21
42.739009
 31
0.0
  0
LINE
  5
217
330
210
100
AcDbEntity
  8
0
  6
Continuous
 62
     7
100
AcDbLine
 10
198.267043
 20
42.739009
 30
0.0
 11
198.267043
 21
32.279943
 31
0.0
  0
LINE
  5
218
330
210
100
AcDbEntity
  8
0
  6
Continuous
 62
     7
100
AcDbLine
 10
198.267043
 20
32.279943
 30
0.0
 11
202.748098
 21
32.279943
 31
0.0
  0
LINE
  5
219
330
210
100
AcDbEntity
  8
0
  6
Continuous
 62
     7
100
AcDbLine
 10
202.748098
 20
32.279943
 30
0.0
 11
202.748098
 21
33.472797
 31
0.0
  0
LINE
  5
21A
330
210
100
AcDbEntity
  8
0
  6
Continuous
 62
     7
100
AcDbLine
 10
202.748098
 20
33.472797
 30
0.0
 11
199.571384
 21
33.472797
 31
0.0
  0
LINE
  5
21B
330
210
100
AcDbEntity
  8
0
  6
Continuous
 62
     7
100
AcDbLine
 10
199.571384
 20
33.472797
 30
0.0
 11
199.571384
 21
42.739009
 31
0.0
  0
LINE
  5
21C
330
210
100
AcDbEntity
  8
0
  6
Continuous
 62
     7
100
AcDbLine
 10
214.50771
 20
42.739009
 30
0.0
 11
213.203893
 21
42.739009
 31
0.0
  0
LINE
  5
21D
330
210
100
AcDbEntity
  8
0
  6
Continuous
 62
     7
100
AcDbLine
 10
213.203893
 20
42.739009
 30
0.0
 11
213.203893
 21
32.279943
 31
0.0
  0
LINE
  5
21E
330
210
100
AcDbEntity
  8
0
  6
Continuous
 62
     7
100
AcDbLine
 10
213.203893
 20
32.279943
 30
0.0
 11
217.685078
 21
32.279943
 31
0.0
  0
LINE
  5
21F
330
210
100
AcDbEntity
  8
0
  6
Continuous
 62
     7
100
AcDbLine
 10
217.685078
 20
32.279943
 30
0.0
 11
217.685078
 21
33.472797
 31
0.0
  0
LINE
  5
220
330
210
100
AcDbEntity
  8
0
  6
Continuous
 62
     7
100
AcDbLine
 10
217.685078
 20
33.472797
 30
0.0
 11
214.50771
 21
33.472797
 31
0.0
  0
LINE
  5
221
330
210
100
AcDbEntity
  8
0
  6
Continuous
 62
     7
100
AcDbLine
 10
214.50771
 20
33.472797
 30
0.0
 11
214.50771
 21
42.739009
 31
0.0
  0
LWPOLYLINE
  5
222
330
210
100
AcDbEntity
  8
0
  6
Continuous
 62
     7
100
AcDbPolyline
 90
        2
 70
     0
 43
0.2
 10
196.621438
 20
28.936392
 10
196.621438
 20
27.079329
  0
LWPOLYLINE
  5
223
330
210
100
AcDbEntity
  8
0
  6
Continuous
 62
     7
100
AcDbPolyline
 90
        2
 70
     0
 43
0.2
 10
196.621438
 20
27.079329
 10
197.417154
 20
27.079329
  0
LWPOLYLINE
  5
224
330
210
100
AcDbEntity
  8
0
  6
Continuous
 62
     7
100
AcDbPolyline
 90
        2
 70
     0
 43
0.2
 10
197.417154
 20
27.079329
 10
197.417154
 20
27.29131
  0
LWPOLYLINE
  5
225
330
210
100
AcDbEntity
  8
0
  6
Continuous
 62
     7
100
AcDbPolyline
 90
        2
 70
     0
 43
0.2
 10
197.417154
 20
27.29131
 10
196.853047
 20
27.29131
  0
LWPOLYLINE
  5
226
330
210
100
AcDbEntity
  8
0
  6
Continuous
 62
     7
100
AcDbPolyline
 90
        2
 70
     0
 43
0.2
 10
196.853047
 20
27.29131
 10
196.853047
 20
28.936392
  0
LWPOLYLINE
  5
227
330
210
100
AcDbEntity
  8
0
  6
Continuous
 62
     7
100
AcDbPolyline
 90
        2
 70
     0
 43
0.2
 10
196.853047
 20
28.936392
 10
196.621438
 20
28.936392
  0
SPLINE
  5
228
330
210
100
AcDbEntity
  8
0
  6
Continuous
 62
     7
100
AcDbSpline
 70
     3
 71
     3
 72
    35
 73
    31
 74
     0
 42
0.000000001
 43
0.0000001
 40
0.0
 40
0.0
 40
0.0
 40
0.0
 40
1.0
 40
1.0
 40
1.0
 40
2.0
 40
2.0
 40
2.0
 40
3.0
 40
3.0
 40
3.0
 40
4.0
 40
4.0
 40
4.0
 40
5.0
 40
5.0
 40
5.0
 40
6.0
 40
6.0
 40
6.0
 40
7.0
 40
7.0
 40
7.0
 40
8.0
 40
8.0
 40
8.0
 40
9.0
 40
9.0
 40
9.0
 40
10.0
 40
10.0
 40
10.0
 40
10.0
 10
198.8154472326
 20
28.2318802186
 30
0.0
 10
198.8154472326
 20
28.2318802186
 30
0.0
 10
198.8154472326
 20
27.5697649394
 30
0.0
 10
198.8154472326
 20
27.5697649394
 30
0.0
 10
198.8154472326
 20
27.2546713441
 30
0.0
 10
198.9633109215
 20
27.0400727161
 30
0.0
 10
199.3033974058
 20
27.0400727161
 30
0.0
 10
199.6429604788
 20
27.0400727161
 30
0.0
 10
199.7910858732
 20
27.2546713441
 30
0.0
 10
199.7910858732
 20
27.5697649394
 30
0.0
 10
199.7910858732
 20
27.5697649394
 30
0.0
 10
199.7910858732
 20
28.2318802186
 30
0.0
 10
199.7910858732
 20
28.2318802186
 30
0.0
 10
199.7910858732
 20
28.2318802186
 30
0.0
 10
199.5690286344
 20
28.2318802186
 30
0.0
 10
199.5690286344
 20
28.2318802186
 30
0.0
 10
199.5690286344
 20
28.2318802186
 30
0.0
 10
199.5690286344
 20
27.5948886813
 30
0.0
 10
199.5690286344
 20
27.5948886813
 30
0.0
 10
199.5690286344
 20
27.4090776741
 30
0.0
 10
199.5223141769
 20
27.2462967635
 30
0.0
 10
199.3033974058
 20
27.2462967635
 30
0.0
 10
199.0839572233
 20
27.2462967635
 30
0.0
 10
199.0372427659
 20
27.4090776741
 30
0.0
 10
199.0372427659
 20
27.5948886813
 30
0.0
 10
199.0372427659
 20
27.5948886813
 30
0.0
 10
199.0372427659
 20
28.2318802186
 30
0.0
 10
199.0372427659
 20
28.2318802186
 30
0.0
 10
199.0372427659
 20
28.2318802186
 30
0.0
 10
198.8154472326
 20
28.2318802186
 30
0.0
 10
198.8154472326
 20
28.2318802186
 30
0.0
  0
SPLINE
  5
229
330
210
100
AcDbEntity
  8
0
  6
Continuous
 62
     7
100
AcDbSpline
 70
     3
 71
     3
 72
    35
 73
    31
 74
     0
 42
0.000000001
 43
0.0000001
 40
0.0
 40
0.0
 40
0.0
 40
0.0
 40
1.0
 40
1.0
 40
1.0
 40
2.0
 40
2.0
 40
2.0
 40
3.0
 40
3.0
 40
3.0
 40
4.0
 40
4.0
 40
4.0
 40
5.0
 40
5.0
 40
5.0
 40
6.0
 40
6.0
 40
6.0
 40
7.0
 40
7.0
 40
7.0
 40
8.0
 40
8.0
 40
8.0
 40
9.0
 40
9.0
 40
9.0
 40
10.0
 40
10.0
 40
10.0
 40
10.0
 10
202.2142184304
 20
28.1905307269
 30
0.0
 10
202.1257619228
 20
28.2418250331
 30
0.0
 10
202.0123125261
 20
28.2669487749
 30
0.0
 10
201.9086770911
 20
28.2669487749
 30
0.0
 10
201.553804238
 20
28.2669487749
 30
0.0
 10
201.2783590477
 20
28.0031494858
 30
0.0
 10
201.2783590477
 20
27.6456595762
 30
0.0
 10
201.2783590477
 20
27.3007315375
 30
0.0
 10
201.5568138529
 20
27.0405961274
 30
0.0
 10
201.8963769259
 20
27.0405961274
 30
0.0
 10
202.0123125261
 20
27.0405961274
 30
0.0
 10
202.113069199
 20
27.0625794015
 30
0.0
 10
202.2142184304
 20
27.1164907641
 30
0.0
 10
202.2142184304
 20
27.1164907641
 30
0.0
 10
202.2142184304
 20
27.3991328596
 30
0.0
 10
202.2142184304
 20
27.3991328596
 30
0.0
 10
202.1303417715
 20
27.3059656504
 30
0.0
 10
202.0268371894
 20
27.2468201748
 30
0.0
 10
201.8987322767
 20
27.2468201748
 30
0.0
 10
201.6650291366
 20
27.2468201748
 30
0.0
 10
201.4997620225
 20
27.4190224885
 30
0.0
 10
201.4997620225
 20
27.6556043907
 30
0.0
 10
201.4997620225
 20
27.8675859622
 30
0.0
 10
201.6675153402
 20
28.0596779049
 30
0.0
 10
201.8843384662
 20
28.0596779049
 30
0.0
 10
202.0171540805
 20
28.0596779049
 30
0.0
 10
202.1257619228
 20
28.0057665422
 30
0.0
 10
202.2142184304
 20
27.9047481637
 30
0.0
 10
202.2142184304
 20
27.9047481637
 30
0.0
 10
202.2142184304
 20
28.1905307269
 30
0.0
 10
202.2142184304
 20
28.1905307269
 30
0.0
  0
SPLINE
  5
22A
330
210
100
AcDbEntity
  8
0
  6
Continuous
 62
     7
100
AcDbSpline
 70
     3
 71
     3
 72
    32
 73
    28
 74
     0
 42
0.000000001
 43
0.0000001
 40
0.0
 40
0.0
 40
0.0
 40
0.0
 40
1.0
 40
1.0
 40
1.0
 40
2.0
 40
2.0
 40
2.0
 40
3.0
 40
3.0
 40
3.0
 40
4.0
 40
4.0
 40
4.0
 40
5.0
 40
5.0
 40
5.0
 40
6.0
 40
6.0
 40
6.0
 40
7.0
 40
7.0
 40
7.0
 40
8.0
 40
8.0
 40
8.0
 40
9.0
 40
9.0
 40
9.0
 40
9.0
 10
204.7460896827
 20
27.6189656005
 30
0.0
 10
204.7460896827
 20
27.6189656005
 30
0.0
 10
204.7460896827
 20
27.6529873342
 30
0.0
 10
204.7460896827
 20
27.6529873342
 30
0.0
 10
204.7460896827
 20
27.9952983165
 30
0.0
 10
204.5732331049
 20
28.2669487749
 30
0.0
 10
204.2065834977
 20
28.2669487749
 30
0.0
 10
203.8349614833
 20
28.2669487749
 30
0.0
 10
203.6452248915
 20
28.0005324294
 30
0.0
 10
203.6452248915
 20
27.6456595762
 30
0.0
 10
203.6452248915
 20
27.3059656504
 30
0.0
 10
203.8593001082
 20
27.0400727161
 30
0.0
 10
204.2114250521
 20
27.0400727161
 30
0.0
 10
204.4354450833
 20
27.0400727161
 30
0.0
 10
204.6376126933
 20
27.1557466107
 30
0.0
 10
204.7460896827
 20
27.3551663114
 30
0.0
 10
204.7460896827
 20
27.3551663114
 30
0.0
 10
204.558446736
 20
27.4619422141
 30
0.0
 10
204.558446736
 20
27.4619422141
 30
0.0
 10
204.4749626356
 20
27.3232382229
 30
0.0
 10
204.3837582186
 20
27.2373987716
 30
0.0
 10
204.2141729614
 20
27.2373987716
 30
0.0
 10
204.0021913898
 20
27.2373987716
 30
0.0
 10
203.8692449227
 20
27.4221629563
 30
0.0
 10
203.8668895719
 20
27.6189656005
 30
0.0
 10
203.8668895719
 20
27.6189656005
 30
0.0
 10
204.7460896827
 20
27.6189656005
 30
0.0
 10
204.7460896827
 20
27.6189656005
 30
0.0
  0
SPLINE
  5
22B
330
210
100
AcDbEntity
  8
0
  6
Continuous
 62
     7
100
AcDbSpline
 70
     3
 71
     3
 72
    14
 73
    10
 74
     0
 42
0.000000001
 43
0.0000001
 40
0.0
 40
0.0
 40
0.0
 40
0.0
 40
1.0
 40
1.0
 40
1.0
 40
2.0
 40
2.0
 40
2.0
 40
3.0
 40
3.0
 40
3.0
 40
3.0
 10
203.8789280315
 20
27.7864572126
 30
0.0
 10
203.9065379769
 20
27.9513317683
 30
0.0
 10
204.034381184
 20
28.0743334209
 30
0.0
 10
204.2065834977
 20
28.0743334209
 30
0.0
 10
204.3837582186
 20
28.0743334209
 30
0.0
 10
204.4972076153
 20
27.9586595263
 30
0.0
 10
204.5244250023
 20
27.7864572126
 30
0.0
 10
204.5244250023
 20
27.7864572126
 30
0.0
 10
203.8789280315
 20
27.7864572126
 30
0.0
 10
203.8789280315
 20
27.7864572126
 30
0.0
  0
SPLINE
  5
22C
330
210
100
AcDbEntity
  8
0
  6
Continuous
 62
     7
100
AcDbSpline
 70
     3
 71
     3
 72
    20
 73
    16
 74
     0
 42
0.000000001
 43
0.0000001
 40
0.0
 40
0.0
 40
0.0
 40
0.0
 40
1.0
 40
1.0
 40
1.0
 40
2.0
 40
2.0
 40
2.0
 40
3.0
 40
3.0
 40
3.0
 40
4.0
 40
4.0
 40
4.0
 40
5.0
 40
5.0
 40
5.0
 40
5.0
 10
206.7701211329
 20
27.9958217278
 30
0.0
 10
206.7701211329
 20
27.9958217278
 30
0.0
 10
207.1812606995
 20
27.4933468914
 30
0.0
 10
207.1812606995
 20
27.4933468914
 30
0.0
 10
207.0651942464
 20
27.3776729968
 30
0.0
 10
206.9274062249
 20
27.2473435861
 30
0.0
 10
206.7554656168
 20
27.2473435861
 30
0.0
 10
206.5780291902
 20
27.2473435861
 30
0.0
 10
206.4105375781
 20
27.4116947305
 30
0.0
 10
206.4105375781
 20
27.5886077458
 30
0.0
 10
206.4105375781
 20
27.7665675837
 30
0.0
 10
206.6202946517
 20
27.8927097041
 30
0.0
 10
206.7478761531
 20
27.9806428004
 30
0.0
 10
206.7478761531
 20
27.9806428004
 30
0.0
 10
206.7701211329
 20
27.9958217278
 30
0.0
 10
206.7701211329
 20
27.9958217278
 30
0.0
  0
SPLINE
  5
22D
330
210
100
AcDbEntity
  8
0
  6
Continuous
 62
     7
100
AcDbSpline
 70
     3
 71
     3
 72
    23
 73
    19
 74
     0
 42
0.000000001
 43
0.0000001
 40
0.0
 40
0.0
 40
0.0
 40
0.0
 40
1.0
 40
1.0
 40
1.0
 40
2.0
 40
2.0
 40
2.0
 40
3.0
 40
3.0
 40
3.0
 40
4.0
 40
4.0
 40
4.0
 40
5.0
 40
5.0
 40
5.0
 40
6.0
 40
6.0
 40
6.0
 40
6.0
 10
206.8194526468
 20
28.2868384038
 30
0.0
 10
206.8194526468
 20
28.2868384038
 30
0.0
 10
206.7578209676
 20
28.365350097
 30
0.0
 10
206.7578209676
 20
28.365350097
 30
0.0
 10
206.703909605
 20
28.4339169757
 30
0.0
 10
206.6471194802
 20
28.5030072657
 30
0.0
 10
206.6471194802
 20
28.5966978862
 30
0.0
 10
206.6471194802
 20
28.7155122486
 30
0.0
 10
206.7430345987
 20
28.7929771192
 30
0.0
 10
206.8539977918
 20
28.7929771192
 30
0.0
 10
206.97726115
 20
28.7929771192
 30
0.0
 10
207.0705592121
 20
28.721793184
 30
0.0
 10
207.0705592121
 20
28.5914637734
 30
0.0
 10
207.0705592121
 20
28.4564236611
 30
0.0
 10
206.9424542994
 20
28.3800056131
 30
0.0
 10
206.8488945317
 20
28.3062046215
 30
0.0
 10
206.8488945317
 20
28.3062046215
 30
0.0
 10
206.8194526468
 20
28.2868384038
 30
0.0
 10
206.8194526468
 20
28.2868384038
 30
0.0
  0
SPLINE
  5
22E
330
210
100
AcDbEntity
  8
0
  6
Continuous
 62
     7
100
AcDbSpline
 70
     3
 71
     3
 72
    50
 73
    46
 74
     0
 42
0.000000001
 43
0.0000001
 40
0.0
 40
0.0
 40
0.0
 40
0.0
 40
1.0
 40
1.0
 40
1.0
 40
2.0
 40
2.0
 40
2.0
 40
3.0
 40
3.0
 40
3.0
 40
4.0
 40
4.0
 40
4.0
 40
5.0
 40
5.0
 40
5.0
 40
6.0
 40
6.0
 40
6.0
 40
7.0
 40
7.0
 40
7.0
 40
8.0
 40
8.0
 40
8.0
 40
9.0
 40
9.0
 40
9.0
 40
10.0
 40
10.0
 40
10.0
 40
11.0
 40
11.0
 40
11.0
 40
12.0
 40
12.0
 40
12.0
 40
13.0
 40
13.0
 40
13.0
 40
14.0
 40
14.0
 40
14.0
 40
15.0
 40
15.0
 40
15.0
 40
15.0
 10
207.5216088894
 20
27.079851974
 30
0.0
 10
207.5216088894
 20
27.079851974
 30
0.0
 10
207.8069988941
 20
27.079851974
 30
0.0
 10
207.8069988941
 20
27.079851974
 30
0.0
 10
207.8069988941
 20
27.079851974
 30
0.0
 10
207.4746327263
 20
27.490729835
 30
0.0
 10
207.4746327263
 20
27.490729835
 30
0.0
 10
207.4746327263
 20
27.490729835
 30
0.0
 10
207.7011389612
 20
27.7566227692
 30
0.0
 10
207.7011389612
 20
27.7566227692
 30
0.0
 10
207.7011389612
 20
27.7566227692
 30
0.0
 10
207.5528827139
 20
27.9094588653
 30
0.0
 10
207.5528827139
 20
27.9094588653
 30
0.0
 10
207.5528827139
 20
27.9094588653
 30
0.0
 10
207.3369755576
 20
27.6582214471
 30
0.0
 10
207.3369755576
 20
27.6582214471
 30
0.0
 10
207.3369755576
 20
27.6582214471
 30
0.0
 10
206.9499129103
 20
28.1261511384
 30
0.0
 10
206.9499129103
 20
28.1261511384
 30
0.0
 10
207.1053660628
 20
28.2402547992
 30
0.0
 10
207.2876440438
 20
28.3800056131
 30
0.0
 10
207.2876440438
 20
28.5893701282
 30
0.0
 10
207.2876440438
 20
28.8332797884
 30
0.0
 10
207.0856072866
 20
28.9766944812
 30
0.0
 10
206.8591010518
 20
28.9766944812
 30
0.0
 10
206.614929686
 20
28.9766944812
 30
0.0
 10
206.4305580599
 20
28.8259520303
 30
0.0
 10
206.4305580599
 20
28.5694804993
 30
0.0
 10
206.4305580599
 20
28.4119337016
 30
0.0
 10
206.5292210876
 20
28.2742765329
 30
0.0
 10
206.6345576093
 20
28.1633133399
 30
0.0
 10
206.6345576093
 20
28.1633133399
 30
0.0
 10
206.5190145675
 20
28.0795675338
 30
0.0
 10
206.5190145675
 20
28.0795675338
 30
0.0
 10
206.3413164353
 20
27.9513317683
 30
0.0
 10
206.1939761577
 20
27.8236194141
 30
0.0
 10
206.1939761577
 20
27.5865141007
 30
0.0
 10
206.1939761577
 20
27.2661863925
 30
0.0
 10
206.452541334
 20
27.0400727161
 30
0.0
 10
206.7629242277
 20
27.0400727161
 30
0.0
 10
206.9818409988
 20
27.0400727161
 30
0.0
 10
207.1790362015
 20
27.1651680139
 30
0.0
 10
207.3193104267
 20
27.3310893922
 30
0.0
 10
207.3193104267
 20
27.3310893922
 30
0.0
 10
207.5216088894
 20
27.079851974
 30
0.0
 10
207.5216088894
 20
27.079851974
 30
0.0
  0
LWPOLYLINE
  5
22F
330
210
100
AcDbEntity
  8
0
  6
Continuous
 62
     7
100
AcDbPolyline
 90
        2
 70
     0
 43
0.2
 10
209.457053
 20
28.936392
 10
209.225705
 20
28.936392
  0
LWPOLYLINE
  5
230
330
210
100
AcDbEntity
  8
0
  6
Continuous
 62
     7
100
AcDbPolyline
 90
        2
 70
     0
 43
0.2
 10
209.225705
 20
28.936392
 10
209.225705
 20
27.079329
  0
LWPOLYLINE
  5
231
330
210
100
AcDbEntity
  8
0
  6
Continuous
 62
     7
100
AcDbPolyline
 90
        2
 70
     0
 43
0.2
 10
209.225705
 20
27.079329
 10
210.021029
 20
27.079329
  0
LWPOLYLINE
  5
232
330
210
100
AcDbEntity
  8
0
  6
Continuous
 62
     7
100
AcDbPolyline
 90
        2
 70
     0
 43
0.2
 10
210.021029
 20
27.079329
 10
210.021029
 20
27.29131
  0
LWPOLYLINE
  5
233
330
210
100
AcDbEntity
  8
0
  6
Continuous
 62
     7
100
AcDbPolyline
 90
        2
 70
     0
 43
0.2
 10
210.021029
 20
27.29131
 10
209.457053
 20
27.29131
  0
LWPOLYLINE
  5
234
330
210
100
AcDbEntity
  8
0
  6
Continuous
 62
     7
100
AcDbPolyline
 90
        2
 70
     0
 43
0.2
 10
209.457053
 20
27.29131
 10
209.457053
 20
28.936392
  0
LWPOLYLINE
  5
235
330
210
100
AcDbEntity
  8
0
  6
Continuous
 62
     7
100
AcDbPolyline
 90
        2
 70
     0
 43
0.2
 10
211.700132
 20
28.23188
 10
211.478991
 20
28.23188
  0
LWPOLYLINE
  5
236
330
210
100
AcDbEntity
  8
0
  6
Continuous
 62
     7
100
AcDbPolyline
 90
        2
 70
     0
 43
0.2
 10
211.478991
 20
28.23188
 10
211.478991
 20
27.079852
  0
LWPOLYLINE
  5
237
330
210
100
AcDbEntity
  8
0
  6
Continuous
 62
     7
100
AcDbPolyline
 90
        2
 70
     0
 43
0.2
 10
211.478991
 20
27.079852
 10
211.700132
 20
27.079852
  0
LWPOLYLINE
  5
238
330
210
100
AcDbEntity
  8
0
  6
Continuous
 62
     7
100
AcDbPolyline
 90
        2
 70
     0
 43
0.2
 10
211.700132
 20
27.079852
 10
211.700132
 20
28.23188
  0
SPLINE
  5
239
330
210
100
AcDbEntity
  8
0
  6
Continuous
 62
     7
100
AcDbSpline
 70
     3
 71
     3
 72
    17
 73
    13
 74
     0
 42
0.000000001
 43
0.0000001
 40
0.0
 40
0.0
 40
0.0
 40
0.0
 40
1.0
 40
1.0
 40
1.0
 40
2.0
 40
2.0
 40
2.0
 40
3.0
 40
3.0
 40
3.0
 40
4.0
 40
4.0
 40
4.0
 40
4.0
 10
211.5896922716
 20
28.914408538
 30
0.0
 10
211.5056847599
 20
28.914408538
 30
0.0
 10
211.4371178812
 20
28.845318248
 30
0.0
 10
211.4371178812
 20
28.7594787968
 30
0.0
 10
211.4371178812
 20
28.6752095794
 30
0.0
 10
211.5056847599
 20
28.6092597572
 30
0.0
 10
211.5896922716
 20
28.6092597572
 30
0.0
 10
211.6734380776
 20
28.6092597572
 30
0.0
 10
211.742266662
 20
28.6752095794
 30
0.0
 10
211.742266662
 20
28.7594787968
 30
0.0
 10
211.742266662
 20
28.845318248
 30
0.0
 10
211.6734380776
 20
28.914408538
 30
0.0
 10
211.5896922716
 20
28.914408538
 30
0.0
  0
SPLINE
  5
23A
330
210
100
AcDbEntity
  8
0
  6
Continuous
 62
     7
100
AcDbSpline
 70
     3
 71
     3
 72
    17
 73
    13
 74
     0
 42
0.000000001
 43
0.0000001
 40
0.0
 40
0.0
 40
0.0
 40
0.0
 40
1.0
 40
1.0
 40
1.0
 40
2.0
 40
2.0
 40
2.0
 40
3.0
 40
3.0
 40
3.0
 40
4.0
 40
4.0
 40
4.0
 40
4.0
 10
213.830415995
 20
27.2373987716
 30
0.0
 10
213.5964511493
 20
27.2373987716
 30
0.0
 10
213.4661217386
 20
27.4394355288
 30
0.0
 10
213.4661217386
 20
27.6556043907
 30
0.0
 10
213.4661217386
 20
27.8702030187
 30
0.0
 10
213.6019469678
 20
28.0690993081
 30
0.0
 10
213.830415995
 20
28.0690993081
 30
0.0
 10
214.0698766592
 20
28.0690993081
 30
0.0
 10
214.2054401827
 20
27.8801478331
 30
0.0
 10
214.2054401827
 20
27.6556043907
 30
0.0
 10
214.2054401827
 20
27.4294907143
 30
0.0
 10
214.0722320099
 20
27.2373987716
 30
0.0
 10
213.830415995
 20
27.2373987716
 30
0.0
  0
SPLINE
  5
23B
330
210
100
AcDbEntity
  8
0
  6
Continuous
 62
     7
100
AcDbSpline
 70
     3
 71
     3
 72
    50
 73
    46
 74
     0
 42
0.000000001
 43
0.0000001
 40
0.0
 40
0.0
 40
0.0
 40
0.0
 40
1.0
 40
1.0
 40
1.0
 40
2.0
 40
2.0
 40
2.0
 40
3.0
 40
3.0
 40
3.0
 40
4.0
 40
4.0
 40
4.0
 40
5.0
 40
5.0
 40
5.0
 40
6.0
 40
6.0
 40
6.0
 40
7.0
 40
7.0
 40
7.0
 40
8.0
 40
8.0
 40
8.0
 40
9.0
 40
9.0
 40
9.0
 40
10.0
 40
10.0
 40
10.0
 40
11.0
 40
11.0
 40
11.0
 40
12.0
 40
12.0
 40
12.0
 40
13.0
 40
13.0
 40
13.0
 40
14.0
 40
14.0
 40
14.0
 40
15.0
 40
15.0
 40
15.0
 40
15.0
 10
214.4145429922
 20
28.2324036299
 30
0.0
 10
214.4145429922
 20
28.2324036299
 30
0.0
 10
214.1928783118
 20
28.2324036299
 30
0.0
 10
214.1928783118
 20
28.2324036299
 30
0.0
 10
214.1928783118
 20
28.2324036299
 30
0.0
 10
214.1928783118
 20
28.0350775744
 30
0.0
 10
214.1928783118
 20
28.0350775744
 30
0.0
 10
214.1928783118
 20
28.0350775744
 30
0.0
 10
214.1881676102
 20
28.0350775744
 30
0.0
 10
214.1881676102
 20
28.0350775744
 30
0.0
 10
214.0968323405
 20
28.1779688559
 30
0.0
 10
213.9589134661
 20
28.2664253636
 30
0.0
 10
213.7861877411
 20
28.2664253636
 30
0.0
 10
213.4538215733
 20
28.2664253636
 30
0.0
 10
213.2447187638
 20
27.9785491553
 30
0.0
 10
213.2447187638
 20
27.6629321487
 30
0.0
 10
213.2447187638
 20
27.3331830373
 30
0.0
 10
213.4417831137
 20
27.0400727161
 30
0.0
 10
213.7966559669
 20
27.0400727161
 30
0.0
 10
213.9589134661
 20
27.0400727161
 30
0.0
 10
214.0989259856
 20
27.1285292238
 30
0.0
 10
214.1881676102
 20
27.2593820457
 30
0.0
 10
214.1881676102
 20
27.2593820457
 30
0.0
 10
214.1928783118
 20
27.2593820457
 30
0.0
 10
214.1928783118
 20
27.2593820457
 30
0.0
 10
214.1928783118
 20
27.2593820457
 30
0.0
 10
214.1928783118
 20
27.0400727161
 30
0.0
 10
214.1928783118
 20
27.0400727161
 30
0.0
 10
214.1928783118
 20
26.803490814
 30
0.0
 10
214.1363498927
 20
26.6166329842
 30
0.0
 10
213.8631292004
 20
26.6166329842
 30
0.0
 10
213.6608307377
 20
26.6166329842
 30
0.0
 10
213.5182011617
 20
26.7349239353
 30
0.0
 10
213.5182011617
 20
26.9411479827
 30
0.0
 10
213.5182011617
 20
26.9411479827
 30
0.0
 10
213.2965364813
 20
26.9411479827
 30
0.0
 10
213.2965364813
 20
26.9411479827
 30
0.0
 10
213.3015088886
 20
26.6166329842
 30
0.0
 10
213.5325949722
 20
26.41983034
 30
0.0
 10
213.8529226803
 20
26.41983034
 30
0.0
 10
214.3009627427
 20
26.41983034
 30
0.0
 10
214.4145429922
 20
26.7050894919
 30
0.0
 10
214.4145429922
 20
27.1018352481
 30
0.0
 10
214.4145429922
 20
27.1018352481
 30
0.0
 10
214.4145429922
 20
28.2324036299
 30
0.0
 10
214.4145429922
 20
28.2324036299
 30
0.0
  0
SPLINE
  5
23C
330
210
100
AcDbEntity
  8
0
  6
Continuous
 62
     7
100
AcDbSpline
 70
     3
 71
     3
 72
    44
 73
    40
 74
     0
 42
0.000000001
 43
0.0000001
 40
0.0
 40
0.0
 40
0.0
 40
0.0
 40
1.0
 40
1.0
 40
1.0
 40
2.0
 40
2.0
 40
2.0
 40
3.0
 40
3.0
 40
3.0
 40
4.0
 40
4.0
 40
4.0
 40
5.0
 40
5.0
 40
5.0
 40
6.0
 40
6.0
 40
6.0
 40
7.0
 40
7.0
 40
7.0
 40
8.0
 40
8.0
 40
8.0
 40
9.0
 40
9.0
 40
9.0
 40
10.0
 40
10.0
 40
10.0
 40
11.0
 40
11.0
 40
11.0
 40
12.0
 40
12.0
 40
12.0
 40
13.0
 40
13.0
 40
13.0
 40
13.0
 10
215.9834683276
 20
29.2174636737
 30
0.0
 10
215.9834683276
 20
29.2174636737
 30
0.0
 10
215.9834683276
 20
27.0793285627
 30
0.0
 10
215.9834683276
 20
27.0793285627
 30
0.0
 10
215.9834683276
 20
27.0793285627
 30
0.0
 10
216.2048713024
 20
27.0793285627
 30
0.0
 10
216.2048713024
 20
27.0793285627
 30
0.0
 10
216.2048713024
 20
27.0793285627
 30
0.0
 10
216.2048713024
 20
27.609020786
 30
0.0
 10
216.2048713024
 20
27.609020786
 30
0.0
 10
216.2048713024
 20
27.8189087125
 30
0.0
 10
216.2048713024
 20
28.0696227194
 30
0.0
 10
216.4901304543
 20
28.0696227194
 30
0.0
 10
216.7170292476
 20
28.0696227194
 30
0.0
 10
216.7439849289
 20
27.9366762522
 30
0.0
 10
216.7439849289
 20
27.7403970193
 30
0.0
 10
216.7439849289
 20
27.7403970193
 30
0.0
 10
216.7439849289
 20
27.0793285627
 30
0.0
 10
216.7439849289
 20
27.0793285627
 30
0.0
 10
216.7439849289
 20
27.0793285627
 30
0.0
 10
216.9659113149
 20
27.0793285627
 30
0.0
 10
216.9659113149
 20
27.0793285627
 30
0.0
 10
216.9659113149
 20
27.0793285627
 30
0.0
 10
216.9659113149
 20
27.7665675837
 30
0.0
 10
216.9659113149
 20
27.7665675837
 30
0.0
 10
216.9659113149
 20
28.047116034
 30
0.0
 10
216.8819038032
 20
28.2669487749
 30
0.0
 10
216.5568653935
 20
28.2669487749
 30
0.0
 10
216.4171145796
 20
28.2669487749
 30
0.0
 10
216.2789339996
 20
28.2004755413
 30
0.0
 10
216.209582004
 20
28.0774738887
 30
0.0
 10
216.209582004
 20
28.0774738887
 30
0.0
 10
216.2048713024
 20
28.0774738887
 30
0.0
 10
216.2048713024
 20
28.0774738887
 30
0.0
 10
216.2048713024
 20
28.0774738887
 30
0.0
 10
216.2048713024
 20
29.2174636737
 30
0.0
 10
216.2048713024
 20
29.2174636737
 30
0.0
 10
216.2048713024
 20
29.2174636737
 30
0.0
 10
215.9834683276
 20
29.2174636737
 30
0.0
 10
215.9834683276
 20
29.2174636737
 30
0.0
  0
LWPOLYLINE
  5
23D
330
210
100
AcDbEntity
  8
0
  6
Continuous
 62
     7
100
AcDbPolyline
 90
        2
 70
     0
 43
0.2
 10
218.805702
 20
28.025133
 10
219.022133
 20
28.025133
  0
LWPOLYLINE
  5
23E
330
210
100
AcDbEntity
  8
0
  6
Continuous
 62
     7
100
AcDbPolyline
 90
        2
 70
     0
 43
0.2
 10
219.022133
 20
28.025133
 10
219.022133
 20
28.23188
  0
LWPOLYLINE
  5
23F
330
210
100
AcDbEntity
  8
0
  6
Continuous
 62
     7
100
AcDbPolyline
 90
        2
 70
     0
 43
0.2
 10
219.022133
 20
28.23188
 10
218.805702
 20
28.23188
  0
LWPOLYLINE
  5
240
330
210
100
AcDbEntity
  8
0
  6
Continuous
 62
     7
100
AcDbPolyline
 90
        2
 70
     0
 43
0.2
 10
218.805702
 20
28.23188
 10
218.805702
 20
28.672593
  0
LWPOLYLINE
  5
241
330
210
100
AcDbEntity
  8
0
  6
Continuous
 62
     7
100
AcDbPolyline
 90
        2
 70
     0
 43
0.2
 10
218.805702
 20
28.672593
 10
218.584037
 20
28.672593
  0
LWPOLYLINE
  5
242
330
210
100
AcDbEntity
  8
0
  6
Continuous
 62
     7
100
AcDbPolyline
 90
        2
 70
     0
 43
0.2
 10
218.584037
 20
28.672593
 10
218.584037
 20
28.23188
  0
LWPOLYLINE
  5
243
330
210
100
AcDbEntity
  8
0
  6
Continuous
 62
     7
100
AcDbPolyline
 90
        2
 70
     0
 43
0.2
 10
218.584037
 20
28.23188
 10
218.463391
 20
28.23188
  0
LWPOLYLINE
  5
244
330
210
100
AcDbEntity
  8
0
  6
Continuous
 62
     7
100
AcDbPolyline
 90
        2
 70
     0
 43
0.2
 10
218.463391
 20
28.23188
 10
218.463391
 20
28.025133
  0
LWPOLYLINE
  5
245
330
210
100
AcDbEntity
  8
0
  6
Continuous
 62
     7
100
AcDbPolyline
 90
        2
 70
     0
 43
0.2
 10
218.463391
 20
28.025133
 10
218.584037
 20
28.025133
  0
LWPOLYLINE
  5
246
330
210
100
AcDbEntity
  8
0
  6
Continuous
 62
     7
100
AcDbPolyline
 90
        2
 70
     0
 43
0.2
 10
218.584037
 20
28.025133
 10
218.584037
 20
27.079329
  0
LWPOLYLINE
  5
247
330
210
100
AcDbEntity
  8
0
  6
Continuous
 62
     7
100
AcDbPolyline
 90
        2
 70
     0
 43
0.2
 10
218.584037
 20
27.079329
 10
218.805702
 20
27.079329
  0
LWPOLYLINE
  5
248
330
210
100
AcDbEntity
  8
0
  6
Continuous
 62
     7
100
AcDbPolyline
 90
        2
 70
     0
 43
0.2
 10
218.805702
 20
27.079329
 10
218.805702
 20
28.025133
  0
SPLINE
  5
249
330
210
100
AcDbEntity
  8
0
  6
Continuous
 62
     7
100
AcDbSpline
 70
     3
 71
     3
 72
    20
 73
    16
 74
     0
 42
0.000000001
 43
0.0000001
 40
0.0
 40
0.0
 40
0.0
 40
0.0
 40
1.0
 40
1.0
 40
1.0
 40
2.0
 40
2.0
 40
2.0
 40
3.0
 40
3.0
 40
3.0
 40
4.0
 40
4.0
 40
4.0
 40
5.0
 40
5.0
 40
5.0
 40
5.0
 10
206.587712299
 20
37.4402550061
 30
0.0
 10
206.587712299
 20
37.4402550061
 30
0.0
 10
208.9040689535
 20
34.6106935839
 30
0.0
 10
208.9040689535
 20
34.6106935839
 30
0.0
 10
208.2524219001
 20
33.9585231192
 30
0.0
 10
207.4755486961
 20
33.2226068484
 30
0.0
 10
206.5043590515
 20
33.2226068484
 30
0.0
 10
205.505821167
 20
33.2226068484
 30
0.0
 10
204.5625031735
 20
34.1521852957
 30
0.0
 10
204.5625031735
 20
35.1513774442
 30
0.0
 10
204.5625031735
 20
36.1505695928
 30
0.0
 10
205.7413562466
 20
36.8571748314
 30
0.0
 10
206.4628787069
 20
37.3570326113
 30
0.0
 10
206.4628787069
 20
37.3570326113
 30
0.0
 10
206.587712299
 20
37.4402550061
 30
0.0
 10
206.587712299
 20
37.4402550061
 30
0.0
  0
SPLINE
  5
24A
330
210
100
AcDbEntity
  8
0
  6
Continuous
 62
     7
100
AcDbSpline
 70
     3
 71
     3
 72
    23
 73
    19
 74
     0
 42
0.000000001
 43
0.0000001
 40
0.0
 40
0.0
 40
0.0
 40
0.0
 40
1.0
 40
1.0
 40
1.0
 40
2.0
 40
2.0
 40
2.0
 40
3.0
 40
3.0
 40
3.0
 40
4.0
 40
4.0
 40
4.0
 40
5.0
 40
5.0
 40
5.0
 40
6.0
 40
6.0
 40
6.0
 40
6.0
 10
206.8651202816
 20
39.0780089258
 30
0.0
 10
206.8651202816
 20
39.0780089258
 30
0.0
 10
206.518622009
 20
39.5213382867
 30
0.0
 10
206.518622009
 20
39.5213382867
 30
0.0
 10
206.2128189641
 20
39.9094477566
 30
0.0
 10
205.893930637
 20
40.297949785
 30
0.0
 10
205.893930637
 20
40.8248940991
 30
0.0
 10
205.893930637
 20
41.4910658157
 30
0.0
 10
206.4352687615
 20
41.934787735
 30
0.0
 10
207.0591750166
 20
41.934787735
 30
0.0
 10
207.7529566787
 20
41.934787735
 30
0.0
 10
208.2801626984
 20
41.5325461603
 30
0.0
 10
208.2801626984
 20
40.7975458593
 30
0.0
 10
208.2801626984
 20
40.0342813488
 30
0.0
 10
207.5589019437
 20
39.604168123
 30
0.0
 10
207.0318267768
 20
39.1884487076
 30
0.0
 10
207.0318267768
 20
39.1884487076
 30
0.0
 10
206.8651202816
 20
39.0780089258
 30
0.0
 10
206.8651202816
 20
39.0780089258
 30
0.0
  0
SPLINE
  5
24B
330
210
100
AcDbEntity
  8
0
  6
Continuous
 62
     7
100
AcDbSpline
 70
     3
 71
     3
 72
    50
 73
    46
 74
     0
 42
0.000000001
 43
0.0000001
 40
0.0
 40
0.0
 40
0.0
 40
0.0
 40
1.0
 40
1.0
 40
1.0
 40
2.0
 40
2.0
 40
2.0
 40
3.0
 40
3.0
 40
3.0
 40
4.0
 40
4.0
 40
4.0
 40
5.0
 40
5.0
 40
5.0
 40
6.0
 40
6.0
 40
6.0
 40
7.0
 40
7.0
 40
7.0
 40
8.0
 40
8.0
 40
8.0
 40
9.0
 40
9.0
 40
9.0
 40
10.0
 40
10.0
 40
10.0
 40
11.0
 40
11.0
 40
11.0
 40
12.0
 40
12.0
 40
12.0
 40
13.0
 40
13.0
 40
13.0
 40
14.0
 40
14.0
 40
14.0
 40
15.0
 40
15.0
 40
15.0
 40
15.0
 10
210.8187074445
 20
32.2794197077
 30
0.0
 10
210.8187074445
 20
32.2794197077
 30
0.0
 10
212.4279354491
 20
32.2794197077
 30
0.0
 10
212.4279354491
 20
32.2794197077
 30
0.0
 10
212.4279354491
 20
32.2794197077
 30
0.0
 10
210.5549081555
 20
34.5965614791
 30
0.0
 10
210.5549081555
 20
34.5965614791
 30
0.0
 10
210.5549081555
 20
34.5965614791
 30
0.0
 10
211.8312465809
 20
36.0940411737
 30
0.0
 10
211.8312465809
 20
36.0940411737
 30
0.0
 10
211.8312465809
 20
36.0940411737
 30
0.0
 10
210.9990226332
 20
36.9550527422
 30
0.0
 10
210.9990226332
 20
36.9550527422
 30
0.0
 10
210.9990226332
 20
36.9550527422
 30
0.0
 10
209.7784275099
 20
35.5397486198
 30
0.0
 10
209.7784275099
 20
35.5397486198
 30
0.0
 10
209.7784275099
 20
35.5397486198
 30
0.0
 10
207.6005131411
 20
38.1751244543
 30
0.0
 10
207.6005131411
 20
38.1751244543
 30
0.0
 10
208.4740865805
 20
38.8131628142
 30
0.0
 10
209.5007578217
 20
39.604168123
 30
0.0
 10
209.5007578217
 20
40.7830211961
 30
0.0
 10
209.5007578217
 20
42.1567141211
 30
0.0
 10
208.3628616819
 20
42.9611972706
 30
0.0
 10
207.087570079
 20
42.9611972706
 30
0.0
 10
205.7141388596
 20
42.9611972706
 30
0.0
 10
204.6732046608
 20
42.1149720709
 30
0.0
 10
204.6732046608
 20
40.6723197087
 30
0.0
 10
204.6732046608
 20
39.7847450173
 30
0.0
 10
205.2285440373
 20
39.0078718133
 30
0.0
 10
205.8247094942
 20
38.3834421468
 30
0.0
 10
205.8247094942
 20
38.3834421468
 30
0.0
 10
205.1728007351
 20
37.9118485765
 30
0.0
 10
205.1728007351
 20
37.9118485765
 30
0.0
 10
204.1742628507
 20
37.1905878218
 30
0.0
 10
203.3413846389
 20
36.4693270671
 30
0.0
 10
203.3413846389
 20
35.1377687508
 30
0.0
 10
203.3413846389
 20
33.3340934528
 30
0.0
 10
204.7984308115
 20
32.0574933216
 30
0.0
 10
206.5459702488
 20
32.0574933216
 30
0.0
 10
207.7808283297
 20
32.0574933216
 30
0.0
 10
208.8901985544
 20
32.7656687941
 30
0.0
 10
209.6810730104
 20
33.6942004188
 30
0.0
 10
209.6810730104
 20
33.6942004188
 30
0.0
 10
210.8187074445
 20
32.2794197077
 30
0.0
 10
210.8187074445
 20
32.2794197077
 30
0.0
  0
LINE
  5
24C
330
210
100
AcDbEntity
  8
0
  6
Continuous
 62
     7
100
AcDbLine
 10
196.621569
 20
30.253295
 30
0.0
 11
219.03548
 21
30.253295
 31
0.0
  0
LINE
  5
24D
330
210
100
AcDbEntity
  8
0
  6
Continuous
 62
     7
100
AcDbLine
 10
219.03548
 20
30.253295
 30
0.0
 11
219.03548
 21
52.667205
 31
0.0
  0
LINE
  5
24E
330
210
100
AcDbEntity
  8
0
  6
Continuous
 62
     7
100
AcDbLine
 10
219.03548
 20
52.667205
 30
0.0
 11
196.621569
 21
52.667205
 31
0.0
  0
LINE
  5
24F
330
210
100
AcDbEntity
  8
0
  6
Continuous
 62
     7
100
AcDbLine
 10
196.621569
 20
52.667205
 30
0.0
 11
196.621569
 21
30.253295
 31
0.0
  0
ENDBLK
  5
250
330
210
100
AcDbEntity
  8
0
  6
ByBlock
 62
     0
100
AcDbBlockEnd
  0
BLOCK
  5
285
330
211
100
AcDbEntity
  8
0
100
AcDbBlockBegin
  2
*T7
 70
     1
 10
0.0
 20
0.0
 30
0.0
  3
*T7
  1
*T7
  0
LINE
  5
286
330
211
100
AcDbEntity
  8
0
  6
Continuous
 62
     2
100
AcDbLine
 10
0.0
 20
0.0
 30
0.0
 11
90.0
 21
0.0
 31
0.0
  0
LINE
  5
287
330
211
100
AcDbEntity
  8
0
  6
Continuous
 62
     2
100
AcDbLine
 10
0.0
 20
0.0
 30
0.0
 11
0.0
 21
-40.0
 31
0.0
  0
LINE
  5
288
330
211
100
AcDbEntity
  8
0
  6
Continuous
 62
     2
100
AcDbLine
 10
30.0
 20
-6.0
 30
0.0
 11
90.0
 21
-6.0
 31
0.0
  0
LINE
  5
289
330
211
100
AcDbEntity
  8
0
  6
Continuous
 62
     2
100
AcDbLine
 10
30.0
 20
-12.0
 30
0.0
 11
90.0
 21
-12.0
 31
0.0
  0
LINE
  5
28A
330
211
100
AcDbEntity
  8
0
  6
Continuous
 62
     2
100
AcDbLine
 10
30.0
 20
-22.0
 30
0.0
 11
90.0
 21
-22.0
 31
0.0
  0
LINE
  5
28B
330
211
100
AcDbEntity
  8
0
  6
Continuous
 62
     2
100
AcDbLine
 10
0.0
 20
-27.0
 30
0.0
 11
90.0
 21
-27.0
 31
0.0
  0
LINE
  5
28C
330
211
100
AcDbEntity
  8
0
  6
Continuous
 62
     2
100
AcDbLine
 10
0.0
 20
-40.0
 30
0.0
 11
90.0
 21
-40.0
 31
0.0
  0
LINE
  5
28D
330
211
100
AcDbEntity
  8
0
  6
Continuous
 62
     2
100
AcDbLine
 10
30.0
 20
0.0
 30
0.0
 11
30.0
 21
-27.0
 31
0.0
  0
LINE
  5
28E
330
211
100
AcDbEntity
  8
0
  6
Continuous
 62
     2
100
AcDbLine
 10
70.0
 20
0.0
 30
0.0
 11
70.0
 21
-12.0
 31
0.0
  0
LINE
  5
28F
330
211
100
AcDbEntity
  8
0
  6
Continuous
 62
     2
100
AcDbLine
 10
90.0
 20
0.0
 30
0.0
 11
90.0
 21
-40.0
 31
0.0
  0
MTEXT
  5
290
330
211
100
AcDbEntity
  8
9_SOLID
  6
Continuous
 62
     2
100
AcDbMText
 10
31.4875
 20
-1.5
 30
0.0
 40
3.0
 41
48.142857
 46
0.0
 71
     1
 72
     1
  1
A050_C_003
  7
TEXTSTYLE_2
 73
     1
 44
0.9
  0
MTEXT
  5
291
330
211
100
AcDbEntity
  8
9_SOLID
  6
Continuous
 62
     2
100
AcDbMText
 10
71.4875
 20
-1.25
 30
0.0
 40
3.5
 41
30.333333
 46
0.0
 71
     1
 72
     1
  1
Rev:00
  7
TEXTSTYLE_2
 73
     1
 44
0.9
  0
MTEXT
  5
292
330
211
100
AcDbEntity
  8
9_SOLID
  6
Continuous
 62
     2
100
AcDbMText
 10
31.4875
 20
-7.75
 30
0.0
 40
3.5
 41
36.5
 46
0.0
 71
     1
 72
     1
  1
Scale:1:1
  7
TEXTSTYLE_2
 73
     1
 44
0.9
  0
MTEXT
  5
293
330
211
100
AcDbEntity
  8
9_SOLID
  6
Continuous
 62
     2
100
AcDbMText
 10
71.4875
 20
-7.25
 30
0.0
 40
3.5
 41
11.5
 46
0.0
 71
     1
 72
     1
  1
A4
  7
TEXTSTYLE_2
 73
     1
 44
0.9
  0
MTEXT
  5
294
330
211
100
AcDbEntity
  8
9_SOLID
  6
Continuous
 62
     2
100
AcDbMText
 10
31.4875
 20
-15.75
 30
0.0
 40
2.5
 41
111.785714
 46
0.0
 71
     1
 72
     1
  1
FRONTALE PIANO QUADRO COMBO2
  7
TEXTSTYLE_2
 73
     1
 44
0.9
  0
MTEXT
  5
295
330
211
100
AcDbEntity
  8
9_SOLID
  6
Continuous
 62
     2
100
AcDbMText
 10
31.4875
 20
-23.25
 30
0.0
 40
2.5
 41
44.404762
 46
0.0
 71
     1
 72
     1
  1
DATE:11.12.19
  7
TEXTSTYLE_2
 73
     1
 44
0.9
  0
MTEXT
  5
296
330
211
100
AcDbEntity
  8
9_SOLID
  6
Continuous
 62
     2
100
AcDbMText
 10
1.4875
 20
-27.3125
 30
0.0
 40
2.25
 41
178.607143
 46
0.0
 71
     1
 72
     1
  1
Any integral or partial reproductions are prohibited \Pwithout prior authorisation of L & L Luce & Light s.r.l., \Pin accordance with the law in force. \PAll rights reserved.
  7
TEXTSTYLE_2
 73
     1
 44
0.9
  0
ENDBLK
  5
297
330
211
100
AcDbEntity
  8
0
  6
ByBlock
 62
     0
100
AcDbBlockEnd
  0
ENDSEC
  0
SECTION
  2
ENTITIES
  0
LWPOLYLINE
  5
298
330
208
100
AcDbEntity
  8
0
  6
Continuous
 62
     7
100
AcDbPolyline
 90
        2
 70
     0
 43
0.5
 10
284.0
 20
13.0
 10
284.0
 20
197.0
  0
LWPOLYLINE
  5
299
330
208
100
AcDbEntity
  8
0
  6
Continuous
 62
     7
100
AcDbPolyline
 90
        2
 70
     0
 43
0.5
 10
13.0
 20
13.0
 10
13.0
 20
197.0
  0
LWPOLYLINE
  5
29A
330
208
100
AcDbEntity
  8
0
  6
Continuous
 62
     7
100
AcDbPolyline
 90
        2
 70
     0
 43
0.5
 10
13.0
 20
13.0
 10
284.0
 20
13.0
  0
LWPOLYLINE
  5
29B
330
208
100
AcDbEntity
  8
0
  6
Continuous
 62
     7
100
AcDbPolyline
 90
        2
 70
     0
 43
0.1
 10
148.5
 20
197.0
 10
148.5
 20
200.0
  0
LWPOLYLINE
  5
29C
330
208
100
AcDbEntity
  8
0
  6
Continuous
 62
     7
100
AcDbPolyline
 90
        2
 70
     0
 43
0.1
 10
284.0
 20
105.0
 10
287.0
 20
105.0
  0
LWPOLYLINE
  5
29D
330
208
100
AcDbEntity
  8
0
  6
Continuous
 62
     7
100
AcDbPolyline
 90
        2
 70
     0
 43
0.1
 10
13.0
 20
105.0
 10
10.0
 20
105.0
  0
LWPOLYLINE
  5
29E
330
208
100
AcDbEntity
  8
0
  6
Continuous
 62
     7
100
AcDbPolyline
 90
        2
 70
     0
 43
0.5
 10
13.0
 20
197.0
 10
284.0
 20
197.0
  0
LWPOLYLINE
  5
29F
330
208
100
AcDbEntity
  8
0
  6
Continuous
 62
     7
100
AcDbPolyline
 90
        2
 70
     0
 43
0.1
 10
10.0
 20
200.0
 10
287.0
 20
200.0
  0
LWPOLYLINE
  5
2A0
330
208
100
AcDbEntity
  8
0
  6
Continuous
 62
     7
100
AcDbPolyline
 90
        2
 70
     0
 43
0.1
 10
10.0
 20
10.0
 10
10.0
 20
200.0
  0
LWPOLYLINE
  5
2A1
330
208
100
AcDbEntity
  8
0
  6
Continuous
 62
     7
100
AcDbPolyline
 90
        2
 70
     0
 43
0.1
 10
287.0
 20
10.0
 10
287.0
 20
200.0
  0
LWPOLYLINE
  5
2A2
330
208
100
AcDbEntity
  8
0
  6
Continuous
 62
     7
100
AcDbPolyline
 90
        2
 70
     0
 43
0.1
 10
10.0
 20
10.0
 10
287.0
 20
10.0
  0
LWPOLYLINE
  5
2A3
330
208
100
AcDbEntity
  8
0
  6
Continuous
 62
     7
100
AcDbPolyline
 90
        2
 70
     0
 43
0.1
 10
148.5
 20
13.0
 10
148.5
 20
10.0
  0
ARC
  5
2A4
330
208
100
AcDbEntity
  8
7_ALL_FEATURES
  6
Continuous
 62
     7
100
AcDbCircle
 10
101.896062
 20
115.905617
 30
0.0
 40
0.75
100
AcDbArc
 50
270.0
 51
360.0
  0
ARC
  5
2A5
330
208
100
AcDbEntity
  8
7_ALL_FEATURES
  6
Continuous
 62
     7
100
AcDbCircle
 10
68.396062
 20
115.905617
 30
0.0
 40
0.75
100
AcDbArc
 50
180.0
 51
270.0
  0
ARC
  5
2A6
330
208
100
AcDbEntity
  8
7_ALL_FEATURES
  6
Continuous
 62
     7
100
AcDbCircle
 10
101.896062
 20
149.405617
 30
0.0
 40
0.75
100
AcDbArc
 50
0.0
 51
90.0
  0
ARC
  5
2A7
330
208
100
AcDbEntity
  8
7_ALL_FEATURES
  6
Continuous
 62
     7
100
AcDbCircle
 10
68.396062
 20
149.405617
 30
0.0
 40
0.75
100
AcDbArc
 50
90.0
 51
180.0
  0
LINE
  5
2A8
330
208
100
AcDbEntity
  8
7_ALL_FEATURES
  6
Continuous
 62
     7
100
AcDbLine
 10
67.646062
 20
115.905617
 30
0.0
 11
67.646062
 21
149.405617
 31
0.0
  0
LINE
  5
2A9
330
208
100
AcDbEntity
  8
7_ALL_FEATURES
  6
Continuous
 62
     7
100
AcDbLine
 10
101.896062
 20
115.155617
 30
0.0
 11
68.396062
 21
115.155617
 31
0.0
  0
LINE
  5
2AA
330
208
100
AcDbEntity
  8
7_ALL_FEATURES
  6
Continuous
 62
     7
100
AcDbLine
 10
102.646062
 20
149.405617
 30
0.0
 11
102.646062
 21
115.905617
 31
0.0
  0
LINE
  5
2AB
330
208
100
AcDbEntity
  8
7_ALL_FEATURES
  6
Continuous
 62
     7
100
AcDbLine
 10
68.396062
 20
150.155617
 30
0.0
 11
101.896062
 21
150.155617
 31
0.0
  0
ARC
  5
2AC
330
208
100
AcDbEntity
  8
7_ALL_FEATURES
  6
Continuous
 62
     7
100
AcDbCircle
 10
126.646062
 20
174.155617
 30
0.0
 40
1.0
100
AcDbArc
 50
0.0
 51
90.0
  0
ARC
  5
2AD
330
208
100
AcDbEntity
  8
7_ALL_FEATURES
  6
Continuous
 62
     7
100
AcDbCircle
 10
126.646062
 20
91.155617
 30
0.0
 40
1.0
100
AcDbArc
 50
270.0
 51
360.0
  0
ARC
  5
2AE
330
208
100
AcDbEntity
  8
7_ALL_FEATURES
  6
Continuous
 62
     7
100
AcDbCircle
 10
43.646062
 20
91.155617
 30
0.0
 40
1.0
100
AcDbArc
 50
180.0
 51
270.0
  0
ARC
  5
2AF
330
208
100
AcDbEntity
  8
7_ALL_FEATURES
  6
Continuous
 62
     7
100
AcDbCircle
 10
43.646062
 20
174.155617
 30
0.0
 40
1.0
100
AcDbArc
 50
90.0
 51
180.0
  0
LINE
  5
2B0
330
208
100
AcDbEntity
  8
7_ALL_FEATURES
  6
Continuous
 62
     7
100
AcDbLine
 10
126.646062
 20
90.155617
 30
0.0
 11
43.646062
 21
90.155617
 31
0.0
  0
LINE
  5
2B1
330
208
100
AcDbEntity
  8
7_ALL_FEATURES
  6
Continuous
 62
     7
100
AcDbLine
 10
127.646062
 20
174.155617
 30
0.0
 11
127.646062
 21
91.155617
 31
0.0
  0
LINE
  5
2B2
330
208
100
AcDbEntity
  8
7_ALL_FEATURES
  6
Continuous
 62
     7
100
AcDbLine
 10
43.646062
 20
175.155617
 30
0.0
 11
126.646062
 21
175.155617
 31
0.0
  0
LINE
  5
2B3
330
208
100
AcDbEntity
  8
7_ALL_FEATURES
  6
Continuous
 62
     7
100
AcDbLine
 10
42.646062
 20
91.155617
 30
0.0
 11
42.646062
 21
174.155617
 31
0.0
  0
LINE
  5
2B4
330
208
100
AcDbEntity
  8
7_ALL_FEATURES
  6
Continuous
 62
     9
100
AcDbLine
 10
126.806773
 20
174.155617
 30
0.0
 11
127.556516
 21
174.155617
 31
0.0
  0
LINE
  5
2B5
330
208
100
AcDbEntity
  8
7_ALL_FEATURES
  6
Continuous
 62
     9
100
AcDbLine
 10
126.806773
 20
91.155617
 30
0.0
 11
127.556516
 21
91.155617
 31
0.0
  0
LINE
  5
2B6
330
208
100
AcDbEntity
  8
7_ALL_FEATURES
  6
Continuous
 62
     9
100
AcDbLine
 10
126.646062
 20
90.994906
 30
0.0
 11
126.646062
 21
90.245163
 31
0.0
  0
LINE
  5
2B7
330
208
100
AcDbEntity
  8
7_ALL_FEATURES
  6
Continuous
 62
     9
100
AcDbLine
 10
43.646062
 20
90.994906
 30
0.0
 11
43.646062
 21
90.245163
 31
0.0
  0
LINE
  5
2B8
330
208
100
AcDbEntity
  8
7_ALL_FEATURES
  6
Continuous
 62
     9
100
AcDbLine
 10
43.485351
 20
91.155617
 30
0.0
 11
42.735608
 21
91.155617
 31
0.0
  0
LINE
  5
2B9
330
208
100
AcDbEntity
  8
7_ALL_FEATURES
  6
Continuous
 62
     9
100
AcDbLine
 10
43.485351
 20
174.155617
 30
0.0
 11
42.735608
 21
174.155617
 31
0.0
  0
LINE
  5
2BA
330
208
100
AcDbEntity
  8
7_ALL_FEATURES
  6
Continuous
 62
     9
100
AcDbLine
 10
43.646062
 20
174.316327
 30
0.0
 11
43.646062
 21
175.06607
 31
0.0
  0
LINE
  5
2BB
330
208
100
AcDbEntity
  8
7_ALL_FEATURES
  6
Continuous
 62
     9
100
AcDbLine
 10
101.896062
 20
150.17577
 30
0.0
 11
101.896062
 21
150.925513
 31
0.0
  0
LINE
  5
2BC
330
208
100
AcDbEntity
  8
7_ALL_FEATURES
  6
Continuous
 62
     9
100
AcDbLine
 10
102.666216
 20
149.405617
 30
0.0
 11
103.415959
 21
149.405617
 31
0.0
  0
LINE
  5
2BD
330
208
100
AcDbEntity
  8
7_ALL_FEATURES
  6
Continuous
 62
     9
100
AcDbLine
 10
102.666216
 20
115.905617
 30
0.0
 11
103.415959
 21
115.905617
 31
0.0
  0
LINE
  5
2BE
330
208
100
AcDbEntity
  8
7_ALL_FEATURES
  6
Continuous
 62
     9
100
AcDbLine
 10
101.896062
 20
115.135463
 30
0.0
 11
101.896062
 21
114.38572
 31
0.0
  0
LINE
  5
2BF
330
208
100
AcDbEntity
  8
7_ALL_FEATURES
  6
Continuous
 62
     9
100
AcDbLine
 10
68.396062
 20
115.135463
 30
0.0
 11
68.396062
 21
114.38572
 31
0.0
  0
LINE
  5
2C0
330
208
100
AcDbEntity
  8
7_ALL_FEATURES
  6
Continuous
 62
     9
100
AcDbLine
 10
67.625909
 20
115.905617
 30
0.0
 11
66.876166
 21
115.905617
 31
0.0
  0
LINE
  5
2C1
330
208
100
AcDbEntity
  8
7_ALL_FEATURES
  6
Continuous
 62
     9
100
AcDbLine
 10
67.625909
 20
149.405617
 30
0.0
 11
66.876166
 21
149.405617
 31
0.0
  0
LINE
  5
2C2
330
208
100
AcDbEntity
  8
7_ALL_FEATURES
  6
Continuous
 62
     9
100
AcDbLine
 10
68.396062
 20
150.17577
 30
0.0
 11
68.396062
 21
150.925513
 31
0.0
  0
ARC
  5
2C3
330
208
100
AcDbEntity
  8
7_ALL_FEATURES
  6
Continuous
 62
     9
100
AcDbCircle
 10
68.396062
 20
149.405617
 30
0.0
 40
1.5198965355
100
AcDbArc
 50
90.0
 51
180.0
  0
ARC
  5
2C4
330
208
100
AcDbEntity
  8
7_ALL_FEATURES
  6
Continuous
 62
     9
100
AcDbCircle
 10
101.896062
 20
115.905617
 30
0.0
 40
0.7701535418
100
AcDbArc
 50
270.0
 51
360.0
  0
LINE
  5
2C5
330
208
100
AcDbEntity
  8
7_ALL_FEATURES
  6
Continuous
 62
     9
100
AcDbLine
 10
66.876166
 20
149.405617
 30
0.0
 11
66.876166
 21
115.905617
 31
0.0
  0
ARC
  5
2C6
330
208
100
AcDbEntity
  8
7_ALL_FEATURES
  6
Continuous
 62
     9
100
AcDbCircle
 10
68.396062
 20
115.905617
 30
0.0
 40
0.7701535418
100
AcDbArc
 50
180.0
 51
270.0
  0
ARC
  5
2C7
330
208
100
AcDbEntity
  8
7_ALL_FEATURES
  6
Continuous
 62
     9
100
AcDbCircle
 10
68.396062
 20
115.905617
 30
0.0
 40
1.5198965355
100
AcDbArc
 50
180.0
 51
270.0
  0
ARC
  5
2C8
330
208
100
AcDbEntity
  8
7_ALL_FEATURES
  6
Continuous
 62
     9
100
AcDbCircle
 10
101.896062
 20
149.405617
 30
0.0
 40
0.7701535418
100
AcDbArc
 50
0.0
 51
90.0
  0
LINE
  5
2C9
330
208
100
AcDbEntity
  8
7_ALL_FEATURES
  6
Continuous
 62
     9
100
AcDbLine
 10
68.396062
 20
114.38572
 30
0.0
 11
101.896062
 21
114.38572
 31
0.0
  0
ARC
  5
2CA
330
208
100
AcDbEntity
  8
7_ALL_FEATURES
  6
Continuous
 62
     9
100
AcDbCircle
 10
68.396062
 20
149.405617
 30
0.0
 40
0.7701535418
100
AcDbArc
 50
90.0
 51
180.0
  0
LINE
  5
2CB
330
208
100
AcDbEntity
  8
7_ALL_FEATURES
  6
Continuous
 62
     9
100
AcDbLine
 10
101.896062
 20
115.155617
 30
0.0
 11
101.896062
 21
115.135463
 31
0.0
  0
LINE
  5
2CC
330
208
100
AcDbEntity
  8
7_ALL_FEATURES
  6
Continuous
 62
     9
100
AcDbLine
 10
68.396062
 20
115.135463
 30
0.0
 11
68.396062
 21
115.155617
 31
0.0
  0
LINE
  5
2CD
330
208
100
AcDbEntity
  8
7_ALL_FEATURES
  6
Continuous
 62
     9
100
AcDbLine
 10
68.396062
 20
115.135463
 30
0.0
 11
101.896062
 21
115.135463
 31
0.0
  0
LINE
  5
2CE
330
208
100
AcDbEntity
  8
7_ALL_FEATURES
  6
Continuous
 62
     9
100
AcDbLine
 10
102.646062
 20
149.405617
 30
0.0
 11
102.666216
 21
149.405617
 31
0.0
  0
LINE
  5
2CF
330
208
100
AcDbEntity
  8
7_ALL_FEATURES
  6
Continuous
 62
     9
100
AcDbLine
 10
102.646062
 20
115.905617
 30
0.0
 11
102.666216
 21
115.905617
 31
0.0
  0
LINE
  5
2D0
330
208
100
AcDbEntity
  8
7_ALL_FEATURES
  6
Continuous
 62
     9
100
AcDbLine
 10
102.666216
 20
115.905617
 30
0.0
 11
102.666216
 21
149.405617
 31
0.0
  0
LINE
  5
2D1
330
208
100
AcDbEntity
  8
7_ALL_FEATURES
  6
Continuous
 62
     9
100
AcDbLine
 10
68.396062
 20
150.155617
 30
0.0
 11
68.396062
 21
150.17577
 31
0.0
  0
LINE
  5
2D2
330
208
100
AcDbEntity
  8
7_ALL_FEATURES
  6
Continuous
 62
     9
100
AcDbLine
 10
101.896062
 20
150.155617
 30
0.0
 11
101.896062
 21
150.17577
 31
0.0
  0
LINE
  5
2D3
330
208
100
AcDbEntity
  8
7_ALL_FEATURES
  6
Continuous
 62
     9
100
AcDbLine
 10
101.896062
 20
150.17577
 30
0.0
 11
68.396062
 21
150.17577
 31
0.0
  0
ARC
  5
2D4
330
208
100
AcDbEntity
  8
7_ALL_FEATURES
  6
Continuous
 62
     9
100
AcDbCircle
 10
101.896062
 20
115.905617
 30
0.0
 40
1.5198965355
100
AcDbArc
 50
270.0
 51
360.0
  0
LINE
  5
2D5
330
208
100
AcDbEntity
  8
7_ALL_FEATURES
  6
Continuous
 62
     9
100
AcDbLine
 10
103.415959
 20
115.905617
 30
0.0
 11
103.415959
 21
149.405617
 31
0.0
  0
ARC
  5
2D6
330
208
100
AcDbEntity
  8
7_ALL_FEATURES
  6
Continuous
 62
     9
100
AcDbCircle
 10
101.896062
 20
149.405617
 30
0.0
 40
1.5198965355
100
AcDbArc
 50
0.0
 51
90.0
  0
LINE
  5
2D7
330
208
100
AcDbEntity
  8
7_ALL_FEATURES
  6
Continuous
 62
     9
100
AcDbLine
 10
101.896062
 20
150.925513
 30
0.0
 11
68.396062
 21
150.925513
 31
0.0
  0
LINE
  5
2D8
330
208
100
AcDbEntity
  8
7_ALL_FEATURES
  6
Continuous
 62
     9
100
AcDbLine
 10
67.625909
 20
115.905617
 30
0.0
 11
67.646062
 21
115.905617
 31
0.0
  0
LINE
  5
2D9
330
208
100
AcDbEntity
  8
7_ALL_FEATURES
  6
Continuous
 62
     9
100
AcDbLine
 10
67.646062
 20
149.405617
 30
0.0
 11
67.625909
 21
149.405617
 31
0.0
  0
LINE
  5
2DA
330
208
100
AcDbEntity
  8
7_ALL_FEATURES
  6
Continuous
 62
     9
100
AcDbLine
 10
67.625909
 20
149.405617
 30
0.0
 11
67.625909
 21
115.905617
 31
0.0
  0
ARC
  5
2DB
330
208
100
AcDbEntity
  8
7_ALL_FEATURES
  6
Continuous
 62
     9
100
AcDbCircle
 10
43.646062
 20
174.155617
 30
0.0
 40
0.1607107723
100
AcDbArc
 50
90.0
 51
180.0
  0
LINE
  5
2DC
330
208
100
AcDbEntity
  8
7_ALL_FEATURES
  6
Continuous
 62
     9
100
AcDbLine
 10
126.646062
 20
174.316327
 30
0.0
 11
43.646062
 21
174.316327
 31
0.0
  0
ARC
  5
2DD
330
208
100
AcDbEntity
  8
7_ALL_FEATURES
  6
Continuous
 62
     9
100
AcDbCircle
 10
126.646062
 20
174.155617
 30
0.0
 40
0.1607107723
100
AcDbArc
 50
0.0
 51
90.0
  0
LINE
  5
2DE
330
208
100
AcDbEntity
  8
7_ALL_FEATURES
  6
Continuous
 62
     9
100
AcDbLine
 10
126.806773
 20
91.155617
 30
0.0
 11
126.806773
 21
174.155617
 31
0.0
  0
ARC
  5
2DF
330
208
100
AcDbEntity
  8
7_ALL_FEATURES
  6
Continuous
 62
     9
100
AcDbCircle
 10
126.646062
 20
174.155617
 30
0.0
 40
0.910453766
100
AcDbArc
 50
0.0
 51
90.0
  0
ARC
  5
2E0
330
208
100
AcDbEntity
  8
7_ALL_FEATURES
  6
Continuous
 62
     9
100
AcDbCircle
 10
126.646062
 20
91.155617
 30
0.0
 40
0.910453766
100
AcDbArc
 50
270.0
 51
360.0
  0
ARC
  5
2E1
330
208
100
AcDbEntity
  8
7_ALL_FEATURES
  6
Continuous
 62
     9
100
AcDbCircle
 10
43.646062
 20
91.155617
 30
0.0
 40
0.910453766
100
AcDbArc
 50
180.0
 51
270.0
  0
ARC
  5
2E2
330
208
100
AcDbEntity
  8
7_ALL_FEATURES
  6
Continuous
 62
     9
100
AcDbCircle
 10
43.646062
 20
174.155617
 30
0.0
 40
0.910453766
100
AcDbArc
 50
90.0
 51
180.0
  0
LINE
  5
2E3
330
208
100
AcDbEntity
  8
7_ALL_FEATURES
  6
Continuous
 62
     9
100
AcDbLine
 10
43.646062
 20
90.245163
 30
0.0
 11
43.646062
 21
90.155617
 31
0.0
  0
ARC
  5
2E4
330
208
100
AcDbEntity
  8
7_ALL_FEATURES
  6
Continuous
 62
     9
100
AcDbCircle
 10
126.646062
 20
91.155617
 30
0.0
 40
0.1607107723
100
AcDbArc
 50
270.0
 51
360.0
  0
LINE
  5
2E5
330
208
100
AcDbEntity
  8
7_ALL_FEATURES
  6
Continuous
 62
     9
100
AcDbLine
 10
126.646062
 20
90.155617
 30
0.0
 11
126.646062
 21
90.245163
 31
0.0
  0
LINE
  5
2E6
330
208
100
AcDbEntity
  8
7_ALL_FEATURES
  6
Continuous
 62
     9
100
AcDbLine
 10
43.646062
 20
90.245163
 30
0.0
 11
126.646062
 21
90.245163
 31
0.0
  0
LINE
  5
2E7
330
208
100
AcDbEntity
  8
7_ALL_FEATURES
  6
Continuous
 62
     9
100
AcDbLine
 10
127.646062
 20
91.155617
 30
0.0
 11
127.556516
 21
91.155617
 31
0.0
  0
LINE
  5
2E8
330
208
100
AcDbEntity
  8
7_ALL_FEATURES
  6
Continuous
 62
     9
100
AcDbLine
 10
43.646062
 20
90.994906
 30
0.0
 11
126.646062
 21
90.994906
 31
0.0
  0
LINE
  5
2E9
330
208
100
AcDbEntity
  8
7_ALL_FEATURES
  6
Continuous
 62
     9
100
AcDbLine
 10
127.646062
 20
174.155617
 30
0.0
 11
127.556516
 21
174.155617
 31
0.0
  0
LINE
  5
2EA
330
208
100
AcDbEntity
  8
7_ALL_FEATURES
  6
Continuous
 62
     9
100
AcDbLine
 10
127.556516
 20
91.155617
 30
0.0
 11
127.556516
 21
174.155617
 31
0.0
  0
LINE
  5
2EB
330
208
100
AcDbEntity
  8
7_ALL_FEATURES
  6
Continuous
 62
     9
100
AcDbLine
 10
126.646062
 20
175.155617
 30
0.0
 11
126.646062
 21
175.06607
 31
0.0
  0
ARC
  5
2EC
330
208
100
AcDbEntity
  8
7_ALL_FEATURES
  6
Continuous
 62
     9
100
AcDbCircle
 10
43.646062
 20
91.155617
 30
0.0
 40
0.1607107723
100
AcDbArc
 50
180.0
 51
270.0
  0
LINE
  5
2ED
330
208
100
AcDbEntity
  8
7_ALL_FEATURES
  6
Continuous
 62
     9
100
AcDbLine
 10
43.646062
 20
175.155617
 30
0.0
 11
43.646062
 21
175.06607
 31
0.0
  0
LINE
  5
2EE
330
208
100
AcDbEntity
  8
7_ALL_FEATURES
  6
Continuous
 62
     9
100
AcDbLine
 10
126.646062
 20
175.06607
 30
0.0
 11
43.646062
 21
175.06607
 31
0.0
  0
LINE
  5
2EF
330
208
100
AcDbEntity
  8
7_ALL_FEATURES
  6
Continuous
 62
     9
100
AcDbLine
 10
42.646062
 20
174.155617
 30
0.0
 11
42.735608
 21
174.155617
 31
0.0
  0
LINE
  5
2F0
330
208
100
AcDbEntity
  8
7_ALL_FEATURES
  6
Continuous
 62
     9
100
AcDbLine
 10
43.485351
 20
174.155617
 30
0.0
 11
43.485351
 21
91.155617
 31
0.0
  0
LINE
  5
2F1
330
208
100
AcDbEntity
  8
7_ALL_FEATURES
  6
Continuous
 62
     9
100
AcDbLine
 10
42.735608
 20
91.155617
 30
0.0
 11
42.646062
 21
91.155617
 31
0.0
  0
LINE
  5
2F2
330
208
100
AcDbEntity
  8
7_ALL_FEATURES
  6
Continuous
 62
     9
100
AcDbLine
 10
42.735608
 20
174.155617
 30
0.0
 11
42.735608
 21
91.155617
 31
0.0
  0
LINE
  5
2F3
330
208
100
AcDbEntity
  8
7_ALL_FEATURES
  6
Continuous
 62
     9
100
AcDbLine
 10
126.646062
 20
174.316327
 30
0.0
 11
126.646062
 21
175.06607
 31
0.0
  0
LINE
  5
2F4
330
208
100
AcDbEntity
  8
7_ALL_FEATURES
  6
Continuous
 62
     7
100
AcDbLine
 10
68.396062
 20
69.268581
 30
0.0
 11
66.876166
 21
69.268581
 31
0.0
  0
LINE
  5
2F5
330
208
100
AcDbEntity
  8
7_ALL_FEATURES
  6
Continuous
 62
     7
100
AcDbLine
 10
68.396062
 20
69.268581
 30
0.0
 11
101.896062
 21
69.268581
 31
0.0
  0
LINE
  5
2F6
330
208
100
AcDbEntity
  8
7_ALL_FEATURES
  6
Continuous
 62
     7
100
AcDbLine
 10
103.415959
 20
69.268581
 30
0.0
 11
101.896062
 21
69.268581
 31
0.0
  0
LINE
  5
2F7
330
208
100
AcDbEntity
  8
7_ALL_FEATURES
  6
Continuous
 62
     7
100
AcDbLine
 10
101.896062
 20
69.268581
 30
0.0
 11
68.396062
 21
69.268581
 31
0.0
  0
LINE
  5
2F8
330
208
100
AcDbEntity
  8
7_ALL_FEATURES
  6
Continuous
 62
     7
100
AcDbLine
 10
43.646062
 20
69.268581
 30
0.0
 11
43.485351
 21
69.268581
 31
0.0
  0
LINE
  5
2F9
330
208
100
AcDbEntity
  8
7_ALL_FEATURES
  6
Continuous
 62
     7
100
AcDbLine
 10
126.646062
 20
69.268581
 30
0.0
 11
43.646062
 21
69.268581
 31
0.0
  0
LINE
  5
2FA
330
208
100
AcDbEntity
  8
7_ALL_FEATURES
  6
Continuous
 62
     7
100
AcDbLine
 10
126.806773
 20
69.268581
 30
0.0
 11
126.646062
 21
69.268581
 31
0.0
  0
LINE
  5
2FB
330
208
100
AcDbEntity
  8
7_ALL_FEATURES
  6
Continuous
 62
     7
100
AcDbLine
 10
43.646062
 20
69.268581
 30
0.0
 11
66.876166
 21
69.268581
 31
0.0
  0
LINE
  5
2FC
330
208
100
AcDbEntity
  8
7_ALL_FEATURES
  6
Continuous
 62
     7
100
AcDbLine
 10
68.396062
 20
69.268581
 30
0.0
 11
101.896062
 21
69.268581
 31
0.0
  0
LINE
  5
2FD
330
208
100
AcDbEntity
  8
7_ALL_FEATURES
  6
Continuous
 62
     7
100
AcDbLine
 10
103.415959
 20
69.268581
 30
0.0
 11
126.646062
 21
69.268581
 31
0.0
  0
LINE
  5
2FE
330
208
100
AcDbEntity
  8
6_ALL_SURFS
  6
Continuous
 62
     7
100
AcDbLine
 10
118.158984
 20
77.518581
 30
0.0
 11
117.632851
 21
77.518581
 31
0.0
  0
LINE
  5
2FF
330
208
100
AcDbEntity
  8
6_ALL_SURFS
  6
Continuous
 62
     7
100
AcDbLine
 10
117.632851
 20
77.518581
 30
0.0
 11
114.146062
 21
77.518581
 31
0.0
  0
LINE
  5
300
330
208
100
AcDbEntity
  8
6_ALL_SURFS
  6
Continuous
 62
     7
100
AcDbLine
 10
114.146062
 20
77.518581
 30
0.0
 11
56.146062
 21
77.518581
 31
0.0
  0
LINE
  5
301
330
208
100
AcDbEntity
  8
6_ALL_SURFS
  6
Continuous
 62
     7
100
AcDbLine
 10
56.146062
 20
77.518581
 30
0.0
 11
52.659273
 21
77.518581
 31
0.0
  0
LINE
  5
302
330
208
100
AcDbEntity
  8
6_ALL_SURFS
  6
Continuous
 62
     7
100
AcDbLine
 10
52.659273
 20
77.518581
 30
0.0
 11
52.133141
 21
77.518581
 31
0.0
  0
LINE
  5
303
330
208
100
AcDbEntity
  8
7_ALL_FEATURES
  6
Continuous
 62
     7
100
AcDbLine
 10
42.646062
 20
73.418581
 30
0.0
 11
42.735608
 21
69.998948
 31
0.0
  0
LINE
  5
304
330
208
100
AcDbEntity
  8
7_ALL_FEATURES
  6
Continuous
 62
     7
100
AcDbLine
 10
43.646062
 20
73.418581
 30
0.0
 11
126.646062
 21
73.418581
 31
0.0
  0
LINE
  5
305
330
208
100
AcDbEntity
  8
7_ALL_FEATURES
  6
Continuous
 62
     7
100
AcDbLine
 10
127.646062
 20
73.418581
 30
0.0
 11
127.556516
 21
69.998948
 31
0.0
  0
LINE
  5
306
330
208
100
AcDbEntity
  8
7_ALL_FEATURES
  6
Continuous
 62
     7
100
AcDbLine
 10
42.646062
 20
73.418581
 30
0.0
 11
43.450972
 21
73.418581
 31
0.0
  0
LINE
  5
307
330
208
100
AcDbEntity
  8
7_ALL_FEATURES
  6
Continuous
 62
     7
100
AcDbLine
 10
43.450972
 20
73.418581
 30
0.0
 11
43.646062
 21
73.418581
 31
0.0
  0
LINE
  5
308
330
208
100
AcDbEntity
  8
7_ALL_FEATURES
  6
Continuous
 62
     7
100
AcDbLine
 10
126.646062
 20
73.418581
 30
0.0
 11
126.857786
 21
73.418581
 31
0.0
  0
LINE
  5
309
330
208
100
AcDbEntity
  8
7_ALL_FEATURES
  6
Continuous
 62
     7
100
AcDbLine
 10
126.857786
 20
73.418581
 30
0.0
 11
127.646062
 21
73.418581
 31
0.0
  0
LINE
  5
30A
330
208
100
AcDbEntity
  8
7_ALL_FEATURES
  6
Continuous
 62
     7
100
AcDbLine
 10
51.633312
 20
77.03167
 30
0.0
 11
51.5387
 21
73.418581
 31
0.0
  0
LINE
  5
30B
330
208
100
AcDbEntity
  8
7_ALL_FEATURES
  6
Continuous
 62
     7
100
AcDbLine
 10
118.658812
 20
77.03167
 30
0.0
 11
118.753424
 21
73.418581
 31
0.0
  0
ARC
  5
30C
330
208
100
AcDbEntity
  8
6_ALL_SURFS
  6
Continuous
 62
     7
100
AcDbCircle
 10
52.133141
 20
77.018581
 30
0.0
 40
0.5
100
AcDbArc
 50
90.0
 51
178.5
  0
ARC
  5
30D
330
208
100
AcDbEntity
  8
6_ALL_SURFS
  6
Continuous
 62
     7
100
AcDbCircle
 10
118.158984
 20
77.018581
 30
0.0
 40
0.5
100
AcDbArc
 50
1.5
 51
90.0
  0
SPLINE
  5
30E
330
208
100
AcDbEntity
  8
7_ALL_FEATURES
  6
Continuous
 62
     7
100
AcDbSpline
 70
     0
 71
     3
 72
     8
 73
     4
 74
     0
 42
0.000000001
 43
0.0000001
 40
0.0
 40
0.0
 40
0.0
 40
0.0
 40
1.0
 40
1.0
 40
1.0
 40
1.0
 10
43.4853513054
 20
69.2685810811
 30
0.0
 10
42.9982728699
 20
69.2685810811
 30
0.0
 10
42.7483585387
 20
69.512036844
 30
0.0
 10
42.7356083117
 20
69.9989483699
 30
0.0
  0
SPLINE
  5
30F
330
208
100
AcDbEntity
  8
7_ALL_FEATURES
  6
Continuous
 62
     7
100
AcDbSpline
 70
     0
 71
     3
 72
     8
 73
     4
 74
     0
 42
0.000000001
 43
0.0000001
 40
0.0
 40
0.0
 40
0.0
 40
0.0
 40
1.0
 40
1.0
 40
1.0
 40
1.0
 10
43.4853513054
 20
69.2685810811
 30
0.0
 10
42.9982728699
 20
69.2685810811
 30
0.0
 10
42.7483585387
 20
69.512036844
 30
0.0
 10
42.7356083117
 20
69.9989483699
 30
0.0
  0
SPLINE
  5
310
330
208
100
AcDbEntity
  8
7_ALL_FEATURES
  6
Continuous
 62
     7
100
AcDbSpline
 70
     0
 71
     3
 72
     8
 73
     4
 74
     0
 42
0.000000001
 43
0.0000001
 40
0.0
 40
0.0
 40
0.0
 40
0.0
 40
1.0
 40
1.0
 40
1.0
 40
1.0
 10
126.80677285
 20
69.2685810811
 30
0.0
 10
127.2938512855
 20
69.2685810811
 30
0.0
 10
127.5437656167
 20
69.512036844
 30
0.0
 10
127.5565158437
 20
69.9989483699
 30
0.0
  0
SPLINE
  5
311
330
208
100
AcDbEntity
  8
7_ALL_FEATURES
  6
Continuous
 62
     7
100
AcDbSpline
 70
     0
 71
     3
 72
     8
 73
     4
 74
     0
 42
0.000000001
 43
0.0000001
 40
0.0
 40
0.0
 40
0.0
 40
0.0
 40
1.0
 40
1.0
 40
1.0
 40
1.0
 10
126.80677285
 20
69.2685810811
 30
0.0
 10
127.2938512855
 20
69.2685810811
 30
0.0
 10
127.5437656167
 20
69.512036844
 30
0.0
 10
127.5565158437
 20
69.9989483699
 30
0.0
  0
LINE
  5
312
330
208
100
AcDbEntity
  8
7_ALL_FEATURES
  6
Continuous
 62
     9
100
AcDbLine
 10
43.646062
 20
69.268581
 30
0.0
 11
43.646062
 21
69.998948
 31
0.0
  0
LINE
  5
313
330
208
100
AcDbEntity
  8
6_ALL_SURFS
  6
Continuous
 62
     9
100
AcDbLine
 10
56.146062
 20
77.03167
 30
0.0
 11
51.633312
 21
77.03167
 31
0.0
  0
LINE
  5
314
330
208
100
AcDbEntity
  8
7_ALL_FEATURES
  6
Continuous
 62
     9
100
AcDbLine
 10
56.146062
 20
77.03167
 30
0.0
 11
56.146062
 21
73.418581
 31
0.0
  0
LINE
  5
315
330
208
100
AcDbEntity
  8
7_ALL_FEATURES
  6
Continuous
 62
     9
100
AcDbLine
 10
126.646062
 20
69.268581
 30
0.0
 11
126.646062
 21
69.998948
 31
0.0
  0
LINE
  5
316
330
208
100
AcDbEntity
  8
6_ALL_SURFS
  6
Continuous
 62
     9
100
AcDbLine
 10
114.146062
 20
77.03167
 30
0.0
 11
56.146062
 21
77.03167
 31
0.0
  0
LINE
  5
317
330
208
100
AcDbEntity
  8
7_ALL_FEATURES
  6
Continuous
 62
     9
100
AcDbLine
 10
114.146062
 20
77.03167
 30
0.0
 11
114.146062
 21
73.418581
 31
0.0
  0
LINE
  5
318
330
208
100
AcDbEntity
  8
6_ALL_SURFS
  6
Continuous
 62
     9
100
AcDbLine
 10
118.658812
 20
77.03167
 30
0.0
 11
114.146062
 21
77.03167
 31
0.0
  0
LINE
  5
319
330
208
100
AcDbEntity
  8
7_ALL_FEATURES
  6
Continuous
 62
     9
100
AcDbLine
 10
126.646062
 20
69.998948
 30
0.0
 11
43.646062
 21
69.998948
 31
0.0
  0
LINE
  5
31A
330
208
100
AcDbEntity
  8
7_ALL_FEATURES
  6
Continuous
 62
     9
100
AcDbLine
 10
43.646062
 20
73.418581
 30
0.0
 11
43.646062
 21
69.998948
 31
0.0
  0
LINE
  5
31B
330
208
100
AcDbEntity
  8
7_ALL_FEATURES
  6
Continuous
 62
     9
100
AcDbLine
 10
126.646062
 20
73.418581
 30
0.0
 11
126.646062
 21
69.998948
 31
0.0
  0
LINE
  5
31C
330
208
100
AcDbEntity
  8
7_ALL_FEATURES
  6
Continuous
 62
     9
100
AcDbLine
 10
43.646062
 20
69.998948
 30
0.0
 11
42.735608
 21
69.998948
 31
0.0
  0
LINE
  5
31D
330
208
100
AcDbEntity
  8
7_ALL_FEATURES
  6
Continuous
 62
     9
100
AcDbLine
 10
127.556516
 20
69.998948
 30
0.0
 11
126.646062
 21
69.998948
 31
0.0
  0
LINE
  5
31E
330
208
100
AcDbEntity
  8
6_ALL_SURFS
  6
Continuous
 62
     9
100
AcDbLine
 10
56.146062
 20
77.03167
 30
0.0
 11
56.146062
 21
77.518581
 31
0.0
  0
LINE
  5
31F
330
208
100
AcDbEntity
  8
6_ALL_SURFS
  6
Continuous
 62
     9
100
AcDbLine
 10
114.146062
 20
77.03167
 30
0.0
 11
114.146062
 21
77.518581
 31
0.0
  0
LINE
  5
320
330
208
100
AcDbEntity
  8
7_ALL_FEATURES
  6
Continuous
 62
     7
100
AcDbLine
 10
223.49213
 20
69.268581
 30
0.0
 11
221.972234
 21
69.268581
 31
0.0
  0
LINE
  5
321
330
208
100
AcDbEntity
  8
7_ALL_FEATURES
  6
Continuous
 62
     7
100
AcDbLine
 10
221.972234
 20
69.268581
 30
0.0
 11
188.472234
 21
69.268581
 31
0.0
  0
LINE
  5
322
330
208
100
AcDbEntity
  8
7_ALL_FEATURES
  6
Continuous
 62
     7
100
AcDbLine
 10
188.472234
 20
69.268581
 30
0.0
 11
186.952337
 21
69.268581
 31
0.0
  0
LINE
  5
323
330
208
100
AcDbEntity
  8
7_ALL_FEATURES
  6
Continuous
 62
     7
100
AcDbLine
 10
188.472234
 20
69.268581
 30
0.0
 11
221.972234
 21
69.268581
 31
0.0
  0
LINE
  5
324
330
208
100
AcDbEntity
  8
7_ALL_FEATURES
  6
Continuous
 62
     7
100
AcDbLine
 10
246.882945
 20
69.268581
 30
0.0
 11
246.722234
 21
69.268581
 31
0.0
  0
LINE
  5
325
330
208
100
AcDbEntity
  8
7_ALL_FEATURES
  6
Continuous
 62
     7
100
AcDbLine
 10
163.722234
 20
69.268581
 30
0.0
 11
186.952337
 21
69.268581
 31
0.0
  0
LINE
  5
326
330
208
100
AcDbEntity
  8
7_ALL_FEATURES
  6
Continuous
 62
     7
100
AcDbLine
 10
188.472234
 20
69.268581
 30
0.0
 11
221.972234
 21
69.268581
 31
0.0
  0
LINE
  5
327
330
208
100
AcDbEntity
  8
7_ALL_FEATURES
  6
Continuous
 62
     7
100
AcDbLine
 10
223.49213
 20
69.268581
 30
0.0
 11
246.722234
 21
69.268581
 31
0.0
  0
LINE
  5
328
330
208
100
AcDbEntity
  8
7_ALL_FEATURES
  6
Continuous
 62
     7
100
AcDbLine
 10
163.722234
 20
69.268581
 30
0.0
 11
163.561523
 21
69.268581
 31
0.0
  0
LINE
  5
329
330
208
100
AcDbEntity
  8
7_ALL_FEATURES
  6
Continuous
 62
     7
100
AcDbLine
 10
246.722234
 20
69.268581
 30
0.0
 11
163.722234
 21
69.268581
 31
0.0
  0
LINE
  5
32A
330
208
100
AcDbEntity
  8
6_ALL_SURFS
  6
Continuous
 62
     7
100
AcDbLine
 10
238.235156
 20
77.518581
 30
0.0
 11
237.709312
 21
77.518581
 31
0.0
  0
LINE
  5
32B
330
208
100
AcDbEntity
  8
6_ALL_SURFS
  6
Continuous
 62
     7
100
AcDbLine
 10
237.709312
 20
77.518581
 30
0.0
 11
234.222234
 21
77.518581
 31
0.0
  0
LINE
  5
32C
330
208
100
AcDbEntity
  8
6_ALL_SURFS
  6
Continuous
 62
     7
100
AcDbLine
 10
234.222234
 20
77.518581
 30
0.0
 11
176.222234
 21
77.518581
 31
0.0
  0
LINE
  5
32D
330
208
100
AcDbEntity
  8
6_ALL_SURFS
  6
Continuous
 62
     7
100
AcDbLine
 10
176.222234
 20
77.518581
 30
0.0
 11
172.735156
 21
77.518581
 31
0.0
  0
LINE
  5
32E
330
208
100
AcDbEntity
  8
6_ALL_SURFS
  6
Continuous
 62
     7
100
AcDbLine
 10
172.735156
 20
77.518581
 30
0.0
 11
172.209312
 21
77.518581
 31
0.0
  0
LINE
  5
32F
330
208
100
AcDbEntity
  8
7_ALL_FEATURES
  6
Continuous
 62
     7
100
AcDbLine
 10
163.722234
 20
73.418581
 30
0.0
 11
246.722234
 21
73.418581
 31
0.0
  0
LINE
  5
330
330
208
100
AcDbEntity
  8
7_ALL_FEATURES
  6
Continuous
 62
     7
100
AcDbLine
 10
247.722234
 20
73.418581
 30
0.0
 11
247.632688
 21
69.998948
 31
0.0
  0
LINE
  5
331
330
208
100
AcDbEntity
  8
7_ALL_FEATURES
  6
Continuous
 62
     7
100
AcDbLine
 10
162.81178
 20
69.998948
 30
0.0
 11
162.722234
 21
73.418581
 31
0.0
  0
LINE
  5
332
330
208
100
AcDbEntity
  8
7_ALL_FEATURES
  6
Continuous
 62
     7
100
AcDbLine
 10
246.722234
 20
73.418581
 30
0.0
 11
246.933957
 21
73.418581
 31
0.0
  0
LINE
  5
333
330
208
100
AcDbEntity
  8
7_ALL_FEATURES
  6
Continuous
 62
     7
100
AcDbLine
 10
246.933957
 20
73.418581
 30
0.0
 11
247.722234
 21
73.418581
 31
0.0
  0
LINE
  5
334
330
208
100
AcDbEntity
  8
7_ALL_FEATURES
  6
Continuous
 62
     7
100
AcDbLine
 10
162.722234
 20
73.418581
 30
0.0
 11
163.527144
 21
73.418581
 31
0.0
  0
LINE
  5
335
330
208
100
AcDbEntity
  8
7_ALL_FEATURES
  6
Continuous
 62
     7
100
AcDbLine
 10
163.527144
 20
73.418581
 30
0.0
 11
163.722234
 21
73.418581
 31
0.0
  0
LINE
  5
336
330
208
100
AcDbEntity
  8
7_ALL_FEATURES
  6
Continuous
 62
     7
100
AcDbLine
 10
238.734984
 20
77.03167
 30
0.0
 11
238.829596
 21
73.418581
 31
0.0
  0
LINE
  5
337
330
208
100
AcDbEntity
  8
7_ALL_FEATURES
  6
Continuous
 62
     7
100
AcDbLine
 10
171.614872
 20
73.418581
 30
0.0
 11
171.709484
 21
77.03167
 31
0.0
  0
ARC
  5
338
330
208
100
AcDbEntity
  8
6_ALL_SURFS
  6
Continuous
 62
     7
100
AcDbCircle
 10
172.209312
 20
77.018581
 30
0.0
 40
0.5
100
AcDbArc
 50
90.0
 51
178.5
  0
ARC
  5
339
330
208
100
AcDbEntity
  8
6_ALL_SURFS
  6
Continuous
 62
     7
100
AcDbCircle
 10
238.235156
 20
77.018581
 30
0.0
 40
0.5
100
AcDbArc
 50
1.5
 51
90.0
  0
SPLINE
  5
33A
330
208
100
AcDbEntity
  8
7_ALL_FEATURES
  6
Continuous
 62
     7
100
AcDbSpline
 70
     0
 71
     3
 72
     8
 73
     4
 74
     0
 42
0.000000001
 43
0.0000001
 40
0.0
 40
0.0
 40
0.0
 40
0.0
 40
1.0
 40
1.0
 40
1.0
 40
1.0
 10
246.882944725
 20
69.2685810811
 30
0.0
 10
247.3700231605
 20
69.2685810811
 30
0.0
 10
247.6199374917
 20
69.512036844
 30
0.0
 10
247.6326877187
 20
69.9989483699
 30
0.0
  0
SPLINE
  5
33B
330
208
100
AcDbEntity
  8
7_ALL_FEATURES
  6
Continuous
 62
     7
100
AcDbSpline
 70
     0
 71
     3
 72
     8
 73
     4
 74
     0
 42
0.000000001
 43
0.0000001
 40
0.0
 40
0.0
 40
0.0
 40
0.0
 40
1.0
 40
1.0
 40
1.0
 40
1.0
 10
163.5615231804
 20
69.2685810811
 30
0.0
 10
163.0744447449
 20
69.2685810811
 30
0.0
 10
162.8245304137
 20
69.512036844
 30
0.0
 10
162.8117801867
 20
69.9989483699
 30
0.0
  0
SPLINE
  5
33C
330
208
100
AcDbEntity
  8
7_ALL_FEATURES
  6
Continuous
 62
     7
100
AcDbSpline
 70
     0
 71
     3
 72
     8
 73
     4
 74
     0
 42
0.000000001
 43
0.0000001
 40
0.0
 40
0.0
 40
0.0
 40
0.0
 40
1.0
 40
1.0
 40
1.0
 40
1.0
 10
163.5615231804
 20
69.2685810811
 30
0.0
 10
163.0744447449
 20
69.2685810811
 30
0.0
 10
162.8245304137
 20
69.512036844
 30
0.0
 10
162.8117801867
 20
69.9989483699
 30
0.0
  0
SPLINE
  5
33D
330
208
100
AcDbEntity
  8
7_ALL_FEATURES
  6
Continuous
 62
     7
100
AcDbSpline
 70
     0
 71
     3
 72
     8
 73
     4
 74
     0
 42
0.000000001
 43
0.0000001
 40
0.0
 40
0.0
 40
0.0
 40
0.0
 40
1.0
 40
1.0
 40
1.0
 40
1.0
 10
246.882944725
 20
69.2685810811
 30
0.0
 10
247.3700231605
 20
69.2685810811
 30
0.0
 10
247.6199374917
 20
69.512036844
 30
0.0
 10
247.6326877187
 20
69.9989483699
 30
0.0
  0
LINE
  5
33E
330
208
100
AcDbEntity
  8
7_ALL_FEATURES
  6
Continuous
 62
     9
100
AcDbLine
 10
246.722234
 20
69.268581
 30
0.0
 11
246.722234
 21
69.998948
 31
0.0
  0
LINE
  5
33F
330
208
100
AcDbEntity
  8
7_ALL_FEATURES
  6
Continuous
 62
     9
100
AcDbLine
 10
163.722234
 20
69.268581
 30
0.0
 11
163.722234
 21
69.998948
 31
0.0
  0
LINE
  5
340
330
208
100
AcDbEntity
  8
7_ALL_FEATURES
  6
Continuous
 62
     9
100
AcDbLine
 10
176.222234
 20
73.418581
 30
0.0
 11
176.222234
 21
77.03167
 31
0.0
  0
LINE
  5
341
330
208
100
AcDbEntity
  8
6_ALL_SURFS
  6
Continuous
 62
     9
100
AcDbLine
 10
234.222234
 20
77.03167
 30
0.0
 11
176.222234
 21
77.03167
 31
0.0
  0
LINE
  5
342
330
208
100
AcDbEntity
  8
7_ALL_FEATURES
  6
Continuous
 62
     9
100
AcDbLine
 10
234.222234
 20
77.03167
 30
0.0
 11
234.222234
 21
73.418581
 31
0.0
  0
LINE
  5
343
330
208
100
AcDbEntity
  8
6_ALL_SURFS
  6
Continuous
 62
     9
100
AcDbLine
 10
238.734984
 20
77.03167
 30
0.0
 11
237.209484
 21
77.03167
 31
0.0
  0
LINE
  5
344
330
208
100
AcDbEntity
  8
6_ALL_SURFS
  6
Continuous
 62
     9
100
AcDbLine
 10
237.209484
 20
77.03167
 30
0.0
 11
234.222234
 21
77.03167
 31
0.0
  0
LINE
  5
345
330
208
100
AcDbEntity
  8
7_ALL_FEATURES
  6
Continuous
 62
     9
100
AcDbLine
 10
246.722234
 20
69.998948
 30
0.0
 11
163.722234
 21
69.998948
 31
0.0
  0
LINE
  5
346
330
208
100
AcDbEntity
  8
7_ALL_FEATURES
  6
Continuous
 62
     9
100
AcDbLine
 10
163.722234
 20
69.998948
 30
0.0
 11
163.722234
 21
73.418581
 31
0.0
  0
LINE
  5
347
330
208
100
AcDbEntity
  8
7_ALL_FEATURES
  6
Continuous
 62
     9
100
AcDbLine
 10
246.722234
 20
73.418581
 30
0.0
 11
246.722234
 21
69.998948
 31
0.0
  0
LINE
  5
348
330
208
100
AcDbEntity
  8
6_ALL_SURFS
  6
Continuous
 62
     9
100
AcDbLine
 10
176.222234
 20
77.03167
 30
0.0
 11
173.234984
 21
77.03167
 31
0.0
  0
LINE
  5
349
330
208
100
AcDbEntity
  8
6_ALL_SURFS
  6
Continuous
 62
     9
100
AcDbLine
 10
173.234984
 20
77.03167
 30
0.0
 11
171.709484
 21
77.03167
 31
0.0
  0
LINE
  5
34A
330
208
100
AcDbEntity
  8
7_ALL_FEATURES
  6
Continuous
 62
     9
100
AcDbLine
 10
247.632688
 20
69.998948
 30
0.0
 11
246.722234
 21
69.998948
 31
0.0
  0
LINE
  5
34B
330
208
100
AcDbEntity
  8
7_ALL_FEATURES
  6
Continuous
 62
     9
100
AcDbLine
 10
163.722234
 20
69.998948
 30
0.0
 11
162.81178
 21
69.998948
 31
0.0
  0
LINE
  5
34C
330
208
100
AcDbEntity
  8
6_ALL_SURFS
  6
Continuous
 62
     9
100
AcDbLine
 10
176.222234
 20
77.03167
 30
0.0
 11
176.222234
 21
77.518581
 31
0.0
  0
LINE
  5
34D
330
208
100
AcDbEntity
  8
6_ALL_SURFS
  6
Continuous
 62
     9
100
AcDbLine
 10
234.222234
 20
77.03167
 30
0.0
 11
234.222234
 21
77.518581
 31
0.0
  0
LINE
  5
34E
330
208
100
AcDbEntity
  8
7_ALL_FEATURES
  6
Continuous
 62
     7
100
AcDbLine
 10
212.868439
 20
136.631791
 30
0.0
 11
235.108237
 21
147.75169
 31
0.0
  0
SPLINE
  5
34F
330
208
100
AcDbEntity
  8
7_ALL_FEATURES
  6
Continuous
 62
     7
100
AcDbSpline
 70
     0
 71
     3
 72
     9
 73
     5
 74
     0
 42
0.000000001
 43
0.0000001
 40
0.0
 40
0.0
 40
0.0
 40
0.0
 40
0.2267369202
 40
1.0
 40
1.0
 40
1.0
 40
1.0
 10
211.0829923507
 20
136.6317909321
 30
0.0
 10
211.099737788
 20
136.6234182135
 30
0.0
 10
211.1745956571
 20
136.588508897
 30
0.0
 10
211.2527310164
 20
136.5608591428
 30
0.0
 10
211.3139585655
 20
136.5427503697
 30
0.0
  0
SPLINE
  5
350
330
208
100
AcDbEntity
  8
7_ALL_FEATURES
  6
Continuous
 62
     7
100
AcDbSpline
 70
     0
 71
     3
 72
    11
 73
     7
 74
     0
 42
0.000000001
 43
0.0000001
 40
0.0
 40
0.0
 40
0.0
 40
0.0
 40
0.2399037113
 40
0.499884251
 40
0.7599223864
 40
1.0
 40
1.0
 40
1.0
 40
1.0
 10
211.3139585655
 20
136.5427503697
 30
0.0
 10
211.4165044811
 20
136.5124212002
 30
0.0
 10
211.6358599849
 20
136.4679000607
 30
0.0
 10
211.9747819085
 20
136.445887022
 30
0.0
 10
212.3137967068
 20
136.4676661515
 30
0.0
 10
212.5332864502
 20
136.5120371658
 30
0.0
 10
212.6359339034
 20
136.5422961899
 30
0.0
  0
SPLINE
  5
351
330
208
100
AcDbEntity
  8
7_ALL_FEATURES
  6
Continuous
 62
     7
100
AcDbSpline
 70
     0
 71
     3
 72
     9
 73
     5
 74
     0
 42
0.000000001
 43
0.0000001
 40
0.0
 40
0.0
 40
0.0
 40
0.0
 40
0.2720777979
 40
1.0
 40
1.0
 40
1.0
 40
1.0
 10
212.6359339034
 20
136.5422961899
 30
0.0
 10
212.6576215188
 20
136.5486893936
 30
0.0
 10
212.7368446897
 20
136.5737491107
 30
0.0
 10
212.8143332233
 20
136.6047380708
 30
0.0
 10
212.8684389459
 20
136.6317909321
 30
0.0
  0
LINE
  5
352
330
208
100
AcDbEntity
  8
7_ALL_FEATURES
  6
Continuous
 62
     7
100
AcDbLine
 10
188.843194
 20
147.75169
 30
0.0
 11
211.082992
 21
136.631791
 31
0.0
  0
LINE
  5
353
330
208
100
AcDbEntity
  8
7_ALL_FEATURES
  6
Continuous
 62
     7
100
AcDbLine
 10
152.578746
 20
150.581769
 30
0.0
 11
211.268609
 21
179.926701
 31
0.0
  0
LINE
  5
354
330
208
100
AcDbEntity
  8
7_ALL_FEATURES
  6
Continuous
 62
     7
100
AcDbLine
 10
212.682822
 20
179.926701
 30
0.0
 11
271.372685
 21
150.581769
 31
0.0
  0
SPLINE
  5
355
330
208
100
AcDbEntity
  8
7_ALL_FEATURES
  6
Continuous
 62
     7
100
AcDbSpline
 70
     0
 71
     3
 72
    11
 73
     7
 74
     0
 42
0.000000001
 43
0.0000001
 40
0.0
 40
0.0
 40
0.0
 40
0.0
 40
0.2442352258
 40
0.4918213953
 40
0.746047232
 40
1.0
 40
1.0
 40
1.0
 40
1.0
 10
271.146054478
 20
146.5256779239
 30
0.0
 10
271.2111965543
 20
146.5583413693
 30
0.0
 10
271.3348828956
 20
146.6414520423
 30
0.0
 10
271.475761577
 20
146.8185759108
 30
0.0
 10
271.5562957944
 20
147.0325292657
 30
0.0
 10
271.5736590186
 20
147.1843394105
 30
0.0
 10
271.5759351072
 20
147.2600770671
 30
0.0
  0
LINE
  5
356
330
208
100
AcDbEntity
  8
7_ALL_FEATURES
  6
Continuous
 62
     7
100
AcDbLine
 10
212.455288
 20
117.180398
 30
0.0
 11
212.455824
 21
117.180667
 31
0.0
  0
LINE
  5
357
330
208
100
AcDbEntity
  8
7_ALL_FEATURES
  6
Continuous
 62
     7
100
AcDbLine
 10
212.455288
 20
117.180398
 30
0.0
 11
270.873229
 21
146.389369
 31
0.0
  0
LINE
  5
358
330
208
100
AcDbEntity
  8
7_ALL_FEATURES
  6
Continuous
 62
     7
100
AcDbLine
 10
270.873229
 20
146.389369
 30
0.0
 11
271.145151
 21
146.52533
 31
0.0
  0
SPLINE
  5
359
330
208
100
AcDbEntity
  8
7_ALL_FEATURES
  6
Continuous
 62
     7
100
AcDbSpline
 70
     0
 71
     3
 72
     9
 73
     5
 74
     0
 42
0.000000001
 43
0.0000001
 40
0.0
 40
0.0
 40
0.0
 40
0.0
 40
0.2478406135
 40
1.0
 40
1.0
 40
1.0
 40
1.0
 10
211.4956423596
 20
117.1806801894
 30
0.0
 10
211.5096529266
 20
117.1736686326
 30
0.0
 10
211.5669366912
 20
117.1468957403
 30
0.0
 10
211.6269359317
 20
117.1260418493
 30
0.0
 10
211.67280017
 20
117.1135031862
 30
0.0
  0
SPLINE
  5
35A
330
208
100
AcDbEntity
  8
7_ALL_FEATURES
  6
Continuous
 62
     7
100
AcDbSpline
 70
     0
 71
     3
 72
     9
 73
     5
 74
     0
 42
0.000000001
 43
0.0000001
 40
0.0
 40
0.0
 40
0.0
 40
0.0
 40
0.2484174782
 40
1.0
 40
1.0
 40
1.0
 40
1.0
 10
211.67280017
 20
117.1135031862
 30
0.0
 10
211.696848921
 20
117.1069285825
 30
0.0
 10
211.7945803308
 20
117.0839115404
 30
0.0
 10
211.895337801
 20
117.0742066341
 30
0.0
 10
211.9707662469
 20
117.073898161
 30
0.0
  0
SPLINE
  5
35B
330
208
100
AcDbEntity
  8
7_ALL_FEATURES
  6
Continuous
 62
     7
100
AcDbSpline
 70
     0
 71
     3
 72
     9
 73
     5
 74
     0
 42
0.000000001
 43
0.0000001
 40
0.0
 40
0.0
 40
0.0
 40
0.0
 40
0.2515500744
 40
1.0
 40
1.0
 40
1.0
 40
1.0
 10
211.9707662469
 20
117.073898161
 30
0.0
 10
211.9960479371
 20
117.0737947687
 30
0.0
 10
212.0965267906
 20
117.076501076
 30
0.0
 10
212.1967705153
 20
117.0918714649
 30
0.0
 10
212.2695053678
 20
117.1110566898
 30
0.0
  0
SPLINE
  5
35C
330
208
100
AcDbEntity
  8
7_ALL_FEATURES
  6
Continuous
 62
     7
100
AcDbSpline
 70
     0
 71
     3
 72
     9
 73
     5
 74
     0
 42
0.000000001
 43
0.0000001
 40
0.0
 40
0.0
 40
0.0
 40
0.0
 40
0.2525148638
 40
1.0
 40
1.0
 40
1.0
 40
1.0
 10
212.2695053678
 20
117.1110566898
 30
0.0
 10
212.2857074985
 20
117.1153303153
 30
0.0
 10
212.3494535789
 20
117.1337716111
 30
0.0
 10
212.4114425431
 20
117.1584850461
 30
0.0
 10
212.4557997074
 20
117.1806826308
 30
0.0
  0
LINE
  5
35D
330
208
100
AcDbEntity
  8
7_ALL_FEATURES
  6
Continuous
 62
     7
100
AcDbLine
 10
211.496143
 20
117.180398
 30
0.0
 11
211.495615
 21
117.180663
 31
0.0
  0
LINE
  5
35E
330
208
100
AcDbEntity
  8
7_ALL_FEATURES
  6
Continuous
 62
     7
100
AcDbLine
 10
152.80628
 20
146.52533
 30
0.0
 11
153.078202
 21
146.389369
 31
0.0
  0
LINE
  5
35F
330
208
100
AcDbEntity
  8
7_ALL_FEATURES
  6
Continuous
 62
     7
100
AcDbLine
 10
153.078202
 20
146.389369
 30
0.0
 11
211.496143
 21
117.180398
 31
0.0
  0
LINE
  5
360
330
208
100
AcDbEntity
  8
7_ALL_FEATURES
  6
Continuous
 62
     7
100
AcDbLine
 10
152.375496
 20
147.260075
 30
0.0
 11
152.375503
 21
147.259845
 31
0.0
  0
SPLINE
  5
361
330
208
100
AcDbEntity
  8
7_ALL_FEATURES
  6
Continuous
 62
     7
100
AcDbSpline
 70
     0
 71
     3
 72
    11
 73
     7
 74
     0
 42
0.000000001
 43
0.0000001
 40
0.0
 40
0.0
 40
0.0
 40
0.0
 40
0.2539532541
 40
0.5081808144
 40
0.7558172431
 40
1.0
 40
1.0
 40
1.0
 40
1.0
 10
152.3754962966
 20
147.2600679748
 30
0.0
 10
152.3777720983
 20
147.184337923
 30
0.0
 10
152.3951525418
 20
147.0325497844
 30
0.0
 10
152.4756208808
 20
146.8185743388
 30
0.0
 10
152.6165327167
 20
146.6415060523
 30
0.0
 10
152.7401743128
 20
146.5583643874
 30
0.0
 10
152.805298018
 20
146.5257158668
 30
0.0
  0
LINE
  5
362
330
208
100
AcDbEntity
  8
7_ALL_FEATURES
  6
Continuous
 62
     7
100
AcDbLine
 10
236.372589
 20
147.119514
 30
0.0
 11
236.372691
 21
147.119463
 31
0.0
  0
LINE
  5
363
330
208
100
AcDbEntity
  8
7_ALL_FEATURES
  6
Continuous
 62
     7
100
AcDbLine
 10
212.684512
 20
158.963553
 30
0.0
 11
212.956434
 21
158.827592
 31
0.0
  0
LINE
  5
364
330
208
100
AcDbEntity
  8
7_ALL_FEATURES
  6
Continuous
 62
     7
100
AcDbLine
 10
212.956434
 20
158.827592
 30
0.0
 11
236.372589
 21
147.119514
 31
0.0
  0
SPLINE
  5
365
330
208
100
AcDbEntity
  8
7_ALL_FEATURES
  6
Continuous
 62
     7
100
AcDbSpline
 70
     0
 71
     3
 72
     9
 73
     5
 74
     0
 42
0.000000001
 43
0.0000001
 40
0.0
 40
0.0
 40
0.0
 40
0.0
 40
0.2944525917
 40
1.0
 40
1.0
 40
1.0
 40
1.0
 10
236.4664169139
 20
147.0614684247
 30
0.0
 10
236.4678828138
 20
147.0603024171
 30
0.0
 10
236.4728246276
 20
147.0562977086
 30
0.0
 10
236.4776445378
 20
147.052135987
 30
0.0
 10
236.480901636
 20
147.0490481357
 30
0.0
  0
SPLINE
  5
366
330
208
100
AcDbEntity
  8
7_ALL_FEATURES
  6
Continuous
 62
     7
100
AcDbSpline
 70
     0
 71
     3
 72
     9
 73
     5
 74
     0
 42
0.000000001
 43
0.0000001
 40
0.0
 40
0.0
 40
0.0
 40
0.0
 40
0.7441115342
 40
1.0
 40
1.0
 40
1.0
 40
1.0
 10
236.480901636
 20
147.0490481357
 30
0.0
 10
236.4828363291
 20
147.0472139741
 30
0.0
 10
236.4849172834
 20
147.0444548029
 30
0.0
 10
236.4880155119
 20
147.0421026383
 30
0.0
 10
236.4882538163
 20
147.0412173798
 30
0.0
  0
SPLINE
  5
367
330
208
100
AcDbEntity
  8
7_ALL_FEATURES
  6
Continuous
 62
     7
100
AcDbSpline
 70
     0
 71
     3
 72
     9
 73
     5
 74
     0
 42
0.000000001
 43
0.0000001
 40
0.0
 40
0.0
 40
0.0
 40
0.0
 40
0.3068989338
 40
1.0
 40
1.0
 40
1.0
 40
1.0
 10
236.3726081004
 20
147.1194793028
 30
0.0
 10
236.3827157687
 20
147.114438462
 30
0.0
 10
236.415283256
 20
147.0973167905
 30
0.0
 10
236.4464536496
 20
147.0773476249
 30
0.0
 10
236.4664169139
 20
147.0614684247
 30
0.0
  0
SPLINE
  5
368
330
208
100
AcDbEntity
  8
7_ALL_FEATURES
  6
Continuous
 62
     7
100
AcDbSpline
 70
     0
 71
     3
 72
    16
 73
    12
 74
     0
 42
0.000000001
 43
0.0000001
 40
0.0
 40
0.0
 40
0.0
 40
0.0
 40
0.0042987705
 40
0.0171420035
 40
0.0384708247
 40
0.0682629373
 40
0.1529872504
 40
0.2693337406
 40
0.4146469758
 40
0.5863974368
 40
1.0
 40
1.0
 40
1.0
 40
1.0
 10
187.4631741609
 20
147.0412474464
 30
0.0
 10
187.4630111773
 20
147.0413650049
 30
0.0
 10
187.4641815777
 20
147.0421106528
 30
0.0
 10
187.4647068261
 20
147.0433620624
 30
0.0
 10
187.4671077665
 20
147.0456168706
 30
0.0
 10
187.4713892927
 20
147.0500589802
 30
0.0
 10
187.4796703727
 20
147.0572125167
 30
0.0
 10
187.4922961135
 20
147.0672489082
 30
0.0
 10
187.5087958259
 20
147.0790663147
 30
0.0
 10
187.5374220622
 20
147.0976961342
 30
0.0
 10
187.5614822096
 20
147.1108529701
 30
0.0
 10
187.5787825256
 20
147.1194864532
 30
0.0
  0
LINE
  5
369
330
208
100
AcDbEntity
  8
7_ALL_FEATURES
  6
Continuous
 62
     7
100
AcDbLine
 10
187.578842
 20
147.119514
 30
0.0
 11
187.578676
 21
147.119431
 31
0.0
  0
LINE
  5
36A
330
208
100
AcDbEntity
  8
7_ALL_FEATURES
  6
Continuous
 62
     7
100
AcDbLine
 10
187.578842
 20
147.119514
 30
0.0
 11
210.994997
 21
158.827592
 31
0.0
  0
LINE
  5
36B
330
208
100
AcDbEntity
  8
7_ALL_FEATURES
  6
Continuous
 62
     7
100
AcDbLine
 10
210.994997
 20
158.827592
 30
0.0
 11
211.266919
 21
158.963553
 31
0.0
  0
LINE
  5
36C
330
208
100
AcDbEntity
  8
7_ALL_FEATURES
  6
Continuous
 62
     7
100
AcDbLine
 10
212.684259
 20
158.963679
 30
0.0
 11
212.684512
 21
158.963553
 31
0.0
  0
LINE
  5
36D
330
208
100
AcDbEntity
  8
7_ALL_FEATURES
  6
Continuous
 62
     7
100
AcDbLine
 10
211.26717
 20
158.963678
 30
0.0
 11
211.266919
 21
158.963553
 31
0.0
  0
SPLINE
  5
36E
330
208
100
AcDbEntity
  8
7_ALL_FEATURES
  6
Continuous
 62
     7
100
AcDbSpline
 70
     0
 71
     3
 72
    13
 73
     9
 74
     0
 42
0.000000001
 43
0.0000001
 40
0.0
 40
0.0
 40
0.0
 40
0.0
 40
0.1004280632
 40
0.2225175741
 40
0.5000027051
 40
0.7774840352
 40
0.8995832811
 40
1.0
 40
1.0
 40
1.0
 40
1.0
 10
211.2671962107
 20
158.9636504975
 30
0.0
 10
211.3107533632
 20
158.9853842592
 30
0.0
 10
211.4114867941
 20
159.0251325051
 30
0.0
 10
211.6466057661
 20
159.0857012317
 30
0.0
 10
211.9757155395
 20
159.1152521609
 30
0.0
 10
212.3048357185
 20
159.0857115863
 30
0.0
 10
212.5399444432
 20
159.0251205146
 30
0.0
 10
212.6406830699
 20
158.9853859023
 30
0.0
 10
212.6842324667
 20
158.9636489138
 30
0.0
  0
SPLINE
  5
36F
330
208
100
AcDbEntity
  8
7_ALL_FEATURES
  6
Continuous
 62
     7
100
AcDbSpline
 70
     0
 71
     3
 72
    11
 73
     7
 74
     0
 42
0.000000001
 43
0.0000001
 40
0.0
 40
0.0
 40
0.0
 40
0.0
 40
0.2353701082
 40
0.5
 40
0.7646298918
 40
1.0
 40
1.0
 40
1.0
 40
1.0
 10
211.2686088671
 20
179.926700536
 30
0.0
 10
211.3705884362
 20
179.9776903205
 30
0.0
 10
211.6049588281
 20
180.0504268236
 30
0.0
 10
211.9757156483
 20
180.0851720979
 30
0.0
 10
212.3464724685
 20
180.0504268236
 30
0.0
 10
212.5808428604
 20
179.9776903205
 30
0.0
 10
212.6828224295
 20
179.926700536
 30
0.0
  0
SPLINE
  5
370
330
208
100
AcDbEntity
  8
7_ALL_FEATURES
  6
Continuous
 62
     7
100
AcDbSpline
 70
     0
 71
     3
 72
    11
 73
     7
 74
     0
 42
0.000000001
 43
0.0000001
 40
0.0
 40
0.0
 40
0.0
 40
0.0
 40
0.303297223
 40
0.5660499593
 40
0.7934079607
 40
1.0
 40
1.0
 40
1.0
 40
1.0
 10
271.372685268
 20
150.5817691167
 30
0.0
 10
271.4168802118
 20
150.5596716448
 30
0.0
 10
271.4966094732
 20
150.5122351772
 30
0.0
 10
271.5928515605
 20
150.4242124597
 30
0.0
 10
271.6535181162
 20
150.3260195929
 30
0.0
 10
271.6664836376
 20
150.2542978465
 30
0.0
 10
271.6654639004
 20
150.2206565044
 30
0.0
  0
LINE
  5
371
330
208
100
AcDbEntity
  8
7_ALL_FEATURES
  6
Continuous
 62
     7
100
AcDbLine
 10
235.734787
 20
147.438415
 30
0.0
 11
212.911533
 21
136.026789
 31
0.0
  0
LINE
  5
372
330
208
100
AcDbEntity
  8
7_ALL_FEATURES
  6
Continuous
 62
     7
100
AcDbLine
 10
212.911533
 20
136.026789
 30
0.0
 11
212.506046
 21
135.824045
 31
0.0
  0
LINE
  5
373
330
208
100
AcDbEntity
  8
7_ALL_FEATURES
  6
Continuous
 62
     7
100
AcDbLine
 10
211.445386
 20
135.824045
 30
0.0
 11
211.039898
 21
136.026789
 31
0.0
  0
LINE
  5
374
330
208
100
AcDbEntity
  8
7_ALL_FEATURES
  6
Continuous
 62
     7
100
AcDbLine
 10
211.039898
 20
136.026789
 30
0.0
 11
188.216645
 21
147.438415
 31
0.0
  0
LINE
  5
375
330
208
100
AcDbEntity
  8
7_ALL_FEATURES
  6
Continuous
 62
     7
100
AcDbLine
 10
271.575928
 20
147.259845
 30
0.0
 11
271.575935
 21
147.260084
 31
0.0
  0
LINE
  5
376
330
208
100
AcDbEntity
  8
7_ALL_FEATURES
  6
Continuous
 62
     7
100
AcDbLine
 10
271.665464
 20
150.220657
 30
0.0
 11
271.575928
 21
147.259845
 31
0.0
  0
SPLINE
  5
377
330
208
100
AcDbEntity
  8
7_ALL_FEATURES
  6
Continuous
 62
     7
100
AcDbSpline
 70
     0
 71
     3
 72
    11
 73
     7
 74
     0
 42
0.000000001
 43
0.0000001
 40
0.0
 40
0.0
 40
0.0
 40
0.0
 40
0.2065920393
 40
0.4339500407
 40
0.696702777
 40
1.0
 40
1.0
 40
1.0
 40
1.0
 10
152.2859673962
 20
150.2206565044
 30
0.0
 10
152.284947659
 20
150.2542978465
 30
0.0
 10
152.2979131805
 20
150.3260195929
 30
0.0
 10
152.3585797362
 20
150.4242124597
 30
0.0
 10
152.4548218234
 20
150.5122351772
 30
0.0
 10
152.5345510848
 20
150.5596716448
 30
0.0
 10
152.5787460286
 20
150.5817691167
 30
0.0
  0
LINE
  5
378
330
208
100
AcDbEntity
  8
7_ALL_FEATURES
  6
Continuous
 62
     7
100
AcDbLine
 10
152.375503
 20
147.259845
 30
0.0
 11
152.285967
 21
150.220657
 31
0.0
  0
SPLINE
  5
379
330
208
100
AcDbEntity
  8
7_ALL_FEATURES
  6
Continuous
 62
     7
100
AcDbSpline
 70
     0
 71
     3
 72
    11
 73
     7
 74
     0
 42
0.000000001
 43
0.0000001
 40
0.0
 40
0.0
 40
0.0
 40
0.0
 40
0.2353701082
 40
0.5
 40
0.7646298918
 40
1.0
 40
1.0
 40
1.0
 40
1.0
 10
211.4453855624
 20
135.8240447783
 30
0.0
 10
211.5218702392
 20
135.7858024399
 30
0.0
 10
211.6976480332
 20
135.7312500625
 30
0.0
 10
211.9757156483
 20
135.7051911068
 30
0.0
 10
212.2537832634
 20
135.7312500625
 30
0.0
 10
212.4295610574
 20
135.7858024399
 30
0.0
 10
212.5060457342
 20
135.8240447783
 30
0.0
  0
SPLINE
  5
37A
330
208
100
AcDbEntity
  8
7_ALL_FEATURES
  6
Continuous
 62
     9
100
AcDbSpline
 70
     0
 71
     3
 72
    11
 73
     7
 74
     0
 42
0.000000001
 43
0.0000001
 40
0.0
 40
0.0
 40
0.0
 40
0.0
 40
0.2353985187
 40
0.5
 40
0.7646014813
 40
1.0
 40
1.0
 40
1.0
 40
1.0
 10
212.6195036802
 20
176.9335523618
 30
0.0
 10
212.5266449821
 20
176.9799817109
 30
0.0
 10
212.3132625533
 20
177.0462173716
 30
0.0
 10
211.9757156483
 20
177.0777903791
 30
0.0
 10
211.6381687434
 20
177.0462173716
 30
0.0
 10
211.4247863146
 20
176.9799817109
 30
0.0
 10
211.3319276164
 20
176.9335523618
 30
0.0
  0
SPLINE
  5
37B
330
208
100
AcDbEntity
  8
7_ALL_FEATURES
  6
Continuous
 62
     9
100
AcDbSpline
 70
     0
 71
     3
 72
    11
 73
     7
 74
     0
 42
0.000000001
 43
0.0000001
 40
0.0
 40
0.0
 40
0.0
 40
0.0
 40
0.3030010629
 40
0.5660941903
 40
0.7934278215
 40
1.0
 40
1.0
 40
1.0
 40
1.0
 10
152.6420647779
 20
147.5886209425
 30
0.0
 10
152.6018881877
 20
147.5685326475
 30
0.0
 10
152.529366131
 20
147.5253161498
 30
0.0
 10
152.4417110344
 20
147.4453108248
 30
0.0
 10
152.3864288899
 20
147.3559367956
 30
0.0
 10
152.3746486233
 20
147.2906855969
 30
0.0
 10
152.3755379659
 20
147.2600749476
 30
0.0
  0
LINE
  5
37C
330
208
100
AcDbEntity
  8
7_ALL_FEATURES
  6
Continuous
 62
     9
100
AcDbLine
 10
212.520296
 20
135.150398
 30
0.0
 11
236.208374
 21
146.994437
 31
0.0
  0
LINE
  5
37D
330
208
100
AcDbEntity
  8
7_ALL_FEATURES
  6
Continuous
 62
     9
100
AcDbLine
 10
212.506046
 20
135.824045
 30
0.0
 11
212.520296
 21
135.150398
 31
0.0
  0
LINE
  5
37E
330
208
100
AcDbEntity
  8
7_ALL_FEATURES
  6
Continuous
 62
     9
100
AcDbLine
 10
236.203944
 20
147.203837
 30
0.0
 11
236.208374
 21
146.994437
 31
0.0
  0
LINE
  5
37F
330
208
100
AcDbEntity
  8
7_ALL_FEATURES
  6
Continuous
 62
     9
100
AcDbLine
 10
212.738614
 20
136.372628
 30
0.0
 11
212.729169
 21
135.935606
 31
0.0
  0
LINE
  5
380
330
208
100
AcDbEntity
  8
7_ALL_FEATURES
  6
Continuous
 62
     9
100
AcDbLine
 10
212.738614
 20
136.372628
 30
0.0
 11
212.946139
 21
136.476391
 31
0.0
  0
LINE
  5
381
330
208
100
AcDbEntity
  8
7_ALL_FEATURES
  6
Continuous
 62
     9
100
AcDbLine
 10
212.946139
 20
136.476391
 30
0.0
 11
235.302487
 21
147.654565
 31
0.0
  0
SPLINE
  5
382
330
208
100
AcDbEntity
  8
7_ALL_FEATURES
  6
Continuous
 62
     9
100
AcDbSpline
 70
     0
 71
     3
 72
    10
 73
     6
 74
     0
 42
0.000000001
 43
0.0000001
 40
0.0
 40
0.0
 40
0.0
 40
0.0
 40
0.196915471
 40
0.5453722199
 40
1.0
 40
1.0
 40
1.0
 40
1.0
 10
212.6845120322
 20
158.9635526073
 30
0.0
 10
212.7068858285
 20
158.9523657092
 30
0.0
 10
212.7751749826
 20
158.9332773449
 30
0.0
 10
212.9042270534
 20
158.9500385473
 30
0.0
 10
212.9987893856
 20
158.9897857539
 30
0.0
 10
213.0504447953
 20
159.0156134588
 30
0.0
  0
LINE
  5
383
330
208
100
AcDbEntity
  8
7_ALL_FEATURES
  6
Continuous
 62
     9
100
AcDbLine
 10
187.743058
 20
146.994437
 30
0.0
 11
211.431135
 21
135.150398
 31
0.0
  0
LINE
  5
384
330
208
100
AcDbEntity
  8
7_ALL_FEATURES
  6
Continuous
 62
     9
100
AcDbLine
 10
187.743058
 20
146.994437
 30
0.0
 11
187.747487
 21
147.203837
 31
0.0
  0
LINE
  5
385
330
208
100
AcDbEntity
  8
7_ALL_FEATURES
  6
Continuous
 62
     9
100
AcDbLine
 10
211.445386
 20
135.824045
 30
0.0
 11
211.431135
 21
135.150398
 31
0.0
  0
LINE
  5
386
330
208
100
AcDbEntity
  8
7_ALL_FEATURES
  6
Continuous
 62
     9
100
AcDbLine
 10
188.648944
 20
147.654565
 30
0.0
 11
211.005292
 21
136.476391
 31
0.0
  0
LINE
  5
387
330
208
100
AcDbEntity
  8
7_ALL_FEATURES
  6
Continuous
 62
     9
100
AcDbLine
 10
211.005292
 20
136.476391
 30
0.0
 11
211.212818
 21
136.372628
 31
0.0
  0
LINE
  5
388
330
208
100
AcDbEntity
  8
7_ALL_FEATURES
  6
Continuous
 62
     9
100
AcDbLine
 10
211.212818
 20
136.372628
 30
0.0
 11
211.222263
 21
135.935606
 31
0.0
  0
SPLINE
  5
389
330
208
100
AcDbEntity
  8
7_ALL_FEATURES
  6
Continuous
 62
     9
100
AcDbSpline
 70
     0
 71
     3
 72
     9
 73
     5
 74
     0
 42
0.000000001
 43
0.0000001
 40
0.0
 40
0.0
 40
0.0
 40
0.0
 40
0.4614850944
 40
1.0
 40
1.0
 40
1.0
 40
1.0
 10
236.3726907214
 20
147.1194632981
 30
0.0
 10
236.3985304863
 20
147.1065613965
 30
0.0
 10
236.4610672575
 20
147.0910921721
 30
0.0
 10
236.524194306
 20
147.0978115489
 30
0.0
 10
236.5571934523
 20
147.1046612439
 30
0.0
  0
SPLINE
  5
38A
330
208
100
AcDbEntity
  8
7_ALL_FEATURES
  6
Continuous
 62
     9
100
AcDbSpline
 70
     0
 71
     3
 72
     9
 73
     5
 74
     0
 42
0.000000001
 43
0.0000001
 40
0.0
 40
0.0
 40
0.0
 40
0.0
 40
0.2225730364
 40
1.0
 40
1.0
 40
1.0
 40
1.0
 10
236.5571934523
 20
147.1046612439
 30
0.0
 10
236.5712569926
 20
147.1075804394
 30
0.0
 10
236.6338554564
 20
147.1235489526
 30
0.0
 10
236.6936487919
 20
147.1491382874
 30
0.0
 10
236.738521965
 20
147.1715748739
 30
0.0
  0
SPLINE
  5
38B
330
208
100
AcDbEntity
  8
7_ALL_FEATURES
  6
Continuous
 62
     9
100
AcDbSpline
 70
     0
 71
     3
 72
    10
 73
     6
 74
     0
 42
0.000000001
 43
0.0000001
 40
0.0
 40
0.0
 40
0.0
 40
0.0
 40
0.1969196026
 40
0.5454053081
 40
1.0
 40
1.0
 40
1.0
 40
1.0
 10
187.578675676
 20
147.119430908
 30
0.0
 10
187.5563019243
 20
147.1082695465
 30
0.0
 10
187.4880298002
 20
147.0892429272
 30
0.0
 10
187.359051649
 20
147.1060317763
 30
0.0
 10
187.2645362563
 20
147.1457614115
 30
0.0
 10
187.2129093316
 20
147.1715748739
 30
0.0
  0
SPLINE
  5
38C
330
208
100
AcDbEntity
  8
7_ALL_FEATURES
  6
Continuous
 62
     9
100
AcDbSpline
 70
     0
 71
     3
 72
     8
 73
     4
 74
     0
 42
0.000000001
 43
0.0000001
 40
0.0
 40
0.0
 40
0.0
 40
0.0
 40
1.0
 40
1.0
 40
1.0
 40
1.0
 10
187.5756693473
 20
147.1198894939
 30
0.0
 10
187.5837361703
 20
147.1101093165
 30
0.0
 10
187.5923740592
 20
147.1007813232
 30
0.0
 10
187.6014266481
 20
147.091905731
 30
0.0
  0
SPLINE
  5
38D
330
208
100
AcDbEntity
  8
7_ALL_FEATURES
  6
Continuous
 62
     9
100
AcDbSpline
 70
     0
 71
     3
 72
     9
 73
     5
 74
     0
 42
0.000000001
 43
0.0000001
 40
0.0
 40
0.0
 40
0.0
 40
0.0
 40
0.2302416675
 40
1.0
 40
1.0
 40
1.0
 40
1.0
 10
187.6014266481
 20
147.091905731
 30
0.0
 10
187.6108707994
 20
147.0826462323
 30
0.0
 10
187.6539240911
 20
147.0445069713
 30
0.0
 10
187.7035075484
 20
147.0142115997
 30
0.0
 10
187.7430576866
 20
146.9944365306
 30
0.0
  0
SPLINE
  5
38E
330
208
100
AcDbEntity
  8
7_ALL_FEATURES
  6
Continuous
 62
     9
100
AcDbSpline
 70
     0
 71
     3
 72
    10
 73
     6
 74
     0
 42
0.000000001
 43
0.0000001
 40
0.0
 40
0.0
 40
0.0
 40
0.0
 40
0.196915471
 40
0.5453722199
 40
1.0
 40
1.0
 40
1.0
 40
1.0
 10
211.2669192644
 20
158.9635526073
 30
0.0
 10
211.2445454681
 20
158.9523657092
 30
0.0
 10
211.176256314
 20
158.9332773449
 30
0.0
 10
211.0472042432
 20
158.9500385473
 30
0.0
 10
210.952641911
 20
158.9897857539
 30
0.0
 10
210.9009865013
 20
159.0156134588
 30
0.0
  0
SPLINE
  5
38F
330
208
100
AcDbEntity
  8
7_ALL_FEATURES
  6
Continuous
 62
     9
100
AcDbSpline
 70
     0
 71
     3
 72
     9
 73
     5
 74
     0
 42
0.000000001
 43
0.0000001
 40
0.0
 40
0.0
 40
0.0
 40
0.0
 40
0.2764176138
 40
1.0
 40
1.0
 40
1.0
 40
1.0
 10
236.20837361
 20
146.9944365306
 30
0.0
 10
236.2256760572
 20
147.0030877542
 30
0.0
 10
236.2869104261
 20
147.0367428204
 30
0.0
 10
236.3435405096
 20
147.0808243753
 30
0.0
 10
236.3757619493
 20
147.1198894939
 30
0.0
  0
SPLINE
  5
390
330
208
100
AcDbEntity
  8
7_ALL_FEATURES
  6
Continuous
 62
     9
100
AcDbSpline
 70
     0
 71
     3
 72
    11
 73
     7
 74
     0
 42
0.000000001
 43
0.0000001
 40
0.0
 40
0.0
 40
0.0
 40
0.0
 40
0.2353985187
 40
0.5
 40
0.7646014813
 40
1.0
 40
1.0
 40
1.0
 40
1.0
 10
211.4311348563
 20
135.1503979457
 30
0.0
 10
211.5096841006
 20
135.1111233236
 30
0.0
 10
211.6901844615
 20
135.0550945271
 30
0.0
 10
211.9757156483
 20
135.0283868958
 30
0.0
 10
212.2612468351
 20
135.0550945271
 30
0.0
 10
212.441747196
 20
135.1111233236
 30
0.0
 10
212.5202964403
 20
135.1503979457
 30
0.0
  0
SPLINE
  5
391
330
208
100
AcDbEntity
  8
7_ALL_FEATURES
  6
Continuous
 62
     9
100
AcDbSpline
 70
     0
 71
     3
 72
    11
 73
     7
 74
     0
 42
0.000000001
 43
0.0000001
 40
0.0
 40
0.0
 40
0.0
 40
0.0
 40
0.2714163731
 40
0.5152803978
 40
0.7510271639
 40
1.0
 40
1.0
 40
1.0
 40
1.0
 10
187.7430576866
 20
146.9944365306
 30
0.0
 10
187.7409547887
 20
146.8950301941
 30
0.0
 10
187.7195174609
 20
146.7055814931
 30
0.0
 10
187.6172529687
 20
146.4460376959
 30
0.0
 10
187.4452488213
 20
146.2363631241
 30
0.0
 10
187.2944871601
 20
146.1376346412
 30
0.0
 10
187.2129093316
 20
146.0968457269
 30
0.0
  0
SPLINE
  5
392
330
208
100
AcDbEntity
  8
7_ALL_FEATURES
  6
Continuous
 62
     9
100
AcDbSpline
 70
     0
 71
     3
 72
    11
 73
     7
 74
     0
 42
0.000000001
 43
0.0000001
 40
0.0
 40
0.0
 40
0.0
 40
0.0
 40
0.2714163731
 40
0.5152803978
 40
0.7510271639
 40
1.0
 40
1.0
 40
1.0
 40
1.0
 10
211.4311348563
 20
135.1503979457
 30
0.0
 10
211.4290319585
 20
135.0509916092
 30
0.0
 10
211.4075946306
 20
134.8615429082
 30
0.0
 10
211.3053301384
 20
134.601999111
 30
0.0
 10
211.133325991
 20
134.3923245392
 30
0.0
 10
210.9825643299
 20
134.2935960563
 30
0.0
 10
210.9009865013
 20
134.2528071421
 30
0.0
  0
SPLINE
  5
393
330
208
100
AcDbEntity
  8
7_ALL_FEATURES
  6
Continuous
 62
     9
100
AcDbSpline
 70
     0
 71
     3
 72
    11
 73
     7
 74
     0
 42
0.000000001
 43
0.0000001
 40
0.0
 40
0.0
 40
0.0
 40
0.0
 40
0.2714163731
 40
0.5152803978
 40
0.7510271639
 40
1.0
 40
1.0
 40
1.0
 40
1.0
 10
212.5202964403
 20
135.1503979457
 30
0.0
 10
212.5223993381
 20
135.0509916092
 30
0.0
 10
212.543836666
 20
134.8615429082
 30
0.0
 10
212.6461011582
 20
134.601999111
 30
0.0
 10
212.8181053056
 20
134.3923245392
 30
0.0
 10
212.9688669667
 20
134.2935960563
 30
0.0
 10
213.0504447953
 20
134.2528071421
 30
0.0
  0
SPLINE
  5
394
330
208
100
AcDbEntity
  8
7_ALL_FEATURES
  6
Continuous
 62
     9
100
AcDbSpline
 70
     0
 71
     3
 72
    11
 73
     7
 74
     0
 42
0.000000001
 43
0.0000001
 40
0.0
 40
0.0
 40
0.0
 40
0.0
 40
0.2714163731
 40
0.5152803978
 40
0.7510271639
 40
1.0
 40
1.0
 40
1.0
 40
1.0
 10
236.20837361
 20
146.9944365306
 30
0.0
 10
236.2104765079
 20
146.8950301941
 30
0.0
 10
236.2319138357
 20
146.7055814931
 30
0.0
 10
236.3341783279
 20
146.4460376959
 30
0.0
 10
236.5061824753
 20
146.2363631241
 30
0.0
 10
236.6569441365
 20
146.1376346412
 30
0.0
 10
236.738521965
 20
146.0968457269
 30
0.0
  0
SPLINE
  5
395
330
208
100
AcDbEntity
  8
7_ALL_FEATURES
  6
Continuous
 62
     9
100
AcDbSpline
 70
     0
 71
     3
 72
    11
 73
     7
 74
     0
 42
0.000000001
 43
0.0000001
 40
0.0
 40
0.0
 40
0.0
 40
0.0
 40
0.2489728361
 40
0.4847196022
 40
0.7285836269
 40
1.0
 40
1.0
 40
1.0
 40
1.0
 10
212.0893553252
 20
176.0359615581
 30
0.0
 10
212.1709331538
 20
176.0767504724
 30
0.0
 10
212.3216948149
 20
176.1754789553
 30
0.0
 10
212.4936989623
 20
176.3851535271
 30
0.0
 10
212.5959634545
 20
176.6446973243
 30
0.0
 10
212.6174007824
 20
176.8341460253
 30
0.0
 10
212.6195036802
 20
176.9335523618
 30
0.0
  0
SPLINE
  5
396
330
208
100
AcDbEntity
  8
7_ALL_FEATURES
  6
Continuous
 62
     9
100
AcDbSpline
 70
     0
 71
     3
 72
    11
 73
     7
 74
     0
 42
0.000000001
 43
0.0000001
 40
0.0
 40
0.0
 40
0.0
 40
0.0
 40
0.2489728361
 40
0.4847196022
 40
0.7285836269
 40
1.0
 40
1.0
 40
1.0
 40
1.0
 10
211.8620759714
 20
176.0359615581
 30
0.0
 10
211.7804981429
 20
176.0767504724
 30
0.0
 10
211.6297364817
 20
176.1754789553
 30
0.0
 10
211.4577323343
 20
176.3851535271
 30
0.0
 10
211.3554678421
 20
176.6446973243
 30
0.0
 10
211.3340305143
 20
176.8341460253
 30
0.0
 10
211.3319276164
 20
176.9335523618
 30
0.0
  0
SPLINE
  5
397
330
208
100
AcDbEntity
  8
7_ALL_FEATURES
  6
Continuous
 62
     9
100
AcDbSpline
 70
     0
 71
     3
 72
    11
 73
     7
 74
     0
 42
0.000000001
 43
0.0000001
 40
0.0
 40
0.0
 40
0.0
 40
0.0
 40
0.2489728361
 40
0.4847196022
 40
0.7285836269
 40
1.0
 40
1.0
 40
1.0
 40
1.0
 10
153.1722131329
 20
146.6910301389
 30
0.0
 10
153.0906353044
 20
146.7318190531
 30
0.0
 10
152.9398736432
 20
146.830547536
 30
0.0
 10
152.7678694958
 20
147.0402221079
 30
0.0
 10
152.6656050036
 20
147.2997659051
 30
0.0
 10
152.6441676758
 20
147.489214606
 30
0.0
 10
152.6420647779
 20
147.5886209425
 30
0.0
  0
SPLINE
  5
398
330
208
100
AcDbEntity
  8
7_ALL_FEATURES
  6
Continuous
 62
     9
100
AcDbSpline
 70
     0
 71
     3
 72
    10
 73
     6
 74
     0
 42
0.000000001
 43
0.0000001
 40
0.0
 40
0.0
 40
0.0
 40
0.0
 40
0.3169373987
 40
0.6973961912
 40
1.0
 40
1.0
 40
1.0
 40
1.0
 10
153.1722131329
 20
146.577390462
 30
0.0
 10
153.1362357943
 20
146.5594017927
 30
0.0
 10
153.0550309245
 20
146.5239405114
 30
0.0
 10
152.9301190146
 20
146.4932166884
 30
0.0
 10
152.8406306224
 20
146.5081544842
 30
0.0
 10
152.8062803698
 20
146.5253296105
 30
0.0
  0
SPLINE
  5
399
330
208
100
AcDbEntity
  8
7_ALL_FEATURES
  6
Continuous
 62
     9
100
AcDbSpline
 70
     0
 71
     3
 72
     9
 73
     5
 74
     0
 42
0.000000001
 43
0.0000001
 40
0.0
 40
0.0
 40
0.0
 40
0.0
 40
0.575101457
 40
1.0
 40
1.0
 40
1.0
 40
1.0
 10
211.8620759714
 20
117.2324590427
 30
0.0
 10
211.8034027864
 20
117.2031224502
 30
0.0
 10
211.6975459653
 20
117.1586724552
 30
0.0
 10
211.5784383642
 20
117.1530437365
 30
0.0
 10
211.5318753769
 20
117.1664907667
 30
0.0
  0
SPLINE
  5
39A
330
208
100
AcDbEntity
  8
7_ALL_FEATURES
  6
Continuous
 62
     9
100
AcDbSpline
 70
     0
 71
     3
 72
     8
 73
     4
 74
     0
 42
0.000000001
 43
0.0000001
 40
0.0
 40
0.0
 40
0.0
 40
0.0
 40
1.0
 40
1.0
 40
1.0
 40
1.0
 10
211.5318753769
 20
117.1664907667
 30
0.0
 10
211.5195960946
 20
117.1700369283
 30
0.0
 10
211.5075749549
 20
117.174682318
 30
0.0
 10
211.4961432083
 20
117.1803981913
 30
0.0
  0
SPLINE
  5
39B
330
208
100
AcDbEntity
  8
7_ALL_FEATURES
  6
Continuous
 62
     9
100
AcDbSpline
 70
     0
 71
     3
 72
     9
 73
     5
 74
     0
 42
0.000000001
 43
0.0000001
 40
0.0
 40
0.0
 40
0.0
 40
0.0
 40
0.5749854075
 40
1.0
 40
1.0
 40
1.0
 40
1.0
 10
212.0893553252
 20
117.2324590427
 30
0.0
 10
212.1479320772
 20
117.2031706668
 30
0.0
 10
212.2536328541
 20
117.1587875521
 30
0.0
 10
212.3725278303
 20
117.1530259859
 30
0.0
 10
212.4190671566
 20
117.1663502249
 30
0.0
  0
SPLINE
  5
39C
330
208
100
AcDbEntity
  8
7_ALL_FEATURES
  6
Continuous
 62
     9
100
AcDbSpline
 70
     0
 71
     3
 72
     8
 73
     4
 74
     0
 42
0.000000001
 43
0.0000001
 40
0.0
 40
0.0
 40
0.0
 40
0.0
 40
1.0
 40
1.0
 40
1.0
 40
1.0
 10
212.4190671566
 20
117.1663502249
 30
0.0
 10
212.4315168739
 20
117.169914587
 30
0.0
 10
212.4437053377
 20
117.174606816
 30
0.0
 10
212.4552880883
 20
117.1803981913
 30
0.0
  0
SPLINE
  5
39D
330
208
100
AcDbEntity
  8
7_ALL_FEATURES
  6
Continuous
 62
     9
100
AcDbSpline
 70
     0
 71
     3
 72
    10
 73
     6
 74
     0
 42
0.000000001
 43
0.0000001
 40
0.0
 40
0.0
 40
0.0
 40
0.0
 40
0.3169373987
 40
0.6973961912
 40
1.0
 40
1.0
 40
1.0
 40
1.0
 10
270.7792181637
 20
146.577390462
 30
0.0
 10
270.8151955023
 20
146.5594017927
 30
0.0
 10
270.8964003721
 20
146.5239405114
 30
0.0
 10
271.021312282
 20
146.4932166884
 30
0.0
 10
271.1108006742
 20
146.5081544842
 30
0.0
 10
271.1451509268
 20
146.5253296105
 30
0.0
  0
SPLINE
  5
39E
330
208
100
AcDbEntity
  8
7_ALL_FEATURES
  6
Continuous
 62
     9
100
AcDbSpline
 70
     0
 71
     3
 72
    11
 73
     7
 74
     0
 42
0.000000001
 43
0.0000001
 40
0.0
 40
0.0
 40
0.0
 40
0.0
 40
0.2489728361
 40
0.4847196022
 40
0.7285836269
 40
1.0
 40
1.0
 40
1.0
 40
1.0
 10
270.7792181637
 20
146.6910301389
 30
0.0
 10
270.8607959922
 20
146.7318190531
 30
0.0
 10
271.0115576534
 20
146.830547536
 30
0.0
 10
271.1835618008
 20
147.0402221079
 30
0.0
 10
271.285826293
 20
147.2997659051
 30
0.0
 10
271.3072636208
 20
147.489214606
 30
0.0
 10
271.3093665187
 20
147.5886209425
 30
0.0
  0
LINE
  5
39F
330
208
100
AcDbEntity
  8
7_ALL_FEATURES
  6
Continuous
 62
     9
100
AcDbLine
 10
211.331928
 20
176.933552
 30
0.0
 11
208.9118
 21
175.723489
 31
0.0
  0
LINE
  5
3A0
330
208
100
AcDbEntity
  8
7_ALL_FEATURES
  6
Continuous
 62
     9
100
AcDbLine
 10
208.9118
 20
175.723489
 30
0.0
 11
167.899607
 21
155.217392
 31
0.0
  0
LINE
  5
3A1
330
208
100
AcDbEntity
  8
7_ALL_FEATURES
  6
Continuous
 62
     9
100
AcDbLine
 10
167.899607
 20
155.217392
 30
0.0
 11
152.642065
 21
147.588621
 31
0.0
  0
LINE
  5
3A2
330
208
100
AcDbEntity
  8
7_ALL_FEATURES
  6
Continuous
 62
     9
100
AcDbLine
 10
152.642065
 20
147.588621
 30
0.0
 11
152.578746
 21
150.581769
 31
0.0
  0
LINE
  5
3A3
330
208
100
AcDbEntity
  8
7_ALL_FEATURES
  6
Continuous
 62
     9
100
AcDbLine
 10
211.268609
 20
179.926701
 30
0.0
 11
211.331928
 21
176.933552
 31
0.0
  0
LINE
  5
3A4
330
208
100
AcDbEntity
  8
7_ALL_FEATURES
  6
Continuous
 62
     9
100
AcDbLine
 10
271.309367
 20
147.588621
 30
0.0
 11
256.051824
 21
155.217392
 31
0.0
  0
LINE
  5
3A5
330
208
100
AcDbEntity
  8
7_ALL_FEATURES
  6
Continuous
 62
     9
100
AcDbLine
 10
256.051824
 20
155.217392
 30
0.0
 11
215.039631
 21
175.723489
 31
0.0
  0
LINE
  5
3A6
330
208
100
AcDbEntity
  8
7_ALL_FEATURES
  6
Continuous
 62
     9
100
AcDbLine
 10
215.039631
 20
175.723489
 30
0.0
 11
212.619504
 21
176.933552
 31
0.0
  0
LINE
  5
3A7
330
208
100
AcDbEntity
  8
7_ALL_FEATURES
  6
Continuous
 62
     9
100
AcDbLine
 10
212.682822
 20
179.926701
 30
0.0
 11
212.619504
 21
176.933552
 31
0.0
  0
LINE
  5
3A8
330
208
100
AcDbEntity
  8
7_ALL_FEATURES
  6
Continuous
 62
     9
100
AcDbLine
 10
271.372685
 20
150.581769
 30
0.0
 11
271.309367
 21
147.588621
 31
0.0
  0
SPLINE
  5
3A9
330
208
100
AcDbEntity
  8
7_ALL_FEATURES
  6
Continuous
 62
     9
100
AcDbSpline
 70
     0
 71
     3
 72
    11
 73
     7
 74
     0
 42
0.000000001
 43
0.0000001
 40
0.0
 40
0.0
 40
0.0
 40
0.0
 40
0.2065720868
 40
0.4339065334
 40
0.6969999166
 40
1.0
 40
1.0
 40
1.0
 40
1.0
 10
271.5758936038
 20
147.2600843505
 30
0.0
 10
271.5767816709
 20
147.2906943849
 30
0.0
 10
271.564999261
 20
147.3559437631
 30
0.0
 10
271.5097165206
 20
147.4453148214
 30
0.0
 10
271.4220626407
 20
147.5253177219
 30
0.0
 10
271.3495421418
 20
147.568533131
 30
0.0
 10
271.3093665187
 20
147.5886209425
 30
0.0
  0
SPLINE
  5
3AA
330
208
100
AcDbEntity
  8
7_ALL_FEATURES
  6
Continuous
 62
     9
100
AcDbSpline
 70
     0
 71
     3
 72
     9
 73
     5
 74
     0
 42
0.000000001
 43
0.0000001
 40
0.0
 40
0.0
 40
0.0
 40
0.0
 40
0.2375884665
 40
1.0
 40
1.0
 40
1.0
 40
1.0
 10
213.0504447953
 20
159.0156134588
 30
0.0
 10
213.0275746243
 20
159.0270485443
 30
0.0
 10
212.9300752489
 20
159.0726875972
 30
0.0
 10
212.8283346072
 20
159.1090064441
 30
0.0
 10
212.7496564858
 20
159.1322930021
 30
0.0
  0
ARC
  5
3AB
330
208
100
AcDbEntity
  8
7_ALL_FEATURES
  6
Continuous
 62
     9
100
AcDbCircle
 10
212.12203
 20
157.011517
 30
0.0
 40
2.2116974073
100
AcDbArc
 50
73.514299
 51
74.25583
  0
SPLINE
  5
3AC
330
208
100
AcDbEntity
  8
7_ALL_FEATURES
  6
Continuous
 62
     9
100
AcDbSpline
 70
     0
 71
     3
 72
     9
 73
     5
 74
     0
 42
0.000000001
 43
0.0000001
 40
0.0
 40
0.0
 40
0.0
 40
0.0
 40
0.5000000635
 40
1.0
 40
1.0
 40
1.0
 40
1.0
 10
212.7221572597
 20
159.1402380119
 30
0.0
 10
212.4806263339
 20
159.2083375026
 30
0.0
 10
211.9757147106
 20
159.2680569599
 30
0.0
 10
211.4708031131
 20
159.2083371898
 30
0.0
 10
211.2292723032
 20
159.1402375232
 30
0.0
  0
ARC
  5
3AD
330
208
100
AcDbEntity
  8
7_ALL_FEATURES
  6
Continuous
 62
     9
100
AcDbCircle
 10
211.829401
 20
157.011521
 30
0.0
 40
2.2116938879
100
AcDbArc
 50
105.744216
 51
106.485751
  0
SPLINE
  5
3AE
330
208
100
AcDbEntity
  8
7_ALL_FEATURES
  6
Continuous
 62
     9
100
AcDbSpline
 70
     0
 71
     3
 72
     9
 73
     5
 74
     0
 42
0.000000001
 43
0.0000001
 40
0.0
 40
0.0
 40
0.0
 40
0.0
 40
0.2619768495
 40
1.0
 40
1.0
 40
1.0
 40
1.0
 10
211.2017729897
 20
159.1322924632
 30
0.0
 10
211.1747393168
 20
159.1242912148
 30
0.0
 10
211.0721677696
 20
159.0917512177
 30
0.0
 10
210.9720246721
 20
159.0511325442
 30
0.0
 10
210.9009865013
 20
159.0156134588
 30
0.0
  0
LINE
  5
3AF
330
208
100
AcDbEntity
  8
7_ALL_FEATURES
  6
Continuous
 62
     9
100
AcDbLine
 10
210.900987
 20
159.015613
 30
0.0
 11
187.484831
 21
147.307536
 31
0.0
  0
LINE
  5
3B0
330
208
100
AcDbEntity
  8
7_ALL_FEATURES
  6
Continuous
 62
     9
100
AcDbLine
 10
187.484831
 20
147.307536
 30
0.0
 11
187.212909
 21
147.171575
 31
0.0
  0
SPLINE
  5
3B1
330
208
100
AcDbEntity
  8
7_ALL_FEATURES
  6
Continuous
 62
     9
100
AcDbSpline
 70
     0
 71
     3
 72
    15
 73
    11
 74
     0
 42
0.000000001
 43
0.0000001
 40
0.0
 40
0.0
 40
0.0
 40
0.0
 40
0.1512259957
 40
0.2827499699
 40
0.3967059424
 40
0.4999999988
 40
0.6032940547
 40
0.717250027
 40
0.848774003
 40
1.0
 40
1.0
 40
1.0
 40
1.0
 10
187.2129093316
 20
147.1715748739
 30
0.0
 10
187.1469466747
 20
147.1385935455
 30
0.0
 10
187.027693264
 20
147.0677891483
 30
0.0
 10
186.8828890834
 20
146.9370514383
 30
0.0
 10
186.7900175114
 20
146.7912225557
 30
0.0
 10
186.7571507651
 20
146.6342103024
 30
0.0
 10
186.7900175094
 20
146.4771980489
 30
0.0
 10
186.8828890808
 20
146.3313691651
 30
0.0
 10
187.0276932625
 20
146.2006314542
 30
0.0
 10
187.1469466741
 20
146.1298270557
 30
0.0
 10
187.2129093316
 20
146.0968457269
 30
0.0
  0
LINE
  5
3B2
330
208
100
AcDbEntity
  8
7_ALL_FEATURES
  6
Continuous
 62
     9
100
AcDbLine
 10
187.212909
 20
146.096846
 30
0.0
 11
210.900987
 21
134.252807
 31
0.0
  0
SPLINE
  5
3B3
330
208
100
AcDbEntity
  8
7_ALL_FEATURES
  6
Continuous
 62
     9
100
AcDbSpline
 70
     0
 71
     3
 72
    11
 73
     7
 74
     0
 42
0.000000001
 43
0.0000001
 40
0.0
 40
0.0
 40
0.0
 40
0.0
 40
0.2353780287
 40
0.5000000016
 40
0.7646219746
 40
1.0
 40
1.0
 40
1.0
 40
1.0
 10
210.9009865013
 20
134.2528071421
 30
0.0
 10
211.0559900399
 20
134.1753053728
 30
0.0
 10
211.4122105117
 20
134.0647592507
 30
0.0
 10
211.9757156519
 20
134.0119455829
 30
0.0
 10
212.5392207897
 20
134.0647592518
 30
0.0
 10
212.895441259
 20
134.1753053739
 30
0.0
 10
213.0504447953
 20
134.2528071421
 30
0.0
  0
LINE
  5
3B4
330
208
100
AcDbEntity
  8
7_ALL_FEATURES
  6
Continuous
 62
     9
100
AcDbLine
 10
213.050445
 20
134.252807
 30
0.0
 11
236.738522
 21
146.096846
 31
0.0
  0
SPLINE
  5
3B5
330
208
100
AcDbEntity
  8
7_ALL_FEATURES
  6
Continuous
 62
     9
100
AcDbSpline
 70
     0
 71
     3
 72
    15
 73
    11
 74
     0
 42
0.000000001
 43
0.0000001
 40
0.0
 40
0.0
 40
0.0
 40
0.0
 40
0.151225997
 40
0.282749973
 40
0.3967059453
 40
0.5000000012
 40
0.6032940576
 40
0.7172500301
 40
0.8487740043
 40
1.0
 40
1.0
 40
1.0
 40
1.0
 10
236.738521965
 20
146.0968457269
 30
0.0
 10
236.8044846225
 20
146.1298270557
 30
0.0
 10
236.9237380342
 20
146.2006314542
 30
0.0
 10
237.0685422158
 20
146.3313691651
 30
0.0
 10
237.1614137872
 20
146.4771980489
 30
0.0
 10
237.1942805316
 20
146.6342103025
 30
0.0
 10
237.1614137852
 20
146.7912225557
 30
0.0
 10
237.0685422132
 20
146.9370514383
 30
0.0
 10
236.9237380327
 20
147.0677891484
 30
0.0
 10
236.804484622
 20
147.1385935455
 30
0.0
 10
236.738521965
 20
147.1715748739
 30
0.0
  0
LINE
  5
3B6
330
208
100
AcDbEntity
  8
7_ALL_FEATURES
  6
Continuous
 62
     9
100
AcDbLine
 10
236.738522
 20
147.171575
 30
0.0
 11
236.4666
 21
147.307536
 31
0.0
  0
LINE
  5
3B7
330
208
100
AcDbEntity
  8
7_ALL_FEATURES
  6
Continuous
 62
     9
100
AcDbLine
 10
236.4666
 20
147.307536
 30
0.0
 11
213.050445
 21
159.015613
 31
0.0
  0
SPLINE
  5
3B8
330
208
100
AcDbEntity
  8
7_ALL_FEATURES
  6
Continuous
 62
     9
100
AcDbSpline
 70
     0
 71
     3
 72
     9
 73
     5
 74
     0
 42
0.000000001
 43
0.0000001
 40
0.0
 40
0.0
 40
0.0
 40
0.0
 40
0.4999999553
 40
1.0
 40
1.0
 40
1.0
 40
1.0
 10
212.0893553252
 20
176.0359615581
 30
0.0
 10
212.0547555971
 20
176.0532614222
 30
0.0
 10
211.9757156523
 20
176.0657303468
 30
0.0
 10
211.8966757057
 20
176.0532614252
 30
0.0
 10
211.8620759714
 20
176.0359615581
 30
0.0
  0
LINE
  5
3B9
330
208
100
AcDbEntity
  8
7_ALL_FEATURES
  6
Continuous
 62
     9
100
AcDbLine
 10
270.779218
 20
146.69103
 30
0.0
 11
212.089355
 21
176.035962
 31
0.0
  0
SPLINE
  5
3BA
330
208
100
AcDbEntity
  8
7_ALL_FEATURES
  6
Continuous
 62
     9
100
AcDbSpline
 70
     0
 71
     3
 72
    11
 73
     7
 74
     0
 42
0.000000001
 43
0.0000001
 40
0.0
 40
0.0
 40
0.0
 40
0.0
 40
0.28353557
 40
0.4999999726
 40
0.7164644005
 40
1.0
 40
1.0
 40
1.0
 40
1.0
 10
270.7792181637
 20
146.577390462
 30
0.0
 10
270.7921663122
 20
146.5838645362
 30
0.0
 10
270.8142485553
 20
146.5979077987
 30
0.0
 10
270.8314985286
 20
146.6342102963
 30
0.0
 10
270.8142485566
 20
146.6705127961
 30
0.0
 10
270.7921663136
 20
146.6845560639
 30
0.0
 10
270.7792181637
 20
146.6910301389
 30
0.0
  0
LINE
  5
3BB
330
208
100
AcDbEntity
  8
7_ALL_FEATURES
  6
Continuous
 62
     9
100
AcDbLine
 10
212.089355
 20
117.232459
 30
0.0
 11
212.361277
 21
117.36842
 31
0.0
  0
LINE
  5
3BC
330
208
100
AcDbEntity
  8
7_ALL_FEATURES
  6
Continuous
 62
     9
100
AcDbLine
 10
212.361277
 20
117.36842
 30
0.0
 11
270.779218
 21
146.57739
 31
0.0
  0
SPLINE
  5
3BD
330
208
100
AcDbEntity
  8
7_ALL_FEATURES
  6
Continuous
 62
     9
100
AcDbSpline
 70
     0
 71
     3
 72
     9
 73
     5
 74
     0
 42
0.000000001
 43
0.0000001
 40
0.0
 40
0.0
 40
0.0
 40
0.0
 40
0.4999999553
 40
1.0
 40
1.0
 40
1.0
 40
1.0
 10
211.8620759714
 20
117.2324590427
 30
0.0
 10
211.8966756995
 20
117.2151591787
 30
0.0
 10
211.9757156443
 20
117.2026902541
 30
0.0
 10
212.0547555909
 20
117.2151591756
 30
0.0
 10
212.0893553252
 20
117.2324590427
 30
0.0
  0
SPLINE
  5
3BE
330
208
100
AcDbEntity
  8
7_ALL_FEATURES
  6
Continuous
 62
     9
100
AcDbSpline
 70
     0
 71
     3
 72
    11
 73
     7
 74
     0
 42
0.000000001
 43
0.0000001
 40
0.0
 40
0.0
 40
0.0
 40
0.0
 40
0.2353985198
 40
0.5000000023
 40
0.7646014836
 40
1.0
 40
1.0
 40
1.0
 40
1.0
 10
211.2128177896
 20
136.3726284061
 30
0.0
 10
211.3228566517
 20
136.3176089755
 30
0.0
 10
211.5757178274
 20
136.2391187866
 30
0.0
 10
211.9757156514
 20
136.2017043299
 30
0.0
 10
212.3757134733
 20
136.2391187878
 30
0.0
 10
212.6285746466
 20
136.3176089761
 30
0.0
 10
212.738613507
 20
136.3726284061
 30
0.0
  0
LINE
  5
3BF
330
208
100
AcDbEntity
  8
7_ALL_FEATURES
  6
Continuous
 62
     9
100
AcDbLine
 10
153.172213
 20
146.57739
 30
0.0
 11
211.590154
 21
117.36842
 31
0.0
  0
LINE
  5
3C0
330
208
100
AcDbEntity
  8
7_ALL_FEATURES
  6
Continuous
 62
     9
100
AcDbLine
 10
211.590154
 20
117.36842
 30
0.0
 11
211.862076
 21
117.232459
 31
0.0
  0
SPLINE
  5
3C1
330
208
100
AcDbEntity
  8
7_ALL_FEATURES
  6
Continuous
 62
     9
100
AcDbSpline
 70
     0
 71
     3
 72
    11
 73
     7
 74
     0
 42
0.000000001
 43
0.0000001
 40
0.0
 40
0.0
 40
0.0
 40
0.0
 40
0.2835355995
 40
0.5000000275
 40
0.7164644301
 40
1.0
 40
1.0
 40
1.0
 40
1.0
 10
153.1722131329
 20
146.6910301389
 30
0.0
 10
153.159264983
 20
146.6845560639
 30
0.0
 10
153.13718274
 20
146.6705127961
 30
0.0
 10
153.119932768
 20
146.6342102963
 30
0.0
 10
153.1371827413
 20
146.5979077987
 30
0.0
 10
153.1592649844
 20
146.5838645362
 30
0.0
 10
153.1722131329
 20
146.577390462
 30
0.0
  0
LINE
  5
3C2
330
208
100
AcDbEntity
  8
7_ALL_FEATURES
  6
Continuous
 62
     9
100
AcDbLine
 10
211.862076
 20
176.035962
 30
0.0
 11
153.172213
 21
146.69103
 31
0.0
  0
SPLINE
  5
3C3
330
208
100
AcDbEntity
  8
7_ALL_FEATURES
  6
Continuous
 62
     9
100
AcDbSpline
 70
     0
 71
     3
 72
    11
 73
     7
 74
     0
 42
0.000000001
 43
0.0000001
 40
0.0
 40
0.0
 40
0.0
 40
0.0
 40
0.2182900976
 40
0.4520730879
 40
0.7119762132
 40
1.0
 40
1.0
 40
1.0
 40
1.0
 10
212.8684429196
 20
136.6317829816
 30
0.0
 10
212.8486771062
 20
136.6219105753
 30
0.0
 10
212.8112436923
 20
136.5937465144
 30
0.0
 10
212.7703472936
 20
136.5331302353
 30
0.0
 10
212.7452157407
 20
136.4573055598
 30
0.0
 10
212.7392433907
 20
136.4017738291
 30
0.0
 10
212.738613507
 20
136.3726284061
 30
0.0
  0
SPLINE
  5
3C4
330
208
100
AcDbEntity
  8
7_ALL_FEATURES
  6
Continuous
 62
     9
100
AcDbSpline
 70
     0
 71
     3
 72
    11
 73
     7
 74
     0
 42
0.000000001
 43
0.0000001
 40
0.0
 40
0.0
 40
0.0
 40
0.0
 40
0.2182900976
 40
0.4520730879
 40
0.7119762132
 40
1.0
 40
1.0
 40
1.0
 40
1.0
 10
211.082988377
 20
136.6317829816
 30
0.0
 10
211.1027541904
 20
136.6219105753
 30
0.0
 10
211.1401876043
 20
136.5937465144
 30
0.0
 10
211.181084003
 20
136.5331302353
 30
0.0
 10
211.2062155559
 20
136.4573055598
 30
0.0
 10
211.2121879059
 20
136.4017738291
 30
0.0
 10
211.2128177896
 20
136.3726284061
 30
0.0
  0
DIMENSION
  5
3C5
330
208
100
AcDbEntity
  8
0
  6
Continuous
 62
     2
100
AcDbDimension
280
     0
  2
*D1
 10
127.646062
 20
188.023347
 30
0.0
 11
85.143595
 21
188.023347
 31
0.0
 70
   160
 71
     2
 42
85.0
 73
     0
 74
     0
 75
     0
  3
DIMSTYLE_1
100
AcDbAlignedDimension
 13
42.646062
 23
179.061787
 33
0.0
 14
127.646062
 24
179.061787
 34
0.0
100
AcDbRotatedDimension
  0
DIMENSION
  5
3C6
330
208
100
AcDbEntity
  8
0
  6
Continuous
 62
     2
100
AcDbDimension
280
     0
  2
*D2
 10
21.405093
 20
90.155617
 30
0.0
 11
21.405093
 21
132.653148
 31
0.0
 70
   160
 71
     2
 42
85.0
 73
     0
 74
     0
 75
     0
  3
DIMSTYLE_1
100
AcDbAlignedDimension
 13
34.584554
 23
175.155617
 33
0.0
 14
34.584554
 24
90.155617
 34
0.0
 50
270.0
100
AcDbRotatedDimension
  0
DIMENSION
  5
3C7
330
208
100
AcDbEntity
  8
0
  6
Continuous
 62
     2
100
AcDbDimension
280
     0
  2
*D3
 10
102.646062
 20
180.805347
 30
0.0
 11
85.154748
 21
180.805347
 31
0.0
 70
   160
 71
     2
 42
35.0
 73
     0
 74
     0
 75
     0
  3
DIMSTYLE_1
100
AcDbAlignedDimension
 13
67.646062
 23
182.305347
 33
0.0
 14
102.646062
 24
179.061787
 34
0.0
100
AcDbRotatedDimension
  0
DIMENSION
  5
3C8
330
208
100
AcDbEntity
  8
0
  6
Continuous
 62
     2
100
AcDbDimension
280
     0
  2
*D4
 10
29.770871
 20
115.155617
 30
0.0
 11
29.770871
 21
132.664299
 31
0.0
 70
   160
 71
     2
 42
35.0
 73
     0
 74
     0
 75
     0
  3
DIMSTYLE_1
100
AcDbAlignedDimension
 13
35.209322
 23
150.155617
 33
0.0
 14
34.584554
 24
115.155617
 34
0.0
 50
270.0
100
AcDbRotatedDimension
  0
DIMENSION
  5
3C9
330
208
100
AcDbEntity
  8
0
  6
Continuous
 62
     2
100
AcDbDimension
280
     0
  2
*D5
 10
148.108926
 20
77.518581
 30
0.0
 11
148.108926
 21
83.209283
 31
0.0
 70
   160
 71
     1
 42
8.25
 73
     0
 74
     0
 75
     0
  3
DIMSTYLE_2
100
AcDbAlignedDimension
 13
139.251757
 23
69.268581
 33
0.0
 14
138.162386
 24
77.518581
 34
0.0
 50
90.0
100
AcDbRotatedDimension
  0
INSERT
  5
3CA
330
208
100
AcDbEntity
  8
0
  6
Continuous
 62
     2
100
AcDbBlockReference
  2
LOGO2_BL0
 10
207.828459
 20
39.543518
 30
0.0
  0
ACAD_TABLE
  5
3CB
102
{ACAD_XDICTIONARY
360
424
102
}
330
208
100
AcDbEntity
  8
0
  6
Continuous
 62
     2
160
              3224
310
980C000017000000880000001D000000000000000000F03F00000000000000000000000000000000D820BAC1134068400000000000000000000000000000F03F0000000000000000D9CB19FE91854A4000000000000000000000000000000000000000000000F03F0000000000000000000000000000000000000000000000
310
000000000000000000000000000000F03F54000000200000000200000000000000000000000000000000000000000000000000000000000000008056400000000000000000000000000000000000000000000000000000000000000000000000000000F03F5400000020000000020000000000000000000000000000000000
310
00000000000000000000000000000000000000000000000044C0000000000000000000000000000000000000000000000000000000000000F03F5400000020000000020000000000000000003E4000000000000018C00000000000000000000000000080564000000000000018C00000000000000000000000000000000000
310
00000000000000000000000000F03F5400000020000000020000000000000000003E4000000000000028C00000000000000000000000000080564000000000000028C0000000000000000000000000000000000000000000000000000000000000F03F5400000020000000020000000000000000003E4000000000000036C0
310
0000000000000000000000000080564000000000000036C0000000000000000000000000000000000000000000000000000000000000F03F54000000200000000200000000000000000000000000000000003BC0000000000000000000000000008056400000000000003BC000000000000000000000000000000000000000
310
0000000000000000000000F03F540000002000000002000000000000000000000000000000000044C00000000000000000000000000080564000000000000044C0000000000000000000000000000000000000000000000000000000000000F03F5400000020000000020000000000000000003E4000000000000000000000
310
0000000000000000000000003E400000000000003BC0000000000000000000000000000000000000000000000000000000000000F03F540000002000000002000000000000000080514000000000000000000000000000000000000000000080514000000000000028C0000000000000000000000000000000000000000000
310
000000000000000000F03F540000002000000002000000000000000080564000000000000000000000000000000000000000000080564000000000000044C0000000000000000000000000000000000000000000000000000000000000F03F0C000000100000000B000000C400000026000000CDCCCCCCCC7C3F4000000000
310
000012C0000000000000000000000000000000000000000000000000000000000000F03F000000000000F03F0000000000000000000000000000000041003000350030005F0043005F003000300033000000000014000000010000000000000000000840333333333333EB3F0000000000000000000000000000F03F000000
310
00000000000000000000000000000000000000000000000000000000000000000000000000740078007400000000000000BC000000260000003333333333DF514000000000000013C0000000000000000000000000000000000000000000000000000000000000F03F000000000000F03F0000000000000000000000000000
310
00005200650076003A0030003000000000000C000000010000000000000000000C40333333333333EB3F0000000000000000000000000000F03F00000000000000000000000000000000000000000000000000000000000000000000000000000000740078007400000000000000C000000026000000CDCCCCCCCC7C3F4000
310
000000008026C0000000000000000000000000000000000000000000000000000000000000F03F000000000000F03F000000000000000000000000000000005300630061006C0065003A0031003A003100000012000000010000000000000000000C40333333333333EB3F0000000000000000000000000000F03F00000000
310
000000000000000000000000000000000000000000000000000000000000000000000000740078007400000000000000B4000000260000003333333333DF514000000000008025C0000000000000000000000000000000000000000000000000000000000000F03F000000000000F03F000000000000000000000000000000
310
00410034000000000004000000010000000000000000000C40333333333333EB3F0000000000000000000000000000F03F00000000000000000000000000000000000000000000000000000000000000000000000000000000740078007400000000000000E800000026000000CDCCCCCCCC7C3F4000000000004032C00000
310
00000000000000000000000000000000000000000000000000000000F03F000000000000F03F00000000000000000000000000000000460052004F004E00540041004C00450020005000490041004E004F002000510055004100440052004F00200043004F004D0042004F0032000000000038000000010000000000000000
310
000440333333333333EB3F0000000000000000000000000000F03F00000000000000000000000000000000000000000000000000000000000000000000000000000000740078007400000000000000C800000026000000CDCCCCCCCC7C3F400000000000C039C0000000000000000000000000000000000000000000000000
310
000000000000F03F000000000000F03F0000000000000000000000000000000044004100540045003A00310031002E00310032002E003100390000001A000000010000000000000000000440333333333333EB3F0000000000000000000000000000F03F000000000000000000000000000000000000000000000000000000
310
000000000000000000000000007400780074000000000000001801000026000000CDCCCCCCCCCCF73F0000000000903DC0000000000000000000000000000000000000000000000000000000000000F03F000000000000F03F0000000000000000000000000000000041006E007900200069006E0074006500670072006100
310
6C0020006F00720020007000610072007400690061006C00200072006500700072006F00640075006300740069006F006E00730020006100720065002000700072006F0068006900620069007400650064000000000068000000010000000000000000000240333333333333EB3F0000000000000000000000000000F03F00
310
0000000000000000000000000000000000000000000000000000000000000000000000000000007400780074000000000000002001000026000000CDCCCCCCCCCCF73F00000000007840C0000000000000000000000000000000000000000000000000000000000000F03F000000000000F03F000000000000000000000000
310
0000000077006900740068006F007500740020007000720069006F007200200061007500740068006F007200690073006100740069006F006E0020006F00660020004C002000260020004C0020004C007500630065002000260020004C006900670068007400200073002E0072002E006C002E002C00000072000000010000
310
000000000000000240333333333333EB3F0000000000000000000000000000F03F00000000000000000000000000000000000000000000000000000000000000000000000000000000740078007400000000000000F800000026000000CDCCCCCCCCCCF73F00000000002842C0000000000000000000000000000000000000
310
000000000000000000000000F03F000000000000F03F0000000000000000000000000000000069006E0020006100630063006F007200640061006E006300650020007700690074006800200074006800650020006C0061007700200069006E00200066006F007200630065002E000000000048000000010000000000000000
310
000240333333333333EB3F0000000000000000000000000000F03F00000000000000000000000000000000000000000000000000000000000000000000000000000000740078007400000000000000D800000026000000CDCCCCCCCCCCF73F0000000000D843C0000000000000000000000000000000000000000000000000
310
000000000000F03F000000000000F03F0000000000000000000000000000000041006C006C0020007200690067006800740073002000720065007300650072007600650064002E000000000028000000010000000000000000000240333333333333EB3F0000000000000000000000000000F03F0000000000000000000000
310
0000000000000000000000000000000000000000000000000000000000740078007400000000000000080000001F000000
100
AcDbBlockReference
  2
*T7
 10
194.002412
 20
53.043518
 30
0.0
100
AcDbTable
342
3F4
343
211
 11
1.0
 21
0.0
 31
0.0
 90
       22
 91
        5
 92
        5
 93
        0
 94
        0
 95
        0
 96
        0
141
6.0
141
6.0
141
10.0
141
5.0
141
13.0
142
10.0
142
10.0
142
10.0
142
40.0
142
20.0
171
     1
172
     0
173
     0
174
     0
175
     3
176
     4
 91
       32
178
     0
145
0.0
140
3.5
 92
        0
301
CELL_VALUE
 93
        2
 90
        4
  1
 
 94
        0
300

302
 
304
ACVALUE_END
171
     1
172
     0
173
     1
174
     0
175
     1
176
     1
 91
        0
178
     0
145
0.0
 92
        0
301
CELL_VALUE
 93
        3
 90
        0
 91
        0
 94
        0
300

302

304
ACVALUE_END
171
     1
172
     0
173
     1
174
     0
175
     1
176
     1
 91
        0
178
     0
145
0.0
 92
        0
301
CELL_VALUE
 93
        3
 90
        0
 91
        0
 94
        0
300

302

304
ACVALUE_END
171
     1
172
     0
173
     0
174
     0
175
     1
176
     1
 91
       49
178
     0
145
0.0
170
     4
  7
TEXTSTYLE_2
140
3.0
 92
        0
301
CELL_VALUE
 93
        2
 90
        4
  1
A050_C_003
 94
        0
300

302
A050_C_003
304
ACVALUE_END
171
     1
172
     0
173
     0
174
     0
175
     1
176
     1
 91
       49
178
     0
145
0.0
170
     4
  7
TEXTSTYLE_2
140
3.5
 92
        0
301
CELL_VALUE
 93
        2
 90
        4
  1
Rev:00
 94
        0
300

302
Rev:00
304
ACVALUE_END
171
     1
172
     0
173
     1
174
     0
175
     1
176
     1
 91
        0
178
     0
145
0.0
 92
        0
301
CELL_VALUE
 93
        3
 90
        0
 91
        0
 94
        0
300

302

304
ACVALUE_END
171
     1
172
     0
173
     1
174
     0
175
     1
176
     1
 91
        0
178
     0
145
0.0
 92
        0
301
CELL_VALUE
 93
        3
 90
        0
 91
        0
 94
        0
300

302

304
ACVALUE_END
171
     1
172
     0
173
     1
174
     0
175
     1
176
     1
 91
        0
178
     0
145
0.0
 92
        0
301
CELL_VALUE
 93
        3
 90
        0
 91
        0
 94
        0
300

302

304
ACVALUE_END
171
     1
172
     0
173
     0
174
     0
175
     1
176
     1
 91
       49
178
     0
145
0.0
170
     1
  7
TEXTSTYLE_2
140
3.5
 92
        0
301
CELL_VALUE
 93
        2
 90
        4
  1
Scale:1:1
 94
        0
300

302
Scale:1:1
304
ACVALUE_END
171
     1
172
     0
173
     0
174
     0
175
     1
176
     1
 91
       49
178
     0
145
0.0
170
     4
  7
TEXTSTYLE_2
140
3.5
 92
        0
301
CELL_VALUE
 93
        2
 90
        4
  1
A4
 94
        0
300

302
A4
304
ACVALUE_END
171
     1
172
     0
173
     1
174
     0
175
     1
176
     1
 91
        0
178
     0
145
0.0
 92
        0
301
CELL_VALUE
 93
        3
 90
        0
 91
        0
 94
        0
300

302

304
ACVALUE_END
171
     1
172
     0
173
     1
174
     0
175
     1
176
     1
 91
        0
178
     0
145
0.0
 92
        0
301
CELL_VALUE
 93
        3
 90
        0
 91
        0
 94
        0
300

302

304
ACVALUE_END
171
     1
172
     0
173
     1
174
     0
175
     1
176
     1
 91
        0
178
     0
145
0.0
 92
        0
301
CELL_VALUE
 93
        3
 90
        0
 91
        0
 94
        0
300

302

304
ACVALUE_END
171
     1
172
     0
173
     0
174
     0
175
     2
176
     1
 91
       49
178
     0
145
0.0
170
     4
  7
TEXTSTYLE_2
140
2.5
 92
        0
301
CELL_VALUE
 93
        2
 90
        4
  1
FRONTALE PIANO QUADRO COMBO2
 94
        0
300

302
FRONTALE PIANO QUADRO COMBO2
304
ACVALUE_END
171
     1
172
     0
173
     1
174
     0
175
     1
176
     1
 91
        0
178
     0
145
0.0
 92
        0
301
CELL_VALUE
 93
        3
 90
        0
 91
        0
 94
        0
300

302

304
ACVALUE_END
171
     1
172
     0
173
     1
174
     0
175
     1
176
     1
 91
        0
178
     0
145
0.0
 92
        0
301
CELL_VALUE
 93
        3
 90
        0
 91
        0
 94
        0
300

302

304
ACVALUE_END
171
     1
172
     0
173
     1
174
     0
175
     1
176
     1
 91
        0
178
     0
145
0.0
 92
        0
301
CELL_VALUE
 93
        3
 90
        0
 91
        0
 94
        0
300

302

304
ACVALUE_END
171
     1
172
     0
173
     1
174
     0
175
     1
176
     1
 91
        0
178
     0
145
0.0
 92
        0
301
CELL_VALUE
 93
        3
 90
        0
 91
        0
 94
        0
300

302

304
ACVALUE_END
171
     1
172
     0
173
     0
174
     0
175
     2
176
     1
 91
       49
178
     0
145
0.0
170
     4
  7
TEXTSTYLE_2
140
2.5
 92
        0
301
CELL_VALUE
 93
        2
 90
        4
  1
DATE:11.12.19
 94
        0
300

302
DATE:11.12.19
304
ACVALUE_END
171
     1
172
     0
173
     1
174
     0
175
     1
176
     1
 91
        0
178
     0
145
0.0
 92
        0
301
CELL_VALUE
 93
        3
 90
        0
 91
        0
 94
        0
300

302

304
ACVALUE_END
171
     1
172
     0
173
     0
174
     0
175
     5
176
     1
 91
       49
178
     0
145
0.0
170
     4
  7
TEXTSTYLE_2
140
2.25
 92
        0
301
CELL_VALUE
 93
        2
 90
        4
  1
Any integral or partial reproductions are prohibited \Pwithout prior authorisation of L & L Luce & Light s.r.l., \Pin accordance with the law in force. \PAll rights reserved.
 94
        0
300

302
Any integral or partial reproductions are prohibited \Pwithout prior authorisation of L & L Luce & Light s.r.l., \Pin accordance with the law in force. \PAll rights reserved.
304
ACVALUE_END
171
     1
172
     0
173
     1
174
     0
175
     1
176
     1
 91
        0
178
     0
145
0.0
 92
        0
301
CELL_VALUE
 93
        3
 90
        0
 91
        0
 94
        0
300

302

304
ACVALUE_END
171
     1
172
     0
173
     1
174
     0
175
     1
176
     1
 91
        0
178
     0
145
0.0
 92
        0
301
CELL_VALUE
 93
        3
 90
        0
 91
        0
 94
        0
300

302

304
ACVALUE_END
171
     1
172
     0
173
     1
174
     0
175
     1
176
     1
 91
        0
178
     0
145
0.0
 92
        0
301
CELL_VALUE
 93
        3
 90
        0
 91
        0
 94
        0
300

302

304
ACVALUE_END
171
     1
172
     0
173
     1
174
     0
175
     1
176
     1
 91
        0
178
     0
145
0.0
 92
        0
301
CELL_VALUE
 93
        3
 90
        0
 91
        0
 94
        0
300

302

304
ACVALUE_END
  0
VIEWPORT
  5
41B
330
209
100
AcDbEntity
 67
     1
  8
0
100
AcDbViewport
 10
0.0
 20
0.0
 30
0.0
 40
17.313717
 41
9.522
 68
     1
 69
     1
 12
6.0
 22
4.5
 13
0.0
 23
0.0
 14
10.0
 24
10.0
 15
10.0
 25
10.0
 16
0.0
 26
0.0
 36
1.0
 17
0.0
 27
0.0
 37
0.0
 42
50.0
 43
0.0
 44
0.0
 45
9.522
 50
0.0
 51
0.0
 72
   100
 90
   557168
  1

281
     0
 71
     1
 74
     0
110
0.0
120
0.0
130
0.0
111
1.0
121
0.0
131
0.0
112
0.0
122
1.0
132
0.0
 79
     0
146
0.0
170
     0
 61
     5
292
     1
282
     1
141
0.0
142
0.0
 63
   256
361
41C
  0
ENDSEC
  0
SECTION
  2
OBJECTS
  0
DICTIONARY
  5
C
330
0
100
AcDbDictionary
281
     1
  3
ACAD_DETAILVIEWSTYLE
350
42D
  3
ACAD_GROUP
350
D
  3
ACAD_IMAGE_DICT
350
41D
  3
ACAD_LAYOUT
350
1A
  3
ACAD_MATERIAL
350
40F
  3
ACAD_MLEADERSTYLE
350
42C
  3
ACAD_MLINESTYLE
350
17
  3
ACAD_PLOTSETTINGS
350
19
  3
ACAD_PLOTSTYLENAME
350
E
  3
ACAD_SCALELIST
350
3D1
  3
ACAD_SECTIONVIEWSTYLE
350
42E
  3
ACAD_TABLESTYLE
350
3F3
  3
ACAD_VISUALSTYLE
350
3F6
  3
ACDB_RECOMPOSE_DATA
350
42A
  3
AcDbVariableDictionary
350
426
  3
HOST_DOC_SETTINGS
350
419
  3
MCS_STREAM_DICT
350
415
  0
SUN
  5
418
330
1F4
100
AcDbSun
 90
        1
290
     0
 63
     7
421
 16777215
 40
1.0
291
     1
 91
  2455826
 92
 54000000
292
     0
 70
     2
 71
   256
280
     1
  0
DICTIONARY
  5
424
330
3CB
100
AcDbDictionary
280
     1
281
     1
  3
ACAD_XREC_ROUNDTRIP
360
425
  0
SUN
  5
41C
330
41B
100
AcDbSun
 90
        1
290
     0
 63
     7
421
 16777215
 40
1.0
291
     1
 91
  2455826
 92
 54000000
292
     0
 70
     2
 71
   256
280
     1
  0
DICTIONARY
  5
42D
102
{ACAD_REACTORS
330
C
102
}
330
C
100
AcDbDictionary
281
     1
  0
DICTIONARY
  5
D
102
{ACAD_REACTORS
330
C
102
}
330
C
100
AcDbDictionary
281
     1
  0
DICTIONARY
  5
41D
102
{ACAD_REACTORS
330
C
102
}
330
C
100
AcDbDictionary
281
     1
  0
DICTIONARY
  5
1A
102
{ACAD_REACTORS
330
C
102
}
330
C
100
AcDbDictionary
281
     1
  3
Layout1
350
3CE
  3
Model
350
3CD
  0
DICTIONARY
  5
40F
102
{ACAD_REACTORS
330
C
102
}
330
C
100
AcDbDictionary
281
     1
  3
ByBlock
350
411
  3
ByLayer
350
410
  3
Global
350
412
  0
DICTIONARY
  5
42C
102
{ACAD_REACTORS
330
C
102
}
330
C
100
AcDbDictionary
281
     1
  0
DICTIONARY
  5
17
102
{ACAD_REACTORS
330
C
102
}
330
C
100
AcDbDictionary
281
     1
  3
Standard
350
18
  0
DICTIONARY
  5
19
102
{ACAD_REACTORS
330
C
102
}
330
C
100
AcDbDictionary
281
     1
  0
ACDBDICTIONARYWDFLT
  5
E
102
{ACAD_REACTORS
330
C
102
}
330
C
100
AcDbDictionary
281
     1
  3
Normal
350
F
100
AcDbDictionaryWithDefault
340
F
  0
DICTIONARY
  5
3D1
102
{ACAD_REACTORS
330
C
102
}
330
C
100
AcDbDictionary
281
     1
  3
A0
350
3D2
  3
A1
350
3D3
  3
A2
350
3D4
  3
A3
350
3D5
  3
A4
350
3D6
  3
A5
350
3D7
  3
A6
350
3D8
  3
A7
350
3D9
  3
A8
350
3DA
  3
A9
350
3DB
  3
B0
350
3DC
  3
B1
350
3DD
  3
B2
350
3DE
  3
B3
350
3DF
  3
B4
350
3E0
  3
B5
350
3E1
  3
B6
350
3E2
  3
B7
350
3E3
  3
B8
350
3E4
  3
B9
350
3E5
  3
C0
350
3E6
  3
C1
350
3E7
  3
C2
350
3E8
  3
C3
350
3E9
  3
C4
350
3EA
  3
C5
350
3EB
  3
C6
350
3EC
  3
C7
350
3ED
  3
C8
350
3EE
  3
C9
350
3EF
  3
D0
350
3F0
  3
D1
350
3F1
  3
D2
350
3F2
  0
DICTIONARY
  5
42E
102
{ACAD_REACTORS
330
C
102
}
330
C
100
AcDbDictionary
281
     1
  0
DICTIONARY
  5
3F3
102
{ACAD_REACTORS
330
C
102
}
330
C
100
AcDbDictionary
281
     1
  3
Standard
350
3F4
  0
DICTIONARY
  5
3F6
102
{ACAD_REACTORS
330
C
102
}
330
C
100
AcDbDictionary
281
     1
  3
2dWireframe
350
3FB
  3
Basic
350
3FE
  3
Brighten
350
402
  3
ColorChange
350
406
  3
Conceptual
350
400
  3
Dim
350
401
  3
EdgeColorOff
350
409
  3
Facepattern
350
405
  3
Flat
350
3F7
  3
FlatWithEdges
350
3F8
  3
Gouraud
350
3F9
  3
GouraudWithEdges
350
3FA
  3
Hidden
350
3FD
  3
JitterOff
350
407
  3
Linepattern
350
404
  3
OverhangOff
350
408
  3
Realistic
350
3FF
  3
Shaded
350
40E
  3
Shaded with edges
350
40D
  3
Shades of Gray
350
40A
  3
Sketchy
350
40B
  3
Thicken
350
403
  3
Wireframe
350
3FC
  3
X-Ray
350
40C
  0
XRECORD
  5
42A
102
{ACAD_REACTORS
330
C
102
}
330
C
100
AcDbXrecord
280
     1
 90
        1
330
3CB
330
3F4
  0
DICTIONARY
  5
426
102
{ACAD_REACTORS
330
C
102
}
330
C
100
AcDbDictionary
281
     1
  3
CANNOSCALE
350
427
  3
CTABLESTYLE
350
42B
  0
DICTIONARY
  5
419
102
{ACAD_REACTORS
330
C
102
}
330
C
100
AcDbDictionary
281
     1
  3
NCDocParameters
350
41A
  0
DICTIONARY
  5
415
102
{ACAD_REACTORS
330
C
102
}
330
C
100
AcDbDictionary
281
     1
  3
MC_VERSION_DATA
350
420
  3
MCS_DOCUMENT_ID
350
416
  3
MCS_PARAMS_DATA
350
41E
  0
XRECORD
  5
425
102
{ACAD_REACTORS
330
424
102
}
330
424
100
AcDbXrecord
280
     1
102
ACAD_ROUNDTRIP_2008_TABLE_ENTITY
360
422
 70
     2
 90
        1
 10
0.0
 20
0.0
 30
0.0
 90
        0
 90
        4
361
423
  0
LAYOUT
  5
3CE
102
{ACAD_REACTORS
330
1A
102
}
330
1A
100
AcDbPlotSettings
  1

  2
none_device
  4
ISO_A4_(297.00_x_210.00_MM)
  6

 40
0.0
 41
0.0
 42
0.0
 43
0.0
 44
297.0
 45
210.0
 46
0.0
 47
0.0
 48
0.0
 49
0.0
140
0.0
141
0.0
142
1.0
143
1.0
 70
     0
 72
     1
 73
     0
 74
     0
  7

 75
     0
 76
     0
 77
     2
 78
   300
147
1.0
148
0.0
149
0.0
100
AcDbLayout
  1
Layout1
 70
     0
 71
     1
 10
0.0
 20
0.0
 11
297.0
 21
210.0
 12
0.0
 22
0.0
 32
0.0
 14
0.0
 24
0.0
 34
0.0
 15
0.0
 25
0.0
 35
0.0
146
0.0
 13
0.0
 23
0.0
 33
0.0
 16
1.0
 26
0.0
 36
0.0
 17
0.0
 27
1.0
 37
0.0
 76
     0
330
209
331
41B
  0
LAYOUT
  5
3CD
102
{ACAD_REACTORS
330
1A
102
}
330
1A
100
AcDbPlotSettings
  1

  2
none_device
  4
ISO_A4_(297.00_x_210.00_MM)
  6

 40
0.0
 41
0.0
 42
0.0
 43
0.0
 44
297.0
 45
210.0
 46
0.0
 47
0.0
 48
0.0
 49
0.0
140
0.0
141
0.0
142
1.0
143
1.0
 70
  1024
 72
     1
 73
     0
 74
     0
  7

 75
     0
 76
     0
 77
     2
 78
   300
147
1.0
148
0.0
149
0.0
100
AcDbLayout
  1
Model
 70
     0
 71
     0
 10
0.0
 20
0.0
 11
297.0
 21
210.0
 12
0.0
 22
0.0
 32
0.0
 14
0.0
 24
0.0
 34
0.0
 15
0.0
 25
0.0
 35
0.0
146
0.0
 13
0.0
 23
0.0
 33
0.0
 16
1.0
 26
0.0
 36
0.0
 17
0.0
 27
1.0
 37
0.0
 76
     0
330
208
331
1F4
  0
MATERIAL
  5
411
102
{ACAD_REACTORS
330
40F
102
}
330
40F
100
AcDbMaterial
  1
ByBlock
 72
     1
 94
      127
  0
MATERIAL
  5
410
102
{ACAD_REACTORS
330
40F
102
}
330
40F
100
AcDbMaterial
  1
ByLayer
 72
     1
 94
      127
  0
MATERIAL
  5
412
102
{ACAD_REACTORS
330
40F
102
}
330
40F
100
AcDbMaterial
  1
Global
 72
     1
 94
      127
  0
MLINESTYLE
  5
18
102
{ACAD_REACTORS
330
17
102
}
330
17
100
AcDbMlineStyle
  2
STANDARD
 70
     0
  3

 62
   256
 51
90.0
 52
90.0
 71
     2
 49
0.5
 62
   256
  6
BYLAYER
 49
-0.5
 62
   256
  6
BYLAYER
  0
ACDBPLACEHOLDER
  5
F
102
{ACAD_REACTORS
330
E
102
}
330
E
  0
SCALE
  5
3D2
102
{ACAD_REACTORS
330
3D1
102
}
330
3D1
100
AcDbScale
 70
     0
300
1:1
140
1.0
141
1.0
290
     1
  0
SCALE
  5
3D3
102
{ACAD_REACTORS
330
3D1
102
}
330
3D1
100
AcDbScale
 70
     0
300
1:2
140
1.0
141
2.0
290
     0
  0
SCALE
  5
3D4
102
{ACAD_REACTORS
330
3D1
102
}
330
3D1
100
AcDbScale
 70
     0
300
1:4
140
1.0
141
4.0
290
     0
  0
SCALE
  5
3D5
102
{ACAD_REACTORS
330
3D1
102
}
330
3D1
100
AcDbScale
 70
     0
300
1:5
140
1.0
141
5.0
290
     0
  0
SCALE
  5
3D6
102
{ACAD_REACTORS
330
3D1
102
}
330
3D1
100
AcDbScale
 70
     0
300
1:8
140
1.0
141
8.0
290
     0
  0
SCALE
  5
3D7
102
{ACAD_REACTORS
330
3D1
102
}
330
3D1
100
AcDbScale
 70
     0
300
1:10
140
1.0
141
10.0
290
     0
  0
SCALE
  5
3D8
102
{ACAD_REACTORS
330
3D1
102
}
330
3D1
100
AcDbScale
 70
     0
300
1:16
140
1.0
141
16.0
290
     0
  0
SCALE
  5
3D9
102
{ACAD_REACTORS
330
3D1
102
}
330
3D1
100
AcDbScale
 70
     0
300
1:20
140
1.0
141
20.0
290
     0
  0
SCALE
  5
3DA
102
{ACAD_REACTORS
330
3D1
102
}
330
3D1
100
AcDbScale
 70
     0
300
1:30
140
1.0
141
30.0
290
     0
  0
SCALE
  5
3DB
102
{ACAD_REACTORS
330
3D1
102
}
330
3D1
100
AcDbScale
 70
     0
300
1:40
140
1.0
141
40.0
290
     0
  0
SCALE
  5
3DC
102
{ACAD_REACTORS
330
3D1
102
}
330
3D1
100
AcDbScale
 70
     0
300
1:50
140
1.0
141
50.0
290
     0
  0
SCALE
  5
3DD
102
{ACAD_REACTORS
330
3D1
102
}
330
3D1
100
AcDbScale
 70
     0
300
1:100
140
1.0
141
100.0
290
     0
  0
SCALE
  5
3DE
102
{ACAD_REACTORS
330
3D1
102
}
330
3D1
100
AcDbScale
 70
     0
300
2:1
140
2.0
141
1.0
290
     0
  0
SCALE
  5
3DF
102
{ACAD_REACTORS
330
3D1
102
}
330
3D1
100
AcDbScale
 70
     0
300
4:1
140
4.0
141
1.0
290
     0
  0
SCALE
  5
3E0
102
{ACAD_REACTORS
330
3D1
102
}
330
3D1
100
AcDbScale
 70
     0
300
8:1
140
8.0
141
1.0
290
     0
  0
SCALE
  5
3E1
102
{ACAD_REACTORS
330
3D1
102
}
330
3D1
100
AcDbScale
 70
     0
300
10:1
140
10.0
141
1.0
290
     0
  0
SCALE
  5
3E2
102
{ACAD_REACTORS
330
3D1
102
}
330
3D1
100
AcDbScale
 70
     0
300
100:1
140
100.0
141
1.0
290
     0
  0
SCALE
  5
3E3
102
{ACAD_REACTORS
330
3D1
102
}
330
3D1
100
AcDbScale
 70
     0
300
1/128" = 1'-0"
140
0.007812
141
12.0
290
     0
  0
SCALE
  5
3E4
102
{ACAD_REACTORS
330
3D1
102
}
330
3D1
100
AcDbScale
 70
     0
300
1/64" = 1'-0"
140
0.015625
141
12.0
290
     0
  0
SCALE
  5
3E5
102
{ACAD_REACTORS
330
3D1
102
}
330
3D1
100
AcDbScale
 70
     0
300
1/32" = 1'-0"
140
0.03125
141
12.0
290
     0
  0
SCALE
  5
3E6
102
{ACAD_REACTORS
330
3D1
102
}
330
3D1
100
AcDbScale
 70
     0
300
1/16" = 1'-0"
140
0.0625
141
12.0
290
     0
  0
SCALE
  5
3E7
102
{ACAD_REACTORS
330
3D1
102
}
330
3D1
100
AcDbScale
 70
     0
300
3/32" = 1'-0"
140
0.09375
141
12.0
290
     0
  0
SCALE
  5
3E8
102
{ACAD_REACTORS
330
3D1
102
}
330
3D1
100
AcDbScale
 70
     0
300
1/8" = 1'-0"
140
0.125
141
12.0
290
     0
  0
SCALE
  5
3E9
102
{ACAD_REACTORS
330
3D1
102
}
330
3D1
100
AcDbScale
 70
     0
300
3/16" = 1'-0"
140
0.1875
141
12.0
290
     0
  0
SCALE
  5
3EA
102
{ACAD_REACTORS
330
3D1
102
}
330
3D1
100
AcDbScale
 70
     0
300
1/4" = 1'-0"
140
0.25
141
12.0
290
     0
  0
SCALE
  5
3EB
102
{ACAD_REACTORS
330
3D1
102
}
330
3D1
100
AcDbScale
 70
     0
300
3/8" = 1'-0"
140
0.375
141
12.0
290
     0
  0
SCALE
  5
3EC
102
{ACAD_REACTORS
330
3D1
102
}
330
3D1
100
AcDbScale
 70
     0
300
1/2" = 1'-0"
140
0.5
141
12.0
290
     0
  0
SCALE
  5
3ED
102
{ACAD_REACTORS
330
3D1
102
}
330
3D1
100
AcDbScale
 70
     0
300
3/4" = 1'-0"
140
0.75
141
12.0
290
     0
  0
SCALE
  5
3EE
102
{ACAD_REACTORS
330
3D1
102
}
330
3D1
100
AcDbScale
 70
     0
300
1" = 1'-0"
140
1.0
141
12.0
290
     0
  0
SCALE
  5
3EF
102
{ACAD_REACTORS
330
3D1
102
}
330
3D1
100
AcDbScale
 70
     0
300
1-1/2" = 1'-0"
140
1.5
141
12.0
290
     0
  0
SCALE
  5
3F0
102
{ACAD_REACTORS
330
3D1
102
}
330
3D1
100
AcDbScale
 70
     0
300
3" = 1'-0"
140
3.0
141
12.0
290
     0
  0
SCALE
  5
3F1
102
{ACAD_REACTORS
330
3D1
102
}
330
3D1
100
AcDbScale
 70
     0
300
6" = 1'-0"
140
6.0
141
12.0
290
     0
  0
SCALE
  5
3F2
102
{ACAD_REACTORS
330
3D1
102
}
330
3D1
100
AcDbScale
 70
     0
300
1'-0" = 1'-0"
140
12.0
141
12.0
290
     0
  0
TABLESTYLE
  5
3F4
102
{ACAD_REACTORS
330
3F3
102
}
102
{ACAD_XDICTIONARY
360
428
102
}
330
3F3
100
AcDbTableStyle
  3
Standard
 70
     0
 71
     0
 40
0.06
 41
0.06
280
     0
281
     0
  7
STANDARD
140
4.5
170
     2
 62
     0
 63
   257
283
     0
 90
        4
 91
        0
  1

274
    -2
284
     1
 64
     0
275
    -2
285
     1
 65
     0
276
    -2
286
     1
 66
     0
277
    -2
287
     1
 67
     0
278
    -2
288
     1
 68
     0
279
    -2
289
     1
 69
     0
  7
STANDARD
140
6.0
170
     5
 62
     0
 63
   257
283
     0
 90
        4
 91
        0
  1

274
    -2
284
     1
 64
     0
275
    -2
285
     1
 65
     0
276
    -2
286
     1
 66
     0
277
    -2
287
     1
 67
     0
278
    -2
288
     1
 68
     0
279
    -2
289
     1
 69
     0
  7
STANDARD
140
4.5
170
     5
 62
     0
 63
   257
283
     0
 90
        4
 91
        0
  1

274
    -2
284
     1
 64
     0
275
    -2
285
     1
 65
     0
276
    -2
286
     1
 66
     0
277
    -2
287
     1
 67
     0
278
    -2
288
     1
 68
     0
279
    -2
289
     1
 69
     0
  0
VISUALSTYLE
  5
3FB
102
{ACAD_REACTORS
330
3F6
102
}
330
3F6
100
AcDbVisualStyle
  2
2dWireframe
 70
     4
177
     3
291
     0
 70
    58
 90
        0
176
     1
 90
        2
176
     1
 90
        0
176
     1
 90
        0
176
     1
 40
0.6
176
     1
 40
30.0
176
     1
 62
     7
420
 16777215
176
     1
 90
        1
176
     1
 90
        4
176
     1
 62
     7
176
     1
 62
   257
176
     1
 90
        1
176
     1
 90
        1
176
     1
 40
1.0
176
     1
 90
        0
176
     1
 62
   257
176
     1
 40
1.0
176
     1
 90
        1
176
     1
 90
        6
176
     1
 90
        2
176
     1
 62
     7
176
     1
 90
        5
176
     1
 90
        0
176
     1
 90
        0
176
     1
290
     0
176
     1
 90
        1
176
     1
 40
0.0
176
     1
 90
        0
176
     1
290
     1
176
     1
290
     1
176
     1
290
     0
176
     1
290
     0
176
     1
290
     0
176
     1
290
     0
176
     1
290
     0
176
     1
290
     0
176
     1
290
     0
176
     1
 90
       50
176
     1
 40
0.0
176
     1
 40
1.0
176
     1
 90
        0
176
     1
 62
    18
420
        0
176
     1
 90
       50
176
     1
 90
        3
176
     1
 62
     5
420
      255
176
     1
290
     0
176
     1
 90
       50
176
     1
 90
       50
176
     1
 90
       50
176
     1
290
     0
176
     1
 90
       50
176
     1
 62
   256
176
     0
 40
1.0
176
     0
 90
        2
176
     1
  1
strokes_ogs.tif
176
     1
290
     0
176
     1
 40
1.0
176
     1
 40
1.0
176
     1
  0
VISUALSTYLE
  5
3FE
102
{ACAD_REACTORS
330
3F6
102
}
330
3F6
100
AcDbVisualStyle
  2
Basic
 70
     7
177
     3
291
     1
 70
    58
 90
        1
176
     1
 90
        0
176
     1
 90
        1
176
     1
 90
        0
176
     1
 40
0.6
176
     1
 40
30.0
176
     1
 62
     7
420
 16777215
176
     1
 90
        0
176
     1
 90
        4
176
     1
 62
     7
176
     1
 62
   257
176
     1
 90
        1
176
     1
 90
        1
176
     1
 40
1.0
176
     1
 90
        8
176
     1
 62
     7
176
     1
 40
1.0
176
     1
 90
        1
176
     1
 90
        6
176
     1
 90
        2
176
     1
 62
     7
176
     1
 90
        5
176
     1
 90
        0
176
     1
 90
        0
176
     1
290
     0
176
     1
 90
        1
176
     1
 40
0.0
176
     1
 90
        0
176
     1
290
     0
176
     1
290
     1
176
     1
290
     1
176
     1
290
     0
176
     1
290
     0
176
     1
290
     0
176
     1
290
     0
176
     1
290
     0
176
     1
290
     0
176
     1
 90
       50
176
     1
 40
0.0
176
     1
 40
1.0
176
     1
 90
        0
176
     1
 62
    18
420
        0
176
     1
 90
       50
176
     1
 90
        3
176
     1
 62
     5
420
      255
176
     1
290
     0
176
     1
 90
       50
176
     1
 90
       50
176
     1
 90
       50
176
     1
290
     0
176
     1
 90
       50
176
     1
 62
   256
176
     0
 40
1.0
176
     0
 90
        2
176
     1
  1
strokes_ogs.tif
176
     1
290
     0
176
     1
 40
1.0
176
     1
 40
1.0
176
     1
  0
VISUALSTYLE
  5
402
102
{ACAD_REACTORS
330
3F6
102
}
330
3F6
100
AcDbVisualStyle
  2
Brighten
 70
    12
177
     3
291
     1
 70
    58
 90
        2
176
     1
 90
        2
176
     1
 90
        0
176
     1
 90
        0
176
     1
 40
0.6
176
     1
 40
30.0
176
     1
 62
     7
420
 16777215
176
     1
 90
        1
176
     1
 90
        4
176
     1
 62
     7
176
     1
 62
   257
176
     1
 90
        1
176
     1
 90
        1
176
     1
 40
1.0
176
     1
 90
        8
176
     1
 62
     7
176
     1
 40
1.0
176
     1
 90
        1
176
     1
 90
        6
176
     1
 90
        2
176
     1
 62
     7
176
     1
 90
        5
176
     1
 90
        0
176
     1
 90
        0
176
     1
290
     0
176
     1
 90
        1
176
     1
 40
50.0
176
     1
 90
        0
176
     1
290
     0
176
     1
290
     1
176
     1
290
     1
176
     1
290
     0
176
     1
290
     0
176
     1
290
     0
176
     1
290
     0
176
     1
290
     0
176
     1
290
     0
176
     1
 90
       50
176
     1
 40
0.0
176
     1
 40
1.0
176
     1
 90
        0
176
     1
 62
    18
420
        0
176
     1
 90
       50
176
     1
 90
        3
176
     1
 62
     5
420
      255
176
     1
290
     0
176
     1
 90
       50
176
     1
 90
       50
176
     1
 90
       50
176
     1
290
     0
176
     1
 90
       50
176
     1
 62
   256
176
     0
 40
1.0
176
     0
 90
        2
176
     1
  1
strokes_ogs.tif
176
     1
290
     0
176
     1
 40
1.0
176
     1
 40
1.0
176
     1
  0
VISUALSTYLE
  5
406
102
{ACAD_REACTORS
330
3F6
102
}
330
3F6
100
AcDbVisualStyle
  2
ColorChange
 70
    16
177
     3
291
     1
 70
    58
 90
        2
176
     1
 90
        2
176
     1
 90
        3
176
     1
 90
        0
176
     1
 40
0.6
176
     1
 40
30.0
176
     1
 62
     8
420
  8421504
176
     1
 90
        1
176
     1
 90
        4
176
     1
 62
     7
176
     1
 62
   257
176
     1
 90
        1
176
     1
 90
        1
176
     1
 40
1.0
176
     1
 90
        8
176
     1
 62
     8
420
  8421504
176
     1
 40
1.0
176
     1
 90
        1
176
     1
 90
        6
176
     1
 90
        2
176
     1
 62
     7
176
     1
 90
        5
176
     1
 90
        0
176
     1
 90
        0
176
     1
290
     0
176
     1
 90
        1
176
     1
 40
0.0
176
     1
 90
        0
176
     1
290
     0
176
     1
290
     1
176
     1
290
     1
176
     1
290
     0
176
     1
290
     0
176
     1
290
     0
176
     1
290
     0
176
     1
290
     0
176
     1
290
     0
176
     1
 90
       50
176
     1
 40
0.0
176
     1
 40
1.0
176
     1
 90
        0
176
     1
 62
    18
420
        0
176
     1
 90
       50
176
     1
 90
        3
176
     1
 62
     5
420
      255
176
     1
290
     0
176
     1
 90
       50
176
     1
 90
       50
176
     1
 90
       50
176
     1
290
     0
176
     1
 90
       50
176
     1
 62
   256
176
     0
 40
1.0
176
     0
 90
        2
176
     1
  1
strokes_ogs.tif
176
     1
290
     0
176
     1
 40
1.0
176
     1
 40
1.0
176
     1
  0
VISUALSTYLE
  5
400
102
{ACAD_REACTORS
330
3F6
102
}
330
3F6
100
AcDbVisualStyle
  2
Conceptual
 70
     9
177
     3
291
     0
 70
    58
 90
        3
176
     1
 90
        2
176
     1
 90
        0
176
     1
 90
        0
176
     1
 40
0.6
176
     1
 40
30.0
176
     1
 62
     7
420
 16777215
176
     1
 90
        2
176
     1
 90
        2
176
     1
 62
     7
176
     1
 62
   257
176
     1
 90
        1
176
     1
 90
        1
176
     1
 40
179.0
176
     1
 90
        8
176
     1
 62
     7
176
     1
 40
1.0
176
     1
 90
        1
176
     1
 90
        6
176
     1
 90
        2
176
     1
 62
     7
176
     1
 90
        3
176
     1
 90
        0
176
     1
 90
        0
176
     1
290
     0
176
     1
 90
        1
176
     1
 40
0.0
176
     1
 90
        0
176
     1
290
     0
176
     1
290
     1
176
     1
290
     1
176
     1
290
     0
176
     1
290
     0
176
     1
290
     0
176
     1
290
     0
176
     1
290
     0
176
     1
290
     0
176
     1
 90
       50
176
     1
 40
0.0
176
     1
 40
1.0
176
     1
 90
        0
176
     1
 62
    18
420
        0
176
     1
 90
       50
176
     1
 90
        3
176
     1
 62
     5
420
      255
176
     1
290
     0
176
     1
 90
       50
176
     1
 90
       50
176
     1
 90
       50
176
     1
290
     0
176
     1
 90
       50
176
     1
 62
   256
176
     0
 40
1.0
176
     0
 90
        2
176
     1
  1
strokes_ogs.tif
176
     1
290
     0
176
     1
 40
1.0
176
     1
 40
1.0
176
     1
  0
VISUALSTYLE
  5
401
102
{ACAD_REACTORS
330
3F6
102
}
330
3F6
100
AcDbVisualStyle
  2
Dim
 70
    11
177
     3
291
     1
 70
    58
 90
        2
176
     1
 90
        2
176
     1
 90
        0
176
     1
 90
        0
176
     1
 40
0.6
176
     1
 40
30.0
176
     1
 62
     7
420
 16777215
176
     1
 90
        1
176
     1
 90
        4
176
     1
 62
     7
176
     1
 62
   257
176
     1
 90
        1
176
     1
 90
        1
176
     1
 40
1.0
176
     1
 90
        8
176
     1
 62
     7
176
     1
 40
1.0
176
     1
 90
        1
176
     1
 90
        6
176
     1
 90
        2
176
     1
 62
     7
176
     1
 90
        5
176
     1
 90
        0
176
     1
 90
        0
176
     1
290
     0
176
     1
 90
        1
176
     1
 40
-50.0
176
     1
 90
        0
176
     1
290
     0
176
     1
290
     1
176
     1
290
     1
176
     1
290
     0
176
     1
290
     0
176
     1
290
     0
176
     1
290
     0
176
     1
290
     0
176
     1
290
     0
176
     1
 90
       50
176
     1
 40
0.0
176
     1
 40
1.0
176
     1
 90
        0
176
     1
 62
    18
420
        0
176
     1
 90
       50
176
     1
 90
        3
176
     1
 62
     5
420
      255
176
     1
290
     0
176
     1
 90
       50
176
     1
 90
       50
176
     1
 90
       50
176
     1
290
     0
176
     1
 90
       50
176
     1
 62
   256
176
     0
 40
1.0
176
     0
 90
        2
176
     1
  1
strokes_ogs.tif
176
     1
290
     0
176
     1
 40
1.0
176
     1
 40
1.0
176
     1
  0
VISUALSTYLE
  5
409
102
{ACAD_REACTORS
330
3F6
102
}
330
3F6
100
AcDbVisualStyle
  2
EdgeColorOff
 70
    22
177
     3
291
     1
 70
    58
 90
        2
176
     0
 90
        2
176
     0
 90
        0
176
     0
 90
        0
176
     0
 40
0.6
176
     0
 40
30.0
176
     0
 62
     7
420
 16777215
176
     0
 90
        1
176
     0
 90
        4
176
     0
 62
     7
176
     0
 62
   257
176
     0
 90
        1
176
     0
 90
        1
176
     0
 40
1.0
176
     0
 90
        8
176
     2
 62
     7
176
     0
 40
1.0
176
     0
 90
        1
176
     0
 90
        6
176
     0
 90
        2
176
     0
 62
     7
176
     0
 90
        5
176
     0
 90
        0
176
     0
 90
        0
176
     0
290
     0
176
     0
 90
        1
176
     0
 40
0.0
176
     0
 90
        0
176
     0
290
     0
176
     0
290
     1
176
     0
290
     1
176
     0
290
     0
176
     0
290
     0
176
     0
290
     0
176
     0
290
     0
176
     0
290
     0
176
     0
290
     0
176
     0
 90
       50
176
     0
 40
0.0
176
     0
 40
1.0
176
     0
 90
        0
176
     0
 62
    18
420
        0
176
     0
 90
       50
176
     0
 90
        3
176
     0
 62
     5
420
      255
176
     0
290
     0
176
     0
 90
       50
176
     0
 90
       50
176
     0
 90
       50
176
     0
290
     0
176
     0
 90
       50
176
     0
 62
   256
176
     0
 40
1.0
176
     0
 90
        2
176
     0
  1
strokes_ogs.tif
176
     0
290
     0
176
     0
 40
1.0
176
     0
 40
1.0
176
     0
  0
VISUALSTYLE
  5
405
102
{ACAD_REACTORS
330
3F6
102
}
330
3F6
100
AcDbVisualStyle
  2
Facepattern
 70
    15
177
     3
291
     1
 70
    58
 90
        2
176
     1
 90
        2
176
     1
 90
        0
176
     1
 90
        0
176
     1
 40
0.6
176
     1
 40
30.0
176
     1
 62
     7
420
 16777215
176
     1
 90
        1
176
     1
 90
        4
176
     1
 62
     7
176
     1
 62
   257
176
     1
 90
        1
176
     1
 90
        1
176
     1
 40
1.0
176
     1
 90
        8
176
     1
 62
     7
176
     1
 40
1.0
176
     1
 90
        1
176
     1
 90
        6
176
     1
 90
        2
176
     1
 62
     7
176
     1
 90
        5
176
     1
 90
        0
176
     1
 90
        0
176
     1
290
     0
176
     1
 90
        1
176
     1
 40
0.0
176
     1
 90
        0
176
     1
290
     0
176
     1
290
     1
176
     1
290
     1
176
     1
290
     0
176
     1
290
     0
176
     1
290
     0
176
     1
290
     0
176
     1
290
     0
176
     1
290
     0
176
     1
 90
       50
176
     1
 40
0.0
176
     1
 40
1.0
176
     1
 90
        0
176
     1
 62
    18
420
        0
176
     1
 90
       50
176
     1
 90
        3
176
     1
 62
     5
420
      255
176
     1
290
     0
176
     1
 90
       50
176
     1
 90
       50
176
     1
 90
       50
176
     1
290
     0
176
     1
 90
       50
176
     1
 62
   256
176
     0
 40
1.0
176
     0
 90
        2
176
     1
  1
strokes_ogs.tif
176
     1
290
     0
176
     1
 40
1.0
176
     1
 40
1.0
176
     1
  0
VISUALSTYLE
  5
3F7
102
{ACAD_REACTORS
330
3F6
102
}
330
3F6
100
AcDbVisualStyle
  2
Flat
 70
     0
177
     3
291
     1
 70
    58
 90
        2
176
     1
 90
        1
176
     1
 90
        1
176
     1
 90
        2
176
     1
 40
0.6
176
     1
 40
30.0
176
     1
 62
     7
420
 16777215
176
     1
 90
        0
176
     1
 90
        0
176
     1
 62
     7
176
     1
 62
   257
176
     1
 90
        1
176
     1
 90
        1
176
     1
 40
1.0
176
     1
 90
        8
176
     1
 62
     7
176
     1
 40
1.0
176
     1
 90
        1
176
     1
 90
        6
176
     1
 90
        2
176
     1
 62
     7
176
     1
 90
        5
176
     1
 90
        0
176
     1
 90
        0
176
     1
290
     0
176
     1
 90
       13
176
     1
 40
0.0
176
     1
 90
        0
176
     1
290
     0
176
     1
290
     1
176
     1
290
     1
176
     1
290
     0
176
     1
290
     0
176
     1
290
     0
176
     1
290
     0
176
     1
290
     0
176
     1
290
     0
176
     1
 90
       50
176
     1
 40
0.0
176
     1
 40
1.0
176
     1
 90
        0
176
     1
 62
    18
420
        0
176
     1
 90
       50
176
     1
 90
        3
176
     1
 62
     5
420
      255
176
     1
290
     0
176
     1
 90
       50
176
     1
 90
       50
176
     1
 90
       50
176
     1
290
     0
176
     1
 90
       50
176
     1
 62
   256
176
     0
 40
1.0
176
     0
 90
        2
176
     1
  1
strokes_ogs.tif
176
     1
290
     0
176
     1
 40
1.0
176
     1
 40
1.0
176
     1
  0
VISUALSTYLE
  5
3F8
102
{ACAD_REACTORS
330
3F6
102
}
330
3F6
100
AcDbVisualStyle
  2
FlatWithEdges
 70
     1
177
     3
291
     1
 70
    58
 90
        2
176
     1
 90
        1
176
     1
 90
        1
176
     1
 90
        2
176
     1
 40
0.6
176
     1
 40
30.0
176
     1
 62
     7
420
 16777215
176
     1
 90
        1
176
     1
 90
        0
176
     1
 62
     7
176
     1
 62
   257
176
     1
 90
        1
176
     1
 90
        1
176
     1
 40
1.0
176
     1
 90
        0
176
     1
 62
   257
176
     1
 40
1.0
176
     1
 90
        1
176
     1
 90
        6
176
     1
 90
        2
176
     1
 62
     7
176
     1
 90
        5
176
     1
 90
        0
176
     1
 90
        0
176
     1
290
     0
176
     1
 90
       13
176
     1
 40
0.0
176
     1
 90
        0
176
     1
290
     0
176
     1
290
     1
176
     1
290
     1
176
     1
290
     0
176
     1
290
     0
176
     1
290
     0
176
     1
290
     0
176
     1
290
     0
176
     1
290
     0
176
     1
 90
       50
176
     1
 40
0.0
176
     1
 40
1.0
176
     1
 90
        0
176
     1
 62
    18
420
        0
176
     1
 90
       50
176
     1
 90
        3
176
     1
 62
     5
420
      255
176
     1
290
     0
176
     1
 90
       50
176
     1
 90
       50
176
     1
 90
       50
176
     1
290
     0
176
     1
 90
       50
176
     1
 62
   256
176
     0
 40
1.0
176
     0
 90
        2
176
     1
  1
strokes_ogs.tif
176
     1
290
     0
176
     1
 40
1.0
176
     1
 40
1.0
176
     1
  0
VISUALSTYLE
  5
3F9
102
{ACAD_REACTORS
330
3F6
102
}
330
3F6
100
AcDbVisualStyle
  2
Gouraud
 70
     2
177
     3
291
     1
 70
    58
 90
        2
176
     1
 90
        2
176
     1
 90
        1
176
     1
 90
        2
176
     1
 40
0.6
176
     1
 40
30.0
176
     1
 62
     7
420
 16777215
176
     1
 90
        0
176
     1
 90
        0
176
     1
 62
     7
176
     1
 62
   257
176
     1
 90
        1
176
     1
 90
        1
176
     1
 40
1.0
176
     1
 90
        0
176
     1
 62
     7
176
     1
 40
1.0
176
     1
 90
        1
176
     1
 90
        6
176
     1
 90
        2
176
     1
 62
     7
176
     1
 90
        5
176
     1
 90
        0
176
     1
 90
        0
176
     1
290
     0
176
     1
 90
       13
176
     1
 40
0.0
176
     1
 90
        0
176
     1
290
     0
176
     1
290
     1
176
     1
290
     1
176
     1
290
     0
176
     1
290
     0
176
     1
290
     0
176
     1
290
     0
176
     1
290
     0
176
     1
290
     0
176
     1
 90
       50
176
     1
 40
0.0
176
     1
 40
1.0
176
     1
 90
        0
176
     1
 62
    18
420
        0
176
     1
 90
       50
176
     1
 90
        3
176
     1
 62
     5
420
      255
176
     1
290
     0
176
     1
 90
       50
176
     1
 90
       50
176
     1
 90
       50
176
     1
290
     0
176
     1
 90
       50
176
     1
 62
   256
176
     0
 40
1.0
176
     0
 90
        2
176
     1
  1
strokes_ogs.tif
176
     1
290
     0
176
     1
 40
1.0
176
     1
 40
1.0
176
     1
  0
VISUALSTYLE
  5
3FA
102
{ACAD_REACTORS
330
3F6
102
}
330
3F6
100
AcDbVisualStyle
  2
GouraudWithEdges
 70
     3
177
     3
291
     1
 70
    58
 90
        2
176
     1
 90
        2
176
     1
 90
        1
176
     1
 90
        2
176
     1
 40
0.6
176
     1
 40
30.0
176
     1
 62
     7
420
 16777215
176
     1
 90
        1
176
     1
 90
        0
176
     1
 62
     7
176
     1
 62
   257
176
     1
 90
        1
176
     1
 90
        1
176
     1
 40
1.0
176
     1
 90
        0
176
     1
 62
   257
176
     1
 40
1.0
176
     1
 90
        1
176
     1
 90
        6
176
     1
 90
        2
176
     1
 62
     7
176
     1
 90
        5
176
     1
 90
        0
176
     1
 90
        0
176
     1
290
     0
176
     1
 90
       13
176
     1
 40
0.0
176
     1
 90
        0
176
     1
290
     0
176
     1
290
     1
176
     1
290
     1
176
     1
290
     0
176
     1
290
     0
176
     1
290
     0
176
     1
290
     0
176
     1
290
     0
176
     1
290
     0
176
     1
 90
       50
176
     1
 40
0.0
176
     1
 40
1.0
176
     1
 90
        0
176
     1
 62
    18
420
        0
176
     1
 90
       50
176
     1
 90
        3
176
     1
 62
     5
420
      255
176
     1
290
     0
176
     1
 90
       50
176
     1
 90
       50
176
     1
 90
       50
176
     1
290
     0
176
     1
 90
       50
176
     1
 62
   256
176
     0
 40
1.0
176
     0
 90
        2
176
     1
  1
strokes_ogs.tif
176
     1
290
     0
176
     1
 40
1.0
176
     1
 40
1.0
176
     1
  0
VISUALSTYLE
  5
3FD
102
{ACAD_REACTORS
330
3F6
102
}
330
3F6
100
AcDbVisualStyle
  2
Hidden
 70
     6
177
     3
291
     0
 70
    58
 90
        1
176
     1
 90
        2
176
     1
 90
        2
176
     1
 90
        0
176
     1
 40
0.6
176
     1
 40
30.0
176
     1
 62
     7
420
 16777215
176
     1
 90
        2
176
     1
 90
        2
176
     1
 62
     7
176
     1
 62
   257
176
     1
 90
        2
176
     1
 90
        1
176
     1
 40
40.0
176
     1
 90
        0
176
     1
 62
   257
176
     1
 40
1.0
176
     1
 90
        1
176
     1
 90
        6
176
     1
 90
        2
176
     1
 62
     7
176
     1
 90
        3
176
     1
 90
        0
176
     1
 90
        0
176
     1
290
     0
176
     1
 90
        1
176
     1
 40
0.0
176
     1
 90
        0
176
     1
290
     0
176
     1
290
     1
176
     1
290
     1
176
     1
290
     0
176
     1
290
     0
176
     1
290
     0
176
     1
290
     0
176
     1
290
     0
176
     1
290
     0
176
     1
 90
       50
176
     1
 40
0.0
176
     1
 40
1.0
176
     1
 90
        0
176
     1
 62
    18
420
        0
176
     1
 90
       50
176
     1
 90
        3
176
     1
 62
     5
420
      255
176
     1
290
     0
176
     1
 90
       50
176
     1
 90
       50
176
     1
 90
       50
176
     1
290
     0
176
     1
 90
       50
176
     1
 62
   256
176
     0
 40
1.0
176
     0
 90
        2
176
     1
  1
strokes_ogs.tif
176
     1
290
     0
176
     1
 40
1.0
176
     1
 40
1.0
176
     1
  0
VISUALSTYLE
  5
407
102
{ACAD_REACTORS
330
3F6
102
}
330
3F6
100
AcDbVisualStyle
  2
JitterOff
 70
    20
177
     3
291
     1
 70
    58
 90
        2
176
     0
 90
        2
176
     0
 90
        0
176
     0
 90
        0
176
     0
 40
0.6
176
     0
 40
30.0
176
     0
 62
     7
420
 16777215
176
     0
 90
        1
176
     0
 90
        4
176
     0
 62
     7
176
     0
 62
   257
176
     0
 90
        1
176
     0
 90
        1
176
     0
 40
1.0
176
     0
 90
       10
176
     2
 62
     7
176
     0
 40
1.0
176
     0
 90
        1
176
     0
 90
        6
176
     0
 90
        2
176
     0
 62
     7
176
     0
 90
        5
176
     0
 90
        0
176
     0
 90
        0
176
     0
290
     0
176
     0
 90
        1
176
     0
 40
0.0
176
     0
 90
        0
176
     0
290
     0
176
     0
290
     1
176
     0
290
     1
176
     0
290
     0
176
     0
290
     0
176
     0
290
     0
176
     0
290
     0
176
     0
290
     0
176
     0
290
     0
176
     0
 90
       50
176
     0
 40
0.0
176
     0
 40
1.0
176
     0
 90
        0
176
     0
 62
    18
420
        0
176
     0
 90
       50
176
     0
 90
        3
176
     0
 62
     5
420
      255
176
     0
290
     0
176
     0
 90
       50
176
     0
 90
       50
176
     0
 90
       50
176
     0
290
     0
176
     0
 90
       50
176
     0
 62
   256
176
     0
 40
1.0
176
     0
 90
        2
176
     0
  1
strokes_ogs.tif
176
     0
290
     0
176
     0
 40
1.0
176
     0
 40
1.0
176
     0
  0
VISUALSTYLE
  5
404
102
{ACAD_REACTORS
330
3F6
102
}
330
3F6
100
AcDbVisualStyle
  2
Linepattern
 70
    14
177
     3
291
     1
 70
    58
 90
        2
176
     1
 90
        2
176
     1
 90
        0
176
     1
 90
        0
176
     1
 40
0.6
176
     1
 40
30.0
176
     1
 62
     7
420
 16777215
176
     1
 90
        1
176
     1
 90
        4
176
     1
 62
     7
176
     1
 62
   257
176
     1
 90
        7
176
     1
 90
        7
176
     1
 40
1.0
176
     1
 90
        8
176
     1
 62
     7
176
     1
 40
1.0
176
     1
 90
        1
176
     1
 90
        6
176
     1
 90
        2
176
     1
 62
     7
176
     1
 90
        5
176
     1
 90
        0
176
     1
 90
        0
176
     1
290
     0
176
     1
 90
        1
176
     1
 40
0.0
176
     1
 90
        0
176
     1
290
     0
176
     1
290
     1
176
     1
290
     1
176
     1
290
     0
176
     1
290
     0
176
     1
290
     0
176
     1
290
     0
176
     1
290
     0
176
     1
290
     0
176
     1
 90
       50
176
     1
 40
0.0
176
     1
 40
1.0
176
     1
 90
        0
176
     1
 62
    18
420
        0
176
     1
 90
       50
176
     1
 90
        3
176
     1
 62
     5
420
      255
176
     1
290
     0
176
     1
 90
       50
176
     1
 90
       50
176
     1
 90
       50
176
     1
290
     0
176
     1
 90
       50
176
     1
 62
   256
176
     0
 40
1.0
176
     0
 90
        2
176
     1
  1
strokes_ogs.tif
176
     1
290
     0
176
     1
 40
1.0
176
     1
 40
1.0
176
     1
  0
VISUALSTYLE
  5
408
102
{ACAD_REACTORS
330
3F6
102
}
330
3F6
100
AcDbVisualStyle
  2
OverhangOff
 70
    21
177
     3
291
     1
 70
    58
 90
        2
176
     0
 90
        2
176
     0
 90
        0
176
     0
 90
        0
176
     0
 40
0.6
176
     0
 40
30.0
176
     0
 62
     7
420
 16777215
176
     0
 90
        1
176
     0
 90
        4
176
     0
 62
     7
176
     0
 62
   257
176
     0
 90
        1
176
     0
 90
        1
176
     0
 40
1.0
176
     0
 90
        9
176
     2
 62
     7
176
     0
 40
1.0
176
     0
 90
        1
176
     0
 90
        6
176
     0
 90
        2
176
     0
 62
     7
176
     0
 90
        5
176
     0
 90
        0
176
     0
 90
        0
176
     0
290
     0
176
     0
 90
        1
176
     0
 40
0.0
176
     0
 90
        0
176
     0
290
     0
176
     0
290
     1
176
     0
290
     1
176
     0
290
     0
176
     0
290
     0
176
     0
290
     0
176
     0
290
     0
176
     0
290
     0
176
     0
290
     0
176
     0
 90
       50
176
     0
 40
0.0
176
     0
 40
1.0
176
     0
 90
        0
176
     0
 62
    18
420
        0
176
     0
 90
       50
176
     0
 90
        3
176
     0
 62
     5
420
      255
176
     0
290
     0
176
     0
 90
       50
176
     0
 90
       50
176
     0
 90
       50
176
     0
290
     0
176
     0
 90
       50
176
     0
 62
   256
176
     0
 40
1.0
176
     0
 90
        2
176
     0
  1
strokes_ogs.tif
176
     0
290
     0
176
     0
 40
1.0
176
     0
 40
1.0
176
     0
  0
VISUALSTYLE
  5
3FF
102
{ACAD_REACTORS
330
3F6
102
}
330
3F6
100
AcDbVisualStyle
  2
Realistic
 70
     8
177
     3
291
     0
 70
    58
 90
        2
176
     1
 90
        3
176
     1
 90
        0
176
     1
 90
        2
176
     1
 40
0.6
176
     1
 40
30.0
176
     1
 62
     7
420
 16777215
176
     1
 90
        0
176
     1
 90
        0
176
     1
 62
     7
176
     1
 62
   257
176
     1
 90
        1
176
     1
 90
        1
176
     1
 40
1.0
176
     1
 90
        8
176
     1
 62
   257
176
     1
 40
1.0
176
     1
 90
        1
176
     1
 90
        6
176
     1
 90
        2
176
     1
 62
     7
176
     1
 90
        3
176
     1
 90
        0
176
     1
 90
        0
176
     1
290
     0
176
     1
 90
       13
176
     1
 40
0.0
176
     1
 90
        0
176
     1
290
     0
176
     1
290
     1
176
     1
290
     1
176
     1
290
     0
176
     1
290
     0
176
     1
290
     0
176
     1
290
     0
176
     1
290
     0
176
     1
290
     0
176
     1
 90
       50
176
     1
 40
0.0
176
     1
 40
1.0
176
     1
 90
        0
176
     1
 62
    18
420
        0
176
     1
 90
       50
176
     1
 90
        3
176
     1
 62
     5
420
      255
176
     1
290
     0
176
     1
 90
       50
176
     1
 90
       50
176
     1
 90
       50
176
     1
290
     0
176
     1
 90
       50
176
     1
 62
   256
176
     0
 40
1.0
176
     0
 90
        2
176
     1
  1
strokes_ogs.tif
176
     1
290
     0
176
     1
 40
1.0
176
     1
 40
1.0
176
     1
  0
VISUALSTYLE
  5
40E
102
{ACAD_REACTORS
330
3F6
102
}
330
3F6
100
AcDbVisualStyle
  2
Shaded
 70
    27
177
     3
291
     0
 70
    58
 90
        2
176
     1
 90
        2
176
     1
 90
        1
176
     1
 90
        2
176
     1
 40
0.6
176
     1
 40
30.0
176
     1
 62
     7
420
 16777215
176
     1
 90
        0
176
     1
 90
        4
176
     1
 62
     7
176
     1
 62
   257
176
     1
 90
        1
176
     1
 90
        1
176
     1
 40
1.0
176
     1
 90
        8
176
     1
 62
   257
176
     1
 40
1.0
176
     1
 90
        1
176
     1
 90
        6
176
     1
 90
        2
176
     1
 62
     8
420
  7895160
176
     1
 90
        3
176
     1
 90
        0
176
     1
 90
        0
176
     1
290
     0
176
     1
 90
        5
176
     1
 40
0.0
176
     1
 90
        0
176
     1
290
     0
176
     1
290
     1
176
     1
290
     1
176
     1
290
     0
176
     1
290
     0
176
     1
290
     0
176
     1
290
     0
176
     1
290
     0
176
     1
290
     0
176
     1
 90
       50
176
     1
 40
0.0
176
     1
 40
1.0
176
     1
 90
        0
176
     1
 62
    18
420
        0
176
     1
 90
       50
176
     1
 90
        3
176
     1
 62
     5
420
      255
176
     1
290
     0
176
     1
 90
       50
176
     1
 90
       50
176
     1
 90
       50
176
     1
290
     0
176
     1
 90
       50
176
     1
 62
   256
176
     0
 40
1.0
176
     0
 90
        2
176
     1
  1
strokes_ogs.tif
176
     1
290
     0
176
     1
 40
1.0
176
     1
 40
1.0
176
     1
  0
VISUALSTYLE
  5
40D
102
{ACAD_REACTORS
330
3F6
102
}
330
3F6
100
AcDbVisualStyle
  2
Shaded with edges
 70
    26
177
     3
291
     0
 70
    58
 90
        2
176
     1
 90
        2
176
     1
 90
        1
176
     1
 90
        2
176
     1
 40
0.6
176
     1
 40
30.0
176
     1
 62
     7
420
 16777215
176
     1
 90
        1
176
     1
 90
       10
176
     1
 62
     7
176
     1
 62
   257
176
     1
 90
        2
176
     1
 90
        1
176
     1
 40
1.0
176
     1
 90
        8
176
     1
 62
   257
176
     1
 40
1.0
176
     1
 90
        1
176
     1
 90
        6
176
     1
 90
        2
176
     1
 62
     7
176
     1
 90
        3
176
     1
 90
        0
176
     1
 90
        0
176
     1
290
     0
176
     1
 90
        5
176
     1
 40
0.0
176
     1
 90
        0
176
     1
290
     0
176
     1
290
     1
176
     1
290
     1
176
     1
290
     0
176
     1
290
     0
176
     1
290
     0
176
     1
290
     0
176
     1
290
     0
176
     1
290
     0
176
     1
 90
       50
176
     1
 40
0.0
176
     1
 40
1.0
176
     1
 90
        0
176
     1
 62
    18
420
        0
176
     1
 90
       50
176
     1
 90
        3
176
     1
 62
     5
420
      255
176
     1
290
     0
176
     1
 90
       50
176
     1
 90
       50
176
     1
 90
       50
176
     1
290
     0
176
     1
 90
       50
176
     1
 62
   256
176
     0
 40
1.0
176
     0
 90
        2
176
     1
  1
strokes_ogs.tif
176
     1
290
     0
176
     1
 40
1.0
176
     1
 40
1.0
176
     1
  0
VISUALSTYLE
  5
40A
102
{ACAD_REACTORS
330
3F6
102
}
330
3F6
100
AcDbVisualStyle
  2
Shades of Gray
 70
    23
177
     3
291
     0
 70
    58
 90
        2
176
     1
 90
        2
176
     1
 90
        3
176
     1
 90
        0
176
     1
 40
0.6
176
     1
 40
30.0
176
     1
 62
     7
420
 16777215
176
     1
 90
        2
176
     1
 90
        2
176
     1
 62
     7
176
     1
 62
     7
176
     1
 90
        1
176
     1
 90
        1
176
     1
 40
40.0
176
     1
 90
        8
176
     1
 62
     7
176
     1
 40
1.0
176
     1
 90
        1
176
     1
 90
        6
176
     1
 90
        2
176
     1
 62
     7
176
     1
 90
        3
176
     1
 90
        0
176
     1
 90
        0
176
     1
290
     0
176
     1
 90
        1
176
     1
 40
0.0
176
     1
 90
        0
176
     1
290
     0
176
     1
290
     1
176
     1
290
     1
176
     1
290
     0
176
     1
290
     0
176
     1
290
     0
176
     1
290
     0
176
     1
290
     0
176
     1
290
     0
176
     1
 90
       50
176
     1
 40
0.0
176
     1
 40
1.0
176
     1
 90
        0
176
     1
 62
    18
420
        0
176
     1
 90
       50
176
     1
 90
        3
176
     1
 62
     5
420
      255
176
     1
290
     0
176
     1
 90
       50
176
     1
 90
       50
176
     1
 90
       50
176
     1
290
     0
176
     1
 90
       50
176
     1
 62
   256
176
     0
 40
1.0
176
     0
 90
        2
176
     1
  1
strokes_ogs.tif
176
     1
290
     0
176
     1
 40
1.0
176
     1
 40
1.0
176
     1
  0
VISUALSTYLE
  5
40B
102
{ACAD_REACTORS
330
3F6
102
}
330
3F6
100
AcDbVisualStyle
  2
Sketchy
 70
    24
177
     3
291
     0
 70
    58
 90
        1
176
     1
 90
        2
176
     1
 90
        2
176
     1
 90
        0
176
     1
 40
0.6
176
     1
 40
30.0
176
     1
 62
     7
420
 16777215
176
     1
 90
        2
176
     1
 90
        2
176
     1
 62
     7
176
     1
 62
     7
176
     1
 90
        1
176
     1
 90
        1
176
     1
 40
40.0
176
     1
 90
       11
176
     1
 62
     7
176
     1
 40
1.0
176
     1
 90
        1
176
     1
 90
        6
176
     1
 90
        2
176
     1
 62
     7
176
     1
 90
        6
176
     1
 90
        0
176
     1
 90
        0
176
     1
290
     0
176
     1
 90
        1
176
     1
 40
0.0
176
     1
 90
        0
176
     1
290
     0
176
     1
290
     1
176
     1
290
     1
176
     1
290
     0
176
     1
290
     0
176
     1
290
     0
176
     1
290
     0
176
     1
290
     0
176
     1
290
     0
176
     1
 90
       50
176
     1
 40
0.0
176
     1
 40
1.0
176
     1
 90
        0
176
     1
 62
    18
420
        0
176
     1
 90
       50
176
     1
 90
        3
176
     1
 62
     5
420
      255
176
     1
290
     0
176
     1
 90
       50
176
     1
 90
       50
176
     1
 90
       50
176
     1
290
     0
176
     1
 90
       50
176
     1
 62
   256
176
     0
 40
1.0
176
     0
 90
        2
176
     1
  1
strokes_ogs.tif
176
     1
290
     0
176
     1
 40
1.0
176
     1
 40
1.0
176
     1
  0
VISUALSTYLE
  5
403
102
{ACAD_REACTORS
330
3F6
102
}
330
3F6
100
AcDbVisualStyle
  2
Thicken
 70
    13
177
     3
291
     1
 70
    58
 90
        2
176
     1
 90
        2
176
     1
 90
        0
176
     1
 90
        0
176
     1
 40
0.6
176
     1
 40
30.0
176
     1
 62
     7
420
 16777215
176
     1
 90
        1
176
     1
 90
        4
176
     1
 62
     7
176
     1
 62
   257
176
     1
 90
        1
176
     1
 90
        1
176
     1
 40
1.0
176
     1
 90
       12
176
     1
 62
     7
176
     1
 40
1.0
176
     1
 90
        1
176
     1
 90
        6
176
     1
 90
        2
176
     1
 62
     7
176
     1
 90
        5
176
     1
 90
        0
176
     1
 90
        0
176
     1
290
     0
176
     1
 90
        1
176
     1
 40
0.0
176
     1
 90
        0
176
     1
290
     0
176
     1
290
     1
176
     1
290
     1
176
     1
290
     0
176
     1
290
     0
176
     1
290
     0
176
     1
290
     0
176
     1
290
     0
176
     1
290
     0
176
     1
 90
       50
176
     1
 40
0.0
176
     1
 40
1.0
176
     1
 90
        0
176
     1
 62
    18
420
        0
176
     1
 90
       50
176
     1
 90
        3
176
     1
 62
     5
420
      255
176
     1
290
     0
176
     1
 90
       50
176
     1
 90
       50
176
     1
 90
       50
176
     1
290
     0
176
     1
 90
       50
176
     1
 62
   256
176
     0
 40
1.0
176
     0
 90
        2
176
     1
  1
strokes_ogs.tif
176
     1
290
     0
176
     1
 40
1.0
176
     1
 40
1.0
176
     1
  0
VISUALSTYLE
  5
3FC
102
{ACAD_REACTORS
330
3F6
102
}
330
3F6
100
AcDbVisualStyle
  2
Wireframe
 70
     5
177
     3
291
     0
 70
    58
 90
        0
176
     1
 90
        2
176
     1
 90
        0
176
     1
 90
        0
176
     1
 40
0.6
176
     1
 40
30.0
176
     1
 62
     7
420
 16777215
176
     1
 90
        1
176
     1
 90
        4
176
     1
 62
     7
176
     1
 62
   257
176
     1
 90
        1
176
     1
 90
        1
176
     1
 40
1.0
176
     1
 90
        0
176
     1
 62
   257
176
     1
 40
1.0
176
     1
 90
        1
176
     1
 90
        6
176
     1
 90
        2
176
     1
 62
     7
176
     1
 90
        3
176
     1
 90
        0
176
     1
 90
        0
176
     1
290
     0
176
     1
 90
        1
176
     1
 40
0.0
176
     1
 90
        0
176
     1
290
     0
176
     1
290
     1
176
     1
290
     1
176
     1
290
     0
176
     1
290
     0
176
     1
290
     0
176
     1
290
     0
176
     1
290
     0
176
     1
290
     0
176
     1
 90
       50
176
     1
 40
0.0
176
     1
 40
1.0
176
     1
 90
        0
176
     1
 62
    18
420
        0
176
     1
 90
       50
176
     1
 90
        3
176
     1
 62
     5
420
      255
176
     1
290
     0
176
     1
 90
       50
176
     1
 90
       50
176
     1
 90
       50
176
     1
290
     0
176
     1
 90
       50
176
     1
 62
   256
176
     0
 40
1.0
176
     0
 90
        2
176
     1
  1
strokes_ogs.tif
176
     1
290
     0
176
     1
 40
1.0
176
     1
 40
1.0
176
     1
  0
VISUALSTYLE
  5
40C
102
{ACAD_REACTORS
330
3F6
102
}
330
3F6
100
AcDbVisualStyle
  2
X-Ray
 70
    25
177
     3
291
     0
 70
    58
 90
        2
176
     1
 90
        2
176
     1
 90
        1
176
     1
 90
        1
176
     1
 40
0.5
176
     1
 40
30.0
176
     1
 62
     7
420
 16777215
176
     1
 90
        1
176
     1
 90
        0
176
     1
 62
     7
176
     1
 62
   257
176
     1
 90
        1
176
     1
 90
        1
176
     1
 40
1.0
176
     1
 90
        8
176
     1
 62
     7
176
     1
 40
1.0
176
     1
 90
        1
176
     1
 90
        6
176
     1
 90
        2
176
     1
 62
     7
176
     1
 90
        3
176
     1
 90
        0
176
     1
 90
        0
176
     1
290
     0
176
     1
 90
       13
176
     1
 40
0.0
176
     1
 90
        0
176
     1
290
     0
176
     1
290
     1
176
     1
290
     1
176
     1
290
     0
176
     1
290
     0
176
     1
290
     0
176
     1
290
     0
176
     1
290
     0
176
     1
290
     0
176
     1
 90
       50
176
     1
 40
0.0
176
     1
 40
1.0
176
     1
 90
        0
176
     1
 62
    18
420
        0
176
     1
 90
       50
176
     1
 90
        3
176
     1
 62
     5
420
      255
176
     1
290
     0
176
     1
 90
       50
176
     1
 90
       50
176
     1
 90
       50
176
     1
290
     0
176
     1
 90
       50
176
     1
 62
   256
176
     0
 40
1.0
176
     0
 90
        2
176
     1
  1
strokes_ogs.tif
176
     1
290
     0
176
     1
 40
1.0
176
     1
 40
1.0
176
     1
  0
DICTIONARYVAR
  5
427
102
{ACAD_REACTORS
330
426
102
}
330
426
100
DictionaryVariables
280
     0
  1
1:1
  0
DICTIONARYVAR
  5
42B
102
{ACAD_REACTORS
330
426
102
}
330
426
100
DictionaryVariables
280
     0
  1
Standard
  0
CSACDOCUMENTOPTIONS
  5
41A
102
{ACAD_REACTORS
330
419
102
}
330
419
  0
XRECORD
  5
420
102
{ACAD_REACTORS
330
415
102
}
330
415
100
AcDbXrecord
280
     1
300
MC_VERSION_DATA
 90
       95
310
0600000002000000570000001C000000E404000000000000000000007801936764E5D8CF7A8393818115C460606066E0646662626666706006F214793899F8DE3171E725E6E53B3BBA2878E6951050AF75FEFFFFFF520032DE0F3057000000
  0
XRECORD
  5
416
102
{ACAD_REACTORS
330
415
102
}
330
415
100
AcDbXrecord
280
     1
300
MCS_DOCUMENT_ID
 90
       60
310
0600000002000000150000001C000000E404000000000000000000007801E315C87F2650706AB5DF9A8D4BB79819AD12FA0F040069D00B8C15000000
  0
XRECORD
  5
41E
102
{ACAD_REACTORS
330
415
102
}
330
415
100
AcDbXrecord
280
     1
300
MCS_PARAMS_DATA
 90
     3313
310
0600000002000000F64B00001C000000E404000000000000000000007801C55C5B905C45199EE99EBDCCE67E5DA218172C303B91307B4B8C459531245054850D55591F78B236BB49B9BAC9E6B22A082A9655BE5865596569A965F9209288CF16503EC8834088C10B092404211702988430422E9084CDAEFFD7A7FBF4DFA7CF
310
D9D99D9D39930798FF3F7DCEF7DFFAFBBBFBCC6CDBFC46297252EECB48F9CDF5ED5234493921A5206D76815820B252E4F3225F128D7D5F59BF69E3162948D9A2D485B3131313747328BF06593E960915079422437734AA3BDAA5CCD053F5ED4FD2557D257BAB94DF007A03479F859BB2B22193C9108EC1CDCADC0464C27506
310
28605703E48886E0B986E10F03BF91E33707F8E3140E7A9091C8268236920C1C662240B94888A1C8E07600AE99C32D5131CA8B3925D172EFE62D7D6D9DABBA8ADDD6F17CE16D13F0457AE8AC9268DE32DABF73B07FCFA013F9BF8491D7C17E2550D8E8FFCA8DFE4E98B3929B331718B291824FFF72EB941D9E8E2211D5A93C
310
784A44C557923911258BD0C8640531AEEC61A924855B11378280384364A422680C0A928DB9C10CD89D581114199665B722B26E4590C82B0222AB08FAA8A60626C028E0044F81BA246F5360E167F2D27C56A10E05C058C13C59DEC6207679103AFC5DEADF992F2B284F67B31C8EE359B64A9665A62453228F64269D98455E3B
310
A4B35817F7EC92C86FB8EFFE8DBD5BEEDBDCAB0CD3B5FC8E99065A7E55D536E39DE7826237F1C8BBBCB3CFADFC93302087C80397EE69C2FF69CA32234F0763E41851010DA578E8294D435524988818E84710A7B2643B4F7C034F6CE5C9368F203BE8094C6268541D70D35EE4B585DAE170F4942EB8D2D422560A9917F34B62
310
CE86919D9F1F6DDBB36DD770FFC0B6BC682E898607BEB5737424F8D83B323AF07529CFC0B69BB96D9FD3CFF9B410ED79B1A42416161FEA29AEEDEEEC5ADF532C76DEF3C5AEEEB5CAECF97A60330D2C1C3579EAD0DA7621F20269BD6768746FDBF0D0DE51F3B0EE356B3ABBD6F474F7740D76770EACED08FCFC92BEAF13F701
310
B5AF7FEBF0B6B691ED6D7D23C3DBF6F4EF840FDA9AD583C58E81E240FFEAADDD5BD70EAC0E669D2A25F27FB610851F9335859F059541B9E5971EC7A5A7E83F2CE53DB9A4040555A2661A4DDBF2C560B2E54E7D5483931EF871F7C88E5DFDA3435B878687461F6EDB313248FE3596847C70DBDEBC682809D13B22E56A5856E4
310
E9998738519B6E2A89DCE6EDDBDB542AF4E4380F8F61A4965F57116093E5A052A06AF588670205D9A715FB49B140D81A90855F902680EBB8B3A3187EEA96F2B224E392BAF898328CB1AD47DA34C1601A1B421AD816D190715CC3F276A5DE067C546F03AED6DB808FEB6DC0B57A1BB00853B49EB3E0937A47E07ABD0D188301
310
71CB797197D3603B1D06BFCB6DB024827C0C834324E60945463B3712E196397079076E990B47228783C8E09631B8F129C211385B3E540C97413DC70673C524DEAD70BD23917B079179B782793791AE77D944EFDCDC5529988B13E1069D6092C472A7F777A6F648E4C184C88239C8822913E16AE29D48176E29E0727C316496
310
EF2A967C95165E504B0C2B218EEE82DD5C63513CD614C5091F6D6FA7551865CC5C5030A1E0A3E84BEC86CFD04EC5DD01AA74CBDB05AB8C403295A124BB2908C4B032B4682A032283FB103E391B4E03172C7199C4E0F88E871E8855ADA1482D3238FA1846E0B807A77785BFF935FE1D74369F5647D0D171CA5F4F09337C2559
310
105132935A503D6DBC7A94B54D2B6DF1E0339960F436A97441791E5EC104D40283580888C4FDED577B1FD8B4B9AF6FE30605D8AAD7F1F34A62F6DD5BBEC62E92057A31FEA25A9DB3F5FBD3C1729D9CD723B0BF0DE8402BB05A67160DDE4416E59079C0D9EAA575B7321F67115FC018C76AB5B3A33D06B68CBD9BFBDC93C073
310
800CC384FD360C544F539B6F02B1820953BE9D01DE01C0D85A6C50369A5AC4065C7760793B965800321749E4B50891C0C2AB0CAE9808178444974C70F875952A9381563C01BE9D08EAFA481283ABD8C7EF7870DAABE068E68833DFAC8EA0A3E3F87C0B07AA507B2311F0889285BDC333294C4E2DB27C67BA70ABD2857B688A
310
70552AA7873DB8489E55063D5D2DCBE9BB9E49F1E554A5083C922EDCA3E9C27D2F5DB8EF7B705EE9D87E1E920E88313AAE6AECF4FBD668D3D30DB4E51ADA9BEDB0D7AFCEB4DDED85F7C4ECF6551B3BCE2AFF6E835E49458EC94883D6E73C45753FAE614C3C0A0362777435D915EC025C33F7578776011DE6F3D066954C59D6
310
D76F86AC9CD58A53F4122CF0552BAE070AEA3B5AF15752304F1F47569D50AB71F41A31FA5A51C904CD43C6B0F51D2ACEFC112ACC4CC1B0FF086CE7AD5A4D096A005126387AAD451EE384D9C035A925859E39C1AA865EE9A9B8DA21CEE289167F7CF1D4C4BC7A125EC5AED5D8BB0B5A9D9144D134CFA71BF85A8D44BE568348
310
F6AA55A2F3CAEA4F6982FD21118CC249D3CBF852A586F244BA70FBD285DB9F085793EDE56E143F0AD06C6B4CB2242BDD3DD1419166C2865E81F9CE1648F3CBD84597B22E28992A3DDCE24C77F3F311A01C8A722828EC3CF15F7D987933F818F8E59BC138E5CD4CE8AC24C94E68BA32F5C3CBAB808B6B06B9936E642F9F804C
310
903AF2F3709D37832318A078E4B37AEBDCFAA66859945B9EBB25776BAE2DD3995995E9CA1433DDFA4DAC7ECE6FE93696E96BB06712968ED2661884A9EE40230F60D0D73DE8C858453B9E8E4212D5A9B0784A762662599FEDD18C9299F4094C728A91F536658E91CDA6DFC8E89F363B15B4CB31404FD2581CF722BBF229B517
310
430944E56AB2E2A8E3461950730F2B7ECA7BC570E389706E8BA9D241C744225C40C29385944F707279EA277D998065D9EAD604B1263E66D38513E9C2490F4EE7CC6E8AA89C3D9DA588701CA708AB6414C194931EE3FC0D4515D71A4FBFE712F8CB4A26532A6E8DCF01CA61A3745BE3F3C09F6E6B442F0CD7BAD36A8D2F002E
310
AE359E3BE646F6B8926D6BBC0CD9926FBEF08C5220B9BAE91D0E14769FF44B52301E3C00E8FA74C117BD24F396E22C7F1005F2DA2902EB76053DE720B0D3EE397F2F036AE8B24A3DE750225C4DF8F8A544B81AF69C7F2482D6C4C77F067093EF36FE359541FF8E0E8A50399BA22F63681CEF0EBDEBB2C3834A9E09EF1E0654
310
1D79F708F0A7CBBB956F495E015C1CEFEE3EEC46B65FC996771F856C09285F58A7148C77872F6104D6DC9A8897D30896D457015D1FDE3DEA25B91CEFF2EBD6EB0A68F718A0D3A6DDD7CA805699768F27C2D584925E4F84AB9476A39B03E744D09CD6610FF59F44E89A78FA46BA70DDDE0ADC144A4DBCEBF1E0221D416DC23D
310
1D715254A766A8A7AC60C1FF26021ED7783E889CD89C52F24C1ACF0940D5B1F19C047E7A8DE714E0E21ACFD5436EE339AB64DB78E44B91C6730003ECCB897CE1D28548E3798246B0C6731AD0536D3CB3E90740046E0B5FD5161351555C247A084506FA9607AAEBD39C44F1E2B63A5BDCA18E17B755B2E2664A322602C34C3A
310
0393625B51C09BC60D77315EF1E1C8DB80730A9C37D5B8CD0EBF3EA3A6FB4EA2A7C18B1B2746D53A5F7BB70C687C78291FE10E3A386EE3054657F9CB297E9CF703B0E71DFC4DA3397B4068C3CF33A1A81F02C2C920DB8E7ABF712005813923946BAE06DE453454B45CC32AF6311810C751E3F85A979E7874424F9299B34AB2
310
210DC430A45A3473162283FB2F3218C7FE178FBB1CF59692CDAD957C0DECAC3739580882F7E26636C4FC0874E66F42CE013F2EB274A4C323CBB88082C5B980AE4CFD4DC879C0C5B1FFF5E7DDC89E57324556799F2F34BC006EC70CD18A8318C0D9FF0AB6807CDBB19F46B0A4BE07E8B4D9FF8207EA504E3D7E65FA3E4C7226
310
B329B0E8D703AAFEBAA304E869379E693123CD68457958A4FF2F11AE86ECFF4119D078F6E7138AD87FF2370F86D6E1E38789702D76FED2134932CCA824CB8C811832A3160D33426421BD980847AF6F0C11D33DEECB1CFE9B7175D1F926045DE5BD8DBFBDBE94081764D0049324E6DDB40A8607F372225C4D16463974B5B836
310
F393232E193EA2E499B49986C93A780A6DA631A981D7A6CD34012EAECDFCFC5937B23F52B26D33BF83CCDBCC56A5C0ECD07DE7A7A7226D661D8D6033A419D0536D33E07F56B8C4CA7C0D48229F9610695A461A0883CE7B494E8DD95B004DF38E8247AB09FE45AC1A52EDAC32A0861DD8DA85D8A76276989D08579353913989
310
700119397510D9BB4CAB9DF096393711B4263ECE4B176E7EBA700B3C389DB3F0B5335AA6A7234288EA142D784A9083AFB414616018456CF24C3293C4CD2F49D3E5A5F0410CEE7E0F2E6A6FEA11580893E29AEE529C2FC11C4DF48D4AA628982DB44A422820F8563073C8F989CF2240392BED74F7768B819FDEDE6E09E0E29A
310
EE72FA030B3CB273954C91D5916E87CC9BEEFB4FAB1E6B73B10CFB6CBEB73B4423589D2D05F4CC9AAE2E4C768646F0614DBB4BD40606DDEA2539B5A67B13A0D36EBACBCA809A9055A7E9E24B8E0D79912B896C91FE0C1655C17843E129FA335B3277F4E8510807513CB9CC44868E210AF7FE19028691B0917E39482B125CF8
310
D4FF01F0B312DAF64B0000
  0
TABLECONTENT
  5
422
330
425
100
AcDbLinkedData
  1

300

100
AcDbLinkedTableData
 90
        5
300
COLUMN
  1
LINKEDTABLEDATACOLUMN_BEGIN
300

 91
        0
301
CUSTOMDATA
  1
DATAMAP_BEGIN
 90
        0
309
DATAMAP_END
309
LINKEDTABLEDATACOLUMN_END
  1
FORMATTEDTABLEDATACOLUMN_BEGIN
300
COLUMNTABLEFORMAT
  1
TABLEFORMAT_BEGIN
 90
        3
170
     0
309
TABLEFORMAT_END
309
FORMATTEDTABLEDATACOLUMN_END
  1
TABLECOLUMN_BEGIN
 90
        0
 40
10.0
309
TABLECOLUMN_END
300
COLUMN
  1
LINKEDTABLEDATACOLUMN_BEGIN
300

 91
        0
301
CUSTOMDATA
  1
DATAMAP_BEGIN
 90
        0
309
DATAMAP_END
309
LINKEDTABLEDATACOLUMN_END
  1
FORMATTEDTABLEDATACOLUMN_BEGIN
300
COLUMNTABLEFORMAT
  1
TABLEFORMAT_BEGIN
 90
        3
170
     0
309
TABLEFORMAT_END
309
FORMATTEDTABLEDATACOLUMN_END
  1
TABLECOLUMN_BEGIN
 90
        0
 40
10.0
309
TABLECOLUMN_END
300
COLUMN
  1
LINKEDTABLEDATACOLUMN_BEGIN
300

 91
        0
301
CUSTOMDATA
  1
DATAMAP_BEGIN
 90
        0
309
DATAMAP_END
309
LINKEDTABLEDATACOLUMN_END
  1
FORMATTEDTABLEDATACOLUMN_BEGIN
300
COLUMNTABLEFORMAT
  1
TABLEFORMAT_BEGIN
 90
        3
170
     0
309
TABLEFORMAT_END
309
FORMATTEDTABLEDATACOLUMN_END
  1
TABLECOLUMN_BEGIN
 90
        0
 40
10.0
309
TABLECOLUMN_END
300
COLUMN
  1
LINKEDTABLEDATACOLUMN_BEGIN
300

 91
        0
301
CUSTOMDATA
  1
DATAMAP_BEGIN
 90
        0
309
DATAMAP_END
309
LINKEDTABLEDATACOLUMN_END
  1
FORMATTEDTABLEDATACOLUMN_BEGIN
300
COLUMNTABLEFORMAT
  1
TABLEFORMAT_BEGIN
 90
        3
170
     0
309
TABLEFORMAT_END
309
FORMATTEDTABLEDATACOLUMN_END
  1
TABLECOLUMN_BEGIN
 90
        0
 40
40.0
309
TABLECOLUMN_END
300
COLUMN
  1
LINKEDTABLEDATACOLUMN_BEGIN
300

 91
        0
301
CUSTOMDATA
  1
DATAMAP_BEGIN
 90
        0
309
DATAMAP_END
309
LINKEDTABLEDATACOLUMN_END
  1
FORMATTEDTABLEDATACOLUMN_BEGIN
300
COLUMNTABLEFORMAT
  1
TABLEFORMAT_BEGIN
 90
        3
170
     0
309
TABLEFORMAT_END
309
FORMATTEDTABLEDATACOLUMN_END
  1
TABLECOLUMN_BEGIN
 90
        0
 40
20.0
309
TABLECOLUMN_END
 91
        5
301
ROW
  1
LINKEDTABLEDATAROW_BEGIN
 90
        5
300
CELL
  1
LINKEDTABLEDATACELL_BEGIN
 90
        0
300

 91
        0
301
CUSTOMDATA
  1
DATAMAP_BEGIN
 90
        1
300
ACAD_ROUNDTRIP_2008_CELL_CHECKSUM
301
DATAMAP_VALUE
 93
        2
 90
        2
140
32.0
 94
        0
300

302

304
ACVALUE_END
309
DATAMAP_END
 92
        0
 95
        1
302
CONTENT
  1
CELLCONTENT_BEGIN
 90
        1
300
VALUE
 93
        2
 90
        4
  1
 
 94
        0
300

302
 
304
ACVALUE_END
 91
        0
309
CELLCONTENT_END
  1
FORMATTEDCELLCONTENT_BEGIN
170
     1
300
CONTENTFORMAT
  1
CONTENTFORMAT_BEGIN
 90
      132
 91
        0
 92
      512
 93
        0
300

 40
0.0
140
1.0
 94
        1
 62
     0
340
0
144
3.5
309
CONTENTFORMAT_END
309
FORMATTEDCELLCONTENT_END
309
LINKEDTABLEDATACELL_END
  1
FORMATTEDTABLEDATACELL_BEGIN
300
CELLTABLEFORMAT
  1
TABLEFORMAT_BEGIN
 90
        1
170
     1
 91
        0
 92
        0
 62
   257
 93
        1
300
CONTENTFORMAT
  1
CONTENTFORMAT_BEGIN
 90
        0
 91
        0
 92
      512
 93
        0
300

 40
0.0
140
1.0
 94
        1
 62
     0
340
0
144
0.18
309
CONTENTFORMAT_END
171
     0
 94
        0
309
TABLEFORMAT_END
309
FORMATTEDTABLEDATACELL_END
  1
TABLECELL_BEGIN
 90
        0
 91
        0
309
TABLECELL_END
300
CELL
  1
LINKEDTABLEDATACELL_BEGIN
 90
        0
300

 91
        0
301
CUSTOMDATA
  1
DATAMAP_BEGIN
 90
        0
309
DATAMAP_END
 92
        0
 95
        0
309
LINKEDTABLEDATACELL_END
  1
FORMATTEDTABLEDATACELL_BEGIN
300
CELLTABLEFORMAT
  1
TABLEFORMAT_BEGIN
 90
        1
170
     1
 91
        0
 92
        0
 62
   257
 93
        1
300
CONTENTFORMAT
  1
CONTENTFORMAT_BEGIN
 90
        0
 91
        0
 92
      512
 93
        0
300

 40
0.0
140
1.0
 94
        1
 62
     0
340
0
144
0.18
309
CONTENTFORMAT_END
171
     0
 94
        0
309
TABLEFORMAT_END
309
FORMATTEDTABLEDATACELL_END
  1
TABLECELL_BEGIN
 90
        0
 91
        0
309
TABLECELL_END
300
CELL
  1
LINKEDTABLEDATACELL_BEGIN
 90
        0
300

 91
        0
301
CUSTOMDATA
  1
DATAMAP_BEGIN
 90
        0
309
DATAMAP_END
 92
        0
 95
        0
309
LINKEDTABLEDATACELL_END
  1
FORMATTEDTABLEDATACELL_BEGIN
300
CELLTABLEFORMAT
  1
TABLEFORMAT_BEGIN
 90
        1
170
     1
 91
        0
 92
        0
 62
   257
 93
        1
300
CONTENTFORMAT
  1
CONTENTFORMAT_BEGIN
 90
        0
 91
        0
 92
      512
 93
        0
300

 40
0.0
140
1.0
 94
        1
 62
     0
340
0
144
0.18
309
CONTENTFORMAT_END
171
     0
 94
        0
309
TABLEFORMAT_END
309
FORMATTEDTABLEDATACELL_END
  1
TABLECELL_BEGIN
 90
        0
 91
        0
309
TABLECELL_END
300
CELL
  1
LINKEDTABLEDATACELL_BEGIN
 90
        0
300

 91
        0
301
CUSTOMDATA
  1
DATAMAP_BEGIN
 90
        1
300
ACAD_ROUNDTRIP_2008_CELL_CHECKSUM
301
DATAMAP_VALUE
 93
        2
 90
        2
140
3380.0
 94
        0
300

302

304
ACVALUE_END
309
DATAMAP_END
 92
        0
 95
        1
302
CONTENT
  1
CELLCONTENT_BEGIN
 90
        1
300
VALUE
 93
        2
 90
        4
  1
A050_C_003
 94
        0
300

302
A050_C_003
304
ACVALUE_END
 91
        0
309
CELLCONTENT_END
  1
FORMATTEDCELLCONTENT_BEGIN
170
     1
300
CONTENTFORMAT
  1
CONTENTFORMAT_BEGIN
 90
      196
 91
        0
 92
      512
 93
        0
300

 40
0.0
140
1.0
 94
        1
 62
     0
340
206
144
3.0
309
CONTENTFORMAT_END
309
FORMATTEDCELLCONTENT_END
309
LINKEDTABLEDATACELL_END
  1
FORMATTEDTABLEDATACELL_BEGIN
300
CELLTABLEFORMAT
  1
TABLEFORMAT_BEGIN
 90
        1
170
     1
 91
       16
 92
        0
 62
   257
 93
        1
300
CONTENTFORMAT
  1
CONTENTFORMAT_BEGIN
 90
       16
 91
        0
 92
      512
 93
        0
300

 40
0.0
140
1.0
 94
        4
 62
     0
340
0
144
0.18
309
CONTENTFORMAT_END
171
     0
 94
        4
 95
        1
302
GRIDFORMAT
  1
GRIDFORMAT_BEGIN
 90
       26
 91
        1
 62
     0
 92
       -2
340
0
 93
        0
 40
0.045
309
GRIDFORMAT_END
 95
        4
302
GRIDFORMAT
  1
GRIDFORMAT_BEGIN
 90
       26
 91
        1
 62
     0
 92
       -2
340
0
 93
        0
 40
0.045
309
GRIDFORMAT_END
 95
        8
302
GRIDFORMAT
  1
GRIDFORMAT_BEGIN
 90
       26
 91
        1
 62
     0
 92
       -2
340
0
 93
        0
 40
0.045
309
GRIDFORMAT_END
 95
       32
302
GRIDFORMAT
  1
GRIDFORMAT_BEGIN
 90
       26
 91
        1
 62
     0
 92
       -2
340
0
 93
        0
 40
0.045
309
GRIDFORMAT_END
309
TABLEFORMAT_END
309
FORMATTEDTABLEDATACELL_END
  1
TABLECELL_BEGIN
 90
        0
 91
        0
309
TABLECELL_END
300
CELL
  1
LINKEDTABLEDATACELL_BEGIN
 90
        0
300

 91
        0
301
CUSTOMDATA
  1
DATAMAP_BEGIN
 90
        1
300
ACAD_ROUNDTRIP_2008_CELL_CHECKSUM
301
DATAMAP_VALUE
 93
        2
 90
        2
140
1398.0
 94
        0
300

302

304
ACVALUE_END
309
DATAMAP_END
 92
        0
 95
        1
302
CONTENT
  1
CELLCONTENT_BEGIN
 90
        1
300
VALUE
 93
        2
 90
        4
  1
Rev:00
 94
        0
300

302
Rev:00
304
ACVALUE_END
 91
        0
309
CELLCONTENT_END
  1
FORMATTEDCELLCONTENT_BEGIN
170
     1
300
CONTENTFORMAT
  1
CONTENTFORMAT_BEGIN
 90
      196
 91
        0
 92
      512
 93
        0
300

 40
0.0
140
1.0
 94
        1
 62
     0
340
206
144
3.5
309
CONTENTFORMAT_END
309
FORMATTEDCELLCONTENT_END
309
LINKEDTABLEDATACELL_END
  1
FORMATTEDTABLEDATACELL_BEGIN
300
CELLTABLEFORMAT
  1
TABLEFORMAT_BEGIN
 90
        1
170
     1
 91
       16
 92
        0
 62
   257
 93
        1
300
CONTENTFORMAT
  1
CONTENTFORMAT_BEGIN
 90
       16
 91
        0
 92
      512
 93
        0
300

 40
0.0
140
1.0
 94
        4
 62
     0
340
0
144
0.18
309
CONTENTFORMAT_END
171
     0
 94
        4
 95
        1
302
GRIDFORMAT
  1
GRIDFORMAT_BEGIN
 90
       26
 91
        1
 62
     0
 92
       -2
340
0
 93
        0
 40
0.045
309
GRIDFORMAT_END
 95
        4
302
GRIDFORMAT
  1
GRIDFORMAT_BEGIN
 90
       26
 91
        1
 62
     0
 92
       -2
340
0
 93
        0
 40
0.045
309
GRIDFORMAT_END
 95
        8
302
GRIDFORMAT
  1
GRIDFORMAT_BEGIN
 90
       26
 91
        1
 62
     0
 92
       -2
340
0
 93
        0
 40
0.045
309
GRIDFORMAT_END
 95
       32
302
GRIDFORMAT
  1
GRIDFORMAT_BEGIN
 90
       26
 91
        1
 62
     0
 92
       -2
340
0
 93
        0
 40
0.045
309
GRIDFORMAT_END
309
TABLEFORMAT_END
309
FORMATTEDTABLEDATACELL_END
  1
TABLECELL_BEGIN
 90
        0
 91
        0
309
TABLECELL_END
 91
        0
301
CUSTOMDATA
  1
DATAMAP_BEGIN
 90
        0
309
DATAMAP_END
309
LINKEDTABLEDATAROW_END
  1
FORMATTEDTABLEDATAROW_BEGIN
300
ROWTABLEFORMAT
  1
TABLEFORMAT_BEGIN
 90
        2
170
     0
309
TABLEFORMAT_END
309
FORMATTEDTABLEDATAROW_END
  1
TABLEROW_BEGIN
 90
        1
 40
6.0
309
TABLEROW_END
301
ROW
  1
LINKEDTABLEDATAROW_BEGIN
 90
        5
300
CELL
  1
LINKEDTABLEDATACELL_BEGIN
 90
        0
300

 91
        0
301
CUSTOMDATA
  1
DATAMAP_BEGIN
 90
        0
309
DATAMAP_END
 92
        0
 95
        0
309
LINKEDTABLEDATACELL_END
  1
FORMATTEDTABLEDATACELL_BEGIN
300
CELLTABLEFORMAT
  1
TABLEFORMAT_BEGIN
 90
        1
170
     1
 91
        0
 92
        0
 62
   257
 93
        1
300
CONTENTFORMAT
  1
CONTENTFORMAT_BEGIN
 90
        0
 91
        0
 92
      512
 93
        0
300

 40
0.0
140
1.0
 94
        1
 62
     0
340
0
144
0.18
309
CONTENTFORMAT_END
171
     0
 94
        0
309
TABLEFORMAT_END
309
FORMATTEDTABLEDATACELL_END
  1
TABLECELL_BEGIN
 90
        0
 91
        0
309
TABLECELL_END
300
CELL
  1
LINKEDTABLEDATACELL_BEGIN
 90
        0
300

 91
        0
301
CUSTOMDATA
  1
DATAMAP_BEGIN
 90
        0
309
DATAMAP_END
 92
        0
 95
        0
309
LINKEDTABLEDATACELL_END
  1
FORMATTEDTABLEDATACELL_BEGIN
300
CELLTABLEFORMAT
  1
TABLEFORMAT_BEGIN
 90
        1
170
     1
 91
        0
 92
        0
 62
   257
 93
        1
300
CONTENTFORMAT
  1
CONTENTFORMAT_BEGIN
 90
        0
 91
        0
 92
      512
 93
        0
300

 40
0.0
140
1.0
 94
        1
 62
     0
340
0
144
0.18
309
CONTENTFORMAT_END
171
     0
 94
        0
309
TABLEFORMAT_END
309
FORMATTEDTABLEDATACELL_END
  1
TABLECELL_BEGIN
 90
        0
 91
        0
309
TABLECELL_END
300
CELL
  1
LINKEDTABLEDATACELL_BEGIN
 90
        0
300

 91
        0
301
CUSTOMDATA
  1
DATAMAP_BEGIN
 90
        0
309
DATAMAP_END
 92
        0
 95
        0
309
LINKEDTABLEDATACELL_END
  1
FORMATTEDTABLEDATACELL_BEGIN
300
CELLTABLEFORMAT
  1
TABLEFORMAT_BEGIN
 90
        1
170
     1
 91
        0
 92
        0
 62
   257
 93
        1
300
CONTENTFORMAT
  1
CONTENTFORMAT_BEGIN
 90
        0
 91
        0
 92
      512
 93
        0
300

 40
0.0
140
1.0
 94
        1
 62
     0
340
0
144
0.18
309
CONTENTFORMAT_END
171
     0
 94
        0
309
TABLEFORMAT_END
309
FORMATTEDTABLEDATACELL_END
  1
TABLECELL_BEGIN
 90
        0
 91
        0
309
TABLECELL_END
300
CELL
  1
LINKEDTABLEDATACELL_BEGIN
 90
        0
300

 91
        0
301
CUSTOMDATA
  1
DATAMAP_BEGIN
 90
        1
300
ACAD_ROUNDTRIP_2008_CELL_CHECKSUM
301
DATAMAP_VALUE
 93
        2
 90
        2
140
3105.0
 94
        0
300

302

304
ACVALUE_END
309
DATAMAP_END
 92
        0
 95
        1
302
CONTENT
  1
CELLCONTENT_BEGIN
 90
        1
300
VALUE
 93
        2
 90
        4
  1
Scale:1:1
 94
        0
300

302
Scale:1:1
304
ACVALUE_END
 91
        0
309
CELLCONTENT_END
  1
FORMATTEDCELLCONTENT_BEGIN
170
     1
300
CONTENTFORMAT
  1
CONTENTFORMAT_BEGIN
 90
      196
 91
        0
 92
      512
 93
        0
300

 40
0.0
140
1.0
 94
        1
 62
     0
340
206
144
3.5
309
CONTENTFORMAT_END
309
FORMATTEDCELLCONTENT_END
309
LINKEDTABLEDATACELL_END
  1
FORMATTEDTABLEDATACELL_BEGIN
300
CELLTABLEFORMAT
  1
TABLEFORMAT_BEGIN
 90
        1
170
     1
 91
       16
 92
        0
 62
   257
 93
        1
300
CONTENTFORMAT
  1
CONTENTFORMAT_BEGIN
 90
       16
 91
        0
 92
      512
 93
        0
300

 40
0.0
140
1.0
 94
        1
 62
     0
340
0
144
0.18
309
CONTENTFORMAT_END
171
     0
 94
        4
 95
        1
302
GRIDFORMAT
  1
GRIDFORMAT_BEGIN
 90
       26
 91
        1
 62
     0
 92
       -2
340
0
 93
        0
 40
0.045
309
GRIDFORMAT_END
 95
        4
302
GRIDFORMAT
  1
GRIDFORMAT_BEGIN
 90
       26
 91
        1
 62
     0
 92
       -2
340
0
 93
        0
 40
0.045
309
GRIDFORMAT_END
 95
        8
302
GRIDFORMAT
  1
GRIDFORMAT_BEGIN
 90
       26
 91
        1
 62
     0
 92
       -2
340
0
 93
        0
 40
0.045
309
GRIDFORMAT_END
 95
       32
302
GRIDFORMAT
  1
GRIDFORMAT_BEGIN
 90
       26
 91
        1
 62
     0
 92
       -2
340
0
 93
        0
 40
0.045
309
GRIDFORMAT_END
309
TABLEFORMAT_END
309
FORMATTEDTABLEDATACELL_END
  1
TABLECELL_BEGIN
 90
        0
 91
        0
309
TABLECELL_END
300
CELL
  1
LINKEDTABLEDATACELL_BEGIN
 90
        0
300

 91
        0
301
CUSTOMDATA
  1
DATAMAP_BEGIN
 90
        1
300
ACAD_ROUNDTRIP_2008_CELL_CHECKSUM
301
DATAMAP_VALUE
 93
        2
 90
        2
140
169.0
 94
        0
300

302

304
ACVALUE_END
309
DATAMAP_END
 92
        0
 95
        1
302
CONTENT
  1
CELLCONTENT_BEGIN
 90
        1
300
VALUE
 93
        2
 90
        4
  1
A4
 94
        0
300

302
A4
304
ACVALUE_END
 91
        0
309
CELLCONTENT_END
  1
FORMATTEDCELLCONTENT_BEGIN
170
     1
300
CONTENTFORMAT
  1
CONTENTFORMAT_BEGIN
 90
      196
 91
        0
 92
      512
 93
        0
300

 40
0.0
140
1.0
 94
        1
 62
     0
340
206
144
3.5
309
CONTENTFORMAT_END
309
FORMATTEDCELLCONTENT_END
309
LINKEDTABLEDATACELL_END
  1
FORMATTEDTABLEDATACELL_BEGIN
300
CELLTABLEFORMAT
  1
TABLEFORMAT_BEGIN
 90
        1
170
     1
 91
       16
 92
        0
 62
   257
 93
        1
300
CONTENTFORMAT
  1
CONTENTFORMAT_BEGIN
 90
       16
 91
        0
 92
      512
 93
        0
300

 40
0.0
140
1.0
 94
        4
 62
     0
340
0
144
0.18
309
CONTENTFORMAT_END
171
     0
 94
        4
 95
        1
302
GRIDFORMAT
  1
GRIDFORMAT_BEGIN
 90
       26
 91
        1
 62
     0
 92
       -2
340
0
 93
        0
 40
0.045
309
GRIDFORMAT_END
 95
        4
302
GRIDFORMAT
  1
GRIDFORMAT_BEGIN
 90
       26
 91
        1
 62
     0
 92
       -2
340
0
 93
        0
 40
0.045
309
GRIDFORMAT_END
 95
        8
302
GRIDFORMAT
  1
GRIDFORMAT_BEGIN
 90
       26
 91
        1
 62
     0
 92
       -2
340
0
 93
        0
 40
0.045
309
GRIDFORMAT_END
 95
       32
302
GRIDFORMAT
  1
GRIDFORMAT_BEGIN
 90
       26
 91
        1
 62
     0
 92
       -2
340
0
 93
        0
 40
0.045
309
GRIDFORMAT_END
309
TABLEFORMAT_END
309
FORMATTEDTABLEDATACELL_END
  1
TABLECELL_BEGIN
 90
        0
 91
        0
309
TABLECELL_END
 91
        0
301
CUSTOMDATA
  1
DATAMAP_BEGIN
 90
        0
309
DATAMAP_END
309
LINKEDTABLEDATAROW_END
  1
FORMATTEDTABLEDATAROW_BEGIN
300
ROWTABLEFORMAT
  1
TABLEFORMAT_BEGIN
 90
        2
170
     0
309
TABLEFORMAT_END
309
FORMATTEDTABLEDATAROW_END
  1
TABLEROW_BEGIN
 90
        2
 40
6.0
309
TABLEROW_END
301
ROW
  1
LINKEDTABLEDATAROW_BEGIN
 90
        5
300
CELL
  1
LINKEDTABLEDATACELL_BEGIN
 90
        0
300

 91
        0
301
CUSTOMDATA
  1
DATAMAP_BEGIN
 90
        0
309
DATAMAP_END
 92
        0
 95
        0
309
LINKEDTABLEDATACELL_END
  1
FORMATTEDTABLEDATACELL_BEGIN
300
CELLTABLEFORMAT
  1
TABLEFORMAT_BEGIN
 90
        1
170
     1
 91
        0
 92
        0
 62
   257
 93
        1
300
CONTENTFORMAT
  1
CONTENTFORMAT_BEGIN
 90
        0
 91
        0
 92
      512
 93
        0
300

 40
0.0
140
1.0
 94
        1
 62
     0
340
0
144
0.18
309
CONTENTFORMAT_END
171
     0
 94
        0
309
TABLEFORMAT_END
309
FORMATTEDTABLEDATACELL_END
  1
TABLECELL_BEGIN
 90
        0
 91
        0
309
TABLECELL_END
300
CELL
  1
LINKEDTABLEDATACELL_BEGIN
 90
        0
300

 91
        0
301
CUSTOMDATA
  1
DATAMAP_BEGIN
 90
        0
309
DATAMAP_END
 92
        0
 95
        0
309
LINKEDTABLEDATACELL_END
  1
FORMATTEDTABLEDATACELL_BEGIN
300
CELLTABLEFORMAT
  1
TABLEFORMAT_BEGIN
 90
        1
170
     1
 91
        0
 92
        0
 62
   257
 93
        1
300
CONTENTFORMAT
  1
CONTENTFORMAT_BEGIN
 90
        0
 91
        0
 92
      512
 93
        0
300

 40
0.0
140
1.0
 94
        1
 62
     0
340
0
144
0.18
309
CONTENTFORMAT_END
171
     0
 94
        0
309
TABLEFORMAT_END
309
FORMATTEDTABLEDATACELL_END
  1
TABLECELL_BEGIN
 90
        0
 91
        0
309
TABLECELL_END
300
CELL
  1
LINKEDTABLEDATACELL_BEGIN
 90
        0
300

 91
        0
301
CUSTOMDATA
  1
DATAMAP_BEGIN
 90
        0
309
DATAMAP_END
 92
        0
 95
        0
309
LINKEDTABLEDATACELL_END
  1
FORMATTEDTABLEDATACELL_BEGIN
300
CELLTABLEFORMAT
  1
TABLEFORMAT_BEGIN
 90
        1
170
     1
 91
        0
 92
        0
 62
   257
 93
        1
300
CONTENTFORMAT
  1
CONTENTFORMAT_BEGIN
 90
        0
 91
        0
 92
      512
 93
        0
300

 40
0.0
140
1.0
 94
        1
 62
     0
340
0
144
0.18
309
CONTENTFORMAT_END
171
     0
 94
        0
309
TABLEFORMAT_END
309
FORMATTEDTABLEDATACELL_END
  1
TABLECELL_BEGIN
 90
        0
 91
        0
309
TABLECELL_END
300
CELL
  1
LINKEDTABLEDATACELL_BEGIN
 90
        0
300

 91
        0
301
CUSTOMDATA
  1
DATAMAP_BEGIN
 90
        1
300
ACAD_ROUNDTRIP_2008_CELL_CHECKSUM
301
DATAMAP_VALUE
 93
        2
 90
        2
140
27765.0
 94
        0
300

302

304
ACVALUE_END
309
DATAMAP_END
 92
        0
 95
        1
302
CONTENT
  1
CELLCONTENT_BEGIN
 90
        1
300
VALUE
 93
        2
 90
        4
  1
FRONTALE PIANO QUADRO COMBO2
 94
        0
300

302
FRONTALE PIANO QUADRO COMBO2
304
ACVALUE_END
 91
        0
309
CELLCONTENT_END
  1
FORMATTEDCELLCONTENT_BEGIN
170
     1
300
CONTENTFORMAT
  1
CONTENTFORMAT_BEGIN
 90
      196
 91
        0
 92
      512
 93
        0
300

 40
0.0
140
1.0
 94
        1
 62
     0
340
206
144
2.5
309
CONTENTFORMAT_END
309
FORMATTEDCELLCONTENT_END
309
LINKEDTABLEDATACELL_END
  1
FORMATTEDTABLEDATACELL_BEGIN
300
CELLTABLEFORMAT
  1
TABLEFORMAT_BEGIN
 90
        1
170
     1
 91
       16
 92
        0
 62
   257
 93
        1
300
CONTENTFORMAT
  1
CONTENTFORMAT_BEGIN
 90
       16
 91
        0
 92
      512
 93
        0
300

 40
0.0
140
1.0
 94
        4
 62
     0
340
0
144
0.18
309
CONTENTFORMAT_END
171
     0
 94
        4
 95
        1
302
GRIDFORMAT
  1
GRIDFORMAT_BEGIN
 90
       26
 91
        1
 62
     0
 92
       -2
340
0
 93
        0
 40
0.045
309
GRIDFORMAT_END
 95
        4
302
GRIDFORMAT
  1
GRIDFORMAT_BEGIN
 90
       26
 91
        1
 62
     0
 92
       -2
340
0
 93
        0
 40
0.045
309
GRIDFORMAT_END
 95
        8
302
GRIDFORMAT
  1
GRIDFORMAT_BEGIN
 90
       26
 91
        1
 62
     0
 92
       -2
340
0
 93
        0
 40
0.045
309
GRIDFORMAT_END
 95
       32
302
GRIDFORMAT
  1
GRIDFORMAT_BEGIN
 90
       26
 91
        1
 62
     0
 92
       -2
340
0
 93
        0
 40
0.045
309
GRIDFORMAT_END
309
TABLEFORMAT_END
309
FORMATTEDTABLEDATACELL_END
  1
TABLECELL_BEGIN
 90
        0
 91
        0
309
TABLECELL_END
300
CELL
  1
LINKEDTABLEDATACELL_BEGIN
 90
        0
300

 91
        0
301
CUSTOMDATA
  1
DATAMAP_BEGIN
 90
        0
309
DATAMAP_END
 92
        0
 95
        0
309
LINKEDTABLEDATACELL_END
  1
FORMATTEDTABLEDATACELL_BEGIN
300
CELLTABLEFORMAT
  1
TABLEFORMAT_BEGIN
 90
        1
170
     1
 91
        0
 92
        0
 62
   257
 93
        1
300
CONTENTFORMAT
  1
CONTENTFORMAT_BEGIN
 90
        0
 91
        0
 92
      512
 93
        0
300

 40
0.0
140
1.0
 94
        1
 62
     0
340
0
144
0.18
309
CONTENTFORMAT_END
171
     0
 94
        0
309
TABLEFORMAT_END
309
FORMATTEDTABLEDATACELL_END
  1
TABLECELL_BEGIN
 90
        0
 91
        0
309
TABLECELL_END
 91
        0
301
CUSTOMDATA
  1
DATAMAP_BEGIN
 90
        0
309
DATAMAP_END
309
LINKEDTABLEDATAROW_END
  1
FORMATTEDTABLEDATAROW_BEGIN
300
ROWTABLEFORMAT
  1
TABLEFORMAT_BEGIN
 90
        2
170
     0
309
TABLEFORMAT_END
309
FORMATTEDTABLEDATAROW_END
  1
TABLEROW_BEGIN
 90
        3
 40
10.0
309
TABLEROW_END
301
ROW
  1
LINKEDTABLEDATAROW_BEGIN
 90
        5
300
CELL
  1
LINKEDTABLEDATACELL_BEGIN
 90
        0
300

 91
        0
301
CUSTOMDATA
  1
DATAMAP_BEGIN
 90
        0
309
DATAMAP_END
 92
        0
 95
        0
309
LINKEDTABLEDATACELL_END
  1
FORMATTEDTABLEDATACELL_BEGIN
300
CELLTABLEFORMAT
  1
TABLEFORMAT_BEGIN
 90
        1
170
     1
 91
        0
 92
        0
 62
   257
 93
        1
300
CONTENTFORMAT
  1
CONTENTFORMAT_BEGIN
 90
        0
 91
        0
 92
      512
 93
        0
300

 40
0.0
140
1.0
 94
        1
 62
     0
340
0
144
0.18
309
CONTENTFORMAT_END
171
     0
 94
        0
309
TABLEFORMAT_END
309
FORMATTEDTABLEDATACELL_END
  1
TABLECELL_BEGIN
 90
        0
 91
        0
309
TABLECELL_END
300
CELL
  1
LINKEDTABLEDATACELL_BEGIN
 90
        0
300

 91
        0
301
CUSTOMDATA
  1
DATAMAP_BEGIN
 90
        0
309
DATAMAP_END
 92
        0
 95
        0
309
LINKEDTABLEDATACELL_END
  1
FORMATTEDTABLEDATACELL_BEGIN
300
CELLTABLEFORMAT
  1
TABLEFORMAT_BEGIN
 90
        1
170
     1
 91
        0
 92
        0
 62
   257
 93
        1
300
CONTENTFORMAT
  1
CONTENTFORMAT_BEGIN
 90
        0
 91
        0
 92
      512
 93
        0
300

 40
0.0
140
1.0
 94
        1
 62
     0
340
0
144
0.18
309
CONTENTFORMAT_END
171
     0
 94
        0
309
TABLEFORMAT_END
309
FORMATTEDTABLEDATACELL_END
  1
TABLECELL_BEGIN
 90
        0
 91
        0
309
TABLECELL_END
300
CELL
  1
LINKEDTABLEDATACELL_BEGIN
 90
        0
300

 91
        0
301
CUSTOMDATA
  1
DATAMAP_BEGIN
 90
        0
309
DATAMAP_END
 92
        0
 95
        0
309
LINKEDTABLEDATACELL_END
  1
FORMATTEDTABLEDATACELL_BEGIN
300
CELLTABLEFORMAT
  1
TABLEFORMAT_BEGIN
 90
        1
170
     1
 91
        0
 92
        0
 62
   257
 93
        1
300
CONTENTFORMAT
  1
CONTENTFORMAT_BEGIN
 90
        0
 91
        0
 92
      512
 93
        0
300

 40
0.0
140
1.0
 94
        1
 62
     0
340
0
144
0.18
309
CONTENTFORMAT_END
171
     0
 94
        0
309
TABLEFORMAT_END
309
FORMATTEDTABLEDATACELL_END
  1
TABLECELL_BEGIN
 90
        0
 91
        0
309
TABLECELL_END
300
CELL
  1
LINKEDTABLEDATACELL_BEGIN
 90
        0
300

 91
        0
301
CUSTOMDATA
  1
DATAMAP_BEGIN
 90
        1
300
ACAD_ROUNDTRIP_2008_CELL_CHECKSUM
301
DATAMAP_VALUE
 93
        2
 90
        2
140
4797.0
 94
        0
300

302

304
ACVALUE_END
309
DATAMAP_END
 92
        0
 95
        1
302
CONTENT
  1
CELLCONTENT_BEGIN
 90
        1
300
VALUE
 93
        2
 90
        4
  1
DATE:11.12.19
 94
        0
300

302
DATE:11.12.19
304
ACVALUE_END
 91
        0
309
CELLCONTENT_END
  1
FORMATTEDCELLCONTENT_BEGIN
170
     1
300
CONTENTFORMAT
  1
CONTENTFORMAT_BEGIN
 90
      196
 91
        0
 92
      512
 93
        0
300

 40
0.0
140
1.0
 94
        1
 62
     0
340
206
144
2.5
309
CONTENTFORMAT_END
309
FORMATTEDCELLCONTENT_END
309
LINKEDTABLEDATACELL_END
  1
FORMATTEDTABLEDATACELL_BEGIN
300
CELLTABLEFORMAT
  1
TABLEFORMAT_BEGIN
 90
        1
170
     1
 91
       16
 92
        0
 62
   257
 93
        1
300
CONTENTFORMAT
  1
CONTENTFORMAT_BEGIN
 90
       16
 91
        0
 92
      512
 93
        0
300

 40
0.0
140
1.0
 94
        4
 62
     0
340
0
144
0.18
309
CONTENTFORMAT_END
171
     0
 94
        4
 95
        1
302
GRIDFORMAT
  1
GRIDFORMAT_BEGIN
 90
       26
 91
        1
 62
     0
 92
       -2
340
0
 93
        0
 40
0.045
309
GRIDFORMAT_END
 95
        4
302
GRIDFORMAT
  1
GRIDFORMAT_BEGIN
 90
       26
 91
        1
 62
     0
 92
       -2
340
0
 93
        0
 40
0.045
309
GRIDFORMAT_END
 95
        8
302
GRIDFORMAT
  1
GRIDFORMAT_BEGIN
 90
       26
 91
        1
 62
     0
 92
       -2
340
0
 93
        0
 40
0.045
309
GRIDFORMAT_END
 95
       32
302
GRIDFORMAT
  1
GRIDFORMAT_BEGIN
 90
       26
 91
        1
 62
     0
 92
       -2
340
0
 93
        0
 40
0.045
309
GRIDFORMAT_END
309
TABLEFORMAT_END
309
FORMATTEDTABLEDATACELL_END
  1
TABLECELL_BEGIN
 90
        0
 91
        0
309
TABLECELL_END
300
CELL
  1
LINKEDTABLEDATACELL_BEGIN
 90
        0
300

 91
        0
301
CUSTOMDATA
  1
DATAMAP_BEGIN
 90
        0
309
DATAMAP_END
 92
        0
 95
        0
309
LINKEDTABLEDATACELL_END
  1
FORMATTEDTABLEDATACELL_BEGIN
300
CELLTABLEFORMAT
  1
TABLEFORMAT_BEGIN
 90
        1
170
     1
 91
        0
 92
        0
 62
   257
 93
        1
300
CONTENTFORMAT
  1
CONTENTFORMAT_BEGIN
 90
        0
 91
        0
 92
      512
 93
        0
300

 40
0.0
140
1.0
 94
        1
 62
     0
340
0
144
0.18
309
CONTENTFORMAT_END
171
     0
 94
        0
309
TABLEFORMAT_END
309
FORMATTEDTABLEDATACELL_END
  1
TABLECELL_BEGIN
 90
        0
 91
        0
309
TABLECELL_END
 91
        0
301
CUSTOMDATA
  1
DATAMAP_BEGIN
 90
        0
309
DATAMAP_END
309
LINKEDTABLEDATAROW_END
  1
FORMATTEDTABLEDATAROW_BEGIN
300
ROWTABLEFORMAT
  1
TABLEFORMAT_BEGIN
 90
        2
170
     0
309
TABLEFORMAT_END
309
FORMATTEDTABLEDATAROW_END
  1
TABLEROW_BEGIN
 90
        3
 40
5.0
309
TABLEROW_END
301
ROW
  1
LINKEDTABLEDATAROW_BEGIN
 90
        5
300
CELL
  1
LINKEDTABLEDATACELL_BEGIN
 90
        0
300

 91
        0
301
CUSTOMDATA
  1
DATAMAP_BEGIN
 90
        1
300
ACAD_ROUNDTRIP_2008_CELL_CHECKSUM
301
DATAMAP_VALUE
 93
        2
 90
        2
140
1361482.0
 94
        0
300

302

304
ACVALUE_END
309
DATAMAP_END
 92
        0
 95
        1
302
CONTENT
  1
CELLCONTENT_BEGIN
 90
        1
300
VALUE
 93
        2
 90
        4
  1
Any integral or partial reproductions are prohibited \Pwithout prior authorisation of L & L Luce & Light s.r.l., \Pin accordance with the law in force. \PAll rights reserved.
 94
        0
300

302
Any integral or partial reproductions are prohibited \Pwithout prior authorisation of L & L Luce & Light s.r.l., \Pin accordance with the law in force. \PAll rights reserved.
304
ACVALUE_END
 91
        0
309
CELLCONTENT_END
  1
FORMATTEDCELLCONTENT_BEGIN
170
     1
300
CONTENTFORMAT
  1
CONTENTFORMAT_BEGIN
 90
      196
 91
        0
 92
      512
 93
        0
300

 40
0.0
140
1.0
 94
        1
 62
     0
340
206
144
2.25
309
CONTENTFORMAT_END
309
FORMATTEDCELLCONTENT_END
309
LINKEDTABLEDATACELL_END
  1
FORMATTEDTABLEDATACELL_BEGIN
300
CELLTABLEFORMAT
  1
TABLEFORMAT_BEGIN
 90
        1
170
     1
 91
       16
 92
        0
 62
   257
 93
        1
300
CONTENTFORMAT
  1
CONTENTFORMAT_BEGIN
 90
       16
 91
        0
 92
      512
 93
        0
300

 40
0.0
140
1.0
 94
        4
 62
     0
340
0
144
0.18
309
CONTENTFORMAT_END
171
     0
 94
        4
 95
        1
302
GRIDFORMAT
  1
GRIDFORMAT_BEGIN
 90
       26
 91
        1
 62
     0
 92
       -2
340
0
 93
        0
 40
0.045
309
GRIDFORMAT_END
 95
        4
302
GRIDFORMAT
  1
GRIDFORMAT_BEGIN
 90
       26
 91
        1
 62
     0
 92
       -2
340
0
 93
        0
 40
0.045
309
GRIDFORMAT_END
 95
        8
302
GRIDFORMAT
  1
GRIDFORMAT_BEGIN
 90
       26
 91
        1
 62
     0
 92
       -2
340
0
 93
        0
 40
0.045
309
GRIDFORMAT_END
 95
       32
302
GRIDFORMAT
  1
GRIDFORMAT_BEGIN
 90
       26
 91
        1
 62
     0
 92
       -2
340
0
 93
        0
 40
0.045
309
GRIDFORMAT_END
309
TABLEFORMAT_END
309
FORMATTEDTABLEDATACELL_END
  1
TABLECELL_BEGIN
 90
        0
 91
        0
309
TABLECELL_END
300
CELL
  1
LINKEDTABLEDATACELL_BEGIN
 90
        0
300

 91
        0
301
CUSTOMDATA
  1
DATAMAP_BEGIN
 90
        0
309
DATAMAP_END
 92
        0
 95
        0
309
LINKEDTABLEDATACELL_END
  1
FORMATTEDTABLEDATACELL_BEGIN
300
CELLTABLEFORMAT
  1
TABLEFORMAT_BEGIN
 90
        1
170
     1
 91
        0
 92
        0
 62
   257
 93
        1
300
CONTENTFORMAT
  1
CONTENTFORMAT_BEGIN
 90
        0
 91
        0
 92
      512
 93
        0
300

 40
0.0
140
1.0
 94
        1
 62
     0
340
0
144
0.18
309
CONTENTFORMAT_END
171
     0
 94
        0
309
TABLEFORMAT_END
309
FORMATTEDTABLEDATACELL_END
  1
TABLECELL_BEGIN
 90
        0
 91
        0
309
TABLECELL_END
300
CELL
  1
LINKEDTABLEDATACELL_BEGIN
 90
        0
300

 91
        0
301
CUSTOMDATA
  1
DATAMAP_BEGIN
 90
        0
309
DATAMAP_END
 92
        0
 95
        0
309
LINKEDTABLEDATACELL_END
  1
FORMATTEDTABLEDATACELL_BEGIN
300
CELLTABLEFORMAT
  1
TABLEFORMAT_BEGIN
 90
        1
170
     1
 91
        0
 92
        0
 62
   257
 93
        1
300
CONTENTFORMAT
  1
CONTENTFORMAT_BEGIN
 90
        0
 91
        0
 92
      512
 93
        0
300

 40
0.0
140
1.0
 94
        1
 62
     0
340
0
144
0.18
309
CONTENTFORMAT_END
171
     0
 94
        0
309
TABLEFORMAT_END
309
FORMATTEDTABLEDATACELL_END
  1
TABLECELL_BEGIN
 90
        0
 91
        0
309
TABLECELL_END
300
CELL
  1
LINKEDTABLEDATACELL_BEGIN
 90
        0
300

 91
        0
301
CUSTOMDATA
  1
DATAMAP_BEGIN
 90
        0
309
DATAMAP_END
 92
        0
 95
        0
309
LINKEDTABLEDATACELL_END
  1
FORMATTEDTABLEDATACELL_BEGIN
300
CELLTABLEFORMAT
  1
TABLEFORMAT_BEGIN
 90
        1
170
     1
 91
        0
 92
        0
 62
   257
 93
        1
300
CONTENTFORMAT
  1
CONTENTFORMAT_BEGIN
 90
        0
 91
        0
 92
      512
 93
        0
300

 40
0.0
140
1.0
 94
        1
 62
     0
340
0
144
0.18
309
CONTENTFORMAT_END
171
     0
 94
        0
309
TABLEFORMAT_END
309
FORMATTEDTABLEDATACELL_END
  1
TABLECELL_BEGIN
 90
        0
 91
        0
309
TABLECELL_END
300
CELL
  1
LINKEDTABLEDATACELL_BEGIN
 90
        0
300

 91
        0
301
CUSTOMDATA
  1
DATAMAP_BEGIN
 90
        0
309
DATAMAP_END
 92
        0
 95
        0
309
LINKEDTABLEDATACELL_END
  1
FORMATTEDTABLEDATACELL_BEGIN
300
CELLTABLEFORMAT
  1
TABLEFORMAT_BEGIN
 90
        1
170
     1
 91
        0
 92
        0
 62
   257
 93
        1
300
CONTENTFORMAT
  1
CONTENTFORMAT_BEGIN
 90
        0
 91
        0
 92
      512
 93
        0
300

 40
0.0
140
1.0
 94
        1
 62
     0
340
0
144
0.18
309
CONTENTFORMAT_END
171
     0
 94
        0
309
TABLEFORMAT_END
309
FORMATTEDTABLEDATACELL_END
  1
TABLECELL_BEGIN
 90
        0
 91
        0
309
TABLECELL_END
 91
        0
301
CUSTOMDATA
  1
DATAMAP_BEGIN
 90
        0
309
DATAMAP_END
309
LINKEDTABLEDATAROW_END
  1
FORMATTEDTABLEDATAROW_BEGIN
300
ROWTABLEFORMAT
  1
TABLEFORMAT_BEGIN
 90
        2
170
     0
309
TABLEFORMAT_END
309
FORMATTEDTABLEDATAROW_END
  1
TABLEROW_BEGIN
 90
        3
 40
13.0
309
TABLEROW_END
100
AcDbFormattedTableData
300
TABLEFORMAT
  1
TABLEFORMAT_BEGIN
 90
        4
170
     1
 91
    15360
 92
        0
 62
   257
 93
        1
300
CONTENTFORMAT
  1
CONTENTFORMAT_BEGIN
 90
        0
 91
        0
 92
      512
 93
        0
300

 40
0.0
140
1.0
 94
        1
 62
     0
340
0
144
0.18
309
CONTENTFORMAT_END
171
     1
301
MARGIN
  1
CELLMARGIN_BEGIN
 40
0.06
 40
0.06
 40
0.06
 40
0.06
 40
0.06
 40
0.06
309
CELLMARGIN_END
 94
        0
309
TABLEFORMAT_END
 90
        4
 91
        0
 92
        0
 93
        3
 94
        2
 91
        2
 92
        3
 93
        2
 94
        4
 91
        3
 92
        3
 93
        3
 94
        4
 91
        4
 92
        0
 93
        4
 94
        4
100
AcDbTableContent
340
3F4
  0
TABLEGEOMETRY
  5
423
330
425
100
AcDbTableGeometry
 90
        5
 91
        5
 92
       25
 93
        0
 40
0.0
 41
0.0
330
0
 94
        0
 93
        0
 40
0.0
 41
0.0
330
0
 94
        0
 93
        0
 40
0.0
 41
0.0
330
0
 94
        0
 93
        0
 40
0.0
 41
0.0
330
0
 94
        0
 93
        0
 40
0.0
 41
0.0
330
0
 94
        0
 93
        0
 40
0.0
 41
0.0
330
0
 94
        0
 93
        0
 40
0.0
 41
0.0
330
0
 94
        0
 93
        0
 40
0.0
 41
0.0
330
0
 94
        0
 93
        0
 40
0.0
 41
0.0
330
0
 94
        0
 93
        0
 40
0.0
 41
0.0
330
0
 94
        0
 93
        0
 40
0.0
 41
0.0
330
0
 94
        0
 93
        0
 40
0.0
 41
0.0
330
0
 94
        0
 93
        0
 40
0.0
 41
0.0
330
0
 94
        0
 93
        0
 40
0.0
 41
0.0
330
0
 94
        0
 93
        0
 40
0.0
 41
0.0
330
0
 94
        0
 93
        0
 40
0.0
 41
0.0
330
0
 94
        0
 93
        0
 40
0.0
 41
0.0
330
0
 94
        0
 93
        0
 40
0.0
 41
0.0
330
0
 94
        0
 93
        0
 40
0.0
 41
0.0
330
0
 94
        0
 93
        0
 40
0.0
 41
0.0
330
0
 94
        0
 93
        0
 40
0.0
 41
0.0
330
0
 94
        0
 93
        0
 40
0.0
 41
0.0
330
0
 94
        0
 93
        0
 40
0.0
 41
0.0
330
0
 94
        0
 93
        0
 40
0.0
 41
0.0
330
0
 94
        0
 93
        0
 40
0.0
 41
0.0
330
0
 94
        0
  0
DICTIONARY
  5
428
330
3F4
100
AcDbDictionary
280
     1
281
     1
  3
ACAD_ROUNDTRIP_2008_TABLESTYLE_CELLSTYLEMAP
360
429
  0
CELLSTYLEMAP
  5
429
102
{ACAD_REACTORS
330
428
102
}
330
428
100
AcDbCellStyleMap
 90
        3
300
CELLSTYLE
  1
TABLEFORMAT_BEGIN
 90
        5
170
     1
 91
        0
 92
        0
 62
   257
 93
        1
300
CONTENTFORMAT
  1
CONTENTFORMAT_BEGIN
 90
        0
 91
        0
 92
        4
 93
        0
300

 40
0.0
140
1.0
 94
        5
 62
     0
340
11
144
6.0
309
CONTENTFORMAT_END
171
     1
301
MARGIN
  1
CELLMARGIN_BEGIN
 40
1.5
 40
1.5
 40
1.5
 40
1.5
 40
1.5
 40
1.5
309
CELLMARGIN_END
 94
        6
 95
        1
302
GRIDFORMAT
  1
GRIDFORMAT_BEGIN
 90
        0
 91
        1
 62
     0
 92
       -2
340
14
 93
        0
 40
0.045
309
GRIDFORMAT_END
 95
        2
302
GRIDFORMAT
  1
GRIDFORMAT_BEGIN
 90
        0
 91
        1
 62
     0
 92
       -2
340
14
 93
        0
 40
0.045
309
GRIDFORMAT_END
 95
        4
302
GRIDFORMAT
  1
GRIDFORMAT_BEGIN
 90
        0
 91
        1
 62
     0
 92
       -2
340
14
 93
        0
 40
0.045
309
GRIDFORMAT_END
 95
        8
302
GRIDFORMAT
  1
GRIDFORMAT_BEGIN
 90
        0
 91
        1
 62
     0
 92
       -2
340
14
 93
        0
 40
0.045
309
GRIDFORMAT_END
 95
       16
302
GRIDFORMAT
  1
GRIDFORMAT_BEGIN
 90
        0
 91
        1
 62
     0
 92
       -2
340
14
 93
        0
 40
0.045
309
GRIDFORMAT_END
 95
       32
302
GRIDFORMAT
  1
GRIDFORMAT_BEGIN
 90
        0
 91
        1
 62
     0
 92
       -2
340
14
 93
        0
 40
0.045
309
GRIDFORMAT_END
309
TABLEFORMAT_END
  1
CELLSTYLE_BEGIN
 90
        1
 91
        1
300
_TITLE
309
CELLSTYLE_END
300
CELLSTYLE
  1
TABLEFORMAT_BEGIN
 90
        5
170
     1
 91
        0
 92
        0
 62
   257
 93
        1
300
CONTENTFORMAT
  1
CONTENTFORMAT_BEGIN
 90
        0
 91
        0
 92
        4
 93
        0
300

 40
0.0
140
1.0
 94
        5
 62
     0
340
11
144
4.5
309
CONTENTFORMAT_END
171
     1
301
MARGIN
  1
CELLMARGIN_BEGIN
 40
1.5
 40
1.5
 40
1.5
 40
1.5
 40
1.5
 40
1.5
309
CELLMARGIN_END
 94
        6
 95
        1
302
GRIDFORMAT
  1
GRIDFORMAT_BEGIN
 90
        0
 91
        1
 62
     0
 92
       -2
340
14
 93
        0
 40
0.045
309
GRIDFORMAT_END
 95
        2
302
GRIDFORMAT
  1
GRIDFORMAT_BEGIN
 90
        0
 91
        1
 62
     0
 92
       -2
340
14
 93
        0
 40
0.045
309
GRIDFORMAT_END
 95
        4
302
GRIDFORMAT
  1
GRIDFORMAT_BEGIN
 90
        0
 91
        1
 62
     0
 92
       -2
340
14
 93
        0
 40
0.045
309
GRIDFORMAT_END
 95
        8
302
GRIDFORMAT
  1
GRIDFORMAT_BEGIN
 90
        0
 91
        1
 62
     0
 92
       -2
340
14
 93
        0
 40
0.045
309
GRIDFORMAT_END
 95
       16
302
GRIDFORMAT
  1
GRIDFORMAT_BEGIN
 90
        0
 91
        1
 62
     0
 92
       -2
340
14
 93
        0
 40
0.045
309
GRIDFORMAT_END
 95
       32
302
GRIDFORMAT
  1
GRIDFORMAT_BEGIN
 90
        0
 91
        1
 62
     0
 92
       -2
340
14
 93
        0
 40
0.045
309
GRIDFORMAT_END
309
TABLEFORMAT_END
  1
CELLSTYLE_BEGIN
 90
        2
 91
        1
300
_HEADER
309
CELLSTYLE_END
300
CELLSTYLE
  1
TABLEFORMAT_BEGIN
 90
        5
170
     1
 91
        0
 92
        0
 62
   257
 93
        1
300
CONTENTFORMAT
  1
CONTENTFORMAT_BEGIN
 90
        0
 91
        0
 92
        4
 93
        0
300

 40
0.0
140
1.0
 94
        2
 62
     0
340
11
144
4.5
309
CONTENTFORMAT_END
171
     1
301
MARGIN
  1
CELLMARGIN_BEGIN
 40
1.5
 40
1.5
 40
1.5
 40
1.5
 40
1.5
 40
1.5
309
CELLMARGIN_END
 94
        6
 95
        1
302
GRIDFORMAT
  1
GRIDFORMAT_BEGIN
 90
        0
 91
        1
 62
     0
 92
       -2
340
14
 93
        0
 40
0.045
309
GRIDFORMAT_END
 95
        2
302
GRIDFORMAT
  1
GRIDFORMAT_BEGIN
 90
        0
 91
        1
 62
     0
 92
       -2
340
14
 93
        0
 40
0.045
309
GRIDFORMAT_END
 95
        4
302
GRIDFORMAT
  1
GRIDFORMAT_BEGIN
 90
        0
 91
        1
 62
     0
 92
       -2
340
14
 93
        0
 40
0.045
309
GRIDFORMAT_END
 95
        8
302
GRIDFORMAT
  1
GRIDFORMAT_BEGIN
 90
        0
 91
        1
 62
     0
 92
       -2
340
14
 93
        0
 40
0.045
309
GRIDFORMAT_END
 95
       16
302
GRIDFORMAT
  1
GRIDFORMAT_BEGIN
 90
        0
 91
        1
 62
     0
 92
       -2
340
14
 93
        0
 40
0.045
309
GRIDFORMAT_END
 95
       32
302
GRIDFORMAT
  1
GRIDFORMAT_BEGIN
 90
        0
 91
        1
 62
     0
 92
       -2
340
14
 93
        0
 40
0.045
309
GRIDFORMAT_END
309
TABLEFORMAT_END
  1
CELLSTYLE_BEGIN
 90
        3
 91
        2
300
_DATA
309
CELLSTYLE_END
  0
ENDSEC
  0
EOF
