  0
SECTION
  2
HEADER
  9
$ACADVER
  1
AC1027
  9
$ACADMAINTVER
 70
   105
  9
$DWGCODEPAGE
  3
ANSI_1252
  9
$REQUIREDVERSIONS
160
                 0
  9
$LASTSAVEDBY
  1
andrea.zolin
  9
$INSBASE
 10
0.0
 20
0.0
 30
0.0
  9
$EXTMIN
 10
0.0
 20
0.0
 30
0.0
  9
$EXTMAX
 10
1189.0
 20
841.0
 30
0.0
  9
$LIMMIN
 10
0.0
 20
0.0
  9
$LIMMAX
 10
1189.0
 20
841.0
  9
$ORTHOMODE
 70
     0
  9
$REGENMODE
 70
     1
  9
$FILLMODE
 70
     1
  9
$QTEXTMODE
 70
     0
  9
$MIRRTEXT
 70
     1
  9
$LTSCALE
 40
65.395
  9
$ATTMODE
 70
     1
  9
$TEXTSIZE
 40
0.2
  9
$TRACEWID
 40
0.05
  9
$TEXTSTYLE
  7
STANDARD
  9
$CLAYER
  8
0
  9
$CELTYPE
  6
BYLAYER
  9
$CECOLOR
 62
   256
  9
$CELTSCALE
 40
1.0
  9
$DISPSILH
 70
     0
  9
$DIMSCALE
 40
1.0
  9
$DIMASZ
 40
2.5
  9
$DIMEXO
 40
0.75
  9
$DIMDLI
 40
45.182
  9
$DIMRND
 40
0.0
  9
$DIMDLE
 40
0.0
  9
$DIMEXE
 40
0.75
  9
$DIMTP
 40
0.01
  9
$DIMTM
 40
0.01
  9
$DIMTXT
 40
3.0
  9
$DIMCEN
 40
10.701
  9
$DIMTSZ
 40
0.0
  9
$DIMTOL
 70
     1
  9
$DIMLIM
 70
     0
  9
$DIMTIH
 70
     1
  9
$DIMTOH
 70
     1
  9
$DIMSE1
 70
     0
  9
$DIMSE2
 70
     0
  9
$DIMTAD
 70
     0
  9
$DIMZIN
 70
     0
  9
$DIMBLK
  1
CLOSED
  9
$DIMASO
 70
     1
  9
$DIMSHO
 70
     1
  9
$DIMPOST
  1

  9
$DIMAPOST
  1

  9
$DIMALT
 70
     0
  9
$DIMALTD
 70
     2
  9
$DIMALTF
 40
25.4
  9
$DIMLFAC
 40
1.0
  9
$DIMTOFL
 70
     0
  9
$DIMTVP
 40
0.0
  9
$DIMTIX
 70
     0
  9
$DIMSOXD
 70
     0
  9
$DIMSAH
 70
     0
  9
$DIMBLK1
  1

  9
$DIMBLK2
  1

  9
$DIMSTYLE
  2
STANDARD
  9
$DIMCLRD
 70
     0
  9
$DIMCLRE
 70
     0
  9
$DIMCLRT
 70
     0
  9
$DIMTFAC
 40
1.0
  9
$DIMGAP
 40
0.625
  9
$DIMJUST
 70
     0
  9
$DIMSD1
 70
     0
  9
$DIMSD2
 70
     0
  9
$DIMTOLJ
 70
     1
  9
$DIMTZIN
 70
     0
  9
$DIMALTZ
 70
     0
  9
$DIMALTTZ
 70
     0
  9
$DIMUPT
 70
     0
  9
$DIMDEC
 70
     4
  9
$DIMTDEC
 70
     4
  9
$DIMALTU
 70
     2
  9
$DIMALTTD
 70
     2
  9
$DIMTXSTY
  7
STANDARD
  9
$DIMAUNIT
 70
     0
  9
$DIMADEC
 70
     0
  9
$DIMALTRND
 40
0.0
  9
$DIMAZIN
 70
     0
  9
$DIMDSEP
 70
    46
  9
$DIMATFIT
 70
     3
  9
$DIMFRAC
 70
     0
  9
$DIMLDRBLK
  1

  9
$DIMLUNIT
 70
     2
  9
$DIMLWD
 70
    -2
  9
$DIMLWE
 70
    -2
  9
$DIMTMOVE
 70
     2
  9
$DIMFXL
 40
1.0
  9
$DIMFXLON
 70
     0
  9
$DIMJOGANG
 40
0.7853981633974483
  9
$DIMTFILL
 70
     0
  9
$DIMTFILLCLR
 70
     0
  9
$DIMARCSYM
 70
     0
  9
$DIMLTYPE
  6

  9
$DIMLTEX1
  6

  9
$DIMLTEX2
  6

  9
$DIMTXTDIRECTION
 70
     0
  9
$LUNITS
 70
     2
  9
$LUPREC
 70
     4
  9
$SKETCHINC
 40
0.1
  9
$FILLETRAD
 40
0.5
  9
$AUNITS
 70
     0
  9
$AUPREC
 70
     0
  9
$MENU
  1
.
  9
$ELEVATION
 40
0.0
  9
$PELEVATION
 40
0.0
  9
$THICKNESS
 40
0.0
  9
$LIMCHECK
 70
     0
  9
$CHAMFERA
 40
0.0
  9
$CHAMFERB
 40
0.0
  9
$CHAMFERC
 40
0.0
  9
$CHAMFERD
 40
0.0
  9
$SKPOLY
 70
     0
  9
$TDCREATE
 40
2447893.041666667
  9
$TDUCREATE
 40
0.0
  9
$TDUPDATE
 40
2458466.686072257
  9
$TDUUPDATE
 40
2458466.64440559
  9
$TDINDWG
 40
0.0002184954
  9
$TDUSRTIMER
 40
0.0002184954
  9
$USRTIMER
 70
     1
  9
$ANGBASE
 50
0.0
  9
$ANGDIR
 70
     0
  9
$PDMODE
 70
     3
  9
$PDSIZE
 40
0.3125
  9
$PLINEWID
 40
0.0
  9
$SPLFRAME
 70
     0
  9
$SPLINETYPE
 70
     6
  9
$SPLINESEGS
 70
     8
  9
$HANDSEED
  5
59D
  9
$SURFTAB1
 70
     6
  9
$SURFTAB2
 70
     6
  9
$SURFTYPE
 70
     6
  9
$SURFU
 70
     6
  9
$SURFV
 70
     6
  9
$UCSBASE
  2

  9
$UCSNAME
  2

  9
$UCSORG
 10
0.0
 20
0.0
 30
0.0
  9
$UCSXDIR
 10
1.0
 20
0.0
 30
0.0
  9
$UCSYDIR
 10
0.0
 20
1.0
 30
0.0
  9
$UCSORTHOREF
  2

  9
$UCSORTHOVIEW
 70
     0
  9
$UCSORGTOP
 10
0.0
 20
0.0
 30
0.0
  9
$UCSORGBOTTOM
 10
0.0
 20
0.0
 30
0.0
  9
$UCSORGLEFT
 10
0.0
 20
0.0
 30
0.0
  9
$UCSORGRIGHT
 10
0.0
 20
0.0
 30
0.0
  9
$UCSORGFRONT
 10
0.0
 20
0.0
 30
0.0
  9
$UCSORGBACK
 10
0.0
 20
0.0
 30
0.0
  9
$PUCSBASE
  2

  9
$PUCSNAME
  2

  9
$PUCSORG
 10
0.0
 20
0.0
 30
0.0
  9
$PUCSXDIR
 10
1.0
 20
0.0
 30
0.0
  9
$PUCSYDIR
 10
0.0
 20
1.0
 30
0.0
  9
$PUCSORTHOREF
  2

  9
$PUCSORTHOVIEW
 70
     0
  9
$PUCSORGTOP
 10
0.0
 20
0.0
 30
0.0
  9
$PUCSORGBOTTOM
 10
0.0
 20
0.0
 30
0.0
  9
$PUCSORGLEFT
 10
0.0
 20
0.0
 30
0.0
  9
$PUCSORGRIGHT
 10
0.0
 20
0.0
 30
0.0
  9
$PUCSORGFRONT
 10
0.0
 20
0.0
 30
0.0
  9
$PUCSORGBACK
 10
0.0
 20
0.0
 30
0.0
  9
$USERI1
 70
     0
  9
$USERI2
 70
     0
  9
$USERI3
 70
     0
  9
$USERI4
 70
     0
  9
$USERI5
 70
     0
  9
$USERR1
 40
0.0
  9
$USERR2
 40
0.0
  9
$USERR3
 40
0.0
  9
$USERR4
 40
0.0
  9
$USERR5
 40
0.0
  9
$WORLDVIEW
 70
     1
  9
$SHADEDGE
 70
     3
  9
$SHADEDIF
 70
    70
  9
$TILEMODE
 70
     0
  9
$MAXACTVP
 70
    64
  9
$PINSBASE
 10
0.0
 20
0.0
 30
0.0
  9
$PLIMCHECK
 70
     0
  9
$PEXTMIN
 10
0.0
 20
0.0
 30
0.0
  9
$PEXTMAX
 10
1189.0
 20
841.0
 30
0.0
  9
$PLIMMIN
 10
-24.54280155642023
 20
-65.44747081712062
  9
$PLIMMAX
 10
1349.854085603113
 20
906.4474708171206
  9
$UNITMODE
 70
     0
  9
$VISRETAIN
 70
     1
  9
$PLINEGEN
 70
     0
  9
$PSLTSCALE
 70
     1
  9
$TREEDEPTH
 70
  3020
  9
$CMLSTYLE
  2
STANDARD
  9
$CMLJUST
 70
     0
  9
$CMLSCALE
 40
1.0
  9
$PROXYGRAPHICS
 70
     1
  9
$MEASUREMENT
 70
     1
  9
$CELWEIGHT
370
    -1
  9
$ENDCAPS
280
     0
  9
$JOINSTYLE
280
     0
  9
$LWDISPLAY
290
     0
  9
$INSUNITS
 70
     0
  9
$HYPERLINKBASE
  1

  9
$STYLESHEET
  1

  9
$XEDIT
290
     1
  9
$CEPSNTYPE
380
     0
  9
$PSTYLEMODE
290
     1
  9
$FINGERPRINTGUID
  2
{CA9FF09D-41B6-4AD4-B312-03A248FA9799}
  9
$VERSIONGUID
  2
{FAEB1C32-E019-11D5-929B-00C0DF256EC4}
  9
$EXTNAMES
290
     1
  9
$PSVPSCALE
 40
0.0
  9
$OLESTARTUP
290
     0
  9
$SORTENTS
280
   127
  9
$INDEXCTL
280
     0
  9
$HIDETEXT
280
     1
  9
$XCLIPFRAME
280
     2
  9
$HALOGAP
280
     0
  9
$OBSCOLOR
 70
   257
  9
$OBSLTYPE
280
     0
  9
$INTERSECTIONDISPLAY
280
     0
  9
$INTERSECTIONCOLOR
 70
   257
  9
$DIMASSOC
280
     2
  9
$PROJECTNAME
  1

  9
$CAMERADISPLAY
290
     0
  9
$LENSLENGTH
 40
50.0
  9
$CAMERAHEIGHT
 40
0.0
  9
$STEPSPERSEC
 40
2.0
  9
$STEPSIZE
 40
6.0
  9
$3DDWFPREC
 40
2.0
  9
$PSOLWIDTH
 40
0.25
  9
$PSOLHEIGHT
 40
4.0
  9
$LOFTANG1
 40
1.570796326794897
  9
$LOFTANG2
 40
1.570796326794897
  9
$LOFTMAG1
 40
0.0
  9
$LOFTMAG2
 40
0.0
  9
$LOFTPARAM
 70
     7
  9
$LOFTNORMALS
280
     1
  9
$LATITUDE
 40
37.795
  9
$LONGITUDE
 40
-122.394
  9
$NORTHDIRECTION
 40
0.0
  9
$TIMEZONE
 70
 -8000
  9
$LIGHTGLYPHDISPLAY
280
     1
  9
$TILEMODELIGHTSYNCH
280
     1
  9
$SOLIDHIST
280
     0
  9
$SHOWHIST
280
     1
  9
$DWFFRAME
280
     2
  9
$DGNFRAME
280
     2
  9
$REALWORLDSCALE
290
     1
  9
$INTERFERECOLOR
 62
   256
  9
$CSHADOW
280
     0
  9
$SHADOWPLANELOCATION
 40
0.0
  0
ENDSEC
  0
SECTION
  2
CLASSES
  0
CLASS
  1
ACDBDICTIONARYWDFLT
  2
AcDbDictionaryWithDefault
  3
ObjectDBX Classes
 90
        0
 91
        4
280
     0
281
     0
  0
CLASS
  1
SCALE
  2
AcDbScale
  3
ObjectDBX Classes
 90
     1153
 91
        4
280
     0
281
     0
  0
CLASS
  1
VISUALSTYLE
  2
AcDbVisualStyle
  3
ObjectDBX Classes
 90
     4095
 91
        4
280
     0
281
     0
  0
CLASS
  1
MATERIAL
  2
AcDbMaterial
  3
ObjectDBX Classes
 90
     1153
 91
        4
280
     0
281
     0
  0
CLASS
  1
TABLESTYLE
  2
AcDbTableStyle
  3
ObjectDBX Classes
 90
     4095
 91
        4
280
     0
281
     0
  0
CLASS
  1
MLEADERSTYLE
  2
AcDbMLeaderStyle
  3
ACDB_MLEADERSTYLE_CLASS
 90
     4095
 91
        4
280
     0
281
     0
  0
CLASS
  1
DICTIONARYVAR
  2
AcDbDictionaryVar
  3
ObjectDBX Classes
 90
        0
 91
        4
280
     0
281
     0
  0
CLASS
  1
CELLSTYLEMAP
  2
AcDbCellStyleMap
  3
ObjectDBX Classes
 90
     1152
 91
        4
280
     0
281
     0
  0
ENDSEC
  0
SECTION
  2
TABLES
  0
TABLE
  2
VPORT
  5
8
330
0
100
AcDbSymbolTable
 70
     1
  0
VPORT
  5
1F4
330
8
100
AcDbSymbolTableRecord
100
AcDbViewportTableRecord
  2
*ACTIVE
 70
     0
 10
0.0
 20
0.0
 11
1.0
 21
1.0
 12
594.5
 22
420.5
 13
0.0
 23
0.0
 14
1.0
 24
1.0
 15
0.0
 25
0.0
 16
0.0
 26
0.0
 36
1.0
 17
0.0
 27
0.0
 37
0.0
 40
841.0
 41
1.4137931034
 42
50.0
 43
0.0
 44
0.0
 50
0.0
 51
0.0
 71
     0
 72
   100
 73
     1
 74
     1
 75
     0
 76
     0
 77
     0
 78
     0
281
     0
 65
     1
110
0.0
120
0.0
130
0.0
111
1.0
121
0.0
131
0.0
112
0.0
122
1.0
132
0.0
 79
     0
146
0.0
348
576
 60
     3
 61
     5
292
     1
282
     1
141
0.0
142
0.0
 63
   256
  0
ENDTAB
  0
TABLE
  2
LTYPE
  5
5
330
0
100
AcDbSymbolTable
 70
     6
  0
LTYPE
  5
14
330
5
100
AcDbSymbolTableRecord
100
AcDbLinetypeTableRecord
  2
BYBLOCK
 70
     0
  3

 72
    65
 73
     0
 40
0.0
  0
LTYPE
  5
15
330
5
100
AcDbSymbolTableRecord
100
AcDbLinetypeTableRecord
  2
BYLAYER
 70
     0
  3

 72
    65
 73
     0
 40
0.0
  0
LTYPE
  5
16
330
5
100
AcDbSymbolTableRecord
100
AcDbLinetypeTableRecord
  2
CONTINUOUS
 70
     0
  3
Solid line
 72
    65
 73
     0
 40
0.0
  0
LTYPE
  5
1F5
330
5
100
AcDbSymbolTableRecord
100
AcDbLinetypeTableRecord
  2
CENTER
 70
     0
  3
____ _ ____ _ ____ _ ____ _ ____ _ ____ _ ____
 72
    65
 73
     4
 40
0.6
 49
0.375
 74
     0
 49
-0.075
 74
     0
 49
0.075
 74
     0
 49
-0.075
 74
     0
  0
LTYPE
  5
1F6
330
5
100
AcDbSymbolTableRecord
100
AcDbLinetypeTableRecord
  2
HIDDEN
 70
     0
  3
- - - - - - - - - - - - - - - - - - - -
 72
    65
 73
     2
 40
0.2
 49
0.1
 74
     0
 49
-0.1
 74
     0
  0
LTYPE
  5
1F7
330
5
100
AcDbSymbolTableRecord
100
AcDbLinetypeTableRecord
  2
PHANTOM
 70
     0
  3
_____ _ _ _____ _ _ _____ _ _ _____
 72
    65
 73
     6
 40
0.8
 49
0.45
 74
     0
 49
-0.05
 74
     0
 49
0.1
 74
     0
 49
-0.05
 74
     0
 49
0.1
 74
     0
 49
-0.05
 74
     0
  0
LTYPE
  5
1F8
330
5
100
AcDbSymbolTableRecord
100
AcDbLinetypeTableRecord
  2
DOT
 70
     0
  3
. . . . . . . . . . . . . . . . . . . .
 72
    65
 73
     2
 40
0.2
 49
0.1
 74
     0
 49
-0.1
 74
     0
  0
LTYPE
  5
1F9
330
5
100
AcDbSymbolTableRecord
100
AcDbLinetypeTableRecord
  2
DASHED
 70
     0
  3
- - - - - - - - - - - - - - - - - - - -
 72
    65
 73
     2
 40
0.2
 49
0.1
 74
     0
 49
-0.1
 74
     0
  0
ENDTAB
  0
TABLE
  2
LAYER
  5
2
330
0
100
AcDbSymbolTable
 70
    35
  0
LAYER
  5
10
330
2
100
AcDbSymbolTableRecord
100
AcDbLayerTableRecord
  2
0
 70
     0
 62
     7
  6
CONTINUOUS
370
    -3
390
54B
347
58D
348
0
  0
LAYER
  5
1FA
330
2
100
AcDbSymbolTableRecord
100
AcDbLayerTableRecord
  2
DEFAULT_1
 70
     0
 62
     7
  6
CENTER
370
    -3
390
54B
347
58D
348
0
  0
LAYER
  5
1FB
330
2
100
AcDbSymbolTableRecord
100
AcDbLayerTableRecord
  2
DEFAULT_2
 70
     0
 62
     8
  6
HIDDEN
370
    -3
390
54B
347
58D
348
0
  0
LAYER
  5
1FC
330
2
100
AcDbSymbolTableRecord
100
AcDbLayerTableRecord
  2
DEFAULT_3
 70
     0
 62
     7
  6
PHANTOM
370
    -3
390
54B
347
58D
348
0
  0
LAYER
  5
1FD
330
2
100
AcDbSymbolTableRecord
100
AcDbLayerTableRecord
  2
01_ALL_DTM_PLN
 70
     0
 62
     7
  6
CONTINUOUS
370
    -3
390
54B
347
58D
348
0
  0
LAYER
  5
1FE
330
2
100
AcDbSymbolTableRecord
100
AcDbLayerTableRecord
  2
01__ASM_ALL_DTM_PLN
 70
     0
 62
     7
  6
CONTINUOUS
370
    -3
390
54B
347
58D
348
0
  0
LAYER
  5
1FF
330
2
100
AcDbSymbolTableRecord
100
AcDbLayerTableRecord
  2
01__ASM_DEF_DTM_PLN
 70
     0
 62
     7
  6
CONTINUOUS
370
    -3
390
54B
347
58D
348
0
  0
LAYER
  5
200
330
2
100
AcDbSymbolTableRecord
100
AcDbLayerTableRecord
  2
01___PRT_ALL_DTM_PLN
 70
     0
 62
     7
  6
CONTINUOUS
370
    -3
390
54B
347
58D
348
0
  0
LAYER
  5
201
330
2
100
AcDbSymbolTableRecord
100
AcDbLayerTableRecord
  2
01___PRT_DEF_DTM_PLN
 70
     0
 62
     7
  6
CONTINUOUS
370
    -3
390
54B
347
58D
348
0
  0
LAYER
  5
202
330
2
100
AcDbSymbolTableRecord
100
AcDbLayerTableRecord
  2
02_ALL_AXES
 70
     0
 62
     7
  6
CONTINUOUS
370
    -3
390
54B
347
58D
348
0
  0
LAYER
  5
203
330
2
100
AcDbSymbolTableRecord
100
AcDbLayerTableRecord
  2
02__ASM_ALL_AXES
 70
     0
 62
     7
  6
CONTINUOUS
370
    -3
390
54B
347
58D
348
0
  0
LAYER
  5
204
330
2
100
AcDbSymbolTableRecord
100
AcDbLayerTableRecord
  2
02___PRT_ALL_AXES
 70
     0
 62
     7
  6
CONTINUOUS
370
    -3
390
54B
347
58D
348
0
  0
LAYER
  5
205
330
2
100
AcDbSymbolTableRecord
100
AcDbLayerTableRecord
  2
03_ALL_CURVES
 70
     0
 62
     7
  6
CONTINUOUS
370
    -3
390
54B
347
58D
348
0
  0
LAYER
  5
206
330
2
100
AcDbSymbolTableRecord
100
AcDbLayerTableRecord
  2
03__ASM_ALL_CURVES
 70
     0
 62
     7
  6
CONTINUOUS
370
    -3
390
54B
347
58D
348
0
  0
LAYER
  5
207
330
2
100
AcDbSymbolTableRecord
100
AcDbLayerTableRecord
  2
03___PRT_ALL_CURVES
 70
     0
 62
     7
  6
CONTINUOUS
370
    -3
390
54B
347
58D
348
0
  0
LAYER
  5
208
330
2
100
AcDbSymbolTableRecord
100
AcDbLayerTableRecord
  2
04_ALL_DTM_PNT
 70
     0
 62
     7
  6
CONTINUOUS
370
    -3
390
54B
347
58D
348
0
  0
LAYER
  5
209
330
2
100
AcDbSymbolTableRecord
100
AcDbLayerTableRecord
  2
04__ASM_ALL_DTM_PNT
 70
     0
 62
     7
  6
CONTINUOUS
370
    -3
390
54B
347
58D
348
0
  0
LAYER
  5
20A
330
2
100
AcDbSymbolTableRecord
100
AcDbLayerTableRecord
  2
04___PRT_ALL_DTM_PNT
 70
     0
 62
     7
  6
CONTINUOUS
370
    -3
390
54B
347
58D
348
0
  0
LAYER
  5
20B
330
2
100
AcDbSymbolTableRecord
100
AcDbLayerTableRecord
  2
05_ALL_DTM_CSYS
 70
     0
 62
     7
  6
CONTINUOUS
370
    -3
390
54B
347
58D
348
0
  0
LAYER
  5
20C
330
2
100
AcDbSymbolTableRecord
100
AcDbLayerTableRecord
  2
05__ASM_ALL_DTM_CSYS
 70
     0
 62
     7
  6
CONTINUOUS
370
    -3
390
54B
347
58D
348
0
  0
LAYER
  5
20D
330
2
100
AcDbSymbolTableRecord
100
AcDbLayerTableRecord
  2
05__ASM_DEF_DTM_CSYS
 70
     0
 62
     7
  6
CONTINUOUS
370
    -3
390
54B
347
58D
348
0
  0
LAYER
  5
20E
330
2
100
AcDbSymbolTableRecord
100
AcDbLayerTableRecord
  2
05___PRT_ALL_DTM_CSYS
 70
     0
 62
     7
  6
CONTINUOUS
370
    -3
390
54B
347
58D
348
0
  0
LAYER
  5
20F
330
2
100
AcDbSymbolTableRecord
100
AcDbLayerTableRecord
  2
05___PRT_DEF_DTM_CSYS
 70
     0
 62
     7
  6
CONTINUOUS
370
    -3
390
54B
347
58D
348
0
  0
LAYER
  5
210
330
2
100
AcDbSymbolTableRecord
100
AcDbLayerTableRecord
  2
06_ALL_SURFS
 70
     0
 62
     7
  6
CONTINUOUS
370
    -3
390
54B
347
58D
348
0
  0
LAYER
  5
211
330
2
100
AcDbSymbolTableRecord
100
AcDbLayerTableRecord
  2
06__ASM_ALL_SURFS
 70
     0
 62
     7
  6
CONTINUOUS
370
    -3
390
54B
347
58D
348
0
  0
LAYER
  5
212
330
2
100
AcDbSymbolTableRecord
100
AcDbLayerTableRecord
  2
06___PRT_ALL_SURFS
 70
     0
 62
     7
  6
CONTINUOUS
370
    -3
390
54B
347
58D
348
0
  0
LAYER
  5
213
330
2
100
AcDbSymbolTableRecord
100
AcDbLayerTableRecord
  2
07__ASM_ALL_SKELETONS
 70
     0
 62
     7
  6
CONTINUOUS
370
    -3
390
54B
347
58D
348
0
  0
LAYER
  5
214
330
2
100
AcDbSymbolTableRecord
100
AcDbLayerTableRecord
  2
1_ALL_PLANES
 70
     0
 62
     7
  6
CONTINUOUS
370
    -3
390
54B
347
58D
348
0
  0
LAYER
  5
215
330
2
100
AcDbSymbolTableRecord
100
AcDbLayerTableRecord
  2
2_ALL_CSYS
 70
     0
 62
     7
  6
CONTINUOUS
370
    -3
390
54B
347
58D
348
0
  0
LAYER
  5
216
330
2
100
AcDbSymbolTableRecord
100
AcDbLayerTableRecord
  2
3_ALL_AXES
 70
     0
 62
     7
  6
CONTINUOUS
370
    -3
390
54B
347
58D
348
0
  0
LAYER
  5
217
330
2
100
AcDbSymbolTableRecord
100
AcDbLayerTableRecord
  2
4_ALL_POINTS
 70
     0
 62
     7
  6
CONTINUOUS
370
    -3
390
54B
347
58D
348
0
  0
LAYER
  5
218
330
2
100
AcDbSymbolTableRecord
100
AcDbLayerTableRecord
  2
5_ALL_CURVES
 70
     0
 62
     7
  6
CONTINUOUS
370
    -3
390
54B
347
58D
348
0
  0
LAYER
  5
219
330
2
100
AcDbSymbolTableRecord
100
AcDbLayerTableRecord
  2
6_ALL_SURFS
 70
     0
 62
     7
  6
CONTINUOUS
370
    -3
390
54B
347
58D
348
0
  0
LAYER
  5
21A
330
2
100
AcDbSymbolTableRecord
100
AcDbLayerTableRecord
  2
7_ALL_FEATURES
 70
     0
 62
     7
  6
CONTINUOUS
370
    -3
390
54B
347
58D
348
0
  0
LAYER
  5
21B
330
2
100
AcDbSymbolTableRecord
100
AcDbLayerTableRecord
  2
9_SOLID
 70
     0
 62
     7
  6
CONTINUOUS
370
    -3
390
54B
347
58D
348
0
  0
ENDTAB
  0
TABLE
  2
STYLE
  5
3
330
0
100
AcDbSymbolTable
 70
     4
  0
STYLE
  5
11
330
3
100
AcDbSymbolTableRecord
100
AcDbTextStyleTableRecord
  2
STANDARD
 70
     0
 40
0.0
 41
1.0
 50
0.0
 71
     0
 42
0.2
  3
arial.ttf
  4

  0
STYLE
  5
21C
330
3
100
AcDbSymbolTableRecord
100
AcDbTextStyleTableRecord
  2
TEXTSTYLE_1
 70
     0
 40
0.0
 41
0.8
 50
0.0
 71
     0
 42
0.2
  3
gdt
  4

  0
STYLE
  5
21D
330
3
100
AcDbSymbolTableRecord
100
AcDbTextStyleTableRecord
  2
TEXTSTYLE_2
 70
     0
 40
0.0
 41
2.0
 50
0.0
 71
     0
 42
0.2
  3
txt
  4

  0
STYLE
  5
21E
330
3
100
AcDbSymbolTableRecord
100
AcDbTextStyleTableRecord
  2
TEXTSTYLE_3
 70
     0
 40
0.0
 41
0.85
 50
0.0
 71
     0
 42
0.2
  3
txt
  4

  0
ENDTAB
  0
TABLE
  2
VIEW
  5
6
330
0
100
AcDbSymbolTable
 70
     0
  0
ENDTAB
  0
TABLE
  2
UCS
  5
7
330
0
100
AcDbSymbolTable
 70
     0
  0
ENDTAB
  0
TABLE
  2
APPID
  5
9
330
0
100
AcDbSymbolTable
 70
     1
  0
APPID
  5
21F
330
9
100
AcDbSymbolTableRecord
100
AcDbRegAppTableRecord
  2
ACAD
 70
     0
  0
ENDTAB
  0
TABLE
  2
DIMSTYLE
  5
A
330
0
100
AcDbSymbolTable
 70
     5
100
AcDbDimStyleTable
  0
DIMSTYLE
105
229
330
A
100
AcDbSymbolTableRecord
100
AcDbDimStyleTableRecord
  2
STANDARD
 70
     0
 41
2.5
 42
0.75
 44
0.75
 47
0.01
 48
0.01
 71
     1
 73
     0
 74
     0
 77
     1
 78
     8
 79
     2
140
3.0
147
0.625
171
     1
178
     0
179
     2
271
     2
272
     2
284
     8
340
11
341
220
342
220
343
220
344
220
  0
DIMSTYLE
105
22A
330
A
100
AcDbSymbolTableRecord
100
AcDbDimStyleTableRecord
  2
DIMSTYLE_1
 70
     0
 41
2.5
 42
0.75
 44
0.75
 47
0.3
 48
0.3
 73
     0
 74
     0
 77
     1
 78
     8
 79
     2
140
3.0
147
0.75
171
     1
178
     0
179
     2
271
     2
272
     2
284
     8
340
11
341
220
342
220
343
220
344
220
  0
DIMSTYLE
105
22B
330
A
100
AcDbSymbolTableRecord
100
AcDbDimStyleTableRecord
  2
DIMSTYLE_2
 70
     0
 41
2.5
 42
0.75
 44
0.75
 47
0.1
 48
0.1
 73
     0
 74
     0
 77
     1
 78
     8
 79
     2
140
3.0
147
0.75
171
     1
178
     0
179
     2
271
     2
272
     2
284
     8
340
11
341
220
342
220
343
220
344
220
  0
DIMSTYLE
105
22C
330
A
100
AcDbSymbolTableRecord
100
AcDbDimStyleTableRecord
  2
DIMSTYLE_3
 70
     0
 41
2.5
 42
0.75
 44
0.75
 47
0.8
 48
0.8
 73
     0
 74
     0
 77
     1
 78
     8
 79
     2
140
3.0
147
0.75
171
     1
178
     0
179
     2
271
     2
272
     2
284
     8
340
11
341
220
342
220
343
220
344
220
  0
DIMSTYLE
105
22D
330
A
100
AcDbSymbolTableRecord
100
AcDbDimStyleTableRecord
  2
DIMSTYLE_4
 70
     0
 41
2.5
 42
0.75
 44
0.75
 47
0.2
 48
0.2
 73
     0
 74
     0
 77
     1
 78
     8
 79
     2
140
3.0
147
0.75
171
     1
178
     0
179
     2
271
     2
272
     2
284
     8
340
11
341
220
342
220
343
220
344
220
  0
ENDTAB
  0
TABLE
  2
BLOCK_RECORD
  5
1
330
0
100
AcDbSymbolTable
 70
     9
  0
BLOCK_RECORD
  5
1F
330
1
100
AcDbSymbolTableRecord
100
AcDbBlockTableRecord
  2
*MODEL_SPACE
340
56F
 70
     0
280
     1
281
     0
  0
BLOCK_RECORD
  5
1B
330
1
100
AcDbSymbolTableRecord
100
AcDbBlockTableRecord
  2
*PAPER_SPACE
340
570
 70
     0
280
     1
281
     0
  0
BLOCK_RECORD
  5
220
330
1
100
AcDbSymbolTableRecord
100
AcDbBlockTableRecord
  2
_CLOSED
340
0
102
{BLKREFS
331
280
331
281
331
289
331
28A
331
294
331
295
331
29D
331
29E
331
2A6
331
2A7
331
2AF
331
2B0
102
}
 70
     0
280
     1
281
     0
  0
BLOCK_RECORD
  5
221
330
1
100
AcDbSymbolTableRecord
100
AcDbBlockTableRecord
  2
*D1
340
0
 70
     0
280
     1
281
     0
  0
BLOCK_RECORD
  5
222
330
1
100
AcDbSymbolTableRecord
100
AcDbBlockTableRecord
  2
*D2
340
0
 70
     0
280
     1
281
     0
  0
BLOCK_RECORD
  5
223
330
1
100
AcDbSymbolTableRecord
100
AcDbBlockTableRecord
  2
*D3
340
0
 70
     0
280
     1
281
     0
  0
BLOCK_RECORD
  5
224
330
1
100
AcDbSymbolTableRecord
100
AcDbBlockTableRecord
  2
*D4
340
0
 70
     0
280
     1
281
     0
  0
BLOCK_RECORD
  5
225
330
1
100
AcDbSymbolTableRecord
100
AcDbBlockTableRecord
  2
*D5
340
0
 70
     0
280
     1
281
     0
  0
BLOCK_RECORD
  5
226
330
1
100
AcDbSymbolTableRecord
100
AcDbBlockTableRecord
  2
*D6
340
0
 70
     0
280
     1
281
     0
  0
BLOCK_RECORD
  5
227
330
1
100
AcDbSymbolTableRecord
100
AcDbBlockTableRecord
  2
LOGO2_BL1
340
0
102
{BLKREFS
331
533
102
}
 70
     0
280
     1
281
     0
  0
BLOCK_RECORD
  5
228
330
1
100
AcDbSymbolTableRecord
100
AcDbBlockTableRecord
  2
PROIEZIONE_EU_BL0
340
0
102
{BLKREFS
331
530
102
}
 70
     0
280
     1
281
     0
  0
ENDTAB
  0
ENDSEC
  0
SECTION
  2
BLOCKS
  0
BLOCK
  5
20
330
1F
100
AcDbEntity
  8
0
100
AcDbBlockBegin
  2
*MODEL_SPACE
 70
     0
 10
0.0
 20
0.0
 30
0.0
  3
*MODEL_SPACE
  1

  0
ENDBLK
  5
21
330
1F
100
AcDbEntity
  8
0
100
AcDbBlockEnd
  0
BLOCK
  5
1C
330
1B
100
AcDbEntity
 67
     1
  8
0
100
AcDbBlockBegin
  2
*PAPER_SPACE
 70
     0
 10
0.0
 20
0.0
 30
0.0
  3
*PAPER_SPACE
  1

  0
ENDBLK
  5
1D
330
1B
100
AcDbEntity
 67
     1
  8
0
100
AcDbBlockEnd
  0
BLOCK
  5
274
330
220
100
AcDbEntity
  8
0
100
AcDbBlockBegin
  2
_CLOSED
 70
     0
 10
0.0
 20
0.0
 30
0.0
  3
_CLOSED
  1

  0
LINE
  5
275
330
220
100
AcDbEntity
  8
0
  6
ByBlock
 62
     0
100
AcDbLine
 10
0.0
 20
0.0
 30
0.0
 11
-1.0
 21
0.2
 31
0.0
  0
LINE
  5
276
330
220
100
AcDbEntity
  8
0
  6
ByBlock
 62
     0
100
AcDbLine
 10
-1.0
 20
0.2
 30
0.0
 11
-1.0
 21
-0.2
 31
0.0
  0
LINE
  5
277
330
220
100
AcDbEntity
  8
0
  6
ByBlock
 62
     0
100
AcDbLine
 10
-1.0
 20
-0.2
 30
0.0
 11
0.0
 21
0.0
 31
0.0
  0
LINE
  5
278
330
220
100
AcDbEntity
  8
0
  6
ByBlock
 62
     0
100
AcDbLine
 10
-1.0
 20
0.0
 30
0.0
 11
0.0
 21
0.0
 31
0.0
  0
ENDBLK
  5
279
330
220
100
AcDbEntity
  8
0
  6
ByBlock
 62
     0
100
AcDbBlockEnd
  0
BLOCK
  5
27A
330
221
100
AcDbEntity
  8
0
100
AcDbBlockBegin
  2
*D1
 70
     1
 10
0.0
 20
0.0
 30
0.0
  3
*D1
  1

  0
MTEXT
  5
27B
330
221
100
AcDbEntity
  8
0
  6
Continuous
 62
     2
100
AcDbMText
 10
93.1674290326
 20
765.0740076014
 30
0.0
 40
3.0
 41
6.9925650558
 46
0.0
 71
     2
 72
     1
  1
105
 11
0.0
 21
1.0
 31
0.0
 73
     1
 44
1.0
  0
LINE
  5
27C
330
221
100
AcDbEntity
  8
0
  6
Continuous
 62
     2
100
AcDbLine
 10
107.7544105594
 20
712.5740076014
 30
0.0
 11
96.1674290326
 21
712.5740076014
 31
0.0
  0
LINE
  5
27D
330
221
100
AcDbEntity
  8
0
  6
Continuous
 62
     2
100
AcDbLine
 10
107.3468979697
 20
817.5740076014
 30
0.0
 11
96.1674290326
 21
817.5740076014
 31
0.0
  0
LINE
  5
27E
330
221
100
AcDbEntity
  8
0
  6
Continuous
 62
     2
100
AcDbLine
 10
96.9174290326
 20
712.5740076014
 30
0.0
 11
96.9174290326
 21
765.0740076014
 31
0.0
  0
LINE
  5
27F
330
221
100
AcDbEntity
  8
0
  6
Continuous
 62
     2
100
AcDbLine
 10
96.9174290326
 20
817.5740076014
 30
0.0
 11
96.9174290326
 21
765.0740076014
 31
0.0
  0
INSERT
  5
280
330
221
100
AcDbEntity
  8
0
  6
Continuous
 62
     2
100
AcDbBlockReference
  2
_CLOSED
 10
96.9174290326
 20
712.5740076014
 30
0.0
 41
2.5
 42
2.5
 43
2.5
 50
270.0
  0
INSERT
  5
281
330
221
100
AcDbEntity
  8
0
  6
Continuous
 62
     2
100
AcDbBlockReference
  2
_CLOSED
 10
96.9174290326
 20
817.5740076014
 30
0.0
 41
2.5
 42
2.5
 43
2.5
 50
90.0
  0
ENDBLK
  5
282
330
221
100
AcDbEntity
  8
0
  6
ByBlock
 62
     0
100
AcDbBlockEnd
  0
BLOCK
  5
283
330
222
100
AcDbEntity
  8
0
100
AcDbBlockBegin
  2
*D2
 70
     1
 10
0.0
 20
0.0
 30
0.0
  3
*D2
  1

  0
MTEXT
  5
284
330
222
100
AcDbEntity
  8
0
  6
Continuous
 62
     2
100
AcDbMText
 10
166.8893053209
 20
702.4582315408
 30
0.0
 40
3.0
 41
6.9925650558
 46
0.0
 71
     2
 72
     1
  1
105
 73
     1
 44
1.0
  0
LINE
  5
285
330
222
100
AcDbEntity
  8
0
  6
Continuous
 62
     2
100
AcDbLine
 10
114.3893053209
 20
707.4190469336
 30
0.0
 11
114.3893053209
 21
697.9582315408
 31
0.0
  0
LINE
  5
286
330
222
100
AcDbEntity
  8
0
  6
Continuous
 62
     2
100
AcDbLine
 10
219.3893053209
 20
707.9042712266
 30
0.0
 11
219.3893053209
 21
697.9582315408
 31
0.0
  0
LINE
  5
287
330
222
100
AcDbEntity
  8
0
  6
Continuous
 62
     2
100
AcDbLine
 10
114.3893053209
 20
698.7082315408
 30
0.0
 11
166.8893053209
 21
698.7082315408
 31
0.0
  0
LINE
  5
288
330
222
100
AcDbEntity
  8
0
  6
Continuous
 62
     2
100
AcDbLine
 10
219.3893053209
 20
698.7082315408
 30
0.0
 11
166.8893053209
 21
698.7082315408
 31
0.0
  0
INSERT
  5
289
330
222
100
AcDbEntity
  8
0
  6
Continuous
 62
     2
100
AcDbBlockReference
  2
_CLOSED
 10
114.3893053209
 20
698.7082315408
 30
0.0
 41
2.5
 42
2.5
 43
2.5
 50
180.0
  0
INSERT
  5
28A
330
222
100
AcDbEntity
  8
0
  6
Continuous
 62
     2
100
AcDbBlockReference
  2
_CLOSED
 10
219.3893053209
 20
698.7082315408
 30
0.0
 41
2.5
 42
2.5
 43
2.5
  0
ENDBLK
  5
28B
330
222
100
AcDbEntity
  8
0
  6
ByBlock
 62
     0
100
AcDbBlockEnd
  0
BLOCK
  5
28C
330
223
100
AcDbEntity
  8
0
100
AcDbBlockBegin
  2
*D3
 70
     1
 10
0.0
 20
0.0
 30
0.0
  3
*D3
  1

  0
MTEXT
  5
28D
330
223
100
AcDbEntity
  8
0
  6
Continuous
 62
     2
100
AcDbMText
 10
260.6872888097
 20
190.1346056728
 30
0.0
 40
3.0
 41
2.3308550186
 46
0.0
 71
     3
 72
     1
  1
4
 11
0.0
 21
1.0
 31
0.0
 73
     1
 44
1.0
  0
LINE
  5
28E
330
223
100
AcDbEntity
  8
0
  6
Continuous
 62
     2
100
AcDbLine
 10
246.5922895552
 20
192.0760135135
 30
0.0
 11
265.1872888097
 21
192.0760135135
 31
0.0
  0
LINE
  5
28F
330
223
100
AcDbEntity
  8
0
  6
Continuous
 62
     2
100
AcDbLine
 10
247.2923228537
 20
196.0760135135
 30
0.0
 11
265.1872888097
 21
196.0760135135
 31
0.0
  0
LINE
  5
290
330
223
100
AcDbEntity
  8
0
  6
Continuous
 62
     2
100
AcDbLine
 10
264.4372888097
 20
192.0760135135
 30
0.0
 11
264.4372888097
 21
187.8037506542
 31
0.0
  0
LINE
  5
291
330
223
100
AcDbEntity
  8
0
  6
Continuous
 62
     2
100
AcDbLine
 10
264.4372888097
 20
187.8037506542
 30
0.0
 11
264.4372888097
 21
194.0760135135
 31
0.0
  0
LINE
  5
292
330
223
100
AcDbEntity
  8
0
  6
Continuous
 62
     2
100
AcDbLine
 10
264.4372888097
 20
196.0760135135
 30
0.0
 11
264.4372888097
 21
197.0760135135
 31
0.0
  0
LINE
  5
293
330
223
100
AcDbEntity
  8
0
  6
Continuous
 62
     2
100
AcDbLine
 10
264.4372888097
 20
197.0760135135
 30
0.0
 11
264.4372888097
 21
194.0760135135
 31
0.0
  0
INSERT
  5
294
330
223
100
AcDbEntity
  8
0
  6
Continuous
 62
     2
100
AcDbBlockReference
  2
_CLOSED
 10
264.4372888097
 20
192.0760135135
 30
0.0
 41
2.5
 42
2.5
 43
2.5
 50
90.0
  0
INSERT
  5
295
330
223
100
AcDbEntity
  8
0
  6
Continuous
 62
     2
100
AcDbBlockReference
  2
_CLOSED
 10
264.4372888097
 20
196.0760135135
 30
0.0
 41
2.5
 42
2.5
 43
2.5
 50
270.0
  0
ENDBLK
  5
296
330
223
100
AcDbEntity
  8
0
  6
ByBlock
 62
     0
100
AcDbBlockEnd
  0
BLOCK
  5
297
330
224
100
AcDbEntity
  8
0
100
AcDbBlockBegin
  2
*D4
 70
     1
 10
0.0
 20
0.0
 30
0.0
  3
*D4
  1

  0
MTEXT
  5
298
330
224
100
AcDbEntity
  8
0
  6
Continuous
 62
     2
100
AcDbMText
 10
260.6872888097
 20
433.5760135135
 30
0.0
 40
3.0
 41
6.9925650558
 46
0.0
 71
     2
 72
     1
  1
475
 11
0.0
 21
1.0
 31
0.0
 73
     1
 44
1.0
  0
LINE
  5
299
330
224
100
AcDbEntity
  8
0
  6
Continuous
 62
     2
100
AcDbLine
 10
247.2923228537
 20
196.0760135135
 30
0.0
 11
265.1872888097
 21
196.0760135135
 31
0.0
  0
LINE
  5
29A
330
224
100
AcDbEntity
  8
0
  6
Continuous
 62
     2
100
AcDbLine
 10
247.2923228537
 20
671.0760135135
 30
0.0
 11
265.1872888097
 21
671.0760135135
 31
0.0
  0
LINE
  5
29B
330
224
100
AcDbEntity
  8
0
  6
Continuous
 62
     2
100
AcDbLine
 10
264.4372888097
 20
196.0760135135
 30
0.0
 11
264.4372888097
 21
433.5760135135
 31
0.0
  0
LINE
  5
29C
330
224
100
AcDbEntity
  8
0
  6
Continuous
 62
     2
100
AcDbLine
 10
264.4372888097
 20
671.0760135135
 30
0.0
 11
264.4372888097
 21
433.5760135135
 31
0.0
  0
INSERT
  5
29D
330
224
100
AcDbEntity
  8
0
  6
Continuous
 62
     2
100
AcDbBlockReference
  2
_CLOSED
 10
264.4372888097
 20
196.0760135135
 30
0.0
 41
2.5
 42
2.5
 43
2.5
 50
270.0
  0
INSERT
  5
29E
330
224
100
AcDbEntity
  8
0
  6
Continuous
 62
     2
100
AcDbBlockReference
  2
_CLOSED
 10
264.4372888097
 20
671.0760135135
 30
0.0
 41
2.5
 42
2.5
 43
2.5
 50
90.0
  0
ENDBLK
  5
29F
330
224
100
AcDbEntity
  8
0
  6
ByBlock
 62
     0
100
AcDbBlockEnd
  0
BLOCK
  5
2A0
330
225
100
AcDbEntity
  8
0
100
AcDbBlockBegin
  2
*D5
 70
     1
 10
0.0
 20
0.0
 30
0.0
  3
*D5
  1

  0
MTEXT
  5
2A1
330
225
100
AcDbEntity
  8
0
  6
Continuous
 62
     2
100
AcDbMText
 10
260.6872888097
 20
678.0760135135
 30
0.0
 40
3.0
 41
4.6617100372
 46
0.0
 71
     2
 72
     1
  1
14
 11
0.0
 21
1.0
 31
0.0
 73
     1
 44
1.0
  0
LINE
  5
2A2
330
225
100
AcDbEntity
  8
0
  6
Continuous
 62
     2
100
AcDbLine
 10
247.2923228537
 20
671.0760135135
 30
0.0
 11
265.1872888097
 21
671.0760135135
 31
0.0
  0
LINE
  5
2A3
330
225
100
AcDbEntity
  8
0
  6
Continuous
 62
     2
100
AcDbLine
 10
247.2923228537
 20
685.0760135135
 30
0.0
 11
265.1872888097
 21
685.0760135135
 31
0.0
  0
LINE
  5
2A4
330
225
100
AcDbEntity
  8
0
  6
Continuous
 62
     2
100
AcDbLine
 10
264.4372888097
 20
671.0760135135
 30
0.0
 11
264.4372888097
 21
678.0760135135
 31
0.0
  0
LINE
  5
2A5
330
225
100
AcDbEntity
  8
0
  6
Continuous
 62
     2
100
AcDbLine
 10
264.4372888097
 20
685.0760135135
 30
0.0
 11
264.4372888097
 21
678.0760135135
 31
0.0
  0
INSERT
  5
2A6
330
225
100
AcDbEntity
  8
0
  6
Continuous
 62
     2
100
AcDbBlockReference
  2
_CLOSED
 10
264.4372888097
 20
671.0760135135
 30
0.0
 41
2.5
 42
2.5
 43
2.5
 50
270.0
  0
INSERT
  5
2A7
330
225
100
AcDbEntity
  8
0
  6
Continuous
 62
     2
100
AcDbBlockReference
  2
_CLOSED
 10
264.4372888097
 20
685.0760135135
 30
0.0
 41
2.5
 42
2.5
 43
2.5
 50
90.0
  0
ENDBLK
  5
2A8
330
225
100
AcDbEntity
  8
0
  6
ByBlock
 62
     0
100
AcDbBlockEnd
  0
BLOCK
  5
2A9
330
226
100
AcDbEntity
  8
0
100
AcDbBlockBegin
  2
*D6
 70
     1
 10
0.0
 20
0.0
 30
0.0
  3
*D6
  1

  0
MTEXT
  5
2AA
330
226
100
AcDbEntity
  8
0
  6
Continuous
 62
     2
100
AcDbMText
 10
75.9070237059
 20
438.5760135135
 30
0.0
 40
3.0
 41
6.9925650558
 46
0.0
 71
     2
 72
     1
  1
493
 11
0.0
 21
1.0
 31
0.0
 73
     1
 44
1.0
  0
LINE
  5
2AB
330
226
100
AcDbEntity
  8
0
  6
Continuous
 62
     2
100
AcDbLine
 10
103.6095509572
 20
192.0760135135
 30
0.0
 11
78.9070237059
 21
192.0760135135
 31
0.0
  0
LINE
  5
2AC
330
226
100
AcDbEntity
  8
0
  6
Continuous
 62
     2
100
AcDbLine
 10
100.9910979427
 20
685.0760135135
 30
0.0
 11
78.9070237059
 21
685.0760135135
 31
0.0
  0
LINE
  5
2AD
330
226
100
AcDbEntity
  8
0
  6
Continuous
 62
     2
100
AcDbLine
 10
79.6570237059
 20
192.0760135135
 30
0.0
 11
79.6570237059
 21
438.5760135135
 31
0.0
  0
LINE
  5
2AE
330
226
100
AcDbEntity
  8
0
  6
Continuous
 62
     2
100
AcDbLine
 10
79.6570237059
 20
685.0760135135
 30
0.0
 11
79.6570237059
 21
438.5760135135
 31
0.0
  0
INSERT
  5
2AF
330
226
100
AcDbEntity
  8
0
  6
Continuous
 62
     2
100
AcDbBlockReference
  2
_CLOSED
 10
79.6570237059
 20
192.0760135135
 30
0.0
 41
2.5
 42
2.5
 43
2.5
 50
270.0
  0
INSERT
  5
2B0
330
226
100
AcDbEntity
  8
0
  6
Continuous
 62
     2
100
AcDbBlockReference
  2
_CLOSED
 10
79.6570237059
 20
685.0760135135
 30
0.0
 41
2.5
 42
2.5
 43
2.5
 50
90.0
  0
ENDBLK
  5
2B1
330
226
100
AcDbEntity
  8
0
  6
ByBlock
 62
     0
100
AcDbBlockEnd
  0
BLOCK
  5
22E
330
227
100
AcDbEntity
  8
0
100
AcDbBlockBegin
  2
LOGO2_BL1
 70
     0
 10
1046.1044993252
 20
48.7044974662
 30
0.0
  3
LOGO2_BL1
  1

  0
LINE
  5
22F
330
227
100
AcDbEntity
  8
0
  6
Continuous
 62
     7
100
AcDbLine
 10
1037.8474245534
 20
51.899988805
 30
0.0
 11
1036.543083624
 21
51.899988805
 31
0.0
  0
LINE
  5
230
330
227
100
AcDbEntity
  8
0
  6
Continuous
 62
     7
100
AcDbLine
 10
1036.543083624
 20
51.899988805
 30
0.0
 11
1036.543083624
 21
41.4409227452
 31
0.0
  0
LINE
  5
231
330
227
100
AcDbEntity
  8
0
  6
Continuous
 62
     7
100
AcDbLine
 10
1036.543083624
 20
41.4409227452
 30
0.0
 11
1041.0241385123
 21
41.4409227452
 31
0.0
  0
LINE
  5
232
330
227
100
AcDbEntity
  8
0
  6
Continuous
 62
     7
100
AcDbLine
 10
1041.0241385123
 20
41.4409227452
 30
0.0
 11
1041.0241385123
 21
42.6337770702
 31
0.0
  0
LINE
  5
233
330
227
100
AcDbEntity
  8
0
  6
Continuous
 62
     7
100
AcDbLine
 10
1041.0241385123
 20
42.6337770702
 30
0.0
 11
1037.8474245534
 21
42.6337770702
 31
0.0
  0
LINE
  5
234
330
227
100
AcDbEntity
  8
0
  6
Continuous
 62
     7
100
AcDbLine
 10
1037.8474245534
 20
42.6337770702
 30
0.0
 11
1037.8474245534
 21
51.899988805
 31
0.0
  0
LINE
  5
235
330
227
100
AcDbEntity
  8
0
  6
Continuous
 62
     7
100
AcDbLine
 10
1052.7837507697
 20
51.899988805
 30
0.0
 11
1051.4799332516
 21
51.899988805
 31
0.0
  0
LINE
  5
236
330
227
100
AcDbEntity
  8
0
  6
Continuous
 62
     7
100
AcDbLine
 10
1051.4799332516
 20
51.899988805
 30
0.0
 11
1051.4799332516
 21
41.4409227452
 31
0.0
  0
LINE
  5
237
330
227
100
AcDbEntity
  8
0
  6
Continuous
 62
     7
100
AcDbLine
 10
1051.4799332516
 20
41.4409227452
 30
0.0
 11
1055.9611189927
 21
41.4409227452
 31
0.0
  0
LINE
  5
238
330
227
100
AcDbEntity
  8
0
  6
Continuous
 62
     7
100
AcDbLine
 10
1055.9611189927
 20
41.4409227452
 30
0.0
 11
1055.9611189927
 21
42.6337770702
 31
0.0
  0
LINE
  5
239
330
227
100
AcDbEntity
  8
0
  6
Continuous
 62
     7
100
AcDbLine
 10
1055.9611189927
 20
42.6337770702
 30
0.0
 11
1052.7837507697
 21
42.6337770702
 31
0.0
  0
LINE
  5
23A
330
227
100
AcDbEntity
  8
0
  6
Continuous
 62
     7
100
AcDbLine
 10
1052.7837507697
 20
42.6337770702
 30
0.0
 11
1052.7837507697
 21
51.899988805
 31
0.0
  0
LWPOLYLINE
  5
23B
330
227
100
AcDbEntity
  8
0
  6
Continuous
 62
     7
100
AcDbPolyline
 90
        2
 70
     0
 43
0.2
 10
1034.8974785349
 20
38.0973714382
 10
1034.8974785349
 20
36.2403081889
  0
LWPOLYLINE
  5
23C
330
227
100
AcDbEntity
  8
0
  6
Continuous
 62
     7
100
AcDbPolyline
 90
        2
 70
     0
 43
0.2
 10
1034.8974785349
 20
36.2403081889
 10
1035.6931945453
 20
36.2403081889
  0
LWPOLYLINE
  5
23D
330
227
100
AcDbEntity
  8
0
  6
Continuous
 62
     7
100
AcDbPolyline
 90
        2
 70
     0
 43
0.2
 10
1035.6931945453
 20
36.2403081889
 10
1035.6931945453
 20
36.4522897605
  0
LWPOLYLINE
  5
23E
330
227
100
AcDbEntity
  8
0
  6
Continuous
 62
     7
100
AcDbPolyline
 90
        2
 70
     0
 43
0.2
 10
1035.6931945453
 20
36.4522897605
 10
1035.1290880298
 20
36.4522897605
  0
LWPOLYLINE
  5
23F
330
227
100
AcDbEntity
  8
0
  6
Continuous
 62
     7
100
AcDbPolyline
 90
        2
 70
     0
 43
0.2
 10
1035.1290880298
 20
36.4522897605
 10
1035.1290880298
 20
38.0973714382
  0
LWPOLYLINE
  5
240
330
227
100
AcDbEntity
  8
0
  6
Continuous
 62
     7
100
AcDbPolyline
 90
        2
 70
     0
 43
0.2
 10
1035.1290880298
 20
38.0973714382
 10
1034.8974785349
 20
38.0973714382
  0
SPLINE
  5
241
330
227
100
AcDbEntity
  8
0
  6
Continuous
 62
     7
100
AcDbSpline
 70
     3
 71
     3
 72
    35
 73
    31
 74
     0
 42
0.000000001
 43
0.0000001
 40
0.0
 40
0.0
 40
0.0
 40
0.0
 40
1.0
 40
1.0
 40
1.0
 40
2.0
 40
2.0
 40
2.0
 40
3.0
 40
3.0
 40
3.0
 40
4.0
 40
4.0
 40
4.0
 40
5.0
 40
5.0
 40
5.0
 40
6.0
 40
6.0
 40
6.0
 40
7.0
 40
7.0
 40
7.0
 40
8.0
 40
8.0
 40
8.0
 40
9.0
 40
9.0
 40
9.0
 40
10.0
 40
10.0
 40
10.0
 40
10.0
 10
1037.0914878009
 20
37.3928598448
 30
0.0
 10
1037.0914878009
 20
37.3928598448
 30
0.0
 10
1037.0914878009
 20
36.7307445656
 30
0.0
 10
1037.0914878009
 20
36.7307445656
 30
0.0
 10
1037.0914878009
 20
36.4156509703
 30
0.0
 10
1037.2393514897
 20
36.2010523423
 30
0.0
 10
1037.579437974
 20
36.2010523423
 30
0.0
 10
1037.919001047
 20
36.2010523423
 30
0.0
 10
1038.0671264415
 20
36.4156509703
 30
0.0
 10
1038.0671264415
 20
36.7307445656
 30
0.0
 10
1038.0671264415
 20
36.7307445656
 30
0.0
 10
1038.0671264415
 20
37.3928598448
 30
0.0
 10
1038.0671264415
 20
37.3928598448
 30
0.0
 10
1038.0671264415
 20
37.3928598448
 30
0.0
 10
1037.8450692026
 20
37.3928598448
 30
0.0
 10
1037.8450692026
 20
37.3928598448
 30
0.0
 10
1037.8450692026
 20
37.3928598448
 30
0.0
 10
1037.8450692026
 20
36.7558683074
 30
0.0
 10
1037.8450692026
 20
36.7558683074
 30
0.0
 10
1037.8450692026
 20
36.5700573002
 30
0.0
 10
1037.7983547451
 20
36.4072763897
 30
0.0
 10
1037.579437974
 20
36.4072763897
 30
0.0
 10
1037.3599977915
 20
36.4072763897
 30
0.0
 10
1037.3132833341
 20
36.5700573002
 30
0.0
 10
1037.3132833341
 20
36.7558683074
 30
0.0
 10
1037.3132833341
 20
36.7558683074
 30
0.0
 10
1037.3132833341
 20
37.3928598448
 30
0.0
 10
1037.3132833341
 20
37.3928598448
 30
0.0
 10
1037.3132833341
 20
37.3928598448
 30
0.0
 10
1037.0914878009
 20
37.3928598448
 30
0.0
 10
1037.0914878009
 20
37.3928598448
 30
0.0
  0
SPLINE
  5
242
330
227
100
AcDbEntity
  8
0
  6
Continuous
 62
     7
100
AcDbSpline
 70
     3
 71
     3
 72
    35
 73
    31
 74
     0
 42
0.000000001
 43
0.0000001
 40
0.0
 40
0.0
 40
0.0
 40
0.0
 40
1.0
 40
1.0
 40
1.0
 40
2.0
 40
2.0
 40
2.0
 40
3.0
 40
3.0
 40
3.0
 40
4.0
 40
4.0
 40
4.0
 40
5.0
 40
5.0
 40
5.0
 40
6.0
 40
6.0
 40
6.0
 40
7.0
 40
7.0
 40
7.0
 40
8.0
 40
8.0
 40
8.0
 40
9.0
 40
9.0
 40
9.0
 40
10.0
 40
10.0
 40
10.0
 40
10.0
 10
1040.4902589986
 20
37.351510353
 30
0.0
 10
1040.401802491
 20
37.4028046592
 30
0.0
 10
1040.2883530944
 20
37.4279284011
 30
0.0
 10
1040.1847176594
 20
37.4279284011
 30
0.0
 10
1039.8298448062
 20
37.4279284011
 30
0.0
 10
1039.5543996159
 20
37.164129112
 30
0.0
 10
1039.5543996159
 20
36.8066392024
 30
0.0
 10
1039.5543996159
 20
36.4617111636
 30
0.0
 10
1039.8328544211
 20
36.2015757536
 30
0.0
 10
1040.1724174941
 20
36.2015757536
 30
0.0
 10
1040.2883530944
 20
36.2015757536
 30
0.0
 10
1040.3891097673
 20
36.2235590277
 30
0.0
 10
1040.4902589986
 20
36.2774703903
 30
0.0
 10
1040.4902589986
 20
36.2774703903
 30
0.0
 10
1040.4902589986
 20
36.5601124858
 30
0.0
 10
1040.4902589986
 20
36.5601124858
 30
0.0
 10
1040.4063823398
 20
36.4669452765
 30
0.0
 10
1040.3028777576
 20
36.407799801
 30
0.0
 10
1040.1747728449
 20
36.407799801
 30
0.0
 10
1039.9410697048
 20
36.407799801
 30
0.0
 10
1039.7758025907
 20
36.5800021147
 30
0.0
 10
1039.7758025907
 20
36.8165840168
 30
0.0
 10
1039.7758025907
 20
37.0285655884
 30
0.0
 10
1039.9435559085
 20
37.2206575311
 30
0.0
 10
1040.1603790345
 20
37.2206575311
 30
0.0
 10
1040.2931946488
 20
37.2206575311
 30
0.0
 10
1040.401802491
 20
37.1667461684
 30
0.0
 10
1040.4902589986
 20
37.0657277898
 30
0.0
 10
1040.4902589986
 20
37.0657277898
 30
0.0
 10
1040.4902589986
 20
37.351510353
 30
0.0
 10
1040.4902589986
 20
37.351510353
 30
0.0
  0
SPLINE
  5
243
330
227
100
AcDbEntity
  8
0
  6
Continuous
 62
     7
100
AcDbSpline
 70
     3
 71
     3
 72
    32
 73
    28
 74
     0
 42
0.000000001
 43
0.0000001
 40
0.0
 40
0.0
 40
0.0
 40
0.0
 40
1.0
 40
1.0
 40
1.0
 40
2.0
 40
2.0
 40
2.0
 40
3.0
 40
3.0
 40
3.0
 40
4.0
 40
4.0
 40
4.0
 40
5.0
 40
5.0
 40
5.0
 40
6.0
 40
6.0
 40
6.0
 40
7.0
 40
7.0
 40
7.0
 40
8.0
 40
8.0
 40
8.0
 40
9.0
 40
9.0
 40
9.0
 40
9.0
 10
1043.0221302509
 20
36.7799452267
 30
0.0
 10
1043.0221302509
 20
36.7799452267
 30
0.0
 10
1043.0221302509
 20
36.8139669604
 30
0.0
 10
1043.0221302509
 20
36.8139669604
 30
0.0
 10
1043.0221302509
 20
37.1562779426
 30
0.0
 10
1042.8492736731
 20
37.4279284011
 30
0.0
 10
1042.4826240659
 20
37.4279284011
 30
0.0
 10
1042.1110020515
 20
37.4279284011
 30
0.0
 10
1041.9212654597
 20
37.1615120555
 30
0.0
 10
1041.9212654597
 20
36.8066392024
 30
0.0
 10
1041.9212654597
 20
36.4669452765
 30
0.0
 10
1042.1353406764
 20
36.2010523423
 30
0.0
 10
1042.4874656203
 20
36.2010523423
 30
0.0
 10
1042.7114856515
 20
36.2010523423
 30
0.0
 10
1042.9136532615
 20
36.3167262369
 30
0.0
 10
1043.0221302509
 20
36.5161459376
 30
0.0
 10
1043.0221302509
 20
36.5161459376
 30
0.0
 10
1042.8344873042
 20
36.6229218403
 30
0.0
 10
1042.8344873042
 20
36.6229218403
 30
0.0
 10
1042.7510032038
 20
36.484217849
 30
0.0
 10
1042.6597987869
 20
36.3983783978
 30
0.0
 10
1042.4902135296
 20
36.3983783978
 30
0.0
 10
1042.278231958
 20
36.3983783978
 30
0.0
 10
1042.1452854909
 20
36.5831425824
 30
0.0
 10
1042.1429301401
 20
36.7799452267
 30
0.0
 10
1042.1429301401
 20
36.7799452267
 30
0.0
 10
1043.0221302509
 20
36.7799452267
 30
0.0
 10
1043.0221302509
 20
36.7799452267
 30
0.0
  0
SPLINE
  5
244
330
227
100
AcDbEntity
  8
0
  6
Continuous
 62
     7
100
AcDbSpline
 70
     3
 71
     3
 72
    14
 73
    10
 74
     0
 42
0.000000001
 43
0.0000001
 40
0.0
 40
0.0
 40
0.0
 40
0.0
 40
1.0
 40
1.0
 40
1.0
 40
2.0
 40
2.0
 40
2.0
 40
3.0
 40
3.0
 40
3.0
 40
3.0
 10
1042.1549685997
 20
36.9474368388
 30
0.0
 10
1042.1825785452
 20
37.1123113945
 30
0.0
 10
1042.3104217522
 20
37.2353130471
 30
0.0
 10
1042.4826240659
 20
37.2353130471
 30
0.0
 10
1042.6597987869
 20
37.2353130471
 30
0.0
 10
1042.7732481835
 20
37.1196391525
 30
0.0
 10
1042.8004655705
 20
36.9474368388
 30
0.0
 10
1042.8004655705
 20
36.9474368388
 30
0.0
 10
1042.1549685997
 20
36.9474368388
 30
0.0
 10
1042.1549685997
 20
36.9474368388
 30
0.0
  0
SPLINE
  5
245
330
227
100
AcDbEntity
  8
0
  6
Continuous
 62
     7
100
AcDbSpline
 70
     3
 71
     3
 72
    20
 73
    16
 74
     0
 42
0.000000001
 43
0.0000001
 40
0.0
 40
0.0
 40
0.0
 40
0.0
 40
1.0
 40
1.0
 40
1.0
 40
2.0
 40
2.0
 40
2.0
 40
3.0
 40
3.0
 40
3.0
 40
4.0
 40
4.0
 40
4.0
 40
5.0
 40
5.0
 40
5.0
 40
5.0
 10
1045.0461617011
 20
37.1568013539
 30
0.0
 10
1045.0461617011
 20
37.1568013539
 30
0.0
 10
1045.4573012677
 20
36.6543265176
 30
0.0
 10
1045.4573012677
 20
36.6543265176
 30
0.0
 10
1045.3412348146
 20
36.538652623
 30
0.0
 10
1045.2034467931
 20
36.4083232123
 30
0.0
 10
1045.031506185
 20
36.4083232123
 30
0.0
 10
1044.8540697584
 20
36.4083232123
 30
0.0
 10
1044.6865781463
 20
36.5726743567
 30
0.0
 10
1044.6865781463
 20
36.749587372
 30
0.0
 10
1044.6865781463
 20
36.9275472098
 30
0.0
 10
1044.8963352199
 20
37.0536893302
 30
0.0
 10
1045.0239167214
 20
37.1416224266
 30
0.0
 10
1045.0239167214
 20
37.1416224266
 30
0.0
 10
1045.0461617011
 20
37.1568013539
 30
0.0
 10
1045.0461617011
 20
37.1568013539
 30
0.0
  0
SPLINE
  5
246
330
227
100
AcDbEntity
  8
0
  6
Continuous
 62
     7
100
AcDbSpline
 70
     3
 71
     3
 72
    23
 73
    19
 74
     0
 42
0.000000001
 43
0.0000001
 40
0.0
 40
0.0
 40
0.0
 40
0.0
 40
1.0
 40
1.0
 40
1.0
 40
2.0
 40
2.0
 40
2.0
 40
3.0
 40
3.0
 40
3.0
 40
4.0
 40
4.0
 40
4.0
 40
5.0
 40
5.0
 40
5.0
 40
6.0
 40
6.0
 40
6.0
 40
6.0
 10
1045.095493215
 20
37.44781803
 30
0.0
 10
1045.095493215
 20
37.44781803
 30
0.0
 10
1045.0338615358
 20
37.5263297232
 30
0.0
 10
1045.0338615358
 20
37.5263297232
 30
0.0
 10
1044.9799501732
 20
37.5948966019
 30
0.0
 10
1044.9231600484
 20
37.6639868919
 30
0.0
 10
1044.9231600484
 20
37.7576775124
 30
0.0
 10
1044.9231600484
 20
37.8764918748
 30
0.0
 10
1045.0190751669
 20
37.9539567454
 30
0.0
 10
1045.13003836
 20
37.9539567454
 30
0.0
 10
1045.2533017183
 20
37.9539567454
 30
0.0
 10
1045.3465997803
 20
37.8827728102
 30
0.0
 10
1045.3465997803
 20
37.7524433995
 30
0.0
 10
1045.3465997803
 20
37.6174032873
 30
0.0
 10
1045.2184948676
 20
37.5409852392
 30
0.0
 10
1045.1249350999
 20
37.4671842476
 30
0.0
 10
1045.1249350999
 20
37.4671842476
 30
0.0
 10
1045.095493215
 20
37.44781803
 30
0.0
 10
1045.095493215
 20
37.44781803
 30
0.0
  0
SPLINE
  5
247
330
227
100
AcDbEntity
  8
0
  6
Continuous
 62
     7
100
AcDbSpline
 70
     3
 71
     3
 72
    50
 73
    46
 74
     0
 42
0.000000001
 43
0.0000001
 40
0.0
 40
0.0
 40
0.0
 40
0.0
 40
1.0
 40
1.0
 40
1.0
 40
2.0
 40
2.0
 40
2.0
 40
3.0
 40
3.0
 40
3.0
 40
4.0
 40
4.0
 40
4.0
 40
5.0
 40
5.0
 40
5.0
 40
6.0
 40
6.0
 40
6.0
 40
7.0
 40
7.0
 40
7.0
 40
8.0
 40
8.0
 40
8.0
 40
9.0
 40
9.0
 40
9.0
 40
10.0
 40
10.0
 40
10.0
 40
11.0
 40
11.0
 40
11.0
 40
12.0
 40
12.0
 40
12.0
 40
13.0
 40
13.0
 40
13.0
 40
14.0
 40
14.0
 40
14.0
 40
15.0
 40
15.0
 40
15.0
 40
15.0
 10
1045.7976494577
 20
36.2408316002
 30
0.0
 10
1045.7976494577
 20
36.2408316002
 30
0.0
 10
1046.0830394624
 20
36.2408316002
 30
0.0
 10
1046.0830394624
 20
36.2408316002
 30
0.0
 10
1046.0830394624
 20
36.2408316002
 30
0.0
 10
1045.7506732946
 20
36.6517094611
 30
0.0
 10
1045.7506732946
 20
36.6517094611
 30
0.0
 10
1045.7506732946
 20
36.6517094611
 30
0.0
 10
1045.9771795294
 20
36.9176023954
 30
0.0
 10
1045.9771795294
 20
36.9176023954
 30
0.0
 10
1045.9771795294
 20
36.9176023954
 30
0.0
 10
1045.8289232821
 20
37.0704384914
 30
0.0
 10
1045.8289232821
 20
37.0704384914
 30
0.0
 10
1045.8289232821
 20
37.0704384914
 30
0.0
 10
1045.6130161259
 20
36.8192010733
 30
0.0
 10
1045.6130161259
 20
36.8192010733
 30
0.0
 10
1045.6130161259
 20
36.8192010733
 30
0.0
 10
1045.2259534785
 20
37.2871307646
 30
0.0
 10
1045.2259534785
 20
37.2871307646
 30
0.0
 10
1045.381406631
 20
37.4012344254
 30
0.0
 10
1045.563684612
 20
37.5409852392
 30
0.0
 10
1045.563684612
 20
37.7503497544
 30
0.0
 10
1045.563684612
 20
37.9942594145
 30
0.0
 10
1045.3616478549
 20
38.1376741074
 30
0.0
 10
1045.13514162
 20
38.1376741074
 30
0.0
 10
1044.8909702542
 20
38.1376741074
 30
0.0
 10
1044.7065986281
 20
37.9869316565
 30
0.0
 10
1044.7065986281
 20
37.7304601254
 30
0.0
 10
1044.7065986281
 20
37.5729133278
 30
0.0
 10
1044.8052616558
 20
37.4352561591
 30
0.0
 10
1044.9105981775
 20
37.3242929661
 30
0.0
 10
1044.9105981775
 20
37.3242929661
 30
0.0
 10
1044.7950551357
 20
37.24054716
 30
0.0
 10
1044.7950551357
 20
37.24054716
 30
0.0
 10
1044.6173570035
 20
37.1123113945
 30
0.0
 10
1044.470016726
 20
36.9845990402
 30
0.0
 10
1044.470016726
 20
36.7474937268
 30
0.0
 10
1044.470016726
 20
36.4271660186
 30
0.0
 10
1044.7285819022
 20
36.2010523423
 30
0.0
 10
1045.0389647959
 20
36.2010523423
 30
0.0
 10
1045.257881567
 20
36.2010523423
 30
0.0
 10
1045.4550767697
 20
36.3261476401
 30
0.0
 10
1045.5953509949
 20
36.4920690183
 30
0.0
 10
1045.5953509949
 20
36.4920690183
 30
0.0
 10
1045.7976494577
 20
36.2408316002
 30
0.0
 10
1045.7976494577
 20
36.2408316002
 30
0.0
  0
LWPOLYLINE
  5
248
330
227
100
AcDbEntity
  8
0
  6
Continuous
 62
     7
100
AcDbPolyline
 90
        2
 70
     0
 43
0.2
 10
1047.7330935474
 20
38.0973714382
 10
1047.5017457581
 20
38.0973714382
  0
LWPOLYLINE
  5
249
330
227
100
AcDbEntity
  8
0
  6
Continuous
 62
     7
100
AcDbPolyline
 90
        2
 70
     0
 43
0.2
 10
1047.5017457581
 20
38.0973714382
 10
1047.5017457581
 20
36.2403081889
  0
LWPOLYLINE
  5
24A
330
227
100
AcDbEntity
  8
0
  6
Continuous
 62
     7
100
AcDbPolyline
 90
        2
 70
     0
 43
0.2
 10
1047.5017457581
 20
36.2403081889
 10
1048.2970692101
 20
36.2403081889
  0
LWPOLYLINE
  5
24B
330
227
100
AcDbEntity
  8
0
  6
Continuous
 62
     7
100
AcDbPolyline
 90
        2
 70
     0
 43
0.2
 10
1048.2970692101
 20
36.2403081889
 10
1048.2970692101
 20
36.4522897605
  0
LWPOLYLINE
  5
24C
330
227
100
AcDbEntity
  8
0
  6
Continuous
 62
     7
100
AcDbPolyline
 90
        2
 70
     0
 43
0.2
 10
1048.2970692101
 20
36.4522897605
 10
1047.7330935474
 20
36.4522897605
  0
LWPOLYLINE
  5
24D
330
227
100
AcDbEntity
  8
0
  6
Continuous
 62
     7
100
AcDbPolyline
 90
        2
 70
     0
 43
0.2
 10
1047.7330935474
 20
36.4522897605
 10
1047.7330935474
 20
38.0973714382
  0
LWPOLYLINE
  5
24E
330
227
100
AcDbEntity
  8
0
  6
Continuous
 62
     7
100
AcDbPolyline
 90
        2
 70
     0
 43
0.2
 10
1049.9761726215
 20
37.3928598448
 10
1049.7550313524
 20
37.3928598448
  0
LWPOLYLINE
  5
24F
330
227
100
AcDbEntity
  8
0
  6
Continuous
 62
     7
100
AcDbPolyline
 90
        2
 70
     0
 43
0.2
 10
1049.7550313524
 20
37.3928598448
 10
1049.7550313524
 20
36.2408316002
  0
LWPOLYLINE
  5
250
330
227
100
AcDbEntity
  8
0
  6
Continuous
 62
     7
100
AcDbPolyline
 90
        2
 70
     0
 43
0.2
 10
1049.7550313524
 20
36.2408316002
 10
1049.9761726215
 20
36.2408316002
  0
LWPOLYLINE
  5
251
330
227
100
AcDbEntity
  8
0
  6
Continuous
 62
     7
100
AcDbPolyline
 90
        2
 70
     0
 43
0.2
 10
1049.9761726215
 20
36.2408316002
 10
1049.9761726215
 20
37.3928598448
  0
LWPOLYLINE
  5
252
330
227
100
AcDbEntity
  8
0
  6
Continuous
 62
     7
100
AcDbPolyline
 90
        2
 70
     1
 43
0.2
 10
1049.7131493443
 20
37.9228137737
 42
1.0
 10
1050.0183163353
 20
37.9228137737
 42
1.0
  0
SPLINE
  5
253
330
227
100
AcDbEntity
  8
0
  6
Continuous
 62
     7
100
AcDbSpline
 70
     3
 71
     3
 72
    17
 73
    13
 74
     0
 42
0.000000001
 43
0.0000001
 40
0.0
 40
0.0
 40
0.0
 40
0.0
 40
1.0
 40
1.0
 40
1.0
 40
2.0
 40
2.0
 40
2.0
 40
3.0
 40
3.0
 40
3.0
 40
4.0
 40
4.0
 40
4.0
 40
4.0
 10
1052.1064565632
 20
36.3983783978
 30
0.0
 10
1051.8724917175
 20
36.3983783978
 30
0.0
 10
1051.7421623068
 20
36.6004151549
 30
0.0
 10
1051.7421623068
 20
36.8165840168
 30
0.0
 10
1051.7421623068
 20
37.0311826448
 30
0.0
 10
1051.877987536
 20
37.2300789342
 30
0.0
 10
1052.1064565632
 20
37.2300789342
 30
0.0
 10
1052.3459172274
 20
37.2300789342
 30
0.0
 10
1052.4814807509
 20
37.0411274593
 30
0.0
 10
1052.4814807509
 20
36.8165840168
 30
0.0
 10
1052.4814807509
 20
36.5904703405
 30
0.0
 10
1052.3482725782
 20
36.3983783978
 30
0.0
 10
1052.1064565632
 20
36.3983783978
 30
0.0
  0
SPLINE
  5
254
330
227
100
AcDbEntity
  8
0
  6
Continuous
 62
     7
100
AcDbSpline
 70
     3
 71
     3
 72
    50
 73
    46
 74
     0
 42
0.000000001
 43
0.0000001
 40
0.0
 40
0.0
 40
0.0
 40
0.0
 40
1.0
 40
1.0
 40
1.0
 40
2.0
 40
2.0
 40
2.0
 40
3.0
 40
3.0
 40
3.0
 40
4.0
 40
4.0
 40
4.0
 40
5.0
 40
5.0
 40
5.0
 40
6.0
 40
6.0
 40
6.0
 40
7.0
 40
7.0
 40
7.0
 40
8.0
 40
8.0
 40
8.0
 40
9.0
 40
9.0
 40
9.0
 40
10.0
 40
10.0
 40
10.0
 40
11.0
 40
11.0
 40
11.0
 40
12.0
 40
12.0
 40
12.0
 40
13.0
 40
13.0
 40
13.0
 40
14.0
 40
14.0
 40
14.0
 40
15.0
 40
15.0
 40
15.0
 40
15.0
 10
1052.6905835604
 20
37.3933832561
 30
0.0
 10
1052.6905835604
 20
37.3933832561
 30
0.0
 10
1052.46891888
 20
37.3933832561
 30
0.0
 10
1052.46891888
 20
37.3933832561
 30
0.0
 10
1052.46891888
 20
37.3933832561
 30
0.0
 10
1052.46891888
 20
37.1960572005
 30
0.0
 10
1052.46891888
 20
37.1960572005
 30
0.0
 10
1052.46891888
 20
37.1960572005
 30
0.0
 10
1052.4642081784
 20
37.1960572005
 30
0.0
 10
1052.4642081784
 20
37.1960572005
 30
0.0
 10
1052.3728729087
 20
37.3389484821
 30
0.0
 10
1052.2349540343
 20
37.4274049898
 30
0.0
 10
1052.0622283093
 20
37.4274049898
 30
0.0
 10
1051.7298621415
 20
37.4274049898
 30
0.0
 10
1051.520759332
 20
37.1395287814
 30
0.0
 10
1051.520759332
 20
36.8239117749
 30
0.0
 10
1051.520759332
 20
36.4941626635
 30
0.0
 10
1051.7178236819
 20
36.2010523423
 30
0.0
 10
1052.0726965351
 20
36.2010523423
 30
0.0
 10
1052.2349540343
 20
36.2010523423
 30
0.0
 10
1052.3749665538
 20
36.2895088499
 30
0.0
 10
1052.4642081784
 20
36.4203616719
 30
0.0
 10
1052.4642081784
 20
36.4203616719
 30
0.0
 10
1052.46891888
 20
36.4203616719
 30
0.0
 10
1052.46891888
 20
36.4203616719
 30
0.0
 10
1052.46891888
 20
36.4203616719
 30
0.0
 10
1052.46891888
 20
36.2010523423
 30
0.0
 10
1052.46891888
 20
36.2010523423
 30
0.0
 10
1052.46891888
 20
35.9644704402
 30
0.0
 10
1052.4123904609
 20
35.7776126104
 30
0.0
 10
1052.1391697687
 20
35.7776126104
 30
0.0
 10
1051.9368713059
 20
35.7776126104
 30
0.0
 10
1051.79424173
 20
35.8959035615
 30
0.0
 10
1051.79424173
 20
36.1021276089
 30
0.0
 10
1051.79424173
 20
36.1021276089
 30
0.0
 10
1051.5725770495
 20
36.1021276089
 30
0.0
 10
1051.5725770495
 20
36.1021276089
 30
0.0
 10
1051.5775494568
 20
35.7776126104
 30
0.0
 10
1051.8086355404
 20
35.5808099662
 30
0.0
 10
1052.1289632485
 20
35.5808099662
 30
0.0
 10
1052.577003311
 20
35.5808099662
 30
0.0
 10
1052.6905835604
 20
35.866069118
 30
0.0
 10
1052.6905835604
 20
36.2628148743
 30
0.0
 10
1052.6905835604
 20
36.2628148743
 30
0.0
 10
1052.6905835604
 20
37.3933832561
 30
0.0
 10
1052.6905835604
 20
37.3933832561
 30
0.0
  0
SPLINE
  5
255
330
227
100
AcDbEntity
  8
0
  6
Continuous
 62
     7
100
AcDbSpline
 70
     3
 71
     3
 72
    44
 73
    40
 74
     0
 42
0.000000001
 43
0.0000001
 40
0.0
 40
0.0
 40
0.0
 40
0.0
 40
1.0
 40
1.0
 40
1.0
 40
2.0
 40
2.0
 40
2.0
 40
3.0
 40
3.0
 40
3.0
 40
4.0
 40
4.0
 40
4.0
 40
5.0
 40
5.0
 40
5.0
 40
6.0
 40
6.0
 40
6.0
 40
7.0
 40
7.0
 40
7.0
 40
8.0
 40
8.0
 40
8.0
 40
9.0
 40
9.0
 40
9.0
 40
10.0
 40
10.0
 40
10.0
 40
11.0
 40
11.0
 40
11.0
 40
12.0
 40
12.0
 40
12.0
 40
13.0
 40
13.0
 40
13.0
 40
13.0
 10
1054.2595088958
 20
38.3784432998
 30
0.0
 10
1054.2595088958
 20
38.3784432998
 30
0.0
 10
1054.2595088958
 20
36.2403081889
 30
0.0
 10
1054.2595088958
 20
36.2403081889
 30
0.0
 10
1054.2595088958
 20
36.2403081889
 30
0.0
 10
1054.4809118706
 20
36.2403081889
 30
0.0
 10
1054.4809118706
 20
36.2403081889
 30
0.0
 10
1054.4809118706
 20
36.2403081889
 30
0.0
 10
1054.4809118706
 20
36.7700004122
 30
0.0
 10
1054.4809118706
 20
36.7700004122
 30
0.0
 10
1054.4809118706
 20
36.9798883386
 30
0.0
 10
1054.4809118706
 20
37.2306023455
 30
0.0
 10
1054.7661710225
 20
37.2306023455
 30
0.0
 10
1054.9930698158
 20
37.2306023455
 30
0.0
 10
1055.0200254971
 20
37.0976558784
 30
0.0
 10
1055.0200254971
 20
36.9013766455
 30
0.0
 10
1055.0200254971
 20
36.9013766455
 30
0.0
 10
1055.0200254971
 20
36.2403081889
 30
0.0
 10
1055.0200254971
 20
36.2403081889
 30
0.0
 10
1055.0200254971
 20
36.2403081889
 30
0.0
 10
1055.2419518832
 20
36.2403081889
 30
0.0
 10
1055.2419518832
 20
36.2403081889
 30
0.0
 10
1055.2419518832
 20
36.2403081889
 30
0.0
 10
1055.2419518832
 20
36.9275472098
 30
0.0
 10
1055.2419518832
 20
36.9275472098
 30
0.0
 10
1055.2419518832
 20
37.2080956601
 30
0.0
 10
1055.1579443715
 20
37.4279284011
 30
0.0
 10
1054.8329059617
 20
37.4279284011
 30
0.0
 10
1054.6931551478
 20
37.4279284011
 30
0.0
 10
1054.5549745678
 20
37.3614551675
 30
0.0
 10
1054.4856225722
 20
37.2384535148
 30
0.0
 10
1054.4856225722
 20
37.2384535148
 30
0.0
 10
1054.4809118706
 20
37.2384535148
 30
0.0
 10
1054.4809118706
 20
37.2384535148
 30
0.0
 10
1054.4809118706
 20
37.2384535148
 30
0.0
 10
1054.4809118706
 20
38.3784432998
 30
0.0
 10
1054.4809118706
 20
38.3784432998
 30
0.0
 10
1054.4809118706
 20
38.3784432998
 30
0.0
 10
1054.2595088958
 20
38.3784432998
 30
0.0
 10
1054.2595088958
 20
38.3784432998
 30
0.0
  0
LWPOLYLINE
  5
256
330
227
100
AcDbEntity
  8
0
  6
Continuous
 62
     7
100
AcDbPolyline
 90
        2
 70
     0
 43
0.2
 10
1057.08174256
 20
37.1861123861
 10
1057.2981731276
 20
37.1861123861
  0
LWPOLYLINE
  5
257
330
227
100
AcDbEntity
  8
0
  6
Continuous
 62
     7
100
AcDbPolyline
 90
        2
 70
     0
 43
0.2
 10
1057.2981731276
 20
37.1861123861
 10
1057.2981731276
 20
37.3928598448
  0
LWPOLYLINE
  5
258
330
227
100
AcDbEntity
  8
0
  6
Continuous
 62
     7
100
AcDbPolyline
 90
        2
 70
     0
 43
0.2
 10
1057.2981731276
 20
37.3928598448
 10
1057.08174256
 20
37.3928598448
  0
LWPOLYLINE
  5
259
330
227
100
AcDbEntity
  8
0
  6
Continuous
 62
     7
100
AcDbPolyline
 90
        2
 70
     0
 43
0.2
 10
1057.08174256
 20
37.3928598448
 10
1057.08174256
 20
37.8335721492
  0
LWPOLYLINE
  5
25A
330
227
100
AcDbEntity
  8
0
  6
Continuous
 62
     7
100
AcDbPolyline
 90
        2
 70
     0
 43
0.2
 10
1057.08174256
 20
37.8335721492
 10
1056.8600778796
 20
37.8335721492
  0
LWPOLYLINE
  5
25B
330
227
100
AcDbEntity
  8
0
  6
Continuous
 62
     7
100
AcDbPolyline
 90
        2
 70
     0
 43
0.2
 10
1056.8600778796
 20
37.8335721492
 10
1056.8600778796
 20
37.3928598448
  0
LWPOLYLINE
  5
25C
330
227
100
AcDbEntity
  8
0
  6
Continuous
 62
     7
100
AcDbPolyline
 90
        2
 70
     0
 43
0.2
 10
1056.8600778796
 20
37.3928598448
 10
1056.7394315778
 20
37.3928598448
  0
LWPOLYLINE
  5
25D
330
227
100
AcDbEntity
  8
0
  6
Continuous
 62
     7
100
AcDbPolyline
 90
        2
 70
     0
 43
0.2
 10
1056.7394315778
 20
37.3928598448
 10
1056.7394315778
 20
37.1861123861
  0
LWPOLYLINE
  5
25E
330
227
100
AcDbEntity
  8
0
  6
Continuous
 62
     7
100
AcDbPolyline
 90
        2
 70
     0
 43
0.2
 10
1056.7394315778
 20
37.1861123861
 10
1056.8600778796
 20
37.1861123861
  0
LWPOLYLINE
  5
25F
330
227
100
AcDbEntity
  8
0
  6
Continuous
 62
     7
100
AcDbPolyline
 90
        2
 70
     0
 43
0.2
 10
1056.8600778796
 20
37.1861123861
 10
1056.8600778796
 20
36.2403081889
  0
LWPOLYLINE
  5
260
330
227
100
AcDbEntity
  8
0
  6
Continuous
 62
     7
100
AcDbPolyline
 90
        2
 70
     0
 43
0.2
 10
1056.8600778796
 20
36.2403081889
 10
1057.08174256
 20
36.2403081889
  0
LWPOLYLINE
  5
261
330
227
100
AcDbEntity
  8
0
  6
Continuous
 62
     7
100
AcDbPolyline
 90
        2
 70
     0
 43
0.2
 10
1057.08174256
 20
36.2403081889
 10
1057.08174256
 20
37.1861123861
  0
SPLINE
  5
262
330
227
100
AcDbEntity
  8
0
  6
Continuous
 62
     7
100
AcDbSpline
 70
     3
 71
     3
 72
    20
 73
    16
 74
     0
 42
0.000000001
 43
0.0000001
 40
0.0
 40
0.0
 40
0.0
 40
0.0
 40
1.0
 40
1.0
 40
1.0
 40
2.0
 40
2.0
 40
2.0
 40
3.0
 40
3.0
 40
3.0
 40
4.0
 40
4.0
 40
4.0
 40
5.0
 40
5.0
 40
5.0
 40
5.0
 10
1044.8637528673
 20
46.6012346323
 30
0.0
 10
1044.8637528673
 20
46.6012346323
 30
0.0
 10
1047.1801095217
 20
43.77167321
 30
0.0
 10
1047.1801095217
 20
43.77167321
 30
0.0
 10
1046.5284624683
 20
43.1195027454
 30
0.0
 10
1045.7515892643
 20
42.3835864746
 30
0.0
 10
1044.7803996197
 20
42.3835864746
 30
0.0
 10
1043.7818617352
 20
42.3835864746
 30
0.0
 10
1042.8385437417
 20
43.3131649219
 30
0.0
 10
1042.8385437417
 20
44.3123570704
 30
0.0
 10
1042.8385437417
 20
45.311549219
 30
0.0
 10
1044.0173968148
 20
46.0181544576
 30
0.0
 10
1044.7389192751
 20
46.5180122375
 30
0.0
 10
1044.7389192751
 20
46.5180122375
 30
0.0
 10
1044.8637528673
 20
46.6012346323
 30
0.0
 10
1044.8637528673
 20
46.6012346323
 30
0.0
  0
SPLINE
  5
263
330
227
100
AcDbEntity
  8
0
  6
Continuous
 62
     7
100
AcDbSpline
 70
     3
 71
     3
 72
    23
 73
    19
 74
     0
 42
0.000000001
 43
0.0000001
 40
0.0
 40
0.0
 40
0.0
 40
0.0
 40
1.0
 40
1.0
 40
1.0
 40
2.0
 40
2.0
 40
2.0
 40
3.0
 40
3.0
 40
3.0
 40
4.0
 40
4.0
 40
4.0
 40
5.0
 40
5.0
 40
5.0
 40
6.0
 40
6.0
 40
6.0
 40
6.0
 10
1045.1411608498
 20
48.238988552
 30
0.0
 10
1045.1411608498
 20
48.238988552
 30
0.0
 10
1044.7946625773
 20
48.6823179128
 30
0.0
 10
1044.7946625773
 20
48.6823179128
 30
0.0
 10
1044.4888595323
 20
49.0704273828
 30
0.0
 10
1044.1699712052
 20
49.4589294112
 30
0.0
 10
1044.1699712052
 20
49.9858737253
 30
0.0
 10
1044.1699712052
 20
50.6520454419
 30
0.0
 10
1044.7113093297
 20
51.0957673612
 30
0.0
 10
1045.3352155848
 20
51.0957673612
 30
0.0
 10
1046.0289972469
 20
51.0957673612
 30
0.0
 10
1046.5562032666
 20
50.6935257865
 30
0.0
 10
1046.5562032666
 20
49.9585254855
 30
0.0
 10
1046.5562032666
 20
49.1952609749
 30
0.0
 10
1045.8349425119
 20
48.7651477491
 30
0.0
 10
1045.307867345
 20
48.3494283338
 30
0.0
 10
1045.307867345
 20
48.3494283338
 30
0.0
 10
1045.1411608498
 20
48.238988552
 30
0.0
 10
1045.1411608498
 20
48.238988552
 30
0.0
  0
SPLINE
  5
264
330
227
100
AcDbEntity
  8
0
  6
Continuous
 62
     7
100
AcDbSpline
 70
     3
 71
     3
 72
    50
 73
    46
 74
     0
 42
0.000000001
 43
0.0000001
 40
0.0
 40
0.0
 40
0.0
 40
0.0
 40
1.0
 40
1.0
 40
1.0
 40
2.0
 40
2.0
 40
2.0
 40
3.0
 40
3.0
 40
3.0
 40
4.0
 40
4.0
 40
4.0
 40
5.0
 40
5.0
 40
5.0
 40
6.0
 40
6.0
 40
6.0
 40
7.0
 40
7.0
 40
7.0
 40
8.0
 40
8.0
 40
8.0
 40
9.0
 40
9.0
 40
9.0
 40
10.0
 40
10.0
 40
10.0
 40
11.0
 40
11.0
 40
11.0
 40
12.0
 40
12.0
 40
12.0
 40
13.0
 40
13.0
 40
13.0
 40
14.0
 40
14.0
 40
14.0
 40
15.0
 40
15.0
 40
15.0
 40
15.0
 10
1049.0947480128
 20
41.4403993339
 30
0.0
 10
1049.0947480128
 20
41.4403993339
 30
0.0
 10
1050.7039760173
 20
41.4403993339
 30
0.0
 10
1050.7039760173
 20
41.4403993339
 30
0.0
 10
1050.7039760173
 20
41.4403993339
 30
0.0
 10
1048.8309487237
 20
43.7575411053
 30
0.0
 10
1048.8309487237
 20
43.7575411053
 30
0.0
 10
1048.8309487237
 20
43.7575411053
 30
0.0
 10
1050.1072871492
 20
45.2550207999
 30
0.0
 10
1050.1072871492
 20
45.2550207999
 30
0.0
 10
1050.1072871492
 20
45.2550207999
 30
0.0
 10
1049.2750632014
 20
46.1160323684
 30
0.0
 10
1049.2750632014
 20
46.1160323684
 30
0.0
 10
1049.2750632014
 20
46.1160323684
 30
0.0
 10
1048.0544680781
 20
44.700728246
 30
0.0
 10
1048.0544680781
 20
44.700728246
 30
0.0
 10
1048.0544680781
 20
44.700728246
 30
0.0
 10
1045.8765537093
 20
47.3361040804
 30
0.0
 10
1045.8765537093
 20
47.3361040804
 30
0.0
 10
1046.7501271488
 20
47.9741424403
 30
0.0
 10
1047.7767983899
 20
48.7651477491
 30
0.0
 10
1047.7767983899
 20
49.9440008222
 30
0.0
 10
1047.7767983899
 20
51.3176937473
 30
0.0
 10
1046.6389022501
 20
52.1221768967
 30
0.0
 10
1045.3636106472
 20
52.1221768967
 30
0.0
 10
1043.9901794278
 20
52.1221768967
 30
0.0
 10
1042.9492452291
 20
51.2759516971
 30
0.0
 10
1042.9492452291
 20
49.8332993349
 30
0.0
 10
1042.9492452291
 20
48.9457246435
 30
0.0
 10
1043.5045846055
 20
48.1688514394
 30
0.0
 10
1044.1007500624
 20
47.544421773
 30
0.0
 10
1044.1007500624
 20
47.544421773
 30
0.0
 10
1043.4488413033
 20
47.0728282026
 30
0.0
 10
1043.4488413033
 20
47.0728282026
 30
0.0
 10
1042.4503034189
 20
46.351567448
 30
0.0
 10
1041.6174252071
 20
45.6303066933
 30
0.0
 10
1041.6174252071
 20
44.2987483769
 30
0.0
 10
1041.6174252071
 20
42.4950730789
 30
0.0
 10
1043.0744713797
 20
41.2184729478
 30
0.0
 10
1044.8220108171
 20
41.2184729478
 30
0.0
 10
1046.056868898
 20
41.2184729478
 30
0.0
 10
1047.1662391226
 20
41.9266484203
 30
0.0
 10
1047.9571135786
 20
42.855180045
 30
0.0
 10
1047.9571135786
 20
42.855180045
 30
0.0
 10
1049.0947480128
 20
41.4403993339
 30
0.0
 10
1049.0947480128
 20
41.4403993339
 30
0.0
  0
LINE
  5
265
330
227
100
AcDbEntity
  8
0
  6
Continuous
 62
     7
100
AcDbLine
 10
1034.8976093878
 20
39.4142742385
 30
0.0
 11
1057.3115201154
 21
39.4142742385
 31
0.0
  0
LINE
  5
266
330
227
100
AcDbEntity
  8
0
  6
Continuous
 62
     7
100
AcDbLine
 10
1057.3115201154
 20
39.4142742385
 30
0.0
 11
1057.3115201154
 21
61.8281849662
 31
0.0
  0
LINE
  5
267
330
227
100
AcDbEntity
  8
0
  6
Continuous
 62
     7
100
AcDbLine
 10
1057.3115201154
 20
61.8281849662
 30
0.0
 11
1034.8976093878
 21
61.8281849662
 31
0.0
  0
LINE
  5
268
330
227
100
AcDbEntity
  8
0
  6
Continuous
 62
     7
100
AcDbLine
 10
1034.8976093878
 20
61.8281849662
 30
0.0
 11
1034.8976093878
 21
39.4142742385
 31
0.0
  0
ENDBLK
  5
269
330
227
100
AcDbEntity
  8
0
  6
ByBlock
 62
     0
100
AcDbBlockEnd
  0
BLOCK
  5
26A
330
228
100
AcDbEntity
  8
0
100
AcDbBlockBegin
  2
PROIEZIONE_EU_BL0
 70
     0
 10
1047.2784522804
 20
74.3294974662
 30
0.0
  3
PROIEZIONE_EU_BL0
  1

  0
LWPOLYLINE
  5
26B
330
228
100
AcDbEntity
  8
DEFAULT_1
  6
CENTER
 62
     7
100
AcDbPolyline
 90
        2
 70
     0
 43
0.25
 10
1053.4050729421
 20
79.329191598
 10
1053.4051139244
 20
69.3298033343
  0
LWPOLYLINE
  5
26C
330
228
100
AcDbEntity
  8
DEFAULT_1
  6
CENTER
 62
     7
100
AcDbPolyline
 90
        2
 70
     0
 43
0.25
 10
1059.4051027671
 20
74.3297686013
 10
1035.1518017937
 20
74.3294979409
  0
LWPOLYLINE
  5
26D
330
228
100
AcDbEntity
  8
0
  6
Continuous
 62
     7
100
AcDbPolyline
 90
        2
 70
     1
 43
0.25
 10
1049.8579627663
 20
74.310949712
 42
1.0
 10
1056.9642918649
 20
74.310949712
 42
1.0
  0
LWPOLYLINE
  5
26E
330
228
100
AcDbEntity
  8
0
  6
Continuous
 62
     7
100
AcDbPolyline
 90
        2
 70
     1
 43
0.25
 10
1051.4077065946
 20
74.3288477566
 42
1.0
 10
1055.4194583447
 20
74.3288477566
 42
1.0
  0
LWPOLYLINE
  5
26F
330
228
100
AcDbEntity
  8
0
  6
Continuous
 62
     7
100
AcDbPolyline
 90
        2
 70
     0
 43
0.25
 10
1047.4051005611
 20
77.9047009614
 10
1047.4051002065
 20
70.8044980531
  0
LWPOLYLINE
  5
270
330
228
100
AcDbEntity
  8
0
  6
Continuous
 62
     7
100
AcDbPolyline
 90
        2
 70
     0
 43
0.25
 10
1047.4051286429
 20
70.8044696167
 10
1037.4105713717
 20
72.3245630296
  0
LWPOLYLINE
  5
271
330
228
100
AcDbEntity
  8
0
  6
Continuous
 62
     7
100
AcDbPolyline
 90
        2
 70
     0
 43
0.25
 10
1037.4082613861
 20
72.323885488
 10
1037.405594482
 20
76.3295240994
  0
LWPOLYLINE
  5
272
330
228
100
AcDbEntity
  8
0
  6
Continuous
 62
     7
100
AcDbPolyline
 90
        2
 70
     0
 43
0.25
 10
1037.405586206
 20
76.3295158234
 10
1047.4053294433
 20
77.9046730434
  0
ENDBLK
  5
273
330
228
100
AcDbEntity
  8
0
  6
ByBlock
 62
     0
100
AcDbBlockEnd
  0
ENDSEC
  0
SECTION
  2
ENTITIES
  0
LINE
  5
2B2
330
1B
100
AcDbEntity
 67
     1
  8
0
  6
Continuous
 62
     7
100
AcDbLine
 10
0.0
 20
0.0
 30
0.0
 11
1189.0
 21
0.0
 31
0.0
  0
LINE
  5
2B3
330
1B
100
AcDbEntity
 67
     1
  8
0
  6
Continuous
 62
     7
100
AcDbLine
 10
1189.0
 20
0.0
 30
0.0
 11
1189.0
 21
841.0
 31
0.0
  0
LINE
  5
2B4
330
1B
100
AcDbEntity
 67
     1
  8
0
  6
Continuous
 62
     7
100
AcDbLine
 10
0.0
 20
841.0
 30
0.0
 11
1189.0
 21
841.0
 31
0.0
  0
LINE
  5
2B5
330
1B
100
AcDbEntity
 67
     1
  8
0
  6
Continuous
 62
     7
100
AcDbLine
 10
0.0
 20
0.0
 30
0.0
 11
0.0
 21
841.0
 31
0.0
  0
VIEWPORT
  5
2B6
330
1B
100
AcDbEntity
 67
     1
  8
0
100
AcDbViewport
 10
0.0
 20
0.0
 30
0.0
 40
1401.884824902724
 41
991.332840466926
 68
     1
 69
     1
 12
662.6556420233462
 22
420.4999999999999
 13
0.0
 23
0.0
 14
1.0
 24
1.0
 15
0.0
 25
0.0
 16
0.0
 26
0.0
 36
1.0
 17
0.0
 27
0.0
 37
0.0
 42
50.0
 43
0.0
 44
0.0
 45
991.332840466926
 50
0.0
 51
0.0
 72
   100
 90
   557216
  1

281
     0
 71
     1
 74
     0
110
0.0
120
0.0
130
0.0
111
1.0
121
0.0
131
0.0
112
0.0
122
1.0
132
0.0
 79
     0
146
0.0
170
     0
 61
     5
348
576
292
     1
282
     1
141
0.0
142
0.0
 63
   256
  0
SPLINE
  5
2B7
330
1B
100
AcDbEntity
 67
     1
  8
0
  6
Continuous
 62
     2
100
AcDbSpline
 70
     0
 71
     3
 72
   244
 73
   240
 74
     0
 42
0.000000001
 43
0.0000001
 40
0.0
 40
0.0
 40
0.0
 40
0.0
 40
0.015625
 40
0.0234375
 40
0.03125
 40
0.0390625
 40
0.046875
 40
0.05078125
 40
0.0546875
 40
0.056640625
 40
0.05859375
 40
0.060546875
 40
0.0615234375
 40
0.0620117188
 40
0.0625
 40
0.0629882812
 40
0.0634765625
 40
0.064453125
 40
0.06640625
 40
0.068359375
 40
0.0703125
 40
0.07421875
 40
0.078125
 40
0.0859375
 40
0.09375
 40
0.1015625
 40
0.109375
 40
0.11328125
 40
0.1171875
 40
0.119140625
 40
0.12109375
 40
0.123046875
 40
0.1240234375
 40
0.1245117188
 40
0.125
 40
0.1254882812
 40
0.1259765625
 40
0.126953125
 40
0.12890625
 40
0.130859375
 40
0.1328125
 40
0.13671875
 40
0.140625
 40
0.1484375
 40
0.15625
 40
0.1640625
 40
0.171875
 40
0.17578125
 40
0.1796875
 40
0.181640625
 40
0.18359375
 40
0.185546875
 40
0.1865234375
 40
0.1870117188
 40
0.1875
 40
0.1879882812
 40
0.1884765625
 40
0.189453125
 40
0.19140625
 40
0.193359375
 40
0.1953125
 40
0.19921875
 40
0.203125
 40
0.2109375
 40
0.21875
 40
0.2265625
 40
0.234375
 40
0.23828125
 40
0.2421875
 40
0.24609375
 40
0.248046875
 40
0.2490234375
 40
0.25
 40
0.2509765625
 40
0.251953125
 40
0.25390625
 40
0.2578125
 40
0.26171875
 40
0.265625
 40
0.2734375
 40
0.28125
 40
0.2890625
 40
0.296875
 40
0.30078125
 40
0.3046875
 40
0.30859375
 40
0.310546875
 40
0.3115234375
 40
0.3125
 40
0.3134765625
 40
0.314453125
 40
0.31640625
 40
0.3203125
 40
0.32421875
 40
0.328125
 40
0.3359375
 40
0.34375
 40
0.3515625
 40
0.359375
 40
0.3671875
 40
0.37109375
 40
0.373046875
 40
0.375
 40
0.376953125
 40
0.37890625
 40
0.3828125
 40
0.390625
 40
0.3984375
 40
0.40625
 40
0.421875
 40
0.4296875
 40
0.43359375
 40
0.435546875
 40
0.4375
 40
0.439453125
 40
0.44140625
 40
0.4453125
 40
0.453125
 40
0.4609375
 40
0.46875
 40
0.484375
 40
0.4921875
 40
0.5
 40
0.5078125
 40
0.515625
 40
0.53125
 40
0.546875
 40
0.5546875
 40
0.55859375
 40
0.5625
 40
0.56640625
 40
0.5703125
 40
0.578125
 40
0.59375
 40
0.6015625
 40
0.609375
 40
0.6171875
 40
0.62109375
 40
0.623046875
 40
0.625
 40
0.626953125
 40
0.62890625
 40
0.6328125
 40
0.640625
 40
0.6484375
 40
0.65625
 40
0.6640625
 40
0.671875
 40
0.67578125
 40
0.6796875
 40
0.68359375
 40
0.685546875
 40
0.6865234375
 40
0.6875
 40
0.6884765625
 40
0.689453125
 40
0.69140625
 40
0.6953125
 40
0.69921875
 40
0.703125
 40
0.7109375
 40
0.71875
 40
0.7265625
 40
0.734375
 40
0.73828125
 40
0.7421875
 40
0.74609375
 40
0.748046875
 40
0.7490234375
 40
0.75
 40
0.7509765625
 40
0.751953125
 40
0.75390625
 40
0.7578125
 40
0.76171875
 40
0.765625
 40
0.7734375
 40
0.78125
 40
0.7890625
 40
0.796875
 40
0.80078125
 40
0.8046875
 40
0.806640625
 40
0.80859375
 40
0.810546875
 40
0.8115234375
 40
0.8125
 40
0.8134765625
 40
0.814453125
 40
0.81640625
 40
0.818359375
 40
0.8203125
 40
0.82421875
 40
0.828125
 40
0.8359375
 40
0.84375
 40
0.8515625
 40
0.859375
 40
0.86328125
 40
0.8671875
 40
0.869140625
 40
0.87109375
 40
0.873046875
 40
0.8740234375
 40
0.8745117188
 40
0.875
 40
0.8754882812
 40
0.8759765625
 40
0.876953125
 40
0.87890625
 40
0.880859375
 40
0.8828125
 40
0.88671875
 40
0.890625
 40
0.8984375
 40
0.90625
 40
0.9140625
 40
0.921875
 40
0.92578125
 40
0.9296875
 40
0.931640625
 40
0.93359375
 40
0.935546875
 40
0.9365234375
 40
0.9370117188
 40
0.9375
 40
0.9379882812
 40
0.9384765625
 40
0.939453125
 40
0.94140625
 40
0.943359375
 40
0.9453125
 40
0.94921875
 40
0.953125
 40
0.9609375
 40
0.96875
 40
0.9765625
 40
0.984375
 40
1.0
 40
1.0
 40
1.0
 40
1.0
 10
119.7733324587
 20
143.7805109797
 30
0.0
 10
119.7754848332
 20
143.7765433038
 30
0.0
 10
119.7787133949
 20
143.770591793
 30
0.0
 10
119.7830181438
 20
143.7626564326
 30
0.0
 10
119.7862467057
 20
143.756704944
 30
0.0
 10
119.7894752664
 20
143.7507533349
 30
0.0
 10
119.7921657376
 20
143.7457940359
 30
0.0
 10
119.7943181057
 20
143.7418257564
 30
0.0
 10
119.795663356
 20
143.739347495
 30
0.0
 10
119.79673951
 20
143.7373605039
 30
0.0
 10
119.7975467519
 20
143.7358822587
 30
0.0
 10
119.7982190515
 20
143.7346122196
 30
0.0
 10
119.7986904501
 20
143.7337980961
 30
0.0
 10
119.7989585889
 20
143.7332159266
 30
0.0
 10
119.799163163
 20
143.7331087664
 30
0.0
 10
119.7993544732
 20
143.7317422163
 30
0.0
 10
119.79961418
 20
143.7303594387
 30
0.0
 10
119.8000665114
 20
143.727734905
 30
0.0
 10
119.8007138261
 20
143.7240925764
 30
0.0
 10
119.8014901214
 20
143.7196759805
 30
0.0
 10
119.8025253502
 20
143.7138031835
 30
0.0
 10
119.8038193285
 20
143.7064567095
 30
0.0
 10
119.8058897261
 20
143.6947054135
 30
0.0
 10
119.8084777118
 20
143.6800152362
 30
0.0
 10
119.8115833001
 20
143.6623875051
 30
0.0
 10
119.8146888847
 20
143.6447595391
 30
0.0
 10
119.8172768799
 20
143.6300699489
 30
0.0
 10
119.8193472586
 20
143.6183174788
 30
0.0
 10
119.8206412848
 20
143.610973989
 30
0.0
 10
119.8216764153
 20
143.605095067
 30
0.0
 10
119.822453011
 20
143.6006971837
 30
0.0
 10
119.8230993855
 20
143.5969963077
 30
0.0
 10
119.8235533953
 20
143.594476291
 30
0.0
 10
119.8238104129
 20
143.5929260509
 30
0.0
 10
119.8240099838
 20
143.5920738921
 30
0.0
 10
119.8241835321
 20
143.5900347635
 30
0.0
 10
119.8244240069
 20
143.5877299537
 30
0.0
 10
119.8248406086
 20
143.5835036332
 30
0.0
 10
119.8254379649
 20
143.5775668845
 30
0.0
 10
119.8261538461
 20
143.5703996182
 30
0.0
 10
119.827108685
 20
143.5608583408
 30
0.0
 10
119.8283021203
 20
143.5489265813
 30
0.0
 10
119.8302116802
 20
143.5298386524
 30
0.0
 10
119.8325986081
 20
143.5059777446
 30
0.0
 10
119.8354629318
 20
143.4773451101
 30
0.0
 10
119.8383272498
 20
143.448712251
 30
0.0
 10
119.840714192
 20
143.4248519045
 30
0.0
 10
119.8426237233
 20
143.4057628529
 30
0.0
 10
119.8438172311
 20
143.3938339471
 30
0.0
 10
119.8447719213
 20
143.3842868125
 30
0.0
 10
119.8454882567
 20
143.3771374404
 30
0.0
 10
119.8460841919
 20
143.3711447052
 30
0.0
 10
119.8465033305
 20
143.3670183301
 30
0.0
 10
119.8467397405
 20
143.3645533825
 30
0.0
 10
119.8469257745
 20
143.3630061461
 30
0.0
 10
119.8470784514
 20
143.3603065221
 30
0.0
 10
119.847293656
 20
143.3571089892
 30
0.0
 10
119.8476648428
 20
143.3513260233
 30
0.0
 10
119.8481979438
 20
143.3431625572
 30
0.0
 10
119.848836452
 20
143.3333244877
 30
0.0
 10
119.8496882199
 20
143.3202217003
 30
0.0
 10
119.8507527847
 20
143.3038382025
 30
0.0
 10
119.8524561699
 20
143.2776274148
 30
0.0
 10
119.8545853704
 20
143.2448629184
 30
0.0
 10
119.8571404375
 20
143.2055461664
 30
0.0
 10
119.8596954478
 20
143.1662284585
 30
0.0
 10
119.8618247905
 20
143.1334663519
 30
0.0
 10
119.8635278913
 20
143.1072507846
 30
0.0
 10
119.8648062363
 20
143.0876051652
 30
0.0
 10
119.8658682814
 20
143.0711827462
 30
0.0
 10
119.8666180761
 20
143.0597872743
 30
0.0
 10
119.8670365946
 20
143.0531190889
 30
0.0
 10
119.8673784722
 20
143.0485587767
 30
0.0
 10
119.867613363
 20
143.0423134004
 30
0.0
 10
119.867963869
 20
143.0345740012
 30
0.0
 10
119.8685598672
 20
143.0207561999
 30
0.0
 10
119.8694203834
 20
143.0011596575
 30
0.0
 10
119.8704491119
 20
142.9775825221
 30
0.0
 10
119.8718221095
 20
142.9461677549
 30
0.0
 10
119.8735378867
 20
142.9068919072
 30
0.0
 10
119.8755970349
 20
142.8597642359
 30
0.0
 10
119.8776560726
 20
142.8126350027
 30
0.0
 10
119.8793721263
 20
142.7733630596
 30
0.0
 10
119.8807445709
 20
142.7419404832
 30
0.0
 10
119.881774986
 20
142.7183871661
 30
0.0
 10
119.8826302256
 20
142.6987161103
 30
0.0
 10
119.8832356435
 20
142.6850313267
 30
0.0
 10
119.8835710568
 20
142.6770787998
 30
0.0
 10
119.8838523073
 20
142.6714880834
 30
0.0
 10
119.8840200655
 20
142.6644689772
 30
0.0
 10
119.8842833304
 20
142.6556084074
 30
0.0
 10
119.8847255994
 20
142.6398702713
 30
0.0
 10
119.8853670556
 20
142.6175085865
 30
0.0
 10
119.8861326744
 20
142.5906226074
 30
0.0
 10
119.8871549468
 20
142.5547928258
 30
0.0
 10
119.8884322532
 20
142.509999063
 30
0.0
 10
119.8899654139
 20
142.4562506335
 30
0.0
 10
119.891497857
 20
142.4024963176
 30
0.0
 10
119.8930327774
 20
142.3487614616
 30
0.0
 10
119.894304218
 20
142.3039224541
 30
0.0
 10
119.8952092281
 20
142.2726525528
 30
0.0
 10
119.8957029574
 20
142.254600762
 30
0.0
 10
119.896139226
 20
142.2415782023
 30
0.0
 10
119.8963233181
 20
142.2265821472
 30
0.0
 10
119.8966567357
 20
142.2072757819
 30
0.0
 10
119.8971992381
 20
142.1731689402
 30
0.0
 10
119.8979956303
 20
142.1246123529
 30
0.0
 10
119.8989422996
 20
142.0662736156
 30
0.0
 10
119.9002069029
 20
141.9885091318
 30
0.0
 10
119.9014752437
 20
141.9107633174
 30
0.0
 10
119.9025736708
 20
141.84267327
 30
0.0
 10
119.9031383058
 20
141.8087137682
 30
0.0
 10
119.9034361421
 20
141.7891706524
 30
0.0
 10
119.90372955
 20
141.7749019395
 30
0.0
 10
119.9037552413
 20
141.7591475737
 30
0.0
 10
119.9038828752
 20
141.738659971
 30
0.0
 10
119.9040627641
 20
141.7025651581
 30
0.0
 10
119.9043421825
 20
141.6511278902
 30
0.0
 10
119.9046691611
 20
141.5893467851
 30
0.0
 10
119.9051016646
 20
141.5070022901
 30
0.0
 10
119.9055716231
 20
141.4245886917
 30
0.0
 10
119.9059318176
 20
141.3423596694
 30
0.0
 10
119.9064938002
 20
141.2802032777
 30
0.0
 10
119.9059433181
 20
141.2198930981
 30
0.0
 10
119.9055974068
 20
141.1388367005
 30
0.0
 10
119.9050356929
 20
141.0377218585
 30
0.0
 10
119.904506197
 20
140.9365879274
 30
0.0
 10
119.9041584194
 20
140.8656903043
 30
0.0
 10
119.903910819
 20
140.8253611687
 30
0.0
 10
119.9038651955
 20
140.7945926189
 30
0.0
 10
119.9032837
 20
140.7658189656
 30
0.0
 10
119.9026953129
 20
140.7267581515
 30
0.0
 10
119.9015783155
 20
140.658726991
 30
0.0
 10
119.9003396914
 20
140.5808345398
 30
0.0
 10
119.8990870285
 20
140.5029980184
 30
0.0
 10
119.8981517034
 20
140.4445953915
 30
0.0
 10
119.8973642084
 20
140.3959873509
 30
0.0
 10
119.8968280571
 20
140.3618450515
 30
0.0
 10
119.8964982247
 20
140.342516929
 30
0.0
 10
119.8963169183
 20
140.3275088829
 30
0.0
 10
119.8958830702
 20
140.3144577724
 30
0.0
 10
119.8953926955
 20
140.2963736902
 30
0.0
 10
119.8944934968
 20
140.2650445876
 30
0.0
 10
119.8932303892
 20
140.2201224153
 30
0.0
 10
119.8917054548
 20
140.1662871517
 30
0.0
 10
119.8901830025
 20
140.1124326134
 30
0.0
 10
119.8886598271
 20
140.058583831
 30
0.0
 10
119.8873908562
 20
140.0137067218
 30
0.0
 10
119.8863752203
 20
139.9778096537
 30
0.0
 10
119.8856146657
 20
139.9508748691
 30
0.0
 10
119.8849771538
 20
139.9284672355
 30
0.0
 10
119.884538187
 20
139.9127072923
 30
0.0
 10
119.8842759641
 20
139.9038180896
 30
0.0
 10
119.8841113679
 20
139.8968230644
 30
0.0
 10
119.8838241799
 20
139.8910822926
 30
0.0
 10
119.883484024
 20
139.8829904325
 30
0.0
 10
119.8828688277
 20
139.8690335158
 30
0.0
 10
119.8820003922
 20
139.8489884938
 30
0.0
 10
119.8809538109
 20
139.8249800845
 30
0.0
 10
119.879559927
 20
139.7929529293
 30
0.0
 10
119.8778170351
 20
139.7529245135
 30
0.0
 10
119.8757258062
 20
139.7048877937
 30
0.0
 10
119.8736344709
 20
139.656852712
 30
0.0
 10
119.8718918451
 20
139.6168202007
 30
0.0
 10
119.870497429
 20
139.5848012365
 30
0.0
 10
119.8694524712
 20
139.5607678447
 30
0.0
 10
119.8685789566
 20
139.5408009784
 30
0.0
 10
119.8679728272
 20
139.5267045418
 30
0.0
 10
119.867618144
 20
139.5188362275
 30
0.0
 10
119.8673755793
 20
139.5124087947
 30
0.0
 10
119.8670433854
 20
139.5079927541
 30
0.0
 10
119.8666317238
 20
139.5014031038
 30
0.0
 10
119.8658967499
 20
139.4901981024
 30
0.0
 10
119.8648544024
 20
139.4740200575
 30
0.0
 10
119.8636003259
 20
139.4546795543
 30
0.0
 10
119.8619293624
 20
139.4288666663
 30
0.0
 10
119.8598402679
 20
139.3966093076
 30
0.0
 10
119.8573335193
 20
139.3578967966
 30
0.0
 10
119.8548267359
 20
139.3191850057
 30
0.0
 10
119.8527377282
 20
139.2869258469
 30
0.0
 10
119.8510665913
 20
139.2611165592
 30
0.0
 10
119.8500219682
 20
139.2449903225
 30
0.0
 10
119.8491866426
 20
139.2320788598
 30
0.0
 10
119.8485591272
 20
139.2224239419
 30
0.0
 10
119.8480394463
 20
139.214286944
 30
0.0
 10
119.8476164155
 20
139.2079819652
 30
0.0
 10
119.8473190514
 20
139.2026941123
 30
0.0
 10
119.8469456943
 20
139.1995404247
 30
0.0
 10
119.8464744302
 20
139.1945900162
 30
0.0
 10
119.8458762425
 20
139.18865778
 30
0.0
 10
119.8451623156
 20
139.181429617
 30
0.0
 10
119.8442090514
 20
139.1718303053
 30
0.0
 10
119.8430179374
 20
139.1598180726
 30
0.0
 10
119.8411118945
 20
139.1406058173
 30
0.0
 10
119.8387294301
 20
139.1165879937
 30
0.0
 10
119.8358704351
 20
139.0877676509
 30
0.0
 10
119.833011448
 20
139.058947133
 30
0.0
 10
119.8306289641
 20
139.0349297474
 30
0.0
 10
119.82872296
 20
139.0157166161
 30
0.0
 10
119.8275317473
 20
139.0037066098
 30
0.0
 10
119.8265786858
 20
138.9941027286
 30
0.0
 10
119.8258641397
 20
138.9868885258
 30
0.0
 10
119.8252678892
 20
138.9809126114
 30
0.0
 10
119.8248520748
 20
138.9766589769
 30
0.0
 10
119.8246120294
 20
138.9743383999
 30
0.0
 10
119.8244388607
 20
138.9722878945
 30
0.0
 10
119.8242394493
 20
138.9714226439
 30
0.0
 10
119.8239827211
 20
138.9698555463
 30
0.0
 10
119.8235291819
 20
138.9673057502
 30
0.0
 10
119.8228834985
 20
138.9635624781
 30
0.0
 10
119.822107724
 20
138.959113657
 30
0.0
 10
119.8210736914
 20
138.9531668397
 30
0.0
 10
119.8197810365
 20
138.9457384734
 30
0.0
 10
119.8177128525
 20
138.933850205
 30
0.0
 10
119.8151276005
 20
138.9189908655
 30
0.0
 10
119.8120253079
 20
138.901159201
 30
0.0
 10
119.808923011
 20
138.883327771
 30
0.0
 10
119.80633777
 20
138.8684678451
 30
0.0
 10
119.8042695639
 20
138.8565807495
 30
0.0
 10
119.8029769651
 20
138.8491494023
 30
0.0
 10
119.8019428173
 20
138.8432087031
 30
0.0
 10
119.8011673947
 20
138.8387411907
 30
0.0
 10
119.8005206105
 20
138.835056399
 30
0.0
 10
119.8000690365
 20
138.8324022055
 30
0.0
 10
119.7998091596
 20
138.8310023789
 30
0.0
 10
119.7996194201
 20
138.8296233254
 30
0.0
 10
119.7994099249
 20
138.8295025785
 30
0.0
 10
119.7991374889
 20
138.8289026711
 30
0.0
 10
119.7986575153
 20
138.8280573303
 30
0.0
 10
119.7979735172
 20
138.8267427872
 30
0.0
 10
119.7971520011
 20
138.8252110977
 30
0.0
 10
119.7960568972
 20
138.8231528613
 30
0.0
 10
119.7946879314
 20
138.8205855386
 30
0.0
 10
119.7924976342
 20
138.8164747636
 30
0.0
 10
119.7897597462
 20
138.8113373444
 30
0.0
 10
119.7864742876
 20
138.8051719914
 30
0.0
 10
119.7831888271
 20
138.7990067588
 30
0.0
 10
119.7788082139
 20
138.7907864064
 30
0.0
 10
119.7755227538
 20
138.7846211517
 30
0.0
 10
119.7733324471
 20
138.7805109797
 30
0.0
  0
SPLINE
  5
2B8
330
1B
100
AcDbEntity
 67
     1
  8
0
  6
Continuous
 62
     2
100
AcDbSpline
 70
     0
 71
     3
 72
   244
 73
   240
 74
     0
 42
0.000000001
 43
0.0000001
 40
0.0
 40
0.0
 40
0.0
 40
0.0
 40
0.015625
 40
0.0234375
 40
0.03125
 40
0.0390625
 40
0.046875
 40
0.05078125
 40
0.0546875
 40
0.056640625
 40
0.05859375
 40
0.060546875
 40
0.0615234375
 40
0.0620117188
 40
0.0625
 40
0.0629882812
 40
0.0634765625
 40
0.064453125
 40
0.06640625
 40
0.068359375
 40
0.0703125
 40
0.07421875
 40
0.078125
 40
0.0859375
 40
0.09375
 40
0.1015625
 40
0.109375
 40
0.11328125
 40
0.1171875
 40
0.119140625
 40
0.12109375
 40
0.123046875
 40
0.1240234375
 40
0.1245117188
 40
0.125
 40
0.1254882812
 40
0.1259765625
 40
0.126953125
 40
0.12890625
 40
0.130859375
 40
0.1328125
 40
0.13671875
 40
0.140625
 40
0.1484375
 40
0.15625
 40
0.1640625
 40
0.171875
 40
0.17578125
 40
0.1796875
 40
0.181640625
 40
0.18359375
 40
0.185546875
 40
0.1865234375
 40
0.1870117188
 40
0.1875
 40
0.1879882812
 40
0.1884765625
 40
0.189453125
 40
0.19140625
 40
0.193359375
 40
0.1953125
 40
0.19921875
 40
0.203125
 40
0.2109375
 40
0.21875
 40
0.2265625
 40
0.234375
 40
0.23828125
 40
0.2421875
 40
0.24609375
 40
0.248046875
 40
0.2490234375
 40
0.25
 40
0.2509765625
 40
0.251953125
 40
0.25390625
 40
0.2578125
 40
0.26171875
 40
0.265625
 40
0.2734375
 40
0.28125
 40
0.2890625
 40
0.296875
 40
0.30078125
 40
0.3046875
 40
0.30859375
 40
0.310546875
 40
0.3115234375
 40
0.3125
 40
0.3134765625
 40
0.314453125
 40
0.31640625
 40
0.3203125
 40
0.32421875
 40
0.328125
 40
0.3359375
 40
0.34375
 40
0.3515625
 40
0.359375
 40
0.3671875
 40
0.37109375
 40
0.373046875
 40
0.375
 40
0.376953125
 40
0.37890625
 40
0.3828125
 40
0.390625
 40
0.3984375
 40
0.40625
 40
0.421875
 40
0.4296875
 40
0.43359375
 40
0.435546875
 40
0.4375
 40
0.439453125
 40
0.44140625
 40
0.4453125
 40
0.453125
 40
0.4609375
 40
0.46875
 40
0.484375
 40
0.4921875
 40
0.5
 40
0.5078125
 40
0.515625
 40
0.53125
 40
0.546875
 40
0.5546875
 40
0.55859375
 40
0.5625
 40
0.56640625
 40
0.5703125
 40
0.578125
 40
0.59375
 40
0.6015625
 40
0.609375
 40
0.6171875
 40
0.62109375
 40
0.623046875
 40
0.625
 40
0.626953125
 40
0.62890625
 40
0.6328125
 40
0.640625
 40
0.6484375
 40
0.65625
 40
0.6640625
 40
0.671875
 40
0.67578125
 40
0.6796875
 40
0.68359375
 40
0.685546875
 40
0.6865234375
 40
0.6875
 40
0.6884765625
 40
0.689453125
 40
0.69140625
 40
0.6953125
 40
0.69921875
 40
0.703125
 40
0.7109375
 40
0.71875
 40
0.7265625
 40
0.734375
 40
0.73828125
 40
0.7421875
 40
0.74609375
 40
0.748046875
 40
0.7490234375
 40
0.75
 40
0.7509765625
 40
0.751953125
 40
0.75390625
 40
0.7578125
 40
0.76171875
 40
0.765625
 40
0.7734375
 40
0.78125
 40
0.7890625
 40
0.796875
 40
0.80078125
 40
0.8046875
 40
0.806640625
 40
0.80859375
 40
0.810546875
 40
0.8115234375
 40
0.8125
 40
0.8134765625
 40
0.814453125
 40
0.81640625
 40
0.818359375
 40
0.8203125
 40
0.82421875
 40
0.828125
 40
0.8359375
 40
0.84375
 40
0.8515625
 40
0.859375
 40
0.86328125
 40
0.8671875
 40
0.869140625
 40
0.87109375
 40
0.873046875
 40
0.8740234375
 40
0.8745117188
 40
0.875
 40
0.8754882812
 40
0.8759765625
 40
0.876953125
 40
0.87890625
 40
0.880859375
 40
0.8828125
 40
0.88671875
 40
0.890625
 40
0.8984375
 40
0.90625
 40
0.9140625
 40
0.921875
 40
0.92578125
 40
0.9296875
 40
0.931640625
 40
0.93359375
 40
0.935546875
 40
0.9365234375
 40
0.9370117188
 40
0.9375
 40
0.9379882812
 40
0.9384765625
 40
0.939453125
 40
0.94140625
 40
0.943359375
 40
0.9453125
 40
0.94921875
 40
0.953125
 40
0.9609375
 40
0.96875
 40
0.9765625
 40
0.984375
 40
1.0
 40
1.0
 40
1.0
 40
1.0
 10
119.7733324587
 20
62.7805109797
 30
0.0
 10
119.7754848332
 20
62.7765433038
 30
0.0
 10
119.7787133949
 20
62.770591793
 30
0.0
 10
119.7830181438
 20
62.7626564326
 30
0.0
 10
119.7862467057
 20
62.756704944
 30
0.0
 10
119.7894752664
 20
62.7507533349
 30
0.0
 10
119.7921657376
 20
62.7457940359
 30
0.0
 10
119.7943181057
 20
62.7418257564
 30
0.0
 10
119.795663356
 20
62.739347495
 30
0.0
 10
119.79673951
 20
62.7373605039
 30
0.0
 10
119.7975467519
 20
62.7358822587
 30
0.0
 10
119.7982190515
 20
62.7346122196
 30
0.0
 10
119.7986904501
 20
62.7337980961
 30
0.0
 10
119.7989585889
 20
62.7332159266
 30
0.0
 10
119.799163163
 20
62.7331087664
 30
0.0
 10
119.7993544732
 20
62.7317422163
 30
0.0
 10
119.79961418
 20
62.7303594387
 30
0.0
 10
119.8000665114
 20
62.727734905
 30
0.0
 10
119.8007138261
 20
62.7240925764
 30
0.0
 10
119.8014901214
 20
62.7196759805
 30
0.0
 10
119.8025253502
 20
62.7138031835
 30
0.0
 10
119.8038193285
 20
62.7064567095
 30
0.0
 10
119.8058897261
 20
62.6947054135
 30
0.0
 10
119.8084777118
 20
62.6800152362
 30
0.0
 10
119.8115833001
 20
62.6623875051
 30
0.0
 10
119.8146888847
 20
62.6447595391
 30
0.0
 10
119.8172768799
 20
62.6300699489
 30
0.0
 10
119.8193472586
 20
62.6183174788
 30
0.0
 10
119.8206412848
 20
62.610973989
 30
0.0
 10
119.8216764153
 20
62.605095067
 30
0.0
 10
119.822453011
 20
62.6006971837
 30
0.0
 10
119.8230993855
 20
62.5969963077
 30
0.0
 10
119.8235533953
 20
62.594476291
 30
0.0
 10
119.8238104129
 20
62.5929260509
 30
0.0
 10
119.8240099838
 20
62.5920738921
 30
0.0
 10
119.8241835321
 20
62.5900347635
 30
0.0
 10
119.8244240069
 20
62.5877299537
 30
0.0
 10
119.8248406086
 20
62.5835036332
 30
0.0
 10
119.8254379649
 20
62.5775668845
 30
0.0
 10
119.8261538461
 20
62.5703996182
 30
0.0
 10
119.827108685
 20
62.5608583408
 30
0.0
 10
119.8283021203
 20
62.5489265813
 30
0.0
 10
119.8302116802
 20
62.5298386524
 30
0.0
 10
119.8325986081
 20
62.5059777446
 30
0.0
 10
119.8354629318
 20
62.4773451101
 30
0.0
 10
119.8383272498
 20
62.448712251
 30
0.0
 10
119.840714192
 20
62.4248519045
 30
0.0
 10
119.8426237233
 20
62.4057628529
 30
0.0
 10
119.8438172311
 20
62.3938339471
 30
0.0
 10
119.8447719213
 20
62.3842868125
 30
0.0
 10
119.8454882567
 20
62.3771374404
 30
0.0
 10
119.8460841919
 20
62.3711447052
 30
0.0
 10
119.8465033305
 20
62.3670183301
 30
0.0
 10
119.8467397405
 20
62.3645533825
 30
0.0
 10
119.8469257745
 20
62.3630061461
 30
0.0
 10
119.8470784514
 20
62.3603065221
 30
0.0
 10
119.847293656
 20
62.3571089892
 30
0.0
 10
119.8476648428
 20
62.3513260233
 30
0.0
 10
119.8481979438
 20
62.3431625572
 30
0.0
 10
119.848836452
 20
62.3333244877
 30
0.0
 10
119.8496882199
 20
62.3202217003
 30
0.0
 10
119.8507527847
 20
62.3038382025
 30
0.0
 10
119.8524561699
 20
62.2776274148
 30
0.0
 10
119.8545853704
 20
62.2448629184
 30
0.0
 10
119.8571404375
 20
62.2055461664
 30
0.0
 10
119.8596954478
 20
62.1662284585
 30
0.0
 10
119.8618247905
 20
62.1334663519
 30
0.0
 10
119.8635278913
 20
62.1072507846
 30
0.0
 10
119.8648062363
 20
62.0876051652
 30
0.0
 10
119.8658682814
 20
62.0711827462
 30
0.0
 10
119.8666180761
 20
62.0597872743
 30
0.0
 10
119.8670365946
 20
62.0531190889
 30
0.0
 10
119.8673784722
 20
62.0485587767
 30
0.0
 10
119.867613363
 20
62.0423134004
 30
0.0
 10
119.867963869
 20
62.0345740012
 30
0.0
 10
119.8685598672
 20
62.0207561999
 30
0.0
 10
119.8694203834
 20
62.0011596575
 30
0.0
 10
119.8704491119
 20
61.9775825221
 30
0.0
 10
119.8718221095
 20
61.9461677549
 30
0.0
 10
119.8735378867
 20
61.9068919072
 30
0.0
 10
119.8755970349
 20
61.8597642359
 30
0.0
 10
119.8776560726
 20
61.8126350027
 30
0.0
 10
119.8793721263
 20
61.7733630596
 30
0.0
 10
119.8807445709
 20
61.7419404832
 30
0.0
 10
119.881774986
 20
61.7183871661
 30
0.0
 10
119.8826302256
 20
61.6987161103
 30
0.0
 10
119.8832356435
 20
61.6850313267
 30
0.0
 10
119.8835710568
 20
61.6770787998
 30
0.0
 10
119.8838523073
 20
61.6714880834
 30
0.0
 10
119.8840200655
 20
61.6644689772
 30
0.0
 10
119.8842833304
 20
61.6556084074
 30
0.0
 10
119.8847255994
 20
61.6398702713
 30
0.0
 10
119.8853670556
 20
61.6175085865
 30
0.0
 10
119.8861326744
 20
61.5906226074
 30
0.0
 10
119.8871549468
 20
61.5547928258
 30
0.0
 10
119.8884322532
 20
61.509999063
 30
0.0
 10
119.8899654139
 20
61.4562506335
 30
0.0
 10
119.891497857
 20
61.4024963176
 30
0.0
 10
119.8930327774
 20
61.3487614616
 30
0.0
 10
119.894304218
 20
61.3039224541
 30
0.0
 10
119.8952092281
 20
61.2726525528
 30
0.0
 10
119.8957029574
 20
61.254600762
 30
0.0
 10
119.896139226
 20
61.2415782023
 30
0.0
 10
119.8963233181
 20
61.2265821472
 30
0.0
 10
119.8966567357
 20
61.2072757819
 30
0.0
 10
119.8971992381
 20
61.1731689402
 30
0.0
 10
119.8979956303
 20
61.1246123529
 30
0.0
 10
119.8989422996
 20
61.0662736156
 30
0.0
 10
119.9002069029
 20
60.9885091318
 30
0.0
 10
119.9014752437
 20
60.9107633174
 30
0.0
 10
119.9025736708
 20
60.84267327
 30
0.0
 10
119.9031383058
 20
60.8087137682
 30
0.0
 10
119.9034361421
 20
60.7891706524
 30
0.0
 10
119.90372955
 20
60.7749019395
 30
0.0
 10
119.9037552413
 20
60.7591475737
 30
0.0
 10
119.9038828752
 20
60.738659971
 30
0.0
 10
119.9040627641
 20
60.7025651581
 30
0.0
 10
119.9043421825
 20
60.6511278902
 30
0.0
 10
119.9046691611
 20
60.5893467851
 30
0.0
 10
119.9051016646
 20
60.5070022901
 30
0.0
 10
119.9055716231
 20
60.4245886917
 30
0.0
 10
119.9059318176
 20
60.3423596694
 30
0.0
 10
119.9064938002
 20
60.2802032777
 30
0.0
 10
119.9059433181
 20
60.2198930981
 30
0.0
 10
119.9055974068
 20
60.1388367005
 30
0.0
 10
119.9050356929
 20
60.0377218585
 30
0.0
 10
119.904506197
 20
59.9365879274
 30
0.0
 10
119.9041584194
 20
59.8656903043
 30
0.0
 10
119.903910819
 20
59.8253611687
 30
0.0
 10
119.9038651955
 20
59.7945926189
 30
0.0
 10
119.9032837
 20
59.7658189656
 30
0.0
 10
119.9026953129
 20
59.7267581515
 30
0.0
 10
119.9015783155
 20
59.658726991
 30
0.0
 10
119.9003396914
 20
59.5808345398
 30
0.0
 10
119.8990870285
 20
59.5029980184
 30
0.0
 10
119.8981517034
 20
59.4445953915
 30
0.0
 10
119.8973642084
 20
59.3959873509
 30
0.0
 10
119.8968280571
 20
59.3618450515
 30
0.0
 10
119.8964982247
 20
59.342516929
 30
0.0
 10
119.8963169183
 20
59.3275088829
 30
0.0
 10
119.8958830702
 20
59.3144577724
 30
0.0
 10
119.8953926955
 20
59.2963736902
 30
0.0
 10
119.8944934968
 20
59.2650445876
 30
0.0
 10
119.8932303892
 20
59.2201224153
 30
0.0
 10
119.8917054548
 20
59.1662871517
 30
0.0
 10
119.8901830025
 20
59.1124326134
 30
0.0
 10
119.8886598271
 20
59.058583831
 30
0.0
 10
119.8873908562
 20
59.0137067218
 30
0.0
 10
119.8863752203
 20
58.9778096537
 30
0.0
 10
119.8856146657
 20
58.9508748691
 30
0.0
 10
119.8849771538
 20
58.9284672355
 30
0.0
 10
119.884538187
 20
58.9127072923
 30
0.0
 10
119.8842759641
 20
58.9038180896
 30
0.0
 10
119.8841113679
 20
58.8968230644
 30
0.0
 10
119.8838241799
 20
58.8910822926
 30
0.0
 10
119.883484024
 20
58.8829904325
 30
0.0
 10
119.8828688277
 20
58.8690335158
 30
0.0
 10
119.8820003922
 20
58.8489884938
 30
0.0
 10
119.8809538109
 20
58.8249800845
 30
0.0
 10
119.879559927
 20
58.7929529293
 30
0.0
 10
119.8778170351
 20
58.7529245135
 30
0.0
 10
119.8757258062
 20
58.7048877937
 30
0.0
 10
119.8736344709
 20
58.656852712
 30
0.0
 10
119.8718918451
 20
58.6168202007
 30
0.0
 10
119.870497429
 20
58.5848012365
 30
0.0
 10
119.8694524712
 20
58.5607678447
 30
0.0
 10
119.8685789566
 20
58.5408009784
 30
0.0
 10
119.8679728272
 20
58.5267045418
 30
0.0
 10
119.867618144
 20
58.5188362275
 30
0.0
 10
119.8673755793
 20
58.5124087947
 30
0.0
 10
119.8670433854
 20
58.5079927541
 30
0.0
 10
119.8666317238
 20
58.5014031038
 30
0.0
 10
119.8658967499
 20
58.4901981024
 30
0.0
 10
119.8648544024
 20
58.4740200575
 30
0.0
 10
119.8636003259
 20
58.4546795543
 30
0.0
 10
119.8619293624
 20
58.4288666663
 30
0.0
 10
119.8598402679
 20
58.3966093076
 30
0.0
 10
119.8573335193
 20
58.3578967966
 30
0.0
 10
119.8548267359
 20
58.3191850057
 30
0.0
 10
119.8527377282
 20
58.2869258469
 30
0.0
 10
119.8510665913
 20
58.2611165592
 30
0.0
 10
119.8500219682
 20
58.2449903225
 30
0.0
 10
119.8491866426
 20
58.2320788598
 30
0.0
 10
119.8485591272
 20
58.2224239419
 30
0.0
 10
119.8480394463
 20
58.214286944
 30
0.0
 10
119.8476164155
 20
58.2079819652
 30
0.0
 10
119.8473190514
 20
58.2026941123
 30
0.0
 10
119.8469456943
 20
58.1995404247
 30
0.0
 10
119.8464744302
 20
58.1945900162
 30
0.0
 10
119.8458762425
 20
58.18865778
 30
0.0
 10
119.8451623156
 20
58.181429617
 30
0.0
 10
119.8442090514
 20
58.1718303053
 30
0.0
 10
119.8430179374
 20
58.1598180726
 30
0.0
 10
119.8411118945
 20
58.1406058173
 30
0.0
 10
119.8387294301
 20
58.1165879937
 30
0.0
 10
119.8358704351
 20
58.0877676509
 30
0.0
 10
119.833011448
 20
58.058947133
 30
0.0
 10
119.8306289641
 20
58.0349297474
 30
0.0
 10
119.82872296
 20
58.0157166161
 30
0.0
 10
119.8275317473
 20
58.0037066098
 30
0.0
 10
119.8265786858
 20
57.9941027286
 30
0.0
 10
119.8258641397
 20
57.9868885258
 30
0.0
 10
119.8252678892
 20
57.9809126114
 30
0.0
 10
119.8248520748
 20
57.9766589769
 30
0.0
 10
119.8246120294
 20
57.9743383999
 30
0.0
 10
119.8244388607
 20
57.9722878945
 30
0.0
 10
119.8242394493
 20
57.9714226439
 30
0.0
 10
119.8239827211
 20
57.9698555463
 30
0.0
 10
119.8235291819
 20
57.9673057502
 30
0.0
 10
119.8228834985
 20
57.9635624781
 30
0.0
 10
119.822107724
 20
57.959113657
 30
0.0
 10
119.8210736914
 20
57.9531668397
 30
0.0
 10
119.8197810365
 20
57.9457384734
 30
0.0
 10
119.8177128525
 20
57.933850205
 30
0.0
 10
119.8151276005
 20
57.9189908655
 30
0.0
 10
119.8120253079
 20
57.901159201
 30
0.0
 10
119.808923011
 20
57.883327771
 30
0.0
 10
119.80633777
 20
57.8684678451
 30
0.0
 10
119.8042695639
 20
57.8565807495
 30
0.0
 10
119.8029769651
 20
57.8491494023
 30
0.0
 10
119.8019428173
 20
57.8432087031
 30
0.0
 10
119.8011673947
 20
57.8387411907
 30
0.0
 10
119.8005206105
 20
57.835056399
 30
0.0
 10
119.8000690365
 20
57.8324022055
 30
0.0
 10
119.7998091596
 20
57.8310023789
 30
0.0
 10
119.7996194201
 20
57.8296233254
 30
0.0
 10
119.7994099249
 20
57.8295025785
 30
0.0
 10
119.7991374889
 20
57.8289026711
 30
0.0
 10
119.7986575153
 20
57.8280573303
 30
0.0
 10
119.7979735172
 20
57.8267427872
 30
0.0
 10
119.7971520011
 20
57.8252110977
 30
0.0
 10
119.7960568972
 20
57.8231528613
 30
0.0
 10
119.7946879314
 20
57.8205855386
 30
0.0
 10
119.7924976342
 20
57.8164747636
 30
0.0
 10
119.7897597462
 20
57.8113373444
 30
0.0
 10
119.7864742876
 20
57.8051719914
 30
0.0
 10
119.7831888271
 20
57.7990067588
 30
0.0
 10
119.7788082139
 20
57.7907864064
 30
0.0
 10
119.7755227538
 20
57.7846211517
 30
0.0
 10
119.7733324471
 20
57.7805109797
 30
0.0
  0
SPLINE
  5
2B9
330
1B
100
AcDbEntity
 67
     1
  8
0
  6
Continuous
 62
     2
100
AcDbSpline
 70
     0
 71
     3
 72
   244
 73
   240
 74
     0
 42
0.000000001
 43
0.0000001
 40
0.0
 40
0.0
 40
0.0
 40
0.0
 40
0.015625
 40
0.0234375
 40
0.03125
 40
0.0390625
 40
0.046875
 40
0.05078125
 40
0.0546875
 40
0.056640625
 40
0.05859375
 40
0.060546875
 40
0.0615234375
 40
0.0620117188
 40
0.0625
 40
0.0629882812
 40
0.0634765625
 40
0.064453125
 40
0.06640625
 40
0.068359375
 40
0.0703125
 40
0.07421875
 40
0.078125
 40
0.0859375
 40
0.09375
 40
0.1015625
 40
0.109375
 40
0.11328125
 40
0.1171875
 40
0.119140625
 40
0.12109375
 40
0.123046875
 40
0.1240234375
 40
0.1245117188
 40
0.125
 40
0.1254882812
 40
0.1259765625
 40
0.126953125
 40
0.12890625
 40
0.130859375
 40
0.1328125
 40
0.13671875
 40
0.140625
 40
0.1484375
 40
0.15625
 40
0.1640625
 40
0.171875
 40
0.17578125
 40
0.1796875
 40
0.181640625
 40
0.18359375
 40
0.185546875
 40
0.1865234375
 40
0.1870117188
 40
0.1875
 40
0.1879882812
 40
0.1884765625
 40
0.189453125
 40
0.19140625
 40
0.193359375
 40
0.1953125
 40
0.19921875
 40
0.203125
 40
0.2109375
 40
0.21875
 40
0.2265625
 40
0.234375
 40
0.23828125
 40
0.2421875
 40
0.24609375
 40
0.248046875
 40
0.2490234375
 40
0.25
 40
0.2509765625
 40
0.251953125
 40
0.25390625
 40
0.2578125
 40
0.26171875
 40
0.265625
 40
0.2734375
 40
0.28125
 40
0.2890625
 40
0.296875
 40
0.30078125
 40
0.3046875
 40
0.30859375
 40
0.310546875
 40
0.3115234375
 40
0.3125
 40
0.3134765625
 40
0.314453125
 40
0.31640625
 40
0.3203125
 40
0.32421875
 40
0.328125
 40
0.3359375
 40
0.34375
 40
0.3515625
 40
0.359375
 40
0.3671875
 40
0.37109375
 40
0.373046875
 40
0.375
 40
0.376953125
 40
0.37890625
 40
0.3828125
 40
0.390625
 40
0.3984375
 40
0.40625
 40
0.421875
 40
0.4296875
 40
0.43359375
 40
0.435546875
 40
0.4375
 40
0.439453125
 40
0.44140625
 40
0.4453125
 40
0.453125
 40
0.4609375
 40
0.46875
 40
0.484375
 40
0.4921875
 40
0.5
 40
0.5078125
 40
0.515625
 40
0.53125
 40
0.546875
 40
0.5546875
 40
0.55859375
 40
0.5625
 40
0.56640625
 40
0.5703125
 40
0.578125
 40
0.59375
 40
0.6015625
 40
0.609375
 40
0.6171875
 40
0.62109375
 40
0.623046875
 40
0.625
 40
0.626953125
 40
0.62890625
 40
0.6328125
 40
0.640625
 40
0.6484375
 40
0.65625
 40
0.6640625
 40
0.671875
 40
0.67578125
 40
0.6796875
 40
0.68359375
 40
0.685546875
 40
0.6865234375
 40
0.6875
 40
0.6884765625
 40
0.689453125
 40
0.69140625
 40
0.6953125
 40
0.69921875
 40
0.703125
 40
0.7109375
 40
0.71875
 40
0.7265625
 40
0.734375
 40
0.73828125
 40
0.7421875
 40
0.74609375
 40
0.748046875
 40
0.7490234375
 40
0.75
 40
0.7509765625
 40
0.751953125
 40
0.75390625
 40
0.7578125
 40
0.76171875
 40
0.765625
 40
0.7734375
 40
0.78125
 40
0.7890625
 40
0.796875
 40
0.80078125
 40
0.8046875
 40
0.806640625
 40
0.80859375
 40
0.810546875
 40
0.8115234375
 40
0.8125
 40
0.8134765625
 40
0.814453125
 40
0.81640625
 40
0.818359375
 40
0.8203125
 40
0.82421875
 40
0.828125
 40
0.8359375
 40
0.84375
 40
0.8515625
 40
0.859375
 40
0.86328125
 40
0.8671875
 40
0.869140625
 40
0.87109375
 40
0.873046875
 40
0.8740234375
 40
0.8745117188
 40
0.875
 40
0.8754882812
 40
0.8759765625
 40
0.876953125
 40
0.87890625
 40
0.880859375
 40
0.8828125
 40
0.88671875
 40
0.890625
 40
0.8984375
 40
0.90625
 40
0.9140625
 40
0.921875
 40
0.92578125
 40
0.9296875
 40
0.931640625
 40
0.93359375
 40
0.935546875
 40
0.9365234375
 40
0.9370117188
 40
0.9375
 40
0.9379882812
 40
0.9384765625
 40
0.939453125
 40
0.94140625
 40
0.943359375
 40
0.9453125
 40
0.94921875
 40
0.953125
 40
0.9609375
 40
0.96875
 40
0.9765625
 40
0.984375
 40
1.0
 40
1.0
 40
1.0
 40
1.0
 10
214.0052781832
 20
57.7805109797
 30
0.0
 10
214.0031258087
 20
57.7844786557
 30
0.0
 10
213.999897247
 20
57.7904301665
 30
0.0
 10
213.9955924981
 20
57.7983655269
 30
0.0
 10
213.9923639362
 20
57.8043170155
 30
0.0
 10
213.9891353755
 20
57.8102686246
 30
0.0
 10
213.9864449043
 20
57.8152279235
 30
0.0
 10
213.9842925361
 20
57.8191962031
 30
0.0
 10
213.9829472859
 20
57.8216744644
 30
0.0
 10
213.9818711319
 20
57.8236614556
 30
0.0
 10
213.98106389
 20
57.8251397008
 30
0.0
 10
213.9803915904
 20
57.8264097398
 30
0.0
 10
213.9799201918
 20
57.8272238634
 30
0.0
 10
213.979652053
 20
57.8278060329
 30
0.0
 10
213.9794474789
 20
57.827913193
 30
0.0
 10
213.9792561687
 20
57.8292797432
 30
0.0
 10
213.9789964618
 20
57.8306625207
 30
0.0
 10
213.9785441305
 20
57.8332870545
 30
0.0
 10
213.9778968158
 20
57.836929383
 30
0.0
 10
213.9771205205
 20
57.841345979
 30
0.0
 10
213.9760852917
 20
57.847218776
 30
0.0
 10
213.9747913134
 20
57.85456525
 30
0.0
 10
213.9727209158
 20
57.8663165459
 30
0.0
 10
213.9701329301
 20
57.8810067233
 30
0.0
 10
213.9670273418
 20
57.8986344544
 30
0.0
 10
213.9639217572
 20
57.9162624203
 30
0.0
 10
213.961333762
 20
57.9309520106
 30
0.0
 10
213.9592633833
 20
57.9427044807
 30
0.0
 10
213.9579693571
 20
57.9500479705
 30
0.0
 10
213.9569342266
 20
57.9559268925
 30
0.0
 10
213.9561576309
 20
57.9603247758
 30
0.0
 10
213.9555112564
 20
57.9640256518
 30
0.0
 10
213.9550572466
 20
57.9665456685
 30
0.0
 10
213.954800229
 20
57.9680959086
 30
0.0
 10
213.9546006581
 20
57.9689480674
 30
0.0
 10
213.9544271098
 20
57.970987196
 30
0.0
 10
213.954186635
 20
57.9732920057
 30
0.0
 10
213.9537700333
 20
57.9775183263
 30
0.0
 10
213.953172677
 20
57.9834550749
 30
0.0
 10
213.9524567958
 20
57.9906223412
 30
0.0
 10
213.9515019569
 20
58.0001636186
 30
0.0
 10
213.9503085216
 20
58.0120953782
 30
0.0
 10
213.9483989617
 20
58.031183307
 30
0.0
 10
213.9460120338
 20
58.0550442149
 30
0.0
 10
213.9431477101
 20
58.0836768494
 30
0.0
 10
213.9402833921
 20
58.1123097085
 30
0.0
 10
213.9378964499
 20
58.1361700549
 30
0.0
 10
213.9359869186
 20
58.1552591066
 30
0.0
 10
213.9347934108
 20
58.1671880124
 30
0.0
 10
213.9338387206
 20
58.1767351469
 30
0.0
 10
213.9331223852
 20
58.183884519
 30
0.0
 10
213.93252645
 20
58.1898772543
 30
0.0
 10
213.9321073113
 20
58.1940036293
 30
0.0
 10
213.9318709013
 20
58.1964685769
 30
0.0
 10
213.9316848673
 20
58.1980158134
 30
0.0
 10
213.9315321905
 20
58.2007154373
 30
0.0
 10
213.9313169859
 20
58.2039129703
 30
0.0
 10
213.9309457991
 20
58.2096959362
 30
0.0
 10
213.930412698
 20
58.2178594022
 30
0.0
 10
213.9297741899
 20
58.2276974717
 30
0.0
 10
213.9289224219
 20
58.2408002592
 30
0.0
 10
213.9278578572
 20
58.2571837569
 30
0.0
 10
213.926154472
 20
58.2833945446
 30
0.0
 10
213.9240252715
 20
58.316159041
 30
0.0
 10
213.9214702044
 20
58.355475793
 30
0.0
 10
213.9189151941
 20
58.394793501
 30
0.0
 10
213.9167858514
 20
58.4275556076
 30
0.0
 10
213.9150827506
 20
58.4537711749
 30
0.0
 10
213.9138044056
 20
58.4734167943
 30
0.0
 10
213.9127423605
 20
58.4898392132
 30
0.0
 10
213.9119925658
 20
58.5012346852
 30
0.0
 10
213.9115740473
 20
58.5079028706
 30
0.0
 10
213.9112321697
 20
58.5124631827
 30
0.0
 10
213.9109972789
 20
58.5187085591
 30
0.0
 10
213.9106467729
 20
58.5264479583
 30
0.0
 10
213.9100507747
 20
58.5402657595
 30
0.0
 10
213.9091902585
 20
58.559862302
 30
0.0
 10
213.90816153
 20
58.5834394373
 30
0.0
 10
213.9067885324
 20
58.6148542045
 30
0.0
 10
213.9050727552
 20
58.6541300523
 30
0.0
 10
213.903013607
 20
58.7012577236
 30
0.0
 10
213.9009545693
 20
58.7483869567
 30
0.0
 10
213.8992385156
 20
58.7876588998
 30
0.0
 10
213.897866071
 20
58.8190814763
 30
0.0
 10
213.8968356559
 20
58.8426347934
 30
0.0
 10
213.8959804163
 20
58.8623058492
 30
0.0
 10
213.8953749984
 20
58.8759906327
 30
0.0
 10
213.8950395851
 20
58.8839431596
 30
0.0
 10
213.8947583345
 20
58.889533876
 30
0.0
 10
213.8945905764
 20
58.8965529822
 30
0.0
 10
213.8943273115
 20
58.9054135521
 30
0.0
 10
213.8938850425
 20
58.9211516881
 30
0.0
 10
213.8932435863
 20
58.9435133729
 30
0.0
 10
213.8924779675
 20
58.9703993521
 30
0.0
 10
213.8914556951
 20
59.0062291337
 30
0.0
 10
213.8901783887
 20
59.0510228965
 30
0.0
 10
213.888645228
 20
59.104771326
 30
0.0
 10
213.8871127849
 20
59.1585256419
 30
0.0
 10
213.8855778645
 20
59.2122604979
 30
0.0
 10
213.8843064239
 20
59.2570995054
 30
0.0
 10
213.8834014138
 20
59.2883694067
 30
0.0
 10
213.8829076844
 20
59.3064211974
 30
0.0
 10
213.8824714159
 20
59.3194437572
 30
0.0
 10
213.8822873238
 20
59.3344398123
 30
0.0
 10
213.8819539062
 20
59.3537461776
 30
0.0
 10
213.8814114038
 20
59.3878530193
 30
0.0
 10
213.8806150116
 20
59.4364096066
 30
0.0
 10
213.8796683423
 20
59.4947483439
 30
0.0
 10
213.878403739
 20
59.5725128277
 30
0.0
 10
213.8771353982
 20
59.650258642
 30
0.0
 10
213.8760369711
 20
59.7183486895
 30
0.0
 10
213.8754723361
 20
59.7523081912
 30
0.0
 10
213.8751744998
 20
59.7718513071
 30
0.0
 10
213.8748810919
 20
59.7861200199
 30
0.0
 10
213.8748554006
 20
59.8018743858
 30
0.0
 10
213.8747277667
 20
59.8223619885
 30
0.0
 10
213.8745478778
 20
59.8584568014
 30
0.0
 10
213.8742684594
 20
59.9098940692
 30
0.0
 10
213.8739414808
 20
59.9716751744
 30
0.0
 10
213.8735089773
 20
60.0540196694
 30
0.0
 10
213.8730390188
 20
60.1364332678
 30
0.0
 10
213.8726788243
 20
60.21866229
 30
0.0
 10
213.8721168417
 20
60.2808186817
 30
0.0
 10
213.8726673238
 20
60.3411288614
 30
0.0
 10
213.8730132351
 20
60.422185259
 30
0.0
 10
213.873574949
 20
60.5233001009
 30
0.0
 10
213.8741044449
 20
60.624434032
 30
0.0
 10
213.8744522225
 20
60.6953316551
 30
0.0
 10
213.8746998229
 20
60.7356607907
 30
0.0
 10
213.8747454464
 20
60.7664293405
 30
0.0
 10
213.8753269419
 20
60.7952029938
 30
0.0
 10
213.875915329
 20
60.8342638079
 30
0.0
 10
213.8770323264
 20
60.9022949685
 30
0.0
 10
213.8782709505
 20
60.9801874196
 30
0.0
 10
213.8795236134
 20
61.0580239411
 30
0.0
 10
213.8804589385
 20
61.1164265679
 30
0.0
 10
213.8812464335
 20
61.1650346085
 30
0.0
 10
213.8817825848
 20
61.199176908
 30
0.0
 10
213.8821124172
 20
61.2185050304
 30
0.0
 10
213.8822937236
 20
61.2335130765
 30
0.0
 10
213.8827275717
 20
61.2465641871
 30
0.0
 10
213.8832179464
 20
61.2646482692
 30
0.0
 10
213.8841171451
 20
61.2959773719
 30
0.0
 10
213.8853802527
 20
61.3408995442
 30
0.0
 10
213.8869051871
 20
61.3947348077
 30
0.0
 10
213.8884276394
 20
61.448589346
 30
0.0
 10
213.8899508148
 20
61.5024381285
 30
0.0
 10
213.8912197857
 20
61.5473152377
 30
0.0
 10
213.8922354216
 20
61.5832123058
 30
0.0
 10
213.8929959762
 20
61.6101470904
 30
0.0
 10
213.893633488
 20
61.6325547239
 30
0.0
 10
213.8940724549
 20
61.6483146671
 30
0.0
 10
213.8943346778
 20
61.6572038698
 30
0.0
 10
213.894499274
 20
61.6641988951
 30
0.0
 10
213.894786462
 20
61.6699396669
 30
0.0
 10
213.8951266179
 20
61.6780315269
 30
0.0
 10
213.8957418142
 20
61.6919884437
 30
0.0
 10
213.8966102497
 20
61.7120334657
 30
0.0
 10
213.897656831
 20
61.736041875
 30
0.0
 10
213.8990507148
 20
61.7680690301
 30
0.0
 10
213.9007936068
 20
61.808097446
 30
0.0
 10
213.9028848357
 20
61.8561341658
 30
0.0
 10
213.904976171
 20
61.9041692474
 30
0.0
 10
213.9067187968
 20
61.9442017588
 30
0.0
 10
213.9081132129
 20
61.9762207229
 30
0.0
 10
213.9091581707
 20
62.0002541148
 30
0.0
 10
213.9100316853
 20
62.020220981
 30
0.0
 10
213.9106378147
 20
62.0343174177
 30
0.0
 10
213.9109924979
 20
62.0421857319
 30
0.0
 10
213.9112350626
 20
62.0486131647
 30
0.0
 10
213.9115672565
 20
62.0530292054
 30
0.0
 10
213.911978918
 20
62.0596188557
 30
0.0
 10
213.912713892
 20
62.0708238571
 30
0.0
 10
213.9137562394
 20
62.087001902
 30
0.0
 10
213.915010316
 20
62.1063424052
 30
0.0
 10
213.9166812795
 20
62.1321552932
 30
0.0
 10
213.918770374
 20
62.1644126519
 30
0.0
 10
213.9212771226
 20
62.2031251628
 30
0.0
 10
213.9237839059
 20
62.2418369537
 30
0.0
 10
213.9258729137
 20
62.2740961126
 30
0.0
 10
213.9275440506
 20
62.2999054002
 30
0.0
 10
213.9285886737
 20
62.3160316369
 30
0.0
 10
213.9294239993
 20
62.3289430996
 30
0.0
 10
213.9300515147
 20
62.3385980176
 30
0.0
 10
213.9305711956
 20
62.3467350155
 30
0.0
 10
213.9309942264
 20
62.3530399943
 30
0.0
 10
213.9312915904
 20
62.3583278471
 30
0.0
 10
213.9316649475
 20
62.3614815347
 30
0.0
 10
213.9321362117
 20
62.3664319432
 30
0.0
 10
213.9327343994
 20
62.3723641794
 30
0.0
 10
213.9334483263
 20
62.3795923424
 30
0.0
 10
213.9344015905
 20
62.3891916542
 30
0.0
 10
213.9355927045
 20
62.4012038868
 30
0.0
 10
213.9374987474
 20
62.4204161422
 30
0.0
 10
213.9398812118
 20
62.4444339658
 30
0.0
 10
213.9427402068
 20
62.4732543085
 30
0.0
 10
213.9455991939
 20
62.5020748265
 30
0.0
 10
213.9479816778
 20
62.526092212
 30
0.0
 10
213.9498876819
 20
62.5453053434
 30
0.0
 10
213.9510788946
 20
62.5573153497
 30
0.0
 10
213.9520319561
 20
62.5669192309
 30
0.0
 10
213.9527465022
 20
62.5741334337
 30
0.0
 10
213.9533427527
 20
62.580109348
 30
0.0
 10
213.9537585671
 20
62.5843629826
 30
0.0
 10
213.9539986125
 20
62.5866835596
 30
0.0
 10
213.9541717812
 20
62.588734065
 30
0.0
 10
213.9543711926
 20
62.5895993156
 30
0.0
 10
213.9546279208
 20
62.5911664132
 30
0.0
 10
213.95508146
 20
62.5937162092
 30
0.0
 10
213.9557271434
 20
62.5974594814
 30
0.0
 10
213.9565029178
 20
62.6019083024
 30
0.0
 10
213.9575369504
 20
62.6078551197
 30
0.0
 10
213.9588296053
 20
62.6152834861
 30
0.0
 10
213.9608977894
 20
62.6271717544
 30
0.0
 10
213.9634830414
 20
62.642031094
 30
0.0
 10
213.966585334
 20
62.6598627585
 30
0.0
 10
213.9696876309
 20
62.6776941884
 30
0.0
 10
213.9722728719
 20
62.6925541144
 30
0.0
 10
213.974341078
 20
62.70444121
 30
0.0
 10
213.9756336768
 20
62.7118725571
 30
0.0
 10
213.9766678246
 20
62.7178132564
 30
0.0
 10
213.9774432472
 20
62.7222807687
 30
0.0
 10
213.9780900314
 20
62.7259655604
 30
0.0
 10
213.9785416054
 20
62.7286197539
 30
0.0
 10
213.9788014823
 20
62.7300195805
 30
0.0
 10
213.9789912217
 20
62.7313986341
 30
0.0
 10
213.979200717
 20
62.731519381
 30
0.0
 10
213.979473153
 20
62.7321192883
 30
0.0
 10
213.9799531266
 20
62.7329646292
 30
0.0
 10
213.9806371247
 20
62.7342791723
 30
0.0
 10
213.9814586408
 20
62.7358108618
 30
0.0
 10
213.9825537447
 20
62.7378690982
 30
0.0
 10
213.9839227105
 20
62.7404364208
 30
0.0
 10
213.9861130077
 20
62.7445471959
 30
0.0
 10
213.9888508957
 20
62.7496846151
 30
0.0
 10
213.9921363543
 20
62.7558499681
 30
0.0
 10
213.9954218147
 20
62.7620152007
 30
0.0
 10
213.999802428
 20
62.770235553
 30
0.0
 10
214.0030878881
 20
62.7764008078
 30
0.0
 10
214.0052781948
 20
62.7805109797
 30
0.0
  0
SPLINE
  5
2BA
330
1B
100
AcDbEntity
 67
     1
  8
0
  6
Continuous
 62
     2
100
AcDbSpline
 70
     0
 71
     3
 72
   244
 73
   240
 74
     0
 42
0.000000001
 43
0.0000001
 40
0.0
 40
0.0
 40
0.0
 40
0.0
 40
0.015625
 40
0.0234375
 40
0.03125
 40
0.0390625
 40
0.046875
 40
0.05078125
 40
0.0546875
 40
0.056640625
 40
0.05859375
 40
0.060546875
 40
0.0615234375
 40
0.0620117188
 40
0.0625
 40
0.0629882812
 40
0.0634765625
 40
0.064453125
 40
0.06640625
 40
0.068359375
 40
0.0703125
 40
0.07421875
 40
0.078125
 40
0.0859375
 40
0.09375
 40
0.1015625
 40
0.109375
 40
0.11328125
 40
0.1171875
 40
0.119140625
 40
0.12109375
 40
0.123046875
 40
0.1240234375
 40
0.1245117188
 40
0.125
 40
0.1254882812
 40
0.1259765625
 40
0.126953125
 40
0.12890625
 40
0.130859375
 40
0.1328125
 40
0.13671875
 40
0.140625
 40
0.1484375
 40
0.15625
 40
0.1640625
 40
0.171875
 40
0.17578125
 40
0.1796875
 40
0.181640625
 40
0.18359375
 40
0.185546875
 40
0.1865234375
 40
0.1870117188
 40
0.1875
 40
0.1879882812
 40
0.1884765625
 40
0.189453125
 40
0.19140625
 40
0.193359375
 40
0.1953125
 40
0.19921875
 40
0.203125
 40
0.2109375
 40
0.21875
 40
0.2265625
 40
0.234375
 40
0.23828125
 40
0.2421875
 40
0.24609375
 40
0.248046875
 40
0.2490234375
 40
0.25
 40
0.2509765625
 40
0.251953125
 40
0.25390625
 40
0.2578125
 40
0.26171875
 40
0.265625
 40
0.2734375
 40
0.28125
 40
0.2890625
 40
0.296875
 40
0.30078125
 40
0.3046875
 40
0.30859375
 40
0.310546875
 40
0.3115234375
 40
0.3125
 40
0.3134765625
 40
0.314453125
 40
0.31640625
 40
0.3203125
 40
0.32421875
 40
0.328125
 40
0.3359375
 40
0.34375
 40
0.3515625
 40
0.359375
 40
0.3671875
 40
0.37109375
 40
0.373046875
 40
0.375
 40
0.376953125
 40
0.37890625
 40
0.3828125
 40
0.390625
 40
0.3984375
 40
0.40625
 40
0.421875
 40
0.4296875
 40
0.43359375
 40
0.435546875
 40
0.4375
 40
0.439453125
 40
0.44140625
 40
0.4453125
 40
0.453125
 40
0.4609375
 40
0.46875
 40
0.484375
 40
0.4921875
 40
0.5
 40
0.5078125
 40
0.515625
 40
0.53125
 40
0.546875
 40
0.5546875
 40
0.55859375
 40
0.5625
 40
0.56640625
 40
0.5703125
 40
0.578125
 40
0.59375
 40
0.6015625
 40
0.609375
 40
0.6171875
 40
0.62109375
 40
0.623046875
 40
0.625
 40
0.626953125
 40
0.62890625
 40
0.6328125
 40
0.640625
 40
0.6484375
 40
0.65625
 40
0.6640625
 40
0.671875
 40
0.67578125
 40
0.6796875
 40
0.68359375
 40
0.685546875
 40
0.6865234375
 40
0.6875
 40
0.6884765625
 40
0.689453125
 40
0.69140625
 40
0.6953125
 40
0.69921875
 40
0.703125
 40
0.7109375
 40
0.71875
 40
0.7265625
 40
0.734375
 40
0.73828125
 40
0.7421875
 40
0.74609375
 40
0.748046875
 40
0.7490234375
 40
0.75
 40
0.7509765625
 40
0.751953125
 40
0.75390625
 40
0.7578125
 40
0.76171875
 40
0.765625
 40
0.7734375
 40
0.78125
 40
0.7890625
 40
0.796875
 40
0.80078125
 40
0.8046875
 40
0.806640625
 40
0.80859375
 40
0.810546875
 40
0.8115234375
 40
0.8125
 40
0.8134765625
 40
0.814453125
 40
0.81640625
 40
0.818359375
 40
0.8203125
 40
0.82421875
 40
0.828125
 40
0.8359375
 40
0.84375
 40
0.8515625
 40
0.859375
 40
0.86328125
 40
0.8671875
 40
0.869140625
 40
0.87109375
 40
0.873046875
 40
0.8740234375
 40
0.8745117188
 40
0.875
 40
0.8754882812
 40
0.8759765625
 40
0.876953125
 40
0.87890625
 40
0.880859375
 40
0.8828125
 40
0.88671875
 40
0.890625
 40
0.8984375
 40
0.90625
 40
0.9140625
 40
0.921875
 40
0.92578125
 40
0.9296875
 40
0.931640625
 40
0.93359375
 40
0.935546875
 40
0.9365234375
 40
0.9370117188
 40
0.9375
 40
0.9379882812
 40
0.9384765625
 40
0.939453125
 40
0.94140625
 40
0.943359375
 40
0.9453125
 40
0.94921875
 40
0.953125
 40
0.9609375
 40
0.96875
 40
0.9765625
 40
0.984375
 40
1.0
 40
1.0
 40
1.0
 40
1.0
 10
214.0052781832
 20
138.7805109797
 30
0.0
 10
214.0031258087
 20
138.7844786557
 30
0.0
 10
213.999897247
 20
138.7904301665
 30
0.0
 10
213.9955924981
 20
138.7983655269
 30
0.0
 10
213.9923639362
 20
138.8043170155
 30
0.0
 10
213.9891353755
 20
138.8102686246
 30
0.0
 10
213.9864449043
 20
138.8152279235
 30
0.0
 10
213.9842925361
 20
138.8191962031
 30
0.0
 10
213.9829472859
 20
138.8216744644
 30
0.0
 10
213.9818711319
 20
138.8236614556
 30
0.0
 10
213.98106389
 20
138.8251397008
 30
0.0
 10
213.9803915904
 20
138.8264097398
 30
0.0
 10
213.9799201918
 20
138.8272238634
 30
0.0
 10
213.979652053
 20
138.8278060329
 30
0.0
 10
213.9794474789
 20
138.827913193
 30
0.0
 10
213.9792561687
 20
138.8292797432
 30
0.0
 10
213.9789964618
 20
138.8306625207
 30
0.0
 10
213.9785441305
 20
138.8332870545
 30
0.0
 10
213.9778968158
 20
138.836929383
 30
0.0
 10
213.9771205205
 20
138.841345979
 30
0.0
 10
213.9760852917
 20
138.847218776
 30
0.0
 10
213.9747913134
 20
138.85456525
 30
0.0
 10
213.9727209158
 20
138.8663165459
 30
0.0
 10
213.9701329301
 20
138.8810067233
 30
0.0
 10
213.9670273418
 20
138.8986344544
 30
0.0
 10
213.9639217572
 20
138.9162624203
 30
0.0
 10
213.961333762
 20
138.9309520106
 30
0.0
 10
213.9592633833
 20
138.9427044807
 30
0.0
 10
213.9579693571
 20
138.9500479705
 30
0.0
 10
213.9569342266
 20
138.9559268925
 30
0.0
 10
213.9561576309
 20
138.9603247758
 30
0.0
 10
213.9555112564
 20
138.9640256518
 30
0.0
 10
213.9550572466
 20
138.9665456685
 30
0.0
 10
213.954800229
 20
138.9680959086
 30
0.0
 10
213.9546006581
 20
138.9689480674
 30
0.0
 10
213.9544271098
 20
138.970987196
 30
0.0
 10
213.954186635
 20
138.9732920057
 30
0.0
 10
213.9537700333
 20
138.9775183263
 30
0.0
 10
213.953172677
 20
138.9834550749
 30
0.0
 10
213.9524567958
 20
138.9906223412
 30
0.0
 10
213.9515019569
 20
139.0001636186
 30
0.0
 10
213.9503085216
 20
139.0120953782
 30
0.0
 10
213.9483989617
 20
139.031183307
 30
0.0
 10
213.9460120338
 20
139.0550442149
 30
0.0
 10
213.9431477101
 20
139.0836768494
 30
0.0
 10
213.9402833921
 20
139.1123097085
 30
0.0
 10
213.9378964499
 20
139.1361700549
 30
0.0
 10
213.9359869186
 20
139.1552591066
 30
0.0
 10
213.9347934108
 20
139.1671880124
 30
0.0
 10
213.9338387206
 20
139.1767351469
 30
0.0
 10
213.9331223852
 20
139.183884519
 30
0.0
 10
213.93252645
 20
139.1898772543
 30
0.0
 10
213.9321073113
 20
139.1940036293
 30
0.0
 10
213.9318709013
 20
139.1964685769
 30
0.0
 10
213.9316848673
 20
139.1980158134
 30
0.0
 10
213.9315321905
 20
139.2007154373
 30
0.0
 10
213.9313169859
 20
139.2039129703
 30
0.0
 10
213.9309457991
 20
139.2096959362
 30
0.0
 10
213.930412698
 20
139.2178594022
 30
0.0
 10
213.9297741899
 20
139.2276974717
 30
0.0
 10
213.9289224219
 20
139.2408002592
 30
0.0
 10
213.9278578572
 20
139.2571837569
 30
0.0
 10
213.926154472
 20
139.2833945446
 30
0.0
 10
213.9240252715
 20
139.316159041
 30
0.0
 10
213.9214702044
 20
139.355475793
 30
0.0
 10
213.9189151941
 20
139.394793501
 30
0.0
 10
213.9167858514
 20
139.4275556076
 30
0.0
 10
213.9150827506
 20
139.4537711749
 30
0.0
 10
213.9138044056
 20
139.4734167943
 30
0.0
 10
213.9127423605
 20
139.4898392132
 30
0.0
 10
213.9119925658
 20
139.5012346851
 30
0.0
 10
213.9115740473
 20
139.5079028706
 30
0.0
 10
213.9112321697
 20
139.5124631827
 30
0.0
 10
213.9109972789
 20
139.5187085591
 30
0.0
 10
213.9106467729
 20
139.5264479583
 30
0.0
 10
213.9100507747
 20
139.5402657595
 30
0.0
 10
213.9091902585
 20
139.559862302
 30
0.0
 10
213.90816153
 20
139.5834394373
 30
0.0
 10
213.9067885324
 20
139.6148542045
 30
0.0
 10
213.9050727552
 20
139.6541300523
 30
0.0
 10
213.903013607
 20
139.7012577236
 30
0.0
 10
213.9009545693
 20
139.7483869567
 30
0.0
 10
213.8992385156
 20
139.7876588998
 30
0.0
 10
213.897866071
 20
139.8190814763
 30
0.0
 10
213.8968356559
 20
139.8426347934
 30
0.0
 10
213.8959804163
 20
139.8623058492
 30
0.0
 10
213.8953749984
 20
139.8759906327
 30
0.0
 10
213.8950395851
 20
139.8839431596
 30
0.0
 10
213.8947583345
 20
139.889533876
 30
0.0
 10
213.8945905764
 20
139.8965529822
 30
0.0
 10
213.8943273115
 20
139.9054135521
 30
0.0
 10
213.8938850425
 20
139.9211516881
 30
0.0
 10
213.8932435863
 20
139.9435133729
 30
0.0
 10
213.8924779675
 20
139.9703993521
 30
0.0
 10
213.8914556951
 20
140.0062291337
 30
0.0
 10
213.8901783887
 20
140.0510228965
 30
0.0
 10
213.888645228
 20
140.104771326
 30
0.0
 10
213.8871127849
 20
140.1585256419
 30
0.0
 10
213.8855778645
 20
140.2122604979
 30
0.0
 10
213.8843064239
 20
140.2570995054
 30
0.0
 10
213.8834014138
 20
140.2883694067
 30
0.0
 10
213.8829076844
 20
140.3064211974
 30
0.0
 10
213.8824714159
 20
140.3194437572
 30
0.0
 10
213.8822873238
 20
140.3344398123
 30
0.0
 10
213.8819539062
 20
140.3537461776
 30
0.0
 10
213.8814114038
 20
140.3878530193
 30
0.0
 10
213.8806150116
 20
140.4364096066
 30
0.0
 10
213.8796683423
 20
140.4947483439
 30
0.0
 10
213.878403739
 20
140.5725128277
 30
0.0
 10
213.8771353982
 20
140.650258642
 30
0.0
 10
213.8760369711
 20
140.7183486895
 30
0.0
 10
213.8754723361
 20
140.7523081912
 30
0.0
 10
213.8751744998
 20
140.7718513071
 30
0.0
 10
213.8748810919
 20
140.7861200199
 30
0.0
 10
213.8748554006
 20
140.8018743858
 30
0.0
 10
213.8747277667
 20
140.8223619885
 30
0.0
 10
213.8745478778
 20
140.8584568014
 30
0.0
 10
213.8742684594
 20
140.9098940692
 30
0.0
 10
213.8739414808
 20
140.9716751744
 30
0.0
 10
213.8735089773
 20
141.0540196694
 30
0.0
 10
213.8730390188
 20
141.1364332678
 30
0.0
 10
213.8726788243
 20
141.21866229
 30
0.0
 10
213.8721168417
 20
141.2808186817
 30
0.0
 10
213.8726673238
 20
141.3411288614
 30
0.0
 10
213.8730132351
 20
141.422185259
 30
0.0
 10
213.873574949
 20
141.5233001009
 30
0.0
 10
213.8741044449
 20
141.624434032
 30
0.0
 10
213.8744522225
 20
141.6953316551
 30
0.0
 10
213.8746998229
 20
141.7356607907
 30
0.0
 10
213.8747454464
 20
141.7664293405
 30
0.0
 10
213.8753269419
 20
141.7952029938
 30
0.0
 10
213.875915329
 20
141.8342638079
 30
0.0
 10
213.8770323264
 20
141.9022949685
 30
0.0
 10
213.8782709505
 20
141.9801874196
 30
0.0
 10
213.8795236134
 20
142.0580239411
 30
0.0
 10
213.8804589385
 20
142.1164265679
 30
0.0
 10
213.8812464335
 20
142.1650346085
 30
0.0
 10
213.8817825848
 20
142.199176908
 30
0.0
 10
213.8821124172
 20
142.2185050304
 30
0.0
 10
213.8822937236
 20
142.2335130765
 30
0.0
 10
213.8827275717
 20
142.2465641871
 30
0.0
 10
213.8832179464
 20
142.2646482692
 30
0.0
 10
213.8841171451
 20
142.2959773719
 30
0.0
 10
213.8853802527
 20
142.3408995442
 30
0.0
 10
213.8869051871
 20
142.3947348077
 30
0.0
 10
213.8884276394
 20
142.448589346
 30
0.0
 10
213.8899508148
 20
142.5024381285
 30
0.0
 10
213.8912197857
 20
142.5473152377
 30
0.0
 10
213.8922354216
 20
142.5832123058
 30
0.0
 10
213.8929959762
 20
142.6101470904
 30
0.0
 10
213.893633488
 20
142.6325547239
 30
0.0
 10
213.8940724549
 20
142.6483146671
 30
0.0
 10
213.8943346778
 20
142.6572038698
 30
0.0
 10
213.894499274
 20
142.6641988951
 30
0.0
 10
213.894786462
 20
142.6699396669
 30
0.0
 10
213.8951266179
 20
142.6780315269
 30
0.0
 10
213.8957418142
 20
142.6919884437
 30
0.0
 10
213.8966102497
 20
142.7120334657
 30
0.0
 10
213.897656831
 20
142.736041875
 30
0.0
 10
213.8990507148
 20
142.7680690301
 30
0.0
 10
213.9007936068
 20
142.808097446
 30
0.0
 10
213.9028848357
 20
142.8561341658
 30
0.0
 10
213.904976171
 20
142.9041692474
 30
0.0
 10
213.9067187968
 20
142.9442017588
 30
0.0
 10
213.9081132129
 20
142.9762207229
 30
0.0
 10
213.9091581707
 20
143.0002541148
 30
0.0
 10
213.9100316853
 20
143.020220981
 30
0.0
 10
213.9106378147
 20
143.0343174177
 30
0.0
 10
213.9109924979
 20
143.0421857319
 30
0.0
 10
213.9112350626
 20
143.0486131647
 30
0.0
 10
213.9115672565
 20
143.0530292054
 30
0.0
 10
213.911978918
 20
143.0596188557
 30
0.0
 10
213.912713892
 20
143.0708238571
 30
0.0
 10
213.9137562394
 20
143.087001902
 30
0.0
 10
213.915010316
 20
143.1063424052
 30
0.0
 10
213.9166812795
 20
143.1321552932
 30
0.0
 10
213.918770374
 20
143.1644126519
 30
0.0
 10
213.9212771226
 20
143.2031251628
 30
0.0
 10
213.9237839059
 20
143.2418369537
 30
0.0
 10
213.9258729137
 20
143.2740961126
 30
0.0
 10
213.9275440506
 20
143.2999054002
 30
0.0
 10
213.9285886737
 20
143.3160316369
 30
0.0
 10
213.9294239993
 20
143.3289430996
 30
0.0
 10
213.9300515147
 20
143.3385980176
 30
0.0
 10
213.9305711956
 20
143.3467350155
 30
0.0
 10
213.9309942264
 20
143.3530399943
 30
0.0
 10
213.9312915904
 20
143.3583278471
 30
0.0
 10
213.9316649475
 20
143.3614815347
 30
0.0
 10
213.9321362117
 20
143.3664319432
 30
0.0
 10
213.9327343994
 20
143.3723641794
 30
0.0
 10
213.9334483263
 20
143.3795923424
 30
0.0
 10
213.9344015905
 20
143.3891916542
 30
0.0
 10
213.9355927045
 20
143.4012038868
 30
0.0
 10
213.9374987474
 20
143.4204161422
 30
0.0
 10
213.9398812118
 20
143.4444339658
 30
0.0
 10
213.9427402068
 20
143.4732543085
 30
0.0
 10
213.9455991939
 20
143.5020748265
 30
0.0
 10
213.9479816778
 20
143.526092212
 30
0.0
 10
213.9498876819
 20
143.5453053434
 30
0.0
 10
213.9510788946
 20
143.5573153497
 30
0.0
 10
213.9520319561
 20
143.5669192309
 30
0.0
 10
213.9527465022
 20
143.5741334337
 30
0.0
 10
213.9533427527
 20
143.580109348
 30
0.0
 10
213.9537585671
 20
143.5843629826
 30
0.0
 10
213.9539986125
 20
143.5866835596
 30
0.0
 10
213.9541717812
 20
143.588734065
 30
0.0
 10
213.9543711926
 20
143.5895993156
 30
0.0
 10
213.9546279208
 20
143.5911664132
 30
0.0
 10
213.95508146
 20
143.5937162092
 30
0.0
 10
213.9557271434
 20
143.5974594814
 30
0.0
 10
213.9565029178
 20
143.6019083024
 30
0.0
 10
213.9575369504
 20
143.6078551197
 30
0.0
 10
213.9588296053
 20
143.6152834861
 30
0.0
 10
213.9608977894
 20
143.6271717544
 30
0.0
 10
213.9634830414
 20
143.642031094
 30
0.0
 10
213.966585334
 20
143.6598627585
 30
0.0
 10
213.9696876309
 20
143.6776941884
 30
0.0
 10
213.9722728719
 20
143.6925541144
 30
0.0
 10
213.974341078
 20
143.70444121
 30
0.0
 10
213.9756336768
 20
143.7118725571
 30
0.0
 10
213.9766678246
 20
143.7178132564
 30
0.0
 10
213.9774432472
 20
143.7222807687
 30
0.0
 10
213.9780900314
 20
143.7259655604
 30
0.0
 10
213.9785416054
 20
143.7286197539
 30
0.0
 10
213.9788014823
 20
143.7300195805
 30
0.0
 10
213.9789912217
 20
143.7313986341
 30
0.0
 10
213.979200717
 20
143.731519381
 30
0.0
 10
213.979473153
 20
143.7321192883
 30
0.0
 10
213.9799531266
 20
143.7329646292
 30
0.0
 10
213.9806371247
 20
143.7342791723
 30
0.0
 10
213.9814586408
 20
143.7358108618
 30
0.0
 10
213.9825537447
 20
143.7378690982
 30
0.0
 10
213.9839227105
 20
143.7404364208
 30
0.0
 10
213.9861130077
 20
143.7445471959
 30
0.0
 10
213.9888508957
 20
143.7496846151
 30
0.0
 10
213.9921363543
 20
143.7558499681
 30
0.0
 10
213.9954218147
 20
143.7620152007
 30
0.0
 10
213.999802428
 20
143.770235553
 30
0.0
 10
214.0030878881
 20
143.7764008078
 30
0.0
 10
214.0052781948
 20
143.7805109797
 30
0.0
  0
LINE
  5
2BB
330
1B
100
AcDbEntity
 67
     1
  8
7_ALL_FEATURES
  6
Continuous
 62
     7
100
AcDbLine
 10
119.3893053209
 20
69.7805109797
 30
0.0
 11
119.2414287357
 21
69.7805109797
 31
0.0
  0
LINE
  5
2BC
330
1B
100
AcDbEntity
 67
     1
  8
7_ALL_FEATURES
  6
Continuous
 62
     7
100
AcDbLine
 10
119.2414287357
 20
69.7805109797
 30
0.0
 11
118.8893053209
 21
69.7805109797
 31
0.0
  0
LINE
  5
2BD
330
1B
100
AcDbEntity
 67
     1
  8
7_ALL_FEATURES
  6
Continuous
 62
     7
100
AcDbLine
 10
119.3893053209
 20
145.7805109797
 30
0.0
 11
119.2414287357
 21
145.7805109797
 31
0.0
  0
LINE
  5
2BE
330
1B
100
AcDbEntity
 67
     1
  8
7_ALL_FEATURES
  6
Continuous
 62
     7
100
AcDbLine
 10
119.2414287357
 20
145.7805109797
 30
0.0
 11
118.8893053209
 21
145.7805109797
 31
0.0
  0
LINE
  5
2BF
330
1B
100
AcDbEntity
 67
     1
  8
7_ALL_FEATURES
  6
Continuous
 62
     7
100
AcDbLine
 10
119.3893053209
 20
135.7805109797
 30
0.0
 11
119.2414287357
 21
135.7805109797
 31
0.0
  0
LINE
  5
2C0
330
1B
100
AcDbEntity
 67
     1
  8
7_ALL_FEATURES
  6
Continuous
 62
     7
100
AcDbLine
 10
119.2414287357
 20
135.7805109797
 30
0.0
 11
118.8893053209
 21
135.7805109797
 31
0.0
  0
LINE
  5
2C1
330
1B
100
AcDbEntity
 67
     1
  8
7_ALL_FEATURES
  6
Continuous
 62
     7
100
AcDbLine
 10
214.3893053209
 20
55.7805109797
 30
0.0
 11
214.5371819062
 21
55.7805109797
 31
0.0
  0
LINE
  5
2C2
330
1B
100
AcDbEntity
 67
     1
  8
7_ALL_FEATURES
  6
Continuous
 62
     7
100
AcDbLine
 10
214.5371819062
 20
55.7805109797
 30
0.0
 11
214.8893053209
 21
55.7805109797
 31
0.0
  0
LINE
  5
2C3
330
1B
100
AcDbEntity
 67
     1
  8
7_ALL_FEATURES
  6
Continuous
 62
     7
100
AcDbLine
 10
214.3893053209
 20
65.7805109797
 30
0.0
 11
214.5371819062
 21
65.7805109797
 31
0.0
  0
LINE
  5
2C4
330
1B
100
AcDbEntity
 67
     1
  8
7_ALL_FEATURES
  6
Continuous
 62
     7
100
AcDbLine
 10
214.5371819062
 20
65.7805109797
 30
0.0
 11
214.8893053209
 21
65.7805109797
 31
0.0
  0
LINE
  5
2C5
330
1B
100
AcDbEntity
 67
     1
  8
7_ALL_FEATURES
  6
Continuous
 62
     7
100
AcDbLine
 10
214.3893053209
 20
131.7805109797
 30
0.0
 11
214.5371819062
 21
131.7805109797
 31
0.0
  0
LINE
  5
2C6
330
1B
100
AcDbEntity
 67
     1
  8
7_ALL_FEATURES
  6
Continuous
 62
     7
100
AcDbLine
 10
214.5371819062
 20
131.7805109797
 30
0.0
 11
214.8893053209
 21
131.7805109797
 31
0.0
  0
LINE
  5
2C7
330
1B
100
AcDbEntity
 67
     1
  8
7_ALL_FEATURES
  6
Continuous
 62
     7
100
AcDbLine
 10
216.9549671401
 20
58.7805109797
 30
0.0
 11
217.0470955674
 21
58.7805109797
 31
0.0
  0
LINE
  5
2C8
330
1B
100
AcDbEntity
 67
     1
  8
7_ALL_FEATURES
  6
Continuous
 62
     7
100
AcDbLine
 10
217.0470955674
 20
61.7805109797
 30
0.0
 11
216.9549671401
 21
61.7805109797
 31
0.0
  0
SPLINE
  5
2C9
330
1B
100
AcDbEntity
 67
     1
  8
3_ALL_AXES
  6
Continuous
 62
     7
100
AcDbSpline
 70
     0
 71
     3
 72
    22
 73
    18
 74
     0
 42
0.000000001
 43
0.0000001
 40
0.0
 40
0.0
 40
0.0
 40
0.0
 40
0.1940692692
 40
0.380693058
 40
0.5527379714
 40
0.7036195417
 40
0.7692882695
 40
0.8275890766
 40
0.8779722577
 40
0.9199718476
 40
0.9532198022
 40
0.9664801834
 40
0.977474063
 40
0.9862036745
 40
0.9927127056
 40
0.9971409573
 40
1.0
 40
1.0
 40
1.0
 40
1.0
 10
217.2669832152
 20
60.2805109797
 30
0.0
 10
217.2669832152
 20
60.605673579
 30
0.0
 10
217.2637032599
 20
61.2435289012
 30
0.0
 10
217.249072554
 20
62.1695440119
 30
0.0
 10
217.2253637039
 20
63.0229858592
 30
0.0
 10
217.1978841862
 20
63.6735336285
 30
0.0
 10
217.1712040555
 20
64.1332823809
 30
0.0
 10
217.1505725946
 20
64.424689238
 30
0.0
 10
217.1286492025
 20
64.6762234946
 30
0.0
 10
217.1056648768
 20
64.8854745093
 30
0.0
 10
217.0847258745
 20
65.0323413829
 30
0.0
 10
217.0668540312
 20
65.127035183
 30
0.0
 10
217.0543401886
 20
65.1808820465
 30
0.0
 10
217.0419684734
 20
65.2231019288
 30
0.0
 10
217.0292849702
 20
65.2536276271
 30
0.0
 10
217.017382007
 20
65.2735285783
 30
0.0
 10
217.0058216729
 20
65.2805064263
 30
0.0
 10
217.0010313537
 20
65.2805064263
 30
0.0
  0
SPLINE
  5
2CA
330
1B
100
AcDbEntity
 67
     1
  8
3_ALL_AXES
  6
Continuous
 62
     7
100
AcDbSpline
 70
     0
 71
     3
 72
    22
 73
    18
 74
     0
 42
0.000000001
 43
0.0000001
 40
0.0
 40
0.0
 40
0.0
 40
0.0
 40
0.1940692692
 40
0.380693058
 40
0.5527379714
 40
0.7036195417
 40
0.7692882695
 40
0.8275890766
 40
0.8779722577
 40
0.9199718476
 40
0.9532198022
 40
0.9664801834
 40
0.977474063
 40
0.9862036745
 40
0.9927127056
 40
0.9971409573
 40
1.0
 40
1.0
 40
1.0
 40
1.0
 10
217.2669832152
 20
60.2805109797
 30
0.0
 10
217.2669832152
 20
59.9553483804
 30
0.0
 10
217.2637032599
 20
59.3174930582
 30
0.0
 10
217.249072554
 20
58.3914779475
 30
0.0
 10
217.2253637039
 20
57.5380361003
 30
0.0
 10
217.1978841862
 20
56.887488331
 30
0.0
 10
217.1712040555
 20
56.4277395786
 30
0.0
 10
217.1505725946
 20
56.1363327214
 30
0.0
 10
217.1286492025
 20
55.8847984649
 30
0.0
 10
217.1056648768
 20
55.6755474501
 30
0.0
 10
217.0847258745
 20
55.5286805765
 30
0.0
 10
217.0668540312
 20
55.4339867765
 30
0.0
 10
217.0543401886
 20
55.3801399129
 30
0.0
 10
217.0419684734
 20
55.3379200307
 30
0.0
 10
217.0292849702
 20
55.3073943323
 30
0.0
 10
217.017382007
 20
55.2874933812
 30
0.0
 10
217.0058216729
 20
55.2805155332
 30
0.0
 10
217.0010313537
 20
55.2805155332
 30
0.0
  0
LINE
  5
2CB
330
1B
100
AcDbEntity
 67
     1
  8
3_ALL_AXES
  6
Continuous
 62
     7
100
AcDbLine
 10
214.0052781832
 20
57.7805109797
 30
0.0
 11
214.1979119951
 21
57.7805109797
 31
0.0
  0
LINE
  5
2CC
330
1B
100
AcDbEntity
 67
     1
  8
3_ALL_AXES
  6
Continuous
 62
     7
100
AcDbLine
 10
214.1979119951
 20
57.7805109797
 30
0.0
 11
214.2014510126
 21
57.7805109797
 31
0.0
  0
LINE
  5
2CD
330
1B
100
AcDbEntity
 67
     1
  8
3_ALL_AXES
  6
Continuous
 62
     7
100
AcDbLine
 10
214.1979119951
 20
57.7840600525
 30
0.0
 11
214.2014510126
 21
57.7805109797
 31
0.0
  0
LINE
  5
2CE
330
1B
100
AcDbEntity
 67
     1
  8
3_ALL_AXES
  6
Continuous
 62
     7
100
AcDbLine
 10
214.2014510126
 20
57.7805109797
 30
0.0
 11
214.8893053209
 21
57.0907022851
 31
0.0
  0
LINE
  5
2CF
330
1B
100
AcDbEntity
 67
     1
  8
3_ALL_AXES
  6
Continuous
 62
     7
100
AcDbLine
 10
216.8893053209
 20
55.2805109797
 30
0.0
 11
217.0010313537
 21
55.2805109797
 31
0.0
  0
LINE
  5
2D0
330
1B
100
AcDbEntity
 67
     1
  8
3_ALL_AXES
  6
Continuous
 62
     7
100
AcDbLine
 10
214.0052781832
 20
62.7805109797
 30
0.0
 11
214.1979119951
 21
62.7805109797
 31
0.0
  0
LINE
  5
2D1
330
1B
100
AcDbEntity
 67
     1
  8
3_ALL_AXES
  6
Continuous
 62
     7
100
AcDbLine
 10
214.1979119951
 20
62.7805109797
 30
0.0
 11
214.2014510126
 21
62.7805109797
 31
0.0
  0
LINE
  5
2D2
330
1B
100
AcDbEntity
 67
     1
  8
3_ALL_AXES
  6
Continuous
 62
     7
100
AcDbLine
 10
216.8893053209
 20
65.2805109797
 30
0.0
 11
217.0010313537
 21
65.2805109797
 31
0.0
  0
LINE
  5
2D3
330
1B
100
AcDbEntity
 67
     1
  8
3_ALL_AXES
  6
Continuous
 62
     7
100
AcDbLine
 10
214.1979119951
 20
62.7769619069
 30
0.0
 11
214.2014510126
 21
62.7805109797
 31
0.0
  0
LINE
  5
2D4
330
1B
100
AcDbEntity
 67
     1
  8
3_ALL_AXES
  6
Continuous
 62
     7
100
AcDbLine
 10
214.2014510126
 20
62.7805109797
 30
0.0
 11
214.8893053209
 21
63.4703196743
 31
0.0
  0
LINE
  5
2D5
330
1B
100
AcDbEntity
 67
     1
  8
7_ALL_FEATURES
  6
Continuous
 62
     7
100
AcDbLine
 10
217.093159781
 20
60.2805109797
 30
0.0
 11
217.0470955674
 21
61.7805109797
 31
0.0
  0
SPLINE
  5
2D6
330
1B
100
AcDbEntity
 67
     1
  8
3_ALL_AXES
  6
Continuous
 62
     7
100
AcDbSpline
 70
     0
 71
     3
 72
    20
 73
    16
 74
     0
 42
0.000000001
 43
0.0000001
 40
0.0
 40
0.0
 40
0.0
 40
0.0
 40
0.004420813
 40
0.0108034552
 40
0.0298367855
 40
0.0573543286
 40
0.0932101592
 40
0.1371345506
 40
0.1887536249
 40
0.2476199865
 40
0.3132159549
 40
0.4622026882
 40
0.630416215
 40
0.8118361053
 40
1.0
 40
1.0
 40
1.0
 40
1.0
 10
214.1979119998
 20
57.7840617218
 30
0.0
 10
214.1953043477
 20
57.7866750274
 30
0.0
 10
214.1905144184
 20
57.7945147413
 30
0.0
 10
214.1812617453
 20
57.8176301408
 30
0.0
 10
214.1709176288
 20
57.8608170234
 30
0.0
 10
214.1593258858
 20
57.9286032423
 30
0.0
 10
214.1480367443
 20
58.0175404453
 30
0.0
 10
214.1370937933
 20
58.1267205452
 30
0.0
 10
214.1267006033
 20
58.2552570236
 30
0.0
 10
214.1169540754
 20
58.4019800802
 30
0.0
 10
214.1044359469
 20
58.6299957116
 30
0.0
 10
214.0915289475
 20
58.9494200483
 30
0.0
 10
214.0804055256
 20
59.3656736405
 30
0.0
 10
214.0735535518
 20
59.8147391856
 30
0.0
 10
214.0720191305
 20
60.123377193
 30
0.0
 10
214.0720191305
 20
60.2805109797
 30
0.0
  0
SPLINE
  5
2D7
330
1B
100
AcDbEntity
 67
     1
  8
3_ALL_AXES
  6
Continuous
 62
     7
100
AcDbSpline
 70
     0
 71
     3
 72
    15
 73
    11
 74
     0
 42
0.000000001
 43
0.0000001
 40
0.0
 40
0.0
 40
0.0
 40
0.0
 40
0.0332952146
 40
0.0573162471
 40
0.0876301651
 40
0.1686486623
 40
0.277980939
 40
0.4159862474
 40
0.5825501492
 40
1.0
 40
1.0
 40
1.0
 40
1.0
 10
217.0010313537
 20
55.2805155332
 30
0.0
 10
216.9956283636
 20
55.2805155332
 30
0.0
 10
216.9868788321
 20
55.2864170744
 30
0.0
 10
216.9786261945
 20
55.2977606123
 30
0.0
 10
216.9680461458
 20
55.3171781563
 30
0.0
 10
216.9558772193
 20
55.3509358971
 30
0.0
 10
216.9420665169
 20
55.4024344785
 30
0.0
 10
216.9283832102
 20
55.4682179662
 30
0.0
 10
216.9087499235
 20
55.5837422752
 30
0.0
 10
216.8967927285
 20
55.6777975818
 30
0.0
 10
216.8890785566
 20
55.7450987084
 30
0.0
  0
LINE
  5
2D8
330
1B
100
AcDbEntity
 67
     1
  8
7_ALL_FEATURES
  6
Continuous
 62
     7
100
AcDbLine
 10
217.093159781
 20
60.2805109797
 30
0.0
 11
216.9089029264
 21
60.2805109797
 31
0.0
  0
LINE
  5
2D9
330
1B
100
AcDbEntity
 67
     1
  8
7_ALL_FEATURES
  6
Continuous
 62
     7
100
AcDbLine
 10
217.0470955674
 20
58.7805109797
 30
0.0
 11
217.093159781
 21
60.2805109797
 31
0.0
  0
SPLINE
  5
2DA
330
1B
100
AcDbEntity
 67
     1
  8
3_ALL_AXES
  6
Continuous
 62
     7
100
AcDbSpline
 70
     0
 71
     3
 72
    15
 73
    11
 74
     0
 42
0.000000001
 43
0.0000001
 40
0.0
 40
0.0
 40
0.0
 40
0.0
 40
0.0332952146
 40
0.0573162471
 40
0.0876301651
 40
0.1686486623
 40
0.277980939
 40
0.4159862474
 40
0.5825501492
 40
1.0
 40
1.0
 40
1.0
 40
1.0
 10
217.0010313537
 20
65.2805064263
 30
0.0
 10
216.9956283636
 20
65.2805064263
 30
0.0
 10
216.9868788321
 20
65.2746048851
 30
0.0
 10
216.9786261945
 20
65.2632613472
 30
0.0
 10
216.9680461458
 20
65.2438438032
 30
0.0
 10
216.9558772193
 20
65.2100860624
 30
0.0
 10
216.9420665169
 20
65.158587481
 30
0.0
 10
216.9283832102
 20
65.0928039933
 30
0.0
 10
216.9087499235
 20
64.9772796842
 30
0.0
 10
216.8967927285
 20
64.8832243777
 30
0.0
 10
216.8890785566
 20
64.8159232511
 30
0.0
  0
SPLINE
  5
2DB
330
1B
100
AcDbEntity
 67
     1
  8
3_ALL_AXES
  6
Continuous
 62
     7
100
AcDbSpline
 70
     0
 71
     3
 72
    20
 73
    16
 74
     0
 42
0.000000001
 43
0.0000001
 40
0.0
 40
0.0
 40
0.0
 40
0.0
 40
0.004420813
 40
0.0108034552
 40
0.0298367855
 40
0.0573543286
 40
0.0932101592
 40
0.1371345506
 40
0.1887536249
 40
0.2476199865
 40
0.3132159549
 40
0.4622026882
 40
0.630416215
 40
0.8118361053
 40
1.0
 40
1.0
 40
1.0
 40
1.0
 10
214.1979119998
 20
62.7769602376
 30
0.0
 10
214.1953043477
 20
62.7743469321
 30
0.0
 10
214.1905144184
 20
62.7665072182
 30
0.0
 10
214.1812617453
 20
62.7433918187
 30
0.0
 10
214.1709176288
 20
62.700204936
 30
0.0
 10
214.1593258858
 20
62.6324187172
 30
0.0
 10
214.1480367443
 20
62.5434815142
 30
0.0
 10
214.1370937933
 20
62.4343014142
 30
0.0
 10
214.1267006033
 20
62.3057649359
 30
0.0
 10
214.1169540754
 20
62.1590418793
 30
0.0
 10
214.1044359469
 20
61.9310262478
 30
0.0
 10
214.0915289475
 20
61.6116019111
 30
0.0
 10
214.0804055256
 20
61.195348319
 30
0.0
 10
214.0735535518
 20
60.7462827738
 30
0.0
 10
214.0720191305
 20
60.4376447665
 30
0.0
 10
214.0720191305
 20
60.2805109797
 30
0.0
  0
LINE
  5
2DC
330
1B
100
AcDbEntity
 67
     1
  8
7_ALL_FEATURES
  6
Continuous
 62
     7
100
AcDbLine
 10
216.9549671401
 20
139.7805109797
 30
0.0
 11
217.0470955674
 21
139.7805109797
 31
0.0
  0
LINE
  5
2DD
330
1B
100
AcDbEntity
 67
     1
  8
7_ALL_FEATURES
  6
Continuous
 62
     7
100
AcDbLine
 10
217.0470955674
 20
142.7805109797
 30
0.0
 11
216.9549671401
 21
142.7805109797
 31
0.0
  0
SPLINE
  5
2DE
330
1B
100
AcDbEntity
 67
     1
  8
3_ALL_AXES
  6
Continuous
 62
     7
100
AcDbSpline
 70
     0
 71
     3
 72
    22
 73
    18
 74
     0
 42
0.000000001
 43
0.0000001
 40
0.0
 40
0.0
 40
0.0
 40
0.0
 40
0.1940692692
 40
0.380693058
 40
0.5527379714
 40
0.7036195417
 40
0.7692882695
 40
0.8275890766
 40
0.8779722577
 40
0.9199718476
 40
0.9532198022
 40
0.9664801834
 40
0.977474063
 40
0.9862036745
 40
0.9927127056
 40
0.9971409573
 40
1.0
 40
1.0
 40
1.0
 40
1.0
 10
217.2669832152
 20
141.2805109797
 30
0.0
 10
217.2669832152
 20
141.605673579
 30
0.0
 10
217.2637032599
 20
142.2435289012
 30
0.0
 10
217.249072554
 20
143.1695440119
 30
0.0
 10
217.2253637039
 20
144.0229858592
 30
0.0
 10
217.1978841862
 20
144.6735336285
 30
0.0
 10
217.1712040555
 20
145.1332823809
 30
0.0
 10
217.1505725946
 20
145.424689238
 30
0.0
 10
217.1286492025
 20
145.6762234946
 30
0.0
 10
217.1056648768
 20
145.8854745093
 30
0.0
 10
217.0847258745
 20
146.0323413829
 30
0.0
 10
217.0668540312
 20
146.127035183
 30
0.0
 10
217.0543401886
 20
146.1808820465
 30
0.0
 10
217.0419684734
 20
146.2231019288
 30
0.0
 10
217.0292849702
 20
146.2536276271
 30
0.0
 10
217.017382007
 20
146.2735285783
 30
0.0
 10
217.0058216729
 20
146.2805064263
 30
0.0
 10
217.0010313537
 20
146.2805064263
 30
0.0
  0
SPLINE
  5
2DF
330
1B
100
AcDbEntity
 67
     1
  8
3_ALL_AXES
  6
Continuous
 62
     7
100
AcDbSpline
 70
     0
 71
     3
 72
    22
 73
    18
 74
     0
 42
0.000000001
 43
0.0000001
 40
0.0
 40
0.0
 40
0.0
 40
0.0
 40
0.1940692692
 40
0.380693058
 40
0.5527379714
 40
0.7036195417
 40
0.7692882695
 40
0.8275890766
 40
0.8779722577
 40
0.9199718476
 40
0.9532198022
 40
0.9664801834
 40
0.977474063
 40
0.9862036745
 40
0.9927127056
 40
0.9971409573
 40
1.0
 40
1.0
 40
1.0
 40
1.0
 10
217.2669832152
 20
141.2805109797
 30
0.0
 10
217.2669832152
 20
140.9553483804
 30
0.0
 10
217.2637032599
 20
140.3174930582
 30
0.0
 10
217.249072554
 20
139.3914779475
 30
0.0
 10
217.2253637039
 20
138.5380361003
 30
0.0
 10
217.1978841862
 20
137.887488331
 30
0.0
 10
217.1712040555
 20
137.4277395786
 30
0.0
 10
217.1505725946
 20
137.1363327214
 30
0.0
 10
217.1286492025
 20
136.8847984649
 30
0.0
 10
217.1056648768
 20
136.6755474501
 30
0.0
 10
217.0847258745
 20
136.5286805765
 30
0.0
 10
217.0668540312
 20
136.4339867765
 30
0.0
 10
217.0543401886
 20
136.3801399129
 30
0.0
 10
217.0419684734
 20
136.3379200307
 30
0.0
 10
217.0292849702
 20
136.3073943323
 30
0.0
 10
217.017382007
 20
136.2874933812
 30
0.0
 10
217.0058216729
 20
136.2805155332
 30
0.0
 10
217.0010313537
 20
136.2805155332
 30
0.0
  0
LINE
  5
2E0
330
1B
100
AcDbEntity
 67
     1
  8
3_ALL_AXES
  6
Continuous
 62
     7
100
AcDbLine
 10
214.0052781832
 20
138.7805109797
 30
0.0
 11
214.1979119951
 21
138.7805109797
 31
0.0
  0
LINE
  5
2E1
330
1B
100
AcDbEntity
 67
     1
  8
3_ALL_AXES
  6
Continuous
 62
     7
100
AcDbLine
 10
214.1979119951
 20
138.7805109797
 30
0.0
 11
214.2014510126
 21
138.7805109797
 31
0.0
  0
LINE
  5
2E2
330
1B
100
AcDbEntity
 67
     1
  8
3_ALL_AXES
  6
Continuous
 62
     7
100
AcDbLine
 10
214.1979119951
 20
138.7840600525
 30
0.0
 11
214.2014510126
 21
138.7805109797
 31
0.0
  0
LINE
  5
2E3
330
1B
100
AcDbEntity
 67
     1
  8
3_ALL_AXES
  6
Continuous
 62
     7
100
AcDbLine
 10
214.2014510126
 20
138.7805109797
 30
0.0
 11
214.8893053209
 21
138.0907022851
 31
0.0
  0
LINE
  5
2E4
330
1B
100
AcDbEntity
 67
     1
  8
3_ALL_AXES
  6
Continuous
 62
     7
100
AcDbLine
 10
216.8893053209
 20
136.2805109797
 30
0.0
 11
217.0010313537
 21
136.2805109797
 31
0.0
  0
LINE
  5
2E5
330
1B
100
AcDbEntity
 67
     1
  8
3_ALL_AXES
  6
Continuous
 62
     7
100
AcDbLine
 10
214.0052781832
 20
143.7805109797
 30
0.0
 11
214.1979119951
 21
143.7805109797
 31
0.0
  0
LINE
  5
2E6
330
1B
100
AcDbEntity
 67
     1
  8
3_ALL_AXES
  6
Continuous
 62
     7
100
AcDbLine
 10
214.1979119951
 20
143.7805109797
 30
0.0
 11
214.2014510126
 21
143.7805109797
 31
0.0
  0
LINE
  5
2E7
330
1B
100
AcDbEntity
 67
     1
  8
3_ALL_AXES
  6
Continuous
 62
     7
100
AcDbLine
 10
216.8893053209
 20
146.2805109797
 30
0.0
 11
217.0010313537
 21
146.2805109797
 31
0.0
  0
LINE
  5
2E8
330
1B
100
AcDbEntity
 67
     1
  8
3_ALL_AXES
  6
Continuous
 62
     7
100
AcDbLine
 10
214.1979119951
 20
143.7769619069
 30
0.0
 11
214.2014510126
 21
143.7805109797
 31
0.0
  0
LINE
  5
2E9
330
1B
100
AcDbEntity
 67
     1
  8
3_ALL_AXES
  6
Continuous
 62
     7
100
AcDbLine
 10
214.2014510126
 20
143.7805109797
 30
0.0
 11
214.8893053209
 21
144.4703196743
 31
0.0
  0
LINE
  5
2EA
330
1B
100
AcDbEntity
 67
     1
  8
7_ALL_FEATURES
  6
Continuous
 62
     7
100
AcDbLine
 10
217.093159781
 20
141.2805109797
 30
0.0
 11
217.0470955674
 21
142.7805109797
 31
0.0
  0
SPLINE
  5
2EB
330
1B
100
AcDbEntity
 67
     1
  8
3_ALL_AXES
  6
Continuous
 62
     7
100
AcDbSpline
 70
     0
 71
     3
 72
    20
 73
    16
 74
     0
 42
0.000000001
 43
0.0000001
 40
0.0
 40
0.0
 40
0.0
 40
0.0
 40
0.004420813
 40
0.0108034552
 40
0.0298367855
 40
0.0573543286
 40
0.0932101592
 40
0.1371345506
 40
0.1887536249
 40
0.2476199865
 40
0.3132159549
 40
0.4622026882
 40
0.630416215
 40
0.8118361053
 40
1.0
 40
1.0
 40
1.0
 40
1.0
 10
214.1979119998
 20
138.7840617218
 30
0.0
 10
214.1953043477
 20
138.7866750274
 30
0.0
 10
214.1905144184
 20
138.7945147413
 30
0.0
 10
214.1812617453
 20
138.8176301408
 30
0.0
 10
214.1709176288
 20
138.8608170234
 30
0.0
 10
214.1593258858
 20
138.9286032423
 30
0.0
 10
214.1480367443
 20
139.0175404453
 30
0.0
 10
214.1370937933
 20
139.1267205452
 30
0.0
 10
214.1267006033
 20
139.2552570236
 30
0.0
 10
214.1169540754
 20
139.4019800802
 30
0.0
 10
214.1044359469
 20
139.6299957116
 30
0.0
 10
214.0915289475
 20
139.9494200483
 30
0.0
 10
214.0804055256
 20
140.3656736405
 30
0.0
 10
214.0735535518
 20
140.8147391856
 30
0.0
 10
214.0720191305
 20
141.123377193
 30
0.0
 10
214.0720191305
 20
141.2805109797
 30
0.0
  0
SPLINE
  5
2EC
330
1B
100
AcDbEntity
 67
     1
  8
3_ALL_AXES
  6
Continuous
 62
     7
100
AcDbSpline
 70
     0
 71
     3
 72
    15
 73
    11
 74
     0
 42
0.000000001
 43
0.0000001
 40
0.0
 40
0.0
 40
0.0
 40
0.0
 40
0.0332952146
 40
0.0573162471
 40
0.0876301651
 40
0.1686486623
 40
0.277980939
 40
0.4159862474
 40
0.5825501492
 40
1.0
 40
1.0
 40
1.0
 40
1.0
 10
217.0010313537
 20
136.2805155332
 30
0.0
 10
216.9956283636
 20
136.2805155332
 30
0.0
 10
216.9868788321
 20
136.2864170744
 30
0.0
 10
216.9786261945
 20
136.2977606123
 30
0.0
 10
216.9680461458
 20
136.3171781563
 30
0.0
 10
216.9558772193
 20
136.3509358971
 30
0.0
 10
216.9420665169
 20
136.4024344785
 30
0.0
 10
216.9283832102
 20
136.4682179662
 30
0.0
 10
216.9087499235
 20
136.5837422752
 30
0.0
 10
216.8967927285
 20
136.6777975818
 30
0.0
 10
216.8890785566
 20
136.7450987084
 30
0.0
  0
LINE
  5
2ED
330
1B
100
AcDbEntity
 67
     1
  8
7_ALL_FEATURES
  6
Continuous
 62
     7
100
AcDbLine
 10
217.093159781
 20
141.2805109797
 30
0.0
 11
216.9089029264
 21
141.2805109797
 31
0.0
  0
LINE
  5
2EE
330
1B
100
AcDbEntity
 67
     1
  8
7_ALL_FEATURES
  6
Continuous
 62
     7
100
AcDbLine
 10
217.0470955674
 20
139.7805109797
 30
0.0
 11
217.093159781
 21
141.2805109797
 31
0.0
  0
SPLINE
  5
2EF
330
1B
100
AcDbEntity
 67
     1
  8
3_ALL_AXES
  6
Continuous
 62
     7
100
AcDbSpline
 70
     0
 71
     3
 72
    15
 73
    11
 74
     0
 42
0.000000001
 43
0.0000001
 40
0.0
 40
0.0
 40
0.0
 40
0.0
 40
0.0332952146
 40
0.0573162471
 40
0.0876301651
 40
0.1686486623
 40
0.277980939
 40
0.4159862474
 40
0.5825501492
 40
1.0
 40
1.0
 40
1.0
 40
1.0
 10
217.0010313537
 20
146.2805064263
 30
0.0
 10
216.9956283636
 20
146.2805064263
 30
0.0
 10
216.9868788321
 20
146.2746048851
 30
0.0
 10
216.9786261945
 20
146.2632613472
 30
0.0
 10
216.9680461458
 20
146.2438438032
 30
0.0
 10
216.9558772193
 20
146.2100860624
 30
0.0
 10
216.9420665169
 20
146.158587481
 30
0.0
 10
216.9283832102
 20
146.0928039933
 30
0.0
 10
216.9087499235
 20
145.9772796842
 30
0.0
 10
216.8967927285
 20
145.8832243777
 30
0.0
 10
216.8890785566
 20
145.8159232511
 30
0.0
  0
SPLINE
  5
2F0
330
1B
100
AcDbEntity
 67
     1
  8
3_ALL_AXES
  6
Continuous
 62
     7
100
AcDbSpline
 70
     0
 71
     3
 72
    20
 73
    16
 74
     0
 42
0.000000001
 43
0.0000001
 40
0.0
 40
0.0
 40
0.0
 40
0.0
 40
0.004420813
 40
0.0108034552
 40
0.0298367855
 40
0.0573543286
 40
0.0932101592
 40
0.1371345506
 40
0.1887536249
 40
0.2476199865
 40
0.3132159549
 40
0.4622026882
 40
0.630416215
 40
0.8118361053
 40
1.0
 40
1.0
 40
1.0
 40
1.0
 10
214.1979119998
 20
143.7769602376
 30
0.0
 10
214.1953043477
 20
143.7743469321
 30
0.0
 10
214.1905144184
 20
143.7665072182
 30
0.0
 10
214.1812617453
 20
143.7433918187
 30
0.0
 10
214.1709176288
 20
143.700204936
 30
0.0
 10
214.1593258858
 20
143.6324187172
 30
0.0
 10
214.1480367443
 20
143.5434815142
 30
0.0
 10
214.1370937933
 20
143.4343014142
 30
0.0
 10
214.1267006033
 20
143.3057649359
 30
0.0
 10
214.1169540754
 20
143.1590418793
 30
0.0
 10
214.1044359469
 20
142.9310262478
 30
0.0
 10
214.0915289475
 20
142.6116019111
 30
0.0
 10
214.0804055256
 20
142.195348319
 30
0.0
 10
214.0735535518
 20
141.7462827738
 30
0.0
 10
214.0720191305
 20
141.4376447665
 30
0.0
 10
214.0720191305
 20
141.2805109797
 30
0.0
  0
LINE
  5
2F1
330
1B
100
AcDbEntity
 67
     1
  8
7_ALL_FEATURES
  6
Continuous
 62
     7
100
AcDbLine
 10
116.7315150745
 20
58.7805109797
 30
0.0
 11
116.8236435018
 21
58.7805109797
 31
0.0
  0
LINE
  5
2F2
330
1B
100
AcDbEntity
 67
     1
  8
7_ALL_FEATURES
  6
Continuous
 62
     7
100
AcDbLine
 10
116.8236435018
 20
61.7805109797
 30
0.0
 11
116.7315150745
 21
61.7805109797
 31
0.0
  0
LINE
  5
2F3
330
1B
100
AcDbEntity
 67
     1
  8
3_ALL_AXES
  6
Continuous
 62
     7
100
AcDbLine
 10
119.7733324587
 20
57.7805109797
 30
0.0
 11
119.5806986468
 21
57.7805109797
 31
0.0
  0
LINE
  5
2F4
330
1B
100
AcDbEntity
 67
     1
  8
3_ALL_AXES
  6
Continuous
 62
     7
100
AcDbLine
 10
119.5806986468
 20
57.7805109797
 30
0.0
 11
119.5771596293
 21
57.7805109797
 31
0.0
  0
LINE
  5
2F5
330
1B
100
AcDbEntity
 67
     1
  8
3_ALL_AXES
  6
Continuous
 62
     7
100
AcDbLine
 10
119.5806986468
 20
57.7840600525
 30
0.0
 11
119.5771596293
 21
57.7805109797
 31
0.0
  0
LINE
  5
2F6
330
1B
100
AcDbEntity
 67
     1
  8
3_ALL_AXES
  6
Continuous
 62
     7
100
AcDbLine
 10
119.5771596293
 20
57.7805109797
 30
0.0
 11
118.8893053209
 21
57.0907022851
 31
0.0
  0
SPLINE
  5
2F7
330
1B
100
AcDbEntity
 67
     1
  8
3_ALL_AXES
  6
Continuous
 62
     7
100
AcDbSpline
 70
     0
 71
     3
 72
    22
 73
    18
 74
     0
 42
0.000000001
 43
0.0000001
 40
0.0
 40
0.0
 40
0.0
 40
0.0
 40
0.0028590427
 40
0.0072872944
 40
0.0137963255
 40
0.022525937
 40
0.0335198166
 40
0.0467801978
 40
0.0800281524
 40
0.1220277423
 40
0.1724109234
 40
0.2307117305
 40
0.2963804583
 40
0.4472620286
 40
0.619306942
 40
0.8059307308
 40
1.0
 40
1.0
 40
1.0
 40
1.0
 10
116.7775792882
 20
55.2805155332
 30
0.0
 10
116.772788969
 20
55.2805155332
 30
0.0
 10
116.7612286349
 20
55.2874933812
 30
0.0
 10
116.7493256717
 20
55.3073943323
 30
0.0
 10
116.7366421685
 20
55.3379200307
 30
0.0
 10
116.7242704533
 20
55.3801399129
 30
0.0
 10
116.7117566107
 20
55.4339867765
 30
0.0
 10
116.6938847673
 20
55.5286805765
 30
0.0
 10
116.6729457651
 20
55.6755474501
 30
0.0
 10
116.6499614394
 20
55.8847984649
 30
0.0
 10
116.6280380473
 20
56.1363327214
 30
0.0
 10
116.6074065864
 20
56.4277395786
 30
0.0
 10
116.5807264557
 20
56.887488331
 30
0.0
 10
116.553246938
 20
57.5380361003
 30
0.0
 10
116.5295380879
 20
58.3914779475
 30
0.0
 10
116.514907382
 20
59.3174930582
 30
0.0
 10
116.5116274267
 20
59.9553483804
 30
0.0
 10
116.5116274267
 20
60.2805109797
 30
0.0
  0
LINE
  5
2F8
330
1B
100
AcDbEntity
 67
     1
  8
3_ALL_AXES
  6
Continuous
 62
     7
100
AcDbLine
 10
116.8893053209
 20
55.2805109797
 30
0.0
 11
116.7775792882
 21
55.2805109797
 31
0.0
  0
LINE
  5
2F9
330
1B
100
AcDbEntity
 67
     1
  8
3_ALL_AXES
  6
Continuous
 62
     7
100
AcDbLine
 10
116.8893053209
 20
65.2805109797
 30
0.0
 11
116.7775792882
 21
65.2805109797
 31
0.0
  0
LINE
  5
2FA
330
1B
100
AcDbEntity
 67
     1
  8
3_ALL_AXES
  6
Continuous
 62
     7
100
AcDbLine
 10
119.7733324587
 20
62.7805109797
 30
0.0
 11
119.5806986468
 21
62.7805109797
 31
0.0
  0
LINE
  5
2FB
330
1B
100
AcDbEntity
 67
     1
  8
3_ALL_AXES
  6
Continuous
 62
     7
100
AcDbLine
 10
119.5806986468
 20
62.7805109797
 30
0.0
 11
119.5771596293
 21
62.7805109797
 31
0.0
  0
SPLINE
  5
2FC
330
1B
100
AcDbEntity
 67
     1
  8
3_ALL_AXES
  6
Continuous
 62
     7
100
AcDbSpline
 70
     0
 71
     3
 72
    22
 73
    18
 74
     0
 42
0.000000001
 43
0.0000001
 40
0.0
 40
0.0
 40
0.0
 40
0.0
 40
0.0028590427
 40
0.0072872944
 40
0.0137963255
 40
0.022525937
 40
0.0335198166
 40
0.0467801978
 40
0.0800281524
 40
0.1220277423
 40
0.1724109234
 40
0.2307117305
 40
0.2963804583
 40
0.4472620286
 40
0.619306942
 40
0.8059307308
 40
1.0
 40
1.0
 40
1.0
 40
1.0
 10
116.7775792882
 20
65.2805064263
 30
0.0
 10
116.772788969
 20
65.2805064263
 30
0.0
 10
116.7612286349
 20
65.2735285783
 30
0.0
 10
116.7493256717
 20
65.2536276271
 30
0.0
 10
116.7366421685
 20
65.2231019288
 30
0.0
 10
116.7242704533
 20
65.1808820465
 30
0.0
 10
116.7117566107
 20
65.127035183
 30
0.0
 10
116.6938847673
 20
65.0323413829
 30
0.0
 10
116.6729457651
 20
64.8854745093
 30
0.0
 10
116.6499614394
 20
64.6762234946
 30
0.0
 10
116.6280380473
 20
64.424689238
 30
0.0
 10
116.6074065864
 20
64.1332823809
 30
0.0
 10
116.5807264557
 20
63.6735336285
 30
0.0
 10
116.553246938
 20
63.0229858592
 30
0.0
 10
116.5295380879
 20
62.1695440119
 30
0.0
 10
116.514907382
 20
61.2435289012
 30
0.0
 10
116.5116274267
 20
60.605673579
 30
0.0
 10
116.5116274267
 20
60.2805109797
 30
0.0
  0
LINE
  5
2FD
330
1B
100
AcDbEntity
 67
     1
  8
3_ALL_AXES
  6
Continuous
 62
     7
100
AcDbLine
 10
119.5806986468
 20
62.7769619069
 30
0.0
 11
119.5771596293
 21
62.7805109797
 31
0.0
  0
LINE
  5
2FE
330
1B
100
AcDbEntity
 67
     1
  8
3_ALL_AXES
  6
Continuous
 62
     7
100
AcDbLine
 10
119.5771596293
 20
62.7805109797
 30
0.0
 11
118.8893053209
 21
63.4703196743
 31
0.0
  0
LINE
  5
2FF
330
1B
100
AcDbEntity
 67
     1
  8
7_ALL_FEATURES
  6
Continuous
 62
     7
100
AcDbLine
 10
116.6854508609
 20
60.2805109797
 30
0.0
 11
116.7315150745
 21
58.7805109797
 31
0.0
  0
SPLINE
  5
300
330
1B
100
AcDbEntity
 67
     1
  8
3_ALL_AXES
  6
Continuous
 62
     7
100
AcDbSpline
 70
     0
 71
     3
 72
    15
 73
    11
 74
     0
 42
0.000000001
 43
0.0000001
 40
0.0
 40
0.0
 40
0.0
 40
0.0
 40
0.4174498508
 40
0.5840137526
 40
0.722019061
 40
0.8313513377
 40
0.9123698349
 40
0.9426837529
 40
0.9667047854
 40
1.0
 40
1.0
 40
1.0
 40
1.0
 10
116.8895320853
 20
64.8159232511
 30
0.0
 10
116.8818179134
 20
64.8832243777
 30
0.0
 10
116.8698607184
 20
64.9772796842
 30
0.0
 10
116.8502274317
 20
65.0928039933
 30
0.0
 10
116.836544125
 20
65.158587481
 30
0.0
 10
116.8227334226
 20
65.2100860624
 30
0.0
 10
116.8105644961
 20
65.2438438032
 30
0.0
 10
116.7999844474
 20
65.2632613472
 30
0.0
 10
116.7917318098
 20
65.2746048851
 30
0.0
 10
116.7829822783
 20
65.2805064263
 30
0.0
 10
116.7775792882
 20
65.2805064263
 30
0.0
  0
SPLINE
  5
301
330
1B
100
AcDbEntity
 67
     1
  8
3_ALL_AXES
  6
Continuous
 62
     7
100
AcDbSpline
 70
     0
 71
     3
 72
    20
 73
    16
 74
     0
 42
0.000000001
 43
0.0000001
 40
0.0
 40
0.0
 40
0.0
 40
0.0
 40
0.1881638947
 40
0.369583785
 40
0.5377973118
 40
0.6867840451
 40
0.7523800135
 40
0.8112463751
 40
0.8628654494
 40
0.9067898408
 40
0.9426456714
 40
0.9701632145
 40
0.9891965448
 40
0.995579187
 40
1.0
 40
1.0
 40
1.0
 40
1.0
 10
119.7065915114
 20
60.2805109797
 30
0.0
 10
119.7065915114
 20
60.4376447665
 30
0.0
 10
119.7050570901
 20
60.7462827738
 30
0.0
 10
119.6982051163
 20
61.195348319
 30
0.0
 10
119.6870816944
 20
61.6116019111
 30
0.0
 10
119.6741746949
 20
61.9310262478
 30
0.0
 10
119.6616565665
 20
62.1590418793
 30
0.0
 10
119.6519100386
 20
62.3057649359
 30
0.0
 10
119.6415168486
 20
62.4343014142
 30
0.0
 10
119.6305738976
 20
62.5434815142
 30
0.0
 10
119.6192847561
 20
62.6324187172
 30
0.0
 10
119.607693013
 20
62.700204936
 30
0.0
 10
119.5973488966
 20
62.7433918187
 30
0.0
 10
119.5880962235
 20
62.7665072182
 30
0.0
 10
119.5833062942
 20
62.7743469321
 30
0.0
 10
119.580698642
 20
62.7769602376
 30
0.0
  0
LINE
  5
302
330
1B
100
AcDbEntity
 67
     1
  8
7_ALL_FEATURES
  6
Continuous
 62
     7
100
AcDbLine
 10
116.6854508609
 20
60.2805109797
 30
0.0
 11
116.8697077155
 21
60.2805109797
 31
0.0
  0
SPLINE
  5
303
330
1B
100
AcDbEntity
 67
     1
  8
3_ALL_AXES
  6
Continuous
 62
     7
100
AcDbSpline
 70
     0
 71
     3
 72
    15
 73
    11
 74
     0
 42
0.000000001
 43
0.0000001
 40
0.0
 40
0.0
 40
0.0
 40
0.0
 40
0.4174498508
 40
0.5840137526
 40
0.722019061
 40
0.8313513377
 40
0.9123698349
 40
0.9426837529
 40
0.9667047854
 40
1.0
 40
1.0
 40
1.0
 40
1.0
 10
116.8895320853
 20
55.7450987084
 30
0.0
 10
116.8818179134
 20
55.6777975818
 30
0.0
 10
116.8698607184
 20
55.5837422752
 30
0.0
 10
116.8502274317
 20
55.4682179662
 30
0.0
 10
116.836544125
 20
55.4024344785
 30
0.0
 10
116.8227334226
 20
55.3509358971
 30
0.0
 10
116.8105644961
 20
55.3171781563
 30
0.0
 10
116.7999844474
 20
55.2977606123
 30
0.0
 10
116.7917318098
 20
55.2864170744
 30
0.0
 10
116.7829822783
 20
55.2805155332
 30
0.0
 10
116.7775792882
 20
55.2805155332
 30
0.0
  0
SPLINE
  5
304
330
1B
100
AcDbEntity
 67
     1
  8
3_ALL_AXES
  6
Continuous
 62
     7
100
AcDbSpline
 70
     0
 71
     3
 72
    20
 73
    16
 74
     0
 42
0.000000001
 43
0.0000001
 40
0.0
 40
0.0
 40
0.0
 40
0.0
 40
0.1881638947
 40
0.369583785
 40
0.5377973118
 40
0.6867840451
 40
0.7523800135
 40
0.8112463751
 40
0.8628654494
 40
0.9067898408
 40
0.9426456714
 40
0.9701632145
 40
0.9891965448
 40
0.995579187
 40
1.0
 40
1.0
 40
1.0
 40
1.0
 10
119.7065915114
 20
60.2805109797
 30
0.0
 10
119.7065915114
 20
60.123377193
 30
0.0
 10
119.7050570901
 20
59.8147391856
 30
0.0
 10
119.6982051163
 20
59.3656736405
 30
0.0
 10
119.6870816944
 20
58.9494200483
 30
0.0
 10
119.6741746949
 20
58.6299957116
 30
0.0
 10
119.6616565665
 20
58.4019800802
 30
0.0
 10
119.6519100386
 20
58.2552570236
 30
0.0
 10
119.6415168486
 20
58.1267205452
 30
0.0
 10
119.6305738976
 20
58.0175404453
 30
0.0
 10
119.6192847561
 20
57.9286032423
 30
0.0
 10
119.607693013
 20
57.8608170234
 30
0.0
 10
119.5973488966
 20
57.8176301408
 30
0.0
 10
119.5880962235
 20
57.7945147413
 30
0.0
 10
119.5833062942
 20
57.7866750274
 30
0.0
 10
119.580698642
 20
57.7840617218
 30
0.0
  0
LINE
  5
305
330
1B
100
AcDbEntity
 67
     1
  8
7_ALL_FEATURES
  6
Continuous
 62
     7
100
AcDbLine
 10
116.7315150745
 20
61.7805109797
 30
0.0
 11
116.6854508609
 21
60.2805109797
 31
0.0
  0
LINE
  5
306
330
1B
100
AcDbEntity
 67
     1
  8
7_ALL_FEATURES
  6
Continuous
 62
     7
100
AcDbLine
 10
116.7315150745
 20
139.7805109797
 30
0.0
 11
116.8236435018
 21
139.7805109797
 31
0.0
  0
LINE
  5
307
330
1B
100
AcDbEntity
 67
     1
  8
7_ALL_FEATURES
  6
Continuous
 62
     7
100
AcDbLine
 10
116.8236435018
 20
142.7805109797
 30
0.0
 11
116.7315150745
 21
142.7805109797
 31
0.0
  0
LINE
  5
308
330
1B
100
AcDbEntity
 67
     1
  8
3_ALL_AXES
  6
Continuous
 62
     7
100
AcDbLine
 10
119.7733324587
 20
138.7805109797
 30
0.0
 11
119.5806986468
 21
138.7805109797
 31
0.0
  0
LINE
  5
309
330
1B
100
AcDbEntity
 67
     1
  8
3_ALL_AXES
  6
Continuous
 62
     7
100
AcDbLine
 10
119.5806986468
 20
138.7805109797
 30
0.0
 11
119.5771596293
 21
138.7805109797
 31
0.0
  0
LINE
  5
30A
330
1B
100
AcDbEntity
 67
     1
  8
3_ALL_AXES
  6
Continuous
 62
     7
100
AcDbLine
 10
119.5806986468
 20
138.7840600525
 30
0.0
 11
119.5771596293
 21
138.7805109797
 31
0.0
  0
LINE
  5
30B
330
1B
100
AcDbEntity
 67
     1
  8
3_ALL_AXES
  6
Continuous
 62
     7
100
AcDbLine
 10
119.5771596293
 20
138.7805109797
 30
0.0
 11
118.8893053209
 21
138.0907022851
 31
0.0
  0
SPLINE
  5
30C
330
1B
100
AcDbEntity
 67
     1
  8
3_ALL_AXES
  6
Continuous
 62
     7
100
AcDbSpline
 70
     0
 71
     3
 72
    22
 73
    18
 74
     0
 42
0.000000001
 43
0.0000001
 40
0.0
 40
0.0
 40
0.0
 40
0.0
 40
0.0028590427
 40
0.0072872944
 40
0.0137963255
 40
0.022525937
 40
0.0335198166
 40
0.0467801978
 40
0.0800281524
 40
0.1220277423
 40
0.1724109234
 40
0.2307117305
 40
0.2963804583
 40
0.4472620286
 40
0.619306942
 40
0.8059307308
 40
1.0
 40
1.0
 40
1.0
 40
1.0
 10
116.7775792882
 20
136.2805155332
 30
0.0
 10
116.772788969
 20
136.2805155332
 30
0.0
 10
116.7612286349
 20
136.2874933812
 30
0.0
 10
116.7493256717
 20
136.3073943323
 30
0.0
 10
116.7366421685
 20
136.3379200307
 30
0.0
 10
116.7242704533
 20
136.3801399129
 30
0.0
 10
116.7117566107
 20
136.4339867765
 30
0.0
 10
116.6938847673
 20
136.5286805765
 30
0.0
 10
116.6729457651
 20
136.6755474501
 30
0.0
 10
116.6499614394
 20
136.8847984649
 30
0.0
 10
116.6280380473
 20
137.1363327214
 30
0.0
 10
116.6074065864
 20
137.4277395786
 30
0.0
 10
116.5807264557
 20
137.887488331
 30
0.0
 10
116.553246938
 20
138.5380361003
 30
0.0
 10
116.5295380879
 20
139.3914779475
 30
0.0
 10
116.514907382
 20
140.3174930582
 30
0.0
 10
116.5116274267
 20
140.9553483804
 30
0.0
 10
116.5116274267
 20
141.2805109797
 30
0.0
  0
LINE
  5
30D
330
1B
100
AcDbEntity
 67
     1
  8
3_ALL_AXES
  6
Continuous
 62
     7
100
AcDbLine
 10
116.8893053209
 20
136.2805109797
 30
0.0
 11
116.7775792882
 21
136.2805109797
 31
0.0
  0
LINE
  5
30E
330
1B
100
AcDbEntity
 67
     1
  8
3_ALL_AXES
  6
Continuous
 62
     7
100
AcDbLine
 10
116.8893053209
 20
146.2805109797
 30
0.0
 11
116.7775792882
 21
146.2805109797
 31
0.0
  0
LINE
  5
30F
330
1B
100
AcDbEntity
 67
     1
  8
3_ALL_AXES
  6
Continuous
 62
     7
100
AcDbLine
 10
119.7733324587
 20
143.7805109797
 30
0.0
 11
119.5806986468
 21
143.7805109797
 31
0.0
  0
LINE
  5
310
330
1B
100
AcDbEntity
 67
     1
  8
3_ALL_AXES
  6
Continuous
 62
     7
100
AcDbLine
 10
119.5806986468
 20
143.7805109797
 30
0.0
 11
119.5771596293
 21
143.7805109797
 31
0.0
  0
SPLINE
  5
311
330
1B
100
AcDbEntity
 67
     1
  8
3_ALL_AXES
  6
Continuous
 62
     7
100
AcDbSpline
 70
     0
 71
     3
 72
    22
 73
    18
 74
     0
 42
0.000000001
 43
0.0000001
 40
0.0
 40
0.0
 40
0.0
 40
0.0
 40
0.0028590427
 40
0.0072872944
 40
0.0137963255
 40
0.022525937
 40
0.0335198166
 40
0.0467801978
 40
0.0800281524
 40
0.1220277423
 40
0.1724109234
 40
0.2307117305
 40
0.2963804583
 40
0.4472620286
 40
0.619306942
 40
0.8059307308
 40
1.0
 40
1.0
 40
1.0
 40
1.0
 10
116.7775792882
 20
146.2805064263
 30
0.0
 10
116.772788969
 20
146.2805064263
 30
0.0
 10
116.7612286349
 20
146.2735285783
 30
0.0
 10
116.7493256717
 20
146.2536276271
 30
0.0
 10
116.7366421685
 20
146.2231019288
 30
0.0
 10
116.7242704533
 20
146.1808820465
 30
0.0
 10
116.7117566107
 20
146.127035183
 30
0.0
 10
116.6938847673
 20
146.0323413829
 30
0.0
 10
116.6729457651
 20
145.8854745093
 30
0.0
 10
116.6499614394
 20
145.6762234946
 30
0.0
 10
116.6280380473
 20
145.424689238
 30
0.0
 10
116.6074065864
 20
145.1332823809
 30
0.0
 10
116.5807264557
 20
144.6735336285
 30
0.0
 10
116.553246938
 20
144.0229858592
 30
0.0
 10
116.5295380879
 20
143.1695440119
 30
0.0
 10
116.514907382
 20
142.2435289012
 30
0.0
 10
116.5116274267
 20
141.605673579
 30
0.0
 10
116.5116274267
 20
141.2805109797
 30
0.0
  0
LINE
  5
312
330
1B
100
AcDbEntity
 67
     1
  8
3_ALL_AXES
  6
Continuous
 62
     7
100
AcDbLine
 10
119.5806986468
 20
143.7769619069
 30
0.0
 11
119.5771596293
 21
143.7805109797
 31
0.0
  0
LINE
  5
313
330
1B
100
AcDbEntity
 67
     1
  8
3_ALL_AXES
  6
Continuous
 62
     7
100
AcDbLine
 10
119.5771596293
 20
143.7805109797
 30
0.0
 11
118.8893053209
 21
144.4703196743
 31
0.0
  0
LINE
  5
314
330
1B
100
AcDbEntity
 67
     1
  8
7_ALL_FEATURES
  6
Continuous
 62
     7
100
AcDbLine
 10
116.6854508609
 20
141.2805109797
 30
0.0
 11
116.7315150745
 21
139.7805109797
 31
0.0
  0
SPLINE
  5
315
330
1B
100
AcDbEntity
 67
     1
  8
3_ALL_AXES
  6
Continuous
 62
     7
100
AcDbSpline
 70
     0
 71
     3
 72
    15
 73
    11
 74
     0
 42
0.000000001
 43
0.0000001
 40
0.0
 40
0.0
 40
0.0
 40
0.0
 40
0.4174498508
 40
0.5840137526
 40
0.722019061
 40
0.8313513377
 40
0.9123698349
 40
0.9426837529
 40
0.9667047854
 40
1.0
 40
1.0
 40
1.0
 40
1.0
 10
116.8895320853
 20
145.8159232511
 30
0.0
 10
116.8818179134
 20
145.8832243777
 30
0.0
 10
116.8698607184
 20
145.9772796842
 30
0.0
 10
116.8502274317
 20
146.0928039933
 30
0.0
 10
116.836544125
 20
146.158587481
 30
0.0
 10
116.8227334226
 20
146.2100860624
 30
0.0
 10
116.8105644961
 20
146.2438438032
 30
0.0
 10
116.7999844474
 20
146.2632613472
 30
0.0
 10
116.7917318098
 20
146.2746048851
 30
0.0
 10
116.7829822783
 20
146.2805064263
 30
0.0
 10
116.7775792882
 20
146.2805064263
 30
0.0
  0
SPLINE
  5
316
330
1B
100
AcDbEntity
 67
     1
  8
3_ALL_AXES
  6
Continuous
 62
     7
100
AcDbSpline
 70
     0
 71
     3
 72
    20
 73
    16
 74
     0
 42
0.000000001
 43
0.0000001
 40
0.0
 40
0.0
 40
0.0
 40
0.0
 40
0.1881638947
 40
0.369583785
 40
0.5377973118
 40
0.6867840451
 40
0.7523800135
 40
0.8112463751
 40
0.8628654494
 40
0.9067898408
 40
0.9426456714
 40
0.9701632145
 40
0.9891965448
 40
0.995579187
 40
1.0
 40
1.0
 40
1.0
 40
1.0
 10
119.7065915114
 20
141.2805109797
 30
0.0
 10
119.7065915114
 20
141.4376447665
 30
0.0
 10
119.7050570901
 20
141.7462827738
 30
0.0
 10
119.6982051163
 20
142.195348319
 30
0.0
 10
119.6870816944
 20
142.6116019111
 30
0.0
 10
119.6741746949
 20
142.9310262478
 30
0.0
 10
119.6616565665
 20
143.1590418793
 30
0.0
 10
119.6519100386
 20
143.3057649359
 30
0.0
 10
119.6415168486
 20
143.4343014142
 30
0.0
 10
119.6305738976
 20
143.5434815142
 30
0.0
 10
119.6192847561
 20
143.6324187172
 30
0.0
 10
119.607693013
 20
143.700204936
 30
0.0
 10
119.5973488966
 20
143.7433918187
 30
0.0
 10
119.5880962235
 20
143.7665072182
 30
0.0
 10
119.5833062942
 20
143.7743469321
 30
0.0
 10
119.580698642
 20
143.7769602376
 30
0.0
  0
LINE
  5
317
330
1B
100
AcDbEntity
 67
     1
  8
7_ALL_FEATURES
  6
Continuous
 62
     7
100
AcDbLine
 10
116.6854508609
 20
141.2805109797
 30
0.0
 11
116.8697077155
 21
141.2805109797
 31
0.0
  0
SPLINE
  5
318
330
1B
100
AcDbEntity
 67
     1
  8
3_ALL_AXES
  6
Continuous
 62
     7
100
AcDbSpline
 70
     0
 71
     3
 72
    15
 73
    11
 74
     0
 42
0.000000001
 43
0.0000001
 40
0.0
 40
0.0
 40
0.0
 40
0.0
 40
0.4174498508
 40
0.5840137526
 40
0.722019061
 40
0.8313513377
 40
0.9123698349
 40
0.9426837529
 40
0.9667047854
 40
1.0
 40
1.0
 40
1.0
 40
1.0
 10
116.8895320853
 20
136.7450987084
 30
0.0
 10
116.8818179134
 20
136.6777975818
 30
0.0
 10
116.8698607184
 20
136.5837422752
 30
0.0
 10
116.8502274317
 20
136.4682179662
 30
0.0
 10
116.836544125
 20
136.4024344785
 30
0.0
 10
116.8227334226
 20
136.3509358971
 30
0.0
 10
116.8105644961
 20
136.3171781563
 30
0.0
 10
116.7999844474
 20
136.2977606123
 30
0.0
 10
116.7917318098
 20
136.2864170744
 30
0.0
 10
116.7829822783
 20
136.2805155332
 30
0.0
 10
116.7775792882
 20
136.2805155332
 30
0.0
  0
SPLINE
  5
319
330
1B
100
AcDbEntity
 67
     1
  8
3_ALL_AXES
  6
Continuous
 62
     7
100
AcDbSpline
 70
     0
 71
     3
 72
    20
 73
    16
 74
     0
 42
0.000000001
 43
0.0000001
 40
0.0
 40
0.0
 40
0.0
 40
0.0
 40
0.1881638947
 40
0.369583785
 40
0.5377973118
 40
0.6867840451
 40
0.7523800135
 40
0.8112463751
 40
0.8628654494
 40
0.9067898408
 40
0.9426456714
 40
0.9701632145
 40
0.9891965448
 40
0.995579187
 40
1.0
 40
1.0
 40
1.0
 40
1.0
 10
119.7065915114
 20
141.2805109797
 30
0.0
 10
119.7065915114
 20
141.123377193
 30
0.0
 10
119.7050570901
 20
140.8147391856
 30
0.0
 10
119.6982051163
 20
140.3656736405
 30
0.0
 10
119.6870816944
 20
139.9494200483
 30
0.0
 10
119.6741746949
 20
139.6299957116
 30
0.0
 10
119.6616565665
 20
139.4019800802
 30
0.0
 10
119.6519100386
 20
139.2552570236
 30
0.0
 10
119.6415168486
 20
139.1267205452
 30
0.0
 10
119.6305738976
 20
139.0175404453
 30
0.0
 10
119.6192847561
 20
138.9286032423
 30
0.0
 10
119.607693013
 20
138.8608170234
 30
0.0
 10
119.5973488966
 20
138.8176301408
 30
0.0
 10
119.5880962235
 20
138.7945147413
 30
0.0
 10
119.5833062942
 20
138.7866750274
 30
0.0
 10
119.580698642
 20
138.7840617218
 30
0.0
  0
LINE
  5
31A
330
1B
100
AcDbEntity
 67
     1
  8
7_ALL_FEATURES
  6
Continuous
 62
     7
100
AcDbLine
 10
116.7315150745
 20
142.7805109797
 30
0.0
 11
116.6854508609
 21
141.2805109797
 31
0.0
  0
LINE
  5
31B
330
1B
100
AcDbEntity
 67
     1
  8
7_ALL_FEATURES
  6
Continuous
 62
     7
100
AcDbLine
 10
125.5232799172
 20
142.7805109797
 30
0.0
 11
124.6572545134
 21
141.2805109797
 31
0.0
  0
LINE
  5
31C
330
1B
100
AcDbEntity
 67
     1
  8
7_ALL_FEATURES
  6
Continuous
 62
     7
100
AcDbLine
 10
124.6572545134
 20
141.2805109797
 30
0.0
 11
125.5232799172
 21
139.7805109797
 31
0.0
  0
LINE
  5
31D
330
1B
100
AcDbEntity
 67
     1
  8
7_ALL_FEATURES
  6
Continuous
 62
     7
100
AcDbLine
 10
125.5232799172
 20
139.7805109797
 30
0.0
 11
127.2553307247
 21
139.7805109797
 31
0.0
  0
LINE
  5
31E
330
1B
100
AcDbEntity
 67
     1
  8
7_ALL_FEATURES
  6
Continuous
 62
     7
100
AcDbLine
 10
127.2553307247
 20
139.7805109797
 30
0.0
 11
128.1213561285
 21
141.2805109797
 31
0.0
  0
LINE
  5
31F
330
1B
100
AcDbEntity
 67
     1
  8
7_ALL_FEATURES
  6
Continuous
 62
     7
100
AcDbLine
 10
128.1213561285
 20
141.2805109797
 30
0.0
 11
127.2553307247
 21
142.7805109797
 31
0.0
  0
LINE
  5
320
330
1B
100
AcDbEntity
 67
     1
  8
7_ALL_FEATURES
  6
Continuous
 62
     7
100
AcDbLine
 10
127.2553307247
 20
142.7805109797
 30
0.0
 11
125.5232799172
 21
142.7805109797
 31
0.0
  0
ARC
  5
321
330
1B
100
AcDbEntity
 67
     1
  8
7_ALL_FEATURES
  6
Continuous
 62
     7
100
AcDbCircle
 10
126.3893053209
 20
141.2805109797
 30
0.0
 40
3.5
100
AcDbArc
 50
0.0
 51
180.0
  0
ARC
  5
322
330
1B
100
AcDbEntity
 67
     1
  8
7_ALL_FEATURES
  6
Continuous
 62
     7
100
AcDbCircle
 10
126.3893053209
 20
141.2805109797
 30
0.0
 40
3.5
100
AcDbArc
 50
0.0
 51
180.0
  0
ARC
  5
323
330
1B
100
AcDbEntity
 67
     1
  8
7_ALL_FEATURES
  6
Continuous
 62
     7
100
AcDbCircle
 10
126.3893053209
 20
141.2805109797
 30
0.0
 40
3.5
100
AcDbArc
 50
180.0
 51
360.0
  0
ARC
  5
324
330
1B
100
AcDbEntity
 67
     1
  8
7_ALL_FEATURES
  6
Continuous
 62
     9
100
AcDbCircle
 10
126.3893053209
 20
141.2805109797
 30
0.0
 40
3.3999999423
100
AcDbArc
 50
180.0
 51
360.0
  0
ARC
  5
325
330
1B
100
AcDbEntity
 67
     1
  8
7_ALL_FEATURES
  6
Continuous
 62
     9
100
AcDbCircle
 10
126.3893053209
 20
141.2805109797
 30
0.0
 40
3.3999999423
100
AcDbArc
 50
0.0
 51
180.0
  0
LINE
  5
326
330
1B
100
AcDbEntity
 67
     1
  8
7_ALL_FEATURES
  6
Continuous
 62
     7
100
AcDbLine
 10
206.5232799172
 20
61.7805109797
 30
0.0
 11
205.6572545134
 21
60.2805109797
 31
0.0
  0
LINE
  5
327
330
1B
100
AcDbEntity
 67
     1
  8
7_ALL_FEATURES
  6
Continuous
 62
     7
100
AcDbLine
 10
205.6572545134
 20
60.2805109797
 30
0.0
 11
206.5232799172
 21
58.7805109797
 31
0.0
  0
LINE
  5
328
330
1B
100
AcDbEntity
 67
     1
  8
7_ALL_FEATURES
  6
Continuous
 62
     7
100
AcDbLine
 10
206.5232799172
 20
58.7805109797
 30
0.0
 11
208.2553307247
 21
58.7805109797
 31
0.0
  0
LINE
  5
329
330
1B
100
AcDbEntity
 67
     1
  8
7_ALL_FEATURES
  6
Continuous
 62
     7
100
AcDbLine
 10
208.2553307247
 20
58.7805109797
 30
0.0
 11
209.1213561285
 21
60.2805109797
 31
0.0
  0
LINE
  5
32A
330
1B
100
AcDbEntity
 67
     1
  8
7_ALL_FEATURES
  6
Continuous
 62
     7
100
AcDbLine
 10
209.1213561285
 20
60.2805109797
 30
0.0
 11
208.2553307247
 21
61.7805109797
 31
0.0
  0
LINE
  5
32B
330
1B
100
AcDbEntity
 67
     1
  8
7_ALL_FEATURES
  6
Continuous
 62
     7
100
AcDbLine
 10
208.2553307247
 20
61.7805109797
 30
0.0
 11
206.5232799172
 21
61.7805109797
 31
0.0
  0
ARC
  5
32C
330
1B
100
AcDbEntity
 67
     1
  8
7_ALL_FEATURES
  6
Continuous
 62
     7
100
AcDbCircle
 10
207.3893053209
 20
60.2805109797
 30
0.0
 40
3.5
100
AcDbArc
 50
0.0
 51
180.0
  0
ARC
  5
32D
330
1B
100
AcDbEntity
 67
     1
  8
7_ALL_FEATURES
  6
Continuous
 62
     7
100
AcDbCircle
 10
207.3893053209
 20
60.2805109797
 30
0.0
 40
3.5
100
AcDbArc
 50
0.0
 51
180.0
  0
ARC
  5
32E
330
1B
100
AcDbEntity
 67
     1
  8
7_ALL_FEATURES
  6
Continuous
 62
     7
100
AcDbCircle
 10
207.3893053209
 20
60.2805109797
 30
0.0
 40
3.5
100
AcDbArc
 50
180.0
 51
360.0
  0
ARC
  5
32F
330
1B
100
AcDbEntity
 67
     1
  8
7_ALL_FEATURES
  6
Continuous
 62
     9
100
AcDbCircle
 10
207.3893053209
 20
60.2805109797
 30
0.0
 40
3.3999999423
100
AcDbArc
 50
180.0
 51
360.0
  0
ARC
  5
330
330
1B
100
AcDbEntity
 67
     1
  8
7_ALL_FEATURES
  6
Continuous
 62
     9
100
AcDbCircle
 10
207.3893053209
 20
60.2805109797
 30
0.0
 40
3.3999999423
100
AcDbArc
 50
0.0
 51
180.0
  0
ARC
  5
331
330
1B
100
AcDbEntity
 67
     1
  8
7_ALL_FEATURES
  6
Continuous
 62
     7
100
AcDbCircle
 10
207.3893053209
 20
60.2805109797
 30
0.0
 40
4.4
100
AcDbArc
 50
0.0
 51
180.0
  0
ARC
  5
332
330
1B
100
AcDbEntity
 67
     1
  8
7_ALL_FEATURES
  6
Continuous
 62
     7
100
AcDbCircle
 10
207.3893053209
 20
60.2805109797
 30
0.0
 40
4.4
100
AcDbArc
 50
180.0
 51
360.0
  0
ARC
  5
333
330
1B
100
AcDbEntity
 67
     1
  8
7_ALL_FEATURES
  6
Continuous
 62
     7
100
AcDbCircle
 10
207.3893053209
 20
60.2805109797
 30
0.0
 40
3.9
100
AcDbArc
 50
0.0
 51
180.0
  0
ARC
  5
334
330
1B
100
AcDbEntity
 67
     1
  8
7_ALL_FEATURES
  6
Continuous
 62
     7
100
AcDbCircle
 10
207.3893053209
 20
60.2805109797
 30
0.0
 40
3.9
100
AcDbArc
 50
180.0
 51
360.0
  0
ARC
  5
335
330
1B
100
AcDbEntity
 67
     1
  8
7_ALL_FEATURES
  6
Continuous
 62
     7
100
AcDbCircle
 10
126.3893053209
 20
141.2805109797
 30
0.0
 40
4.4
100
AcDbArc
 50
0.0
 51
180.0
  0
ARC
  5
336
330
1B
100
AcDbEntity
 67
     1
  8
7_ALL_FEATURES
  6
Continuous
 62
     7
100
AcDbCircle
 10
126.3893053209
 20
141.2805109797
 30
0.0
 40
4.4
100
AcDbArc
 50
180.0
 51
360.0
  0
ARC
  5
337
330
1B
100
AcDbEntity
 67
     1
  8
7_ALL_FEATURES
  6
Continuous
 62
     7
100
AcDbCircle
 10
126.3893053209
 20
141.2805109797
 30
0.0
 40
3.9
100
AcDbArc
 50
0.0
 51
180.0
  0
ARC
  5
338
330
1B
100
AcDbEntity
 67
     1
  8
7_ALL_FEATURES
  6
Continuous
 62
     7
100
AcDbCircle
 10
126.3893053209
 20
141.2805109797
 30
0.0
 40
3.9
100
AcDbArc
 50
180.0
 51
360.0
  0
LINE
  5
339
330
1B
100
AcDbEntity
 67
     1
  8
7_ALL_FEATURES
  6
Continuous
 62
     7
100
AcDbLine
 10
119.0393053209
 20
72.7805109797
 30
0.0
 11
119.1456860655
 21
70.7805109797
 31
0.0
  0
LINE
  5
33A
330
1B
100
AcDbEntity
 67
     1
  8
7_ALL_FEATURES
  6
Continuous
 62
     7
100
AcDbLine
 10
119.1456860655
 20
130.7805109797
 30
0.0
 11
119.0393053209
 21
128.7805109797
 31
0.0
  0
LINE
  5
33B
330
1B
100
AcDbEntity
 67
     1
  8
7_ALL_FEATURES
  6
Continuous
 62
     7
100
AcDbLine
 10
119.1456860655
 20
130.7805109797
 30
0.0
 11
119.2414287357
 21
130.7805109797
 31
0.0
  0
LINE
  5
33C
330
1B
100
AcDbEntity
 67
     1
  8
7_ALL_FEATURES
  6
Continuous
 62
     7
100
AcDbLine
 10
119.2414287357
 20
130.7805109797
 30
0.0
 11
119.2414287357
 21
130.9805109797
 31
0.0
  0
LINE
  5
33D
330
1B
100
AcDbEntity
 67
     1
  8
7_ALL_FEATURES
  6
Continuous
 62
     7
100
AcDbLine
 10
119.2414287357
 20
130.9805109797
 30
0.0
 11
119.2414287357
 21
135.7805109797
 31
0.0
  0
LINE
  5
33E
330
1B
100
AcDbEntity
 67
     1
  8
7_ALL_FEATURES
  6
Continuous
 62
     7
100
AcDbLine
 10
119.2414287357
 20
145.7805109797
 30
0.0
 11
119.2414287357
 21
148.5805109797
 31
0.0
  0
LINE
  5
33F
330
1B
100
AcDbEntity
 67
     1
  8
7_ALL_FEATURES
  6
Continuous
 62
     7
100
AcDbLine
 10
119.2414287357
 20
52.9805109797
 30
0.0
 11
119.2414287357
 21
57.4438261808
 31
0.0
  0
LINE
  5
340
330
1B
100
AcDbEntity
 67
     1
  8
7_ALL_FEATURES
  6
Continuous
 62
     7
100
AcDbLine
 10
119.2414287357
 20
69.7805109797
 30
0.0
 11
119.2414287357
 21
70.5805109797
 31
0.0
  0
LINE
  5
341
330
1B
100
AcDbEntity
 67
     1
  8
7_ALL_FEATURES
  6
Continuous
 62
     7
100
AcDbLine
 10
119.2414287357
 20
70.5805109797
 30
0.0
 11
119.2414287357
 21
70.7805109797
 31
0.0
  0
LINE
  5
342
330
1B
100
AcDbEntity
 67
     1
  8
7_ALL_FEATURES
  6
Continuous
 62
     7
100
AcDbLine
 10
119.2414287357
 20
70.7805109797
 30
0.0
 11
119.1456860655
 21
70.7805109797
 31
0.0
  0
LINE
  5
343
330
1B
100
AcDbEntity
 67
     1
  8
7_ALL_FEATURES
  6
Continuous
 62
     7
100
AcDbLine
 10
122.2287005496
 20
53.9583350711
 30
0.0
 11
122.1993439551
 21
53.9390617548
 31
0.0
  0
LINE
  5
344
330
1B
100
AcDbEntity
 67
     1
  8
7_ALL_FEATURES
  6
Continuous
 62
     7
100
AcDbLine
 10
122.1993439551
 20
53.9390617548
 30
0.0
 11
120.7393053209
 21
52.9805109797
 31
0.0
  0
LINE
  5
345
330
1B
100
AcDbEntity
 67
     1
  8
7_ALL_FEATURES
  6
Continuous
 62
     7
100
AcDbLine
 10
122.2321628948
 20
54.0257413184
 30
0.0
 11
122.2287005496
 21
53.9583350711
 31
0.0
  0
LINE
  5
346
330
1B
100
AcDbEntity
 67
     1
  8
7_ALL_FEATURES
  6
Continuous
 62
     7
100
AcDbLine
 10
122.2287005496
 20
147.6026868884
 30
0.0
 11
122.2321628948
 21
147.5352806411
 31
0.0
  0
LINE
  5
347
330
1B
100
AcDbEntity
 67
     1
  8
7_ALL_FEATURES
  6
Continuous
 62
     7
100
AcDbLine
 10
122.2287005496
 20
147.6026868884
 30
0.0
 11
122.1993439551
 21
147.6219602047
 31
0.0
  0
LINE
  5
348
330
1B
100
AcDbEntity
 67
     1
  8
7_ALL_FEATURES
  6
Continuous
 62
     7
100
AcDbLine
 10
122.1993439551
 20
147.6219602047
 30
0.0
 11
120.7393053209
 21
148.5805109797
 31
0.0
  0
LINE
  5
349
330
1B
100
AcDbEntity
 67
     1
  8
7_ALL_FEATURES
  6
Continuous
 62
     7
100
AcDbLine
 10
119.2414287357
 20
52.9805109797
 30
0.0
 11
120.7393053209
 21
52.9805109797
 31
0.0
  0
LINE
  5
34A
330
1B
100
AcDbEntity
 67
     1
  8
7_ALL_FEATURES
  6
Continuous
 62
     7
100
AcDbLine
 10
119.2414287357
 20
148.5805109797
 30
0.0
 11
120.7393053209
 21
148.5805109797
 31
0.0
  0
LINE
  5
34B
330
1B
100
AcDbEntity
 67
     1
  8
7_ALL_FEATURES
  6
Continuous
 62
     7
100
AcDbLine
 10
120.7308239644
 20
147.6026868884
 30
0.0
 11
119.2414287357
 21
148.5805109797
 31
0.0
  0
LINE
  5
34C
330
1B
100
AcDbEntity
 67
     1
  8
7_ALL_FEATURES
  6
Continuous
 62
     7
100
AcDbLine
 10
120.8031627306
 20
146.1943683894
 30
0.0
 11
120.7308239644
 21
147.6026868884
 31
0.0
  0
LINE
  5
34D
330
1B
100
AcDbEntity
 67
     1
  8
7_ALL_FEATURES
  6
Continuous
 62
     7
100
AcDbLine
 10
122.2287005496
 20
147.6026868884
 30
0.0
 11
122.1393053209
 21
147.6026868884
 31
0.0
  0
LINE
  5
34E
330
1B
100
AcDbEntity
 67
     1
  8
7_ALL_FEATURES
  6
Continuous
 62
     7
100
AcDbLine
 10
122.1393053209
 20
147.6026868884
 30
0.0
 11
120.7308239644
 21
147.6026868884
 31
0.0
  0
LINE
  5
34F
330
1B
100
AcDbEntity
 67
     1
  8
7_ALL_FEATURES
  6
Continuous
 62
     7
100
AcDbLine
 10
120.7308239644
 20
53.9583350711
 30
0.0
 11
122.1393053209
 21
53.9583350711
 31
0.0
  0
LINE
  5
350
330
1B
100
AcDbEntity
 67
     1
  8
7_ALL_FEATURES
  6
Continuous
 62
     7
100
AcDbLine
 10
122.1393053209
 20
53.9583350711
 30
0.0
 11
122.2287005496
 21
53.9583350711
 31
0.0
  0
LINE
  5
351
330
1B
100
AcDbEntity
 67
     1
  8
7_ALL_FEATURES
  6
Continuous
 62
     7
100
AcDbLine
 10
120.7308239644
 20
53.9583350711
 30
0.0
 11
120.8031627306
 21
55.3666535701
 31
0.0
  0
LINE
  5
352
330
1B
100
AcDbEntity
 67
     1
  8
7_ALL_FEATURES
  6
Continuous
 62
     7
100
AcDbLine
 10
120.7308239644
 20
53.9583350711
 30
0.0
 11
119.2414287357
 21
52.9805109797
 31
0.0
  0
LINE
  5
353
330
1B
100
AcDbEntity
 67
     1
  8
7_ALL_FEATURES
  6
Continuous
 62
     7
100
AcDbLine
 10
214.7393053209
 20
128.7805109797
 30
0.0
 11
214.6329245763
 21
130.7805109797
 31
0.0
  0
LINE
  5
354
330
1B
100
AcDbEntity
 67
     1
  8
7_ALL_FEATURES
  6
Continuous
 62
     7
100
AcDbLine
 10
214.6329245763
 20
70.7805109797
 30
0.0
 11
214.7393053209
 21
72.7805109797
 31
0.0
  0
LINE
  5
355
330
1B
100
AcDbEntity
 67
     1
  8
7_ALL_FEATURES
  6
Continuous
 62
     7
100
AcDbLine
 10
214.6329245763
 20
70.7805109797
 30
0.0
 11
214.5371819062
 21
70.7805109797
 31
0.0
  0
LINE
  5
356
330
1B
100
AcDbEntity
 67
     1
  8
7_ALL_FEATURES
  6
Continuous
 62
     7
100
AcDbLine
 10
214.5371819062
 20
70.7805109797
 30
0.0
 11
214.5371819062
 21
70.5805109797
 31
0.0
  0
LINE
  5
357
330
1B
100
AcDbEntity
 67
     1
  8
7_ALL_FEATURES
  6
Continuous
 62
     7
100
AcDbLine
 10
214.5371819062
 20
70.5805109797
 30
0.0
 11
214.5371819062
 21
65.7805109797
 31
0.0
  0
LINE
  5
358
330
1B
100
AcDbEntity
 67
     1
  8
7_ALL_FEATURES
  6
Continuous
 62
     7
100
AcDbLine
 10
214.5371819062
 20
55.7805109797
 30
0.0
 11
214.5371819062
 21
52.9805109797
 31
0.0
  0
LINE
  5
359
330
1B
100
AcDbEntity
 67
     1
  8
7_ALL_FEATURES
  6
Continuous
 62
     7
100
AcDbLine
 10
214.5371819062
 20
148.5805109797
 30
0.0
 11
214.5371819062
 21
144.1171957786
 31
0.0
  0
LINE
  5
35A
330
1B
100
AcDbEntity
 67
     1
  8
7_ALL_FEATURES
  6
Continuous
 62
     7
100
AcDbLine
 10
214.5371819062
 20
131.7805109797
 30
0.0
 11
214.5371819062
 21
130.9805109797
 31
0.0
  0
LINE
  5
35B
330
1B
100
AcDbEntity
 67
     1
  8
7_ALL_FEATURES
  6
Continuous
 62
     7
100
AcDbLine
 10
214.5371819062
 20
130.9805109797
 30
0.0
 11
214.5371819062
 21
130.7805109797
 31
0.0
  0
LINE
  5
35C
330
1B
100
AcDbEntity
 67
     1
  8
7_ALL_FEATURES
  6
Continuous
 62
     7
100
AcDbLine
 10
214.5371819062
 20
130.7805109797
 30
0.0
 11
214.6329245763
 21
130.7805109797
 31
0.0
  0
LINE
  5
35D
330
1B
100
AcDbEntity
 67
     1
  8
7_ALL_FEATURES
  6
Continuous
 62
     7
100
AcDbLine
 10
211.5499100923
 20
147.6026868884
 30
0.0
 11
211.5792666868
 21
147.6219602047
 31
0.0
  0
LINE
  5
35E
330
1B
100
AcDbEntity
 67
     1
  8
7_ALL_FEATURES
  6
Continuous
 62
     7
100
AcDbLine
 10
211.5792666868
 20
147.6219602047
 30
0.0
 11
213.0393053209
 21
148.5805109797
 31
0.0
  0
LINE
  5
35F
330
1B
100
AcDbEntity
 67
     1
  8
7_ALL_FEATURES
  6
Continuous
 62
     7
100
AcDbLine
 10
211.5464477471
 20
147.5352806411
 30
0.0
 11
211.5499100923
 21
147.6026868884
 31
0.0
  0
LINE
  5
360
330
1B
100
AcDbEntity
 67
     1
  8
7_ALL_FEATURES
  6
Continuous
 62
     7
100
AcDbLine
 10
211.5499100923
 20
53.9583350711
 30
0.0
 11
211.5464477471
 21
54.0257413184
 31
0.0
  0
LINE
  5
361
330
1B
100
AcDbEntity
 67
     1
  8
7_ALL_FEATURES
  6
Continuous
 62
     7
100
AcDbLine
 10
211.5499100923
 20
53.9583350711
 30
0.0
 11
211.5792666868
 21
53.9390617548
 31
0.0
  0
LINE
  5
362
330
1B
100
AcDbEntity
 67
     1
  8
7_ALL_FEATURES
  6
Continuous
 62
     7
100
AcDbLine
 10
211.5792666868
 20
53.9390617548
 30
0.0
 11
213.0393053209
 21
52.9805109797
 31
0.0
  0
LINE
  5
363
330
1B
100
AcDbEntity
 67
     1
  8
7_ALL_FEATURES
  6
Continuous
 62
     7
100
AcDbLine
 10
214.5371819062
 20
148.5805109797
 30
0.0
 11
213.0393053209
 21
148.5805109797
 31
0.0
  0
LINE
  5
364
330
1B
100
AcDbEntity
 67
     1
  8
7_ALL_FEATURES
  6
Continuous
 62
     7
100
AcDbLine
 10
214.5371819062
 20
52.9805109797
 30
0.0
 11
213.0393053209
 21
52.9805109797
 31
0.0
  0
LINE
  5
365
330
1B
100
AcDbEntity
 67
     1
  8
7_ALL_FEATURES
  6
Continuous
 62
     7
100
AcDbLine
 10
213.0477866775
 20
53.9583350711
 30
0.0
 11
214.5371819062
 21
52.9805109797
 31
0.0
  0
LINE
  5
366
330
1B
100
AcDbEntity
 67
     1
  8
7_ALL_FEATURES
  6
Continuous
 62
     7
100
AcDbLine
 10
212.9754479113
 20
55.3666535701
 30
0.0
 11
213.0477866775
 21
53.9583350711
 31
0.0
  0
LINE
  5
367
330
1B
100
AcDbEntity
 67
     1
  8
7_ALL_FEATURES
  6
Continuous
 62
     7
100
AcDbLine
 10
211.5499100923
 20
53.9583350711
 30
0.0
 11
211.6393053209
 21
53.9583350711
 31
0.0
  0
LINE
  5
368
330
1B
100
AcDbEntity
 67
     1
  8
7_ALL_FEATURES
  6
Continuous
 62
     7
100
AcDbLine
 10
211.6393053209
 20
53.9583350711
 30
0.0
 11
213.0477866775
 21
53.9583350711
 31
0.0
  0
LINE
  5
369
330
1B
100
AcDbEntity
 67
     1
  8
7_ALL_FEATURES
  6
Continuous
 62
     7
100
AcDbLine
 10
213.0477866775
 20
147.6026868884
 30
0.0
 11
211.6393053209
 21
147.6026868884
 31
0.0
  0
LINE
  5
36A
330
1B
100
AcDbEntity
 67
     1
  8
7_ALL_FEATURES
  6
Continuous
 62
     7
100
AcDbLine
 10
211.6393053209
 20
147.6026868884
 30
0.0
 11
211.5499100923
 21
147.6026868884
 31
0.0
  0
LINE
  5
36B
330
1B
100
AcDbEntity
 67
     1
  8
7_ALL_FEATURES
  6
Continuous
 62
     7
100
AcDbLine
 10
213.0477866775
 20
147.6026868884
 30
0.0
 11
212.9754479113
 21
146.1943683894
 31
0.0
  0
LINE
  5
36C
330
1B
100
AcDbEntity
 67
     1
  8
7_ALL_FEATURES
  6
Continuous
 62
     7
100
AcDbLine
 10
213.0477866775
 20
147.6026868884
 30
0.0
 11
214.5371819062
 21
148.5805109797
 31
0.0
  0
LINE
  5
36D
330
1B
100
AcDbEntity
 67
     1
  8
7_ALL_FEATURES
  6
Continuous
 62
     7
100
AcDbLine
 10
187.3893053209
 20
124.2805109797
 30
0.0
 11
190.3893053209
 21
121.2805109797
 31
0.0
  0
LINE
  5
36E
330
1B
100
AcDbEntity
 67
     1
  8
7_ALL_FEATURES
  6
Continuous
 62
     7
100
AcDbLine
 10
190.3893053209
 20
80.2805109797
 30
0.0
 11
187.3893053209
 21
77.2805109797
 31
0.0
  0
LINE
  5
36F
330
1B
100
AcDbEntity
 67
     1
  8
7_ALL_FEATURES
  6
Continuous
 62
     7
100
AcDbLine
 10
146.3893053209
 20
77.2805109797
 30
0.0
 11
143.3893053209
 21
80.2805109797
 31
0.0
  0
LINE
  5
370
330
1B
100
AcDbEntity
 67
     1
  8
7_ALL_FEATURES
  6
Continuous
 62
     7
100
AcDbLine
 10
143.3893053209
 20
121.2805109797
 30
0.0
 11
146.3893053209
 21
124.2805109797
 31
0.0
  0
LINE
  5
371
330
1B
100
AcDbEntity
 67
     1
  8
7_ALL_FEATURES
  6
Continuous
 62
     7
100
AcDbLine
 10
116.3893053209
 20
48.2805109797
 30
0.0
 11
217.3893053209
 21
48.2805109797
 31
0.0
  0
LINE
  5
372
330
1B
100
AcDbEntity
 67
     1
  8
7_ALL_FEATURES
  6
Continuous
 62
     7
100
AcDbLine
 10
217.3893053209
 20
48.2805109797
 30
0.0
 11
219.3893053209
 21
50.2805109797
 31
0.0
  0
LINE
  5
373
330
1B
100
AcDbEntity
 67
     1
  8
7_ALL_FEATURES
  6
Continuous
 62
     7
100
AcDbLine
 10
219.3893053209
 20
50.2805109797
 30
0.0
 11
219.3893053209
 21
151.2805109797
 31
0.0
  0
LINE
  5
374
330
1B
100
AcDbEntity
 67
     1
  8
7_ALL_FEATURES
  6
Continuous
 62
     7
100
AcDbLine
 10
219.3893053209
 20
151.2805109797
 30
0.0
 11
217.3893053209
 21
153.2805109797
 31
0.0
  0
LINE
  5
375
330
1B
100
AcDbEntity
 67
     1
  8
7_ALL_FEATURES
  6
Continuous
 62
     7
100
AcDbLine
 10
217.3893053209
 20
153.2805109797
 30
0.0
 11
116.3893053209
 21
153.2805109797
 31
0.0
  0
LINE
  5
376
330
1B
100
AcDbEntity
 67
     1
  8
7_ALL_FEATURES
  6
Continuous
 62
     7
100
AcDbLine
 10
116.3893053209
 20
153.2805109797
 30
0.0
 11
114.3893053209
 21
151.2805109797
 31
0.0
  0
LINE
  5
377
330
1B
100
AcDbEntity
 67
     1
  8
7_ALL_FEATURES
  6
Continuous
 62
     7
100
AcDbLine
 10
114.3893053209
 20
151.2805109797
 30
0.0
 11
114.3893053209
 21
50.2805109797
 31
0.0
  0
LINE
  5
378
330
1B
100
AcDbEntity
 67
     1
  8
7_ALL_FEATURES
  6
Continuous
 62
     7
100
AcDbLine
 10
114.3893053209
 20
50.2805109797
 30
0.0
 11
116.3893053209
 21
48.2805109797
 31
0.0
  0
ARC
  5
379
330
1B
100
AcDbEntity
 67
     1
  8
02___PRT_ALL_AXES
  6
Continuous
 62
     7
100
AcDbCircle
 10
166.8893053209
 20
100.7805109797
 30
0.0
 40
36.5
100
AcDbArc
 50
215.0
 51
235.0
  0
ARC
  5
37A
330
1B
100
AcDbEntity
 67
     1
  8
02___PRT_ALL_AXES
  6
Continuous
 62
     7
100
AcDbCircle
 10
143.9462478669
 20
68.0144292082
 30
0.0
 40
3.5
100
AcDbArc
 50
327.5720774023
 51
55.00000000000001
  0
ARC
  5
37B
330
1B
100
AcDbEntity
 67
     1
  8
02___PRT_ALL_AXES
  6
Continuous
 62
     7
100
AcDbCircle
 10
134.1232235494
 20
77.8374535257
 30
0.0
 40
3.5
100
AcDbArc
 50
35.0
 51
122.4333145796
  0
ARC
  5
37C
330
1B
100
AcDbEntity
 67
     1
  8
02___PRT_ALL_AXES
  6
Continuous
 62
     7
100
AcDbCircle
 10
166.8893053209
 20
100.7805109797
 30
0.0
 40
36.5
100
AcDbArc
 50
125.0
 51
145.0
  0
ARC
  5
37D
330
1B
100
AcDbEntity
 67
     1
  8
02___PRT_ALL_AXES
  6
Continuous
 62
     7
100
AcDbCircle
 10
134.1232235494
 20
123.7235684338
 30
0.0
 40
3.5
100
AcDbArc
 50
145.0
 51
158.0661897851
  0
ARC
  5
37E
330
1B
100
AcDbEntity
 67
     1
  8
02___PRT_ALL_AXES
  6
Continuous
 62
     7
100
AcDbCircle
 10
134.1232235494
 20
123.7235684338
 30
0.0
 40
3.5
100
AcDbArc
 50
201.6402795481
 51
325.0
  0
ARC
  5
37F
330
1B
100
AcDbEntity
 67
     1
  8
02___PRT_ALL_AXES
  6
Continuous
 62
     7
100
AcDbCircle
 10
166.8893053209
 20
100.7805109797
 30
0.0
 40
43.5
100
AcDbArc
 50
125.0
 51
145.0
  0
ARC
  5
380
330
1B
100
AcDbEntity
 67
     1
  8
02___PRT_ALL_AXES
  6
Continuous
 62
     7
100
AcDbCircle
 10
143.9462478669
 20
133.5465927513
 30
0.0
 40
3.5
100
AcDbArc
 50
305.0
 51
68.3597204519
  0
ARC
  5
381
330
1B
100
AcDbEntity
 67
     1
  8
02___PRT_ALL_AXES
  6
Continuous
 62
     7
100
AcDbCircle
 10
143.9462478669
 20
133.5465927513
 30
0.0
 40
3.5
100
AcDbArc
 50
111.9338102149
 51
125.0
  0
ARC
  5
382
330
1B
100
AcDbEntity
 67
     1
  8
02___PRT_ALL_AXES
  6
Continuous
 62
     7
100
AcDbCircle
 10
166.8893053209
 20
100.7805109797
 30
0.0
 40
36.5
100
AcDbArc
 50
35.0
 51
55.00000000000001
  0
ARC
  5
383
330
1B
100
AcDbEntity
 67
     1
  8
02___PRT_ALL_AXES
  6
Continuous
 62
     7
100
AcDbCircle
 10
189.832362775
 20
133.5465927513
 30
0.0
 40
3.5
100
AcDbArc
 50
147.5720774023
 51
235.0
  0
ARC
  5
384
330
1B
100
AcDbEntity
 67
     1
  8
02___PRT_ALL_AXES
  6
Continuous
 62
     7
100
AcDbCircle
 10
199.6553870925
 20
123.7235684338
 30
0.0
 40
3.5
100
AcDbArc
 50
215.0
 51
302.4333145796
  0
ARC
  5
385
330
1B
100
AcDbEntity
 67
     1
  8
02___PRT_ALL_AXES
  6
Continuous
 62
     7
100
AcDbCircle
 10
166.8893053209
 20
100.7805109797
 30
0.0
 40
36.5
100
AcDbArc
 50
305.0
 51
325.0
  0
ARC
  5
386
330
1B
100
AcDbEntity
 67
     1
  8
02___PRT_ALL_AXES
  6
Continuous
 62
     7
100
AcDbCircle
 10
199.6553870925
 20
77.8374535257
 30
0.0
 40
3.5
100
AcDbArc
 50
325.0
 51
338.0661897851
  0
ARC
  5
387
330
1B
100
AcDbEntity
 67
     1
  8
02___PRT_ALL_AXES
  6
Continuous
 62
     7
100
AcDbCircle
 10
199.6553870925
 20
77.8374535257
 30
0.0
 40
3.5
100
AcDbArc
 50
21.6402795481
 51
145.0
  0
ARC
  5
388
330
1B
100
AcDbEntity
 67
     1
  8
02___PRT_ALL_AXES
  6
Continuous
 62
     7
100
AcDbCircle
 10
166.8893053209
 20
100.7805109797
 30
0.0
 40
43.5
100
AcDbArc
 50
305.0
 51
325.0
  0
ARC
  5
389
330
1B
100
AcDbEntity
 67
     1
  8
02___PRT_ALL_AXES
  6
Continuous
 62
     7
100
AcDbCircle
 10
189.832362775
 20
68.0144292082
 30
0.0
 40
3.5
100
AcDbArc
 50
125.0
 51
248.3597204519
  0
ARC
  5
38A
330
1B
100
AcDbEntity
 67
     1
  8
02___PRT_ALL_AXES
  6
Continuous
 62
     7
100
AcDbCircle
 10
189.832362775
 20
68.0144292082
 30
0.0
 40
3.5
100
AcDbArc
 50
291.9338102149
 51
305.0
  0
LINE
  5
38B
330
1B
100
AcDbEntity
 67
     1
  8
7_ALL_FEATURES
  6
Continuous
 62
     7
100
AcDbLine
 10
187.3893053209
 20
124.2805109797
 30
0.0
 11
146.3893053209
 21
124.2805109797
 31
0.0
  0
LINE
  5
38C
330
1B
100
AcDbEntity
 67
     1
  8
7_ALL_FEATURES
  6
Continuous
 62
     7
100
AcDbLine
 10
190.3893053209
 20
80.2805109797
 30
0.0
 11
190.3893053209
 21
121.2805109797
 31
0.0
  0
LINE
  5
38D
330
1B
100
AcDbEntity
 67
     1
  8
7_ALL_FEATURES
  6
Continuous
 62
     7
100
AcDbLine
 10
146.3893053209
 20
77.2805109797
 30
0.0
 11
187.3893053209
 21
77.2805109797
 31
0.0
  0
LINE
  5
38E
330
1B
100
AcDbEntity
 67
     1
  8
7_ALL_FEATURES
  6
Continuous
 62
     7
100
AcDbLine
 10
143.3893053209
 20
121.2805109797
 30
0.0
 11
143.3893053209
 21
80.2805109797
 31
0.0
  0
LINE
  5
38F
330
1B
100
AcDbEntity
 67
     1
  8
7_ALL_FEATURES
  6
Continuous
 62
     7
100
AcDbLine
 10
214.7393053209
 20
70.5805109797
 30
0.0
 11
214.7393053209
 21
70.7805109797
 31
0.0
  0
LINE
  5
390
330
1B
100
AcDbEntity
 67
     1
  8
7_ALL_FEATURES
  6
Continuous
 62
     7
100
AcDbLine
 10
214.7393053209
 20
70.7805109797
 30
0.0
 11
214.7393053209
 21
77.5447639153
 31
0.0
  0
LINE
  5
391
330
1B
100
AcDbEntity
 67
     1
  8
7_ALL_FEATURES
  6
Continuous
 62
     7
100
AcDbLine
 10
214.7393053209
 20
79.0162580442
 30
0.0
 11
214.7393053209
 21
122.5447639153
 31
0.0
  0
LINE
  5
392
330
1B
100
AcDbEntity
 67
     1
  8
7_ALL_FEATURES
  6
Continuous
 62
     7
100
AcDbLine
 10
214.7393053209
 20
124.0162580442
 30
0.0
 11
214.7393053209
 21
130.7805109797
 31
0.0
  0
LINE
  5
393
330
1B
100
AcDbEntity
 67
     1
  8
7_ALL_FEATURES
  6
Continuous
 62
     7
100
AcDbLine
 10
214.7393053209
 20
130.7805109797
 30
0.0
 11
214.7393053209
 21
130.9805109797
 31
0.0
  0
LINE
  5
394
330
1B
100
AcDbEntity
 67
     1
  8
7_ALL_FEATURES
  6
Continuous
 62
     7
100
AcDbLine
 10
214.5371819062
 20
70.5805109797
 30
0.0
 11
214.7393053209
 21
70.5805109797
 31
0.0
  0
LINE
  5
395
330
1B
100
AcDbEntity
 67
     1
  8
7_ALL_FEATURES
  6
Continuous
 62
     7
100
AcDbLine
 10
214.7393053209
 20
130.9805109797
 30
0.0
 11
214.5371819062
 21
130.9805109797
 31
0.0
  0
LINE
  5
396
330
1B
100
AcDbEntity
 67
     1
  8
7_ALL_FEATURES
  6
Continuous
 62
     7
100
AcDbLine
 10
119.2414287357
 20
130.9805109797
 30
0.0
 11
119.0393053209
 21
130.9805109797
 31
0.0
  0
LINE
  5
397
330
1B
100
AcDbEntity
 67
     1
  8
7_ALL_FEATURES
  6
Continuous
 62
     7
100
AcDbLine
 10
119.0393053209
 20
130.9805109797
 30
0.0
 11
119.0393053209
 21
130.7805109797
 31
0.0
  0
LINE
  5
398
330
1B
100
AcDbEntity
 67
     1
  8
7_ALL_FEATURES
  6
Continuous
 62
     7
100
AcDbLine
 10
119.0393053209
 20
130.7805109797
 30
0.0
 11
119.0393053209
 21
124.0162580442
 31
0.0
  0
LINE
  5
399
330
1B
100
AcDbEntity
 67
     1
  8
7_ALL_FEATURES
  6
Continuous
 62
     7
100
AcDbLine
 10
119.0393053209
 20
122.5447639153
 30
0.0
 11
119.0393053209
 21
79.0162580442
 31
0.0
  0
LINE
  5
39A
330
1B
100
AcDbEntity
 67
     1
  8
7_ALL_FEATURES
  6
Continuous
 62
     7
100
AcDbLine
 10
119.0393053209
 20
77.5447639153
 30
0.0
 11
119.0393053209
 21
70.7805109797
 31
0.0
  0
LINE
  5
39B
330
1B
100
AcDbEntity
 67
     1
  8
7_ALL_FEATURES
  6
Continuous
 62
     7
100
AcDbLine
 10
119.0393053209
 20
70.7805109797
 30
0.0
 11
119.0393053209
 21
70.5805109797
 31
0.0
  0
LINE
  5
39C
330
1B
100
AcDbEntity
 67
     1
  8
7_ALL_FEATURES
  6
Continuous
 62
     7
100
AcDbLine
 10
119.0393053209
 20
70.5805109797
 30
0.0
 11
119.2414287357
 21
70.5805109797
 31
0.0
  0
ARC
  5
39D
330
1B
100
AcDbEntity
 67
     1
  8
7_ALL_FEATURES
  6
Continuous
 62
     7
100
AcDbCircle
 10
195.8893053209
 20
71.7805109797
 30
0.0
 40
7.0
100
AcDbArc
 50
270.0
 51
360.0
  0
ARC
  5
39E
330
1B
100
AcDbEntity
 67
     1
  8
7_ALL_FEATURES
  6
Continuous
 62
     7
100
AcDbCircle
 10
137.8893053209
 20
129.7805109797
 30
0.0
 40
7.0
100
AcDbArc
 50
90.0
 51
180.0
  0
ARC
  5
39F
330
1B
100
AcDbEntity
 67
     1
  8
7_ALL_FEATURES
  6
Continuous
 62
     7
100
AcDbCircle
 10
166.8893053209
 20
100.7805109797
 30
0.0
 40
40.0
100
AcDbArc
 50
158.0135970028
 51
291.9864029972
  0
ARC
  5
3A0
330
1B
100
AcDbEntity
 67
     1
  8
7_ALL_FEATURES
  6
Continuous
 62
     7
100
AcDbCircle
 10
166.8893053209
 20
100.7805109797
 30
0.0
 40
40.0
100
AcDbArc
 50
338.0135970027999
 51
111.9864029972
  0
ARC
  5
3A1
330
1B
100
AcDbEntity
 67
     1
  8
7_ALL_FEATURES
  6
Continuous
 62
     7
100
AcDbCircle
 10
146.298045039
 20
151.7805109797
 30
0.0
 40
15.0
100
AcDbArc
 50
270.0
 51
291.9864029972
  0
ARC
  5
3A2
330
1B
100
AcDbEntity
 67
     1
  8
7_ALL_FEATURES
  6
Continuous
 62
     7
100
AcDbCircle
 10
217.8893053209
 20
80.1892506978
 30
0.0
 40
15.0
100
AcDbArc
 50
158.0135970028
 51
180.0
  0
LINE
  5
3A3
330
1B
100
AcDbEntity
 67
     1
  8
7_ALL_FEATURES
  6
Continuous
 62
     7
100
AcDbLine
 10
202.8893053209
 20
71.7805109797
 30
0.0
 11
202.8893053209
 21
80.1892506978
 31
0.0
  0
LINE
  5
3A4
330
1B
100
AcDbEntity
 67
     1
  8
7_ALL_FEATURES
  6
Continuous
 62
     7
100
AcDbLine
 10
187.4805656029
 20
64.7805109797
 30
0.0
 11
195.8893053209
 21
64.7805109797
 31
0.0
  0
ARC
  5
3A5
330
1B
100
AcDbEntity
 67
     1
  8
7_ALL_FEATURES
  6
Continuous
 62
     7
100
AcDbCircle
 10
187.4805656029
 20
49.7805109797
 30
0.0
 40
15.0
100
AcDbArc
 50
90.0
 51
111.9864029972
  0
ARC
  5
3A6
330
1B
100
AcDbEntity
 67
     1
  8
7_ALL_FEATURES
  6
Continuous
 62
     7
100
AcDbCircle
 10
115.8893053209
 20
121.3717712617
 30
0.0
 40
15.0
100
AcDbArc
 50
338.0135970027999
 51
360.0
  0
LINE
  5
3A7
330
1B
100
AcDbEntity
 67
     1
  8
7_ALL_FEATURES
  6
Continuous
 62
     7
100
AcDbLine
 10
130.8893053209
 20
129.7805109797
 30
0.0
 11
130.8893053209
 21
121.3717712617
 31
0.0
  0
LINE
  5
3A8
330
1B
100
AcDbEntity
 67
     1
  8
7_ALL_FEATURES
  6
Continuous
 62
     7
100
AcDbLine
 10
146.298045039
 20
136.7805109797
 30
0.0
 11
137.8893053209
 21
136.7805109797
 31
0.0
  0
LINE
  5
3A9
330
1B
100
AcDbEntity
 67
     1
  8
7_ALL_FEATURES
  6
Continuous
 62
     7
100
AcDbLine
 10
213.6393053209
 20
56.0305109797
 30
0.0
 11
213.6393053209
 21
74.1480177855
 31
0.0
  0
ARC
  5
3AA
330
1B
100
AcDbEntity
 67
     1
  8
02___PRT_ALL_AXES
  6
Continuous
 62
     7
100
AcDbCircle
 10
206.7893053209
 20
78.2805109797
 30
0.0
 40
8.0
100
AcDbArc
 50
328.8981049652
 51
31.1018950349
  0
LINE
  5
3AB
330
1B
100
AcDbEntity
 67
     1
  8
02___PRT_ALL_AXES
  6
Continuous
 62
     7
100
AcDbLine
 10
213.6393053209
 20
82.4130041739
 30
0.0
 11
213.6393053209
 21
119.1480177855
 31
0.0
  0
ARC
  5
3AC
330
1B
100
AcDbEntity
 67
     1
  8
02___PRT_ALL_AXES
  6
Continuous
 62
     7
100
AcDbCircle
 10
206.7893053209
 20
123.2805109797
 30
0.0
 40
8.0
100
AcDbArc
 50
328.8981049652
 51
31.1018950349
  0
LINE
  5
3AD
330
1B
100
AcDbEntity
 67
     1
  8
7_ALL_FEATURES
  6
Continuous
 62
     7
100
AcDbLine
 10
213.6393053209
 20
127.4130041739
 30
0.0
 11
213.6393053209
 21
145.5305109797
 31
0.0
  0
LINE
  5
3AE
330
1B
100
AcDbEntity
 67
     1
  8
7_ALL_FEATURES
  6
Continuous
 62
     7
100
AcDbLine
 10
213.6393053209
 20
145.5305109797
 30
0.0
 11
211.6393053209
 21
147.5305109797
 31
0.0
  0
LINE
  5
3AF
330
1B
100
AcDbEntity
 67
     1
  8
7_ALL_FEATURES
  6
Continuous
 62
     7
100
AcDbLine
 10
211.6393053209
 20
147.5305109797
 30
0.0
 11
193.5217985151
 21
147.5305109797
 31
0.0
  0
ARC
  5
3B0
330
1B
100
AcDbEntity
 67
     1
  8
02___PRT_ALL_AXES
  6
Continuous
 62
     7
100
AcDbCircle
 10
189.3893053209
 20
140.6805109797
 30
0.0
 40
8.0
100
AcDbArc
 50
58.8981049651
 51
121.1018950349
  0
LINE
  5
3B1
330
1B
100
AcDbEntity
 67
     1
  8
02___PRT_ALL_AXES
  6
Continuous
 62
     7
100
AcDbLine
 10
185.2568121268
 20
147.5305109797
 30
0.0
 11
148.5217985151
 21
147.5305109797
 31
0.0
  0
ARC
  5
3B2
330
1B
100
AcDbEntity
 67
     1
  8
02___PRT_ALL_AXES
  6
Continuous
 62
     7
100
AcDbCircle
 10
144.3893053209
 20
140.6805109797
 30
0.0
 40
8.0
100
AcDbArc
 50
58.8981049651
 51
121.1018950349
  0
LINE
  5
3B3
330
1B
100
AcDbEntity
 67
     1
  8
7_ALL_FEATURES
  6
Continuous
 62
     7
100
AcDbLine
 10
140.2568121268
 20
147.5305109797
 30
0.0
 11
122.1393053209
 21
147.5305109797
 31
0.0
  0
LINE
  5
3B4
330
1B
100
AcDbEntity
 67
     1
  8
7_ALL_FEATURES
  6
Continuous
 62
     7
100
AcDbLine
 10
122.1393053209
 20
147.5305109797
 30
0.0
 11
120.1393053209
 21
145.5305109797
 31
0.0
  0
LINE
  5
3B5
330
1B
100
AcDbEntity
 67
     1
  8
7_ALL_FEATURES
  6
Continuous
 62
     7
100
AcDbLine
 10
120.1393053209
 20
145.5305109797
 30
0.0
 11
120.1393053209
 21
127.4130041739
 31
0.0
  0
ARC
  5
3B6
330
1B
100
AcDbEntity
 67
     1
  8
02___PRT_ALL_AXES
  6
Continuous
 62
     7
100
AcDbCircle
 10
126.9893053209
 20
123.2805109797
 30
0.0
 40
8.0
100
AcDbArc
 50
148.8981049651
 51
211.1018950348
  0
LINE
  5
3B7
330
1B
100
AcDbEntity
 67
     1
  8
02___PRT_ALL_AXES
  6
Continuous
 62
     7
100
AcDbLine
 10
120.1393053209
 20
119.1480177855
 30
0.0
 11
120.1393053209
 21
82.4130041739
 31
0.0
  0
ARC
  5
3B8
330
1B
100
AcDbEntity
 67
     1
  8
02___PRT_ALL_AXES
  6
Continuous
 62
     7
100
AcDbCircle
 10
126.9893053209
 20
78.2805109797
 30
0.0
 40
8.0
100
AcDbArc
 50
148.8981049651
 51
211.1018950349
  0
LINE
  5
3B9
330
1B
100
AcDbEntity
 67
     1
  8
7_ALL_FEATURES
  6
Continuous
 62
     7
100
AcDbLine
 10
120.1393053209
 20
74.1480177855
 30
0.0
 11
120.1393053209
 21
56.0305109797
 31
0.0
  0
LINE
  5
3BA
330
1B
100
AcDbEntity
 67
     1
  8
7_ALL_FEATURES
  6
Continuous
 62
     7
100
AcDbLine
 10
120.1393053209
 20
56.0305109797
 30
0.0
 11
122.1393053209
 21
54.0305109797
 31
0.0
  0
LINE
  5
3BB
330
1B
100
AcDbEntity
 67
     1
  8
7_ALL_FEATURES
  6
Continuous
 62
     7
100
AcDbLine
 10
122.1393053209
 20
54.0305109797
 30
0.0
 11
140.2568121268
 21
54.0305109797
 31
0.0
  0
ARC
  5
3BC
330
1B
100
AcDbEntity
 67
     1
  8
02___PRT_ALL_AXES
  6
Continuous
 62
     7
100
AcDbCircle
 10
144.3893053209
 20
60.8805109797
 30
0.0
 40
8.0
100
AcDbArc
 50
238.8981049651
 51
301.1018950349001
  0
LINE
  5
3BD
330
1B
100
AcDbEntity
 67
     1
  8
7_ALL_FEATURES
  6
Continuous
 62
     7
100
AcDbLine
 10
211.6393053209
 20
54.0305109797
 30
0.0
 11
213.6393053209
 21
56.0305109797
 31
0.0
  0
LINE
  5
3BE
330
1B
100
AcDbEntity
 67
     1
  8
7_ALL_FEATURES
  6
Continuous
 62
     7
100
AcDbLine
 10
193.5217985151
 20
54.0305109797
 30
0.0
 11
211.6393053209
 21
54.0305109797
 31
0.0
  0
ARC
  5
3BF
330
1B
100
AcDbEntity
 67
     1
  8
02___PRT_ALL_AXES
  6
Continuous
 62
     7
100
AcDbCircle
 10
189.3893053209
 20
60.8805109797
 30
0.0
 40
8.0
100
AcDbArc
 50
238.8981049652
 51
301.1018950349001
  0
LINE
  5
3C0
330
1B
100
AcDbEntity
 67
     1
  8
02___PRT_ALL_AXES
  6
Continuous
 62
     7
100
AcDbLine
 10
148.5217985151
 20
54.0305109797
 30
0.0
 11
185.2568121268
 21
54.0305109797
 31
0.0
  0
LINE
  5
3C1
330
1B
100
AcDbEntity
 67
     1
  8
7_ALL_FEATURES
  6
Continuous
 62
     7
100
AcDbLine
 10
116.8893053209
 20
50.7805109797
 30
0.0
 11
216.8893053209
 21
50.7805109797
 31
0.0
  0
LINE
  5
3C2
330
1B
100
AcDbEntity
 67
     1
  8
7_ALL_FEATURES
  6
Continuous
 62
     7
100
AcDbLine
 10
116.8893053209
 20
150.7805109797
 30
0.0
 11
116.8893053209
 21
50.7805109797
 31
0.0
  0
LINE
  5
3C3
330
1B
100
AcDbEntity
 67
     1
  8
7_ALL_FEATURES
  6
Continuous
 62
     7
100
AcDbLine
 10
216.8893053209
 20
150.7805109797
 30
0.0
 11
116.8893053209
 21
150.7805109797
 31
0.0
  0
LINE
  5
3C4
330
1B
100
AcDbEntity
 67
     1
  8
7_ALL_FEATURES
  6
Continuous
 62
     7
100
AcDbLine
 10
216.8893053209
 20
50.7805109797
 30
0.0
 11
216.8893053209
 21
150.7805109797
 31
0.0
  0
LINE
  5
3C5
330
1B
100
AcDbEntity
 67
     1
  8
7_ALL_FEATURES
  6
Continuous
 62
     7
100
AcDbLine
 10
118.8893053209
 20
52.7805109797
 30
0.0
 11
118.8893053209
 21
148.7805109797
 31
0.0
  0
LINE
  5
3C6
330
1B
100
AcDbEntity
 67
     1
  8
7_ALL_FEATURES
  6
Continuous
 62
     7
100
AcDbLine
 10
214.8893053209
 20
52.7805109797
 30
0.0
 11
118.8893053209
 21
52.7805109797
 31
0.0
  0
LINE
  5
3C7
330
1B
100
AcDbEntity
 67
     1
  8
7_ALL_FEATURES
  6
Continuous
 62
     7
100
AcDbLine
 10
214.8893053209
 20
148.7805109797
 30
0.0
 11
214.8893053209
 21
52.7805109797
 31
0.0
  0
LINE
  5
3C8
330
1B
100
AcDbEntity
 67
     1
  8
7_ALL_FEATURES
  6
Continuous
 62
     7
100
AcDbLine
 10
118.8893053209
 20
148.7805109797
 30
0.0
 11
214.8893053209
 21
148.7805109797
 31
0.0
  0
LINE
  5
3C9
330
1B
100
AcDbEntity
 67
     1
  8
7_ALL_FEATURES
  6
Continuous
 62
     7
100
AcDbLine
 10
130.2893053209
 20
681.0760135135
 30
0.0
 11
129.7893053209
 21
681.0760135135
 31
0.0
  0
LINE
  5
3CA
330
1B
100
AcDbEntity
 67
     1
  8
7_ALL_FEATURES
  6
Continuous
 62
     7
100
AcDbLine
 10
129.7893053209
 20
681.0760135135
 30
0.0
 11
128.4893053209
 21
681.0760135135
 31
0.0
  0
LINE
  5
3CB
330
1B
100
AcDbEntity
 67
     1
  8
7_ALL_FEATURES
  6
Continuous
 62
     7
100
AcDbLine
 10
128.4893053209
 20
681.0760135135
 30
0.0
 11
124.2893053209
 21
681.0760135135
 31
0.0
  0
LINE
  5
3CC
330
1B
100
AcDbEntity
 67
     1
  8
7_ALL_FEATURES
  6
Continuous
 62
     7
100
AcDbLine
 10
124.2893053209
 20
681.0760135135
 30
0.0
 11
122.9893053209
 21
681.0760135135
 31
0.0
  0
LINE
  5
3CD
330
1B
100
AcDbEntity
 67
     1
  8
7_ALL_FEATURES
  6
Continuous
 62
     7
100
AcDbLine
 10
122.9893053209
 20
681.0760135135
 30
0.0
 11
122.4893053209
 21
681.0760135135
 31
0.0
  0
LINE
  5
3CE
330
1B
100
AcDbEntity
 67
     1
  8
7_ALL_FEATURES
  6
Continuous
 62
     7
100
AcDbLine
 10
121.989305321
 20
680.5760135135
 30
0.0
 11
122.489305321
 21
681.0760135135
 31
0.0
  0
LINE
  5
3CF
330
1B
100
AcDbEntity
 67
     1
  8
7_ALL_FEATURES
  6
Continuous
 62
     7
100
AcDbLine
 10
130.7893053209
 20
680.5760135135
 30
0.0
 11
130.2893053209
 21
681.0760135135
 31
0.0
  0
LINE
  5
3D0
330
1B
100
AcDbEntity
 67
     1
  8
7_ALL_FEATURES
  6
Continuous
 62
     7
100
AcDbLine
 10
130.7893053209
 20
676.3510135135
 30
0.0
 11
130.7893053209
 21
671.0760135135
 31
0.0
  0
LINE
  5
3D1
330
1B
100
AcDbEntity
 67
     1
  8
7_ALL_FEATURES
  6
Continuous
 62
     7
100
AcDbLine
 10
121.9893053209
 20
676.3510135135
 30
0.0
 11
121.9893053209
 21
671.0760135135
 31
0.0
  0
LINE
  5
3D2
330
1B
100
AcDbEntity
 67
     1
  8
7_ALL_FEATURES
  6
Continuous
 62
     7
100
AcDbLine
 10
130.7893053209
 20
680.5760135135
 30
0.0
 11
130.7893053209
 21
678.4010135135
 31
0.0
  0
LINE
  5
3D3
330
1B
100
AcDbEntity
 67
     1
  8
7_ALL_FEATURES
  6
Continuous
 62
     7
100
AcDbLine
 10
121.9893053209
 20
680.5760135135
 30
0.0
 11
121.9893053209
 21
678.4010135135
 31
0.0
  0
LINE
  5
3D4
330
1B
100
AcDbEntity
 67
     1
  8
02___PRT_ALL_AXES
  6
Continuous
 62
     7
100
AcDbLine
 10
130.7893053209
 20
678.4010135135
 30
0.0
 11
129.7643053209
 21
677.3760135135
 31
0.0
  0
LINE
  5
3D5
330
1B
100
AcDbEntity
 67
     1
  8
02___PRT_ALL_AXES
  6
Continuous
 62
     7
100
AcDbLine
 10
121.9893053209
 20
678.4010135135
 30
0.0
 11
123.0143053209
 21
677.3760135135
 31
0.0
  0
LINE
  5
3D6
330
1B
100
AcDbEntity
 67
     1
  8
02___PRT_ALL_AXES
  6
Continuous
 62
     7
100
AcDbLine
 10
129.7643053209
 20
677.3760135135
 30
0.0
 11
130.7893053209
 21
676.3510135135
 31
0.0
  0
LINE
  5
3D7
330
1B
100
AcDbEntity
 67
     1
  8
02___PRT_ALL_AXES
  6
Continuous
 62
     7
100
AcDbLine
 10
123.0143053209
 20
677.3760135135
 30
0.0
 11
121.9893053209
 21
676.3510135135
 31
0.0
  0
LINE
  5
3D8
330
1B
100
AcDbEntity
 67
     1
  8
02___PRT_ALL_AXES
  6
Continuous
 62
     7
100
AcDbLine
 10
129.7643053209
 20
677.3760135135
 30
0.0
 11
123.0143053209
 21
677.3760135135
 31
0.0
  0
LINE
  5
3D9
330
1B
100
AcDbEntity
 67
     1
  8
7_ALL_FEATURES
  6
Continuous
 62
     7
100
AcDbLine
 10
130.7893053209
 20
680.5760135135
 30
0.0
 11
121.9893053209
 21
680.5760135135
 31
0.0
  0
LINE
  5
3DA
330
1B
100
AcDbEntity
 67
     1
  8
02___PRT_ALL_AXES
  6
Continuous
 62
     7
100
AcDbLine
 10
130.7893053209
 20
678.4010135135
 30
0.0
 11
121.9893053209
 21
678.4010135135
 31
0.0
  0
LINE
  5
3DB
330
1B
100
AcDbEntity
 67
     1
  8
02___PRT_ALL_AXES
  6
Continuous
 62
     7
100
AcDbLine
 10
130.7893053209
 20
676.3510135135
 30
0.0
 11
121.9893053209
 21
676.3510135135
 31
0.0
  0
ARC
  5
3DC
330
1B
100
AcDbEntity
 67
     1
  8
7_ALL_FEATURES
  6
Continuous
 62
     7
100
AcDbCircle
 10
122.9893053209
 20
681.1760135135
 30
0.0
 40
0.1
100
AcDbArc
 50
180.0
 51
270.0
  0
ARC
  5
3DD
330
1B
100
AcDbEntity
 67
     1
  8
7_ALL_FEATURES
  6
Continuous
 62
     7
100
AcDbCircle
 10
129.7893053209
 20
681.1760135135
 30
0.0
 40
0.1
100
AcDbArc
 50
270.0
 51
360.0
  0
LINE
  5
3DE
330
1B
100
AcDbEntity
 67
     1
  8
7_ALL_FEATURES
  6
Continuous
 62
     7
100
AcDbLine
 10
129.8893053209
 20
684.9760135135
 30
0.0
 11
129.8893053209
 21
681.1760135135
 31
0.0
  0
LINE
  5
3DF
330
1B
100
AcDbEntity
 67
     1
  8
7_ALL_FEATURES
  6
Continuous
 62
     7
100
AcDbLine
 10
122.8893053209
 20
684.9760135135
 30
0.0
 11
122.8893053209
 21
681.1760135135
 31
0.0
  0
ARC
  5
3E0
330
1B
100
AcDbEntity
 67
     1
  8
7_ALL_FEATURES
  6
Continuous
 62
     7
100
AcDbCircle
 10
122.9893053209
 20
684.9760135135
 30
0.0
 40
0.1
100
AcDbArc
 50
90.0
 51
180.0
  0
ARC
  5
3E1
330
1B
100
AcDbEntity
 67
     1
  8
7_ALL_FEATURES
  6
Continuous
 62
     7
100
AcDbCircle
 10
129.7893053209
 20
684.9760135135
 30
0.0
 40
0.1
100
AcDbArc
 50
0.0
 51
90.0
  0
LINE
  5
3E2
330
1B
100
AcDbEntity
 67
     1
  8
7_ALL_FEATURES
  6
Continuous
 62
     7
100
AcDbLine
 10
129.7893053209
 20
685.0760135135
 30
0.0
 11
128.1213561285
 21
685.0760135135
 31
0.0
  0
LINE
  5
3E3
330
1B
100
AcDbEntity
 67
     1
  8
7_ALL_FEATURES
  6
Continuous
 62
     7
100
AcDbLine
 10
128.1213561285
 20
685.0760135135
 30
0.0
 11
128.0898035894
 21
685.0760135135
 31
0.0
  0
LINE
  5
3E4
330
1B
100
AcDbEntity
 67
     1
  8
7_ALL_FEATURES
  6
Continuous
 62
     7
100
AcDbLine
 10
128.0898035894
 20
685.0760135135
 30
0.0
 11
127.2553307247
 21
685.0760135135
 31
0.0
  0
LINE
  5
3E5
330
1B
100
AcDbEntity
 67
     1
  8
7_ALL_FEATURES
  6
Continuous
 62
     7
100
AcDbLine
 10
127.2553307247
 20
685.0760135135
 30
0.0
 11
125.5232799172
 21
685.0760135135
 31
0.0
  0
LINE
  5
3E6
330
1B
100
AcDbEntity
 67
     1
  8
7_ALL_FEATURES
  6
Continuous
 62
     7
100
AcDbLine
 10
125.5232799172
 20
685.0760135135
 30
0.0
 11
124.6887613867
 21
685.0760135135
 31
0.0
  0
LINE
  5
3E7
330
1B
100
AcDbEntity
 67
     1
  8
7_ALL_FEATURES
  6
Continuous
 62
     7
100
AcDbLine
 10
124.6887613867
 20
685.0760135135
 30
0.0
 11
124.6572545134
 21
685.0760135135
 31
0.0
  0
LINE
  5
3E8
330
1B
100
AcDbEntity
 67
     1
  8
7_ALL_FEATURES
  6
Continuous
 62
     7
100
AcDbLine
 10
124.6572545134
 20
685.0760135135
 30
0.0
 11
122.9893053209
 21
685.0760135135
 31
0.0
  0
LINE
  5
3E9
330
1B
100
AcDbEntity
 67
     1
  8
7_ALL_FEATURES
  6
Continuous
 62
     9
100
AcDbLine
 10
129.8893053209
 20
681.1760135135
 30
0.0
 11
122.8893053209
 21
681.1760135135
 31
0.0
  0
LINE
  5
3EA
330
1B
100
AcDbEntity
 67
     1
  8
7_ALL_FEATURES
  6
Continuous
 62
     9
100
AcDbLine
 10
129.8893053209
 20
684.9760135135
 30
0.0
 11
122.8893053209
 21
684.9760135135
 31
0.0
  0
LINE
  5
3EB
330
1B
100
AcDbEntity
 67
     1
  8
3_ALL_AXES
  6
Continuous
 62
     7
100
AcDbLine
 10
116.5116274267
 20
201.3082921397
 30
0.0
 11
116.8112027437
 21
201.292335028
 31
0.0
  0
LINE
  5
3EC
330
1B
100
AcDbEntity
 67
     1
  8
3_ALL_AXES
  6
Continuous
 62
     7
100
AcDbLine
 10
116.8893053209
 20
208.3987341392
 30
0.0
 11
116.8697077155
 21
208.03081299
 31
0.0
  0
LINE
  5
3ED
330
1B
100
AcDbEntity
 67
     1
  8
3_ALL_AXES
  6
Continuous
 62
     7
100
AcDbLine
 10
116.8697077155
 20
208.03081299
 30
0.0
 11
116.8236435018
 21
207.1660135403
 31
0.0
  0
LINE
  5
3EE
330
1B
100
AcDbEntity
 67
     1
  8
3_ALL_AXES
  6
Continuous
 62
     7
100
AcDbLine
 10
116.8236435018
 20
207.1660135403
 30
0.0
 11
116.795728485
 21
206.6419431343
 31
0.0
  0
LINE
  5
3EF
330
1B
100
AcDbEntity
 67
     1
  8
3_ALL_AXES
  6
Continuous
 62
     7
100
AcDbLine
 10
116.795728485
 20
206.6419431343
 30
0.0
 11
116.7594300913
 21
205.9604850469
 31
0.0
  0
LINE
  5
3F0
330
1B
100
AcDbEntity
 67
     1
  8
3_ALL_AXES
  6
Continuous
 62
     7
100
AcDbLine
 10
116.7594300913
 20
205.9604850469
 30
0.0
 11
116.7315150745
 21
205.4364146409
 31
0.0
  0
LINE
  5
3F1
330
1B
100
AcDbEntity
 67
     1
  8
3_ALL_AXES
  6
Continuous
 62
     7
100
AcDbLine
 10
116.7315150745
 20
205.4364146409
 30
0.0
 11
116.6854508609
 21
204.5716151912
 31
0.0
  0
LINE
  5
3F2
330
1B
100
AcDbEntity
 67
     1
  8
3_ALL_AXES
  6
Continuous
 62
     7
100
AcDbLine
 10
116.6854508609
 20
204.5716151912
 30
0.0
 11
116.5116274267
 21
201.3082921397
 31
0.0
  0
LINE
  5
3F3
330
1B
100
AcDbEntity
 67
     1
  8
3_ALL_AXES
  6
Continuous
 62
     7
100
AcDbLine
 10
217.2669832152
 20
201.3082921397
 30
0.0
 11
216.9674078982
 21
201.292335028
 31
0.0
  0
LINE
  5
3F4
330
1B
100
AcDbEntity
 67
     1
  8
3_ALL_AXES
  6
Continuous
 62
     7
100
AcDbLine
 10
217.2669832152
 20
201.3082921397
 30
0.0
 11
217.093159781
 21
204.5716151912
 31
0.0
  0
LINE
  5
3F5
330
1B
100
AcDbEntity
 67
     1
  8
3_ALL_AXES
  6
Continuous
 62
     7
100
AcDbLine
 10
217.093159781
 20
204.5716151912
 30
0.0
 11
217.0470955674
 21
205.4364146409
 31
0.0
  0
LINE
  5
3F6
330
1B
100
AcDbEntity
 67
     1
  8
3_ALL_AXES
  6
Continuous
 62
     7
100
AcDbLine
 10
217.0470955674
 20
205.4364146409
 30
0.0
 11
217.0191805506
 21
205.9604850469
 31
0.0
  0
LINE
  5
3F7
330
1B
100
AcDbEntity
 67
     1
  8
3_ALL_AXES
  6
Continuous
 62
     7
100
AcDbLine
 10
217.0191805506
 20
205.9604850469
 30
0.0
 11
216.9828821568
 21
206.6419431343
 31
0.0
  0
LINE
  5
3F8
330
1B
100
AcDbEntity
 67
     1
  8
3_ALL_AXES
  6
Continuous
 62
     7
100
AcDbLine
 10
216.9828821568
 20
206.6419431343
 30
0.0
 11
216.9549671401
 21
207.1660135403
 31
0.0
  0
LINE
  5
3F9
330
1B
100
AcDbEntity
 67
     1
  8
3_ALL_AXES
  6
Continuous
 62
     7
100
AcDbLine
 10
216.9549671401
 20
207.1660135403
 30
0.0
 11
216.9089029264
 21
208.03081299
 31
0.0
  0
LINE
  5
3FA
330
1B
100
AcDbEntity
 67
     1
  8
3_ALL_AXES
  6
Continuous
 62
     7
100
AcDbLine
 10
216.9089029264
 20
208.03081299
 30
0.0
 11
216.8893053209
 21
208.3987341392
 31
0.0
  0
LINE
  5
3FB
330
1B
100
AcDbEntity
 67
     1
  8
7_ALL_FEATURES
  6
Continuous
 62
     7
100
AcDbLine
 10
211.2893053209
 20
681.0760135135
 30
0.0
 11
210.7893053209
 21
681.0760135135
 31
0.0
  0
LINE
  5
3FC
330
1B
100
AcDbEntity
 67
     1
  8
7_ALL_FEATURES
  6
Continuous
 62
     7
100
AcDbLine
 10
210.7893053209
 20
681.0760135135
 30
0.0
 11
209.4893053209
 21
681.0760135135
 31
0.0
  0
LINE
  5
3FD
330
1B
100
AcDbEntity
 67
     1
  8
7_ALL_FEATURES
  6
Continuous
 62
     7
100
AcDbLine
 10
209.4893053209
 20
681.0760135135
 30
0.0
 11
205.2893053209
 21
681.0760135135
 31
0.0
  0
LINE
  5
3FE
330
1B
100
AcDbEntity
 67
     1
  8
7_ALL_FEATURES
  6
Continuous
 62
     7
100
AcDbLine
 10
205.2893053209
 20
681.0760135135
 30
0.0
 11
203.9893053209
 21
681.0760135135
 31
0.0
  0
LINE
  5
3FF
330
1B
100
AcDbEntity
 67
     1
  8
7_ALL_FEATURES
  6
Continuous
 62
     7
100
AcDbLine
 10
203.9893053209
 20
681.0760135135
 30
0.0
 11
203.4893053209
 21
681.0760135135
 31
0.0
  0
LINE
  5
400
330
1B
100
AcDbEntity
 67
     1
  8
7_ALL_FEATURES
  6
Continuous
 62
     7
100
AcDbLine
 10
202.989305321
 20
680.5760135135
 30
0.0
 11
203.489305321
 21
681.0760135135
 31
0.0
  0
LINE
  5
401
330
1B
100
AcDbEntity
 67
     1
  8
7_ALL_FEATURES
  6
Continuous
 62
     7
100
AcDbLine
 10
211.7893053209
 20
680.5760135135
 30
0.0
 11
211.2893053209
 21
681.0760135135
 31
0.0
  0
LINE
  5
402
330
1B
100
AcDbEntity
 67
     1
  8
7_ALL_FEATURES
  6
Continuous
 62
     7
100
AcDbLine
 10
211.7893053209
 20
676.3510135135
 30
0.0
 11
211.7893053209
 21
671.0760135135
 31
0.0
  0
LINE
  5
403
330
1B
100
AcDbEntity
 67
     1
  8
7_ALL_FEATURES
  6
Continuous
 62
     7
100
AcDbLine
 10
202.9893053209
 20
676.3510135135
 30
0.0
 11
202.9893053209
 21
671.0760135135
 31
0.0
  0
LINE
  5
404
330
1B
100
AcDbEntity
 67
     1
  8
7_ALL_FEATURES
  6
Continuous
 62
     7
100
AcDbLine
 10
211.7893053209
 20
680.5760135135
 30
0.0
 11
211.7893053209
 21
678.4010135135
 31
0.0
  0
LINE
  5
405
330
1B
100
AcDbEntity
 67
     1
  8
7_ALL_FEATURES
  6
Continuous
 62
     7
100
AcDbLine
 10
202.9893053209
 20
680.5760135135
 30
0.0
 11
202.9893053209
 21
678.4010135135
 31
0.0
  0
LINE
  5
406
330
1B
100
AcDbEntity
 67
     1
  8
02___PRT_ALL_AXES
  6
Continuous
 62
     7
100
AcDbLine
 10
211.7893053209
 20
678.4010135135
 30
0.0
 11
210.7643053209
 21
677.3760135135
 31
0.0
  0
LINE
  5
407
330
1B
100
AcDbEntity
 67
     1
  8
02___PRT_ALL_AXES
  6
Continuous
 62
     7
100
AcDbLine
 10
202.9893053209
 20
678.4010135135
 30
0.0
 11
204.0143053209
 21
677.3760135135
 31
0.0
  0
LINE
  5
408
330
1B
100
AcDbEntity
 67
     1
  8
02___PRT_ALL_AXES
  6
Continuous
 62
     7
100
AcDbLine
 10
210.7643053209
 20
677.3760135135
 30
0.0
 11
211.7893053209
 21
676.3510135135
 31
0.0
  0
LINE
  5
409
330
1B
100
AcDbEntity
 67
     1
  8
02___PRT_ALL_AXES
  6
Continuous
 62
     7
100
AcDbLine
 10
204.0143053209
 20
677.3760135135
 30
0.0
 11
202.9893053209
 21
676.3510135135
 31
0.0
  0
LINE
  5
40A
330
1B
100
AcDbEntity
 67
     1
  8
02___PRT_ALL_AXES
  6
Continuous
 62
     7
100
AcDbLine
 10
210.7643053209
 20
677.3760135135
 30
0.0
 11
204.0143053209
 21
677.3760135135
 31
0.0
  0
LINE
  5
40B
330
1B
100
AcDbEntity
 67
     1
  8
7_ALL_FEATURES
  6
Continuous
 62
     7
100
AcDbLine
 10
211.7893053209
 20
680.5760135135
 30
0.0
 11
202.9893053209
 21
680.5760135135
 31
0.0
  0
LINE
  5
40C
330
1B
100
AcDbEntity
 67
     1
  8
02___PRT_ALL_AXES
  6
Continuous
 62
     7
100
AcDbLine
 10
211.7893053209
 20
678.4010135135
 30
0.0
 11
202.9893053209
 21
678.4010135135
 31
0.0
  0
LINE
  5
40D
330
1B
100
AcDbEntity
 67
     1
  8
02___PRT_ALL_AXES
  6
Continuous
 62
     7
100
AcDbLine
 10
211.7893053209
 20
676.3510135135
 30
0.0
 11
202.9893053209
 21
676.3510135135
 31
0.0
  0
ARC
  5
40E
330
1B
100
AcDbEntity
 67
     1
  8
7_ALL_FEATURES
  6
Continuous
 62
     7
100
AcDbCircle
 10
203.9893053209
 20
681.1760135135
 30
0.0
 40
0.1
100
AcDbArc
 50
180.0
 51
270.0
  0
ARC
  5
40F
330
1B
100
AcDbEntity
 67
     1
  8
7_ALL_FEATURES
  6
Continuous
 62
     7
100
AcDbCircle
 10
210.7893053209
 20
681.1760135135
 30
0.0
 40
0.1
100
AcDbArc
 50
270.0
 51
360.0
  0
LINE
  5
410
330
1B
100
AcDbEntity
 67
     1
  8
7_ALL_FEATURES
  6
Continuous
 62
     7
100
AcDbLine
 10
210.8893053209
 20
684.9760135135
 30
0.0
 11
210.8893053209
 21
681.1760135135
 31
0.0
  0
LINE
  5
411
330
1B
100
AcDbEntity
 67
     1
  8
7_ALL_FEATURES
  6
Continuous
 62
     7
100
AcDbLine
 10
203.8893053209
 20
684.9760135135
 30
0.0
 11
203.8893053209
 21
681.1760135135
 31
0.0
  0
ARC
  5
412
330
1B
100
AcDbEntity
 67
     1
  8
7_ALL_FEATURES
  6
Continuous
 62
     7
100
AcDbCircle
 10
203.9893053209
 20
684.9760135135
 30
0.0
 40
0.1
100
AcDbArc
 50
90.0
 51
180.0
  0
ARC
  5
413
330
1B
100
AcDbEntity
 67
     1
  8
7_ALL_FEATURES
  6
Continuous
 62
     7
100
AcDbCircle
 10
210.7893053209
 20
684.9760135135
 30
0.0
 40
0.1
100
AcDbArc
 50
0.0
 51
90.0
  0
LINE
  5
414
330
1B
100
AcDbEntity
 67
     1
  8
7_ALL_FEATURES
  6
Continuous
 62
     7
100
AcDbLine
 10
210.7893053209
 20
685.0760135135
 30
0.0
 11
209.1213561285
 21
685.0760135135
 31
0.0
  0
LINE
  5
415
330
1B
100
AcDbEntity
 67
     1
  8
7_ALL_FEATURES
  6
Continuous
 62
     7
100
AcDbLine
 10
209.1213561285
 20
685.0760135135
 30
0.0
 11
209.0898035894
 21
685.0760135135
 31
0.0
  0
LINE
  5
416
330
1B
100
AcDbEntity
 67
     1
  8
7_ALL_FEATURES
  6
Continuous
 62
     7
100
AcDbLine
 10
209.0898035894
 20
685.0760135135
 30
0.0
 11
208.2553307247
 21
685.0760135135
 31
0.0
  0
LINE
  5
417
330
1B
100
AcDbEntity
 67
     1
  8
7_ALL_FEATURES
  6
Continuous
 62
     7
100
AcDbLine
 10
208.2553307247
 20
685.0760135135
 30
0.0
 11
206.5232799172
 21
685.0760135135
 31
0.0
  0
LINE
  5
418
330
1B
100
AcDbEntity
 67
     1
  8
7_ALL_FEATURES
  6
Continuous
 62
     7
100
AcDbLine
 10
206.5232799172
 20
685.0760135135
 30
0.0
 11
205.6887613867
 21
685.0760135135
 31
0.0
  0
LINE
  5
419
330
1B
100
AcDbEntity
 67
     1
  8
7_ALL_FEATURES
  6
Continuous
 62
     7
100
AcDbLine
 10
205.6887613867
 20
685.0760135135
 30
0.0
 11
205.6572545134
 21
685.0760135135
 31
0.0
  0
LINE
  5
41A
330
1B
100
AcDbEntity
 67
     1
  8
7_ALL_FEATURES
  6
Continuous
 62
     7
100
AcDbLine
 10
205.6572545134
 20
685.0760135135
 30
0.0
 11
203.9893053209
 21
685.0760135135
 31
0.0
  0
LINE
  5
41B
330
1B
100
AcDbEntity
 67
     1
  8
7_ALL_FEATURES
  6
Continuous
 62
     9
100
AcDbLine
 10
210.8893053209
 20
681.1760135135
 30
0.0
 11
203.8893053209
 21
681.1760135135
 31
0.0
  0
LINE
  5
41C
330
1B
100
AcDbEntity
 67
     1
  8
7_ALL_FEATURES
  6
Continuous
 62
     9
100
AcDbLine
 10
210.8893053209
 20
684.9760135135
 30
0.0
 11
203.8893053209
 21
684.9760135135
 31
0.0
  0
LINE
  5
41D
330
1B
100
AcDbEntity
 67
     1
  8
7_ALL_FEATURES
  6
Continuous
 62
     7
100
AcDbLine
 10
219.3893053209
 20
196.0760135135
 30
0.0
 11
219.3893053209
 21
192.0760135135
 31
0.0
  0
LINE
  5
41E
330
1B
100
AcDbEntity
 67
     1
  8
7_ALL_FEATURES
  6
Continuous
 62
     7
100
AcDbLine
 10
116.3893053209
 20
192.0760135135
 30
0.0
 11
114.3893053209
 21
192.0760135135
 31
0.0
  0
LINE
  5
41F
330
1B
100
AcDbEntity
 67
     1
  8
7_ALL_FEATURES
  6
Continuous
 62
     7
100
AcDbLine
 10
116.3893053209
 20
192.0760135135
 30
0.0
 11
217.3893053209
 21
192.0760135135
 31
0.0
  0
LINE
  5
420
330
1B
100
AcDbEntity
 67
     1
  8
7_ALL_FEATURES
  6
Continuous
 62
     7
100
AcDbLine
 10
219.3893053209
 20
192.0760135135
 30
0.0
 11
217.3893053209
 21
192.0760135135
 31
0.0
  0
LINE
  5
421
330
1B
100
AcDbEntity
 67
     1
  8
7_ALL_FEATURES
  6
Continuous
 62
     7
100
AcDbLine
 10
114.3893053209
 20
196.0760135135
 30
0.0
 11
114.3893053209
 21
192.0760135135
 31
0.0
  0
LINE
  5
422
330
1B
100
AcDbEntity
 67
     1
  8
7_ALL_FEATURES
  6
Continuous
 62
     7
100
AcDbLine
 10
116.3893053209
 20
196.0760135135
 30
0.0
 11
217.3893053209
 21
196.0760135135
 31
0.0
  0
LINE
  5
423
330
1B
100
AcDbEntity
 67
     1
  8
7_ALL_FEATURES
  6
Continuous
 62
     7
100
AcDbLine
 10
217.3893053209
 20
196.0760135135
 30
0.0
 11
219.3893053209
 21
196.0760135135
 31
0.0
  0
LINE
  5
424
330
1B
100
AcDbEntity
 67
     1
  8
7_ALL_FEATURES
  6
Continuous
 62
     7
100
AcDbLine
 10
114.3893053209
 20
196.0760135135
 30
0.0
 11
116.3893053209
 21
196.0760135135
 31
0.0
  0
LINE
  5
425
330
1B
100
AcDbEntity
 67
     1
  8
7_ALL_FEATURES
  6
Continuous
 62
     7
100
AcDbLine
 10
217.3893053209
 20
196.0760135135
 30
0.0
 11
217.3893053209
 21
192.0760135135
 31
0.0
  0
LINE
  5
426
330
1B
100
AcDbEntity
 67
     1
  8
7_ALL_FEATURES
  6
Continuous
 62
     7
100
AcDbLine
 10
116.3893053209
 20
196.0760135135
 30
0.0
 11
116.3893053209
 21
192.0760135135
 31
0.0
  0
LINE
  5
427
330
1B
100
AcDbEntity
 67
     1
  8
7_ALL_FEATURES
  6
Continuous
 62
     7
100
AcDbLine
 10
116.8893053209
 20
671.0760135135
 30
0.0
 11
216.8893053209
 21
671.0760135135
 31
0.0
  0
LINE
  5
428
330
1B
100
AcDbEntity
 67
     1
  8
7_ALL_FEATURES
  6
Continuous
 62
     7
100
AcDbLine
 10
116.8893053209
 20
196.0760135135
 30
0.0
 11
116.8893053209
 21
671.0760135135
 31
0.0
  0
LINE
  5
429
330
1B
100
AcDbEntity
 67
     1
  8
7_ALL_FEATURES
  6
Continuous
 62
     7
100
AcDbLine
 10
216.8893053209
 20
196.0760135135
 30
0.0
 11
216.8893053209
 21
671.0760135135
 31
0.0
  0
LINE
  5
42A
330
1B
100
AcDbEntity
 67
     1
  8
7_ALL_FEATURES
  6
Continuous
 62
     7
100
AcDbLine
 10
119.0393053209
 20
793.0740076014
 30
0.0
 11
119.1456860655
 21
795.0740076014
 31
0.0
  0
LINE
  5
42B
330
1B
100
AcDbEntity
 67
     1
  8
7_ALL_FEATURES
  6
Continuous
 62
     7
100
AcDbLine
 10
119.1456860655
 20
735.0740076014
 30
0.0
 11
119.0393053209
 21
737.0740076014
 31
0.0
  0
LINE
  5
42C
330
1B
100
AcDbEntity
 67
     1
  8
7_ALL_FEATURES
  6
Continuous
 62
     7
100
AcDbLine
 10
119.2414287357
 20
735.0740076014
 30
0.0
 11
119.2414287357
 21
734.8740076014
 31
0.0
  0
LINE
  5
42D
330
1B
100
AcDbEntity
 67
     1
  8
7_ALL_FEATURES
  6
Continuous
 62
     7
100
AcDbLine
 10
119.2414287357
 20
795.2740076014
 30
0.0
 11
119.2414287357
 21
795.0740076014
 31
0.0
  0
LINE
  5
42E
330
1B
100
AcDbEntity
 67
     1
  8
7_ALL_FEATURES
  6
Continuous
 62
     7
100
AcDbLine
 10
120.7393053209
 20
795.0740076014
 30
0.0
 11
120.6435626508
 21
795.0740076014
 31
0.0
  0
LINE
  5
42F
330
1B
100
AcDbEntity
 67
     1
  8
7_ALL_FEATURES
  6
Continuous
 62
     7
100
AcDbLine
 10
122.33501649
 20
736.8740076014
 30
0.0
 11
122.33501649
 21
741.8740076014
 31
0.0
  0
LINE
  5
430
330
1B
100
AcDbEntity
 67
     1
  8
7_ALL_FEATURES
  6
Continuous
 62
     7
100
AcDbLine
 10
120.6435626508
 20
735.0740076014
 30
0.0
 11
120.7393053209
 21
735.0740076014
 31
0.0
  0
LINE
  5
431
330
1B
100
AcDbEntity
 67
     1
  8
7_ALL_FEATURES
  6
Continuous
 62
     7
100
AcDbLine
 10
120.6435626508
 20
795.0740076014
 30
0.0
 11
119.1456860655
 21
795.0740076014
 31
0.0
  0
LINE
  5
432
330
1B
100
AcDbEntity
 67
     1
  8
7_ALL_FEATURES
  6
Continuous
 62
     7
100
AcDbLine
 10
120.6435626508
 20
735.0740076014
 30
0.0
 11
119.1456860655
 21
735.0740076014
 31
0.0
  0
LINE
  5
433
330
1B
100
AcDbEntity
 67
     1
  8
7_ALL_FEATURES
  6
Continuous
 62
     7
100
AcDbLine
 10
120.5371819062
 20
737.0740076014
 30
0.0
 11
120.5483602056
 21
736.8638511596
 31
0.0
  0
LINE
  5
434
330
1B
100
AcDbEntity
 67
     1
  8
7_ALL_FEATURES
  6
Continuous
 62
     7
100
AcDbLine
 10
120.5483602056
 20
736.8638511596
 30
0.0
 11
120.6435626508
 21
735.0740076014
 31
0.0
  0
LINE
  5
435
330
1B
100
AcDbEntity
 67
     1
  8
7_ALL_FEATURES
  6
Continuous
 62
     7
100
AcDbLine
 10
120.5371819062
 20
793.0740076014
 30
0.0
 11
120.5371819062
 21
737.0740076014
 31
0.0
  0
LINE
  5
436
330
1B
100
AcDbEntity
 67
     1
  8
7_ALL_FEATURES
  6
Continuous
 62
     7
100
AcDbLine
 10
120.5371819062
 20
793.0740076014
 30
0.0
 11
119.0393053209
 21
793.0740076014
 31
0.0
  0
LINE
  5
437
330
1B
100
AcDbEntity
 67
     1
  8
7_ALL_FEATURES
  6
Continuous
 62
     7
100
AcDbLine
 10
120.5371819062
 20
737.0740076014
 30
0.0
 11
119.0393053209
 21
737.0740076014
 31
0.0
  0
LINE
  5
438
330
1B
100
AcDbEntity
 67
     1
  8
7_ALL_FEATURES
  6
Continuous
 62
     7
100
AcDbLine
 10
120.6435626508
 20
795.0740076014
 30
0.0
 11
120.5371819062
 21
793.0740076014
 31
0.0
  0
LINE
  5
439
330
1B
100
AcDbEntity
 67
     1
  8
7_ALL_FEATURES
  6
Continuous
 62
     7
100
AcDbLine
 10
214.7393053209
 20
737.0740076014
 30
0.0
 11
214.6329245763
 21
735.0740076014
 31
0.0
  0
LINE
  5
43A
330
1B
100
AcDbEntity
 67
     1
  8
7_ALL_FEATURES
  6
Continuous
 62
     7
100
AcDbLine
 10
214.6329245763
 20
795.0740076014
 30
0.0
 11
214.7393053209
 21
793.0740076014
 31
0.0
  0
LINE
  5
43B
330
1B
100
AcDbEntity
 67
     1
  8
7_ALL_FEATURES
  6
Continuous
 62
     7
100
AcDbLine
 10
214.5371819062
 20
795.0740076014
 30
0.0
 11
214.5371819062
 21
795.2740076014
 31
0.0
  0
LINE
  5
43C
330
1B
100
AcDbEntity
 67
     1
  8
7_ALL_FEATURES
  6
Continuous
 62
     7
100
AcDbLine
 10
214.5371819062
 20
734.8740076014
 30
0.0
 11
214.5371819062
 21
735.0740076014
 31
0.0
  0
LINE
  5
43D
330
1B
100
AcDbEntity
 67
     1
  8
7_ALL_FEATURES
  6
Continuous
 62
     7
100
AcDbLine
 10
213.0393053209
 20
735.0740076014
 30
0.0
 11
213.1350479911
 21
735.0740076014
 31
0.0
  0
LINE
  5
43E
330
1B
100
AcDbEntity
 67
     1
  8
7_ALL_FEATURES
  6
Continuous
 62
     7
100
AcDbLine
 10
211.4435941519
 20
741.8740076014
 30
0.0
 11
211.4435941519
 21
736.8740076014
 31
0.0
  0
LINE
  5
43F
330
1B
100
AcDbEntity
 67
     1
  8
7_ALL_FEATURES
  6
Continuous
 62
     7
100
AcDbLine
 10
213.1350479911
 20
795.0740076014
 30
0.0
 11
213.0393053209
 21
795.0740076014
 31
0.0
  0
LINE
  5
440
330
1B
100
AcDbEntity
 67
     1
  8
7_ALL_FEATURES
  6
Continuous
 62
     7
100
AcDbLine
 10
213.1350479911
 20
735.0740076014
 30
0.0
 11
214.6329245763
 21
735.0740076014
 31
0.0
  0
LINE
  5
441
330
1B
100
AcDbEntity
 67
     1
  8
7_ALL_FEATURES
  6
Continuous
 62
     7
100
AcDbLine
 10
213.1350479911
 20
795.0740076014
 30
0.0
 11
214.6329245763
 21
795.0740076014
 31
0.0
  0
LINE
  5
442
330
1B
100
AcDbEntity
 67
     1
  8
7_ALL_FEATURES
  6
Continuous
 62
     7
100
AcDbLine
 10
213.2414287357
 20
793.0740076014
 30
0.0
 11
213.1350479911
 21
795.0740076014
 31
0.0
  0
LINE
  5
443
330
1B
100
AcDbEntity
 67
     1
  8
7_ALL_FEATURES
  6
Continuous
 62
     7
100
AcDbLine
 10
213.2414287357
 20
737.0740076014
 30
0.0
 11
213.2414287357
 21
793.0740076014
 31
0.0
  0
LINE
  5
444
330
1B
100
AcDbEntity
 67
     1
  8
7_ALL_FEATURES
  6
Continuous
 62
     7
100
AcDbLine
 10
213.2414287357
 20
737.0740076014
 30
0.0
 11
214.7393053209
 21
737.0740076014
 31
0.0
  0
LINE
  5
445
330
1B
100
AcDbEntity
 67
     1
  8
7_ALL_FEATURES
  6
Continuous
 62
     7
100
AcDbLine
 10
213.2414287357
 20
793.0740076014
 30
0.0
 11
214.7393053209
 21
793.0740076014
 31
0.0
  0
LINE
  5
446
330
1B
100
AcDbEntity
 67
     1
  8
7_ALL_FEATURES
  6
Continuous
 62
     7
100
AcDbLine
 10
213.1350479911
 20
735.0740076014
 30
0.0
 11
213.2302504363
 21
736.8638511596
 31
0.0
  0
LINE
  5
447
330
1B
100
AcDbEntity
 67
     1
  8
7_ALL_FEATURES
  6
Continuous
 62
     7
100
AcDbLine
 10
213.2302504363
 20
736.8638511596
 30
0.0
 11
213.2414287357
 21
737.0740076014
 31
0.0
  0
LINE
  5
448
330
1B
100
AcDbEntity
 67
     1
  8
7_ALL_FEATURES
  6
Continuous
 62
     7
100
AcDbLine
 10
145.2292772719
 20
729.0740076014
 30
0.0
 11
142.6435119294
 21
729.0740076014
 31
0.0
  0
LINE
  5
449
330
1B
100
AcDbEntity
 67
     1
  8
7_ALL_FEATURES
  6
Continuous
 62
     7
100
AcDbLine
 10
202.8893053209
 20
789.3198009929
 30
0.0
 11
202.8893053209
 21
786.7340356504
 31
0.0
  0
LINE
  5
44A
330
1B
100
AcDbEntity
 67
     1
  8
7_ALL_FEATURES
  6
Continuous
 62
     7
100
AcDbLine
 10
188.54933337
 20
801.0740076014
 30
0.0
 11
191.1350987125
 21
801.0740076014
 31
0.0
  0
LINE
  5
44B
330
1B
100
AcDbEntity
 67
     1
  8
7_ALL_FEATURES
  6
Continuous
 62
     7
100
AcDbLine
 10
130.8893053209
 20
740.8282142098
 30
0.0
 11
130.8893053209
 21
743.4139795523
 31
0.0
  0
ARC
  5
44C
330
1B
100
AcDbEntity
 67
     1
  8
7_ALL_FEATURES
  6
Continuous
 62
     7
100
AcDbCircle
 10
166.8893053209
 20
765.0740076014
 30
0.0
 40
40.0
100
AcDbArc
 50
120.0092018144
 51
149.9908188104
  0
ARC
  5
44D
330
1B
100
AcDbEntity
 67
     1
  8
7_ALL_FEATURES
  6
Continuous
 62
     7
100
AcDbCircle
 10
166.8893053209
 20
765.0740076014
 30
0.0
 40
40.0
100
AcDbArc
 50
300.0092018144
 51
329.9908188104001
  0
LINE
  5
44E
330
1B
100
AcDbEntity
 67
     1
  8
7_ALL_FEATURES
  6
Continuous
 62
     7
100
AcDbLine
 10
119.0393053209
 20
734.8740076014
 30
0.0
 11
119.0393053209
 21
795.2740076014
 31
0.0
  0
LINE
  5
44F
330
1B
100
AcDbEntity
 67
     1
  8
7_ALL_FEATURES
  6
Continuous
 62
     7
100
AcDbLine
 10
120.7393053209
 20
734.8740076014
 30
0.0
 11
119.0393053209
 21
734.8740076014
 31
0.0
  0
LINE
  5
450
330
1B
100
AcDbEntity
 67
     1
  8
7_ALL_FEATURES
  6
Continuous
 62
     7
100
AcDbLine
 10
120.7393053209
 20
736.8740076014
 30
0.0
 11
120.7393053209
 21
734.8740076014
 31
0.0
  0
LINE
  5
451
330
1B
100
AcDbEntity
 67
     1
  8
7_ALL_FEATURES
  6
Continuous
 62
     7
100
AcDbLine
 10
122.7393053209
 20
736.8740076014
 30
0.0
 11
120.7393053209
 21
736.8740076014
 31
0.0
  0
LINE
  5
452
330
1B
100
AcDbEntity
 67
     1
  8
7_ALL_FEATURES
  6
Continuous
 62
     7
100
AcDbLine
 10
122.7393053209
 20
741.8740076014
 30
0.0
 11
122.7393053209
 21
736.8740076014
 31
0.0
  0
LINE
  5
453
330
1B
100
AcDbEntity
 67
     1
  8
7_ALL_FEATURES
  6
Continuous
 62
     7
100
AcDbLine
 10
120.7393053209
 20
741.8740076014
 30
0.0
 11
122.7393053209
 21
741.8740076014
 31
0.0
  0
LINE
  5
454
330
1B
100
AcDbEntity
 67
     1
  8
7_ALL_FEATURES
  6
Continuous
 62
     7
100
AcDbLine
 10
120.7393053209
 20
752.4740076014
 30
0.0
 11
120.7393053209
 21
741.8740076014
 31
0.0
  0
LINE
  5
455
330
1B
100
AcDbEntity
 67
     1
  8
7_ALL_FEATURES
  6
Continuous
 62
     7
100
AcDbLine
 10
121.4393053209
 20
752.4740076014
 30
0.0
 11
120.7393053209
 21
752.4740076014
 31
0.0
  0
LINE
  5
456
330
1B
100
AcDbEntity
 67
     1
  8
7_ALL_FEATURES
  6
Continuous
 62
     7
100
AcDbLine
 10
121.4393053209
 20
757.1740076014
 30
0.0
 11
121.4393053209
 21
752.4740076014
 31
0.0
  0
LINE
  5
457
330
1B
100
AcDbEntity
 67
     1
  8
7_ALL_FEATURES
  6
Continuous
 62
     7
100
AcDbLine
 10
120.7393053209
 20
757.1740076014
 30
0.0
 11
121.4393053209
 21
757.1740076014
 31
0.0
  0
LINE
  5
458
330
1B
100
AcDbEntity
 67
     1
  8
7_ALL_FEATURES
  6
Continuous
 62
     7
100
AcDbLine
 10
120.7393053209
 20
772.9740076014
 30
0.0
 11
120.7393053209
 21
757.1740076014
 31
0.0
  0
LINE
  5
459
330
1B
100
AcDbEntity
 67
     1
  8
7_ALL_FEATURES
  6
Continuous
 62
     7
100
AcDbLine
 10
121.4393053209
 20
772.9740076014
 30
0.0
 11
120.7393053209
 21
772.9740076014
 31
0.0
  0
LINE
  5
45A
330
1B
100
AcDbEntity
 67
     1
  8
7_ALL_FEATURES
  6
Continuous
 62
     7
100
AcDbLine
 10
121.4393053209
 20
777.6740076014
 30
0.0
 11
121.4393053209
 21
772.9740076014
 31
0.0
  0
LINE
  5
45B
330
1B
100
AcDbEntity
 67
     1
  8
7_ALL_FEATURES
  6
Continuous
 62
     7
100
AcDbLine
 10
120.7393053209
 20
777.6740076014
 30
0.0
 11
121.4393053209
 21
777.6740076014
 31
0.0
  0
LINE
  5
45C
330
1B
100
AcDbEntity
 67
     1
  8
7_ALL_FEATURES
  6
Continuous
 62
     7
100
AcDbLine
 10
120.7393053209
 20
795.2740076014
 30
0.0
 11
120.7393053209
 21
777.6740076014
 31
0.0
  0
LINE
  5
45D
330
1B
100
AcDbEntity
 67
     1
  8
7_ALL_FEATURES
  6
Continuous
 62
     7
100
AcDbLine
 10
119.0393053209
 20
795.2740076014
 30
0.0
 11
120.7393053209
 21
795.2740076014
 31
0.0
  0
LINE
  5
45E
330
1B
100
AcDbEntity
 67
     1
  8
7_ALL_FEATURES
  6
Continuous
 62
     7
100
AcDbLine
 10
214.7393053209
 20
734.8740076014
 30
0.0
 11
213.0393053209
 21
734.8740076014
 31
0.0
  0
LINE
  5
45F
330
1B
100
AcDbEntity
 67
     1
  8
7_ALL_FEATURES
  6
Continuous
 62
     7
100
AcDbLine
 10
214.7393053209
 20
795.2740076014
 30
0.0
 11
214.7393053209
 21
734.8740076014
 31
0.0
  0
LINE
  5
460
330
1B
100
AcDbEntity
 67
     1
  8
7_ALL_FEATURES
  6
Continuous
 62
     7
100
AcDbLine
 10
213.0393053209
 20
795.2740076014
 30
0.0
 11
214.7393053209
 21
795.2740076014
 31
0.0
  0
LINE
  5
461
330
1B
100
AcDbEntity
 67
     1
  8
7_ALL_FEATURES
  6
Continuous
 62
     7
100
AcDbLine
 10
213.0393053209
 20
741.8740076014
 30
0.0
 11
213.0393053209
 21
795.2740076014
 31
0.0
  0
LINE
  5
462
330
1B
100
AcDbEntity
 67
     1
  8
7_ALL_FEATURES
  6
Continuous
 62
     7
100
AcDbLine
 10
211.0393053209
 20
741.8740076014
 30
0.0
 11
213.0393053209
 21
741.8740076014
 31
0.0
  0
LINE
  5
463
330
1B
100
AcDbEntity
 67
     1
  8
7_ALL_FEATURES
  6
Continuous
 62
     7
100
AcDbLine
 10
211.0393053209
 20
736.8740076014
 30
0.0
 11
211.0393053209
 21
741.8740076014
 31
0.0
  0
LINE
  5
464
330
1B
100
AcDbEntity
 67
     1
  8
7_ALL_FEATURES
  6
Continuous
 62
     7
100
AcDbLine
 10
213.0393053209
 20
736.8740076014
 30
0.0
 11
211.0393053209
 21
736.8740076014
 31
0.0
  0
LINE
  5
465
330
1B
100
AcDbEntity
 67
     1
  8
7_ALL_FEATURES
  6
Continuous
 62
     7
100
AcDbLine
 10
213.0393053209
 20
734.8740076014
 30
0.0
 11
213.0393053209
 21
736.8740076014
 31
0.0
  0
LINE
  5
466
330
1B
100
AcDbEntity
 67
     1
  8
7_ALL_FEATURES
  6
Continuous
 62
     7
100
AcDbLine
 10
146.3893053209
 20
788.5740076014
 30
0.0
 11
187.3893053209
 21
788.5740076014
 31
0.0
  0
LINE
  5
467
330
1B
100
AcDbEntity
 67
     1
  8
7_ALL_FEATURES
  6
Continuous
 62
     7
100
AcDbLine
 10
143.3893053209
 20
744.5740076014
 30
0.0
 11
143.3893053209
 21
785.5740076014
 31
0.0
  0
LINE
  5
468
330
1B
100
AcDbEntity
 67
     1
  8
7_ALL_FEATURES
  6
Continuous
 62
     7
100
AcDbLine
 10
187.3893053209
 20
741.5740076014
 30
0.0
 11
146.3893053209
 21
741.5740076014
 31
0.0
  0
LINE
  5
469
330
1B
100
AcDbEntity
 67
     1
  8
7_ALL_FEATURES
  6
Continuous
 62
     7
100
AcDbLine
 10
190.3893053209
 20
785.5740076014
 30
0.0
 11
190.3893053209
 21
744.5740076014
 31
0.0
  0
ARC
  5
46A
330
1B
100
AcDbEntity
 67
     1
  8
02___PRT_ALL_AXES
  6
Continuous
 62
     7
100
AcDbCircle
 10
189.832362775
 20
797.8400893729
 30
0.0
 40
3.5
100
AcDbArc
 50
55.00000000000001
 51
235.0
  0
ARC
  5
46B
330
1B
100
AcDbEntity
 67
     1
  8
02___PRT_ALL_AXES
  6
Continuous
 62
     7
100
AcDbCircle
 10
166.8893053209
 20
765.0740076014
 30
0.0
 40
36.5
100
AcDbArc
 50
35.0
 51
55.00000000000001
  0
ARC
  5
46C
330
1B
100
AcDbEntity
 67
     1
  8
02___PRT_ALL_AXES
  6
Continuous
 62
     7
100
AcDbCircle
 10
199.6553870925
 20
788.0170650554
 30
0.0
 40
3.5
100
AcDbArc
 50
215.0
 51
35.0
  0
ARC
  5
46D
330
1B
100
AcDbEntity
 67
     1
  8
02___PRT_ALL_AXES
  6
Continuous
 62
     7
100
AcDbCircle
 10
166.8893053209
 20
765.0740076014
 30
0.0
 40
43.5
100
AcDbArc
 50
35.0
 51
55.00000000000001
  0
ARC
  5
46E
330
1B
100
AcDbEntity
 67
     1
  8
02___PRT_ALL_AXES
  6
Continuous
 62
     7
100
AcDbCircle
 10
199.6553870925
 20
742.1309501473
 30
0.0
 40
3.5
100
AcDbArc
 50
325.0
 51
145.0
  0
ARC
  5
46F
330
1B
100
AcDbEntity
 67
     1
  8
02___PRT_ALL_AXES
  6
Continuous
 62
     7
100
AcDbCircle
 10
166.8893053209
 20
765.0740076014
 30
0.0
 40
36.5
100
AcDbArc
 50
305.0
 51
325.0
  0
ARC
  5
470
330
1B
100
AcDbEntity
 67
     1
  8
02___PRT_ALL_AXES
  6
Continuous
 62
     7
100
AcDbCircle
 10
189.832362775
 20
732.3079258298
 30
0.0
 40
3.5
100
AcDbArc
 50
125.0
 51
305.0
  0
ARC
  5
471
330
1B
100
AcDbEntity
 67
     1
  8
02___PRT_ALL_AXES
  6
Continuous
 62
     7
100
AcDbCircle
 10
166.8893053209
 20
765.0740076014
 30
0.0
 40
43.5
100
AcDbArc
 50
305.0
 51
325.0
  0
ARC
  5
472
330
1B
100
AcDbEntity
 67
     1
  8
02___PRT_ALL_AXES
  6
Continuous
 62
     7
100
AcDbCircle
 10
143.9462478669
 20
732.3079258298
 30
0.0
 40
3.5
100
AcDbArc
 50
235.0
 51
55.00000000000001
  0
ARC
  5
473
330
1B
100
AcDbEntity
 67
     1
  8
02___PRT_ALL_AXES
  6
Continuous
 62
     7
100
AcDbCircle
 10
166.8893053209
 20
765.0740076014
 30
0.0
 40
36.5
100
AcDbArc
 50
215.0
 51
235.0
  0
ARC
  5
474
330
1B
100
AcDbEntity
 67
     1
  8
02___PRT_ALL_AXES
  6
Continuous
 62
     7
100
AcDbCircle
 10
134.1232235494
 20
742.1309501473
 30
0.0
 40
3.5
100
AcDbArc
 50
35.0
 51
215.0
  0
ARC
  5
475
330
1B
100
AcDbEntity
 67
     1
  8
02___PRT_ALL_AXES
  6
Continuous
 62
     7
100
AcDbCircle
 10
166.8893053209
 20
765.0740076014
 30
0.0
 40
43.5
100
AcDbArc
 50
215.0
 51
235.0
  0
ARC
  5
476
330
1B
100
AcDbEntity
 67
     1
  8
02___PRT_ALL_AXES
  6
Continuous
 62
     7
100
AcDbCircle
 10
134.1232235494
 20
788.0170650554
 30
0.0
 40
3.5
100
AcDbArc
 50
145.0
 51
325.0
  0
ARC
  5
477
330
1B
100
AcDbEntity
 67
     1
  8
02___PRT_ALL_AXES
  6
Continuous
 62
     7
100
AcDbCircle
 10
166.8893053209
 20
765.0740076014
 30
0.0
 40
36.5
100
AcDbArc
 50
125.0
 51
145.0
  0
ARC
  5
478
330
1B
100
AcDbEntity
 67
     1
  8
02___PRT_ALL_AXES
  6
Continuous
 62
     7
100
AcDbCircle
 10
143.9462478669
 20
797.8400893729
 30
0.0
 40
3.5
100
AcDbArc
 50
305.0
 51
125.0
  0
ARC
  5
479
330
1B
100
AcDbEntity
 67
     1
  8
02___PRT_ALL_AXES
  6
Continuous
 62
     7
100
AcDbCircle
 10
166.8893053209
 20
765.0740076014
 30
0.0
 40
43.5
100
AcDbArc
 50
125.0
 51
145.0
  0
LINE
  5
47A
330
1B
100
AcDbEntity
 67
     1
  8
7_ALL_FEATURES
  6
Continuous
 62
     7
100
AcDbLine
 10
116.3893053209
 20
817.5740076014
 30
0.0
 11
114.3893053209
 21
815.5740076014
 31
0.0
  0
LINE
  5
47B
330
1B
100
AcDbEntity
 67
     1
  8
7_ALL_FEATURES
  6
Continuous
 62
     7
100
AcDbLine
 10
116.3893053209
 20
817.5740076014
 30
0.0
 11
217.3893053209
 21
817.5740076014
 31
0.0
  0
LINE
  5
47C
330
1B
100
AcDbEntity
 67
     1
  8
7_ALL_FEATURES
  6
Continuous
 62
     7
100
AcDbLine
 10
219.3893053209
 20
815.5740076014
 30
0.0
 11
217.3893053209
 21
817.5740076014
 31
0.0
  0
LINE
  5
47D
330
1B
100
AcDbEntity
 67
     1
  8
7_ALL_FEATURES
  6
Continuous
 62
     7
100
AcDbLine
 10
219.3893053209
 20
815.5740076014
 30
0.0
 11
219.3893053209
 21
714.5740076014
 31
0.0
  0
LINE
  5
47E
330
1B
100
AcDbEntity
 67
     1
  8
7_ALL_FEATURES
  6
Continuous
 62
     7
100
AcDbLine
 10
217.3893053209
 20
712.5740076014
 30
0.0
 11
219.3893053209
 21
714.5740076014
 31
0.0
  0
LINE
  5
47F
330
1B
100
AcDbEntity
 67
     1
  8
7_ALL_FEATURES
  6
Continuous
 62
     7
100
AcDbLine
 10
217.3893053209
 20
712.5740076014
 30
0.0
 11
116.3893053209
 21
712.5740076014
 31
0.0
  0
LINE
  5
480
330
1B
100
AcDbEntity
 67
     1
  8
7_ALL_FEATURES
  6
Continuous
 62
     7
100
AcDbLine
 10
114.3893053209
 20
714.5740076014
 30
0.0
 11
116.3893053209
 21
712.5740076014
 31
0.0
  0
LINE
  5
481
330
1B
100
AcDbEntity
 67
     1
  8
7_ALL_FEATURES
  6
Continuous
 62
     7
100
AcDbLine
 10
114.3893053209
 20
714.5740076014
 30
0.0
 11
114.3893053209
 21
815.5740076014
 31
0.0
  0
LINE
  5
482
330
1B
100
AcDbEntity
 67
     1
  8
7_ALL_FEATURES
  6
Continuous
 62
     7
100
AcDbLine
 10
190.3893053209
 20
744.5740076014
 30
0.0
 11
187.3893053209
 21
741.5740076014
 31
0.0
  0
LINE
  5
483
330
1B
100
AcDbEntity
 67
     1
  8
7_ALL_FEATURES
  6
Continuous
 62
     7
100
AcDbLine
 10
187.3893053209
 20
788.5740076014
 30
0.0
 11
190.3893053209
 21
785.5740076014
 31
0.0
  0
LINE
  5
484
330
1B
100
AcDbEntity
 67
     1
  8
7_ALL_FEATURES
  6
Continuous
 62
     7
100
AcDbLine
 10
143.3893053209
 20
785.5740076014
 30
0.0
 11
146.3893053209
 21
788.5740076014
 31
0.0
  0
LINE
  5
485
330
1B
100
AcDbEntity
 67
     1
  8
7_ALL_FEATURES
  6
Continuous
 62
     7
100
AcDbLine
 10
146.3893053209
 20
741.5740076014
 30
0.0
 11
143.3893053209
 21
744.5740076014
 31
0.0
  0
LINE
  5
486
330
1B
100
AcDbEntity
 67
     1
  8
7_ALL_FEATURES
  6
Continuous
 62
     7
100
AcDbLine
 10
468.3617504223
 20
681.0760135135
 30
0.0
 11
466.2617504223
 21
681.0760135135
 31
0.0
  0
LINE
  5
487
330
1B
100
AcDbEntity
 67
     1
  8
7_ALL_FEATURES
  6
Continuous
 62
     7
100
AcDbLine
 10
466.2617504223
 20
681.0760135135
 30
0.0
 11
464.9733631461
 21
681.0760135135
 31
0.0
  0
LINE
  5
488
330
1B
100
AcDbEntity
 67
     1
  8
7_ALL_FEATURES
  6
Continuous
 62
     7
100
AcDbLine
 10
464.9733631461
 20
681.0760135135
 30
0.0
 11
464.9617504223
 21
681.0760135135
 31
0.0
  0
LINE
  5
489
330
1B
100
AcDbEntity
 67
     1
  8
7_ALL_FEATURES
  6
Continuous
 62
     7
100
AcDbLine
 10
464.9617504223
 20
681.0760135135
 30
0.0
 11
464.4617504223
 21
681.0760135135
 31
0.0
  0
LINE
  5
48A
330
1B
100
AcDbEntity
 67
     1
  8
7_ALL_FEATURES
  6
Continuous
 62
     7
100
AcDbLine
 10
464.4617504223
 20
681.0760135135
 30
0.0
 11
463.9617504223
 21
680.5760135135
 31
0.0
  0
LINE
  5
48B
330
1B
100
AcDbEntity
 67
     1
  8
7_ALL_FEATURES
  6
Continuous
 62
     7
100
AcDbLine
 10
472.2617504223
 20
681.0760135135
 30
0.0
 11
471.7617503854
 21
681.0760135135
 31
0.0
  0
LINE
  5
48C
330
1B
100
AcDbEntity
 67
     1
  8
7_ALL_FEATURES
  6
Continuous
 62
     7
100
AcDbLine
 10
471.7617503854
 20
681.0760135135
 30
0.0
 11
471.7501376985
 21
681.0760135135
 31
0.0
  0
LINE
  5
48D
330
1B
100
AcDbEntity
 67
     1
  8
7_ALL_FEATURES
  6
Continuous
 62
     7
100
AcDbLine
 10
471.7501376985
 20
681.0760135135
 30
0.0
 11
470.4617504185
 21
681.0760135135
 31
0.0
  0
LINE
  5
48E
330
1B
100
AcDbEntity
 67
     1
  8
7_ALL_FEATURES
  6
Continuous
 62
     7
100
AcDbLine
 10
470.4617504185
 20
681.0760135135
 30
0.0
 11
468.3617504223
 21
681.0760135135
 31
0.0
  0
LINE
  5
48F
330
1B
100
AcDbEntity
 67
     1
  8
7_ALL_FEATURES
  6
Continuous
 62
     7
100
AcDbLine
 10
472.2617504223
 20
681.0760135135
 30
0.0
 11
472.7617504223
 21
680.5760135135
 31
0.0
  0
LINE
  5
490
330
1B
100
AcDbEntity
 67
     1
  8
02___PRT_ALL_AXES
  6
Continuous
 62
     7
100
AcDbLine
 10
472.7617504223
 20
671.0760135135
 30
0.0
 11
472.7617504223
 21
676.3510135135
 31
0.0
  0
LINE
  5
491
330
1B
100
AcDbEntity
 67
     1
  8
02___PRT_ALL_AXES
  6
Continuous
 62
     7
100
AcDbLine
 10
472.7617504223
 20
676.3510135135
 30
0.0
 11
471.7367504223
 21
677.3760135135
 31
0.0
  0
LINE
  5
492
330
1B
100
AcDbEntity
 67
     1
  8
02___PRT_ALL_AXES
  6
Continuous
 62
     7
100
AcDbLine
 10
463.9617504223
 20
678.4010135135
 30
0.0
 11
463.9617504223
 21
680.5760135135
 31
0.0
  0
LINE
  5
493
330
1B
100
AcDbEntity
 67
     1
  8
02___PRT_ALL_AXES
  6
Continuous
 62
     7
100
AcDbLine
 10
464.9867504223
 20
677.3760135135
 30
0.0
 11
463.9617504223
 21
678.4010135135
 31
0.0
  0
LINE
  5
494
330
1B
100
AcDbEntity
 67
     1
  8
02___PRT_ALL_AXES
  6
Continuous
 62
     7
100
AcDbLine
 10
471.7367504223
 20
677.3760135135
 30
0.0
 11
472.7617504223
 21
678.4010135135
 31
0.0
  0
LINE
  5
495
330
1B
100
AcDbEntity
 67
     1
  8
02___PRT_ALL_AXES
  6
Continuous
 62
     7
100
AcDbLine
 10
463.9617504223
 20
676.3510135135
 30
0.0
 11
464.9867504223
 21
677.3760135135
 31
0.0
  0
LINE
  5
496
330
1B
100
AcDbEntity
 67
     1
  8
02___PRT_ALL_AXES
  6
Continuous
 62
     7
100
AcDbLine
 10
463.9617504223
 20
671.0760135135
 30
0.0
 11
463.9617504223
 21
676.3510135135
 31
0.0
  0
LINE
  5
497
330
1B
100
AcDbEntity
 67
     1
  8
02___PRT_ALL_AXES
  6
Continuous
 62
     7
100
AcDbLine
 10
472.7617504223
 20
678.4010135135
 30
0.0
 11
472.7617504223
 21
680.5760135135
 31
0.0
  0
LINE
  5
498
330
1B
100
AcDbEntity
 67
     1
  8
7_ALL_FEATURES
  6
Continuous
 62
     7
100
AcDbLine
 10
468.3617504223
 20
680.5760135135
 30
0.0
 11
463.9617504223
 21
680.5760135135
 31
0.0
  0
LINE
  5
499
330
1B
100
AcDbEntity
 67
     1
  8
02___PRT_ALL_AXES
  6
Continuous
 62
     7
100
AcDbLine
 10
472.7617504223
 20
676.3510135135
 30
0.0
 11
468.3617504223
 21
676.3510135135
 31
0.0
  0
LINE
  5
49A
330
1B
100
AcDbEntity
 67
     1
  8
02___PRT_ALL_AXES
  6
Continuous
 62
     7
100
AcDbLine
 10
463.9617504223
 20
678.4010135135
 30
0.0
 11
468.3617504223
 21
678.4010135135
 31
0.0
  0
LINE
  5
49B
330
1B
100
AcDbEntity
 67
     1
  8
02___PRT_ALL_AXES
  6
Continuous
 62
     7
100
AcDbLine
 10
471.7367504223
 20
677.3760135135
 30
0.0
 11
468.3617504223
 21
677.3760135135
 31
0.0
  0
LINE
  5
49C
330
1B
100
AcDbEntity
 67
     1
  8
02___PRT_ALL_AXES
  6
Continuous
 62
     7
100
AcDbLine
 10
464.9867504223
 20
677.3760135135
 30
0.0
 11
468.3617504223
 21
677.3760135135
 31
0.0
  0
LINE
  5
49D
330
1B
100
AcDbEntity
 67
     1
  8
02___PRT_ALL_AXES
  6
Continuous
 62
     7
100
AcDbLine
 10
463.9617504223
 20
676.3510135135
 30
0.0
 11
468.3617504223
 21
676.3510135135
 31
0.0
  0
LINE
  5
49E
330
1B
100
AcDbEntity
 67
     1
  8
7_ALL_FEATURES
  6
Continuous
 62
     7
100
AcDbLine
 10
472.7617504223
 20
680.5760135135
 30
0.0
 11
468.3617504223
 21
680.5760135135
 31
0.0
  0
LINE
  5
49F
330
1B
100
AcDbEntity
 67
     1
  8
02___PRT_ALL_AXES
  6
Continuous
 62
     7
100
AcDbLine
 10
472.7617504223
 20
678.4010135135
 30
0.0
 11
468.3617504223
 21
678.4010135135
 31
0.0
  0
ARC
  5
4A0
330
1B
100
AcDbEntity
 67
     1
  8
7_ALL_FEATURES
  6
Continuous
 62
     7
100
AcDbCircle
 10
464.9617504223
 20
681.1760135135
 30
0.0
 40
0.1
100
AcDbArc
 50
180.0
 51
270.0
  0
ARC
  5
4A1
330
1B
100
AcDbEntity
 67
     1
  8
7_ALL_FEATURES
  6
Continuous
 62
     7
100
AcDbCircle
 10
471.7617504223
 20
681.1760135135
 30
0.0
 40
0.1
100
AcDbArc
 50
270.0
 51
360.0
  0
ARC
  5
4A2
330
1B
100
AcDbEntity
 67
     1
  8
7_ALL_FEATURES
  6
Continuous
 62
     7
100
AcDbCircle
 10
464.9617504223
 20
684.9760135135
 30
0.0
 40
0.1
100
AcDbArc
 50
90.0
 51
180.0
  0
LINE
  5
4A3
330
1B
100
AcDbEntity
 67
     1
  8
7_ALL_FEATURES
  6
Continuous
 62
     7
100
AcDbLine
 10
468.3617504223
 20
685.0760135135
 30
0.0
 11
464.9617504239
 21
685.0760135135
 31
0.0
  0
LINE
  5
4A4
330
1B
100
AcDbEntity
 67
     1
  8
7_ALL_FEATURES
  6
Continuous
 62
     7
100
AcDbLine
 10
464.9617504223
 20
685.0760135135
 30
0.0
 11
468.3617504223
 21
685.0760135135
 31
0.0
  0
LINE
  5
4A5
330
1B
100
AcDbEntity
 67
     1
  8
7_ALL_FEATURES
  6
Continuous
 62
     7
100
AcDbLine
 10
471.7617504207
 20
685.0760135135
 30
0.0
 11
471.7100899352
 21
685.0760135135
 31
0.0
  0
LINE
  5
4A6
330
1B
100
AcDbEntity
 67
     1
  8
7_ALL_FEATURES
  6
Continuous
 62
     7
100
AcDbLine
 10
471.7100899352
 20
685.0760135135
 30
0.0
 11
468.3617504223
 21
685.0760135135
 31
0.0
  0
ARC
  5
4A7
330
1B
100
AcDbEntity
 67
     1
  8
7_ALL_FEATURES
  6
Continuous
 62
     7
100
AcDbCircle
 10
471.7617504223
 20
684.9760135135
 30
0.0
 40
0.1
100
AcDbArc
 50
0.0
 51
90.0
  0
LINE
  5
4A8
330
1B
100
AcDbEntity
 67
     1
  8
7_ALL_FEATURES
  6
Continuous
 62
     7
100
AcDbLine
 10
471.7501376985
 20
685.0760135135
 30
0.0
 11
471.7617504223
 21
685.0760135135
 31
0.0
  0
LINE
  5
4A9
330
1B
100
AcDbEntity
 67
     1
  8
7_ALL_FEATURES
  6
Continuous
 62
     7
100
AcDbLine
 10
468.3617504223
 20
685.0760135135
 30
0.0
 11
471.7501376985
 21
685.0760135135
 31
0.0
  0
LINE
  5
4AA
330
1B
100
AcDbEntity
 67
     1
  8
3_ALL_AXES
  6
Continuous
 62
     7
100
AcDbLine
 10
464.8617504223
 20
681.1760135135
 30
0.0
 11
464.8617504223
 21
684.9760135135
 31
0.0
  0
LINE
  5
4AB
330
1B
100
AcDbEntity
 67
     1
  8
3_ALL_AXES
  6
Continuous
 62
     7
100
AcDbLine
 10
471.8617504223
 20
681.1760135135
 30
0.0
 11
471.8617504223
 21
684.9760135135
 31
0.0
  0
LINE
  5
4AC
330
1B
100
AcDbEntity
 67
     1
  8
7_ALL_FEATURES
  6
Continuous
 62
     9
100
AcDbLine
 10
468.3617504223
 20
684.9760135135
 30
0.0
 11
464.8617504223
 21
684.9760135135
 31
0.0
  0
LINE
  5
4AD
330
1B
100
AcDbEntity
 67
     1
  8
7_ALL_FEATURES
  6
Continuous
 62
     9
100
AcDbLine
 10
471.8617504223
 20
684.9760135135
 30
0.0
 11
468.3617504223
 21
684.9760135135
 31
0.0
  0
LINE
  5
4AE
330
1B
100
AcDbEntity
 67
     1
  8
7_ALL_FEATURES
  6
Continuous
 62
     9
100
AcDbLine
 10
471.8617504223
 20
681.1760135135
 30
0.0
 11
468.3617504223
 21
681.1760135135
 31
0.0
  0
LINE
  5
4AF
330
1B
100
AcDbEntity
 67
     1
  8
7_ALL_FEATURES
  6
Continuous
 62
     9
100
AcDbLine
 10
468.3617504223
 20
681.1760135135
 30
0.0
 11
464.8617504223
 21
681.1760135135
 31
0.0
  0
LINE
  5
4B0
330
1B
100
AcDbEntity
 67
     1
  8
7_ALL_FEATURES
  6
Continuous
 62
     7
100
AcDbLine
 10
466.8617504223
 20
205.4364146409
 30
0.0
 11
468.3617504223
 21
204.5716151912
 31
0.0
  0
LINE
  5
4B1
330
1B
100
AcDbEntity
 67
     1
  8
7_ALL_FEATURES
  6
Continuous
 62
     7
100
AcDbLine
 10
468.3617504223
 20
204.5716151912
 30
0.0
 11
469.8617504223
 21
205.4364146409
 31
0.0
  0
LINE
  5
4B2
330
1B
100
AcDbEntity
 67
     1
  8
7_ALL_FEATURES
  6
Continuous
 62
     7
100
AcDbLine
 10
469.8617504223
 20
205.4364146409
 30
0.0
 11
469.8617504223
 21
207.1660135403
 31
0.0
  0
LINE
  5
4B3
330
1B
100
AcDbEntity
 67
     1
  8
7_ALL_FEATURES
  6
Continuous
 62
     7
100
AcDbLine
 10
466.8617504223
 20
207.1660135403
 30
0.0
 11
466.8617504223
 21
205.4364146409
 31
0.0
  0
SPLINE
  5
4B4
330
1B
100
AcDbEntity
 67
     1
  8
3_ALL_AXES
  6
Continuous
 62
     7
100
AcDbSpline
 70
     0
 71
     3
 72
    15
 73
    11
 74
     0
 42
0.000000001
 43
0.0000001
 40
0.0
 40
0.0
 40
0.0
 40
0.0
 40
0.125089821
 40
0.2501603611
 40
0.3752096284
 40
0.5002269883
 40
0.6252096732
 40
0.7501605067
 40
0.8750868529
 40
1.0
 40
1.0
 40
1.0
 40
1.0
 10
468.3617504223
 20
211.2941360414
 30
0.0
 10
468.0350233571
 20
211.2941360414
 30
0.0
 10
467.3798134839
 20
211.2297727722
 30
0.0
 10
466.4361485587
 20
210.9438385879
 30
0.0
 10
465.5660844461
 20
210.479505741
 30
0.0
 10
464.8035299092
 20
209.8545925141
 30
0.0
 10
464.1776720522
 20
209.0931374254
 30
0.0
 10
463.7126176849
 20
208.2242624557
 30
0.0
 10
463.4262170764
 20
207.2818596223
 30
0.0
 10
463.3617549758
 20
206.6274796942
 30
0.0
 10
463.3617549758
 20
206.3012140906
 30
0.0
  0
SPLINE
  5
4B5
330
1B
100
AcDbEntity
 67
     1
  8
3_ALL_AXES
  6
Continuous
 62
     7
100
AcDbSpline
 70
     0
 71
     3
 72
    15
 73
    11
 74
     0
 42
0.000000001
 43
0.0000001
 40
0.0
 40
0.0
 40
0.0
 40
0.0
 40
0.125089821
 40
0.2501603611
 40
0.3752096284
 40
0.5002269883
 40
0.6252096732
 40
0.7501605067
 40
0.8750868529
 40
1.0
 40
1.0
 40
1.0
 40
1.0
 10
468.3617504223
 20
211.2941360414
 30
0.0
 10
468.6884774875
 20
211.2941360414
 30
0.0
 10
469.3436873607
 20
211.2297727722
 30
0.0
 10
470.2873522859
 20
210.9438385879
 30
0.0
 10
471.1574163985
 20
210.479505741
 30
0.0
 10
471.9199709354
 20
209.8545925141
 30
0.0
 10
472.5458287924
 20
209.0931374254
 30
0.0
 10
473.0108831597
 20
208.2242624557
 30
0.0
 10
473.2972837682
 20
207.2818596223
 30
0.0
 10
473.3617458688
 20
206.6274796942
 30
0.0
 10
473.3617458688
 20
206.3012140906
 30
0.0
  0
SPLINE
  5
4B6
330
1B
100
AcDbEntity
 67
     1
  8
3_ALL_AXES
  6
Continuous
 62
     7
100
AcDbSpline
 70
     0
 71
     3
 72
    15
 73
    11
 74
     0
 42
0.000000001
 43
0.0000001
 40
0.0
 40
0.0
 40
0.0
 40
0.0
 40
0.1249131471
 40
0.2498394933
 40
0.3747903268
 40
0.4997730117
 40
0.6247903716
 40
0.7498396389
 40
0.874910179
 40
1.0
 40
1.0
 40
1.0
 40
1.0
 10
473.3617458688
 20
206.2852569789
 30
0.0
 10
473.3617458688
 20
205.9589913752
 30
0.0
 10
473.2972837682
 20
205.3046114471
 30
0.0
 10
473.0108831597
 20
204.3622086138
 30
0.0
 10
472.5458287924
 20
203.4933336441
 30
0.0
 10
471.9199709354
 20
202.7318785554
 30
0.0
 10
471.1574163985
 20
202.1069653285
 30
0.0
 10
470.2873522859
 20
201.6426324816
 30
0.0
 10
469.3436873607
 20
201.3566982972
 30
0.0
 10
468.6884774875
 20
201.292335028
 30
0.0
 10
468.3617504223
 20
201.292335028
 30
0.0
  0
SPLINE
  5
4B7
330
1B
100
AcDbEntity
 67
     1
  8
3_ALL_AXES
  6
Continuous
 62
     7
100
AcDbSpline
 70
     0
 71
     3
 72
    15
 73
    11
 74
     0
 42
0.000000001
 43
0.0000001
 40
0.0
 40
0.0
 40
0.0
 40
0.0
 40
0.1249131471
 40
0.2498394933
 40
0.3747903268
 40
0.4997730117
 40
0.6247903716
 40
0.7498396389
 40
0.874910179
 40
1.0
 40
1.0
 40
1.0
 40
1.0
 10
463.3617549758
 20
206.2852569789
 30
0.0
 10
463.3617549758
 20
205.9589913752
 30
0.0
 10
463.4262170764
 20
205.3046114471
 30
0.0
 10
463.7126176849
 20
204.3622086138
 30
0.0
 10
464.1776720522
 20
203.4933336441
 30
0.0
 10
464.8035299092
 20
202.7318785554
 30
0.0
 10
465.5660844461
 20
202.1069653285
 30
0.0
 10
466.4361485587
 20
201.6426324816
 30
0.0
 10
467.3798134839
 20
201.3566982972
 30
0.0
 10
468.0350233571
 20
201.292335028
 30
0.0
 10
468.3617504223
 20
201.292335028
 30
0.0
  0
ARC
  5
4B8
330
1B
100
AcDbEntity
 67
     1
  8
3_ALL_AXES
  6
Continuous
 62
     7
100
AcDbCircle
 10
468.3720017739
 20
206.3012140889
 30
0.0
 40
4.9897440949
100
AcDbArc
 50
359.8169771878
 51
360.0
  0
SPLINE
  5
4B9
330
1B
100
AcDbEntity
 67
     1
  8
3_ALL_AXES
  6
Continuous
 62
     7
100
AcDbSpline
 70
     0
 71
     3
 72
    15
 73
    11
 74
     0
 42
0.000000001
 43
0.0000001
 40
0.0
 40
0.0
 40
0.0
 40
0.0
 40
0.1249130663
 40
0.2498394927
 40
0.3747904667
 40
0.4997732836
 40
0.6247907044
 40
0.7498399459
 40
0.8749103427
 40
1.0
 40
1.0
 40
1.0
 40
1.0
 10
473.3617204115
 20
206.2852751236
 30
0.0
 10
473.3606803162
 20
205.9596718612
 30
0.0
 10
473.2943924583
 20
205.3068324569
 30
0.0
 10
473.0061376317
 20
204.3671060731
 30
0.0
 10
472.5401336451
 20
203.5010332182
 30
0.0
 10
471.9141940476
 20
202.7422622858
 30
0.0
 10
471.1523331921
 20
202.1196926289
 30
0.0
 10
470.2835918846
 20
201.6571780005
 30
0.0
 10
469.341691109
 20
201.3723931768
 30
0.0
 10
468.6878156573
 20
201.3082921397
 30
0.0
 10
468.3617504223
 20
201.3082921397
 30
0.0
  0
LINE
  5
4BA
330
1B
100
AcDbEntity
 67
     1
  8
7_ALL_FEATURES
  6
Continuous
 62
     7
100
AcDbLine
 10
468.3617504223
 20
208.03081299
 30
0.0
 11
466.8617504223
 21
207.1660135403
 31
0.0
  0
LINE
  5
4BB
330
1B
100
AcDbEntity
 67
     1
  8
7_ALL_FEATURES
  6
Continuous
 62
     7
100
AcDbLine
 10
469.8617504223
 20
207.1660135403
 30
0.0
 11
468.3617504223
 21
208.03081299
 31
0.0
  0
ARC
  5
4BC
330
1B
100
AcDbEntity
 67
     1
  8
3_ALL_AXES
  6
Continuous
 62
     7
100
AcDbCircle
 10
468.3514990972
 20
206.3012140889
 30
0.0
 40
4.9897441214
100
AcDbArc
 50
179.9999999805
 51
180.183022811
  0
SPLINE
  5
4BD
330
1B
100
AcDbEntity
 67
     1
  8
3_ALL_AXES
  6
Continuous
 62
     7
100
AcDbSpline
 70
     0
 71
     3
 72
    15
 73
    11
 74
     0
 42
0.000000001
 43
0.0000001
 40
0.0
 40
0.0
 40
0.0
 40
0.0
 40
0.1249130663
 40
0.2498394927
 40
0.3747904667
 40
0.4997732836
 40
0.6247907044
 40
0.7498399459
 40
0.8749103427
 40
1.0
 40
1.0
 40
1.0
 40
1.0
 10
463.3617804331
 20
206.2852751236
 30
0.0
 10
463.3628205284
 20
205.9596718612
 30
0.0
 10
463.4291083863
 20
205.3068324569
 30
0.0
 10
463.7173632129
 20
204.3671060731
 30
0.0
 10
464.1833671995
 20
203.5010332182
 30
0.0
 10
464.809306797
 20
202.7422622858
 30
0.0
 10
465.5711676525
 20
202.1196926289
 30
0.0
 10
466.43990896
 20
201.6571780005
 30
0.0
 10
467.3818097356
 20
201.3723931768
 30
0.0
 10
468.0356851873
 20
201.3082921397
 30
0.0
 10
468.3617504223
 20
201.3082921397
 30
0.0
  0
LINE
  5
4BE
330
1B
100
AcDbEntity
 67
     1
  8
7_ALL_FEATURES
  6
Continuous
 62
     7
100
AcDbLine
 10
468.3617504223
 20
207.8978370593
 30
0.0
 11
466.8617504223
 21
207.0330376095
 31
0.0
  0
LINE
  5
4BF
330
1B
100
AcDbEntity
 67
     1
  8
7_ALL_FEATURES
  6
Continuous
 62
     7
100
AcDbLine
 10
469.8617504223
 20
207.0330376095
 30
0.0
 11
468.3617504223
 21
207.8978370593
 31
0.0
  0
LINE
  5
4C0
330
1B
100
AcDbEntity
 67
     1
  8
7_ALL_FEATURES
  6
Continuous
 62
     7
100
AcDbLine
 10
468.3617504223
 20
208.03081299
 30
0.0
 11
468.3617504223
 21
207.8978370593
 31
0.0
  0
LINE
  5
4C1
330
1B
100
AcDbEntity
 67
     1
  8
7_ALL_FEATURES
  6
Continuous
 62
     7
100
AcDbLine
 10
385.8617504223
 20
205.4364146409
 30
0.0
 11
387.3617504223
 21
204.5716151912
 31
0.0
  0
LINE
  5
4C2
330
1B
100
AcDbEntity
 67
     1
  8
7_ALL_FEATURES
  6
Continuous
 62
     7
100
AcDbLine
 10
387.3617504223
 20
204.5716151912
 30
0.0
 11
388.8617504223
 21
205.4364146409
 31
0.0
  0
LINE
  5
4C3
330
1B
100
AcDbEntity
 67
     1
  8
7_ALL_FEATURES
  6
Continuous
 62
     7
100
AcDbLine
 10
388.8617504223
 20
205.4364146409
 30
0.0
 11
388.8617504223
 21
207.1660135403
 31
0.0
  0
LINE
  5
4C4
330
1B
100
AcDbEntity
 67
     1
  8
7_ALL_FEATURES
  6
Continuous
 62
     7
100
AcDbLine
 10
385.8617504223
 20
207.1660135403
 30
0.0
 11
385.8617504223
 21
205.4364146409
 31
0.0
  0
SPLINE
  5
4C5
330
1B
100
AcDbEntity
 67
     1
  8
3_ALL_AXES
  6
Continuous
 62
     7
100
AcDbSpline
 70
     0
 71
     3
 72
    15
 73
    11
 74
     0
 42
0.000000001
 43
0.0000001
 40
0.0
 40
0.0
 40
0.0
 40
0.0
 40
0.125089821
 40
0.2501603611
 40
0.3752096284
 40
0.5002269883
 40
0.6252096732
 40
0.7501605067
 40
0.8750868529
 40
1.0
 40
1.0
 40
1.0
 40
1.0
 10
387.3617504223
 20
211.2941360414
 30
0.0
 10
387.0350233571
 20
211.2941360414
 30
0.0
 10
386.3798134839
 20
211.2297727722
 30
0.0
 10
385.4361485587
 20
210.9438385879
 30
0.0
 10
384.5660844461
 20
210.479505741
 30
0.0
 10
383.8035299092
 20
209.8545925141
 30
0.0
 10
383.1776720522
 20
209.0931374254
 30
0.0
 10
382.7126176849
 20
208.2242624557
 30
0.0
 10
382.4262170764
 20
207.2818596223
 30
0.0
 10
382.3617549758
 20
206.6274796942
 30
0.0
 10
382.3617549758
 20
206.3012140906
 30
0.0
  0
SPLINE
  5
4C6
330
1B
100
AcDbEntity
 67
     1
  8
3_ALL_AXES
  6
Continuous
 62
     7
100
AcDbSpline
 70
     0
 71
     3
 72
    15
 73
    11
 74
     0
 42
0.000000001
 43
0.0000001
 40
0.0
 40
0.0
 40
0.0
 40
0.0
 40
0.125089821
 40
0.2501603611
 40
0.3752096284
 40
0.5002269883
 40
0.6252096732
 40
0.7501605067
 40
0.8750868529
 40
1.0
 40
1.0
 40
1.0
 40
1.0
 10
387.3617504223
 20
211.2941360414
 30
0.0
 10
387.6884774875
 20
211.2941360414
 30
0.0
 10
388.3436873607
 20
211.2297727722
 30
0.0
 10
389.2873522859
 20
210.9438385879
 30
0.0
 10
390.1574163985
 20
210.479505741
 30
0.0
 10
390.9199709354
 20
209.8545925141
 30
0.0
 10
391.5458287924
 20
209.0931374254
 30
0.0
 10
392.0108831597
 20
208.2242624557
 30
0.0
 10
392.2972837682
 20
207.2818596223
 30
0.0
 10
392.3617458688
 20
206.6274796942
 30
0.0
 10
392.3617458688
 20
206.3012140906
 30
0.0
  0
SPLINE
  5
4C7
330
1B
100
AcDbEntity
 67
     1
  8
3_ALL_AXES
  6
Continuous
 62
     7
100
AcDbSpline
 70
     0
 71
     3
 72
    15
 73
    11
 74
     0
 42
0.000000001
 43
0.0000001
 40
0.0
 40
0.0
 40
0.0
 40
0.0
 40
0.1249131471
 40
0.2498394933
 40
0.3747903268
 40
0.4997730117
 40
0.6247903716
 40
0.7498396389
 40
0.874910179
 40
1.0
 40
1.0
 40
1.0
 40
1.0
 10
392.3617458688
 20
206.2852569789
 30
0.0
 10
392.3617458688
 20
205.9589913752
 30
0.0
 10
392.2972837682
 20
205.3046114471
 30
0.0
 10
392.0108831597
 20
204.3622086138
 30
0.0
 10
391.5458287924
 20
203.4933336441
 30
0.0
 10
390.9199709354
 20
202.7318785554
 30
0.0
 10
390.1574163985
 20
202.1069653285
 30
0.0
 10
389.2873522859
 20
201.6426324816
 30
0.0
 10
388.3436873607
 20
201.3566982972
 30
0.0
 10
387.6884774875
 20
201.292335028
 30
0.0
 10
387.3617504223
 20
201.292335028
 30
0.0
  0
SPLINE
  5
4C8
330
1B
100
AcDbEntity
 67
     1
  8
3_ALL_AXES
  6
Continuous
 62
     7
100
AcDbSpline
 70
     0
 71
     3
 72
    15
 73
    11
 74
     0
 42
0.000000001
 43
0.0000001
 40
0.0
 40
0.0
 40
0.0
 40
0.0
 40
0.1249131471
 40
0.2498394933
 40
0.3747903268
 40
0.4997730117
 40
0.6247903716
 40
0.7498396389
 40
0.874910179
 40
1.0
 40
1.0
 40
1.0
 40
1.0
 10
382.3617549758
 20
206.2852569789
 30
0.0
 10
382.3617549758
 20
205.9589913752
 30
0.0
 10
382.4262170764
 20
205.3046114471
 30
0.0
 10
382.7126176849
 20
204.3622086138
 30
0.0
 10
383.1776720522
 20
203.4933336441
 30
0.0
 10
383.8035299092
 20
202.7318785554
 30
0.0
 10
384.5660844461
 20
202.1069653285
 30
0.0
 10
385.4361485587
 20
201.6426324816
 30
0.0
 10
386.3798134839
 20
201.3566982972
 30
0.0
 10
387.0350233571
 20
201.292335028
 30
0.0
 10
387.3617504223
 20
201.292335028
 30
0.0
  0
ARC
  5
4C9
330
1B
100
AcDbEntity
 67
     1
  8
3_ALL_AXES
  6
Continuous
 62
     7
100
AcDbCircle
 10
387.3720017474
 20
206.3012140889
 30
0.0
 40
4.9897441214
100
AcDbArc
 50
359.8169771884999
 51
360.0
  0
SPLINE
  5
4CA
330
1B
100
AcDbEntity
 67
     1
  8
3_ALL_AXES
  6
Continuous
 62
     7
100
AcDbSpline
 70
     0
 71
     3
 72
    15
 73
    11
 74
     0
 42
0.000000001
 43
0.0000001
 40
0.0
 40
0.0
 40
0.0
 40
0.0
 40
0.1249130663
 40
0.2498394927
 40
0.3747904667
 40
0.4997732836
 40
0.6247907044
 40
0.7498399459
 40
0.8749103427
 40
1.0
 40
1.0
 40
1.0
 40
1.0
 10
392.3617204115
 20
206.2852751236
 30
0.0
 10
392.3606803162
 20
205.9596718612
 30
0.0
 10
392.2943924583
 20
205.3068324569
 30
0.0
 10
392.0061376317
 20
204.3671060731
 30
0.0
 10
391.5401336451
 20
203.5010332182
 30
0.0
 10
390.9141940476
 20
202.7422622858
 30
0.0
 10
390.1523331921
 20
202.1196926289
 30
0.0
 10
389.2835918846
 20
201.6571780005
 30
0.0
 10
388.341691109
 20
201.3723931768
 30
0.0
 10
387.6878156573
 20
201.3082921397
 30
0.0
 10
387.3617504223
 20
201.3082921397
 30
0.0
  0
LINE
  5
4CB
330
1B
100
AcDbEntity
 67
     1
  8
7_ALL_FEATURES
  6
Continuous
 62
     7
100
AcDbLine
 10
387.3617504223
 20
208.03081299
 30
0.0
 11
385.8617504223
 21
207.1660135403
 31
0.0
  0
LINE
  5
4CC
330
1B
100
AcDbEntity
 67
     1
  8
7_ALL_FEATURES
  6
Continuous
 62
     7
100
AcDbLine
 10
388.8617504223
 20
207.1660135403
 30
0.0
 11
387.3617504223
 21
208.03081299
 31
0.0
  0
ARC
  5
4CD
330
1B
100
AcDbEntity
 67
     1
  8
3_ALL_AXES
  6
Continuous
 62
     7
100
AcDbCircle
 10
387.3514990972
 20
206.3012140889
 30
0.0
 40
4.9897441214
100
AcDbArc
 50
179.999999981
 51
180.1830228115
  0
SPLINE
  5
4CE
330
1B
100
AcDbEntity
 67
     1
  8
3_ALL_AXES
  6
Continuous
 62
     7
100
AcDbSpline
 70
     0
 71
     3
 72
    15
 73
    11
 74
     0
 42
0.000000001
 43
0.0000001
 40
0.0
 40
0.0
 40
0.0
 40
0.0
 40
0.1249130663
 40
0.2498394927
 40
0.3747904667
 40
0.4997732836
 40
0.6247907044
 40
0.7498399459
 40
0.8749103427
 40
1.0
 40
1.0
 40
1.0
 40
1.0
 10
382.3617804331
 20
206.2852751236
 30
0.0
 10
382.3628205284
 20
205.9596718612
 30
0.0
 10
382.4291083863
 20
205.3068324569
 30
0.0
 10
382.7173632129
 20
204.3671060731
 30
0.0
 10
383.1833671995
 20
203.5010332182
 30
0.0
 10
383.809306797
 20
202.7422622858
 30
0.0
 10
384.5711676525
 20
202.1196926289
 30
0.0
 10
385.43990896
 20
201.6571780005
 30
0.0
 10
386.3818097356
 20
201.3723931768
 30
0.0
 10
387.0356851873
 20
201.3082921397
 30
0.0
 10
387.3617504223
 20
201.3082921397
 30
0.0
  0
LINE
  5
4CF
330
1B
100
AcDbEntity
 67
     1
  8
7_ALL_FEATURES
  6
Continuous
 62
     7
100
AcDbLine
 10
387.3617504223
 20
207.8978370593
 30
0.0
 11
385.8617504223
 21
207.0330376095
 31
0.0
  0
LINE
  5
4D0
330
1B
100
AcDbEntity
 67
     1
  8
7_ALL_FEATURES
  6
Continuous
 62
     7
100
AcDbLine
 10
388.8617504223
 20
207.0330376095
 30
0.0
 11
387.3617504223
 21
207.8978370593
 31
0.0
  0
LINE
  5
4D1
330
1B
100
AcDbEntity
 67
     1
  8
7_ALL_FEATURES
  6
Continuous
 62
     7
100
AcDbLine
 10
387.3617504223
 20
208.03081299
 30
0.0
 11
387.3617504223
 21
207.8978370593
 31
0.0
  0
LINE
  5
4D2
330
1B
100
AcDbEntity
 67
     1
  8
7_ALL_FEATURES
  6
Continuous
 62
     7
100
AcDbLine
 10
387.3617504223
 20
681.0760135135
 30
0.0
 11
385.2617504223
 21
681.0760135135
 31
0.0
  0
LINE
  5
4D3
330
1B
100
AcDbEntity
 67
     1
  8
7_ALL_FEATURES
  6
Continuous
 62
     7
100
AcDbLine
 10
385.2617504223
 20
681.0760135135
 30
0.0
 11
383.9733631461
 21
681.0760135135
 31
0.0
  0
LINE
  5
4D4
330
1B
100
AcDbEntity
 67
     1
  8
7_ALL_FEATURES
  6
Continuous
 62
     7
100
AcDbLine
 10
383.9733631461
 20
681.0760135135
 30
0.0
 11
383.9617504223
 21
681.0760135135
 31
0.0
  0
LINE
  5
4D5
330
1B
100
AcDbEntity
 67
     1
  8
7_ALL_FEATURES
  6
Continuous
 62
     7
100
AcDbLine
 10
383.9617504223
 20
681.0760135135
 30
0.0
 11
383.4617504223
 21
681.0760135135
 31
0.0
  0
LINE
  5
4D6
330
1B
100
AcDbEntity
 67
     1
  8
7_ALL_FEATURES
  6
Continuous
 62
     7
100
AcDbLine
 10
383.4617504223
 20
681.0760135135
 30
0.0
 11
382.9617504223
 21
680.5760135135
 31
0.0
  0
LINE
  5
4D7
330
1B
100
AcDbEntity
 67
     1
  8
7_ALL_FEATURES
  6
Continuous
 62
     7
100
AcDbLine
 10
391.2617504223
 20
681.0760135135
 30
0.0
 11
390.7617503854
 21
681.0760135135
 31
0.0
  0
LINE
  5
4D8
330
1B
100
AcDbEntity
 67
     1
  8
7_ALL_FEATURES
  6
Continuous
 62
     7
100
AcDbLine
 10
390.7617503854
 20
681.0760135135
 30
0.0
 11
390.7501376985
 21
681.0760135135
 31
0.0
  0
LINE
  5
4D9
330
1B
100
AcDbEntity
 67
     1
  8
7_ALL_FEATURES
  6
Continuous
 62
     7
100
AcDbLine
 10
390.7501376985
 20
681.0760135135
 30
0.0
 11
389.4617504185
 21
681.0760135135
 31
0.0
  0
LINE
  5
4DA
330
1B
100
AcDbEntity
 67
     1
  8
7_ALL_FEATURES
  6
Continuous
 62
     7
100
AcDbLine
 10
389.4617504185
 20
681.0760135135
 30
0.0
 11
387.3617504223
 21
681.0760135135
 31
0.0
  0
LINE
  5
4DB
330
1B
100
AcDbEntity
 67
     1
  8
7_ALL_FEATURES
  6
Continuous
 62
     7
100
AcDbLine
 10
391.2617504223
 20
681.0760135135
 30
0.0
 11
391.7617504223
 21
680.5760135135
 31
0.0
  0
LINE
  5
4DC
330
1B
100
AcDbEntity
 67
     1
  8
02___PRT_ALL_AXES
  6
Continuous
 62
     7
100
AcDbLine
 10
391.7617504223
 20
671.0760135135
 30
0.0
 11
391.7617504223
 21
676.3510135135
 31
0.0
  0
LINE
  5
4DD
330
1B
100
AcDbEntity
 67
     1
  8
02___PRT_ALL_AXES
  6
Continuous
 62
     7
100
AcDbLine
 10
391.7617504223
 20
676.3510135135
 30
0.0
 11
390.7367504223
 21
677.3760135135
 31
0.0
  0
LINE
  5
4DE
330
1B
100
AcDbEntity
 67
     1
  8
02___PRT_ALL_AXES
  6
Continuous
 62
     7
100
AcDbLine
 10
382.9617504223
 20
678.4010135135
 30
0.0
 11
382.9617504223
 21
680.5760135135
 31
0.0
  0
LINE
  5
4DF
330
1B
100
AcDbEntity
 67
     1
  8
02___PRT_ALL_AXES
  6
Continuous
 62
     7
100
AcDbLine
 10
383.9867504223
 20
677.3760135135
 30
0.0
 11
382.9617504223
 21
678.4010135135
 31
0.0
  0
LINE
  5
4E0
330
1B
100
AcDbEntity
 67
     1
  8
02___PRT_ALL_AXES
  6
Continuous
 62
     7
100
AcDbLine
 10
390.7367504223
 20
677.3760135135
 30
0.0
 11
391.7617504223
 21
678.4010135135
 31
0.0
  0
LINE
  5
4E1
330
1B
100
AcDbEntity
 67
     1
  8
02___PRT_ALL_AXES
  6
Continuous
 62
     7
100
AcDbLine
 10
382.9617504223
 20
676.3510135135
 30
0.0
 11
383.9867504223
 21
677.3760135135
 31
0.0
  0
LINE
  5
4E2
330
1B
100
AcDbEntity
 67
     1
  8
02___PRT_ALL_AXES
  6
Continuous
 62
     7
100
AcDbLine
 10
382.9617504223
 20
671.0760135135
 30
0.0
 11
382.9617504223
 21
676.3510135135
 31
0.0
  0
LINE
  5
4E3
330
1B
100
AcDbEntity
 67
     1
  8
02___PRT_ALL_AXES
  6
Continuous
 62
     7
100
AcDbLine
 10
391.7617504223
 20
678.4010135135
 30
0.0
 11
391.7617504223
 21
680.5760135135
 31
0.0
  0
LINE
  5
4E4
330
1B
100
AcDbEntity
 67
     1
  8
7_ALL_FEATURES
  6
Continuous
 62
     7
100
AcDbLine
 10
387.3617504223
 20
680.5760135135
 30
0.0
 11
382.9617504223
 21
680.5760135135
 31
0.0
  0
LINE
  5
4E5
330
1B
100
AcDbEntity
 67
     1
  8
02___PRT_ALL_AXES
  6
Continuous
 62
     7
100
AcDbLine
 10
391.7617504223
 20
676.3510135135
 30
0.0
 11
387.3617504223
 21
676.3510135135
 31
0.0
  0
LINE
  5
4E6
330
1B
100
AcDbEntity
 67
     1
  8
02___PRT_ALL_AXES
  6
Continuous
 62
     7
100
AcDbLine
 10
382.9617504223
 20
678.4010135135
 30
0.0
 11
387.3617504223
 21
678.4010135135
 31
0.0
  0
LINE
  5
4E7
330
1B
100
AcDbEntity
 67
     1
  8
02___PRT_ALL_AXES
  6
Continuous
 62
     7
100
AcDbLine
 10
390.7367504223
 20
677.3760135135
 30
0.0
 11
387.3617504223
 21
677.3760135135
 31
0.0
  0
LINE
  5
4E8
330
1B
100
AcDbEntity
 67
     1
  8
02___PRT_ALL_AXES
  6
Continuous
 62
     7
100
AcDbLine
 10
383.9867504223
 20
677.3760135135
 30
0.0
 11
387.3617504223
 21
677.3760135135
 31
0.0
  0
LINE
  5
4E9
330
1B
100
AcDbEntity
 67
     1
  8
02___PRT_ALL_AXES
  6
Continuous
 62
     7
100
AcDbLine
 10
382.9617504223
 20
676.3510135135
 30
0.0
 11
387.3617504223
 21
676.3510135135
 31
0.0
  0
LINE
  5
4EA
330
1B
100
AcDbEntity
 67
     1
  8
7_ALL_FEATURES
  6
Continuous
 62
     7
100
AcDbLine
 10
391.7617504223
 20
680.5760135135
 30
0.0
 11
387.3617504223
 21
680.5760135135
 31
0.0
  0
LINE
  5
4EB
330
1B
100
AcDbEntity
 67
     1
  8
02___PRT_ALL_AXES
  6
Continuous
 62
     7
100
AcDbLine
 10
391.7617504223
 20
678.4010135135
 30
0.0
 11
387.3617504223
 21
678.4010135135
 31
0.0
  0
ARC
  5
4EC
330
1B
100
AcDbEntity
 67
     1
  8
7_ALL_FEATURES
  6
Continuous
 62
     7
100
AcDbCircle
 10
383.9617504223
 20
681.1760135135
 30
0.0
 40
0.1
100
AcDbArc
 50
180.0
 51
270.0
  0
ARC
  5
4ED
330
1B
100
AcDbEntity
 67
     1
  8
7_ALL_FEATURES
  6
Continuous
 62
     7
100
AcDbCircle
 10
390.7617504223
 20
681.1760135135
 30
0.0
 40
0.1
100
AcDbArc
 50
270.0
 51
360.0
  0
ARC
  5
4EE
330
1B
100
AcDbEntity
 67
     1
  8
7_ALL_FEATURES
  6
Continuous
 62
     7
100
AcDbCircle
 10
383.9617504223
 20
684.9760135135
 30
0.0
 40
0.1
100
AcDbArc
 50
90.0
 51
180.0
  0
LINE
  5
4EF
330
1B
100
AcDbEntity
 67
     1
  8
7_ALL_FEATURES
  6
Continuous
 62
     7
100
AcDbLine
 10
387.3617504223
 20
685.0760135135
 30
0.0
 11
383.9617504239
 21
685.0760135135
 31
0.0
  0
LINE
  5
4F0
330
1B
100
AcDbEntity
 67
     1
  8
7_ALL_FEATURES
  6
Continuous
 62
     7
100
AcDbLine
 10
383.9617504223
 20
685.0760135135
 30
0.0
 11
387.3617504223
 21
685.0760135135
 31
0.0
  0
LINE
  5
4F1
330
1B
100
AcDbEntity
 67
     1
  8
7_ALL_FEATURES
  6
Continuous
 62
     7
100
AcDbLine
 10
390.7617504207
 20
685.0760135135
 30
0.0
 11
390.7100899352
 21
685.0760135135
 31
0.0
  0
LINE
  5
4F2
330
1B
100
AcDbEntity
 67
     1
  8
7_ALL_FEATURES
  6
Continuous
 62
     7
100
AcDbLine
 10
390.7100899352
 20
685.0760135135
 30
0.0
 11
387.3617504223
 21
685.0760135135
 31
0.0
  0
ARC
  5
4F3
330
1B
100
AcDbEntity
 67
     1
  8
7_ALL_FEATURES
  6
Continuous
 62
     7
100
AcDbCircle
 10
390.7617504223
 20
684.9760135135
 30
0.0
 40
0.1
100
AcDbArc
 50
0.0
 51
90.0
  0
LINE
  5
4F4
330
1B
100
AcDbEntity
 67
     1
  8
7_ALL_FEATURES
  6
Continuous
 62
     7
100
AcDbLine
 10
390.7501376985
 20
685.0760135135
 30
0.0
 11
390.7617504223
 21
685.0760135135
 31
0.0
  0
LINE
  5
4F5
330
1B
100
AcDbEntity
 67
     1
  8
7_ALL_FEATURES
  6
Continuous
 62
     7
100
AcDbLine
 10
387.3617504223
 20
685.0760135135
 30
0.0
 11
390.7501376985
 21
685.0760135135
 31
0.0
  0
LINE
  5
4F6
330
1B
100
AcDbEntity
 67
     1
  8
3_ALL_AXES
  6
Continuous
 62
     7
100
AcDbLine
 10
383.8617504223
 20
681.1760135135
 30
0.0
 11
383.8617504223
 21
684.9760135135
 31
0.0
  0
LINE
  5
4F7
330
1B
100
AcDbEntity
 67
     1
  8
3_ALL_AXES
  6
Continuous
 62
     7
100
AcDbLine
 10
390.8617504223
 20
681.1760135135
 30
0.0
 11
390.8617504223
 21
684.9760135135
 31
0.0
  0
LINE
  5
4F8
330
1B
100
AcDbEntity
 67
     1
  8
7_ALL_FEATURES
  6
Continuous
 62
     9
100
AcDbLine
 10
387.3617504223
 20
684.9760135135
 30
0.0
 11
383.8617504223
 21
684.9760135135
 31
0.0
  0
LINE
  5
4F9
330
1B
100
AcDbEntity
 67
     1
  8
7_ALL_FEATURES
  6
Continuous
 62
     9
100
AcDbLine
 10
390.8617504223
 20
684.9760135135
 30
0.0
 11
387.3617504223
 21
684.9760135135
 31
0.0
  0
LINE
  5
4FA
330
1B
100
AcDbEntity
 67
     1
  8
7_ALL_FEATURES
  6
Continuous
 62
     9
100
AcDbLine
 10
390.8617504223
 20
681.1760135135
 30
0.0
 11
387.3617504223
 21
681.1760135135
 31
0.0
  0
LINE
  5
4FB
330
1B
100
AcDbEntity
 67
     1
  8
7_ALL_FEATURES
  6
Continuous
 62
     9
100
AcDbLine
 10
387.3617504223
 20
681.1760135135
 30
0.0
 11
383.8617504223
 21
681.1760135135
 31
0.0
  0
LINE
  5
4FC
330
1B
100
AcDbEntity
 67
     1
  8
7_ALL_FEATURES
  6
Continuous
 62
     7
100
AcDbLine
 10
480.3617504223
 20
192.0760135135
 30
0.0
 11
478.3617504223
 21
192.0760135135
 31
0.0
  0
LINE
  5
4FD
330
1B
100
AcDbEntity
 67
     1
  8
7_ALL_FEATURES
  6
Continuous
 62
     7
100
AcDbLine
 10
375.3617504223
 20
196.0760135135
 30
0.0
 11
375.3617504223
 21
192.0760135135
 31
0.0
  0
LINE
  5
4FE
330
1B
100
AcDbEntity
 67
     1
  8
7_ALL_FEATURES
  6
Continuous
 62
     7
100
AcDbLine
 10
480.3617504223
 20
196.0760135135
 30
0.0
 11
480.3617504223
 21
192.0760135135
 31
0.0
  0
LINE
  5
4FF
330
1B
100
AcDbEntity
 67
     1
  8
7_ALL_FEATURES
  6
Continuous
 62
     7
100
AcDbLine
 10
377.3617504223
 20
192.0760135135
 30
0.0
 11
375.3617504223
 21
192.0760135135
 31
0.0
  0
LINE
  5
500
330
1B
100
AcDbEntity
 67
     1
  8
7_ALL_FEATURES
  6
Continuous
 62
     7
100
AcDbLine
 10
377.3617504223
 20
192.0760135135
 30
0.0
 11
478.3617504223
 21
192.0760135135
 31
0.0
  0
LINE
  5
501
330
1B
100
AcDbEntity
 67
     1
  8
7_ALL_FEATURES
  6
Continuous
 62
     7
100
AcDbLine
 10
375.3617504223
 20
196.0760135135
 30
0.0
 11
377.3617504223
 21
196.0760135135
 31
0.0
  0
LINE
  5
502
330
1B
100
AcDbEntity
 67
     1
  8
7_ALL_FEATURES
  6
Continuous
 62
     7
100
AcDbLine
 10
377.3617504223
 20
196.0760135135
 30
0.0
 11
478.3617504223
 21
196.0760135135
 31
0.0
  0
LINE
  5
503
330
1B
100
AcDbEntity
 67
     1
  8
7_ALL_FEATURES
  6
Continuous
 62
     7
100
AcDbLine
 10
478.3617504223
 20
196.0760135135
 30
0.0
 11
480.3617504223
 21
196.0760135135
 31
0.0
  0
LINE
  5
504
330
1B
100
AcDbEntity
 67
     1
  8
7_ALL_FEATURES
  6
Continuous
 62
     7
100
AcDbLine
 10
377.3617504223
 20
196.0760135135
 30
0.0
 11
377.3617504223
 21
192.0760135135
 31
0.0
  0
LINE
  5
505
330
1B
100
AcDbEntity
 67
     1
  8
7_ALL_FEATURES
  6
Continuous
 62
     7
100
AcDbLine
 10
478.3617504223
 20
196.0760135135
 30
0.0
 11
478.3617504223
 21
192.0760135135
 31
0.0
  0
LINE
  5
506
330
1B
100
AcDbEntity
 67
     1
  8
7_ALL_FEATURES
  6
Continuous
 62
     7
100
AcDbLine
 10
377.8617504223
 20
671.0760135135
 30
0.0
 11
477.8617504223
 21
671.0760135135
 31
0.0
  0
LINE
  5
507
330
1B
100
AcDbEntity
 67
     1
  8
7_ALL_FEATURES
  6
Continuous
 62
     7
100
AcDbLine
 10
477.8617504223
 20
196.0760135135
 30
0.0
 11
477.8617504223
 21
671.0760135135
 31
0.0
  0
LINE
  5
508
330
1B
100
AcDbEntity
 67
     1
  8
7_ALL_FEATURES
  6
Continuous
 62
     7
100
AcDbLine
 10
377.8617504223
 20
196.0760135135
 30
0.0
 11
377.8617504223
 21
671.0760135135
 31
0.0
  0
ARC
  5
509
330
1B
100
AcDbEntity
 67
     1
  8
02___PRT_ALL_AXES
  6
Continuous
 62
     7
100
AcDbCircle
 10
468.3617504223
 20
206.3260135135
 30
0.0
 40
5.25
100
AcDbArc
 50
0.0
 51
180.0
  0
ARC
  5
50A
330
1B
100
AcDbEntity
 67
     1
  8
02___PRT_ALL_AXES
  6
Continuous
 62
     7
100
AcDbCircle
 10
468.3617504223
 20
206.3260135135
 30
0.0
 40
5.25
100
AcDbArc
 50
359.1045582157
 51
360.0
  0
ARC
  5
50B
330
1B
100
AcDbEntity
 67
     1
  8
02___PRT_ALL_AXES
  6
Continuous
 62
     7
100
AcDbCircle
 10
468.3617504223
 20
206.3260135135
 30
0.0
 40
5.25
100
AcDbArc
 50
270.3651301275
 51
359.1045582157
  0
ARC
  5
50C
330
1B
100
AcDbEntity
 67
     1
  8
02___PRT_ALL_AXES
  6
Continuous
 62
     7
100
AcDbCircle
 10
468.3617504223
 20
206.3260135135
 30
0.0
 40
5.25
100
AcDbArc
 50
269.6348698725
 51
270.3651301275
  0
ARC
  5
50D
330
1B
100
AcDbEntity
 67
     1
  8
02___PRT_ALL_AXES
  6
Continuous
 62
     7
100
AcDbCircle
 10
468.3617504223
 20
206.3260135135
 30
0.0
 40
5.25
100
AcDbArc
 50
180.8954417843
 51
269.6348698725
  0
ARC
  5
50E
330
1B
100
AcDbEntity
 67
     1
  8
02___PRT_ALL_AXES
  6
Continuous
 62
     7
100
AcDbCircle
 10
468.3617504223
 20
206.3260135135
 30
0.0
 40
5.25
100
AcDbArc
 50
180.0
 51
180.8954417843
  0
ARC
  5
50F
330
1B
100
AcDbEntity
 67
     1
  8
02___PRT_ALL_AXES
  6
Continuous
 62
     7
100
AcDbCircle
 10
387.3617504223
 20
206.3260135135
 30
0.0
 40
5.25
100
AcDbArc
 50
180.0
 51
180.8954417843
  0
ARC
  5
510
330
1B
100
AcDbEntity
 67
     1
  8
02___PRT_ALL_AXES
  6
Continuous
 62
     7
100
AcDbCircle
 10
387.3617504223
 20
206.3260135135
 30
0.0
 40
5.25
100
AcDbArc
 50
180.8954417843
 51
269.6348698725
  0
ARC
  5
511
330
1B
100
AcDbEntity
 67
     1
  8
02___PRT_ALL_AXES
  6
Continuous
 62
     7
100
AcDbCircle
 10
387.3617504223
 20
206.3260135135
 30
0.0
 40
5.25
100
AcDbArc
 50
269.6348698725
 51
270.3651301275
  0
ARC
  5
512
330
1B
100
AcDbEntity
 67
     1
  8
02___PRT_ALL_AXES
  6
Continuous
 62
     7
100
AcDbCircle
 10
387.3617504223
 20
206.3260135135
 30
0.0
 40
5.25
100
AcDbArc
 50
270.3651301275
 51
359.1045582157
  0
ARC
  5
513
330
1B
100
AcDbEntity
 67
     1
  8
02___PRT_ALL_AXES
  6
Continuous
 62
     7
100
AcDbCircle
 10
387.3617504223
 20
206.3260135135
 30
0.0
 40
5.25
100
AcDbArc
 50
359.1045582157
 51
360.0
  0
ARC
  5
514
330
1B
100
AcDbEntity
 67
     1
  8
02___PRT_ALL_AXES
  6
Continuous
 62
     7
100
AcDbCircle
 10
387.3617504223
 20
206.3260135135
 30
0.0
 40
5.25
100
AcDbArc
 50
0.0
 51
180.0
  0
DIMENSION
  5
515
330
1B
100
AcDbEntity
 67
     1
  8
0
  6
Continuous
 62
     2
100
AcDbDimension
280
     0
  2
*D1
 10
96.9174290326
 20
817.5740076014
 30
0.0
 11
96.9174290326
 21
765.214047273
 31
0.0
 70
   160
 71
     5
 42
-1.0
 73
     0
 74
     0
 75
     0
  3
DIMSTYLE_1
100
AcDbAlignedDimension
 13
108.5044105594
 23
712.5740076014
 33
0.0
 14
108.0968979697
 24
817.5740076014
 34
0.0
 50
90.0
100
AcDbRotatedDimension
  0
DIMENSION
  5
516
330
1B
100
AcDbEntity
 67
     1
  8
0
  6
Continuous
 62
     2
100
AcDbDimension
280
     0
  2
*D2
 10
219.3893053209
 20
698.7082315408
 30
0.0
 11
167.0293451462
 21
698.7082315408
 31
0.0
 70
   160
 71
     5
 42
-1.0
 73
     0
 74
     0
 75
     0
  3
DIMSTYLE_1
100
AcDbAlignedDimension
 13
114.3893053209
 23
708.1690469336
 33
0.0
 14
219.3893053209
 24
708.6542712266
 34
0.0
100
AcDbRotatedDimension
  0
DIMENSION
  5
517
330
1B
100
AcDbEntity
 67
     1
  8
0
  6
Continuous
 62
     2
100
AcDbDimension
280
     0
  2
*D3
 10
264.4372888097
 20
196.0760135135
 30
0.0
 11
264.4372888097
 21
188.8966890173
 31
0.0
 70
   160
 71
     5
 42
-1.0
 73
     0
 74
     0
 75
     0
  3
DIMSTYLE_2
100
AcDbAlignedDimension
 13
245.8422895552
 23
192.0760135135
 33
0.0
 14
246.5423228537
 24
196.0760135135
 34
0.0
 50
90.0
100
AcDbRotatedDimension
  0
DIMENSION
  5
518
330
1B
100
AcDbEntity
 67
     1
  8
0
  6
Continuous
 62
     2
100
AcDbDimension
280
     0
  2
*D4
 10
264.4372888097
 20
671.0760135135
 30
0.0
 11
264.4372888097
 21
433.5097394171
 31
0.0
 70
   160
 71
     5
 42
-1.0
 73
     0
 74
     0
 75
     0
  3
DIMSTYLE_3
100
AcDbAlignedDimension
 13
246.5423228537
 23
196.0760135135
 33
0.0
 14
246.5423228537
 24
671.0760135135
 34
0.0
 50
90.0
100
AcDbRotatedDimension
  0
DIMENSION
  5
519
330
1B
100
AcDbEntity
 67
     1
  8
0
  6
Continuous
 62
     2
100
AcDbDimension
280
     0
  2
*D5
 10
264.4372888097
 20
685.0760135135
 30
0.0
 11
264.4372888097
 21
678.2073717985
 31
0.0
 70
   160
 71
     5
 42
-1.0
 73
     0
 74
     0
 75
     0
  3
DIMSTYLE_4
100
AcDbAlignedDimension
 13
246.5423228537
 23
671.0760135135
 33
0.0
 14
246.5423228537
 24
685.0760135135
 34
0.0
 50
90.0
100
AcDbRotatedDimension
  0
DIMENSION
  5
51A
330
1B
100
AcDbEntity
 67
     1
  8
0
  6
Continuous
 62
     2
100
AcDbDimension
280
     0
  2
*D6
 10
79.6570237059
 20
685.0760135135
 30
0.0
 11
79.6570237059
 21
438.4985839582
 31
0.0
 70
   160
 71
     5
 42
-1.0
 73
     0
 74
     0
 75
     0
  3
DIMSTYLE_3
100
AcDbAlignedDimension
 13
104.3595509572
 23
192.0760135135
 33
0.0
 14
101.7410979427
 24
685.0760135135
 34
0.0
 50
90.0
100
AcDbRotatedDimension
  0
LINE
  5
51B
330
1B
100
AcDbEntity
 67
     1
  8
0
  6
Continuous
 62
     2
100
AcDbLine
 10
1032.2784522804
 20
82.7044974662
 30
0.0
 11
1162.2784522804
 21
82.7044974662
 31
0.0
  0
LINE
  5
51C
330
1B
100
AcDbEntity
 67
     1
  8
0
  6
Continuous
 62
     2
100
AcDbLine
 10
1032.2784522804
 20
82.7044974662
 30
0.0
 11
1032.2784522804
 21
16.7044974662
 31
0.0
  0
LINE
  5
51D
330
1B
100
AcDbEntity
 67
     1
  8
0
  6
Continuous
 62
     2
100
AcDbLine
 10
1062.2784522804
 20
74.7044974662
 30
0.0
 11
1162.2784522804
 21
74.7044974662
 31
0.0
  0
LINE
  5
51E
330
1B
100
AcDbEntity
 67
     1
  8
0
  6
Continuous
 62
     2
100
AcDbLine
 10
1032.2784522804
 20
66.7044974662
 30
0.0
 11
1162.2784522804
 21
66.7044974662
 31
0.0
  0
LINE
  5
51F
330
1B
100
AcDbEntity
 67
     1
  8
0
  6
Continuous
 62
     2
100
AcDbLine
 10
1062.2784522804
 20
60.7044974662
 30
0.0
 11
1162.2784522804
 21
60.7044974662
 31
0.0
  0
LINE
  5
520
330
1B
100
AcDbEntity
 67
     1
  8
0
  6
Continuous
 62
     2
100
AcDbLine
 10
1062.2784522804
 20
54.7044974662
 30
0.0
 11
1162.2784522804
 21
54.7044974662
 31
0.0
  0
LINE
  5
521
330
1B
100
AcDbEntity
 67
     1
  8
0
  6
Continuous
 62
     2
100
AcDbLine
 10
1062.2784522804
 20
48.7044974662
 30
0.0
 11
1162.2784522804
 21
48.7044974662
 31
0.0
  0
LINE
  5
522
330
1B
100
AcDbEntity
 67
     1
  8
0
  6
Continuous
 62
     2
100
AcDbLine
 10
1062.2784522804
 20
42.7044974662
 30
0.0
 11
1162.2784522804
 21
42.7044974662
 31
0.0
  0
LINE
  5
523
330
1B
100
AcDbEntity
 67
     1
  8
0
  6
Continuous
 62
     2
100
AcDbLine
 10
1062.2784522804
 20
36.7044974662
 30
0.0
 11
1162.2784522804
 21
36.7044974662
 31
0.0
  0
LINE
  5
524
330
1B
100
AcDbEntity
 67
     1
  8
0
  6
Continuous
 62
     2
100
AcDbLine
 10
1032.2784522804
 20
30.7044974662
 30
0.0
 11
1162.2784522804
 21
30.7044974662
 31
0.0
  0
LINE
  5
525
330
1B
100
AcDbEntity
 67
     1
  8
0
  6
Continuous
 62
     2
100
AcDbLine
 10
1032.2784522804
 20
24.7044974662
 30
0.0
 11
1162.2784522804
 21
24.7044974662
 31
0.0
  0
LINE
  5
526
330
1B
100
AcDbEntity
 67
     1
  8
0
  6
Continuous
 62
     2
100
AcDbLine
 10
1032.2784522804
 20
20.7044974662
 30
0.0
 11
1162.2784522804
 21
20.7044974662
 31
0.0
  0
LINE
  5
527
330
1B
100
AcDbEntity
 67
     1
  8
0
  6
Continuous
 62
     2
100
AcDbLine
 10
1032.2784522804
 20
16.7044974662
 30
0.0
 11
1162.2784522804
 21
16.7044974662
 31
0.0
  0
LINE
  5
528
330
1B
100
AcDbEntity
 67
     1
  8
0
  6
Continuous
 62
     2
100
AcDbLine
 10
1062.2784522804
 20
82.7044974662
 30
0.0
 11
1062.2784522804
 21
24.7044974662
 31
0.0
  0
LINE
  5
529
330
1B
100
AcDbEntity
 67
     1
  8
0
  6
Continuous
 62
     2
100
AcDbLine
 10
1082.2784522804
 20
66.7044974662
 30
0.0
 11
1082.2784522804
 21
60.7044974662
 31
0.0
  0
LINE
  5
52A
330
1B
100
AcDbEntity
 67
     1
  8
0
  6
Continuous
 62
     2
100
AcDbLine
 10
1112.2784522804
 20
36.7044974662
 30
0.0
 11
1112.2784522804
 21
24.7044974662
 31
0.0
  0
LINE
  5
52B
330
1B
100
AcDbEntity
 67
     1
  8
0
  6
Continuous
 62
     2
100
AcDbLine
 10
1122.2784522804
 20
66.7044974662
 30
0.0
 11
1122.2784522804
 21
60.7044974662
 31
0.0
  0
LINE
  5
52C
330
1B
100
AcDbEntity
 67
     1
  8
0
  6
Continuous
 62
     2
100
AcDbLine
 10
1122.2784522804
 20
54.7044974662
 30
0.0
 11
1122.2784522804
 21
48.7044974662
 31
0.0
  0
LINE
  5
52D
330
1B
100
AcDbEntity
 67
     1
  8
0
  6
Continuous
 62
     2
100
AcDbLine
 10
1142.2784522804
 20
66.7044974662
 30
0.0
 11
1142.2784522804
 21
60.7044974662
 31
0.0
  0
LINE
  5
52E
330
1B
100
AcDbEntity
 67
     1
  8
0
  6
Continuous
 62
     2
100
AcDbLine
 10
1152.2784522804
 20
54.7044974662
 30
0.0
 11
1152.2784522804
 21
48.7044974662
 31
0.0
  0
LINE
  5
52F
330
1B
100
AcDbEntity
 67
     1
  8
0
  6
Continuous
 62
     2
100
AcDbLine
 10
1162.2784522804
 20
82.7044974662
 30
0.0
 11
1162.2784522804
 21
16.7044974662
 31
0.0
  0
INSERT
  5
530
330
1B
100
AcDbEntity
 67
     1
  8
0
  6
Continuous
 62
     2
100
AcDbBlockReference
  2
PROIEZIONE_EU_BL0
 10
1047.2784522804
 20
74.3294974662
 30
0.0
  0
MTEXT
  5
531
330
1B
100
AcDbEntity
 67
     1
  8
9_SOLID
  6
Continuous
 62
     2
100
AcDbMText
 10
1063.7659522804
 20
81.0794974662
 30
0.0
 40
1.9
 41
142.3642857143
 46
0.0
 71
     1
 72
     1
  1
EN: Chamfer/radii unlisted 0.3x45°. Remove sharp edges.\PGen. tol.: hole H11, shaft h11, lenght Js12. UNI EN 22768 Medium Grande.
  7
TEXTSTYLE_3
 73
     1
 44
1.0
  0
MTEXT
  5
532
330
1B
100
AcDbEntity
 67
     1
  8
9_SOLID
  6
Continuous
 62
     2
100
AcDbMText
 10
1063.7659522804
 20
73.0794974662
 30
0.0
 40
1.9
 41
148.2678571429
 46
0.0
 71
     1
 72
     1
  1
IT: Sm./rac. non quotati 0.3x45°. Eliminare spigoli taglienti.\PToll. gen.: foro H11, albero h11, lunghezza Js12. UNI EN 22768 Grado Medio.
  7
TEXTSTYLE_3
 73
     1
 44
1.0
  0
INSERT
  5
533
330
1B
100
AcDbEntity
 67
     1
  8
0
  6
Continuous
 62
     2
100
AcDbBlockReference
  2
LOGO2_BL1
 10
1046.1044993252
 20
48.7044974662
 30
0.0
  0
MTEXT
  5
534
330
1B
100
AcDbEntity
 67
     1
  8
9_SOLID
  6
Continuous
 62
     2
100
AcDbMText
 10
1063.7659522804
 20
64.9544974662
 30
0.0
 40
3.0
 41
21.6428571429
 46
0.0
 71
     1
 72
     1
  1
Pj: 3D1
  7
TEXTSTYLE_3
 73
     1
 44
1.0
  0
MTEXT
  5
535
330
1B
100
AcDbEntity
 67
     1
  8
0
  6
Continuous
 62
     2
100
AcDbMText
 10
1083.7659522804
 20
64.9544974662
 30
0.0
 40
3.0
 41
41.5714285714
 46
0.0
 71
     1
 72
     1
  1
% Check:  %
  7
TEXTSTYLE_3
 73
     1
 44
1.0
  0
MTEXT
  5
536
330
1B
100
AcDbEntity
 67
     1
  8
9_SOLID
  6
Continuous
 62
     2
100
AcDbMText
 10
1123.7659522804
 20
64.9544974662
 30
0.0
 40
3.0
 41
19.5
 46
0.0
 71
     1
 72
     1
  1
Rev:00
  7
TEXTSTYLE_3
 73
     1
 44
1.0
  0
MTEXT
  5
537
330
1B
100
AcDbEntity
 67
     1
  8
9_SOLID
  6
Continuous
 62
     2
100
AcDbMText
 10
1143.7659522804
 20
65.2044974662
 30
0.0
 40
3.0
 41
19.7142857143
 46
0.0
 71
     1
 72
     1
  1
Ver: A
  7
TEXTSTYLE_3
 73
     1
 44
1.0
  0
MTEXT
  5
538
330
1B
100
AcDbEntity
 67
     1
  8
9_SOLID
  6
Continuous
 62
     2
100
AcDbMText
 10
1063.7659522804
 20
58.9544974662
 30
0.0
 40
3.0
 41
42.9642857143
 46
0.0
 71
     1
 72
     1
  1
Neutral code: 
  7
TEXTSTYLE_3
 73
     1
 44
1.0
  0
MTEXT
  5
539
330
1B
100
AcDbEntity
 67
     1
  8
0
  6
Continuous
 62
     2
100
AcDbMText
 10
1063.7659522804
 20
52.9544974662
 30
0.0
 40
3.0
 41
22.9285714286
 46
0.0
 71
     1
 72
     1
  1
Code:  
  7
TEXTSTYLE_3
 73
     1
 44
1.0
  0
MTEXT
  5
53A
330
1B
100
AcDbEntity
 67
     1
  8
9_SOLID
  6
Continuous
 62
     2
100
AcDbMText
 10
1123.7659522804
 20
53.2044974662
 30
0.0
 40
3.0
 41
27.8571428571
 46
0.0
 71
     1
 72
     1
  1
Scale: 1:1
  7
TEXTSTYLE_3
 73
     1
 44
1.0
  0
MTEXT
  5
53B
330
1B
100
AcDbEntity
 67
     1
  8
9_SOLID
  6
Continuous
 62
     2
100
AcDbMText
 10
1157.2784522804
 20
53.2044974662
 30
0.0
 40
3.0
 41
8.25
 46
0.0
 71
     2
 72
     1
  1
A0
  7
TEXTSTYLE_3
 73
     1
 44
1.0
  0
MTEXT
  5
53C
330
1B
100
AcDbEntity
 67
     1
  8
9_SOLID
  6
Continuous
 62
     2
100
AcDbMText
 10
1063.7659522804
 20
47.2044974662
 30
0.0
 40
3.0
 41
107.1428571429
 46
0.0
 71
     1
 72
     1
  1
It descr.: COLONNA LINEAR2 600mm
  7
TEXTSTYLE_3
 73
     1
 44
1.0
  0
MTEXT
  5
53D
330
1B
100
AcDbEntity
 67
     1
  8
0
  6
Continuous
 62
     2
100
AcDbMText
 10
1063.7659522804
 20
41.2044974662
 30
0.0
 40
3.0
 41
37.5
 46
0.0
 71
     1
 72
     1
  1
En descr.:  
  7
TEXTSTYLE_3
 73
     1
 44
1.0
  0
MTEXT
  5
53E
330
1B
100
AcDbEntity
 67
     1
  8
9_SOLID
  6
Continuous
 62
     2
100
AcDbMText
 10
1063.7659522804
 20
35.2044974662
 30
0.0
 40
3.0
 41
31.2857142857
 46
0.0
 71
     1
 72
     1
  1
Des.: S.Z.
  7
TEXTSTYLE_3
 73
     1
 44
1.0
  0
MTEXT
  5
53F
330
1B
100
AcDbEntity
 67
     1
  8
9_SOLID
  6
Continuous
 62
     2
100
AcDbMText
 10
1113.7659522804
 20
35.2044974662
 30
0.0
 40
3.0
 41
34.8214285714
 46
0.0
 71
     1
 72
     1
  1
Check: A.P.
  7
TEXTSTYLE_3
 73
     1
 44
1.0
  0
MTEXT
  5
540
330
1B
100
AcDbEntity
 67
     1
  8
9_SOLID
  6
Continuous
 62
     2
100
AcDbMText
 10
1033.7659522804
 20
29.2044974662
 30
0.0
 40
3.0
 41
41.5714285714
 46
0.0
 71
     1
 72
     1
  1
Date: 11.12.18
  7
TEXTSTYLE_3
 73
     1
 44
1.0
  0
MTEXT
  5
541
330
1B
100
AcDbEntity
 67
     1
  8
0
  6
Continuous
 62
     2
100
AcDbMText
 10
1063.7659522804
 20
29.2044974662
 30
0.0
 40
3.0
 41
21.75
 46
0.0
 71
     1
 72
     1
  1
Mat.:  
  7
TEXTSTYLE_3
 73
     1
 44
1.0
  0
MTEXT
  5
542
330
1B
100
AcDbEntity
 67
     1
  8
9_SOLID
  6
Continuous
 62
     2
100
AcDbMText
 10
1113.7659522804
 20
28.7044974662
 30
0.0
 40
2.0
 41
42.3571428571
 46
0.0
 71
     1
 72
     1
  1
Disegno per catalogo
  7
TEXTSTYLE_3
 73
     1
 44
1.0
  0
MTEXT
  5
543
330
1B
100
AcDbEntity
 67
     1
  8
9_SOLID
  6
Continuous
 62
     2
100
AcDbMText
 10
1033.7659522804
 20
23.6044974662
 30
0.0
 40
1.8
 41
176.2071428571
 46
0.0
 71
     1
 72
     1
  1
It: A norma di legge si diffida da qualsiasi riproduzione senza nostra autorizzazione esplicita.
  7
TEXTSTYLE_3
 73
     1
 44
1.0
  0
MTEXT
  5
544
330
1B
100
AcDbEntity
 67
     1
  8
9_SOLID
  6
Continuous
 62
     2
100
AcDbMText
 10
1033.7659522804
 20
19.6044974662
 30
0.0
 40
1.8
 41
158.1428571429
 46
0.0
 71
     1
 72
     1
  1
En: According to the law, beware of any reproduction made without our authorization.
  7
TEXTSTYLE_3
 73
     1
 44
1.0
  0
ENDSEC
  0
SECTION
  2
OBJECTS
  0
DICTIONARY
  5
545
330
0
100
AcDbDictionary
281
     1
  3
ACAD_DETAILVIEWSTYLE
350
59B
  3
ACAD_GROUP
350
546
  3
ACAD_LAYOUT
350
56E
  3
ACAD_MATERIAL
350
58A
  3
ACAD_MLEADERSTYLE
350
590
  3
ACAD_MLINESTYLE
350
547
  3
ACAD_PLOTSETTINGS
350
549
  3
ACAD_PLOTSTYLENAME
350
54A
  3
ACAD_SCALELIST
350
54C
  3
ACAD_SECTIONVIEWSTYLE
350
59C
  3
ACAD_TABLESTYLE
350
58E
  3
ACAD_VISUALSTYLE
350
571
  3
ACDB_RECOMPOSE_DATA
350
597
  3
AcDbVariableDictionary
350
593
  3
APPDATA
350
592
  0
DICTIONARY
  5
59B
102
{ACAD_REACTORS
330
545
102
}
330
545
100
AcDbDictionary
281
     1
  0
DICTIONARY
  5
546
102
{ACAD_REACTORS
330
545
102
}
330
545
100
AcDbDictionary
281
     1
  0
DICTIONARY
  5
56E
102
{ACAD_REACTORS
330
545
102
}
330
545
100
AcDbDictionary
281
     1
  3
Foglio 1
350
570
  3
Model
350
56F
  0
DICTIONARY
  5
58A
102
{ACAD_REACTORS
330
545
102
}
330
545
100
AcDbDictionary
281
     1
  3
ByBlock
350
58C
  3
ByLayer
350
58B
  3
Global
350
58D
  0
DICTIONARY
  5
590
102
{ACAD_REACTORS
330
545
102
}
330
545
100
AcDbDictionary
281
     1
  3
Standard
350
591
  0
DICTIONARY
  5
547
102
{ACAD_REACTORS
330
545
102
}
330
545
100
AcDbDictionary
281
     1
  3
STANDARD
350
548
  0
DICTIONARY
  5
549
102
{ACAD_REACTORS
330
545
102
}
330
545
100
AcDbDictionary
281
     1
  0
ACDBDICTIONARYWDFLT
  5
54A
102
{ACAD_REACTORS
330
545
102
}
330
545
100
AcDbDictionary
281
     1
  3
Normal
350
54B
100
AcDbDictionaryWithDefault
340
54B
  0
DICTIONARY
  5
54C
102
{ACAD_REACTORS
330
545
102
}
330
545
100
AcDbDictionary
281
     1
  3
A0
350
54D
  3
A1
350
54E
  3
A2
350
54F
  3
A3
350
550
  3
A4
350
551
  3
A5
350
552
  3
A6
350
553
  3
A7
350
554
  3
A8
350
555
  3
A9
350
556
  3
B0
350
557
  3
B1
350
558
  3
B2
350
559
  3
B3
350
55A
  3
B4
350
55B
  3
B5
350
55C
  3
B6
350
55D
  3
B7
350
55E
  3
B8
350
55F
  3
B9
350
560
  3
C0
350
561
  3
C1
350
562
  3
C2
350
563
  3
C3
350
564
  3
C4
350
565
  3
C5
350
566
  3
C6
350
567
  3
C7
350
568
  3
C8
350
569
  3
C9
350
56A
  3
D0
350
56B
  3
D1
350
56C
  3
D2
350
56D
  0
DICTIONARY
  5
59C
102
{ACAD_REACTORS
330
545
102
}
330
545
100
AcDbDictionary
281
     1
  0
DICTIONARY
  5
58E
102
{ACAD_REACTORS
330
545
102
}
330
545
100
AcDbDictionary
281
     1
  3
Standard
350
58F
  0
DICTIONARY
  5
571
102
{ACAD_REACTORS
330
545
102
}
330
545
100
AcDbDictionary
281
     1
  3
2dWireframe
350
576
  3
Basic
350
579
  3
Brighten
350
57D
  3
ColorChange
350
581
  3
Conceptual
350
57B
  3
Dim
350
57C
  3
EdgeColorOff
350
584
  3
Facepattern
350
580
  3
Flat
350
572
  3
FlatWithEdges
350
573
  3
Gouraud
350
574
  3
GouraudWithEdges
350
575
  3
Hidden
350
578
  3
JitterOff
350
582
  3
Linepattern
350
57F
  3
OverhangOff
350
583
  3
Realistic
350
57A
  3
Shaded
350
589
  3
Shaded with edges
350
588
  3
Shades of Gray
350
585
  3
Sketchy
350
586
  3
Thicken
350
57E
  3
Wireframe
350
577
  3
X-Ray
350
587
  0
XRECORD
  5
597
102
{ACAD_REACTORS
330
545
102
}
330
545
100
AcDbXrecord
280
     1
 90
        1
330
58F
  0
DICTIONARY
  5
593
102
{ACAD_REACTORS
330
545
102
}
330
545
100
AcDbDictionary
281
     1
  3
CANNOSCALE
350
594
  3
CMLEADERSTYLE
350
599
  3
CTABLESTYLE
350
598
  3
MSLTSCALE
350
59A
  0
DICTIONARY
  5
592
102
{ACAD_REACTORS
330
545
102
}
330
545
100
AcDbDictionary
281
     1
  0
LAYOUT
  5
570
102
{ACAD_REACTORS
330
56E
102
}
330
56E
100
AcDbPlotSettings
  1

  2
none_device
  4
ISO_A3_(420.00_x_297.00_MM)
  6

 40
7.5
 41
20.0
 42
7.5
 43
20.0
 44
420.0
 45
297.0
 46
0.0
 47
0.0
 48
0.0
 49
0.0
140
0.0
141
0.0
142
1.0
143
3.272373540856031
 70
   688
 72
     1
 73
     0
 74
     1
  7

 75
     0
 76
     0
 77
     2
 78
   300
147
0.3055885850178359
148
0.0
149
0.0
100
AcDbLayout
  1
Foglio 1
 70
     1
 71
     1
 10
0.0
 20
0.0
 11
412.5
 21
277.0
 12
0.0
 22
0.0
 32
0.0
 14
0.0
 24
0.0
 34
0.0
 15
1189.0
 25
841.0
 35
0.0
146
0.0
 13
0.0
 23
0.0
 33
0.0
 16
1.0
 26
0.0
 36
0.0
 17
0.0
 27
1.0
 37
0.0
 76
     0
330
1B
331
2B6
  0
LAYOUT
  5
56F
102
{ACAD_REACTORS
330
56E
102
}
330
56E
100
AcDbPlotSettings
  1

  2
none_device
  4
Letter_(8.50_x_11.00_Inches)
  6

 40
6.35
 41
6.35
 42
6.35
 43
6.35
 44
215.9
 45
279.4
 46
0.0
 47
0.0
 48
0.0
 49
0.0
140
0.0
141
0.0
142
1.0
143
148.624999994925
 70
  1712
 72
     0
 73
     0
 74
     0
  7

 75
     0
 76
     0
 77
     2
 78
   300
147
0.0067283431457302
148
-0.0000005156208999
149
0.0
100
AcDbLayout
  1
Model
 70
     1
 71
     0
 10
0.0
 20
0.0
 11
1189.0
 21
841.0
 12
0.0
 22
0.0
 32
0.0
 14
0.0
 24
0.0
 34
0.0
 15
1189.0
 25
841.0
 35
0.0
146
0.0
 13
0.0
 23
0.0
 33
0.0
 16
1.0
 26
0.0
 36
0.0
 17
0.0
 27
1.0
 37
0.0
 76
     0
330
1F
331
1F4
  0
MATERIAL
  5
58C
102
{ACAD_REACTORS
330
58A
102
}
330
58A
100
AcDbMaterial
  1
ByBlock
 72
     1
 94
      127
  0
MATERIAL
  5
58B
102
{ACAD_REACTORS
330
58A
102
}
330
58A
100
AcDbMaterial
  1
ByLayer
 72
     1
 94
      127
  0
MATERIAL
  5
58D
102
{ACAD_REACTORS
330
58A
102
}
330
58A
100
AcDbMaterial
  1
Global
 72
     1
 94
      127
  0
MLEADERSTYLE
  5
591
102
{ACAD_REACTORS
330
590
102
}
330
590
100
AcDbMLeaderStyle
179
     2
170
     2
171
     1
172
     0
 90
        2
 40
0.0
 41
0.0
173
     1
 91
-1056964608
340
14
 92
       -2
290
     1
 42
2.0
291
     1
 43
8.0
  3
Standard
341
0
 44
4.0
300

342
11
174
     1
178
     1
175
     1
176
     0
 93
-1056964608
 45
4.0
292
     0
297
     0
 46
4.0
343
0
 94
-1056964608
 47
1.0
 49
1.0
140
1.0
293
     1
141
0.0
294
     1
177
     0
142
1.0
295
     0
296
     0
143
3.75
271
     0
272
     9
273
     9
298
     0
  0
MLINESTYLE
  5
548
102
{ACAD_REACTORS
330
547
102
}
330
547
100
AcDbMlineStyle
  2
STANDARD
 70
     0
  3

 62
   256
 51
90.0
 52
90.0
 71
     2
 49
0.5
 62
   256
  6
BYLAYER
 49
-0.5
 62
   256
  6
BYLAYER
  0
ACDBPLACEHOLDER
  5
54B
102
{ACAD_REACTORS
330
54A
102
}
330
54A
  0
SCALE
  5
54D
102
{ACAD_REACTORS
330
54C
102
}
330
54C
100
AcDbScale
 70
     0
300
1:1
140
1.0
141
1.0
290
     1
  0
SCALE
  5
54E
102
{ACAD_REACTORS
330
54C
102
}
330
54C
100
AcDbScale
 70
     0
300
1:2
140
1.0
141
2.0
290
     0
  0
SCALE
  5
54F
102
{ACAD_REACTORS
330
54C
102
}
330
54C
100
AcDbScale
 70
     0
300
1:4
140
1.0
141
4.0
290
     0
  0
SCALE
  5
550
102
{ACAD_REACTORS
330
54C
102
}
330
54C
100
AcDbScale
 70
     0
300
1:5
140
1.0
141
5.0
290
     0
  0
SCALE
  5
551
102
{ACAD_REACTORS
330
54C
102
}
330
54C
100
AcDbScale
 70
     0
300
1:8
140
1.0
141
8.0
290
     0
  0
SCALE
  5
552
102
{ACAD_REACTORS
330
54C
102
}
330
54C
100
AcDbScale
 70
     0
300
1:10
140
1.0
141
10.0
290
     0
  0
SCALE
  5
553
102
{ACAD_REACTORS
330
54C
102
}
330
54C
100
AcDbScale
 70
     0
300
1:16
140
1.0
141
16.0
290
     0
  0
SCALE
  5
554
102
{ACAD_REACTORS
330
54C
102
}
330
54C
100
AcDbScale
 70
     0
300
1:20
140
1.0
141
20.0
290
     0
  0
SCALE
  5
555
102
{ACAD_REACTORS
330
54C
102
}
330
54C
100
AcDbScale
 70
     0
300
1:30
140
1.0
141
30.0
290
     0
  0
SCALE
  5
556
102
{ACAD_REACTORS
330
54C
102
}
330
54C
100
AcDbScale
 70
     0
300
1:40
140
1.0
141
40.0
290
     0
  0
SCALE
  5
557
102
{ACAD_REACTORS
330
54C
102
}
330
54C
100
AcDbScale
 70
     0
300
1:50
140
1.0
141
50.0
290
     0
  0
SCALE
  5
558
102
{ACAD_REACTORS
330
54C
102
}
330
54C
100
AcDbScale
 70
     0
300
1:100
140
1.0
141
100.0
290
     0
  0
SCALE
  5
559
102
{ACAD_REACTORS
330
54C
102
}
330
54C
100
AcDbScale
 70
     0
300
2:1
140
2.0
141
1.0
290
     0
  0
SCALE
  5
55A
102
{ACAD_REACTORS
330
54C
102
}
330
54C
100
AcDbScale
 70
     0
300
4:1
140
4.0
141
1.0
290
     0
  0
SCALE
  5
55B
102
{ACAD_REACTORS
330
54C
102
}
330
54C
100
AcDbScale
 70
     0
300
8:1
140
8.0
141
1.0
290
     0
  0
SCALE
  5
55C
102
{ACAD_REACTORS
330
54C
102
}
330
54C
100
AcDbScale
 70
     0
300
10:1
140
10.0
141
1.0
290
     0
  0
SCALE
  5
55D
102
{ACAD_REACTORS
330
54C
102
}
330
54C
100
AcDbScale
 70
     0
300
100:1
140
100.0
141
1.0
290
     0
  0
SCALE
  5
55E
102
{ACAD_REACTORS
330
54C
102
}
330
54C
100
AcDbScale
 70
     0
300
1/128" = 1'-0"
140
0.0078125
141
12.0
290
     0
  0
SCALE
  5
55F
102
{ACAD_REACTORS
330
54C
102
}
330
54C
100
AcDbScale
 70
     0
300
1/64" = 1'-0"
140
0.015625
141
12.0
290
     0
  0
SCALE
  5
560
102
{ACAD_REACTORS
330
54C
102
}
330
54C
100
AcDbScale
 70
     0
300
1/32" = 1'-0"
140
0.03125
141
12.0
290
     0
  0
SCALE
  5
561
102
{ACAD_REACTORS
330
54C
102
}
330
54C
100
AcDbScale
 70
     0
300
1/16" = 1'-0"
140
0.0625
141
12.0
290
     0
  0
SCALE
  5
562
102
{ACAD_REACTORS
330
54C
102
}
330
54C
100
AcDbScale
 70
     0
300
3/32" = 1'-0"
140
0.09375
141
12.0
290
     0
  0
SCALE
  5
563
102
{ACAD_REACTORS
330
54C
102
}
330
54C
100
AcDbScale
 70
     0
300
1/8" = 1'-0"
140
0.125
141
12.0
290
     0
  0
SCALE
  5
564
102
{ACAD_REACTORS
330
54C
102
}
330
54C
100
AcDbScale
 70
     0
300
3/16" = 1'-0"
140
0.1875
141
12.0
290
     0
  0
SCALE
  5
565
102
{ACAD_REACTORS
330
54C
102
}
330
54C
100
AcDbScale
 70
     0
300
1/4" = 1'-0"
140
0.25
141
12.0
290
     0
  0
SCALE
  5
566
102
{ACAD_REACTORS
330
54C
102
}
330
54C
100
AcDbScale
 70
     0
300
3/8" = 1'-0"
140
0.375
141
12.0
290
     0
  0
SCALE
  5
567
102
{ACAD_REACTORS
330
54C
102
}
330
54C
100
AcDbScale
 70
     0
300
1/2" = 1'-0"
140
0.5
141
12.0
290
     0
  0
SCALE
  5
568
102
{ACAD_REACTORS
330
54C
102
}
330
54C
100
AcDbScale
 70
     0
300
3/4" = 1'-0"
140
0.75
141
12.0
290
     0
  0
SCALE
  5
569
102
{ACAD_REACTORS
330
54C
102
}
330
54C
100
AcDbScale
 70
     0
300
1" = 1'-0"
140
1.0
141
12.0
290
     0
  0
SCALE
  5
56A
102
{ACAD_REACTORS
330
54C
102
}
330
54C
100
AcDbScale
 70
     0
300
1-1/2" = 1'-0"
140
1.5
141
12.0
290
     0
  0
SCALE
  5
56B
102
{ACAD_REACTORS
330
54C
102
}
330
54C
100
AcDbScale
 70
     0
300
3" = 1'-0"
140
3.0
141
12.0
290
     0
  0
SCALE
  5
56C
102
{ACAD_REACTORS
330
54C
102
}
330
54C
100
AcDbScale
 70
     0
300
6" = 1'-0"
140
6.0
141
12.0
290
     0
  0
SCALE
  5
56D
102
{ACAD_REACTORS
330
54C
102
}
330
54C
100
AcDbScale
 70
     0
300
1'-0" = 1'-0"
140
12.0
141
12.0
290
     0
  0
TABLESTYLE
  5
58F
102
{ACAD_REACTORS
330
58E
102
}
102
{ACAD_XDICTIONARY
360
595
102
}
330
58E
100
AcDbTableStyle
  3
Standard
 70
     0
 71
     0
 40
0.06
 41
0.06
280
     0
281
     0
  7
STANDARD
140
4.5
170
     2
 62
     0
 63
   257
283
     0
 90
        4
 91
        0
  1

274
    -2
284
     1
 64
     0
275
    -2
285
     1
 65
     0
276
    -2
286
     1
 66
     0
277
    -2
287
     1
 67
     0
278
    -2
288
     1
 68
     0
279
    -2
289
     1
 69
     0
  7
STANDARD
140
6.0
170
     5
 62
     0
 63
   257
283
     0
 90
        4
 91
        0
  1

274
    -2
284
     1
 64
     0
275
    -2
285
     1
 65
     0
276
    -2
286
     1
 66
     0
277
    -2
287
     1
 67
     0
278
    -2
288
     1
 68
     0
279
    -2
289
     1
 69
     0
  7
STANDARD
140
4.5
170
     5
 62
     0
 63
   257
283
     0
 90
        4
 91
        0
  1

274
    -2
284
     1
 64
     0
275
    -2
285
     1
 65
     0
276
    -2
286
     1
 66
     0
277
    -2
287
     1
 67
     0
278
    -2
288
     1
 68
     0
279
    -2
289
     1
 69
     0
  0
VISUALSTYLE
  5
576
102
{ACAD_REACTORS
330
571
102
}
330
571
100
AcDbVisualStyle
  2
2dWireframe
 70
     4
177
     3
291
     0
 70
    58
 90
        0
176
     1
 90
        2
176
     1
 90
        0
176
     1
 90
        0
176
     1
 40
0.6
176
     1
 40
30.0
176
     1
 62
     7
420
 16777215
176
     1
 90
        1
176
     1
 90
        4
176
     1
 62
     7
176
     1
 62
   257
176
     1
 90
        1
176
     1
 90
        1
176
     1
 40
1.0
176
     1
 90
        0
176
     1
 62
   257
176
     1
 40
1.0
176
     1
 90
        1
176
     1
 90
        6
176
     1
 90
        2
176
     1
 62
     7
176
     1
 90
        5
176
     1
 90
        0
176
     1
 90
        0
176
     1
290
     0
176
     1
 90
        1
176
     1
 40
0.0
176
     1
 90
        0
176
     1
290
     1
176
     1
290
     1
176
     1
290
     0
176
     1
290
     0
176
     1
290
     0
176
     1
290
     0
176
     1
290
     0
176
     1
290
     0
176
     1
290
     0
176
     1
 90
       50
176
     1
 40
0.0
176
     1
 40
1.0
176
     1
 90
        0
176
     1
 62
    18
420
        0
176
     1
 90
       50
176
     1
 90
        3
176
     1
 62
     5
420
      255
176
     1
290
     0
176
     1
 90
       50
176
     1
 90
       50
176
     1
 90
       50
176
     1
290
     0
176
     1
 90
       50
176
     1
 62
   256
176
     0
 40
1.0
176
     0
 90
        2
176
     1
  1
strokes_ogs.tif
176
     1
290
     0
176
     1
 40
1.0
176
     1
 40
1.0
176
     1
  0
VISUALSTYLE
  5
579
102
{ACAD_REACTORS
330
571
102
}
330
571
100
AcDbVisualStyle
  2
Basic
 70
     7
177
     3
291
     1
 70
    58
 90
        1
176
     1
 90
        0
176
     1
 90
        1
176
     1
 90
        0
176
     1
 40
0.6
176
     1
 40
30.0
176
     1
 62
     7
420
 16777215
176
     1
 90
        0
176
     1
 90
        4
176
     1
 62
     7
176
     1
 62
   257
176
     1
 90
        1
176
     1
 90
        1
176
     1
 40
1.0
176
     1
 90
        8
176
     1
 62
     7
176
     1
 40
1.0
176
     1
 90
        1
176
     1
 90
        6
176
     1
 90
        2
176
     1
 62
     7
176
     1
 90
        5
176
     1
 90
        0
176
     1
 90
        0
176
     1
290
     0
176
     1
 90
        1
176
     1
 40
0.0
176
     1
 90
        0
176
     1
290
     0
176
     1
290
     1
176
     1
290
     1
176
     1
290
     0
176
     1
290
     0
176
     1
290
     0
176
     1
290
     0
176
     1
290
     0
176
     1
290
     0
176
     1
 90
       50
176
     1
 40
0.0
176
     1
 40
1.0
176
     1
 90
        0
176
     1
 62
    18
420
        0
176
     1
 90
       50
176
     1
 90
        3
176
     1
 62
     5
420
      255
176
     1
290
     0
176
     1
 90
       50
176
     1
 90
       50
176
     1
 90
       50
176
     1
290
     0
176
     1
 90
       50
176
     1
 62
   256
176
     0
 40
1.0
176
     0
 90
        2
176
     1
  1
strokes_ogs.tif
176
     1
290
     0
176
     1
 40
1.0
176
     1
 40
1.0
176
     1
  0
VISUALSTYLE
  5
57D
102
{ACAD_REACTORS
330
571
102
}
330
571
100
AcDbVisualStyle
  2
Brighten
 70
    12
177
     3
291
     1
 70
    58
 90
        2
176
     1
 90
        2
176
     1
 90
        0
176
     1
 90
        0
176
     1
 40
0.6
176
     1
 40
30.0
176
     1
 62
     7
420
 16777215
176
     1
 90
        1
176
     1
 90
        4
176
     1
 62
     7
176
     1
 62
   257
176
     1
 90
        1
176
     1
 90
        1
176
     1
 40
1.0
176
     1
 90
        8
176
     1
 62
     7
176
     1
 40
1.0
176
     1
 90
        1
176
     1
 90
        6
176
     1
 90
        2
176
     1
 62
     7
176
     1
 90
        5
176
     1
 90
        0
176
     1
 90
        0
176
     1
290
     0
176
     1
 90
        1
176
     1
 40
50.0
176
     1
 90
        0
176
     1
290
     0
176
     1
290
     1
176
     1
290
     1
176
     1
290
     0
176
     1
290
     0
176
     1
290
     0
176
     1
290
     0
176
     1
290
     0
176
     1
290
     0
176
     1
 90
       50
176
     1
 40
0.0
176
     1
 40
1.0
176
     1
 90
        0
176
     1
 62
    18
420
        0
176
     1
 90
       50
176
     1
 90
        3
176
     1
 62
     5
420
      255
176
     1
290
     0
176
     1
 90
       50
176
     1
 90
       50
176
     1
 90
       50
176
     1
290
     0
176
     1
 90
       50
176
     1
 62
   256
176
     0
 40
1.0
176
     0
 90
        2
176
     1
  1
strokes_ogs.tif
176
     1
290
     0
176
     1
 40
1.0
176
     1
 40
1.0
176
     1
  0
VISUALSTYLE
  5
581
102
{ACAD_REACTORS
330
571
102
}
330
571
100
AcDbVisualStyle
  2
ColorChange
 70
    16
177
     3
291
     1
 70
    58
 90
        2
176
     1
 90
        2
176
     1
 90
        3
176
     1
 90
        0
176
     1
 40
0.6
176
     1
 40
30.0
176
     1
 62
     8
420
  8421504
176
     1
 90
        1
176
     1
 90
        4
176
     1
 62
     7
176
     1
 62
   257
176
     1
 90
        1
176
     1
 90
        1
176
     1
 40
1.0
176
     1
 90
        8
176
     1
 62
     8
420
  8421504
176
     1
 40
1.0
176
     1
 90
        1
176
     1
 90
        6
176
     1
 90
        2
176
     1
 62
     7
176
     1
 90
        5
176
     1
 90
        0
176
     1
 90
        0
176
     1
290
     0
176
     1
 90
        1
176
     1
 40
0.0
176
     1
 90
        0
176
     1
290
     0
176
     1
290
     1
176
     1
290
     1
176
     1
290
     0
176
     1
290
     0
176
     1
290
     0
176
     1
290
     0
176
     1
290
     0
176
     1
290
     0
176
     1
 90
       50
176
     1
 40
0.0
176
     1
 40
1.0
176
     1
 90
        0
176
     1
 62
    18
420
        0
176
     1
 90
       50
176
     1
 90
        3
176
     1
 62
     5
420
      255
176
     1
290
     0
176
     1
 90
       50
176
     1
 90
       50
176
     1
 90
       50
176
     1
290
     0
176
     1
 90
       50
176
     1
 62
   256
176
     0
 40
1.0
176
     0
 90
        2
176
     1
  1
strokes_ogs.tif
176
     1
290
     0
176
     1
 40
1.0
176
     1
 40
1.0
176
     1
  0
VISUALSTYLE
  5
57B
102
{ACAD_REACTORS
330
571
102
}
330
571
100
AcDbVisualStyle
  2
Conceptual
 70
     9
177
     3
291
     0
 70
    58
 90
        3
176
     1
 90
        2
176
     1
 90
        0
176
     1
 90
        0
176
     1
 40
0.6
176
     1
 40
30.0
176
     1
 62
     7
420
 16777215
176
     1
 90
        2
176
     1
 90
        2
176
     1
 62
     7
176
     1
 62
   257
176
     1
 90
        1
176
     1
 90
        1
176
     1
 40
179.0
176
     1
 90
        8
176
     1
 62
     7
176
     1
 40
1.0
176
     1
 90
        1
176
     1
 90
        6
176
     1
 90
        2
176
     1
 62
     7
176
     1
 90
        3
176
     1
 90
        0
176
     1
 90
        0
176
     1
290
     0
176
     1
 90
        1
176
     1
 40
0.0
176
     1
 90
        0
176
     1
290
     0
176
     1
290
     1
176
     1
290
     1
176
     1
290
     0
176
     1
290
     0
176
     1
290
     0
176
     1
290
     0
176
     1
290
     0
176
     1
290
     0
176
     1
 90
       50
176
     1
 40
0.0
176
     1
 40
1.0
176
     1
 90
        0
176
     1
 62
    18
420
        0
176
     1
 90
       50
176
     1
 90
        3
176
     1
 62
     5
420
      255
176
     1
290
     0
176
     1
 90
       50
176
     1
 90
       50
176
     1
 90
       50
176
     1
290
     0
176
     1
 90
       50
176
     1
 62
   256
176
     0
 40
1.0
176
     0
 90
        2
176
     1
  1
strokes_ogs.tif
176
     1
290
     0
176
     1
 40
1.0
176
     1
 40
1.0
176
     1
  0
VISUALSTYLE
  5
57C
102
{ACAD_REACTORS
330
571
102
}
330
571
100
AcDbVisualStyle
  2
Dim
 70
    11
177
     3
291
     1
 70
    58
 90
        2
176
     1
 90
        2
176
     1
 90
        0
176
     1
 90
        0
176
     1
 40
0.6
176
     1
 40
30.0
176
     1
 62
     7
420
 16777215
176
     1
 90
        1
176
     1
 90
        4
176
     1
 62
     7
176
     1
 62
   257
176
     1
 90
        1
176
     1
 90
        1
176
     1
 40
1.0
176
     1
 90
        8
176
     1
 62
     7
176
     1
 40
1.0
176
     1
 90
        1
176
     1
 90
        6
176
     1
 90
        2
176
     1
 62
     7
176
     1
 90
        5
176
     1
 90
        0
176
     1
 90
        0
176
     1
290
     0
176
     1
 90
        1
176
     1
 40
-50.0
176
     1
 90
        0
176
     1
290
     0
176
     1
290
     1
176
     1
290
     1
176
     1
290
     0
176
     1
290
     0
176
     1
290
     0
176
     1
290
     0
176
     1
290
     0
176
     1
290
     0
176
     1
 90
       50
176
     1
 40
0.0
176
     1
 40
1.0
176
     1
 90
        0
176
     1
 62
    18
420
        0
176
     1
 90
       50
176
     1
 90
        3
176
     1
 62
     5
420
      255
176
     1
290
     0
176
     1
 90
       50
176
     1
 90
       50
176
     1
 90
       50
176
     1
290
     0
176
     1
 90
       50
176
     1
 62
   256
176
     0
 40
1.0
176
     0
 90
        2
176
     1
  1
strokes_ogs.tif
176
     1
290
     0
176
     1
 40
1.0
176
     1
 40
1.0
176
     1
  0
VISUALSTYLE
  5
584
102
{ACAD_REACTORS
330
571
102
}
330
571
100
AcDbVisualStyle
  2
EdgeColorOff
 70
    22
177
     3
291
     1
 70
    58
 90
        2
176
     0
 90
        2
176
     0
 90
        0
176
     0
 90
        0
176
     0
 40
0.6
176
     0
 40
30.0
176
     0
 62
     7
420
 16777215
176
     0
 90
        1
176
     0
 90
        4
176
     0
 62
     7
176
     0
 62
   257
176
     0
 90
        1
176
     0
 90
        1
176
     0
 40
1.0
176
     0
 90
        8
176
     2
 62
     7
176
     0
 40
1.0
176
     0
 90
        1
176
     0
 90
        6
176
     0
 90
        2
176
     0
 62
     7
176
     0
 90
        5
176
     0
 90
        0
176
     0
 90
        0
176
     0
290
     0
176
     0
 90
        1
176
     0
 40
0.0
176
     0
 90
        0
176
     0
290
     0
176
     0
290
     1
176
     0
290
     1
176
     0
290
     0
176
     0
290
     0
176
     0
290
     0
176
     0
290
     0
176
     0
290
     0
176
     0
290
     0
176
     0
 90
       50
176
     0
 40
0.0
176
     0
 40
1.0
176
     0
 90
        0
176
     0
 62
    18
420
        0
176
     0
 90
       50
176
     0
 90
        3
176
     0
 62
     5
420
      255
176
     0
290
     0
176
     0
 90
       50
176
     0
 90
       50
176
     0
 90
       50
176
     0
290
     0
176
     0
 90
       50
176
     0
 62
   256
176
     0
 40
1.0
176
     0
 90
        2
176
     0
  1
strokes_ogs.tif
176
     0
290
     0
176
     0
 40
1.0
176
     0
 40
1.0
176
     0
  0
VISUALSTYLE
  5
580
102
{ACAD_REACTORS
330
571
102
}
330
571
100
AcDbVisualStyle
  2
Facepattern
 70
    15
177
     3
291
     1
 70
    58
 90
        2
176
     1
 90
        2
176
     1
 90
        0
176
     1
 90
        0
176
     1
 40
0.6
176
     1
 40
30.0
176
     1
 62
     7
420
 16777215
176
     1
 90
        1
176
     1
 90
        4
176
     1
 62
     7
176
     1
 62
   257
176
     1
 90
        1
176
     1
 90
        1
176
     1
 40
1.0
176
     1
 90
        8
176
     1
 62
     7
176
     1
 40
1.0
176
     1
 90
        1
176
     1
 90
        6
176
     1
 90
        2
176
     1
 62
     7
176
     1
 90
        5
176
     1
 90
        0
176
     1
 90
        0
176
     1
290
     0
176
     1
 90
        1
176
     1
 40
0.0
176
     1
 90
        0
176
     1
290
     0
176
     1
290
     1
176
     1
290
     1
176
     1
290
     0
176
     1
290
     0
176
     1
290
     0
176
     1
290
     0
176
     1
290
     0
176
     1
290
     0
176
     1
 90
       50
176
     1
 40
0.0
176
     1
 40
1.0
176
     1
 90
        0
176
     1
 62
    18
420
        0
176
     1
 90
       50
176
     1
 90
        3
176
     1
 62
     5
420
      255
176
     1
290
     0
176
     1
 90
       50
176
     1
 90
       50
176
     1
 90
       50
176
     1
290
     0
176
     1
 90
       50
176
     1
 62
   256
176
     0
 40
1.0
176
     0
 90
        2
176
     1
  1
strokes_ogs.tif
176
     1
290
     0
176
     1
 40
1.0
176
     1
 40
1.0
176
     1
  0
VISUALSTYLE
  5
572
102
{ACAD_REACTORS
330
571
102
}
330
571
100
AcDbVisualStyle
  2
Flat
 70
     0
177
     3
291
     1
 70
    58
 90
        2
176
     1
 90
        1
176
     1
 90
        1
176
     1
 90
        2
176
     1
 40
0.6
176
     1
 40
30.0
176
     1
 62
     7
420
 16777215
176
     1
 90
        0
176
     1
 90
        0
176
     1
 62
     7
176
     1
 62
   257
176
     1
 90
        1
176
     1
 90
        1
176
     1
 40
1.0
176
     1
 90
        8
176
     1
 62
     7
176
     1
 40
1.0
176
     1
 90
        1
176
     1
 90
        6
176
     1
 90
        2
176
     1
 62
     7
176
     1
 90
        5
176
     1
 90
        0
176
     1
 90
        0
176
     1
290
     0
176
     1
 90
       13
176
     1
 40
0.0
176
     1
 90
        0
176
     1
290
     0
176
     1
290
     1
176
     1
290
     1
176
     1
290
     0
176
     1
290
     0
176
     1
290
     0
176
     1
290
     0
176
     1
290
     0
176
     1
290
     0
176
     1
 90
       50
176
     1
 40
0.0
176
     1
 40
1.0
176
     1
 90
        0
176
     1
 62
    18
420
        0
176
     1
 90
       50
176
     1
 90
        3
176
     1
 62
     5
420
      255
176
     1
290
     0
176
     1
 90
       50
176
     1
 90
       50
176
     1
 90
       50
176
     1
290
     0
176
     1
 90
       50
176
     1
 62
   256
176
     0
 40
1.0
176
     0
 90
        2
176
     1
  1
strokes_ogs.tif
176
     1
290
     0
176
     1
 40
1.0
176
     1
 40
1.0
176
     1
  0
VISUALSTYLE
  5
573
102
{ACAD_REACTORS
330
571
102
}
330
571
100
AcDbVisualStyle
  2
FlatWithEdges
 70
     1
177
     3
291
     1
 70
    58
 90
        2
176
     1
 90
        1
176
     1
 90
        1
176
     1
 90
        2
176
     1
 40
0.6
176
     1
 40
30.0
176
     1
 62
     7
420
 16777215
176
     1
 90
        1
176
     1
 90
        0
176
     1
 62
     7
176
     1
 62
   257
176
     1
 90
        1
176
     1
 90
        1
176
     1
 40
1.0
176
     1
 90
        0
176
     1
 62
   257
176
     1
 40
1.0
176
     1
 90
        1
176
     1
 90
        6
176
     1
 90
        2
176
     1
 62
     7
176
     1
 90
        5
176
     1
 90
        0
176
     1
 90
        0
176
     1
290
     0
176
     1
 90
       13
176
     1
 40
0.0
176
     1
 90
        0
176
     1
290
     0
176
     1
290
     1
176
     1
290
     1
176
     1
290
     0
176
     1
290
     0
176
     1
290
     0
176
     1
290
     0
176
     1
290
     0
176
     1
290
     0
176
     1
 90
       50
176
     1
 40
0.0
176
     1
 40
1.0
176
     1
 90
        0
176
     1
 62
    18
420
        0
176
     1
 90
       50
176
     1
 90
        3
176
     1
 62
     5
420
      255
176
     1
290
     0
176
     1
 90
       50
176
     1
 90
       50
176
     1
 90
       50
176
     1
290
     0
176
     1
 90
       50
176
     1
 62
   256
176
     0
 40
1.0
176
     0
 90
        2
176
     1
  1
strokes_ogs.tif
176
     1
290
     0
176
     1
 40
1.0
176
     1
 40
1.0
176
     1
  0
VISUALSTYLE
  5
574
102
{ACAD_REACTORS
330
571
102
}
330
571
100
AcDbVisualStyle
  2
Gouraud
 70
     2
177
     3
291
     1
 70
    58
 90
        2
176
     1
 90
        2
176
     1
 90
        1
176
     1
 90
        2
176
     1
 40
0.6
176
     1
 40
30.0
176
     1
 62
     7
420
 16777215
176
     1
 90
        0
176
     1
 90
        0
176
     1
 62
     7
176
     1
 62
   257
176
     1
 90
        1
176
     1
 90
        1
176
     1
 40
1.0
176
     1
 90
        0
176
     1
 62
     7
176
     1
 40
1.0
176
     1
 90
        1
176
     1
 90
        6
176
     1
 90
        2
176
     1
 62
     7
176
     1
 90
        5
176
     1
 90
        0
176
     1
 90
        0
176
     1
290
     0
176
     1
 90
       13
176
     1
 40
0.0
176
     1
 90
        0
176
     1
290
     0
176
     1
290
     1
176
     1
290
     1
176
     1
290
     0
176
     1
290
     0
176
     1
290
     0
176
     1
290
     0
176
     1
290
     0
176
     1
290
     0
176
     1
 90
       50
176
     1
 40
0.0
176
     1
 40
1.0
176
     1
 90
        0
176
     1
 62
    18
420
        0
176
     1
 90
       50
176
     1
 90
        3
176
     1
 62
     5
420
      255
176
     1
290
     0
176
     1
 90
       50
176
     1
 90
       50
176
     1
 90
       50
176
     1
290
     0
176
     1
 90
       50
176
     1
 62
   256
176
     0
 40
1.0
176
     0
 90
        2
176
     1
  1
strokes_ogs.tif
176
     1
290
     0
176
     1
 40
1.0
176
     1
 40
1.0
176
     1
  0
VISUALSTYLE
  5
575
102
{ACAD_REACTORS
330
571
102
}
330
571
100
AcDbVisualStyle
  2
GouraudWithEdges
 70
     3
177
     3
291
     1
 70
    58
 90
        2
176
     1
 90
        2
176
     1
 90
        1
176
     1
 90
        2
176
     1
 40
0.6
176
     1
 40
30.0
176
     1
 62
     7
420
 16777215
176
     1
 90
        1
176
     1
 90
        0
176
     1
 62
     7
176
     1
 62
   257
176
     1
 90
        1
176
     1
 90
        1
176
     1
 40
1.0
176
     1
 90
        0
176
     1
 62
   257
176
     1
 40
1.0
176
     1
 90
        1
176
     1
 90
        6
176
     1
 90
        2
176
     1
 62
     7
176
     1
 90
        5
176
     1
 90
        0
176
     1
 90
        0
176
     1
290
     0
176
     1
 90
       13
176
     1
 40
0.0
176
     1
 90
        0
176
     1
290
     0
176
     1
290
     1
176
     1
290
     1
176
     1
290
     0
176
     1
290
     0
176
     1
290
     0
176
     1
290
     0
176
     1
290
     0
176
     1
290
     0
176
     1
 90
       50
176
     1
 40
0.0
176
     1
 40
1.0
176
     1
 90
        0
176
     1
 62
    18
420
        0
176
     1
 90
       50
176
     1
 90
        3
176
     1
 62
     5
420
      255
176
     1
290
     0
176
     1
 90
       50
176
     1
 90
       50
176
     1
 90
       50
176
     1
290
     0
176
     1
 90
       50
176
     1
 62
   256
176
     0
 40
1.0
176
     0
 90
        2
176
     1
  1
strokes_ogs.tif
176
     1
290
     0
176
     1
 40
1.0
176
     1
 40
1.0
176
     1
  0
VISUALSTYLE
  5
578
102
{ACAD_REACTORS
330
571
102
}
330
571
100
AcDbVisualStyle
  2
Hidden
 70
     6
177
     3
291
     0
 70
    58
 90
        1
176
     1
 90
        2
176
     1
 90
        2
176
     1
 90
        0
176
     1
 40
0.6
176
     1
 40
30.0
176
     1
 62
     7
420
 16777215
176
     1
 90
        2
176
     1
 90
        2
176
     1
 62
     7
176
     1
 62
   257
176
     1
 90
        2
176
     1
 90
        1
176
     1
 40
40.0
176
     1
 90
        0
176
     1
 62
   257
176
     1
 40
1.0
176
     1
 90
        1
176
     1
 90
        6
176
     1
 90
        2
176
     1
 62
     7
176
     1
 90
        3
176
     1
 90
        0
176
     1
 90
        0
176
     1
290
     0
176
     1
 90
        1
176
     1
 40
0.0
176
     1
 90
        0
176
     1
290
     0
176
     1
290
     1
176
     1
290
     1
176
     1
290
     0
176
     1
290
     0
176
     1
290
     0
176
     1
290
     0
176
     1
290
     0
176
     1
290
     0
176
     1
 90
       50
176
     1
 40
0.0
176
     1
 40
1.0
176
     1
 90
        0
176
     1
 62
    18
420
        0
176
     1
 90
       50
176
     1
 90
        3
176
     1
 62
     5
420
      255
176
     1
290
     0
176
     1
 90
       50
176
     1
 90
       50
176
     1
 90
       50
176
     1
290
     0
176
     1
 90
       50
176
     1
 62
   256
176
     0
 40
1.0
176
     0
 90
        2
176
     1
  1
strokes_ogs.tif
176
     1
290
     0
176
     1
 40
1.0
176
     1
 40
1.0
176
     1
  0
VISUALSTYLE
  5
582
102
{ACAD_REACTORS
330
571
102
}
330
571
100
AcDbVisualStyle
  2
JitterOff
 70
    20
177
     3
291
     1
 70
    58
 90
        2
176
     0
 90
        2
176
     0
 90
        0
176
     0
 90
        0
176
     0
 40
0.6
176
     0
 40
30.0
176
     0
 62
     7
420
 16777215
176
     0
 90
        1
176
     0
 90
        4
176
     0
 62
     7
176
     0
 62
   257
176
     0
 90
        1
176
     0
 90
        1
176
     0
 40
1.0
176
     0
 90
       10
176
     2
 62
     7
176
     0
 40
1.0
176
     0
 90
        1
176
     0
 90
        6
176
     0
 90
        2
176
     0
 62
     7
176
     0
 90
        5
176
     0
 90
        0
176
     0
 90
        0
176
     0
290
     0
176
     0
 90
        1
176
     0
 40
0.0
176
     0
 90
        0
176
     0
290
     0
176
     0
290
     1
176
     0
290
     1
176
     0
290
     0
176
     0
290
     0
176
     0
290
     0
176
     0
290
     0
176
     0
290
     0
176
     0
290
     0
176
     0
 90
       50
176
     0
 40
0.0
176
     0
 40
1.0
176
     0
 90
        0
176
     0
 62
    18
420
        0
176
     0
 90
       50
176
     0
 90
        3
176
     0
 62
     5
420
      255
176
     0
290
     0
176
     0
 90
       50
176
     0
 90
       50
176
     0
 90
       50
176
     0
290
     0
176
     0
 90
       50
176
     0
 62
   256
176
     0
 40
1.0
176
     0
 90
        2
176
     0
  1
strokes_ogs.tif
176
     0
290
     0
176
     0
 40
1.0
176
     0
 40
1.0
176
     0
  0
VISUALSTYLE
  5
57F
102
{ACAD_REACTORS
330
571
102
}
330
571
100
AcDbVisualStyle
  2
Linepattern
 70
    14
177
     3
291
     1
 70
    58
 90
        2
176
     1
 90
        2
176
     1
 90
        0
176
     1
 90
        0
176
     1
 40
0.6
176
     1
 40
30.0
176
     1
 62
     7
420
 16777215
176
     1
 90
        1
176
     1
 90
        4
176
     1
 62
     7
176
     1
 62
   257
176
     1
 90
        7
176
     1
 90
        7
176
     1
 40
1.0
176
     1
 90
        8
176
     1
 62
     7
176
     1
 40
1.0
176
     1
 90
        1
176
     1
 90
        6
176
     1
 90
        2
176
     1
 62
     7
176
     1
 90
        5
176
     1
 90
        0
176
     1
 90
        0
176
     1
290
     0
176
     1
 90
        1
176
     1
 40
0.0
176
     1
 90
        0
176
     1
290
     0
176
     1
290
     1
176
     1
290
     1
176
     1
290
     0
176
     1
290
     0
176
     1
290
     0
176
     1
290
     0
176
     1
290
     0
176
     1
290
     0
176
     1
 90
       50
176
     1
 40
0.0
176
     1
 40
1.0
176
     1
 90
        0
176
     1
 62
    18
420
        0
176
     1
 90
       50
176
     1
 90
        3
176
     1
 62
     5
420
      255
176
     1
290
     0
176
     1
 90
       50
176
     1
 90
       50
176
     1
 90
       50
176
     1
290
     0
176
     1
 90
       50
176
     1
 62
   256
176
     0
 40
1.0
176
     0
 90
        2
176
     1
  1
strokes_ogs.tif
176
     1
290
     0
176
     1
 40
1.0
176
     1
 40
1.0
176
     1
  0
VISUALSTYLE
  5
583
102
{ACAD_REACTORS
330
571
102
}
330
571
100
AcDbVisualStyle
  2
OverhangOff
 70
    21
177
     3
291
     1
 70
    58
 90
        2
176
     0
 90
        2
176
     0
 90
        0
176
     0
 90
        0
176
     0
 40
0.6
176
     0
 40
30.0
176
     0
 62
     7
420
 16777215
176
     0
 90
        1
176
     0
 90
        4
176
     0
 62
     7
176
     0
 62
   257
176
     0
 90
        1
176
     0
 90
        1
176
     0
 40
1.0
176
     0
 90
        9
176
     2
 62
     7
176
     0
 40
1.0
176
     0
 90
        1
176
     0
 90
        6
176
     0
 90
        2
176
     0
 62
     7
176
     0
 90
        5
176
     0
 90
        0
176
     0
 90
        0
176
     0
290
     0
176
     0
 90
        1
176
     0
 40
0.0
176
     0
 90
        0
176
     0
290
     0
176
     0
290
     1
176
     0
290
     1
176
     0
290
     0
176
     0
290
     0
176
     0
290
     0
176
     0
290
     0
176
     0
290
     0
176
     0
290
     0
176
     0
 90
       50
176
     0
 40
0.0
176
     0
 40
1.0
176
     0
 90
        0
176
     0
 62
    18
420
        0
176
     0
 90
       50
176
     0
 90
        3
176
     0
 62
     5
420
      255
176
     0
290
     0
176
     0
 90
       50
176
     0
 90
       50
176
     0
 90
       50
176
     0
290
     0
176
     0
 90
       50
176
     0
 62
   256
176
     0
 40
1.0
176
     0
 90
        2
176
     0
  1
strokes_ogs.tif
176
     0
290
     0
176
     0
 40
1.0
176
     0
 40
1.0
176
     0
  0
VISUALSTYLE
  5
57A
102
{ACAD_REACTORS
330
571
102
}
330
571
100
AcDbVisualStyle
  2
Realistic
 70
     8
177
     3
291
     0
 70
    58
 90
        2
176
     1
 90
        3
176
     1
 90
        0
176
     1
 90
        2
176
     1
 40
0.6
176
     1
 40
30.0
176
     1
 62
     7
420
 16777215
176
     1
 90
        0
176
     1
 90
        0
176
     1
 62
     7
176
     1
 62
   257
176
     1
 90
        1
176
     1
 90
        1
176
     1
 40
1.0
176
     1
 90
        8
176
     1
 62
   257
176
     1
 40
1.0
176
     1
 90
        1
176
     1
 90
        6
176
     1
 90
        2
176
     1
 62
     7
176
     1
 90
        3
176
     1
 90
        0
176
     1
 90
        0
176
     1
290
     0
176
     1
 90
       13
176
     1
 40
0.0
176
     1
 90
        0
176
     1
290
     0
176
     1
290
     1
176
     1
290
     1
176
     1
290
     0
176
     1
290
     0
176
     1
290
     0
176
     1
290
     0
176
     1
290
     0
176
     1
290
     0
176
     1
 90
       50
176
     1
 40
0.0
176
     1
 40
1.0
176
     1
 90
        0
176
     1
 62
    18
420
        0
176
     1
 90
       50
176
     1
 90
        3
176
     1
 62
     5
420
      255
176
     1
290
     0
176
     1
 90
       50
176
     1
 90
       50
176
     1
 90
       50
176
     1
290
     0
176
     1
 90
       50
176
     1
 62
   256
176
     0
 40
1.0
176
     0
 90
        2
176
     1
  1
strokes_ogs.tif
176
     1
290
     0
176
     1
 40
1.0
176
     1
 40
1.0
176
     1
  0
VISUALSTYLE
  5
589
102
{ACAD_REACTORS
330
571
102
}
330
571
100
AcDbVisualStyle
  2
Shaded
 70
    27
177
     3
291
     0
 70
    58
 90
        2
176
     1
 90
        2
176
     1
 90
        1
176
     1
 90
        2
176
     1
 40
0.6
176
     1
 40
30.0
176
     1
 62
     7
420
 16777215
176
     1
 90
        0
176
     1
 90
        4
176
     1
 62
     7
176
     1
 62
   257
176
     1
 90
        1
176
     1
 90
        1
176
     1
 40
1.0
176
     1
 90
        8
176
     1
 62
   257
176
     1
 40
1.0
176
     1
 90
        1
176
     1
 90
        6
176
     1
 90
        2
176
     1
 62
     8
420
  7895160
176
     1
 90
        3
176
     1
 90
        0
176
     1
 90
        0
176
     1
290
     0
176
     1
 90
        5
176
     1
 40
0.0
176
     1
 90
        0
176
     1
290
     0
176
     1
290
     1
176
     1
290
     1
176
     1
290
     0
176
     1
290
     0
176
     1
290
     0
176
     1
290
     0
176
     1
290
     0
176
     1
290
     0
176
     1
 90
       50
176
     1
 40
0.0
176
     1
 40
1.0
176
     1
 90
        0
176
     1
 62
    18
420
        0
176
     1
 90
       50
176
     1
 90
        3
176
     1
 62
     5
420
      255
176
     1
290
     0
176
     1
 90
       50
176
     1
 90
       50
176
     1
 90
       50
176
     1
290
     0
176
     1
 90
       50
176
     1
 62
   256
176
     0
 40
1.0
176
     0
 90
        2
176
     1
  1
strokes_ogs.tif
176
     1
290
     0
176
     1
 40
1.0
176
     1
 40
1.0
176
     1
  0
VISUALSTYLE
  5
588
102
{ACAD_REACTORS
330
571
102
}
330
571
100
AcDbVisualStyle
  2
Shaded with edges
 70
    26
177
     3
291
     0
 70
    58
 90
        2
176
     1
 90
        2
176
     1
 90
        1
176
     1
 90
        2
176
     1
 40
0.6
176
     1
 40
30.0
176
     1
 62
     7
420
 16777215
176
     1
 90
        1
176
     1
 90
       10
176
     1
 62
     7
176
     1
 62
   257
176
     1
 90
        2
176
     1
 90
        1
176
     1
 40
1.0
176
     1
 90
        8
176
     1
 62
   257
176
     1
 40
1.0
176
     1
 90
        1
176
     1
 90
        6
176
     1
 90
        2
176
     1
 62
     7
176
     1
 90
        3
176
     1
 90
        0
176
     1
 90
        0
176
     1
290
     0
176
     1
 90
        5
176
     1
 40
0.0
176
     1
 90
        0
176
     1
290
     0
176
     1
290
     1
176
     1
290
     1
176
     1
290
     0
176
     1
290
     0
176
     1
290
     0
176
     1
290
     0
176
     1
290
     0
176
     1
290
     0
176
     1
 90
       50
176
     1
 40
0.0
176
     1
 40
1.0
176
     1
 90
        0
176
     1
 62
    18
420
        0
176
     1
 90
       50
176
     1
 90
        3
176
     1
 62
     5
420
      255
176
     1
290
     0
176
     1
 90
       50
176
     1
 90
       50
176
     1
 90
       50
176
     1
290
     0
176
     1
 90
       50
176
     1
 62
   256
176
     0
 40
1.0
176
     0
 90
        2
176
     1
  1
strokes_ogs.tif
176
     1
290
     0
176
     1
 40
1.0
176
     1
 40
1.0
176
     1
  0
VISUALSTYLE
  5
585
102
{ACAD_REACTORS
330
571
102
}
330
571
100
AcDbVisualStyle
  2
Shades of Gray
 70
    23
177
     3
291
     0
 70
    58
 90
        2
176
     1
 90
        2
176
     1
 90
        3
176
     1
 90
        0
176
     1
 40
0.6
176
     1
 40
30.0
176
     1
 62
     7
420
 16777215
176
     1
 90
        2
176
     1
 90
        2
176
     1
 62
     7
176
     1
 62
     7
176
     1
 90
        1
176
     1
 90
        1
176
     1
 40
40.0
176
     1
 90
        8
176
     1
 62
     7
176
     1
 40
1.0
176
     1
 90
        1
176
     1
 90
        6
176
     1
 90
        2
176
     1
 62
     7
176
     1
 90
        3
176
     1
 90
        0
176
     1
 90
        0
176
     1
290
     0
176
     1
 90
        1
176
     1
 40
0.0
176
     1
 90
        0
176
     1
290
     0
176
     1
290
     1
176
     1
290
     1
176
     1
290
     0
176
     1
290
     0
176
     1
290
     0
176
     1
290
     0
176
     1
290
     0
176
     1
290
     0
176
     1
 90
       50
176
     1
 40
0.0
176
     1
 40
1.0
176
     1
 90
        0
176
     1
 62
    18
420
        0
176
     1
 90
       50
176
     1
 90
        3
176
     1
 62
     5
420
      255
176
     1
290
     0
176
     1
 90
       50
176
     1
 90
       50
176
     1
 90
       50
176
     1
290
     0
176
     1
 90
       50
176
     1
 62
   256
176
     0
 40
1.0
176
     0
 90
        2
176
     1
  1
strokes_ogs.tif
176
     1
290
     0
176
     1
 40
1.0
176
     1
 40
1.0
176
     1
  0
VISUALSTYLE
  5
586
102
{ACAD_REACTORS
330
571
102
}
330
571
100
AcDbVisualStyle
  2
Sketchy
 70
    24
177
     3
291
     0
 70
    58
 90
        1
176
     1
 90
        2
176
     1
 90
        2
176
     1
 90
        0
176
     1
 40
0.6
176
     1
 40
30.0
176
     1
 62
     7
420
 16777215
176
     1
 90
        2
176
     1
 90
        2
176
     1
 62
     7
176
     1
 62
     7
176
     1
 90
        1
176
     1
 90
        1
176
     1
 40
40.0
176
     1
 90
       11
176
     1
 62
     7
176
     1
 40
1.0
176
     1
 90
        1
176
     1
 90
        6
176
     1
 90
        2
176
     1
 62
     7
176
     1
 90
        6
176
     1
 90
        0
176
     1
 90
        0
176
     1
290
     0
176
     1
 90
        1
176
     1
 40
0.0
176
     1
 90
        0
176
     1
290
     0
176
     1
290
     1
176
     1
290
     1
176
     1
290
     0
176
     1
290
     0
176
     1
290
     0
176
     1
290
     0
176
     1
290
     0
176
     1
290
     0
176
     1
 90
       50
176
     1
 40
0.0
176
     1
 40
1.0
176
     1
 90
        0
176
     1
 62
    18
420
        0
176
     1
 90
       50
176
     1
 90
        3
176
     1
 62
     5
420
      255
176
     1
290
     0
176
     1
 90
       50
176
     1
 90
       50
176
     1
 90
       50
176
     1
290
     0
176
     1
 90
       50
176
     1
 62
   256
176
     0
 40
1.0
176
     0
 90
        2
176
     1
  1
strokes_ogs.tif
176
     1
290
     0
176
     1
 40
1.0
176
     1
 40
1.0
176
     1
  0
VISUALSTYLE
  5
57E
102
{ACAD_REACTORS
330
571
102
}
330
571
100
AcDbVisualStyle
  2
Thicken
 70
    13
177
     3
291
     1
 70
    58
 90
        2
176
     1
 90
        2
176
     1
 90
        0
176
     1
 90
        0
176
     1
 40
0.6
176
     1
 40
30.0
176
     1
 62
     7
420
 16777215
176
     1
 90
        1
176
     1
 90
        4
176
     1
 62
     7
176
     1
 62
   257
176
     1
 90
        1
176
     1
 90
        1
176
     1
 40
1.0
176
     1
 90
       12
176
     1
 62
     7
176
     1
 40
1.0
176
     1
 90
        1
176
     1
 90
        6
176
     1
 90
        2
176
     1
 62
     7
176
     1
 90
        5
176
     1
 90
        0
176
     1
 90
        0
176
     1
290
     0
176
     1
 90
        1
176
     1
 40
0.0
176
     1
 90
        0
176
     1
290
     0
176
     1
290
     1
176
     1
290
     1
176
     1
290
     0
176
     1
290
     0
176
     1
290
     0
176
     1
290
     0
176
     1
290
     0
176
     1
290
     0
176
     1
 90
       50
176
     1
 40
0.0
176
     1
 40
1.0
176
     1
 90
        0
176
     1
 62
    18
420
        0
176
     1
 90
       50
176
     1
 90
        3
176
     1
 62
     5
420
      255
176
     1
290
     0
176
     1
 90
       50
176
     1
 90
       50
176
     1
 90
       50
176
     1
290
     0
176
     1
 90
       50
176
     1
 62
   256
176
     0
 40
1.0
176
     0
 90
        2
176
     1
  1
strokes_ogs.tif
176
     1
290
     0
176
     1
 40
1.0
176
     1
 40
1.0
176
     1
  0
VISUALSTYLE
  5
577
102
{ACAD_REACTORS
330
571
102
}
330
571
100
AcDbVisualStyle
  2
Wireframe
 70
     5
177
     3
291
     0
 70
    58
 90
        0
176
     1
 90
        2
176
     1
 90
        0
176
     1
 90
        0
176
     1
 40
0.6
176
     1
 40
30.0
176
     1
 62
     7
420
 16777215
176
     1
 90
        1
176
     1
 90
        4
176
     1
 62
     7
176
     1
 62
   257
176
     1
 90
        1
176
     1
 90
        1
176
     1
 40
1.0
176
     1
 90
        0
176
     1
 62
   257
176
     1
 40
1.0
176
     1
 90
        1
176
     1
 90
        6
176
     1
 90
        2
176
     1
 62
     7
176
     1
 90
        3
176
     1
 90
        0
176
     1
 90
        0
176
     1
290
     0
176
     1
 90
        1
176
     1
 40
0.0
176
     1
 90
        0
176
     1
290
     0
176
     1
290
     1
176
     1
290
     1
176
     1
290
     0
176
     1
290
     0
176
     1
290
     0
176
     1
290
     0
176
     1
290
     0
176
     1
290
     0
176
     1
 90
       50
176
     1
 40
0.0
176
     1
 40
1.0
176
     1
 90
        0
176
     1
 62
    18
420
        0
176
     1
 90
       50
176
     1
 90
        3
176
     1
 62
     5
420
      255
176
     1
290
     0
176
     1
 90
       50
176
     1
 90
       50
176
     1
 90
       50
176
     1
290
     0
176
     1
 90
       50
176
     1
 62
   256
176
     0
 40
1.0
176
     0
 90
        2
176
     1
  1
strokes_ogs.tif
176
     1
290
     0
176
     1
 40
1.0
176
     1
 40
1.0
176
     1
  0
VISUALSTYLE
  5
587
102
{ACAD_REACTORS
330
571
102
}
330
571
100
AcDbVisualStyle
  2
X-Ray
 70
    25
177
     3
291
     0
 70
    58
 90
        2
176
     1
 90
        2
176
     1
 90
        1
176
     1
 90
        1
176
     1
 40
0.5
176
     1
 40
30.0
176
     1
 62
     7
420
 16777215
176
     1
 90
        1
176
     1
 90
        0
176
     1
 62
     7
176
     1
 62
   257
176
     1
 90
        1
176
     1
 90
        1
176
     1
 40
1.0
176
     1
 90
        8
176
     1
 62
     7
176
     1
 40
1.0
176
     1
 90
        1
176
     1
 90
        6
176
     1
 90
        2
176
     1
 62
     7
176
     1
 90
        3
176
     1
 90
        0
176
     1
 90
        0
176
     1
290
     0
176
     1
 90
       13
176
     1
 40
0.0
176
     1
 90
        0
176
     1
290
     0
176
     1
290
     1
176
     1
290
     1
176
     1
290
     0
176
     1
290
     0
176
     1
290
     0
176
     1
290
     0
176
     1
290
     0
176
     1
290
     0
176
     1
 90
       50
176
     1
 40
0.0
176
     1
 40
1.0
176
     1
 90
        0
176
     1
 62
    18
420
        0
176
     1
 90
       50
176
     1
 90
        3
176
     1
 62
     5
420
      255
176
     1
290
     0
176
     1
 90
       50
176
     1
 90
       50
176
     1
 90
       50
176
     1
290
     0
176
     1
 90
       50
176
     1
 62
   256
176
     0
 40
1.0
176
     0
 90
        2
176
     1
  1
strokes_ogs.tif
176
     1
290
     0
176
     1
 40
1.0
176
     1
 40
1.0
176
     1
  0
DICTIONARYVAR
  5
594
102
{ACAD_REACTORS
330
593
102
}
330
593
100
DictionaryVariables
280
     0
  1
1:1
  0
DICTIONARYVAR
  5
599
102
{ACAD_REACTORS
330
593
102
}
330
593
100
DictionaryVariables
280
     0
  1
Standard
  0
DICTIONARYVAR
  5
598
102
{ACAD_REACTORS
330
593
102
}
330
593
100
DictionaryVariables
280
     0
  1
Standard
  0
DICTIONARYVAR
  5
59A
102
{ACAD_REACTORS
330
593
102
}
330
593
100
DictionaryVariables
280
     0
  1
0
  0
DICTIONARY
  5
595
330
58F
100
AcDbDictionary
280
     1
281
     1
  3
ACAD_ROUNDTRIP_2008_TABLESTYLE_CELLSTYLEMAP
360
596
  0
CELLSTYLEMAP
  5
596
102
{ACAD_REACTORS
330
595
102
}
330
595
100
AcDbCellStyleMap
 90
        3
300
CELLSTYLE
  1
TABLEFORMAT_BEGIN
 90
        5
170
     1
 91
        0
 92
    32768
 62
   257
 93
        1
300
CONTENTFORMAT
  1
CONTENTFORMAT_BEGIN
 90
        0
 91
        0
 92
        4
 93
        0
300

 40
0.0
140
1.0
 94
        5
 62
     0
340
11
144
6.0
309
CONTENTFORMAT_END
171
     1
301
MARGIN
  1
CELLMARGIN_BEGIN
 40
1.5
 40
1.5
 40
1.5
 40
1.5
 40
1.5
 40
1.5
309
CELLMARGIN_END
 94
        6
 95
        1
302
GRIDFORMAT
  1
GRIDFORMAT_BEGIN
 90
        0
 91
        1
 62
     0
 92
       -2
340
14
 93
        0
 40
0.045
309
GRIDFORMAT_END
 95
        2
302
GRIDFORMAT
  1
GRIDFORMAT_BEGIN
 90
        0
 91
        1
 62
     0
 92
       -2
340
14
 93
        0
 40
0.045
309
GRIDFORMAT_END
 95
        4
302
GRIDFORMAT
  1
GRIDFORMAT_BEGIN
 90
        0
 91
        1
 62
     0
 92
       -2
340
14
 93
        0
 40
0.045
309
GRIDFORMAT_END
 95
        8
302
GRIDFORMAT
  1
GRIDFORMAT_BEGIN
 90
        0
 91
        1
 62
     0
 92
       -2
340
14
 93
        0
 40
0.045
309
GRIDFORMAT_END
 95
       16
302
GRIDFORMAT
  1
GRIDFORMAT_BEGIN
 90
        0
 91
        1
 62
     0
 92
       -2
340
14
 93
        0
 40
0.045
309
GRIDFORMAT_END
 95
       32
302
GRIDFORMAT
  1
GRIDFORMAT_BEGIN
 90
        0
 91
        1
 62
     0
 92
       -2
340
14
 93
        0
 40
0.045
309
GRIDFORMAT_END
309
TABLEFORMAT_END
  1
CELLSTYLE_BEGIN
 90
        1
 91
        1
300
_TITLE
309
CELLSTYLE_END
300
CELLSTYLE
  1
TABLEFORMAT_BEGIN
 90
        5
170
     1
 91
        0
 92
        0
 62
   257
 93
        1
300
CONTENTFORMAT
  1
CONTENTFORMAT_BEGIN
 90
        0
 91
        0
 92
        4
 93
        0
300

 40
0.0
140
1.0
 94
        5
 62
     0
340
11
144
4.5
309
CONTENTFORMAT_END
171
     1
301
MARGIN
  1
CELLMARGIN_BEGIN
 40
1.5
 40
1.5
 40
1.5
 40
1.5
 40
1.5
 40
1.5
309
CELLMARGIN_END
 94
        6
 95
        1
302
GRIDFORMAT
  1
GRIDFORMAT_BEGIN
 90
        0
 91
        1
 62
     0
 92
       -2
340
14
 93
        0
 40
0.045
309
GRIDFORMAT_END
 95
        2
302
GRIDFORMAT
  1
GRIDFORMAT_BEGIN
 90
        0
 91
        1
 62
     0
 92
       -2
340
14
 93
        0
 40
0.045
309
GRIDFORMAT_END
 95
        4
302
GRIDFORMAT
  1
GRIDFORMAT_BEGIN
 90
        0
 91
        1
 62
     0
 92
       -2
340
14
 93
        0
 40
0.045
309
GRIDFORMAT_END
 95
        8
302
GRIDFORMAT
  1
GRIDFORMAT_BEGIN
 90
        0
 91
        1
 62
     0
 92
       -2
340
14
 93
        0
 40
0.045
309
GRIDFORMAT_END
 95
       16
302
GRIDFORMAT
  1
GRIDFORMAT_BEGIN
 90
        0
 91
        1
 62
     0
 92
       -2
340
14
 93
        0
 40
0.045
309
GRIDFORMAT_END
 95
       32
302
GRIDFORMAT
  1
GRIDFORMAT_BEGIN
 90
        0
 91
        1
 62
     0
 92
       -2
340
14
 93
        0
 40
0.045
309
GRIDFORMAT_END
309
TABLEFORMAT_END
  1
CELLSTYLE_BEGIN
 90
        2
 91
        1
300
_HEADER
309
CELLSTYLE_END
300
CELLSTYLE
  1
TABLEFORMAT_BEGIN
 90
        5
170
     1
 91
        0
 92
        0
 62
   257
 93
        1
300
CONTENTFORMAT
  1
CONTENTFORMAT_BEGIN
 90
        0
 91
        0
 92
        4
 93
        0
300

 40
0.0
140
1.0
 94
        2
 62
     0
340
11
144
4.5
309
CONTENTFORMAT_END
171
     1
301
MARGIN
  1
CELLMARGIN_BEGIN
 40
1.5
 40
1.5
 40
1.5
 40
1.5
 40
1.5
 40
1.5
309
CELLMARGIN_END
 94
        6
 95
        1
302
GRIDFORMAT
  1
GRIDFORMAT_BEGIN
 90
        0
 91
        1
 62
     0
 92
       -2
340
14
 93
        0
 40
0.045
309
GRIDFORMAT_END
 95
        2
302
GRIDFORMAT
  1
GRIDFORMAT_BEGIN
 90
        0
 91
        1
 62
     0
 92
       -2
340
14
 93
        0
 40
0.045
309
GRIDFORMAT_END
 95
        4
302
GRIDFORMAT
  1
GRIDFORMAT_BEGIN
 90
        0
 91
        1
 62
     0
 92
       -2
340
14
 93
        0
 40
0.045
309
GRIDFORMAT_END
 95
        8
302
GRIDFORMAT
  1
GRIDFORMAT_BEGIN
 90
        0
 91
        1
 62
     0
 92
       -2
340
14
 93
        0
 40
0.045
309
GRIDFORMAT_END
 95
       16
302
GRIDFORMAT
  1
GRIDFORMAT_BEGIN
 90
        0
 91
        1
 62
     0
 92
       -2
340
14
 93
        0
 40
0.045
309
GRIDFORMAT_END
 95
       32
302
GRIDFORMAT
  1
GRIDFORMAT_BEGIN
 90
        0
 91
        1
 62
     0
 92
       -2
340
14
 93
        0
 40
0.045
309
GRIDFORMAT_END
309
TABLEFORMAT_END
  1
CELLSTYLE_BEGIN
 90
        3
 91
        2
300
_DATA
309
CELLSTYLE_END
  0
ENDSEC
  0
EOF
