  0
SECTION
  2
HEADER
  9
$ACADVER
  1
AC1027
  9
$ACADMAINTVER
 70
   105
  9
$DWGCODEPAGE
  3
ANSI_1252
  9
$REQUIREDVERSIONS
160
                 0
  9
$LASTSAVEDBY
  1
andrea.zolin
  9
$INSBASE
 10
0.0
 20
0.0
 30
0.0
  9
$EXTMIN
 10
0.0
 20
0.0
 30
0.0
  9
$EXTMAX
 10
594.0
 20
420.0
 30
0.0
  9
$LIMMIN
 10
0.0
 20
0.0
  9
$LIMMAX
 10
594.0
 20
420.0
  9
$ORTHOMODE
 70
     0
  9
$REGENMODE
 70
     1
  9
$FILLMODE
 70
     1
  9
$QTEXTMODE
 70
     0
  9
$MIRRTEXT
 70
     1
  9
$LTSCALE
 40
32.67
  9
$ATTMODE
 70
     1
  9
$TEXTSIZE
 40
0.2
  9
$TRACEWID
 40
0.05
  9
$TEXTSTYLE
  7
STANDARD
  9
$CLAYER
  8
0
  9
$CELTYPE
  6
BYLAYER
  9
$CECOLOR
 62
   256
  9
$CELTSCALE
 40
1.0
  9
$DISPSILH
 70
     0
  9
$DIMSCALE
 40
1.0
  9
$DIMASZ
 40
2.5
  9
$DIMEXO
 40
0.75
  9
$DIMDLI
 40
22.572
  9
$DIMRND
 40
0.0
  9
$DIMDLE
 40
0.0
  9
$DIMEXE
 40
0.75
  9
$DIMTP
 40
0.01
  9
$DIMTM
 40
0.01
  9
$DIMTXT
 40
3.0
  9
$DIMCEN
 40
5.346
  9
$DIMTSZ
 40
0.0
  9
$DIMTOL
 70
     1
  9
$DIMLIM
 70
     0
  9
$DIMTIH
 70
     1
  9
$DIMTOH
 70
     1
  9
$DIMSE1
 70
     0
  9
$DIMSE2
 70
     0
  9
$DIMTAD
 70
     0
  9
$DIMZIN
 70
     0
  9
$DIMBLK
  1
CLOSED
  9
$DIMASO
 70
     1
  9
$DIMSHO
 70
     1
  9
$DIMPOST
  1

  9
$DIMAPOST
  1

  9
$DIMALT
 70
     0
  9
$DIMALTD
 70
     2
  9
$DIMALTF
 40
25.4
  9
$DIMLFAC
 40
1.0
  9
$DIMTOFL
 70
     0
  9
$DIMTVP
 40
0.0
  9
$DIMTIX
 70
     0
  9
$DIMSOXD
 70
     0
  9
$DIMSAH
 70
     0
  9
$DIMBLK1
  1

  9
$DIMBLK2
  1

  9
$DIMSTYLE
  2
STANDARD
  9
$DIMCLRD
 70
     0
  9
$DIMCLRE
 70
     0
  9
$DIMCLRT
 70
     0
  9
$DIMTFAC
 40
1.0
  9
$DIMGAP
 40
0.625
  9
$DIMJUST
 70
     0
  9
$DIMSD1
 70
     0
  9
$DIMSD2
 70
     0
  9
$DIMTOLJ
 70
     1
  9
$DIMTZIN
 70
     0
  9
$DIMALTZ
 70
     0
  9
$DIMALTTZ
 70
     0
  9
$DIMUPT
 70
     0
  9
$DIMDEC
 70
     4
  9
$DIMTDEC
 70
     4
  9
$DIMALTU
 70
     2
  9
$DIMALTTD
 70
     2
  9
$DIMTXSTY
  7
STANDARD
  9
$DIMAUNIT
 70
     0
  9
$DIMADEC
 70
     0
  9
$DIMALTRND
 40
0.0
  9
$DIMAZIN
 70
     0
  9
$DIMDSEP
 70
    46
  9
$DIMATFIT
 70
     3
  9
$DIMFRAC
 70
     0
  9
$DIMLDRBLK
  1

  9
$DIMLUNIT
 70
     2
  9
$DIMLWD
 70
    -2
  9
$DIMLWE
 70
    -2
  9
$DIMTMOVE
 70
     2
  9
$DIMFXL
 40
1.0
  9
$DIMFXLON
 70
     0
  9
$DIMJOGANG
 40
0.7853981633974483
  9
$DIMTFILL
 70
     0
  9
$DIMTFILLCLR
 70
     0
  9
$DIMARCSYM
 70
     0
  9
$DIMLTYPE
  6

  9
$DIMLTEX1
  6

  9
$DIMLTEX2
  6

  9
$DIMTXTDIRECTION
 70
     0
  9
$LUNITS
 70
     2
  9
$LUPREC
 70
     4
  9
$SKETCHINC
 40
0.1
  9
$FILLETRAD
 40
0.5
  9
$AUNITS
 70
     0
  9
$AUPREC
 70
     0
  9
$MENU
  1
.
  9
$ELEVATION
 40
0.0
  9
$PELEVATION
 40
0.0
  9
$THICKNESS
 40
0.0
  9
$LIMCHECK
 70
     0
  9
$CHAMFERA
 40
0.0
  9
$CHAMFERB
 40
0.0
  9
$CHAMFERC
 40
0.0
  9
$CHAMFERD
 40
0.0
  9
$SKPOLY
 70
     0
  9
$TDCREATE
 40
2447893.041666667
  9
$TDUCREATE
 40
0.0
  9
$TDUPDATE
 40
2458466.685066574
  9
$TDUUPDATE
 40
2458466.643399907
  9
$TDINDWG
 40
0.0002284259
  9
$TDUSRTIMER
 40
0.0002284259
  9
$USRTIMER
 70
     1
  9
$ANGBASE
 50
0.0
  9
$ANGDIR
 70
     0
  9
$PDMODE
 70
     3
  9
$PDSIZE
 40
0.3125
  9
$PLINEWID
 40
0.0
  9
$SPLFRAME
 70
     0
  9
$SPLINETYPE
 70
     6
  9
$SPLINESEGS
 70
     8
  9
$HANDSEED
  5
59A
  9
$SURFTAB1
 70
     6
  9
$SURFTAB2
 70
     6
  9
$SURFTYPE
 70
     6
  9
$SURFU
 70
     6
  9
$SURFV
 70
     6
  9
$UCSBASE
  2

  9
$UCSNAME
  2

  9
$UCSORG
 10
0.0
 20
0.0
 30
0.0
  9
$UCSXDIR
 10
1.0
 20
0.0
 30
0.0
  9
$UCSYDIR
 10
0.0
 20
1.0
 30
0.0
  9
$UCSORTHOREF
  2

  9
$UCSORTHOVIEW
 70
     0
  9
$UCSORGTOP
 10
0.0
 20
0.0
 30
0.0
  9
$UCSORGBOTTOM
 10
0.0
 20
0.0
 30
0.0
  9
$UCSORGLEFT
 10
0.0
 20
0.0
 30
0.0
  9
$UCSORGRIGHT
 10
0.0
 20
0.0
 30
0.0
  9
$UCSORGFRONT
 10
0.0
 20
0.0
 30
0.0
  9
$UCSORGBACK
 10
0.0
 20
0.0
 30
0.0
  9
$PUCSBASE
  2

  9
$PUCSNAME
  2

  9
$PUCSORG
 10
0.0
 20
0.0
 30
0.0
  9
$PUCSXDIR
 10
1.0
 20
0.0
 30
0.0
  9
$PUCSYDIR
 10
0.0
 20
1.0
 30
0.0
  9
$PUCSORTHOREF
  2

  9
$PUCSORTHOVIEW
 70
     0
  9
$PUCSORGTOP
 10
0.0
 20
0.0
 30
0.0
  9
$PUCSORGBOTTOM
 10
0.0
 20
0.0
 30
0.0
  9
$PUCSORGLEFT
 10
0.0
 20
0.0
 30
0.0
  9
$PUCSORGRIGHT
 10
0.0
 20
0.0
 30
0.0
  9
$PUCSORGFRONT
 10
0.0
 20
0.0
 30
0.0
  9
$PUCSORGBACK
 10
0.0
 20
0.0
 30
0.0
  9
$USERI1
 70
     0
  9
$USERI2
 70
     0
  9
$USERI3
 70
     0
  9
$USERI4
 70
     0
  9
$USERI5
 70
     0
  9
$USERR1
 40
0.0
  9
$USERR2
 40
0.0
  9
$USERR3
 40
0.0
  9
$USERR4
 40
0.0
  9
$USERR5
 40
0.0
  9
$WORLDVIEW
 70
     1
  9
$SHADEDGE
 70
     3
  9
$SHADEDIF
 70
    70
  9
$TILEMODE
 70
     0
  9
$MAXACTVP
 70
    64
  9
$PINSBASE
 10
0.0
 20
0.0
 30
0.0
  9
$PLIMCHECK
 70
     0
  9
$PEXTMIN
 10
0.0
 20
0.0
 30
0.0
  9
$PEXTMAX
 10
595.6680932685667
 20
420.0
 30
0.0
  9
$PLIMMIN
 10
-12.2568093385214
 20
-32.68482490272373
  9
$PLIMMAX
 10
674.1245136186769
 20
452.6848249027237
  9
$UNITMODE
 70
     0
  9
$VISRETAIN
 70
     1
  9
$PLINEGEN
 70
     0
  9
$PSLTSCALE
 70
     1
  9
$TREEDEPTH
 70
  3020
  9
$CMLSTYLE
  2
STANDARD
  9
$CMLJUST
 70
     0
  9
$CMLSCALE
 40
1.0
  9
$PROXYGRAPHICS
 70
     1
  9
$MEASUREMENT
 70
     1
  9
$CELWEIGHT
370
    -1
  9
$ENDCAPS
280
     0
  9
$JOINSTYLE
280
     0
  9
$LWDISPLAY
290
     0
  9
$INSUNITS
 70
     0
  9
$HYPERLINKBASE
  1

  9
$STYLESHEET
  1

  9
$XEDIT
290
     1
  9
$CEPSNTYPE
380
     0
  9
$PSTYLEMODE
290
     1
  9
$FINGERPRINTGUID
  2
{5E66713A-A22C-4C71-84BD-396D93953A5E}
  9
$VERSIONGUID
  2
{FAEB1C32-E019-11D5-929B-00C0DF256EC4}
  9
$EXTNAMES
290
     1
  9
$PSVPSCALE
 40
0.0
  9
$OLESTARTUP
290
     0
  9
$SORTENTS
280
   127
  9
$INDEXCTL
280
     0
  9
$HIDETEXT
280
     1
  9
$XCLIPFRAME
280
     2
  9
$HALOGAP
280
     0
  9
$OBSCOLOR
 70
   257
  9
$OBSLTYPE
280
     0
  9
$INTERSECTIONDISPLAY
280
     0
  9
$INTERSECTIONCOLOR
 70
   257
  9
$DIMASSOC
280
     2
  9
$PROJECTNAME
  1

  9
$CAMERADISPLAY
290
     0
  9
$LENSLENGTH
 40
50.0
  9
$CAMERAHEIGHT
 40
0.0
  9
$STEPSPERSEC
 40
2.0
  9
$STEPSIZE
 40
6.0
  9
$3DDWFPREC
 40
2.0
  9
$PSOLWIDTH
 40
0.25
  9
$PSOLHEIGHT
 40
4.0
  9
$LOFTANG1
 40
1.570796326794897
  9
$LOFTANG2
 40
1.570796326794897
  9
$LOFTMAG1
 40
0.0
  9
$LOFTMAG2
 40
0.0
  9
$LOFTPARAM
 70
     7
  9
$LOFTNORMALS
280
     1
  9
$LATITUDE
 40
37.795
  9
$LONGITUDE
 40
-122.394
  9
$NORTHDIRECTION
 40
0.0
  9
$TIMEZONE
 70
 -8000
  9
$LIGHTGLYPHDISPLAY
280
     1
  9
$TILEMODELIGHTSYNCH
280
     1
  9
$SOLIDHIST
280
     0
  9
$SHOWHIST
280
     1
  9
$DWFFRAME
280
     2
  9
$DGNFRAME
280
     2
  9
$REALWORLDSCALE
290
     1
  9
$INTERFERECOLOR
 62
   256
  9
$CSHADOW
280
     0
  9
$SHADOWPLANELOCATION
 40
0.0
  0
ENDSEC
  0
SECTION
  2
CLASSES
  0
CLASS
  1
ACDBDICTIONARYWDFLT
  2
AcDbDictionaryWithDefault
  3
ObjectDBX Classes
 90
        0
 91
        4
280
     0
281
     0
  0
CLASS
  1
SCALE
  2
AcDbScale
  3
ObjectDBX Classes
 90
     1153
 91
        4
280
     0
281
     0
  0
CLASS
  1
VISUALSTYLE
  2
AcDbVisualStyle
  3
ObjectDBX Classes
 90
     4095
 91
        4
280
     0
281
     0
  0
CLASS
  1
MATERIAL
  2
AcDbMaterial
  3
ObjectDBX Classes
 90
     1153
 91
        4
280
     0
281
     0
  0
CLASS
  1
TABLESTYLE
  2
AcDbTableStyle
  3
ObjectDBX Classes
 90
     4095
 91
        4
280
     0
281
     0
  0
CLASS
  1
MLEADERSTYLE
  2
AcDbMLeaderStyle
  3
ACDB_MLEADERSTYLE_CLASS
 90
     4095
 91
        4
280
     0
281
     0
  0
CLASS
  1
DICTIONARYVAR
  2
AcDbDictionaryVar
  3
ObjectDBX Classes
 90
        0
 91
        4
280
     0
281
     0
  0
CLASS
  1
CELLSTYLEMAP
  2
AcDbCellStyleMap
  3
ObjectDBX Classes
 90
     1152
 91
        4
280
     0
281
     0
  0
ENDSEC
  0
SECTION
  2
TABLES
  0
TABLE
  2
VPORT
  5
8
330
0
100
AcDbSymbolTable
 70
     1
  0
VPORT
  5
1F4
330
8
100
AcDbSymbolTableRecord
100
AcDbViewportTableRecord
  2
*ACTIVE
 70
     0
 10
0.0
 20
0.0
 11
1.0
 21
1.0
 12
297.0
 22
210.0
 13
0.0
 23
0.0
 14
1.0
 24
1.0
 15
0.0
 25
0.0
 16
0.0
 26
0.0
 36
1.0
 17
0.0
 27
0.0
 37
0.0
 40
420.0
 41
1.4142857143
 42
50.0
 43
0.0
 44
0.0
 50
0.0
 51
0.0
 71
     0
 72
   100
 73
     1
 74
     1
 75
     0
 76
     0
 77
     0
 78
     0
281
     0
 65
     1
110
0.0
120
0.0
130
0.0
111
1.0
121
0.0
131
0.0
112
0.0
122
1.0
132
0.0
 79
     0
146
0.0
348
573
 60
     3
 61
     5
292
     1
282
     1
141
0.0
142
0.0
 63
   256
  0
ENDTAB
  0
TABLE
  2
LTYPE
  5
5
330
0
100
AcDbSymbolTable
 70
     6
  0
LTYPE
  5
14
330
5
100
AcDbSymbolTableRecord
100
AcDbLinetypeTableRecord
  2
BYBLOCK
 70
     0
  3

 72
    65
 73
     0
 40
0.0
  0
LTYPE
  5
15
330
5
100
AcDbSymbolTableRecord
100
AcDbLinetypeTableRecord
  2
BYLAYER
 70
     0
  3

 72
    65
 73
     0
 40
0.0
  0
LTYPE
  5
16
330
5
100
AcDbSymbolTableRecord
100
AcDbLinetypeTableRecord
  2
CONTINUOUS
 70
     0
  3
Solid line
 72
    65
 73
     0
 40
0.0
  0
LTYPE
  5
1F5
330
5
100
AcDbSymbolTableRecord
100
AcDbLinetypeTableRecord
  2
CENTER
 70
     0
  3
____ _ ____ _ ____ _ ____ _ ____ _ ____ _ ____
 72
    65
 73
     4
 40
0.6
 49
0.375
 74
     0
 49
-0.075
 74
     0
 49
0.075
 74
     0
 49
-0.075
 74
     0
  0
LTYPE
  5
1F6
330
5
100
AcDbSymbolTableRecord
100
AcDbLinetypeTableRecord
  2
HIDDEN
 70
     0
  3
- - - - - - - - - - - - - - - - - - - -
 72
    65
 73
     2
 40
0.2
 49
0.1
 74
     0
 49
-0.1
 74
     0
  0
LTYPE
  5
1F7
330
5
100
AcDbSymbolTableRecord
100
AcDbLinetypeTableRecord
  2
PHANTOM
 70
     0
  3
_____ _ _ _____ _ _ _____ _ _ _____
 72
    65
 73
     6
 40
0.8
 49
0.45
 74
     0
 49
-0.05
 74
     0
 49
0.1
 74
     0
 49
-0.05
 74
     0
 49
0.1
 74
     0
 49
-0.05
 74
     0
  0
LTYPE
  5
1F8
330
5
100
AcDbSymbolTableRecord
100
AcDbLinetypeTableRecord
  2
DOT
 70
     0
  3
. . . . . . . . . . . . . . . . . . . .
 72
    65
 73
     2
 40
0.2
 49
0.1
 74
     0
 49
-0.1
 74
     0
  0
LTYPE
  5
1F9
330
5
100
AcDbSymbolTableRecord
100
AcDbLinetypeTableRecord
  2
DASHED
 70
     0
  3
- - - - - - - - - - - - - - - - - - - -
 72
    65
 73
     2
 40
0.2
 49
0.1
 74
     0
 49
-0.1
 74
     0
  0
ENDTAB
  0
TABLE
  2
LAYER
  5
2
330
0
100
AcDbSymbolTable
 70
    35
  0
LAYER
  5
10
330
2
100
AcDbSymbolTableRecord
100
AcDbLayerTableRecord
  2
0
 70
     0
 62
     7
  6
CONTINUOUS
370
    -3
390
548
347
58A
348
0
  0
LAYER
  5
1FA
330
2
100
AcDbSymbolTableRecord
100
AcDbLayerTableRecord
  2
DEFAULT_1
 70
     0
 62
     7
  6
CENTER
370
    -3
390
548
347
58A
348
0
  0
LAYER
  5
1FB
330
2
100
AcDbSymbolTableRecord
100
AcDbLayerTableRecord
  2
DEFAULT_2
 70
     0
 62
     8
  6
HIDDEN
370
    -3
390
548
347
58A
348
0
  0
LAYER
  5
1FC
330
2
100
AcDbSymbolTableRecord
100
AcDbLayerTableRecord
  2
DEFAULT_3
 70
     0
 62
     7
  6
PHANTOM
370
    -3
390
548
347
58A
348
0
  0
LAYER
  5
1FD
330
2
100
AcDbSymbolTableRecord
100
AcDbLayerTableRecord
  2
01_ALL_DTM_PLN
 70
     0
 62
     7
  6
CONTINUOUS
370
    -3
390
548
347
58A
348
0
  0
LAYER
  5
1FE
330
2
100
AcDbSymbolTableRecord
100
AcDbLayerTableRecord
  2
01__ASM_ALL_DTM_PLN
 70
     0
 62
     7
  6
CONTINUOUS
370
    -3
390
548
347
58A
348
0
  0
LAYER
  5
1FF
330
2
100
AcDbSymbolTableRecord
100
AcDbLayerTableRecord
  2
01__ASM_DEF_DTM_PLN
 70
     0
 62
     7
  6
CONTINUOUS
370
    -3
390
548
347
58A
348
0
  0
LAYER
  5
200
330
2
100
AcDbSymbolTableRecord
100
AcDbLayerTableRecord
  2
01___PRT_ALL_DTM_PLN
 70
     0
 62
     7
  6
CONTINUOUS
370
    -3
390
548
347
58A
348
0
  0
LAYER
  5
201
330
2
100
AcDbSymbolTableRecord
100
AcDbLayerTableRecord
  2
01___PRT_DEF_DTM_PLN
 70
     0
 62
     7
  6
CONTINUOUS
370
    -3
390
548
347
58A
348
0
  0
LAYER
  5
202
330
2
100
AcDbSymbolTableRecord
100
AcDbLayerTableRecord
  2
02_ALL_AXES
 70
     0
 62
     7
  6
CONTINUOUS
370
    -3
390
548
347
58A
348
0
  0
LAYER
  5
203
330
2
100
AcDbSymbolTableRecord
100
AcDbLayerTableRecord
  2
02__ASM_ALL_AXES
 70
     0
 62
     7
  6
CONTINUOUS
370
    -3
390
548
347
58A
348
0
  0
LAYER
  5
204
330
2
100
AcDbSymbolTableRecord
100
AcDbLayerTableRecord
  2
02___PRT_ALL_AXES
 70
     0
 62
     7
  6
CONTINUOUS
370
    -3
390
548
347
58A
348
0
  0
LAYER
  5
205
330
2
100
AcDbSymbolTableRecord
100
AcDbLayerTableRecord
  2
03_ALL_CURVES
 70
     0
 62
     7
  6
CONTINUOUS
370
    -3
390
548
347
58A
348
0
  0
LAYER
  5
206
330
2
100
AcDbSymbolTableRecord
100
AcDbLayerTableRecord
  2
03__ASM_ALL_CURVES
 70
     0
 62
     7
  6
CONTINUOUS
370
    -3
390
548
347
58A
348
0
  0
LAYER
  5
207
330
2
100
AcDbSymbolTableRecord
100
AcDbLayerTableRecord
  2
03___PRT_ALL_CURVES
 70
     0
 62
     7
  6
CONTINUOUS
370
    -3
390
548
347
58A
348
0
  0
LAYER
  5
208
330
2
100
AcDbSymbolTableRecord
100
AcDbLayerTableRecord
  2
04_ALL_DTM_PNT
 70
     0
 62
     7
  6
CONTINUOUS
370
    -3
390
548
347
58A
348
0
  0
LAYER
  5
209
330
2
100
AcDbSymbolTableRecord
100
AcDbLayerTableRecord
  2
04__ASM_ALL_DTM_PNT
 70
     0
 62
     7
  6
CONTINUOUS
370
    -3
390
548
347
58A
348
0
  0
LAYER
  5
20A
330
2
100
AcDbSymbolTableRecord
100
AcDbLayerTableRecord
  2
04___PRT_ALL_DTM_PNT
 70
     0
 62
     7
  6
CONTINUOUS
370
    -3
390
548
347
58A
348
0
  0
LAYER
  5
20B
330
2
100
AcDbSymbolTableRecord
100
AcDbLayerTableRecord
  2
05_ALL_DTM_CSYS
 70
     0
 62
     7
  6
CONTINUOUS
370
    -3
390
548
347
58A
348
0
  0
LAYER
  5
20C
330
2
100
AcDbSymbolTableRecord
100
AcDbLayerTableRecord
  2
05__ASM_ALL_DTM_CSYS
 70
     0
 62
     7
  6
CONTINUOUS
370
    -3
390
548
347
58A
348
0
  0
LAYER
  5
20D
330
2
100
AcDbSymbolTableRecord
100
AcDbLayerTableRecord
  2
05__ASM_DEF_DTM_CSYS
 70
     0
 62
     7
  6
CONTINUOUS
370
    -3
390
548
347
58A
348
0
  0
LAYER
  5
20E
330
2
100
AcDbSymbolTableRecord
100
AcDbLayerTableRecord
  2
05___PRT_ALL_DTM_CSYS
 70
     0
 62
     7
  6
CONTINUOUS
370
    -3
390
548
347
58A
348
0
  0
LAYER
  5
20F
330
2
100
AcDbSymbolTableRecord
100
AcDbLayerTableRecord
  2
05___PRT_DEF_DTM_CSYS
 70
     0
 62
     7
  6
CONTINUOUS
370
    -3
390
548
347
58A
348
0
  0
LAYER
  5
210
330
2
100
AcDbSymbolTableRecord
100
AcDbLayerTableRecord
  2
06_ALL_SURFS
 70
     0
 62
     7
  6
CONTINUOUS
370
    -3
390
548
347
58A
348
0
  0
LAYER
  5
211
330
2
100
AcDbSymbolTableRecord
100
AcDbLayerTableRecord
  2
06__ASM_ALL_SURFS
 70
     0
 62
     7
  6
CONTINUOUS
370
    -3
390
548
347
58A
348
0
  0
LAYER
  5
212
330
2
100
AcDbSymbolTableRecord
100
AcDbLayerTableRecord
  2
06___PRT_ALL_SURFS
 70
     0
 62
     7
  6
CONTINUOUS
370
    -3
390
548
347
58A
348
0
  0
LAYER
  5
213
330
2
100
AcDbSymbolTableRecord
100
AcDbLayerTableRecord
  2
07__ASM_ALL_SKELETONS
 70
     0
 62
     7
  6
CONTINUOUS
370
    -3
390
548
347
58A
348
0
  0
LAYER
  5
214
330
2
100
AcDbSymbolTableRecord
100
AcDbLayerTableRecord
  2
1_ALL_PLANES
 70
     0
 62
     7
  6
CONTINUOUS
370
    -3
390
548
347
58A
348
0
  0
LAYER
  5
215
330
2
100
AcDbSymbolTableRecord
100
AcDbLayerTableRecord
  2
2_ALL_CSYS
 70
     0
 62
     7
  6
CONTINUOUS
370
    -3
390
548
347
58A
348
0
  0
LAYER
  5
216
330
2
100
AcDbSymbolTableRecord
100
AcDbLayerTableRecord
  2
3_ALL_AXES
 70
     0
 62
     7
  6
CONTINUOUS
370
    -3
390
548
347
58A
348
0
  0
LAYER
  5
217
330
2
100
AcDbSymbolTableRecord
100
AcDbLayerTableRecord
  2
4_ALL_POINTS
 70
     0
 62
     7
  6
CONTINUOUS
370
    -3
390
548
347
58A
348
0
  0
LAYER
  5
218
330
2
100
AcDbSymbolTableRecord
100
AcDbLayerTableRecord
  2
5_ALL_CURVES
 70
     0
 62
     7
  6
CONTINUOUS
370
    -3
390
548
347
58A
348
0
  0
LAYER
  5
219
330
2
100
AcDbSymbolTableRecord
100
AcDbLayerTableRecord
  2
6_ALL_SURFS
 70
     0
 62
     7
  6
CONTINUOUS
370
    -3
390
548
347
58A
348
0
  0
LAYER
  5
21A
330
2
100
AcDbSymbolTableRecord
100
AcDbLayerTableRecord
  2
7_ALL_FEATURES
 70
     0
 62
     7
  6
CONTINUOUS
370
    -3
390
548
347
58A
348
0
  0
LAYER
  5
21B
330
2
100
AcDbSymbolTableRecord
100
AcDbLayerTableRecord
  2
9_SOLID
 70
     0
 62
     7
  6
CONTINUOUS
370
    -3
390
548
347
58A
348
0
  0
ENDTAB
  0
TABLE
  2
STYLE
  5
3
330
0
100
AcDbSymbolTable
 70
     4
  0
STYLE
  5
11
330
3
100
AcDbSymbolTableRecord
100
AcDbTextStyleTableRecord
  2
STANDARD
 70
     0
 40
0.0
 41
1.0
 50
0.0
 71
     0
 42
0.2
  3
arial.ttf
  4

  0
STYLE
  5
21C
330
3
100
AcDbSymbolTableRecord
100
AcDbTextStyleTableRecord
  2
TEXTSTYLE_1
 70
     0
 40
0.0
 41
0.8
 50
0.0
 71
     0
 42
0.2
  3
gdt
  4

  0
STYLE
  5
21D
330
3
100
AcDbSymbolTableRecord
100
AcDbTextStyleTableRecord
  2
TEXTSTYLE_2
 70
     0
 40
0.0
 41
2.0
 50
0.0
 71
     0
 42
0.2
  3
txt
  4

  0
STYLE
  5
21E
330
3
100
AcDbSymbolTableRecord
100
AcDbTextStyleTableRecord
  2
TEXTSTYLE_3
 70
     0
 40
0.0
 41
0.85
 50
0.0
 71
     0
 42
0.2
  3
txt
  4

  0
ENDTAB
  0
TABLE
  2
VIEW
  5
6
330
0
100
AcDbSymbolTable
 70
     0
  0
ENDTAB
  0
TABLE
  2
UCS
  5
7
330
0
100
AcDbSymbolTable
 70
     0
  0
ENDTAB
  0
TABLE
  2
APPID
  5
9
330
0
100
AcDbSymbolTable
 70
     1
  0
APPID
  5
21F
330
9
100
AcDbSymbolTableRecord
100
AcDbRegAppTableRecord
  2
ACAD
 70
     0
  0
ENDTAB
  0
TABLE
  2
DIMSTYLE
  5
A
330
0
100
AcDbSymbolTable
 70
     5
100
AcDbDimStyleTable
  0
DIMSTYLE
105
229
330
A
100
AcDbSymbolTableRecord
100
AcDbDimStyleTableRecord
  2
STANDARD
 70
     0
 41
2.5
 42
0.75
 44
0.75
 47
0.01
 48
0.01
 71
     1
 73
     0
 74
     0
 77
     1
 78
     8
 79
     2
140
3.0
147
0.625
171
     1
178
     0
179
     2
271
     2
272
     2
284
     8
340
11
341
220
342
220
343
220
344
220
  0
DIMSTYLE
105
22A
330
A
100
AcDbSymbolTableRecord
100
AcDbDimStyleTableRecord
  2
DIMSTYLE_1
 70
     0
 41
2.5
 42
0.75
 44
0.75
 47
0.3
 48
0.3
 73
     0
 74
     0
 77
     1
 78
     8
 79
     2
140
3.0
147
0.75
171
     1
178
     0
179
     2
271
     2
272
     2
284
     8
340
11
341
220
342
220
343
220
344
220
  0
DIMSTYLE
105
22B
330
A
100
AcDbSymbolTableRecord
100
AcDbDimStyleTableRecord
  2
DIMSTYLE_2
 70
     0
 41
2.5
 42
0.75
 44
0.75
 47
0.1
 48
0.1
 73
     0
 74
     0
 77
     1
 78
     8
 79
     2
140
3.0
147
0.75
171
     1
178
     0
179
     2
271
     2
272
     2
284
     8
340
11
341
220
342
220
343
220
344
220
  0
DIMSTYLE
105
22C
330
A
100
AcDbSymbolTableRecord
100
AcDbDimStyleTableRecord
  2
DIMSTYLE_3
 70
     0
 41
2.5
 42
0.75
 44
0.75
 47
0.5
 48
0.5
 73
     0
 74
     0
 77
     1
 78
     8
 79
     2
140
3.0
147
0.75
171
     1
178
     0
179
     2
271
     2
272
     2
284
     8
340
11
341
220
342
220
343
220
344
220
  0
DIMSTYLE
105
22D
330
A
100
AcDbSymbolTableRecord
100
AcDbDimStyleTableRecord
  2
DIMSTYLE_4
 70
     0
 41
2.5
 42
0.75
 44
0.75
 47
0.2
 48
0.2
 73
     0
 74
     0
 77
     1
 78
     8
 79
     2
140
3.0
147
0.75
171
     1
178
     0
179
     2
271
     2
272
     2
284
     8
340
11
341
220
342
220
343
220
344
220
  0
ENDTAB
  0
TABLE
  2
BLOCK_RECORD
  5
1
330
0
100
AcDbSymbolTable
 70
     9
  0
BLOCK_RECORD
  5
1F
330
1
100
AcDbSymbolTableRecord
100
AcDbBlockTableRecord
  2
*MODEL_SPACE
340
56C
 70
     0
280
     1
281
     0
  0
BLOCK_RECORD
  5
1B
330
1
100
AcDbSymbolTableRecord
100
AcDbBlockTableRecord
  2
*PAPER_SPACE
340
56D
 70
     0
280
     1
281
     0
  0
BLOCK_RECORD
  5
220
330
1
100
AcDbSymbolTableRecord
100
AcDbBlockTableRecord
  2
_CLOSED
340
0
102
{BLKREFS
331
280
331
281
331
289
331
28A
331
294
331
295
331
29D
331
29E
331
2A6
331
2A7
331
2AF
331
2B0
102
}
 70
     0
280
     1
281
     0
  0
BLOCK_RECORD
  5
221
330
1
100
AcDbSymbolTableRecord
100
AcDbBlockTableRecord
  2
*D1
340
0
 70
     0
280
     1
281
     0
  0
BLOCK_RECORD
  5
222
330
1
100
AcDbSymbolTableRecord
100
AcDbBlockTableRecord
  2
*D2
340
0
 70
     0
280
     1
281
     0
  0
BLOCK_RECORD
  5
223
330
1
100
AcDbSymbolTableRecord
100
AcDbBlockTableRecord
  2
*D3
340
0
 70
     0
280
     1
281
     0
  0
BLOCK_RECORD
  5
224
330
1
100
AcDbSymbolTableRecord
100
AcDbBlockTableRecord
  2
*D4
340
0
 70
     0
280
     1
281
     0
  0
BLOCK_RECORD
  5
225
330
1
100
AcDbSymbolTableRecord
100
AcDbBlockTableRecord
  2
*D5
340
0
 70
     0
280
     1
281
     0
  0
BLOCK_RECORD
  5
226
330
1
100
AcDbSymbolTableRecord
100
AcDbBlockTableRecord
  2
*D6
340
0
 70
     0
280
     1
281
     0
  0
BLOCK_RECORD
  5
227
330
1
100
AcDbSymbolTableRecord
100
AcDbBlockTableRecord
  2
LOGO2_BL1
340
0
102
{BLKREFS
331
530
102
}
 70
     0
280
     1
281
     0
  0
BLOCK_RECORD
  5
228
330
1
100
AcDbSymbolTableRecord
100
AcDbBlockTableRecord
  2
PROIEZIONE_EU_BL0
340
0
102
{BLKREFS
331
52D
102
}
 70
     0
280
     1
281
     0
  0
ENDTAB
  0
ENDSEC
  0
SECTION
  2
BLOCKS
  0
BLOCK
  5
20
330
1F
100
AcDbEntity
  8
0
100
AcDbBlockBegin
  2
*MODEL_SPACE
 70
     0
 10
0.0
 20
0.0
 30
0.0
  3
*MODEL_SPACE
  1

  0
ENDBLK
  5
21
330
1F
100
AcDbEntity
  8
0
100
AcDbBlockEnd
  0
BLOCK
  5
1C
330
1B
100
AcDbEntity
 67
     1
  8
0
100
AcDbBlockBegin
  2
*PAPER_SPACE
 70
     0
 10
0.0
 20
0.0
 30
0.0
  3
*PAPER_SPACE
  1

  0
ENDBLK
  5
1D
330
1B
100
AcDbEntity
 67
     1
  8
0
100
AcDbBlockEnd
  0
BLOCK
  5
274
330
220
100
AcDbEntity
  8
0
100
AcDbBlockBegin
  2
_CLOSED
 70
     0
 10
0.0
 20
0.0
 30
0.0
  3
_CLOSED
  1

  0
LINE
  5
275
330
220
100
AcDbEntity
  8
0
  6
ByBlock
 62
     0
100
AcDbLine
 10
0.0
 20
0.0
 30
0.0
 11
-1.0
 21
0.2
 31
0.0
  0
LINE
  5
276
330
220
100
AcDbEntity
  8
0
  6
ByBlock
 62
     0
100
AcDbLine
 10
-1.0
 20
0.2
 30
0.0
 11
-1.0
 21
-0.2
 31
0.0
  0
LINE
  5
277
330
220
100
AcDbEntity
  8
0
  6
ByBlock
 62
     0
100
AcDbLine
 10
-1.0
 20
-0.2
 30
0.0
 11
0.0
 21
0.0
 31
0.0
  0
LINE
  5
278
330
220
100
AcDbEntity
  8
0
  6
ByBlock
 62
     0
100
AcDbLine
 10
-1.0
 20
0.0
 30
0.0
 11
0.0
 21
0.0
 31
0.0
  0
ENDBLK
  5
279
330
220
100
AcDbEntity
  8
0
  6
ByBlock
 62
     0
100
AcDbBlockEnd
  0
BLOCK
  5
27A
330
221
100
AcDbEntity
  8
0
100
AcDbBlockBegin
  2
*D1
 70
     1
 10
0.0
 20
0.0
 30
0.0
  3
*D1
  1

  0
MTEXT
  5
27B
330
221
100
AcDbEntity
  8
0
  6
Continuous
 62
     2
100
AcDbMText
 10
121.8752547149
 20
408.1363044425
 30
0.0
 40
3.0
 41
6.9925650558
 46
0.0
 71
     2
 72
     1
  1
105
 73
     1
 44
1.0
  0
LINE
  5
27C
330
221
100
AcDbEntity
  8
0
  6
Continuous
 62
     2
100
AcDbLine
 10
69.3752547149
 20
397.0080474745
 30
0.0
 11
69.3752547149
 21
405.1363044425
 31
0.0
  0
LINE
  5
27D
330
221
100
AcDbEntity
  8
0
  6
Continuous
 62
     2
100
AcDbLine
 10
174.3752547149
 20
396.4516887981
 30
0.0
 11
174.3752547149
 21
405.1363044425
 31
0.0
  0
LINE
  5
27E
330
221
100
AcDbEntity
  8
0
  6
Continuous
 62
     2
100
AcDbLine
 10
69.3752547149
 20
404.3863044425
 30
0.0
 11
121.8752547149
 21
404.3863044425
 31
0.0
  0
LINE
  5
27F
330
221
100
AcDbEntity
  8
0
  6
Continuous
 62
     2
100
AcDbLine
 10
174.3752547149
 20
404.3863044425
 30
0.0
 11
121.8752547149
 21
404.3863044425
 31
0.0
  0
INSERT
  5
280
330
221
100
AcDbEntity
  8
0
  6
Continuous
 62
     2
100
AcDbBlockReference
  2
_CLOSED
 10
69.3752547149
 20
404.3863044425
 30
0.0
 41
2.5
 42
2.5
 43
2.5
 50
180.0
  0
INSERT
  5
281
330
221
100
AcDbEntity
  8
0
  6
Continuous
 62
     2
100
AcDbBlockReference
  2
_CLOSED
 10
174.3752547149
 20
404.3863044425
 30
0.0
 41
2.5
 42
2.5
 43
2.5
  0
ENDBLK
  5
282
330
221
100
AcDbEntity
  8
0
  6
ByBlock
 62
     0
100
AcDbBlockEnd
  0
BLOCK
  5
283
330
222
100
AcDbEntity
  8
0
100
AcDbBlockBegin
  2
*D2
 70
     1
 10
0.0
 20
0.0
 30
0.0
  3
*D2
  1

  0
MTEXT
  5
284
330
222
100
AcDbEntity
  8
0
  6
Continuous
 62
     2
100
AcDbMText
 10
51.9608215183
 20
341.8635367395
 30
0.0
 40
3.0
 41
6.9925650558
 46
0.0
 71
     2
 72
     1
  1
105
 11
0.0
 21
1.0
 31
0.0
 73
     1
 44
1.0
  0
LINE
  5
285
330
222
100
AcDbEntity
  8
0
  6
Continuous
 62
     2
100
AcDbLine
 10
63.9489505977
 20
394.3635367395
 30
0.0
 11
54.9608215183
 21
394.3635367395
 31
0.0
  0
LINE
  5
286
330
222
100
AcDbEntity
  8
0
  6
Continuous
 62
     2
100
AcDbLine
 10
65.3398472888
 20
289.3635367395
 30
0.0
 11
54.9608215183
 21
289.3635367395
 31
0.0
  0
LINE
  5
287
330
222
100
AcDbEntity
  8
0
  6
Continuous
 62
     2
100
AcDbLine
 10
55.7108215183
 20
394.3635367395
 30
0.0
 11
55.7108215183
 21
341.8635367395
 31
0.0
  0
LINE
  5
288
330
222
100
AcDbEntity
  8
0
  6
Continuous
 62
     2
100
AcDbLine
 10
55.7108215183
 20
289.3635367395
 30
0.0
 11
55.7108215183
 21
341.8635367395
 31
0.0
  0
INSERT
  5
289
330
222
100
AcDbEntity
  8
0
  6
Continuous
 62
     2
100
AcDbBlockReference
  2
_CLOSED
 10
55.7108215183
 20
394.3635367395
 30
0.0
 41
2.5
 42
2.5
 43
2.5
 50
90.0
  0
INSERT
  5
28A
330
222
100
AcDbEntity
  8
0
  6
Continuous
 62
     2
100
AcDbBlockReference
  2
_CLOSED
 10
55.7108215183
 20
289.3635367395
 30
0.0
 41
2.5
 42
2.5
 43
2.5
 50
270.0
  0
ENDBLK
  5
28B
330
222
100
AcDbEntity
  8
0
  6
ByBlock
 62
     0
100
AcDbBlockEnd
  0
BLOCK
  5
28C
330
223
100
AcDbEntity
  8
0
100
AcDbBlockBegin
  2
*D3
 70
     1
 10
0.0
 20
0.0
 30
0.0
  3
*D3
  1

  0
MTEXT
  5
28D
330
223
100
AcDbEntity
  8
0
  6
Continuous
 62
     2
100
AcDbMText
 10
51.636270456
 20
141.3168332978
 30
0.0
 40
3.0
 41
2.3308550186
 46
0.0
 71
     2
 72
     1
  1
4
 11
0.0
 21
1.0
 31
0.0
 73
     1
 44
1.0
  0
LINE
  5
28E
330
223
100
AcDbEntity
  8
0
  6
Continuous
 62
     2
100
AcDbLine
 10
66.4465468599
 20
139.3168332978
 30
0.0
 11
54.636270456
 21
139.3168332978
 31
0.0
  0
LINE
  5
28F
330
223
100
AcDbEntity
  8
0
  6
Continuous
 62
     2
100
AcDbLine
 10
66.4465468599
 20
143.3168332978
 30
0.0
 11
54.636270456
 21
143.3168332978
 31
0.0
  0
LINE
  5
290
330
223
100
AcDbEntity
  8
0
  6
Continuous
 62
     2
100
AcDbLine
 10
55.386270456
 20
139.3168332978
 30
0.0
 11
55.386270456
 21
138.3168332978
 31
0.0
  0
LINE
  5
291
330
223
100
AcDbEntity
  8
0
  6
Continuous
 62
     2
100
AcDbLine
 10
55.386270456
 20
138.3168332978
 30
0.0
 11
55.386270456
 21
141.3168332978
 31
0.0
  0
LINE
  5
292
330
223
100
AcDbEntity
  8
0
  6
Continuous
 62
     2
100
AcDbLine
 10
55.386270456
 20
143.3168332978
 30
0.0
 11
55.386270456
 21
144.3168332978
 31
0.0
  0
LINE
  5
293
330
223
100
AcDbEntity
  8
0
  6
Continuous
 62
     2
100
AcDbLine
 10
55.386270456
 20
144.3168332978
 30
0.0
 11
55.386270456
 21
141.3168332978
 31
0.0
  0
INSERT
  5
294
330
223
100
AcDbEntity
  8
0
  6
Continuous
 62
     2
100
AcDbBlockReference
  2
_CLOSED
 10
55.386270456
 20
139.3168332978
 30
0.0
 41
2.5
 42
2.5
 43
2.5
 50
90.0
  0
INSERT
  5
295
330
223
100
AcDbEntity
  8
0
  6
Continuous
 62
     2
100
AcDbBlockReference
  2
_CLOSED
 10
55.386270456
 20
143.3168332978
 30
0.0
 41
2.5
 42
2.5
 43
2.5
 50
270.0
  0
ENDBLK
  5
296
330
223
100
AcDbEntity
  8
0
  6
ByBlock
 62
     0
100
AcDbBlockEnd
  0
BLOCK
  5
297
330
224
100
AcDbEntity
  8
0
100
AcDbBlockBegin
  2
*D4
 70
     1
 10
0.0
 20
0.0
 30
0.0
  3
*D4
  1

  0
MTEXT
  5
298
330
224
100
AcDbEntity
  8
0
  6
Continuous
 62
     2
100
AcDbMText
 10
51.636270456
 20
204.1985846492
 30
0.0
 40
3.0
 41
6.9925650558
 46
0.0
 71
     2
 72
     1
  1
125
 11
0.0
 21
1.0
 31
0.0
 73
     1
 44
1.0
  0
LINE
  5
299
330
224
100
AcDbEntity
  8
0
  6
Continuous
 62
     2
100
AcDbLine
 10
66.4465468599
 20
143.3168332978
 30
0.0
 11
54.636270456
 21
143.3168332978
 31
0.0
  0
LINE
  5
29A
330
224
100
AcDbEntity
  8
0
  6
Continuous
 62
     2
100
AcDbLine
 10
66.4465468599
 20
268.3168332978
 30
0.0
 11
54.636270456
 21
268.3168332978
 31
0.0
  0
LINE
  5
29B
330
224
100
AcDbEntity
  8
0
  6
Continuous
 62
     2
100
AcDbLine
 10
55.386270456
 20
143.3168332978
 30
0.0
 11
55.386270456
 21
205.8168332978
 31
0.0
  0
LINE
  5
29C
330
224
100
AcDbEntity
  8
0
  6
Continuous
 62
     2
100
AcDbLine
 10
55.386270456
 20
268.3168332978
 30
0.0
 11
55.386270456
 21
205.8168332978
 31
0.0
  0
INSERT
  5
29D
330
224
100
AcDbEntity
  8
0
  6
Continuous
 62
     2
100
AcDbBlockReference
  2
_CLOSED
 10
55.386270456
 20
143.3168332978
 30
0.0
 41
2.5
 42
2.5
 43
2.5
 50
270.0
  0
INSERT
  5
29E
330
224
100
AcDbEntity
  8
0
  6
Continuous
 62
     2
100
AcDbBlockReference
  2
_CLOSED
 10
55.386270456
 20
268.3168332978
 30
0.0
 41
2.5
 42
2.5
 43
2.5
 50
90.0
  0
ENDBLK
  5
29F
330
224
100
AcDbEntity
  8
0
  6
ByBlock
 62
     0
100
AcDbBlockEnd
  0
BLOCK
  5
2A0
330
225
100
AcDbEntity
  8
0
100
AcDbBlockBegin
  2
*D5
 70
     1
 10
0.0
 20
0.0
 30
0.0
  3
*D5
  1

  0
MTEXT
  5
2A1
330
225
100
AcDbEntity
  8
0
  6
Continuous
 62
     2
100
AcDbMText
 10
51.636270456
 20
273.6985846492
 30
0.0
 40
3.0
 41
4.6617100372
 46
0.0
 71
     2
 72
     1
  1
14
 11
0.0
 21
1.0
 31
0.0
 73
     1
 44
1.0
  0
LINE
  5
2A2
330
225
100
AcDbEntity
  8
0
  6
Continuous
 62
     2
100
AcDbLine
 10
66.4465468599
 20
268.3168332978
 30
0.0
 11
54.636270456
 21
268.3168332978
 31
0.0
  0
LINE
  5
2A3
330
225
100
AcDbEntity
  8
0
  6
Continuous
 62
     2
100
AcDbLine
 10
64.9728007185
 20
282.3168332978
 30
0.0
 11
54.636270456
 21
282.3168332978
 31
0.0
  0
LINE
  5
2A4
330
225
100
AcDbEntity
  8
0
  6
Continuous
 62
     2
100
AcDbLine
 10
55.386270456
 20
268.3168332978
 30
0.0
 11
55.386270456
 21
275.3168332978
 31
0.0
  0
LINE
  5
2A5
330
225
100
AcDbEntity
  8
0
  6
Continuous
 62
     2
100
AcDbLine
 10
55.386270456
 20
282.3168332978
 30
0.0
 11
55.386270456
 21
275.3168332978
 31
0.0
  0
INSERT
  5
2A6
330
225
100
AcDbEntity
  8
0
  6
Continuous
 62
     2
100
AcDbBlockReference
  2
_CLOSED
 10
55.386270456
 20
268.3168332978
 30
0.0
 41
2.5
 42
2.5
 43
2.5
 50
270.0
  0
INSERT
  5
2A7
330
225
100
AcDbEntity
  8
0
  6
Continuous
 62
     2
100
AcDbBlockReference
  2
_CLOSED
 10
55.386270456
 20
282.3168332978
 30
0.0
 41
2.5
 42
2.5
 43
2.5
 50
90.0
  0
ENDBLK
  5
2A8
330
225
100
AcDbEntity
  8
0
  6
ByBlock
 62
     0
100
AcDbBlockEnd
  0
BLOCK
  5
2A9
330
226
100
AcDbEntity
  8
0
100
AcDbBlockBegin
  2
*D6
 70
     1
 10
0.0
 20
0.0
 30
0.0
  3
*D6
  1

  0
MTEXT
  5
2AA
330
226
100
AcDbEntity
  8
0
  6
Continuous
 62
     2
100
AcDbMText
 10
187.459750706
 20
210.8168332978
 30
0.0
 40
3.0
 41
6.9925650558
 46
0.0
 71
     2
 72
     1
  1
143
 11
0.0
 21
1.0
 31
0.0
 73
     1
 44
1.0
  0
LINE
  5
2AB
330
226
100
AcDbEntity
  8
0
  6
Continuous
 62
     2
100
AcDbLine
 10
179.6450829542
 20
139.3168332978
 30
0.0
 11
191.959750706
 21
139.3168332978
 31
0.0
  0
LINE
  5
2AC
330
226
100
AcDbEntity
  8
0
  6
Continuous
 62
     2
100
AcDbLine
 10
178.478273096
 20
282.3168332978
 30
0.0
 11
191.959750706
 21
282.3168332978
 31
0.0
  0
LINE
  5
2AD
330
226
100
AcDbEntity
  8
0
  6
Continuous
 62
     2
100
AcDbLine
 10
191.209750706
 20
139.3168332978
 30
0.0
 11
191.209750706
 21
210.8168332978
 31
0.0
  0
LINE
  5
2AE
330
226
100
AcDbEntity
  8
0
  6
Continuous
 62
     2
100
AcDbLine
 10
191.209750706
 20
282.3168332978
 30
0.0
 11
191.209750706
 21
210.8168332978
 31
0.0
  0
INSERT
  5
2AF
330
226
100
AcDbEntity
  8
0
  6
Continuous
 62
     2
100
AcDbBlockReference
  2
_CLOSED
 10
191.209750706
 20
139.3168332978
 30
0.0
 41
2.5
 42
2.5
 43
2.5
 50
270.0
  0
INSERT
  5
2B0
330
226
100
AcDbEntity
  8
0
  6
Continuous
 62
     2
100
AcDbBlockReference
  2
_CLOSED
 10
191.209750706
 20
282.3168332978
 30
0.0
 41
2.5
 42
2.5
 43
2.5
 50
90.0
  0
ENDBLK
  5
2B1
330
226
100
AcDbEntity
  8
0
  6
ByBlock
 62
     0
100
AcDbBlockEnd
  0
BLOCK
  5
22E
330
227
100
AcDbEntity
  8
0
100
AcDbBlockBegin
  2
LOGO2_BL1
 70
     0
 10
471.9549736467
 20
37.011648874
 30
0.0
  3
LOGO2_BL1
  1

  0
LINE
  5
22F
330
227
100
AcDbEntity
  8
0
  6
Continuous
 62
     7
100
AcDbLine
 10
463.6978988749
 20
40.2071402129
 30
0.0
 11
462.3935579455
 21
40.2071402129
 31
0.0
  0
LINE
  5
230
330
227
100
AcDbEntity
  8
0
  6
Continuous
 62
     7
100
AcDbLine
 10
462.3935579455
 20
40.2071402129
 30
0.0
 11
462.3935579455
 21
29.748074153
 31
0.0
  0
LINE
  5
231
330
227
100
AcDbEntity
  8
0
  6
Continuous
 62
     7
100
AcDbLine
 10
462.3935579455
 20
29.748074153
 30
0.0
 11
466.8746128338
 21
29.748074153
 31
0.0
  0
LINE
  5
232
330
227
100
AcDbEntity
  8
0
  6
Continuous
 62
     7
100
AcDbLine
 10
466.8746128338
 20
29.748074153
 30
0.0
 11
466.8746128338
 21
30.9409284781
 31
0.0
  0
LINE
  5
233
330
227
100
AcDbEntity
  8
0
  6
Continuous
 62
     7
100
AcDbLine
 10
466.8746128338
 20
30.9409284781
 30
0.0
 11
463.6978988749
 21
30.9409284781
 31
0.0
  0
LINE
  5
234
330
227
100
AcDbEntity
  8
0
  6
Continuous
 62
     7
100
AcDbLine
 10
463.6978988749
 20
30.9409284781
 30
0.0
 11
463.6978988749
 21
40.2071402129
 31
0.0
  0
LINE
  5
235
330
227
100
AcDbEntity
  8
0
  6
Continuous
 62
     7
100
AcDbLine
 10
478.6342250912
 20
40.2071402129
 30
0.0
 11
477.3304075731
 21
40.2071402129
 31
0.0
  0
LINE
  5
236
330
227
100
AcDbEntity
  8
0
  6
Continuous
 62
     7
100
AcDbLine
 10
477.3304075731
 20
40.2071402129
 30
0.0
 11
477.3304075731
 21
29.748074153
 31
0.0
  0
LINE
  5
237
330
227
100
AcDbEntity
  8
0
  6
Continuous
 62
     7
100
AcDbLine
 10
477.3304075731
 20
29.748074153
 30
0.0
 11
481.8115933142
 21
29.748074153
 31
0.0
  0
LINE
  5
238
330
227
100
AcDbEntity
  8
0
  6
Continuous
 62
     7
100
AcDbLine
 10
481.8115933142
 20
29.748074153
 30
0.0
 11
481.8115933142
 21
30.9409284781
 31
0.0
  0
LINE
  5
239
330
227
100
AcDbEntity
  8
0
  6
Continuous
 62
     7
100
AcDbLine
 10
481.8115933142
 20
30.9409284781
 30
0.0
 11
478.6342250912
 21
30.9409284781
 31
0.0
  0
LINE
  5
23A
330
227
100
AcDbEntity
  8
0
  6
Continuous
 62
     7
100
AcDbLine
 10
478.6342250912
 20
30.9409284781
 30
0.0
 11
478.6342250912
 21
40.2071402129
 31
0.0
  0
LWPOLYLINE
  5
23B
330
227
100
AcDbEntity
  8
0
  6
Continuous
 62
     7
100
AcDbPolyline
 90
        2
 70
     0
 43
0.2
 10
460.7479528564
 20
26.4045228461
 10
460.7479528564
 20
24.5474595968
  0
LWPOLYLINE
  5
23C
330
227
100
AcDbEntity
  8
0
  6
Continuous
 62
     7
100
AcDbPolyline
 90
        2
 70
     0
 43
0.2
 10
460.7479528564
 20
24.5474595968
 10
461.5436688668
 20
24.5474595968
  0
LWPOLYLINE
  5
23D
330
227
100
AcDbEntity
  8
0
  6
Continuous
 62
     7
100
AcDbPolyline
 90
        2
 70
     0
 43
0.2
 10
461.5436688668
 20
24.5474595968
 10
461.5436688668
 20
24.7594411683
  0
LWPOLYLINE
  5
23E
330
227
100
AcDbEntity
  8
0
  6
Continuous
 62
     7
100
AcDbPolyline
 90
        2
 70
     0
 43
0.2
 10
461.5436688668
 20
24.7594411683
 10
460.9795623513
 20
24.7594411683
  0
LWPOLYLINE
  5
23F
330
227
100
AcDbEntity
  8
0
  6
Continuous
 62
     7
100
AcDbPolyline
 90
        2
 70
     0
 43
0.2
 10
460.9795623513
 20
24.7594411683
 10
460.9795623513
 20
26.4045228461
  0
LWPOLYLINE
  5
240
330
227
100
AcDbEntity
  8
0
  6
Continuous
 62
     7
100
AcDbPolyline
 90
        2
 70
     0
 43
0.2
 10
460.9795623513
 20
26.4045228461
 10
460.7479528564
 20
26.4045228461
  0
SPLINE
  5
241
330
227
100
AcDbEntity
  8
0
  6
Continuous
 62
     7
100
AcDbSpline
 70
     3
 71
     3
 72
    35
 73
    31
 74
     0
 42
0.000000001
 43
0.0000001
 40
0.0
 40
0.0
 40
0.0
 40
0.0
 40
1.0
 40
1.0
 40
1.0
 40
2.0
 40
2.0
 40
2.0
 40
3.0
 40
3.0
 40
3.0
 40
4.0
 40
4.0
 40
4.0
 40
5.0
 40
5.0
 40
5.0
 40
6.0
 40
6.0
 40
6.0
 40
7.0
 40
7.0
 40
7.0
 40
8.0
 40
8.0
 40
8.0
 40
9.0
 40
9.0
 40
9.0
 40
10.0
 40
10.0
 40
10.0
 40
10.0
 10
462.9419621224
 20
25.7000112527
 30
0.0
 10
462.9419621224
 20
25.7000112527
 30
0.0
 10
462.9419621224
 20
25.0378959735
 30
0.0
 10
462.9419621224
 20
25.0378959735
 30
0.0
 10
462.9419621224
 20
24.7228023782
 30
0.0
 10
463.0898258112
 20
24.5082037502
 30
0.0
 10
463.4299122955
 20
24.5082037502
 30
0.0
 10
463.7694753685
 20
24.5082037502
 30
0.0
 10
463.917600763
 20
24.7228023782
 30
0.0
 10
463.917600763
 20
25.0378959735
 30
0.0
 10
463.917600763
 20
25.0378959735
 30
0.0
 10
463.917600763
 20
25.7000112527
 30
0.0
 10
463.917600763
 20
25.7000112527
 30
0.0
 10
463.917600763
 20
25.7000112527
 30
0.0
 10
463.6955435241
 20
25.7000112527
 30
0.0
 10
463.6955435241
 20
25.7000112527
 30
0.0
 10
463.6955435241
 20
25.7000112527
 30
0.0
 10
463.6955435241
 20
25.0630197153
 30
0.0
 10
463.6955435241
 20
25.0630197153
 30
0.0
 10
463.6955435241
 20
24.8772087081
 30
0.0
 10
463.6488290666
 20
24.7144277976
 30
0.0
 10
463.4299122955
 20
24.7144277976
 30
0.0
 10
463.2104721131
 20
24.7144277976
 30
0.0
 10
463.1637576556
 20
24.8772087081
 30
0.0
 10
463.1637576556
 20
25.0630197153
 30
0.0
 10
463.1637576556
 20
25.0630197153
 30
0.0
 10
463.1637576556
 20
25.7000112527
 30
0.0
 10
463.1637576556
 20
25.7000112527
 30
0.0
 10
463.1637576556
 20
25.7000112527
 30
0.0
 10
462.9419621224
 20
25.7000112527
 30
0.0
 10
462.9419621224
 20
25.7000112527
 30
0.0
  0
SPLINE
  5
242
330
227
100
AcDbEntity
  8
0
  6
Continuous
 62
     7
100
AcDbSpline
 70
     3
 71
     3
 72
    35
 73
    31
 74
     0
 42
0.000000001
 43
0.0000001
 40
0.0
 40
0.0
 40
0.0
 40
0.0
 40
1.0
 40
1.0
 40
1.0
 40
2.0
 40
2.0
 40
2.0
 40
3.0
 40
3.0
 40
3.0
 40
4.0
 40
4.0
 40
4.0
 40
5.0
 40
5.0
 40
5.0
 40
6.0
 40
6.0
 40
6.0
 40
7.0
 40
7.0
 40
7.0
 40
8.0
 40
8.0
 40
8.0
 40
9.0
 40
9.0
 40
9.0
 40
10.0
 40
10.0
 40
10.0
 40
10.0
 10
466.3407333202
 20
25.6586617609
 30
0.0
 10
466.2522768125
 20
25.7099560671
 30
0.0
 10
466.1388274159
 20
25.7350798089
 30
0.0
 10
466.0351919809
 20
25.7350798089
 30
0.0
 10
465.6803191277
 20
25.7350798089
 30
0.0
 10
465.4048739374
 20
25.4712805199
 30
0.0
 10
465.4048739374
 20
25.1137906102
 30
0.0
 10
465.4048739374
 20
24.7688625715
 30
0.0
 10
465.6833287426
 20
24.5087271615
 30
0.0
 10
466.0228918156
 20
24.5087271615
 30
0.0
 10
466.1388274159
 20
24.5087271615
 30
0.0
 10
466.2395840888
 20
24.5307104355
 30
0.0
 10
466.3407333202
 20
24.5846217982
 30
0.0
 10
466.3407333202
 20
24.5846217982
 30
0.0
 10
466.3407333202
 20
24.8672638937
 30
0.0
 10
466.3407333202
 20
24.8672638937
 30
0.0
 10
466.2568566613
 20
24.7740966844
 30
0.0
 10
466.1533520791
 20
24.7149512089
 30
0.0
 10
466.0252471664
 20
24.7149512089
 30
0.0
 10
465.7915440264
 20
24.7149512089
 30
0.0
 10
465.6262769122
 20
24.8871535226
 30
0.0
 10
465.6262769122
 20
25.1237354247
 30
0.0
 10
465.6262769122
 20
25.3357169963
 30
0.0
 10
465.79403023
 20
25.5278089389
 30
0.0
 10
466.010853356
 20
25.5278089389
 30
0.0
 10
466.1436689703
 20
25.5278089389
 30
0.0
 10
466.2522768125
 20
25.4738975763
 30
0.0
 10
466.3407333202
 20
25.3728791977
 30
0.0
 10
466.3407333202
 20
25.3728791977
 30
0.0
 10
466.3407333202
 20
25.6586617609
 30
0.0
 10
466.3407333202
 20
25.6586617609
 30
0.0
  0
SPLINE
  5
243
330
227
100
AcDbEntity
  8
0
  6
Continuous
 62
     7
100
AcDbSpline
 70
     3
 71
     3
 72
    32
 73
    28
 74
     0
 42
0.000000001
 43
0.0000001
 40
0.0
 40
0.0
 40
0.0
 40
0.0
 40
1.0
 40
1.0
 40
1.0
 40
2.0
 40
2.0
 40
2.0
 40
3.0
 40
3.0
 40
3.0
 40
4.0
 40
4.0
 40
4.0
 40
5.0
 40
5.0
 40
5.0
 40
6.0
 40
6.0
 40
6.0
 40
7.0
 40
7.0
 40
7.0
 40
8.0
 40
8.0
 40
8.0
 40
9.0
 40
9.0
 40
9.0
 40
9.0
 10
468.8726045724
 20
25.0870966346
 30
0.0
 10
468.8726045724
 20
25.0870966346
 30
0.0
 10
468.8726045724
 20
25.1211183683
 30
0.0
 10
468.8726045724
 20
25.1211183683
 30
0.0
 10
468.8726045724
 20
25.4634293505
 30
0.0
 10
468.6997479946
 20
25.7350798089
 30
0.0
 10
468.3330983874
 20
25.7350798089
 30
0.0
 10
467.961476373
 20
25.7350798089
 30
0.0
 10
467.7717397812
 20
25.4686634634
 30
0.0
 10
467.7717397812
 20
25.1137906102
 30
0.0
 10
467.7717397812
 20
24.7740966844
 30
0.0
 10
467.9858149979
 20
24.5082037502
 30
0.0
 10
468.3379399418
 20
24.5082037502
 30
0.0
 10
468.5619599731
 20
24.5082037502
 30
0.0
 10
468.764127583
 20
24.6238776448
 30
0.0
 10
468.8726045724
 20
24.8232973455
 30
0.0
 10
468.8726045724
 20
24.8232973455
 30
0.0
 10
468.6849616257
 20
24.9300732482
 30
0.0
 10
468.6849616257
 20
24.9300732482
 30
0.0
 10
468.6014775253
 20
24.7913692569
 30
0.0
 10
468.5102731084
 20
24.7055298057
 30
0.0
 10
468.3406878511
 20
24.7055298057
 30
0.0
 10
468.1287062795
 20
24.7055298057
 30
0.0
 10
467.9957598124
 20
24.8902939903
 30
0.0
 10
467.9934044616
 20
25.0870966346
 30
0.0
 10
467.9934044616
 20
25.0870966346
 30
0.0
 10
468.8726045724
 20
25.0870966346
 30
0.0
 10
468.8726045724
 20
25.0870966346
 30
0.0
  0
SPLINE
  5
244
330
227
100
AcDbEntity
  8
0
  6
Continuous
 62
     7
100
AcDbSpline
 70
     3
 71
     3
 72
    14
 73
    10
 74
     0
 42
0.000000001
 43
0.0000001
 40
0.0
 40
0.0
 40
0.0
 40
0.0
 40
1.0
 40
1.0
 40
1.0
 40
2.0
 40
2.0
 40
2.0
 40
3.0
 40
3.0
 40
3.0
 40
3.0
 10
468.0054429212
 20
25.2545882467
 30
0.0
 10
468.0330528667
 20
25.4194628024
 30
0.0
 10
468.1608960737
 20
25.542464455
 30
0.0
 10
468.3330983874
 20
25.542464455
 30
0.0
 10
468.5102731084
 20
25.542464455
 30
0.0
 10
468.623722505
 20
25.4267905604
 30
0.0
 10
468.650939892
 20
25.2545882467
 30
0.0
 10
468.650939892
 20
25.2545882467
 30
0.0
 10
468.0054429212
 20
25.2545882467
 30
0.0
 10
468.0054429212
 20
25.2545882467
 30
0.0
  0
SPLINE
  5
245
330
227
100
AcDbEntity
  8
0
  6
Continuous
 62
     7
100
AcDbSpline
 70
     3
 71
     3
 72
    20
 73
    16
 74
     0
 42
0.000000001
 43
0.0000001
 40
0.0
 40
0.0
 40
0.0
 40
0.0
 40
1.0
 40
1.0
 40
1.0
 40
2.0
 40
2.0
 40
2.0
 40
3.0
 40
3.0
 40
3.0
 40
4.0
 40
4.0
 40
4.0
 40
5.0
 40
5.0
 40
5.0
 40
5.0
 10
470.8966360226
 20
25.4639527618
 30
0.0
 10
470.8966360226
 20
25.4639527618
 30
0.0
 10
471.3077755892
 20
24.9614779255
 30
0.0
 10
471.3077755892
 20
24.9614779255
 30
0.0
 10
471.1917091361
 20
24.8458040308
 30
0.0
 10
471.0539211146
 20
24.7154746202
 30
0.0
 10
470.8819805065
 20
24.7154746202
 30
0.0
 10
470.70454408
 20
24.7154746202
 30
0.0
 10
470.5370524678
 20
24.8798257646
 30
0.0
 10
470.5370524678
 20
25.0567387799
 30
0.0
 10
470.5370524678
 20
25.2346986177
 30
0.0
 10
470.7468095414
 20
25.3608407381
 30
0.0
 10
470.8743910429
 20
25.4487738345
 30
0.0
 10
470.8743910429
 20
25.4487738345
 30
0.0
 10
470.8966360226
 20
25.4639527618
 30
0.0
 10
470.8966360226
 20
25.4639527618
 30
0.0
  0
SPLINE
  5
246
330
227
100
AcDbEntity
  8
0
  6
Continuous
 62
     7
100
AcDbSpline
 70
     3
 71
     3
 72
    23
 73
    19
 74
     0
 42
0.000000001
 43
0.0000001
 40
0.0
 40
0.0
 40
0.0
 40
0.0
 40
1.0
 40
1.0
 40
1.0
 40
2.0
 40
2.0
 40
2.0
 40
3.0
 40
3.0
 40
3.0
 40
4.0
 40
4.0
 40
4.0
 40
5.0
 40
5.0
 40
5.0
 40
6.0
 40
6.0
 40
6.0
 40
6.0
 10
470.9459675365
 20
25.7549694379
 30
0.0
 10
470.9459675365
 20
25.7549694379
 30
0.0
 10
470.8843358573
 20
25.8334811311
 30
0.0
 10
470.8843358573
 20
25.8334811311
 30
0.0
 10
470.8304244947
 20
25.9020480098
 30
0.0
 10
470.77363437
 20
25.9711382998
 30
0.0
 10
470.77363437
 20
26.0648289203
 30
0.0
 10
470.77363437
 20
26.1836432826
 30
0.0
 10
470.8695494885
 20
26.2611081532
 30
0.0
 10
470.9805126815
 20
26.2611081532
 30
0.0
 10
471.1037760398
 20
26.2611081532
 30
0.0
 10
471.1970741018
 20
26.1899242181
 30
0.0
 10
471.1970741018
 20
26.0595948074
 30
0.0
 10
471.1970741018
 20
25.9245546951
 30
0.0
 10
471.0689691891
 20
25.8481366471
 30
0.0
 10
470.9754094214
 20
25.7743356555
 30
0.0
 10
470.9754094214
 20
25.7743356555
 30
0.0
 10
470.9459675365
 20
25.7549694379
 30
0.0
 10
470.9459675365
 20
25.7549694379
 30
0.0
  0
SPLINE
  5
247
330
227
100
AcDbEntity
  8
0
  6
Continuous
 62
     7
100
AcDbSpline
 70
     3
 71
     3
 72
    50
 73
    46
 74
     0
 42
0.000000001
 43
0.0000001
 40
0.0
 40
0.0
 40
0.0
 40
0.0
 40
1.0
 40
1.0
 40
1.0
 40
2.0
 40
2.0
 40
2.0
 40
3.0
 40
3.0
 40
3.0
 40
4.0
 40
4.0
 40
4.0
 40
5.0
 40
5.0
 40
5.0
 40
6.0
 40
6.0
 40
6.0
 40
7.0
 40
7.0
 40
7.0
 40
8.0
 40
8.0
 40
8.0
 40
9.0
 40
9.0
 40
9.0
 40
10.0
 40
10.0
 40
10.0
 40
11.0
 40
11.0
 40
11.0
 40
12.0
 40
12.0
 40
12.0
 40
13.0
 40
13.0
 40
13.0
 40
14.0
 40
14.0
 40
14.0
 40
15.0
 40
15.0
 40
15.0
 40
15.0
 10
471.6481237792
 20
24.547983008
 30
0.0
 10
471.6481237792
 20
24.547983008
 30
0.0
 10
471.9335137839
 20
24.547983008
 30
0.0
 10
471.9335137839
 20
24.547983008
 30
0.0
 10
471.9335137839
 20
24.547983008
 30
0.0
 10
471.6011476161
 20
24.958860869
 30
0.0
 10
471.6011476161
 20
24.958860869
 30
0.0
 10
471.6011476161
 20
24.958860869
 30
0.0
 10
471.8276538509
 20
25.2247538033
 30
0.0
 10
471.8276538509
 20
25.2247538033
 30
0.0
 10
471.8276538509
 20
25.2247538033
 30
0.0
 10
471.6793976036
 20
25.3775898993
 30
0.0
 10
471.6793976036
 20
25.3775898993
 30
0.0
 10
471.6793976036
 20
25.3775898993
 30
0.0
 10
471.4634904474
 20
25.1263524811
 30
0.0
 10
471.4634904474
 20
25.1263524811
 30
0.0
 10
471.4634904474
 20
25.1263524811
 30
0.0
 10
471.0764278
 20
25.5942821725
 30
0.0
 10
471.0764278
 20
25.5942821725
 30
0.0
 10
471.2318809525
 20
25.7083858333
 30
0.0
 10
471.4141589335
 20
25.8481366471
 30
0.0
 10
471.4141589335
 20
26.0575011623
 30
0.0
 10
471.4141589335
 20
26.3014108224
 30
0.0
 10
471.2121221764
 20
26.4448255153
 30
0.0
 10
470.9856159415
 20
26.4448255153
 30
0.0
 10
470.7414445757
 20
26.4448255153
 30
0.0
 10
470.5570729496
 20
26.2940830644
 30
0.0
 10
470.5570729496
 20
26.0376115333
 30
0.0
 10
470.5570729496
 20
25.8800647357
 30
0.0
 10
470.6557359774
 20
25.742407567
 30
0.0
 10
470.761072499
 20
25.6314443739
 30
0.0
 10
470.761072499
 20
25.6314443739
 30
0.0
 10
470.6455294572
 20
25.5476985679
 30
0.0
 10
470.6455294572
 20
25.5476985679
 30
0.0
 10
470.467831325
 20
25.4194628024
 30
0.0
 10
470.3204910475
 20
25.2917504481
 30
0.0
 10
470.3204910475
 20
25.0546451347
 30
0.0
 10
470.3204910475
 20
24.7343174265
 30
0.0
 10
470.5790562237
 20
24.5082037502
 30
0.0
 10
470.8894391174
 20
24.5082037502
 30
0.0
 10
471.1083558885
 20
24.5082037502
 30
0.0
 10
471.3055510913
 20
24.633299048
 30
0.0
 10
471.4458253164
 20
24.7992204262
 30
0.0
 10
471.4458253164
 20
24.7992204262
 30
0.0
 10
471.6481237792
 20
24.547983008
 30
0.0
 10
471.6481237792
 20
24.547983008
 30
0.0
  0
LWPOLYLINE
  5
248
330
227
100
AcDbEntity
  8
0
  6
Continuous
 62
     7
100
AcDbPolyline
 90
        2
 70
     0
 43
0.2
 10
473.5835678689
 20
26.4045228461
 10
473.3522200796
 20
26.4045228461
  0
LWPOLYLINE
  5
249
330
227
100
AcDbEntity
  8
0
  6
Continuous
 62
     7
100
AcDbPolyline
 90
        2
 70
     0
 43
0.2
 10
473.3522200796
 20
26.4045228461
 10
473.3522200796
 20
24.5474595968
  0
LWPOLYLINE
  5
24A
330
227
100
AcDbEntity
  8
0
  6
Continuous
 62
     7
100
AcDbPolyline
 90
        2
 70
     0
 43
0.2
 10
473.3522200796
 20
24.5474595968
 10
474.1475435316
 20
24.5474595968
  0
LWPOLYLINE
  5
24B
330
227
100
AcDbEntity
  8
0
  6
Continuous
 62
     7
100
AcDbPolyline
 90
        2
 70
     0
 43
0.2
 10
474.1475435316
 20
24.5474595968
 10
474.1475435316
 20
24.7594411683
  0
LWPOLYLINE
  5
24C
330
227
100
AcDbEntity
  8
0
  6
Continuous
 62
     7
100
AcDbPolyline
 90
        2
 70
     0
 43
0.2
 10
474.1475435316
 20
24.7594411683
 10
473.5835678689
 20
24.7594411683
  0
LWPOLYLINE
  5
24D
330
227
100
AcDbEntity
  8
0
  6
Continuous
 62
     7
100
AcDbPolyline
 90
        2
 70
     0
 43
0.2
 10
473.5835678689
 20
24.7594411683
 10
473.5835678689
 20
26.4045228461
  0
LWPOLYLINE
  5
24E
330
227
100
AcDbEntity
  8
0
  6
Continuous
 62
     7
100
AcDbPolyline
 90
        2
 70
     0
 43
0.2
 10
475.8266469431
 20
25.7000112527
 10
475.6055056739
 20
25.7000112527
  0
LWPOLYLINE
  5
24F
330
227
100
AcDbEntity
  8
0
  6
Continuous
 62
     7
100
AcDbPolyline
 90
        2
 70
     0
 43
0.2
 10
475.6055056739
 20
25.7000112527
 10
475.6055056739
 20
24.547983008
  0
LWPOLYLINE
  5
250
330
227
100
AcDbEntity
  8
0
  6
Continuous
 62
     7
100
AcDbPolyline
 90
        2
 70
     0
 43
0.2
 10
475.6055056739
 20
24.547983008
 10
475.8266469431
 20
24.547983008
  0
LWPOLYLINE
  5
251
330
227
100
AcDbEntity
  8
0
  6
Continuous
 62
     7
100
AcDbPolyline
 90
        2
 70
     0
 43
0.2
 10
475.8266469431
 20
24.547983008
 10
475.8266469431
 20
25.7000112527
  0
LWPOLYLINE
  5
252
330
227
100
AcDbEntity
  8
0
  6
Continuous
 62
     7
100
AcDbPolyline
 90
        2
 70
     1
 43
0.2
 10
475.5636236658
 20
26.2299651816
 42
1.0
 10
475.8687906568
 20
26.2299651816
 42
1.0
  0
SPLINE
  5
253
330
227
100
AcDbEntity
  8
0
  6
Continuous
 62
     7
100
AcDbSpline
 70
     3
 71
     3
 72
    17
 73
    13
 74
     0
 42
0.000000001
 43
0.0000001
 40
0.0
 40
0.0
 40
0.0
 40
0.0
 40
1.0
 40
1.0
 40
1.0
 40
2.0
 40
2.0
 40
2.0
 40
3.0
 40
3.0
 40
3.0
 40
4.0
 40
4.0
 40
4.0
 40
4.0
 10
477.9569308847
 20
24.7055298057
 30
0.0
 10
477.722966039
 20
24.7055298057
 30
0.0
 10
477.5926366283
 20
24.9075665628
 30
0.0
 10
477.5926366283
 20
25.1237354247
 30
0.0
 10
477.5926366283
 20
25.3383340527
 30
0.0
 10
477.7284618575
 20
25.5372303421
 30
0.0
 10
477.9569308847
 20
25.5372303421
 30
0.0
 10
478.1963915489
 20
25.5372303421
 30
0.0
 10
478.3319550724
 20
25.3482788672
 30
0.0
 10
478.3319550724
 20
25.1237354247
 30
0.0
 10
478.3319550724
 20
24.8976217483
 30
0.0
 10
478.1987468997
 20
24.7055298057
 30
0.0
 10
477.9569308847
 20
24.7055298057
 30
0.0
  0
SPLINE
  5
254
330
227
100
AcDbEntity
  8
0
  6
Continuous
 62
     7
100
AcDbSpline
 70
     3
 71
     3
 72
    50
 73
    46
 74
     0
 42
0.000000001
 43
0.0000001
 40
0.0
 40
0.0
 40
0.0
 40
0.0
 40
1.0
 40
1.0
 40
1.0
 40
2.0
 40
2.0
 40
2.0
 40
3.0
 40
3.0
 40
3.0
 40
4.0
 40
4.0
 40
4.0
 40
5.0
 40
5.0
 40
5.0
 40
6.0
 40
6.0
 40
6.0
 40
7.0
 40
7.0
 40
7.0
 40
8.0
 40
8.0
 40
8.0
 40
9.0
 40
9.0
 40
9.0
 40
10.0
 40
10.0
 40
10.0
 40
11.0
 40
11.0
 40
11.0
 40
12.0
 40
12.0
 40
12.0
 40
13.0
 40
13.0
 40
13.0
 40
14.0
 40
14.0
 40
14.0
 40
15.0
 40
15.0
 40
15.0
 40
15.0
 10
478.5410578819
 20
25.7005346639
 30
0.0
 10
478.5410578819
 20
25.7005346639
 30
0.0
 10
478.3193932015
 20
25.7005346639
 30
0.0
 10
478.3193932015
 20
25.7005346639
 30
0.0
 10
478.3193932015
 20
25.7005346639
 30
0.0
 10
478.3193932015
 20
25.5032086084
 30
0.0
 10
478.3193932015
 20
25.5032086084
 30
0.0
 10
478.3193932015
 20
25.5032086084
 30
0.0
 10
478.3146824999
 20
25.5032086084
 30
0.0
 10
478.3146824999
 20
25.5032086084
 30
0.0
 10
478.2233472302
 20
25.64609989
 30
0.0
 10
478.0854283559
 20
25.7345563977
 30
0.0
 10
477.9127026309
 20
25.7345563977
 30
0.0
 10
477.5803364631
 20
25.7345563977
 30
0.0
 10
477.3712336536
 20
25.4466801893
 30
0.0
 10
477.3712336536
 20
25.1310631827
 30
0.0
 10
477.3712336536
 20
24.8013140714
 30
0.0
 10
477.5682980034
 20
24.5082037502
 30
0.0
 10
477.9231708566
 20
24.5082037502
 30
0.0
 10
478.0854283559
 20
24.5082037502
 30
0.0
 10
478.2254408754
 20
24.5966602578
 30
0.0
 10
478.3146824999
 20
24.7275130798
 30
0.0
 10
478.3146824999
 20
24.7275130798
 30
0.0
 10
478.3193932015
 20
24.7275130798
 30
0.0
 10
478.3193932015
 20
24.7275130798
 30
0.0
 10
478.3193932015
 20
24.7275130798
 30
0.0
 10
478.3193932015
 20
24.5082037502
 30
0.0
 10
478.3193932015
 20
24.5082037502
 30
0.0
 10
478.3193932015
 20
24.2716218481
 30
0.0
 10
478.2628647824
 20
24.0847640183
 30
0.0
 10
477.9896440902
 20
24.0847640183
 30
0.0
 10
477.7873456274
 20
24.0847640183
 30
0.0
 10
477.6447160515
 20
24.2030549693
 30
0.0
 10
477.6447160515
 20
24.4092790168
 30
0.0
 10
477.6447160515
 20
24.4092790168
 30
0.0
 10
477.4230513711
 20
24.4092790168
 30
0.0
 10
477.4230513711
 20
24.4092790168
 30
0.0
 10
477.4280237783
 20
24.0847640183
 30
0.0
 10
477.6591098619
 20
23.887961374
 30
0.0
 10
477.9794375701
 20
23.887961374
 30
0.0
 10
478.4274776325
 20
23.887961374
 30
0.0
 10
478.5410578819
 20
24.1732205259
 30
0.0
 10
478.5410578819
 20
24.5699662821
 30
0.0
 10
478.5410578819
 20
24.5699662821
 30
0.0
 10
478.5410578819
 20
25.7005346639
 30
0.0
 10
478.5410578819
 20
25.7005346639
 30
0.0
  0
SPLINE
  5
255
330
227
100
AcDbEntity
  8
0
  6
Continuous
 62
     7
100
AcDbSpline
 70
     3
 71
     3
 72
    44
 73
    40
 74
     0
 42
0.000000001
 43
0.0000001
 40
0.0
 40
0.0
 40
0.0
 40
0.0
 40
1.0
 40
1.0
 40
1.0
 40
2.0
 40
2.0
 40
2.0
 40
3.0
 40
3.0
 40
3.0
 40
4.0
 40
4.0
 40
4.0
 40
5.0
 40
5.0
 40
5.0
 40
6.0
 40
6.0
 40
6.0
 40
7.0
 40
7.0
 40
7.0
 40
8.0
 40
8.0
 40
8.0
 40
9.0
 40
9.0
 40
9.0
 40
10.0
 40
10.0
 40
10.0
 40
11.0
 40
11.0
 40
11.0
 40
12.0
 40
12.0
 40
12.0
 40
13.0
 40
13.0
 40
13.0
 40
13.0
 10
480.1099832173
 20
26.6855947077
 30
0.0
 10
480.1099832173
 20
26.6855947077
 30
0.0
 10
480.1099832173
 20
24.5474595968
 30
0.0
 10
480.1099832173
 20
24.5474595968
 30
0.0
 10
480.1099832173
 20
24.5474595968
 30
0.0
 10
480.3313861921
 20
24.5474595968
 30
0.0
 10
480.3313861921
 20
24.5474595968
 30
0.0
 10
480.3313861921
 20
24.5474595968
 30
0.0
 10
480.3313861921
 20
25.0771518201
 30
0.0
 10
480.3313861921
 20
25.0771518201
 30
0.0
 10
480.3313861921
 20
25.2870397465
 30
0.0
 10
480.3313861921
 20
25.5377537534
 30
0.0
 10
480.616645344
 20
25.5377537534
 30
0.0
 10
480.8435441373
 20
25.5377537534
 30
0.0
 10
480.8704998186
 20
25.4048072863
 30
0.0
 10
480.8704998186
 20
25.2085280533
 30
0.0
 10
480.8704998186
 20
25.2085280533
 30
0.0
 10
480.8704998186
 20
24.5474595968
 30
0.0
 10
480.8704998186
 20
24.5474595968
 30
0.0
 10
480.8704998186
 20
24.5474595968
 30
0.0
 10
481.0924262047
 20
24.5474595968
 30
0.0
 10
481.0924262047
 20
24.5474595968
 30
0.0
 10
481.0924262047
 20
24.5474595968
 30
0.0
 10
481.0924262047
 20
25.2346986177
 30
0.0
 10
481.0924262047
 20
25.2346986177
 30
0.0
 10
481.0924262047
 20
25.515247068
 30
0.0
 10
481.008418693
 20
25.7350798089
 30
0.0
 10
480.6833802832
 20
25.7350798089
 30
0.0
 10
480.5436294693
 20
25.7350798089
 30
0.0
 10
480.4054488893
 20
25.6686065754
 30
0.0
 10
480.3360968937
 20
25.5456049227
 30
0.0
 10
480.3360968937
 20
25.5456049227
 30
0.0
 10
480.3313861921
 20
25.5456049227
 30
0.0
 10
480.3313861921
 20
25.5456049227
 30
0.0
 10
480.3313861921
 20
25.5456049227
 30
0.0
 10
480.3313861921
 20
26.6855947077
 30
0.0
 10
480.3313861921
 20
26.6855947077
 30
0.0
 10
480.3313861921
 20
26.6855947077
 30
0.0
 10
480.1099832173
 20
26.6855947077
 30
0.0
 10
480.1099832173
 20
26.6855947077
 30
0.0
  0
LWPOLYLINE
  5
256
330
227
100
AcDbEntity
  8
0
  6
Continuous
 62
     7
100
AcDbPolyline
 90
        2
 70
     0
 43
0.2
 10
482.9322168815
 20
25.4932637939
 10
483.1486474491
 20
25.4932637939
  0
LWPOLYLINE
  5
257
330
227
100
AcDbEntity
  8
0
  6
Continuous
 62
     7
100
AcDbPolyline
 90
        2
 70
     0
 43
0.2
 10
483.1486474491
 20
25.4932637939
 10
483.1486474491
 20
25.7000112527
  0
LWPOLYLINE
  5
258
330
227
100
AcDbEntity
  8
0
  6
Continuous
 62
     7
100
AcDbPolyline
 90
        2
 70
     0
 43
0.2
 10
483.1486474491
 20
25.7000112527
 10
482.9322168815
 20
25.7000112527
  0
LWPOLYLINE
  5
259
330
227
100
AcDbEntity
  8
0
  6
Continuous
 62
     7
100
AcDbPolyline
 90
        2
 70
     0
 43
0.2
 10
482.9322168815
 20
25.7000112527
 10
482.9322168815
 20
26.140723557
  0
LWPOLYLINE
  5
25A
330
227
100
AcDbEntity
  8
0
  6
Continuous
 62
     7
100
AcDbPolyline
 90
        2
 70
     0
 43
0.2
 10
482.9322168815
 20
26.140723557
 10
482.7105522011
 20
26.140723557
  0
LWPOLYLINE
  5
25B
330
227
100
AcDbEntity
  8
0
  6
Continuous
 62
     7
100
AcDbPolyline
 90
        2
 70
     0
 43
0.2
 10
482.7105522011
 20
26.140723557
 10
482.7105522011
 20
25.7000112527
  0
LWPOLYLINE
  5
25C
330
227
100
AcDbEntity
  8
0
  6
Continuous
 62
     7
100
AcDbPolyline
 90
        2
 70
     0
 43
0.2
 10
482.7105522011
 20
25.7000112527
 10
482.5899058993
 20
25.7000112527
  0
LWPOLYLINE
  5
25D
330
227
100
AcDbEntity
  8
0
  6
Continuous
 62
     7
100
AcDbPolyline
 90
        2
 70
     0
 43
0.2
 10
482.5899058993
 20
25.7000112527
 10
482.5899058993
 20
25.4932637939
  0
LWPOLYLINE
  5
25E
330
227
100
AcDbEntity
  8
0
  6
Continuous
 62
     7
100
AcDbPolyline
 90
        2
 70
     0
 43
0.2
 10
482.5899058993
 20
25.4932637939
 10
482.7105522011
 20
25.4932637939
  0
LWPOLYLINE
  5
25F
330
227
100
AcDbEntity
  8
0
  6
Continuous
 62
     7
100
AcDbPolyline
 90
        2
 70
     0
 43
0.2
 10
482.7105522011
 20
25.4932637939
 10
482.7105522011
 20
24.5474595968
  0
LWPOLYLINE
  5
260
330
227
100
AcDbEntity
  8
0
  6
Continuous
 62
     7
100
AcDbPolyline
 90
        2
 70
     0
 43
0.2
 10
482.7105522011
 20
24.5474595968
 10
482.9322168815
 20
24.5474595968
  0
LWPOLYLINE
  5
261
330
227
100
AcDbEntity
  8
0
  6
Continuous
 62
     7
100
AcDbPolyline
 90
        2
 70
     0
 43
0.2
 10
482.9322168815
 20
24.5474595968
 10
482.9322168815
 20
25.4932637939
  0
SPLINE
  5
262
330
227
100
AcDbEntity
  8
0
  6
Continuous
 62
     7
100
AcDbSpline
 70
     3
 71
     3
 72
    20
 73
    16
 74
     0
 42
0.000000001
 43
0.0000001
 40
0.0
 40
0.0
 40
0.0
 40
0.0
 40
1.0
 40
1.0
 40
1.0
 40
2.0
 40
2.0
 40
2.0
 40
3.0
 40
3.0
 40
3.0
 40
4.0
 40
4.0
 40
4.0
 40
5.0
 40
5.0
 40
5.0
 40
5.0
 10
470.7142271888
 20
34.9083860402
 30
0.0
 10
470.7142271888
 20
34.9083860402
 30
0.0
 10
473.0305838432
 20
32.0788246179
 30
0.0
 10
473.0305838432
 20
32.0788246179
 30
0.0
 10
472.3789367899
 20
31.4266541532
 30
0.0
 10
471.6020635858
 20
30.6907378825
 30
0.0
 10
470.6308739412
 20
30.6907378825
 30
0.0
 10
469.6323360568
 20
30.6907378825
 30
0.0
 10
468.6890180632
 20
31.6203163298
 30
0.0
 10
468.6890180632
 20
32.6195084783
 30
0.0
 10
468.6890180632
 20
33.6187006268
 30
0.0
 10
469.8678711363
 20
34.3253058655
 30
0.0
 10
470.5893935966
 20
34.8251636454
 30
0.0
 10
470.5893935966
 20
34.8251636454
 30
0.0
 10
470.7142271888
 20
34.9083860402
 30
0.0
 10
470.7142271888
 20
34.9083860402
 30
0.0
  0
SPLINE
  5
263
330
227
100
AcDbEntity
  8
0
  6
Continuous
 62
     7
100
AcDbSpline
 70
     3
 71
     3
 72
    23
 73
    19
 74
     0
 42
0.000000001
 43
0.0000001
 40
0.0
 40
0.0
 40
0.0
 40
0.0
 40
1.0
 40
1.0
 40
1.0
 40
2.0
 40
2.0
 40
2.0
 40
3.0
 40
3.0
 40
3.0
 40
4.0
 40
4.0
 40
4.0
 40
5.0
 40
5.0
 40
5.0
 40
6.0
 40
6.0
 40
6.0
 40
6.0
 10
470.9916351714
 20
36.5461399599
 30
0.0
 10
470.9916351714
 20
36.5461399599
 30
0.0
 10
470.6451368988
 20
36.9894693207
 30
0.0
 10
470.6451368988
 20
36.9894693207
 30
0.0
 10
470.3393338538
 20
37.3775787907
 30
0.0
 10
470.0204455267
 20
37.7660808191
 30
0.0
 10
470.0204455267
 20
38.2930251332
 30
0.0
 10
470.0204455267
 20
38.9591968498
 30
0.0
 10
470.5617836512
 20
39.4029187691
 30
0.0
 10
471.1856899063
 20
39.4029187691
 30
0.0
 10
471.8794715684
 20
39.4029187691
 30
0.0
 10
472.4066775881
 20
39.0006771944
 30
0.0
 10
472.4066775881
 20
38.2656768934
 30
0.0
 10
472.4066775881
 20
37.5024123828
 30
0.0
 10
471.6854168334
 20
37.072299157
 30
0.0
 10
471.1583416665
 20
36.6565797416
 30
0.0
 10
471.1583416665
 20
36.6565797416
 30
0.0
 10
470.9916351714
 20
36.5461399599
 30
0.0
 10
470.9916351714
 20
36.5461399599
 30
0.0
  0
SPLINE
  5
264
330
227
100
AcDbEntity
  8
0
  6
Continuous
 62
     7
100
AcDbSpline
 70
     3
 71
     3
 72
    50
 73
    46
 74
     0
 42
0.000000001
 43
0.0000001
 40
0.0
 40
0.0
 40
0.0
 40
0.0
 40
1.0
 40
1.0
 40
1.0
 40
2.0
 40
2.0
 40
2.0
 40
3.0
 40
3.0
 40
3.0
 40
4.0
 40
4.0
 40
4.0
 40
5.0
 40
5.0
 40
5.0
 40
6.0
 40
6.0
 40
6.0
 40
7.0
 40
7.0
 40
7.0
 40
8.0
 40
8.0
 40
8.0
 40
9.0
 40
9.0
 40
9.0
 40
10.0
 40
10.0
 40
10.0
 40
11.0
 40
11.0
 40
11.0
 40
12.0
 40
12.0
 40
12.0
 40
13.0
 40
13.0
 40
13.0
 40
14.0
 40
14.0
 40
14.0
 40
15.0
 40
15.0
 40
15.0
 40
15.0
 10
474.9452223343
 20
29.7475507418
 30
0.0
 10
474.9452223343
 20
29.7475507418
 30
0.0
 10
476.5544503388
 20
29.7475507418
 30
0.0
 10
476.5544503388
 20
29.7475507418
 30
0.0
 10
476.5544503388
 20
29.7475507418
 30
0.0
 10
474.6814230452
 20
32.0646925132
 30
0.0
 10
474.6814230452
 20
32.0646925132
 30
0.0
 10
474.6814230452
 20
32.0646925132
 30
0.0
 10
475.9577614707
 20
33.5621722077
 30
0.0
 10
475.9577614707
 20
33.5621722077
 30
0.0
 10
475.9577614707
 20
33.5621722077
 30
0.0
 10
475.1255375229
 20
34.4231837763
 30
0.0
 10
475.1255375229
 20
34.4231837763
 30
0.0
 10
475.1255375229
 20
34.4231837763
 30
0.0
 10
473.9049423996
 20
33.0078796539
 30
0.0
 10
473.9049423996
 20
33.0078796539
 30
0.0
 10
473.9049423996
 20
33.0078796539
 30
0.0
 10
471.7270280308
 20
35.6432554883
 30
0.0
 10
471.7270280308
 20
35.6432554883
 30
0.0
 10
472.6006014703
 20
36.2812938482
 30
0.0
 10
473.6272727114
 20
37.072299157
 30
0.0
 10
473.6272727114
 20
38.2511522301
 30
0.0
 10
473.6272727114
 20
39.6248451551
 30
0.0
 10
472.4893765716
 20
40.4293283046
 30
0.0
 10
471.2140849687
 20
40.4293283046
 30
0.0
 10
469.8406537493
 20
40.4293283046
 30
0.0
 10
468.7997195506
 20
39.5831031049
 30
0.0
 10
468.7997195506
 20
38.1404507427
 30
0.0
 10
468.7997195506
 20
37.2528760513
 30
0.0
 10
469.355058927
 20
36.4760028473
 30
0.0
 10
469.9512243839
 20
35.8515731809
 30
0.0
 10
469.9512243839
 20
35.8515731809
 30
0.0
 10
469.2993156248
 20
35.3799796105
 30
0.0
 10
469.2993156248
 20
35.3799796105
 30
0.0
 10
468.3007777404
 20
34.6587188558
 30
0.0
 10
467.4678995286
 20
33.9374581012
 30
0.0
 10
467.4678995286
 20
32.6058997848
 30
0.0
 10
467.4678995286
 20
30.8022244868
 30
0.0
 10
468.9249457012
 20
29.5256243557
 30
0.0
 10
470.6724851386
 20
29.5256243557
 30
0.0
 10
471.9073432195
 20
29.5256243557
 30
0.0
 10
473.0167134441
 20
30.2337998282
 30
0.0
 10
473.8075879001
 20
31.1623314529
 30
0.0
 10
473.8075879001
 20
31.1623314529
 30
0.0
 10
474.9452223343
 20
29.7475507418
 30
0.0
 10
474.9452223343
 20
29.7475507418
 30
0.0
  0
LINE
  5
265
330
227
100
AcDbEntity
  8
0
  6
Continuous
 62
     7
100
AcDbLine
 10
460.7480837093
 20
27.7214256464
 30
0.0
 11
483.1619944369
 21
27.7214256464
 31
0.0
  0
LINE
  5
266
330
227
100
AcDbEntity
  8
0
  6
Continuous
 62
     7
100
AcDbLine
 10
483.1619944369
 20
27.7214256464
 30
0.0
 11
483.1619944369
 21
50.135336374
 31
0.0
  0
LINE
  5
267
330
227
100
AcDbEntity
  8
0
  6
Continuous
 62
     7
100
AcDbLine
 10
483.1619944369
 20
50.135336374
 30
0.0
 11
460.7480837093
 21
50.135336374
 31
0.0
  0
LINE
  5
268
330
227
100
AcDbEntity
  8
0
  6
Continuous
 62
     7
100
AcDbLine
 10
460.7480837093
 20
50.135336374
 30
0.0
 11
460.7480837093
 21
27.7214256464
 31
0.0
  0
ENDBLK
  5
269
330
227
100
AcDbEntity
  8
0
  6
ByBlock
 62
     0
100
AcDbBlockEnd
  0
BLOCK
  5
26A
330
228
100
AcDbEntity
  8
0
100
AcDbBlockBegin
  2
PROIEZIONE_EU_BL0
 70
     0
 10
473.1289266019
 20
62.636648874
 30
0.0
  3
PROIEZIONE_EU_BL0
  1

  0
LWPOLYLINE
  5
26B
330
228
100
AcDbEntity
  8
DEFAULT_1
  6
CENTER
 62
     7
100
AcDbPolyline
 90
        2
 70
     0
 43
0.25
 10
479.2555472636
 20
67.6363430059
 10
479.2555882459
 20
57.6369547422
  0
LWPOLYLINE
  5
26C
330
228
100
AcDbEntity
  8
DEFAULT_1
  6
CENTER
 62
     7
100
AcDbPolyline
 90
        2
 70
     0
 43
0.25
 10
485.2555770886
 20
62.6369200092
 10
461.0022761152
 20
62.6366493488
  0
LWPOLYLINE
  5
26D
330
228
100
AcDbEntity
  8
0
  6
Continuous
 62
     7
100
AcDbPolyline
 90
        2
 70
     1
 43
0.25
 10
475.7084370878
 20
62.6181011198
 42
1.0
 10
482.8147661864
 20
62.6181011198
 42
1.0
  0
LWPOLYLINE
  5
26E
330
228
100
AcDbEntity
  8
0
  6
Continuous
 62
     7
100
AcDbPolyline
 90
        2
 70
     1
 43
0.25
 10
477.2581809161
 20
62.6359991644
 42
1.0
 10
481.2699326662
 20
62.6359991644
 42
1.0
  0
LWPOLYLINE
  5
26F
330
228
100
AcDbEntity
  8
0
  6
Continuous
 62
     7
100
AcDbPolyline
 90
        2
 70
     0
 43
0.25
 10
473.2555748826
 20
66.2118523693
 10
473.255574528
 20
59.111649461
  0
LWPOLYLINE
  5
270
330
228
100
AcDbEntity
  8
0
  6
Continuous
 62
     7
100
AcDbPolyline
 90
        2
 70
     0
 43
0.25
 10
473.2556029644
 20
59.1116210246
 10
463.2610456933
 20
60.6317144374
  0
LWPOLYLINE
  5
271
330
228
100
AcDbEntity
  8
0
  6
Continuous
 62
     7
100
AcDbPolyline
 90
        2
 70
     0
 43
0.25
 10
463.2587357076
 20
60.6310368959
 10
463.2560688036
 20
64.6366755073
  0
LWPOLYLINE
  5
272
330
228
100
AcDbEntity
  8
0
  6
Continuous
 62
     7
100
AcDbPolyline
 90
        2
 70
     0
 43
0.25
 10
463.2560605275
 20
64.6366672312
 10
473.2558037648
 20
66.2118244513
  0
ENDBLK
  5
273
330
228
100
AcDbEntity
  8
0
  6
ByBlock
 62
     0
100
AcDbBlockEnd
  0
ENDSEC
  0
SECTION
  2
ENTITIES
  0
LINE
  5
2B2
330
1B
100
AcDbEntity
 67
     1
  8
0
  6
Continuous
 62
     7
100
AcDbLine
 10
0.0
 20
0.0
 30
0.0
 11
594.0
 21
0.0
 31
0.0
  0
LINE
  5
2B3
330
1B
100
AcDbEntity
 67
     1
  8
0
  6
Continuous
 62
     7
100
AcDbLine
 10
594.0
 20
0.0
 30
0.0
 11
594.0
 21
420.0
 31
0.0
  0
LINE
  5
2B4
330
1B
100
AcDbEntity
 67
     1
  8
0
  6
Continuous
 62
     7
100
AcDbLine
 10
0.0
 20
420.0
 30
0.0
 11
594.0
 21
420.0
 31
0.0
  0
LINE
  5
2B5
330
1B
100
AcDbEntity
 67
     1
  8
0
  6
Continuous
 62
     7
100
AcDbLine
 10
0.0
 20
0.0
 30
0.0
 11
0.0
 21
420.0
 31
0.0
  0
VIEWPORT
  5
2B6
330
1B
100
AcDbEntity
 67
     1
  8
0
100
AcDbViewport
 10
0.0
 20
0.0
 30
0.0
 40
700.1089494163423
 41
495.0770428015564
 68
     1
 69
     1
 12
330.9338521400778
 22
210.0
 13
0.0
 23
0.0
 14
1.0
 24
1.0
 15
0.0
 25
0.0
 16
0.0
 26
0.0
 36
1.0
 17
0.0
 27
0.0
 37
0.0
 42
50.0
 43
0.0
 44
0.0
 45
495.0770428015564
 50
0.0
 51
0.0
 72
   100
 90
   557216
  1

281
     0
 71
     1
 74
     0
110
0.0
120
0.0
130
0.0
111
1.0
121
0.0
131
0.0
112
0.0
122
1.0
132
0.0
 79
     0
146
0.0
170
     0
 61
     5
348
573
292
     1
282
     1
141
0.0
142
0.0
 63
   256
  0
SPLINE
  5
2B7
330
1B
100
AcDbEntity
 67
     1
  8
0
  6
Continuous
 62
     2
100
AcDbSpline
 70
     0
 71
     3
 72
   244
 73
   240
 74
     0
 42
0.000000001
 43
0.0000001
 40
0.0
 40
0.0
 40
0.0
 40
0.0
 40
0.015625
 40
0.0234375
 40
0.03125
 40
0.0390625
 40
0.046875
 40
0.05078125
 40
0.0546875
 40
0.056640625
 40
0.05859375
 40
0.060546875
 40
0.0615234375
 40
0.0620117188
 40
0.0625
 40
0.0629882812
 40
0.0634765625
 40
0.064453125
 40
0.06640625
 40
0.068359375
 40
0.0703125
 40
0.07421875
 40
0.078125
 40
0.0859375
 40
0.09375
 40
0.1015625
 40
0.109375
 40
0.11328125
 40
0.1171875
 40
0.119140625
 40
0.12109375
 40
0.123046875
 40
0.1240234375
 40
0.1245117188
 40
0.125
 40
0.1254882812
 40
0.1259765625
 40
0.126953125
 40
0.12890625
 40
0.130859375
 40
0.1328125
 40
0.13671875
 40
0.140625
 40
0.1484375
 40
0.15625
 40
0.1640625
 40
0.171875
 40
0.17578125
 40
0.1796875
 40
0.181640625
 40
0.18359375
 40
0.185546875
 40
0.1865234375
 40
0.1870117188
 40
0.1875
 40
0.1879882812
 40
0.1884765625
 40
0.189453125
 40
0.19140625
 40
0.193359375
 40
0.1953125
 40
0.19921875
 40
0.203125
 40
0.2109375
 40
0.21875
 40
0.2265625
 40
0.234375
 40
0.23828125
 40
0.2421875
 40
0.24609375
 40
0.248046875
 40
0.2490234375
 40
0.25
 40
0.2509765625
 40
0.251953125
 40
0.25390625
 40
0.2578125
 40
0.26171875
 40
0.265625
 40
0.2734375
 40
0.28125
 40
0.2890625
 40
0.296875
 40
0.30078125
 40
0.3046875
 40
0.30859375
 40
0.310546875
 40
0.3115234375
 40
0.3125
 40
0.3134765625
 40
0.314453125
 40
0.31640625
 40
0.3203125
 40
0.32421875
 40
0.328125
 40
0.3359375
 40
0.34375
 40
0.3515625
 40
0.359375
 40
0.3671875
 40
0.37109375
 40
0.373046875
 40
0.375
 40
0.376953125
 40
0.37890625
 40
0.3828125
 40
0.390625
 40
0.3984375
 40
0.40625
 40
0.421875
 40
0.4296875
 40
0.43359375
 40
0.435546875
 40
0.4375
 40
0.439453125
 40
0.44140625
 40
0.4453125
 40
0.453125
 40
0.4609375
 40
0.46875
 40
0.484375
 40
0.4921875
 40
0.5
 40
0.5078125
 40
0.515625
 40
0.53125
 40
0.546875
 40
0.5546875
 40
0.55859375
 40
0.5625
 40
0.56640625
 40
0.5703125
 40
0.578125
 40
0.59375
 40
0.6015625
 40
0.609375
 40
0.6171875
 40
0.62109375
 40
0.623046875
 40
0.625
 40
0.626953125
 40
0.62890625
 40
0.6328125
 40
0.640625
 40
0.6484375
 40
0.65625
 40
0.6640625
 40
0.671875
 40
0.67578125
 40
0.6796875
 40
0.68359375
 40
0.685546875
 40
0.6865234375
 40
0.6875
 40
0.6884765625
 40
0.689453125
 40
0.69140625
 40
0.6953125
 40
0.69921875
 40
0.703125
 40
0.7109375
 40
0.71875
 40
0.7265625
 40
0.734375
 40
0.73828125
 40
0.7421875
 40
0.74609375
 40
0.748046875
 40
0.7490234375
 40
0.75
 40
0.7509765625
 40
0.751953125
 40
0.75390625
 40
0.7578125
 40
0.76171875
 40
0.765625
 40
0.7734375
 40
0.78125
 40
0.7890625
 40
0.796875
 40
0.80078125
 40
0.8046875
 40
0.806640625
 40
0.80859375
 40
0.810546875
 40
0.8115234375
 40
0.8125
 40
0.8134765625
 40
0.814453125
 40
0.81640625
 40
0.818359375
 40
0.8203125
 40
0.82421875
 40
0.828125
 40
0.8359375
 40
0.84375
 40
0.8515625
 40
0.859375
 40
0.86328125
 40
0.8671875
 40
0.869140625
 40
0.87109375
 40
0.873046875
 40
0.8740234375
 40
0.8745117188
 40
0.875
 40
0.8754882812
 40
0.8759765625
 40
0.876953125
 40
0.87890625
 40
0.880859375
 40
0.8828125
 40
0.88671875
 40
0.890625
 40
0.8984375
 40
0.90625
 40
0.9140625
 40
0.921875
 40
0.92578125
 40
0.9296875
 40
0.931640625
 40
0.93359375
 40
0.935546875
 40
0.9365234375
 40
0.9370117188
 40
0.9375
 40
0.9379882812
 40
0.9384765625
 40
0.939453125
 40
0.94140625
 40
0.943359375
 40
0.9453125
 40
0.94921875
 40
0.953125
 40
0.9609375
 40
0.96875
 40
0.9765625
 40
0.984375
 40
1.0
 40
1.0
 40
1.0
 40
1.0
 10
74.7592818526
 20
117.1261264777
 30
0.0
 10
74.7614342271
 20
117.1221588017
 30
0.0
 10
74.7646627888
 20
117.116207291
 30
0.0
 10
74.7689675377
 20
117.1082719306
 30
0.0
 10
74.7721960996
 20
117.102320442
 30
0.0
 10
74.7754246603
 20
117.0963688329
 30
0.0
 10
74.7781151315
 20
117.0914095339
 30
0.0
 10
74.7802674997
 20
117.0874412543
 30
0.0
 10
74.7816127499
 20
117.084962993
 30
0.0
 10
74.7826889039
 20
117.0829760018
 30
0.0
 10
74.7834961458
 20
117.0814977567
 30
0.0
 10
74.7841684454
 20
117.0802277176
 30
0.0
 10
74.784639844
 20
117.079413594
 30
0.0
 10
74.7849079828
 20
117.0788314245
 30
0.0
 10
74.7851125569
 20
117.0787242644
 30
0.0
 10
74.7853038671
 20
117.0773577143
 30
0.0
 10
74.785563574
 20
117.0759749367
 30
0.0
 10
74.7860159053
 20
117.073350403
 30
0.0
 10
74.78666322
 20
117.0697080744
 30
0.0
 10
74.7874395153
 20
117.0652914785
 30
0.0
 10
74.7884747441
 20
117.0594186815
 30
0.0
 10
74.7897687224
 20
117.0520722075
 30
0.0
 10
74.79183912
 20
117.0403209115
 30
0.0
 10
74.7944271057
 20
117.0256307342
 30
0.0
 10
74.797532694
 20
117.008003003
 30
0.0
 10
74.8006382786
 20
116.9903750371
 30
0.0
 10
74.8032262738
 20
116.9756854468
 30
0.0
 10
74.8052966525
 20
116.9639329767
 30
0.0
 10
74.8065906787
 20
116.956589487
 30
0.0
 10
74.8076258092
 20
116.9507105649
 30
0.0
 10
74.8084024049
 20
116.9463126817
 30
0.0
 10
74.8090487794
 20
116.9426118057
 30
0.0
 10
74.8095027892
 20
116.940091789
 30
0.0
 10
74.8097598068
 20
116.9385415489
 30
0.0
 10
74.8099593777
 20
116.93768939
 30
0.0
 10
74.810132926
 20
116.9356502615
 30
0.0
 10
74.8103734008
 20
116.9333454517
 30
0.0
 10
74.8107900025
 20
116.9291191312
 30
0.0
 10
74.8113873588
 20
116.9231823825
 30
0.0
 10
74.81210324
 20
116.9160151162
 30
0.0
 10
74.8130580789
 20
116.9064738388
 30
0.0
 10
74.8142515142
 20
116.8945420793
 30
0.0
 10
74.8161610741
 20
116.8754541504
 30
0.0
 10
74.818548002
 20
116.8515932426
 30
0.0
 10
74.8214123257
 20
116.822960608
 30
0.0
 10
74.8242766437
 20
116.7943277489
 30
0.0
 10
74.8266635859
 20
116.7704674025
 30
0.0
 10
74.8285731172
 20
116.7513783509
 30
0.0
 10
74.829766625
 20
116.7394494451
 30
0.0
 10
74.8307213152
 20
116.7299023105
 30
0.0
 10
74.8314376506
 20
116.7227529384
 30
0.0
 10
74.8320335858
 20
116.7167602031
 30
0.0
 10
74.8324527245
 20
116.7126338281
 30
0.0
 10
74.8326891345
 20
116.7101688805
 30
0.0
 10
74.8328751685
 20
116.7086216441
 30
0.0
 10
74.8330278453
 20
116.7059220201
 30
0.0
 10
74.8332430499
 20
116.7027244872
 30
0.0
 10
74.8336142367
 20
116.6969415213
 30
0.0
 10
74.8341473378
 20
116.6887780552
 30
0.0
 10
74.8347858459
 20
116.6789399857
 30
0.0
 10
74.8356376139
 20
116.6658371982
 30
0.0
 10
74.8367021786
 20
116.6494537005
 30
0.0
 10
74.8384055638
 20
116.6232429128
 30
0.0
 10
74.8405347643
 20
116.5904784164
 30
0.0
 10
74.8430898314
 20
116.5511616644
 30
0.0
 10
74.8456448417
 20
116.5118439565
 30
0.0
 10
74.8477741844
 20
116.4790818499
 30
0.0
 10
74.8494772852
 20
116.4528662826
 30
0.0
 10
74.8507556302
 20
116.4332206632
 30
0.0
 10
74.8518176753
 20
116.4167982442
 30
0.0
 10
74.85256747
 20
116.4054027723
 30
0.0
 10
74.8529859885
 20
116.3987345868
 30
0.0
 10
74.8533278661
 20
116.3941742747
 30
0.0
 10
74.8535627569
 20
116.3879288984
 30
0.0
 10
74.8539132629
 20
116.3801894992
 30
0.0
 10
74.8545092611
 20
116.3663716979
 30
0.0
 10
74.8553697773
 20
116.3467751555
 30
0.0
 10
74.8563985058
 20
116.3231980201
 30
0.0
 10
74.8577715034
 20
116.2917832529
 30
0.0
 10
74.8594872806
 20
116.2525074052
 30
0.0
 10
74.8615464288
 20
116.2053797339
 30
0.0
 10
74.8636054665
 20
116.1582505007
 30
0.0
 10
74.8653215202
 20
116.1189785576
 30
0.0
 10
74.8666939648
 20
116.0875559812
 30
0.0
 10
74.8677243799
 20
116.064002664
 30
0.0
 10
74.8685796195
 20
116.0443316082
 30
0.0
 10
74.8691850374
 20
116.0306468247
 30
0.0
 10
74.8695204507
 20
116.0226942978
 30
0.0
 10
74.8698017013
 20
116.0171035814
 30
0.0
 10
74.8699694594
 20
116.0100844752
 30
0.0
 10
74.8702327243
 20
116.0012239053
 30
0.0
 10
74.8706749933
 20
115.9854857693
 30
0.0
 10
74.8713164495
 20
115.9631240845
 30
0.0
 10
74.8720820683
 20
115.9362381054
 30
0.0
 10
74.8731043407
 20
115.9004083237
 30
0.0
 10
74.8743816471
 20
115.8556145609
 30
0.0
 10
74.8759148078
 20
115.8018661315
 30
0.0
 10
74.8774472509
 20
115.7481118156
 30
0.0
 10
74.8789821713
 20
115.6943769595
 30
0.0
 10
74.8802536119
 20
115.649537952
 30
0.0
 10
74.881158622
 20
115.6182680508
 30
0.0
 10
74.8816523514
 20
115.60021626
 30
0.0
 10
74.8820886199
 20
115.5871937002
 30
0.0
 10
74.882272712
 20
115.5721976451
 30
0.0
 10
74.8826061296
 20
115.5528912798
 30
0.0
 10
74.883148632
 20
115.5187844382
 30
0.0
 10
74.8839450242
 20
115.4702278508
 30
0.0
 10
74.8848916935
 20
115.4118891136
 30
0.0
 10
74.8861562968
 20
115.3341246298
 30
0.0
 10
74.8874246376
 20
115.2563788154
 30
0.0
 10
74.8885230647
 20
115.1882887679
 30
0.0
 10
74.8890876997
 20
115.1543292662
 30
0.0
 10
74.889385536
 20
115.1347861503
 30
0.0
 10
74.8896789439
 20
115.1205174375
 30
0.0
 10
74.8897046352
 20
115.1047630716
 30
0.0
 10
74.8898322691
 20
115.0842754689
 30
0.0
 10
74.890012158
 20
115.0481806561
 30
0.0
 10
74.8902915764
 20
114.9967433882
 30
0.0
 10
74.890618555
 20
114.9349622831
 30
0.0
 10
74.8910510585
 20
114.852617788
 30
0.0
 10
74.891521017
 20
114.7702041897
 30
0.0
 10
74.8918812115
 20
114.6879751674
 30
0.0
 10
74.8924431941
 20
114.6258187757
 30
0.0
 10
74.891892712
 20
114.565508596
 30
0.0
 10
74.8915468007
 20
114.4844521985
 30
0.0
 10
74.8909850868
 20
114.3833373565
 30
0.0
 10
74.8904555909
 20
114.2822034254
 30
0.0
 10
74.8901078133
 20
114.2113058023
 30
0.0
 10
74.8898602129
 20
114.1709766667
 30
0.0
 10
74.8898145894
 20
114.1402081169
 30
0.0
 10
74.8892330939
 20
114.1114344636
 30
0.0
 10
74.8886447068
 20
114.0723736495
 30
0.0
 10
74.8875277094
 20
114.004342489
 30
0.0
 10
74.8862890853
 20
113.9264500378
 30
0.0
 10
74.8850364224
 20
113.8486135163
 30
0.0
 10
74.8841010973
 20
113.7902108895
 30
0.0
 10
74.8833136023
 20
113.7416028489
 30
0.0
 10
74.882777451
 20
113.7074605495
 30
0.0
 10
74.8824476186
 20
113.688132427
 30
0.0
 10
74.8822663122
 20
113.6731243809
 30
0.0
 10
74.8818324641
 20
113.6600732704
 30
0.0
 10
74.8813420894
 20
113.6419891882
 30
0.0
 10
74.8804428907
 20
113.6106600855
 30
0.0
 10
74.8791797831
 20
113.5657379132
 30
0.0
 10
74.8776548487
 20
113.5119026497
 30
0.0
 10
74.8761323964
 20
113.4580481114
 30
0.0
 10
74.874609221
 20
113.404199329
 30
0.0
 10
74.8733402501
 20
113.3593222197
 30
0.0
 10
74.8723246142
 20
113.3234251516
 30
0.0
 10
74.8715640596
 20
113.2964903671
 30
0.0
 10
74.8709265478
 20
113.2740827335
 30
0.0
 10
74.8704875809
 20
113.2583227903
 30
0.0
 10
74.870225358
 20
113.2494335876
 30
0.0
 10
74.8700607618
 20
113.2424385624
 30
0.0
 10
74.8697735738
 20
113.2366977906
 30
0.0
 10
74.8694334179
 20
113.2286059305
 30
0.0
 10
74.8688182216
 20
113.2146490137
 30
0.0
 10
74.8679497861
 20
113.1946039918
 30
0.0
 10
74.8669032048
 20
113.1705955825
 30
0.0
 10
74.865509321
 20
113.1385684273
 30
0.0
 10
74.863766429
 20
113.0985400115
 30
0.0
 10
74.8616752001
 20
113.0505032916
 30
0.0
 10
74.8595838648
 20
113.00246821
 30
0.0
 10
74.857841239
 20
112.9624356987
 30
0.0
 10
74.8564468229
 20
112.9304167345
 30
0.0
 10
74.8554018651
 20
112.9063833427
 30
0.0
 10
74.8545283505
 20
112.8864164764
 30
0.0
 10
74.8539222211
 20
112.8723200398
 30
0.0
 10
74.8535675379
 20
112.8644517255
 30
0.0
 10
74.8533249732
 20
112.8580242927
 30
0.0
 10
74.8529927793
 20
112.8536082521
 30
0.0
 10
74.8525811178
 20
112.8470186018
 30
0.0
 10
74.8518461438
 20
112.8358136003
 30
0.0
 10
74.8508037964
 20
112.8196355554
 30
0.0
 10
74.8495497198
 20
112.8002950523
 30
0.0
 10
74.8478787563
 20
112.7744821643
 30
0.0
 10
74.8457896618
 20
112.7422248056
 30
0.0
 10
74.8432829132
 20
112.7035122946
 30
0.0
 10
74.8407761299
 20
112.6648005037
 30
0.0
 10
74.8386871221
 20
112.6325413449
 30
0.0
 10
74.8370159852
 20
112.6067320572
 30
0.0
 10
74.8359713621
 20
112.5906058205
 30
0.0
 10
74.8351360365
 20
112.5776943578
 30
0.0
 10
74.8345085211
 20
112.5680394399
 30
0.0
 10
74.8339888402
 20
112.559902442
 30
0.0
 10
74.8335658094
 20
112.5535974632
 30
0.0
 10
74.8332684454
 20
112.5483096103
 30
0.0
 10
74.8328950883
 20
112.5451559227
 30
0.0
 10
74.8324238241
 20
112.5402055142
 30
0.0
 10
74.8318256364
 20
112.534273278
 30
0.0
 10
74.8311117095
 20
112.527045115
 30
0.0
 10
74.8301584453
 20
112.5174458032
 30
0.0
 10
74.8289673313
 20
112.5054335706
 30
0.0
 10
74.8270612884
 20
112.4862213152
 30
0.0
 10
74.824678824
 20
112.4622034917
 30
0.0
 10
74.821819829
 20
112.4333831489
 30
0.0
 10
74.8189608419
 20
112.404562631
 30
0.0
 10
74.816578358
 20
112.3805452454
 30
0.0
 10
74.8146723539
 20
112.3613321141
 30
0.0
 10
74.8134811412
 20
112.3493221078
 30
0.0
 10
74.8125280797
 20
112.3397182265
 30
0.0
 10
74.8118135336
 20
112.3325040238
 30
0.0
 10
74.8112172831
 20
112.3265281094
 30
0.0
 10
74.8108014687
 20
112.3222744748
 30
0.0
 10
74.8105614233
 20
112.3199538978
 30
0.0
 10
74.8103882546
 20
112.3179033925
 30
0.0
 10
74.8101888432
 20
112.3170381419
 30
0.0
 10
74.809932115
 20
112.3154710443
 30
0.0
 10
74.8094785758
 20
112.3129212482
 30
0.0
 10
74.8088328924
 20
112.3091779761
 30
0.0
 10
74.808057118
 20
112.304729155
 30
0.0
 10
74.8070230854
 20
112.2987823377
 30
0.0
 10
74.8057304305
 20
112.2913539714
 30
0.0
 10
74.8036622464
 20
112.279465703
 30
0.0
 10
74.8010769944
 20
112.2646063634
 30
0.0
 10
74.7979747018
 20
112.2467746989
 30
0.0
 10
74.7948724049
 20
112.228943269
 30
0.0
 10
74.7922871639
 20
112.2140833431
 30
0.0
 10
74.7902189578
 20
112.2021962475
 30
0.0
 10
74.788926359
 20
112.1947649003
 30
0.0
 10
74.7878922112
 20
112.188824201
 30
0.0
 10
74.7871167886
 20
112.1843566887
 30
0.0
 10
74.7864700044
 20
112.180671897
 30
0.0
 10
74.7860184304
 20
112.1780177035
 30
0.0
 10
74.7857585535
 20
112.1766178769
 30
0.0
 10
74.7855688141
 20
112.1752388234
 30
0.0
 10
74.7853593188
 20
112.1751180765
 30
0.0
 10
74.7850868828
 20
112.1745181691
 30
0.0
 10
74.7846069092
 20
112.1736728283
 30
0.0
 10
74.7839229111
 20
112.1723582851
 30
0.0
 10
74.783101395
 20
112.1708265957
 30
0.0
 10
74.7820062911
 20
112.1687683593
 30
0.0
 10
74.7806373253
 20
112.1662010366
 30
0.0
 10
74.7784470281
 20
112.1620902616
 30
0.0
 10
74.7757091401
 20
112.1569528424
 30
0.0
 10
74.7724236815
 20
112.1507874894
 30
0.0
 10
74.7691382211
 20
112.1446222568
 30
0.0
 10
74.7647576078
 20
112.1364019044
 30
0.0
 10
74.7614721477
 20
112.1302366497
 30
0.0
 10
74.759281841
 20
112.1261264777
 30
0.0
  0
SPLINE
  5
2B8
330
1B
100
AcDbEntity
 67
     1
  8
0
  6
Continuous
 62
     2
100
AcDbSpline
 70
     0
 71
     3
 72
   244
 73
   240
 74
     0
 42
0.000000001
 43
0.0000001
 40
0.0
 40
0.0
 40
0.0
 40
0.0
 40
0.015625
 40
0.0234375
 40
0.03125
 40
0.0390625
 40
0.046875
 40
0.05078125
 40
0.0546875
 40
0.056640625
 40
0.05859375
 40
0.060546875
 40
0.0615234375
 40
0.0620117188
 40
0.0625
 40
0.0629882812
 40
0.0634765625
 40
0.064453125
 40
0.06640625
 40
0.068359375
 40
0.0703125
 40
0.07421875
 40
0.078125
 40
0.0859375
 40
0.09375
 40
0.1015625
 40
0.109375
 40
0.11328125
 40
0.1171875
 40
0.119140625
 40
0.12109375
 40
0.123046875
 40
0.1240234375
 40
0.1245117188
 40
0.125
 40
0.1254882812
 40
0.1259765625
 40
0.126953125
 40
0.12890625
 40
0.130859375
 40
0.1328125
 40
0.13671875
 40
0.140625
 40
0.1484375
 40
0.15625
 40
0.1640625
 40
0.171875
 40
0.17578125
 40
0.1796875
 40
0.181640625
 40
0.18359375
 40
0.185546875
 40
0.1865234375
 40
0.1870117188
 40
0.1875
 40
0.1879882812
 40
0.1884765625
 40
0.189453125
 40
0.19140625
 40
0.193359375
 40
0.1953125
 40
0.19921875
 40
0.203125
 40
0.2109375
 40
0.21875
 40
0.2265625
 40
0.234375
 40
0.23828125
 40
0.2421875
 40
0.24609375
 40
0.248046875
 40
0.2490234375
 40
0.25
 40
0.2509765625
 40
0.251953125
 40
0.25390625
 40
0.2578125
 40
0.26171875
 40
0.265625
 40
0.2734375
 40
0.28125
 40
0.2890625
 40
0.296875
 40
0.30078125
 40
0.3046875
 40
0.30859375
 40
0.310546875
 40
0.3115234375
 40
0.3125
 40
0.3134765625
 40
0.314453125
 40
0.31640625
 40
0.3203125
 40
0.32421875
 40
0.328125
 40
0.3359375
 40
0.34375
 40
0.3515625
 40
0.359375
 40
0.3671875
 40
0.37109375
 40
0.373046875
 40
0.375
 40
0.376953125
 40
0.37890625
 40
0.3828125
 40
0.390625
 40
0.3984375
 40
0.40625
 40
0.421875
 40
0.4296875
 40
0.43359375
 40
0.435546875
 40
0.4375
 40
0.439453125
 40
0.44140625
 40
0.4453125
 40
0.453125
 40
0.4609375
 40
0.46875
 40
0.484375
 40
0.4921875
 40
0.5
 40
0.5078125
 40
0.515625
 40
0.53125
 40
0.546875
 40
0.5546875
 40
0.55859375
 40
0.5625
 40
0.56640625
 40
0.5703125
 40
0.578125
 40
0.59375
 40
0.6015625
 40
0.609375
 40
0.6171875
 40
0.62109375
 40
0.623046875
 40
0.625
 40
0.626953125
 40
0.62890625
 40
0.6328125
 40
0.640625
 40
0.6484375
 40
0.65625
 40
0.6640625
 40
0.671875
 40
0.67578125
 40
0.6796875
 40
0.68359375
 40
0.685546875
 40
0.6865234375
 40
0.6875
 40
0.6884765625
 40
0.689453125
 40
0.69140625
 40
0.6953125
 40
0.69921875
 40
0.703125
 40
0.7109375
 40
0.71875
 40
0.7265625
 40
0.734375
 40
0.73828125
 40
0.7421875
 40
0.74609375
 40
0.748046875
 40
0.7490234375
 40
0.75
 40
0.7509765625
 40
0.751953125
 40
0.75390625
 40
0.7578125
 40
0.76171875
 40
0.765625
 40
0.7734375
 40
0.78125
 40
0.7890625
 40
0.796875
 40
0.80078125
 40
0.8046875
 40
0.806640625
 40
0.80859375
 40
0.810546875
 40
0.8115234375
 40
0.8125
 40
0.8134765625
 40
0.814453125
 40
0.81640625
 40
0.818359375
 40
0.8203125
 40
0.82421875
 40
0.828125
 40
0.8359375
 40
0.84375
 40
0.8515625
 40
0.859375
 40
0.86328125
 40
0.8671875
 40
0.869140625
 40
0.87109375
 40
0.873046875
 40
0.8740234375
 40
0.8745117188
 40
0.875
 40
0.8754882812
 40
0.8759765625
 40
0.876953125
 40
0.87890625
 40
0.880859375
 40
0.8828125
 40
0.88671875
 40
0.890625
 40
0.8984375
 40
0.90625
 40
0.9140625
 40
0.921875
 40
0.92578125
 40
0.9296875
 40
0.931640625
 40
0.93359375
 40
0.935546875
 40
0.9365234375
 40
0.9370117188
 40
0.9375
 40
0.9379882812
 40
0.9384765625
 40
0.939453125
 40
0.94140625
 40
0.943359375
 40
0.9453125
 40
0.94921875
 40
0.953125
 40
0.9609375
 40
0.96875
 40
0.9765625
 40
0.984375
 40
1.0
 40
1.0
 40
1.0
 40
1.0
 10
74.7592818526
 20
36.1261264777
 30
0.0
 10
74.7614342271
 20
36.1221588017
 30
0.0
 10
74.7646627888
 20
36.116207291
 30
0.0
 10
74.7689675377
 20
36.1082719306
 30
0.0
 10
74.7721960996
 20
36.102320442
 30
0.0
 10
74.7754246603
 20
36.0963688329
 30
0.0
 10
74.7781151315
 20
36.0914095339
 30
0.0
 10
74.7802674997
 20
36.0874412543
 30
0.0
 10
74.7816127499
 20
36.084962993
 30
0.0
 10
74.7826889039
 20
36.0829760018
 30
0.0
 10
74.7834961458
 20
36.0814977567
 30
0.0
 10
74.7841684454
 20
36.0802277176
 30
0.0
 10
74.784639844
 20
36.079413594
 30
0.0
 10
74.7849079828
 20
36.0788314245
 30
0.0
 10
74.7851125569
 20
36.0787242644
 30
0.0
 10
74.7853038671
 20
36.0773577143
 30
0.0
 10
74.785563574
 20
36.0759749367
 30
0.0
 10
74.7860159053
 20
36.073350403
 30
0.0
 10
74.78666322
 20
36.0697080744
 30
0.0
 10
74.7874395153
 20
36.0652914785
 30
0.0
 10
74.7884747441
 20
36.0594186815
 30
0.0
 10
74.7897687224
 20
36.0520722075
 30
0.0
 10
74.79183912
 20
36.0403209115
 30
0.0
 10
74.7944271057
 20
36.0256307342
 30
0.0
 10
74.797532694
 20
36.008003003
 30
0.0
 10
74.8006382786
 20
35.9903750371
 30
0.0
 10
74.8032262738
 20
35.9756854468
 30
0.0
 10
74.8052966525
 20
35.9639329767
 30
0.0
 10
74.8065906787
 20
35.956589487
 30
0.0
 10
74.8076258092
 20
35.9507105649
 30
0.0
 10
74.8084024049
 20
35.9463126817
 30
0.0
 10
74.8090487794
 20
35.9426118057
 30
0.0
 10
74.8095027892
 20
35.940091789
 30
0.0
 10
74.8097598068
 20
35.9385415489
 30
0.0
 10
74.8099593777
 20
35.93768939
 30
0.0
 10
74.810132926
 20
35.9356502615
 30
0.0
 10
74.8103734008
 20
35.9333454517
 30
0.0
 10
74.8107900025
 20
35.9291191312
 30
0.0
 10
74.8113873588
 20
35.9231823825
 30
0.0
 10
74.81210324
 20
35.9160151162
 30
0.0
 10
74.8130580789
 20
35.9064738388
 30
0.0
 10
74.8142515142
 20
35.8945420793
 30
0.0
 10
74.8161610741
 20
35.8754541504
 30
0.0
 10
74.818548002
 20
35.8515932426
 30
0.0
 10
74.8214123257
 20
35.822960608
 30
0.0
 10
74.8242766437
 20
35.7943277489
 30
0.0
 10
74.8266635859
 20
35.7704674025
 30
0.0
 10
74.8285731172
 20
35.7513783509
 30
0.0
 10
74.829766625
 20
35.7394494451
 30
0.0
 10
74.8307213152
 20
35.7299023105
 30
0.0
 10
74.8314376506
 20
35.7227529384
 30
0.0
 10
74.8320335858
 20
35.7167602031
 30
0.0
 10
74.8324527245
 20
35.7126338281
 30
0.0
 10
74.8326891345
 20
35.7101688805
 30
0.0
 10
74.8328751685
 20
35.7086216441
 30
0.0
 10
74.8330278453
 20
35.7059220201
 30
0.0
 10
74.8332430499
 20
35.7027244872
 30
0.0
 10
74.8336142367
 20
35.6969415213
 30
0.0
 10
74.8341473378
 20
35.6887780552
 30
0.0
 10
74.8347858459
 20
35.6789399857
 30
0.0
 10
74.8356376139
 20
35.6658371982
 30
0.0
 10
74.8367021786
 20
35.6494537005
 30
0.0
 10
74.8384055638
 20
35.6232429128
 30
0.0
 10
74.8405347643
 20
35.5904784164
 30
0.0
 10
74.8430898314
 20
35.5511616644
 30
0.0
 10
74.8456448417
 20
35.5118439565
 30
0.0
 10
74.8477741844
 20
35.4790818499
 30
0.0
 10
74.8494772852
 20
35.4528662826
 30
0.0
 10
74.8507556302
 20
35.4332206632
 30
0.0
 10
74.8518176753
 20
35.4167982442
 30
0.0
 10
74.85256747
 20
35.4054027723
 30
0.0
 10
74.8529859885
 20
35.3987345868
 30
0.0
 10
74.8533278661
 20
35.3941742747
 30
0.0
 10
74.8535627569
 20
35.3879288984
 30
0.0
 10
74.8539132629
 20
35.3801894992
 30
0.0
 10
74.8545092611
 20
35.3663716979
 30
0.0
 10
74.8553697773
 20
35.3467751555
 30
0.0
 10
74.8563985058
 20
35.3231980201
 30
0.0
 10
74.8577715034
 20
35.2917832529
 30
0.0
 10
74.8594872806
 20
35.2525074052
 30
0.0
 10
74.8615464288
 20
35.2053797339
 30
0.0
 10
74.8636054665
 20
35.1582505007
 30
0.0
 10
74.8653215202
 20
35.1189785576
 30
0.0
 10
74.8666939648
 20
35.0875559812
 30
0.0
 10
74.8677243799
 20
35.064002664
 30
0.0
 10
74.8685796195
 20
35.0443316082
 30
0.0
 10
74.8691850374
 20
35.0306468247
 30
0.0
 10
74.8695204507
 20
35.0226942978
 30
0.0
 10
74.8698017013
 20
35.0171035814
 30
0.0
 10
74.8699694594
 20
35.0100844752
 30
0.0
 10
74.8702327243
 20
35.0012239053
 30
0.0
 10
74.8706749933
 20
34.9854857693
 30
0.0
 10
74.8713164495
 20
34.9631240845
 30
0.0
 10
74.8720820683
 20
34.9362381054
 30
0.0
 10
74.8731043407
 20
34.9004083237
 30
0.0
 10
74.8743816471
 20
34.8556145609
 30
0.0
 10
74.8759148078
 20
34.8018661315
 30
0.0
 10
74.8774472509
 20
34.7481118156
 30
0.0
 10
74.8789821713
 20
34.6943769595
 30
0.0
 10
74.8802536119
 20
34.649537952
 30
0.0
 10
74.881158622
 20
34.6182680508
 30
0.0
 10
74.8816523514
 20
34.60021626
 30
0.0
 10
74.8820886199
 20
34.5871937002
 30
0.0
 10
74.882272712
 20
34.5721976451
 30
0.0
 10
74.8826061296
 20
34.5528912798
 30
0.0
 10
74.883148632
 20
34.5187844382
 30
0.0
 10
74.8839450242
 20
34.4702278508
 30
0.0
 10
74.8848916935
 20
34.4118891136
 30
0.0
 10
74.8861562968
 20
34.3341246298
 30
0.0
 10
74.8874246376
 20
34.2563788154
 30
0.0
 10
74.8885230647
 20
34.1882887679
 30
0.0
 10
74.8890876997
 20
34.1543292662
 30
0.0
 10
74.889385536
 20
34.1347861503
 30
0.0
 10
74.8896789439
 20
34.1205174375
 30
0.0
 10
74.8897046352
 20
34.1047630716
 30
0.0
 10
74.8898322691
 20
34.0842754689
 30
0.0
 10
74.890012158
 20
34.0481806561
 30
0.0
 10
74.8902915764
 20
33.9967433882
 30
0.0
 10
74.890618555
 20
33.9349622831
 30
0.0
 10
74.8910510585
 20
33.852617788
 30
0.0
 10
74.891521017
 20
33.7702041897
 30
0.0
 10
74.8918812115
 20
33.6879751674
 30
0.0
 10
74.8924431941
 20
33.6258187757
 30
0.0
 10
74.891892712
 20
33.565508596
 30
0.0
 10
74.8915468007
 20
33.4844521985
 30
0.0
 10
74.8909850868
 20
33.3833373565
 30
0.0
 10
74.8904555909
 20
33.2822034254
 30
0.0
 10
74.8901078133
 20
33.2113058023
 30
0.0
 10
74.8898602129
 20
33.1709766667
 30
0.0
 10
74.8898145894
 20
33.1402081169
 30
0.0
 10
74.8892330939
 20
33.1114344636
 30
0.0
 10
74.8886447068
 20
33.0723736495
 30
0.0
 10
74.8875277094
 20
33.004342489
 30
0.0
 10
74.8862890853
 20
32.9264500378
 30
0.0
 10
74.8850364224
 20
32.8486135163
 30
0.0
 10
74.8841010973
 20
32.7902108895
 30
0.0
 10
74.8833136023
 20
32.7416028489
 30
0.0
 10
74.882777451
 20
32.7074605495
 30
0.0
 10
74.8824476186
 20
32.688132427
 30
0.0
 10
74.8822663122
 20
32.6731243809
 30
0.0
 10
74.8818324641
 20
32.6600732704
 30
0.0
 10
74.8813420894
 20
32.6419891882
 30
0.0
 10
74.8804428907
 20
32.6106600855
 30
0.0
 10
74.8791797831
 20
32.5657379132
 30
0.0
 10
74.8776548487
 20
32.5119026497
 30
0.0
 10
74.8761323964
 20
32.4580481114
 30
0.0
 10
74.874609221
 20
32.404199329
 30
0.0
 10
74.8733402501
 20
32.3593222197
 30
0.0
 10
74.8723246142
 20
32.3234251516
 30
0.0
 10
74.8715640596
 20
32.2964903671
 30
0.0
 10
74.8709265478
 20
32.2740827335
 30
0.0
 10
74.8704875809
 20
32.2583227903
 30
0.0
 10
74.870225358
 20
32.2494335876
 30
0.0
 10
74.8700607618
 20
32.2424385624
 30
0.0
 10
74.8697735738
 20
32.2366977906
 30
0.0
 10
74.8694334179
 20
32.2286059305
 30
0.0
 10
74.8688182216
 20
32.2146490137
 30
0.0
 10
74.8679497861
 20
32.1946039918
 30
0.0
 10
74.8669032048
 20
32.1705955825
 30
0.0
 10
74.865509321
 20
32.1385684273
 30
0.0
 10
74.863766429
 20
32.0985400115
 30
0.0
 10
74.8616752001
 20
32.0505032916
 30
0.0
 10
74.8595838648
 20
32.00246821
 30
0.0
 10
74.857841239
 20
31.9624356987
 30
0.0
 10
74.8564468229
 20
31.9304167345
 30
0.0
 10
74.8554018651
 20
31.9063833427
 30
0.0
 10
74.8545283505
 20
31.8864164764
 30
0.0
 10
74.8539222211
 20
31.8723200398
 30
0.0
 10
74.8535675379
 20
31.8644517255
 30
0.0
 10
74.8533249732
 20
31.8580242927
 30
0.0
 10
74.8529927793
 20
31.8536082521
 30
0.0
 10
74.8525811178
 20
31.8470186018
 30
0.0
 10
74.8518461438
 20
31.8358136003
 30
0.0
 10
74.8508037964
 20
31.8196355554
 30
0.0
 10
74.8495497198
 20
31.8002950523
 30
0.0
 10
74.8478787563
 20
31.7744821643
 30
0.0
 10
74.8457896618
 20
31.7422248056
 30
0.0
 10
74.8432829132
 20
31.7035122946
 30
0.0
 10
74.8407761299
 20
31.6648005037
 30
0.0
 10
74.8386871221
 20
31.6325413449
 30
0.0
 10
74.8370159852
 20
31.6067320572
 30
0.0
 10
74.8359713621
 20
31.5906058205
 30
0.0
 10
74.8351360365
 20
31.5776943578
 30
0.0
 10
74.8345085211
 20
31.5680394399
 30
0.0
 10
74.8339888402
 20
31.559902442
 30
0.0
 10
74.8335658094
 20
31.5535974632
 30
0.0
 10
74.8332684454
 20
31.5483096103
 30
0.0
 10
74.8328950883
 20
31.5451559227
 30
0.0
 10
74.8324238241
 20
31.5402055142
 30
0.0
 10
74.8318256364
 20
31.534273278
 30
0.0
 10
74.8311117095
 20
31.527045115
 30
0.0
 10
74.8301584453
 20
31.5174458032
 30
0.0
 10
74.8289673313
 20
31.5054335706
 30
0.0
 10
74.8270612884
 20
31.4862213152
 30
0.0
 10
74.824678824
 20
31.4622034917
 30
0.0
 10
74.821819829
 20
31.4333831489
 30
0.0
 10
74.8189608419
 20
31.404562631
 30
0.0
 10
74.816578358
 20
31.3805452454
 30
0.0
 10
74.8146723539
 20
31.3613321141
 30
0.0
 10
74.8134811412
 20
31.3493221078
 30
0.0
 10
74.8125280797
 20
31.3397182265
 30
0.0
 10
74.8118135336
 20
31.3325040238
 30
0.0
 10
74.8112172831
 20
31.3265281094
 30
0.0
 10
74.8108014687
 20
31.3222744748
 30
0.0
 10
74.8105614233
 20
31.3199538978
 30
0.0
 10
74.8103882546
 20
31.3179033925
 30
0.0
 10
74.8101888432
 20
31.3170381419
 30
0.0
 10
74.809932115
 20
31.3154710443
 30
0.0
 10
74.8094785758
 20
31.3129212482
 30
0.0
 10
74.8088328924
 20
31.3091779761
 30
0.0
 10
74.808057118
 20
31.304729155
 30
0.0
 10
74.8070230854
 20
31.2987823377
 30
0.0
 10
74.8057304305
 20
31.2913539714
 30
0.0
 10
74.8036622464
 20
31.279465703
 30
0.0
 10
74.8010769944
 20
31.2646063634
 30
0.0
 10
74.7979747018
 20
31.2467746989
 30
0.0
 10
74.7948724049
 20
31.228943269
 30
0.0
 10
74.7922871639
 20
31.2140833431
 30
0.0
 10
74.7902189578
 20
31.2021962475
 30
0.0
 10
74.788926359
 20
31.1947649003
 30
0.0
 10
74.7878922112
 20
31.188824201
 30
0.0
 10
74.7871167886
 20
31.1843566887
 30
0.0
 10
74.7864700044
 20
31.180671897
 30
0.0
 10
74.7860184304
 20
31.1780177035
 30
0.0
 10
74.7857585535
 20
31.1766178769
 30
0.0
 10
74.7855688141
 20
31.1752388234
 30
0.0
 10
74.7853593188
 20
31.1751180765
 30
0.0
 10
74.7850868828
 20
31.1745181691
 30
0.0
 10
74.7846069092
 20
31.1736728283
 30
0.0
 10
74.7839229111
 20
31.1723582851
 30
0.0
 10
74.783101395
 20
31.1708265957
 30
0.0
 10
74.7820062911
 20
31.1687683593
 30
0.0
 10
74.7806373253
 20
31.1662010366
 30
0.0
 10
74.7784470281
 20
31.1620902616
 30
0.0
 10
74.7757091401
 20
31.1569528424
 30
0.0
 10
74.7724236815
 20
31.1507874894
 30
0.0
 10
74.7691382211
 20
31.1446222568
 30
0.0
 10
74.7647576078
 20
31.1364019044
 30
0.0
 10
74.7614721477
 20
31.1302366497
 30
0.0
 10
74.759281841
 20
31.1261264777
 30
0.0
  0
SPLINE
  5
2B9
330
1B
100
AcDbEntity
 67
     1
  8
0
  6
Continuous
 62
     2
100
AcDbSpline
 70
     0
 71
     3
 72
   244
 73
   240
 74
     0
 42
0.000000001
 43
0.0000001
 40
0.0
 40
0.0
 40
0.0
 40
0.0
 40
0.015625
 40
0.0234375
 40
0.03125
 40
0.0390625
 40
0.046875
 40
0.05078125
 40
0.0546875
 40
0.056640625
 40
0.05859375
 40
0.060546875
 40
0.0615234375
 40
0.0620117188
 40
0.0625
 40
0.0629882812
 40
0.0634765625
 40
0.064453125
 40
0.06640625
 40
0.068359375
 40
0.0703125
 40
0.07421875
 40
0.078125
 40
0.0859375
 40
0.09375
 40
0.1015625
 40
0.109375
 40
0.11328125
 40
0.1171875
 40
0.119140625
 40
0.12109375
 40
0.123046875
 40
0.1240234375
 40
0.1245117188
 40
0.125
 40
0.1254882812
 40
0.1259765625
 40
0.126953125
 40
0.12890625
 40
0.130859375
 40
0.1328125
 40
0.13671875
 40
0.140625
 40
0.1484375
 40
0.15625
 40
0.1640625
 40
0.171875
 40
0.17578125
 40
0.1796875
 40
0.181640625
 40
0.18359375
 40
0.185546875
 40
0.1865234375
 40
0.1870117188
 40
0.1875
 40
0.1879882812
 40
0.1884765625
 40
0.189453125
 40
0.19140625
 40
0.193359375
 40
0.1953125
 40
0.19921875
 40
0.203125
 40
0.2109375
 40
0.21875
 40
0.2265625
 40
0.234375
 40
0.23828125
 40
0.2421875
 40
0.24609375
 40
0.248046875
 40
0.2490234375
 40
0.25
 40
0.2509765625
 40
0.251953125
 40
0.25390625
 40
0.2578125
 40
0.26171875
 40
0.265625
 40
0.2734375
 40
0.28125
 40
0.2890625
 40
0.296875
 40
0.30078125
 40
0.3046875
 40
0.30859375
 40
0.310546875
 40
0.3115234375
 40
0.3125
 40
0.3134765625
 40
0.314453125
 40
0.31640625
 40
0.3203125
 40
0.32421875
 40
0.328125
 40
0.3359375
 40
0.34375
 40
0.3515625
 40
0.359375
 40
0.3671875
 40
0.37109375
 40
0.373046875
 40
0.375
 40
0.376953125
 40
0.37890625
 40
0.3828125
 40
0.390625
 40
0.3984375
 40
0.40625
 40
0.421875
 40
0.4296875
 40
0.43359375
 40
0.435546875
 40
0.4375
 40
0.439453125
 40
0.44140625
 40
0.4453125
 40
0.453125
 40
0.4609375
 40
0.46875
 40
0.484375
 40
0.4921875
 40
0.5
 40
0.5078125
 40
0.515625
 40
0.53125
 40
0.546875
 40
0.5546875
 40
0.55859375
 40
0.5625
 40
0.56640625
 40
0.5703125
 40
0.578125
 40
0.59375
 40
0.6015625
 40
0.609375
 40
0.6171875
 40
0.62109375
 40
0.623046875
 40
0.625
 40
0.626953125
 40
0.62890625
 40
0.6328125
 40
0.640625
 40
0.6484375
 40
0.65625
 40
0.6640625
 40
0.671875
 40
0.67578125
 40
0.6796875
 40
0.68359375
 40
0.685546875
 40
0.6865234375
 40
0.6875
 40
0.6884765625
 40
0.689453125
 40
0.69140625
 40
0.6953125
 40
0.69921875
 40
0.703125
 40
0.7109375
 40
0.71875
 40
0.7265625
 40
0.734375
 40
0.73828125
 40
0.7421875
 40
0.74609375
 40
0.748046875
 40
0.7490234375
 40
0.75
 40
0.7509765625
 40
0.751953125
 40
0.75390625
 40
0.7578125
 40
0.76171875
 40
0.765625
 40
0.7734375
 40
0.78125
 40
0.7890625
 40
0.796875
 40
0.80078125
 40
0.8046875
 40
0.806640625
 40
0.80859375
 40
0.810546875
 40
0.8115234375
 40
0.8125
 40
0.8134765625
 40
0.814453125
 40
0.81640625
 40
0.818359375
 40
0.8203125
 40
0.82421875
 40
0.828125
 40
0.8359375
 40
0.84375
 40
0.8515625
 40
0.859375
 40
0.86328125
 40
0.8671875
 40
0.869140625
 40
0.87109375
 40
0.873046875
 40
0.8740234375
 40
0.8745117188
 40
0.875
 40
0.8754882812
 40
0.8759765625
 40
0.876953125
 40
0.87890625
 40
0.880859375
 40
0.8828125
 40
0.88671875
 40
0.890625
 40
0.8984375
 40
0.90625
 40
0.9140625
 40
0.921875
 40
0.92578125
 40
0.9296875
 40
0.931640625
 40
0.93359375
 40
0.935546875
 40
0.9365234375
 40
0.9370117188
 40
0.9375
 40
0.9379882812
 40
0.9384765625
 40
0.939453125
 40
0.94140625
 40
0.943359375
 40
0.9453125
 40
0.94921875
 40
0.953125
 40
0.9609375
 40
0.96875
 40
0.9765625
 40
0.984375
 40
1.0
 40
1.0
 40
1.0
 40
1.0
 10
168.9912275771
 20
31.1261264777
 30
0.0
 10
168.9890752026
 20
31.1300941537
 30
0.0
 10
168.9858466409
 20
31.1360456645
 30
0.0
 10
168.981541892
 20
31.1439810249
 30
0.0
 10
168.9783133301
 20
31.1499325134
 30
0.0
 10
168.9750847694
 20
31.1558841225
 30
0.0
 10
168.9723942982
 20
31.1608434215
 30
0.0
 10
168.9702419301
 20
31.1648117011
 30
0.0
 10
168.9688966798
 20
31.1672899624
 30
0.0
 10
168.9678205258
 20
31.1692769536
 30
0.0
 10
168.9670132839
 20
31.1707551987
 30
0.0
 10
168.9663409843
 20
31.1720252378
 30
0.0
 10
168.9658695857
 20
31.1728393614
 30
0.0
 10
168.9656014469
 20
31.1734215309
 30
0.0
 10
168.9653968728
 20
31.173528691
 30
0.0
 10
168.9652055626
 20
31.1748952412
 30
0.0
 10
168.9649458558
 20
31.1762780187
 30
0.0
 10
168.9644935244
 20
31.1789025524
 30
0.0
 10
168.9638462097
 20
31.182544881
 30
0.0
 10
168.9630699144
 20
31.1869614769
 30
0.0
 10
168.9620346856
 20
31.1928342739
 30
0.0
 10
168.9607407073
 20
31.200180748
 30
0.0
 10
168.9586703097
 20
31.2119320439
 30
0.0
 10
168.956082324
 20
31.2266222212
 30
0.0
 10
168.9529767357
 20
31.2442499524
 30
0.0
 10
168.9498711511
 20
31.2618779183
 30
0.0
 10
168.9472831559
 20
31.2765675086
 30
0.0
 10
168.9452127772
 20
31.2883199787
 30
0.0
 10
168.943918751
 20
31.2956634684
 30
0.0
 10
168.9428836205
 20
31.3015423905
 30
0.0
 10
168.9421070248
 20
31.3059402738
 30
0.0
 10
168.9414606503
 20
31.3096411497
 30
0.0
 10
168.9410066405
 20
31.3121611665
 30
0.0
 10
168.9407496229
 20
31.3137114066
 30
0.0
 10
168.940550052
 20
31.3145635654
 30
0.0
 10
168.9403765037
 20
31.316602694
 30
0.0
 10
168.9401360289
 20
31.3189075037
 30
0.0
 10
168.9397194272
 20
31.3231338243
 30
0.0
 10
168.9391220709
 20
31.3290705729
 30
0.0
 10
168.9384061897
 20
31.3362378392
 30
0.0
 10
168.9374513508
 20
31.3457791166
 30
0.0
 10
168.9362579155
 20
31.3577108761
 30
0.0
 10
168.9343483556
 20
31.376798805
 30
0.0
 10
168.9319614277
 20
31.4006597128
 30
0.0
 10
168.929097104
 20
31.4292923474
 30
0.0
 10
168.926232786
 20
31.4579252065
 30
0.0
 10
168.9238458438
 20
31.4817855529
 30
0.0
 10
168.9219363125
 20
31.5008746046
 30
0.0
 10
168.9207428047
 20
31.5128035104
 30
0.0
 10
168.9197881145
 20
31.5223506449
 30
0.0
 10
168.9190717791
 20
31.529500017
 30
0.0
 10
168.9184758439
 20
31.5354927523
 30
0.0
 10
168.9180567053
 20
31.5396191273
 30
0.0
 10
168.9178202953
 20
31.5420840749
 30
0.0
 10
168.9176342613
 20
31.5436313113
 30
0.0
 10
168.9174815844
 20
31.5463309353
 30
0.0
 10
168.9172663798
 20
31.5495284682
 30
0.0
 10
168.916895193
 20
31.5553114341
 30
0.0
 10
168.916362092
 20
31.5634749002
 30
0.0
 10
168.9157235838
 20
31.5733129697
 30
0.0
 10
168.9148718159
 20
31.5864157572
 30
0.0
 10
168.9138072511
 20
31.6027992549
 30
0.0
 10
168.9121038659
 20
31.6290100426
 30
0.0
 10
168.9099746654
 20
31.661774539
 30
0.0
 10
168.9074195983
 20
31.701091291
 30
0.0
 10
168.904864588
 20
31.7404089989
 30
0.0
 10
168.9027352453
 20
31.7731711055
 30
0.0
 10
168.9010321445
 20
31.7993866729
 30
0.0
 10
168.8997537995
 20
31.8190322922
 30
0.0
 10
168.8986917544
 20
31.8354547112
 30
0.0
 10
168.8979419597
 20
31.8468501831
 30
0.0
 10
168.8975234412
 20
31.8535183686
 30
0.0
 10
168.8971815636
 20
31.8580786807
 30
0.0
 10
168.8969466728
 20
31.8643240571
 30
0.0
 10
168.8965961668
 20
31.8720634563
 30
0.0
 10
168.8960001686
 20
31.8858812575
 30
0.0
 10
168.8951396524
 20
31.9054777999
 30
0.0
 10
168.8941109239
 20
31.9290549353
 30
0.0
 10
168.8927379263
 20
31.9604697025
 30
0.0
 10
168.8910221491
 20
31.9997455502
 30
0.0
 10
168.8889630009
 20
32.0468732215
 30
0.0
 10
168.8869039632
 20
32.0940024547
 30
0.0
 10
168.8851879095
 20
32.1332743978
 30
0.0
 10
168.8838154649
 20
32.1646969742
 30
0.0
 10
168.8827850498
 20
32.1882502914
 30
0.0
 10
168.8819298102
 20
32.2079213472
 30
0.0
 10
168.8813243923
 20
32.2216061307
 30
0.0
 10
168.880988979
 20
32.2295586576
 30
0.0
 10
168.8807077285
 20
32.235149374
 30
0.0
 10
168.8805399703
 20
32.2421684802
 30
0.0
 10
168.8802767054
 20
32.2510290501
 30
0.0
 10
168.8798344364
 20
32.2667671861
 30
0.0
 10
168.8791929802
 20
32.2891288709
 30
0.0
 10
168.8784273614
 20
32.31601485
 30
0.0
 10
168.877405089
 20
32.3518446317
 30
0.0
 10
168.8761277826
 20
32.3966383945
 30
0.0
 10
168.8745946219
 20
32.4503868239
 30
0.0
 10
168.8730621788
 20
32.5041411398
 30
0.0
 10
168.8715272584
 20
32.5578759959
 30
0.0
 10
168.8702558178
 20
32.6027150034
 30
0.0
 10
168.8693508077
 20
32.6339849046
 30
0.0
 10
168.8688570784
 20
32.6520366954
 30
0.0
 10
168.8684208098
 20
32.6650592552
 30
0.0
 10
168.8682367177
 20
32.6800553103
 30
0.0
 10
168.8679033001
 20
32.6993616756
 30
0.0
 10
168.8673607977
 20
32.7334685172
 30
0.0
 10
168.8665644055
 20
32.7820251046
 30
0.0
 10
168.8656177362
 20
32.8403638419
 30
0.0
 10
168.8643531329
 20
32.9181283256
 30
0.0
 10
168.8630847921
 20
32.99587414
 30
0.0
 10
168.861986365
 20
33.0639641875
 30
0.0
 10
168.86142173
 20
33.0979236892
 30
0.0
 10
168.8611238937
 20
33.1174668051
 30
0.0
 10
168.8608304858
 20
33.1317355179
 30
0.0
 10
168.8608047945
 20
33.1474898838
 30
0.0
 10
168.8606771606
 20
33.1679774865
 30
0.0
 10
168.8604972717
 20
33.2040722993
 30
0.0
 10
168.8602178533
 20
33.2555095672
 30
0.0
 10
168.8598908747
 20
33.3172906723
 30
0.0
 10
168.8594583712
 20
33.3996351674
 30
0.0
 10
168.8589884127
 20
33.4820487657
 30
0.0
 10
168.8586282182
 20
33.564277788
 30
0.0
 10
168.8580662356
 20
33.6264341797
 30
0.0
 10
168.8586167177
 20
33.6867443594
 30
0.0
 10
168.858962629
 20
33.7678007569
 30
0.0
 10
168.8595243429
 20
33.8689155989
 30
0.0
 10
168.8600538388
 20
33.97004953
 30
0.0
 10
168.8604016164
 20
34.0409471531
 30
0.0
 10
168.8606492168
 20
34.0812762887
 30
0.0
 10
168.8606948403
 20
34.1120448385
 30
0.0
 10
168.8612763358
 20
34.1408184918
 30
0.0
 10
168.8618647229
 20
34.1798793059
 30
0.0
 10
168.8629817203
 20
34.2479104665
 30
0.0
 10
168.8642203444
 20
34.3258029176
 30
0.0
 10
168.8654730073
 20
34.4036394391
 30
0.0
 10
168.8664083324
 20
34.4620420659
 30
0.0
 10
168.8671958274
 20
34.5106501065
 30
0.0
 10
168.8677319787
 20
34.544792406
 30
0.0
 10
168.8680618111
 20
34.5641205284
 30
0.0
 10
168.8682431175
 20
34.5791285745
 30
0.0
 10
168.8686769656
 20
34.592179685
 30
0.0
 10
168.8691673403
 20
34.6102637672
 30
0.0
 10
168.870066539
 20
34.6415928699
 30
0.0
 10
168.8713296466
 20
34.6865150422
 30
0.0
 10
168.872854581
 20
34.7403503057
 30
0.0
 10
168.8743770333
 20
34.794204844
 30
0.0
 10
168.8759002087
 20
34.8480536265
 30
0.0
 10
168.8771691796
 20
34.8929307357
 30
0.0
 10
168.8781848155
 20
34.9288278038
 30
0.0
 10
168.8789453701
 20
34.9557625883
 30
0.0
 10
168.879582882
 20
34.9781702219
 30
0.0
 10
168.8800218488
 20
34.9939301651
 30
0.0
 10
168.8802840717
 20
35.0028193678
 30
0.0
 10
168.8804486679
 20
35.0098143931
 30
0.0
 10
168.8807358559
 20
35.0155551649
 30
0.0
 10
168.8810760118
 20
35.0236470249
 30
0.0
 10
168.8816912081
 20
35.0376039417
 30
0.0
 10
168.8825596436
 20
35.0576489636
 30
0.0
 10
168.8836062249
 20
35.0816573729
 30
0.0
 10
168.8850001088
 20
35.1136845281
 30
0.0
 10
168.8867430007
 20
35.153712944
 30
0.0
 10
168.8888342296
 20
35.2017496638
 30
0.0
 10
168.8909255649
 20
35.2497847454
 30
0.0
 10
168.8926681907
 20
35.2898172567
 30
0.0
 10
168.8940626068
 20
35.3218362209
 30
0.0
 10
168.8951075646
 20
35.3458696127
 30
0.0
 10
168.8959810792
 20
35.365836479
 30
0.0
 10
168.8965872086
 20
35.3799329156
 30
0.0
 10
168.8969418918
 20
35.3878012299
 30
0.0
 10
168.8971844565
 20
35.3942286627
 30
0.0
 10
168.8975166504
 20
35.3986447034
 30
0.0
 10
168.897928312
 20
35.4052343537
 30
0.0
 10
168.8986632859
 20
35.4164393551
 30
0.0
 10
168.8997056334
 20
35.4326174
 30
0.0
 10
168.9009597099
 20
35.4519579032
 30
0.0
 10
168.9026306734
 20
35.4777707911
 30
0.0
 10
168.9047197679
 20
35.5100281498
 30
0.0
 10
168.9072265165
 20
35.5487406608
 30
0.0
 10
168.9097332999
 20
35.5874524517
 30
0.0
 10
168.9118223076
 20
35.6197116105
 30
0.0
 10
168.9134934445
 20
35.6455208982
 30
0.0
 10
168.9145380676
 20
35.6616471349
 30
0.0
 10
168.9153733932
 20
35.6745585976
 30
0.0
 10
168.9160009086
 20
35.6842135155
 30
0.0
 10
168.9165205895
 20
35.6923505134
 30
0.0
 10
168.9169436203
 20
35.6986554922
 30
0.0
 10
168.9172409844
 20
35.7039433451
 30
0.0
 10
168.9176143415
 20
35.7070970327
 30
0.0
 10
168.9180856056
 20
35.7120474412
 30
0.0
 10
168.9186837933
 20
35.7179796774
 30
0.0
 10
168.9193977202
 20
35.7252078404
 30
0.0
 10
168.9203509844
 20
35.7348071522
 30
0.0
 10
168.9215420984
 20
35.7468193848
 30
0.0
 10
168.9234481413
 20
35.7660316402
 30
0.0
 10
168.9258306057
 20
35.7900494637
 30
0.0
 10
168.9286896007
 20
35.8188698065
 30
0.0
 10
168.9315485878
 20
35.8476903244
 30
0.0
 10
168.9339310717
 20
35.87170771
 30
0.0
 10
168.9358370758
 20
35.8909208413
 30
0.0
 10
168.9370282885
 20
35.9029308476
 30
0.0
 10
168.93798135
 20
35.9125347289
 30
0.0
 10
168.9386958961
 20
35.9197489316
 30
0.0
 10
168.9392921466
 20
35.925724846
 30
0.0
 10
168.939707961
 20
35.9299784806
 30
0.0
 10
168.9399480064
 20
35.9322990576
 30
0.0
 10
168.9401211751
 20
35.934349563
 30
0.0
 10
168.9403205865
 20
35.9352148135
 30
0.0
 10
168.9405773147
 20
35.9367819112
 30
0.0
 10
168.9410308539
 20
35.9393317072
 30
0.0
 10
168.9416765373
 20
35.9430749794
 30
0.0
 10
168.9424523118
 20
35.9475238004
 30
0.0
 10
168.9434863444
 20
35.9534706177
 30
0.0
 10
168.9447789993
 20
35.960898984
 30
0.0
 10
168.9468471833
 20
35.9727872524
 30
0.0
 10
168.9494324353
 20
35.987646592
 30
0.0
 10
168.9525347279
 20
36.0054782565
 30
0.0
 10
168.9556370248
 20
36.0233096864
 30
0.0
 10
168.9582222658
 20
36.0381696123
 30
0.0
 10
168.9602904719
 20
36.050056708
 30
0.0
 10
168.9615830707
 20
36.0574880551
 30
0.0
 10
168.9626172185
 20
36.0634287544
 30
0.0
 10
168.9633926411
 20
36.0678962667
 30
0.0
 10
168.9640394253
 20
36.0715810584
 30
0.0
 10
168.9644909993
 20
36.0742352519
 30
0.0
 10
168.9647508762
 20
36.0756350785
 30
0.0
 10
168.9649406157
 20
36.077014132
 30
0.0
 10
168.9651501109
 20
36.077134879
 30
0.0
 10
168.9654225469
 20
36.0777347863
 30
0.0
 10
168.9659025205
 20
36.0785801271
 30
0.0
 10
168.9665865186
 20
36.0798946703
 30
0.0
 10
168.9674080347
 20
36.0814263597
 30
0.0
 10
168.9685031386
 20
36.0834845962
 30
0.0
 10
168.9698721044
 20
36.0860519188
 30
0.0
 10
168.9720624016
 20
36.0901626939
 30
0.0
 10
168.9748002896
 20
36.0953001131
 30
0.0
 10
168.9780857482
 20
36.1014654661
 30
0.0
 10
168.9813712087
 20
36.1076306986
 30
0.0
 10
168.9857518219
 20
36.115851051
 30
0.0
 10
168.989037282
 20
36.1220163058
 30
0.0
 10
168.9912275887
 20
36.1261264777
 30
0.0
  0
SPLINE
  5
2BA
330
1B
100
AcDbEntity
 67
     1
  8
0
  6
Continuous
 62
     2
100
AcDbSpline
 70
     0
 71
     3
 72
   244
 73
   240
 74
     0
 42
0.000000001
 43
0.0000001
 40
0.0
 40
0.0
 40
0.0
 40
0.0
 40
0.015625
 40
0.0234375
 40
0.03125
 40
0.0390625
 40
0.046875
 40
0.05078125
 40
0.0546875
 40
0.056640625
 40
0.05859375
 40
0.060546875
 40
0.0615234375
 40
0.0620117188
 40
0.0625
 40
0.0629882812
 40
0.0634765625
 40
0.064453125
 40
0.06640625
 40
0.068359375
 40
0.0703125
 40
0.07421875
 40
0.078125
 40
0.0859375
 40
0.09375
 40
0.1015625
 40
0.109375
 40
0.11328125
 40
0.1171875
 40
0.119140625
 40
0.12109375
 40
0.123046875
 40
0.1240234375
 40
0.1245117188
 40
0.125
 40
0.1254882812
 40
0.1259765625
 40
0.126953125
 40
0.12890625
 40
0.130859375
 40
0.1328125
 40
0.13671875
 40
0.140625
 40
0.1484375
 40
0.15625
 40
0.1640625
 40
0.171875
 40
0.17578125
 40
0.1796875
 40
0.181640625
 40
0.18359375
 40
0.185546875
 40
0.1865234375
 40
0.1870117188
 40
0.1875
 40
0.1879882812
 40
0.1884765625
 40
0.189453125
 40
0.19140625
 40
0.193359375
 40
0.1953125
 40
0.19921875
 40
0.203125
 40
0.2109375
 40
0.21875
 40
0.2265625
 40
0.234375
 40
0.23828125
 40
0.2421875
 40
0.24609375
 40
0.248046875
 40
0.2490234375
 40
0.25
 40
0.2509765625
 40
0.251953125
 40
0.25390625
 40
0.2578125
 40
0.26171875
 40
0.265625
 40
0.2734375
 40
0.28125
 40
0.2890625
 40
0.296875
 40
0.30078125
 40
0.3046875
 40
0.30859375
 40
0.310546875
 40
0.3115234375
 40
0.3125
 40
0.3134765625
 40
0.314453125
 40
0.31640625
 40
0.3203125
 40
0.32421875
 40
0.328125
 40
0.3359375
 40
0.34375
 40
0.3515625
 40
0.359375
 40
0.3671875
 40
0.37109375
 40
0.373046875
 40
0.375
 40
0.376953125
 40
0.37890625
 40
0.3828125
 40
0.390625
 40
0.3984375
 40
0.40625
 40
0.421875
 40
0.4296875
 40
0.43359375
 40
0.435546875
 40
0.4375
 40
0.439453125
 40
0.44140625
 40
0.4453125
 40
0.453125
 40
0.4609375
 40
0.46875
 40
0.484375
 40
0.4921875
 40
0.5
 40
0.5078125
 40
0.515625
 40
0.53125
 40
0.546875
 40
0.5546875
 40
0.55859375
 40
0.5625
 40
0.56640625
 40
0.5703125
 40
0.578125
 40
0.59375
 40
0.6015625
 40
0.609375
 40
0.6171875
 40
0.62109375
 40
0.623046875
 40
0.625
 40
0.626953125
 40
0.62890625
 40
0.6328125
 40
0.640625
 40
0.6484375
 40
0.65625
 40
0.6640625
 40
0.671875
 40
0.67578125
 40
0.6796875
 40
0.68359375
 40
0.685546875
 40
0.6865234375
 40
0.6875
 40
0.6884765625
 40
0.689453125
 40
0.69140625
 40
0.6953125
 40
0.69921875
 40
0.703125
 40
0.7109375
 40
0.71875
 40
0.7265625
 40
0.734375
 40
0.73828125
 40
0.7421875
 40
0.74609375
 40
0.748046875
 40
0.7490234375
 40
0.75
 40
0.7509765625
 40
0.751953125
 40
0.75390625
 40
0.7578125
 40
0.76171875
 40
0.765625
 40
0.7734375
 40
0.78125
 40
0.7890625
 40
0.796875
 40
0.80078125
 40
0.8046875
 40
0.806640625
 40
0.80859375
 40
0.810546875
 40
0.8115234375
 40
0.8125
 40
0.8134765625
 40
0.814453125
 40
0.81640625
 40
0.818359375
 40
0.8203125
 40
0.82421875
 40
0.828125
 40
0.8359375
 40
0.84375
 40
0.8515625
 40
0.859375
 40
0.86328125
 40
0.8671875
 40
0.869140625
 40
0.87109375
 40
0.873046875
 40
0.8740234375
 40
0.8745117188
 40
0.875
 40
0.8754882812
 40
0.8759765625
 40
0.876953125
 40
0.87890625
 40
0.880859375
 40
0.8828125
 40
0.88671875
 40
0.890625
 40
0.8984375
 40
0.90625
 40
0.9140625
 40
0.921875
 40
0.92578125
 40
0.9296875
 40
0.931640625
 40
0.93359375
 40
0.935546875
 40
0.9365234375
 40
0.9370117188
 40
0.9375
 40
0.9379882812
 40
0.9384765625
 40
0.939453125
 40
0.94140625
 40
0.943359375
 40
0.9453125
 40
0.94921875
 40
0.953125
 40
0.9609375
 40
0.96875
 40
0.9765625
 40
0.984375
 40
1.0
 40
1.0
 40
1.0
 40
1.0
 10
168.9912275771
 20
112.1261264777
 30
0.0
 10
168.9890752026
 20
112.1300941537
 30
0.0
 10
168.9858466409
 20
112.1360456645
 30
0.0
 10
168.981541892
 20
112.1439810249
 30
0.0
 10
168.9783133301
 20
112.1499325134
 30
0.0
 10
168.9750847694
 20
112.1558841225
 30
0.0
 10
168.9723942982
 20
112.1608434215
 30
0.0
 10
168.9702419301
 20
112.1648117011
 30
0.0
 10
168.9688966798
 20
112.1672899624
 30
0.0
 10
168.9678205258
 20
112.1692769536
 30
0.0
 10
168.9670132839
 20
112.1707551987
 30
0.0
 10
168.9663409843
 20
112.1720252378
 30
0.0
 10
168.9658695857
 20
112.1728393614
 30
0.0
 10
168.9656014469
 20
112.1734215309
 30
0.0
 10
168.9653968728
 20
112.173528691
 30
0.0
 10
168.9652055626
 20
112.1748952412
 30
0.0
 10
168.9649458558
 20
112.1762780187
 30
0.0
 10
168.9644935244
 20
112.1789025524
 30
0.0
 10
168.9638462097
 20
112.182544881
 30
0.0
 10
168.9630699144
 20
112.1869614769
 30
0.0
 10
168.9620346856
 20
112.1928342739
 30
0.0
 10
168.9607407073
 20
112.200180748
 30
0.0
 10
168.9586703097
 20
112.2119320439
 30
0.0
 10
168.956082324
 20
112.2266222212
 30
0.0
 10
168.9529767357
 20
112.2442499524
 30
0.0
 10
168.9498711511
 20
112.2618779183
 30
0.0
 10
168.9472831559
 20
112.2765675086
 30
0.0
 10
168.9452127772
 20
112.2883199787
 30
0.0
 10
168.943918751
 20
112.2956634684
 30
0.0
 10
168.9428836205
 20
112.3015423905
 30
0.0
 10
168.9421070248
 20
112.3059402738
 30
0.0
 10
168.9414606503
 20
112.3096411497
 30
0.0
 10
168.9410066405
 20
112.3121611665
 30
0.0
 10
168.9407496229
 20
112.3137114066
 30
0.0
 10
168.940550052
 20
112.3145635654
 30
0.0
 10
168.9403765037
 20
112.316602694
 30
0.0
 10
168.9401360289
 20
112.3189075037
 30
0.0
 10
168.9397194272
 20
112.3231338243
 30
0.0
 10
168.9391220709
 20
112.3290705729
 30
0.0
 10
168.9384061897
 20
112.3362378392
 30
0.0
 10
168.9374513508
 20
112.3457791166
 30
0.0
 10
168.9362579155
 20
112.3577108761
 30
0.0
 10
168.9343483556
 20
112.376798805
 30
0.0
 10
168.9319614277
 20
112.4006597128
 30
0.0
 10
168.929097104
 20
112.4292923474
 30
0.0
 10
168.926232786
 20
112.4579252065
 30
0.0
 10
168.9238458438
 20
112.4817855529
 30
0.0
 10
168.9219363125
 20
112.5008746046
 30
0.0
 10
168.9207428047
 20
112.5128035104
 30
0.0
 10
168.9197881145
 20
112.5223506449
 30
0.0
 10
168.9190717791
 20
112.529500017
 30
0.0
 10
168.9184758439
 20
112.5354927523
 30
0.0
 10
168.9180567053
 20
112.5396191273
 30
0.0
 10
168.9178202953
 20
112.5420840749
 30
0.0
 10
168.9176342613
 20
112.5436313113
 30
0.0
 10
168.9174815844
 20
112.5463309353
 30
0.0
 10
168.9172663798
 20
112.5495284682
 30
0.0
 10
168.916895193
 20
112.5553114341
 30
0.0
 10
168.916362092
 20
112.5634749002
 30
0.0
 10
168.9157235838
 20
112.5733129697
 30
0.0
 10
168.9148718159
 20
112.5864157572
 30
0.0
 10
168.9138072511
 20
112.6027992549
 30
0.0
 10
168.9121038659
 20
112.6290100426
 30
0.0
 10
168.9099746654
 20
112.661774539
 30
0.0
 10
168.9074195983
 20
112.701091291
 30
0.0
 10
168.904864588
 20
112.7404089989
 30
0.0
 10
168.9027352453
 20
112.7731711055
 30
0.0
 10
168.9010321445
 20
112.7993866729
 30
0.0
 10
168.8997537995
 20
112.8190322922
 30
0.0
 10
168.8986917544
 20
112.8354547112
 30
0.0
 10
168.8979419597
 20
112.8468501831
 30
0.0
 10
168.8975234412
 20
112.8535183686
 30
0.0
 10
168.8971815636
 20
112.8580786807
 30
0.0
 10
168.8969466728
 20
112.8643240571
 30
0.0
 10
168.8965961668
 20
112.8720634563
 30
0.0
 10
168.8960001686
 20
112.8858812575
 30
0.0
 10
168.8951396524
 20
112.9054777999
 30
0.0
 10
168.8941109239
 20
112.9290549353
 30
0.0
 10
168.8927379263
 20
112.9604697025
 30
0.0
 10
168.8910221491
 20
112.9997455502
 30
0.0
 10
168.8889630009
 20
113.0468732215
 30
0.0
 10
168.8869039632
 20
113.0940024547
 30
0.0
 10
168.8851879095
 20
113.1332743978
 30
0.0
 10
168.8838154649
 20
113.1646969742
 30
0.0
 10
168.8827850498
 20
113.1882502914
 30
0.0
 10
168.8819298102
 20
113.2079213472
 30
0.0
 10
168.8813243923
 20
113.2216061307
 30
0.0
 10
168.880988979
 20
113.2295586576
 30
0.0
 10
168.8807077285
 20
113.235149374
 30
0.0
 10
168.8805399703
 20
113.2421684802
 30
0.0
 10
168.8802767054
 20
113.2510290501
 30
0.0
 10
168.8798344364
 20
113.2667671861
 30
0.0
 10
168.8791929802
 20
113.2891288709
 30
0.0
 10
168.8784273614
 20
113.31601485
 30
0.0
 10
168.877405089
 20
113.3518446317
 30
0.0
 10
168.8761277826
 20
113.3966383945
 30
0.0
 10
168.8745946219
 20
113.4503868239
 30
0.0
 10
168.8730621788
 20
113.5041411398
 30
0.0
 10
168.8715272584
 20
113.5578759959
 30
0.0
 10
168.8702558178
 20
113.6027150034
 30
0.0
 10
168.8693508077
 20
113.6339849046
 30
0.0
 10
168.8688570784
 20
113.6520366954
 30
0.0
 10
168.8684208098
 20
113.6650592552
 30
0.0
 10
168.8682367177
 20
113.6800553103
 30
0.0
 10
168.8679033001
 20
113.6993616756
 30
0.0
 10
168.8673607977
 20
113.7334685172
 30
0.0
 10
168.8665644055
 20
113.7820251046
 30
0.0
 10
168.8656177362
 20
113.8403638419
 30
0.0
 10
168.8643531329
 20
113.9181283256
 30
0.0
 10
168.8630847921
 20
113.99587414
 30
0.0
 10
168.861986365
 20
114.0639641875
 30
0.0
 10
168.86142173
 20
114.0979236892
 30
0.0
 10
168.8611238937
 20
114.1174668051
 30
0.0
 10
168.8608304858
 20
114.1317355179
 30
0.0
 10
168.8608047945
 20
114.1474898838
 30
0.0
 10
168.8606771606
 20
114.1679774865
 30
0.0
 10
168.8604972717
 20
114.2040722993
 30
0.0
 10
168.8602178533
 20
114.2555095672
 30
0.0
 10
168.8598908747
 20
114.3172906723
 30
0.0
 10
168.8594583712
 20
114.3996351674
 30
0.0
 10
168.8589884127
 20
114.4820487657
 30
0.0
 10
168.8586282182
 20
114.564277788
 30
0.0
 10
168.8580662356
 20
114.6264341797
 30
0.0
 10
168.8586167177
 20
114.6867443594
 30
0.0
 10
168.858962629
 20
114.7678007569
 30
0.0
 10
168.8595243429
 20
114.8689155989
 30
0.0
 10
168.8600538388
 20
114.97004953
 30
0.0
 10
168.8604016164
 20
115.0409471531
 30
0.0
 10
168.8606492168
 20
115.0812762887
 30
0.0
 10
168.8606948403
 20
115.1120448385
 30
0.0
 10
168.8612763358
 20
115.1408184918
 30
0.0
 10
168.8618647229
 20
115.1798793059
 30
0.0
 10
168.8629817203
 20
115.2479104665
 30
0.0
 10
168.8642203444
 20
115.3258029176
 30
0.0
 10
168.8654730073
 20
115.4036394391
 30
0.0
 10
168.8664083324
 20
115.4620420659
 30
0.0
 10
168.8671958274
 20
115.5106501065
 30
0.0
 10
168.8677319787
 20
115.544792406
 30
0.0
 10
168.8680618111
 20
115.5641205284
 30
0.0
 10
168.8682431175
 20
115.5791285745
 30
0.0
 10
168.8686769656
 20
115.592179685
 30
0.0
 10
168.8691673403
 20
115.6102637672
 30
0.0
 10
168.870066539
 20
115.6415928699
 30
0.0
 10
168.8713296466
 20
115.6865150422
 30
0.0
 10
168.872854581
 20
115.7403503057
 30
0.0
 10
168.8743770333
 20
115.794204844
 30
0.0
 10
168.8759002087
 20
115.8480536265
 30
0.0
 10
168.8771691796
 20
115.8929307357
 30
0.0
 10
168.8781848155
 20
115.9288278038
 30
0.0
 10
168.8789453701
 20
115.9557625883
 30
0.0
 10
168.879582882
 20
115.9781702219
 30
0.0
 10
168.8800218488
 20
115.9939301651
 30
0.0
 10
168.8802840717
 20
116.0028193678
 30
0.0
 10
168.8804486679
 20
116.0098143931
 30
0.0
 10
168.8807358559
 20
116.0155551649
 30
0.0
 10
168.8810760118
 20
116.0236470249
 30
0.0
 10
168.8816912081
 20
116.0376039417
 30
0.0
 10
168.8825596436
 20
116.0576489636
 30
0.0
 10
168.8836062249
 20
116.0816573729
 30
0.0
 10
168.8850001088
 20
116.1136845281
 30
0.0
 10
168.8867430007
 20
116.153712944
 30
0.0
 10
168.8888342296
 20
116.2017496638
 30
0.0
 10
168.8909255649
 20
116.2497847454
 30
0.0
 10
168.8926681907
 20
116.2898172567
 30
0.0
 10
168.8940626068
 20
116.3218362209
 30
0.0
 10
168.8951075646
 20
116.3458696127
 30
0.0
 10
168.8959810792
 20
116.365836479
 30
0.0
 10
168.8965872086
 20
116.3799329156
 30
0.0
 10
168.8969418918
 20
116.3878012299
 30
0.0
 10
168.8971844565
 20
116.3942286627
 30
0.0
 10
168.8975166504
 20
116.3986447034
 30
0.0
 10
168.897928312
 20
116.4052343537
 30
0.0
 10
168.8986632859
 20
116.4164393551
 30
0.0
 10
168.8997056334
 20
116.4326174
 30
0.0
 10
168.9009597099
 20
116.4519579032
 30
0.0
 10
168.9026306734
 20
116.4777707911
 30
0.0
 10
168.9047197679
 20
116.5100281498
 30
0.0
 10
168.9072265165
 20
116.5487406608
 30
0.0
 10
168.9097332999
 20
116.5874524517
 30
0.0
 10
168.9118223076
 20
116.6197116105
 30
0.0
 10
168.9134934445
 20
116.6455208982
 30
0.0
 10
168.9145380676
 20
116.6616471349
 30
0.0
 10
168.9153733932
 20
116.6745585976
 30
0.0
 10
168.9160009086
 20
116.6842135155
 30
0.0
 10
168.9165205895
 20
116.6923505134
 30
0.0
 10
168.9169436203
 20
116.6986554922
 30
0.0
 10
168.9172409844
 20
116.7039433451
 30
0.0
 10
168.9176143415
 20
116.7070970327
 30
0.0
 10
168.9180856056
 20
116.7120474412
 30
0.0
 10
168.9186837933
 20
116.7179796774
 30
0.0
 10
168.9193977202
 20
116.7252078404
 30
0.0
 10
168.9203509844
 20
116.7348071522
 30
0.0
 10
168.9215420984
 20
116.7468193848
 30
0.0
 10
168.9234481413
 20
116.7660316402
 30
0.0
 10
168.9258306057
 20
116.7900494637
 30
0.0
 10
168.9286896007
 20
116.8188698065
 30
0.0
 10
168.9315485878
 20
116.8476903244
 30
0.0
 10
168.9339310717
 20
116.87170771
 30
0.0
 10
168.9358370758
 20
116.8909208413
 30
0.0
 10
168.9370282885
 20
116.9029308476
 30
0.0
 10
168.93798135
 20
116.9125347289
 30
0.0
 10
168.9386958961
 20
116.9197489316
 30
0.0
 10
168.9392921466
 20
116.925724846
 30
0.0
 10
168.939707961
 20
116.9299784806
 30
0.0
 10
168.9399480064
 20
116.9322990576
 30
0.0
 10
168.9401211751
 20
116.934349563
 30
0.0
 10
168.9403205865
 20
116.9352148135
 30
0.0
 10
168.9405773147
 20
116.9367819112
 30
0.0
 10
168.9410308539
 20
116.9393317072
 30
0.0
 10
168.9416765373
 20
116.9430749794
 30
0.0
 10
168.9424523118
 20
116.9475238004
 30
0.0
 10
168.9434863444
 20
116.9534706177
 30
0.0
 10
168.9447789993
 20
116.960898984
 30
0.0
 10
168.9468471833
 20
116.9727872524
 30
0.0
 10
168.9494324353
 20
116.987646592
 30
0.0
 10
168.9525347279
 20
117.0054782565
 30
0.0
 10
168.9556370248
 20
117.0233096864
 30
0.0
 10
168.9582222658
 20
117.0381696123
 30
0.0
 10
168.9602904719
 20
117.050056708
 30
0.0
 10
168.9615830707
 20
117.0574880551
 30
0.0
 10
168.9626172185
 20
117.0634287544
 30
0.0
 10
168.9633926411
 20
117.0678962667
 30
0.0
 10
168.9640394253
 20
117.0715810584
 30
0.0
 10
168.9644909993
 20
117.0742352519
 30
0.0
 10
168.9647508762
 20
117.0756350785
 30
0.0
 10
168.9649406157
 20
117.077014132
 30
0.0
 10
168.9651501109
 20
117.077134879
 30
0.0
 10
168.9654225469
 20
117.0777347863
 30
0.0
 10
168.9659025205
 20
117.0785801271
 30
0.0
 10
168.9665865186
 20
117.0798946703
 30
0.0
 10
168.9674080347
 20
117.0814263597
 30
0.0
 10
168.9685031386
 20
117.0834845962
 30
0.0
 10
168.9698721044
 20
117.0860519188
 30
0.0
 10
168.9720624016
 20
117.0901626939
 30
0.0
 10
168.9748002896
 20
117.0953001131
 30
0.0
 10
168.9780857482
 20
117.1014654661
 30
0.0
 10
168.9813712087
 20
117.1076306986
 30
0.0
 10
168.9857518219
 20
117.115851051
 30
0.0
 10
168.989037282
 20
117.1220163058
 30
0.0
 10
168.9912275887
 20
117.1261264777
 30
0.0
  0
LINE
  5
2BB
330
1B
100
AcDbEntity
 67
     1
  8
7_ALL_FEATURES
  6
Continuous
 62
     7
100
AcDbLine
 10
169.3752547149
 20
105.1261264777
 30
0.0
 11
169.8752547149
 21
105.1261264777
 31
0.0
  0
LINE
  5
2BC
330
1B
100
AcDbEntity
 67
     1
  8
7_ALL_FEATURES
  6
Continuous
 62
     7
100
AcDbLine
 10
169.3752547149
 20
29.1261264777
 30
0.0
 11
169.8752547149
 21
29.1261264777
 31
0.0
  0
LINE
  5
2BD
330
1B
100
AcDbEntity
 67
     1
  8
7_ALL_FEATURES
  6
Continuous
 62
     7
100
AcDbLine
 10
169.3752547149
 20
39.1261264777
 30
0.0
 11
169.8752547149
 21
39.1261264777
 31
0.0
  0
LINE
  5
2BE
330
1B
100
AcDbEntity
 67
     1
  8
7_ALL_FEATURES
  6
Continuous
 62
     7
100
AcDbLine
 10
74.3752547149
 20
119.1261264777
 30
0.0
 11
73.8752547149
 21
119.1261264777
 31
0.0
  0
LINE
  5
2BF
330
1B
100
AcDbEntity
 67
     1
  8
7_ALL_FEATURES
  6
Continuous
 62
     7
100
AcDbLine
 10
74.3752547149
 20
109.1261264777
 30
0.0
 11
73.8752547149
 21
109.1261264777
 31
0.0
  0
LINE
  5
2C0
330
1B
100
AcDbEntity
 67
     1
  8
7_ALL_FEATURES
  6
Continuous
 62
     7
100
AcDbLine
 10
74.3752547149
 20
43.1261264777
 30
0.0
 11
73.8752547149
 21
43.1261264777
 31
0.0
  0
LINE
  5
2C1
330
1B
100
AcDbEntity
 67
     1
  8
7_ALL_FEATURES
  6
Continuous
 62
     7
100
AcDbLine
 10
71.7174644684
 20
113.1261264777
 30
0.0
 11
71.8095928957
 21
113.1261264777
 31
0.0
  0
LINE
  5
2C2
330
1B
100
AcDbEntity
 67
     1
  8
7_ALL_FEATURES
  6
Continuous
 62
     7
100
AcDbLine
 10
71.8095928957
 20
113.1261264777
 30
0.0
 11
71.8556571094
 21
114.6261264777
 31
0.0
  0
LINE
  5
2C3
330
1B
100
AcDbEntity
 67
     1
  8
7_ALL_FEATURES
  6
Continuous
 62
     7
100
AcDbLine
 10
71.8556571094
 20
114.6261264777
 30
0.0
 11
71.8095928957
 21
116.1261264777
 31
0.0
  0
LINE
  5
2C4
330
1B
100
AcDbEntity
 67
     1
  8
7_ALL_FEATURES
  6
Continuous
 62
     7
100
AcDbLine
 10
71.8095928957
 20
116.1261264777
 30
0.0
 11
71.7174644684
 21
116.1261264777
 31
0.0
  0
LINE
  5
2C5
330
1B
100
AcDbEntity
 67
     1
  8
3_ALL_AXES
  6
Continuous
 62
     7
100
AcDbLine
 10
74.7592818526
 20
112.1261264777
 30
0.0
 11
74.5666480407
 21
112.1261264777
 31
0.0
  0
LINE
  5
2C6
330
1B
100
AcDbEntity
 67
     1
  8
3_ALL_AXES
  6
Continuous
 62
     7
100
AcDbLine
 10
74.5666480407
 20
112.1261264777
 30
0.0
 11
74.5631090232
 21
112.1261264777
 31
0.0
  0
LINE
  5
2C7
330
1B
100
AcDbEntity
 67
     1
  8
3_ALL_AXES
  6
Continuous
 62
     7
100
AcDbLine
 10
74.5666480407
 20
112.1296755505
 30
0.0
 11
74.5631090232
 21
112.1261264777
 31
0.0
  0
LINE
  5
2C8
330
1B
100
AcDbEntity
 67
     1
  8
3_ALL_AXES
  6
Continuous
 62
     7
100
AcDbLine
 10
74.5631090232
 20
112.1261264777
 30
0.0
 11
73.8752547149
 21
111.4363177831
 31
0.0
  0
SPLINE
  5
2C9
330
1B
100
AcDbEntity
 67
     1
  8
3_ALL_AXES
  6
Continuous
 62
     7
100
AcDbSpline
 70
     0
 71
     3
 72
    25
 73
    21
 74
     0
 42
0.000000001
 43
0.0000001
 40
0.0
 40
0.0
 40
0.0
 40
0.0
 40
0.0028589921
 40
0.0048390034
 40
0.0073012802
 40
0.0138101962
 40
0.0225396534
 40
0.0335333387
 40
0.0467934856
 40
0.0623048765
 40
0.080042971
 40
0.1220418186
 40
0.1724241093
 40
0.2307238861
 40
0.2963914533
 40
0.3688041172
 40
0.4472717969
 40
0.6193136699
 40
0.8059341606
 40
1.0
 40
1.0
 40
1.0
 40
1.0
 10
71.7635286821
 20
109.6261310312
 30
0.0
 10
71.7587383629
 20
109.6261310312
 30
0.0
 10
71.750939499
 20
109.6307440217
 30
0.0
 10
71.743305222
 20
109.6401608042
 30
0.0
 10
71.7337725968
 20
109.6559663085
 30
0.0
 10
71.7227077735
 20
109.6835825267
 30
0.0
 10
71.7101747299
 20
109.7257372586
 30
0.0
 10
71.6977243203
 20
109.7796091605
 30
0.0
 10
71.6853300648
 20
109.845084067
 30
0.0
 10
71.6730805423
 20
109.922052638
 30
0.0
 10
71.6560196482
 20
110.0469809375
 30
0.0
 10
71.6359272683
 20
110.2304203104
 30
0.0
 10
71.6139813998
 20
110.4819460587
 30
0.0
 10
71.5933602142
 20
110.7733558632
 30
0.0
 10
71.5742813892
 20
111.1018488783
 30
0.0
 10
71.5569579376
 20
111.4642724921
 30
0.0
 10
71.5357965355
 20
112.0049287641
 30
0.0
 10
71.5154991188
 20
112.7370957266
 30
0.0
 10
71.5008531891
 20
113.6631078531
 30
0.0
 10
71.4975768206
 20
114.3009638784
 30
0.0
 10
71.4975768206
 20
114.6261264777
 30
0.0
  0
LINE
  5
2CA
330
1B
100
AcDbEntity
 67
     1
  8
3_ALL_AXES
  6
Continuous
 62
     7
100
AcDbLine
 10
71.8752547149
 20
109.6261264777
 30
0.0
 11
71.7635286821
 21
109.6261264777
 31
0.0
  0
LINE
  5
2CB
330
1B
100
AcDbEntity
 67
     1
  8
3_ALL_AXES
  6
Continuous
 62
     7
100
AcDbLine
 10
71.8752547149
 20
119.6261264777
 30
0.0
 11
71.7635286821
 21
119.6261264777
 31
0.0
  0
LINE
  5
2CC
330
1B
100
AcDbEntity
 67
     1
  8
3_ALL_AXES
  6
Continuous
 62
     7
100
AcDbLine
 10
74.7592818526
 20
117.1261264777
 30
0.0
 11
74.5666480407
 21
117.1261264777
 31
0.0
  0
LINE
  5
2CD
330
1B
100
AcDbEntity
 67
     1
  8
3_ALL_AXES
  6
Continuous
 62
     7
100
AcDbLine
 10
74.5666480407
 20
117.1261264777
 30
0.0
 11
74.5631090232
 21
117.1261264777
 31
0.0
  0
SPLINE
  5
2CE
330
1B
100
AcDbEntity
 67
     1
  8
3_ALL_AXES
  6
Continuous
 62
     7
100
AcDbSpline
 70
     0
 71
     3
 72
    25
 73
    21
 74
     0
 42
0.000000001
 43
0.0000001
 40
0.0
 40
0.0
 40
0.0
 40
0.0
 40
0.0028589921
 40
0.0048390034
 40
0.0073012802
 40
0.0138101962
 40
0.0225396534
 40
0.0335333387
 40
0.0467934856
 40
0.0623048765
 40
0.080042971
 40
0.1220418186
 40
0.1724241093
 40
0.2307238861
 40
0.2963914533
 40
0.3688041172
 40
0.4472717969
 40
0.6193136699
 40
0.8059341606
 40
1.0
 40
1.0
 40
1.0
 40
1.0
 10
71.7635286821
 20
119.6261219242
 30
0.0
 10
71.7587383629
 20
119.6261219242
 30
0.0
 10
71.750939499
 20
119.6215089337
 30
0.0
 10
71.743305222
 20
119.6120921512
 30
0.0
 10
71.7337725968
 20
119.5962866469
 30
0.0
 10
71.7227077735
 20
119.5686704287
 30
0.0
 10
71.7101747299
 20
119.5265156968
 30
0.0
 10
71.6977243203
 20
119.4726437949
 30
0.0
 10
71.6853300648
 20
119.4071688885
 30
0.0
 10
71.6730805423
 20
119.3302003174
 30
0.0
 10
71.6560196482
 20
119.2052720179
 30
0.0
 10
71.6359272683
 20
119.021832645
 30
0.0
 10
71.6139813998
 20
118.7703068967
 30
0.0
 10
71.5933602142
 20
118.4788970922
 30
0.0
 10
71.5742813892
 20
118.1504040771
 30
0.0
 10
71.5569579376
 20
117.7879804633
 30
0.0
 10
71.5357965355
 20
117.2473241913
 30
0.0
 10
71.5154991188
 20
116.5151572288
 30
0.0
 10
71.5008531891
 20
115.5891451023
 30
0.0
 10
71.4975768206
 20
114.951289077
 30
0.0
 10
71.4975768206
 20
114.6261264777
 30
0.0
  0
LINE
  5
2CF
330
1B
100
AcDbEntity
 67
     1
  8
3_ALL_AXES
  6
Continuous
 62
     7
100
AcDbLine
 10
74.5666480407
 20
117.1225774049
 30
0.0
 11
74.5631090232
 21
117.1261264777
 31
0.0
  0
LINE
  5
2D0
330
1B
100
AcDbEntity
 67
     1
  8
3_ALL_AXES
  6
Continuous
 62
     7
100
AcDbLine
 10
74.5631090232
 20
117.1261264777
 30
0.0
 11
73.8752547149
 21
117.8159351723
 31
0.0
  0
LINE
  5
2D1
330
1B
100
AcDbEntity
 67
     1
  8
7_ALL_FEATURES
  6
Continuous
 62
     7
100
AcDbLine
 10
71.6714002548
 20
114.6261264777
 30
0.0
 11
71.7174644684
 21
113.1261264777
 31
0.0
  0
SPLINE
  5
2D2
330
1B
100
AcDbEntity
 67
     1
  8
3_ALL_AXES
  6
Continuous
 62
     7
100
AcDbSpline
 70
     0
 71
     3
 72
    16
 73
    12
 74
     0
 42
0.000000001
 43
0.0000001
 40
0.0
 40
0.0
 40
0.0
 40
0.0
 40
0.2226293691
 40
0.4174628264
 40
0.5840230182
 40
0.7220252527
 40
0.8313550941
 40
0.9123717868
 40
0.9426850295
 40
0.966705527
 40
1.0
 40
1.0
 40
1.0
 40
1.0
 10
71.8754814792
 20
119.161538749
 30
0.0
 10
71.8713673575
 20
119.1974317816
 30
0.0
 10
71.8631516292
 20
119.2646810961
 30
0.0
 10
71.8497692768
 20
119.3585149585
 30
0.0
 10
71.8361742746
 20
119.4384191929
 30
0.0
 10
71.8224940097
 20
119.5042030364
 30
0.0
 10
71.8086827288
 20
119.5557015501
 30
0.0
 10
71.7965138969
 20
119.589459302
 30
0.0
 10
71.7859338405
 20
119.6088768451
 30
0.0
 10
71.777681204
 20
119.6202203831
 30
0.0
 10
71.7689316722
 20
119.6261219242
 30
0.0
 10
71.7635286821
 20
119.6261219242
 30
0.0
  0
SPLINE
  5
2D3
330
1B
100
AcDbEntity
 67
     1
  8
3_ALL_AXES
  6
Continuous
 62
     7
100
AcDbSpline
 70
     0
 71
     3
 72
    20
 73
    16
 74
     0
 42
0.000000001
 43
0.0000001
 40
0.0
 40
0.0
 40
0.0
 40
0.0
 40
0.1881638947
 40
0.369583785
 40
0.5377973118
 40
0.6867840451
 40
0.7523800135
 40
0.8112463751
 40
0.8628654494
 40
0.9067898408
 40
0.9426456714
 40
0.9701632145
 40
0.9891965448
 40
0.995579187
 40
1.0
 40
1.0
 40
1.0
 40
1.0
 10
74.6925409053
 20
114.6261264777
 30
0.0
 10
74.6925409053
 20
114.7832602645
 30
0.0
 10
74.691006484
 20
115.0918982718
 30
0.0
 10
74.6841545102
 20
115.5409638169
 30
0.0
 10
74.6730310883
 20
115.9572174091
 30
0.0
 10
74.6601240889
 20
116.2766417458
 30
0.0
 10
74.6476059604
 20
116.5046573773
 30
0.0
 10
74.6378594325
 20
116.6513804338
 30
0.0
 10
74.6274662425
 20
116.7799169122
 30
0.0
 10
74.6165232915
 20
116.8890970122
 30
0.0
 10
74.60523415
 20
116.9780342151
 30
0.0
 10
74.593642407
 20
117.045820434
 30
0.0
 10
74.5832982905
 20
117.0890073166
 30
0.0
 10
74.5740456174
 20
117.1121227162
 30
0.0
 10
74.5692556881
 20
117.11996243
 30
0.0
 10
74.566648036
 20
117.1225757356
 30
0.0
  0
LINE
  5
2D4
330
1B
100
AcDbEntity
 67
     1
  8
7_ALL_FEATURES
  6
Continuous
 62
     7
100
AcDbLine
 10
71.6714002548
 20
114.6261264777
 30
0.0
 11
71.8556571094
 21
114.6261264777
 31
0.0
  0
SPLINE
  5
2D5
330
1B
100
AcDbEntity
 67
     1
  8
3_ALL_AXES
  6
Continuous
 62
     7
100
AcDbSpline
 70
     0
 71
     3
 72
    16
 73
    12
 74
     0
 42
0.000000001
 43
0.0000001
 40
0.0
 40
0.0
 40
0.0
 40
0.0
 40
0.2226293691
 40
0.4174628264
 40
0.5840230182
 40
0.7220252527
 40
0.8313550941
 40
0.9123717868
 40
0.9426850295
 40
0.966705527
 40
1.0
 40
1.0
 40
1.0
 40
1.0
 10
71.8754814792
 20
110.0907142064
 30
0.0
 10
71.8713673575
 20
110.0548211738
 30
0.0
 10
71.8631516292
 20
109.9875718593
 30
0.0
 10
71.8497692768
 20
109.8937379969
 30
0.0
 10
71.8361742746
 20
109.8138337626
 30
0.0
 10
71.8224940097
 20
109.748049919
 30
0.0
 10
71.8086827288
 20
109.6965514053
 30
0.0
 10
71.7965138969
 20
109.6627936534
 30
0.0
 10
71.7859338405
 20
109.6433761103
 30
0.0
 10
71.777681204
 20
109.6320325723
 30
0.0
 10
71.7689316722
 20
109.6261310312
 30
0.0
 10
71.7635286821
 20
109.6261310312
 30
0.0
  0
SPLINE
  5
2D6
330
1B
100
AcDbEntity
 67
     1
  8
3_ALL_AXES
  6
Continuous
 62
     7
100
AcDbSpline
 70
     0
 71
     3
 72
    20
 73
    16
 74
     0
 42
0.000000001
 43
0.0000001
 40
0.0
 40
0.0
 40
0.0
 40
0.0
 40
0.1881638947
 40
0.369583785
 40
0.5377973118
 40
0.6867840451
 40
0.7523800135
 40
0.8112463751
 40
0.8628654494
 40
0.9067898408
 40
0.9426456714
 40
0.9701632145
 40
0.9891965448
 40
0.995579187
 40
1.0
 40
1.0
 40
1.0
 40
1.0
 10
74.6925409053
 20
114.6261264777
 30
0.0
 10
74.6925409053
 20
114.4689926909
 30
0.0
 10
74.691006484
 20
114.1603546836
 30
0.0
 10
74.6841545102
 20
113.7112891385
 30
0.0
 10
74.6730310883
 20
113.2950355463
 30
0.0
 10
74.6601240889
 20
112.9756112096
 30
0.0
 10
74.6476059604
 20
112.7475955782
 30
0.0
 10
74.6378594325
 20
112.6008725216
 30
0.0
 10
74.6274662425
 20
112.4723360432
 30
0.0
 10
74.6165232915
 20
112.3631559432
 30
0.0
 10
74.60523415
 20
112.2742187403
 30
0.0
 10
74.593642407
 20
112.2064325214
 30
0.0
 10
74.5832982905
 20
112.1632456388
 30
0.0
 10
74.5740456174
 20
112.1401302392
 30
0.0
 10
74.5692556881
 20
112.1322905254
 30
0.0
 10
74.566648036
 20
112.1296772198
 30
0.0
  0
LINE
  5
2D7
330
1B
100
AcDbEntity
 67
     1
  8
7_ALL_FEATURES
  6
Continuous
 62
     7
100
AcDbLine
 10
71.7174644684
 20
116.1261264777
 30
0.0
 11
71.6714002548
 21
114.6261264777
 31
0.0
  0
LINE
  5
2D8
330
1B
100
AcDbEntity
 67
     1
  8
7_ALL_FEATURES
  6
Continuous
 62
     7
100
AcDbLine
 10
71.7174644684
 20
32.1261264777
 30
0.0
 11
71.8095928957
 21
32.1261264777
 31
0.0
  0
LINE
  5
2D9
330
1B
100
AcDbEntity
 67
     1
  8
7_ALL_FEATURES
  6
Continuous
 62
     7
100
AcDbLine
 10
71.8095928957
 20
32.1261264777
 30
0.0
 11
71.8556571094
 21
33.6261264777
 31
0.0
  0
LINE
  5
2DA
330
1B
100
AcDbEntity
 67
     1
  8
7_ALL_FEATURES
  6
Continuous
 62
     7
100
AcDbLine
 10
71.8556571094
 20
33.6261264777
 30
0.0
 11
71.8095928957
 21
35.1261264777
 31
0.0
  0
LINE
  5
2DB
330
1B
100
AcDbEntity
 67
     1
  8
7_ALL_FEATURES
  6
Continuous
 62
     7
100
AcDbLine
 10
71.8095928957
 20
35.1261264777
 30
0.0
 11
71.7174644684
 21
35.1261264777
 31
0.0
  0
LINE
  5
2DC
330
1B
100
AcDbEntity
 67
     1
  8
3_ALL_AXES
  6
Continuous
 62
     7
100
AcDbLine
 10
74.7592818526
 20
31.1261264777
 30
0.0
 11
74.5666480407
 21
31.1261264777
 31
0.0
  0
LINE
  5
2DD
330
1B
100
AcDbEntity
 67
     1
  8
3_ALL_AXES
  6
Continuous
 62
     7
100
AcDbLine
 10
74.5666480407
 20
31.1261264777
 30
0.0
 11
74.5631090232
 21
31.1261264777
 31
0.0
  0
LINE
  5
2DE
330
1B
100
AcDbEntity
 67
     1
  8
3_ALL_AXES
  6
Continuous
 62
     7
100
AcDbLine
 10
74.5666480407
 20
31.1296755505
 30
0.0
 11
74.5631090232
 21
31.1261264777
 31
0.0
  0
LINE
  5
2DF
330
1B
100
AcDbEntity
 67
     1
  8
3_ALL_AXES
  6
Continuous
 62
     7
100
AcDbLine
 10
74.5631090232
 20
31.1261264777
 30
0.0
 11
73.8752547149
 21
30.4363177831
 31
0.0
  0
SPLINE
  5
2E0
330
1B
100
AcDbEntity
 67
     1
  8
3_ALL_AXES
  6
Continuous
 62
     7
100
AcDbSpline
 70
     0
 71
     3
 72
    25
 73
    21
 74
     0
 42
0.000000001
 43
0.0000001
 40
0.0
 40
0.0
 40
0.0
 40
0.0
 40
0.0028589921
 40
0.0048390034
 40
0.0073012802
 40
0.0138101962
 40
0.0225396534
 40
0.0335333387
 40
0.0467934856
 40
0.0623048765
 40
0.080042971
 40
0.1220418186
 40
0.1724241093
 40
0.2307238861
 40
0.2963914533
 40
0.3688041172
 40
0.4472717969
 40
0.6193136699
 40
0.8059341606
 40
1.0
 40
1.0
 40
1.0
 40
1.0
 10
71.7635286821
 20
28.6261310312
 30
0.0
 10
71.7587383629
 20
28.6261310312
 30
0.0
 10
71.750939499
 20
28.6307440217
 30
0.0
 10
71.743305222
 20
28.6401608042
 30
0.0
 10
71.7337725968
 20
28.6559663085
 30
0.0
 10
71.7227077735
 20
28.6835825267
 30
0.0
 10
71.7101747299
 20
28.7257372586
 30
0.0
 10
71.6977243203
 20
28.7796091605
 30
0.0
 10
71.6853300648
 20
28.845084067
 30
0.0
 10
71.6730805423
 20
28.922052638
 30
0.0
 10
71.6560196482
 20
29.0469809375
 30
0.0
 10
71.6359272683
 20
29.2304203104
 30
0.0
 10
71.6139813998
 20
29.4819460587
 30
0.0
 10
71.5933602142
 20
29.7733558632
 30
0.0
 10
71.5742813892
 20
30.1018488783
 30
0.0
 10
71.5569579376
 20
30.4642724921
 30
0.0
 10
71.5357965355
 20
31.0049287641
 30
0.0
 10
71.5154991188
 20
31.7370957266
 30
0.0
 10
71.5008531891
 20
32.6631078531
 30
0.0
 10
71.4975768206
 20
33.3009638784
 30
0.0
 10
71.4975768206
 20
33.6261264777
 30
0.0
  0
LINE
  5
2E1
330
1B
100
AcDbEntity
 67
     1
  8
3_ALL_AXES
  6
Continuous
 62
     7
100
AcDbLine
 10
71.8752547149
 20
28.6261264777
 30
0.0
 11
71.7635286821
 21
28.6261264777
 31
0.0
  0
LINE
  5
2E2
330
1B
100
AcDbEntity
 67
     1
  8
3_ALL_AXES
  6
Continuous
 62
     7
100
AcDbLine
 10
71.8752547149
 20
38.6261264777
 30
0.0
 11
71.7635286821
 21
38.6261264777
 31
0.0
  0
LINE
  5
2E3
330
1B
100
AcDbEntity
 67
     1
  8
3_ALL_AXES
  6
Continuous
 62
     7
100
AcDbLine
 10
74.7592818526
 20
36.1261264777
 30
0.0
 11
74.5666480407
 21
36.1261264777
 31
0.0
  0
LINE
  5
2E4
330
1B
100
AcDbEntity
 67
     1
  8
3_ALL_AXES
  6
Continuous
 62
     7
100
AcDbLine
 10
74.5666480407
 20
36.1261264777
 30
0.0
 11
74.5631090232
 21
36.1261264777
 31
0.0
  0
SPLINE
  5
2E5
330
1B
100
AcDbEntity
 67
     1
  8
3_ALL_AXES
  6
Continuous
 62
     7
100
AcDbSpline
 70
     0
 71
     3
 72
    25
 73
    21
 74
     0
 42
0.000000001
 43
0.0000001
 40
0.0
 40
0.0
 40
0.0
 40
0.0
 40
0.0028589921
 40
0.0048390034
 40
0.0073012802
 40
0.0138101962
 40
0.0225396534
 40
0.0335333387
 40
0.0467934856
 40
0.0623048765
 40
0.080042971
 40
0.1220418186
 40
0.1724241093
 40
0.2307238861
 40
0.2963914533
 40
0.3688041172
 40
0.4472717969
 40
0.6193136699
 40
0.8059341606
 40
1.0
 40
1.0
 40
1.0
 40
1.0
 10
71.7635286821
 20
38.6261219242
 30
0.0
 10
71.7587383629
 20
38.6261219242
 30
0.0
 10
71.750939499
 20
38.6215089337
 30
0.0
 10
71.743305222
 20
38.6120921512
 30
0.0
 10
71.7337725968
 20
38.5962866469
 30
0.0
 10
71.7227077735
 20
38.5686704287
 30
0.0
 10
71.7101747299
 20
38.5265156968
 30
0.0
 10
71.6977243203
 20
38.4726437949
 30
0.0
 10
71.6853300648
 20
38.4071688885
 30
0.0
 10
71.6730805423
 20
38.3302003174
 30
0.0
 10
71.6560196482
 20
38.2052720179
 30
0.0
 10
71.6359272683
 20
38.021832645
 30
0.0
 10
71.6139813998
 20
37.7703068967
 30
0.0
 10
71.5933602142
 20
37.4788970922
 30
0.0
 10
71.5742813892
 20
37.1504040771
 30
0.0
 10
71.5569579376
 20
36.7879804633
 30
0.0
 10
71.5357965355
 20
36.2473241913
 30
0.0
 10
71.5154991188
 20
35.5151572288
 30
0.0
 10
71.5008531891
 20
34.5891451023
 30
0.0
 10
71.4975768206
 20
33.951289077
 30
0.0
 10
71.4975768206
 20
33.6261264777
 30
0.0
  0
LINE
  5
2E6
330
1B
100
AcDbEntity
 67
     1
  8
3_ALL_AXES
  6
Continuous
 62
     7
100
AcDbLine
 10
74.5666480407
 20
36.1225774049
 30
0.0
 11
74.5631090232
 21
36.1261264777
 31
0.0
  0
LINE
  5
2E7
330
1B
100
AcDbEntity
 67
     1
  8
3_ALL_AXES
  6
Continuous
 62
     7
100
AcDbLine
 10
74.5631090232
 20
36.1261264777
 30
0.0
 11
73.8752547149
 21
36.8159351723
 31
0.0
  0
LINE
  5
2E8
330
1B
100
AcDbEntity
 67
     1
  8
7_ALL_FEATURES
  6
Continuous
 62
     7
100
AcDbLine
 10
71.6714002548
 20
33.6261264777
 30
0.0
 11
71.7174644684
 21
32.1261264777
 31
0.0
  0
SPLINE
  5
2E9
330
1B
100
AcDbEntity
 67
     1
  8
3_ALL_AXES
  6
Continuous
 62
     7
100
AcDbSpline
 70
     0
 71
     3
 72
    16
 73
    12
 74
     0
 42
0.000000001
 43
0.0000001
 40
0.0
 40
0.0
 40
0.0
 40
0.0
 40
0.2226293691
 40
0.4174628264
 40
0.5840230182
 40
0.7220252527
 40
0.8313550941
 40
0.9123717868
 40
0.9426850295
 40
0.966705527
 40
1.0
 40
1.0
 40
1.0
 40
1.0
 10
71.8754814792
 20
38.161538749
 30
0.0
 10
71.8713673575
 20
38.1974317816
 30
0.0
 10
71.8631516292
 20
38.2646810961
 30
0.0
 10
71.8497692768
 20
38.3585149585
 30
0.0
 10
71.8361742746
 20
38.4384191929
 30
0.0
 10
71.8224940097
 20
38.5042030364
 30
0.0
 10
71.8086827288
 20
38.5557015501
 30
0.0
 10
71.7965138969
 20
38.589459302
 30
0.0
 10
71.7859338405
 20
38.6088768451
 30
0.0
 10
71.777681204
 20
38.6202203831
 30
0.0
 10
71.7689316722
 20
38.6261219242
 30
0.0
 10
71.7635286821
 20
38.6261219242
 30
0.0
  0
SPLINE
  5
2EA
330
1B
100
AcDbEntity
 67
     1
  8
3_ALL_AXES
  6
Continuous
 62
     7
100
AcDbSpline
 70
     0
 71
     3
 72
    20
 73
    16
 74
     0
 42
0.000000001
 43
0.0000001
 40
0.0
 40
0.0
 40
0.0
 40
0.0
 40
0.1881638947
 40
0.369583785
 40
0.5377973118
 40
0.6867840451
 40
0.7523800135
 40
0.8112463751
 40
0.8628654494
 40
0.9067898408
 40
0.9426456714
 40
0.9701632145
 40
0.9891965448
 40
0.995579187
 40
1.0
 40
1.0
 40
1.0
 40
1.0
 10
74.6925409053
 20
33.6261264777
 30
0.0
 10
74.6925409053
 20
33.7832602645
 30
0.0
 10
74.691006484
 20
34.0918982718
 30
0.0
 10
74.6841545102
 20
34.5409638169
 30
0.0
 10
74.6730310883
 20
34.9572174091
 30
0.0
 10
74.6601240889
 20
35.2766417458
 30
0.0
 10
74.6476059604
 20
35.5046573773
 30
0.0
 10
74.6378594325
 20
35.6513804338
 30
0.0
 10
74.6274662425
 20
35.7799169122
 30
0.0
 10
74.6165232915
 20
35.8890970122
 30
0.0
 10
74.60523415
 20
35.9780342151
 30
0.0
 10
74.593642407
 20
36.045820434
 30
0.0
 10
74.5832982905
 20
36.0890073166
 30
0.0
 10
74.5740456174
 20
36.1121227162
 30
0.0
 10
74.5692556881
 20
36.11996243
 30
0.0
 10
74.566648036
 20
36.1225757356
 30
0.0
  0
LINE
  5
2EB
330
1B
100
AcDbEntity
 67
     1
  8
7_ALL_FEATURES
  6
Continuous
 62
     7
100
AcDbLine
 10
71.6714002548
 20
33.6261264777
 30
0.0
 11
71.8556571094
 21
33.6261264777
 31
0.0
  0
SPLINE
  5
2EC
330
1B
100
AcDbEntity
 67
     1
  8
3_ALL_AXES
  6
Continuous
 62
     7
100
AcDbSpline
 70
     0
 71
     3
 72
    16
 73
    12
 74
     0
 42
0.000000001
 43
0.0000001
 40
0.0
 40
0.0
 40
0.0
 40
0.0
 40
0.2226293691
 40
0.4174628264
 40
0.5840230182
 40
0.7220252527
 40
0.8313550941
 40
0.9123717868
 40
0.9426850295
 40
0.966705527
 40
1.0
 40
1.0
 40
1.0
 40
1.0
 10
71.8754814792
 20
29.0907142064
 30
0.0
 10
71.8713673575
 20
29.0548211738
 30
0.0
 10
71.8631516292
 20
28.9875718593
 30
0.0
 10
71.8497692768
 20
28.8937379969
 30
0.0
 10
71.8361742746
 20
28.8138337626
 30
0.0
 10
71.8224940097
 20
28.748049919
 30
0.0
 10
71.8086827288
 20
28.6965514053
 30
0.0
 10
71.7965138969
 20
28.6627936534
 30
0.0
 10
71.7859338405
 20
28.6433761103
 30
0.0
 10
71.777681204
 20
28.6320325723
 30
0.0
 10
71.7689316722
 20
28.6261310312
 30
0.0
 10
71.7635286821
 20
28.6261310312
 30
0.0
  0
SPLINE
  5
2ED
330
1B
100
AcDbEntity
 67
     1
  8
3_ALL_AXES
  6
Continuous
 62
     7
100
AcDbSpline
 70
     0
 71
     3
 72
    20
 73
    16
 74
     0
 42
0.000000001
 43
0.0000001
 40
0.0
 40
0.0
 40
0.0
 40
0.0
 40
0.1881638947
 40
0.369583785
 40
0.5377973118
 40
0.6867840451
 40
0.7523800135
 40
0.8112463751
 40
0.8628654494
 40
0.9067898408
 40
0.9426456714
 40
0.9701632145
 40
0.9891965448
 40
0.995579187
 40
1.0
 40
1.0
 40
1.0
 40
1.0
 10
74.6925409053
 20
33.6261264777
 30
0.0
 10
74.6925409053
 20
33.4689926909
 30
0.0
 10
74.691006484
 20
33.1603546836
 30
0.0
 10
74.6841545102
 20
32.7112891385
 30
0.0
 10
74.6730310883
 20
32.2950355463
 30
0.0
 10
74.6601240889
 20
31.9756112096
 30
0.0
 10
74.6476059604
 20
31.7475955782
 30
0.0
 10
74.6378594325
 20
31.6008725216
 30
0.0
 10
74.6274662425
 20
31.4723360432
 30
0.0
 10
74.6165232915
 20
31.3631559432
 30
0.0
 10
74.60523415
 20
31.2742187403
 30
0.0
 10
74.593642407
 20
31.2064325214
 30
0.0
 10
74.5832982905
 20
31.1632456388
 30
0.0
 10
74.5740456174
 20
31.1401302392
 30
0.0
 10
74.5692556881
 20
31.1322905254
 30
0.0
 10
74.566648036
 20
31.1296772198
 30
0.0
  0
LINE
  5
2EE
330
1B
100
AcDbEntity
 67
     1
  8
7_ALL_FEATURES
  6
Continuous
 62
     7
100
AcDbLine
 10
71.7174644684
 20
35.1261264777
 30
0.0
 11
71.6714002548
 21
33.6261264777
 31
0.0
  0
LINE
  5
2EF
330
1B
100
AcDbEntity
 67
     1
  8
7_ALL_FEATURES
  6
Continuous
 62
     7
100
AcDbLine
 10
171.940916534
 20
35.1261264777
 30
0.0
 11
171.8948523203
 21
33.6261264777
 31
0.0
  0
LINE
  5
2F0
330
1B
100
AcDbEntity
 67
     1
  8
7_ALL_FEATURES
  6
Continuous
 62
     7
100
AcDbLine
 10
171.8948523203
 20
33.6261264777
 30
0.0
 11
171.940916534
 21
32.1261264777
 31
0.0
  0
LINE
  5
2F1
330
1B
100
AcDbEntity
 67
     1
  8
7_ALL_FEATURES
  6
Continuous
 62
     7
100
AcDbLine
 10
171.940916534
 20
32.1261264777
 30
0.0
 11
172.0330449613
 21
32.1261264777
 31
0.0
  0
LINE
  5
2F2
330
1B
100
AcDbEntity
 67
     1
  8
7_ALL_FEATURES
  6
Continuous
 62
     7
100
AcDbLine
 10
172.0330449613
 20
35.1261264777
 30
0.0
 11
171.940916534
 21
35.1261264777
 31
0.0
  0
SPLINE
  5
2F3
330
1B
100
AcDbEntity
 67
     1
  8
3_ALL_AXES
  6
Continuous
 62
     7
100
AcDbSpline
 70
     0
 71
     3
 72
    25
 73
    21
 74
     0
 42
0.000000001
 43
0.0000001
 40
0.0
 40
0.0
 40
0.0
 40
0.0
 40
0.1940658394
 40
0.3806863301
 40
0.5527282031
 40
0.6311958828
 40
0.7036085467
 40
0.7692761139
 40
0.8275758907
 40
0.8779581814
 40
0.919957029
 40
0.9376951235
 40
0.9532065144
 40
0.9664666613
 40
0.9774603466
 40
0.9861898038
 40
0.9926987198
 40
0.9951609966
 40
0.9971410079
 40
1.0
 40
1.0
 40
1.0
 40
1.0
 10
172.2529326091
 20
33.6261264777
 30
0.0
 10
172.2529326091
 20
33.951289077
 30
0.0
 10
172.2496562406
 20
34.5891451023
 30
0.0
 10
172.2350103109
 20
35.5151572288
 30
0.0
 10
172.2147128942
 20
36.2473241913
 30
0.0
 10
172.1935514921
 20
36.7879804633
 30
0.0
 10
172.1762280405
 20
37.1504040771
 30
0.0
 10
172.1571492155
 20
37.4788970922
 30
0.0
 10
172.1365280299
 20
37.7703068967
 30
0.0
 10
172.1145821614
 20
38.021832645
 30
0.0
 10
172.0944897815
 20
38.2052720179
 30
0.0
 10
172.0774288874
 20
38.3302003174
 30
0.0
 10
172.065179365
 20
38.4071688885
 30
0.0
 10
172.0527851094
 20
38.4726437949
 30
0.0
 10
172.0403346998
 20
38.5265156968
 30
0.0
 10
172.0278016562
 20
38.5686704287
 30
0.0
 10
172.0167368329
 20
38.5962866469
 30
0.0
 10
172.0072042077
 20
38.6120921512
 30
0.0
 10
171.9995699307
 20
38.6215089337
 30
0.0
 10
171.9917710668
 20
38.6261219242
 30
0.0
 10
171.9869807476
 20
38.6261219242
 30
0.0
  0
SPLINE
  5
2F4
330
1B
100
AcDbEntity
 67
     1
  8
3_ALL_AXES
  6
Continuous
 62
     7
100
AcDbSpline
 70
     0
 71
     3
 72
    25
 73
    21
 74
     0
 42
0.000000001
 43
0.0000001
 40
0.0
 40
0.0
 40
0.0
 40
0.0
 40
0.1940658394
 40
0.3806863301
 40
0.5527282031
 40
0.6311958828
 40
0.7036085467
 40
0.7692761139
 40
0.8275758907
 40
0.8779581814
 40
0.919957029
 40
0.9376951235
 40
0.9532065144
 40
0.9664666613
 40
0.9774603466
 40
0.9861898038
 40
0.9926987198
 40
0.9951609966
 40
0.9971410079
 40
1.0
 40
1.0
 40
1.0
 40
1.0
 10
172.2529326091
 20
33.6261264777
 30
0.0
 10
172.2529326091
 20
33.3009638784
 30
0.0
 10
172.2496562406
 20
32.6631078531
 30
0.0
 10
172.2350103109
 20
31.7370957266
 30
0.0
 10
172.2147128942
 20
31.0049287641
 30
0.0
 10
172.1935514921
 20
30.4642724921
 30
0.0
 10
172.1762280405
 20
30.1018488783
 30
0.0
 10
172.1571492155
 20
29.7733558632
 30
0.0
 10
172.1365280299
 20
29.4819460587
 30
0.0
 10
172.1145821614
 20
29.2304203104
 30
0.0
 10
172.0944897815
 20
29.0469809375
 30
0.0
 10
172.0774288874
 20
28.922052638
 30
0.0
 10
172.065179365
 20
28.845084067
 30
0.0
 10
172.0527851094
 20
28.7796091605
 30
0.0
 10
172.0403346998
 20
28.7257372586
 30
0.0
 10
172.0278016562
 20
28.6835825267
 30
0.0
 10
172.0167368329
 20
28.6559663085
 30
0.0
 10
172.0072042077
 20
28.6401608042
 30
0.0
 10
171.9995699307
 20
28.6307440217
 30
0.0
 10
171.9917710668
 20
28.6261310312
 30
0.0
 10
171.9869807476
 20
28.6261310312
 30
0.0
  0
LINE
  5
2F5
330
1B
100
AcDbEntity
 67
     1
  8
3_ALL_AXES
  6
Continuous
 62
     7
100
AcDbLine
 10
168.9912275771
 20
31.1261264777
 30
0.0
 11
169.183861389
 21
31.1261264777
 31
0.0
  0
LINE
  5
2F6
330
1B
100
AcDbEntity
 67
     1
  8
3_ALL_AXES
  6
Continuous
 62
     7
100
AcDbLine
 10
169.183861389
 20
31.1261264777
 30
0.0
 11
169.1874004065
 21
31.1261264777
 31
0.0
  0
LINE
  5
2F7
330
1B
100
AcDbEntity
 67
     1
  8
3_ALL_AXES
  6
Continuous
 62
     7
100
AcDbLine
 10
169.183861389
 20
31.1296755505
 30
0.0
 11
169.1874004065
 21
31.1261264777
 31
0.0
  0
LINE
  5
2F8
330
1B
100
AcDbEntity
 67
     1
  8
3_ALL_AXES
  6
Continuous
 62
     7
100
AcDbLine
 10
169.1874004065
 20
31.1261264777
 30
0.0
 11
169.8752547149
 21
30.4363177831
 31
0.0
  0
LINE
  5
2F9
330
1B
100
AcDbEntity
 67
     1
  8
3_ALL_AXES
  6
Continuous
 62
     7
100
AcDbLine
 10
171.8752547149
 20
28.6261264777
 30
0.0
 11
171.9869807476
 21
28.6261264777
 31
0.0
  0
LINE
  5
2FA
330
1B
100
AcDbEntity
 67
     1
  8
3_ALL_AXES
  6
Continuous
 62
     7
100
AcDbLine
 10
168.9912275771
 20
36.1261264777
 30
0.0
 11
169.183861389
 21
36.1261264777
 31
0.0
  0
LINE
  5
2FB
330
1B
100
AcDbEntity
 67
     1
  8
3_ALL_AXES
  6
Continuous
 62
     7
100
AcDbLine
 10
169.183861389
 20
36.1261264777
 30
0.0
 11
169.1874004065
 21
36.1261264777
 31
0.0
  0
LINE
  5
2FC
330
1B
100
AcDbEntity
 67
     1
  8
3_ALL_AXES
  6
Continuous
 62
     7
100
AcDbLine
 10
171.8752547149
 20
38.6261264777
 30
0.0
 11
171.9869807476
 21
38.6261264777
 31
0.0
  0
LINE
  5
2FD
330
1B
100
AcDbEntity
 67
     1
  8
3_ALL_AXES
  6
Continuous
 62
     7
100
AcDbLine
 10
169.183861389
 20
36.1225774049
 30
0.0
 11
169.1874004065
 21
36.1261264777
 31
0.0
  0
LINE
  5
2FE
330
1B
100
AcDbEntity
 67
     1
  8
3_ALL_AXES
  6
Continuous
 62
     7
100
AcDbLine
 10
169.1874004065
 20
36.1261264777
 30
0.0
 11
169.8752547149
 21
36.8159351723
 31
0.0
  0
LINE
  5
2FF
330
1B
100
AcDbEntity
 67
     1
  8
7_ALL_FEATURES
  6
Continuous
 62
     7
100
AcDbLine
 10
172.0791091749
 20
33.6261264777
 30
0.0
 11
172.0330449613
 21
35.1261264777
 31
0.0
  0
SPLINE
  5
300
330
1B
100
AcDbEntity
 67
     1
  8
3_ALL_AXES
  6
Continuous
 62
     7
100
AcDbSpline
 70
     0
 71
     3
 72
    20
 73
    16
 74
     0
 42
0.000000001
 43
0.0000001
 40
0.0
 40
0.0
 40
0.0
 40
0.0
 40
0.004420813
 40
0.0108034552
 40
0.0298367855
 40
0.0573543286
 40
0.0932101592
 40
0.1371345506
 40
0.1887536249
 40
0.2476199865
 40
0.3132159549
 40
0.4622026882
 40
0.630416215
 40
0.8118361053
 40
1.0
 40
1.0
 40
1.0
 40
1.0
 10
169.1838613938
 20
31.1296772198
 30
0.0
 10
169.1812537416
 20
31.1322905254
 30
0.0
 10
169.1764638123
 20
31.1401302392
 30
0.0
 10
169.1672111392
 20
31.1632456388
 30
0.0
 10
169.1568670228
 20
31.2064325214
 30
0.0
 10
169.1452752797
 20
31.2742187403
 30
0.0
 10
169.1339861382
 20
31.3631559432
 30
0.0
 10
169.1230431872
 20
31.4723360432
 30
0.0
 10
169.1126499972
 20
31.6008725216
 30
0.0
 10
169.1029034693
 20
31.7475955782
 30
0.0
 10
169.0903853409
 20
31.9756112096
 30
0.0
 10
169.0774783414
 20
32.2950355463
 30
0.0
 10
169.0663549195
 20
32.7112891385
 30
0.0
 10
169.0595029457
 20
33.1603546836
 30
0.0
 10
169.0579685244
 20
33.4689926909
 30
0.0
 10
169.0579685244
 20
33.6261264777
 30
0.0
  0
SPLINE
  5
301
330
1B
100
AcDbEntity
 67
     1
  8
3_ALL_AXES
  6
Continuous
 62
     7
100
AcDbSpline
 70
     0
 71
     3
 72
    16
 73
    12
 74
     0
 42
0.000000001
 43
0.0000001
 40
0.0
 40
0.0
 40
0.0
 40
0.0
 40
0.033294473
 40
0.0573149705
 40
0.0876282132
 40
0.1686449059
 40
0.2779747473
 40
0.4159769818
 40
0.5825371736
 40
0.7773706309
 40
1.0
 40
1.0
 40
1.0
 40
1.0
 10
171.9869807476
 20
28.6261310312
 30
0.0
 10
171.9815777575
 20
28.6261310312
 30
0.0
 10
171.9728282257
 20
28.6320325723
 30
0.0
 10
171.9645755892
 20
28.6433761103
 30
0.0
 10
171.9539955328
 20
28.6627936534
 30
0.0
 10
171.9418267009
 20
28.6965514053
 30
0.0
 10
171.92801542
 20
28.748049919
 30
0.0
 10
171.9143351551
 20
28.8138337626
 30
0.0
 10
171.9007401529
 20
28.8937379969
 30
0.0
 10
171.8873578006
 20
28.9875718593
 30
0.0
 10
171.8791420722
 20
29.0548211738
 30
0.0
 10
171.8750279505
 20
29.0907142064
 30
0.0
  0
LINE
  5
302
330
1B
100
AcDbEntity
 67
     1
  8
7_ALL_FEATURES
  6
Continuous
 62
     7
100
AcDbLine
 10
172.0791091749
 20
33.6261264777
 30
0.0
 11
171.8948523203
 21
33.6261264777
 31
0.0
  0
LINE
  5
303
330
1B
100
AcDbEntity
 67
     1
  8
7_ALL_FEATURES
  6
Continuous
 62
     7
100
AcDbLine
 10
172.0330449613
 20
32.1261264777
 30
0.0
 11
172.0791091749
 21
33.6261264777
 31
0.0
  0
SPLINE
  5
304
330
1B
100
AcDbEntity
 67
     1
  8
3_ALL_AXES
  6
Continuous
 62
     7
100
AcDbSpline
 70
     0
 71
     3
 72
    16
 73
    12
 74
     0
 42
0.000000001
 43
0.0000001
 40
0.0
 40
0.0
 40
0.0
 40
0.0
 40
0.033294473
 40
0.0573149705
 40
0.0876282132
 40
0.1686449059
 40
0.2779747473
 40
0.4159769818
 40
0.5825371736
 40
0.7773706309
 40
1.0
 40
1.0
 40
1.0
 40
1.0
 10
171.9869807476
 20
38.6261219242
 30
0.0
 10
171.9815777575
 20
38.6261219242
 30
0.0
 10
171.9728282257
 20
38.6202203831
 30
0.0
 10
171.9645755892
 20
38.6088768451
 30
0.0
 10
171.9539955328
 20
38.589459302
 30
0.0
 10
171.9418267009
 20
38.5557015501
 30
0.0
 10
171.92801542
 20
38.5042030364
 30
0.0
 10
171.9143351551
 20
38.4384191929
 30
0.0
 10
171.9007401529
 20
38.3585149585
 30
0.0
 10
171.8873578006
 20
38.2646810961
 30
0.0
 10
171.8791420722
 20
38.1974317816
 30
0.0
 10
171.8750279505
 20
38.161538749
 30
0.0
  0
SPLINE
  5
305
330
1B
100
AcDbEntity
 67
     1
  8
3_ALL_AXES
  6
Continuous
 62
     7
100
AcDbSpline
 70
     0
 71
     3
 72
    20
 73
    16
 74
     0
 42
0.000000001
 43
0.0000001
 40
0.0
 40
0.0
 40
0.0
 40
0.0
 40
0.004420813
 40
0.0108034552
 40
0.0298367855
 40
0.0573543286
 40
0.0932101592
 40
0.1371345506
 40
0.1887536249
 40
0.2476199865
 40
0.3132159549
 40
0.4622026882
 40
0.630416215
 40
0.8118361053
 40
1.0
 40
1.0
 40
1.0
 40
1.0
 10
169.1838613938
 20
36.1225757356
 30
0.0
 10
169.1812537416
 20
36.11996243
 30
0.0
 10
169.1764638123
 20
36.1121227162
 30
0.0
 10
169.1672111392
 20
36.0890073166
 30
0.0
 10
169.1568670228
 20
36.045820434
 30
0.0
 10
169.1452752797
 20
35.9780342151
 30
0.0
 10
169.1339861382
 20
35.8890970122
 30
0.0
 10
169.1230431872
 20
35.7799169122
 30
0.0
 10
169.1126499972
 20
35.6513804338
 30
0.0
 10
169.1029034693
 20
35.5046573773
 30
0.0
 10
169.0903853409
 20
35.2766417458
 30
0.0
 10
169.0774783414
 20
34.9572174091
 30
0.0
 10
169.0663549195
 20
34.5409638169
 30
0.0
 10
169.0595029457
 20
34.0918982718
 30
0.0
 10
169.0579685244
 20
33.7832602645
 30
0.0
 10
169.0579685244
 20
33.6261264777
 30
0.0
  0
LINE
  5
306
330
1B
100
AcDbEntity
 67
     1
  8
7_ALL_FEATURES
  6
Continuous
 62
     7
100
AcDbLine
 10
171.940916534
 20
116.1261264777
 30
0.0
 11
171.8948523203
 21
114.6261264777
 31
0.0
  0
LINE
  5
307
330
1B
100
AcDbEntity
 67
     1
  8
7_ALL_FEATURES
  6
Continuous
 62
     7
100
AcDbLine
 10
171.8948523203
 20
114.6261264777
 30
0.0
 11
171.940916534
 21
113.1261264777
 31
0.0
  0
LINE
  5
308
330
1B
100
AcDbEntity
 67
     1
  8
7_ALL_FEATURES
  6
Continuous
 62
     7
100
AcDbLine
 10
171.940916534
 20
113.1261264777
 30
0.0
 11
172.0330449613
 21
113.1261264777
 31
0.0
  0
LINE
  5
309
330
1B
100
AcDbEntity
 67
     1
  8
7_ALL_FEATURES
  6
Continuous
 62
     7
100
AcDbLine
 10
172.0330449613
 20
116.1261264777
 30
0.0
 11
171.940916534
 21
116.1261264777
 31
0.0
  0
SPLINE
  5
30A
330
1B
100
AcDbEntity
 67
     1
  8
3_ALL_AXES
  6
Continuous
 62
     7
100
AcDbSpline
 70
     0
 71
     3
 72
    25
 73
    21
 74
     0
 42
0.000000001
 43
0.0000001
 40
0.0
 40
0.0
 40
0.0
 40
0.0
 40
0.1940658394
 40
0.3806863301
 40
0.5527282031
 40
0.6311958828
 40
0.7036085467
 40
0.7692761139
 40
0.8275758907
 40
0.8779581814
 40
0.919957029
 40
0.9376951235
 40
0.9532065144
 40
0.9664666613
 40
0.9774603466
 40
0.9861898038
 40
0.9926987198
 40
0.9951609966
 40
0.9971410079
 40
1.0
 40
1.0
 40
1.0
 40
1.0
 10
172.2529326091
 20
114.6261264777
 30
0.0
 10
172.2529326091
 20
114.951289077
 30
0.0
 10
172.2496562406
 20
115.5891451023
 30
0.0
 10
172.2350103109
 20
116.5151572288
 30
0.0
 10
172.2147128942
 20
117.2473241913
 30
0.0
 10
172.1935514921
 20
117.7879804633
 30
0.0
 10
172.1762280405
 20
118.1504040771
 30
0.0
 10
172.1571492155
 20
118.4788970922
 30
0.0
 10
172.1365280299
 20
118.7703068967
 30
0.0
 10
172.1145821614
 20
119.021832645
 30
0.0
 10
172.0944897815
 20
119.2052720179
 30
0.0
 10
172.0774288874
 20
119.3302003174
 30
0.0
 10
172.065179365
 20
119.4071688885
 30
0.0
 10
172.0527851094
 20
119.4726437949
 30
0.0
 10
172.0403346998
 20
119.5265156968
 30
0.0
 10
172.0278016562
 20
119.5686704287
 30
0.0
 10
172.0167368329
 20
119.5962866469
 30
0.0
 10
172.0072042077
 20
119.6120921512
 30
0.0
 10
171.9995699307
 20
119.6215089337
 30
0.0
 10
171.9917710668
 20
119.6261219242
 30
0.0
 10
171.9869807476
 20
119.6261219242
 30
0.0
  0
SPLINE
  5
30B
330
1B
100
AcDbEntity
 67
     1
  8
3_ALL_AXES
  6
Continuous
 62
     7
100
AcDbSpline
 70
     0
 71
     3
 72
    25
 73
    21
 74
     0
 42
0.000000001
 43
0.0000001
 40
0.0
 40
0.0
 40
0.0
 40
0.0
 40
0.1940658394
 40
0.3806863301
 40
0.5527282031
 40
0.6311958828
 40
0.7036085467
 40
0.7692761139
 40
0.8275758907
 40
0.8779581814
 40
0.919957029
 40
0.9376951235
 40
0.9532065144
 40
0.9664666613
 40
0.9774603466
 40
0.9861898038
 40
0.9926987198
 40
0.9951609966
 40
0.9971410079
 40
1.0
 40
1.0
 40
1.0
 40
1.0
 10
172.2529326091
 20
114.6261264777
 30
0.0
 10
172.2529326091
 20
114.3009638784
 30
0.0
 10
172.2496562406
 20
113.6631078531
 30
0.0
 10
172.2350103109
 20
112.7370957266
 30
0.0
 10
172.2147128942
 20
112.0049287641
 30
0.0
 10
172.1935514921
 20
111.4642724921
 30
0.0
 10
172.1762280405
 20
111.1018488783
 30
0.0
 10
172.1571492155
 20
110.7733558632
 30
0.0
 10
172.1365280299
 20
110.4819460587
 30
0.0
 10
172.1145821614
 20
110.2304203104
 30
0.0
 10
172.0944897815
 20
110.0469809375
 30
0.0
 10
172.0774288874
 20
109.922052638
 30
0.0
 10
172.065179365
 20
109.845084067
 30
0.0
 10
172.0527851094
 20
109.7796091605
 30
0.0
 10
172.0403346998
 20
109.7257372586
 30
0.0
 10
172.0278016562
 20
109.6835825267
 30
0.0
 10
172.0167368329
 20
109.6559663085
 30
0.0
 10
172.0072042077
 20
109.6401608042
 30
0.0
 10
171.9995699307
 20
109.6307440217
 30
0.0
 10
171.9917710668
 20
109.6261310312
 30
0.0
 10
171.9869807476
 20
109.6261310312
 30
0.0
  0
LINE
  5
30C
330
1B
100
AcDbEntity
 67
     1
  8
3_ALL_AXES
  6
Continuous
 62
     7
100
AcDbLine
 10
168.9912275771
 20
112.1261264777
 30
0.0
 11
169.183861389
 21
112.1261264777
 31
0.0
  0
LINE
  5
30D
330
1B
100
AcDbEntity
 67
     1
  8
3_ALL_AXES
  6
Continuous
 62
     7
100
AcDbLine
 10
169.183861389
 20
112.1261264777
 30
0.0
 11
169.1874004065
 21
112.1261264777
 31
0.0
  0
LINE
  5
30E
330
1B
100
AcDbEntity
 67
     1
  8
3_ALL_AXES
  6
Continuous
 62
     7
100
AcDbLine
 10
169.183861389
 20
112.1296755505
 30
0.0
 11
169.1874004065
 21
112.1261264777
 31
0.0
  0
LINE
  5
30F
330
1B
100
AcDbEntity
 67
     1
  8
3_ALL_AXES
  6
Continuous
 62
     7
100
AcDbLine
 10
169.1874004065
 20
112.1261264777
 30
0.0
 11
169.8752547149
 21
111.4363177831
 31
0.0
  0
LINE
  5
310
330
1B
100
AcDbEntity
 67
     1
  8
3_ALL_AXES
  6
Continuous
 62
     7
100
AcDbLine
 10
171.8752547149
 20
109.6261264777
 30
0.0
 11
171.9869807476
 21
109.6261264777
 31
0.0
  0
LINE
  5
311
330
1B
100
AcDbEntity
 67
     1
  8
3_ALL_AXES
  6
Continuous
 62
     7
100
AcDbLine
 10
168.9912275771
 20
117.1261264777
 30
0.0
 11
169.183861389
 21
117.1261264777
 31
0.0
  0
LINE
  5
312
330
1B
100
AcDbEntity
 67
     1
  8
3_ALL_AXES
  6
Continuous
 62
     7
100
AcDbLine
 10
169.183861389
 20
117.1261264777
 30
0.0
 11
169.1874004065
 21
117.1261264777
 31
0.0
  0
LINE
  5
313
330
1B
100
AcDbEntity
 67
     1
  8
3_ALL_AXES
  6
Continuous
 62
     7
100
AcDbLine
 10
171.8752547149
 20
119.6261264777
 30
0.0
 11
171.9869807476
 21
119.6261264777
 31
0.0
  0
LINE
  5
314
330
1B
100
AcDbEntity
 67
     1
  8
3_ALL_AXES
  6
Continuous
 62
     7
100
AcDbLine
 10
169.183861389
 20
117.1225774049
 30
0.0
 11
169.1874004065
 21
117.1261264777
 31
0.0
  0
LINE
  5
315
330
1B
100
AcDbEntity
 67
     1
  8
3_ALL_AXES
  6
Continuous
 62
     7
100
AcDbLine
 10
169.1874004065
 20
117.1261264777
 30
0.0
 11
169.8752547149
 21
117.8159351723
 31
0.0
  0
LINE
  5
316
330
1B
100
AcDbEntity
 67
     1
  8
7_ALL_FEATURES
  6
Continuous
 62
     7
100
AcDbLine
 10
172.0791091749
 20
114.6261264777
 30
0.0
 11
172.0330449613
 21
116.1261264777
 31
0.0
  0
SPLINE
  5
317
330
1B
100
AcDbEntity
 67
     1
  8
3_ALL_AXES
  6
Continuous
 62
     7
100
AcDbSpline
 70
     0
 71
     3
 72
    20
 73
    16
 74
     0
 42
0.000000001
 43
0.0000001
 40
0.0
 40
0.0
 40
0.0
 40
0.0
 40
0.004420813
 40
0.0108034552
 40
0.0298367855
 40
0.0573543286
 40
0.0932101592
 40
0.1371345506
 40
0.1887536249
 40
0.2476199865
 40
0.3132159549
 40
0.4622026882
 40
0.630416215
 40
0.8118361053
 40
1.0
 40
1.0
 40
1.0
 40
1.0
 10
169.1838613938
 20
112.1296772198
 30
0.0
 10
169.1812537416
 20
112.1322905254
 30
0.0
 10
169.1764638123
 20
112.1401302392
 30
0.0
 10
169.1672111392
 20
112.1632456388
 30
0.0
 10
169.1568670228
 20
112.2064325214
 30
0.0
 10
169.1452752797
 20
112.2742187403
 30
0.0
 10
169.1339861382
 20
112.3631559432
 30
0.0
 10
169.1230431872
 20
112.4723360432
 30
0.0
 10
169.1126499972
 20
112.6008725216
 30
0.0
 10
169.1029034693
 20
112.7475955782
 30
0.0
 10
169.0903853409
 20
112.9756112096
 30
0.0
 10
169.0774783414
 20
113.2950355463
 30
0.0
 10
169.0663549195
 20
113.7112891385
 30
0.0
 10
169.0595029457
 20
114.1603546836
 30
0.0
 10
169.0579685244
 20
114.4689926909
 30
0.0
 10
169.0579685244
 20
114.6261264777
 30
0.0
  0
SPLINE
  5
318
330
1B
100
AcDbEntity
 67
     1
  8
3_ALL_AXES
  6
Continuous
 62
     7
100
AcDbSpline
 70
     0
 71
     3
 72
    16
 73
    12
 74
     0
 42
0.000000001
 43
0.0000001
 40
0.0
 40
0.0
 40
0.0
 40
0.0
 40
0.033294473
 40
0.0573149705
 40
0.0876282132
 40
0.1686449059
 40
0.2779747473
 40
0.4159769818
 40
0.5825371736
 40
0.7773706309
 40
1.0
 40
1.0
 40
1.0
 40
1.0
 10
171.9869807476
 20
109.6261310312
 30
0.0
 10
171.9815777575
 20
109.6261310312
 30
0.0
 10
171.9728282257
 20
109.6320325723
 30
0.0
 10
171.9645755892
 20
109.6433761103
 30
0.0
 10
171.9539955328
 20
109.6627936534
 30
0.0
 10
171.9418267009
 20
109.6965514053
 30
0.0
 10
171.92801542
 20
109.748049919
 30
0.0
 10
171.9143351551
 20
109.8138337626
 30
0.0
 10
171.9007401529
 20
109.8937379969
 30
0.0
 10
171.8873578006
 20
109.9875718593
 30
0.0
 10
171.8791420722
 20
110.0548211738
 30
0.0
 10
171.8750279505
 20
110.0907142064
 30
0.0
  0
LINE
  5
319
330
1B
100
AcDbEntity
 67
     1
  8
7_ALL_FEATURES
  6
Continuous
 62
     7
100
AcDbLine
 10
172.0791091749
 20
114.6261264777
 30
0.0
 11
171.8948523203
 21
114.6261264777
 31
0.0
  0
LINE
  5
31A
330
1B
100
AcDbEntity
 67
     1
  8
7_ALL_FEATURES
  6
Continuous
 62
     7
100
AcDbLine
 10
172.0330449613
 20
113.1261264777
 30
0.0
 11
172.0791091749
 21
114.6261264777
 31
0.0
  0
SPLINE
  5
31B
330
1B
100
AcDbEntity
 67
     1
  8
3_ALL_AXES
  6
Continuous
 62
     7
100
AcDbSpline
 70
     0
 71
     3
 72
    16
 73
    12
 74
     0
 42
0.000000001
 43
0.0000001
 40
0.0
 40
0.0
 40
0.0
 40
0.0
 40
0.033294473
 40
0.0573149705
 40
0.0876282132
 40
0.1686449059
 40
0.2779747473
 40
0.4159769818
 40
0.5825371736
 40
0.7773706309
 40
1.0
 40
1.0
 40
1.0
 40
1.0
 10
171.9869807476
 20
119.6261219242
 30
0.0
 10
171.9815777575
 20
119.6261219242
 30
0.0
 10
171.9728282257
 20
119.6202203831
 30
0.0
 10
171.9645755892
 20
119.6088768451
 30
0.0
 10
171.9539955328
 20
119.589459302
 30
0.0
 10
171.9418267009
 20
119.5557015501
 30
0.0
 10
171.92801542
 20
119.5042030364
 30
0.0
 10
171.9143351551
 20
119.4384191929
 30
0.0
 10
171.9007401529
 20
119.3585149585
 30
0.0
 10
171.8873578006
 20
119.2646810961
 30
0.0
 10
171.8791420722
 20
119.1974317816
 30
0.0
 10
171.8750279505
 20
119.161538749
 30
0.0
  0
SPLINE
  5
31C
330
1B
100
AcDbEntity
 67
     1
  8
3_ALL_AXES
  6
Continuous
 62
     7
100
AcDbSpline
 70
     0
 71
     3
 72
    20
 73
    16
 74
     0
 42
0.000000001
 43
0.0000001
 40
0.0
 40
0.0
 40
0.0
 40
0.0
 40
0.004420813
 40
0.0108034552
 40
0.0298367855
 40
0.0573543286
 40
0.0932101592
 40
0.1371345506
 40
0.1887536249
 40
0.2476199865
 40
0.3132159549
 40
0.4622026882
 40
0.630416215
 40
0.8118361053
 40
1.0
 40
1.0
 40
1.0
 40
1.0
 10
169.1838613938
 20
117.1225757356
 30
0.0
 10
169.1812537416
 20
117.11996243
 30
0.0
 10
169.1764638123
 20
117.1121227162
 30
0.0
 10
169.1672111392
 20
117.0890073166
 30
0.0
 10
169.1568670228
 20
117.045820434
 30
0.0
 10
169.1452752797
 20
116.9780342151
 30
0.0
 10
169.1339861382
 20
116.8890970122
 30
0.0
 10
169.1230431872
 20
116.7799169122
 30
0.0
 10
169.1126499972
 20
116.6513804338
 30
0.0
 10
169.1029034693
 20
116.5046573773
 30
0.0
 10
169.0903853409
 20
116.2766417458
 30
0.0
 10
169.0774783414
 20
115.9572174091
 30
0.0
 10
169.0663549195
 20
115.5409638169
 30
0.0
 10
169.0595029457
 20
115.0918982718
 30
0.0
 10
169.0579685244
 20
114.7832602645
 30
0.0
 10
169.0579685244
 20
114.6261264777
 30
0.0
  0
LINE
  5
31D
330
1B
100
AcDbEntity
 67
     1
  8
7_ALL_FEATURES
  6
Continuous
 62
     7
100
AcDbLine
 10
161.5092293111
 20
35.1261264777
 30
0.0
 11
160.6432039073
 21
33.6261264777
 31
0.0
  0
LINE
  5
31E
330
1B
100
AcDbEntity
 67
     1
  8
7_ALL_FEATURES
  6
Continuous
 62
     7
100
AcDbLine
 10
160.6432039073
 20
33.6261264777
 30
0.0
 11
161.5092293111
 21
32.1261264777
 31
0.0
  0
LINE
  5
31F
330
1B
100
AcDbEntity
 67
     1
  8
7_ALL_FEATURES
  6
Continuous
 62
     7
100
AcDbLine
 10
161.5092293111
 20
32.1261264777
 30
0.0
 11
163.2412801186
 21
32.1261264777
 31
0.0
  0
LINE
  5
320
330
1B
100
AcDbEntity
 67
     1
  8
7_ALL_FEATURES
  6
Continuous
 62
     7
100
AcDbLine
 10
163.2412801186
 20
32.1261264777
 30
0.0
 11
164.1073055224
 21
33.6261264777
 31
0.0
  0
LINE
  5
321
330
1B
100
AcDbEntity
 67
     1
  8
7_ALL_FEATURES
  6
Continuous
 62
     7
100
AcDbLine
 10
164.1073055224
 20
33.6261264777
 30
0.0
 11
163.2412801186
 21
35.1261264777
 31
0.0
  0
LINE
  5
322
330
1B
100
AcDbEntity
 67
     1
  8
7_ALL_FEATURES
  6
Continuous
 62
     7
100
AcDbLine
 10
163.2412801186
 20
35.1261264777
 30
0.0
 11
161.5092293111
 21
35.1261264777
 31
0.0
  0
ARC
  5
323
330
1B
100
AcDbEntity
 67
     1
  8
7_ALL_FEATURES
  6
Continuous
 62
     7
100
AcDbCircle
 10
162.3752547149
 20
33.6261264777
 30
0.0
 40
3.5
100
AcDbArc
 50
0.0
 51
180.0
  0
ARC
  5
324
330
1B
100
AcDbEntity
 67
     1
  8
7_ALL_FEATURES
  6
Continuous
 62
     7
100
AcDbCircle
 10
162.3752547149
 20
33.6261264777
 30
0.0
 40
3.5
100
AcDbArc
 50
180.0
 51
360.0
  0
ARC
  5
325
330
1B
100
AcDbEntity
 67
     1
  8
7_ALL_FEATURES
  6
Continuous
 62
     7
100
AcDbCircle
 10
162.3752547149
 20
33.6261264777
 30
0.0
 40
3.5
100
AcDbArc
 50
0.0
 51
180.0
  0
ARC
  5
326
330
1B
100
AcDbEntity
 67
     1
  8
7_ALL_FEATURES
  6
Continuous
 62
     7
100
AcDbCircle
 10
162.3752547149
 20
33.6261264777
 30
0.0
 40
3.5
100
AcDbArc
 50
180.0
 51
360.0
  0
ARC
  5
327
330
1B
100
AcDbEntity
 67
     1
  8
7_ALL_FEATURES
  6
Continuous
 62
     9
100
AcDbCircle
 10
162.3752547149
 20
33.6261264777
 30
0.0
 40
3.3999999423
100
AcDbArc
 50
180.0
 51
360.0
  0
ARC
  5
328
330
1B
100
AcDbEntity
 67
     1
  8
7_ALL_FEATURES
  6
Continuous
 62
     9
100
AcDbCircle
 10
162.3752547149
 20
33.6261264777
 30
0.0
 40
3.3999999423
100
AcDbArc
 50
0.0
 51
180.0
  0
LINE
  5
329
330
1B
100
AcDbEntity
 67
     1
  8
7_ALL_FEATURES
  6
Continuous
 62
     7
100
AcDbLine
 10
80.5092293111
 20
116.1261264777
 30
0.0
 11
79.6432039073
 21
114.6261264777
 31
0.0
  0
LINE
  5
32A
330
1B
100
AcDbEntity
 67
     1
  8
7_ALL_FEATURES
  6
Continuous
 62
     7
100
AcDbLine
 10
79.6432039073
 20
114.6261264777
 30
0.0
 11
80.5092293111
 21
113.1261264777
 31
0.0
  0
LINE
  5
32B
330
1B
100
AcDbEntity
 67
     1
  8
7_ALL_FEATURES
  6
Continuous
 62
     7
100
AcDbLine
 10
80.5092293111
 20
113.1261264777
 30
0.0
 11
82.2412801186
 21
113.1261264777
 31
0.0
  0
LINE
  5
32C
330
1B
100
AcDbEntity
 67
     1
  8
7_ALL_FEATURES
  6
Continuous
 62
     7
100
AcDbLine
 10
82.2412801186
 20
113.1261264777
 30
0.0
 11
83.1073055224
 21
114.6261264777
 31
0.0
  0
LINE
  5
32D
330
1B
100
AcDbEntity
 67
     1
  8
7_ALL_FEATURES
  6
Continuous
 62
     7
100
AcDbLine
 10
83.1073055224
 20
114.6261264777
 30
0.0
 11
82.2412801186
 21
116.1261264777
 31
0.0
  0
LINE
  5
32E
330
1B
100
AcDbEntity
 67
     1
  8
7_ALL_FEATURES
  6
Continuous
 62
     7
100
AcDbLine
 10
82.2412801186
 20
116.1261264777
 30
0.0
 11
80.5092293111
 21
116.1261264777
 31
0.0
  0
ARC
  5
32F
330
1B
100
AcDbEntity
 67
     1
  8
7_ALL_FEATURES
  6
Continuous
 62
     7
100
AcDbCircle
 10
81.3752547149
 20
114.6261264777
 30
0.0
 40
3.5
100
AcDbArc
 50
180.0
 51
360.0
  0
ARC
  5
330
330
1B
100
AcDbEntity
 67
     1
  8
7_ALL_FEATURES
  6
Continuous
 62
     7
100
AcDbCircle
 10
81.3752547149
 20
114.6261264777
 30
0.0
 40
3.5
100
AcDbArc
 50
0.0
 51
180.0
  0
ARC
  5
331
330
1B
100
AcDbEntity
 67
     1
  8
7_ALL_FEATURES
  6
Continuous
 62
     7
100
AcDbCircle
 10
81.3752547149
 20
114.6261264777
 30
0.0
 40
3.5
100
AcDbArc
 50
180.0
 51
360.0
  0
ARC
  5
332
330
1B
100
AcDbEntity
 67
     1
  8
7_ALL_FEATURES
  6
Continuous
 62
     9
100
AcDbCircle
 10
81.3752547149
 20
114.6261264777
 30
0.0
 40
3.3999999423
100
AcDbArc
 50
180.0
 51
360.0
  0
ARC
  5
333
330
1B
100
AcDbEntity
 67
     1
  8
7_ALL_FEATURES
  6
Continuous
 62
     9
100
AcDbCircle
 10
81.3752547149
 20
114.6261264777
 30
0.0
 40
3.3999999423
100
AcDbArc
 50
0.0
 51
180.0
  0
ARC
  5
334
330
1B
100
AcDbEntity
 67
     1
  8
7_ALL_FEATURES
  6
Continuous
 62
     7
100
AcDbCircle
 10
162.3752547149
 20
33.6261264777
 30
0.0
 40
4.4
100
AcDbArc
 50
0.0
 51
180.0
  0
ARC
  5
335
330
1B
100
AcDbEntity
 67
     1
  8
7_ALL_FEATURES
  6
Continuous
 62
     7
100
AcDbCircle
 10
162.3752547149
 20
33.6261264777
 30
0.0
 40
4.4
100
AcDbArc
 50
180.0
 51
360.0
  0
ARC
  5
336
330
1B
100
AcDbEntity
 67
     1
  8
7_ALL_FEATURES
  6
Continuous
 62
     7
100
AcDbCircle
 10
162.3752547149
 20
33.6261264777
 30
0.0
 40
3.9
100
AcDbArc
 50
0.0
 51
180.0
  0
ARC
  5
337
330
1B
100
AcDbEntity
 67
     1
  8
7_ALL_FEATURES
  6
Continuous
 62
     7
100
AcDbCircle
 10
162.3752547149
 20
33.6261264777
 30
0.0
 40
3.9
100
AcDbArc
 50
180.0
 51
360.0
  0
ARC
  5
338
330
1B
100
AcDbEntity
 67
     1
  8
7_ALL_FEATURES
  6
Continuous
 62
     7
100
AcDbCircle
 10
81.3752547149
 20
114.6261264777
 30
0.0
 40
4.4
100
AcDbArc
 50
0.0
 51
180.0
  0
ARC
  5
339
330
1B
100
AcDbEntity
 67
     1
  8
7_ALL_FEATURES
  6
Continuous
 62
     7
100
AcDbCircle
 10
81.3752547149
 20
114.6261264777
 30
0.0
 40
4.4
100
AcDbArc
 50
180.0
 51
360.0
  0
ARC
  5
33A
330
1B
100
AcDbEntity
 67
     1
  8
7_ALL_FEATURES
  6
Continuous
 62
     7
100
AcDbCircle
 10
81.3752547149
 20
114.6261264777
 30
0.0
 40
3.9
100
AcDbArc
 50
0.0
 51
180.0
  0
ARC
  5
33B
330
1B
100
AcDbEntity
 67
     1
  8
7_ALL_FEATURES
  6
Continuous
 62
     7
100
AcDbCircle
 10
81.3752547149
 20
114.6261264777
 30
0.0
 40
3.9
100
AcDbArc
 50
180.0
 51
360.0
  0
LINE
  5
33C
330
1B
100
AcDbEntity
 67
     1
  8
7_ALL_FEATURES
  6
Continuous
 62
     7
100
AcDbLine
 10
74.0252547149
 20
46.1261264777
 30
0.0
 11
74.1316354595
 21
44.1261264777
 31
0.0
  0
LINE
  5
33D
330
1B
100
AcDbEntity
 67
     1
  8
7_ALL_FEATURES
  6
Continuous
 62
     7
100
AcDbLine
 10
74.1316354595
 20
104.1261264777
 30
0.0
 11
74.0252547149
 21
102.1261264777
 31
0.0
  0
LINE
  5
33E
330
1B
100
AcDbEntity
 67
     1
  8
7_ALL_FEATURES
  6
Continuous
 62
     7
100
AcDbLine
 10
74.1316354595
 20
104.1261264777
 30
0.0
 11
74.2273781296
 21
104.1261264777
 31
0.0
  0
LINE
  5
33F
330
1B
100
AcDbEntity
 67
     1
  8
7_ALL_FEATURES
  6
Continuous
 62
     7
100
AcDbLine
 10
74.2273781296
 20
104.1261264777
 30
0.0
 11
74.2273781296
 21
104.3261264777
 31
0.0
  0
LINE
  5
340
330
1B
100
AcDbEntity
 67
     1
  8
7_ALL_FEATURES
  6
Continuous
 62
     7
100
AcDbLine
 10
74.2273781296
 20
104.3261264777
 30
0.0
 11
74.2273781296
 21
109.1261264777
 31
0.0
  0
LINE
  5
341
330
1B
100
AcDbEntity
 67
     1
  8
7_ALL_FEATURES
  6
Continuous
 62
     7
100
AcDbLine
 10
74.2273781296
 20
119.1261264777
 30
0.0
 11
74.2273781296
 21
121.9261264777
 31
0.0
  0
LINE
  5
342
330
1B
100
AcDbEntity
 67
     1
  8
7_ALL_FEATURES
  6
Continuous
 62
     7
100
AcDbLine
 10
74.2273781296
 20
26.3261264777
 30
0.0
 11
74.2273781296
 21
30.7894416788
 31
0.0
  0
LINE
  5
343
330
1B
100
AcDbEntity
 67
     1
  8
7_ALL_FEATURES
  6
Continuous
 62
     7
100
AcDbLine
 10
74.2273781296
 20
43.1261264777
 30
0.0
 11
74.2273781296
 21
43.9261264777
 31
0.0
  0
LINE
  5
344
330
1B
100
AcDbEntity
 67
     1
  8
7_ALL_FEATURES
  6
Continuous
 62
     7
100
AcDbLine
 10
74.2273781296
 20
43.9261264777
 30
0.0
 11
74.2273781296
 21
44.1261264777
 31
0.0
  0
LINE
  5
345
330
1B
100
AcDbEntity
 67
     1
  8
7_ALL_FEATURES
  6
Continuous
 62
     7
100
AcDbLine
 10
74.2273781296
 20
44.1261264777
 30
0.0
 11
74.1316354595
 21
44.1261264777
 31
0.0
  0
LINE
  5
346
330
1B
100
AcDbEntity
 67
     1
  8
7_ALL_FEATURES
  6
Continuous
 62
     7
100
AcDbLine
 10
77.2146499435
 20
27.3039505691
 30
0.0
 11
77.185293349
 21
27.2846772527
 31
0.0
  0
LINE
  5
347
330
1B
100
AcDbEntity
 67
     1
  8
7_ALL_FEATURES
  6
Continuous
 62
     7
100
AcDbLine
 10
77.185293349
 20
27.2846772527
 30
0.0
 11
75.7252547149
 21
26.3261264777
 31
0.0
  0
LINE
  5
348
330
1B
100
AcDbEntity
 67
     1
  8
7_ALL_FEATURES
  6
Continuous
 62
     7
100
AcDbLine
 10
77.2181122887
 20
27.3713568163
 30
0.0
 11
77.2146499435
 21
27.3039505691
 31
0.0
  0
LINE
  5
349
330
1B
100
AcDbEntity
 67
     1
  8
7_ALL_FEATURES
  6
Continuous
 62
     7
100
AcDbLine
 10
77.2146499435
 20
120.9483023864
 30
0.0
 11
77.2181122887
 21
120.8808961391
 31
0.0
  0
LINE
  5
34A
330
1B
100
AcDbEntity
 67
     1
  8
7_ALL_FEATURES
  6
Continuous
 62
     7
100
AcDbLine
 10
77.2146499435
 20
120.9483023864
 30
0.0
 11
77.185293349
 21
120.9675757027
 31
0.0
  0
LINE
  5
34B
330
1B
100
AcDbEntity
 67
     1
  8
7_ALL_FEATURES
  6
Continuous
 62
     7
100
AcDbLine
 10
77.185293349
 20
120.9675757027
 30
0.0
 11
75.7252547149
 21
121.9261264777
 31
0.0
  0
LINE
  5
34C
330
1B
100
AcDbEntity
 67
     1
  8
7_ALL_FEATURES
  6
Continuous
 62
     7
100
AcDbLine
 10
74.2273781296
 20
26.3261264777
 30
0.0
 11
75.7252547149
 21
26.3261264777
 31
0.0
  0
LINE
  5
34D
330
1B
100
AcDbEntity
 67
     1
  8
7_ALL_FEATURES
  6
Continuous
 62
     7
100
AcDbLine
 10
74.2273781296
 20
121.9261264777
 30
0.0
 11
75.7252547149
 21
121.9261264777
 31
0.0
  0
LINE
  5
34E
330
1B
100
AcDbEntity
 67
     1
  8
7_ALL_FEATURES
  6
Continuous
 62
     7
100
AcDbLine
 10
75.7167733583
 20
120.9483023864
 30
0.0
 11
74.2273781296
 21
121.9261264777
 31
0.0
  0
LINE
  5
34F
330
1B
100
AcDbEntity
 67
     1
  8
7_ALL_FEATURES
  6
Continuous
 62
     7
100
AcDbLine
 10
75.7891121245
 20
119.5399838874
 30
0.0
 11
75.7167733583
 21
120.9483023864
 31
0.0
  0
LINE
  5
350
330
1B
100
AcDbEntity
 67
     1
  8
7_ALL_FEATURES
  6
Continuous
 62
     7
100
AcDbLine
 10
77.2146499435
 20
120.9483023864
 30
0.0
 11
77.1252547149
 21
120.9483023864
 31
0.0
  0
LINE
  5
351
330
1B
100
AcDbEntity
 67
     1
  8
7_ALL_FEATURES
  6
Continuous
 62
     7
100
AcDbLine
 10
77.1252547149
 20
120.9483023864
 30
0.0
 11
75.7167733583
 21
120.9483023864
 31
0.0
  0
LINE
  5
352
330
1B
100
AcDbEntity
 67
     1
  8
7_ALL_FEATURES
  6
Continuous
 62
     7
100
AcDbLine
 10
75.7167733583
 20
27.3039505691
 30
0.0
 11
77.1252547149
 21
27.3039505691
 31
0.0
  0
LINE
  5
353
330
1B
100
AcDbEntity
 67
     1
  8
7_ALL_FEATURES
  6
Continuous
 62
     7
100
AcDbLine
 10
77.1252547149
 20
27.3039505691
 30
0.0
 11
77.2146499435
 21
27.3039505691
 31
0.0
  0
LINE
  5
354
330
1B
100
AcDbEntity
 67
     1
  8
7_ALL_FEATURES
  6
Continuous
 62
     7
100
AcDbLine
 10
75.7167733583
 20
27.3039505691
 30
0.0
 11
75.7891121245
 21
28.7122690681
 31
0.0
  0
LINE
  5
355
330
1B
100
AcDbEntity
 67
     1
  8
7_ALL_FEATURES
  6
Continuous
 62
     7
100
AcDbLine
 10
75.7167733583
 20
27.3039505691
 30
0.0
 11
74.2273781296
 21
26.3261264777
 31
0.0
  0
LINE
  5
356
330
1B
100
AcDbEntity
 67
     1
  8
7_ALL_FEATURES
  6
Continuous
 62
     7
100
AcDbLine
 10
169.7252547149
 20
102.1261264777
 30
0.0
 11
169.6188739703
 21
104.1261264777
 31
0.0
  0
LINE
  5
357
330
1B
100
AcDbEntity
 67
     1
  8
7_ALL_FEATURES
  6
Continuous
 62
     7
100
AcDbLine
 10
169.6188739703
 20
44.1261264777
 30
0.0
 11
169.7252547149
 21
46.1261264777
 31
0.0
  0
LINE
  5
358
330
1B
100
AcDbEntity
 67
     1
  8
7_ALL_FEATURES
  6
Continuous
 62
     7
100
AcDbLine
 10
169.6188739703
 20
44.1261264777
 30
0.0
 11
169.5231313001
 21
44.1261264777
 31
0.0
  0
LINE
  5
359
330
1B
100
AcDbEntity
 67
     1
  8
7_ALL_FEATURES
  6
Continuous
 62
     7
100
AcDbLine
 10
169.5231313001
 20
44.1261264777
 30
0.0
 11
169.5231313001
 21
43.9261264777
 31
0.0
  0
LINE
  5
35A
330
1B
100
AcDbEntity
 67
     1
  8
7_ALL_FEATURES
  6
Continuous
 62
     7
100
AcDbLine
 10
169.5231313001
 20
43.9261264777
 30
0.0
 11
169.5231313001
 21
39.1261264777
 31
0.0
  0
LINE
  5
35B
330
1B
100
AcDbEntity
 67
     1
  8
7_ALL_FEATURES
  6
Continuous
 62
     7
100
AcDbLine
 10
169.5231313001
 20
29.1261264777
 30
0.0
 11
169.5231313001
 21
26.3261264777
 31
0.0
  0
LINE
  5
35C
330
1B
100
AcDbEntity
 67
     1
  8
7_ALL_FEATURES
  6
Continuous
 62
     7
100
AcDbLine
 10
169.5231313001
 20
121.9261264777
 30
0.0
 11
169.5231313001
 21
117.4628112766
 31
0.0
  0
LINE
  5
35D
330
1B
100
AcDbEntity
 67
     1
  8
7_ALL_FEATURES
  6
Continuous
 62
     7
100
AcDbLine
 10
169.5231313001
 20
105.1261264777
 30
0.0
 11
169.5231313001
 21
104.3261264777
 31
0.0
  0
LINE
  5
35E
330
1B
100
AcDbEntity
 67
     1
  8
7_ALL_FEATURES
  6
Continuous
 62
     7
100
AcDbLine
 10
169.5231313001
 20
104.3261264777
 30
0.0
 11
169.5231313001
 21
104.1261264777
 31
0.0
  0
LINE
  5
35F
330
1B
100
AcDbEntity
 67
     1
  8
7_ALL_FEATURES
  6
Continuous
 62
     7
100
AcDbLine
 10
169.5231313001
 20
104.1261264777
 30
0.0
 11
169.6188739703
 21
104.1261264777
 31
0.0
  0
LINE
  5
360
330
1B
100
AcDbEntity
 67
     1
  8
7_ALL_FEATURES
  6
Continuous
 62
     7
100
AcDbLine
 10
166.5358594862
 20
120.9483023864
 30
0.0
 11
166.5652160807
 21
120.9675757027
 31
0.0
  0
LINE
  5
361
330
1B
100
AcDbEntity
 67
     1
  8
7_ALL_FEATURES
  6
Continuous
 62
     7
100
AcDbLine
 10
166.5652160807
 20
120.9675757027
 30
0.0
 11
168.0252547149
 21
121.9261264777
 31
0.0
  0
LINE
  5
362
330
1B
100
AcDbEntity
 67
     1
  8
7_ALL_FEATURES
  6
Continuous
 62
     7
100
AcDbLine
 10
166.532397141
 20
120.8808961391
 30
0.0
 11
166.5358594862
 21
120.9483023864
 31
0.0
  0
LINE
  5
363
330
1B
100
AcDbEntity
 67
     1
  8
7_ALL_FEATURES
  6
Continuous
 62
     7
100
AcDbLine
 10
166.5358594862
 20
27.3039505691
 30
0.0
 11
166.532397141
 21
27.3713568163
 31
0.0
  0
LINE
  5
364
330
1B
100
AcDbEntity
 67
     1
  8
7_ALL_FEATURES
  6
Continuous
 62
     7
100
AcDbLine
 10
166.5358594862
 20
27.3039505691
 30
0.0
 11
166.5652160807
 21
27.2846772527
 31
0.0
  0
LINE
  5
365
330
1B
100
AcDbEntity
 67
     1
  8
7_ALL_FEATURES
  6
Continuous
 62
     7
100
AcDbLine
 10
166.5652160807
 20
27.2846772527
 30
0.0
 11
168.0252547149
 21
26.3261264777
 31
0.0
  0
LINE
  5
366
330
1B
100
AcDbEntity
 67
     1
  8
7_ALL_FEATURES
  6
Continuous
 62
     7
100
AcDbLine
 10
169.5231313001
 20
121.9261264777
 30
0.0
 11
168.0252547149
 21
121.9261264777
 31
0.0
  0
LINE
  5
367
330
1B
100
AcDbEntity
 67
     1
  8
7_ALL_FEATURES
  6
Continuous
 62
     7
100
AcDbLine
 10
169.5231313001
 20
26.3261264777
 30
0.0
 11
168.0252547149
 21
26.3261264777
 31
0.0
  0
LINE
  5
368
330
1B
100
AcDbEntity
 67
     1
  8
7_ALL_FEATURES
  6
Continuous
 62
     7
100
AcDbLine
 10
168.0337360714
 20
27.3039505691
 30
0.0
 11
169.5231313001
 21
26.3261264777
 31
0.0
  0
LINE
  5
369
330
1B
100
AcDbEntity
 67
     1
  8
7_ALL_FEATURES
  6
Continuous
 62
     7
100
AcDbLine
 10
167.9613973052
 20
28.7122690681
 30
0.0
 11
168.0337360714
 21
27.3039505691
 31
0.0
  0
LINE
  5
36A
330
1B
100
AcDbEntity
 67
     1
  8
7_ALL_FEATURES
  6
Continuous
 62
     7
100
AcDbLine
 10
166.5358594862
 20
27.3039505691
 30
0.0
 11
166.6252547149
 21
27.3039505691
 31
0.0
  0
LINE
  5
36B
330
1B
100
AcDbEntity
 67
     1
  8
7_ALL_FEATURES
  6
Continuous
 62
     7
100
AcDbLine
 10
166.6252547149
 20
27.3039505691
 30
0.0
 11
168.0337360714
 21
27.3039505691
 31
0.0
  0
LINE
  5
36C
330
1B
100
AcDbEntity
 67
     1
  8
7_ALL_FEATURES
  6
Continuous
 62
     7
100
AcDbLine
 10
168.0337360714
 20
120.9483023864
 30
0.0
 11
166.6252547149
 21
120.9483023864
 31
0.0
  0
LINE
  5
36D
330
1B
100
AcDbEntity
 67
     1
  8
7_ALL_FEATURES
  6
Continuous
 62
     7
100
AcDbLine
 10
166.6252547149
 20
120.9483023864
 30
0.0
 11
166.5358594862
 21
120.9483023864
 31
0.0
  0
LINE
  5
36E
330
1B
100
AcDbEntity
 67
     1
  8
7_ALL_FEATURES
  6
Continuous
 62
     7
100
AcDbLine
 10
168.0337360714
 20
120.9483023864
 30
0.0
 11
167.9613973052
 21
119.5399838874
 31
0.0
  0
LINE
  5
36F
330
1B
100
AcDbEntity
 67
     1
  8
7_ALL_FEATURES
  6
Continuous
 62
     7
100
AcDbLine
 10
168.0337360714
 20
120.9483023864
 30
0.0
 11
169.5231313001
 21
121.9261264777
 31
0.0
  0
LINE
  5
370
330
1B
100
AcDbEntity
 67
     1
  8
7_ALL_FEATURES
  6
Continuous
 62
     7
100
AcDbLine
 10
142.3752547149
 20
97.6261264777
 30
0.0
 11
145.3752547149
 21
94.6261264777
 31
0.0
  0
LINE
  5
371
330
1B
100
AcDbEntity
 67
     1
  8
7_ALL_FEATURES
  6
Continuous
 62
     7
100
AcDbLine
 10
145.3752547149
 20
53.6261264777
 30
0.0
 11
142.3752547149
 21
50.6261264777
 31
0.0
  0
LINE
  5
372
330
1B
100
AcDbEntity
 67
     1
  8
7_ALL_FEATURES
  6
Continuous
 62
     7
100
AcDbLine
 10
101.3752547149
 20
50.6261264777
 30
0.0
 11
98.3752547149
 21
53.6261264777
 31
0.0
  0
LINE
  5
373
330
1B
100
AcDbEntity
 67
     1
  8
7_ALL_FEATURES
  6
Continuous
 62
     7
100
AcDbLine
 10
98.3752547149
 20
94.6261264777
 30
0.0
 11
101.3752547149
 21
97.6261264777
 31
0.0
  0
LINE
  5
374
330
1B
100
AcDbEntity
 67
     1
  8
7_ALL_FEATURES
  6
Continuous
 62
     7
100
AcDbLine
 10
71.3752547149
 20
21.6261264777
 30
0.0
 11
172.3752547149
 21
21.6261264777
 31
0.0
  0
LINE
  5
375
330
1B
100
AcDbEntity
 67
     1
  8
7_ALL_FEATURES
  6
Continuous
 62
     7
100
AcDbLine
 10
172.3752547149
 20
21.6261264777
 30
0.0
 11
174.3752547149
 21
23.6261264777
 31
0.0
  0
LINE
  5
376
330
1B
100
AcDbEntity
 67
     1
  8
7_ALL_FEATURES
  6
Continuous
 62
     7
100
AcDbLine
 10
174.3752547149
 20
23.6261264777
 30
0.0
 11
174.3752547149
 21
124.6261264777
 31
0.0
  0
LINE
  5
377
330
1B
100
AcDbEntity
 67
     1
  8
7_ALL_FEATURES
  6
Continuous
 62
     7
100
AcDbLine
 10
174.3752547149
 20
124.6261264777
 30
0.0
 11
172.3752547149
 21
126.6261264777
 31
0.0
  0
LINE
  5
378
330
1B
100
AcDbEntity
 67
     1
  8
7_ALL_FEATURES
  6
Continuous
 62
     7
100
AcDbLine
 10
172.3752547149
 20
126.6261264777
 30
0.0
 11
71.3752547149
 21
126.6261264777
 31
0.0
  0
LINE
  5
379
330
1B
100
AcDbEntity
 67
     1
  8
7_ALL_FEATURES
  6
Continuous
 62
     7
100
AcDbLine
 10
71.3752547149
 20
126.6261264777
 30
0.0
 11
69.3752547149
 21
124.6261264777
 31
0.0
  0
LINE
  5
37A
330
1B
100
AcDbEntity
 67
     1
  8
7_ALL_FEATURES
  6
Continuous
 62
     7
100
AcDbLine
 10
69.3752547149
 20
124.6261264777
 30
0.0
 11
69.3752547149
 21
23.6261264777
 31
0.0
  0
LINE
  5
37B
330
1B
100
AcDbEntity
 67
     1
  8
7_ALL_FEATURES
  6
Continuous
 62
     7
100
AcDbLine
 10
69.3752547149
 20
23.6261264777
 30
0.0
 11
71.3752547149
 21
21.6261264777
 31
0.0
  0
ARC
  5
37C
330
1B
100
AcDbEntity
 67
     1
  8
02___PRT_ALL_AXES
  6
Continuous
 62
     7
100
AcDbCircle
 10
121.8752547149
 20
74.1261264777
 30
0.0
 40
36.5
100
AcDbArc
 50
215.0
 51
235.0
  0
ARC
  5
37D
330
1B
100
AcDbEntity
 67
     1
  8
02___PRT_ALL_AXES
  6
Continuous
 62
     7
100
AcDbCircle
 10
98.9321972608
 20
41.3600447061
 30
0.0
 40
3.5
100
AcDbArc
 50
327.5720774023
 51
55.00000000000001
  0
ARC
  5
37E
330
1B
100
AcDbEntity
 67
     1
  8
02___PRT_ALL_AXES
  6
Continuous
 62
     7
100
AcDbCircle
 10
89.1091729433
 20
51.1830690237
 30
0.0
 40
3.5
100
AcDbArc
 50
35.0
 51
122.4333145796
  0
ARC
  5
37F
330
1B
100
AcDbEntity
 67
     1
  8
02___PRT_ALL_AXES
  6
Continuous
 62
     7
100
AcDbCircle
 10
121.8752547149
 20
74.1261264777
 30
0.0
 40
36.5
100
AcDbArc
 50
125.0
 51
145.0
  0
ARC
  5
380
330
1B
100
AcDbEntity
 67
     1
  8
02___PRT_ALL_AXES
  6
Continuous
 62
     7
100
AcDbCircle
 10
89.1091729433
 20
97.0691839317
 30
0.0
 40
3.5
100
AcDbArc
 50
145.0
 51
158.0661897851
  0
ARC
  5
381
330
1B
100
AcDbEntity
 67
     1
  8
02___PRT_ALL_AXES
  6
Continuous
 62
     7
100
AcDbCircle
 10
89.1091729433
 20
97.0691839317
 30
0.0
 40
3.5
100
AcDbArc
 50
201.6402795481
 51
325.0
  0
ARC
  5
382
330
1B
100
AcDbEntity
 67
     1
  8
02___PRT_ALL_AXES
  6
Continuous
 62
     7
100
AcDbCircle
 10
121.8752547149
 20
74.1261264777
 30
0.0
 40
43.5
100
AcDbArc
 50
125.0
 51
145.0
  0
ARC
  5
383
330
1B
100
AcDbEntity
 67
     1
  8
02___PRT_ALL_AXES
  6
Continuous
 62
     7
100
AcDbCircle
 10
98.9321972608
 20
106.8922082493
 30
0.0
 40
3.5
100
AcDbArc
 50
305.0
 51
68.3597204519
  0
ARC
  5
384
330
1B
100
AcDbEntity
 67
     1
  8
02___PRT_ALL_AXES
  6
Continuous
 62
     7
100
AcDbCircle
 10
98.9321972608
 20
106.8922082493
 30
0.0
 40
3.5
100
AcDbArc
 50
111.9338102149
 51
125.0
  0
ARC
  5
385
330
1B
100
AcDbEntity
 67
     1
  8
02___PRT_ALL_AXES
  6
Continuous
 62
     7
100
AcDbCircle
 10
121.8752547149
 20
74.1261264777
 30
0.0
 40
36.5
100
AcDbArc
 50
35.0
 51
55.00000000000001
  0
ARC
  5
386
330
1B
100
AcDbEntity
 67
     1
  8
02___PRT_ALL_AXES
  6
Continuous
 62
     7
100
AcDbCircle
 10
144.8183121689
 20
106.8922082493
 30
0.0
 40
3.5
100
AcDbArc
 50
147.5720774023
 51
235.0
  0
ARC
  5
387
330
1B
100
AcDbEntity
 67
     1
  8
02___PRT_ALL_AXES
  6
Continuous
 62
     7
100
AcDbCircle
 10
154.6413364864
 20
97.0691839317
 30
0.0
 40
3.5
100
AcDbArc
 50
215.0
 51
302.4333145796
  0
ARC
  5
388
330
1B
100
AcDbEntity
 67
     1
  8
02___PRT_ALL_AXES
  6
Continuous
 62
     7
100
AcDbCircle
 10
121.8752547149
 20
74.1261264777
 30
0.0
 40
36.5
100
AcDbArc
 50
305.0
 51
325.0
  0
ARC
  5
389
330
1B
100
AcDbEntity
 67
     1
  8
02___PRT_ALL_AXES
  6
Continuous
 62
     7
100
AcDbCircle
 10
154.6413364864
 20
51.1830690237
 30
0.0
 40
3.5
100
AcDbArc
 50
325.0
 51
338.0661897851
  0
ARC
  5
38A
330
1B
100
AcDbEntity
 67
     1
  8
02___PRT_ALL_AXES
  6
Continuous
 62
     7
100
AcDbCircle
 10
154.6413364864
 20
51.1830690237
 30
0.0
 40
3.5
100
AcDbArc
 50
21.6402795481
 51
145.0
  0
ARC
  5
38B
330
1B
100
AcDbEntity
 67
     1
  8
02___PRT_ALL_AXES
  6
Continuous
 62
     7
100
AcDbCircle
 10
121.8752547149
 20
74.1261264777
 30
0.0
 40
43.5
100
AcDbArc
 50
305.0
 51
325.0
  0
ARC
  5
38C
330
1B
100
AcDbEntity
 67
     1
  8
02___PRT_ALL_AXES
  6
Continuous
 62
     7
100
AcDbCircle
 10
144.8183121689
 20
41.3600447061
 30
0.0
 40
3.5
100
AcDbArc
 50
125.0
 51
248.3597204519
  0
ARC
  5
38D
330
1B
100
AcDbEntity
 67
     1
  8
02___PRT_ALL_AXES
  6
Continuous
 62
     7
100
AcDbCircle
 10
144.8183121689
 20
41.3600447061
 30
0.0
 40
3.5
100
AcDbArc
 50
291.9338102149
 51
305.0
  0
LINE
  5
38E
330
1B
100
AcDbEntity
 67
     1
  8
7_ALL_FEATURES
  6
Continuous
 62
     7
100
AcDbLine
 10
142.3752547149
 20
97.6261264777
 30
0.0
 11
101.3752547149
 21
97.6261264777
 31
0.0
  0
LINE
  5
38F
330
1B
100
AcDbEntity
 67
     1
  8
7_ALL_FEATURES
  6
Continuous
 62
     7
100
AcDbLine
 10
145.3752547149
 20
53.6261264777
 30
0.0
 11
145.3752547149
 21
94.6261264777
 31
0.0
  0
LINE
  5
390
330
1B
100
AcDbEntity
 67
     1
  8
7_ALL_FEATURES
  6
Continuous
 62
     7
100
AcDbLine
 10
101.3752547149
 20
50.6261264777
 30
0.0
 11
142.3752547149
 21
50.6261264777
 31
0.0
  0
LINE
  5
391
330
1B
100
AcDbEntity
 67
     1
  8
7_ALL_FEATURES
  6
Continuous
 62
     7
100
AcDbLine
 10
98.3752547149
 20
94.6261264777
 30
0.0
 11
98.3752547149
 21
53.6261264777
 31
0.0
  0
LINE
  5
392
330
1B
100
AcDbEntity
 67
     1
  8
7_ALL_FEATURES
  6
Continuous
 62
     7
100
AcDbLine
 10
169.7252547149
 20
43.9261264777
 30
0.0
 11
169.7252547149
 21
44.1261264777
 31
0.0
  0
LINE
  5
393
330
1B
100
AcDbEntity
 67
     1
  8
7_ALL_FEATURES
  6
Continuous
 62
     7
100
AcDbLine
 10
169.7252547149
 20
44.1261264777
 30
0.0
 11
169.7252547149
 21
50.8903794133
 31
0.0
  0
LINE
  5
394
330
1B
100
AcDbEntity
 67
     1
  8
7_ALL_FEATURES
  6
Continuous
 62
     7
100
AcDbLine
 10
169.7252547149
 20
52.3618735421
 30
0.0
 11
169.7252547149
 21
95.8903794133
 31
0.0
  0
LINE
  5
395
330
1B
100
AcDbEntity
 67
     1
  8
7_ALL_FEATURES
  6
Continuous
 62
     7
100
AcDbLine
 10
169.7252547149
 20
97.3618735421
 30
0.0
 11
169.7252547149
 21
104.1261264777
 31
0.0
  0
LINE
  5
396
330
1B
100
AcDbEntity
 67
     1
  8
7_ALL_FEATURES
  6
Continuous
 62
     7
100
AcDbLine
 10
169.7252547149
 20
104.1261264777
 30
0.0
 11
169.7252547149
 21
104.3261264777
 31
0.0
  0
LINE
  5
397
330
1B
100
AcDbEntity
 67
     1
  8
7_ALL_FEATURES
  6
Continuous
 62
     7
100
AcDbLine
 10
169.5231313001
 20
43.9261264777
 30
0.0
 11
169.7252547149
 21
43.9261264777
 31
0.0
  0
LINE
  5
398
330
1B
100
AcDbEntity
 67
     1
  8
7_ALL_FEATURES
  6
Continuous
 62
     7
100
AcDbLine
 10
169.7252547149
 20
104.3261264777
 30
0.0
 11
169.5231313001
 21
104.3261264777
 31
0.0
  0
LINE
  5
399
330
1B
100
AcDbEntity
 67
     1
  8
7_ALL_FEATURES
  6
Continuous
 62
     7
100
AcDbLine
 10
74.2273781296
 20
104.3261264777
 30
0.0
 11
74.0252547149
 21
104.3261264777
 31
0.0
  0
LINE
  5
39A
330
1B
100
AcDbEntity
 67
     1
  8
7_ALL_FEATURES
  6
Continuous
 62
     7
100
AcDbLine
 10
74.0252547149
 20
104.3261264777
 30
0.0
 11
74.0252547149
 21
104.1261264777
 31
0.0
  0
LINE
  5
39B
330
1B
100
AcDbEntity
 67
     1
  8
7_ALL_FEATURES
  6
Continuous
 62
     7
100
AcDbLine
 10
74.0252547149
 20
104.1261264777
 30
0.0
 11
74.0252547149
 21
97.3618735421
 31
0.0
  0
LINE
  5
39C
330
1B
100
AcDbEntity
 67
     1
  8
7_ALL_FEATURES
  6
Continuous
 62
     7
100
AcDbLine
 10
74.0252547149
 20
95.8903794133
 30
0.0
 11
74.0252547149
 21
52.3618735421
 31
0.0
  0
LINE
  5
39D
330
1B
100
AcDbEntity
 67
     1
  8
7_ALL_FEATURES
  6
Continuous
 62
     7
100
AcDbLine
 10
74.0252547149
 20
50.8903794133
 30
0.0
 11
74.0252547149
 21
44.1261264777
 31
0.0
  0
LINE
  5
39E
330
1B
100
AcDbEntity
 67
     1
  8
7_ALL_FEATURES
  6
Continuous
 62
     7
100
AcDbLine
 10
74.0252547149
 20
44.1261264777
 30
0.0
 11
74.0252547149
 21
43.9261264777
 31
0.0
  0
LINE
  5
39F
330
1B
100
AcDbEntity
 67
     1
  8
7_ALL_FEATURES
  6
Continuous
 62
     7
100
AcDbLine
 10
74.0252547149
 20
43.9261264777
 30
0.0
 11
74.2273781296
 21
43.9261264777
 31
0.0
  0
ARC
  5
3A0
330
1B
100
AcDbEntity
 67
     1
  8
7_ALL_FEATURES
  6
Continuous
 62
     7
100
AcDbCircle
 10
150.8752547149
 20
45.1261264777
 30
0.0
 40
7.0
100
AcDbArc
 50
270.0
 51
360.0
  0
ARC
  5
3A1
330
1B
100
AcDbEntity
 67
     1
  8
7_ALL_FEATURES
  6
Continuous
 62
     7
100
AcDbCircle
 10
92.8752547149
 20
103.1261264777
 30
0.0
 40
7.0
100
AcDbArc
 50
90.0
 51
180.0
  0
ARC
  5
3A2
330
1B
100
AcDbEntity
 67
     1
  8
7_ALL_FEATURES
  6
Continuous
 62
     7
100
AcDbCircle
 10
121.8752547149
 20
74.1261264777
 30
0.0
 40
40.0
100
AcDbArc
 50
158.0135970028
 51
291.9864029972
  0
ARC
  5
3A3
330
1B
100
AcDbEntity
 67
     1
  8
7_ALL_FEATURES
  6
Continuous
 62
     7
100
AcDbCircle
 10
121.8752547149
 20
74.1261264777
 30
0.0
 40
40.0
100
AcDbArc
 50
338.0135970027999
 51
111.9864029972
  0
ARC
  5
3A4
330
1B
100
AcDbEntity
 67
     1
  8
7_ALL_FEATURES
  6
Continuous
 62
     7
100
AcDbCircle
 10
101.2839944329
 20
125.1261264777
 30
0.0
 40
15.0
100
AcDbArc
 50
270.0
 51
291.9864029972
  0
ARC
  5
3A5
330
1B
100
AcDbEntity
 67
     1
  8
7_ALL_FEATURES
  6
Continuous
 62
     7
100
AcDbCircle
 10
172.8752547149
 20
53.5348661957
 30
0.0
 40
15.0
100
AcDbArc
 50
158.0135970028
 51
180.0
  0
LINE
  5
3A6
330
1B
100
AcDbEntity
 67
     1
  8
7_ALL_FEATURES
  6
Continuous
 62
     7
100
AcDbLine
 10
157.8752547149
 20
45.1261264777
 30
0.0
 11
157.8752547149
 21
53.5348661957
 31
0.0
  0
LINE
  5
3A7
330
1B
100
AcDbEntity
 67
     1
  8
7_ALL_FEATURES
  6
Continuous
 62
     7
100
AcDbLine
 10
142.4665149968
 20
38.1261264777
 30
0.0
 11
150.8752547149
 21
38.1261264777
 31
0.0
  0
ARC
  5
3A8
330
1B
100
AcDbEntity
 67
     1
  8
7_ALL_FEATURES
  6
Continuous
 62
     7
100
AcDbCircle
 10
142.4665149968
 20
23.1261264777
 30
0.0
 40
15.0
100
AcDbArc
 50
90.0
 51
111.9864029972
  0
ARC
  5
3A9
330
1B
100
AcDbEntity
 67
     1
  8
7_ALL_FEATURES
  6
Continuous
 62
     7
100
AcDbCircle
 10
70.8752547149
 20
94.7173867597
 30
0.0
 40
15.0
100
AcDbArc
 50
338.0135970027999
 51
360.0
  0
LINE
  5
3AA
330
1B
100
AcDbEntity
 67
     1
  8
7_ALL_FEATURES
  6
Continuous
 62
     7
100
AcDbLine
 10
85.8752547149
 20
103.1261264777
 30
0.0
 11
85.8752547149
 21
94.7173867597
 31
0.0
  0
LINE
  5
3AB
330
1B
100
AcDbEntity
 67
     1
  8
7_ALL_FEATURES
  6
Continuous
 62
     7
100
AcDbLine
 10
101.2839944329
 20
110.1261264777
 30
0.0
 11
92.8752547149
 21
110.1261264777
 31
0.0
  0
LINE
  5
3AC
330
1B
100
AcDbEntity
 67
     1
  8
7_ALL_FEATURES
  6
Continuous
 62
     7
100
AcDbLine
 10
168.6252547149
 20
29.3761264777
 30
0.0
 11
168.6252547149
 21
47.4936332835
 31
0.0
  0
ARC
  5
3AD
330
1B
100
AcDbEntity
 67
     1
  8
02___PRT_ALL_AXES
  6
Continuous
 62
     7
100
AcDbCircle
 10
161.7752547149
 20
51.6261264777
 30
0.0
 40
8.0
100
AcDbArc
 50
328.8981049650999
 51
31.1018950349
  0
LINE
  5
3AE
330
1B
100
AcDbEntity
 67
     1
  8
02___PRT_ALL_AXES
  6
Continuous
 62
     7
100
AcDbLine
 10
168.6252547149
 20
55.7586196719
 30
0.0
 11
168.6252547149
 21
92.4936332835
 31
0.0
  0
ARC
  5
3AF
330
1B
100
AcDbEntity
 67
     1
  8
02___PRT_ALL_AXES
  6
Continuous
 62
     7
100
AcDbCircle
 10
161.7752547149
 20
96.6261264777
 30
0.0
 40
8.0
100
AcDbArc
 50
328.8981049652
 51
31.1018950349
  0
LINE
  5
3B0
330
1B
100
AcDbEntity
 67
     1
  8
7_ALL_FEATURES
  6
Continuous
 62
     7
100
AcDbLine
 10
168.6252547149
 20
100.7586196719
 30
0.0
 11
168.6252547149
 21
118.8761264777
 31
0.0
  0
LINE
  5
3B1
330
1B
100
AcDbEntity
 67
     1
  8
7_ALL_FEATURES
  6
Continuous
 62
     7
100
AcDbLine
 10
168.6252547149
 20
118.8761264777
 30
0.0
 11
166.6252547149
 21
120.8761264777
 31
0.0
  0
LINE
  5
3B2
330
1B
100
AcDbEntity
 67
     1
  8
7_ALL_FEATURES
  6
Continuous
 62
     7
100
AcDbLine
 10
166.6252547149
 20
120.8761264777
 30
0.0
 11
148.507747909
 21
120.8761264777
 31
0.0
  0
ARC
  5
3B3
330
1B
100
AcDbEntity
 67
     1
  8
02___PRT_ALL_AXES
  6
Continuous
 62
     7
100
AcDbCircle
 10
144.3752547149
 20
114.0261264777
 30
0.0
 40
8.0
100
AcDbArc
 50
58.8981049651
 51
121.1018950349
  0
LINE
  5
3B4
330
1B
100
AcDbEntity
 67
     1
  8
02___PRT_ALL_AXES
  6
Continuous
 62
     7
100
AcDbLine
 10
140.2427615207
 20
120.8761264777
 30
0.0
 11
103.507747909
 21
120.8761264777
 31
0.0
  0
ARC
  5
3B5
330
1B
100
AcDbEntity
 67
     1
  8
02___PRT_ALL_AXES
  6
Continuous
 62
     7
100
AcDbCircle
 10
99.3752547149
 20
114.0261264777
 30
0.0
 40
8.0
100
AcDbArc
 50
58.8981049651
 51
121.1018950349
  0
LINE
  5
3B6
330
1B
100
AcDbEntity
 67
     1
  8
7_ALL_FEATURES
  6
Continuous
 62
     7
100
AcDbLine
 10
95.2427615207
 20
120.8761264777
 30
0.0
 11
77.1252547149
 21
120.8761264777
 31
0.0
  0
LINE
  5
3B7
330
1B
100
AcDbEntity
 67
     1
  8
7_ALL_FEATURES
  6
Continuous
 62
     7
100
AcDbLine
 10
77.1252547149
 20
120.8761264777
 30
0.0
 11
75.1252547149
 21
118.8761264777
 31
0.0
  0
LINE
  5
3B8
330
1B
100
AcDbEntity
 67
     1
  8
7_ALL_FEATURES
  6
Continuous
 62
     7
100
AcDbLine
 10
75.1252547149
 20
118.8761264777
 30
0.0
 11
75.1252547149
 21
100.7586196719
 31
0.0
  0
ARC
  5
3B9
330
1B
100
AcDbEntity
 67
     1
  8
02___PRT_ALL_AXES
  6
Continuous
 62
     7
100
AcDbCircle
 10
81.9752547149
 20
96.6261264777
 30
0.0
 40
8.0
100
AcDbArc
 50
148.8981049651
 51
211.1018950348
  0
LINE
  5
3BA
330
1B
100
AcDbEntity
 67
     1
  8
02___PRT_ALL_AXES
  6
Continuous
 62
     7
100
AcDbLine
 10
75.1252547149
 20
92.4936332835
 30
0.0
 11
75.1252547149
 21
55.7586196719
 31
0.0
  0
ARC
  5
3BB
330
1B
100
AcDbEntity
 67
     1
  8
02___PRT_ALL_AXES
  6
Continuous
 62
     7
100
AcDbCircle
 10
81.9752547149
 20
51.6261264777
 30
0.0
 40
8.0
100
AcDbArc
 50
148.8981049651
 51
211.1018950349
  0
LINE
  5
3BC
330
1B
100
AcDbEntity
 67
     1
  8
7_ALL_FEATURES
  6
Continuous
 62
     7
100
AcDbLine
 10
75.1252547149
 20
47.4936332835
 30
0.0
 11
75.1252547149
 21
29.3761264777
 31
0.0
  0
LINE
  5
3BD
330
1B
100
AcDbEntity
 67
     1
  8
7_ALL_FEATURES
  6
Continuous
 62
     7
100
AcDbLine
 10
75.1252547149
 20
29.3761264777
 30
0.0
 11
77.1252547149
 21
27.3761264777
 31
0.0
  0
LINE
  5
3BE
330
1B
100
AcDbEntity
 67
     1
  8
7_ALL_FEATURES
  6
Continuous
 62
     7
100
AcDbLine
 10
77.1252547149
 20
27.3761264777
 30
0.0
 11
95.2427615207
 21
27.3761264777
 31
0.0
  0
ARC
  5
3BF
330
1B
100
AcDbEntity
 67
     1
  8
02___PRT_ALL_AXES
  6
Continuous
 62
     7
100
AcDbCircle
 10
99.3752547149
 20
34.2261264777
 30
0.0
 40
8.0
100
AcDbArc
 50
238.8981049651
 51
301.1018950349001
  0
LINE
  5
3C0
330
1B
100
AcDbEntity
 67
     1
  8
7_ALL_FEATURES
  6
Continuous
 62
     7
100
AcDbLine
 10
166.6252547149
 20
27.3761264777
 30
0.0
 11
168.6252547149
 21
29.3761264777
 31
0.0
  0
LINE
  5
3C1
330
1B
100
AcDbEntity
 67
     1
  8
7_ALL_FEATURES
  6
Continuous
 62
     7
100
AcDbLine
 10
148.507747909
 20
27.3761264777
 30
0.0
 11
166.6252547149
 21
27.3761264777
 31
0.0
  0
ARC
  5
3C2
330
1B
100
AcDbEntity
 67
     1
  8
02___PRT_ALL_AXES
  6
Continuous
 62
     7
100
AcDbCircle
 10
144.3752547149
 20
34.2261264777
 30
0.0
 40
8.0
100
AcDbArc
 50
238.8981049652
 51
301.1018950349001
  0
LINE
  5
3C3
330
1B
100
AcDbEntity
 67
     1
  8
02___PRT_ALL_AXES
  6
Continuous
 62
     7
100
AcDbLine
 10
103.507747909
 20
27.3761264777
 30
0.0
 11
140.2427615207
 21
27.3761264777
 31
0.0
  0
LINE
  5
3C4
330
1B
100
AcDbEntity
 67
     1
  8
7_ALL_FEATURES
  6
Continuous
 62
     7
100
AcDbLine
 10
71.8752547149
 20
24.1261264777
 30
0.0
 11
171.8752547149
 21
24.1261264777
 31
0.0
  0
LINE
  5
3C5
330
1B
100
AcDbEntity
 67
     1
  8
7_ALL_FEATURES
  6
Continuous
 62
     7
100
AcDbLine
 10
71.8752547149
 20
124.1261264777
 30
0.0
 11
71.8752547149
 21
24.1261264777
 31
0.0
  0
LINE
  5
3C6
330
1B
100
AcDbEntity
 67
     1
  8
7_ALL_FEATURES
  6
Continuous
 62
     7
100
AcDbLine
 10
171.8752547149
 20
124.1261264777
 30
0.0
 11
71.8752547149
 21
124.1261264777
 31
0.0
  0
LINE
  5
3C7
330
1B
100
AcDbEntity
 67
     1
  8
7_ALL_FEATURES
  6
Continuous
 62
     7
100
AcDbLine
 10
171.8752547149
 20
24.1261264777
 30
0.0
 11
171.8752547149
 21
124.1261264777
 31
0.0
  0
LINE
  5
3C8
330
1B
100
AcDbEntity
 67
     1
  8
7_ALL_FEATURES
  6
Continuous
 62
     7
100
AcDbLine
 10
73.8752547149
 20
26.1261264777
 30
0.0
 11
73.8752547149
 21
122.1261264777
 31
0.0
  0
LINE
  5
3C9
330
1B
100
AcDbEntity
 67
     1
  8
7_ALL_FEATURES
  6
Continuous
 62
     7
100
AcDbLine
 10
169.8752547149
 20
26.1261264777
 30
0.0
 11
73.8752547149
 21
26.1261264777
 31
0.0
  0
LINE
  5
3CA
330
1B
100
AcDbEntity
 67
     1
  8
7_ALL_FEATURES
  6
Continuous
 62
     7
100
AcDbLine
 10
169.8752547149
 20
122.1261264777
 30
0.0
 11
169.8752547149
 21
26.1261264777
 31
0.0
  0
LINE
  5
3CB
330
1B
100
AcDbEntity
 67
     1
  8
7_ALL_FEATURES
  6
Continuous
 62
     7
100
AcDbLine
 10
73.8752547149
 20
122.1261264777
 30
0.0
 11
169.8752547149
 21
122.1261264777
 31
0.0
  0
LINE
  5
3CC
330
1B
100
AcDbEntity
 67
     1
  8
7_ALL_FEATURES
  6
Continuous
 62
     7
100
AcDbLine
 10
85.2752547149
 20
278.3168332978
 30
0.0
 11
84.7752547149
 21
278.3168332978
 31
0.0
  0
LINE
  5
3CD
330
1B
100
AcDbEntity
 67
     1
  8
7_ALL_FEATURES
  6
Continuous
 62
     7
100
AcDbLine
 10
84.7752547149
 20
278.3168332978
 30
0.0
 11
83.4752547149
 21
278.3168332978
 31
0.0
  0
LINE
  5
3CE
330
1B
100
AcDbEntity
 67
     1
  8
7_ALL_FEATURES
  6
Continuous
 62
     7
100
AcDbLine
 10
83.4752547149
 20
278.3168332978
 30
0.0
 11
79.2752547149
 21
278.3168332978
 31
0.0
  0
LINE
  5
3CF
330
1B
100
AcDbEntity
 67
     1
  8
7_ALL_FEATURES
  6
Continuous
 62
     7
100
AcDbLine
 10
79.2752547149
 20
278.3168332978
 30
0.0
 11
77.9752547149
 21
278.3168332978
 31
0.0
  0
LINE
  5
3D0
330
1B
100
AcDbEntity
 67
     1
  8
7_ALL_FEATURES
  6
Continuous
 62
     7
100
AcDbLine
 10
77.9752547149
 20
278.3168332978
 30
0.0
 11
77.4752547149
 21
278.3168332978
 31
0.0
  0
LINE
  5
3D1
330
1B
100
AcDbEntity
 67
     1
  8
7_ALL_FEATURES
  6
Continuous
 62
     7
100
AcDbLine
 10
76.9752547149
 20
277.8168332978
 30
0.0
 11
77.4752547149
 21
278.3168332978
 31
0.0
  0
LINE
  5
3D2
330
1B
100
AcDbEntity
 67
     1
  8
7_ALL_FEATURES
  6
Continuous
 62
     7
100
AcDbLine
 10
85.7752547148
 20
277.8168332978
 30
0.0
 11
85.2752547148
 21
278.3168332978
 31
0.0
  0
LINE
  5
3D3
330
1B
100
AcDbEntity
 67
     1
  8
7_ALL_FEATURES
  6
Continuous
 62
     7
100
AcDbLine
 10
85.7752547149
 20
273.5918332978
 30
0.0
 11
85.7752547149
 21
268.3168332978
 31
0.0
  0
LINE
  5
3D4
330
1B
100
AcDbEntity
 67
     1
  8
7_ALL_FEATURES
  6
Continuous
 62
     7
100
AcDbLine
 10
76.9752547149
 20
273.5918332978
 30
0.0
 11
76.9752547149
 21
268.3168332978
 31
0.0
  0
LINE
  5
3D5
330
1B
100
AcDbEntity
 67
     1
  8
7_ALL_FEATURES
  6
Continuous
 62
     7
100
AcDbLine
 10
85.7752547149
 20
277.8168332978
 30
0.0
 11
85.7752547149
 21
275.6418332978
 31
0.0
  0
LINE
  5
3D6
330
1B
100
AcDbEntity
 67
     1
  8
7_ALL_FEATURES
  6
Continuous
 62
     7
100
AcDbLine
 10
76.9752547149
 20
277.8168332978
 30
0.0
 11
76.9752547149
 21
275.6418332978
 31
0.0
  0
LINE
  5
3D7
330
1B
100
AcDbEntity
 67
     1
  8
02___PRT_ALL_AXES
  6
Continuous
 62
     7
100
AcDbLine
 10
85.7752547149
 20
275.6418332978
 30
0.0
 11
84.7502547149
 21
274.6168332978
 31
0.0
  0
LINE
  5
3D8
330
1B
100
AcDbEntity
 67
     1
  8
02___PRT_ALL_AXES
  6
Continuous
 62
     7
100
AcDbLine
 10
76.9752547149
 20
275.6418332978
 30
0.0
 11
78.0002547149
 21
274.6168332978
 31
0.0
  0
LINE
  5
3D9
330
1B
100
AcDbEntity
 67
     1
  8
02___PRT_ALL_AXES
  6
Continuous
 62
     7
100
AcDbLine
 10
84.7502547149
 20
274.6168332978
 30
0.0
 11
85.7752547149
 21
273.5918332978
 31
0.0
  0
LINE
  5
3DA
330
1B
100
AcDbEntity
 67
     1
  8
02___PRT_ALL_AXES
  6
Continuous
 62
     7
100
AcDbLine
 10
78.0002547149
 20
274.6168332978
 30
0.0
 11
76.9752547149
 21
273.5918332978
 31
0.0
  0
LINE
  5
3DB
330
1B
100
AcDbEntity
 67
     1
  8
02___PRT_ALL_AXES
  6
Continuous
 62
     7
100
AcDbLine
 10
84.7502547149
 20
274.6168332978
 30
0.0
 11
78.0002547149
 21
274.6168332978
 31
0.0
  0
LINE
  5
3DC
330
1B
100
AcDbEntity
 67
     1
  8
7_ALL_FEATURES
  6
Continuous
 62
     7
100
AcDbLine
 10
85.7752547149
 20
277.8168332978
 30
0.0
 11
76.9752547149
 21
277.8168332978
 31
0.0
  0
LINE
  5
3DD
330
1B
100
AcDbEntity
 67
     1
  8
02___PRT_ALL_AXES
  6
Continuous
 62
     7
100
AcDbLine
 10
85.7752547149
 20
275.6418332978
 30
0.0
 11
76.9752547149
 21
275.6418332978
 31
0.0
  0
LINE
  5
3DE
330
1B
100
AcDbEntity
 67
     1
  8
02___PRT_ALL_AXES
  6
Continuous
 62
     7
100
AcDbLine
 10
85.7752547149
 20
273.5918332978
 30
0.0
 11
76.9752547149
 21
273.5918332978
 31
0.0
  0
ARC
  5
3DF
330
1B
100
AcDbEntity
 67
     1
  8
7_ALL_FEATURES
  6
Continuous
 62
     7
100
AcDbCircle
 10
77.9752547149
 20
278.4168332978
 30
0.0
 40
0.1
100
AcDbArc
 50
180.0
 51
270.0
  0
ARC
  5
3E0
330
1B
100
AcDbEntity
 67
     1
  8
7_ALL_FEATURES
  6
Continuous
 62
     7
100
AcDbCircle
 10
84.7752547149
 20
278.4168332978
 30
0.0
 40
0.1
100
AcDbArc
 50
270.0
 51
360.0
  0
LINE
  5
3E1
330
1B
100
AcDbEntity
 67
     1
  8
7_ALL_FEATURES
  6
Continuous
 62
     7
100
AcDbLine
 10
84.8752547149
 20
282.2168332978
 30
0.0
 11
84.8752547149
 21
278.4168332978
 31
0.0
  0
LINE
  5
3E2
330
1B
100
AcDbEntity
 67
     1
  8
7_ALL_FEATURES
  6
Continuous
 62
     7
100
AcDbLine
 10
77.8752547149
 20
282.2168332978
 30
0.0
 11
77.8752547149
 21
278.4168332978
 31
0.0
  0
ARC
  5
3E3
330
1B
100
AcDbEntity
 67
     1
  8
7_ALL_FEATURES
  6
Continuous
 62
     7
100
AcDbCircle
 10
77.9752547149
 20
282.2168332978
 30
0.0
 40
0.1
100
AcDbArc
 50
90.0
 51
180.0
  0
ARC
  5
3E4
330
1B
100
AcDbEntity
 67
     1
  8
7_ALL_FEATURES
  6
Continuous
 62
     7
100
AcDbCircle
 10
84.7752547149
 20
282.2168332978
 30
0.0
 40
0.1
100
AcDbArc
 50
0.0
 51
90.0
  0
LINE
  5
3E5
330
1B
100
AcDbEntity
 67
     1
  8
7_ALL_FEATURES
  6
Continuous
 62
     7
100
AcDbLine
 10
84.7752547149
 20
282.3168332978
 30
0.0
 11
83.1073055224
 21
282.3168332978
 31
0.0
  0
LINE
  5
3E6
330
1B
100
AcDbEntity
 67
     1
  8
7_ALL_FEATURES
  6
Continuous
 62
     7
100
AcDbLine
 10
83.1073055224
 20
282.3168332978
 30
0.0
 11
83.0757529833
 21
282.3168332978
 31
0.0
  0
LINE
  5
3E7
330
1B
100
AcDbEntity
 67
     1
  8
7_ALL_FEATURES
  6
Continuous
 62
     7
100
AcDbLine
 10
83.0757529833
 20
282.3168332978
 30
0.0
 11
82.2412801186
 21
282.3168332978
 31
0.0
  0
LINE
  5
3E8
330
1B
100
AcDbEntity
 67
     1
  8
7_ALL_FEATURES
  6
Continuous
 62
     7
100
AcDbLine
 10
82.2412801186
 20
282.3168332978
 30
0.0
 11
80.5092293111
 21
282.3168332978
 31
0.0
  0
LINE
  5
3E9
330
1B
100
AcDbEntity
 67
     1
  8
7_ALL_FEATURES
  6
Continuous
 62
     7
100
AcDbLine
 10
80.5092293111
 20
282.3168332978
 30
0.0
 11
79.6747107806
 21
282.3168332978
 31
0.0
  0
LINE
  5
3EA
330
1B
100
AcDbEntity
 67
     1
  8
7_ALL_FEATURES
  6
Continuous
 62
     7
100
AcDbLine
 10
79.6747107806
 20
282.3168332978
 30
0.0
 11
79.6432039073
 21
282.3168332978
 31
0.0
  0
LINE
  5
3EB
330
1B
100
AcDbEntity
 67
     1
  8
7_ALL_FEATURES
  6
Continuous
 62
     7
100
AcDbLine
 10
79.6432039073
 20
282.3168332978
 30
0.0
 11
77.9752547149
 21
282.3168332978
 31
0.0
  0
LINE
  5
3EC
330
1B
100
AcDbEntity
 67
     1
  8
7_ALL_FEATURES
  6
Continuous
 62
     9
100
AcDbLine
 10
84.8752547149
 20
278.4168332978
 30
0.0
 11
77.8752547149
 21
278.4168332978
 31
0.0
  0
LINE
  5
3ED
330
1B
100
AcDbEntity
 67
     1
  8
7_ALL_FEATURES
  6
Continuous
 62
     9
100
AcDbLine
 10
84.8752547149
 20
282.2168332978
 30
0.0
 11
77.8752547149
 21
282.2168332978
 31
0.0
  0
LINE
  5
3EE
330
1B
100
AcDbEntity
 67
     1
  8
3_ALL_AXES
  6
Continuous
 62
     7
100
AcDbLine
 10
71.4975768206
 20
148.549111924
 30
0.0
 11
71.7971521376
 21
148.5331548123
 31
0.0
  0
LINE
  5
3EF
330
1B
100
AcDbEntity
 67
     1
  8
3_ALL_AXES
  6
Continuous
 62
     7
100
AcDbLine
 10
71.8752547149
 20
155.6395539235
 30
0.0
 11
71.8556571094
 21
155.2716327743
 31
0.0
  0
LINE
  5
3F0
330
1B
100
AcDbEntity
 67
     1
  8
3_ALL_AXES
  6
Continuous
 62
     7
100
AcDbLine
 10
71.8556571094
 20
155.2716327743
 30
0.0
 11
71.8095928957
 21
154.4068333246
 31
0.0
  0
LINE
  5
3F1
330
1B
100
AcDbEntity
 67
     1
  8
3_ALL_AXES
  6
Continuous
 62
     7
100
AcDbLine
 10
71.8095928957
 20
154.4068333246
 30
0.0
 11
71.7651620024
 21
153.5726974716
 31
0.0
  0
LINE
  5
3F2
330
1B
100
AcDbEntity
 67
     1
  8
3_ALL_AXES
  6
Continuous
 62
     7
100
AcDbLine
 10
71.7651620024
 20
153.5726974716
 30
0.0
 11
71.7174644684
 21
152.6772344252
 31
0.0
  0
LINE
  5
3F3
330
1B
100
AcDbEntity
 67
     1
  8
3_ALL_AXES
  6
Continuous
 62
     7
100
AcDbLine
 10
71.7174644684
 20
152.6772344252
 30
0.0
 11
71.6714002548
 21
151.8124349755
 31
0.0
  0
LINE
  5
3F4
330
1B
100
AcDbEntity
 67
     1
  8
3_ALL_AXES
  6
Continuous
 62
     7
100
AcDbLine
 10
71.6714002548
 20
151.8124349755
 30
0.0
 11
71.4975768206
 21
148.549111924
 31
0.0
  0
LINE
  5
3F5
330
1B
100
AcDbEntity
 67
     1
  8
3_ALL_AXES
  6
Continuous
 62
     7
100
AcDbLine
 10
71.7971521376
 20
148.5331548123
 30
0.0
 11
71.8752547149
 21
148.6033577797
 31
0.0
  0
LINE
  5
3F6
330
1B
100
AcDbEntity
 67
     1
  8
3_ALL_AXES
  6
Continuous
 62
     7
100
AcDbLine
 10
71.8752547149
 20
149.9994354768
 30
0.0
 11
71.7971521376
 21
148.5331548123
 31
0.0
  0
LINE
  5
3F7
330
1B
100
AcDbEntity
 67
     1
  8
3_ALL_AXES
  6
Continuous
 62
     7
100
AcDbLine
 10
172.2529326091
 20
148.549111924
 30
0.0
 11
171.9533572921
 21
148.5331548123
 31
0.0
  0
LINE
  5
3F8
330
1B
100
AcDbEntity
 67
     1
  8
3_ALL_AXES
  6
Continuous
 62
     7
100
AcDbLine
 10
172.2529326091
 20
148.549111924
 30
0.0
 11
172.0791091749
 21
151.8124349755
 31
0.0
  0
LINE
  5
3F9
330
1B
100
AcDbEntity
 67
     1
  8
3_ALL_AXES
  6
Continuous
 62
     7
100
AcDbLine
 10
172.0791091749
 20
151.8124349755
 30
0.0
 11
172.0330449613
 21
152.6772344252
 31
0.0
  0
LINE
  5
3FA
330
1B
100
AcDbEntity
 67
     1
  8
3_ALL_AXES
  6
Continuous
 62
     7
100
AcDbLine
 10
172.0330449613
 20
152.6772344252
 30
0.0
 11
171.9853474274
 21
153.5726974716
 31
0.0
  0
LINE
  5
3FB
330
1B
100
AcDbEntity
 67
     1
  8
3_ALL_AXES
  6
Continuous
 62
     7
100
AcDbLine
 10
171.9853474274
 20
153.5726974716
 30
0.0
 11
171.940916534
 21
154.4068333246
 31
0.0
  0
LINE
  5
3FC
330
1B
100
AcDbEntity
 67
     1
  8
3_ALL_AXES
  6
Continuous
 62
     7
100
AcDbLine
 10
171.940916534
 20
154.4068333246
 30
0.0
 11
171.8948523203
 21
155.2716327743
 31
0.0
  0
LINE
  5
3FD
330
1B
100
AcDbEntity
 67
     1
  8
3_ALL_AXES
  6
Continuous
 62
     7
100
AcDbLine
 10
171.8948523203
 20
155.2716327743
 30
0.0
 11
171.8752547149
 21
155.6395539235
 31
0.0
  0
LINE
  5
3FE
330
1B
100
AcDbEntity
 67
     1
  8
3_ALL_AXES
  6
Continuous
 62
     7
100
AcDbLine
 10
171.9533572921
 20
148.5331548123
 30
0.0
 11
171.8752547149
 21
148.6033577797
 31
0.0
  0
LINE
  5
3FF
330
1B
100
AcDbEntity
 67
     1
  8
3_ALL_AXES
  6
Continuous
 62
     7
100
AcDbLine
 10
171.9533572921
 20
148.5331548123
 30
0.0
 11
171.8752547149
 21
149.9994354768
 31
0.0
  0
LINE
  5
400
330
1B
100
AcDbEntity
 67
     1
  8
7_ALL_FEATURES
  6
Continuous
 62
     7
100
AcDbLine
 10
166.2752547149
 20
278.3168332978
 30
0.0
 11
165.7752547149
 21
278.3168332978
 31
0.0
  0
LINE
  5
401
330
1B
100
AcDbEntity
 67
     1
  8
7_ALL_FEATURES
  6
Continuous
 62
     7
100
AcDbLine
 10
165.7752547149
 20
278.3168332978
 30
0.0
 11
164.4752547149
 21
278.3168332978
 31
0.0
  0
LINE
  5
402
330
1B
100
AcDbEntity
 67
     1
  8
7_ALL_FEATURES
  6
Continuous
 62
     7
100
AcDbLine
 10
164.4752547149
 20
278.3168332978
 30
0.0
 11
160.2752547149
 21
278.3168332978
 31
0.0
  0
LINE
  5
403
330
1B
100
AcDbEntity
 67
     1
  8
7_ALL_FEATURES
  6
Continuous
 62
     7
100
AcDbLine
 10
160.2752547149
 20
278.3168332978
 30
0.0
 11
158.9752547149
 21
278.3168332978
 31
0.0
  0
LINE
  5
404
330
1B
100
AcDbEntity
 67
     1
  8
7_ALL_FEATURES
  6
Continuous
 62
     7
100
AcDbLine
 10
158.9752547149
 20
278.3168332978
 30
0.0
 11
158.4752547149
 21
278.3168332978
 31
0.0
  0
LINE
  5
405
330
1B
100
AcDbEntity
 67
     1
  8
7_ALL_FEATURES
  6
Continuous
 62
     7
100
AcDbLine
 10
157.9752547149
 20
277.8168332978
 30
0.0
 11
158.4752547149
 21
278.3168332978
 31
0.0
  0
LINE
  5
406
330
1B
100
AcDbEntity
 67
     1
  8
7_ALL_FEATURES
  6
Continuous
 62
     7
100
AcDbLine
 10
166.7752547148
 20
277.8168332978
 30
0.0
 11
166.2752547148
 21
278.3168332978
 31
0.0
  0
LINE
  5
407
330
1B
100
AcDbEntity
 67
     1
  8
7_ALL_FEATURES
  6
Continuous
 62
     7
100
AcDbLine
 10
166.7752547149
 20
273.5918332978
 30
0.0
 11
166.7752547149
 21
268.3168332978
 31
0.0
  0
LINE
  5
408
330
1B
100
AcDbEntity
 67
     1
  8
7_ALL_FEATURES
  6
Continuous
 62
     7
100
AcDbLine
 10
157.9752547149
 20
273.5918332978
 30
0.0
 11
157.9752547149
 21
268.3168332978
 31
0.0
  0
LINE
  5
409
330
1B
100
AcDbEntity
 67
     1
  8
7_ALL_FEATURES
  6
Continuous
 62
     7
100
AcDbLine
 10
166.7752547149
 20
277.8168332978
 30
0.0
 11
166.7752547149
 21
275.6418332978
 31
0.0
  0
LINE
  5
40A
330
1B
100
AcDbEntity
 67
     1
  8
7_ALL_FEATURES
  6
Continuous
 62
     7
100
AcDbLine
 10
157.9752547149
 20
277.8168332978
 30
0.0
 11
157.9752547149
 21
275.6418332978
 31
0.0
  0
LINE
  5
40B
330
1B
100
AcDbEntity
 67
     1
  8
02___PRT_ALL_AXES
  6
Continuous
 62
     7
100
AcDbLine
 10
166.7752547149
 20
275.6418332978
 30
0.0
 11
165.7502547149
 21
274.6168332978
 31
0.0
  0
LINE
  5
40C
330
1B
100
AcDbEntity
 67
     1
  8
02___PRT_ALL_AXES
  6
Continuous
 62
     7
100
AcDbLine
 10
157.9752547149
 20
275.6418332978
 30
0.0
 11
159.0002547149
 21
274.6168332978
 31
0.0
  0
LINE
  5
40D
330
1B
100
AcDbEntity
 67
     1
  8
02___PRT_ALL_AXES
  6
Continuous
 62
     7
100
AcDbLine
 10
165.7502547149
 20
274.6168332978
 30
0.0
 11
166.7752547149
 21
273.5918332978
 31
0.0
  0
LINE
  5
40E
330
1B
100
AcDbEntity
 67
     1
  8
02___PRT_ALL_AXES
  6
Continuous
 62
     7
100
AcDbLine
 10
159.0002547149
 20
274.6168332978
 30
0.0
 11
157.9752547149
 21
273.5918332978
 31
0.0
  0
LINE
  5
40F
330
1B
100
AcDbEntity
 67
     1
  8
02___PRT_ALL_AXES
  6
Continuous
 62
     7
100
AcDbLine
 10
165.7502547149
 20
274.6168332978
 30
0.0
 11
159.0002547149
 21
274.6168332978
 31
0.0
  0
LINE
  5
410
330
1B
100
AcDbEntity
 67
     1
  8
7_ALL_FEATURES
  6
Continuous
 62
     7
100
AcDbLine
 10
166.7752547149
 20
277.8168332978
 30
0.0
 11
157.9752547149
 21
277.8168332978
 31
0.0
  0
LINE
  5
411
330
1B
100
AcDbEntity
 67
     1
  8
02___PRT_ALL_AXES
  6
Continuous
 62
     7
100
AcDbLine
 10
166.7752547149
 20
275.6418332978
 30
0.0
 11
157.9752547149
 21
275.6418332978
 31
0.0
  0
LINE
  5
412
330
1B
100
AcDbEntity
 67
     1
  8
02___PRT_ALL_AXES
  6
Continuous
 62
     7
100
AcDbLine
 10
166.7752547149
 20
273.5918332978
 30
0.0
 11
157.9752547149
 21
273.5918332978
 31
0.0
  0
ARC
  5
413
330
1B
100
AcDbEntity
 67
     1
  8
7_ALL_FEATURES
  6
Continuous
 62
     7
100
AcDbCircle
 10
158.9752547149
 20
278.4168332978
 30
0.0
 40
0.1
100
AcDbArc
 50
180.0
 51
270.0
  0
ARC
  5
414
330
1B
100
AcDbEntity
 67
     1
  8
7_ALL_FEATURES
  6
Continuous
 62
     7
100
AcDbCircle
 10
165.7752547149
 20
278.4168332978
 30
0.0
 40
0.1
100
AcDbArc
 50
270.0
 51
360.0
  0
LINE
  5
415
330
1B
100
AcDbEntity
 67
     1
  8
7_ALL_FEATURES
  6
Continuous
 62
     7
100
AcDbLine
 10
165.8752547149
 20
282.2168332978
 30
0.0
 11
165.8752547149
 21
278.4168332978
 31
0.0
  0
LINE
  5
416
330
1B
100
AcDbEntity
 67
     1
  8
7_ALL_FEATURES
  6
Continuous
 62
     7
100
AcDbLine
 10
158.8752547149
 20
282.2168332978
 30
0.0
 11
158.8752547149
 21
278.4168332978
 31
0.0
  0
ARC
  5
417
330
1B
100
AcDbEntity
 67
     1
  8
7_ALL_FEATURES
  6
Continuous
 62
     7
100
AcDbCircle
 10
158.9752547149
 20
282.2168332978
 30
0.0
 40
0.1
100
AcDbArc
 50
90.0
 51
180.0
  0
ARC
  5
418
330
1B
100
AcDbEntity
 67
     1
  8
7_ALL_FEATURES
  6
Continuous
 62
     7
100
AcDbCircle
 10
165.7752547149
 20
282.2168332978
 30
0.0
 40
0.1
100
AcDbArc
 50
0.0
 51
90.0
  0
LINE
  5
419
330
1B
100
AcDbEntity
 67
     1
  8
7_ALL_FEATURES
  6
Continuous
 62
     7
100
AcDbLine
 10
165.7752547149
 20
282.3168332978
 30
0.0
 11
164.1073055224
 21
282.3168332978
 31
0.0
  0
LINE
  5
41A
330
1B
100
AcDbEntity
 67
     1
  8
7_ALL_FEATURES
  6
Continuous
 62
     7
100
AcDbLine
 10
164.1073055224
 20
282.3168332978
 30
0.0
 11
164.0757529833
 21
282.3168332978
 31
0.0
  0
LINE
  5
41B
330
1B
100
AcDbEntity
 67
     1
  8
7_ALL_FEATURES
  6
Continuous
 62
     7
100
AcDbLine
 10
164.0757529833
 20
282.3168332978
 30
0.0
 11
163.2412801186
 21
282.3168332978
 31
0.0
  0
LINE
  5
41C
330
1B
100
AcDbEntity
 67
     1
  8
7_ALL_FEATURES
  6
Continuous
 62
     7
100
AcDbLine
 10
163.2412801186
 20
282.3168332978
 30
0.0
 11
161.5092293111
 21
282.3168332978
 31
0.0
  0
LINE
  5
41D
330
1B
100
AcDbEntity
 67
     1
  8
7_ALL_FEATURES
  6
Continuous
 62
     7
100
AcDbLine
 10
161.5092293111
 20
282.3168332978
 30
0.0
 11
160.6747107806
 21
282.3168332978
 31
0.0
  0
LINE
  5
41E
330
1B
100
AcDbEntity
 67
     1
  8
7_ALL_FEATURES
  6
Continuous
 62
     7
100
AcDbLine
 10
160.6747107806
 20
282.3168332978
 30
0.0
 11
160.6432039073
 21
282.3168332978
 31
0.0
  0
LINE
  5
41F
330
1B
100
AcDbEntity
 67
     1
  8
7_ALL_FEATURES
  6
Continuous
 62
     7
100
AcDbLine
 10
160.6432039073
 20
282.3168332978
 30
0.0
 11
158.9752547149
 21
282.3168332978
 31
0.0
  0
LINE
  5
420
330
1B
100
AcDbEntity
 67
     1
  8
7_ALL_FEATURES
  6
Continuous
 62
     9
100
AcDbLine
 10
165.8752547149
 20
278.4168332978
 30
0.0
 11
158.8752547149
 21
278.4168332978
 31
0.0
  0
LINE
  5
421
330
1B
100
AcDbEntity
 67
     1
  8
7_ALL_FEATURES
  6
Continuous
 62
     9
100
AcDbLine
 10
165.8752547149
 20
282.2168332978
 30
0.0
 11
158.8752547149
 21
282.2168332978
 31
0.0
  0
LINE
  5
422
330
1B
100
AcDbEntity
 67
     1
  8
7_ALL_FEATURES
  6
Continuous
 62
     7
100
AcDbLine
 10
174.3752547149
 20
143.3168332978
 30
0.0
 11
174.3752547149
 21
139.3168332978
 31
0.0
  0
LINE
  5
423
330
1B
100
AcDbEntity
 67
     1
  8
7_ALL_FEATURES
  6
Continuous
 62
     7
100
AcDbLine
 10
71.3752547149
 20
139.3168332978
 30
0.0
 11
69.3752547149
 21
139.3168332978
 31
0.0
  0
LINE
  5
424
330
1B
100
AcDbEntity
 67
     1
  8
7_ALL_FEATURES
  6
Continuous
 62
     7
100
AcDbLine
 10
71.3752547149
 20
139.3168332978
 30
0.0
 11
172.3752547149
 21
139.3168332978
 31
0.0
  0
LINE
  5
425
330
1B
100
AcDbEntity
 67
     1
  8
7_ALL_FEATURES
  6
Continuous
 62
     7
100
AcDbLine
 10
174.3752547149
 20
139.3168332978
 30
0.0
 11
172.3752547149
 21
139.3168332978
 31
0.0
  0
LINE
  5
426
330
1B
100
AcDbEntity
 67
     1
  8
7_ALL_FEATURES
  6
Continuous
 62
     7
100
AcDbLine
 10
69.3752547149
 20
143.3168332978
 30
0.0
 11
69.3752547149
 21
139.3168332978
 31
0.0
  0
LINE
  5
427
330
1B
100
AcDbEntity
 67
     1
  8
7_ALL_FEATURES
  6
Continuous
 62
     7
100
AcDbLine
 10
71.3752547149
 20
143.3168332978
 30
0.0
 11
172.3752547149
 21
143.3168332978
 31
0.0
  0
LINE
  5
428
330
1B
100
AcDbEntity
 67
     1
  8
7_ALL_FEATURES
  6
Continuous
 62
     7
100
AcDbLine
 10
172.3752547149
 20
143.3168332978
 30
0.0
 11
174.3752547149
 21
143.3168332978
 31
0.0
  0
LINE
  5
429
330
1B
100
AcDbEntity
 67
     1
  8
7_ALL_FEATURES
  6
Continuous
 62
     7
100
AcDbLine
 10
69.3752547149
 20
143.3168332978
 30
0.0
 11
71.3752547149
 21
143.3168332978
 31
0.0
  0
LINE
  5
42A
330
1B
100
AcDbEntity
 67
     1
  8
7_ALL_FEATURES
  6
Continuous
 62
     7
100
AcDbLine
 10
172.3752547149
 20
143.3168332978
 30
0.0
 11
172.3752547149
 21
139.3168332978
 31
0.0
  0
LINE
  5
42B
330
1B
100
AcDbEntity
 67
     1
  8
7_ALL_FEATURES
  6
Continuous
 62
     7
100
AcDbLine
 10
71.3752547149
 20
143.3168332978
 30
0.0
 11
71.3752547149
 21
139.3168332978
 31
0.0
  0
LINE
  5
42C
330
1B
100
AcDbEntity
 67
     1
  8
7_ALL_FEATURES
  6
Continuous
 62
     7
100
AcDbLine
 10
71.8752547149
 20
268.3168332978
 30
0.0
 11
171.8752547149
 21
268.3168332978
 31
0.0
  0
LINE
  5
42D
330
1B
100
AcDbEntity
 67
     1
  8
7_ALL_FEATURES
  6
Continuous
 62
     7
100
AcDbLine
 10
71.8752547149
 20
143.3168332978
 30
0.0
 11
71.8752547149
 21
268.3168332978
 31
0.0
  0
LINE
  5
42E
330
1B
100
AcDbEntity
 67
     1
  8
7_ALL_FEATURES
  6
Continuous
 62
     7
100
AcDbLine
 10
171.8752547149
 20
143.3168332978
 30
0.0
 11
171.8752547149
 21
268.3168332978
 31
0.0
  0
LINE
  5
42F
330
1B
100
AcDbEntity
 67
     1
  8
7_ALL_FEATURES
  6
Continuous
 62
     7
100
AcDbLine
 10
326.8971442145
 20
278.3168332978
 30
0.0
 11
324.7971442145
 21
278.3168332978
 31
0.0
  0
LINE
  5
430
330
1B
100
AcDbEntity
 67
     1
  8
7_ALL_FEATURES
  6
Continuous
 62
     7
100
AcDbLine
 10
324.7971442145
 20
278.3168332978
 30
0.0
 11
323.5087569383
 21
278.3168332978
 31
0.0
  0
LINE
  5
431
330
1B
100
AcDbEntity
 67
     1
  8
7_ALL_FEATURES
  6
Continuous
 62
     7
100
AcDbLine
 10
323.5087569383
 20
278.3168332978
 30
0.0
 11
323.4971442145
 21
278.3168332978
 31
0.0
  0
LINE
  5
432
330
1B
100
AcDbEntity
 67
     1
  8
7_ALL_FEATURES
  6
Continuous
 62
     7
100
AcDbLine
 10
323.4971442145
 20
278.3168332978
 30
0.0
 11
322.9971442145
 21
278.3168332978
 31
0.0
  0
LINE
  5
433
330
1B
100
AcDbEntity
 67
     1
  8
7_ALL_FEATURES
  6
Continuous
 62
     7
100
AcDbLine
 10
322.9971442145
 20
278.3168332978
 30
0.0
 11
322.4971442145
 21
277.8168332978
 31
0.0
  0
LINE
  5
434
330
1B
100
AcDbEntity
 67
     1
  8
7_ALL_FEATURES
  6
Continuous
 62
     7
100
AcDbLine
 10
330.7971442145
 20
278.3168332978
 30
0.0
 11
330.2971441777
 21
278.3168332978
 31
0.0
  0
LINE
  5
435
330
1B
100
AcDbEntity
 67
     1
  8
7_ALL_FEATURES
  6
Continuous
 62
     7
100
AcDbLine
 10
330.2971441777
 20
278.3168332978
 30
0.0
 11
330.2855314907
 21
278.3168332978
 31
0.0
  0
LINE
  5
436
330
1B
100
AcDbEntity
 67
     1
  8
7_ALL_FEATURES
  6
Continuous
 62
     7
100
AcDbLine
 10
330.2855314907
 20
278.3168332978
 30
0.0
 11
328.9971442107
 21
278.3168332978
 31
0.0
  0
LINE
  5
437
330
1B
100
AcDbEntity
 67
     1
  8
7_ALL_FEATURES
  6
Continuous
 62
     7
100
AcDbLine
 10
328.9971442107
 20
278.3168332978
 30
0.0
 11
326.8971442145
 21
278.3168332978
 31
0.0
  0
LINE
  5
438
330
1B
100
AcDbEntity
 67
     1
  8
7_ALL_FEATURES
  6
Continuous
 62
     7
100
AcDbLine
 10
330.7971442145
 20
278.3168332978
 30
0.0
 11
331.2971442145
 21
277.8168332978
 31
0.0
  0
LINE
  5
439
330
1B
100
AcDbEntity
 67
     1
  8
02___PRT_ALL_AXES
  6
Continuous
 62
     7
100
AcDbLine
 10
331.2971442145
 20
268.3168332978
 30
0.0
 11
331.2971442145
 21
273.5918332978
 31
0.0
  0
LINE
  5
43A
330
1B
100
AcDbEntity
 67
     1
  8
02___PRT_ALL_AXES
  6
Continuous
 62
     7
100
AcDbLine
 10
331.2971442145
 20
273.5918332978
 30
0.0
 11
330.2721442145
 21
274.6168332978
 31
0.0
  0
LINE
  5
43B
330
1B
100
AcDbEntity
 67
     1
  8
02___PRT_ALL_AXES
  6
Continuous
 62
     7
100
AcDbLine
 10
322.4971442145
 20
275.6418332978
 30
0.0
 11
322.4971442145
 21
277.8168332978
 31
0.0
  0
LINE
  5
43C
330
1B
100
AcDbEntity
 67
     1
  8
02___PRT_ALL_AXES
  6
Continuous
 62
     7
100
AcDbLine
 10
323.5221442145
 20
274.6168332978
 30
0.0
 11
322.4971442145
 21
275.6418332978
 31
0.0
  0
LINE
  5
43D
330
1B
100
AcDbEntity
 67
     1
  8
02___PRT_ALL_AXES
  6
Continuous
 62
     7
100
AcDbLine
 10
330.2721442145
 20
274.6168332978
 30
0.0
 11
331.2971442145
 21
275.6418332978
 31
0.0
  0
LINE
  5
43E
330
1B
100
AcDbEntity
 67
     1
  8
02___PRT_ALL_AXES
  6
Continuous
 62
     7
100
AcDbLine
 10
322.4971442145
 20
273.5918332978
 30
0.0
 11
323.5221442145
 21
274.6168332978
 31
0.0
  0
LINE
  5
43F
330
1B
100
AcDbEntity
 67
     1
  8
02___PRT_ALL_AXES
  6
Continuous
 62
     7
100
AcDbLine
 10
322.4971442145
 20
268.3168332978
 30
0.0
 11
322.4971442145
 21
273.5918332978
 31
0.0
  0
LINE
  5
440
330
1B
100
AcDbEntity
 67
     1
  8
02___PRT_ALL_AXES
  6
Continuous
 62
     7
100
AcDbLine
 10
331.2971442145
 20
275.6418332978
 30
0.0
 11
331.2971442145
 21
277.8168332978
 31
0.0
  0
LINE
  5
441
330
1B
100
AcDbEntity
 67
     1
  8
7_ALL_FEATURES
  6
Continuous
 62
     7
100
AcDbLine
 10
326.8971442145
 20
277.8168332978
 30
0.0
 11
322.4971442145
 21
277.8168332978
 31
0.0
  0
LINE
  5
442
330
1B
100
AcDbEntity
 67
     1
  8
02___PRT_ALL_AXES
  6
Continuous
 62
     7
100
AcDbLine
 10
331.2971442145
 20
273.5918332978
 30
0.0
 11
326.8971442145
 21
273.5918332978
 31
0.0
  0
LINE
  5
443
330
1B
100
AcDbEntity
 67
     1
  8
02___PRT_ALL_AXES
  6
Continuous
 62
     7
100
AcDbLine
 10
322.4971442145
 20
275.6418332978
 30
0.0
 11
326.8971442145
 21
275.6418332978
 31
0.0
  0
LINE
  5
444
330
1B
100
AcDbEntity
 67
     1
  8
02___PRT_ALL_AXES
  6
Continuous
 62
     7
100
AcDbLine
 10
330.2721442145
 20
274.6168332978
 30
0.0
 11
326.8971442145
 21
274.6168332978
 31
0.0
  0
LINE
  5
445
330
1B
100
AcDbEntity
 67
     1
  8
02___PRT_ALL_AXES
  6
Continuous
 62
     7
100
AcDbLine
 10
323.5221442145
 20
274.6168332978
 30
0.0
 11
326.8971442145
 21
274.6168332978
 31
0.0
  0
LINE
  5
446
330
1B
100
AcDbEntity
 67
     1
  8
02___PRT_ALL_AXES
  6
Continuous
 62
     7
100
AcDbLine
 10
322.4971442145
 20
273.5918332978
 30
0.0
 11
326.8971442145
 21
273.5918332978
 31
0.0
  0
LINE
  5
447
330
1B
100
AcDbEntity
 67
     1
  8
7_ALL_FEATURES
  6
Continuous
 62
     7
100
AcDbLine
 10
331.2971442145
 20
277.8168332978
 30
0.0
 11
326.8971442145
 21
277.8168332978
 31
0.0
  0
LINE
  5
448
330
1B
100
AcDbEntity
 67
     1
  8
02___PRT_ALL_AXES
  6
Continuous
 62
     7
100
AcDbLine
 10
331.2971442145
 20
275.6418332978
 30
0.0
 11
326.8971442145
 21
275.6418332978
 31
0.0
  0
ARC
  5
449
330
1B
100
AcDbEntity
 67
     1
  8
7_ALL_FEATURES
  6
Continuous
 62
     7
100
AcDbCircle
 10
323.4971442145
 20
278.4168332978
 30
0.0
 40
0.1
100
AcDbArc
 50
180.0
 51
270.0
  0
ARC
  5
44A
330
1B
100
AcDbEntity
 67
     1
  8
7_ALL_FEATURES
  6
Continuous
 62
     7
100
AcDbCircle
 10
330.2971442145
 20
278.4168332978
 30
0.0
 40
0.1
100
AcDbArc
 50
270.0
 51
360.0
  0
ARC
  5
44B
330
1B
100
AcDbEntity
 67
     1
  8
7_ALL_FEATURES
  6
Continuous
 62
     7
100
AcDbCircle
 10
323.4971442145
 20
282.2168332978
 30
0.0
 40
0.1
100
AcDbArc
 50
90.0
 51
180.0
  0
LINE
  5
44C
330
1B
100
AcDbEntity
 67
     1
  8
7_ALL_FEATURES
  6
Continuous
 62
     7
100
AcDbLine
 10
326.8971442145
 20
282.3168332978
 30
0.0
 11
323.4971442161
 21
282.3168332978
 31
0.0
  0
LINE
  5
44D
330
1B
100
AcDbEntity
 67
     1
  8
7_ALL_FEATURES
  6
Continuous
 62
     7
100
AcDbLine
 10
323.4971442145
 20
282.3168332978
 30
0.0
 11
326.8971442145
 21
282.3168332978
 31
0.0
  0
LINE
  5
44E
330
1B
100
AcDbEntity
 67
     1
  8
7_ALL_FEATURES
  6
Continuous
 62
     7
100
AcDbLine
 10
330.2971442129
 20
282.3168332978
 30
0.0
 11
330.2454837274
 21
282.3168332978
 31
0.0
  0
LINE
  5
44F
330
1B
100
AcDbEntity
 67
     1
  8
7_ALL_FEATURES
  6
Continuous
 62
     7
100
AcDbLine
 10
330.2454837274
 20
282.3168332978
 30
0.0
 11
326.8971442145
 21
282.3168332978
 31
0.0
  0
ARC
  5
450
330
1B
100
AcDbEntity
 67
     1
  8
7_ALL_FEATURES
  6
Continuous
 62
     7
100
AcDbCircle
 10
330.2971442145
 20
282.2168332978
 30
0.0
 40
0.1
100
AcDbArc
 50
0.0
 51
90.0
  0
LINE
  5
451
330
1B
100
AcDbEntity
 67
     1
  8
7_ALL_FEATURES
  6
Continuous
 62
     7
100
AcDbLine
 10
330.2855314907
 20
282.3168332978
 30
0.0
 11
330.2971442145
 21
282.3168332978
 31
0.0
  0
LINE
  5
452
330
1B
100
AcDbEntity
 67
     1
  8
7_ALL_FEATURES
  6
Continuous
 62
     7
100
AcDbLine
 10
326.8971442145
 20
282.3168332978
 30
0.0
 11
330.2855314907
 21
282.3168332978
 31
0.0
  0
LINE
  5
453
330
1B
100
AcDbEntity
 67
     1
  8
3_ALL_AXES
  6
Continuous
 62
     7
100
AcDbLine
 10
323.3971442145
 20
278.4168332978
 30
0.0
 11
323.3971442145
 21
282.2168332978
 31
0.0
  0
LINE
  5
454
330
1B
100
AcDbEntity
 67
     1
  8
3_ALL_AXES
  6
Continuous
 62
     7
100
AcDbLine
 10
330.3971442145
 20
278.4168332978
 30
0.0
 11
330.3971442145
 21
282.2168332978
 31
0.0
  0
LINE
  5
455
330
1B
100
AcDbEntity
 67
     1
  8
7_ALL_FEATURES
  6
Continuous
 62
     9
100
AcDbLine
 10
326.8971442145
 20
282.2168332978
 30
0.0
 11
323.3971442145
 21
282.2168332978
 31
0.0
  0
LINE
  5
456
330
1B
100
AcDbEntity
 67
     1
  8
7_ALL_FEATURES
  6
Continuous
 62
     9
100
AcDbLine
 10
330.3971442145
 20
282.2168332978
 30
0.0
 11
326.8971442145
 21
282.2168332978
 31
0.0
  0
LINE
  5
457
330
1B
100
AcDbEntity
 67
     1
  8
7_ALL_FEATURES
  6
Continuous
 62
     9
100
AcDbLine
 10
330.3971442145
 20
278.4168332978
 30
0.0
 11
326.8971442145
 21
278.4168332978
 31
0.0
  0
LINE
  5
458
330
1B
100
AcDbEntity
 67
     1
  8
7_ALL_FEATURES
  6
Continuous
 62
     9
100
AcDbLine
 10
326.8971442145
 20
278.4168332978
 30
0.0
 11
323.3971442145
 21
278.4168332978
 31
0.0
  0
LINE
  5
459
330
1B
100
AcDbEntity
 67
     1
  8
7_ALL_FEATURES
  6
Continuous
 62
     7
100
AcDbLine
 10
325.3971442145
 20
152.6772344252
 30
0.0
 11
326.8971442145
 21
151.8124349755
 31
0.0
  0
LINE
  5
45A
330
1B
100
AcDbEntity
 67
     1
  8
7_ALL_FEATURES
  6
Continuous
 62
     7
100
AcDbLine
 10
326.8971442145
 20
151.8124349755
 30
0.0
 11
328.3971442145
 21
152.6772344252
 31
0.0
  0
LINE
  5
45B
330
1B
100
AcDbEntity
 67
     1
  8
7_ALL_FEATURES
  6
Continuous
 62
     7
100
AcDbLine
 10
328.3971442145
 20
152.6772344252
 30
0.0
 11
328.3971442145
 21
154.4068333246
 31
0.0
  0
LINE
  5
45C
330
1B
100
AcDbEntity
 67
     1
  8
7_ALL_FEATURES
  6
Continuous
 62
     7
100
AcDbLine
 10
325.3971442145
 20
154.4068333246
 30
0.0
 11
325.3971442145
 21
152.6772344252
 31
0.0
  0
SPLINE
  5
45D
330
1B
100
AcDbEntity
 67
     1
  8
3_ALL_AXES
  6
Continuous
 62
     7
100
AcDbSpline
 70
     0
 71
     3
 72
    15
 73
    11
 74
     0
 42
0.000000001
 43
0.0000001
 40
0.0
 40
0.0
 40
0.0
 40
0.0
 40
0.125089821
 40
0.2501603611
 40
0.3752096284
 40
0.5002269883
 40
0.6252096732
 40
0.7501605067
 40
0.8750868529
 40
1.0
 40
1.0
 40
1.0
 40
1.0
 10
326.8971442145
 20
158.5349558257
 30
0.0
 10
326.5704171493
 20
158.5349558257
 30
0.0
 10
325.9152072761
 20
158.4705925565
 30
0.0
 10
324.971542351
 20
158.1846583721
 30
0.0
 10
324.1014782384
 20
157.7203255253
 30
0.0
 10
323.3389237014
 20
157.0954122984
 30
0.0
 10
322.7130658444
 20
156.3339572097
 30
0.0
 10
322.2480114772
 20
155.46508224
 30
0.0
 10
321.9616108686
 20
154.5226794066
 30
0.0
 10
321.897148768
 20
153.8682994785
 30
0.0
 10
321.897148768
 20
153.5420338749
 30
0.0
  0
SPLINE
  5
45E
330
1B
100
AcDbEntity
 67
     1
  8
3_ALL_AXES
  6
Continuous
 62
     7
100
AcDbSpline
 70
     0
 71
     3
 72
    15
 73
    11
 74
     0
 42
0.000000001
 43
0.0000001
 40
0.0
 40
0.0
 40
0.0
 40
0.0
 40
0.125089821
 40
0.2501603611
 40
0.3752096284
 40
0.5002269883
 40
0.6252096732
 40
0.7501605067
 40
0.8750868529
 40
1.0
 40
1.0
 40
1.0
 40
1.0
 10
326.8971442145
 20
158.5349558257
 30
0.0
 10
327.2238712797
 20
158.5349558257
 30
0.0
 10
327.8790811529
 20
158.4705925565
 30
0.0
 10
328.8227460781
 20
158.1846583722
 30
0.0
 10
329.6928101907
 20
157.7203255253
 30
0.0
 10
330.4553647276
 20
157.0954122984
 30
0.0
 10
331.0812225847
 20
156.3339572097
 30
0.0
 10
331.5462769519
 20
155.46508224
 30
0.0
 10
331.8326775604
 20
154.5226794066
 30
0.0
 10
331.8971396611
 20
153.8682994785
 30
0.0
 10
331.8971396611
 20
153.5420338749
 30
0.0
  0
SPLINE
  5
45F
330
1B
100
AcDbEntity
 67
     1
  8
3_ALL_AXES
  6
Continuous
 62
     7
100
AcDbSpline
 70
     0
 71
     3
 72
    15
 73
    11
 74
     0
 42
0.000000001
 43
0.0000001
 40
0.0
 40
0.0
 40
0.0
 40
0.0
 40
0.1249131471
 40
0.2498394933
 40
0.3747903268
 40
0.4997730117
 40
0.6247903716
 40
0.7498396389
 40
0.874910179
 40
1.0
 40
1.0
 40
1.0
 40
1.0
 10
331.8971396611
 20
153.5260767632
 30
0.0
 10
331.8971396611
 20
153.1998111595
 30
0.0
 10
331.8326775604
 20
152.5454312314
 30
0.0
 10
331.5462769519
 20
151.6030283981
 30
0.0
 10
331.0812225847
 20
150.7341534284
 30
0.0
 10
330.4553647276
 20
149.9726983397
 30
0.0
 10
329.6928101907
 20
149.3477851128
 30
0.0
 10
328.8227460781
 20
148.8834522659
 30
0.0
 10
327.8790811529
 20
148.5975180815
 30
0.0
 10
327.2238712797
 20
148.5331548123
 30
0.0
 10
326.8971442145
 20
148.5331548123
 30
0.0
  0
SPLINE
  5
460
330
1B
100
AcDbEntity
 67
     1
  8
3_ALL_AXES
  6
Continuous
 62
     7
100
AcDbSpline
 70
     0
 71
     3
 72
    15
 73
    11
 74
     0
 42
0.000000001
 43
0.0000001
 40
0.0
 40
0.0
 40
0.0
 40
0.0
 40
0.1249131471
 40
0.2498394933
 40
0.3747903268
 40
0.4997730117
 40
0.6247903716
 40
0.7498396389
 40
0.874910179
 40
1.0
 40
1.0
 40
1.0
 40
1.0
 10
321.897148768
 20
153.5260767632
 30
0.0
 10
321.897148768
 20
153.1998111595
 30
0.0
 10
321.9616108686
 20
152.5454312314
 30
0.0
 10
322.2480114772
 20
151.6030283981
 30
0.0
 10
322.7130658444
 20
150.7341534284
 30
0.0
 10
323.3389237014
 20
149.9726983397
 30
0.0
 10
324.1014782384
 20
149.3477851128
 30
0.0
 10
324.971542351
 20
148.8834522659
 30
0.0
 10
325.9152072761
 20
148.5975180815
 30
0.0
 10
326.5704171493
 20
148.5331548123
 30
0.0
 10
326.8971442145
 20
148.5331548123
 30
0.0
  0
ARC
  5
461
330
1B
100
AcDbEntity
 67
     1
  8
3_ALL_AXES
  6
Continuous
 62
     7
100
AcDbCircle
 10
326.9073955283
 20
153.5420338732
 30
0.0
 40
4.9897441328
100
AcDbArc
 50
359.8169771892
 51
360.0
  0
SPLINE
  5
462
330
1B
100
AcDbEntity
 67
     1
  8
3_ALL_AXES
  6
Continuous
 62
     7
100
AcDbSpline
 70
     0
 71
     3
 72
    15
 73
    11
 74
     0
 42
0.000000001
 43
0.0000001
 40
0.0
 40
0.0
 40
0.0
 40
0.0
 40
0.1249130663
 40
0.2498394927
 40
0.3747904667
 40
0.4997732836
 40
0.6247907044
 40
0.7498399459
 40
0.8749103427
 40
1.0
 40
1.0
 40
1.0
 40
1.0
 10
331.8971142037
 20
153.5260949079
 30
0.0
 10
331.8960741084
 20
153.2004916455
 30
0.0
 10
331.8297862505
 20
152.5476522412
 30
0.0
 10
331.5415314239
 20
151.6079258574
 30
0.0
 10
331.0755274373
 20
150.7418530025
 30
0.0
 10
330.4495878398
 20
149.9830820701
 30
0.0
 10
329.6877269843
 20
149.3605124132
 30
0.0
 10
328.8189856769
 20
148.8979977848
 30
0.0
 10
327.8770849012
 20
148.6132129611
 30
0.0
 10
327.2232094495
 20
148.549111924
 30
0.0
 10
326.8971442145
 20
148.549111924
 30
0.0
  0
LINE
  5
463
330
1B
100
AcDbEntity
 67
     1
  8
7_ALL_FEATURES
  6
Continuous
 62
     7
100
AcDbLine
 10
326.8971442145
 20
155.2716327743
 30
0.0
 11
325.3971442145
 21
154.4068333246
 31
0.0
  0
LINE
  5
464
330
1B
100
AcDbEntity
 67
     1
  8
7_ALL_FEATURES
  6
Continuous
 62
     7
100
AcDbLine
 10
328.3971442145
 20
154.4068333246
 30
0.0
 11
326.8971442145
 21
155.2716327743
 31
0.0
  0
ARC
  5
465
330
1B
100
AcDbEntity
 67
     1
  8
3_ALL_AXES
  6
Continuous
 62
     7
100
AcDbCircle
 10
326.8868929009
 20
153.5420338732
 30
0.0
 40
4.9897441329
100
AcDbArc
 50
179.9999999807
 51
180.1830228108
  0
SPLINE
  5
466
330
1B
100
AcDbEntity
 67
     1
  8
3_ALL_AXES
  6
Continuous
 62
     7
100
AcDbSpline
 70
     0
 71
     3
 72
    15
 73
    11
 74
     0
 42
0.000000001
 43
0.0000001
 40
0.0
 40
0.0
 40
0.0
 40
0.0
 40
0.1249130663
 40
0.2498394927
 40
0.3747904667
 40
0.4997732836
 40
0.6247907044
 40
0.7498399459
 40
0.8749103427
 40
1.0
 40
1.0
 40
1.0
 40
1.0
 10
321.8971742253
 20
153.5260949079
 30
0.0
 10
321.8982143207
 20
153.2004916455
 30
0.0
 10
321.9645021785
 20
152.5476522412
 30
0.0
 10
322.2527570052
 20
151.6079258574
 30
0.0
 10
322.7187609918
 20
150.7418530025
 30
0.0
 10
323.3447005892
 20
149.9830820701
 30
0.0
 10
324.1065614448
 20
149.3605124132
 30
0.0
 10
324.9753027522
 20
148.8979977848
 30
0.0
 10
325.9172035279
 20
148.6132129611
 30
0.0
 10
326.5710789795
 20
148.549111924
 30
0.0
 10
326.8971442145
 20
148.549111924
 30
0.0
  0
LINE
  5
467
330
1B
100
AcDbEntity
 67
     1
  8
7_ALL_FEATURES
  6
Continuous
 62
     7
100
AcDbLine
 10
326.8971442145
 20
155.1386568435
 30
0.0
 11
325.3971442145
 21
154.2738573938
 31
0.0
  0
LINE
  5
468
330
1B
100
AcDbEntity
 67
     1
  8
7_ALL_FEATURES
  6
Continuous
 62
     7
100
AcDbLine
 10
328.3971442145
 20
154.2738573938
 30
0.0
 11
326.8971442145
 21
155.1386568435
 31
0.0
  0
LINE
  5
469
330
1B
100
AcDbEntity
 67
     1
  8
7_ALL_FEATURES
  6
Continuous
 62
     7
100
AcDbLine
 10
326.8971442145
 20
155.2716327743
 30
0.0
 11
326.8971442145
 21
155.1386568435
 31
0.0
  0
LINE
  5
46A
330
1B
100
AcDbEntity
 67
     1
  8
7_ALL_FEATURES
  6
Continuous
 62
     7
100
AcDbLine
 10
244.3971442145
 20
152.6772344252
 30
0.0
 11
245.8971442145
 21
151.8124349755
 31
0.0
  0
LINE
  5
46B
330
1B
100
AcDbEntity
 67
     1
  8
7_ALL_FEATURES
  6
Continuous
 62
     7
100
AcDbLine
 10
245.8971442145
 20
151.8124349755
 30
0.0
 11
247.3971442145
 21
152.6772344252
 31
0.0
  0
LINE
  5
46C
330
1B
100
AcDbEntity
 67
     1
  8
7_ALL_FEATURES
  6
Continuous
 62
     7
100
AcDbLine
 10
247.3971442145
 20
152.6772344252
 30
0.0
 11
247.3971442145
 21
154.4068333246
 31
0.0
  0
LINE
  5
46D
330
1B
100
AcDbEntity
 67
     1
  8
7_ALL_FEATURES
  6
Continuous
 62
     7
100
AcDbLine
 10
244.3971442145
 20
154.4068333246
 30
0.0
 11
244.3971442145
 21
152.6772344252
 31
0.0
  0
SPLINE
  5
46E
330
1B
100
AcDbEntity
 67
     1
  8
3_ALL_AXES
  6
Continuous
 62
     7
100
AcDbSpline
 70
     0
 71
     3
 72
    15
 73
    11
 74
     0
 42
0.000000001
 43
0.0000001
 40
0.0
 40
0.0
 40
0.0
 40
0.0
 40
0.125089821
 40
0.2501603611
 40
0.3752096284
 40
0.5002269883
 40
0.6252096732
 40
0.7501605067
 40
0.8750868529
 40
1.0
 40
1.0
 40
1.0
 40
1.0
 10
245.8971442145
 20
158.5349558257
 30
0.0
 10
245.5704171493
 20
158.5349558257
 30
0.0
 10
244.9152072761
 20
158.4705925565
 30
0.0
 10
243.971542351
 20
158.1846583721
 30
0.0
 10
243.1014782384
 20
157.7203255253
 30
0.0
 10
242.3389237014
 20
157.0954122984
 30
0.0
 10
241.7130658444
 20
156.3339572097
 30
0.0
 10
241.2480114772
 20
155.46508224
 30
0.0
 10
240.9616108686
 20
154.5226794066
 30
0.0
 10
240.897148768
 20
153.8682994785
 30
0.0
 10
240.897148768
 20
153.5420338749
 30
0.0
  0
SPLINE
  5
46F
330
1B
100
AcDbEntity
 67
     1
  8
3_ALL_AXES
  6
Continuous
 62
     7
100
AcDbSpline
 70
     0
 71
     3
 72
    15
 73
    11
 74
     0
 42
0.000000001
 43
0.0000001
 40
0.0
 40
0.0
 40
0.0
 40
0.0
 40
0.125089821
 40
0.2501603611
 40
0.3752096284
 40
0.5002269883
 40
0.6252096732
 40
0.7501605067
 40
0.8750868529
 40
1.0
 40
1.0
 40
1.0
 40
1.0
 10
245.8971442145
 20
158.5349558257
 30
0.0
 10
246.2238712797
 20
158.5349558257
 30
0.0
 10
246.8790811529
 20
158.4705925565
 30
0.0
 10
247.8227460781
 20
158.1846583721
 30
0.0
 10
248.6928101907
 20
157.7203255253
 30
0.0
 10
249.4553647276
 20
157.0954122984
 30
0.0
 10
250.0812225847
 20
156.3339572097
 30
0.0
 10
250.5462769519
 20
155.46508224
 30
0.0
 10
250.8326775604
 20
154.5226794066
 30
0.0
 10
250.8971396611
 20
153.8682994785
 30
0.0
 10
250.8971396611
 20
153.5420338749
 30
0.0
  0
SPLINE
  5
470
330
1B
100
AcDbEntity
 67
     1
  8
3_ALL_AXES
  6
Continuous
 62
     7
100
AcDbSpline
 70
     0
 71
     3
 72
    15
 73
    11
 74
     0
 42
0.000000001
 43
0.0000001
 40
0.0
 40
0.0
 40
0.0
 40
0.0
 40
0.1249131471
 40
0.2498394933
 40
0.3747903268
 40
0.4997730117
 40
0.6247903716
 40
0.7498396389
 40
0.874910179
 40
1.0
 40
1.0
 40
1.0
 40
1.0
 10
250.8971396611
 20
153.5260767632
 30
0.0
 10
250.8971396611
 20
153.1998111595
 30
0.0
 10
250.8326775604
 20
152.5454312314
 30
0.0
 10
250.5462769519
 20
151.6030283981
 30
0.0
 10
250.0812225847
 20
150.7341534284
 30
0.0
 10
249.4553647276
 20
149.9726983397
 30
0.0
 10
248.6928101907
 20
149.3477851128
 30
0.0
 10
247.8227460781
 20
148.8834522659
 30
0.0
 10
246.8790811529
 20
148.5975180815
 30
0.0
 10
246.2238712797
 20
148.5331548123
 30
0.0
 10
245.8971442145
 20
148.5331548123
 30
0.0
  0
SPLINE
  5
471
330
1B
100
AcDbEntity
 67
     1
  8
3_ALL_AXES
  6
Continuous
 62
     7
100
AcDbSpline
 70
     0
 71
     3
 72
    15
 73
    11
 74
     0
 42
0.000000001
 43
0.0000001
 40
0.0
 40
0.0
 40
0.0
 40
0.0
 40
0.1249131471
 40
0.2498394933
 40
0.3747903268
 40
0.4997730117
 40
0.6247903716
 40
0.7498396389
 40
0.874910179
 40
1.0
 40
1.0
 40
1.0
 40
1.0
 10
240.897148768
 20
153.5260767632
 30
0.0
 10
240.897148768
 20
153.1998111595
 30
0.0
 10
240.9616108686
 20
152.5454312314
 30
0.0
 10
241.2480114772
 20
151.6030283981
 30
0.0
 10
241.7130658444
 20
150.7341534284
 30
0.0
 10
242.3389237014
 20
149.9726983397
 30
0.0
 10
243.1014782384
 20
149.3477851128
 30
0.0
 10
243.971542351
 20
148.8834522659
 30
0.0
 10
244.9152072761
 20
148.5975180815
 30
0.0
 10
245.5704171493
 20
148.5331548123
 30
0.0
 10
245.8971442145
 20
148.5331548123
 30
0.0
  0
ARC
  5
472
330
1B
100
AcDbEntity
 67
     1
  8
3_ALL_AXES
  6
Continuous
 62
     7
100
AcDbCircle
 10
245.9073955547
 20
153.5420338732
 30
0.0
 40
4.9897441064
100
AcDbArc
 50
359.8169771882999
 51
360.0
  0
SPLINE
  5
473
330
1B
100
AcDbEntity
 67
     1
  8
3_ALL_AXES
  6
Continuous
 62
     7
100
AcDbSpline
 70
     0
 71
     3
 72
    15
 73
    11
 74
     0
 42
0.000000001
 43
0.0000001
 40
0.0
 40
0.0
 40
0.0
 40
0.0
 40
0.1249130663
 40
0.2498394927
 40
0.3747904667
 40
0.4997732836
 40
0.6247907044
 40
0.7498399459
 40
0.8749103427
 40
1.0
 40
1.0
 40
1.0
 40
1.0
 10
250.8971142037
 20
153.5260949079
 30
0.0
 10
250.8960741084
 20
153.2004916455
 30
0.0
 10
250.8297862505
 20
152.5476522412
 30
0.0
 10
250.5415314239
 20
151.6079258574
 30
0.0
 10
250.0755274373
 20
150.7418530025
 30
0.0
 10
249.4495878398
 20
149.9830820701
 30
0.0
 10
248.6877269843
 20
149.3605124132
 30
0.0
 10
247.8189856769
 20
148.8979977848
 30
0.0
 10
246.8770849012
 20
148.6132129611
 30
0.0
 10
246.2232094495
 20
148.549111924
 30
0.0
 10
245.8971442145
 20
148.549111924
 30
0.0
  0
LINE
  5
474
330
1B
100
AcDbEntity
 67
     1
  8
7_ALL_FEATURES
  6
Continuous
 62
     7
100
AcDbLine
 10
245.8971442145
 20
155.2716327743
 30
0.0
 11
244.3971442145
 21
154.4068333246
 31
0.0
  0
LINE
  5
475
330
1B
100
AcDbEntity
 67
     1
  8
7_ALL_FEATURES
  6
Continuous
 62
     7
100
AcDbLine
 10
247.3971442145
 20
154.4068333246
 30
0.0
 11
245.8971442145
 21
155.2716327743
 31
0.0
  0
ARC
  5
476
330
1B
100
AcDbEntity
 67
     1
  8
3_ALL_AXES
  6
Continuous
 62
     7
100
AcDbCircle
 10
245.8868928743
 20
153.5420338732
 30
0.0
 40
4.9897441063
100
AcDbArc
 50
179.9999999805
 51
180.1830228115
  0
SPLINE
  5
477
330
1B
100
AcDbEntity
 67
     1
  8
3_ALL_AXES
  6
Continuous
 62
     7
100
AcDbSpline
 70
     0
 71
     3
 72
    15
 73
    11
 74
     0
 42
0.000000001
 43
0.0000001
 40
0.0
 40
0.0
 40
0.0
 40
0.0
 40
0.1249130663
 40
0.2498394927
 40
0.3747904667
 40
0.4997732836
 40
0.6247907044
 40
0.7498399459
 40
0.8749103427
 40
1.0
 40
1.0
 40
1.0
 40
1.0
 10
240.8971742253
 20
153.5260949079
 30
0.0
 10
240.8982143207
 20
153.2004916455
 30
0.0
 10
240.9645021785
 20
152.5476522412
 30
0.0
 10
241.2527570052
 20
151.6079258574
 30
0.0
 10
241.7187609918
 20
150.7418530025
 30
0.0
 10
242.3447005892
 20
149.9830820701
 30
0.0
 10
243.1065614448
 20
149.3605124132
 30
0.0
 10
243.9753027522
 20
148.8979977848
 30
0.0
 10
244.9172035279
 20
148.6132129611
 30
0.0
 10
245.5710789795
 20
148.549111924
 30
0.0
 10
245.8971442145
 20
148.549111924
 30
0.0
  0
LINE
  5
478
330
1B
100
AcDbEntity
 67
     1
  8
7_ALL_FEATURES
  6
Continuous
 62
     7
100
AcDbLine
 10
245.8971442145
 20
155.1386568435
 30
0.0
 11
244.3971442145
 21
154.2738573938
 31
0.0
  0
LINE
  5
479
330
1B
100
AcDbEntity
 67
     1
  8
7_ALL_FEATURES
  6
Continuous
 62
     7
100
AcDbLine
 10
247.3971442145
 20
154.2738573938
 30
0.0
 11
245.8971442145
 21
155.1386568435
 31
0.0
  0
LINE
  5
47A
330
1B
100
AcDbEntity
 67
     1
  8
7_ALL_FEATURES
  6
Continuous
 62
     7
100
AcDbLine
 10
245.8971442145
 20
155.2716327743
 30
0.0
 11
245.8971442145
 21
155.1386568435
 31
0.0
  0
LINE
  5
47B
330
1B
100
AcDbEntity
 67
     1
  8
7_ALL_FEATURES
  6
Continuous
 62
     7
100
AcDbLine
 10
245.8971442145
 20
278.3168332978
 30
0.0
 11
243.7971442145
 21
278.3168332978
 31
0.0
  0
LINE
  5
47C
330
1B
100
AcDbEntity
 67
     1
  8
7_ALL_FEATURES
  6
Continuous
 62
     7
100
AcDbLine
 10
243.7971442145
 20
278.3168332978
 30
0.0
 11
242.5087569383
 21
278.3168332978
 31
0.0
  0
LINE
  5
47D
330
1B
100
AcDbEntity
 67
     1
  8
7_ALL_FEATURES
  6
Continuous
 62
     7
100
AcDbLine
 10
242.5087569383
 20
278.3168332978
 30
0.0
 11
242.4971442145
 21
278.3168332978
 31
0.0
  0
LINE
  5
47E
330
1B
100
AcDbEntity
 67
     1
  8
7_ALL_FEATURES
  6
Continuous
 62
     7
100
AcDbLine
 10
242.4971442145
 20
278.3168332978
 30
0.0
 11
241.9971442145
 21
278.3168332978
 31
0.0
  0
LINE
  5
47F
330
1B
100
AcDbEntity
 67
     1
  8
7_ALL_FEATURES
  6
Continuous
 62
     7
100
AcDbLine
 10
241.9971442145
 20
278.3168332978
 30
0.0
 11
241.4971442145
 21
277.8168332978
 31
0.0
  0
LINE
  5
480
330
1B
100
AcDbEntity
 67
     1
  8
7_ALL_FEATURES
  6
Continuous
 62
     7
100
AcDbLine
 10
249.7971442145
 20
278.3168332978
 30
0.0
 11
249.2971441777
 21
278.3168332978
 31
0.0
  0
LINE
  5
481
330
1B
100
AcDbEntity
 67
     1
  8
7_ALL_FEATURES
  6
Continuous
 62
     7
100
AcDbLine
 10
249.2971441777
 20
278.3168332978
 30
0.0
 11
249.2855314907
 21
278.3168332978
 31
0.0
  0
LINE
  5
482
330
1B
100
AcDbEntity
 67
     1
  8
7_ALL_FEATURES
  6
Continuous
 62
     7
100
AcDbLine
 10
249.2855314907
 20
278.3168332978
 30
0.0
 11
247.9971442107
 21
278.3168332978
 31
0.0
  0
LINE
  5
483
330
1B
100
AcDbEntity
 67
     1
  8
7_ALL_FEATURES
  6
Continuous
 62
     7
100
AcDbLine
 10
247.9971442107
 20
278.3168332978
 30
0.0
 11
245.8971442145
 21
278.3168332978
 31
0.0
  0
LINE
  5
484
330
1B
100
AcDbEntity
 67
     1
  8
7_ALL_FEATURES
  6
Continuous
 62
     7
100
AcDbLine
 10
249.7971442145
 20
278.3168332978
 30
0.0
 11
250.2971442145
 21
277.8168332978
 31
0.0
  0
LINE
  5
485
330
1B
100
AcDbEntity
 67
     1
  8
02___PRT_ALL_AXES
  6
Continuous
 62
     7
100
AcDbLine
 10
250.2971442145
 20
268.3168332978
 30
0.0
 11
250.2971442145
 21
273.5918332978
 31
0.0
  0
LINE
  5
486
330
1B
100
AcDbEntity
 67
     1
  8
02___PRT_ALL_AXES
  6
Continuous
 62
     7
100
AcDbLine
 10
250.2971442145
 20
273.5918332978
 30
0.0
 11
249.2721442145
 21
274.6168332978
 31
0.0
  0
LINE
  5
487
330
1B
100
AcDbEntity
 67
     1
  8
02___PRT_ALL_AXES
  6
Continuous
 62
     7
100
AcDbLine
 10
241.4971442145
 20
275.6418332978
 30
0.0
 11
241.4971442145
 21
277.8168332978
 31
0.0
  0
LINE
  5
488
330
1B
100
AcDbEntity
 67
     1
  8
02___PRT_ALL_AXES
  6
Continuous
 62
     7
100
AcDbLine
 10
242.5221442145
 20
274.6168332978
 30
0.0
 11
241.4971442145
 21
275.6418332978
 31
0.0
  0
LINE
  5
489
330
1B
100
AcDbEntity
 67
     1
  8
02___PRT_ALL_AXES
  6
Continuous
 62
     7
100
AcDbLine
 10
249.2721442145
 20
274.6168332978
 30
0.0
 11
250.2971442145
 21
275.6418332978
 31
0.0
  0
LINE
  5
48A
330
1B
100
AcDbEntity
 67
     1
  8
02___PRT_ALL_AXES
  6
Continuous
 62
     7
100
AcDbLine
 10
241.4971442145
 20
273.5918332978
 30
0.0
 11
242.5221442145
 21
274.6168332978
 31
0.0
  0
LINE
  5
48B
330
1B
100
AcDbEntity
 67
     1
  8
02___PRT_ALL_AXES
  6
Continuous
 62
     7
100
AcDbLine
 10
241.4971442145
 20
268.3168332978
 30
0.0
 11
241.4971442145
 21
273.5918332978
 31
0.0
  0
LINE
  5
48C
330
1B
100
AcDbEntity
 67
     1
  8
02___PRT_ALL_AXES
  6
Continuous
 62
     7
100
AcDbLine
 10
250.2971442145
 20
275.6418332978
 30
0.0
 11
250.2971442145
 21
277.8168332978
 31
0.0
  0
LINE
  5
48D
330
1B
100
AcDbEntity
 67
     1
  8
7_ALL_FEATURES
  6
Continuous
 62
     7
100
AcDbLine
 10
245.8971442145
 20
277.8168332978
 30
0.0
 11
241.4971442145
 21
277.8168332978
 31
0.0
  0
LINE
  5
48E
330
1B
100
AcDbEntity
 67
     1
  8
02___PRT_ALL_AXES
  6
Continuous
 62
     7
100
AcDbLine
 10
250.2971442145
 20
273.5918332978
 30
0.0
 11
245.8971442145
 21
273.5918332978
 31
0.0
  0
LINE
  5
48F
330
1B
100
AcDbEntity
 67
     1
  8
02___PRT_ALL_AXES
  6
Continuous
 62
     7
100
AcDbLine
 10
241.4971442145
 20
275.6418332978
 30
0.0
 11
245.8971442145
 21
275.6418332978
 31
0.0
  0
LINE
  5
490
330
1B
100
AcDbEntity
 67
     1
  8
02___PRT_ALL_AXES
  6
Continuous
 62
     7
100
AcDbLine
 10
249.2721442145
 20
274.6168332978
 30
0.0
 11
245.8971442145
 21
274.6168332978
 31
0.0
  0
LINE
  5
491
330
1B
100
AcDbEntity
 67
     1
  8
02___PRT_ALL_AXES
  6
Continuous
 62
     7
100
AcDbLine
 10
242.5221442145
 20
274.6168332978
 30
0.0
 11
245.8971442145
 21
274.6168332978
 31
0.0
  0
LINE
  5
492
330
1B
100
AcDbEntity
 67
     1
  8
02___PRT_ALL_AXES
  6
Continuous
 62
     7
100
AcDbLine
 10
241.4971442145
 20
273.5918332978
 30
0.0
 11
245.8971442145
 21
273.5918332978
 31
0.0
  0
LINE
  5
493
330
1B
100
AcDbEntity
 67
     1
  8
7_ALL_FEATURES
  6
Continuous
 62
     7
100
AcDbLine
 10
250.2971442145
 20
277.8168332978
 30
0.0
 11
245.8971442145
 21
277.8168332978
 31
0.0
  0
LINE
  5
494
330
1B
100
AcDbEntity
 67
     1
  8
02___PRT_ALL_AXES
  6
Continuous
 62
     7
100
AcDbLine
 10
250.2971442145
 20
275.6418332978
 30
0.0
 11
245.8971442145
 21
275.6418332978
 31
0.0
  0
ARC
  5
495
330
1B
100
AcDbEntity
 67
     1
  8
7_ALL_FEATURES
  6
Continuous
 62
     7
100
AcDbCircle
 10
242.4971442145
 20
278.4168332978
 30
0.0
 40
0.1
100
AcDbArc
 50
180.0
 51
270.0
  0
ARC
  5
496
330
1B
100
AcDbEntity
 67
     1
  8
7_ALL_FEATURES
  6
Continuous
 62
     7
100
AcDbCircle
 10
249.2971442145
 20
278.4168332978
 30
0.0
 40
0.1
100
AcDbArc
 50
270.0
 51
360.0
  0
ARC
  5
497
330
1B
100
AcDbEntity
 67
     1
  8
7_ALL_FEATURES
  6
Continuous
 62
     7
100
AcDbCircle
 10
242.4971442145
 20
282.2168332978
 30
0.0
 40
0.1
100
AcDbArc
 50
90.0
 51
180.0
  0
LINE
  5
498
330
1B
100
AcDbEntity
 67
     1
  8
7_ALL_FEATURES
  6
Continuous
 62
     7
100
AcDbLine
 10
245.8971442145
 20
282.3168332978
 30
0.0
 11
242.4971442161
 21
282.3168332978
 31
0.0
  0
LINE
  5
499
330
1B
100
AcDbEntity
 67
     1
  8
7_ALL_FEATURES
  6
Continuous
 62
     7
100
AcDbLine
 10
242.4971442145
 20
282.3168332978
 30
0.0
 11
245.8971442145
 21
282.3168332978
 31
0.0
  0
LINE
  5
49A
330
1B
100
AcDbEntity
 67
     1
  8
7_ALL_FEATURES
  6
Continuous
 62
     7
100
AcDbLine
 10
249.2971442129
 20
282.3168332978
 30
0.0
 11
249.2454837274
 21
282.3168332978
 31
0.0
  0
LINE
  5
49B
330
1B
100
AcDbEntity
 67
     1
  8
7_ALL_FEATURES
  6
Continuous
 62
     7
100
AcDbLine
 10
249.2454837274
 20
282.3168332978
 30
0.0
 11
245.8971442145
 21
282.3168332978
 31
0.0
  0
ARC
  5
49C
330
1B
100
AcDbEntity
 67
     1
  8
7_ALL_FEATURES
  6
Continuous
 62
     7
100
AcDbCircle
 10
249.2971442145
 20
282.2168332978
 30
0.0
 40
0.1
100
AcDbArc
 50
0.0
 51
90.0
  0
LINE
  5
49D
330
1B
100
AcDbEntity
 67
     1
  8
7_ALL_FEATURES
  6
Continuous
 62
     7
100
AcDbLine
 10
249.2855314907
 20
282.3168332978
 30
0.0
 11
249.2971442145
 21
282.3168332978
 31
0.0
  0
LINE
  5
49E
330
1B
100
AcDbEntity
 67
     1
  8
7_ALL_FEATURES
  6
Continuous
 62
     7
100
AcDbLine
 10
245.8971442145
 20
282.3168332978
 30
0.0
 11
249.2855314907
 21
282.3168332978
 31
0.0
  0
LINE
  5
49F
330
1B
100
AcDbEntity
 67
     1
  8
3_ALL_AXES
  6
Continuous
 62
     7
100
AcDbLine
 10
242.3971442145
 20
278.4168332978
 30
0.0
 11
242.3971442145
 21
282.2168332978
 31
0.0
  0
LINE
  5
4A0
330
1B
100
AcDbEntity
 67
     1
  8
3_ALL_AXES
  6
Continuous
 62
     7
100
AcDbLine
 10
249.3971442145
 20
278.4168332978
 30
0.0
 11
249.3971442145
 21
282.2168332978
 31
0.0
  0
LINE
  5
4A1
330
1B
100
AcDbEntity
 67
     1
  8
7_ALL_FEATURES
  6
Continuous
 62
     9
100
AcDbLine
 10
245.8971442145
 20
282.2168332978
 30
0.0
 11
242.3971442145
 21
282.2168332978
 31
0.0
  0
LINE
  5
4A2
330
1B
100
AcDbEntity
 67
     1
  8
7_ALL_FEATURES
  6
Continuous
 62
     9
100
AcDbLine
 10
249.3971442145
 20
282.2168332978
 30
0.0
 11
245.8971442145
 21
282.2168332978
 31
0.0
  0
LINE
  5
4A3
330
1B
100
AcDbEntity
 67
     1
  8
7_ALL_FEATURES
  6
Continuous
 62
     9
100
AcDbLine
 10
249.3971442145
 20
278.4168332978
 30
0.0
 11
245.8971442145
 21
278.4168332978
 31
0.0
  0
LINE
  5
4A4
330
1B
100
AcDbEntity
 67
     1
  8
7_ALL_FEATURES
  6
Continuous
 62
     9
100
AcDbLine
 10
245.8971442145
 20
278.4168332978
 30
0.0
 11
242.3971442145
 21
278.4168332978
 31
0.0
  0
LINE
  5
4A5
330
1B
100
AcDbEntity
 67
     1
  8
7_ALL_FEATURES
  6
Continuous
 62
     7
100
AcDbLine
 10
338.8971442145
 20
139.3168332978
 30
0.0
 11
336.8971442145
 21
139.3168332978
 31
0.0
  0
LINE
  5
4A6
330
1B
100
AcDbEntity
 67
     1
  8
7_ALL_FEATURES
  6
Continuous
 62
     7
100
AcDbLine
 10
233.8971442145
 20
143.3168332978
 30
0.0
 11
233.8971442145
 21
139.3168332978
 31
0.0
  0
LINE
  5
4A7
330
1B
100
AcDbEntity
 67
     1
  8
7_ALL_FEATURES
  6
Continuous
 62
     7
100
AcDbLine
 10
338.8971442145
 20
143.3168332978
 30
0.0
 11
338.8971442145
 21
139.3168332978
 31
0.0
  0
LINE
  5
4A8
330
1B
100
AcDbEntity
 67
     1
  8
7_ALL_FEATURES
  6
Continuous
 62
     7
100
AcDbLine
 10
235.8971442145
 20
139.3168332978
 30
0.0
 11
233.8971442145
 21
139.3168332978
 31
0.0
  0
LINE
  5
4A9
330
1B
100
AcDbEntity
 67
     1
  8
7_ALL_FEATURES
  6
Continuous
 62
     7
100
AcDbLine
 10
235.8971442145
 20
139.3168332978
 30
0.0
 11
336.8971442145
 21
139.3168332978
 31
0.0
  0
LINE
  5
4AA
330
1B
100
AcDbEntity
 67
     1
  8
7_ALL_FEATURES
  6
Continuous
 62
     7
100
AcDbLine
 10
233.8971442145
 20
143.3168332978
 30
0.0
 11
235.8971442145
 21
143.3168332978
 31
0.0
  0
LINE
  5
4AB
330
1B
100
AcDbEntity
 67
     1
  8
7_ALL_FEATURES
  6
Continuous
 62
     7
100
AcDbLine
 10
235.8971442145
 20
143.3168332978
 30
0.0
 11
336.8971442145
 21
143.3168332978
 31
0.0
  0
LINE
  5
4AC
330
1B
100
AcDbEntity
 67
     1
  8
7_ALL_FEATURES
  6
Continuous
 62
     7
100
AcDbLine
 10
336.8971442145
 20
143.3168332978
 30
0.0
 11
338.8971442145
 21
143.3168332978
 31
0.0
  0
LINE
  5
4AD
330
1B
100
AcDbEntity
 67
     1
  8
7_ALL_FEATURES
  6
Continuous
 62
     7
100
AcDbLine
 10
235.8971442145
 20
143.3168332978
 30
0.0
 11
235.8971442145
 21
139.3168332978
 31
0.0
  0
LINE
  5
4AE
330
1B
100
AcDbEntity
 67
     1
  8
7_ALL_FEATURES
  6
Continuous
 62
     7
100
AcDbLine
 10
336.8971442145
 20
143.3168332978
 30
0.0
 11
336.8971442145
 21
139.3168332978
 31
0.0
  0
LINE
  5
4AF
330
1B
100
AcDbEntity
 67
     1
  8
7_ALL_FEATURES
  6
Continuous
 62
     7
100
AcDbLine
 10
236.3971442145
 20
268.3168332978
 30
0.0
 11
336.3971442145
 21
268.3168332978
 31
0.0
  0
LINE
  5
4B0
330
1B
100
AcDbEntity
 67
     1
  8
7_ALL_FEATURES
  6
Continuous
 62
     7
100
AcDbLine
 10
336.3971442145
 20
143.3168332978
 30
0.0
 11
336.3971442145
 21
268.3168332978
 31
0.0
  0
LINE
  5
4B1
330
1B
100
AcDbEntity
 67
     1
  8
7_ALL_FEATURES
  6
Continuous
 62
     7
100
AcDbLine
 10
236.3971442145
 20
143.3168332978
 30
0.0
 11
236.3971442145
 21
268.3168332978
 31
0.0
  0
ARC
  5
4B2
330
1B
100
AcDbEntity
 67
     1
  8
02___PRT_ALL_AXES
  6
Continuous
 62
     7
100
AcDbCircle
 10
326.8971442145
 20
153.5668332978
 30
0.0
 40
5.25
100
AcDbArc
 50
0.0
 51
180.0
  0
ARC
  5
4B3
330
1B
100
AcDbEntity
 67
     1
  8
02___PRT_ALL_AXES
  6
Continuous
 62
     7
100
AcDbCircle
 10
326.8971442145
 20
153.5668332978
 30
0.0
 40
5.25
100
AcDbArc
 50
180.0
 51
360.0
  0
ARC
  5
4B4
330
1B
100
AcDbEntity
 67
     1
  8
02___PRT_ALL_AXES
  6
Continuous
 62
     7
100
AcDbCircle
 10
245.8971442145
 20
153.5668332978
 30
0.0
 40
5.25
100
AcDbArc
 50
180.0
 51
360.0
  0
ARC
  5
4B5
330
1B
100
AcDbEntity
 67
     1
  8
02___PRT_ALL_AXES
  6
Continuous
 62
     7
100
AcDbCircle
 10
245.8971442145
 20
153.5668332978
 30
0.0
 40
5.25
100
AcDbArc
 50
0.0
 51
180.0
  0
LINE
  5
4B6
330
1B
100
AcDbEntity
 67
     1
  8
7_ALL_FEATURES
  6
Continuous
 62
     7
100
AcDbLine
 10
74.0252547149
 20
369.8635367395
 30
0.0
 11
74.1316354595
 21
371.8635367395
 31
0.0
  0
LINE
  5
4B7
330
1B
100
AcDbEntity
 67
     1
  8
7_ALL_FEATURES
  6
Continuous
 62
     7
100
AcDbLine
 10
74.1316354595
 20
311.8635367395
 30
0.0
 11
74.0252547149
 21
313.8635367395
 31
0.0
  0
LINE
  5
4B8
330
1B
100
AcDbEntity
 67
     1
  8
7_ALL_FEATURES
  6
Continuous
 62
     7
100
AcDbLine
 10
74.2273781296
 20
311.8635367395
 30
0.0
 11
74.2273781296
 21
311.6635367395
 31
0.0
  0
LINE
  5
4B9
330
1B
100
AcDbEntity
 67
     1
  8
7_ALL_FEATURES
  6
Continuous
 62
     7
100
AcDbLine
 10
74.2273781296
 20
372.0635367395
 30
0.0
 11
74.2273781296
 21
371.8635367395
 31
0.0
  0
LINE
  5
4BA
330
1B
100
AcDbEntity
 67
     1
  8
7_ALL_FEATURES
  6
Continuous
 62
     7
100
AcDbLine
 10
75.7252547149
 20
371.8635367395
 30
0.0
 11
75.6295120447
 21
371.8635367395
 31
0.0
  0
LINE
  5
4BB
330
1B
100
AcDbEntity
 67
     1
  8
7_ALL_FEATURES
  6
Continuous
 62
     7
100
AcDbLine
 10
77.3209658839
 20
313.6635367395
 30
0.0
 11
77.3209658839
 21
318.6635367395
 31
0.0
  0
LINE
  5
4BC
330
1B
100
AcDbEntity
 67
     1
  8
7_ALL_FEATURES
  6
Continuous
 62
     7
100
AcDbLine
 10
75.6295120447
 20
311.8635367395
 30
0.0
 11
75.7252547149
 21
311.8635367395
 31
0.0
  0
LINE
  5
4BD
330
1B
100
AcDbEntity
 67
     1
  8
7_ALL_FEATURES
  6
Continuous
 62
     7
100
AcDbLine
 10
75.6295120447
 20
371.8635367395
 30
0.0
 11
74.1316354595
 21
371.8635367395
 31
0.0
  0
LINE
  5
4BE
330
1B
100
AcDbEntity
 67
     1
  8
7_ALL_FEATURES
  6
Continuous
 62
     7
100
AcDbLine
 10
75.6295120447
 20
311.8635367395
 30
0.0
 11
74.1316354595
 21
311.8635367395
 31
0.0
  0
LINE
  5
4BF
330
1B
100
AcDbEntity
 67
     1
  8
7_ALL_FEATURES
  6
Continuous
 62
     7
100
AcDbLine
 10
75.5231313001
 20
313.8635367395
 30
0.0
 11
75.5343095995
 21
313.6533802978
 31
0.0
  0
LINE
  5
4C0
330
1B
100
AcDbEntity
 67
     1
  8
7_ALL_FEATURES
  6
Continuous
 62
     7
100
AcDbLine
 10
75.5343095995
 20
313.6533802978
 30
0.0
 11
75.6295120447
 21
311.8635367395
 31
0.0
  0
LINE
  5
4C1
330
1B
100
AcDbEntity
 67
     1
  8
7_ALL_FEATURES
  6
Continuous
 62
     7
100
AcDbLine
 10
75.5231313001
 20
369.8635367395
 30
0.0
 11
75.5231313001
 21
313.8635367395
 31
0.0
  0
LINE
  5
4C2
330
1B
100
AcDbEntity
 67
     1
  8
7_ALL_FEATURES
  6
Continuous
 62
     7
100
AcDbLine
 10
75.5231313001
 20
369.8635367395
 30
0.0
 11
74.0252547149
 21
369.8635367395
 31
0.0
  0
LINE
  5
4C3
330
1B
100
AcDbEntity
 67
     1
  8
7_ALL_FEATURES
  6
Continuous
 62
     7
100
AcDbLine
 10
75.5231313001
 20
313.8635367395
 30
0.0
 11
74.0252547149
 21
313.8635367395
 31
0.0
  0
LINE
  5
4C4
330
1B
100
AcDbEntity
 67
     1
  8
7_ALL_FEATURES
  6
Continuous
 62
     7
100
AcDbLine
 10
75.6295120447
 20
371.8635367395
 30
0.0
 11
75.5231313001
 21
369.8635367395
 31
0.0
  0
LINE
  5
4C5
330
1B
100
AcDbEntity
 67
     1
  8
7_ALL_FEATURES
  6
Continuous
 62
     7
100
AcDbLine
 10
169.7252547149
 20
313.8635367395
 30
0.0
 11
169.6188739703
 21
311.8635367395
 31
0.0
  0
LINE
  5
4C6
330
1B
100
AcDbEntity
 67
     1
  8
7_ALL_FEATURES
  6
Continuous
 62
     7
100
AcDbLine
 10
169.6188739703
 20
371.8635367395
 30
0.0
 11
169.7252547149
 21
369.8635367395
 31
0.0
  0
LINE
  5
4C7
330
1B
100
AcDbEntity
 67
     1
  8
7_ALL_FEATURES
  6
Continuous
 62
     7
100
AcDbLine
 10
169.5231313001
 20
371.8635367395
 30
0.0
 11
169.5231313001
 21
372.0635367395
 31
0.0
  0
LINE
  5
4C8
330
1B
100
AcDbEntity
 67
     1
  8
7_ALL_FEATURES
  6
Continuous
 62
     7
100
AcDbLine
 10
169.5231313001
 20
311.6635367395
 30
0.0
 11
169.5231313001
 21
311.8635367395
 31
0.0
  0
LINE
  5
4C9
330
1B
100
AcDbEntity
 67
     1
  8
7_ALL_FEATURES
  6
Continuous
 62
     7
100
AcDbLine
 10
168.0252547149
 20
311.8635367395
 30
0.0
 11
168.120997385
 21
311.8635367395
 31
0.0
  0
LINE
  5
4CA
330
1B
100
AcDbEntity
 67
     1
  8
7_ALL_FEATURES
  6
Continuous
 62
     7
100
AcDbLine
 10
166.4295435458
 20
318.6635367395
 30
0.0
 11
166.4295435458
 21
313.6635367395
 31
0.0
  0
LINE
  5
4CB
330
1B
100
AcDbEntity
 67
     1
  8
7_ALL_FEATURES
  6
Continuous
 62
     7
100
AcDbLine
 10
168.120997385
 20
371.8635367395
 30
0.0
 11
168.0252547149
 21
371.8635367395
 31
0.0
  0
LINE
  5
4CC
330
1B
100
AcDbEntity
 67
     1
  8
7_ALL_FEATURES
  6
Continuous
 62
     7
100
AcDbLine
 10
168.120997385
 20
311.8635367395
 30
0.0
 11
169.6188739703
 21
311.8635367395
 31
0.0
  0
LINE
  5
4CD
330
1B
100
AcDbEntity
 67
     1
  8
7_ALL_FEATURES
  6
Continuous
 62
     7
100
AcDbLine
 10
168.120997385
 20
371.8635367395
 30
0.0
 11
169.6188739703
 21
371.8635367395
 31
0.0
  0
LINE
  5
4CE
330
1B
100
AcDbEntity
 67
     1
  8
7_ALL_FEATURES
  6
Continuous
 62
     7
100
AcDbLine
 10
168.2273781296
 20
369.8635367395
 30
0.0
 11
168.120997385
 21
371.8635367395
 31
0.0
  0
LINE
  5
4CF
330
1B
100
AcDbEntity
 67
     1
  8
7_ALL_FEATURES
  6
Continuous
 62
     7
100
AcDbLine
 10
168.2273781296
 20
313.8635367395
 30
0.0
 11
168.2273781296
 21
369.8635367395
 31
0.0
  0
LINE
  5
4D0
330
1B
100
AcDbEntity
 67
     1
  8
7_ALL_FEATURES
  6
Continuous
 62
     7
100
AcDbLine
 10
168.2273781296
 20
313.8635367395
 30
0.0
 11
169.7252547149
 21
313.8635367395
 31
0.0
  0
LINE
  5
4D1
330
1B
100
AcDbEntity
 67
     1
  8
7_ALL_FEATURES
  6
Continuous
 62
     7
100
AcDbLine
 10
168.2273781296
 20
369.8635367395
 30
0.0
 11
169.7252547149
 21
369.8635367395
 31
0.0
  0
LINE
  5
4D2
330
1B
100
AcDbEntity
 67
     1
  8
7_ALL_FEATURES
  6
Continuous
 62
     7
100
AcDbLine
 10
168.120997385
 20
311.8635367395
 30
0.0
 11
168.2161998302
 21
313.6533802978
 31
0.0
  0
LINE
  5
4D3
330
1B
100
AcDbEntity
 67
     1
  8
7_ALL_FEATURES
  6
Continuous
 62
     7
100
AcDbLine
 10
168.2161998302
 20
313.6533802978
 30
0.0
 11
168.2273781296
 21
313.8635367395
 31
0.0
  0
LINE
  5
4D4
330
1B
100
AcDbEntity
 67
     1
  8
7_ALL_FEATURES
  6
Continuous
 62
     7
100
AcDbLine
 10
100.2152266658
 20
305.8635367395
 30
0.0
 11
97.6294613233
 21
305.8635367395
 31
0.0
  0
LINE
  5
4D5
330
1B
100
AcDbEntity
 67
     1
  8
7_ALL_FEATURES
  6
Continuous
 62
     7
100
AcDbLine
 10
157.8752547149
 20
366.1093301311
 30
0.0
 11
157.8752547149
 21
363.5235647886
 31
0.0
  0
LINE
  5
4D6
330
1B
100
AcDbEntity
 67
     1
  8
7_ALL_FEATURES
  6
Continuous
 62
     7
100
AcDbLine
 10
143.5352827639
 20
377.8635367395
 30
0.0
 11
146.1210481064
 21
377.8635367395
 31
0.0
  0
LINE
  5
4D7
330
1B
100
AcDbEntity
 67
     1
  8
7_ALL_FEATURES
  6
Continuous
 62
     7
100
AcDbLine
 10
85.8752547149
 20
317.617743348
 30
0.0
 11
85.8752547149
 21
320.2035086905
 31
0.0
  0
ARC
  5
4D8
330
1B
100
AcDbEntity
 67
     1
  8
7_ALL_FEATURES
  6
Continuous
 62
     7
100
AcDbCircle
 10
121.8752547149
 20
341.8635367395
 30
0.0
 40
40.0
100
AcDbArc
 50
120.0092018144
 51
149.9908188104
  0
ARC
  5
4D9
330
1B
100
AcDbEntity
 67
     1
  8
7_ALL_FEATURES
  6
Continuous
 62
     7
100
AcDbCircle
 10
121.8752547149
 20
341.8635367395
 30
0.0
 40
40.0
100
AcDbArc
 50
300.0092018144
 51
329.9908188104001
  0
LINE
  5
4DA
330
1B
100
AcDbEntity
 67
     1
  8
7_ALL_FEATURES
  6
Continuous
 62
     7
100
AcDbLine
 10
74.0252547149
 20
311.6635367395
 30
0.0
 11
74.0252547149
 21
372.0635367395
 31
0.0
  0
LINE
  5
4DB
330
1B
100
AcDbEntity
 67
     1
  8
7_ALL_FEATURES
  6
Continuous
 62
     7
100
AcDbLine
 10
75.7252547149
 20
311.6635367395
 30
0.0
 11
74.0252547149
 21
311.6635367395
 31
0.0
  0
LINE
  5
4DC
330
1B
100
AcDbEntity
 67
     1
  8
7_ALL_FEATURES
  6
Continuous
 62
     7
100
AcDbLine
 10
75.7252547149
 20
313.6635367395
 30
0.0
 11
75.7252547149
 21
311.6635367395
 31
0.0
  0
LINE
  5
4DD
330
1B
100
AcDbEntity
 67
     1
  8
7_ALL_FEATURES
  6
Continuous
 62
     7
100
AcDbLine
 10
77.7252547149
 20
313.6635367395
 30
0.0
 11
75.7252547149
 21
313.6635367395
 31
0.0
  0
LINE
  5
4DE
330
1B
100
AcDbEntity
 67
     1
  8
7_ALL_FEATURES
  6
Continuous
 62
     7
100
AcDbLine
 10
77.7252547149
 20
318.6635367395
 30
0.0
 11
77.7252547149
 21
313.6635367395
 31
0.0
  0
LINE
  5
4DF
330
1B
100
AcDbEntity
 67
     1
  8
7_ALL_FEATURES
  6
Continuous
 62
     7
100
AcDbLine
 10
75.7252547149
 20
318.6635367395
 30
0.0
 11
77.7252547149
 21
318.6635367395
 31
0.0
  0
LINE
  5
4E0
330
1B
100
AcDbEntity
 67
     1
  8
7_ALL_FEATURES
  6
Continuous
 62
     7
100
AcDbLine
 10
75.7252547149
 20
329.2635367395
 30
0.0
 11
75.7252547149
 21
318.6635367395
 31
0.0
  0
LINE
  5
4E1
330
1B
100
AcDbEntity
 67
     1
  8
7_ALL_FEATURES
  6
Continuous
 62
     7
100
AcDbLine
 10
76.4252547149
 20
329.2635367395
 30
0.0
 11
75.7252547149
 21
329.2635367395
 31
0.0
  0
LINE
  5
4E2
330
1B
100
AcDbEntity
 67
     1
  8
7_ALL_FEATURES
  6
Continuous
 62
     7
100
AcDbLine
 10
76.4252547149
 20
333.9635367395
 30
0.0
 11
76.4252547149
 21
329.2635367395
 31
0.0
  0
LINE
  5
4E3
330
1B
100
AcDbEntity
 67
     1
  8
7_ALL_FEATURES
  6
Continuous
 62
     7
100
AcDbLine
 10
75.7252547149
 20
333.9635367395
 30
0.0
 11
76.4252547149
 21
333.9635367395
 31
0.0
  0
LINE
  5
4E4
330
1B
100
AcDbEntity
 67
     1
  8
7_ALL_FEATURES
  6
Continuous
 62
     7
100
AcDbLine
 10
75.7252547149
 20
349.7635367395
 30
0.0
 11
75.7252547149
 21
333.9635367395
 31
0.0
  0
LINE
  5
4E5
330
1B
100
AcDbEntity
 67
     1
  8
7_ALL_FEATURES
  6
Continuous
 62
     7
100
AcDbLine
 10
76.4252547149
 20
349.7635367395
 30
0.0
 11
75.7252547149
 21
349.7635367395
 31
0.0
  0
LINE
  5
4E6
330
1B
100
AcDbEntity
 67
     1
  8
7_ALL_FEATURES
  6
Continuous
 62
     7
100
AcDbLine
 10
76.4252547149
 20
354.4635367395
 30
0.0
 11
76.4252547149
 21
349.7635367395
 31
0.0
  0
LINE
  5
4E7
330
1B
100
AcDbEntity
 67
     1
  8
7_ALL_FEATURES
  6
Continuous
 62
     7
100
AcDbLine
 10
75.7252547149
 20
354.4635367395
 30
0.0
 11
76.4252547149
 21
354.4635367395
 31
0.0
  0
LINE
  5
4E8
330
1B
100
AcDbEntity
 67
     1
  8
7_ALL_FEATURES
  6
Continuous
 62
     7
100
AcDbLine
 10
75.7252547149
 20
372.0635367395
 30
0.0
 11
75.7252547149
 21
354.4635367395
 31
0.0
  0
LINE
  5
4E9
330
1B
100
AcDbEntity
 67
     1
  8
7_ALL_FEATURES
  6
Continuous
 62
     7
100
AcDbLine
 10
74.0252547149
 20
372.0635367395
 30
0.0
 11
75.7252547149
 21
372.0635367395
 31
0.0
  0
LINE
  5
4EA
330
1B
100
AcDbEntity
 67
     1
  8
7_ALL_FEATURES
  6
Continuous
 62
     7
100
AcDbLine
 10
169.7252547149
 20
311.6635367395
 30
0.0
 11
168.0252547149
 21
311.6635367395
 31
0.0
  0
LINE
  5
4EB
330
1B
100
AcDbEntity
 67
     1
  8
7_ALL_FEATURES
  6
Continuous
 62
     7
100
AcDbLine
 10
169.7252547149
 20
372.0635367395
 30
0.0
 11
169.7252547149
 21
311.6635367395
 31
0.0
  0
LINE
  5
4EC
330
1B
100
AcDbEntity
 67
     1
  8
7_ALL_FEATURES
  6
Continuous
 62
     7
100
AcDbLine
 10
168.0252547149
 20
372.0635367395
 30
0.0
 11
169.7252547149
 21
372.0635367395
 31
0.0
  0
LINE
  5
4ED
330
1B
100
AcDbEntity
 67
     1
  8
7_ALL_FEATURES
  6
Continuous
 62
     7
100
AcDbLine
 10
168.0252547149
 20
318.6635367395
 30
0.0
 11
168.0252547149
 21
372.0635367395
 31
0.0
  0
LINE
  5
4EE
330
1B
100
AcDbEntity
 67
     1
  8
7_ALL_FEATURES
  6
Continuous
 62
     7
100
AcDbLine
 10
166.0252547149
 20
318.6635367395
 30
0.0
 11
168.0252547149
 21
318.6635367395
 31
0.0
  0
LINE
  5
4EF
330
1B
100
AcDbEntity
 67
     1
  8
7_ALL_FEATURES
  6
Continuous
 62
     7
100
AcDbLine
 10
166.0252547149
 20
313.6635367395
 30
0.0
 11
166.0252547149
 21
318.6635367395
 31
0.0
  0
LINE
  5
4F0
330
1B
100
AcDbEntity
 67
     1
  8
7_ALL_FEATURES
  6
Continuous
 62
     7
100
AcDbLine
 10
168.0252547149
 20
313.6635367395
 30
0.0
 11
166.0252547149
 21
313.6635367395
 31
0.0
  0
LINE
  5
4F1
330
1B
100
AcDbEntity
 67
     1
  8
7_ALL_FEATURES
  6
Continuous
 62
     7
100
AcDbLine
 10
168.0252547149
 20
311.6635367395
 30
0.0
 11
168.0252547149
 21
313.6635367395
 31
0.0
  0
LINE
  5
4F2
330
1B
100
AcDbEntity
 67
     1
  8
7_ALL_FEATURES
  6
Continuous
 62
     7
100
AcDbLine
 10
101.3752547149
 20
365.3635367395
 30
0.0
 11
142.3752547149
 21
365.3635367395
 31
0.0
  0
LINE
  5
4F3
330
1B
100
AcDbEntity
 67
     1
  8
7_ALL_FEATURES
  6
Continuous
 62
     7
100
AcDbLine
 10
98.3752547149
 20
321.3635367395
 30
0.0
 11
98.3752547149
 21
362.3635367395
 31
0.0
  0
LINE
  5
4F4
330
1B
100
AcDbEntity
 67
     1
  8
7_ALL_FEATURES
  6
Continuous
 62
     7
100
AcDbLine
 10
142.3752547149
 20
318.3635367395
 30
0.0
 11
101.3752547149
 21
318.3635367395
 31
0.0
  0
LINE
  5
4F5
330
1B
100
AcDbEntity
 67
     1
  8
7_ALL_FEATURES
  6
Continuous
 62
     7
100
AcDbLine
 10
145.3752547149
 20
362.3635367395
 30
0.0
 11
145.3752547149
 21
321.3635367395
 31
0.0
  0
ARC
  5
4F6
330
1B
100
AcDbEntity
 67
     1
  8
02___PRT_ALL_AXES
  6
Continuous
 62
     7
100
AcDbCircle
 10
144.8183121689
 20
374.6296185111
 30
0.0
 40
3.5
100
AcDbArc
 50
55.00000000000001
 51
235.0
  0
ARC
  5
4F7
330
1B
100
AcDbEntity
 67
     1
  8
02___PRT_ALL_AXES
  6
Continuous
 62
     7
100
AcDbCircle
 10
121.8752547149
 20
341.8635367395
 30
0.0
 40
36.5
100
AcDbArc
 50
35.0
 51
55.00000000000001
  0
ARC
  5
4F8
330
1B
100
AcDbEntity
 67
     1
  8
02___PRT_ALL_AXES
  6
Continuous
 62
     7
100
AcDbCircle
 10
154.6413364864
 20
364.8065941936
 30
0.0
 40
3.5
100
AcDbArc
 50
215.0
 51
35.0
  0
ARC
  5
4F9
330
1B
100
AcDbEntity
 67
     1
  8
02___PRT_ALL_AXES
  6
Continuous
 62
     7
100
AcDbCircle
 10
121.8752547149
 20
341.8635367395
 30
0.0
 40
43.5
100
AcDbArc
 50
35.0
 51
55.00000000000001
  0
ARC
  5
4FA
330
1B
100
AcDbEntity
 67
     1
  8
02___PRT_ALL_AXES
  6
Continuous
 62
     7
100
AcDbCircle
 10
154.6413364864
 20
318.9204792855
 30
0.0
 40
3.5
100
AcDbArc
 50
325.0
 51
145.0
  0
ARC
  5
4FB
330
1B
100
AcDbEntity
 67
     1
  8
02___PRT_ALL_AXES
  6
Continuous
 62
     7
100
AcDbCircle
 10
121.8752547149
 20
341.8635367395
 30
0.0
 40
36.5
100
AcDbArc
 50
305.0
 51
325.0
  0
ARC
  5
4FC
330
1B
100
AcDbEntity
 67
     1
  8
02___PRT_ALL_AXES
  6
Continuous
 62
     7
100
AcDbCircle
 10
144.8183121689
 20
309.097454968
 30
0.0
 40
3.5
100
AcDbArc
 50
125.0
 51
305.0
  0
ARC
  5
4FD
330
1B
100
AcDbEntity
 67
     1
  8
02___PRT_ALL_AXES
  6
Continuous
 62
     7
100
AcDbCircle
 10
121.8752547149
 20
341.8635367395
 30
0.0
 40
43.5
100
AcDbArc
 50
305.0
 51
325.0
  0
ARC
  5
4FE
330
1B
100
AcDbEntity
 67
     1
  8
02___PRT_ALL_AXES
  6
Continuous
 62
     7
100
AcDbCircle
 10
98.9321972608
 20
309.097454968
 30
0.0
 40
3.5
100
AcDbArc
 50
235.0
 51
55.00000000000001
  0
ARC
  5
4FF
330
1B
100
AcDbEntity
 67
     1
  8
02___PRT_ALL_AXES
  6
Continuous
 62
     7
100
AcDbCircle
 10
121.8752547149
 20
341.8635367395
 30
0.0
 40
36.5
100
AcDbArc
 50
215.0
 51
235.0
  0
ARC
  5
500
330
1B
100
AcDbEntity
 67
     1
  8
02___PRT_ALL_AXES
  6
Continuous
 62
     7
100
AcDbCircle
 10
89.1091729433
 20
318.9204792855
 30
0.0
 40
3.5
100
AcDbArc
 50
35.0
 51
215.0
  0
ARC
  5
501
330
1B
100
AcDbEntity
 67
     1
  8
02___PRT_ALL_AXES
  6
Continuous
 62
     7
100
AcDbCircle
 10
121.8752547149
 20
341.8635367395
 30
0.0
 40
43.5
100
AcDbArc
 50
215.0
 51
235.0
  0
ARC
  5
502
330
1B
100
AcDbEntity
 67
     1
  8
02___PRT_ALL_AXES
  6
Continuous
 62
     7
100
AcDbCircle
 10
89.1091729433
 20
364.8065941936
 30
0.0
 40
3.5
100
AcDbArc
 50
145.0
 51
325.0
  0
ARC
  5
503
330
1B
100
AcDbEntity
 67
     1
  8
02___PRT_ALL_AXES
  6
Continuous
 62
     7
100
AcDbCircle
 10
121.8752547149
 20
341.8635367395
 30
0.0
 40
36.5
100
AcDbArc
 50
125.0
 51
145.0
  0
ARC
  5
504
330
1B
100
AcDbEntity
 67
     1
  8
02___PRT_ALL_AXES
  6
Continuous
 62
     7
100
AcDbCircle
 10
98.9321972608
 20
374.6296185111
 30
0.0
 40
3.5
100
AcDbArc
 50
305.0
 51
125.0
  0
ARC
  5
505
330
1B
100
AcDbEntity
 67
     1
  8
02___PRT_ALL_AXES
  6
Continuous
 62
     7
100
AcDbCircle
 10
121.8752547149
 20
341.8635367395
 30
0.0
 40
43.5
100
AcDbArc
 50
125.0
 51
145.0
  0
LINE
  5
506
330
1B
100
AcDbEntity
 67
     1
  8
7_ALL_FEATURES
  6
Continuous
 62
     7
100
AcDbLine
 10
71.3752547149
 20
394.3635367395
 30
0.0
 11
69.3752547149
 21
392.3635367395
 31
0.0
  0
LINE
  5
507
330
1B
100
AcDbEntity
 67
     1
  8
7_ALL_FEATURES
  6
Continuous
 62
     7
100
AcDbLine
 10
71.3752547149
 20
394.3635367395
 30
0.0
 11
172.3752547149
 21
394.3635367395
 31
0.0
  0
LINE
  5
508
330
1B
100
AcDbEntity
 67
     1
  8
7_ALL_FEATURES
  6
Continuous
 62
     7
100
AcDbLine
 10
174.3752547149
 20
392.3635367395
 30
0.0
 11
172.3752547149
 21
394.3635367395
 31
0.0
  0
LINE
  5
509
330
1B
100
AcDbEntity
 67
     1
  8
7_ALL_FEATURES
  6
Continuous
 62
     7
100
AcDbLine
 10
174.3752547149
 20
392.3635367395
 30
0.0
 11
174.3752547149
 21
291.3635367395
 31
0.0
  0
LINE
  5
50A
330
1B
100
AcDbEntity
 67
     1
  8
7_ALL_FEATURES
  6
Continuous
 62
     7
100
AcDbLine
 10
172.3752547149
 20
289.3635367395
 30
0.0
 11
174.3752547149
 21
291.3635367395
 31
0.0
  0
LINE
  5
50B
330
1B
100
AcDbEntity
 67
     1
  8
7_ALL_FEATURES
  6
Continuous
 62
     7
100
AcDbLine
 10
172.3752547149
 20
289.3635367395
 30
0.0
 11
71.3752547149
 21
289.3635367395
 31
0.0
  0
LINE
  5
50C
330
1B
100
AcDbEntity
 67
     1
  8
7_ALL_FEATURES
  6
Continuous
 62
     7
100
AcDbLine
 10
69.3752547149
 20
291.3635367395
 30
0.0
 11
71.3752547149
 21
289.3635367395
 31
0.0
  0
LINE
  5
50D
330
1B
100
AcDbEntity
 67
     1
  8
7_ALL_FEATURES
  6
Continuous
 62
     7
100
AcDbLine
 10
69.3752547149
 20
291.3635367395
 30
0.0
 11
69.3752547149
 21
392.3635367395
 31
0.0
  0
LINE
  5
50E
330
1B
100
AcDbEntity
 67
     1
  8
7_ALL_FEATURES
  6
Continuous
 62
     7
100
AcDbLine
 10
145.3752547149
 20
321.3635367395
 30
0.0
 11
142.3752547149
 21
318.3635367395
 31
0.0
  0
LINE
  5
50F
330
1B
100
AcDbEntity
 67
     1
  8
7_ALL_FEATURES
  6
Continuous
 62
     7
100
AcDbLine
 10
142.3752547149
 20
365.3635367395
 30
0.0
 11
145.3752547149
 21
362.3635367395
 31
0.0
  0
LINE
  5
510
330
1B
100
AcDbEntity
 67
     1
  8
7_ALL_FEATURES
  6
Continuous
 62
     7
100
AcDbLine
 10
98.3752547149
 20
362.3635367395
 30
0.0
 11
101.3752547149
 21
365.3635367395
 31
0.0
  0
LINE
  5
511
330
1B
100
AcDbEntity
 67
     1
  8
7_ALL_FEATURES
  6
Continuous
 62
     7
100
AcDbLine
 10
101.3752547149
 20
318.3635367395
 30
0.0
 11
98.3752547149
 21
321.3635367395
 31
0.0
  0
DIMENSION
  5
512
330
1B
100
AcDbEntity
 67
     1
  8
0
  6
Continuous
 62
     2
100
AcDbDimension
280
     0
  2
*D1
 10
174.3752547149
 20
404.3863044425
 30
0.0
 11
122.0152960052
 21
404.3863044425
 31
0.0
 70
   160
 71
     5
 42
-1.0
 73
     0
 74
     0
 75
     0
  3
DIMSTYLE_1
100
AcDbAlignedDimension
 13
69.3752547149
 23
396.2580474745
 33
0.0
 14
174.3752547149
 24
395.7016887981
 34
0.0
100
AcDbRotatedDimension
  0
DIMENSION
  5
513
330
1B
100
AcDbEntity
 67
     1
  8
0
  6
Continuous
 62
     2
100
AcDbDimension
280
     0
  2
*D2
 10
55.7108215183
 20
289.3635367395
 30
0.0
 11
55.7108215183
 21
342.0035796431
 31
0.0
 70
   160
 71
     5
 42
-1.0
 73
     0
 74
     0
 75
     0
  3
DIMSTYLE_1
100
AcDbAlignedDimension
 13
64.6989505977
 23
394.3635367395
 33
0.0
 14
66.0898472888
 24
289.3635367395
 34
0.0
 50
270.0
100
AcDbRotatedDimension
  0
DIMENSION
  5
514
330
1B
100
AcDbEntity
 67
     1
  8
0
  6
Continuous
 62
     2
100
AcDbDimension
280
     0
  2
*D3
 10
55.386270456
 20
143.3168332978
 30
0.0
 11
55.386270456
 21
141.2443420433
 31
0.0
 70
   160
 71
     5
 42
-1.0
 73
     0
 74
     0
 75
     0
  3
DIMSTYLE_2
100
AcDbAlignedDimension
 13
67.1965468599
 23
139.3168332978
 33
0.0
 14
67.1965468599
 24
143.3168332978
 34
0.0
 50
90.0
100
AcDbRotatedDimension
  0
DIMENSION
  5
515
330
1B
100
AcDbEntity
 67
     1
  8
0
  6
Continuous
 62
     2
100
AcDbDimension
280
     0
  2
*D4
 10
55.386270456
 20
268.3168332978
 30
0.0
 11
55.386270456
 21
204.3386271701
 31
0.0
 70
   160
 71
     5
 42
-1.0
 73
     0
 74
     0
 75
     0
  3
DIMSTYLE_3
100
AcDbAlignedDimension
 13
67.1965468599
 23
143.3168332978
 33
0.0
 14
67.1965468599
 24
268.3168332978
 34
0.0
 50
90.0
100
AcDbRotatedDimension
  0
DIMENSION
  5
516
330
1B
100
AcDbEntity
 67
     1
  8
0
  6
Continuous
 62
     2
100
AcDbDimension
280
     0
  2
*D5
 10
55.386270456
 20
282.3168332978
 30
0.0
 11
55.386270456
 21
273.8299425654
 31
0.0
 70
   160
 71
     5
 42
-1.0
 73
     0
 74
     0
 75
     0
  3
DIMSTYLE_4
100
AcDbAlignedDimension
 13
67.1965468599
 23
268.3168332978
 33
0.0
 14
65.7228007185
 24
282.3168332978
 34
0.0
 50
90.0
100
AcDbRotatedDimension
  0
DIMENSION
  5
517
330
1B
100
AcDbEntity
 67
     1
  8
0
  6
Continuous
 62
     2
100
AcDbDimension
280
     0
  2
*D6
 10
191.209750706
 20
282.3168332978
 30
0.0
 11
191.209750706
 21
210.945722885
 31
0.0
 70
   160
 71
     5
 42
-1.0
 73
     0
 74
     0
 75
     0
  3
DIMSTYLE_3
100
AcDbAlignedDimension
 13
178.8950829542
 23
139.3168332978
 33
0.0
 14
177.728273096
 24
282.3168332978
 34
0.0
 50
90.0
100
AcDbRotatedDimension
  0
LINE
  5
518
330
1B
100
AcDbEntity
 67
     1
  8
0
  6
Continuous
 62
     2
100
AcDbLine
 10
458.1289266019
 20
71.011648874
 30
0.0
 11
588.1289266019
 21
71.011648874
 31
0.0
  0
LINE
  5
519
330
1B
100
AcDbEntity
 67
     1
  8
0
  6
Continuous
 62
     2
100
AcDbLine
 10
458.1289266019
 20
71.011648874
 30
0.0
 11
458.1289266019
 21
5.011648874
 31
0.0
  0
LINE
  5
51A
330
1B
100
AcDbEntity
 67
     1
  8
0
  6
Continuous
 62
     2
100
AcDbLine
 10
488.1289266019
 20
63.011648874
 30
0.0
 11
588.1289266019
 21
63.011648874
 31
0.0
  0
LINE
  5
51B
330
1B
100
AcDbEntity
 67
     1
  8
0
  6
Continuous
 62
     2
100
AcDbLine
 10
458.1289266019
 20
55.011648874
 30
0.0
 11
588.1289266019
 21
55.011648874
 31
0.0
  0
LINE
  5
51C
330
1B
100
AcDbEntity
 67
     1
  8
0
  6
Continuous
 62
     2
100
AcDbLine
 10
488.1289266019
 20
49.011648874
 30
0.0
 11
588.1289266019
 21
49.011648874
 31
0.0
  0
LINE
  5
51D
330
1B
100
AcDbEntity
 67
     1
  8
0
  6
Continuous
 62
     2
100
AcDbLine
 10
488.1289266019
 20
43.011648874
 30
0.0
 11
588.1289266019
 21
43.011648874
 31
0.0
  0
LINE
  5
51E
330
1B
100
AcDbEntity
 67
     1
  8
0
  6
Continuous
 62
     2
100
AcDbLine
 10
488.1289266019
 20
37.011648874
 30
0.0
 11
588.1289266019
 21
37.011648874
 31
0.0
  0
LINE
  5
51F
330
1B
100
AcDbEntity
 67
     1
  8
0
  6
Continuous
 62
     2
100
AcDbLine
 10
488.1289266019
 20
31.011648874
 30
0.0
 11
588.1289266019
 21
31.011648874
 31
0.0
  0
LINE
  5
520
330
1B
100
AcDbEntity
 67
     1
  8
0
  6
Continuous
 62
     2
100
AcDbLine
 10
488.1289266019
 20
25.011648874
 30
0.0
 11
588.1289266019
 21
25.011648874
 31
0.0
  0
LINE
  5
521
330
1B
100
AcDbEntity
 67
     1
  8
0
  6
Continuous
 62
     2
100
AcDbLine
 10
458.1289266019
 20
19.011648874
 30
0.0
 11
588.1289266019
 21
19.011648874
 31
0.0
  0
LINE
  5
522
330
1B
100
AcDbEntity
 67
     1
  8
0
  6
Continuous
 62
     2
100
AcDbLine
 10
458.1289266019
 20
13.011648874
 30
0.0
 11
588.1289266019
 21
13.011648874
 31
0.0
  0
LINE
  5
523
330
1B
100
AcDbEntity
 67
     1
  8
0
  6
Continuous
 62
     2
100
AcDbLine
 10
458.1289266019
 20
9.011648874
 30
0.0
 11
588.1289266019
 21
9.011648874
 31
0.0
  0
LINE
  5
524
330
1B
100
AcDbEntity
 67
     1
  8
0
  6
Continuous
 62
     2
100
AcDbLine
 10
458.1289266019
 20
5.011648874
 30
0.0
 11
588.1289266019
 21
5.011648874
 31
0.0
  0
LINE
  5
525
330
1B
100
AcDbEntity
 67
     1
  8
0
  6
Continuous
 62
     2
100
AcDbLine
 10
488.1289266019
 20
71.011648874
 30
0.0
 11
488.1289266019
 21
13.011648874
 31
0.0
  0
LINE
  5
526
330
1B
100
AcDbEntity
 67
     1
  8
0
  6
Continuous
 62
     2
100
AcDbLine
 10
508.1289266019
 20
55.011648874
 30
0.0
 11
508.1289266019
 21
49.011648874
 31
0.0
  0
LINE
  5
527
330
1B
100
AcDbEntity
 67
     1
  8
0
  6
Continuous
 62
     2
100
AcDbLine
 10
538.1289266019
 20
25.011648874
 30
0.0
 11
538.1289266019
 21
13.011648874
 31
0.0
  0
LINE
  5
528
330
1B
100
AcDbEntity
 67
     1
  8
0
  6
Continuous
 62
     2
100
AcDbLine
 10
548.1289266019
 20
55.011648874
 30
0.0
 11
548.1289266019
 21
49.011648874
 31
0.0
  0
LINE
  5
529
330
1B
100
AcDbEntity
 67
     1
  8
0
  6
Continuous
 62
     2
100
AcDbLine
 10
548.1289266019
 20
43.011648874
 30
0.0
 11
548.1289266019
 21
37.011648874
 31
0.0
  0
LINE
  5
52A
330
1B
100
AcDbEntity
 67
     1
  8
0
  6
Continuous
 62
     2
100
AcDbLine
 10
568.1289266019
 20
55.011648874
 30
0.0
 11
568.1289266019
 21
49.011648874
 31
0.0
  0
LINE
  5
52B
330
1B
100
AcDbEntity
 67
     1
  8
0
  6
Continuous
 62
     2
100
AcDbLine
 10
578.1289266019
 20
43.011648874
 30
0.0
 11
578.1289266019
 21
37.011648874
 31
0.0
  0
LINE
  5
52C
330
1B
100
AcDbEntity
 67
     1
  8
0
  6
Continuous
 62
     2
100
AcDbLine
 10
588.1289266019
 20
71.011648874
 30
0.0
 11
588.1289266019
 21
5.011648874
 31
0.0
  0
INSERT
  5
52D
330
1B
100
AcDbEntity
 67
     1
  8
0
  6
Continuous
 62
     2
100
AcDbBlockReference
  2
PROIEZIONE_EU_BL0
 10
473.1289266019
 20
62.636648874
 30
0.0
  0
MTEXT
  5
52E
330
1B
100
AcDbEntity
 67
     1
  8
9_SOLID
  6
Continuous
 62
     2
100
AcDbMText
 10
489.6164266019
 20
69.386648874
 30
0.0
 40
1.9
 41
142.3642857143
 46
0.0
 71
     1
 72
     1
  1
EN: Chamfer/radii unlisted 0.3x45°. Remove sharp edges.\PGen. tol.: hole H11, shaft h11, lenght Js12. UNI EN 22768 Medium Grande.
  7
TEXTSTYLE_3
 73
     1
 44
1.0
  0
MTEXT
  5
52F
330
1B
100
AcDbEntity
 67
     1
  8
9_SOLID
  6
Continuous
 62
     2
100
AcDbMText
 10
489.6164266019
 20
61.386648874
 30
0.0
 40
1.9
 41
148.2678571429
 46
0.0
 71
     1
 72
     1
  1
IT: Sm./rac. non quotati 0.3x45°. Eliminare spigoli taglienti.\PToll. gen.: foro H11, albero h11, lunghezza Js12. UNI EN 22768 Grado Medio.
  7
TEXTSTYLE_3
 73
     1
 44
1.0
  0
INSERT
  5
530
330
1B
100
AcDbEntity
 67
     1
  8
0
  6
Continuous
 62
     2
100
AcDbBlockReference
  2
LOGO2_BL1
 10
471.9549736467
 20
37.011648874
 30
0.0
  0
MTEXT
  5
531
330
1B
100
AcDbEntity
 67
     1
  8
9_SOLID
  6
Continuous
 62
     2
100
AcDbMText
 10
489.6164266019
 20
53.261648874
 30
0.0
 40
3.0
 41
21.6428571429
 46
0.0
 71
     1
 72
     1
  1
Pj: 3D1
  7
TEXTSTYLE_3
 73
     1
 44
1.0
  0
MTEXT
  5
532
330
1B
100
AcDbEntity
 67
     1
  8
0
  6
Continuous
 62
     2
100
AcDbMText
 10
509.6164266019
 20
53.261648874
 30
0.0
 40
3.0
 41
41.5714285714
 46
0.0
 71
     1
 72
     1
  1
% Check:  %
  7
TEXTSTYLE_3
 73
     1
 44
1.0
  0
MTEXT
  5
533
330
1B
100
AcDbEntity
 67
     1
  8
9_SOLID
  6
Continuous
 62
     2
100
AcDbMText
 10
549.6164266019
 20
53.261648874
 30
0.0
 40
3.0
 41
19.5
 46
0.0
 71
     1
 72
     1
  1
Rev:00
  7
TEXTSTYLE_3
 73
     1
 44
1.0
  0
MTEXT
  5
534
330
1B
100
AcDbEntity
 67
     1
  8
9_SOLID
  6
Continuous
 62
     2
100
AcDbMText
 10
569.6164266019
 20
53.511648874
 30
0.0
 40
3.0
 41
19.7142857143
 46
0.0
 71
     1
 72
     1
  1
Ver: A
  7
TEXTSTYLE_3
 73
     1
 44
1.0
  0
MTEXT
  5
535
330
1B
100
AcDbEntity
 67
     1
  8
9_SOLID
  6
Continuous
 62
     2
100
AcDbMText
 10
489.6164266019
 20
47.261648874
 30
0.0
 40
3.0
 41
42.9642857143
 46
0.0
 71
     1
 72
     1
  1
Neutral code: 
  7
TEXTSTYLE_3
 73
     1
 44
1.0
  0
MTEXT
  5
536
330
1B
100
AcDbEntity
 67
     1
  8
0
  6
Continuous
 62
     2
100
AcDbMText
 10
489.6164266019
 20
41.261648874
 30
0.0
 40
3.0
 41
22.9285714286
 46
0.0
 71
     1
 72
     1
  1
Code:  
  7
TEXTSTYLE_3
 73
     1
 44
1.0
  0
MTEXT
  5
537
330
1B
100
AcDbEntity
 67
     1
  8
9_SOLID
  6
Continuous
 62
     2
100
AcDbMText
 10
549.6164266019
 20
41.511648874
 30
0.0
 40
3.0
 41
27.8571428571
 46
0.0
 71
     1
 72
     1
  1
Scale: 1:1
  7
TEXTSTYLE_3
 73
     1
 44
1.0
  0
MTEXT
  5
538
330
1B
100
AcDbEntity
 67
     1
  8
9_SOLID
  6
Continuous
 62
     2
100
AcDbMText
 10
583.1289266019
 20
41.511648874
 30
0.0
 40
3.0
 41
8.25
 46
0.0
 71
     2
 72
     1
  1
A2
  7
TEXTSTYLE_3
 73
     1
 44
1.0
  0
MTEXT
  5
539
330
1B
100
AcDbEntity
 67
     1
  8
9_SOLID
  6
Continuous
 62
     2
100
AcDbMText
 10
489.6164266019
 20
35.511648874
 30
0.0
 40
3.0
 41
106.8214285714
 46
0.0
 71
     1
 72
     1
  1
It descr.: COLONNA LINEAR2 250mm
  7
TEXTSTYLE_3
 73
     1
 44
1.0
  0
MTEXT
  5
53A
330
1B
100
AcDbEntity
 67
     1
  8
0
  6
Continuous
 62
     2
100
AcDbMText
 10
489.6164266019
 20
29.511648874
 30
0.0
 40
3.0
 41
37.5
 46
0.0
 71
     1
 72
     1
  1
En descr.:  
  7
TEXTSTYLE_3
 73
     1
 44
1.0
  0
MTEXT
  5
53B
330
1B
100
AcDbEntity
 67
     1
  8
9_SOLID
  6
Continuous
 62
     2
100
AcDbMText
 10
489.6164266019
 20
23.511648874
 30
0.0
 40
3.0
 41
31.2857142857
 46
0.0
 71
     1
 72
     1
  1
Des.: S.Z.
  7
TEXTSTYLE_3
 73
     1
 44
1.0
  0
MTEXT
  5
53C
330
1B
100
AcDbEntity
 67
     1
  8
9_SOLID
  6
Continuous
 62
     2
100
AcDbMText
 10
539.6164266019
 20
23.511648874
 30
0.0
 40
3.0
 41
34.8214285714
 46
0.0
 71
     1
 72
     1
  1
Check: A.P.
  7
TEXTSTYLE_3
 73
     1
 44
1.0
  0
MTEXT
  5
53D
330
1B
100
AcDbEntity
 67
     1
  8
9_SOLID
  6
Continuous
 62
     2
100
AcDbMText
 10
459.6164266019
 20
17.511648874
 30
0.0
 40
3.0
 41
41.5714285714
 46
0.0
 71
     1
 72
     1
  1
Date: 11.12.18
  7
TEXTSTYLE_3
 73
     1
 44
1.0
  0
MTEXT
  5
53E
330
1B
100
AcDbEntity
 67
     1
  8
0
  6
Continuous
 62
     2
100
AcDbMText
 10
489.6164266019
 20
17.511648874
 30
0.0
 40
3.0
 41
21.75
 46
0.0
 71
     1
 72
     1
  1
Mat.:  
  7
TEXTSTYLE_3
 73
     1
 44
1.0
  0
MTEXT
  5
53F
330
1B
100
AcDbEntity
 67
     1
  8
9_SOLID
  6
Continuous
 62
     2
100
AcDbMText
 10
539.6164266019
 20
17.011648874
 30
0.0
 40
2.0
 41
42.3571428571
 46
0.0
 71
     1
 72
     1
  1
Disegno per catalogo
  7
TEXTSTYLE_3
 73
     1
 44
1.0
  0
MTEXT
  5
540
330
1B
100
AcDbEntity
 67
     1
  8
9_SOLID
  6
Continuous
 62
     2
100
AcDbMText
 10
459.6164266019
 20
11.911648874
 30
0.0
 40
1.8
 41
176.2071428571
 46
0.0
 71
     1
 72
     1
  1
It: A norma di legge si diffida da qualsiasi riproduzione senza nostra autorizzazione esplicita.
  7
TEXTSTYLE_3
 73
     1
 44
1.0
  0
MTEXT
  5
541
330
1B
100
AcDbEntity
 67
     1
  8
9_SOLID
  6
Continuous
 62
     2
100
AcDbMText
 10
459.6164266019
 20
7.911648874
 30
0.0
 40
1.8
 41
158.1428571429
 46
0.0
 71
     1
 72
     1
  1
En: According to the law, beware of any reproduction made without our authorization.
  7
TEXTSTYLE_3
 73
     1
 44
1.0
  0
ENDSEC
  0
SECTION
  2
OBJECTS
  0
DICTIONARY
  5
542
330
0
100
AcDbDictionary
281
     1
  3
ACAD_DETAILVIEWSTYLE
350
598
  3
ACAD_GROUP
350
543
  3
ACAD_LAYOUT
350
56B
  3
ACAD_MATERIAL
350
587
  3
ACAD_MLEADERSTYLE
350
58D
  3
ACAD_MLINESTYLE
350
544
  3
ACAD_PLOTSETTINGS
350
546
  3
ACAD_PLOTSTYLENAME
350
547
  3
ACAD_SCALELIST
350
549
  3
ACAD_SECTIONVIEWSTYLE
350
599
  3
ACAD_TABLESTYLE
350
58B
  3
ACAD_VISUALSTYLE
350
56E
  3
ACDB_RECOMPOSE_DATA
350
594
  3
AcDbVariableDictionary
350
590
  3
APPDATA
350
58F
  0
DICTIONARY
  5
598
102
{ACAD_REACTORS
330
542
102
}
330
542
100
AcDbDictionary
281
     1
  0
DICTIONARY
  5
543
102
{ACAD_REACTORS
330
542
102
}
330
542
100
AcDbDictionary
281
     1
  0
DICTIONARY
  5
56B
102
{ACAD_REACTORS
330
542
102
}
330
542
100
AcDbDictionary
281
     1
  3
Foglio 1
350
56D
  3
Model
350
56C
  0
DICTIONARY
  5
587
102
{ACAD_REACTORS
330
542
102
}
330
542
100
AcDbDictionary
281
     1
  3
ByBlock
350
589
  3
ByLayer
350
588
  3
Global
350
58A
  0
DICTIONARY
  5
58D
102
{ACAD_REACTORS
330
542
102
}
330
542
100
AcDbDictionary
281
     1
  3
Standard
350
58E
  0
DICTIONARY
  5
544
102
{ACAD_REACTORS
330
542
102
}
330
542
100
AcDbDictionary
281
     1
  3
STANDARD
350
545
  0
DICTIONARY
  5
546
102
{ACAD_REACTORS
330
542
102
}
330
542
100
AcDbDictionary
281
     1
  0
ACDBDICTIONARYWDFLT
  5
547
102
{ACAD_REACTORS
330
542
102
}
330
542
100
AcDbDictionary
281
     1
  3
Normal
350
548
100
AcDbDictionaryWithDefault
340
548
  0
DICTIONARY
  5
549
102
{ACAD_REACTORS
330
542
102
}
330
542
100
AcDbDictionary
281
     1
  3
A0
350
54A
  3
A1
350
54B
  3
A2
350
54C
  3
A3
350
54D
  3
A4
350
54E
  3
A5
350
54F
  3
A6
350
550
  3
A7
350
551
  3
A8
350
552
  3
A9
350
553
  3
B0
350
554
  3
B1
350
555
  3
B2
350
556
  3
B3
350
557
  3
B4
350
558
  3
B5
350
559
  3
B6
350
55A
  3
B7
350
55B
  3
B8
350
55C
  3
B9
350
55D
  3
C0
350
55E
  3
C1
350
55F
  3
C2
350
560
  3
C3
350
561
  3
C4
350
562
  3
C5
350
563
  3
C6
350
564
  3
C7
350
565
  3
C8
350
566
  3
C9
350
567
  3
D0
350
568
  3
D1
350
569
  3
D2
350
56A
  0
DICTIONARY
  5
599
102
{ACAD_REACTORS
330
542
102
}
330
542
100
AcDbDictionary
281
     1
  0
DICTIONARY
  5
58B
102
{ACAD_REACTORS
330
542
102
}
330
542
100
AcDbDictionary
281
     1
  3
Standard
350
58C
  0
DICTIONARY
  5
56E
102
{ACAD_REACTORS
330
542
102
}
330
542
100
AcDbDictionary
281
     1
  3
2dWireframe
350
573
  3
Basic
350
576
  3
Brighten
350
57A
  3
ColorChange
350
57E
  3
Conceptual
350
578
  3
Dim
350
579
  3
EdgeColorOff
350
581
  3
Facepattern
350
57D
  3
Flat
350
56F
  3
FlatWithEdges
350
570
  3
Gouraud
350
571
  3
GouraudWithEdges
350
572
  3
Hidden
350
575
  3
JitterOff
350
57F
  3
Linepattern
350
57C
  3
OverhangOff
350
580
  3
Realistic
350
577
  3
Shaded
350
586
  3
Shaded with edges
350
585
  3
Shades of Gray
350
582
  3
Sketchy
350
583
  3
Thicken
350
57B
  3
Wireframe
350
574
  3
X-Ray
350
584
  0
XRECORD
  5
594
102
{ACAD_REACTORS
330
542
102
}
330
542
100
AcDbXrecord
280
     1
 90
        1
330
58C
  0
DICTIONARY
  5
590
102
{ACAD_REACTORS
330
542
102
}
330
542
100
AcDbDictionary
281
     1
  3
CANNOSCALE
350
591
  3
CMLEADERSTYLE
350
596
  3
CTABLESTYLE
350
595
  3
MSLTSCALE
350
597
  0
DICTIONARY
  5
58F
102
{ACAD_REACTORS
330
542
102
}
330
542
100
AcDbDictionary
281
     1
  0
LAYOUT
  5
56D
102
{ACAD_REACTORS
330
56B
102
}
330
56B
100
AcDbPlotSettings
  1

  2
none_device
  4
ISO_A3_(420.00_x_297.00_MM)
  6

 40
7.5
 41
20.0
 42
7.5
 43
20.0
 44
420.0
 45
297.0
 46
0.0
 47
0.0
 48
0.0
 49
0.0
140
0.0
141
0.0
142
1.0
143
1.634241245136187
 70
   688
 72
     1
 73
     0
 74
     1
  7

 75
     0
 76
     0
 77
     2
 78
   300
147
0.611904761904762
148
0.0
149
0.0
100
AcDbLayout
  1
Foglio 1
 70
     1
 71
     1
 10
0.0
 20
0.0
 11
412.5
 21
277.0
 12
0.0
 22
0.0
 32
0.0
 14
0.0
 24
0.0
 34
0.0
 15
595.6680932685667
 25
420.0
 35
0.0
146
0.0
 13
0.0
 23
0.0
 33
0.0
 16
1.0
 26
0.0
 36
0.0
 17
0.0
 27
1.0
 37
0.0
 76
     0
330
1B
331
2B6
  0
LAYOUT
  5
56C
102
{ACAD_REACTORS
330
56B
102
}
330
56B
100
AcDbPlotSettings
  1

  2
none_device
  4
Letter_(8.50_x_11.00_Inches)
  6

 40
6.35
 41
6.35
 42
6.35
 43
6.35
 44
215.9
 45
279.4
 46
0.0
 47
0.0
 48
0.0
 49
0.0
140
0.0
141
0.0
142
1.0
143
74.25000000075
 70
  1712
 72
     0
 73
     0
 74
     0
  7

 75
     0
 76
     0
 77
     2
 78
   300
147
0.0134680134678774
148
0.000000076200638
149
0.0
100
AcDbLayout
  1
Model
 70
     1
 71
     0
 10
0.0
 20
0.0
 11
594.0
 21
420.0
 12
0.0
 22
0.0
 32
0.0
 14
0.0
 24
0.0
 34
0.0
 15
594.0
 25
420.0
 35
0.0
146
0.0
 13
0.0
 23
0.0
 33
0.0
 16
1.0
 26
0.0
 36
0.0
 17
0.0
 27
1.0
 37
0.0
 76
     0
330
1F
331
1F4
  0
MATERIAL
  5
589
102
{ACAD_REACTORS
330
587
102
}
330
587
100
AcDbMaterial
  1
ByBlock
 72
     1
 94
      127
  0
MATERIAL
  5
588
102
{ACAD_REACTORS
330
587
102
}
330
587
100
AcDbMaterial
  1
ByLayer
 72
     1
 94
      127
  0
MATERIAL
  5
58A
102
{ACAD_REACTORS
330
587
102
}
330
587
100
AcDbMaterial
  1
Global
 72
     1
 94
      127
  0
MLEADERSTYLE
  5
58E
102
{ACAD_REACTORS
330
58D
102
}
330
58D
100
AcDbMLeaderStyle
179
     2
170
     2
171
     1
172
     0
 90
        2
 40
0.0
 41
0.0
173
     1
 91
-1056964608
340
14
 92
       -2
290
     1
 42
2.0
291
     1
 43
8.0
  3
Standard
341
0
 44
4.0
300

342
11
174
     1
178
     1
175
     1
176
     0
 93
-1056964608
 45
4.0
292
     0
297
     0
 46
4.0
343
0
 94
-1056964608
 47
1.0
 49
1.0
140
1.0
293
     1
141
0.0
294
     1
177
     0
142
1.0
295
     0
296
     0
143
3.75
271
     0
272
     9
273
     9
298
     0
  0
MLINESTYLE
  5
545
102
{ACAD_REACTORS
330
544
102
}
330
544
100
AcDbMlineStyle
  2
STANDARD
 70
     0
  3

 62
   256
 51
90.0
 52
90.0
 71
     2
 49
0.5
 62
   256
  6
BYLAYER
 49
-0.5
 62
   256
  6
BYLAYER
  0
ACDBPLACEHOLDER
  5
548
102
{ACAD_REACTORS
330
547
102
}
330
547
  0
SCALE
  5
54A
102
{ACAD_REACTORS
330
549
102
}
330
549
100
AcDbScale
 70
     0
300
1:1
140
1.0
141
1.0
290
     1
  0
SCALE
  5
54B
102
{ACAD_REACTORS
330
549
102
}
330
549
100
AcDbScale
 70
     0
300
1:2
140
1.0
141
2.0
290
     0
  0
SCALE
  5
54C
102
{ACAD_REACTORS
330
549
102
}
330
549
100
AcDbScale
 70
     0
300
1:4
140
1.0
141
4.0
290
     0
  0
SCALE
  5
54D
102
{ACAD_REACTORS
330
549
102
}
330
549
100
AcDbScale
 70
     0
300
1:5
140
1.0
141
5.0
290
     0
  0
SCALE
  5
54E
102
{ACAD_REACTORS
330
549
102
}
330
549
100
AcDbScale
 70
     0
300
1:8
140
1.0
141
8.0
290
     0
  0
SCALE
  5
54F
102
{ACAD_REACTORS
330
549
102
}
330
549
100
AcDbScale
 70
     0
300
1:10
140
1.0
141
10.0
290
     0
  0
SCALE
  5
550
102
{ACAD_REACTORS
330
549
102
}
330
549
100
AcDbScale
 70
     0
300
1:16
140
1.0
141
16.0
290
     0
  0
SCALE
  5
551
102
{ACAD_REACTORS
330
549
102
}
330
549
100
AcDbScale
 70
     0
300
1:20
140
1.0
141
20.0
290
     0
  0
SCALE
  5
552
102
{ACAD_REACTORS
330
549
102
}
330
549
100
AcDbScale
 70
     0
300
1:30
140
1.0
141
30.0
290
     0
  0
SCALE
  5
553
102
{ACAD_REACTORS
330
549
102
}
330
549
100
AcDbScale
 70
     0
300
1:40
140
1.0
141
40.0
290
     0
  0
SCALE
  5
554
102
{ACAD_REACTORS
330
549
102
}
330
549
100
AcDbScale
 70
     0
300
1:50
140
1.0
141
50.0
290
     0
  0
SCALE
  5
555
102
{ACAD_REACTORS
330
549
102
}
330
549
100
AcDbScale
 70
     0
300
1:100
140
1.0
141
100.0
290
     0
  0
SCALE
  5
556
102
{ACAD_REACTORS
330
549
102
}
330
549
100
AcDbScale
 70
     0
300
2:1
140
2.0
141
1.0
290
     0
  0
SCALE
  5
557
102
{ACAD_REACTORS
330
549
102
}
330
549
100
AcDbScale
 70
     0
300
4:1
140
4.0
141
1.0
290
     0
  0
SCALE
  5
558
102
{ACAD_REACTORS
330
549
102
}
330
549
100
AcDbScale
 70
     0
300
8:1
140
8.0
141
1.0
290
     0
  0
SCALE
  5
559
102
{ACAD_REACTORS
330
549
102
}
330
549
100
AcDbScale
 70
     0
300
10:1
140
10.0
141
1.0
290
     0
  0
SCALE
  5
55A
102
{ACAD_REACTORS
330
549
102
}
330
549
100
AcDbScale
 70
     0
300
100:1
140
100.0
141
1.0
290
     0
  0
SCALE
  5
55B
102
{ACAD_REACTORS
330
549
102
}
330
549
100
AcDbScale
 70
     0
300
1/128" = 1'-0"
140
0.0078125
141
12.0
290
     0
  0
SCALE
  5
55C
102
{ACAD_REACTORS
330
549
102
}
330
549
100
AcDbScale
 70
     0
300
1/64" = 1'-0"
140
0.015625
141
12.0
290
     0
  0
SCALE
  5
55D
102
{ACAD_REACTORS
330
549
102
}
330
549
100
AcDbScale
 70
     0
300
1/32" = 1'-0"
140
0.03125
141
12.0
290
     0
  0
SCALE
  5
55E
102
{ACAD_REACTORS
330
549
102
}
330
549
100
AcDbScale
 70
     0
300
1/16" = 1'-0"
140
0.0625
141
12.0
290
     0
  0
SCALE
  5
55F
102
{ACAD_REACTORS
330
549
102
}
330
549
100
AcDbScale
 70
     0
300
3/32" = 1'-0"
140
0.09375
141
12.0
290
     0
  0
SCALE
  5
560
102
{ACAD_REACTORS
330
549
102
}
330
549
100
AcDbScale
 70
     0
300
1/8" = 1'-0"
140
0.125
141
12.0
290
     0
  0
SCALE
  5
561
102
{ACAD_REACTORS
330
549
102
}
330
549
100
AcDbScale
 70
     0
300
3/16" = 1'-0"
140
0.1875
141
12.0
290
     0
  0
SCALE
  5
562
102
{ACAD_REACTORS
330
549
102
}
330
549
100
AcDbScale
 70
     0
300
1/4" = 1'-0"
140
0.25
141
12.0
290
     0
  0
SCALE
  5
563
102
{ACAD_REACTORS
330
549
102
}
330
549
100
AcDbScale
 70
     0
300
3/8" = 1'-0"
140
0.375
141
12.0
290
     0
  0
SCALE
  5
564
102
{ACAD_REACTORS
330
549
102
}
330
549
100
AcDbScale
 70
     0
300
1/2" = 1'-0"
140
0.5
141
12.0
290
     0
  0
SCALE
  5
565
102
{ACAD_REACTORS
330
549
102
}
330
549
100
AcDbScale
 70
     0
300
3/4" = 1'-0"
140
0.75
141
12.0
290
     0
  0
SCALE
  5
566
102
{ACAD_REACTORS
330
549
102
}
330
549
100
AcDbScale
 70
     0
300
1" = 1'-0"
140
1.0
141
12.0
290
     0
  0
SCALE
  5
567
102
{ACAD_REACTORS
330
549
102
}
330
549
100
AcDbScale
 70
     0
300
1-1/2" = 1'-0"
140
1.5
141
12.0
290
     0
  0
SCALE
  5
568
102
{ACAD_REACTORS
330
549
102
}
330
549
100
AcDbScale
 70
     0
300
3" = 1'-0"
140
3.0
141
12.0
290
     0
  0
SCALE
  5
569
102
{ACAD_REACTORS
330
549
102
}
330
549
100
AcDbScale
 70
     0
300
6" = 1'-0"
140
6.0
141
12.0
290
     0
  0
SCALE
  5
56A
102
{ACAD_REACTORS
330
549
102
}
330
549
100
AcDbScale
 70
     0
300
1'-0" = 1'-0"
140
12.0
141
12.0
290
     0
  0
TABLESTYLE
  5
58C
102
{ACAD_REACTORS
330
58B
102
}
102
{ACAD_XDICTIONARY
360
592
102
}
330
58B
100
AcDbTableStyle
  3
Standard
 70
     0
 71
     0
 40
0.06
 41
0.06
280
     0
281
     0
  7
STANDARD
140
4.5
170
     2
 62
     0
 63
   257
283
     0
 90
        4
 91
        0
  1

274
    -2
284
     1
 64
     0
275
    -2
285
     1
 65
     0
276
    -2
286
     1
 66
     0
277
    -2
287
     1
 67
     0
278
    -2
288
     1
 68
     0
279
    -2
289
     1
 69
     0
  7
STANDARD
140
6.0
170
     5
 62
     0
 63
   257
283
     0
 90
        4
 91
        0
  1

274
    -2
284
     1
 64
     0
275
    -2
285
     1
 65
     0
276
    -2
286
     1
 66
     0
277
    -2
287
     1
 67
     0
278
    -2
288
     1
 68
     0
279
    -2
289
     1
 69
     0
  7
STANDARD
140
4.5
170
     5
 62
     0
 63
   257
283
     0
 90
        4
 91
        0
  1

274
    -2
284
     1
 64
     0
275
    -2
285
     1
 65
     0
276
    -2
286
     1
 66
     0
277
    -2
287
     1
 67
     0
278
    -2
288
     1
 68
     0
279
    -2
289
     1
 69
     0
  0
VISUALSTYLE
  5
573
102
{ACAD_REACTORS
330
56E
102
}
330
56E
100
AcDbVisualStyle
  2
2dWireframe
 70
     4
177
     3
291
     0
 70
    58
 90
        0
176
     1
 90
        2
176
     1
 90
        0
176
     1
 90
        0
176
     1
 40
0.6
176
     1
 40
30.0
176
     1
 62
     7
420
 16777215
176
     1
 90
        1
176
     1
 90
        4
176
     1
 62
     7
176
     1
 62
   257
176
     1
 90
        1
176
     1
 90
        1
176
     1
 40
1.0
176
     1
 90
        0
176
     1
 62
   257
176
     1
 40
1.0
176
     1
 90
        1
176
     1
 90
        6
176
     1
 90
        2
176
     1
 62
     7
176
     1
 90
        5
176
     1
 90
        0
176
     1
 90
        0
176
     1
290
     0
176
     1
 90
        1
176
     1
 40
0.0
176
     1
 90
        0
176
     1
290
     1
176
     1
290
     1
176
     1
290
     0
176
     1
290
     0
176
     1
290
     0
176
     1
290
     0
176
     1
290
     0
176
     1
290
     0
176
     1
290
     0
176
     1
 90
       50
176
     1
 40
0.0
176
     1
 40
1.0
176
     1
 90
        0
176
     1
 62
    18
420
        0
176
     1
 90
       50
176
     1
 90
        3
176
     1
 62
     5
420
      255
176
     1
290
     0
176
     1
 90
       50
176
     1
 90
       50
176
     1
 90
       50
176
     1
290
     0
176
     1
 90
       50
176
     1
 62
   256
176
     0
 40
1.0
176
     0
 90
        2
176
     1
  1
strokes_ogs.tif
176
     1
290
     0
176
     1
 40
1.0
176
     1
 40
1.0
176
     1
  0
VISUALSTYLE
  5
576
102
{ACAD_REACTORS
330
56E
102
}
330
56E
100
AcDbVisualStyle
  2
Basic
 70
     7
177
     3
291
     1
 70
    58
 90
        1
176
     1
 90
        0
176
     1
 90
        1
176
     1
 90
        0
176
     1
 40
0.6
176
     1
 40
30.0
176
     1
 62
     7
420
 16777215
176
     1
 90
        0
176
     1
 90
        4
176
     1
 62
     7
176
     1
 62
   257
176
     1
 90
        1
176
     1
 90
        1
176
     1
 40
1.0
176
     1
 90
        8
176
     1
 62
     7
176
     1
 40
1.0
176
     1
 90
        1
176
     1
 90
        6
176
     1
 90
        2
176
     1
 62
     7
176
     1
 90
        5
176
     1
 90
        0
176
     1
 90
        0
176
     1
290
     0
176
     1
 90
        1
176
     1
 40
0.0
176
     1
 90
        0
176
     1
290
     0
176
     1
290
     1
176
     1
290
     1
176
     1
290
     0
176
     1
290
     0
176
     1
290
     0
176
     1
290
     0
176
     1
290
     0
176
     1
290
     0
176
     1
 90
       50
176
     1
 40
0.0
176
     1
 40
1.0
176
     1
 90
        0
176
     1
 62
    18
420
        0
176
     1
 90
       50
176
     1
 90
        3
176
     1
 62
     5
420
      255
176
     1
290
     0
176
     1
 90
       50
176
     1
 90
       50
176
     1
 90
       50
176
     1
290
     0
176
     1
 90
       50
176
     1
 62
   256
176
     0
 40
1.0
176
     0
 90
        2
176
     1
  1
strokes_ogs.tif
176
     1
290
     0
176
     1
 40
1.0
176
     1
 40
1.0
176
     1
  0
VISUALSTYLE
  5
57A
102
{ACAD_REACTORS
330
56E
102
}
330
56E
100
AcDbVisualStyle
  2
Brighten
 70
    12
177
     3
291
     1
 70
    58
 90
        2
176
     1
 90
        2
176
     1
 90
        0
176
     1
 90
        0
176
     1
 40
0.6
176
     1
 40
30.0
176
     1
 62
     7
420
 16777215
176
     1
 90
        1
176
     1
 90
        4
176
     1
 62
     7
176
     1
 62
   257
176
     1
 90
        1
176
     1
 90
        1
176
     1
 40
1.0
176
     1
 90
        8
176
     1
 62
     7
176
     1
 40
1.0
176
     1
 90
        1
176
     1
 90
        6
176
     1
 90
        2
176
     1
 62
     7
176
     1
 90
        5
176
     1
 90
        0
176
     1
 90
        0
176
     1
290
     0
176
     1
 90
        1
176
     1
 40
50.0
176
     1
 90
        0
176
     1
290
     0
176
     1
290
     1
176
     1
290
     1
176
     1
290
     0
176
     1
290
     0
176
     1
290
     0
176
     1
290
     0
176
     1
290
     0
176
     1
290
     0
176
     1
 90
       50
176
     1
 40
0.0
176
     1
 40
1.0
176
     1
 90
        0
176
     1
 62
    18
420
        0
176
     1
 90
       50
176
     1
 90
        3
176
     1
 62
     5
420
      255
176
     1
290
     0
176
     1
 90
       50
176
     1
 90
       50
176
     1
 90
       50
176
     1
290
     0
176
     1
 90
       50
176
     1
 62
   256
176
     0
 40
1.0
176
     0
 90
        2
176
     1
  1
strokes_ogs.tif
176
     1
290
     0
176
     1
 40
1.0
176
     1
 40
1.0
176
     1
  0
VISUALSTYLE
  5
57E
102
{ACAD_REACTORS
330
56E
102
}
330
56E
100
AcDbVisualStyle
  2
ColorChange
 70
    16
177
     3
291
     1
 70
    58
 90
        2
176
     1
 90
        2
176
     1
 90
        3
176
     1
 90
        0
176
     1
 40
0.6
176
     1
 40
30.0
176
     1
 62
     8
420
  8421504
176
     1
 90
        1
176
     1
 90
        4
176
     1
 62
     7
176
     1
 62
   257
176
     1
 90
        1
176
     1
 90
        1
176
     1
 40
1.0
176
     1
 90
        8
176
     1
 62
     8
420
  8421504
176
     1
 40
1.0
176
     1
 90
        1
176
     1
 90
        6
176
     1
 90
        2
176
     1
 62
     7
176
     1
 90
        5
176
     1
 90
        0
176
     1
 90
        0
176
     1
290
     0
176
     1
 90
        1
176
     1
 40
0.0
176
     1
 90
        0
176
     1
290
     0
176
     1
290
     1
176
     1
290
     1
176
     1
290
     0
176
     1
290
     0
176
     1
290
     0
176
     1
290
     0
176
     1
290
     0
176
     1
290
     0
176
     1
 90
       50
176
     1
 40
0.0
176
     1
 40
1.0
176
     1
 90
        0
176
     1
 62
    18
420
        0
176
     1
 90
       50
176
     1
 90
        3
176
     1
 62
     5
420
      255
176
     1
290
     0
176
     1
 90
       50
176
     1
 90
       50
176
     1
 90
       50
176
     1
290
     0
176
     1
 90
       50
176
     1
 62
   256
176
     0
 40
1.0
176
     0
 90
        2
176
     1
  1
strokes_ogs.tif
176
     1
290
     0
176
     1
 40
1.0
176
     1
 40
1.0
176
     1
  0
VISUALSTYLE
  5
578
102
{ACAD_REACTORS
330
56E
102
}
330
56E
100
AcDbVisualStyle
  2
Conceptual
 70
     9
177
     3
291
     0
 70
    58
 90
        3
176
     1
 90
        2
176
     1
 90
        0
176
     1
 90
        0
176
     1
 40
0.6
176
     1
 40
30.0
176
     1
 62
     7
420
 16777215
176
     1
 90
        2
176
     1
 90
        2
176
     1
 62
     7
176
     1
 62
   257
176
     1
 90
        1
176
     1
 90
        1
176
     1
 40
179.0
176
     1
 90
        8
176
     1
 62
     7
176
     1
 40
1.0
176
     1
 90
        1
176
     1
 90
        6
176
     1
 90
        2
176
     1
 62
     7
176
     1
 90
        3
176
     1
 90
        0
176
     1
 90
        0
176
     1
290
     0
176
     1
 90
        1
176
     1
 40
0.0
176
     1
 90
        0
176
     1
290
     0
176
     1
290
     1
176
     1
290
     1
176
     1
290
     0
176
     1
290
     0
176
     1
290
     0
176
     1
290
     0
176
     1
290
     0
176
     1
290
     0
176
     1
 90
       50
176
     1
 40
0.0
176
     1
 40
1.0
176
     1
 90
        0
176
     1
 62
    18
420
        0
176
     1
 90
       50
176
     1
 90
        3
176
     1
 62
     5
420
      255
176
     1
290
     0
176
     1
 90
       50
176
     1
 90
       50
176
     1
 90
       50
176
     1
290
     0
176
     1
 90
       50
176
     1
 62
   256
176
     0
 40
1.0
176
     0
 90
        2
176
     1
  1
strokes_ogs.tif
176
     1
290
     0
176
     1
 40
1.0
176
     1
 40
1.0
176
     1
  0
VISUALSTYLE
  5
579
102
{ACAD_REACTORS
330
56E
102
}
330
56E
100
AcDbVisualStyle
  2
Dim
 70
    11
177
     3
291
     1
 70
    58
 90
        2
176
     1
 90
        2
176
     1
 90
        0
176
     1
 90
        0
176
     1
 40
0.6
176
     1
 40
30.0
176
     1
 62
     7
420
 16777215
176
     1
 90
        1
176
     1
 90
        4
176
     1
 62
     7
176
     1
 62
   257
176
     1
 90
        1
176
     1
 90
        1
176
     1
 40
1.0
176
     1
 90
        8
176
     1
 62
     7
176
     1
 40
1.0
176
     1
 90
        1
176
     1
 90
        6
176
     1
 90
        2
176
     1
 62
     7
176
     1
 90
        5
176
     1
 90
        0
176
     1
 90
        0
176
     1
290
     0
176
     1
 90
        1
176
     1
 40
-50.0
176
     1
 90
        0
176
     1
290
     0
176
     1
290
     1
176
     1
290
     1
176
     1
290
     0
176
     1
290
     0
176
     1
290
     0
176
     1
290
     0
176
     1
290
     0
176
     1
290
     0
176
     1
 90
       50
176
     1
 40
0.0
176
     1
 40
1.0
176
     1
 90
        0
176
     1
 62
    18
420
        0
176
     1
 90
       50
176
     1
 90
        3
176
     1
 62
     5
420
      255
176
     1
290
     0
176
     1
 90
       50
176
     1
 90
       50
176
     1
 90
       50
176
     1
290
     0
176
     1
 90
       50
176
     1
 62
   256
176
     0
 40
1.0
176
     0
 90
        2
176
     1
  1
strokes_ogs.tif
176
     1
290
     0
176
     1
 40
1.0
176
     1
 40
1.0
176
     1
  0
VISUALSTYLE
  5
581
102
{ACAD_REACTORS
330
56E
102
}
330
56E
100
AcDbVisualStyle
  2
EdgeColorOff
 70
    22
177
     3
291
     1
 70
    58
 90
        2
176
     0
 90
        2
176
     0
 90
        0
176
     0
 90
        0
176
     0
 40
0.6
176
     0
 40
30.0
176
     0
 62
     7
420
 16777215
176
     0
 90
        1
176
     0
 90
        4
176
     0
 62
     7
176
     0
 62
   257
176
     0
 90
        1
176
     0
 90
        1
176
     0
 40
1.0
176
     0
 90
        8
176
     2
 62
     7
176
     0
 40
1.0
176
     0
 90
        1
176
     0
 90
        6
176
     0
 90
        2
176
     0
 62
     7
176
     0
 90
        5
176
     0
 90
        0
176
     0
 90
        0
176
     0
290
     0
176
     0
 90
        1
176
     0
 40
0.0
176
     0
 90
        0
176
     0
290
     0
176
     0
290
     1
176
     0
290
     1
176
     0
290
     0
176
     0
290
     0
176
     0
290
     0
176
     0
290
     0
176
     0
290
     0
176
     0
290
     0
176
     0
 90
       50
176
     0
 40
0.0
176
     0
 40
1.0
176
     0
 90
        0
176
     0
 62
    18
420
        0
176
     0
 90
       50
176
     0
 90
        3
176
     0
 62
     5
420
      255
176
     0
290
     0
176
     0
 90
       50
176
     0
 90
       50
176
     0
 90
       50
176
     0
290
     0
176
     0
 90
       50
176
     0
 62
   256
176
     0
 40
1.0
176
     0
 90
        2
176
     0
  1
strokes_ogs.tif
176
     0
290
     0
176
     0
 40
1.0
176
     0
 40
1.0
176
     0
  0
VISUALSTYLE
  5
57D
102
{ACAD_REACTORS
330
56E
102
}
330
56E
100
AcDbVisualStyle
  2
Facepattern
 70
    15
177
     3
291
     1
 70
    58
 90
        2
176
     1
 90
        2
176
     1
 90
        0
176
     1
 90
        0
176
     1
 40
0.6
176
     1
 40
30.0
176
     1
 62
     7
420
 16777215
176
     1
 90
        1
176
     1
 90
        4
176
     1
 62
     7
176
     1
 62
   257
176
     1
 90
        1
176
     1
 90
        1
176
     1
 40
1.0
176
     1
 90
        8
176
     1
 62
     7
176
     1
 40
1.0
176
     1
 90
        1
176
     1
 90
        6
176
     1
 90
        2
176
     1
 62
     7
176
     1
 90
        5
176
     1
 90
        0
176
     1
 90
        0
176
     1
290
     0
176
     1
 90
        1
176
     1
 40
0.0
176
     1
 90
        0
176
     1
290
     0
176
     1
290
     1
176
     1
290
     1
176
     1
290
     0
176
     1
290
     0
176
     1
290
     0
176
     1
290
     0
176
     1
290
     0
176
     1
290
     0
176
     1
 90
       50
176
     1
 40
0.0
176
     1
 40
1.0
176
     1
 90
        0
176
     1
 62
    18
420
        0
176
     1
 90
       50
176
     1
 90
        3
176
     1
 62
     5
420
      255
176
     1
290
     0
176
     1
 90
       50
176
     1
 90
       50
176
     1
 90
       50
176
     1
290
     0
176
     1
 90
       50
176
     1
 62
   256
176
     0
 40
1.0
176
     0
 90
        2
176
     1
  1
strokes_ogs.tif
176
     1
290
     0
176
     1
 40
1.0
176
     1
 40
1.0
176
     1
  0
VISUALSTYLE
  5
56F
102
{ACAD_REACTORS
330
56E
102
}
330
56E
100
AcDbVisualStyle
  2
Flat
 70
     0
177
     3
291
     1
 70
    58
 90
        2
176
     1
 90
        1
176
     1
 90
        1
176
     1
 90
        2
176
     1
 40
0.6
176
     1
 40
30.0
176
     1
 62
     7
420
 16777215
176
     1
 90
        0
176
     1
 90
        0
176
     1
 62
     7
176
     1
 62
   257
176
     1
 90
        1
176
     1
 90
        1
176
     1
 40
1.0
176
     1
 90
        8
176
     1
 62
     7
176
     1
 40
1.0
176
     1
 90
        1
176
     1
 90
        6
176
     1
 90
        2
176
     1
 62
     7
176
     1
 90
        5
176
     1
 90
        0
176
     1
 90
        0
176
     1
290
     0
176
     1
 90
       13
176
     1
 40
0.0
176
     1
 90
        0
176
     1
290
     0
176
     1
290
     1
176
     1
290
     1
176
     1
290
     0
176
     1
290
     0
176
     1
290
     0
176
     1
290
     0
176
     1
290
     0
176
     1
290
     0
176
     1
 90
       50
176
     1
 40
0.0
176
     1
 40
1.0
176
     1
 90
        0
176
     1
 62
    18
420
        0
176
     1
 90
       50
176
     1
 90
        3
176
     1
 62
     5
420
      255
176
     1
290
     0
176
     1
 90
       50
176
     1
 90
       50
176
     1
 90
       50
176
     1
290
     0
176
     1
 90
       50
176
     1
 62
   256
176
     0
 40
1.0
176
     0
 90
        2
176
     1
  1
strokes_ogs.tif
176
     1
290
     0
176
     1
 40
1.0
176
     1
 40
1.0
176
     1
  0
VISUALSTYLE
  5
570
102
{ACAD_REACTORS
330
56E
102
}
330
56E
100
AcDbVisualStyle
  2
FlatWithEdges
 70
     1
177
     3
291
     1
 70
    58
 90
        2
176
     1
 90
        1
176
     1
 90
        1
176
     1
 90
        2
176
     1
 40
0.6
176
     1
 40
30.0
176
     1
 62
     7
420
 16777215
176
     1
 90
        1
176
     1
 90
        0
176
     1
 62
     7
176
     1
 62
   257
176
     1
 90
        1
176
     1
 90
        1
176
     1
 40
1.0
176
     1
 90
        0
176
     1
 62
   257
176
     1
 40
1.0
176
     1
 90
        1
176
     1
 90
        6
176
     1
 90
        2
176
     1
 62
     7
176
     1
 90
        5
176
     1
 90
        0
176
     1
 90
        0
176
     1
290
     0
176
     1
 90
       13
176
     1
 40
0.0
176
     1
 90
        0
176
     1
290
     0
176
     1
290
     1
176
     1
290
     1
176
     1
290
     0
176
     1
290
     0
176
     1
290
     0
176
     1
290
     0
176
     1
290
     0
176
     1
290
     0
176
     1
 90
       50
176
     1
 40
0.0
176
     1
 40
1.0
176
     1
 90
        0
176
     1
 62
    18
420
        0
176
     1
 90
       50
176
     1
 90
        3
176
     1
 62
     5
420
      255
176
     1
290
     0
176
     1
 90
       50
176
     1
 90
       50
176
     1
 90
       50
176
     1
290
     0
176
     1
 90
       50
176
     1
 62
   256
176
     0
 40
1.0
176
     0
 90
        2
176
     1
  1
strokes_ogs.tif
176
     1
290
     0
176
     1
 40
1.0
176
     1
 40
1.0
176
     1
  0
VISUALSTYLE
  5
571
102
{ACAD_REACTORS
330
56E
102
}
330
56E
100
AcDbVisualStyle
  2
Gouraud
 70
     2
177
     3
291
     1
 70
    58
 90
        2
176
     1
 90
        2
176
     1
 90
        1
176
     1
 90
        2
176
     1
 40
0.6
176
     1
 40
30.0
176
     1
 62
     7
420
 16777215
176
     1
 90
        0
176
     1
 90
        0
176
     1
 62
     7
176
     1
 62
   257
176
     1
 90
        1
176
     1
 90
        1
176
     1
 40
1.0
176
     1
 90
        0
176
     1
 62
     7
176
     1
 40
1.0
176
     1
 90
        1
176
     1
 90
        6
176
     1
 90
        2
176
     1
 62
     7
176
     1
 90
        5
176
     1
 90
        0
176
     1
 90
        0
176
     1
290
     0
176
     1
 90
       13
176
     1
 40
0.0
176
     1
 90
        0
176
     1
290
     0
176
     1
290
     1
176
     1
290
     1
176
     1
290
     0
176
     1
290
     0
176
     1
290
     0
176
     1
290
     0
176
     1
290
     0
176
     1
290
     0
176
     1
 90
       50
176
     1
 40
0.0
176
     1
 40
1.0
176
     1
 90
        0
176
     1
 62
    18
420
        0
176
     1
 90
       50
176
     1
 90
        3
176
     1
 62
     5
420
      255
176
     1
290
     0
176
     1
 90
       50
176
     1
 90
       50
176
     1
 90
       50
176
     1
290
     0
176
     1
 90
       50
176
     1
 62
   256
176
     0
 40
1.0
176
     0
 90
        2
176
     1
  1
strokes_ogs.tif
176
     1
290
     0
176
     1
 40
1.0
176
     1
 40
1.0
176
     1
  0
VISUALSTYLE
  5
572
102
{ACAD_REACTORS
330
56E
102
}
330
56E
100
AcDbVisualStyle
  2
GouraudWithEdges
 70
     3
177
     3
291
     1
 70
    58
 90
        2
176
     1
 90
        2
176
     1
 90
        1
176
     1
 90
        2
176
     1
 40
0.6
176
     1
 40
30.0
176
     1
 62
     7
420
 16777215
176
     1
 90
        1
176
     1
 90
        0
176
     1
 62
     7
176
     1
 62
   257
176
     1
 90
        1
176
     1
 90
        1
176
     1
 40
1.0
176
     1
 90
        0
176
     1
 62
   257
176
     1
 40
1.0
176
     1
 90
        1
176
     1
 90
        6
176
     1
 90
        2
176
     1
 62
     7
176
     1
 90
        5
176
     1
 90
        0
176
     1
 90
        0
176
     1
290
     0
176
     1
 90
       13
176
     1
 40
0.0
176
     1
 90
        0
176
     1
290
     0
176
     1
290
     1
176
     1
290
     1
176
     1
290
     0
176
     1
290
     0
176
     1
290
     0
176
     1
290
     0
176
     1
290
     0
176
     1
290
     0
176
     1
 90
       50
176
     1
 40
0.0
176
     1
 40
1.0
176
     1
 90
        0
176
     1
 62
    18
420
        0
176
     1
 90
       50
176
     1
 90
        3
176
     1
 62
     5
420
      255
176
     1
290
     0
176
     1
 90
       50
176
     1
 90
       50
176
     1
 90
       50
176
     1
290
     0
176
     1
 90
       50
176
     1
 62
   256
176
     0
 40
1.0
176
     0
 90
        2
176
     1
  1
strokes_ogs.tif
176
     1
290
     0
176
     1
 40
1.0
176
     1
 40
1.0
176
     1
  0
VISUALSTYLE
  5
575
102
{ACAD_REACTORS
330
56E
102
}
330
56E
100
AcDbVisualStyle
  2
Hidden
 70
     6
177
     3
291
     0
 70
    58
 90
        1
176
     1
 90
        2
176
     1
 90
        2
176
     1
 90
        0
176
     1
 40
0.6
176
     1
 40
30.0
176
     1
 62
     7
420
 16777215
176
     1
 90
        2
176
     1
 90
        2
176
     1
 62
     7
176
     1
 62
   257
176
     1
 90
        2
176
     1
 90
        1
176
     1
 40
40.0
176
     1
 90
        0
176
     1
 62
   257
176
     1
 40
1.0
176
     1
 90
        1
176
     1
 90
        6
176
     1
 90
        2
176
     1
 62
     7
176
     1
 90
        3
176
     1
 90
        0
176
     1
 90
        0
176
     1
290
     0
176
     1
 90
        1
176
     1
 40
0.0
176
     1
 90
        0
176
     1
290
     0
176
     1
290
     1
176
     1
290
     1
176
     1
290
     0
176
     1
290
     0
176
     1
290
     0
176
     1
290
     0
176
     1
290
     0
176
     1
290
     0
176
     1
 90
       50
176
     1
 40
0.0
176
     1
 40
1.0
176
     1
 90
        0
176
     1
 62
    18
420
        0
176
     1
 90
       50
176
     1
 90
        3
176
     1
 62
     5
420
      255
176
     1
290
     0
176
     1
 90
       50
176
     1
 90
       50
176
     1
 90
       50
176
     1
290
     0
176
     1
 90
       50
176
     1
 62
   256
176
     0
 40
1.0
176
     0
 90
        2
176
     1
  1
strokes_ogs.tif
176
     1
290
     0
176
     1
 40
1.0
176
     1
 40
1.0
176
     1
  0
VISUALSTYLE
  5
57F
102
{ACAD_REACTORS
330
56E
102
}
330
56E
100
AcDbVisualStyle
  2
JitterOff
 70
    20
177
     3
291
     1
 70
    58
 90
        2
176
     0
 90
        2
176
     0
 90
        0
176
     0
 90
        0
176
     0
 40
0.6
176
     0
 40
30.0
176
     0
 62
     7
420
 16777215
176
     0
 90
        1
176
     0
 90
        4
176
     0
 62
     7
176
     0
 62
   257
176
     0
 90
        1
176
     0
 90
        1
176
     0
 40
1.0
176
     0
 90
       10
176
     2
 62
     7
176
     0
 40
1.0
176
     0
 90
        1
176
     0
 90
        6
176
     0
 90
        2
176
     0
 62
     7
176
     0
 90
        5
176
     0
 90
        0
176
     0
 90
        0
176
     0
290
     0
176
     0
 90
        1
176
     0
 40
0.0
176
     0
 90
        0
176
     0
290
     0
176
     0
290
     1
176
     0
290
     1
176
     0
290
     0
176
     0
290
     0
176
     0
290
     0
176
     0
290
     0
176
     0
290
     0
176
     0
290
     0
176
     0
 90
       50
176
     0
 40
0.0
176
     0
 40
1.0
176
     0
 90
        0
176
     0
 62
    18
420
        0
176
     0
 90
       50
176
     0
 90
        3
176
     0
 62
     5
420
      255
176
     0
290
     0
176
     0
 90
       50
176
     0
 90
       50
176
     0
 90
       50
176
     0
290
     0
176
     0
 90
       50
176
     0
 62
   256
176
     0
 40
1.0
176
     0
 90
        2
176
     0
  1
strokes_ogs.tif
176
     0
290
     0
176
     0
 40
1.0
176
     0
 40
1.0
176
     0
  0
VISUALSTYLE
  5
57C
102
{ACAD_REACTORS
330
56E
102
}
330
56E
100
AcDbVisualStyle
  2
Linepattern
 70
    14
177
     3
291
     1
 70
    58
 90
        2
176
     1
 90
        2
176
     1
 90
        0
176
     1
 90
        0
176
     1
 40
0.6
176
     1
 40
30.0
176
     1
 62
     7
420
 16777215
176
     1
 90
        1
176
     1
 90
        4
176
     1
 62
     7
176
     1
 62
   257
176
     1
 90
        7
176
     1
 90
        7
176
     1
 40
1.0
176
     1
 90
        8
176
     1
 62
     7
176
     1
 40
1.0
176
     1
 90
        1
176
     1
 90
        6
176
     1
 90
        2
176
     1
 62
     7
176
     1
 90
        5
176
     1
 90
        0
176
     1
 90
        0
176
     1
290
     0
176
     1
 90
        1
176
     1
 40
0.0
176
     1
 90
        0
176
     1
290
     0
176
     1
290
     1
176
     1
290
     1
176
     1
290
     0
176
     1
290
     0
176
     1
290
     0
176
     1
290
     0
176
     1
290
     0
176
     1
290
     0
176
     1
 90
       50
176
     1
 40
0.0
176
     1
 40
1.0
176
     1
 90
        0
176
     1
 62
    18
420
        0
176
     1
 90
       50
176
     1
 90
        3
176
     1
 62
     5
420
      255
176
     1
290
     0
176
     1
 90
       50
176
     1
 90
       50
176
     1
 90
       50
176
     1
290
     0
176
     1
 90
       50
176
     1
 62
   256
176
     0
 40
1.0
176
     0
 90
        2
176
     1
  1
strokes_ogs.tif
176
     1
290
     0
176
     1
 40
1.0
176
     1
 40
1.0
176
     1
  0
VISUALSTYLE
  5
580
102
{ACAD_REACTORS
330
56E
102
}
330
56E
100
AcDbVisualStyle
  2
OverhangOff
 70
    21
177
     3
291
     1
 70
    58
 90
        2
176
     0
 90
        2
176
     0
 90
        0
176
     0
 90
        0
176
     0
 40
0.6
176
     0
 40
30.0
176
     0
 62
     7
420
 16777215
176
     0
 90
        1
176
     0
 90
        4
176
     0
 62
     7
176
     0
 62
   257
176
     0
 90
        1
176
     0
 90
        1
176
     0
 40
1.0
176
     0
 90
        9
176
     2
 62
     7
176
     0
 40
1.0
176
     0
 90
        1
176
     0
 90
        6
176
     0
 90
        2
176
     0
 62
     7
176
     0
 90
        5
176
     0
 90
        0
176
     0
 90
        0
176
     0
290
     0
176
     0
 90
        1
176
     0
 40
0.0
176
     0
 90
        0
176
     0
290
     0
176
     0
290
     1
176
     0
290
     1
176
     0
290
     0
176
     0
290
     0
176
     0
290
     0
176
     0
290
     0
176
     0
290
     0
176
     0
290
     0
176
     0
 90
       50
176
     0
 40
0.0
176
     0
 40
1.0
176
     0
 90
        0
176
     0
 62
    18
420
        0
176
     0
 90
       50
176
     0
 90
        3
176
     0
 62
     5
420
      255
176
     0
290
     0
176
     0
 90
       50
176
     0
 90
       50
176
     0
 90
       50
176
     0
290
     0
176
     0
 90
       50
176
     0
 62
   256
176
     0
 40
1.0
176
     0
 90
        2
176
     0
  1
strokes_ogs.tif
176
     0
290
     0
176
     0
 40
1.0
176
     0
 40
1.0
176
     0
  0
VISUALSTYLE
  5
577
102
{ACAD_REACTORS
330
56E
102
}
330
56E
100
AcDbVisualStyle
  2
Realistic
 70
     8
177
     3
291
     0
 70
    58
 90
        2
176
     1
 90
        3
176
     1
 90
        0
176
     1
 90
        2
176
     1
 40
0.6
176
     1
 40
30.0
176
     1
 62
     7
420
 16777215
176
     1
 90
        0
176
     1
 90
        0
176
     1
 62
     7
176
     1
 62
   257
176
     1
 90
        1
176
     1
 90
        1
176
     1
 40
1.0
176
     1
 90
        8
176
     1
 62
   257
176
     1
 40
1.0
176
     1
 90
        1
176
     1
 90
        6
176
     1
 90
        2
176
     1
 62
     7
176
     1
 90
        3
176
     1
 90
        0
176
     1
 90
        0
176
     1
290
     0
176
     1
 90
       13
176
     1
 40
0.0
176
     1
 90
        0
176
     1
290
     0
176
     1
290
     1
176
     1
290
     1
176
     1
290
     0
176
     1
290
     0
176
     1
290
     0
176
     1
290
     0
176
     1
290
     0
176
     1
290
     0
176
     1
 90
       50
176
     1
 40
0.0
176
     1
 40
1.0
176
     1
 90
        0
176
     1
 62
    18
420
        0
176
     1
 90
       50
176
     1
 90
        3
176
     1
 62
     5
420
      255
176
     1
290
     0
176
     1
 90
       50
176
     1
 90
       50
176
     1
 90
       50
176
     1
290
     0
176
     1
 90
       50
176
     1
 62
   256
176
     0
 40
1.0
176
     0
 90
        2
176
     1
  1
strokes_ogs.tif
176
     1
290
     0
176
     1
 40
1.0
176
     1
 40
1.0
176
     1
  0
VISUALSTYLE
  5
586
102
{ACAD_REACTORS
330
56E
102
}
330
56E
100
AcDbVisualStyle
  2
Shaded
 70
    27
177
     3
291
     0
 70
    58
 90
        2
176
     1
 90
        2
176
     1
 90
        1
176
     1
 90
        2
176
     1
 40
0.6
176
     1
 40
30.0
176
     1
 62
     7
420
 16777215
176
     1
 90
        0
176
     1
 90
        4
176
     1
 62
     7
176
     1
 62
   257
176
     1
 90
        1
176
     1
 90
        1
176
     1
 40
1.0
176
     1
 90
        8
176
     1
 62
   257
176
     1
 40
1.0
176
     1
 90
        1
176
     1
 90
        6
176
     1
 90
        2
176
     1
 62
     8
420
  7895160
176
     1
 90
        3
176
     1
 90
        0
176
     1
 90
        0
176
     1
290
     0
176
     1
 90
        5
176
     1
 40
0.0
176
     1
 90
        0
176
     1
290
     0
176
     1
290
     1
176
     1
290
     1
176
     1
290
     0
176
     1
290
     0
176
     1
290
     0
176
     1
290
     0
176
     1
290
     0
176
     1
290
     0
176
     1
 90
       50
176
     1
 40
0.0
176
     1
 40
1.0
176
     1
 90
        0
176
     1
 62
    18
420
        0
176
     1
 90
       50
176
     1
 90
        3
176
     1
 62
     5
420
      255
176
     1
290
     0
176
     1
 90
       50
176
     1
 90
       50
176
     1
 90
       50
176
     1
290
     0
176
     1
 90
       50
176
     1
 62
   256
176
     0
 40
1.0
176
     0
 90
        2
176
     1
  1
strokes_ogs.tif
176
     1
290
     0
176
     1
 40
1.0
176
     1
 40
1.0
176
     1
  0
VISUALSTYLE
  5
585
102
{ACAD_REACTORS
330
56E
102
}
330
56E
100
AcDbVisualStyle
  2
Shaded with edges
 70
    26
177
     3
291
     0
 70
    58
 90
        2
176
     1
 90
        2
176
     1
 90
        1
176
     1
 90
        2
176
     1
 40
0.6
176
     1
 40
30.0
176
     1
 62
     7
420
 16777215
176
     1
 90
        1
176
     1
 90
       10
176
     1
 62
     7
176
     1
 62
   257
176
     1
 90
        2
176
     1
 90
        1
176
     1
 40
1.0
176
     1
 90
        8
176
     1
 62
   257
176
     1
 40
1.0
176
     1
 90
        1
176
     1
 90
        6
176
     1
 90
        2
176
     1
 62
     7
176
     1
 90
        3
176
     1
 90
        0
176
     1
 90
        0
176
     1
290
     0
176
     1
 90
        5
176
     1
 40
0.0
176
     1
 90
        0
176
     1
290
     0
176
     1
290
     1
176
     1
290
     1
176
     1
290
     0
176
     1
290
     0
176
     1
290
     0
176
     1
290
     0
176
     1
290
     0
176
     1
290
     0
176
     1
 90
       50
176
     1
 40
0.0
176
     1
 40
1.0
176
     1
 90
        0
176
     1
 62
    18
420
        0
176
     1
 90
       50
176
     1
 90
        3
176
     1
 62
     5
420
      255
176
     1
290
     0
176
     1
 90
       50
176
     1
 90
       50
176
     1
 90
       50
176
     1
290
     0
176
     1
 90
       50
176
     1
 62
   256
176
     0
 40
1.0
176
     0
 90
        2
176
     1
  1
strokes_ogs.tif
176
     1
290
     0
176
     1
 40
1.0
176
     1
 40
1.0
176
     1
  0
VISUALSTYLE
  5
582
102
{ACAD_REACTORS
330
56E
102
}
330
56E
100
AcDbVisualStyle
  2
Shades of Gray
 70
    23
177
     3
291
     0
 70
    58
 90
        2
176
     1
 90
        2
176
     1
 90
        3
176
     1
 90
        0
176
     1
 40
0.6
176
     1
 40
30.0
176
     1
 62
     7
420
 16777215
176
     1
 90
        2
176
     1
 90
        2
176
     1
 62
     7
176
     1
 62
     7
176
     1
 90
        1
176
     1
 90
        1
176
     1
 40
40.0
176
     1
 90
        8
176
     1
 62
     7
176
     1
 40
1.0
176
     1
 90
        1
176
     1
 90
        6
176
     1
 90
        2
176
     1
 62
     7
176
     1
 90
        3
176
     1
 90
        0
176
     1
 90
        0
176
     1
290
     0
176
     1
 90
        1
176
     1
 40
0.0
176
     1
 90
        0
176
     1
290
     0
176
     1
290
     1
176
     1
290
     1
176
     1
290
     0
176
     1
290
     0
176
     1
290
     0
176
     1
290
     0
176
     1
290
     0
176
     1
290
     0
176
     1
 90
       50
176
     1
 40
0.0
176
     1
 40
1.0
176
     1
 90
        0
176
     1
 62
    18
420
        0
176
     1
 90
       50
176
     1
 90
        3
176
     1
 62
     5
420
      255
176
     1
290
     0
176
     1
 90
       50
176
     1
 90
       50
176
     1
 90
       50
176
     1
290
     0
176
     1
 90
       50
176
     1
 62
   256
176
     0
 40
1.0
176
     0
 90
        2
176
     1
  1
strokes_ogs.tif
176
     1
290
     0
176
     1
 40
1.0
176
     1
 40
1.0
176
     1
  0
VISUALSTYLE
  5
583
102
{ACAD_REACTORS
330
56E
102
}
330
56E
100
AcDbVisualStyle
  2
Sketchy
 70
    24
177
     3
291
     0
 70
    58
 90
        1
176
     1
 90
        2
176
     1
 90
        2
176
     1
 90
        0
176
     1
 40
0.6
176
     1
 40
30.0
176
     1
 62
     7
420
 16777215
176
     1
 90
        2
176
     1
 90
        2
176
     1
 62
     7
176
     1
 62
     7
176
     1
 90
        1
176
     1
 90
        1
176
     1
 40
40.0
176
     1
 90
       11
176
     1
 62
     7
176
     1
 40
1.0
176
     1
 90
        1
176
     1
 90
        6
176
     1
 90
        2
176
     1
 62
     7
176
     1
 90
        6
176
     1
 90
        0
176
     1
 90
        0
176
     1
290
     0
176
     1
 90
        1
176
     1
 40
0.0
176
     1
 90
        0
176
     1
290
     0
176
     1
290
     1
176
     1
290
     1
176
     1
290
     0
176
     1
290
     0
176
     1
290
     0
176
     1
290
     0
176
     1
290
     0
176
     1
290
     0
176
     1
 90
       50
176
     1
 40
0.0
176
     1
 40
1.0
176
     1
 90
        0
176
     1
 62
    18
420
        0
176
     1
 90
       50
176
     1
 90
        3
176
     1
 62
     5
420
      255
176
     1
290
     0
176
     1
 90
       50
176
     1
 90
       50
176
     1
 90
       50
176
     1
290
     0
176
     1
 90
       50
176
     1
 62
   256
176
     0
 40
1.0
176
     0
 90
        2
176
     1
  1
strokes_ogs.tif
176
     1
290
     0
176
     1
 40
1.0
176
     1
 40
1.0
176
     1
  0
VISUALSTYLE
  5
57B
102
{ACAD_REACTORS
330
56E
102
}
330
56E
100
AcDbVisualStyle
  2
Thicken
 70
    13
177
     3
291
     1
 70
    58
 90
        2
176
     1
 90
        2
176
     1
 90
        0
176
     1
 90
        0
176
     1
 40
0.6
176
     1
 40
30.0
176
     1
 62
     7
420
 16777215
176
     1
 90
        1
176
     1
 90
        4
176
     1
 62
     7
176
     1
 62
   257
176
     1
 90
        1
176
     1
 90
        1
176
     1
 40
1.0
176
     1
 90
       12
176
     1
 62
     7
176
     1
 40
1.0
176
     1
 90
        1
176
     1
 90
        6
176
     1
 90
        2
176
     1
 62
     7
176
     1
 90
        5
176
     1
 90
        0
176
     1
 90
        0
176
     1
290
     0
176
     1
 90
        1
176
     1
 40
0.0
176
     1
 90
        0
176
     1
290
     0
176
     1
290
     1
176
     1
290
     1
176
     1
290
     0
176
     1
290
     0
176
     1
290
     0
176
     1
290
     0
176
     1
290
     0
176
     1
290
     0
176
     1
 90
       50
176
     1
 40
0.0
176
     1
 40
1.0
176
     1
 90
        0
176
     1
 62
    18
420
        0
176
     1
 90
       50
176
     1
 90
        3
176
     1
 62
     5
420
      255
176
     1
290
     0
176
     1
 90
       50
176
     1
 90
       50
176
     1
 90
       50
176
     1
290
     0
176
     1
 90
       50
176
     1
 62
   256
176
     0
 40
1.0
176
     0
 90
        2
176
     1
  1
strokes_ogs.tif
176
     1
290
     0
176
     1
 40
1.0
176
     1
 40
1.0
176
     1
  0
VISUALSTYLE
  5
574
102
{ACAD_REACTORS
330
56E
102
}
330
56E
100
AcDbVisualStyle
  2
Wireframe
 70
     5
177
     3
291
     0
 70
    58
 90
        0
176
     1
 90
        2
176
     1
 90
        0
176
     1
 90
        0
176
     1
 40
0.6
176
     1
 40
30.0
176
     1
 62
     7
420
 16777215
176
     1
 90
        1
176
     1
 90
        4
176
     1
 62
     7
176
     1
 62
   257
176
     1
 90
        1
176
     1
 90
        1
176
     1
 40
1.0
176
     1
 90
        0
176
     1
 62
   257
176
     1
 40
1.0
176
     1
 90
        1
176
     1
 90
        6
176
     1
 90
        2
176
     1
 62
     7
176
     1
 90
        3
176
     1
 90
        0
176
     1
 90
        0
176
     1
290
     0
176
     1
 90
        1
176
     1
 40
0.0
176
     1
 90
        0
176
     1
290
     0
176
     1
290
     1
176
     1
290
     1
176
     1
290
     0
176
     1
290
     0
176
     1
290
     0
176
     1
290
     0
176
     1
290
     0
176
     1
290
     0
176
     1
 90
       50
176
     1
 40
0.0
176
     1
 40
1.0
176
     1
 90
        0
176
     1
 62
    18
420
        0
176
     1
 90
       50
176
     1
 90
        3
176
     1
 62
     5
420
      255
176
     1
290
     0
176
     1
 90
       50
176
     1
 90
       50
176
     1
 90
       50
176
     1
290
     0
176
     1
 90
       50
176
     1
 62
   256
176
     0
 40
1.0
176
     0
 90
        2
176
     1
  1
strokes_ogs.tif
176
     1
290
     0
176
     1
 40
1.0
176
     1
 40
1.0
176
     1
  0
VISUALSTYLE
  5
584
102
{ACAD_REACTORS
330
56E
102
}
330
56E
100
AcDbVisualStyle
  2
X-Ray
 70
    25
177
     3
291
     0
 70
    58
 90
        2
176
     1
 90
        2
176
     1
 90
        1
176
     1
 90
        1
176
     1
 40
0.5
176
     1
 40
30.0
176
     1
 62
     7
420
 16777215
176
     1
 90
        1
176
     1
 90
        0
176
     1
 62
     7
176
     1
 62
   257
176
     1
 90
        1
176
     1
 90
        1
176
     1
 40
1.0
176
     1
 90
        8
176
     1
 62
     7
176
     1
 40
1.0
176
     1
 90
        1
176
     1
 90
        6
176
     1
 90
        2
176
     1
 62
     7
176
     1
 90
        3
176
     1
 90
        0
176
     1
 90
        0
176
     1
290
     0
176
     1
 90
       13
176
     1
 40
0.0
176
     1
 90
        0
176
     1
290
     0
176
     1
290
     1
176
     1
290
     1
176
     1
290
     0
176
     1
290
     0
176
     1
290
     0
176
     1
290
     0
176
     1
290
     0
176
     1
290
     0
176
     1
 90
       50
176
     1
 40
0.0
176
     1
 40
1.0
176
     1
 90
        0
176
     1
 62
    18
420
        0
176
     1
 90
       50
176
     1
 90
        3
176
     1
 62
     5
420
      255
176
     1
290
     0
176
     1
 90
       50
176
     1
 90
       50
176
     1
 90
       50
176
     1
290
     0
176
     1
 90
       50
176
     1
 62
   256
176
     0
 40
1.0
176
     0
 90
        2
176
     1
  1
strokes_ogs.tif
176
     1
290
     0
176
     1
 40
1.0
176
     1
 40
1.0
176
     1
  0
DICTIONARYVAR
  5
591
102
{ACAD_REACTORS
330
590
102
}
330
590
100
DictionaryVariables
280
     0
  1
1:1
  0
DICTIONARYVAR
  5
596
102
{ACAD_REACTORS
330
590
102
}
330
590
100
DictionaryVariables
280
     0
  1
Standard
  0
DICTIONARYVAR
  5
595
102
{ACAD_REACTORS
330
590
102
}
330
590
100
DictionaryVariables
280
     0
  1
Standard
  0
DICTIONARYVAR
  5
597
102
{ACAD_REACTORS
330
590
102
}
330
590
100
DictionaryVariables
280
     0
  1
0
  0
DICTIONARY
  5
592
330
58C
100
AcDbDictionary
280
     1
281
     1
  3
ACAD_ROUNDTRIP_2008_TABLESTYLE_CELLSTYLEMAP
360
593
  0
CELLSTYLEMAP
  5
593
102
{ACAD_REACTORS
330
592
102
}
330
592
100
AcDbCellStyleMap
 90
        3
300
CELLSTYLE
  1
TABLEFORMAT_BEGIN
 90
        5
170
     1
 91
        0
 92
    32768
 62
   257
 93
        1
300
CONTENTFORMAT
  1
CONTENTFORMAT_BEGIN
 90
        0
 91
        0
 92
        4
 93
        0
300

 40
0.0
140
1.0
 94
        5
 62
     0
340
11
144
6.0
309
CONTENTFORMAT_END
171
     1
301
MARGIN
  1
CELLMARGIN_BEGIN
 40
1.5
 40
1.5
 40
1.5
 40
1.5
 40
1.5
 40
1.5
309
CELLMARGIN_END
 94
        6
 95
        1
302
GRIDFORMAT
  1
GRIDFORMAT_BEGIN
 90
        0
 91
        1
 62
     0
 92
       -2
340
14
 93
        0
 40
0.045
309
GRIDFORMAT_END
 95
        2
302
GRIDFORMAT
  1
GRIDFORMAT_BEGIN
 90
        0
 91
        1
 62
     0
 92
       -2
340
14
 93
        0
 40
0.045
309
GRIDFORMAT_END
 95
        4
302
GRIDFORMAT
  1
GRIDFORMAT_BEGIN
 90
        0
 91
        1
 62
     0
 92
       -2
340
14
 93
        0
 40
0.045
309
GRIDFORMAT_END
 95
        8
302
GRIDFORMAT
  1
GRIDFORMAT_BEGIN
 90
        0
 91
        1
 62
     0
 92
       -2
340
14
 93
        0
 40
0.045
309
GRIDFORMAT_END
 95
       16
302
GRIDFORMAT
  1
GRIDFORMAT_BEGIN
 90
        0
 91
        1
 62
     0
 92
       -2
340
14
 93
        0
 40
0.045
309
GRIDFORMAT_END
 95
       32
302
GRIDFORMAT
  1
GRIDFORMAT_BEGIN
 90
        0
 91
        1
 62
     0
 92
       -2
340
14
 93
        0
 40
0.045
309
GRIDFORMAT_END
309
TABLEFORMAT_END
  1
CELLSTYLE_BEGIN
 90
        1
 91
        1
300
_TITLE
309
CELLSTYLE_END
300
CELLSTYLE
  1
TABLEFORMAT_BEGIN
 90
        5
170
     1
 91
        0
 92
        0
 62
   257
 93
        1
300
CONTENTFORMAT
  1
CONTENTFORMAT_BEGIN
 90
        0
 91
        0
 92
        4
 93
        0
300

 40
0.0
140
1.0
 94
        5
 62
     0
340
11
144
4.5
309
CONTENTFORMAT_END
171
     1
301
MARGIN
  1
CELLMARGIN_BEGIN
 40
1.5
 40
1.5
 40
1.5
 40
1.5
 40
1.5
 40
1.5
309
CELLMARGIN_END
 94
        6
 95
        1
302
GRIDFORMAT
  1
GRIDFORMAT_BEGIN
 90
        0
 91
        1
 62
     0
 92
       -2
340
14
 93
        0
 40
0.045
309
GRIDFORMAT_END
 95
        2
302
GRIDFORMAT
  1
GRIDFORMAT_BEGIN
 90
        0
 91
        1
 62
     0
 92
       -2
340
14
 93
        0
 40
0.045
309
GRIDFORMAT_END
 95
        4
302
GRIDFORMAT
  1
GRIDFORMAT_BEGIN
 90
        0
 91
        1
 62
     0
 92
       -2
340
14
 93
        0
 40
0.045
309
GRIDFORMAT_END
 95
        8
302
GRIDFORMAT
  1
GRIDFORMAT_BEGIN
 90
        0
 91
        1
 62
     0
 92
       -2
340
14
 93
        0
 40
0.045
309
GRIDFORMAT_END
 95
       16
302
GRIDFORMAT
  1
GRIDFORMAT_BEGIN
 90
        0
 91
        1
 62
     0
 92
       -2
340
14
 93
        0
 40
0.045
309
GRIDFORMAT_END
 95
       32
302
GRIDFORMAT
  1
GRIDFORMAT_BEGIN
 90
        0
 91
        1
 62
     0
 92
       -2
340
14
 93
        0
 40
0.045
309
GRIDFORMAT_END
309
TABLEFORMAT_END
  1
CELLSTYLE_BEGIN
 90
        2
 91
        1
300
_HEADER
309
CELLSTYLE_END
300
CELLSTYLE
  1
TABLEFORMAT_BEGIN
 90
        5
170
     1
 91
        0
 92
        0
 62
   257
 93
        1
300
CONTENTFORMAT
  1
CONTENTFORMAT_BEGIN
 90
        0
 91
        0
 92
        4
 93
        0
300

 40
0.0
140
1.0
 94
        2
 62
     0
340
11
144
4.5
309
CONTENTFORMAT_END
171
     1
301
MARGIN
  1
CELLMARGIN_BEGIN
 40
1.5
 40
1.5
 40
1.5
 40
1.5
 40
1.5
 40
1.5
309
CELLMARGIN_END
 94
        6
 95
        1
302
GRIDFORMAT
  1
GRIDFORMAT_BEGIN
 90
        0
 91
        1
 62
     0
 92
       -2
340
14
 93
        0
 40
0.045
309
GRIDFORMAT_END
 95
        2
302
GRIDFORMAT
  1
GRIDFORMAT_BEGIN
 90
        0
 91
        1
 62
     0
 92
       -2
340
14
 93
        0
 40
0.045
309
GRIDFORMAT_END
 95
        4
302
GRIDFORMAT
  1
GRIDFORMAT_BEGIN
 90
        0
 91
        1
 62
     0
 92
       -2
340
14
 93
        0
 40
0.045
309
GRIDFORMAT_END
 95
        8
302
GRIDFORMAT
  1
GRIDFORMAT_BEGIN
 90
        0
 91
        1
 62
     0
 92
       -2
340
14
 93
        0
 40
0.045
309
GRIDFORMAT_END
 95
       16
302
GRIDFORMAT
  1
GRIDFORMAT_BEGIN
 90
        0
 91
        1
 62
     0
 92
       -2
340
14
 93
        0
 40
0.045
309
GRIDFORMAT_END
 95
       32
302
GRIDFORMAT
  1
GRIDFORMAT_BEGIN
 90
        0
 91
        1
 62
     0
 92
       -2
340
14
 93
        0
 40
0.045
309
GRIDFORMAT_END
309
TABLEFORMAT_END
  1
CELLSTYLE_BEGIN
 90
        3
 91
        2
300
_DATA
309
CELLSTYLE_END
  0
ENDSEC
  0
EOF
