  0
SECTION
  2
HEADER
  9
$ACADVER
  1
AC1027
  9
$ACADMAINTVER
 70
   105
  9
$DWGCODEPAGE
  3
ANSI_1252
  9
$REQUIREDVERSIONS
160
                 0
  9
$LASTSAVEDBY
  1
andrea.zolin
  9
$INSBASE
 10
0.0
 20
0.0
 30
0.0
  9
$EXTMIN
 10
0.0
 20
0.0
 30
0.0
  9
$EXTMAX
 10
420.0
 20
297.0
 30
0.0
  9
$LIMMIN
 10
0.0
 20
0.0
  9
$LIMMAX
 10
420.0
 20
297.0
  9
$ORTHOMODE
 70
     0
  9
$REGENMODE
 70
     1
  9
$FILLMODE
 70
     1
  9
$QTEXTMODE
 70
     0
  9
$MIRRTEXT
 70
     1
  9
$LTSCALE
 40
23.1
  9
$ATTMODE
 70
     1
  9
$TEXTSIZE
 40
0.2
  9
$TRACEWID
 40
0.05
  9
$TEXTSTYLE
  7
STANDARD
  9
$CLAYER
  8
0
  9
$CELTYPE
  6
BYLAYER
  9
$CECOLOR
 62
   256
  9
$CELTSCALE
 40
1.0
  9
$DISPSILH
 70
     0
  9
$DIMSCALE
 40
1.0
  9
$DIMASZ
 40
2.5
  9
$DIMEXO
 40
0.75
  9
$DIMDLI
 40
15.96
  9
$DIMRND
 40
0.0
  9
$DIMDLE
 40
0.0
  9
$DIMEXE
 40
0.75
  9
$DIMTP
 40
0.01
  9
$DIMTM
 40
0.01
  9
$DIMTXT
 40
3.0
  9
$DIMCEN
 40
3.78
  9
$DIMTSZ
 40
0.0
  9
$DIMTOL
 70
     1
  9
$DIMLIM
 70
     0
  9
$DIMTIH
 70
     1
  9
$DIMTOH
 70
     1
  9
$DIMSE1
 70
     0
  9
$DIMSE2
 70
     0
  9
$DIMTAD
 70
     0
  9
$DIMZIN
 70
     0
  9
$DIMBLK
  1
CLOSED
  9
$DIMASO
 70
     1
  9
$DIMSHO
 70
     1
  9
$DIMPOST
  1

  9
$DIMAPOST
  1

  9
$DIMALT
 70
     0
  9
$DIMALTD
 70
     2
  9
$DIMALTF
 40
25.4
  9
$DIMLFAC
 40
1.0
  9
$DIMTOFL
 70
     0
  9
$DIMTVP
 40
0.0
  9
$DIMTIX
 70
     0
  9
$DIMSOXD
 70
     0
  9
$DIMSAH
 70
     0
  9
$DIMBLK1
  1

  9
$DIMBLK2
  1

  9
$DIMSTYLE
  2
STANDARD
  9
$DIMCLRD
 70
     0
  9
$DIMCLRE
 70
     0
  9
$DIMCLRT
 70
     0
  9
$DIMTFAC
 40
1.0
  9
$DIMGAP
 40
0.625
  9
$DIMJUST
 70
     0
  9
$DIMSD1
 70
     0
  9
$DIMSD2
 70
     0
  9
$DIMTOLJ
 70
     1
  9
$DIMTZIN
 70
     0
  9
$DIMALTZ
 70
     0
  9
$DIMALTTZ
 70
     0
  9
$DIMUPT
 70
     0
  9
$DIMDEC
 70
     4
  9
$DIMTDEC
 70
     4
  9
$DIMALTU
 70
     2
  9
$DIMALTTD
 70
     2
  9
$DIMTXSTY
  7
STANDARD
  9
$DIMAUNIT
 70
     0
  9
$DIMADEC
 70
     0
  9
$DIMALTRND
 40
0.0
  9
$DIMAZIN
 70
     0
  9
$DIMDSEP
 70
    46
  9
$DIMATFIT
 70
     3
  9
$DIMFRAC
 70
     0
  9
$DIMLDRBLK
  1

  9
$DIMLUNIT
 70
     2
  9
$DIMLWD
 70
    -2
  9
$DIMLWE
 70
    -2
  9
$DIMTMOVE
 70
     2
  9
$DIMFXL
 40
1.0
  9
$DIMFXLON
 70
     0
  9
$DIMJOGANG
 40
0.7853981633974483
  9
$DIMTFILL
 70
     0
  9
$DIMTFILLCLR
 70
     0
  9
$DIMARCSYM
 70
     0
  9
$DIMLTYPE
  6

  9
$DIMLTEX1
  6

  9
$DIMLTEX2
  6

  9
$DIMTXTDIRECTION
 70
     0
  9
$LUNITS
 70
     2
  9
$LUPREC
 70
     4
  9
$SKETCHINC
 40
0.1
  9
$FILLETRAD
 40
0.5
  9
$AUNITS
 70
     0
  9
$AUPREC
 70
     0
  9
$MENU
  1
.
  9
$ELEVATION
 40
0.0
  9
$PELEVATION
 40
0.0
  9
$THICKNESS
 40
0.0
  9
$LIMCHECK
 70
     0
  9
$CHAMFERA
 40
0.0
  9
$CHAMFERB
 40
0.0
  9
$CHAMFERC
 40
0.0
  9
$CHAMFERD
 40
0.0
  9
$SKPOLY
 70
     0
  9
$TDCREATE
 40
2447893.041666667
  9
$TDUCREATE
 40
0.0
  9
$TDUPDATE
 40
2458474.39939059
  9
$TDUUPDATE
 40
2458474.357723923
  9
$TDINDWG
 40
0.000264456
  9
$TDUSRTIMER
 40
0.000264456
  9
$USRTIMER
 70
     1
  9
$ANGBASE
 50
0.0
  9
$ANGDIR
 70
     0
  9
$PDMODE
 70
     3
  9
$PDSIZE
 40
0.3125
  9
$PLINEWID
 40
0.0
  9
$SPLFRAME
 70
     0
  9
$SPLINETYPE
 70
     6
  9
$SPLINESEGS
 70
     8
  9
$HANDSEED
  5
48C
  9
$SURFTAB1
 70
     6
  9
$SURFTAB2
 70
     6
  9
$SURFTYPE
 70
     6
  9
$SURFU
 70
     6
  9
$SURFV
 70
     6
  9
$UCSBASE
  2

  9
$UCSNAME
  2

  9
$UCSORG
 10
0.0
 20
0.0
 30
0.0
  9
$UCSXDIR
 10
1.0
 20
0.0
 30
0.0
  9
$UCSYDIR
 10
0.0
 20
1.0
 30
0.0
  9
$UCSORTHOREF
  2

  9
$UCSORTHOVIEW
 70
     0
  9
$UCSORGTOP
 10
0.0
 20
0.0
 30
0.0
  9
$UCSORGBOTTOM
 10
0.0
 20
0.0
 30
0.0
  9
$UCSORGLEFT
 10
0.0
 20
0.0
 30
0.0
  9
$UCSORGRIGHT
 10
0.0
 20
0.0
 30
0.0
  9
$UCSORGFRONT
 10
0.0
 20
0.0
 30
0.0
  9
$UCSORGBACK
 10
0.0
 20
0.0
 30
0.0
  9
$PUCSBASE
  2

  9
$PUCSNAME
  2

  9
$PUCSORG
 10
0.0
 20
0.0
 30
0.0
  9
$PUCSXDIR
 10
1.0
 20
0.0
 30
0.0
  9
$PUCSYDIR
 10
0.0
 20
1.0
 30
0.0
  9
$PUCSORTHOREF
  2

  9
$PUCSORTHOVIEW
 70
     0
  9
$PUCSORGTOP
 10
0.0
 20
0.0
 30
0.0
  9
$PUCSORGBOTTOM
 10
0.0
 20
0.0
 30
0.0
  9
$PUCSORGLEFT
 10
0.0
 20
0.0
 30
0.0
  9
$PUCSORGRIGHT
 10
0.0
 20
0.0
 30
0.0
  9
$PUCSORGFRONT
 10
0.0
 20
0.0
 30
0.0
  9
$PUCSORGBACK
 10
0.0
 20
0.0
 30
0.0
  9
$USERI1
 70
     0
  9
$USERI2
 70
     0
  9
$USERI3
 70
     0
  9
$USERI4
 70
     0
  9
$USERI5
 70
     0
  9
$USERR1
 40
0.0
  9
$USERR2
 40
0.0
  9
$USERR3
 40
0.0
  9
$USERR4
 40
0.0
  9
$USERR5
 40
0.0
  9
$WORLDVIEW
 70
     1
  9
$SHADEDGE
 70
     3
  9
$SHADEDIF
 70
    70
  9
$TILEMODE
 70
     0
  9
$MAXACTVP
 70
    64
  9
$PINSBASE
 10
0.0
 20
0.0
 30
0.0
  9
$PLIMCHECK
 70
     0
  9
$PEXTMIN
 10
0.0
 20
0.0
 30
0.0
  9
$PEXTMAX
 10
420.0
 20
297.0
 30
0.0
  9
$PLIMMIN
 10
-8.667315175097276
 20
-23.11284046692607
  9
$PLIMMAX
 10
476.7023346303502
 20
320.1128404669261
  9
$UNITMODE
 70
     0
  9
$VISRETAIN
 70
     1
  9
$PLINEGEN
 70
     0
  9
$PSLTSCALE
 70
     1
  9
$TREEDEPTH
 70
  3020
  9
$CMLSTYLE
  2
STANDARD
  9
$CMLJUST
 70
     0
  9
$CMLSCALE
 40
1.0
  9
$PROXYGRAPHICS
 70
     1
  9
$MEASUREMENT
 70
     1
  9
$CELWEIGHT
370
    -1
  9
$ENDCAPS
280
     0
  9
$JOINSTYLE
280
     0
  9
$LWDISPLAY
290
     0
  9
$INSUNITS
 70
     0
  9
$HYPERLINKBASE
  1

  9
$STYLESHEET
  1

  9
$XEDIT
290
     1
  9
$CEPSNTYPE
380
     0
  9
$PSTYLEMODE
290
     1
  9
$FINGERPRINTGUID
  2
{BDDDC979-5F38-4A14-9DB9-9F019C6A0744}
  9
$VERSIONGUID
  2
{FAEB1C32-E019-11D5-929B-00C0DF256EC4}
  9
$EXTNAMES
290
     1
  9
$PSVPSCALE
 40
0.0
  9
$OLESTARTUP
290
     0
  9
$SORTENTS
280
   127
  9
$INDEXCTL
280
     0
  9
$HIDETEXT
280
     1
  9
$XCLIPFRAME
280
     2
  9
$HALOGAP
280
     0
  9
$OBSCOLOR
 70
   257
  9
$OBSLTYPE
280
     0
  9
$INTERSECTIONDISPLAY
280
     0
  9
$INTERSECTIONCOLOR
 70
   257
  9
$DIMASSOC
280
     2
  9
$PROJECTNAME
  1

  9
$CAMERADISPLAY
290
     0
  9
$LENSLENGTH
 40
50.0
  9
$CAMERAHEIGHT
 40
0.0
  9
$STEPSPERSEC
 40
2.0
  9
$STEPSIZE
 40
6.0
  9
$3DDWFPREC
 40
2.0
  9
$PSOLWIDTH
 40
0.25
  9
$PSOLHEIGHT
 40
4.0
  9
$LOFTANG1
 40
1.570796326794897
  9
$LOFTANG2
 40
1.570796326794897
  9
$LOFTMAG1
 40
0.0
  9
$LOFTMAG2
 40
0.0
  9
$LOFTPARAM
 70
     7
  9
$LOFTNORMALS
280
     1
  9
$LATITUDE
 40
37.795
  9
$LONGITUDE
 40
-122.394
  9
$NORTHDIRECTION
 40
0.0
  9
$TIMEZONE
 70
 -8000
  9
$LIGHTGLYPHDISPLAY
280
     1
  9
$TILEMODELIGHTSYNCH
280
     1
  9
$SOLIDHIST
280
     0
  9
$SHOWHIST
280
     1
  9
$DWFFRAME
280
     2
  9
$DGNFRAME
280
     2
  9
$REALWORLDSCALE
290
     1
  9
$INTERFERECOLOR
 62
   256
  9
$CSHADOW
280
     0
  9
$SHADOWPLANELOCATION
 40
0.0
  0
ENDSEC
  0
SECTION
  2
CLASSES
  0
CLASS
  1
ACDBDICTIONARYWDFLT
  2
AcDbDictionaryWithDefault
  3
ObjectDBX Classes
 90
        0
 91
        4
280
     0
281
     0
  0
CLASS
  1
SCALE
  2
AcDbScale
  3
ObjectDBX Classes
 90
     1153
 91
        4
280
     0
281
     0
  0
CLASS
  1
VISUALSTYLE
  2
AcDbVisualStyle
  3
ObjectDBX Classes
 90
     4095
 91
        4
280
     0
281
     0
  0
CLASS
  1
MATERIAL
  2
AcDbMaterial
  3
ObjectDBX Classes
 90
     1153
 91
        4
280
     0
281
     0
  0
CLASS
  1
TABLESTYLE
  2
AcDbTableStyle
  3
ObjectDBX Classes
 90
     4095
 91
        4
280
     0
281
     0
  0
CLASS
  1
MLEADERSTYLE
  2
AcDbMLeaderStyle
  3
ACDB_MLEADERSTYLE_CLASS
 90
     4095
 91
        4
280
     0
281
     0
  0
CLASS
  1
DICTIONARYVAR
  2
AcDbDictionaryVar
  3
ObjectDBX Classes
 90
        0
 91
        4
280
     0
281
     0
  0
CLASS
  1
CELLSTYLEMAP
  2
AcDbCellStyleMap
  3
ObjectDBX Classes
 90
     1152
 91
        4
280
     0
281
     0
  0
ENDSEC
  0
SECTION
  2
TABLES
  0
TABLE
  2
VPORT
  5
8
330
0
100
AcDbSymbolTable
 70
     1
  0
VPORT
  5
1F4
330
8
100
AcDbSymbolTableRecord
100
AcDbViewportTableRecord
  2
*ACTIVE
 70
     0
 10
0.0
 20
0.0
 11
1.0
 21
1.0
 12
210.0
 22
148.5
 13
0.0
 23
0.0
 14
1.0
 24
1.0
 15
0.0
 25
0.0
 16
0.0
 26
0.0
 36
1.0
 17
0.0
 27
0.0
 37
0.0
 40
297.0
 41
1.4141414141
 42
50.0
 43
0.0
 44
0.0
 50
0.0
 51
0.0
 71
     0
 72
   100
 73
     1
 74
     1
 75
     0
 76
     0
 77
     0
 78
     0
281
     0
 65
     1
110
0.0
120
0.0
130
0.0
111
1.0
121
0.0
131
0.0
112
0.0
122
1.0
132
0.0
 79
     0
146
0.0
348
465
 60
     3
 61
     5
292
     1
282
     1
141
0.0
142
0.0
 63
   256
  0
ENDTAB
  0
TABLE
  2
LTYPE
  5
5
330
0
100
AcDbSymbolTable
 70
     6
  0
LTYPE
  5
14
330
5
100
AcDbSymbolTableRecord
100
AcDbLinetypeTableRecord
  2
BYBLOCK
 70
     0
  3

 72
    65
 73
     0
 40
0.0
  0
LTYPE
  5
15
330
5
100
AcDbSymbolTableRecord
100
AcDbLinetypeTableRecord
  2
BYLAYER
 70
     0
  3

 72
    65
 73
     0
 40
0.0
  0
LTYPE
  5
16
330
5
100
AcDbSymbolTableRecord
100
AcDbLinetypeTableRecord
  2
CONTINUOUS
 70
     0
  3
Solid line
 72
    65
 73
     0
 40
0.0
  0
LTYPE
  5
1F5
330
5
100
AcDbSymbolTableRecord
100
AcDbLinetypeTableRecord
  2
CENTER
 70
     0
  3
____ _ ____ _ ____ _ ____ _ ____ _ ____ _ ____
 72
    65
 73
     4
 40
0.6
 49
0.375
 74
     0
 49
-0.075
 74
     0
 49
0.075
 74
     0
 49
-0.075
 74
     0
  0
LTYPE
  5
1F6
330
5
100
AcDbSymbolTableRecord
100
AcDbLinetypeTableRecord
  2
HIDDEN
 70
     0
  3
- - - - - - - - - - - - - - - - - - - -
 72
    65
 73
     2
 40
0.2
 49
0.1
 74
     0
 49
-0.1
 74
     0
  0
LTYPE
  5
1F7
330
5
100
AcDbSymbolTableRecord
100
AcDbLinetypeTableRecord
  2
PHANTOM
 70
     0
  3
_____ _ _ _____ _ _ _____ _ _ _____
 72
    65
 73
     6
 40
0.8
 49
0.45
 74
     0
 49
-0.05
 74
     0
 49
0.1
 74
     0
 49
-0.05
 74
     0
 49
0.1
 74
     0
 49
-0.05
 74
     0
  0
LTYPE
  5
1F8
330
5
100
AcDbSymbolTableRecord
100
AcDbLinetypeTableRecord
  2
DOT
 70
     0
  3
. . . . . . . . . . . . . . . . . . . .
 72
    65
 73
     2
 40
0.2
 49
0.1
 74
     0
 49
-0.1
 74
     0
  0
LTYPE
  5
1F9
330
5
100
AcDbSymbolTableRecord
100
AcDbLinetypeTableRecord
  2
DASHED
 70
     0
  3
- - - - - - - - - - - - - - - - - - - -
 72
    65
 73
     2
 40
0.2
 49
0.1
 74
     0
 49
-0.1
 74
     0
  0
ENDTAB
  0
TABLE
  2
LAYER
  5
2
330
0
100
AcDbSymbolTable
 70
    32
  0
LAYER
  5
10
330
2
100
AcDbSymbolTableRecord
100
AcDbLayerTableRecord
  2
0
 70
     0
 62
     7
  6
CONTINUOUS
370
    -3
390
43A
347
47C
348
0
  0
LAYER
  5
1FA
330
2
100
AcDbSymbolTableRecord
100
AcDbLayerTableRecord
  2
DEFAULT_1
 70
     0
 62
     7
  6
CENTER
370
    -3
390
43A
347
47C
348
0
  0
LAYER
  5
1FB
330
2
100
AcDbSymbolTableRecord
100
AcDbLayerTableRecord
  2
DEFAULT_2
 70
     0
 62
     8
  6
HIDDEN
370
    -3
390
43A
347
47C
348
0
  0
LAYER
  5
1FC
330
2
100
AcDbSymbolTableRecord
100
AcDbLayerTableRecord
  2
DEFAULT_3
 70
     0
 62
     7
  6
PHANTOM
370
    -3
390
43A
347
47C
348
0
  0
LAYER
  5
1FD
330
2
100
AcDbSymbolTableRecord
100
AcDbLayerTableRecord
  2
01_ALL_DTM_PLN
 70
     0
 62
     7
  6
CONTINUOUS
370
    -3
390
43A
347
47C
348
0
  0
LAYER
  5
1FE
330
2
100
AcDbSymbolTableRecord
100
AcDbLayerTableRecord
  2
01__ASM_ALL_DTM_PLN
 70
     0
 62
     7
  6
CONTINUOUS
370
    -3
390
43A
347
47C
348
0
  0
LAYER
  5
1FF
330
2
100
AcDbSymbolTableRecord
100
AcDbLayerTableRecord
  2
01__ASM_DEF_DTM_PLN
 70
     0
 62
     7
  6
CONTINUOUS
370
    -3
390
43A
347
47C
348
0
  0
LAYER
  5
200
330
2
100
AcDbSymbolTableRecord
100
AcDbLayerTableRecord
  2
01___PRT_ALL_DTM_PLN
 70
     0
 62
     7
  6
CONTINUOUS
370
    -3
390
43A
347
47C
348
0
  0
LAYER
  5
201
330
2
100
AcDbSymbolTableRecord
100
AcDbLayerTableRecord
  2
01___PRT_DEF_DTM_PLN
 70
     0
 62
     7
  6
CONTINUOUS
370
    -3
390
43A
347
47C
348
0
  0
LAYER
  5
202
330
2
100
AcDbSymbolTableRecord
100
AcDbLayerTableRecord
  2
02_ALL_AXES
 70
     0
 62
     7
  6
CONTINUOUS
370
    -3
390
43A
347
47C
348
0
  0
LAYER
  5
203
330
2
100
AcDbSymbolTableRecord
100
AcDbLayerTableRecord
  2
02__ASM_ALL_AXES
 70
     0
 62
     7
  6
CONTINUOUS
370
    -3
390
43A
347
47C
348
0
  0
LAYER
  5
204
330
2
100
AcDbSymbolTableRecord
100
AcDbLayerTableRecord
  2
02___PRT_ALL_AXES
 70
     0
 62
     7
  6
CONTINUOUS
370
    -3
390
43A
347
47C
348
0
  0
LAYER
  5
205
330
2
100
AcDbSymbolTableRecord
100
AcDbLayerTableRecord
  2
03_ALL_CURVES
 70
     0
 62
     7
  6
CONTINUOUS
370
    -3
390
43A
347
47C
348
0
  0
LAYER
  5
206
330
2
100
AcDbSymbolTableRecord
100
AcDbLayerTableRecord
  2
03__ASM_ALL_CURVES
 70
     0
 62
     7
  6
CONTINUOUS
370
    -3
390
43A
347
47C
348
0
  0
LAYER
  5
207
330
2
100
AcDbSymbolTableRecord
100
AcDbLayerTableRecord
  2
03___PRT_ALL_CURVES
 70
     0
 62
     7
  6
CONTINUOUS
370
    -3
390
43A
347
47C
348
0
  0
LAYER
  5
208
330
2
100
AcDbSymbolTableRecord
100
AcDbLayerTableRecord
  2
04_ALL_DTM_PNT
 70
     0
 62
     7
  6
CONTINUOUS
370
    -3
390
43A
347
47C
348
0
  0
LAYER
  5
209
330
2
100
AcDbSymbolTableRecord
100
AcDbLayerTableRecord
  2
04__ASM_ALL_DTM_PNT
 70
     0
 62
     7
  6
CONTINUOUS
370
    -3
390
43A
347
47C
348
0
  0
LAYER
  5
20A
330
2
100
AcDbSymbolTableRecord
100
AcDbLayerTableRecord
  2
04___PRT_ALL_DTM_PNT
 70
     0
 62
     7
  6
CONTINUOUS
370
    -3
390
43A
347
47C
348
0
  0
LAYER
  5
20B
330
2
100
AcDbSymbolTableRecord
100
AcDbLayerTableRecord
  2
05_ALL_DTM_CSYS
 70
     0
 62
     7
  6
CONTINUOUS
370
    -3
390
43A
347
47C
348
0
  0
LAYER
  5
20C
330
2
100
AcDbSymbolTableRecord
100
AcDbLayerTableRecord
  2
05__ASM_ALL_DTM_CSYS
 70
     0
 62
     7
  6
CONTINUOUS
370
    -3
390
43A
347
47C
348
0
  0
LAYER
  5
20D
330
2
100
AcDbSymbolTableRecord
100
AcDbLayerTableRecord
  2
05__ASM_DEF_DTM_CSYS
 70
     0
 62
     7
  6
CONTINUOUS
370
    -3
390
43A
347
47C
348
0
  0
LAYER
  5
20E
330
2
100
AcDbSymbolTableRecord
100
AcDbLayerTableRecord
  2
05___PRT_ALL_DTM_CSYS
 70
     0
 62
     7
  6
CONTINUOUS
370
    -3
390
43A
347
47C
348
0
  0
LAYER
  5
20F
330
2
100
AcDbSymbolTableRecord
100
AcDbLayerTableRecord
  2
05___PRT_DEF_DTM_CSYS
 70
     0
 62
     7
  6
CONTINUOUS
370
    -3
390
43A
347
47C
348
0
  0
LAYER
  5
210
330
2
100
AcDbSymbolTableRecord
100
AcDbLayerTableRecord
  2
06_ALL_SURFS
 70
     0
 62
     7
  6
CONTINUOUS
370
    -3
390
43A
347
47C
348
0
  0
LAYER
  5
211
330
2
100
AcDbSymbolTableRecord
100
AcDbLayerTableRecord
  2
06__ASM_ALL_SURFS
 70
     0
 62
     7
  6
CONTINUOUS
370
    -3
390
43A
347
47C
348
0
  0
LAYER
  5
212
330
2
100
AcDbSymbolTableRecord
100
AcDbLayerTableRecord
  2
06___PRT_ALL_SURFS
 70
     0
 62
     7
  6
CONTINUOUS
370
    -3
390
43A
347
47C
348
0
  0
LAYER
  5
213
330
2
100
AcDbSymbolTableRecord
100
AcDbLayerTableRecord
  2
07__ASM_ALL_SKELETONS
 70
     0
 62
     7
  6
CONTINUOUS
370
    -3
390
43A
347
47C
348
0
  0
LAYER
  5
214
330
2
100
AcDbSymbolTableRecord
100
AcDbLayerTableRecord
  2
1_ALL_PLANES
 70
     0
 62
     7
  6
CONTINUOUS
370
    -3
390
43A
347
47C
348
0
  0
LAYER
  5
215
330
2
100
AcDbSymbolTableRecord
100
AcDbLayerTableRecord
  2
3_ALL_AXES
 70
     0
 62
     7
  6
CONTINUOUS
370
    -3
390
43A
347
47C
348
0
  0
LAYER
  5
216
330
2
100
AcDbSymbolTableRecord
100
AcDbLayerTableRecord
  2
7_ALL_FEATURES
 70
     0
 62
     7
  6
CONTINUOUS
370
    -3
390
43A
347
47C
348
0
  0
LAYER
  5
217
330
2
100
AcDbSymbolTableRecord
100
AcDbLayerTableRecord
  2
8_ALL_NOTES_BALLOONS_SYMBOLS_GT
 70
     0
 62
     7
  6
CONTINUOUS
370
    -3
390
43A
347
47C
348
0
  0
LAYER
  5
218
330
2
100
AcDbSymbolTableRecord
100
AcDbLayerTableRecord
  2
9_SOLID
 70
     0
 62
     7
  6
CONTINUOUS
370
    -3
390
43A
347
47C
348
0
  0
ENDTAB
  0
TABLE
  2
STYLE
  5
3
330
0
100
AcDbSymbolTable
 70
     5
  0
STYLE
  5
11
330
3
100
AcDbSymbolTableRecord
100
AcDbTextStyleTableRecord
  2
STANDARD
 70
     0
 40
0.0
 41
0.85
 50
0.0
 71
     0
 42
0.2
  3
txt
  4

  0
STYLE
  5
219
330
3
100
AcDbSymbolTableRecord
100
AcDbTextStyleTableRecord
  2
TEXTSTYLE_1
 70
     0
 40
0.0
 41
0.8
 50
0.0
 71
     0
 42
0.2
  3
gdt
  4

  0
STYLE
  5
21A
330
3
100
AcDbSymbolTableRecord
100
AcDbTextStyleTableRecord
  2
TEXTSTYLE_2
 70
     0
 40
0.0
 41
0.9
 50
0.0
 71
     0
 42
0.2
  3
txt
  4

  0
STYLE
  5
21B
330
3
100
AcDbSymbolTableRecord
100
AcDbTextStyleTableRecord
  2
TEXTSTYLE_3
 70
     0
 40
0.0
 41
0.9
 50
0.0
 71
     0
 42
0.2
  3
txt
  4

  0
STYLE
  5
21C
330
3
100
AcDbSymbolTableRecord
100
AcDbTextStyleTableRecord
  2
TEXTSTYLE_4
 70
     0
 40
0.0
 41
2.0
 50
0.0
 71
     0
 42
0.2
  3
txt
  4

  0
ENDTAB
  0
TABLE
  2
VIEW
  5
6
330
0
100
AcDbSymbolTable
 70
     0
  0
ENDTAB
  0
TABLE
  2
UCS
  5
7
330
0
100
AcDbSymbolTable
 70
     0
  0
ENDTAB
  0
TABLE
  2
APPID
  5
9
330
0
100
AcDbSymbolTable
 70
     1
  0
APPID
  5
21D
330
9
100
AcDbSymbolTableRecord
100
AcDbRegAppTableRecord
  2
ACAD
 70
     0
  0
ENDTAB
  0
TABLE
  2
DIMSTYLE
  5
A
330
0
100
AcDbSymbolTable
 70
     4
100
AcDbDimStyleTable
  0
DIMSTYLE
105
226
330
A
100
AcDbSymbolTableRecord
100
AcDbDimStyleTableRecord
  2
STANDARD
 70
     0
 41
2.5
 42
0.75
 44
0.75
 47
0.01
 48
0.01
 71
     1
 73
     0
 74
     0
 77
     1
 78
     8
 79
     2
140
3.0
147
0.625
171
     1
178
     0
179
     2
271
     2
272
     2
284
     8
340
11
341
21E
342
21E
343
21E
344
21E
  0
DIMSTYLE
105
227
330
A
100
AcDbSymbolTableRecord
100
AcDbDimStyleTableRecord
  2
DIMSTYLE_1
 70
     0
 41
2.5
 42
0.75
 44
0.75
 47
0.5
 48
0.5
 73
     0
 74
     0
 77
     1
 78
     8
 79
     2
140
3.0
147
0.75
171
     1
178
     0
179
     2
271
     2
272
     2
284
     8
340
11
341
21E
342
21E
343
21E
344
21E
  0
DIMSTYLE
105
228
330
A
100
AcDbSymbolTableRecord
100
AcDbDimStyleTableRecord
  2
DIMSTYLE_2
 70
     0
 41
2.5
 42
0.75
 44
0.75
 47
0.1
 48
0.1
 73
     0
 74
     0
 77
     1
 78
     8
 79
     2
140
3.0
147
0.75
171
     1
178
     0
179
     2
271
     2
272
     2
284
     8
340
11
341
21E
342
21E
343
21E
344
21E
  0
DIMSTYLE
105
229
330
A
100
AcDbSymbolTableRecord
100
AcDbDimStyleTableRecord
  2
DIMSTYLE_3
 70
     0
 41
2.5
 42
0.75
 44
0.75
 47
0.2
 48
0.2
 73
     0
 74
     0
 77
     1
 78
     8
 79
     2
140
3.0
147
0.75
171
     1
178
     0
179
     2
271
     2
272
     2
284
     8
340
11
341
21E
342
21E
343
21E
344
21E
  0
ENDTAB
  0
TABLE
  2
BLOCK_RECORD
  5
1
330
0
100
AcDbSymbolTable
 70
     8
  0
BLOCK_RECORD
  5
1F
330
1
100
AcDbSymbolTableRecord
100
AcDbBlockTableRecord
  2
*MODEL_SPACE
340
45E
 70
     0
280
     1
281
     0
  0
BLOCK_RECORD
  5
1B
330
1
100
AcDbSymbolTableRecord
100
AcDbBlockTableRecord
  2
*PAPER_SPACE
340
45F
 70
     0
280
     1
281
     0
  0
BLOCK_RECORD
  5
21E
330
1
100
AcDbSymbolTableRecord
100
AcDbBlockTableRecord
  2
_CLOSED
340
0
102
{BLKREFS
331
27C
331
27D
331
285
331
286
331
290
331
291
331
299
331
29A
331
2A2
331
2A3
102
}
 70
     0
280
     1
281
     0
  0
BLOCK_RECORD
  5
21F
330
1
100
AcDbSymbolTableRecord
100
AcDbBlockTableRecord
  2
*D1
340
0
 70
     0
280
     1
281
     0
  0
BLOCK_RECORD
  5
220
330
1
100
AcDbSymbolTableRecord
100
AcDbBlockTableRecord
  2
*D2
340
0
 70
     0
280
     1
281
     0
  0
BLOCK_RECORD
  5
221
330
1
100
AcDbSymbolTableRecord
100
AcDbBlockTableRecord
  2
*D3
340
0
 70
     0
280
     1
281
     0
  0
BLOCK_RECORD
  5
222
330
1
100
AcDbSymbolTableRecord
100
AcDbBlockTableRecord
  2
*D4
340
0
 70
     0
280
     1
281
     0
  0
BLOCK_RECORD
  5
223
330
1
100
AcDbSymbolTableRecord
100
AcDbBlockTableRecord
  2
*D5
340
0
 70
     0
280
     1
281
     0
  0
BLOCK_RECORD
  5
224
330
1
100
AcDbSymbolTableRecord
100
AcDbBlockTableRecord
  2
LOGO2_BL1
340
0
102
{BLKREFS
331
422
102
}
 70
     0
280
     1
281
     0
  0
BLOCK_RECORD
  5
225
330
1
100
AcDbSymbolTableRecord
100
AcDbBlockTableRecord
  2
PROIEZIONE_EU_BL0
340
0
102
{BLKREFS
331
41F
102
}
 70
     0
280
     1
281
     0
  0
ENDTAB
  0
ENDSEC
  0
SECTION
  2
BLOCKS
  0
BLOCK
  5
20
330
1F
100
AcDbEntity
  8
0
100
AcDbBlockBegin
  2
*MODEL_SPACE
 70
     0
 10
0.0
 20
0.0
 30
0.0
  3
*MODEL_SPACE
  1

  0
ENDBLK
  5
21
330
1F
100
AcDbEntity
  8
0
100
AcDbBlockEnd
  0
BLOCK
  5
1C
330
1B
100
AcDbEntity
 67
     1
  8
0
100
AcDbBlockBegin
  2
*PAPER_SPACE
 70
     0
 10
0.0
 20
0.0
 30
0.0
  3
*PAPER_SPACE
  1

  0
ENDBLK
  5
1D
330
1B
100
AcDbEntity
 67
     1
  8
0
100
AcDbBlockEnd
  0
BLOCK
  5
270
330
21E
100
AcDbEntity
  8
0
100
AcDbBlockBegin
  2
_CLOSED
 70
     0
 10
0.0
 20
0.0
 30
0.0
  3
_CLOSED
  1

  0
LINE
  5
271
330
21E
100
AcDbEntity
  8
0
  6
ByBlock
 62
     0
100
AcDbLine
 10
0.0
 20
0.0
 30
0.0
 11
-1.0
 21
0.2
 31
0.0
  0
LINE
  5
272
330
21E
100
AcDbEntity
  8
0
  6
ByBlock
 62
     0
100
AcDbLine
 10
-1.0
 20
0.2
 30
0.0
 11
-1.0
 21
-0.2
 31
0.0
  0
LINE
  5
273
330
21E
100
AcDbEntity
  8
0
  6
ByBlock
 62
     0
100
AcDbLine
 10
-1.0
 20
-0.2
 30
0.0
 11
0.0
 21
0.0
 31
0.0
  0
LINE
  5
274
330
21E
100
AcDbEntity
  8
0
  6
ByBlock
 62
     0
100
AcDbLine
 10
-1.0
 20
0.0
 30
0.0
 11
0.0
 21
0.0
 31
0.0
  0
ENDBLK
  5
275
330
21E
100
AcDbEntity
  8
0
  6
ByBlock
 62
     0
100
AcDbBlockEnd
  0
BLOCK
  5
276
330
21F
100
AcDbEntity
  8
0
100
AcDbBlockBegin
  2
*D1
 70
     1
 10
0.0
 20
0.0
 30
0.0
  3
*D1
  1

  0
MTEXT
  5
277
330
21F
100
AcDbEntity
  8
0
  6
Continuous
 62
     2
100
AcDbMText
 10
29.0577111486
 20
192.9501182432
 30
0.0
 40
3.0
 41
9.3214285714
 46
0.0
 71
     2
 72
     1
  1
139
 11
0.0
 21
1.0
 31
0.0
 73
     1
 44
1.0
  0
LINE
  5
278
330
21F
100
AcDbEntity
  8
0
  6
Continuous
 62
     2
100
AcDbLine
 10
51.6658735551
 20
116.9117398649
 30
0.0
 11
32.0577111486
 21
116.9117398649
 31
0.0
  0
LINE
  5
279
330
21F
100
AcDbEntity
  8
0
  6
Continuous
 62
     2
100
AcDbLine
 10
49.6705188254
 20
255.9117398649
 30
0.0
 11
32.0577111486
 21
255.9117398649
 31
0.0
  0
LINE
  5
27A
330
21F
100
AcDbEntity
  8
0
  6
Continuous
 62
     2
100
AcDbLine
 10
32.8077111486
 20
116.9117398649
 30
0.0
 11
32.8077111486
 21
186.4117398649
 31
0.0
  0
LINE
  5
27B
330
21F
100
AcDbEntity
  8
0
  6
Continuous
 62
     2
100
AcDbLine
 10
32.8077111486
 20
255.9117398649
 30
0.0
 11
32.8077111486
 21
186.4117398649
 31
0.0
  0
INSERT
  5
27C
330
21F
100
AcDbEntity
  8
0
  6
Continuous
 62
     2
100
AcDbBlockReference
  2
_CLOSED
 10
32.8077111486
 20
116.9117398649
 30
0.0
 41
2.5
 42
2.5
 43
2.5
 50
270.0
  0
INSERT
  5
27D
330
21F
100
AcDbEntity
  8
0
  6
Continuous
 62
     2
100
AcDbBlockReference
  2
_CLOSED
 10
32.8077111486
 20
255.9117398649
 30
0.0
 41
2.5
 42
2.5
 43
2.5
 50
90.0
  0
ENDBLK
  5
27E
330
21F
100
AcDbEntity
  8
0
  6
ByBlock
 62
     0
100
AcDbBlockEnd
  0
BLOCK
  5
27F
330
220
100
AcDbEntity
  8
0
100
AcDbBlockBegin
  2
*D2
 70
     1
 10
0.0
 20
0.0
 30
0.0
  3
*D2
  1

  0
MTEXT
  5
280
330
220
100
AcDbEntity
  8
0
  6
Continuous
 62
     2
100
AcDbMText
 10
117.0116807432
 20
274.1198817568
 30
0.0
 40
3.0
 41
9.3214285714
 46
0.0
 71
     2
 72
     1
  1
139
 73
     1
 44
1.0
  0
LINE
  5
281
330
220
100
AcDbEntity
  8
0
  6
Continuous
 62
     2
100
AcDbLine
 10
47.7160050676
 20
250.8256954498
 30
0.0
 11
47.7160050676
 21
271.1198817568
 31
0.0
  0
LINE
  5
282
330
220
100
AcDbEntity
  8
0
  6
Continuous
 62
     2
100
AcDbLine
 10
186.7160050676
 20
262.7978238281
 30
0.0
 11
186.7160050676
 21
271.1198817568
 31
0.0
  0
LINE
  5
283
330
220
100
AcDbEntity
  8
0
  6
Continuous
 62
     2
100
AcDbLine
 10
47.7160050676
 20
270.3698817568
 30
0.0
 11
117.2160050676
 21
270.3698817568
 31
0.0
  0
LINE
  5
284
330
220
100
AcDbEntity
  8
0
  6
Continuous
 62
     2
100
AcDbLine
 10
186.7160050676
 20
270.3698817568
 30
0.0
 11
117.2160050676
 21
270.3698817568
 31
0.0
  0
INSERT
  5
285
330
220
100
AcDbEntity
  8
0
  6
Continuous
 62
     2
100
AcDbBlockReference
  2
_CLOSED
 10
47.7160050676
 20
270.3698817568
 30
0.0
 41
2.5
 42
2.5
 43
2.5
 50
180.0
  0
INSERT
  5
286
330
220
100
AcDbEntity
  8
0
  6
Continuous
 62
     2
100
AcDbBlockReference
  2
_CLOSED
 10
186.7160050676
 20
270.3698817568
 30
0.0
 41
2.5
 42
2.5
 43
2.5
  0
ENDBLK
  5
287
330
220
100
AcDbEntity
  8
0
  6
ByBlock
 62
     0
100
AcDbBlockEnd
  0
BLOCK
  5
288
330
221
100
AcDbEntity
  8
0
100
AcDbBlockBegin
  2
*D3
 70
     1
 10
0.0
 20
0.0
 30
0.0
  3
*D3
  1

  0
MTEXT
  5
289
330
221
100
AcDbEntity
  8
0
  6
Continuous
 62
     2
100
AcDbMText
 10
250.9991697973
 20
274.1198817568
 30
0.0
 40
3.0
 41
3.5357142857
 46
0.0
 71
     1
 72
     1
  1
2
 73
     1
 44
1.0
  0
LINE
  5
28A
330
221
100
AcDbEntity
  8
0
  6
Continuous
 62
     2
100
AcDbLine
 10
249.3270692568
 20
263.1358578638
 30
0.0
 11
249.3270692568
 21
271.1198817568
 31
0.0
  0
LINE
  5
28B
330
221
100
AcDbEntity
  8
0
  6
Continuous
 62
     2
100
AcDbLine
 10
247.3270692568
 20
262.7978238281
 30
0.0
 11
247.3270692568
 21
271.1198817568
 31
0.0
  0
LINE
  5
28C
330
221
100
AcDbEntity
  8
0
  6
Continuous
 62
     2
100
AcDbLine
 10
249.3270692568
 20
270.3698817568
 30
0.0
 11
253.3563126544
 21
270.3698817568
 31
0.0
  0
LINE
  5
28D
330
221
100
AcDbEntity
  8
0
  6
Continuous
 62
     2
100
AcDbLine
 10
253.3563126544
 20
270.3698817568
 30
0.0
 11
248.3270692568
 21
270.3698817568
 31
0.0
  0
LINE
  5
28E
330
221
100
AcDbEntity
  8
0
  6
Continuous
 62
     2
100
AcDbLine
 10
247.3270692568
 20
270.3698817568
 30
0.0
 11
246.3270692568
 21
270.3698817568
 31
0.0
  0
LINE
  5
28F
330
221
100
AcDbEntity
  8
0
  6
Continuous
 62
     2
100
AcDbLine
 10
246.3270692568
 20
270.3698817568
 30
0.0
 11
248.3270692568
 21
270.3698817568
 31
0.0
  0
INSERT
  5
290
330
221
100
AcDbEntity
  8
0
  6
Continuous
 62
     2
100
AcDbBlockReference
  2
_CLOSED
 10
249.3270692568
 20
270.3698817568
 30
0.0
 41
2.5
 42
2.5
 43
2.5
 50
180.0
  0
INSERT
  5
291
330
221
100
AcDbEntity
  8
0
  6
Continuous
 62
     2
100
AcDbBlockReference
  2
_CLOSED
 10
247.3270692568
 20
270.3698817568
 30
0.0
 41
2.5
 42
2.5
 43
2.5
  0
ENDBLK
  5
292
330
221
100
AcDbEntity
  8
0
  6
ByBlock
 62
     0
100
AcDbBlockEnd
  0
BLOCK
  5
293
330
222
100
AcDbEntity
  8
0
100
AcDbBlockBegin
  2
*D4
 70
     1
 10
0.0
 20
0.0
 30
0.0
  3
*D4
  1

  0
MTEXT
  5
294
330
222
100
AcDbEntity
  8
0
  6
Continuous
 62
     2
100
AcDbMText
 10
241.3270692568
 20
100.6539960811
 30
0.0
 40
3.0
 41
6.1071428571
 46
0.0
 71
     2
 72
     1
  1
16
 73
     1
 44
1.0
  0
LINE
  5
295
330
222
100
AcDbEntity
  8
0
  6
Continuous
 62
     2
100
AcDbLine
 10
249.3270692568
 20
105.3667464995
 30
0.0
 11
249.3270692568
 21
96.1539960811
 31
0.0
  0
LINE
  5
296
330
222
100
AcDbEntity
  8
0
  6
Continuous
 62
     2
100
AcDbLine
 10
233.3270692568
 20
104.7833614865
 30
0.0
 11
233.3270692568
 21
96.1539960811
 31
0.0
  0
LINE
  5
297
330
222
100
AcDbEntity
  8
0
  6
Continuous
 62
     2
100
AcDbLine
 10
249.3270692568
 20
96.9039960811
 30
0.0
 11
241.3270692568
 21
96.9039960811
 31
0.0
  0
LINE
  5
298
330
222
100
AcDbEntity
  8
0
  6
Continuous
 62
     2
100
AcDbLine
 10
233.3270692568
 20
96.9039960811
 30
0.0
 11
241.3270692568
 21
96.9039960811
 31
0.0
  0
INSERT
  5
299
330
222
100
AcDbEntity
  8
0
  6
Continuous
 62
     2
100
AcDbBlockReference
  2
_CLOSED
 10
249.3270692568
 20
96.9039960811
 30
0.0
 41
2.5
 42
2.5
 43
2.5
  0
INSERT
  5
29A
330
222
100
AcDbEntity
  8
0
  6
Continuous
 62
     2
100
AcDbBlockReference
  2
_CLOSED
 10
233.3270692568
 20
96.9039960811
 30
0.0
 41
2.5
 42
2.5
 43
2.5
 50
180.0
  0
ENDBLK
  5
29B
330
222
100
AcDbEntity
  8
0
  6
ByBlock
 62
     0
100
AcDbBlockEnd
  0
BLOCK
  5
29C
330
223
100
AcDbEntity
  8
0
100
AcDbBlockBegin
  2
*D5
 70
     1
 10
0.0
 20
0.0
 30
0.0
  3
*D5
  1

  0
MTEXT
  5
29D
330
223
100
AcDbEntity
  8
0
  6
Continuous
 62
     2
100
AcDbMText
 10
240.3270692568
 20
109.7868053146
 30
0.0
 40
3.0
 41
6.1071428571
 46
0.0
 71
     2
 72
     1
  1
14
 73
     1
 44
1.0
  0
LINE
  5
29E
330
223
100
AcDbEntity
  8
0
  6
Continuous
 62
     2
100
AcDbLine
 10
247.3270692568
 20
111.3493627157
 30
0.0
 11
247.3270692568
 21
105.2868053146
 31
0.0
  0
LINE
  5
29F
330
223
100
AcDbEntity
  8
0
  6
Continuous
 62
     2
100
AcDbLine
 10
233.3270692568
 20
113.5603171622
 30
0.0
 11
233.3270692568
 21
105.2868053146
 31
0.0
  0
LINE
  5
2A0
330
223
100
AcDbEntity
  8
0
  6
Continuous
 62
     2
100
AcDbLine
 10
247.3270692568
 20
106.0368053146
 30
0.0
 11
240.3270692568
 21
106.0368053146
 31
0.0
  0
LINE
  5
2A1
330
223
100
AcDbEntity
  8
0
  6
Continuous
 62
     2
100
AcDbLine
 10
233.3270692568
 20
106.0368053146
 30
0.0
 11
240.3270692568
 21
106.0368053146
 31
0.0
  0
INSERT
  5
2A2
330
223
100
AcDbEntity
  8
0
  6
Continuous
 62
     2
100
AcDbBlockReference
  2
_CLOSED
 10
247.3270692568
 20
106.0368053146
 30
0.0
 41
2.5
 42
2.5
 43
2.5
  0
INSERT
  5
2A3
330
223
100
AcDbEntity
  8
0
  6
Continuous
 62
     2
100
AcDbBlockReference
  2
_CLOSED
 10
233.3270692568
 20
106.0368053146
 30
0.0
 41
2.5
 42
2.5
 43
2.5
 50
180.0
  0
ENDBLK
  5
2A4
330
223
100
AcDbEntity
  8
0
  6
ByBlock
 62
     0
100
AcDbBlockEnd
  0
BLOCK
  5
22A
330
224
100
AcDbEntity
  8
0
100
AcDbBlockBegin
  2
LOGO2_BL1
 70
     0
 10
293.8347814228
 20
42.2503143264
 30
0.0
  3
LOGO2_BL1
  1

  0
LINE
  5
22B
330
224
100
AcDbEntity
  8
0
  6
Continuous
 62
     7
100
AcDbLine
 10
285.577706651
 20
45.4458056653
 30
0.0
 11
284.2733657216
 21
45.4458056653
 31
0.0
  0
LINE
  5
22C
330
224
100
AcDbEntity
  8
0
  6
Continuous
 62
     7
100
AcDbLine
 10
284.2733657216
 20
45.4458056653
 30
0.0
 11
284.2733657216
 21
34.9867396054
 31
0.0
  0
LINE
  5
22D
330
224
100
AcDbEntity
  8
0
  6
Continuous
 62
     7
100
AcDbLine
 10
284.2733657216
 20
34.9867396054
 30
0.0
 11
288.7544206099
 21
34.9867396054
 31
0.0
  0
LINE
  5
22E
330
224
100
AcDbEntity
  8
0
  6
Continuous
 62
     7
100
AcDbLine
 10
288.7544206099
 20
34.9867396054
 30
0.0
 11
288.7544206099
 21
36.1795939305
 31
0.0
  0
LINE
  5
22F
330
224
100
AcDbEntity
  8
0
  6
Continuous
 62
     7
100
AcDbLine
 10
288.7544206099
 20
36.1795939305
 30
0.0
 11
285.577706651
 21
36.1795939305
 31
0.0
  0
LINE
  5
230
330
224
100
AcDbEntity
  8
0
  6
Continuous
 62
     7
100
AcDbLine
 10
285.577706651
 20
36.1795939305
 30
0.0
 11
285.577706651
 21
45.4458056653
 31
0.0
  0
LINE
  5
231
330
224
100
AcDbEntity
  8
0
  6
Continuous
 62
     7
100
AcDbLine
 10
300.5140328673
 20
45.4458056653
 30
0.0
 11
299.2102153492
 21
45.4458056653
 31
0.0
  0
LINE
  5
232
330
224
100
AcDbEntity
  8
0
  6
Continuous
 62
     7
100
AcDbLine
 10
299.2102153492
 20
45.4458056653
 30
0.0
 11
299.2102153492
 21
34.9867396054
 31
0.0
  0
LINE
  5
233
330
224
100
AcDbEntity
  8
0
  6
Continuous
 62
     7
100
AcDbLine
 10
299.2102153492
 20
34.9867396054
 30
0.0
 11
303.6914010903
 21
34.9867396054
 31
0.0
  0
LINE
  5
234
330
224
100
AcDbEntity
  8
0
  6
Continuous
 62
     7
100
AcDbLine
 10
303.6914010903
 20
34.9867396054
 30
0.0
 11
303.6914010903
 21
36.1795939305
 31
0.0
  0
LINE
  5
235
330
224
100
AcDbEntity
  8
0
  6
Continuous
 62
     7
100
AcDbLine
 10
303.6914010903
 20
36.1795939305
 30
0.0
 11
300.5140328673
 21
36.1795939305
 31
0.0
  0
LINE
  5
236
330
224
100
AcDbEntity
  8
0
  6
Continuous
 62
     7
100
AcDbLine
 10
300.5140328673
 20
36.1795939305
 30
0.0
 11
300.5140328673
 21
45.4458056653
 31
0.0
  0
LWPOLYLINE
  5
237
330
224
100
AcDbEntity
  8
0
  6
Continuous
 62
     7
100
AcDbPolyline
 90
        2
 70
     0
 43
0.2
 10
282.6277606326
 20
31.6431882985
 10
282.6277606326
 20
29.7861250492
  0
LWPOLYLINE
  5
238
330
224
100
AcDbEntity
  8
0
  6
Continuous
 62
     7
100
AcDbPolyline
 90
        2
 70
     0
 43
0.2
 10
282.6277606326
 20
29.7861250492
 10
283.423476643
 20
29.7861250492
  0
LWPOLYLINE
  5
239
330
224
100
AcDbEntity
  8
0
  6
Continuous
 62
     7
100
AcDbPolyline
 90
        2
 70
     0
 43
0.2
 10
283.423476643
 20
29.7861250492
 10
283.423476643
 20
29.9981066207
  0
LWPOLYLINE
  5
23A
330
224
100
AcDbEntity
  8
0
  6
Continuous
 62
     7
100
AcDbPolyline
 90
        2
 70
     0
 43
0.2
 10
283.423476643
 20
29.9981066207
 10
282.8593701275
 20
29.9981066207
  0
LWPOLYLINE
  5
23B
330
224
100
AcDbEntity
  8
0
  6
Continuous
 62
     7
100
AcDbPolyline
 90
        2
 70
     0
 43
0.2
 10
282.8593701275
 20
29.9981066207
 10
282.8593701275
 20
31.6431882985
  0
LWPOLYLINE
  5
23C
330
224
100
AcDbEntity
  8
0
  6
Continuous
 62
     7
100
AcDbPolyline
 90
        2
 70
     0
 43
0.2
 10
282.8593701275
 20
31.6431882985
 10
282.6277606326
 20
31.6431882985
  0
SPLINE
  5
23D
330
224
100
AcDbEntity
  8
0
  6
Continuous
 62
     7
100
AcDbSpline
 70
     3
 71
     3
 72
    35
 73
    31
 74
     0
 42
0.000000001
 43
0.0000001
 40
0.0
 40
0.0
 40
0.0
 40
0.0
 40
1.0
 40
1.0
 40
1.0
 40
2.0
 40
2.0
 40
2.0
 40
3.0
 40
3.0
 40
3.0
 40
4.0
 40
4.0
 40
4.0
 40
5.0
 40
5.0
 40
5.0
 40
6.0
 40
6.0
 40
6.0
 40
7.0
 40
7.0
 40
7.0
 40
8.0
 40
8.0
 40
8.0
 40
9.0
 40
9.0
 40
9.0
 40
10.0
 40
10.0
 40
10.0
 40
10.0
 10
284.8217698985
 20
30.938676705
 30
0.0
 10
284.8217698985
 20
30.938676705
 30
0.0
 10
284.8217698985
 20
30.2765614259
 30
0.0
 10
284.8217698985
 20
30.2765614259
 30
0.0
 10
284.8217698985
 20
29.9614678306
 30
0.0
 10
284.9696335873
 20
29.7468692026
 30
0.0
 10
285.3097200716
 20
29.7468692026
 30
0.0
 10
285.6492831446
 20
29.7468692026
 30
0.0
 10
285.7974085391
 20
29.9614678306
 30
0.0
 10
285.7974085391
 20
30.2765614259
 30
0.0
 10
285.7974085391
 20
30.2765614259
 30
0.0
 10
285.7974085391
 20
30.938676705
 30
0.0
 10
285.7974085391
 20
30.938676705
 30
0.0
 10
285.7974085391
 20
30.938676705
 30
0.0
 10
285.5753513002
 20
30.938676705
 30
0.0
 10
285.5753513002
 20
30.938676705
 30
0.0
 10
285.5753513002
 20
30.938676705
 30
0.0
 10
285.5753513002
 20
30.3016851677
 30
0.0
 10
285.5753513002
 20
30.3016851677
 30
0.0
 10
285.5753513002
 20
30.1158741605
 30
0.0
 10
285.5286368428
 20
29.95309325
 30
0.0
 10
285.3097200716
 20
29.95309325
 30
0.0
 10
285.0902798892
 20
29.95309325
 30
0.0
 10
285.0435654317
 20
30.1158741605
 30
0.0
 10
285.0435654317
 20
30.3016851677
 30
0.0
 10
285.0435654317
 20
30.3016851677
 30
0.0
 10
285.0435654317
 20
30.938676705
 30
0.0
 10
285.0435654317
 20
30.938676705
 30
0.0
 10
285.0435654317
 20
30.938676705
 30
0.0
 10
284.8217698985
 20
30.938676705
 30
0.0
 10
284.8217698985
 20
30.938676705
 30
0.0
  0
SPLINE
  5
23E
330
224
100
AcDbEntity
  8
0
  6
Continuous
 62
     7
100
AcDbSpline
 70
     3
 71
     3
 72
    35
 73
    31
 74
     0
 42
0.000000001
 43
0.0000001
 40
0.0
 40
0.0
 40
0.0
 40
0.0
 40
1.0
 40
1.0
 40
1.0
 40
2.0
 40
2.0
 40
2.0
 40
3.0
 40
3.0
 40
3.0
 40
4.0
 40
4.0
 40
4.0
 40
5.0
 40
5.0
 40
5.0
 40
6.0
 40
6.0
 40
6.0
 40
7.0
 40
7.0
 40
7.0
 40
8.0
 40
8.0
 40
8.0
 40
9.0
 40
9.0
 40
9.0
 40
10.0
 40
10.0
 40
10.0
 40
10.0
 10
288.2205410963
 20
30.8973272133
 30
0.0
 10
288.1320845886
 20
30.9486215195
 30
0.0
 10
288.018635192
 20
30.9737452613
 30
0.0
 10
287.914999757
 20
30.9737452613
 30
0.0
 10
287.5601269038
 20
30.9737452613
 30
0.0
 10
287.2846817136
 20
30.7099459722
 30
0.0
 10
287.2846817136
 20
30.3524560626
 30
0.0
 10
287.2846817136
 20
30.0075280239
 30
0.0
 10
287.5631365187
 20
29.7473926139
 30
0.0
 10
287.9026995917
 20
29.7473926139
 30
0.0
 10
288.018635192
 20
29.7473926139
 30
0.0
 10
288.1193918649
 20
29.7693758879
 30
0.0
 10
288.2205410963
 20
29.8232872506
 30
0.0
 10
288.2205410963
 20
29.8232872506
 30
0.0
 10
288.2205410963
 20
30.105929346
 30
0.0
 10
288.2205410963
 20
30.105929346
 30
0.0
 10
288.1366644374
 20
30.0127621368
 30
0.0
 10
288.0331598552
 20
29.9536166613
 30
0.0
 10
287.9050549425
 20
29.9536166613
 30
0.0
 10
287.6713518025
 20
29.9536166613
 30
0.0
 10
287.5060846884
 20
30.125818975
 30
0.0
 10
287.5060846884
 20
30.3624008771
 30
0.0
 10
287.5060846884
 20
30.5743824487
 30
0.0
 10
287.6738380061
 20
30.7664743913
 30
0.0
 10
287.8906611321
 20
30.7664743913
 30
0.0
 10
288.0234767464
 20
30.7664743913
 30
0.0
 10
288.1320845886
 20
30.7125630287
 30
0.0
 10
288.2205410963
 20
30.6115446501
 30
0.0
 10
288.2205410963
 20
30.6115446501
 30
0.0
 10
288.2205410963
 20
30.8973272133
 30
0.0
 10
288.2205410963
 20
30.8973272133
 30
0.0
  0
SPLINE
  5
23F
330
224
100
AcDbEntity
  8
0
  6
Continuous
 62
     7
100
AcDbSpline
 70
     3
 71
     3
 72
    32
 73
    28
 74
     0
 42
0.000000001
 43
0.0000001
 40
0.0
 40
0.0
 40
0.0
 40
0.0
 40
1.0
 40
1.0
 40
1.0
 40
2.0
 40
2.0
 40
2.0
 40
3.0
 40
3.0
 40
3.0
 40
4.0
 40
4.0
 40
4.0
 40
5.0
 40
5.0
 40
5.0
 40
6.0
 40
6.0
 40
6.0
 40
7.0
 40
7.0
 40
7.0
 40
8.0
 40
8.0
 40
8.0
 40
9.0
 40
9.0
 40
9.0
 40
9.0
 10
290.7524123485
 20
30.325762087
 30
0.0
 10
290.7524123485
 20
30.325762087
 30
0.0
 10
290.7524123485
 20
30.3597838207
 30
0.0
 10
290.7524123485
 20
30.3597838207
 30
0.0
 10
290.7524123485
 20
30.7020948029
 30
0.0
 10
290.5795557707
 20
30.9737452613
 30
0.0
 10
290.2129061636
 20
30.9737452613
 30
0.0
 10
289.8412841492
 20
30.9737452613
 30
0.0
 10
289.6515475573
 20
30.7073289158
 30
0.0
 10
289.6515475573
 20
30.3524560626
 30
0.0
 10
289.6515475573
 20
30.0127621368
 30
0.0
 10
289.8656227741
 20
29.7468692026
 30
0.0
 10
290.217747718
 20
29.7468692026
 30
0.0
 10
290.4417677492
 20
29.7468692026
 30
0.0
 10
290.6439353591
 20
29.8625430972
 30
0.0
 10
290.7524123485
 20
30.0619627979
 30
0.0
 10
290.7524123485
 20
30.0619627979
 30
0.0
 10
290.5647694018
 20
30.1687387006
 30
0.0
 10
290.5647694018
 20
30.1687387006
 30
0.0
 10
290.4812853014
 20
30.0300347093
 30
0.0
 10
290.3900808845
 20
29.9441952581
 30
0.0
 10
290.2204956272
 20
29.9441952581
 30
0.0
 10
290.0085140557
 20
29.9441952581
 30
0.0
 10
289.8755675885
 20
30.1289594427
 30
0.0
 10
289.8732122377
 20
30.325762087
 30
0.0
 10
289.8732122377
 20
30.325762087
 30
0.0
 10
290.7524123485
 20
30.325762087
 30
0.0
 10
290.7524123485
 20
30.325762087
 30
0.0
  0
SPLINE
  5
240
330
224
100
AcDbEntity
  8
0
  6
Continuous
 62
     7
100
AcDbSpline
 70
     3
 71
     3
 72
    14
 73
    10
 74
     0
 42
0.000000001
 43
0.0000001
 40
0.0
 40
0.0
 40
0.0
 40
0.0
 40
1.0
 40
1.0
 40
1.0
 40
2.0
 40
2.0
 40
2.0
 40
3.0
 40
3.0
 40
3.0
 40
3.0
 10
289.8852506974
 20
30.4932536991
 30
0.0
 10
289.9128606428
 20
30.6581282548
 30
0.0
 10
290.0407038499
 20
30.7811299074
 30
0.0
 10
290.2129061636
 20
30.7811299074
 30
0.0
 10
290.3900808845
 20
30.7811299074
 30
0.0
 10
290.5035302812
 20
30.6654560128
 30
0.0
 10
290.5307476681
 20
30.4932536991
 30
0.0
 10
290.5307476681
 20
30.4932536991
 30
0.0
 10
289.8852506974
 20
30.4932536991
 30
0.0
 10
289.8852506974
 20
30.4932536991
 30
0.0
  0
SPLINE
  5
241
330
224
100
AcDbEntity
  8
0
  6
Continuous
 62
     7
100
AcDbSpline
 70
     3
 71
     3
 72
    20
 73
    16
 74
     0
 42
0.000000001
 43
0.0000001
 40
0.0
 40
0.0
 40
0.0
 40
0.0
 40
1.0
 40
1.0
 40
1.0
 40
2.0
 40
2.0
 40
2.0
 40
3.0
 40
3.0
 40
3.0
 40
4.0
 40
4.0
 40
4.0
 40
5.0
 40
5.0
 40
5.0
 40
5.0
 10
292.7764437987
 20
30.7026182142
 30
0.0
 10
292.7764437987
 20
30.7026182142
 30
0.0
 10
293.1875833654
 20
30.2001433779
 30
0.0
 10
293.1875833654
 20
30.2001433779
 30
0.0
 10
293.0715169123
 20
30.0844694832
 30
0.0
 10
292.9337288907
 20
29.9541400726
 30
0.0
 10
292.7617882827
 20
29.9541400726
 30
0.0
 10
292.5843518561
 20
29.9541400726
 30
0.0
 10
292.416860244
 20
30.118491217
 30
0.0
 10
292.416860244
 20
30.2954042323
 30
0.0
 10
292.416860244
 20
30.4733640701
 30
0.0
 10
292.6266173176
 20
30.5995061905
 30
0.0
 10
292.754198819
 20
30.6874392869
 30
0.0
 10
292.754198819
 20
30.6874392869
 30
0.0
 10
292.7764437987
 20
30.7026182142
 30
0.0
 10
292.7764437987
 20
30.7026182142
 30
0.0
  0
SPLINE
  5
242
330
224
100
AcDbEntity
  8
0
  6
Continuous
 62
     7
100
AcDbSpline
 70
     3
 71
     3
 72
    23
 73
    19
 74
     0
 42
0.000000001
 43
0.0000001
 40
0.0
 40
0.0
 40
0.0
 40
0.0
 40
1.0
 40
1.0
 40
1.0
 40
2.0
 40
2.0
 40
2.0
 40
3.0
 40
3.0
 40
3.0
 40
4.0
 40
4.0
 40
4.0
 40
5.0
 40
5.0
 40
5.0
 40
6.0
 40
6.0
 40
6.0
 40
6.0
 10
292.8257753126
 20
30.9936348903
 30
0.0
 10
292.8257753126
 20
30.9936348903
 30
0.0
 10
292.7641436335
 20
31.0721465835
 30
0.0
 10
292.7641436335
 20
31.0721465835
 30
0.0
 10
292.7102322708
 20
31.1407134622
 30
0.0
 10
292.6534421461
 20
31.2098037522
 30
0.0
 10
292.6534421461
 20
31.3034943727
 30
0.0
 10
292.6534421461
 20
31.422308735
 30
0.0
 10
292.7493572646
 20
31.4997736056
 30
0.0
 10
292.8603204576
 20
31.4997736056
 30
0.0
 10
292.9835838159
 20
31.4997736056
 30
0.0
 10
293.076881878
 20
31.4285896705
 30
0.0
 10
293.076881878
 20
31.2982602598
 30
0.0
 10
293.076881878
 20
31.1632201475
 30
0.0
 10
292.9487769653
 20
31.0868020995
 30
0.0
 10
292.8552171976
 20
31.0130011079
 30
0.0
 10
292.8552171976
 20
31.0130011079
 30
0.0
 10
292.8257753126
 20
30.9936348903
 30
0.0
 10
292.8257753126
 20
30.9936348903
 30
0.0
  0
SPLINE
  5
243
330
224
100
AcDbEntity
  8
0
  6
Continuous
 62
     7
100
AcDbSpline
 70
     3
 71
     3
 72
    50
 73
    46
 74
     0
 42
0.000000001
 43
0.0000001
 40
0.0
 40
0.0
 40
0.0
 40
0.0
 40
1.0
 40
1.0
 40
1.0
 40
2.0
 40
2.0
 40
2.0
 40
3.0
 40
3.0
 40
3.0
 40
4.0
 40
4.0
 40
4.0
 40
5.0
 40
5.0
 40
5.0
 40
6.0
 40
6.0
 40
6.0
 40
7.0
 40
7.0
 40
7.0
 40
8.0
 40
8.0
 40
8.0
 40
9.0
 40
9.0
 40
9.0
 40
10.0
 40
10.0
 40
10.0
 40
11.0
 40
11.0
 40
11.0
 40
12.0
 40
12.0
 40
12.0
 40
13.0
 40
13.0
 40
13.0
 40
14.0
 40
14.0
 40
14.0
 40
15.0
 40
15.0
 40
15.0
 40
15.0
 10
293.5279315553
 20
29.7866484604
 30
0.0
 10
293.5279315553
 20
29.7866484604
 30
0.0
 10
293.81332156
 20
29.7866484604
 30
0.0
 10
293.81332156
 20
29.7866484604
 30
0.0
 10
293.81332156
 20
29.7866484604
 30
0.0
 10
293.4809553922
 20
30.1975263214
 30
0.0
 10
293.4809553922
 20
30.1975263214
 30
0.0
 10
293.4809553922
 20
30.1975263214
 30
0.0
 10
293.707461627
 20
30.4634192557
 30
0.0
 10
293.707461627
 20
30.4634192557
 30
0.0
 10
293.707461627
 20
30.4634192557
 30
0.0
 10
293.5592053797
 20
30.6162553517
 30
0.0
 10
293.5592053797
 20
30.6162553517
 30
0.0
 10
293.5592053797
 20
30.6162553517
 30
0.0
 10
293.3432982235
 20
30.3650179335
 30
0.0
 10
293.3432982235
 20
30.3650179335
 30
0.0
 10
293.3432982235
 20
30.3650179335
 30
0.0
 10
292.9562355761
 20
30.8329476249
 30
0.0
 10
292.9562355761
 20
30.8329476249
 30
0.0
 10
293.1116887286
 20
30.9470512857
 30
0.0
 10
293.2939667096
 20
31.0868020995
 30
0.0
 10
293.2939667096
 20
31.2961666147
 30
0.0
 10
293.2939667096
 20
31.5400762748
 30
0.0
 10
293.0919299525
 20
31.6834909677
 30
0.0
 10
292.8654237177
 20
31.6834909677
 30
0.0
 10
292.6212523519
 20
31.6834909677
 30
0.0
 10
292.4368807257
 20
31.5327485168
 30
0.0
 10
292.4368807257
 20
31.2762769857
 30
0.0
 10
292.4368807257
 20
31.1187301881
 30
0.0
 10
292.5355437535
 20
30.9810730194
 30
0.0
 10
292.6408802752
 20
30.8701098263
 30
0.0
 10
292.6408802752
 20
30.8701098263
 30
0.0
 10
292.5253372334
 20
30.7863640203
 30
0.0
 10
292.5253372334
 20
30.7863640203
 30
0.0
 10
292.3476391011
 20
30.6581282548
 30
0.0
 10
292.2002988236
 20
30.5304159005
 30
0.0
 10
292.2002988236
 20
30.2933105871
 30
0.0
 10
292.2002988236
 20
29.9729828789
 30
0.0
 10
292.4588639998
 20
29.7468692026
 30
0.0
 10
292.7692468935
 20
29.7468692026
 30
0.0
 10
292.9881636647
 20
29.7468692026
 30
0.0
 10
293.1853588674
 20
29.8719645004
 30
0.0
 10
293.3256330925
 20
30.0378858786
 30
0.0
 10
293.3256330925
 20
30.0378858786
 30
0.0
 10
293.5279315553
 20
29.7866484604
 30
0.0
 10
293.5279315553
 20
29.7866484604
 30
0.0
  0
LWPOLYLINE
  5
244
330
224
100
AcDbEntity
  8
0
  6
Continuous
 62
     7
100
AcDbPolyline
 90
        2
 70
     0
 43
0.2
 10
295.463375645
 20
31.6431882985
 10
295.2320278558
 20
31.6431882985
  0
LWPOLYLINE
  5
245
330
224
100
AcDbEntity
  8
0
  6
Continuous
 62
     7
100
AcDbPolyline
 90
        2
 70
     0
 43
0.2
 10
295.2320278558
 20
31.6431882985
 10
295.2320278558
 20
29.7861250492
  0
LWPOLYLINE
  5
246
330
224
100
AcDbEntity
  8
0
  6
Continuous
 62
     7
100
AcDbPolyline
 90
        2
 70
     0
 43
0.2
 10
295.2320278558
 20
29.7861250492
 10
296.0273513077
 20
29.7861250492
  0
LWPOLYLINE
  5
247
330
224
100
AcDbEntity
  8
0
  6
Continuous
 62
     7
100
AcDbPolyline
 90
        2
 70
     0
 43
0.2
 10
296.0273513077
 20
29.7861250492
 10
296.0273513077
 20
29.9981066207
  0
LWPOLYLINE
  5
248
330
224
100
AcDbEntity
  8
0
  6
Continuous
 62
     7
100
AcDbPolyline
 90
        2
 70
     0
 43
0.2
 10
296.0273513077
 20
29.9981066207
 10
295.463375645
 20
29.9981066207
  0
LWPOLYLINE
  5
249
330
224
100
AcDbEntity
  8
0
  6
Continuous
 62
     7
100
AcDbPolyline
 90
        2
 70
     0
 43
0.2
 10
295.463375645
 20
29.9981066207
 10
295.463375645
 20
31.6431882985
  0
LWPOLYLINE
  5
24A
330
224
100
AcDbEntity
  8
0
  6
Continuous
 62
     7
100
AcDbPolyline
 90
        2
 70
     0
 43
0.2
 10
297.7064547192
 20
30.938676705
 10
297.4853134501
 20
30.938676705
  0
LWPOLYLINE
  5
24B
330
224
100
AcDbEntity
  8
0
  6
Continuous
 62
     7
100
AcDbPolyline
 90
        2
 70
     0
 43
0.2
 10
297.4853134501
 20
30.938676705
 10
297.4853134501
 20
29.7866484604
  0
LWPOLYLINE
  5
24C
330
224
100
AcDbEntity
  8
0
  6
Continuous
 62
     7
100
AcDbPolyline
 90
        2
 70
     0
 43
0.2
 10
297.4853134501
 20
29.7866484604
 10
297.7064547192
 20
29.7866484604
  0
LWPOLYLINE
  5
24D
330
224
100
AcDbEntity
  8
0
  6
Continuous
 62
     7
100
AcDbPolyline
 90
        2
 70
     0
 43
0.2
 10
297.7064547192
 20
29.7866484604
 10
297.7064547192
 20
30.938676705
  0
LWPOLYLINE
  5
24E
330
224
100
AcDbEntity
  8
0
  6
Continuous
 62
     7
100
AcDbPolyline
 90
        2
 70
     1
 43
0.2
 10
297.443431442
 20
31.468630634
 42
1.0
 10
297.7485984329
 20
31.468630634
 42
1.0
  0
SPLINE
  5
24F
330
224
100
AcDbEntity
  8
0
  6
Continuous
 62
     7
100
AcDbSpline
 70
     3
 71
     3
 72
    17
 73
    13
 74
     0
 42
0.000000001
 43
0.0000001
 40
0.0
 40
0.0
 40
0.0
 40
0.0
 40
1.0
 40
1.0
 40
1.0
 40
2.0
 40
2.0
 40
2.0
 40
3.0
 40
3.0
 40
3.0
 40
4.0
 40
4.0
 40
4.0
 40
4.0
 10
299.8367386608
 20
29.9441952581
 30
0.0
 10
299.6027738151
 20
29.9441952581
 30
0.0
 10
299.4724444045
 20
30.1462320152
 30
0.0
 10
299.4724444045
 20
30.3624008771
 30
0.0
 10
299.4724444045
 20
30.5769995051
 30
0.0
 10
299.6082696337
 20
30.7758957945
 30
0.0
 10
299.8367386608
 20
30.7758957945
 30
0.0
 10
300.076199325
 20
30.7758957945
 30
0.0
 10
300.2117628486
 20
30.5869443196
 30
0.0
 10
300.2117628486
 20
30.3624008771
 30
0.0
 10
300.2117628486
 20
30.1362872007
 30
0.0
 10
300.0785546758
 20
29.9441952581
 30
0.0
 10
299.8367386608
 20
29.9441952581
 30
0.0
  0
SPLINE
  5
250
330
224
100
AcDbEntity
  8
0
  6
Continuous
 62
     7
100
AcDbSpline
 70
     3
 71
     3
 72
    50
 73
    46
 74
     0
 42
0.000000001
 43
0.0000001
 40
0.0
 40
0.0
 40
0.0
 40
0.0
 40
1.0
 40
1.0
 40
1.0
 40
2.0
 40
2.0
 40
2.0
 40
3.0
 40
3.0
 40
3.0
 40
4.0
 40
4.0
 40
4.0
 40
5.0
 40
5.0
 40
5.0
 40
6.0
 40
6.0
 40
6.0
 40
7.0
 40
7.0
 40
7.0
 40
8.0
 40
8.0
 40
8.0
 40
9.0
 40
9.0
 40
9.0
 40
10.0
 40
10.0
 40
10.0
 40
11.0
 40
11.0
 40
11.0
 40
12.0
 40
12.0
 40
12.0
 40
13.0
 40
13.0
 40
13.0
 40
14.0
 40
14.0
 40
14.0
 40
15.0
 40
15.0
 40
15.0
 40
15.0
 10
300.4208656581
 20
30.9392001163
 30
0.0
 10
300.4208656581
 20
30.9392001163
 30
0.0
 10
300.1992009777
 20
30.9392001163
 30
0.0
 10
300.1992009777
 20
30.9392001163
 30
0.0
 10
300.1992009777
 20
30.9392001163
 30
0.0
 10
300.1992009777
 20
30.7418740608
 30
0.0
 10
300.1992009777
 20
30.7418740608
 30
0.0
 10
300.1992009777
 20
30.7418740608
 30
0.0
 10
300.1944902761
 20
30.7418740608
 30
0.0
 10
300.1944902761
 20
30.7418740608
 30
0.0
 10
300.1031550063
 20
30.8847653424
 30
0.0
 10
299.965236132
 20
30.97322185
 30
0.0
 10
299.792510407
 20
30.97322185
 30
0.0
 10
299.4601442392
 20
30.97322185
 30
0.0
 10
299.2510414297
 20
30.6853456417
 30
0.0
 10
299.2510414297
 20
30.3697286351
 30
0.0
 10
299.2510414297
 20
30.0399795238
 30
0.0
 10
299.4481057796
 20
29.7468692026
 30
0.0
 10
299.8029786327
 20
29.7468692026
 30
0.0
 10
299.965236132
 20
29.7468692026
 30
0.0
 10
300.1052486515
 20
29.8353257102
 30
0.0
 10
300.1944902761
 20
29.9661785322
 30
0.0
 10
300.1944902761
 20
29.9661785322
 30
0.0
 10
300.1992009777
 20
29.9661785322
 30
0.0
 10
300.1992009777
 20
29.9661785322
 30
0.0
 10
300.1992009777
 20
29.9661785322
 30
0.0
 10
300.1992009777
 20
29.7468692026
 30
0.0
 10
300.1992009777
 20
29.7468692026
 30
0.0
 10
300.1992009777
 20
29.5102873005
 30
0.0
 10
300.1426725586
 20
29.3234294707
 30
0.0
 10
299.8694518663
 20
29.3234294707
 30
0.0
 10
299.6671534035
 20
29.3234294707
 30
0.0
 10
299.5245238276
 20
29.4417204217
 30
0.0
 10
299.5245238276
 20
29.6479444692
 30
0.0
 10
299.5245238276
 20
29.6479444692
 30
0.0
 10
299.3028591472
 20
29.6479444692
 30
0.0
 10
299.3028591472
 20
29.6479444692
 30
0.0
 10
299.3078315544
 20
29.3234294707
 30
0.0
 10
299.538917638
 20
29.1266268264
 30
0.0
 10
299.8592453462
 20
29.1266268264
 30
0.0
 10
300.3072854086
 20
29.1266268264
 30
0.0
 10
300.4208656581
 20
29.4118859783
 30
0.0
 10
300.4208656581
 20
29.8086317345
 30
0.0
 10
300.4208656581
 20
29.8086317345
 30
0.0
 10
300.4208656581
 20
30.9392001163
 30
0.0
 10
300.4208656581
 20
30.9392001163
 30
0.0
  0
SPLINE
  5
251
330
224
100
AcDbEntity
  8
0
  6
Continuous
 62
     7
100
AcDbSpline
 70
     3
 71
     3
 72
    44
 73
    40
 74
     0
 42
0.000000001
 43
0.0000001
 40
0.0
 40
0.0
 40
0.0
 40
0.0
 40
1.0
 40
1.0
 40
1.0
 40
2.0
 40
2.0
 40
2.0
 40
3.0
 40
3.0
 40
3.0
 40
4.0
 40
4.0
 40
4.0
 40
5.0
 40
5.0
 40
5.0
 40
6.0
 40
6.0
 40
6.0
 40
7.0
 40
7.0
 40
7.0
 40
8.0
 40
8.0
 40
8.0
 40
9.0
 40
9.0
 40
9.0
 40
10.0
 40
10.0
 40
10.0
 40
11.0
 40
11.0
 40
11.0
 40
12.0
 40
12.0
 40
12.0
 40
13.0
 40
13.0
 40
13.0
 40
13.0
 10
301.9897909935
 20
31.9242601601
 30
0.0
 10
301.9897909935
 20
31.9242601601
 30
0.0
 10
301.9897909935
 20
29.7861250492
 30
0.0
 10
301.9897909935
 20
29.7861250492
 30
0.0
 10
301.9897909935
 20
29.7861250492
 30
0.0
 10
302.2111939682
 20
29.7861250492
 30
0.0
 10
302.2111939682
 20
29.7861250492
 30
0.0
 10
302.2111939682
 20
29.7861250492
 30
0.0
 10
302.2111939682
 20
30.3158172725
 30
0.0
 10
302.2111939682
 20
30.3158172725
 30
0.0
 10
302.2111939682
 20
30.5257051989
 30
0.0
 10
302.2111939682
 20
30.7764192058
 30
0.0
 10
302.4964531201
 20
30.7764192058
 30
0.0
 10
302.7233519134
 20
30.7764192058
 30
0.0
 10
302.7503075947
 20
30.6434727387
 30
0.0
 10
302.7503075947
 20
30.4471935057
 30
0.0
 10
302.7503075947
 20
30.4471935057
 30
0.0
 10
302.7503075947
 20
29.7861250492
 30
0.0
 10
302.7503075947
 20
29.7861250492
 30
0.0
 10
302.7503075947
 20
29.7861250492
 30
0.0
 10
302.9722339808
 20
29.7861250492
 30
0.0
 10
302.9722339808
 20
29.7861250492
 30
0.0
 10
302.9722339808
 20
29.7861250492
 30
0.0
 10
302.9722339808
 20
30.4733640701
 30
0.0
 10
302.9722339808
 20
30.4733640701
 30
0.0
 10
302.9722339808
 20
30.7539125204
 30
0.0
 10
302.8882264691
 20
30.9737452613
 30
0.0
 10
302.5631880593
 20
30.9737452613
 30
0.0
 10
302.4234372455
 20
30.9737452613
 30
0.0
 10
302.2852566655
 20
30.9072720278
 30
0.0
 10
302.2159046698
 20
30.7842703751
 30
0.0
 10
302.2159046698
 20
30.7842703751
 30
0.0
 10
302.2111939682
 20
30.7842703751
 30
0.0
 10
302.2111939682
 20
30.7842703751
 30
0.0
 10
302.2111939682
 20
30.7842703751
 30
0.0
 10
302.2111939682
 20
31.9242601601
 30
0.0
 10
302.2111939682
 20
31.9242601601
 30
0.0
 10
302.2111939682
 20
31.9242601601
 30
0.0
 10
301.9897909935
 20
31.9242601601
 30
0.0
 10
301.9897909935
 20
31.9242601601
 30
0.0
  0
LWPOLYLINE
  5
252
330
224
100
AcDbEntity
  8
0
  6
Continuous
 62
     7
100
AcDbPolyline
 90
        2
 70
     0
 43
0.2
 10
304.8120246577
 20
30.7319292463
 10
305.0284552252
 20
30.7319292463
  0
LWPOLYLINE
  5
253
330
224
100
AcDbEntity
  8
0
  6
Continuous
 62
     7
100
AcDbPolyline
 90
        2
 70
     0
 43
0.2
 10
305.0284552252
 20
30.7319292463
 10
305.0284552252
 20
30.938676705
  0
LWPOLYLINE
  5
254
330
224
100
AcDbEntity
  8
0
  6
Continuous
 62
     7
100
AcDbPolyline
 90
        2
 70
     0
 43
0.2
 10
305.0284552252
 20
30.938676705
 10
304.8120246577
 20
30.938676705
  0
LWPOLYLINE
  5
255
330
224
100
AcDbEntity
  8
0
  6
Continuous
 62
     7
100
AcDbPolyline
 90
        2
 70
     0
 43
0.2
 10
304.8120246577
 20
30.938676705
 10
304.8120246577
 20
31.3793890094
  0
LWPOLYLINE
  5
256
330
224
100
AcDbEntity
  8
0
  6
Continuous
 62
     7
100
AcDbPolyline
 90
        2
 70
     0
 43
0.2
 10
304.8120246577
 20
31.3793890094
 10
304.5903599773
 20
31.3793890094
  0
LWPOLYLINE
  5
257
330
224
100
AcDbEntity
  8
0
  6
Continuous
 62
     7
100
AcDbPolyline
 90
        2
 70
     0
 43
0.2
 10
304.5903599773
 20
31.3793890094
 10
304.5903599773
 20
30.938676705
  0
LWPOLYLINE
  5
258
330
224
100
AcDbEntity
  8
0
  6
Continuous
 62
     7
100
AcDbPolyline
 90
        2
 70
     0
 43
0.2
 10
304.5903599773
 20
30.938676705
 10
304.4697136754
 20
30.938676705
  0
LWPOLYLINE
  5
259
330
224
100
AcDbEntity
  8
0
  6
Continuous
 62
     7
100
AcDbPolyline
 90
        2
 70
     0
 43
0.2
 10
304.4697136754
 20
30.938676705
 10
304.4697136754
 20
30.7319292463
  0
LWPOLYLINE
  5
25A
330
224
100
AcDbEntity
  8
0
  6
Continuous
 62
     7
100
AcDbPolyline
 90
        2
 70
     0
 43
0.2
 10
304.4697136754
 20
30.7319292463
 10
304.5903599773
 20
30.7319292463
  0
LWPOLYLINE
  5
25B
330
224
100
AcDbEntity
  8
0
  6
Continuous
 62
     7
100
AcDbPolyline
 90
        2
 70
     0
 43
0.2
 10
304.5903599773
 20
30.7319292463
 10
304.5903599773
 20
29.7861250492
  0
LWPOLYLINE
  5
25C
330
224
100
AcDbEntity
  8
0
  6
Continuous
 62
     7
100
AcDbPolyline
 90
        2
 70
     0
 43
0.2
 10
304.5903599773
 20
29.7861250492
 10
304.8120246577
 20
29.7861250492
  0
LWPOLYLINE
  5
25D
330
224
100
AcDbEntity
  8
0
  6
Continuous
 62
     7
100
AcDbPolyline
 90
        2
 70
     0
 43
0.2
 10
304.8120246577
 20
29.7861250492
 10
304.8120246577
 20
30.7319292463
  0
SPLINE
  5
25E
330
224
100
AcDbEntity
  8
0
  6
Continuous
 62
     7
100
AcDbSpline
 70
     3
 71
     3
 72
    20
 73
    16
 74
     0
 42
0.000000001
 43
0.0000001
 40
0.0
 40
0.0
 40
0.0
 40
0.0
 40
1.0
 40
1.0
 40
1.0
 40
2.0
 40
2.0
 40
2.0
 40
3.0
 40
3.0
 40
3.0
 40
4.0
 40
4.0
 40
4.0
 40
5.0
 40
5.0
 40
5.0
 40
5.0
 10
292.5940349649
 20
40.1470514925
 30
0.0
 10
292.5940349649
 20
40.1470514925
 30
0.0
 10
294.9103916194
 20
37.3174900703
 30
0.0
 10
294.9103916194
 20
37.3174900703
 30
0.0
 10
294.258744566
 20
36.6653196056
 30
0.0
 10
293.481871362
 20
35.9294033349
 30
0.0
 10
292.5106817173
 20
35.9294033349
 30
0.0
 10
291.5121438329
 20
35.9294033349
 30
0.0
 10
290.5688258393
 20
36.8589817821
 30
0.0
 10
290.5688258393
 20
37.8581739307
 30
0.0
 10
290.5688258393
 20
38.8573660792
 30
0.0
 10
291.7476789124
 20
39.5639713179
 30
0.0
 10
292.4692013728
 20
40.0638290978
 30
0.0
 10
292.4692013728
 20
40.0638290978
 30
0.0
 10
292.5940349649
 20
40.1470514925
 30
0.0
 10
292.5940349649
 20
40.1470514925
 30
0.0
  0
SPLINE
  5
25F
330
224
100
AcDbEntity
  8
0
  6
Continuous
 62
     7
100
AcDbSpline
 70
     3
 71
     3
 72
    23
 73
    19
 74
     0
 42
0.000000001
 43
0.0000001
 40
0.0
 40
0.0
 40
0.0
 40
0.0
 40
1.0
 40
1.0
 40
1.0
 40
2.0
 40
2.0
 40
2.0
 40
3.0
 40
3.0
 40
3.0
 40
4.0
 40
4.0
 40
4.0
 40
5.0
 40
5.0
 40
5.0
 40
6.0
 40
6.0
 40
6.0
 40
6.0
 10
292.8714429475
 20
41.7848054123
 30
0.0
 10
292.8714429475
 20
41.7848054123
 30
0.0
 10
292.5249446749
 20
42.2281347731
 30
0.0
 10
292.5249446749
 20
42.2281347731
 30
0.0
 10
292.21914163
 20
42.6162442431
 30
0.0
 10
291.9002533028
 20
43.0047462715
 30
0.0
 10
291.9002533028
 20
43.5316905856
 30
0.0
 10
291.9002533028
 20
44.1978623022
 30
0.0
 10
292.4415914273
 20
44.6415842215
 30
0.0
 10
293.0654976825
 20
44.6415842215
 30
0.0
 10
293.7592793445
 20
44.6415842215
 30
0.0
 10
294.2864853642
 20
44.2393426468
 30
0.0
 10
294.2864853642
 20
43.5043423458
 30
0.0
 10
294.2864853642
 20
42.7410778352
 30
0.0
 10
293.5652246096
 20
42.3109646094
 30
0.0
 10
293.0381494427
 20
41.895245194
 30
0.0
 10
293.0381494427
 20
41.895245194
 30
0.0
 10
292.8714429475
 20
41.7848054123
 30
0.0
 10
292.8714429475
 20
41.7848054123
 30
0.0
  0
SPLINE
  5
260
330
224
100
AcDbEntity
  8
0
  6
Continuous
 62
     7
100
AcDbSpline
 70
     3
 71
     3
 72
    50
 73
    46
 74
     0
 42
0.000000001
 43
0.0000001
 40
0.0
 40
0.0
 40
0.0
 40
0.0
 40
1.0
 40
1.0
 40
1.0
 40
2.0
 40
2.0
 40
2.0
 40
3.0
 40
3.0
 40
3.0
 40
4.0
 40
4.0
 40
4.0
 40
5.0
 40
5.0
 40
5.0
 40
6.0
 40
6.0
 40
6.0
 40
7.0
 40
7.0
 40
7.0
 40
8.0
 40
8.0
 40
8.0
 40
9.0
 40
9.0
 40
9.0
 40
10.0
 40
10.0
 40
10.0
 40
11.0
 40
11.0
 40
11.0
 40
12.0
 40
12.0
 40
12.0
 40
13.0
 40
13.0
 40
13.0
 40
14.0
 40
14.0
 40
14.0
 40
15.0
 40
15.0
 40
15.0
 40
15.0
 10
296.8250301104
 20
34.9862161941
 30
0.0
 10
296.8250301104
 20
34.9862161941
 30
0.0
 10
298.434258115
 20
34.9862161941
 30
0.0
 10
298.434258115
 20
34.9862161941
 30
0.0
 10
298.434258115
 20
34.9862161941
 30
0.0
 10
296.5612308213
 20
37.3033579655
 30
0.0
 10
296.5612308213
 20
37.3033579655
 30
0.0
 10
296.5612308213
 20
37.3033579655
 30
0.0
 10
297.8375692468
 20
38.8008376601
 30
0.0
 10
297.8375692468
 20
38.8008376601
 30
0.0
 10
297.8375692468
 20
38.8008376601
 30
0.0
 10
297.0053452991
 20
39.6618492287
 30
0.0
 10
297.0053452991
 20
39.6618492287
 30
0.0
 10
297.0053452991
 20
39.6618492287
 30
0.0
 10
295.7847501758
 20
38.2465451063
 30
0.0
 10
295.7847501758
 20
38.2465451063
 30
0.0
 10
295.7847501758
 20
38.2465451063
 30
0.0
 10
293.6068358069
 20
40.8819209407
 30
0.0
 10
293.6068358069
 20
40.8819209407
 30
0.0
 10
294.4804092464
 20
41.5199593006
 30
0.0
 10
295.5070804876
 20
42.3109646094
 30
0.0
 10
295.5070804876
 20
43.4898176825
 30
0.0
 10
295.5070804876
 20
44.8635106075
 30
0.0
 10
294.3691843477
 20
45.667993757
 30
0.0
 10
293.0938927448
 20
45.667993757
 30
0.0
 10
291.7204615255
 20
45.667993757
 30
0.0
 10
290.6795273267
 20
44.8217685573
 30
0.0
 10
290.6795273267
 20
43.3791161951
 30
0.0
 10
290.6795273267
 20
42.4915415037
 30
0.0
 10
291.2348667031
 20
41.7146682997
 30
0.0
 10
291.83103216
 20
41.0902386333
 30
0.0
 10
291.83103216
 20
41.0902386333
 30
0.0
 10
291.179123401
 20
40.6186450629
 30
0.0
 10
291.179123401
 20
40.6186450629
 30
0.0
 10
290.1805855165
 20
39.8973843082
 30
0.0
 10
289.3477073047
 20
39.1761235535
 30
0.0
 10
289.3477073047
 20
37.8445652372
 30
0.0
 10
289.3477073047
 20
36.0408899392
 30
0.0
 10
290.8047534773
 20
34.7642898081
 30
0.0
 10
292.5522929147
 20
34.7642898081
 30
0.0
 10
293.7871509956
 20
34.7642898081
 30
0.0
 10
294.8965212203
 20
35.4724652806
 30
0.0
 10
295.6873956762
 20
36.4009969053
 30
0.0
 10
295.6873956762
 20
36.4009969053
 30
0.0
 10
296.8250301104
 20
34.9862161941
 30
0.0
 10
296.8250301104
 20
34.9862161941
 30
0.0
  0
LINE
  5
261
330
224
100
AcDbEntity
  8
0
  6
Continuous
 62
     7
100
AcDbLine
 10
282.6278914854
 20
32.9600910988
 30
0.0
 11
305.041802213
 21
32.9600910988
 31
0.0
  0
LINE
  5
262
330
224
100
AcDbEntity
  8
0
  6
Continuous
 62
     7
100
AcDbLine
 10
305.041802213
 20
32.9600910988
 30
0.0
 11
305.041802213
 21
55.3740018264
 31
0.0
  0
LINE
  5
263
330
224
100
AcDbEntity
  8
0
  6
Continuous
 62
     7
100
AcDbLine
 10
305.041802213
 20
55.3740018264
 30
0.0
 11
282.6278914854
 21
55.3740018264
 31
0.0
  0
LINE
  5
264
330
224
100
AcDbEntity
  8
0
  6
Continuous
 62
     7
100
AcDbLine
 10
282.6278914854
 20
55.3740018264
 30
0.0
 11
282.6278914854
 21
32.9600910988
 31
0.0
  0
ENDBLK
  5
265
330
224
100
AcDbEntity
  8
0
  6
ByBlock
 62
     0
100
AcDbBlockEnd
  0
BLOCK
  5
266
330
225
100
AcDbEntity
  8
0
100
AcDbBlockBegin
  2
PROIEZIONE_EU_BL0
 70
     0
 10
295.008734378
 20
67.8753143264
 30
0.0
  3
PROIEZIONE_EU_BL0
  1

  0
LWPOLYLINE
  5
267
330
225
100
AcDbEntity
  8
DEFAULT_1
  6
CENTER
 62
     7
100
AcDbPolyline
 90
        2
 70
     0
 43
0.25
 10
301.1353550397
 20
72.8750084583
 10
301.1353960221
 20
62.8756201946
  0
LWPOLYLINE
  5
268
330
225
100
AcDbEntity
  8
DEFAULT_1
  6
CENTER
 62
     7
100
AcDbPolyline
 90
        2
 70
     0
 43
0.25
 10
307.1353848648
 20
67.8755854616
 10
282.8820838913
 20
67.8753148012
  0
LWPOLYLINE
  5
269
330
225
100
AcDbEntity
  8
0
  6
Continuous
 62
     7
100
AcDbPolyline
 90
        2
 70
     1
 43
0.25
 10
297.5882448639
 20
67.8567665722
 42
1.0
 10
304.6945739625
 20
67.8567665722
 42
1.0
  0
LWPOLYLINE
  5
26A
330
225
100
AcDbEntity
  8
0
  6
Continuous
 62
     7
100
AcDbPolyline
 90
        2
 70
     1
 43
0.25
 10
299.1379886923
 20
67.8746646168
 42
1.0
 10
303.1497404423
 20
67.8746646168
 42
1.0
  0
LWPOLYLINE
  5
26B
330
225
100
AcDbEntity
  8
0
  6
Continuous
 62
     7
100
AcDbPolyline
 90
        2
 70
     0
 43
0.25
 10
295.1353826588
 20
71.4505178217
 10
295.1353823042
 20
64.3503149134
  0
LWPOLYLINE
  5
26C
330
225
100
AcDbEntity
  8
0
  6
Continuous
 62
     7
100
AcDbPolyline
 90
        2
 70
     0
 43
0.25
 10
295.1354107406
 20
64.350286477
 10
285.1408534694
 20
65.8703798898
  0
LWPOLYLINE
  5
26D
330
225
100
AcDbEntity
  8
0
  6
Continuous
 62
     7
100
AcDbPolyline
 90
        2
 70
     0
 43
0.25
 10
285.1385434838
 20
65.8697023483
 10
285.1358765797
 20
69.8753409597
  0
LWPOLYLINE
  5
26E
330
225
100
AcDbEntity
  8
0
  6
Continuous
 62
     7
100
AcDbPolyline
 90
        2
 70
     0
 43
0.25
 10
285.1358683036
 20
69.8753326836
 10
295.1356115409
 20
71.4504899037
  0
ENDBLK
  5
26F
330
225
100
AcDbEntity
  8
0
  6
ByBlock
 62
     0
100
AcDbBlockEnd
  0
ENDSEC
  0
SECTION
  2
ENTITIES
  0
LINE
  5
2A5
330
1B
100
AcDbEntity
 67
     1
  8
0
  6
Continuous
 62
     7
100
AcDbLine
 10
0.0
 20
0.0
 30
0.0
 11
420.0
 21
0.0
 31
0.0
  0
LINE
  5
2A6
330
1B
100
AcDbEntity
 67
     1
  8
0
  6
Continuous
 62
     7
100
AcDbLine
 10
420.0
 20
0.0
 30
0.0
 11
420.0
 21
297.0
 31
0.0
  0
LINE
  5
2A7
330
1B
100
AcDbEntity
 67
     1
  8
0
  6
Continuous
 62
     7
100
AcDbLine
 10
0.0
 20
297.0
 30
0.0
 11
420.0
 21
297.0
 31
0.0
  0
LINE
  5
2A8
330
1B
100
AcDbEntity
 67
     1
  8
0
  6
Continuous
 62
     7
100
AcDbLine
 10
0.0
 20
0.0
 30
0.0
 11
0.0
 21
297.0
 31
0.0
  0
LWPOLYLINE
  5
2A9
330
1B
100
AcDbEntity
 67
     1
  8
0
  6
Continuous
 62
     7
100
AcDbPolyline
 90
        2
 70
     0
 43
0.5
 10
410.0
 20
10.0318435754
 10
410.0
 20
287.0
  0
LWPOLYLINE
  5
2AA
330
1B
100
AcDbEntity
 67
     1
  8
0
  6
Continuous
 62
     7
100
AcDbPolyline
 90
        2
 70
     0
 43
0.5
 10
10.0536312849
 20
10.0318435754
 10
10.0536312849
 20
287.0
  0
LWPOLYLINE
  5
2AB
330
1B
100
AcDbEntity
 67
     1
  8
0
  6
Continuous
 62
     7
100
AcDbPolyline
 90
        2
 70
     0
 43
0.5
 10
10.0536312849
 20
10.0318435754
 10
410.0
 20
10.0318435754
  0
LWPOLYLINE
  5
2AC
330
1B
100
AcDbEntity
 67
     1
  8
0
  6
Continuous
 62
     7
100
AcDbPolyline
 90
        2
 70
     0
 43
0.1
 10
210.0
 20
10.0
 10
210.0
 20
0.0
  0
LWPOLYLINE
  5
2AD
330
1B
100
AcDbEntity
 67
     1
  8
0
  6
Continuous
 62
     7
100
AcDbPolyline
 90
        2
 70
     0
 43
0.1
 10
210.0
 20
287.0
 10
210.0
 20
297.0
  0
LWPOLYLINE
  5
2AE
330
1B
100
AcDbEntity
 67
     1
  8
0
  6
Continuous
 62
     7
100
AcDbPolyline
 90
        2
 70
     0
 43
0.1
 10
410.0
 20
148.5
 10
420.0
 20
148.5
  0
LWPOLYLINE
  5
2AF
330
1B
100
AcDbEntity
 67
     1
  8
0
  6
Continuous
 62
     7
100
AcDbPolyline
 90
        2
 70
     0
 43
0.1
 10
10.0
 20
148.5
 10
0.0
 20
148.5
  0
LWPOLYLINE
  5
2B0
330
1B
100
AcDbEntity
 67
     1
  8
0
  6
Continuous
 62
     7
100
AcDbPolyline
 90
        2
 70
     0
 43
0.5
 10
10.0536312849
 20
287.0
 10
410.0
 20
287.0
  0
LWPOLYLINE
  5
2B1
330
1B
100
AcDbEntity
 67
     1
  8
0
  6
Continuous
 62
     7
100
AcDbPolyline
 90
        2
 70
     0
 43
0.1
 10
0.0
 20
290.0
 10
420.0
 20
290.0
  0
LWPOLYLINE
  5
2B2
330
1B
100
AcDbEntity
 67
     1
  8
0
  6
Continuous
 62
     7
100
AcDbPolyline
 90
        2
 70
     0
 43
0.1
 10
7.0536312849
 20
0.0
 10
7.0536312849
 20
297.0
  0
LWPOLYLINE
  5
2B3
330
1B
100
AcDbEntity
 67
     1
  8
0
  6
Continuous
 62
     7
100
AcDbPolyline
 90
        2
 70
     0
 43
0.1
 10
413.0
 20
0.0
 10
413.0
 20
297.0
  0
LWPOLYLINE
  5
2B4
330
1B
100
AcDbEntity
 67
     1
  8
0
  6
Continuous
 62
     7
100
AcDbPolyline
 90
        2
 70
     0
 43
0.1
 10
0.0
 20
7.0318435754
 10
420.0
 20
7.0318435754
  0
LWPOLYLINE
  5
2B5
330
1B
100
AcDbEntity
 67
     1
  8
0
  6
Continuous
 62
     7
100
AcDbPolyline
 90
        2
 70
     0
 43
0.1
 10
10.0
 20
202.9681564246
 10
0.0
 20
202.9681564246
  0
LINE
  5
2B6
330
1B
100
AcDbEntity
 67
     1
  8
0
  6
Continuous
 62
     7
100
AcDbLine
 10
0.0
 20
99.9681564246
 30
0.0
 11
7.0
 21
99.9681564246
 31
0.0
  0
LINE
  5
2B7
330
1B
100
AcDbEntity
 67
     1
  8
0
  6
Continuous
 62
     7
100
AcDbLine
 10
0.0
 20
199.9681564246
 30
0.0
 11
7.0
 21
199.9681564246
 31
0.0
  0
LWPOLYLINE
  5
2B8
330
1B
100
AcDbEntity
 67
     1
  8
0
  6
Continuous
 62
     7
100
AcDbPolyline
 90
        2
 70
     0
 43
0.1
 10
410.0
 20
210.0
 10
420.0
 20
210.0
  0
LINE
  5
2B9
330
1B
100
AcDbEntity
 67
     1
  8
0
  6
Continuous
 62
     7
100
AcDbLine
 10
413.0
 20
107.0
 30
0.0
 11
420.0
 21
107.0
 31
0.0
  0
LWPOLYLINE
  5
2BA
330
1B
100
AcDbEntity
 67
     1
  8
0
  6
Continuous
 62
     7
100
AcDbPolyline
 90
        2
 70
     0
 43
0.1
 10
123.0
 20
10.0
 10
123.0
 20
0.0
  0
LINE
  5
2BB
330
1B
100
AcDbEntity
 67
     1
  8
0
  6
Continuous
 62
     7
100
AcDbLine
 10
210.0
 20
0.0
 30
0.0
 11
210.0
 21
10.0
 31
0.0
  0
LINE
  5
2BC
330
1B
100
AcDbEntity
 67
     1
  8
0
  6
Continuous
 62
     7
100
AcDbLine
 10
313.0
 20
7.0
 30
0.0
 11
313.0
 21
0.0
 31
0.0
  0
LINE
  5
2BD
330
1B
100
AcDbEntity
 67
     1
  8
0
  6
Continuous
 62
     7
100
AcDbLine
 10
113.0
 20
7.0
 30
0.0
 11
113.0
 21
0.0
 31
0.0
  0
LWPOLYLINE
  5
2BE
330
1B
100
AcDbEntity
 67
     1
  8
0
  6
Continuous
 62
     7
100
AcDbPolyline
 90
        2
 70
     0
 43
0.1
 10
123.0
 20
287.0
 10
123.0
 20
297.0
  0
LINE
  5
2BF
330
1B
100
AcDbEntity
 67
     1
  8
0
  6
Continuous
 62
     7
100
AcDbLine
 10
210.0
 20
287.0
 30
0.0
 11
210.0
 21
297.0
 31
0.0
  0
LINE
  5
2C0
330
1B
100
AcDbEntity
 67
     1
  8
0
  6
Continuous
 62
     7
100
AcDbLine
 10
313.0
 20
297.0
 30
0.0
 11
313.0
 21
290.0
 31
0.0
  0
LINE
  5
2C1
330
1B
100
AcDbEntity
 67
     1
  8
0
  6
Continuous
 62
     7
100
AcDbLine
 10
113.0
 20
297.0
 30
0.0
 11
113.0
 21
290.0
 31
0.0
  0
MTEXT
  5
2C2
330
1B
100
AcDbEntity
 67
     1
  8
0
  6
Continuous
 62
     2
100
AcDbMText
 10
1.6467220993
 20
53.595027386
 30
0.0
 40
4.0
 41
3.4285714286
 46
0.0
 71
     1
 72
     1
  1
1
  7
TEXTSTYLE_2
 73
     1
 44
1.0
  0
MTEXT
  5
2C3
330
1B
100
AcDbEntity
 67
     1
  8
0
  6
Continuous
 62
     2
100
AcDbMText
 10
1.6467220993
 20
153.595027386
 30
0.0
 40
4.0
 41
4.7142857143
 46
0.0
 71
     1
 72
     1
  1
2
  7
TEXTSTYLE_2
 73
     1
 44
1.0
  0
MTEXT
  5
2C4
330
1B
100
AcDbEntity
 67
     1
  8
0
  6
Continuous
 62
     2
100
AcDbMText
 10
1.6467220993
 20
253.595027386
 30
0.0
 40
4.0
 41
4.2857142857
 46
0.0
 71
     1
 72
     1
  1
3
  7
TEXTSTYLE_2
 73
     1
 44
1.0
  0
MTEXT
  5
2C5
330
1B
100
AcDbEntity
 67
     1
  8
0
  6
Continuous
 62
     2
100
AcDbMText
 10
414.6467220993
 20
60.6268709614
 30
0.0
 40
4.0
 41
3.4285714286
 46
0.0
 71
     1
 72
     1
  1
1
  7
TEXTSTYLE_2
 73
     1
 44
1.0
  0
MTEXT
  5
2C6
330
1B
100
AcDbEntity
 67
     1
  8
0
  6
Continuous
 62
     2
100
AcDbMText
 10
414.6467220993
 20
160.6268709614
 30
0.0
 40
4.0
 41
4.7142857143
 46
0.0
 71
     1
 72
     1
  1
2
  7
TEXTSTYLE_2
 73
     1
 44
1.0
  0
MTEXT
  5
2C7
330
1B
100
AcDbEntity
 67
     1
  8
0
  6
Continuous
 62
     2
100
AcDbMText
 10
414.6467220993
 20
260.6268709614
 30
0.0
 40
4.0
 41
4.2857142857
 46
0.0
 71
     1
 72
     1
  1
3
  7
TEXTSTYLE_2
 73
     1
 44
1.0
  0
MTEXT
  5
2C8
330
1B
100
AcDbEntity
 67
     1
  8
0
  6
Continuous
 62
     2
100
AcDbMText
 10
362.154890719
 20
5.35876025
 30
0.0
 40
4.0
 41
3.6
 46
0.0
 71
     1
 72
     1
  1
A
  7
TEXTSTYLE_3
 73
     1
 44
1.0
  0
MTEXT
  5
2C9
330
1B
100
AcDbEntity
 67
     1
  8
0
  6
Continuous
 62
     2
100
AcDbMText
 10
262.154890719
 20
5.35876025
 30
0.0
 40
4.0
 41
3.6
 46
0.0
 71
     1
 72
     1
  1
B
  7
TEXTSTYLE_3
 73
     1
 44
1.0
  0
MTEXT
  5
2CA
330
1B
100
AcDbEntity
 67
     1
  8
0
  6
Continuous
 62
     2
100
AcDbMText
 10
162.154890719
 20
5.35876025
 30
0.0
 40
4.0
 41
3.6
 46
0.0
 71
     1
 72
     1
  1
C
  7
TEXTSTYLE_3
 73
     1
 44
1.0
  0
MTEXT
  5
2CB
330
1B
100
AcDbEntity
 67
     1
  8
0
  6
Continuous
 62
     2
100
AcDbMText
 10
55.7978688212
 20
5.5353441916
 30
0.0
 40
4.0
 41
3.6
 46
0.0
 71
     1
 72
     1
  1
D
  7
TEXTSTYLE_3
 73
     1
 44
1.0
  0
MTEXT
  5
2CC
330
1B
100
AcDbEntity
 67
     1
  8
0
  6
Continuous
 62
     2
100
AcDbMText
 10
362.154890719
 20
295.35876025
 30
0.0
 40
4.0
 41
3.6
 46
0.0
 71
     1
 72
     1
  1
A
  7
TEXTSTYLE_3
 73
     1
 44
1.0
  0
MTEXT
  5
2CD
330
1B
100
AcDbEntity
 67
     1
  8
0
  6
Continuous
 62
     2
100
AcDbMText
 10
262.154890719
 20
295.35876025
 30
0.0
 40
4.0
 41
3.6
 46
0.0
 71
     1
 72
     1
  1
B
  7
TEXTSTYLE_3
 73
     1
 44
1.0
  0
MTEXT
  5
2CE
330
1B
100
AcDbEntity
 67
     1
  8
0
  6
Continuous
 62
     2
100
AcDbMText
 10
162.154890719
 20
295.35876025
 30
0.0
 40
4.0
 41
3.6
 46
0.0
 71
     1
 72
     1
  1
C
  7
TEXTSTYLE_3
 73
     1
 44
1.0
  0
MTEXT
  5
2CF
330
1B
100
AcDbEntity
 67
     1
  8
0
  6
Continuous
 62
     2
100
AcDbMText
 10
53.9878834197
 20
295.579490177
 30
0.0
 40
4.0
 41
3.6
 46
0.0
 71
     1
 72
     1
  1
D
  7
TEXTSTYLE_3
 73
     1
 44
1.0
  0
VIEWPORT
  5
2D0
330
1B
100
AcDbEntity
 67
     1
  8
0
100
AcDbViewport
 10
0.0
 20
0.0
 30
0.0
 40
495.0770428015564
 41
350.0901945525292
 68
     1
 69
     1
 12
234.0175097276264
 22
148.5
 13
0.0
 23
0.0
 14
1.0
 24
1.0
 15
0.0
 25
0.0
 16
0.0
 26
0.0
 36
1.0
 17
0.0
 27
0.0
 37
0.0
 42
50.0
 43
0.0
 44
0.0
 45
350.0901945525292
 50
0.0
 51
0.0
 72
   100
 90
   557216
  1

281
     0
 71
     1
 74
     0
110
0.0
120
0.0
130
0.0
111
1.0
121
0.0
131
0.0
112
0.0
122
1.0
132
0.0
 79
     0
146
0.0
170
     0
 61
     5
348
465
292
     1
282
     1
141
0.0
142
0.0
 63
   256
  0
LINE
  5
2D1
330
1B
100
AcDbEntity
 67
     1
  8
7_ALL_FEATURES
  6
Continuous
 62
     7
100
AcDbLine
 10
179.4943172311
 20
187.6617398649
 30
0.0
 11
178.7726293946
 21
186.4117398649
 31
0.0
  0
LINE
  5
2D2
330
1B
100
AcDbEntity
 67
     1
  8
7_ALL_FEATURES
  6
Continuous
 62
     7
100
AcDbLine
 10
178.7726293946
 20
186.4117398649
 30
0.0
 11
179.4943172311
 21
185.1617398649
 31
0.0
  0
LINE
  5
2D3
330
1B
100
AcDbEntity
 67
     1
  8
7_ALL_FEATURES
  6
Continuous
 62
     7
100
AcDbLine
 10
179.4943172311
 20
185.1617398649
 30
0.0
 11
180.9376929041
 21
185.1617398649
 31
0.0
  0
LINE
  5
2D4
330
1B
100
AcDbEntity
 67
     1
  8
7_ALL_FEATURES
  6
Continuous
 62
     7
100
AcDbLine
 10
180.9376929041
 20
185.1617398649
 30
0.0
 11
181.6593807405
 21
186.4117398649
 31
0.0
  0
LINE
  5
2D5
330
1B
100
AcDbEntity
 67
     1
  8
7_ALL_FEATURES
  6
Continuous
 62
     7
100
AcDbLine
 10
181.6593807405
 20
186.4117398649
 30
0.0
 11
180.9376929041
 21
187.6617398649
 31
0.0
  0
LINE
  5
2D6
330
1B
100
AcDbEntity
 67
     1
  8
7_ALL_FEATURES
  6
Continuous
 62
     7
100
AcDbLine
 10
180.9376929041
 20
187.6617398649
 30
0.0
 11
179.4943172311
 21
187.6617398649
 31
0.0
  0
ARC
  5
2D7
330
1B
100
AcDbEntity
 67
     1
  8
3_ALL_AXES
  6
Continuous
 62
     7
100
AcDbCircle
 10
180.2160050676
 20
186.4117398649
 30
0.0
 40
4.0
100
AcDbArc
 50
0.0
 51
180.0
  0
ARC
  5
2D8
330
1B
100
AcDbEntity
 67
     1
  8
3_ALL_AXES
  6
Continuous
 62
     7
100
AcDbCircle
 10
180.2160050676
 20
186.4117398649
 30
0.0
 40
4.0
100
AcDbArc
 50
180.0
 51
360.0
  0
LINE
  5
2D9
330
1B
100
AcDbEntity
 67
     1
  8
7_ALL_FEATURES
  6
Continuous
 62
     7
100
AcDbLine
 10
116.4943172311
 20
124.6617398649
 30
0.0
 11
115.7726293946
 21
123.4117398649
 31
0.0
  0
LINE
  5
2DA
330
1B
100
AcDbEntity
 67
     1
  8
7_ALL_FEATURES
  6
Continuous
 62
     7
100
AcDbLine
 10
115.7726293946
 20
123.4117398649
 30
0.0
 11
116.4943172311
 21
122.1617398649
 31
0.0
  0
LINE
  5
2DB
330
1B
100
AcDbEntity
 67
     1
  8
7_ALL_FEATURES
  6
Continuous
 62
     7
100
AcDbLine
 10
116.4943172311
 20
122.1617398649
 30
0.0
 11
117.9376929041
 21
122.1617398649
 31
0.0
  0
LINE
  5
2DC
330
1B
100
AcDbEntity
 67
     1
  8
7_ALL_FEATURES
  6
Continuous
 62
     7
100
AcDbLine
 10
117.9376929041
 20
122.1617398649
 30
0.0
 11
118.6593807405
 21
123.4117398649
 31
0.0
  0
LINE
  5
2DD
330
1B
100
AcDbEntity
 67
     1
  8
7_ALL_FEATURES
  6
Continuous
 62
     7
100
AcDbLine
 10
118.6593807405
 20
123.4117398649
 30
0.0
 11
117.9376929041
 21
124.6617398649
 31
0.0
  0
LINE
  5
2DE
330
1B
100
AcDbEntity
 67
     1
  8
7_ALL_FEATURES
  6
Continuous
 62
     7
100
AcDbLine
 10
117.9376929041
 20
124.6617398649
 30
0.0
 11
116.4943172311
 21
124.6617398649
 31
0.0
  0
ARC
  5
2DF
330
1B
100
AcDbEntity
 67
     1
  8
3_ALL_AXES
  6
Continuous
 62
     7
100
AcDbCircle
 10
117.2160050676
 20
123.4117398649
 30
0.0
 40
4.0
100
AcDbArc
 50
0.0
 51
180.0
  0
ARC
  5
2E0
330
1B
100
AcDbEntity
 67
     1
  8
3_ALL_AXES
  6
Continuous
 62
     7
100
AcDbCircle
 10
117.2160050676
 20
123.4117398649
 30
0.0
 40
4.0
100
AcDbArc
 50
180.0
 51
360.0
  0
LINE
  5
2E1
330
1B
100
AcDbEntity
 67
     1
  8
7_ALL_FEATURES
  6
Continuous
 62
     7
100
AcDbLine
 10
53.4943172311
 20
187.6617398649
 30
0.0
 11
52.7726293946
 21
186.4117398649
 31
0.0
  0
LINE
  5
2E2
330
1B
100
AcDbEntity
 67
     1
  8
7_ALL_FEATURES
  6
Continuous
 62
     7
100
AcDbLine
 10
52.7726293946
 20
186.4117398649
 30
0.0
 11
53.4943172311
 21
185.1617398649
 31
0.0
  0
LINE
  5
2E3
330
1B
100
AcDbEntity
 67
     1
  8
7_ALL_FEATURES
  6
Continuous
 62
     7
100
AcDbLine
 10
53.4943172311
 20
185.1617398649
 30
0.0
 11
54.9376929041
 21
185.1617398649
 31
0.0
  0
LINE
  5
2E4
330
1B
100
AcDbEntity
 67
     1
  8
7_ALL_FEATURES
  6
Continuous
 62
     7
100
AcDbLine
 10
54.9376929041
 20
185.1617398649
 30
0.0
 11
55.6593807405
 21
186.4117398649
 31
0.0
  0
LINE
  5
2E5
330
1B
100
AcDbEntity
 67
     1
  8
7_ALL_FEATURES
  6
Continuous
 62
     7
100
AcDbLine
 10
55.6593807405
 20
186.4117398649
 30
0.0
 11
54.9376929041
 21
187.6617398649
 31
0.0
  0
LINE
  5
2E6
330
1B
100
AcDbEntity
 67
     1
  8
7_ALL_FEATURES
  6
Continuous
 62
     7
100
AcDbLine
 10
54.9376929041
 20
187.6617398649
 30
0.0
 11
53.4943172311
 21
187.6617398649
 31
0.0
  0
ARC
  5
2E7
330
1B
100
AcDbEntity
 67
     1
  8
3_ALL_AXES
  6
Continuous
 62
     7
100
AcDbCircle
 10
54.2160050676
 20
186.4117398649
 30
0.0
 40
4.0
100
AcDbArc
 50
0.0
 51
180.0
  0
ARC
  5
2E8
330
1B
100
AcDbEntity
 67
     1
  8
3_ALL_AXES
  6
Continuous
 62
     7
100
AcDbCircle
 10
54.2160050676
 20
186.4117398649
 30
0.0
 40
4.0
100
AcDbArc
 50
180.0
 51
360.0
  0
LINE
  5
2E9
330
1B
100
AcDbEntity
 67
     1
  8
7_ALL_FEATURES
  6
Continuous
 62
     7
100
AcDbLine
 10
116.4943172311
 20
250.6617398649
 30
0.0
 11
115.7726293946
 21
249.4117398649
 31
0.0
  0
LINE
  5
2EA
330
1B
100
AcDbEntity
 67
     1
  8
7_ALL_FEATURES
  6
Continuous
 62
     7
100
AcDbLine
 10
115.7726293946
 20
249.4117398649
 30
0.0
 11
116.4943172311
 21
248.1617398649
 31
0.0
  0
LINE
  5
2EB
330
1B
100
AcDbEntity
 67
     1
  8
7_ALL_FEATURES
  6
Continuous
 62
     7
100
AcDbLine
 10
116.4943172311
 20
248.1617398649
 30
0.0
 11
117.9376929041
 21
248.1617398649
 31
0.0
  0
LINE
  5
2EC
330
1B
100
AcDbEntity
 67
     1
  8
7_ALL_FEATURES
  6
Continuous
 62
     7
100
AcDbLine
 10
117.9376929041
 20
248.1617398649
 30
0.0
 11
118.6593807405
 21
249.4117398649
 31
0.0
  0
LINE
  5
2ED
330
1B
100
AcDbEntity
 67
     1
  8
7_ALL_FEATURES
  6
Continuous
 62
     7
100
AcDbLine
 10
118.6593807405
 20
249.4117398649
 30
0.0
 11
117.9376929041
 21
250.6617398649
 31
0.0
  0
LINE
  5
2EE
330
1B
100
AcDbEntity
 67
     1
  8
7_ALL_FEATURES
  6
Continuous
 62
     7
100
AcDbLine
 10
117.9376929041
 20
250.6617398649
 30
0.0
 11
116.4943172311
 21
250.6617398649
 31
0.0
  0
ARC
  5
2EF
330
1B
100
AcDbEntity
 67
     1
  8
3_ALL_AXES
  6
Continuous
 62
     7
100
AcDbCircle
 10
117.2160050676
 20
249.4117398649
 30
0.0
 40
4.0
100
AcDbArc
 50
0.0
 51
180.0
  0
ARC
  5
2F0
330
1B
100
AcDbEntity
 67
     1
  8
3_ALL_AXES
  6
Continuous
 62
     7
100
AcDbCircle
 10
117.2160050676
 20
249.4117398649
 30
0.0
 40
4.0
100
AcDbArc
 50
180.0
 51
360.0
  0
ARC
  5
2F1
330
1B
100
AcDbEntity
 67
     1
  8
02___PRT_ALL_AXES
  6
Continuous
 62
     7
100
AcDbCircle
 10
117.2160050676
 20
231.4117398649
 30
0.0
 40
2.5
100
AcDbArc
 50
0.0
 51
180.0
  0
ARC
  5
2F2
330
1B
100
AcDbEntity
 67
     1
  8
02___PRT_ALL_AXES
  6
Continuous
 62
     7
100
AcDbCircle
 10
117.2160050676
 20
231.4117398649
 30
0.0
 40
2.5
100
AcDbArc
 50
180.0
 51
360.0
  0
ARC
  5
2F3
330
1B
100
AcDbEntity
 67
     1
  8
02___PRT_ALL_AXES
  6
Continuous
 62
     7
100
AcDbCircle
 10
117.2160050676
 20
141.4117398649
 30
0.0
 40
2.5
100
AcDbArc
 50
0.0
 51
180.0
  0
ARC
  5
2F4
330
1B
100
AcDbEntity
 67
     1
  8
02___PRT_ALL_AXES
  6
Continuous
 62
     7
100
AcDbCircle
 10
117.2160050676
 20
141.4117398649
 30
0.0
 40
2.5
100
AcDbArc
 50
180.0
 51
360.0
  0
ARC
  5
2F5
330
1B
100
AcDbEntity
 67
     1
  8
02___PRT_ALL_AXES
  6
Continuous
 62
     7
100
AcDbCircle
 10
72.2160050676
 20
186.4117398649
 30
0.0
 40
2.5
100
AcDbArc
 50
0.0
 51
180.0
  0
ARC
  5
2F6
330
1B
100
AcDbEntity
 67
     1
  8
02___PRT_ALL_AXES
  6
Continuous
 62
     7
100
AcDbCircle
 10
72.2160050676
 20
186.4117398649
 30
0.0
 40
2.5
100
AcDbArc
 50
180.0
 51
360.0
  0
ARC
  5
2F7
330
1B
100
AcDbEntity
 67
     1
  8
02___PRT_ALL_AXES
  6
Continuous
 62
     7
100
AcDbCircle
 10
162.2160050676
 20
186.4117398649
 30
0.0
 40
2.5
100
AcDbArc
 50
0.0
 51
180.0
  0
ARC
  5
2F8
330
1B
100
AcDbEntity
 67
     1
  8
02___PRT_ALL_AXES
  6
Continuous
 62
     7
100
AcDbCircle
 10
162.2160050676
 20
186.4117398649
 30
0.0
 40
2.5
100
AcDbArc
 50
180.0
 51
360.0
  0
LINE
  5
2F9
330
1B
100
AcDbEntity
 67
     1
  8
7_ALL_FEATURES
  6
Continuous
 62
     7
100
AcDbLine
 10
173.1804711616
 20
118.3762059589
 30
0.0
 11
185.2515389735
 21
130.4472737708
 31
0.0
  0
ARC
  5
2FA
330
1B
100
AcDbEntity
 67
     1
  8
7_ALL_FEATURES
  6
Continuous
 62
     7
100
AcDbCircle
 10
181.7160050676
 20
133.9828076767
 30
0.0
 40
5.0
100
AcDbArc
 50
315.0
 51
360.0
  0
LINE
  5
2FB
330
1B
100
AcDbEntity
 67
     1
  8
7_ALL_FEATURES
  6
Continuous
 62
     7
100
AcDbLine
 10
186.7160050676
 20
133.9828076767
 30
0.0
 11
186.7160050676
 21
238.840672053
 31
0.0
  0
ARC
  5
2FC
330
1B
100
AcDbEntity
 67
     1
  8
7_ALL_FEATURES
  6
Continuous
 62
     7
100
AcDbCircle
 10
181.7160050676
 20
238.840672053
 30
0.0
 40
5.0
100
AcDbArc
 50
0.0
 51
45.0
  0
LINE
  5
2FD
330
1B
100
AcDbEntity
 67
     1
  8
7_ALL_FEATURES
  6
Continuous
 62
     7
100
AcDbLine
 10
185.2515389735
 20
242.3762059589
 30
0.0
 11
173.1804711616
 21
254.4472737708
 31
0.0
  0
ARC
  5
2FE
330
1B
100
AcDbEntity
 67
     1
  8
7_ALL_FEATURES
  6
Continuous
 62
     7
100
AcDbCircle
 10
169.6449372557
 20
250.9117398649
 30
0.0
 40
5.0
100
AcDbArc
 50
45.0
 51
90.0
  0
LINE
  5
2FF
330
1B
100
AcDbEntity
 67
     1
  8
7_ALL_FEATURES
  6
Continuous
 62
     7
100
AcDbLine
 10
169.6449372557
 20
255.9117398649
 30
0.0
 11
64.7870728794
 21
255.9117398649
 31
0.0
  0
ARC
  5
300
330
1B
100
AcDbEntity
 67
     1
  8
7_ALL_FEATURES
  6
Continuous
 62
     7
100
AcDbCircle
 10
64.7870728794
 20
250.9117398649
 30
0.0
 40
5.0
100
AcDbArc
 50
90.0
 51
135.0
  0
LINE
  5
301
330
1B
100
AcDbEntity
 67
     1
  8
7_ALL_FEATURES
  6
Continuous
 62
     7
100
AcDbLine
 10
61.2515389735
 20
254.4472737708
 30
0.0
 11
49.1804711616
 21
242.3762059589
 31
0.0
  0
ARC
  5
302
330
1B
100
AcDbEntity
 67
     1
  8
7_ALL_FEATURES
  6
Continuous
 62
     7
100
AcDbCircle
 10
52.7160050676
 20
238.840672053
 30
0.0
 40
5.0
100
AcDbArc
 50
135.0
 51
180.0
  0
LINE
  5
303
330
1B
100
AcDbEntity
 67
     1
  8
7_ALL_FEATURES
  6
Continuous
 62
     7
100
AcDbLine
 10
47.7160050676
 20
238.840672053
 30
0.0
 11
47.7160050676
 21
133.9828076767
 31
0.0
  0
ARC
  5
304
330
1B
100
AcDbEntity
 67
     1
  8
7_ALL_FEATURES
  6
Continuous
 62
     7
100
AcDbCircle
 10
52.7160050676
 20
133.9828076767
 30
0.0
 40
5.0
100
AcDbArc
 50
180.0
 51
225.0
  0
LINE
  5
305
330
1B
100
AcDbEntity
 67
     1
  8
7_ALL_FEATURES
  6
Continuous
 62
     7
100
AcDbLine
 10
49.1804711616
 20
130.4472737708
 30
0.0
 11
61.2515389735
 21
118.3762059589
 31
0.0
  0
ARC
  5
306
330
1B
100
AcDbEntity
 67
     1
  8
7_ALL_FEATURES
  6
Continuous
 62
     7
100
AcDbCircle
 10
64.7870728794
 20
121.9117398649
 30
0.0
 40
5.0
100
AcDbArc
 50
225.0
 51
270.0
  0
LINE
  5
307
330
1B
100
AcDbEntity
 67
     1
  8
7_ALL_FEATURES
  6
Continuous
 62
     7
100
AcDbLine
 10
64.7870728794
 20
116.9117398649
 30
0.0
 11
169.6449372557
 21
116.9117398649
 31
0.0
  0
ARC
  5
308
330
1B
100
AcDbEntity
 67
     1
  8
7_ALL_FEATURES
  6
Continuous
 62
     7
100
AcDbCircle
 10
169.6449372557
 20
121.9117398649
 30
0.0
 40
5.0
100
AcDbArc
 50
270.0
 51
315.0
  0
ARC
  5
309
330
1B
100
AcDbEntity
 67
     1
  8
02___PRT_ALL_AXES
  6
Continuous
 62
     7
100
AcDbCircle
 10
135.1230836324
 20
128.9117398649
 30
0.0
 40
2.5
100
AcDbArc
 50
270.0
 51
90.0
  0
LINE
  5
30A
330
1B
100
AcDbEntity
 67
     1
  8
02___PRT_ALL_AXES
  6
Continuous
 62
     7
100
AcDbLine
 10
135.1230836324
 20
126.4117398649
 30
0.0
 11
130.1230836324
 21
126.4117398649
 31
0.0
  0
ARC
  5
30B
330
1B
100
AcDbEntity
 67
     1
  8
02___PRT_ALL_AXES
  6
Continuous
 62
     7
100
AcDbCircle
 10
130.1230836324
 20
128.9117398649
 30
0.0
 40
2.5
100
AcDbArc
 50
90.0
 51
270.0
  0
LINE
  5
30C
330
1B
100
AcDbEntity
 67
     1
  8
02___PRT_ALL_AXES
  6
Continuous
 62
     7
100
AcDbLine
 10
130.1230836324
 20
131.4117398649
 30
0.0
 11
135.1230836324
 21
131.4117398649
 31
0.0
  0
ARC
  5
30D
330
1B
100
AcDbEntity
 67
     1
  8
02___PRT_ALL_AXES
  6
Continuous
 62
     7
100
AcDbCircle
 10
104.3089265028
 20
128.9117398649
 30
0.0
 40
2.5
100
AcDbArc
 50
270.0
 51
90.0
  0
LINE
  5
30E
330
1B
100
AcDbEntity
 67
     1
  8
02___PRT_ALL_AXES
  6
Continuous
 62
     7
100
AcDbLine
 10
104.3089265028
 20
126.4117398649
 30
0.0
 11
99.3089265028
 21
126.4117398649
 31
0.0
  0
ARC
  5
30F
330
1B
100
AcDbEntity
 67
     1
  8
02___PRT_ALL_AXES
  6
Continuous
 62
     7
100
AcDbCircle
 10
99.3089265028
 20
128.9117398649
 30
0.0
 40
2.5
100
AcDbArc
 50
90.0
 51
270.0
  0
LINE
  5
310
330
1B
100
AcDbEntity
 67
     1
  8
02___PRT_ALL_AXES
  6
Continuous
 62
     7
100
AcDbLine
 10
99.3089265028
 20
131.4117398649
 30
0.0
 11
104.3089265028
 21
131.4117398649
 31
0.0
  0
ARC
  5
311
330
1B
100
AcDbEntity
 67
     1
  8
02___PRT_ALL_AXES
  6
Continuous
 62
     7
100
AcDbCircle
 10
101.8089265028
 20
241.4117398649
 30
0.0
 40
2.5
100
AcDbArc
 50
180.0
 51
360.0
  0
LINE
  5
312
330
1B
100
AcDbEntity
 67
     1
  8
02___PRT_ALL_AXES
  6
Continuous
 62
     7
100
AcDbLine
 10
99.3089265028
 20
241.4117398649
 30
0.0
 11
99.3089265028
 21
246.4117398649
 31
0.0
  0
ARC
  5
313
330
1B
100
AcDbEntity
 67
     1
  8
02___PRT_ALL_AXES
  6
Continuous
 62
     7
100
AcDbCircle
 10
101.8089265028
 20
246.4117398649
 30
0.0
 40
2.5
100
AcDbArc
 50
0.0
 51
180.0
  0
LINE
  5
314
330
1B
100
AcDbEntity
 67
     1
  8
02___PRT_ALL_AXES
  6
Continuous
 62
     7
100
AcDbLine
 10
104.3089265028
 20
246.4117398649
 30
0.0
 11
104.3089265028
 21
241.4117398649
 31
0.0
  0
ARC
  5
315
330
1B
100
AcDbEntity
 67
     1
  8
02___PRT_ALL_AXES
  6
Continuous
 62
     7
100
AcDbCircle
 10
132.6230836324
 20
241.4117398649
 30
0.0
 40
2.5
100
AcDbArc
 50
180.0
 51
360.0
  0
LINE
  5
316
330
1B
100
AcDbEntity
 67
     1
  8
02___PRT_ALL_AXES
  6
Continuous
 62
     7
100
AcDbLine
 10
130.1230836324
 20
241.4117398649
 30
0.0
 11
130.1230836324
 21
246.4117398649
 31
0.0
  0
ARC
  5
317
330
1B
100
AcDbEntity
 67
     1
  8
02___PRT_ALL_AXES
  6
Continuous
 62
     7
100
AcDbCircle
 10
132.6230836324
 20
246.4117398649
 30
0.0
 40
2.5
100
AcDbArc
 50
0.0
 51
180.0
  0
LINE
  5
318
330
1B
100
AcDbEntity
 67
     1
  8
02___PRT_ALL_AXES
  6
Continuous
 62
     7
100
AcDbLine
 10
135.1230836324
 20
246.4117398649
 30
0.0
 11
135.1230836324
 21
241.4117398649
 31
0.0
  0
LINE
  5
319
330
1B
100
AcDbEntity
 67
     1
  8
02___PRT_ALL_AXES
  6
Continuous
 62
     7
100
AcDbLine
 10
177.2160050676
 20
173.5046613001
 30
0.0
 11
177.2160050676
 21
168.5046613001
 31
0.0
  0
ARC
  5
31A
330
1B
100
AcDbEntity
 67
     1
  8
02___PRT_ALL_AXES
  6
Continuous
 62
     7
100
AcDbCircle
 10
174.7160050676
 20
168.5046613001
 30
0.0
 40
2.5
100
AcDbArc
 50
180.0
 51
360.0
  0
ARC
  5
31B
330
1B
100
AcDbEntity
 67
     1
  8
02___PRT_ALL_AXES
  6
Continuous
 62
     7
100
AcDbCircle
 10
117.2160050676
 20
186.4117398649
 30
0.0
 40
35.0
100
AcDbArc
 50
180.0
 51
360.0
  0
ARC
  5
31C
330
1B
100
AcDbEntity
 67
     1
  8
02___PRT_ALL_AXES
  6
Continuous
 62
     7
100
AcDbCircle
 10
117.2160050676
 20
186.4117398649
 30
0.0
 40
35.0
100
AcDbArc
 50
0.0
 51
180.0
  0
LINE
  5
31D
330
1B
100
AcDbEntity
 67
     1
  8
02___PRT_ALL_AXES
  6
Continuous
 62
     7
100
AcDbLine
 10
57.2160050676
 20
204.3188184297
 30
0.0
 11
62.2160050676
 21
204.3188184297
 31
0.0
  0
ARC
  5
31E
330
1B
100
AcDbEntity
 67
     1
  8
02___PRT_ALL_AXES
  6
Continuous
 62
     7
100
AcDbCircle
 10
57.2160050676
 20
201.8188184297
 30
0.0
 40
2.5
100
AcDbArc
 50
90.0
 51
270.0
  0
LINE
  5
31F
330
1B
100
AcDbEntity
 67
     1
  8
02___PRT_ALL_AXES
  6
Continuous
 62
     7
100
AcDbLine
 10
62.2160050676
 20
199.3188184297
 30
0.0
 11
57.2160050676
 21
199.3188184297
 31
0.0
  0
ARC
  5
320
330
1B
100
AcDbEntity
 67
     1
  8
02___PRT_ALL_AXES
  6
Continuous
 62
     7
100
AcDbCircle
 10
62.2160050676
 20
201.8188184297
 30
0.0
 40
2.5
100
AcDbArc
 50
270.0
 51
90.0
  0
ARC
  5
321
330
1B
100
AcDbEntity
 67
     1
  8
02___PRT_ALL_AXES
  6
Continuous
 62
     7
100
AcDbCircle
 10
174.7160050676
 20
204.3188184297
 30
0.0
 40
2.5
100
AcDbArc
 50
0.0
 51
180.0
  0
LINE
  5
322
330
1B
100
AcDbEntity
 67
     1
  8
02___PRT_ALL_AXES
  6
Continuous
 62
     7
100
AcDbLine
 10
172.2160050676
 20
199.3188184297
 30
0.0
 11
172.2160050676
 21
204.3188184297
 31
0.0
  0
ARC
  5
323
330
1B
100
AcDbEntity
 67
     1
  8
02___PRT_ALL_AXES
  6
Continuous
 62
     7
100
AcDbCircle
 10
174.7160050676
 20
199.3188184297
 30
0.0
 40
2.5
100
AcDbArc
 50
180.0
 51
360.0
  0
LINE
  5
324
330
1B
100
AcDbEntity
 67
     1
  8
02___PRT_ALL_AXES
  6
Continuous
 62
     7
100
AcDbLine
 10
177.2160050676
 20
204.3188184297
 30
0.0
 11
177.2160050676
 21
199.3188184297
 31
0.0
  0
LINE
  5
325
330
1B
100
AcDbEntity
 67
     1
  8
02___PRT_ALL_AXES
  6
Continuous
 62
     7
100
AcDbLine
 10
62.2160050676
 20
168.5046613001
 30
0.0
 11
57.2160050676
 21
168.5046613001
 31
0.0
  0
ARC
  5
326
330
1B
100
AcDbEntity
 67
     1
  8
02___PRT_ALL_AXES
  6
Continuous
 62
     7
100
AcDbCircle
 10
62.2160050676
 20
171.0046613001
 30
0.0
 40
2.5
100
AcDbArc
 50
270.0
 51
90.0
  0
LINE
  5
327
330
1B
100
AcDbEntity
 67
     1
  8
02___PRT_ALL_AXES
  6
Continuous
 62
     7
100
AcDbLine
 10
57.2160050676
 20
173.5046613001
 30
0.0
 11
62.2160050676
 21
173.5046613001
 31
0.0
  0
ARC
  5
328
330
1B
100
AcDbEntity
 67
     1
  8
02___PRT_ALL_AXES
  6
Continuous
 62
     7
100
AcDbCircle
 10
57.2160050676
 20
171.0046613001
 30
0.0
 40
2.5
100
AcDbArc
 50
90.0
 51
270.0
  0
ARC
  5
329
330
1B
100
AcDbEntity
 67
     1
  8
02___PRT_ALL_AXES
  6
Continuous
 62
     7
100
AcDbCircle
 10
174.7160050676
 20
173.5046613001
 30
0.0
 40
2.5
100
AcDbArc
 50
0.0
 51
180.0
  0
LINE
  5
32A
330
1B
100
AcDbEntity
 67
     1
  8
02___PRT_ALL_AXES
  6
Continuous
 62
     7
100
AcDbLine
 10
172.2160050676
 20
168.5046613001
 30
0.0
 11
172.2160050676
 21
173.5046613001
 31
0.0
  0
ARC
  5
32B
330
1B
100
AcDbEntity
 67
     1
  8
7_ALL_FEATURES
  6
Continuous
 62
     7
100
AcDbCircle
 10
117.2160050676
 20
249.4117398649
 30
0.0
 40
4.25
100
AcDbArc
 50
180.0
 51
360.0
  0
ARC
  5
32C
330
1B
100
AcDbEntity
 67
     1
  8
7_ALL_FEATURES
  6
Continuous
 62
     7
100
AcDbCircle
 10
117.2160050676
 20
249.4117398649
 30
0.0
 40
4.25
100
AcDbArc
 50
0.0
 51
180.0
  0
ARC
  5
32D
330
1B
100
AcDbEntity
 67
     1
  8
7_ALL_FEATURES
  6
Continuous
 62
     7
100
AcDbCircle
 10
117.2160050676
 20
123.4117398649
 30
0.0
 40
4.25
100
AcDbArc
 50
0.0
 51
180.0
  0
ARC
  5
32E
330
1B
100
AcDbEntity
 67
     1
  8
7_ALL_FEATURES
  6
Continuous
 62
     7
100
AcDbCircle
 10
117.2160050676
 20
123.4117398649
 30
0.0
 40
4.25
100
AcDbArc
 50
180.0
 51
360.0
  0
ARC
  5
32F
330
1B
100
AcDbEntity
 67
     1
  8
7_ALL_FEATURES
  6
Continuous
 62
     7
100
AcDbCircle
 10
180.2160050676
 20
186.4117398649
 30
0.0
 40
4.25
100
AcDbArc
 50
0.0
 51
180.0
  0
ARC
  5
330
330
1B
100
AcDbEntity
 67
     1
  8
7_ALL_FEATURES
  6
Continuous
 62
     7
100
AcDbCircle
 10
180.2160050676
 20
186.4117398649
 30
0.0
 40
4.25
100
AcDbArc
 50
180.0
 51
360.0
  0
ARC
  5
331
330
1B
100
AcDbEntity
 67
     1
  8
7_ALL_FEATURES
  6
Continuous
 62
     7
100
AcDbCircle
 10
54.2160050676
 20
186.4117398649
 30
0.0
 40
4.25
100
AcDbArc
 50
0.0
 51
180.0
  0
ARC
  5
332
330
1B
100
AcDbEntity
 67
     1
  8
7_ALL_FEATURES
  6
Continuous
 62
     7
100
AcDbCircle
 10
54.2160050676
 20
186.4117398649
 30
0.0
 40
4.25
100
AcDbArc
 50
180.0
 51
360.0
  0
LINE
  5
333
330
1B
100
AcDbEntity
 67
     1
  8
3_ALL_AXES
  6
Continuous
 62
     7
100
AcDbLine
 10
176.9593807405
 20
69.9016047297
 30
0.0
 11
175.5160050676
 21
67.4016047297
 31
0.0
  0
LINE
  5
334
330
1B
100
AcDbEntity
 67
     1
  8
3_ALL_AXES
  6
Continuous
 62
     7
100
AcDbLine
 10
183.4726293946
 20
69.9016047297
 30
0.0
 11
184.9160050676
 21
67.4016047297
 31
0.0
  0
LINE
  5
335
330
1B
100
AcDbEntity
 67
     1
  8
3_ALL_AXES
  6
Continuous
 62
     7
100
AcDbLine
 10
175.5160050676
 20
67.4016047297
 30
0.0
 11
175.5160050676
 21
63.4766047297
 31
0.0
  0
LINE
  5
336
330
1B
100
AcDbEntity
 67
     1
  8
3_ALL_AXES
  6
Continuous
 62
     7
100
AcDbLine
 10
184.9160050676
 20
67.4016047297
 30
0.0
 11
184.9160050676
 21
63.4766047297
 31
0.0
  0
LINE
  5
337
330
1B
100
AcDbEntity
 67
     1
  8
3_ALL_AXES
  6
Continuous
 62
     7
100
AcDbLine
 10
175.5160050676
 20
63.4766047297
 30
0.0
 11
176.8410050676
 21
62.1516047297
 31
0.0
  0
LINE
  5
338
330
1B
100
AcDbEntity
 67
     1
  8
3_ALL_AXES
  6
Continuous
 62
     7
100
AcDbLine
 10
184.9160050676
 20
63.4766047297
 30
0.0
 11
183.5910050676
 21
62.1516047297
 31
0.0
  0
LINE
  5
339
330
1B
100
AcDbEntity
 67
     1
  8
3_ALL_AXES
  6
Continuous
 62
     7
100
AcDbLine
 10
176.8410050676
 20
62.1516047297
 30
0.0
 11
175.5160050676
 21
60.8266047297
 31
0.0
  0
LINE
  5
33A
330
1B
100
AcDbEntity
 67
     1
  8
3_ALL_AXES
  6
Continuous
 62
     7
100
AcDbLine
 10
183.5910050676
 20
62.1516047297
 30
0.0
 11
184.9160050676
 21
60.8266047297
 31
0.0
  0
LINE
  5
33B
330
1B
100
AcDbEntity
 67
     1
  8
7_ALL_FEATURES
  6
Continuous
 62
     7
100
AcDbLine
 10
184.9160050676
 20
60.8266047297
 30
0.0
 11
184.9160050676
 21
56.4016047297
 31
0.0
  0
LINE
  5
33C
330
1B
100
AcDbEntity
 67
     1
  8
7_ALL_FEATURES
  6
Continuous
 62
     7
100
AcDbLine
 10
175.5160050676
 20
60.8266047297
 30
0.0
 11
175.5160050676
 21
56.4016047297
 31
0.0
  0
LINE
  5
33D
330
1B
100
AcDbEntity
 67
     1
  8
3_ALL_AXES
  6
Continuous
 62
     7
100
AcDbLine
 10
175.5160050676
 20
67.4016047297
 30
0.0
 11
176.9593807405
 21
69.9016047297
 31
0.0
  0
LINE
  5
33E
330
1B
100
AcDbEntity
 67
     1
  8
3_ALL_AXES
  6
Continuous
 62
     7
100
AcDbLine
 10
176.9593807405
 20
69.9016047297
 30
0.0
 11
183.4726293946
 21
69.9016047297
 31
0.0
  0
LINE
  5
33F
330
1B
100
AcDbEntity
 67
     1
  8
3_ALL_AXES
  6
Continuous
 62
     7
100
AcDbLine
 10
175.5160050676
 20
63.4766047297
 30
0.0
 11
175.5160050676
 21
67.4016047297
 31
0.0
  0
LINE
  5
340
330
1B
100
AcDbEntity
 67
     1
  8
3_ALL_AXES
  6
Continuous
 62
     7
100
AcDbLine
 10
176.8410050676
 20
62.1516047297
 30
0.0
 11
175.5160050676
 21
63.4766047297
 31
0.0
  0
LINE
  5
341
330
1B
100
AcDbEntity
 67
     1
  8
3_ALL_AXES
  6
Continuous
 62
     7
100
AcDbLine
 10
175.5160050676
 20
60.8266047297
 30
0.0
 11
176.8410050676
 21
62.1516047297
 31
0.0
  0
LINE
  5
342
330
1B
100
AcDbEntity
 67
     1
  8
3_ALL_AXES
  6
Continuous
 62
     7
100
AcDbLine
 10
175.5160050676
 20
56.4016047297
 30
0.0
 11
175.5160050676
 21
60.8266047297
 31
0.0
  0
LINE
  5
343
330
1B
100
AcDbEntity
 67
     1
  8
3_ALL_AXES
  6
Continuous
 62
     7
100
AcDbLine
 10
184.9160050676
 20
67.4016047297
 30
0.0
 11
183.4726293946
 21
69.9016047297
 31
0.0
  0
LINE
  5
344
330
1B
100
AcDbEntity
 67
     1
  8
3_ALL_AXES
  6
Continuous
 62
     7
100
AcDbLine
 10
184.9160050676
 20
63.4766047297
 30
0.0
 11
184.9160050676
 21
67.4016047297
 31
0.0
  0
LINE
  5
345
330
1B
100
AcDbEntity
 67
     1
  8
3_ALL_AXES
  6
Continuous
 62
     7
100
AcDbLine
 10
183.5910050676
 20
62.1516047297
 30
0.0
 11
184.9160050676
 21
63.4766047297
 31
0.0
  0
LINE
  5
346
330
1B
100
AcDbEntity
 67
     1
  8
3_ALL_AXES
  6
Continuous
 62
     7
100
AcDbLine
 10
184.9160050676
 20
60.8266047297
 30
0.0
 11
183.5910050676
 21
62.1516047297
 31
0.0
  0
LINE
  5
347
330
1B
100
AcDbEntity
 67
     1
  8
3_ALL_AXES
  6
Continuous
 62
     7
100
AcDbLine
 10
184.9160050676
 20
56.4016047297
 30
0.0
 11
184.9160050676
 21
60.8266047297
 31
0.0
  0
LINE
  5
348
330
1B
100
AcDbEntity
 67
     1
  8
7_ALL_FEATURES
  6
Continuous
 62
     7
100
AcDbLine
 10
176.0160050676
 20
55.9016047297
 30
0.0
 11
175.5160050676
 21
56.4016047297
 31
0.0
  0
LINE
  5
349
330
1B
100
AcDbEntity
 67
     1
  8
7_ALL_FEATURES
  6
Continuous
 62
     7
100
AcDbLine
 10
184.4160050675
 20
55.9016047297
 30
0.0
 11
184.9160050675
 21
56.4016047297
 31
0.0
  0
LINE
  5
34A
330
1B
100
AcDbEntity
 67
     1
  8
7_ALL_FEATURES
  6
Continuous
 62
     7
100
AcDbLine
 10
176.0160050676
 20
55.9016047297
 30
0.0
 11
175.5160050676
 21
56.4016047297
 31
0.0
  0
LINE
  5
34B
330
1B
100
AcDbEntity
 67
     1
  8
7_ALL_FEATURES
  6
Continuous
 62
     7
100
AcDbLine
 10
184.4160050675
 20
55.9016047297
 30
0.0
 11
184.9160050675
 21
56.4016047297
 31
0.0
  0
LINE
  5
34C
330
1B
100
AcDbEntity
 67
     1
  8
3_ALL_AXES
  6
Continuous
 62
     7
100
AcDbLine
 10
175.5160050676
 20
67.4016047297
 30
0.0
 11
184.9160050676
 21
67.4016047297
 31
0.0
  0
LINE
  5
34D
330
1B
100
AcDbEntity
 67
     1
  8
3_ALL_AXES
  6
Continuous
 62
     7
100
AcDbLine
 10
175.5160050676
 20
60.8266047297
 30
0.0
 11
184.9160050676
 21
60.8266047297
 31
0.0
  0
LINE
  5
34E
330
1B
100
AcDbEntity
 67
     1
  8
3_ALL_AXES
  6
Continuous
 62
     7
100
AcDbLine
 10
176.8410050676
 20
62.1516047297
 30
0.0
 11
183.5910050676
 21
62.1516047297
 31
0.0
  0
LINE
  5
34F
330
1B
100
AcDbEntity
 67
     1
  8
3_ALL_AXES
  6
Continuous
 62
     7
100
AcDbLine
 10
175.5160050676
 20
63.4766047297
 30
0.0
 11
184.9160050676
 21
63.4766047297
 31
0.0
  0
LINE
  5
350
330
1B
100
AcDbEntity
 67
     1
  8
7_ALL_FEATURES
  6
Continuous
 62
     7
100
AcDbLine
 10
184.9160050676
 20
56.4016047297
 30
0.0
 11
175.5160050676
 21
56.4016047297
 31
0.0
  0
LINE
  5
351
330
1B
100
AcDbEntity
 67
     1
  8
3_ALL_AXES
  6
Continuous
 62
     7
100
AcDbLine
 10
50.9593807405
 20
69.9016047297
 30
0.0
 11
49.5160050676
 21
67.4016047297
 31
0.0
  0
LINE
  5
352
330
1B
100
AcDbEntity
 67
     1
  8
3_ALL_AXES
  6
Continuous
 62
     7
100
AcDbLine
 10
57.4726293946
 20
69.9016047297
 30
0.0
 11
58.9160050676
 21
67.4016047297
 31
0.0
  0
LINE
  5
353
330
1B
100
AcDbEntity
 67
     1
  8
3_ALL_AXES
  6
Continuous
 62
     7
100
AcDbLine
 10
49.5160050676
 20
67.4016047297
 30
0.0
 11
49.5160050676
 21
63.4766047297
 31
0.0
  0
LINE
  5
354
330
1B
100
AcDbEntity
 67
     1
  8
3_ALL_AXES
  6
Continuous
 62
     7
100
AcDbLine
 10
58.9160050676
 20
67.4016047297
 30
0.0
 11
58.9160050676
 21
63.4766047297
 31
0.0
  0
LINE
  5
355
330
1B
100
AcDbEntity
 67
     1
  8
3_ALL_AXES
  6
Continuous
 62
     7
100
AcDbLine
 10
49.5160050676
 20
63.4766047297
 30
0.0
 11
50.8410050676
 21
62.1516047297
 31
0.0
  0
LINE
  5
356
330
1B
100
AcDbEntity
 67
     1
  8
3_ALL_AXES
  6
Continuous
 62
     7
100
AcDbLine
 10
58.9160050676
 20
63.4766047297
 30
0.0
 11
57.5910050676
 21
62.1516047297
 31
0.0
  0
LINE
  5
357
330
1B
100
AcDbEntity
 67
     1
  8
3_ALL_AXES
  6
Continuous
 62
     7
100
AcDbLine
 10
50.8410050676
 20
62.1516047297
 30
0.0
 11
49.5160050676
 21
60.8266047297
 31
0.0
  0
LINE
  5
358
330
1B
100
AcDbEntity
 67
     1
  8
3_ALL_AXES
  6
Continuous
 62
     7
100
AcDbLine
 10
57.5910050676
 20
62.1516047297
 30
0.0
 11
58.9160050676
 21
60.8266047297
 31
0.0
  0
LINE
  5
359
330
1B
100
AcDbEntity
 67
     1
  8
7_ALL_FEATURES
  6
Continuous
 62
     7
100
AcDbLine
 10
58.9160050676
 20
60.8266047297
 30
0.0
 11
58.9160050676
 21
56.4016047297
 31
0.0
  0
LINE
  5
35A
330
1B
100
AcDbEntity
 67
     1
  8
7_ALL_FEATURES
  6
Continuous
 62
     7
100
AcDbLine
 10
49.5160050676
 20
60.8266047297
 30
0.0
 11
49.5160050676
 21
56.4016047297
 31
0.0
  0
LINE
  5
35B
330
1B
100
AcDbEntity
 67
     1
  8
3_ALL_AXES
  6
Continuous
 62
     7
100
AcDbLine
 10
49.5160050676
 20
67.4016047297
 30
0.0
 11
50.9593807405
 21
69.9016047297
 31
0.0
  0
LINE
  5
35C
330
1B
100
AcDbEntity
 67
     1
  8
3_ALL_AXES
  6
Continuous
 62
     7
100
AcDbLine
 10
50.9593807405
 20
69.9016047297
 30
0.0
 11
57.4726293946
 21
69.9016047297
 31
0.0
  0
LINE
  5
35D
330
1B
100
AcDbEntity
 67
     1
  8
3_ALL_AXES
  6
Continuous
 62
     7
100
AcDbLine
 10
49.5160050676
 20
63.4766047297
 30
0.0
 11
49.5160050676
 21
67.4016047297
 31
0.0
  0
LINE
  5
35E
330
1B
100
AcDbEntity
 67
     1
  8
3_ALL_AXES
  6
Continuous
 62
     7
100
AcDbLine
 10
50.8410050676
 20
62.1516047297
 30
0.0
 11
49.5160050676
 21
63.4766047297
 31
0.0
  0
LINE
  5
35F
330
1B
100
AcDbEntity
 67
     1
  8
3_ALL_AXES
  6
Continuous
 62
     7
100
AcDbLine
 10
49.5160050676
 20
60.8266047297
 30
0.0
 11
50.8410050676
 21
62.1516047297
 31
0.0
  0
LINE
  5
360
330
1B
100
AcDbEntity
 67
     1
  8
3_ALL_AXES
  6
Continuous
 62
     7
100
AcDbLine
 10
49.5160050676
 20
56.4016047297
 30
0.0
 11
49.5160050676
 21
60.8266047297
 31
0.0
  0
LINE
  5
361
330
1B
100
AcDbEntity
 67
     1
  8
3_ALL_AXES
  6
Continuous
 62
     7
100
AcDbLine
 10
58.9160050676
 20
67.4016047297
 30
0.0
 11
57.4726293946
 21
69.9016047297
 31
0.0
  0
LINE
  5
362
330
1B
100
AcDbEntity
 67
     1
  8
3_ALL_AXES
  6
Continuous
 62
     7
100
AcDbLine
 10
58.9160050676
 20
63.4766047297
 30
0.0
 11
58.9160050676
 21
67.4016047297
 31
0.0
  0
LINE
  5
363
330
1B
100
AcDbEntity
 67
     1
  8
3_ALL_AXES
  6
Continuous
 62
     7
100
AcDbLine
 10
57.5910050676
 20
62.1516047297
 30
0.0
 11
58.9160050676
 21
63.4766047297
 31
0.0
  0
LINE
  5
364
330
1B
100
AcDbEntity
 67
     1
  8
3_ALL_AXES
  6
Continuous
 62
     7
100
AcDbLine
 10
58.9160050676
 20
60.8266047297
 30
0.0
 11
57.5910050676
 21
62.1516047297
 31
0.0
  0
LINE
  5
365
330
1B
100
AcDbEntity
 67
     1
  8
3_ALL_AXES
  6
Continuous
 62
     7
100
AcDbLine
 10
58.9160050676
 20
56.4016047297
 30
0.0
 11
58.9160050676
 21
60.8266047297
 31
0.0
  0
LINE
  5
366
330
1B
100
AcDbEntity
 67
     1
  8
7_ALL_FEATURES
  6
Continuous
 62
     7
100
AcDbLine
 10
50.0160050676
 20
55.9016047297
 30
0.0
 11
49.5160050676
 21
56.4016047297
 31
0.0
  0
LINE
  5
367
330
1B
100
AcDbEntity
 67
     1
  8
7_ALL_FEATURES
  6
Continuous
 62
     7
100
AcDbLine
 10
58.4160050675
 20
55.9016047297
 30
0.0
 11
58.9160050675
 21
56.4016047297
 31
0.0
  0
LINE
  5
368
330
1B
100
AcDbEntity
 67
     1
  8
7_ALL_FEATURES
  6
Continuous
 62
     7
100
AcDbLine
 10
50.0160050676
 20
55.9016047297
 30
0.0
 11
49.5160050676
 21
56.4016047297
 31
0.0
  0
LINE
  5
369
330
1B
100
AcDbEntity
 67
     1
  8
7_ALL_FEATURES
  6
Continuous
 62
     7
100
AcDbLine
 10
58.4160050675
 20
55.9016047297
 30
0.0
 11
58.9160050675
 21
56.4016047297
 31
0.0
  0
LINE
  5
36A
330
1B
100
AcDbEntity
 67
     1
  8
3_ALL_AXES
  6
Continuous
 62
     7
100
AcDbLine
 10
49.5160050676
 20
67.4016047297
 30
0.0
 11
58.9160050676
 21
67.4016047297
 31
0.0
  0
LINE
  5
36B
330
1B
100
AcDbEntity
 67
     1
  8
3_ALL_AXES
  6
Continuous
 62
     7
100
AcDbLine
 10
49.5160050676
 20
60.8266047297
 30
0.0
 11
58.9160050676
 21
60.8266047297
 31
0.0
  0
LINE
  5
36C
330
1B
100
AcDbEntity
 67
     1
  8
3_ALL_AXES
  6
Continuous
 62
     7
100
AcDbLine
 10
50.8410050676
 20
62.1516047297
 30
0.0
 11
57.5910050676
 21
62.1516047297
 31
0.0
  0
LINE
  5
36D
330
1B
100
AcDbEntity
 67
     1
  8
3_ALL_AXES
  6
Continuous
 62
     7
100
AcDbLine
 10
49.5160050676
 20
63.4766047297
 30
0.0
 11
58.9160050676
 21
63.4766047297
 31
0.0
  0
LINE
  5
36E
330
1B
100
AcDbEntity
 67
     1
  8
7_ALL_FEATURES
  6
Continuous
 62
     7
100
AcDbLine
 10
58.9160050676
 20
56.4016047297
 30
0.0
 11
49.5160050676
 21
56.4016047297
 31
0.0
  0
LINE
  5
36F
330
1B
100
AcDbEntity
 67
     1
  8
3_ALL_AXES
  6
Continuous
 62
     7
100
AcDbLine
 10
113.9593807405
 20
69.9016047297
 30
0.0
 11
112.5160050676
 21
67.4016047297
 31
0.0
  0
LINE
  5
370
330
1B
100
AcDbEntity
 67
     1
  8
3_ALL_AXES
  6
Continuous
 62
     7
100
AcDbLine
 10
120.4726293946
 20
69.9016047297
 30
0.0
 11
121.9160050676
 21
67.4016047297
 31
0.0
  0
LINE
  5
371
330
1B
100
AcDbEntity
 67
     1
  8
3_ALL_AXES
  6
Continuous
 62
     7
100
AcDbLine
 10
112.5160050676
 20
67.4016047297
 30
0.0
 11
112.5160050676
 21
63.4766047297
 31
0.0
  0
LINE
  5
372
330
1B
100
AcDbEntity
 67
     1
  8
3_ALL_AXES
  6
Continuous
 62
     7
100
AcDbLine
 10
121.9160050676
 20
67.4016047297
 30
0.0
 11
121.9160050676
 21
63.4766047297
 31
0.0
  0
LINE
  5
373
330
1B
100
AcDbEntity
 67
     1
  8
3_ALL_AXES
  6
Continuous
 62
     7
100
AcDbLine
 10
112.5160050676
 20
63.4766047297
 30
0.0
 11
113.8410050676
 21
62.1516047297
 31
0.0
  0
LINE
  5
374
330
1B
100
AcDbEntity
 67
     1
  8
3_ALL_AXES
  6
Continuous
 62
     7
100
AcDbLine
 10
121.9160050676
 20
63.4766047297
 30
0.0
 11
120.5910050676
 21
62.1516047297
 31
0.0
  0
LINE
  5
375
330
1B
100
AcDbEntity
 67
     1
  8
3_ALL_AXES
  6
Continuous
 62
     7
100
AcDbLine
 10
113.8410050676
 20
62.1516047297
 30
0.0
 11
112.5160050676
 21
60.8266047297
 31
0.0
  0
LINE
  5
376
330
1B
100
AcDbEntity
 67
     1
  8
3_ALL_AXES
  6
Continuous
 62
     7
100
AcDbLine
 10
120.5910050676
 20
62.1516047297
 30
0.0
 11
121.9160050676
 21
60.8266047297
 31
0.0
  0
LINE
  5
377
330
1B
100
AcDbEntity
 67
     1
  8
7_ALL_FEATURES
  6
Continuous
 62
     7
100
AcDbLine
 10
121.9160050676
 20
60.8266047297
 30
0.0
 11
121.9160050676
 21
56.4016047297
 31
0.0
  0
LINE
  5
378
330
1B
100
AcDbEntity
 67
     1
  8
7_ALL_FEATURES
  6
Continuous
 62
     7
100
AcDbLine
 10
112.5160050676
 20
60.8266047297
 30
0.0
 11
112.5160050676
 21
56.4016047297
 31
0.0
  0
LINE
  5
379
330
1B
100
AcDbEntity
 67
     1
  8
3_ALL_AXES
  6
Continuous
 62
     7
100
AcDbLine
 10
112.5160050676
 20
67.4016047297
 30
0.0
 11
113.9593807405
 21
69.9016047297
 31
0.0
  0
LINE
  5
37A
330
1B
100
AcDbEntity
 67
     1
  8
3_ALL_AXES
  6
Continuous
 62
     7
100
AcDbLine
 10
113.9593807405
 20
69.9016047297
 30
0.0
 11
120.4726293946
 21
69.9016047297
 31
0.0
  0
LINE
  5
37B
330
1B
100
AcDbEntity
 67
     1
  8
3_ALL_AXES
  6
Continuous
 62
     7
100
AcDbLine
 10
112.5160050676
 20
63.4766047297
 30
0.0
 11
112.5160050676
 21
67.4016047297
 31
0.0
  0
LINE
  5
37C
330
1B
100
AcDbEntity
 67
     1
  8
3_ALL_AXES
  6
Continuous
 62
     7
100
AcDbLine
 10
113.8410050676
 20
62.1516047297
 30
0.0
 11
112.5160050676
 21
63.4766047297
 31
0.0
  0
LINE
  5
37D
330
1B
100
AcDbEntity
 67
     1
  8
3_ALL_AXES
  6
Continuous
 62
     7
100
AcDbLine
 10
112.5160050676
 20
60.8266047297
 30
0.0
 11
113.8410050676
 21
62.1516047297
 31
0.0
  0
LINE
  5
37E
330
1B
100
AcDbEntity
 67
     1
  8
3_ALL_AXES
  6
Continuous
 62
     7
100
AcDbLine
 10
112.5160050676
 20
56.4016047297
 30
0.0
 11
112.5160050676
 21
60.8266047297
 31
0.0
  0
LINE
  5
37F
330
1B
100
AcDbEntity
 67
     1
  8
3_ALL_AXES
  6
Continuous
 62
     7
100
AcDbLine
 10
121.9160050676
 20
67.4016047297
 30
0.0
 11
120.4726293946
 21
69.9016047297
 31
0.0
  0
LINE
  5
380
330
1B
100
AcDbEntity
 67
     1
  8
3_ALL_AXES
  6
Continuous
 62
     7
100
AcDbLine
 10
121.9160050676
 20
63.4766047297
 30
0.0
 11
121.9160050676
 21
67.4016047297
 31
0.0
  0
LINE
  5
381
330
1B
100
AcDbEntity
 67
     1
  8
3_ALL_AXES
  6
Continuous
 62
     7
100
AcDbLine
 10
120.5910050676
 20
62.1516047297
 30
0.0
 11
121.9160050676
 21
63.4766047297
 31
0.0
  0
LINE
  5
382
330
1B
100
AcDbEntity
 67
     1
  8
3_ALL_AXES
  6
Continuous
 62
     7
100
AcDbLine
 10
121.9160050676
 20
60.8266047297
 30
0.0
 11
120.5910050676
 21
62.1516047297
 31
0.0
  0
LINE
  5
383
330
1B
100
AcDbEntity
 67
     1
  8
3_ALL_AXES
  6
Continuous
 62
     7
100
AcDbLine
 10
121.9160050676
 20
56.4016047297
 30
0.0
 11
121.9160050676
 21
60.8266047297
 31
0.0
  0
LINE
  5
384
330
1B
100
AcDbEntity
 67
     1
  8
7_ALL_FEATURES
  6
Continuous
 62
     7
100
AcDbLine
 10
113.0160050676
 20
55.9016047297
 30
0.0
 11
112.5160050676
 21
56.4016047297
 31
0.0
  0
LINE
  5
385
330
1B
100
AcDbEntity
 67
     1
  8
7_ALL_FEATURES
  6
Continuous
 62
     7
100
AcDbLine
 10
121.4160050675
 20
55.9016047297
 30
0.0
 11
121.9160050675
 21
56.4016047297
 31
0.0
  0
LINE
  5
386
330
1B
100
AcDbEntity
 67
     1
  8
7_ALL_FEATURES
  6
Continuous
 62
     7
100
AcDbLine
 10
113.0160050676
 20
55.9016047297
 30
0.0
 11
112.5160050676
 21
56.4016047297
 31
0.0
  0
LINE
  5
387
330
1B
100
AcDbEntity
 67
     1
  8
7_ALL_FEATURES
  6
Continuous
 62
     7
100
AcDbLine
 10
121.4160050675
 20
55.9016047297
 30
0.0
 11
121.9160050675
 21
56.4016047297
 31
0.0
  0
LINE
  5
388
330
1B
100
AcDbEntity
 67
     1
  8
3_ALL_AXES
  6
Continuous
 62
     7
100
AcDbLine
 10
112.5160050676
 20
67.4016047297
 30
0.0
 11
121.9160050676
 21
67.4016047297
 31
0.0
  0
LINE
  5
389
330
1B
100
AcDbEntity
 67
     1
  8
3_ALL_AXES
  6
Continuous
 62
     7
100
AcDbLine
 10
112.5160050676
 20
60.8266047297
 30
0.0
 11
121.9160050676
 21
60.8266047297
 31
0.0
  0
LINE
  5
38A
330
1B
100
AcDbEntity
 67
     1
  8
3_ALL_AXES
  6
Continuous
 62
     7
100
AcDbLine
 10
113.8410050676
 20
62.1516047297
 30
0.0
 11
120.5910050676
 21
62.1516047297
 31
0.0
  0
LINE
  5
38B
330
1B
100
AcDbEntity
 67
     1
  8
3_ALL_AXES
  6
Continuous
 62
     7
100
AcDbLine
 10
112.5160050676
 20
63.4766047297
 30
0.0
 11
121.9160050676
 21
63.4766047297
 31
0.0
  0
LINE
  5
38C
330
1B
100
AcDbEntity
 67
     1
  8
7_ALL_FEATURES
  6
Continuous
 62
     7
100
AcDbLine
 10
121.9160050676
 20
56.4016047297
 30
0.0
 11
112.5160050676
 21
56.4016047297
 31
0.0
  0
LINE
  5
38D
330
1B
100
AcDbEntity
 67
     1
  8
7_ALL_FEATURES
  6
Continuous
 62
     7
100
AcDbLine
 10
186.7160050676
 20
53.9016047297
 30
0.0
 11
185.2515389735
 21
53.9016047297
 31
0.0
  0
LINE
  5
38E
330
1B
100
AcDbEntity
 67
     1
  8
7_ALL_FEATURES
  6
Continuous
 62
     7
100
AcDbLine
 10
186.7160050676
 20
55.9016047297
 30
0.0
 11
186.7160050676
 21
53.9016047297
 31
0.0
  0
LINE
  5
38F
330
1B
100
AcDbEntity
 67
     1
  8
7_ALL_FEATURES
  6
Continuous
 62
     7
100
AcDbLine
 10
47.7160050676
 20
55.9016047297
 30
0.0
 11
49.1804711616
 21
55.9016047297
 31
0.0
  0
LINE
  5
390
330
1B
100
AcDbEntity
 67
     1
  8
7_ALL_FEATURES
  6
Continuous
 62
     7
100
AcDbLine
 10
47.7160050676
 20
53.9016047297
 30
0.0
 11
47.7160050676
 21
55.9016047297
 31
0.0
  0
LINE
  5
391
330
1B
100
AcDbEntity
 67
     1
  8
7_ALL_FEATURES
  6
Continuous
 62
     7
100
AcDbLine
 10
185.2515389735
 20
55.9016047297
 30
0.0
 11
186.7160050676
 21
55.9016047297
 31
0.0
  0
LINE
  5
392
330
1B
100
AcDbEntity
 67
     1
  8
7_ALL_FEATURES
  6
Continuous
 62
     7
100
AcDbLine
 10
173.1804711616
 20
55.9016047297
 30
0.0
 11
185.2515389735
 21
55.9016047297
 31
0.0
  0
LINE
  5
393
330
1B
100
AcDbEntity
 67
     1
  8
7_ALL_FEATURES
  6
Continuous
 62
     7
100
AcDbLine
 10
169.6449372557
 20
55.9016047297
 30
0.0
 11
173.1804711616
 21
55.9016047297
 31
0.0
  0
LINE
  5
394
330
1B
100
AcDbEntity
 67
     1
  8
7_ALL_FEATURES
  6
Continuous
 62
     7
100
AcDbLine
 10
169.6449372557
 20
55.9016047297
 30
0.0
 11
64.7870728794
 21
55.9016047297
 31
0.0
  0
LINE
  5
395
330
1B
100
AcDbEntity
 67
     1
  8
7_ALL_FEATURES
  6
Continuous
 62
     7
100
AcDbLine
 10
61.2515389735
 20
55.9016047297
 30
0.0
 11
64.7870728794
 21
55.9016047297
 31
0.0
  0
LINE
  5
396
330
1B
100
AcDbEntity
 67
     1
  8
7_ALL_FEATURES
  6
Continuous
 62
     7
100
AcDbLine
 10
49.1804711616
 20
55.9016047297
 30
0.0
 11
61.2515389735
 21
55.9016047297
 31
0.0
  0
LINE
  5
397
330
1B
100
AcDbEntity
 67
     1
  8
7_ALL_FEATURES
  6
Continuous
 62
     7
100
AcDbLine
 10
47.7160050676
 20
53.9016047297
 30
0.0
 11
47.7160050676
 21
55.9016047297
 31
0.0
  0
LINE
  5
398
330
1B
100
AcDbEntity
 67
     1
  8
7_ALL_FEATURES
  6
Continuous
 62
     7
100
AcDbLine
 10
186.7160050676
 20
55.9016047297
 30
0.0
 11
186.7160050676
 21
53.9016047297
 31
0.0
  0
LINE
  5
399
330
1B
100
AcDbEntity
 67
     1
  8
7_ALL_FEATURES
  6
Continuous
 62
     7
100
AcDbLine
 10
185.2515389735
 20
53.9016047297
 30
0.0
 11
173.1804711616
 21
53.9016047297
 31
0.0
  0
LINE
  5
39A
330
1B
100
AcDbEntity
 67
     1
  8
7_ALL_FEATURES
  6
Continuous
 62
     7
100
AcDbLine
 10
173.1804711616
 20
53.9016047297
 30
0.0
 11
169.6449372557
 21
53.9016047297
 31
0.0
  0
LINE
  5
39B
330
1B
100
AcDbEntity
 67
     1
  8
7_ALL_FEATURES
  6
Continuous
 62
     7
100
AcDbLine
 10
169.6449372557
 20
53.9016047297
 30
0.0
 11
64.7870728794
 21
53.9016047297
 31
0.0
  0
LINE
  5
39C
330
1B
100
AcDbEntity
 67
     1
  8
7_ALL_FEATURES
  6
Continuous
 62
     7
100
AcDbLine
 10
64.7870728794
 20
53.9016047297
 30
0.0
 11
61.2515389735
 21
53.9016047297
 31
0.0
  0
LINE
  5
39D
330
1B
100
AcDbEntity
 67
     1
  8
7_ALL_FEATURES
  6
Continuous
 62
     7
100
AcDbLine
 10
61.2515389735
 20
53.9016047297
 30
0.0
 11
49.1804711616
 21
53.9016047297
 31
0.0
  0
LINE
  5
39E
330
1B
100
AcDbEntity
 67
     1
  8
7_ALL_FEATURES
  6
Continuous
 62
     7
100
AcDbLine
 10
49.1804711616
 20
53.9016047297
 30
0.0
 11
47.7160050676
 21
53.9016047297
 31
0.0
  0
LINE
  5
39F
330
1B
100
AcDbEntity
 67
     1
  8
7_ALL_FEATURES
  6
Continuous
 62
     9
100
AcDbLine
 10
185.2515389735
 20
55.9016047297
 30
0.0
 11
185.2515389735
 21
53.9016047297
 31
0.0
  0
LINE
  5
3A0
330
1B
100
AcDbEntity
 67
     1
  8
7_ALL_FEATURES
  6
Continuous
 62
     9
100
AcDbLine
 10
49.1804711616
 20
53.9016047297
 30
0.0
 11
49.1804711616
 21
55.9016047297
 31
0.0
  0
LINE
  5
3A1
330
1B
100
AcDbEntity
 67
     1
  8
7_ALL_FEATURES
  6
Continuous
 62
     9
100
AcDbLine
 10
61.2515389735
 20
55.9016047297
 30
0.0
 11
61.2515389735
 21
53.9016047297
 31
0.0
  0
LINE
  5
3A2
330
1B
100
AcDbEntity
 67
     1
  8
7_ALL_FEATURES
  6
Continuous
 62
     9
100
AcDbLine
 10
173.1804711616
 20
53.9016047297
 30
0.0
 11
173.1804711616
 21
55.9016047297
 31
0.0
  0
LINE
  5
3A3
330
1B
100
AcDbEntity
 67
     1
  8
7_ALL_FEATURES
  6
Continuous
 62
     9
100
AcDbLine
 10
169.6449372557
 20
53.9016047297
 30
0.0
 11
169.6449372557
 21
55.9016047297
 31
0.0
  0
LINE
  5
3A4
330
1B
100
AcDbEntity
 67
     1
  8
7_ALL_FEATURES
  6
Continuous
 62
     9
100
AcDbLine
 10
64.7870728794
 20
55.9016047297
 30
0.0
 11
64.7870728794
 21
53.9016047297
 31
0.0
  0
LINE
  5
3A5
330
1B
100
AcDbEntity
 67
     1
  8
3_ALL_AXES
  6
Continuous
 62
     7
100
AcDbLine
 10
235.8270692568
 20
118.7117398649
 30
0.0
 11
233.3270692568
 21
120.1551155378
 31
0.0
  0
LINE
  5
3A6
330
1B
100
AcDbEntity
 67
     1
  8
3_ALL_AXES
  6
Continuous
 62
     7
100
AcDbLine
 10
239.7520692568
 20
118.7117398649
 30
0.0
 11
235.8270692568
 21
118.7117398649
 31
0.0
  0
LINE
  5
3A7
330
1B
100
AcDbEntity
 67
     1
  8
3_ALL_AXES
  6
Continuous
 62
     7
100
AcDbLine
 10
241.0770692568
 20
120.0367398649
 30
0.0
 11
239.7520692568
 21
118.7117398649
 31
0.0
  0
LINE
  5
3A8
330
1B
100
AcDbEntity
 67
     1
  8
3_ALL_AXES
  6
Continuous
 62
     7
100
AcDbLine
 10
242.4020692568
 20
118.7117398649
 30
0.0
 11
241.0770692568
 21
120.0367398649
 31
0.0
  0
LINE
  5
3A9
330
1B
100
AcDbEntity
 67
     1
  8
3_ALL_AXES
  6
Continuous
 62
     7
100
AcDbLine
 10
246.8270692568
 20
118.7117398649
 30
0.0
 11
242.4020692568
 21
118.7117398649
 31
0.0
  0
LINE
  5
3AA
330
1B
100
AcDbEntity
 67
     1
  8
7_ALL_FEATURES
  6
Continuous
 62
     7
100
AcDbLine
 10
247.3270692568
 20
119.2117398649
 30
0.0
 11
246.8270692568
 21
118.7117398649
 31
0.0
  0
LINE
  5
3AB
330
1B
100
AcDbEntity
 67
     1
  8
7_ALL_FEATURES
  6
Continuous
 62
     7
100
AcDbLine
 10
247.3270692568
 20
127.6117398649
 30
0.0
 11
246.8270692568
 21
128.1117398649
 31
0.0
  0
LINE
  5
3AC
330
1B
100
AcDbEntity
 67
     1
  8
3_ALL_AXES
  6
Continuous
 62
     7
100
AcDbLine
 10
233.3270692568
 20
123.4117398649
 30
0.0
 11
233.3270692568
 21
126.6683072706
 31
0.0
  0
LINE
  5
3AD
330
1B
100
AcDbEntity
 67
     1
  8
3_ALL_AXES
  6
Continuous
 62
     7
100
AcDbLine
 10
233.3270692568
 20
123.4117398649
 30
0.0
 11
233.3270692568
 21
120.1551724591
 31
0.0
  0
LINE
  5
3AE
330
1B
100
AcDbEntity
 67
     1
  8
3_ALL_AXES
  6
Continuous
 62
     7
100
AcDbLine
 10
235.8270692568
 20
128.1117398649
 30
0.0
 11
233.3270692568
 21
126.6683641919
 31
0.0
  0
LINE
  5
3AF
330
1B
100
AcDbEntity
 67
     1
  8
3_ALL_AXES
  6
Continuous
 62
     7
100
AcDbLine
 10
239.7520692568
 20
128.1117398649
 30
0.0
 11
235.8270692568
 21
128.1117398649
 31
0.0
  0
LINE
  5
3B0
330
1B
100
AcDbEntity
 67
     1
  8
3_ALL_AXES
  6
Continuous
 62
     7
100
AcDbLine
 10
241.0770692568
 20
126.7867398649
 30
0.0
 11
239.7520692568
 21
128.1117398649
 31
0.0
  0
LINE
  5
3B1
330
1B
100
AcDbEntity
 67
     1
  8
3_ALL_AXES
  6
Continuous
 62
     7
100
AcDbLine
 10
242.4020692568
 20
128.1117398649
 30
0.0
 11
241.0770692568
 21
126.7867398649
 31
0.0
  0
LINE
  5
3B2
330
1B
100
AcDbEntity
 67
     1
  8
3_ALL_AXES
  6
Continuous
 62
     7
100
AcDbLine
 10
246.8270692568
 20
128.1117398649
 30
0.0
 11
242.4020692568
 21
128.1117398649
 31
0.0
  0
LINE
  5
3B3
330
1B
100
AcDbEntity
 67
     1
  8
3_ALL_AXES
  6
Continuous
 62
     7
100
AcDbLine
 10
241.0770692568
 20
123.4117398649
 30
0.0
 11
241.0770692568
 21
126.7867398649
 31
0.0
  0
LINE
  5
3B4
330
1B
100
AcDbEntity
 67
     1
  8
3_ALL_AXES
  6
Continuous
 62
     7
100
AcDbLine
 10
242.4020692568
 20
123.4117398649
 30
0.0
 11
242.4020692568
 21
128.1117398649
 31
0.0
  0
LINE
  5
3B5
330
1B
100
AcDbEntity
 67
     1
  8
3_ALL_AXES
  6
Continuous
 62
     7
100
AcDbLine
 10
235.8270692568
 20
123.4117398649
 30
0.0
 11
235.8270692568
 21
118.7117398649
 31
0.0
  0
LINE
  5
3B6
330
1B
100
AcDbEntity
 67
     1
  8
3_ALL_AXES
  6
Continuous
 62
     7
100
AcDbLine
 10
239.7520692568
 20
123.4117398649
 30
0.0
 11
239.7520692568
 21
118.7117398649
 31
0.0
  0
LINE
  5
3B7
330
1B
100
AcDbEntity
 67
     1
  8
3_ALL_AXES
  6
Continuous
 62
     7
100
AcDbLine
 10
241.0770692568
 20
123.4117398649
 30
0.0
 11
241.0770692568
 21
120.0367398649
 31
0.0
  0
LINE
  5
3B8
330
1B
100
AcDbEntity
 67
     1
  8
7_ALL_FEATURES
  6
Continuous
 62
     7
100
AcDbLine
 10
246.8270692568
 20
123.4117398649
 30
0.0
 11
246.8270692568
 21
118.7117398649
 31
0.0
  0
LINE
  5
3B9
330
1B
100
AcDbEntity
 67
     1
  8
3_ALL_AXES
  6
Continuous
 62
     7
100
AcDbLine
 10
242.4020692568
 20
123.4117398649
 30
0.0
 11
242.4020692568
 21
118.7117398649
 31
0.0
  0
LINE
  5
3BA
330
1B
100
AcDbEntity
 67
     1
  8
3_ALL_AXES
  6
Continuous
 62
     7
100
AcDbLine
 10
235.8270692568
 20
123.4117398649
 30
0.0
 11
235.8270692568
 21
128.1117398649
 31
0.0
  0
LINE
  5
3BB
330
1B
100
AcDbEntity
 67
     1
  8
3_ALL_AXES
  6
Continuous
 62
     7
100
AcDbLine
 10
239.7520692568
 20
123.4117398649
 30
0.0
 11
239.7520692568
 21
128.1117398649
 31
0.0
  0
LINE
  5
3BC
330
1B
100
AcDbEntity
 67
     1
  8
7_ALL_FEATURES
  6
Continuous
 62
     7
100
AcDbLine
 10
246.8270692568
 20
128.1117398649
 30
0.0
 11
246.8270692568
 21
123.4117398649
 31
0.0
  0
LINE
  5
3BD
330
1B
100
AcDbEntity
 67
     1
  8
3_ALL_AXES
  6
Continuous
 62
     7
100
AcDbLine
 10
235.8270692568
 20
244.7117398649
 30
0.0
 11
233.3270692568
 21
246.1551155378
 31
0.0
  0
LINE
  5
3BE
330
1B
100
AcDbEntity
 67
     1
  8
3_ALL_AXES
  6
Continuous
 62
     7
100
AcDbLine
 10
239.7520692568
 20
244.7117398649
 30
0.0
 11
235.8270692568
 21
244.7117398649
 31
0.0
  0
LINE
  5
3BF
330
1B
100
AcDbEntity
 67
     1
  8
3_ALL_AXES
  6
Continuous
 62
     7
100
AcDbLine
 10
241.0770692568
 20
246.0367398649
 30
0.0
 11
239.7520692568
 21
244.7117398649
 31
0.0
  0
LINE
  5
3C0
330
1B
100
AcDbEntity
 67
     1
  8
3_ALL_AXES
  6
Continuous
 62
     7
100
AcDbLine
 10
242.4020692568
 20
244.7117398649
 30
0.0
 11
241.0770692568
 21
246.0367398649
 31
0.0
  0
LINE
  5
3C1
330
1B
100
AcDbEntity
 67
     1
  8
3_ALL_AXES
  6
Continuous
 62
     7
100
AcDbLine
 10
246.8270692568
 20
244.7117398649
 30
0.0
 11
242.4020692568
 21
244.7117398649
 31
0.0
  0
LINE
  5
3C2
330
1B
100
AcDbEntity
 67
     1
  8
7_ALL_FEATURES
  6
Continuous
 62
     7
100
AcDbLine
 10
247.3270692568
 20
245.2117398649
 30
0.0
 11
246.8270692568
 21
244.7117398649
 31
0.0
  0
LINE
  5
3C3
330
1B
100
AcDbEntity
 67
     1
  8
7_ALL_FEATURES
  6
Continuous
 62
     7
100
AcDbLine
 10
247.3270692568
 20
253.6117398649
 30
0.0
 11
246.8270692568
 21
254.1117398649
 31
0.0
  0
LINE
  5
3C4
330
1B
100
AcDbEntity
 67
     1
  8
3_ALL_AXES
  6
Continuous
 62
     7
100
AcDbLine
 10
233.3270692568
 20
249.4117398649
 30
0.0
 11
233.3270692568
 21
252.6683072706
 31
0.0
  0
LINE
  5
3C5
330
1B
100
AcDbEntity
 67
     1
  8
3_ALL_AXES
  6
Continuous
 62
     7
100
AcDbLine
 10
233.3270692568
 20
249.4117398649
 30
0.0
 11
233.3270692568
 21
246.1551724591
 31
0.0
  0
LINE
  5
3C6
330
1B
100
AcDbEntity
 67
     1
  8
3_ALL_AXES
  6
Continuous
 62
     7
100
AcDbLine
 10
235.8270692568
 20
254.1117398649
 30
0.0
 11
233.3270692568
 21
252.6683641919
 31
0.0
  0
LINE
  5
3C7
330
1B
100
AcDbEntity
 67
     1
  8
3_ALL_AXES
  6
Continuous
 62
     7
100
AcDbLine
 10
239.7520692568
 20
254.1117398649
 30
0.0
 11
235.8270692568
 21
254.1117398649
 31
0.0
  0
LINE
  5
3C8
330
1B
100
AcDbEntity
 67
     1
  8
3_ALL_AXES
  6
Continuous
 62
     7
100
AcDbLine
 10
241.0770692568
 20
252.7867398649
 30
0.0
 11
239.7520692568
 21
254.1117398649
 31
0.0
  0
LINE
  5
3C9
330
1B
100
AcDbEntity
 67
     1
  8
3_ALL_AXES
  6
Continuous
 62
     7
100
AcDbLine
 10
242.4020692568
 20
254.1117398649
 30
0.0
 11
241.0770692568
 21
252.7867398649
 31
0.0
  0
LINE
  5
3CA
330
1B
100
AcDbEntity
 67
     1
  8
3_ALL_AXES
  6
Continuous
 62
     7
100
AcDbLine
 10
246.8270692568
 20
254.1117398649
 30
0.0
 11
242.4020692568
 21
254.1117398649
 31
0.0
  0
LINE
  5
3CB
330
1B
100
AcDbEntity
 67
     1
  8
3_ALL_AXES
  6
Continuous
 62
     7
100
AcDbLine
 10
241.0770692568
 20
249.4117398649
 30
0.0
 11
241.0770692568
 21
252.7867398649
 31
0.0
  0
LINE
  5
3CC
330
1B
100
AcDbEntity
 67
     1
  8
3_ALL_AXES
  6
Continuous
 62
     7
100
AcDbLine
 10
242.4020692568
 20
249.4117398649
 30
0.0
 11
242.4020692568
 21
254.1117398649
 31
0.0
  0
LINE
  5
3CD
330
1B
100
AcDbEntity
 67
     1
  8
3_ALL_AXES
  6
Continuous
 62
     7
100
AcDbLine
 10
235.8270692568
 20
249.4117398649
 30
0.0
 11
235.8270692568
 21
244.7117398649
 31
0.0
  0
LINE
  5
3CE
330
1B
100
AcDbEntity
 67
     1
  8
3_ALL_AXES
  6
Continuous
 62
     7
100
AcDbLine
 10
239.7520692568
 20
249.4117398649
 30
0.0
 11
239.7520692568
 21
244.7117398649
 31
0.0
  0
LINE
  5
3CF
330
1B
100
AcDbEntity
 67
     1
  8
3_ALL_AXES
  6
Continuous
 62
     7
100
AcDbLine
 10
241.0770692568
 20
249.4117398649
 30
0.0
 11
241.0770692568
 21
246.0367398649
 31
0.0
  0
LINE
  5
3D0
330
1B
100
AcDbEntity
 67
     1
  8
7_ALL_FEATURES
  6
Continuous
 62
     7
100
AcDbLine
 10
246.8270692568
 20
249.4117398649
 30
0.0
 11
246.8270692568
 21
244.7117398649
 31
0.0
  0
LINE
  5
3D1
330
1B
100
AcDbEntity
 67
     1
  8
3_ALL_AXES
  6
Continuous
 62
     7
100
AcDbLine
 10
242.4020692568
 20
249.4117398649
 30
0.0
 11
242.4020692568
 21
244.7117398649
 31
0.0
  0
LINE
  5
3D2
330
1B
100
AcDbEntity
 67
     1
  8
3_ALL_AXES
  6
Continuous
 62
     7
100
AcDbLine
 10
235.8270692568
 20
249.4117398649
 30
0.0
 11
235.8270692568
 21
254.1117398649
 31
0.0
  0
LINE
  5
3D3
330
1B
100
AcDbEntity
 67
     1
  8
3_ALL_AXES
  6
Continuous
 62
     7
100
AcDbLine
 10
239.7520692568
 20
249.4117398649
 30
0.0
 11
239.7520692568
 21
254.1117398649
 31
0.0
  0
LINE
  5
3D4
330
1B
100
AcDbEntity
 67
     1
  8
7_ALL_FEATURES
  6
Continuous
 62
     7
100
AcDbLine
 10
246.8270692568
 20
254.1117398649
 30
0.0
 11
246.8270692568
 21
249.4117398649
 31
0.0
  0
LINE
  5
3D5
330
1B
100
AcDbEntity
 67
     1
  8
3_ALL_AXES
  6
Continuous
 62
     7
100
AcDbLine
 10
235.8270692568
 20
181.7117398649
 30
0.0
 11
233.3270692568
 21
183.1551155378
 31
0.0
  0
LINE
  5
3D6
330
1B
100
AcDbEntity
 67
     1
  8
3_ALL_AXES
  6
Continuous
 62
     7
100
AcDbLine
 10
239.7520692568
 20
181.7117398649
 30
0.0
 11
235.8270692568
 21
181.7117398649
 31
0.0
  0
LINE
  5
3D7
330
1B
100
AcDbEntity
 67
     1
  8
3_ALL_AXES
  6
Continuous
 62
     7
100
AcDbLine
 10
241.0770692568
 20
183.0367398649
 30
0.0
 11
239.7520692568
 21
181.7117398649
 31
0.0
  0
LINE
  5
3D8
330
1B
100
AcDbEntity
 67
     1
  8
3_ALL_AXES
  6
Continuous
 62
     7
100
AcDbLine
 10
242.4020692568
 20
181.7117398649
 30
0.0
 11
241.0770692568
 21
183.0367398649
 31
0.0
  0
LINE
  5
3D9
330
1B
100
AcDbEntity
 67
     1
  8
3_ALL_AXES
  6
Continuous
 62
     7
100
AcDbLine
 10
246.8270692568
 20
181.7117398649
 30
0.0
 11
242.4020692568
 21
181.7117398649
 31
0.0
  0
LINE
  5
3DA
330
1B
100
AcDbEntity
 67
     1
  8
7_ALL_FEATURES
  6
Continuous
 62
     7
100
AcDbLine
 10
247.3270692568
 20
182.2117398649
 30
0.0
 11
246.8270692568
 21
181.7117398649
 31
0.0
  0
LINE
  5
3DB
330
1B
100
AcDbEntity
 67
     1
  8
7_ALL_FEATURES
  6
Continuous
 62
     7
100
AcDbLine
 10
247.3270692568
 20
190.6117398649
 30
0.0
 11
246.8270692568
 21
191.1117398649
 31
0.0
  0
LINE
  5
3DC
330
1B
100
AcDbEntity
 67
     1
  8
3_ALL_AXES
  6
Continuous
 62
     7
100
AcDbLine
 10
233.3270692568
 20
186.4117398649
 30
0.0
 11
233.3270692568
 21
189.6683072706
 31
0.0
  0
LINE
  5
3DD
330
1B
100
AcDbEntity
 67
     1
  8
3_ALL_AXES
  6
Continuous
 62
     7
100
AcDbLine
 10
233.3270692568
 20
186.4117398649
 30
0.0
 11
233.3270692568
 21
183.1551724591
 31
0.0
  0
LINE
  5
3DE
330
1B
100
AcDbEntity
 67
     1
  8
3_ALL_AXES
  6
Continuous
 62
     7
100
AcDbLine
 10
235.8270692568
 20
191.1117398649
 30
0.0
 11
233.3270692568
 21
189.6683641919
 31
0.0
  0
LINE
  5
3DF
330
1B
100
AcDbEntity
 67
     1
  8
3_ALL_AXES
  6
Continuous
 62
     7
100
AcDbLine
 10
239.7520692568
 20
191.1117398649
 30
0.0
 11
235.8270692568
 21
191.1117398649
 31
0.0
  0
LINE
  5
3E0
330
1B
100
AcDbEntity
 67
     1
  8
3_ALL_AXES
  6
Continuous
 62
     7
100
AcDbLine
 10
241.0770692568
 20
189.7867398649
 30
0.0
 11
239.7520692568
 21
191.1117398649
 31
0.0
  0
LINE
  5
3E1
330
1B
100
AcDbEntity
 67
     1
  8
3_ALL_AXES
  6
Continuous
 62
     7
100
AcDbLine
 10
242.4020692568
 20
191.1117398649
 30
0.0
 11
241.0770692568
 21
189.7867398649
 31
0.0
  0
LINE
  5
3E2
330
1B
100
AcDbEntity
 67
     1
  8
3_ALL_AXES
  6
Continuous
 62
     7
100
AcDbLine
 10
246.8270692568
 20
191.1117398649
 30
0.0
 11
242.4020692568
 21
191.1117398649
 31
0.0
  0
LINE
  5
3E3
330
1B
100
AcDbEntity
 67
     1
  8
3_ALL_AXES
  6
Continuous
 62
     7
100
AcDbLine
 10
241.0770692568
 20
186.4117398649
 30
0.0
 11
241.0770692568
 21
189.7867398649
 31
0.0
  0
LINE
  5
3E4
330
1B
100
AcDbEntity
 67
     1
  8
3_ALL_AXES
  6
Continuous
 62
     7
100
AcDbLine
 10
242.4020692568
 20
186.4117398649
 30
0.0
 11
242.4020692568
 21
191.1117398649
 31
0.0
  0
LINE
  5
3E5
330
1B
100
AcDbEntity
 67
     1
  8
3_ALL_AXES
  6
Continuous
 62
     7
100
AcDbLine
 10
235.8270692568
 20
186.4117398649
 30
0.0
 11
235.8270692568
 21
181.7117398649
 31
0.0
  0
LINE
  5
3E6
330
1B
100
AcDbEntity
 67
     1
  8
3_ALL_AXES
  6
Continuous
 62
     7
100
AcDbLine
 10
239.7520692568
 20
186.4117398649
 30
0.0
 11
239.7520692568
 21
181.7117398649
 31
0.0
  0
LINE
  5
3E7
330
1B
100
AcDbEntity
 67
     1
  8
3_ALL_AXES
  6
Continuous
 62
     7
100
AcDbLine
 10
241.0770692568
 20
186.4117398649
 30
0.0
 11
241.0770692568
 21
183.0367398649
 31
0.0
  0
LINE
  5
3E8
330
1B
100
AcDbEntity
 67
     1
  8
7_ALL_FEATURES
  6
Continuous
 62
     7
100
AcDbLine
 10
246.8270692568
 20
186.4117398649
 30
0.0
 11
246.8270692568
 21
181.7117398649
 31
0.0
  0
LINE
  5
3E9
330
1B
100
AcDbEntity
 67
     1
  8
3_ALL_AXES
  6
Continuous
 62
     7
100
AcDbLine
 10
242.4020692568
 20
186.4117398649
 30
0.0
 11
242.4020692568
 21
181.7117398649
 31
0.0
  0
LINE
  5
3EA
330
1B
100
AcDbEntity
 67
     1
  8
3_ALL_AXES
  6
Continuous
 62
     7
100
AcDbLine
 10
235.8270692568
 20
186.4117398649
 30
0.0
 11
235.8270692568
 21
191.1117398649
 31
0.0
  0
LINE
  5
3EB
330
1B
100
AcDbEntity
 67
     1
  8
3_ALL_AXES
  6
Continuous
 62
     7
100
AcDbLine
 10
239.7520692568
 20
186.4117398649
 30
0.0
 11
239.7520692568
 21
191.1117398649
 31
0.0
  0
LINE
  5
3EC
330
1B
100
AcDbEntity
 67
     1
  8
7_ALL_FEATURES
  6
Continuous
 62
     7
100
AcDbLine
 10
246.8270692568
 20
191.1117398649
 30
0.0
 11
246.8270692568
 21
186.4117398649
 31
0.0
  0
LINE
  5
3ED
330
1B
100
AcDbEntity
 67
     1
  8
7_ALL_FEATURES
  6
Continuous
 62
     7
100
AcDbLine
 10
249.3270692568
 20
255.9117398649
 30
0.0
 11
249.3270692568
 21
254.4472737708
 31
0.0
  0
LINE
  5
3EE
330
1B
100
AcDbEntity
 67
     1
  8
7_ALL_FEATURES
  6
Continuous
 62
     7
100
AcDbLine
 10
247.3270692568
 20
255.9117398649
 30
0.0
 11
249.3270692568
 21
255.9117398649
 31
0.0
  0
LINE
  5
3EF
330
1B
100
AcDbEntity
 67
     1
  8
7_ALL_FEATURES
  6
Continuous
 62
     7
100
AcDbLine
 10
247.3270692568
 20
116.9117398649
 30
0.0
 11
247.3270692568
 21
118.3762059589
 31
0.0
  0
LINE
  5
3F0
330
1B
100
AcDbEntity
 67
     1
  8
7_ALL_FEATURES
  6
Continuous
 62
     7
100
AcDbLine
 10
249.3270692568
 20
116.9117398649
 30
0.0
 11
247.3270692568
 21
116.9117398649
 31
0.0
  0
LINE
  5
3F1
330
1B
100
AcDbEntity
 67
     1
  8
7_ALL_FEATURES
  6
Continuous
 62
     7
100
AcDbLine
 10
247.3270692568
 20
254.4472737708
 30
0.0
 11
247.3270692568
 21
255.9117398649
 31
0.0
  0
LINE
  5
3F2
330
1B
100
AcDbEntity
 67
     1
  8
7_ALL_FEATURES
  6
Continuous
 62
     7
100
AcDbLine
 10
247.3270692568
 20
242.3762059589
 30
0.0
 11
247.3270692568
 21
254.4472737708
 31
0.0
  0
LINE
  5
3F3
330
1B
100
AcDbEntity
 67
     1
  8
7_ALL_FEATURES
  6
Continuous
 62
     7
100
AcDbLine
 10
247.3270692568
 20
238.840672053
 30
0.0
 11
247.3270692568
 21
242.3762059589
 31
0.0
  0
LINE
  5
3F4
330
1B
100
AcDbEntity
 67
     1
  8
7_ALL_FEATURES
  6
Continuous
 62
     7
100
AcDbLine
 10
247.3270692568
 20
238.840672053
 30
0.0
 11
247.3270692568
 21
133.9828076767
 31
0.0
  0
LINE
  5
3F5
330
1B
100
AcDbEntity
 67
     1
  8
7_ALL_FEATURES
  6
Continuous
 62
     7
100
AcDbLine
 10
247.3270692568
 20
130.4472737708
 30
0.0
 11
247.3270692568
 21
133.9828076767
 31
0.0
  0
LINE
  5
3F6
330
1B
100
AcDbEntity
 67
     1
  8
7_ALL_FEATURES
  6
Continuous
 62
     7
100
AcDbLine
 10
247.3270692568
 20
118.3762059589
 30
0.0
 11
247.3270692568
 21
130.4472737708
 31
0.0
  0
LINE
  5
3F7
330
1B
100
AcDbEntity
 67
     1
  8
7_ALL_FEATURES
  6
Continuous
 62
     7
100
AcDbLine
 10
249.3270692568
 20
118.3762059589
 30
0.0
 11
249.3270692568
 21
116.9117398649
 31
0.0
  0
LINE
  5
3F8
330
1B
100
AcDbEntity
 67
     1
  8
7_ALL_FEATURES
  6
Continuous
 62
     7
100
AcDbLine
 10
249.3270692568
 20
130.4472737708
 30
0.0
 11
249.3270692568
 21
118.3762059589
 31
0.0
  0
LINE
  5
3F9
330
1B
100
AcDbEntity
 67
     1
  8
7_ALL_FEATURES
  6
Continuous
 62
     7
100
AcDbLine
 10
249.3270692568
 20
133.9828076767
 30
0.0
 11
249.3270692568
 21
130.4472737708
 31
0.0
  0
LINE
  5
3FA
330
1B
100
AcDbEntity
 67
     1
  8
7_ALL_FEATURES
  6
Continuous
 62
     7
100
AcDbLine
 10
249.3270692568
 20
238.840672053
 30
0.0
 11
249.3270692568
 21
133.9828076767
 31
0.0
  0
LINE
  5
3FB
330
1B
100
AcDbEntity
 67
     1
  8
7_ALL_FEATURES
  6
Continuous
 62
     7
100
AcDbLine
 10
249.3270692568
 20
242.3762059589
 30
0.0
 11
249.3270692568
 21
238.840672053
 31
0.0
  0
LINE
  5
3FC
330
1B
100
AcDbEntity
 67
     1
  8
7_ALL_FEATURES
  6
Continuous
 62
     7
100
AcDbLine
 10
249.3270692568
 20
254.4472737708
 30
0.0
 11
249.3270692568
 21
242.3762059589
 31
0.0
  0
LINE
  5
3FD
330
1B
100
AcDbEntity
 67
     1
  8
7_ALL_FEATURES
  6
Continuous
 62
     7
100
AcDbLine
 10
249.3270692568
 20
116.9117398649
 30
0.0
 11
247.3270692568
 21
116.9117398649
 31
0.0
  0
LINE
  5
3FE
330
1B
100
AcDbEntity
 67
     1
  8
7_ALL_FEATURES
  6
Continuous
 62
     7
100
AcDbLine
 10
247.3270692568
 20
255.9117398649
 30
0.0
 11
249.3270692568
 21
255.9117398649
 31
0.0
  0
LINE
  5
3FF
330
1B
100
AcDbEntity
 67
     1
  8
7_ALL_FEATURES
  6
Continuous
 62
     9
100
AcDbLine
 10
247.3270692568
 20
130.4472737708
 30
0.0
 11
249.3270692568
 21
130.4472737708
 31
0.0
  0
LINE
  5
400
330
1B
100
AcDbEntity
 67
     1
  8
7_ALL_FEATURES
  6
Continuous
 62
     9
100
AcDbLine
 10
249.3270692568
 20
118.3762059589
 30
0.0
 11
247.3270692568
 21
118.3762059589
 31
0.0
  0
LINE
  5
401
330
1B
100
AcDbEntity
 67
     1
  8
7_ALL_FEATURES
  6
Continuous
 62
     9
100
AcDbLine
 10
249.3270692568
 20
242.3762059589
 30
0.0
 11
247.3270692568
 21
242.3762059589
 31
0.0
  0
LINE
  5
402
330
1B
100
AcDbEntity
 67
     1
  8
7_ALL_FEATURES
  6
Continuous
 62
     9
100
AcDbLine
 10
247.3270692568
 20
133.9828076767
 30
0.0
 11
249.3270692568
 21
133.9828076767
 31
0.0
  0
LINE
  5
403
330
1B
100
AcDbEntity
 67
     1
  8
7_ALL_FEATURES
  6
Continuous
 62
     9
100
AcDbLine
 10
249.3270692568
 20
238.840672053
 30
0.0
 11
247.3270692568
 21
238.840672053
 31
0.0
  0
LINE
  5
404
330
1B
100
AcDbEntity
 67
     1
  8
7_ALL_FEATURES
  6
Continuous
 62
     9
100
AcDbLine
 10
247.3270692568
 20
254.4472737708
 30
0.0
 11
249.3270692568
 21
254.4472737708
 31
0.0
  0
DIMENSION
  5
405
330
1B
100
AcDbEntity
 67
     1
  8
0
  6
Continuous
 62
     2
100
AcDbDimension
280
     0
  2
*D1
 10
32.8077111486
 20
255.9117398649
 30
0.0
 11
32.8077111486
 21
192.521546052
 31
0.0
 70
   160
 71
     5
 42
-1.0
 73
     0
 74
     0
 75
     0
  3
DIMSTYLE_1
100
AcDbAlignedDimension
 13
52.4158735551
 23
116.9117398649
 33
0.0
 14
50.4205188254
 24
255.9117398649
 34
0.0
 50
90.0
100
AcDbRotatedDimension
  0
DIMENSION
  5
406
330
1B
100
AcDbEntity
 67
     1
  8
0
  6
Continuous
 62
     2
100
AcDbDimension
280
     0
  2
*D2
 10
186.7160050676
 20
270.3698817568
 30
0.0
 11
116.5831137085
 21
270.3698817568
 31
0.0
 70
   160
 71
     5
 42
-1.0
 73
     0
 74
     0
 75
     0
  3
DIMSTYLE_1
100
AcDbAlignedDimension
 13
47.7160050676
 23
250.0756954498
 33
0.0
 14
186.7160050676
 24
262.0478238281
 34
0.0
100
AcDbRotatedDimension
  0
DIMENSION
  5
407
330
1B
100
AcDbEntity
 67
     1
  8
0
  6
Continuous
 62
     2
100
AcDbDimension
280
     0
  2
*D3
 10
247.3270692568
 20
270.3698817568
 30
0.0
 11
251.7491638184
 21
270.3698817568
 31
0.0
 70
   160
 71
     5
 42
-1.0
 73
     0
 74
     0
 75
     0
  3
DIMSTYLE_2
100
AcDbAlignedDimension
 13
249.3270692568
 23
262.3858578638
 33
0.0
 14
247.3270692568
 24
262.0478238281
 34
0.0
 50
180.0
100
AcDbRotatedDimension
  0
DIMENSION
  5
408
330
1B
100
AcDbEntity
 67
     1
  8
0
  6
Continuous
 62
     2
100
AcDbDimension
280
     0
  2
*D4
 10
233.3270692568
 20
96.9039960811
 30
0.0
 11
240.8985058594
 21
96.9039960811
 31
0.0
 70
   160
 71
     5
 42
-1.0
 73
     0
 74
     0
 75
     0
  3
DIMSTYLE_3
100
AcDbAlignedDimension
 13
249.3270692568
 23
106.1167464995
 33
0.0
 14
233.3270692568
 24
105.5333614865
 34
0.0
 50
180.0
100
AcDbRotatedDimension
  0
DIMENSION
  5
409
330
1B
100
AcDbEntity
 67
     1
  8
0
  6
Continuous
 62
     2
100
AcDbDimension
280
     0
  2
*D5
 10
233.3270692568
 20
106.0368053146
 30
0.0
 11
239.8984936523
 21
106.0368053146
 31
0.0
 70
   160
 71
     5
 42
-1.0
 73
     0
 74
     0
 75
     0
  3
DIMSTYLE_3
100
AcDbAlignedDimension
 13
247.3270692568
 23
112.0993627157
 33
0.0
 14
233.3270692568
 24
114.3103171622
 34
0.0
 50
180.0
100
AcDbRotatedDimension
  0
LINE
  5
40A
330
1B
100
AcDbEntity
 67
     1
  8
0
  6
Continuous
 62
     2
100
AcDbLine
 10
280.008734378
 20
76.2503143264
 30
0.0
 11
410.008734378
 21
76.2503143264
 31
0.0
  0
LINE
  5
40B
330
1B
100
AcDbEntity
 67
     1
  8
0
  6
Continuous
 62
     2
100
AcDbLine
 10
280.008734378
 20
76.2503143264
 30
0.0
 11
280.008734378
 21
10.2503143264
 31
0.0
  0
LINE
  5
40C
330
1B
100
AcDbEntity
 67
     1
  8
0
  6
Continuous
 62
     2
100
AcDbLine
 10
310.008734378
 20
68.2503143264
 30
0.0
 11
410.008734378
 21
68.2503143264
 31
0.0
  0
LINE
  5
40D
330
1B
100
AcDbEntity
 67
     1
  8
0
  6
Continuous
 62
     2
100
AcDbLine
 10
280.008734378
 20
60.2503143264
 30
0.0
 11
410.008734378
 21
60.2503143264
 31
0.0
  0
LINE
  5
40E
330
1B
100
AcDbEntity
 67
     1
  8
0
  6
Continuous
 62
     2
100
AcDbLine
 10
310.008734378
 20
54.2503143264
 30
0.0
 11
410.008734378
 21
54.2503143264
 31
0.0
  0
LINE
  5
40F
330
1B
100
AcDbEntity
 67
     1
  8
0
  6
Continuous
 62
     2
100
AcDbLine
 10
310.008734378
 20
48.2503143264
 30
0.0
 11
410.008734378
 21
48.2503143264
 31
0.0
  0
LINE
  5
410
330
1B
100
AcDbEntity
 67
     1
  8
0
  6
Continuous
 62
     2
100
AcDbLine
 10
310.008734378
 20
42.2503143264
 30
0.0
 11
410.008734378
 21
42.2503143264
 31
0.0
  0
LINE
  5
411
330
1B
100
AcDbEntity
 67
     1
  8
0
  6
Continuous
 62
     2
100
AcDbLine
 10
310.008734378
 20
36.2503143264
 30
0.0
 11
410.008734378
 21
36.2503143264
 31
0.0
  0
LINE
  5
412
330
1B
100
AcDbEntity
 67
     1
  8
0
  6
Continuous
 62
     2
100
AcDbLine
 10
310.008734378
 20
30.2503143264
 30
0.0
 11
410.008734378
 21
30.2503143264
 31
0.0
  0
LINE
  5
413
330
1B
100
AcDbEntity
 67
     1
  8
0
  6
Continuous
 62
     2
100
AcDbLine
 10
280.008734378
 20
24.2503143264
 30
0.0
 11
410.008734378
 21
24.2503143264
 31
0.0
  0
LINE
  5
414
330
1B
100
AcDbEntity
 67
     1
  8
0
  6
Continuous
 62
     2
100
AcDbLine
 10
280.008734378
 20
18.2503143264
 30
0.0
 11
410.008734378
 21
18.2503143264
 31
0.0
  0
LINE
  5
415
330
1B
100
AcDbEntity
 67
     1
  8
0
  6
Continuous
 62
     2
100
AcDbLine
 10
280.008734378
 20
14.2503143264
 30
0.0
 11
410.008734378
 21
14.2503143264
 31
0.0
  0
LINE
  5
416
330
1B
100
AcDbEntity
 67
     1
  8
0
  6
Continuous
 62
     2
100
AcDbLine
 10
280.008734378
 20
10.2503143264
 30
0.0
 11
410.008734378
 21
10.2503143264
 31
0.0
  0
LINE
  5
417
330
1B
100
AcDbEntity
 67
     1
  8
0
  6
Continuous
 62
     2
100
AcDbLine
 10
310.008734378
 20
76.2503143264
 30
0.0
 11
310.008734378
 21
18.2503143264
 31
0.0
  0
LINE
  5
418
330
1B
100
AcDbEntity
 67
     1
  8
0
  6
Continuous
 62
     2
100
AcDbLine
 10
330.008734378
 20
60.2503143264
 30
0.0
 11
330.008734378
 21
54.2503143264
 31
0.0
  0
LINE
  5
419
330
1B
100
AcDbEntity
 67
     1
  8
0
  6
Continuous
 62
     2
100
AcDbLine
 10
360.008734378
 20
30.2503143264
 30
0.0
 11
360.008734378
 21
18.2503143264
 31
0.0
  0
LINE
  5
41A
330
1B
100
AcDbEntity
 67
     1
  8
0
  6
Continuous
 62
     2
100
AcDbLine
 10
370.008734378
 20
60.2503143264
 30
0.0
 11
370.008734378
 21
54.2503143264
 31
0.0
  0
LINE
  5
41B
330
1B
100
AcDbEntity
 67
     1
  8
0
  6
Continuous
 62
     2
100
AcDbLine
 10
370.008734378
 20
48.2503143264
 30
0.0
 11
370.008734378
 21
42.2503143264
 31
0.0
  0
LINE
  5
41C
330
1B
100
AcDbEntity
 67
     1
  8
0
  6
Continuous
 62
     2
100
AcDbLine
 10
390.008734378
 20
60.2503143264
 30
0.0
 11
390.008734378
 21
54.2503143264
 31
0.0
  0
LINE
  5
41D
330
1B
100
AcDbEntity
 67
     1
  8
0
  6
Continuous
 62
     2
100
AcDbLine
 10
400.008734378
 20
48.2503143264
 30
0.0
 11
400.008734378
 21
42.2503143264
 31
0.0
  0
LINE
  5
41E
330
1B
100
AcDbEntity
 67
     1
  8
0
  6
Continuous
 62
     2
100
AcDbLine
 10
410.008734378
 20
76.2503143264
 30
0.0
 11
410.008734378
 21
10.2503143264
 31
0.0
  0
INSERT
  5
41F
330
1B
100
AcDbEntity
 67
     1
  8
0
  6
Continuous
 62
     2
100
AcDbBlockReference
  2
PROIEZIONE_EU_BL0
 10
295.008734378
 20
67.8753143264
 30
0.0
  0
MTEXT
  5
420
330
1B
100
AcDbEntity
 67
     1
  8
9_SOLID
  6
Continuous
 62
     2
100
AcDbMText
 10
311.496234378
 20
74.6253143264
 30
0.0
 40
1.9
 41
142.3642857143
 46
0.0
 71
     1
 72
     1
  1
EN: Chamfer/radii unlisted 0.3x45°. Remove sharp edges.\PGen. tol.: hole H11, shaft h11, lenght Js12. UNI EN 22768 Medium Grande.
 73
     1
 44
1.0
  0
MTEXT
  5
421
330
1B
100
AcDbEntity
 67
     1
  8
9_SOLID
  6
Continuous
 62
     2
100
AcDbMText
 10
311.496234378
 20
66.6253143264
 30
0.0
 40
1.9
 41
148.2678571429
 46
0.0
 71
     1
 72
     1
  1
IT: Sm./rac. non quotati 0.3x45°. Eliminare spigoli taglienti.\PToll. gen.: foro H11, albero h11, lunghezza Js12. UNI EN 22768 Grado Medio.
 73
     1
 44
1.0
  0
INSERT
  5
422
330
1B
100
AcDbEntity
 67
     1
  8
0
  6
Continuous
 62
     2
100
AcDbBlockReference
  2
LOGO2_BL1
 10
293.8347814228
 20
42.2503143264
 30
0.0
  0
MTEXT
  5
423
330
1B
100
AcDbEntity
 67
     1
  8
9_SOLID
  6
Continuous
 62
     2
100
AcDbMText
 10
311.496234378
 20
58.5003143264
 30
0.0
 40
3.0
 41
22.6071428571
 46
0.0
 71
     1
 72
     1
  1
Pj: 3D2
 73
     1
 44
1.0
  0
MTEXT
  5
424
330
1B
100
AcDbEntity
 67
     1
  8
9_SOLID
  6
Continuous
 62
     2
100
AcDbMText
 10
331.496234378
 20
58.5003143264
 30
0.0
 40
3.0
 41
38.0357142857
 46
0.0
 71
     1
 72
     1
  1
% Check: %
 73
     1
 44
1.0
  0
MTEXT
  5
425
330
1B
100
AcDbEntity
 67
     1
  8
9_SOLID
  6
Continuous
 62
     2
100
AcDbMText
 10
371.496234378
 20
58.5003143264
 30
0.0
 40
3.0
 41
19.5
 46
0.0
 71
     1
 72
     1
  1
Rev:00
 73
     1
 44
1.0
  0
MTEXT
  5
426
330
1B
100
AcDbEntity
 67
     1
  8
9_SOLID
  6
Continuous
 62
     2
100
AcDbMText
 10
391.496234378
 20
58.7503143264
 30
0.0
 40
3.0
 41
19.7142857143
 46
0.0
 71
     1
 72
     1
  1
Ver: A
 73
     1
 44
1.0
  0
MTEXT
  5
427
330
1B
100
AcDbEntity
 67
     1
  8
9_SOLID
  6
Continuous
 62
     2
100
AcDbMText
 10
311.496234378
 20
52.5003143264
 30
0.0
 40
3.0
 41
74.8928571429
 46
0.0
 71
     1
 72
     1
  1
Neutral code: 3D2_C_057
 73
     1
 44
1.0
  0
MTEXT
  5
428
330
1B
100
AcDbEntity
 67
     1
  8
9_SOLID
  6
Continuous
 62
     2
100
AcDbMText
 10
311.496234378
 20
46.5003143264
 30
0.0
 40
3.0
 41
19.3928571429
 46
0.0
 71
     1
 72
     1
  1
Code: 
 73
     1
 44
1.0
  0
MTEXT
  5
429
330
1B
100
AcDbEntity
 67
     1
  8
9_SOLID
  6
Continuous
 62
     2
100
AcDbMText
 10
371.496234378
 20
46.7503143264
 30
0.0
 40
3.0
 41
27.8571428571
 46
0.0
 71
     1
 72
     1
  1
Scale: 1:1
 73
     1
 44
1.0
  0
MTEXT
  5
42A
330
1B
100
AcDbEntity
 67
     1
  8
9_SOLID
  6
Continuous
 62
     2
100
AcDbMText
 10
405.008734378
 20
46.7503143264
 30
0.0
 40
3.0
 41
7.9285714286
 46
0.0
 71
     2
 72
     1
  1
A3
 73
     1
 44
1.0
  0
MTEXT
  5
42B
330
1B
100
AcDbEntity
 67
     1
  8
9_SOLID
  6
Continuous
 62
     2
100
AcDbMText
 10
311.496234378
 20
40.7503143264
 30
0.0
 40
3.0
 41
106.2857142857
 46
0.0
 71
     1
 72
     1
  1
It descr.: PIASTRA BASE LINEAR 4
 73
     1
 44
1.0
  0
MTEXT
  5
42C
330
1B
100
AcDbEntity
 67
     1
  8
9_SOLID
  6
Continuous
 62
     2
100
AcDbMText
 10
311.496234378
 20
34.7503143264
 30
0.0
 40
3.0
 41
33.9642857143
 46
0.0
 71
     1
 72
     1
  1
En descr.: 
 73
     1
 44
1.0
  0
MTEXT
  5
42D
330
1B
100
AcDbEntity
 67
     1
  8
9_SOLID
  6
Continuous
 62
     2
100
AcDbMText
 10
311.496234378
 20
28.7503143264
 30
0.0
 40
3.0
 41
22.2857142857
 46
0.0
 71
     1
 72
     1
  1
Des.: -
 73
     1
 44
1.0
  0
MTEXT
  5
42E
330
1B
100
AcDbEntity
 67
     1
  8
9_SOLID
  6
Continuous
 62
     2
100
AcDbMText
 10
361.496234378
 20
28.7503143264
 30
0.0
 40
3.0
 41
22.2857142857
 46
0.0
 71
     1
 72
     1
  1
Check: 
 73
     1
 44
1.0
  0
MTEXT
  5
42F
330
1B
100
AcDbEntity
 67
     1
  8
9_SOLID
  6
Continuous
 62
     2
100
AcDbMText
 10
281.496234378
 20
22.7503143264
 30
0.0
 40
3.0
 41
42.5357142857
 46
0.0
 71
     1
 72
     1
  1
Date: 14.12.18
 73
     1
 44
1.0
  0
MTEXT
  5
430
330
1B
100
AcDbEntity
 67
     1
  8
9_SOLID
  6
Continuous
 62
     2
100
AcDbMText
 10
311.496234378
 20
22.7503143264
 30
0.0
 40
3.0
 41
18.2142857143
 46
0.0
 71
     1
 72
     1
  1
Mat.: 
 73
     1
 44
1.0
  0
MTEXT
  5
431
330
1B
100
AcDbEntity
 67
     1
  8
9_SOLID
  6
Continuous
 62
     2
100
AcDbMText
 10
361.496234378
 20
22.2503143264
 30
0.0
 40
2.0
 41
42.3571428571
 46
0.0
 71
     1
 72
     1
  1
Disegno per catalogo
 73
     1
 44
1.0
  0
MTEXT
  5
432
330
1B
100
AcDbEntity
 67
     1
  8
9_SOLID
  6
Continuous
 62
     2
100
AcDbMText
 10
281.496234378
 20
17.1503143264
 30
0.0
 40
1.8
 41
176.2071428571
 46
0.0
 71
     1
 72
     1
  1
It: A norma di legge si diffida da qualsiasi riproduzione senza nostra autorizzazione esplicita.
 73
     1
 44
1.0
  0
MTEXT
  5
433
330
1B
100
AcDbEntity
 67
     1
  8
9_SOLID
  6
Continuous
 62
     2
100
AcDbMText
 10
281.496234378
 20
13.1503143264
 30
0.0
 40
1.8
 41
158.1428571429
 46
0.0
 71
     1
 72
     1
  1
En: According to the law, beware of any reproduction made without our authorization.
 73
     1
 44
1.0
  0
ENDSEC
  0
SECTION
  2
OBJECTS
  0
DICTIONARY
  5
434
330
0
100
AcDbDictionary
281
     1
  3
ACAD_DETAILVIEWSTYLE
350
48A
  3
ACAD_GROUP
350
435
  3
ACAD_LAYOUT
350
45D
  3
ACAD_MATERIAL
350
479
  3
ACAD_MLEADERSTYLE
350
47F
  3
ACAD_MLINESTYLE
350
436
  3
ACAD_PLOTSETTINGS
350
438
  3
ACAD_PLOTSTYLENAME
350
439
  3
ACAD_SCALELIST
350
43B
  3
ACAD_SECTIONVIEWSTYLE
350
48B
  3
ACAD_TABLESTYLE
350
47D
  3
ACAD_VISUALSTYLE
350
460
  3
ACDB_RECOMPOSE_DATA
350
486
  3
AcDbVariableDictionary
350
482
  3
APPDATA
350
481
  0
DICTIONARY
  5
48A
102
{ACAD_REACTORS
330
434
102
}
330
434
100
AcDbDictionary
281
     1
  0
DICTIONARY
  5
435
102
{ACAD_REACTORS
330
434
102
}
330
434
100
AcDbDictionary
281
     1
  0
DICTIONARY
  5
45D
102
{ACAD_REACTORS
330
434
102
}
330
434
100
AcDbDictionary
281
     1
  3
Foglio 1
350
45F
  3
Model
350
45E
  0
DICTIONARY
  5
479
102
{ACAD_REACTORS
330
434
102
}
330
434
100
AcDbDictionary
281
     1
  3
ByBlock
350
47B
  3
ByLayer
350
47A
  3
Global
350
47C
  0
DICTIONARY
  5
47F
102
{ACAD_REACTORS
330
434
102
}
330
434
100
AcDbDictionary
281
     1
  3
Standard
350
480
  0
DICTIONARY
  5
436
102
{ACAD_REACTORS
330
434
102
}
330
434
100
AcDbDictionary
281
     1
  3
STANDARD
350
437
  0
DICTIONARY
  5
438
102
{ACAD_REACTORS
330
434
102
}
330
434
100
AcDbDictionary
281
     1
  0
ACDBDICTIONARYWDFLT
  5
439
102
{ACAD_REACTORS
330
434
102
}
330
434
100
AcDbDictionary
281
     1
  3
Normal
350
43A
100
AcDbDictionaryWithDefault
340
43A
  0
DICTIONARY
  5
43B
102
{ACAD_REACTORS
330
434
102
}
330
434
100
AcDbDictionary
281
     1
  3
A0
350
43C
  3
A1
350
43D
  3
A2
350
43E
  3
A3
350
43F
  3
A4
350
440
  3
A5
350
441
  3
A6
350
442
  3
A7
350
443
  3
A8
350
444
  3
A9
350
445
  3
B0
350
446
  3
B1
350
447
  3
B2
350
448
  3
B3
350
449
  3
B4
350
44A
  3
B5
350
44B
  3
B6
350
44C
  3
B7
350
44D
  3
B8
350
44E
  3
B9
350
44F
  3
C0
350
450
  3
C1
350
451
  3
C2
350
452
  3
C3
350
453
  3
C4
350
454
  3
C5
350
455
  3
C6
350
456
  3
C7
350
457
  3
C8
350
458
  3
C9
350
459
  3
D0
350
45A
  3
D1
350
45B
  3
D2
350
45C
  0
DICTIONARY
  5
48B
102
{ACAD_REACTORS
330
434
102
}
330
434
100
AcDbDictionary
281
     1
  0
DICTIONARY
  5
47D
102
{ACAD_REACTORS
330
434
102
}
330
434
100
AcDbDictionary
281
     1
  3
Standard
350
47E
  0
DICTIONARY
  5
460
102
{ACAD_REACTORS
330
434
102
}
330
434
100
AcDbDictionary
281
     1
  3
2dWireframe
350
465
  3
Basic
350
468
  3
Brighten
350
46C
  3
ColorChange
350
470
  3
Conceptual
350
46A
  3
Dim
350
46B
  3
EdgeColorOff
350
473
  3
Facepattern
350
46F
  3
Flat
350
461
  3
FlatWithEdges
350
462
  3
Gouraud
350
463
  3
GouraudWithEdges
350
464
  3
Hidden
350
467
  3
JitterOff
350
471
  3
Linepattern
350
46E
  3
OverhangOff
350
472
  3
Realistic
350
469
  3
Shaded
350
478
  3
Shaded with edges
350
477
  3
Shades of Gray
350
474
  3
Sketchy
350
475
  3
Thicken
350
46D
  3
Wireframe
350
466
  3
X-Ray
350
476
  0
XRECORD
  5
486
102
{ACAD_REACTORS
330
434
102
}
330
434
100
AcDbXrecord
280
     1
 90
        1
330
47E
  0
DICTIONARY
  5
482
102
{ACAD_REACTORS
330
434
102
}
330
434
100
AcDbDictionary
281
     1
  3
CANNOSCALE
350
483
  3
CMLEADERSTYLE
350
488
  3
CTABLESTYLE
350
487
  3
MSLTSCALE
350
489
  0
DICTIONARY
  5
481
102
{ACAD_REACTORS
330
434
102
}
330
434
100
AcDbDictionary
281
     1
  0
LAYOUT
  5
45F
102
{ACAD_REACTORS
330
45D
102
}
330
45D
100
AcDbPlotSettings
  1

  2
none_device
  4
ISO_A3_(420.00_x_297.00_MM)
  6

 40
7.5
 41
20.0
 42
7.5
 43
20.0
 44
420.0
 45
297.0
 46
0.0
 47
0.0
 48
0.0
 49
0.0
140
0.0
141
0.0
142
1.0
143
1.155642023346303
 70
   688
 72
     1
 73
     0
 74
     1
  7

 75
     0
 76
     0
 77
     2
 78
   300
147
0.8653198653198654
148
0.0
149
0.0
100
AcDbLayout
  1
Foglio 1
 70
     1
 71
     1
 10
0.0
 20
0.0
 11
412.5
 21
277.0
 12
0.0
 22
0.0
 32
0.0
 14
0.0
 24
0.0
 34
0.0
 15
420.0
 25
297.0
 35
0.0
146
0.0
 13
0.0
 23
0.0
 33
0.0
 16
1.0
 26
0.0
 36
0.0
 17
0.0
 27
1.0
 37
0.0
 76
     0
330
1B
331
2D0
  0
LAYOUT
  5
45E
102
{ACAD_REACTORS
330
45D
102
}
330
45D
100
AcDbPlotSettings
  1

  2
none_device
  4
Letter_(8.50_x_11.00_Inches)
  6

 40
6.35
 41
6.35
 42
6.35
 43
6.35
 44
215.9
 45
279.4
 46
0.0
 47
0.0
 48
0.0
 49
0.0
140
0.0
141
0.0
142
1.0
143
52.49999999846251
 70
  1712
 72
     0
 73
     0
 74
     0
  7

 75
     0
 76
     0
 77
     2
 78
   300
147
0.0190476190481769
148
-0.0000001562100806
149
0.0
100
AcDbLayout
  1
Model
 70
     1
 71
     0
 10
0.0
 20
0.0
 11
420.0
 21
297.0
 12
0.0
 22
0.0
 32
0.0
 14
0.0
 24
0.0
 34
0.0
 15
420.0
 25
297.0
 35
0.0
146
0.0
 13
0.0
 23
0.0
 33
0.0
 16
1.0
 26
0.0
 36
0.0
 17
0.0
 27
1.0
 37
0.0
 76
     0
330
1F
331
1F4
  0
MATERIAL
  5
47B
102
{ACAD_REACTORS
330
479
102
}
330
479
100
AcDbMaterial
  1
ByBlock
 72
     1
 94
      127
  0
MATERIAL
  5
47A
102
{ACAD_REACTORS
330
479
102
}
330
479
100
AcDbMaterial
  1
ByLayer
 72
     1
 94
      127
  0
MATERIAL
  5
47C
102
{ACAD_REACTORS
330
479
102
}
330
479
100
AcDbMaterial
  1
Global
 72
     1
 94
      127
  0
MLEADERSTYLE
  5
480
102
{ACAD_REACTORS
330
47F
102
}
330
47F
100
AcDbMLeaderStyle
179
     2
170
     2
171
     1
172
     0
 90
        2
 40
0.0
 41
0.0
173
     1
 91
-1056964608
340
14
 92
       -2
290
     1
 42
2.0
291
     1
 43
8.0
  3
Standard
341
0
 44
4.0
300

342
11
174
     1
178
     1
175
     1
176
     0
 93
-1056964608
 45
4.0
292
     0
297
     0
 46
4.0
343
0
 94
-1056964608
 47
1.0
 49
1.0
140
1.0
293
     1
141
0.0
294
     1
177
     0
142
1.0
295
     0
296
     0
143
3.75
271
     0
272
     9
273
     9
298
     0
  0
MLINESTYLE
  5
437
102
{ACAD_REACTORS
330
436
102
}
330
436
100
AcDbMlineStyle
  2
STANDARD
 70
     0
  3

 62
   256
 51
90.0
 52
90.0
 71
     2
 49
0.5
 62
   256
  6
BYLAYER
 49
-0.5
 62
   256
  6
BYLAYER
  0
ACDBPLACEHOLDER
  5
43A
102
{ACAD_REACTORS
330
439
102
}
330
439
  0
SCALE
  5
43C
102
{ACAD_REACTORS
330
43B
102
}
330
43B
100
AcDbScale
 70
     0
300
1:1
140
1.0
141
1.0
290
     1
  0
SCALE
  5
43D
102
{ACAD_REACTORS
330
43B
102
}
330
43B
100
AcDbScale
 70
     0
300
1:2
140
1.0
141
2.0
290
     0
  0
SCALE
  5
43E
102
{ACAD_REACTORS
330
43B
102
}
330
43B
100
AcDbScale
 70
     0
300
1:4
140
1.0
141
4.0
290
     0
  0
SCALE
  5
43F
102
{ACAD_REACTORS
330
43B
102
}
330
43B
100
AcDbScale
 70
     0
300
1:5
140
1.0
141
5.0
290
     0
  0
SCALE
  5
440
102
{ACAD_REACTORS
330
43B
102
}
330
43B
100
AcDbScale
 70
     0
300
1:8
140
1.0
141
8.0
290
     0
  0
SCALE
  5
441
102
{ACAD_REACTORS
330
43B
102
}
330
43B
100
AcDbScale
 70
     0
300
1:10
140
1.0
141
10.0
290
     0
  0
SCALE
  5
442
102
{ACAD_REACTORS
330
43B
102
}
330
43B
100
AcDbScale
 70
     0
300
1:16
140
1.0
141
16.0
290
     0
  0
SCALE
  5
443
102
{ACAD_REACTORS
330
43B
102
}
330
43B
100
AcDbScale
 70
     0
300
1:20
140
1.0
141
20.0
290
     0
  0
SCALE
  5
444
102
{ACAD_REACTORS
330
43B
102
}
330
43B
100
AcDbScale
 70
     0
300
1:30
140
1.0
141
30.0
290
     0
  0
SCALE
  5
445
102
{ACAD_REACTORS
330
43B
102
}
330
43B
100
AcDbScale
 70
     0
300
1:40
140
1.0
141
40.0
290
     0
  0
SCALE
  5
446
102
{ACAD_REACTORS
330
43B
102
}
330
43B
100
AcDbScale
 70
     0
300
1:50
140
1.0
141
50.0
290
     0
  0
SCALE
  5
447
102
{ACAD_REACTORS
330
43B
102
}
330
43B
100
AcDbScale
 70
     0
300
1:100
140
1.0
141
100.0
290
     0
  0
SCALE
  5
448
102
{ACAD_REACTORS
330
43B
102
}
330
43B
100
AcDbScale
 70
     0
300
2:1
140
2.0
141
1.0
290
     0
  0
SCALE
  5
449
102
{ACAD_REACTORS
330
43B
102
}
330
43B
100
AcDbScale
 70
     0
300
4:1
140
4.0
141
1.0
290
     0
  0
SCALE
  5
44A
102
{ACAD_REACTORS
330
43B
102
}
330
43B
100
AcDbScale
 70
     0
300
8:1
140
8.0
141
1.0
290
     0
  0
SCALE
  5
44B
102
{ACAD_REACTORS
330
43B
102
}
330
43B
100
AcDbScale
 70
     0
300
10:1
140
10.0
141
1.0
290
     0
  0
SCALE
  5
44C
102
{ACAD_REACTORS
330
43B
102
}
330
43B
100
AcDbScale
 70
     0
300
100:1
140
100.0
141
1.0
290
     0
  0
SCALE
  5
44D
102
{ACAD_REACTORS
330
43B
102
}
330
43B
100
AcDbScale
 70
     0
300
1/128" = 1'-0"
140
0.0078125
141
12.0
290
     0
  0
SCALE
  5
44E
102
{ACAD_REACTORS
330
43B
102
}
330
43B
100
AcDbScale
 70
     0
300
1/64" = 1'-0"
140
0.015625
141
12.0
290
     0
  0
SCALE
  5
44F
102
{ACAD_REACTORS
330
43B
102
}
330
43B
100
AcDbScale
 70
     0
300
1/32" = 1'-0"
140
0.03125
141
12.0
290
     0
  0
SCALE
  5
450
102
{ACAD_REACTORS
330
43B
102
}
330
43B
100
AcDbScale
 70
     0
300
1/16" = 1'-0"
140
0.0625
141
12.0
290
     0
  0
SCALE
  5
451
102
{ACAD_REACTORS
330
43B
102
}
330
43B
100
AcDbScale
 70
     0
300
3/32" = 1'-0"
140
0.09375
141
12.0
290
     0
  0
SCALE
  5
452
102
{ACAD_REACTORS
330
43B
102
}
330
43B
100
AcDbScale
 70
     0
300
1/8" = 1'-0"
140
0.125
141
12.0
290
     0
  0
SCALE
  5
453
102
{ACAD_REACTORS
330
43B
102
}
330
43B
100
AcDbScale
 70
     0
300
3/16" = 1'-0"
140
0.1875
141
12.0
290
     0
  0
SCALE
  5
454
102
{ACAD_REACTORS
330
43B
102
}
330
43B
100
AcDbScale
 70
     0
300
1/4" = 1'-0"
140
0.25
141
12.0
290
     0
  0
SCALE
  5
455
102
{ACAD_REACTORS
330
43B
102
}
330
43B
100
AcDbScale
 70
     0
300
3/8" = 1'-0"
140
0.375
141
12.0
290
     0
  0
SCALE
  5
456
102
{ACAD_REACTORS
330
43B
102
}
330
43B
100
AcDbScale
 70
     0
300
1/2" = 1'-0"
140
0.5
141
12.0
290
     0
  0
SCALE
  5
457
102
{ACAD_REACTORS
330
43B
102
}
330
43B
100
AcDbScale
 70
     0
300
3/4" = 1'-0"
140
0.75
141
12.0
290
     0
  0
SCALE
  5
458
102
{ACAD_REACTORS
330
43B
102
}
330
43B
100
AcDbScale
 70
     0
300
1" = 1'-0"
140
1.0
141
12.0
290
     0
  0
SCALE
  5
459
102
{ACAD_REACTORS
330
43B
102
}
330
43B
100
AcDbScale
 70
     0
300
1-1/2" = 1'-0"
140
1.5
141
12.0
290
     0
  0
SCALE
  5
45A
102
{ACAD_REACTORS
330
43B
102
}
330
43B
100
AcDbScale
 70
     0
300
3" = 1'-0"
140
3.0
141
12.0
290
     0
  0
SCALE
  5
45B
102
{ACAD_REACTORS
330
43B
102
}
330
43B
100
AcDbScale
 70
     0
300
6" = 1'-0"
140
6.0
141
12.0
290
     0
  0
SCALE
  5
45C
102
{ACAD_REACTORS
330
43B
102
}
330
43B
100
AcDbScale
 70
     0
300
1'-0" = 1'-0"
140
12.0
141
12.0
290
     0
  0
TABLESTYLE
  5
47E
102
{ACAD_REACTORS
330
47D
102
}
102
{ACAD_XDICTIONARY
360
484
102
}
330
47D
100
AcDbTableStyle
  3
Standard
 70
     0
 71
     0
 40
0.06
 41
0.06
280
     0
281
     0
  7
STANDARD
140
4.5
170
     2
 62
     0
 63
   257
283
     0
 90
        4
 91
        0
  1

274
    -2
284
     1
 64
     0
275
    -2
285
     1
 65
     0
276
    -2
286
     1
 66
     0
277
    -2
287
     1
 67
     0
278
    -2
288
     1
 68
     0
279
    -2
289
     1
 69
     0
  7
STANDARD
140
6.0
170
     5
 62
     0
 63
   257
283
     0
 90
        4
 91
        0
  1

274
    -2
284
     1
 64
     0
275
    -2
285
     1
 65
     0
276
    -2
286
     1
 66
     0
277
    -2
287
     1
 67
     0
278
    -2
288
     1
 68
     0
279
    -2
289
     1
 69
     0
  7
STANDARD
140
4.5
170
     5
 62
     0
 63
   257
283
     0
 90
        4
 91
        0
  1

274
    -2
284
     1
 64
     0
275
    -2
285
     1
 65
     0
276
    -2
286
     1
 66
     0
277
    -2
287
     1
 67
     0
278
    -2
288
     1
 68
     0
279
    -2
289
     1
 69
     0
  0
VISUALSTYLE
  5
465
102
{ACAD_REACTORS
330
460
102
}
330
460
100
AcDbVisualStyle
  2
2dWireframe
 70
     4
177
     3
291
     0
 70
    58
 90
        0
176
     1
 90
        2
176
     1
 90
        0
176
     1
 90
        0
176
     1
 40
0.6
176
     1
 40
30.0
176
     1
 62
     7
420
 16777215
176
     1
 90
        1
176
     1
 90
        4
176
     1
 62
     7
176
     1
 62
   257
176
     1
 90
        1
176
     1
 90
        1
176
     1
 40
1.0
176
     1
 90
        0
176
     1
 62
   257
176
     1
 40
1.0
176
     1
 90
        1
176
     1
 90
        6
176
     1
 90
        2
176
     1
 62
     7
176
     1
 90
        5
176
     1
 90
        0
176
     1
 90
        0
176
     1
290
     0
176
     1
 90
        1
176
     1
 40
0.0
176
     1
 90
        0
176
     1
290
     1
176
     1
290
     1
176
     1
290
     0
176
     1
290
     0
176
     1
290
     0
176
     1
290
     0
176
     1
290
     0
176
     1
290
     0
176
     1
290
     0
176
     1
 90
       50
176
     1
 40
0.0
176
     1
 40
1.0
176
     1
 90
        0
176
     1
 62
    18
420
        0
176
     1
 90
       50
176
     1
 90
        3
176
     1
 62
     5
420
      255
176
     1
290
     0
176
     1
 90
       50
176
     1
 90
       50
176
     1
 90
       50
176
     1
290
     0
176
     1
 90
       50
176
     1
 62
   256
176
     0
 40
1.0
176
     0
 90
        2
176
     1
  1
strokes_ogs.tif
176
     1
290
     0
176
     1
 40
1.0
176
     1
 40
1.0
176
     1
  0
VISUALSTYLE
  5
468
102
{ACAD_REACTORS
330
460
102
}
330
460
100
AcDbVisualStyle
  2
Basic
 70
     7
177
     3
291
     1
 70
    58
 90
        1
176
     1
 90
        0
176
     1
 90
        1
176
     1
 90
        0
176
     1
 40
0.6
176
     1
 40
30.0
176
     1
 62
     7
420
 16777215
176
     1
 90
        0
176
     1
 90
        4
176
     1
 62
     7
176
     1
 62
   257
176
     1
 90
        1
176
     1
 90
        1
176
     1
 40
1.0
176
     1
 90
        8
176
     1
 62
     7
176
     1
 40
1.0
176
     1
 90
        1
176
     1
 90
        6
176
     1
 90
        2
176
     1
 62
     7
176
     1
 90
        5
176
     1
 90
        0
176
     1
 90
        0
176
     1
290
     0
176
     1
 90
        1
176
     1
 40
0.0
176
     1
 90
        0
176
     1
290
     0
176
     1
290
     1
176
     1
290
     1
176
     1
290
     0
176
     1
290
     0
176
     1
290
     0
176
     1
290
     0
176
     1
290
     0
176
     1
290
     0
176
     1
 90
       50
176
     1
 40
0.0
176
     1
 40
1.0
176
     1
 90
        0
176
     1
 62
    18
420
        0
176
     1
 90
       50
176
     1
 90
        3
176
     1
 62
     5
420
      255
176
     1
290
     0
176
     1
 90
       50
176
     1
 90
       50
176
     1
 90
       50
176
     1
290
     0
176
     1
 90
       50
176
     1
 62
   256
176
     0
 40
1.0
176
     0
 90
        2
176
     1
  1
strokes_ogs.tif
176
     1
290
     0
176
     1
 40
1.0
176
     1
 40
1.0
176
     1
  0
VISUALSTYLE
  5
46C
102
{ACAD_REACTORS
330
460
102
}
330
460
100
AcDbVisualStyle
  2
Brighten
 70
    12
177
     3
291
     1
 70
    58
 90
        2
176
     1
 90
        2
176
     1
 90
        0
176
     1
 90
        0
176
     1
 40
0.6
176
     1
 40
30.0
176
     1
 62
     7
420
 16777215
176
     1
 90
        1
176
     1
 90
        4
176
     1
 62
     7
176
     1
 62
   257
176
     1
 90
        1
176
     1
 90
        1
176
     1
 40
1.0
176
     1
 90
        8
176
     1
 62
     7
176
     1
 40
1.0
176
     1
 90
        1
176
     1
 90
        6
176
     1
 90
        2
176
     1
 62
     7
176
     1
 90
        5
176
     1
 90
        0
176
     1
 90
        0
176
     1
290
     0
176
     1
 90
        1
176
     1
 40
50.0
176
     1
 90
        0
176
     1
290
     0
176
     1
290
     1
176
     1
290
     1
176
     1
290
     0
176
     1
290
     0
176
     1
290
     0
176
     1
290
     0
176
     1
290
     0
176
     1
290
     0
176
     1
 90
       50
176
     1
 40
0.0
176
     1
 40
1.0
176
     1
 90
        0
176
     1
 62
    18
420
        0
176
     1
 90
       50
176
     1
 90
        3
176
     1
 62
     5
420
      255
176
     1
290
     0
176
     1
 90
       50
176
     1
 90
       50
176
     1
 90
       50
176
     1
290
     0
176
     1
 90
       50
176
     1
 62
   256
176
     0
 40
1.0
176
     0
 90
        2
176
     1
  1
strokes_ogs.tif
176
     1
290
     0
176
     1
 40
1.0
176
     1
 40
1.0
176
     1
  0
VISUALSTYLE
  5
470
102
{ACAD_REACTORS
330
460
102
}
330
460
100
AcDbVisualStyle
  2
ColorChange
 70
    16
177
     3
291
     1
 70
    58
 90
        2
176
     1
 90
        2
176
     1
 90
        3
176
     1
 90
        0
176
     1
 40
0.6
176
     1
 40
30.0
176
     1
 62
     8
420
  8421504
176
     1
 90
        1
176
     1
 90
        4
176
     1
 62
     7
176
     1
 62
   257
176
     1
 90
        1
176
     1
 90
        1
176
     1
 40
1.0
176
     1
 90
        8
176
     1
 62
     8
420
  8421504
176
     1
 40
1.0
176
     1
 90
        1
176
     1
 90
        6
176
     1
 90
        2
176
     1
 62
     7
176
     1
 90
        5
176
     1
 90
        0
176
     1
 90
        0
176
     1
290
     0
176
     1
 90
        1
176
     1
 40
0.0
176
     1
 90
        0
176
     1
290
     0
176
     1
290
     1
176
     1
290
     1
176
     1
290
     0
176
     1
290
     0
176
     1
290
     0
176
     1
290
     0
176
     1
290
     0
176
     1
290
     0
176
     1
 90
       50
176
     1
 40
0.0
176
     1
 40
1.0
176
     1
 90
        0
176
     1
 62
    18
420
        0
176
     1
 90
       50
176
     1
 90
        3
176
     1
 62
     5
420
      255
176
     1
290
     0
176
     1
 90
       50
176
     1
 90
       50
176
     1
 90
       50
176
     1
290
     0
176
     1
 90
       50
176
     1
 62
   256
176
     0
 40
1.0
176
     0
 90
        2
176
     1
  1
strokes_ogs.tif
176
     1
290
     0
176
     1
 40
1.0
176
     1
 40
1.0
176
     1
  0
VISUALSTYLE
  5
46A
102
{ACAD_REACTORS
330
460
102
}
330
460
100
AcDbVisualStyle
  2
Conceptual
 70
     9
177
     3
291
     0
 70
    58
 90
        3
176
     1
 90
        2
176
     1
 90
        0
176
     1
 90
        0
176
     1
 40
0.6
176
     1
 40
30.0
176
     1
 62
     7
420
 16777215
176
     1
 90
        2
176
     1
 90
        2
176
     1
 62
     7
176
     1
 62
   257
176
     1
 90
        1
176
     1
 90
        1
176
     1
 40
179.0
176
     1
 90
        8
176
     1
 62
     7
176
     1
 40
1.0
176
     1
 90
        1
176
     1
 90
        6
176
     1
 90
        2
176
     1
 62
     7
176
     1
 90
        3
176
     1
 90
        0
176
     1
 90
        0
176
     1
290
     0
176
     1
 90
        1
176
     1
 40
0.0
176
     1
 90
        0
176
     1
290
     0
176
     1
290
     1
176
     1
290
     1
176
     1
290
     0
176
     1
290
     0
176
     1
290
     0
176
     1
290
     0
176
     1
290
     0
176
     1
290
     0
176
     1
 90
       50
176
     1
 40
0.0
176
     1
 40
1.0
176
     1
 90
        0
176
     1
 62
    18
420
        0
176
     1
 90
       50
176
     1
 90
        3
176
     1
 62
     5
420
      255
176
     1
290
     0
176
     1
 90
       50
176
     1
 90
       50
176
     1
 90
       50
176
     1
290
     0
176
     1
 90
       50
176
     1
 62
   256
176
     0
 40
1.0
176
     0
 90
        2
176
     1
  1
strokes_ogs.tif
176
     1
290
     0
176
     1
 40
1.0
176
     1
 40
1.0
176
     1
  0
VISUALSTYLE
  5
46B
102
{ACAD_REACTORS
330
460
102
}
330
460
100
AcDbVisualStyle
  2
Dim
 70
    11
177
     3
291
     1
 70
    58
 90
        2
176
     1
 90
        2
176
     1
 90
        0
176
     1
 90
        0
176
     1
 40
0.6
176
     1
 40
30.0
176
     1
 62
     7
420
 16777215
176
     1
 90
        1
176
     1
 90
        4
176
     1
 62
     7
176
     1
 62
   257
176
     1
 90
        1
176
     1
 90
        1
176
     1
 40
1.0
176
     1
 90
        8
176
     1
 62
     7
176
     1
 40
1.0
176
     1
 90
        1
176
     1
 90
        6
176
     1
 90
        2
176
     1
 62
     7
176
     1
 90
        5
176
     1
 90
        0
176
     1
 90
        0
176
     1
290
     0
176
     1
 90
        1
176
     1
 40
-50.0
176
     1
 90
        0
176
     1
290
     0
176
     1
290
     1
176
     1
290
     1
176
     1
290
     0
176
     1
290
     0
176
     1
290
     0
176
     1
290
     0
176
     1
290
     0
176
     1
290
     0
176
     1
 90
       50
176
     1
 40
0.0
176
     1
 40
1.0
176
     1
 90
        0
176
     1
 62
    18
420
        0
176
     1
 90
       50
176
     1
 90
        3
176
     1
 62
     5
420
      255
176
     1
290
     0
176
     1
 90
       50
176
     1
 90
       50
176
     1
 90
       50
176
     1
290
     0
176
     1
 90
       50
176
     1
 62
   256
176
     0
 40
1.0
176
     0
 90
        2
176
     1
  1
strokes_ogs.tif
176
     1
290
     0
176
     1
 40
1.0
176
     1
 40
1.0
176
     1
  0
VISUALSTYLE
  5
473
102
{ACAD_REACTORS
330
460
102
}
330
460
100
AcDbVisualStyle
  2
EdgeColorOff
 70
    22
177
     3
291
     1
 70
    58
 90
        2
176
     0
 90
        2
176
     0
 90
        0
176
     0
 90
        0
176
     0
 40
0.6
176
     0
 40
30.0
176
     0
 62
     7
420
 16777215
176
     0
 90
        1
176
     0
 90
        4
176
     0
 62
     7
176
     0
 62
   257
176
     0
 90
        1
176
     0
 90
        1
176
     0
 40
1.0
176
     0
 90
        8
176
     2
 62
     7
176
     0
 40
1.0
176
     0
 90
        1
176
     0
 90
        6
176
     0
 90
        2
176
     0
 62
     7
176
     0
 90
        5
176
     0
 90
        0
176
     0
 90
        0
176
     0
290
     0
176
     0
 90
        1
176
     0
 40
0.0
176
     0
 90
        0
176
     0
290
     0
176
     0
290
     1
176
     0
290
     1
176
     0
290
     0
176
     0
290
     0
176
     0
290
     0
176
     0
290
     0
176
     0
290
     0
176
     0
290
     0
176
     0
 90
       50
176
     0
 40
0.0
176
     0
 40
1.0
176
     0
 90
        0
176
     0
 62
    18
420
        0
176
     0
 90
       50
176
     0
 90
        3
176
     0
 62
     5
420
      255
176
     0
290
     0
176
     0
 90
       50
176
     0
 90
       50
176
     0
 90
       50
176
     0
290
     0
176
     0
 90
       50
176
     0
 62
   256
176
     0
 40
1.0
176
     0
 90
        2
176
     0
  1
strokes_ogs.tif
176
     0
290
     0
176
     0
 40
1.0
176
     0
 40
1.0
176
     0
  0
VISUALSTYLE
  5
46F
102
{ACAD_REACTORS
330
460
102
}
330
460
100
AcDbVisualStyle
  2
Facepattern
 70
    15
177
     3
291
     1
 70
    58
 90
        2
176
     1
 90
        2
176
     1
 90
        0
176
     1
 90
        0
176
     1
 40
0.6
176
     1
 40
30.0
176
     1
 62
     7
420
 16777215
176
     1
 90
        1
176
     1
 90
        4
176
     1
 62
     7
176
     1
 62
   257
176
     1
 90
        1
176
     1
 90
        1
176
     1
 40
1.0
176
     1
 90
        8
176
     1
 62
     7
176
     1
 40
1.0
176
     1
 90
        1
176
     1
 90
        6
176
     1
 90
        2
176
     1
 62
     7
176
     1
 90
        5
176
     1
 90
        0
176
     1
 90
        0
176
     1
290
     0
176
     1
 90
        1
176
     1
 40
0.0
176
     1
 90
        0
176
     1
290
     0
176
     1
290
     1
176
     1
290
     1
176
     1
290
     0
176
     1
290
     0
176
     1
290
     0
176
     1
290
     0
176
     1
290
     0
176
     1
290
     0
176
     1
 90
       50
176
     1
 40
0.0
176
     1
 40
1.0
176
     1
 90
        0
176
     1
 62
    18
420
        0
176
     1
 90
       50
176
     1
 90
        3
176
     1
 62
     5
420
      255
176
     1
290
     0
176
     1
 90
       50
176
     1
 90
       50
176
     1
 90
       50
176
     1
290
     0
176
     1
 90
       50
176
     1
 62
   256
176
     0
 40
1.0
176
     0
 90
        2
176
     1
  1
strokes_ogs.tif
176
     1
290
     0
176
     1
 40
1.0
176
     1
 40
1.0
176
     1
  0
VISUALSTYLE
  5
461
102
{ACAD_REACTORS
330
460
102
}
330
460
100
AcDbVisualStyle
  2
Flat
 70
     0
177
     3
291
     1
 70
    58
 90
        2
176
     1
 90
        1
176
     1
 90
        1
176
     1
 90
        2
176
     1
 40
0.6
176
     1
 40
30.0
176
     1
 62
     7
420
 16777215
176
     1
 90
        0
176
     1
 90
        0
176
     1
 62
     7
176
     1
 62
   257
176
     1
 90
        1
176
     1
 90
        1
176
     1
 40
1.0
176
     1
 90
        8
176
     1
 62
     7
176
     1
 40
1.0
176
     1
 90
        1
176
     1
 90
        6
176
     1
 90
        2
176
     1
 62
     7
176
     1
 90
        5
176
     1
 90
        0
176
     1
 90
        0
176
     1
290
     0
176
     1
 90
       13
176
     1
 40
0.0
176
     1
 90
        0
176
     1
290
     0
176
     1
290
     1
176
     1
290
     1
176
     1
290
     0
176
     1
290
     0
176
     1
290
     0
176
     1
290
     0
176
     1
290
     0
176
     1
290
     0
176
     1
 90
       50
176
     1
 40
0.0
176
     1
 40
1.0
176
     1
 90
        0
176
     1
 62
    18
420
        0
176
     1
 90
       50
176
     1
 90
        3
176
     1
 62
     5
420
      255
176
     1
290
     0
176
     1
 90
       50
176
     1
 90
       50
176
     1
 90
       50
176
     1
290
     0
176
     1
 90
       50
176
     1
 62
   256
176
     0
 40
1.0
176
     0
 90
        2
176
     1
  1
strokes_ogs.tif
176
     1
290
     0
176
     1
 40
1.0
176
     1
 40
1.0
176
     1
  0
VISUALSTYLE
  5
462
102
{ACAD_REACTORS
330
460
102
}
330
460
100
AcDbVisualStyle
  2
FlatWithEdges
 70
     1
177
     3
291
     1
 70
    58
 90
        2
176
     1
 90
        1
176
     1
 90
        1
176
     1
 90
        2
176
     1
 40
0.6
176
     1
 40
30.0
176
     1
 62
     7
420
 16777215
176
     1
 90
        1
176
     1
 90
        0
176
     1
 62
     7
176
     1
 62
   257
176
     1
 90
        1
176
     1
 90
        1
176
     1
 40
1.0
176
     1
 90
        0
176
     1
 62
   257
176
     1
 40
1.0
176
     1
 90
        1
176
     1
 90
        6
176
     1
 90
        2
176
     1
 62
     7
176
     1
 90
        5
176
     1
 90
        0
176
     1
 90
        0
176
     1
290
     0
176
     1
 90
       13
176
     1
 40
0.0
176
     1
 90
        0
176
     1
290
     0
176
     1
290
     1
176
     1
290
     1
176
     1
290
     0
176
     1
290
     0
176
     1
290
     0
176
     1
290
     0
176
     1
290
     0
176
     1
290
     0
176
     1
 90
       50
176
     1
 40
0.0
176
     1
 40
1.0
176
     1
 90
        0
176
     1
 62
    18
420
        0
176
     1
 90
       50
176
     1
 90
        3
176
     1
 62
     5
420
      255
176
     1
290
     0
176
     1
 90
       50
176
     1
 90
       50
176
     1
 90
       50
176
     1
290
     0
176
     1
 90
       50
176
     1
 62
   256
176
     0
 40
1.0
176
     0
 90
        2
176
     1
  1
strokes_ogs.tif
176
     1
290
     0
176
     1
 40
1.0
176
     1
 40
1.0
176
     1
  0
VISUALSTYLE
  5
463
102
{ACAD_REACTORS
330
460
102
}
330
460
100
AcDbVisualStyle
  2
Gouraud
 70
     2
177
     3
291
     1
 70
    58
 90
        2
176
     1
 90
        2
176
     1
 90
        1
176
     1
 90
        2
176
     1
 40
0.6
176
     1
 40
30.0
176
     1
 62
     7
420
 16777215
176
     1
 90
        0
176
     1
 90
        0
176
     1
 62
     7
176
     1
 62
   257
176
     1
 90
        1
176
     1
 90
        1
176
     1
 40
1.0
176
     1
 90
        0
176
     1
 62
     7
176
     1
 40
1.0
176
     1
 90
        1
176
     1
 90
        6
176
     1
 90
        2
176
     1
 62
     7
176
     1
 90
        5
176
     1
 90
        0
176
     1
 90
        0
176
     1
290
     0
176
     1
 90
       13
176
     1
 40
0.0
176
     1
 90
        0
176
     1
290
     0
176
     1
290
     1
176
     1
290
     1
176
     1
290
     0
176
     1
290
     0
176
     1
290
     0
176
     1
290
     0
176
     1
290
     0
176
     1
290
     0
176
     1
 90
       50
176
     1
 40
0.0
176
     1
 40
1.0
176
     1
 90
        0
176
     1
 62
    18
420
        0
176
     1
 90
       50
176
     1
 90
        3
176
     1
 62
     5
420
      255
176
     1
290
     0
176
     1
 90
       50
176
     1
 90
       50
176
     1
 90
       50
176
     1
290
     0
176
     1
 90
       50
176
     1
 62
   256
176
     0
 40
1.0
176
     0
 90
        2
176
     1
  1
strokes_ogs.tif
176
     1
290
     0
176
     1
 40
1.0
176
     1
 40
1.0
176
     1
  0
VISUALSTYLE
  5
464
102
{ACAD_REACTORS
330
460
102
}
330
460
100
AcDbVisualStyle
  2
GouraudWithEdges
 70
     3
177
     3
291
     1
 70
    58
 90
        2
176
     1
 90
        2
176
     1
 90
        1
176
     1
 90
        2
176
     1
 40
0.6
176
     1
 40
30.0
176
     1
 62
     7
420
 16777215
176
     1
 90
        1
176
     1
 90
        0
176
     1
 62
     7
176
     1
 62
   257
176
     1
 90
        1
176
     1
 90
        1
176
     1
 40
1.0
176
     1
 90
        0
176
     1
 62
   257
176
     1
 40
1.0
176
     1
 90
        1
176
     1
 90
        6
176
     1
 90
        2
176
     1
 62
     7
176
     1
 90
        5
176
     1
 90
        0
176
     1
 90
        0
176
     1
290
     0
176
     1
 90
       13
176
     1
 40
0.0
176
     1
 90
        0
176
     1
290
     0
176
     1
290
     1
176
     1
290
     1
176
     1
290
     0
176
     1
290
     0
176
     1
290
     0
176
     1
290
     0
176
     1
290
     0
176
     1
290
     0
176
     1
 90
       50
176
     1
 40
0.0
176
     1
 40
1.0
176
     1
 90
        0
176
     1
 62
    18
420
        0
176
     1
 90
       50
176
     1
 90
        3
176
     1
 62
     5
420
      255
176
     1
290
     0
176
     1
 90
       50
176
     1
 90
       50
176
     1
 90
       50
176
     1
290
     0
176
     1
 90
       50
176
     1
 62
   256
176
     0
 40
1.0
176
     0
 90
        2
176
     1
  1
strokes_ogs.tif
176
     1
290
     0
176
     1
 40
1.0
176
     1
 40
1.0
176
     1
  0
VISUALSTYLE
  5
467
102
{ACAD_REACTORS
330
460
102
}
330
460
100
AcDbVisualStyle
  2
Hidden
 70
     6
177
     3
291
     0
 70
    58
 90
        1
176
     1
 90
        2
176
     1
 90
        2
176
     1
 90
        0
176
     1
 40
0.6
176
     1
 40
30.0
176
     1
 62
     7
420
 16777215
176
     1
 90
        2
176
     1
 90
        2
176
     1
 62
     7
176
     1
 62
   257
176
     1
 90
        2
176
     1
 90
        1
176
     1
 40
40.0
176
     1
 90
        0
176
     1
 62
   257
176
     1
 40
1.0
176
     1
 90
        1
176
     1
 90
        6
176
     1
 90
        2
176
     1
 62
     7
176
     1
 90
        3
176
     1
 90
        0
176
     1
 90
        0
176
     1
290
     0
176
     1
 90
        1
176
     1
 40
0.0
176
     1
 90
        0
176
     1
290
     0
176
     1
290
     1
176
     1
290
     1
176
     1
290
     0
176
     1
290
     0
176
     1
290
     0
176
     1
290
     0
176
     1
290
     0
176
     1
290
     0
176
     1
 90
       50
176
     1
 40
0.0
176
     1
 40
1.0
176
     1
 90
        0
176
     1
 62
    18
420
        0
176
     1
 90
       50
176
     1
 90
        3
176
     1
 62
     5
420
      255
176
     1
290
     0
176
     1
 90
       50
176
     1
 90
       50
176
     1
 90
       50
176
     1
290
     0
176
     1
 90
       50
176
     1
 62
   256
176
     0
 40
1.0
176
     0
 90
        2
176
     1
  1
strokes_ogs.tif
176
     1
290
     0
176
     1
 40
1.0
176
     1
 40
1.0
176
     1
  0
VISUALSTYLE
  5
471
102
{ACAD_REACTORS
330
460
102
}
330
460
100
AcDbVisualStyle
  2
JitterOff
 70
    20
177
     3
291
     1
 70
    58
 90
        2
176
     0
 90
        2
176
     0
 90
        0
176
     0
 90
        0
176
     0
 40
0.6
176
     0
 40
30.0
176
     0
 62
     7
420
 16777215
176
     0
 90
        1
176
     0
 90
        4
176
     0
 62
     7
176
     0
 62
   257
176
     0
 90
        1
176
     0
 90
        1
176
     0
 40
1.0
176
     0
 90
       10
176
     2
 62
     7
176
     0
 40
1.0
176
     0
 90
        1
176
     0
 90
        6
176
     0
 90
        2
176
     0
 62
     7
176
     0
 90
        5
176
     0
 90
        0
176
     0
 90
        0
176
     0
290
     0
176
     0
 90
        1
176
     0
 40
0.0
176
     0
 90
        0
176
     0
290
     0
176
     0
290
     1
176
     0
290
     1
176
     0
290
     0
176
     0
290
     0
176
     0
290
     0
176
     0
290
     0
176
     0
290
     0
176
     0
290
     0
176
     0
 90
       50
176
     0
 40
0.0
176
     0
 40
1.0
176
     0
 90
        0
176
     0
 62
    18
420
        0
176
     0
 90
       50
176
     0
 90
        3
176
     0
 62
     5
420
      255
176
     0
290
     0
176
     0
 90
       50
176
     0
 90
       50
176
     0
 90
       50
176
     0
290
     0
176
     0
 90
       50
176
     0
 62
   256
176
     0
 40
1.0
176
     0
 90
        2
176
     0
  1
strokes_ogs.tif
176
     0
290
     0
176
     0
 40
1.0
176
     0
 40
1.0
176
     0
  0
VISUALSTYLE
  5
46E
102
{ACAD_REACTORS
330
460
102
}
330
460
100
AcDbVisualStyle
  2
Linepattern
 70
    14
177
     3
291
     1
 70
    58
 90
        2
176
     1
 90
        2
176
     1
 90
        0
176
     1
 90
        0
176
     1
 40
0.6
176
     1
 40
30.0
176
     1
 62
     7
420
 16777215
176
     1
 90
        1
176
     1
 90
        4
176
     1
 62
     7
176
     1
 62
   257
176
     1
 90
        7
176
     1
 90
        7
176
     1
 40
1.0
176
     1
 90
        8
176
     1
 62
     7
176
     1
 40
1.0
176
     1
 90
        1
176
     1
 90
        6
176
     1
 90
        2
176
     1
 62
     7
176
     1
 90
        5
176
     1
 90
        0
176
     1
 90
        0
176
     1
290
     0
176
     1
 90
        1
176
     1
 40
0.0
176
     1
 90
        0
176
     1
290
     0
176
     1
290
     1
176
     1
290
     1
176
     1
290
     0
176
     1
290
     0
176
     1
290
     0
176
     1
290
     0
176
     1
290
     0
176
     1
290
     0
176
     1
 90
       50
176
     1
 40
0.0
176
     1
 40
1.0
176
     1
 90
        0
176
     1
 62
    18
420
        0
176
     1
 90
       50
176
     1
 90
        3
176
     1
 62
     5
420
      255
176
     1
290
     0
176
     1
 90
       50
176
     1
 90
       50
176
     1
 90
       50
176
     1
290
     0
176
     1
 90
       50
176
     1
 62
   256
176
     0
 40
1.0
176
     0
 90
        2
176
     1
  1
strokes_ogs.tif
176
     1
290
     0
176
     1
 40
1.0
176
     1
 40
1.0
176
     1
  0
VISUALSTYLE
  5
472
102
{ACAD_REACTORS
330
460
102
}
330
460
100
AcDbVisualStyle
  2
OverhangOff
 70
    21
177
     3
291
     1
 70
    58
 90
        2
176
     0
 90
        2
176
     0
 90
        0
176
     0
 90
        0
176
     0
 40
0.6
176
     0
 40
30.0
176
     0
 62
     7
420
 16777215
176
     0
 90
        1
176
     0
 90
        4
176
     0
 62
     7
176
     0
 62
   257
176
     0
 90
        1
176
     0
 90
        1
176
     0
 40
1.0
176
     0
 90
        9
176
     2
 62
     7
176
     0
 40
1.0
176
     0
 90
        1
176
     0
 90
        6
176
     0
 90
        2
176
     0
 62
     7
176
     0
 90
        5
176
     0
 90
        0
176
     0
 90
        0
176
     0
290
     0
176
     0
 90
        1
176
     0
 40
0.0
176
     0
 90
        0
176
     0
290
     0
176
     0
290
     1
176
     0
290
     1
176
     0
290
     0
176
     0
290
     0
176
     0
290
     0
176
     0
290
     0
176
     0
290
     0
176
     0
290
     0
176
     0
 90
       50
176
     0
 40
0.0
176
     0
 40
1.0
176
     0
 90
        0
176
     0
 62
    18
420
        0
176
     0
 90
       50
176
     0
 90
        3
176
     0
 62
     5
420
      255
176
     0
290
     0
176
     0
 90
       50
176
     0
 90
       50
176
     0
 90
       50
176
     0
290
     0
176
     0
 90
       50
176
     0
 62
   256
176
     0
 40
1.0
176
     0
 90
        2
176
     0
  1
strokes_ogs.tif
176
     0
290
     0
176
     0
 40
1.0
176
     0
 40
1.0
176
     0
  0
VISUALSTYLE
  5
469
102
{ACAD_REACTORS
330
460
102
}
330
460
100
AcDbVisualStyle
  2
Realistic
 70
     8
177
     3
291
     0
 70
    58
 90
        2
176
     1
 90
        3
176
     1
 90
        0
176
     1
 90
        2
176
     1
 40
0.6
176
     1
 40
30.0
176
     1
 62
     7
420
 16777215
176
     1
 90
        0
176
     1
 90
        0
176
     1
 62
     7
176
     1
 62
   257
176
     1
 90
        1
176
     1
 90
        1
176
     1
 40
1.0
176
     1
 90
        8
176
     1
 62
   257
176
     1
 40
1.0
176
     1
 90
        1
176
     1
 90
        6
176
     1
 90
        2
176
     1
 62
     7
176
     1
 90
        3
176
     1
 90
        0
176
     1
 90
        0
176
     1
290
     0
176
     1
 90
       13
176
     1
 40
0.0
176
     1
 90
        0
176
     1
290
     0
176
     1
290
     1
176
     1
290
     1
176
     1
290
     0
176
     1
290
     0
176
     1
290
     0
176
     1
290
     0
176
     1
290
     0
176
     1
290
     0
176
     1
 90
       50
176
     1
 40
0.0
176
     1
 40
1.0
176
     1
 90
        0
176
     1
 62
    18
420
        0
176
     1
 90
       50
176
     1
 90
        3
176
     1
 62
     5
420
      255
176
     1
290
     0
176
     1
 90
       50
176
     1
 90
       50
176
     1
 90
       50
176
     1
290
     0
176
     1
 90
       50
176
     1
 62
   256
176
     0
 40
1.0
176
     0
 90
        2
176
     1
  1
strokes_ogs.tif
176
     1
290
     0
176
     1
 40
1.0
176
     1
 40
1.0
176
     1
  0
VISUALSTYLE
  5
478
102
{ACAD_REACTORS
330
460
102
}
330
460
100
AcDbVisualStyle
  2
Shaded
 70
    27
177
     3
291
     0
 70
    58
 90
        2
176
     1
 90
        2
176
     1
 90
        1
176
     1
 90
        2
176
     1
 40
0.6
176
     1
 40
30.0
176
     1
 62
     7
420
 16777215
176
     1
 90
        0
176
     1
 90
        4
176
     1
 62
     7
176
     1
 62
   257
176
     1
 90
        1
176
     1
 90
        1
176
     1
 40
1.0
176
     1
 90
        8
176
     1
 62
   257
176
     1
 40
1.0
176
     1
 90
        1
176
     1
 90
        6
176
     1
 90
        2
176
     1
 62
     8
420
  7895160
176
     1
 90
        3
176
     1
 90
        0
176
     1
 90
        0
176
     1
290
     0
176
     1
 90
        5
176
     1
 40
0.0
176
     1
 90
        0
176
     1
290
     0
176
     1
290
     1
176
     1
290
     1
176
     1
290
     0
176
     1
290
     0
176
     1
290
     0
176
     1
290
     0
176
     1
290
     0
176
     1
290
     0
176
     1
 90
       50
176
     1
 40
0.0
176
     1
 40
1.0
176
     1
 90
        0
176
     1
 62
    18
420
        0
176
     1
 90
       50
176
     1
 90
        3
176
     1
 62
     5
420
      255
176
     1
290
     0
176
     1
 90
       50
176
     1
 90
       50
176
     1
 90
       50
176
     1
290
     0
176
     1
 90
       50
176
     1
 62
   256
176
     0
 40
1.0
176
     0
 90
        2
176
     1
  1
strokes_ogs.tif
176
     1
290
     0
176
     1
 40
1.0
176
     1
 40
1.0
176
     1
  0
VISUALSTYLE
  5
477
102
{ACAD_REACTORS
330
460
102
}
330
460
100
AcDbVisualStyle
  2
Shaded with edges
 70
    26
177
     3
291
     0
 70
    58
 90
        2
176
     1
 90
        2
176
     1
 90
        1
176
     1
 90
        2
176
     1
 40
0.6
176
     1
 40
30.0
176
     1
 62
     7
420
 16777215
176
     1
 90
        1
176
     1
 90
       10
176
     1
 62
     7
176
     1
 62
   257
176
     1
 90
        2
176
     1
 90
        1
176
     1
 40
1.0
176
     1
 90
        8
176
     1
 62
   257
176
     1
 40
1.0
176
     1
 90
        1
176
     1
 90
        6
176
     1
 90
        2
176
     1
 62
     7
176
     1
 90
        3
176
     1
 90
        0
176
     1
 90
        0
176
     1
290
     0
176
     1
 90
        5
176
     1
 40
0.0
176
     1
 90
        0
176
     1
290
     0
176
     1
290
     1
176
     1
290
     1
176
     1
290
     0
176
     1
290
     0
176
     1
290
     0
176
     1
290
     0
176
     1
290
     0
176
     1
290
     0
176
     1
 90
       50
176
     1
 40
0.0
176
     1
 40
1.0
176
     1
 90
        0
176
     1
 62
    18
420
        0
176
     1
 90
       50
176
     1
 90
        3
176
     1
 62
     5
420
      255
176
     1
290
     0
176
     1
 90
       50
176
     1
 90
       50
176
     1
 90
       50
176
     1
290
     0
176
     1
 90
       50
176
     1
 62
   256
176
     0
 40
1.0
176
     0
 90
        2
176
     1
  1
strokes_ogs.tif
176
     1
290
     0
176
     1
 40
1.0
176
     1
 40
1.0
176
     1
  0
VISUALSTYLE
  5
474
102
{ACAD_REACTORS
330
460
102
}
330
460
100
AcDbVisualStyle
  2
Shades of Gray
 70
    23
177
     3
291
     0
 70
    58
 90
        2
176
     1
 90
        2
176
     1
 90
        3
176
     1
 90
        0
176
     1
 40
0.6
176
     1
 40
30.0
176
     1
 62
     7
420
 16777215
176
     1
 90
        2
176
     1
 90
        2
176
     1
 62
     7
176
     1
 62
     7
176
     1
 90
        1
176
     1
 90
        1
176
     1
 40
40.0
176
     1
 90
        8
176
     1
 62
     7
176
     1
 40
1.0
176
     1
 90
        1
176
     1
 90
        6
176
     1
 90
        2
176
     1
 62
     7
176
     1
 90
        3
176
     1
 90
        0
176
     1
 90
        0
176
     1
290
     0
176
     1
 90
        1
176
     1
 40
0.0
176
     1
 90
        0
176
     1
290
     0
176
     1
290
     1
176
     1
290
     1
176
     1
290
     0
176
     1
290
     0
176
     1
290
     0
176
     1
290
     0
176
     1
290
     0
176
     1
290
     0
176
     1
 90
       50
176
     1
 40
0.0
176
     1
 40
1.0
176
     1
 90
        0
176
     1
 62
    18
420
        0
176
     1
 90
       50
176
     1
 90
        3
176
     1
 62
     5
420
      255
176
     1
290
     0
176
     1
 90
       50
176
     1
 90
       50
176
     1
 90
       50
176
     1
290
     0
176
     1
 90
       50
176
     1
 62
   256
176
     0
 40
1.0
176
     0
 90
        2
176
     1
  1
strokes_ogs.tif
176
     1
290
     0
176
     1
 40
1.0
176
     1
 40
1.0
176
     1
  0
VISUALSTYLE
  5
475
102
{ACAD_REACTORS
330
460
102
}
330
460
100
AcDbVisualStyle
  2
Sketchy
 70
    24
177
     3
291
     0
 70
    58
 90
        1
176
     1
 90
        2
176
     1
 90
        2
176
     1
 90
        0
176
     1
 40
0.6
176
     1
 40
30.0
176
     1
 62
     7
420
 16777215
176
     1
 90
        2
176
     1
 90
        2
176
     1
 62
     7
176
     1
 62
     7
176
     1
 90
        1
176
     1
 90
        1
176
     1
 40
40.0
176
     1
 90
       11
176
     1
 62
     7
176
     1
 40
1.0
176
     1
 90
        1
176
     1
 90
        6
176
     1
 90
        2
176
     1
 62
     7
176
     1
 90
        6
176
     1
 90
        0
176
     1
 90
        0
176
     1
290
     0
176
     1
 90
        1
176
     1
 40
0.0
176
     1
 90
        0
176
     1
290
     0
176
     1
290
     1
176
     1
290
     1
176
     1
290
     0
176
     1
290
     0
176
     1
290
     0
176
     1
290
     0
176
     1
290
     0
176
     1
290
     0
176
     1
 90
       50
176
     1
 40
0.0
176
     1
 40
1.0
176
     1
 90
        0
176
     1
 62
    18
420
        0
176
     1
 90
       50
176
     1
 90
        3
176
     1
 62
     5
420
      255
176
     1
290
     0
176
     1
 90
       50
176
     1
 90
       50
176
     1
 90
       50
176
     1
290
     0
176
     1
 90
       50
176
     1
 62
   256
176
     0
 40
1.0
176
     0
 90
        2
176
     1
  1
strokes_ogs.tif
176
     1
290
     0
176
     1
 40
1.0
176
     1
 40
1.0
176
     1
  0
VISUALSTYLE
  5
46D
102
{ACAD_REACTORS
330
460
102
}
330
460
100
AcDbVisualStyle
  2
Thicken
 70
    13
177
     3
291
     1
 70
    58
 90
        2
176
     1
 90
        2
176
     1
 90
        0
176
     1
 90
        0
176
     1
 40
0.6
176
     1
 40
30.0
176
     1
 62
     7
420
 16777215
176
     1
 90
        1
176
     1
 90
        4
176
     1
 62
     7
176
     1
 62
   257
176
     1
 90
        1
176
     1
 90
        1
176
     1
 40
1.0
176
     1
 90
       12
176
     1
 62
     7
176
     1
 40
1.0
176
     1
 90
        1
176
     1
 90
        6
176
     1
 90
        2
176
     1
 62
     7
176
     1
 90
        5
176
     1
 90
        0
176
     1
 90
        0
176
     1
290
     0
176
     1
 90
        1
176
     1
 40
0.0
176
     1
 90
        0
176
     1
290
     0
176
     1
290
     1
176
     1
290
     1
176
     1
290
     0
176
     1
290
     0
176
     1
290
     0
176
     1
290
     0
176
     1
290
     0
176
     1
290
     0
176
     1
 90
       50
176
     1
 40
0.0
176
     1
 40
1.0
176
     1
 90
        0
176
     1
 62
    18
420
        0
176
     1
 90
       50
176
     1
 90
        3
176
     1
 62
     5
420
      255
176
     1
290
     0
176
     1
 90
       50
176
     1
 90
       50
176
     1
 90
       50
176
     1
290
     0
176
     1
 90
       50
176
     1
 62
   256
176
     0
 40
1.0
176
     0
 90
        2
176
     1
  1
strokes_ogs.tif
176
     1
290
     0
176
     1
 40
1.0
176
     1
 40
1.0
176
     1
  0
VISUALSTYLE
  5
466
102
{ACAD_REACTORS
330
460
102
}
330
460
100
AcDbVisualStyle
  2
Wireframe
 70
     5
177
     3
291
     0
 70
    58
 90
        0
176
     1
 90
        2
176
     1
 90
        0
176
     1
 90
        0
176
     1
 40
0.6
176
     1
 40
30.0
176
     1
 62
     7
420
 16777215
176
     1
 90
        1
176
     1
 90
        4
176
     1
 62
     7
176
     1
 62
   257
176
     1
 90
        1
176
     1
 90
        1
176
     1
 40
1.0
176
     1
 90
        0
176
     1
 62
   257
176
     1
 40
1.0
176
     1
 90
        1
176
     1
 90
        6
176
     1
 90
        2
176
     1
 62
     7
176
     1
 90
        3
176
     1
 90
        0
176
     1
 90
        0
176
     1
290
     0
176
     1
 90
        1
176
     1
 40
0.0
176
     1
 90
        0
176
     1
290
     0
176
     1
290
     1
176
     1
290
     1
176
     1
290
     0
176
     1
290
     0
176
     1
290
     0
176
     1
290
     0
176
     1
290
     0
176
     1
290
     0
176
     1
 90
       50
176
     1
 40
0.0
176
     1
 40
1.0
176
     1
 90
        0
176
     1
 62
    18
420
        0
176
     1
 90
       50
176
     1
 90
        3
176
     1
 62
     5
420
      255
176
     1
290
     0
176
     1
 90
       50
176
     1
 90
       50
176
     1
 90
       50
176
     1
290
     0
176
     1
 90
       50
176
     1
 62
   256
176
     0
 40
1.0
176
     0
 90
        2
176
     1
  1
strokes_ogs.tif
176
     1
290
     0
176
     1
 40
1.0
176
     1
 40
1.0
176
     1
  0
VISUALSTYLE
  5
476
102
{ACAD_REACTORS
330
460
102
}
330
460
100
AcDbVisualStyle
  2
X-Ray
 70
    25
177
     3
291
     0
 70
    58
 90
        2
176
     1
 90
        2
176
     1
 90
        1
176
     1
 90
        1
176
     1
 40
0.5
176
     1
 40
30.0
176
     1
 62
     7
420
 16777215
176
     1
 90
        1
176
     1
 90
        0
176
     1
 62
     7
176
     1
 62
   257
176
     1
 90
        1
176
     1
 90
        1
176
     1
 40
1.0
176
     1
 90
        8
176
     1
 62
     7
176
     1
 40
1.0
176
     1
 90
        1
176
     1
 90
        6
176
     1
 90
        2
176
     1
 62
     7
176
     1
 90
        3
176
     1
 90
        0
176
     1
 90
        0
176
     1
290
     0
176
     1
 90
       13
176
     1
 40
0.0
176
     1
 90
        0
176
     1
290
     0
176
     1
290
     1
176
     1
290
     1
176
     1
290
     0
176
     1
290
     0
176
     1
290
     0
176
     1
290
     0
176
     1
290
     0
176
     1
290
     0
176
     1
 90
       50
176
     1
 40
0.0
176
     1
 40
1.0
176
     1
 90
        0
176
     1
 62
    18
420
        0
176
     1
 90
       50
176
     1
 90
        3
176
     1
 62
     5
420
      255
176
     1
290
     0
176
     1
 90
       50
176
     1
 90
       50
176
     1
 90
       50
176
     1
290
     0
176
     1
 90
       50
176
     1
 62
   256
176
     0
 40
1.0
176
     0
 90
        2
176
     1
  1
strokes_ogs.tif
176
     1
290
     0
176
     1
 40
1.0
176
     1
 40
1.0
176
     1
  0
DICTIONARYVAR
  5
483
102
{ACAD_REACTORS
330
482
102
}
330
482
100
DictionaryVariables
280
     0
  1
1:1
  0
DICTIONARYVAR
  5
488
102
{ACAD_REACTORS
330
482
102
}
330
482
100
DictionaryVariables
280
     0
  1
Standard
  0
DICTIONARYVAR
  5
487
102
{ACAD_REACTORS
330
482
102
}
330
482
100
DictionaryVariables
280
     0
  1
Standard
  0
DICTIONARYVAR
  5
489
102
{ACAD_REACTORS
330
482
102
}
330
482
100
DictionaryVariables
280
     0
  1
0
  0
DICTIONARY
  5
484
330
47E
100
AcDbDictionary
280
     1
281
     1
  3
ACAD_ROUNDTRIP_2008_TABLESTYLE_CELLSTYLEMAP
360
485
  0
CELLSTYLEMAP
  5
485
102
{ACAD_REACTORS
330
484
102
}
330
484
100
AcDbCellStyleMap
 90
        3
300
CELLSTYLE
  1
TABLEFORMAT_BEGIN
 90
        5
170
     1
 91
        0
 92
    32768
 62
   257
 93
        1
300
CONTENTFORMAT
  1
CONTENTFORMAT_BEGIN
 90
        0
 91
        0
 92
        4
 93
        0
300

 40
0.0
140
1.0
 94
        5
 62
     0
340
11
144
6.0
309
CONTENTFORMAT_END
171
     1
301
MARGIN
  1
CELLMARGIN_BEGIN
 40
1.5
 40
1.5
 40
1.5
 40
1.5
 40
1.5
 40
1.5
309
CELLMARGIN_END
 94
        6
 95
        1
302
GRIDFORMAT
  1
GRIDFORMAT_BEGIN
 90
        0
 91
        1
 62
     0
 92
       -2
340
14
 93
        0
 40
0.045
309
GRIDFORMAT_END
 95
        2
302
GRIDFORMAT
  1
GRIDFORMAT_BEGIN
 90
        0
 91
        1
 62
     0
 92
       -2
340
14
 93
        0
 40
0.045
309
GRIDFORMAT_END
 95
        4
302
GRIDFORMAT
  1
GRIDFORMAT_BEGIN
 90
        0
 91
        1
 62
     0
 92
       -2
340
14
 93
        0
 40
0.045
309
GRIDFORMAT_END
 95
        8
302
GRIDFORMAT
  1
GRIDFORMAT_BEGIN
 90
        0
 91
        1
 62
     0
 92
       -2
340
14
 93
        0
 40
0.045
309
GRIDFORMAT_END
 95
       16
302
GRIDFORMAT
  1
GRIDFORMAT_BEGIN
 90
        0
 91
        1
 62
     0
 92
       -2
340
14
 93
        0
 40
0.045
309
GRIDFORMAT_END
 95
       32
302
GRIDFORMAT
  1
GRIDFORMAT_BEGIN
 90
        0
 91
        1
 62
     0
 92
       -2
340
14
 93
        0
 40
0.045
309
GRIDFORMAT_END
309
TABLEFORMAT_END
  1
CELLSTYLE_BEGIN
 90
        1
 91
        1
300
_TITLE
309
CELLSTYLE_END
300
CELLSTYLE
  1
TABLEFORMAT_BEGIN
 90
        5
170
     1
 91
        0
 92
        0
 62
   257
 93
        1
300
CONTENTFORMAT
  1
CONTENTFORMAT_BEGIN
 90
        0
 91
        0
 92
        4
 93
        0
300

 40
0.0
140
1.0
 94
        5
 62
     0
340
11
144
4.5
309
CONTENTFORMAT_END
171
     1
301
MARGIN
  1
CELLMARGIN_BEGIN
 40
1.5
 40
1.5
 40
1.5
 40
1.5
 40
1.5
 40
1.5
309
CELLMARGIN_END
 94
        6
 95
        1
302
GRIDFORMAT
  1
GRIDFORMAT_BEGIN
 90
        0
 91
        1
 62
     0
 92
       -2
340
14
 93
        0
 40
0.045
309
GRIDFORMAT_END
 95
        2
302
GRIDFORMAT
  1
GRIDFORMAT_BEGIN
 90
        0
 91
        1
 62
     0
 92
       -2
340
14
 93
        0
 40
0.045
309
GRIDFORMAT_END
 95
        4
302
GRIDFORMAT
  1
GRIDFORMAT_BEGIN
 90
        0
 91
        1
 62
     0
 92
       -2
340
14
 93
        0
 40
0.045
309
GRIDFORMAT_END
 95
        8
302
GRIDFORMAT
  1
GRIDFORMAT_BEGIN
 90
        0
 91
        1
 62
     0
 92
       -2
340
14
 93
        0
 40
0.045
309
GRIDFORMAT_END
 95
       16
302
GRIDFORMAT
  1
GRIDFORMAT_BEGIN
 90
        0
 91
        1
 62
     0
 92
       -2
340
14
 93
        0
 40
0.045
309
GRIDFORMAT_END
 95
       32
302
GRIDFORMAT
  1
GRIDFORMAT_BEGIN
 90
        0
 91
        1
 62
     0
 92
       -2
340
14
 93
        0
 40
0.045
309
GRIDFORMAT_END
309
TABLEFORMAT_END
  1
CELLSTYLE_BEGIN
 90
        2
 91
        1
300
_HEADER
309
CELLSTYLE_END
300
CELLSTYLE
  1
TABLEFORMAT_BEGIN
 90
        5
170
     1
 91
        0
 92
        0
 62
   257
 93
        1
300
CONTENTFORMAT
  1
CONTENTFORMAT_BEGIN
 90
        0
 91
        0
 92
        4
 93
        0
300

 40
0.0
140
1.0
 94
        2
 62
     0
340
11
144
4.5
309
CONTENTFORMAT_END
171
     1
301
MARGIN
  1
CELLMARGIN_BEGIN
 40
1.5
 40
1.5
 40
1.5
 40
1.5
 40
1.5
 40
1.5
309
CELLMARGIN_END
 94
        6
 95
        1
302
GRIDFORMAT
  1
GRIDFORMAT_BEGIN
 90
        0
 91
        1
 62
     0
 92
       -2
340
14
 93
        0
 40
0.045
309
GRIDFORMAT_END
 95
        2
302
GRIDFORMAT
  1
GRIDFORMAT_BEGIN
 90
        0
 91
        1
 62
     0
 92
       -2
340
14
 93
        0
 40
0.045
309
GRIDFORMAT_END
 95
        4
302
GRIDFORMAT
  1
GRIDFORMAT_BEGIN
 90
        0
 91
        1
 62
     0
 92
       -2
340
14
 93
        0
 40
0.045
309
GRIDFORMAT_END
 95
        8
302
GRIDFORMAT
  1
GRIDFORMAT_BEGIN
 90
        0
 91
        1
 62
     0
 92
       -2
340
14
 93
        0
 40
0.045
309
GRIDFORMAT_END
 95
       16
302
GRIDFORMAT
  1
GRIDFORMAT_BEGIN
 90
        0
 91
        1
 62
     0
 92
       -2
340
14
 93
        0
 40
0.045
309
GRIDFORMAT_END
 95
       32
302
GRIDFORMAT
  1
GRIDFORMAT_BEGIN
 90
        0
 91
        1
 62
     0
 92
       -2
340
14
 93
        0
 40
0.045
309
GRIDFORMAT_END
309
TABLEFORMAT_END
  1
CELLSTYLE_BEGIN
 90
        3
 91
        2
300
_DATA
309
CELLSTYLE_END
  0
ENDSEC
  0
EOF
