999
DXF file: 452_c_135.dxf
999
Pro/ENGINEER 2016360 by Parametric Technology Corporation
  0
SECTION
  2
HEADER
  9
$ACADVER
  1
AC1014
  9
$DWGCODEPAGE
  3
ANSI_1252
  9
$EXTMAX
 10
841.0
 20
1189.0
 30
0.0
  9
$EXTMIN
 10
0.0
 20
0.0
 30
0.0
  9
$LIMMIN
 10
0.0
 20
0.0
  9
$LIMMAX
 10
841.0
 20
1189.0
  9
$VIEWCTR
 10
420.5
 20
594.5
  9
$VIEWSIZE
 40
1189.0
  9
$CLAYER
  8
0
  9
$LTSCALE
 40
77.5051851852
  9
$CELTYPE
  6
BYLAYER
  9
$DIMSCALE
 40
1.0
  9
$DIMASZ
 40
2.5
  9
$DIMEXO
 40
0.75
  9
$DIMDLI
 40
53.549037037
  9
$DIMEXE
 40
0.75
  9
$DIMCEN
 40
12.6826666667
  9
$DIMLFAC
 40
1.0
  9
$DIMBLK
  1
_CLOSED
  9
$DIMALT
 70
0
  9
$DIMALTF
 40
25.4
  9
$DIMTXT
 40
3.0
  9
$DIMTOL
 70
1
  9
$DIMLIM
 70
0
  9
$DIMTFAC
 40
1.0
  9
$DIMTP
 40
0.01
  9
$DIMTM
 40
0.01
  9
$DIMGAP
 40
0.625
  9
$AUNITS
 70
0
  9
$PDMODE
 70
3
  9
$PDSIZE
 40
0.3125
  9
$HANDSEED
  5
2FA
  9
$TILEMODE
 70
1
  9
$MEASUREMENT
 70
1
  0
ENDSEC
  0
SECTION
  2
CLASSES
  0
ENDSEC
  0
SECTION
  2
TABLES
  0
TABLE
  2
VPORT
  5
8
100
AcDbSymbolTable
 70
2
  0
VPORT
  5
1F4
100
AcDbSymbolTableRecord
100
AcDbViewportTableRecord
  2
*ACTIVE
 70
0
 10
0.0
 20
0.0
 11
1.0
 21
1.0
 12
420.5
 22
594.5
 13
0.0
 23
0.0
 14
1.0
 24
1.0
 15
0.0
 25
0.0
 16
0.0
 26
0.0
 36
1.0
 17
0.0
 27
0.0
 37
0.0
 40
1189.0
 41
0.7073170732
 42
50.0
 43
0.0
 44
0.0
 50
0.0
 51
0.0
 71
0
 72
100
 73
1
 74
1
 75
0
 76
0
 77
0
 78
0
  0
ENDTAB
  0
TABLE
  2
LTYPE
  5
5
100
AcDbSymbolTable
 70
6
  0
LTYPE
  5
14
100
AcDbSymbolTableRecord
100
AcDbLinetypeTableRecord
  2
BYBLOCK
 70
0
  3

 72
65
 73
0
 40
0.0
  0
LTYPE
  5
15
100
AcDbSymbolTableRecord
100
AcDbLinetypeTableRecord
  2
BYLAYER
 70
0
  3

 72
65
 73
0
 40
0.0
  0
LTYPE
  5
16
100
AcDbSymbolTableRecord
100
AcDbLinetypeTableRecord
  2
CONTINUOUS
 70
64
  3
Solid line
 72
65
 73
0
 40
0.0
  0
LTYPE
  5
1F5
100
AcDbSymbolTableRecord
100
AcDbLinetypeTableRecord
  2
CENTER
 70
64
  3
____ _ ____ _ ____ _ ____ _ ____ _ ____ _ ____
 72
65
 73
4
 40
0.6
 49
0.375
 74
0
 49
-0.075
 74
0
 49
0.075
 74
0
 49
-0.075
 74
0
  0
LTYPE
  5
1F6
100
AcDbSymbolTableRecord
100
AcDbLinetypeTableRecord
  2
HIDDEN
 70
64
  3
- - - - - - - - - - - - - - - - - - - -
 72
65
 73
2
 40
0.2
 49
0.1
 74
0
 49
-0.1
 74
0
  0
LTYPE
  5
1F7
100
AcDbSymbolTableRecord
100
AcDbLinetypeTableRecord
  2
PHANTOM
 70
64
  3
_____ _ _ _____ _ _ _____ _ _ _____
 72
65
 73
6
 40
0.8
 49
0.45
 74
0
 49
-0.05
 74
0
 49
0.1
 74
0
 49
-0.05
 74
0
 49
0.1
 74
0
 49
-0.05
 74
0
  0
LTYPE
  5
1F8
100
AcDbSymbolTableRecord
100
AcDbLinetypeTableRecord
  2
DOT
 70
64
  3
. . . . . . . . . . . . . . . . . . . .
 72
65
 73
2
 40
0.2
 49
0.1
 74
0
 49
-0.1
 74
0
  0
LTYPE
  5
1F9
100
AcDbSymbolTableRecord
100
AcDbLinetypeTableRecord
  2
DASHED
 70
64
  3
- - - - - - - - - - - - - - - - - - - -
 72
65
 73
2
 40
0.2
 49
0.1
 74
0
 49
-0.1
 74
0
  0
ENDTAB
  0
TABLE
  2
LAYER
  5
2
100
AcDbSymbolTable
 70
36
  0
LAYER
  5
10
100
AcDbSymbolTableRecord
100
AcDbLayerTableRecord
  2
0
 70
0
 62
7
  6
CONTINUOUS
  0
LAYER
  5
1FA
100
AcDbSymbolTableRecord
100
AcDbLayerTableRecord
  2
DEFAULT_1
 70
0
 62
7
  6
CENTER
  0
LAYER
  5
1FB
100
AcDbSymbolTableRecord
100
AcDbLayerTableRecord
  2
DEFAULT_2
 70
0
 62
8
  6
HIDDEN
  0
LAYER
  5
1FC
100
AcDbSymbolTableRecord
100
AcDbLayerTableRecord
  2
DEFAULT_3
 70
0
 62
7
  6
PHANTOM
  0
LAYER
  5
1FD
100
AcDbSymbolTableRecord
100
AcDbLayerTableRecord
  2
01_ALL_DTM_PLN
 70
0
 62
7
  6
CONTINUOUS
  0
LAYER
  5
1FE
100
AcDbSymbolTableRecord
100
AcDbLayerTableRecord
  2
01__ASM_ALL_DTM_PLN
 70
0
 62
7
  6
CONTINUOUS
  0
LAYER
  5
1FF
100
AcDbSymbolTableRecord
100
AcDbLayerTableRecord
  2
01__ASM_DEF_DTM_PLN
 70
0
 62
7
  6
CONTINUOUS
  0
LAYER
  5
200
100
AcDbSymbolTableRecord
100
AcDbLayerTableRecord
  2
01___PRT_ALL_DTM_PLN
 70
0
 62
7
  6
CONTINUOUS
  0
LAYER
  5
201
100
AcDbSymbolTableRecord
100
AcDbLayerTableRecord
  2
01___PRT_DEF_DTM_PLN
 70
0
 62
7
  6
CONTINUOUS
  0
LAYER
  5
202
100
AcDbSymbolTableRecord
100
AcDbLayerTableRecord
  2
02_ALL_AXES
 70
0
 62
7
  6
CONTINUOUS
  0
LAYER
  5
203
100
AcDbSymbolTableRecord
100
AcDbLayerTableRecord
  2
02__ASM_ALL_AXES
 70
0
 62
7
  6
CONTINUOUS
  0
LAYER
  5
204
100
AcDbSymbolTableRecord
100
AcDbLayerTableRecord
  2
02___PRT_ALL_AXES
 70
0
 62
7
  6
CONTINUOUS
  0
LAYER
  5
205
100
AcDbSymbolTableRecord
100
AcDbLayerTableRecord
  2
03_ALL_CURVES
 70
0
 62
7
  6
CONTINUOUS
  0
LAYER
  5
206
100
AcDbSymbolTableRecord
100
AcDbLayerTableRecord
  2
03__ASM_ALL_CURVES
 70
0
 62
7
  6
CONTINUOUS
  0
LAYER
  5
207
100
AcDbSymbolTableRecord
100
AcDbLayerTableRecord
  2
03___PRT_ALL_CURVES
 70
0
 62
7
  6
CONTINUOUS
  0
LAYER
  5
208
100
AcDbSymbolTableRecord
100
AcDbLayerTableRecord
  2
04_ALL_DTM_PNT
 70
0
 62
7
  6
CONTINUOUS
  0
LAYER
  5
209
100
AcDbSymbolTableRecord
100
AcDbLayerTableRecord
  2
04__ASM_ALL_DTM_PNT
 70
0
 62
7
  6
CONTINUOUS
  0
LAYER
  5
20A
100
AcDbSymbolTableRecord
100
AcDbLayerTableRecord
  2
04___PRT_ALL_DTM_PNT
 70
0
 62
7
  6
CONTINUOUS
  0
LAYER
  5
20B
100
AcDbSymbolTableRecord
100
AcDbLayerTableRecord
  2
05_ALL_DTM_CSYS
 70
0
 62
7
  6
CONTINUOUS
  0
LAYER
  5
20C
100
AcDbSymbolTableRecord
100
AcDbLayerTableRecord
  2
05__ASM_ALL_DTM_CSYS
 70
0
 62
7
  6
CONTINUOUS
  0
LAYER
  5
20D
100
AcDbSymbolTableRecord
100
AcDbLayerTableRecord
  2
05__ASM_DEF_DTM_CSYS
 70
0
 62
7
  6
CONTINUOUS
  0
LAYER
  5
20E
100
AcDbSymbolTableRecord
100
AcDbLayerTableRecord
  2
05___PRT_ALL_DTM_CSYS
 70
0
 62
7
  6
CONTINUOUS
  0
LAYER
  5
20F
100
AcDbSymbolTableRecord
100
AcDbLayerTableRecord
  2
05___PRT_DEF_DTM_CSYS
 70
0
 62
7
  6
CONTINUOUS
  0
LAYER
  5
210
100
AcDbSymbolTableRecord
100
AcDbLayerTableRecord
  2
06_ALL_SURFS
 70
0
 62
7
  6
CONTINUOUS
  0
LAYER
  5
211
100
AcDbSymbolTableRecord
100
AcDbLayerTableRecord
  2
06__ASM_ALL_SURFS
 70
0
 62
7
  6
CONTINUOUS
  0
LAYER
  5
212
100
AcDbSymbolTableRecord
100
AcDbLayerTableRecord
  2
06___PRT_ALL_SURFS
 70
0
 62
7
  6
CONTINUOUS
  0
LAYER
  5
213
100
AcDbSymbolTableRecord
100
AcDbLayerTableRecord
  2
07__ASM_ALL_SKELETONS
 70
0
 62
7
  6
CONTINUOUS
  0
LAYER
  5
214
100
AcDbSymbolTableRecord
100
AcDbLayerTableRecord
  2
1_ALL_PLANES
 70
0
 62
7
  6
CONTINUOUS
  0
LAYER
  5
215
100
AcDbSymbolTableRecord
100
AcDbLayerTableRecord
  2
3_ALL_AXES
 70
0
 62
7
  6
CONTINUOUS
  0
LAYER
  5
216
100
AcDbSymbolTableRecord
100
AcDbLayerTableRecord
  2
5_ALL_CURVES
 70
0
 62
7
  6
CONTINUOUS
  0
LAYER
  5
217
100
AcDbSymbolTableRecord
100
AcDbLayerTableRecord
  2
5__COSTRUZIONE
 70
0
 62
7
  6
CONTINUOUS
  0
LAYER
  5
218
100
AcDbSymbolTableRecord
100
AcDbLayerTableRecord
  2
7_ALL_FEATURES
 70
0
 62
7
  6
CONTINUOUS
  0
LAYER
  5
219
100
AcDbSymbolTableRecord
100
AcDbLayerTableRecord
  2
9_SOLID
 70
0
 62
7
  6
CONTINUOUS
  0
LAYER
  5
21A
100
AcDbSymbolTableRecord
100
AcDbLayerTableRecord
  2
XXX_SOLIDO
 70
0
 62
7
  6
CONTINUOUS
  0
ENDTAB
  0
TABLE
  2
STYLE
  5
3
100
AcDbSymbolTable
 70
1
  0
STYLE
  5
11
100
AcDbSymbolTableRecord
100
AcDbTextStyleTableRecord
  2
STANDARD
 70
0
 40
0.0
 41
1.0
 50
0.0
 71
0
 42
0.2
  3
arial.ttf
  4

  0
STYLE
  5
21B
100
AcDbSymbolTableRecord
100
AcDbTextStyleTableRecord
  2
TEXTSTYLE_1
 70
0
 40
0.0
 41
0.8
 50
0.0
 71
0
 42
0.2
  3
gdt
  4

  0
STYLE
  5
21C
100
AcDbSymbolTableRecord
100
AcDbTextStyleTableRecord
  2
TEXTSTYLE_2
 70
0
 40
0.0
 41
0.85
 50
0.0
 71
0
 42
0.2
  3
gdt
  4

  0
STYLE
  5
21D
100
AcDbSymbolTableRecord
100
AcDbTextStyleTableRecord
  2
TEXTSTYLE_3
 70
0
 40
0.0
 41
0.85
 50
0.0
 71
0
 42
0.2
  3
txt
  4

  0
ENDTAB
  0
TABLE
  2
VIEW
  5
6
100
AcDbSymbolTable
 70
0
  0
ENDTAB
  0
TABLE
  2
UCS
  5
7
100
AcDbSymbolTable
 70
0
  0
ENDTAB
  0
TABLE
  2
APPID
  5
9
100
AcDbSymbolTable
 70
1
  0
APPID
  5
21E
100
AcDbSymbolTableRecord
100
AcDbRegAppTableRecord
  2
ACAD
 70
0
  0
ENDTAB
  0
TABLE
  2
BLOCK_RECORD
  5
1
100
AcDbSymbolTable
 70
0
  0
BLOCK_RECORD
  5
1F
100
AcDbSymbolTableRecord
100
AcDbBlockTableRecord
  2
*MODEL_SPACE
  0
BLOCK_RECORD
  5
1B
100
AcDbSymbolTableRecord
100
AcDbBlockTableRecord
  2
*PAPER_SPACE
  0
BLOCK_RECORD
  5
21F
100
AcDbSymbolTableRecord
100
AcDbBlockTableRecord
  2
_CLOSED
  0
BLOCK_RECORD
  5
220
100
AcDbSymbolTableRecord
100
AcDbBlockTableRecord
  2
*D0
  0
BLOCK_RECORD
  5
221
100
AcDbSymbolTableRecord
100
AcDbBlockTableRecord
  2
*D1
  0
BLOCK_RECORD
  5
222
100
AcDbSymbolTableRecord
100
AcDbBlockTableRecord
  2
*D2
  0
BLOCK_RECORD
  5
223
100
AcDbSymbolTableRecord
100
AcDbBlockTableRecord
  2
*D3
  0
BLOCK_RECORD
  5
224
100
AcDbSymbolTableRecord
100
AcDbBlockTableRecord
  2
*D4
  0
BLOCK_RECORD
  5
225
100
AcDbSymbolTableRecord
100
AcDbBlockTableRecord
  2
*D5
  0
BLOCK_RECORD
  5
226
100
AcDbSymbolTableRecord
100
AcDbBlockTableRecord
  2
*D6
  0
BLOCK_RECORD
  5
227
100
AcDbSymbolTableRecord
100
AcDbBlockTableRecord
  2
LOGO2_BL0
  0
ENDTAB
  0
TABLE
  2
DIMSTYLE
  5
A
100
AcDbSymbolTable
 70
1
  0
DIMSTYLE
105
228
100
AcDbSymbolTableRecord
100
AcDbDimStyleTableRecord
  2
STANDARD
 70
0
  3

  4

  5
_CLOSED
  6
_CLOSED
  7
_CLOSED
 40
1.0
 41
2.5
 42
0.75
 43
0.38
 44
0.75
 45
0.0
 46
0.0
 47
0.01
 48
0.01
140
3.0
141
0.09
142
0.0
143
25.4
144
1.0
145
0.0
146
1.0
147
0.625
 71
1.0
 72
0.0
 73
0
 74
0
 75
0
 76
0
 77
1
 78
8
 79
2
170
0
171
1
172
0
173
0
174
0
175
0
176
0
177
0
178
0
270
2
179
2
271
2
272
2
273
2
274
2
275
0
280
0
281
0
282
0
283
1
284
8
285
0
286
0
287
3
288
0
340
11
  0
DIMSTYLE
105
229
100
AcDbSymbolTableRecord
100
AcDbDimStyleTableRecord
  2
DIMSTYLE_1
 70
0
  3

  4

  5
_CLOSED
  6
_CLOSED
  7
_CLOSED
 40
1.0
 41
2.5
 42
0.75
 43
0.38
 44
0.75
 45
0.0
 46
0.0
 47
0.8
 48
0.8
140
3.0
141
0.09
142
0.0
143
25.4
144
1.0
145
0.0
146
1.0
147
0.75
 71
0.0
 72
0.0
 73
0
 74
0
 75
0
 76
0
 77
1
 78
8
 79
2
170
0
171
1
172
0
173
0
174
0
175
0
176
0
177
0
178
0
270
2
179
2
271
2
272
2
273
2
274
2
275
0
280
0
281
0
282
0
283
1
284
8
285
0
286
0
287
3
288
0
340
11
  0
DIMSTYLE
105
22A
100
AcDbSymbolTableRecord
100
AcDbDimStyleTableRecord
  2
DIMSTYLE_2
 70
0
  3

  4

  5
_CLOSED
  6
_CLOSED
  7
_CLOSED
 40
1.0
 41
2.5
 42
0.75
 43
0.38
 44
0.75
 45
0.0
 46
0.0
 47
0.1
 48
0.1
140
3.0
141
0.09
142
0.0
143
25.4
144
1.0
145
0.0
146
1.0
147
0.75
 71
0.0
 72
0.0
 73
0
 74
0
 75
0
 76
0
 77
1
 78
8
 79
2
170
0
171
1
172
0
173
0
174
0
175
0
176
0
177
0
178
0
270
2
179
2
271
2
272
2
273
2
274
2
275
0
280
0
281
0
282
0
283
1
284
8
285
0
286
0
287
3
288
0
340
11
  0
DIMSTYLE
105
22B
100
AcDbSymbolTableRecord
100
AcDbDimStyleTableRecord
  2
DIMSTYLE_3
 70
0
  3

  4

  5
_CLOSED
  6
_CLOSED
  7
_CLOSED
 40
1.0
 41
2.5
 42
0.75
 43
0.38
 44
0.75
 45
0.0
 46
0.0
 47
0.5
 48
0.5
140
3.0
141
0.09
142
0.0
143
25.4
144
1.0
145
0.0
146
1.0
147
0.75
 71
0.0
 72
0.0
 73
0
 74
0
 75
0
 76
0
 77
1
 78
8
 79
2
170
0
171
1
172
0
173
0
174
0
175
0
176
0
177
0
178
0
270
2
179
2
271
2
272
2
273
2
274
2
275
0
280
0
281
0
282
0
283
1
284
8
285
0
286
0
287
3
288
0
340
11
  0
DIMSTYLE
105
22C
100
AcDbSymbolTableRecord
100
AcDbDimStyleTableRecord
  2
DIMSTYLE_4
 70
0
  3
<>
  4

  5
_CLOSED
  6
_CLOSED
  7
_CLOSED
 40
1.0
 41
2.5
 42
0.75
 43
0.38
 44
0.75
 45
0.0
 46
0.0
 47
0.3
 48
0.3
140
3.0
141
0.09
142
0.0
143
25.4
144
1.0
145
0.0
146
1.0
147
0.625
 71
0.0
 72
0.0
 73
0
 74
0
 75
0
 76
0
 77
1
 78
8
 79
2
170
0
171
1
172
1
173
0
174
0
175
0
176
0
177
0
178
0
270
2
179
2
271
2
272
2
273
2
274
2
275
0
280
0
281
0
282
0
283
1
284
8
285
0
286
0
287
3
288
1
340
11
  0
DIMSTYLE
105
22D
100
AcDbSymbolTableRecord
100
AcDbDimStyleTableRecord
  2
DIMSTYLE_5
 70
0
  3

  4

  5
_CLOSED
  6
_CLOSED
  7
_CLOSED
 40
1.0
 41
2.5
 42
0.75
 43
0.38
 44
0.75
 45
0.0
 46
0.0
 47
0.2
 48
0.2
140
3.0
141
0.09
142
0.0
143
25.4
144
1.0
145
0.0
146
1.0
147
0.75
 71
0.0
 72
0.0
 73
0
 74
0
 75
0
 76
0
 77
1
 78
8
 79
2
170
0
171
1
172
0
173
0
174
0
175
0
176
0
177
0
178
0
270
2
179
2
271
2
272
2
273
2
274
2
275
0
280
0
281
0
282
0
283
1
284
8
285
0
286
0
287
3
288
0
340
11
  0
DIMSTYLE
105
22E
100
AcDbSymbolTableRecord
100
AcDbDimStyleTableRecord
  2
DIMSTYLE_6
 70
0
  3

  4

  5
_CLOSED
  6
_CLOSED
  7
_CLOSED
 40
1.0
 41
2.5
 42
0.75
 43
0.38
 44
0.75
 45
0.0
 46
0.0
 47
0.3
 48
0.3
140
3.0
141
0.09
142
0.0
143
25.4
144
1.0
145
0.0
146
1.0
147
0.75
 71
0.0
 72
0.0
 73
0
 74
0
 75
0
 76
0
 77
1
 78
8
 79
2
170
0
171
1
172
0
173
0
174
0
175
0
176
0
177
0
178
0
270
2
179
2
271
2
272
2
273
2
274
2
275
0
280
0
281
0
282
0
283
1
284
8
285
0
286
0
287
3
288
0
340
11
  0
ENDTAB
  0
ENDSEC
  0
SECTION
  2
BLOCKS
  0
BLOCK
  5
20
100
AcDbEntity
  8
0
100
AcDbBlockBegin
  2
*MODEL_SPACE
 70
0
 10
0.0
 20
0.0
 30
0.0
  3
*MODEL_SPACE
  1

  0
ENDBLK
  5
21
100
AcDbEntity
  8
0
100
AcDbBlockEnd
  0
BLOCK
  5
1C
100
AcDbEntity
  8
0
100
AcDbBlockBegin
  2
*PAPER_SPACE
 70
0
 10
0.0
 20
0.0
 30
0.0
  3
*PAPER_SPACE
  1

  0
ENDBLK
  5
1D
100
AcDbEntity
  8
0
100
AcDbBlockEnd
  0
BLOCK
  5
22F
100
AcDbEntity
  8
0
100
AcDbBlockBegin
 62
2
  6
CONTINUOUS
  2
LOGO2_BL0
 70
64
 10
753.731072936
 20
39.0120455435
  3
LOGO2_BL0
  1

  0
LINE
  5
230
100
AcDbEntity
  8
0
100
AcDbLine
 62
7
  6
CONTINUOUS
 10
745.4739981643
 20
42.2075368823
 11
744.1696572349
 21
42.2075368823
  0
LINE
  5
231
100
AcDbEntity
  8
0
100
AcDbLine
 62
7
  6
CONTINUOUS
 10
744.1696572349
 20
42.2075368823
 11
744.1696572349
 21
31.7484708225
  0
LINE
  5
232
100
AcDbEntity
  8
0
100
AcDbLine
 62
7
  6
CONTINUOUS
 10
744.1696572349
 20
31.7484708225
 11
748.6507121232
 21
31.7484708225
  0
LINE
  5
233
100
AcDbEntity
  8
0
100
AcDbLine
 62
7
  6
CONTINUOUS
 10
748.6507121232
 20
31.7484708225
 11
748.6507121232
 21
32.9413251475
  0
LINE
  5
234
100
AcDbEntity
  8
0
100
AcDbLine
 62
7
  6
CONTINUOUS
 10
748.6507121232
 20
32.9413251475
 11
745.4739981643
 21
32.9413251475
  0
LINE
  5
235
100
AcDbEntity
  8
0
100
AcDbLine
 62
7
  6
CONTINUOUS
 10
745.4739981643
 20
32.9413251475
 11
745.4739981643
 21
42.2075368823
  0
LINE
  5
236
100
AcDbEntity
  8
0
100
AcDbLine
 62
7
  6
CONTINUOUS
 10
760.4103243806
 20
42.2075368823
 11
759.1065068625
 21
42.2075368823
  0
LINE
  5
237
100
AcDbEntity
  8
0
100
AcDbLine
 62
7
  6
CONTINUOUS
 10
759.1065068625
 20
42.2075368823
 11
759.1065068625
 21
31.7484708225
  0
LINE
  5
238
100
AcDbEntity
  8
0
100
AcDbLine
 62
7
  6
CONTINUOUS
 10
759.1065068625
 20
31.7484708225
 11
763.5876926036
 21
31.7484708225
  0
LINE
  5
239
100
AcDbEntity
  8
0
100
AcDbLine
 62
7
  6
CONTINUOUS
 10
763.5876926036
 20
31.7484708225
 11
763.5876926036
 21
32.9413251475
  0
LINE
  5
23A
100
AcDbEntity
  8
0
100
AcDbLine
 62
7
  6
CONTINUOUS
 10
763.5876926036
 20
32.9413251475
 11
760.4103243806
 21
32.9413251475
  0
LINE
  5
23B
100
AcDbEntity
  8
0
100
AcDbLine
 62
7
  6
CONTINUOUS
 10
760.4103243806
 20
32.9413251475
 11
760.4103243806
 21
42.2075368823
  0
LWPOLYLINE
  5
23C
100
AcDbEntity
  8
0
100
AcDbPolyline
 62
7
  6
CONTINUOUS
 90
2
 70
0
 43
0.2
 10
742.5240521458
 20
28.4049195155
 10
742.5240521458
 20
26.5478562662
  0
LWPOLYLINE
  5
23D
100
AcDbEntity
  8
0
100
AcDbPolyline
 62
7
  6
CONTINUOUS
 90
2
 70
0
 43
0.2
 10
742.5240521458
 20
26.5478562662
 10
743.3197681562
 20
26.5478562662
  0
LWPOLYLINE
  5
23E
100
AcDbEntity
  8
0
100
AcDbPolyline
 62
7
  6
CONTINUOUS
 90
2
 70
0
 43
0.2
 10
743.3197681562
 20
26.5478562662
 10
743.3197681562
 20
26.7598378378
  0
LWPOLYLINE
  5
23F
100
AcDbEntity
  8
0
100
AcDbPolyline
 62
7
  6
CONTINUOUS
 90
2
 70
0
 43
0.2
 10
743.3197681562
 20
26.7598378378
 10
742.7556616407
 20
26.7598378378
  0
LWPOLYLINE
  5
240
100
AcDbEntity
  8
0
100
AcDbPolyline
 62
7
  6
CONTINUOUS
 90
2
 70
0
 43
0.2
 10
742.7556616407
 20
26.7598378378
 10
742.7556616407
 20
28.4049195155
  0
LWPOLYLINE
  5
241
100
AcDbEntity
  8
0
100
AcDbPolyline
 62
7
  6
CONTINUOUS
 90
2
 70
0
 43
0.2
 10
742.7556616407
 20
28.4049195155
 10
742.5240521458
 20
28.4049195155
  0
SPLINE
  5
242
100
AcDbEntity
  8
0
100
AcDbSpline
 62
7
  6
CONTINUOUS
 70
2
 71
3
 72
35
 73
31
 74
0
 42
0.0000001
 43
0.0000001
 44
0.0000000001
 40
0.0
 40
0.0
 40
0.0
 40
0.0
 40
1.0
 40
1.0
 40
1.0
 40
2.0
 40
2.0
 40
2.0
 40
3.0
 40
3.0
 40
3.0
 40
4.0
 40
4.0
 40
4.0
 40
5.0
 40
5.0
 40
5.0
 40
6.0
 40
6.0
 40
6.0
 40
7.0
 40
7.0
 40
7.0
 40
8.0
 40
8.0
 40
8.0
 40
9.0
 40
9.0
 40
9.0
 40
10.0
 40
10.0
 40
10.0
 40
10.0
 10
744.7180614117
 20
27.7004079221
 30
0.0
 10
744.7180614117
 20
27.7004079221
 30
0.0
 10
744.7180614117
 20
27.0382926429
 30
0.0
 10
744.7180614117
 20
27.0382926429
 30
0.0
 10
744.7180614117
 20
26.7231990476
 30
0.0
 10
744.8659251006
 20
26.5086004196
 30
0.0
 10
745.2060115849
 20
26.5086004196
 30
0.0
 10
745.5455746579
 20
26.5086004196
 30
0.0
 10
745.6937000523
 20
26.7231990476
 30
0.0
 10
745.6937000523
 20
27.0382926429
 30
0.0
 10
745.6937000523
 20
27.0382926429
 30
0.0
 10
745.6937000523
 20
27.7004079221
 30
0.0
 10
745.6937000523
 20
27.7004079221
 30
0.0
 10
745.6937000523
 20
27.7004079221
 30
0.0
 10
745.4716428135
 20
27.7004079221
 30
0.0
 10
745.4716428135
 20
27.7004079221
 30
0.0
 10
745.4716428135
 20
27.7004079221
 30
0.0
 10
745.4716428135
 20
27.0634163847
 30
0.0
 10
745.4716428135
 20
27.0634163847
 30
0.0
 10
745.4716428135
 20
26.8776053775
 30
0.0
 10
745.424928356
 20
26.714824467
 30
0.0
 10
745.2060115849
 20
26.714824467
 30
0.0
 10
744.9865714024
 20
26.714824467
 30
0.0
 10
744.939856945
 20
26.8776053775
 30
0.0
 10
744.939856945
 20
27.0634163847
 30
0.0
 10
744.939856945
 20
27.0634163847
 30
0.0
 10
744.939856945
 20
27.7004079221
 30
0.0
 10
744.939856945
 20
27.7004079221
 30
0.0
 10
744.939856945
 20
27.7004079221
 30
0.0
 10
744.7180614117
 20
27.7004079221
 30
0.0
 10
744.7180614117
 20
27.7004079221
 30
0.0
  0
SPLINE
  5
243
100
AcDbEntity
  8
0
100
AcDbSpline
 62
7
  6
CONTINUOUS
 70
2
 71
3
 72
35
 73
31
 74
0
 42
0.0000001
 43
0.0000001
 44
0.0000000001
 40
0.0
 40
0.0
 40
0.0
 40
0.0
 40
1.0
 40
1.0
 40
1.0
 40
2.0
 40
2.0
 40
2.0
 40
3.0
 40
3.0
 40
3.0
 40
4.0
 40
4.0
 40
4.0
 40
5.0
 40
5.0
 40
5.0
 40
6.0
 40
6.0
 40
6.0
 40
7.0
 40
7.0
 40
7.0
 40
8.0
 40
8.0
 40
8.0
 40
9.0
 40
9.0
 40
9.0
 40
10.0
 40
10.0
 40
10.0
 40
10.0
 10
748.1168326095
 20
27.6590584303
 30
0.0
 10
748.0283761019
 20
27.7103527365
 30
0.0
 10
747.9149267052
 20
27.7354764784
 30
0.0
 10
747.8112912702
 20
27.7354764784
 30
0.0
 10
747.4564184171
 20
27.7354764784
 30
0.0
 10
747.1809732268
 20
27.4716771893
 30
0.0
 10
747.1809732268
 20
27.1141872797
 30
0.0
 10
747.1809732268
 20
26.769259241
 30
0.0
 10
747.459428032
 20
26.5091238309
 30
0.0
 10
747.798991105
 20
26.5091238309
 30
0.0
 10
747.9149267052
 20
26.5091238309
 30
0.0
 10
748.0156833781
 20
26.531107105
 30
0.0
 10
748.1168326095
 20
26.5850184676
 30
0.0
 10
748.1168326095
 20
26.5850184676
 30
0.0
 10
748.1168326095
 20
26.8676605631
 30
0.0
 10
748.1168326095
 20
26.8676605631
 30
0.0
 10
748.0329559506
 20
26.7744933538
 30
0.0
 10
747.9294513685
 20
26.7153478783
 30
0.0
 10
747.8013464558
 20
26.7153478783
 30
0.0
 10
747.5676433157
 20
26.7153478783
 30
0.0
 10
747.4023762016
 20
26.887550192
 30
0.0
 10
747.4023762016
 20
27.1241320941
 30
0.0
 10
747.4023762016
 20
27.3361136657
 30
0.0
 10
747.5701295193
 20
27.5282056084
 30
0.0
 10
747.7869526453
 20
27.5282056084
 30
0.0
 10
747.9197682596
 20
27.5282056084
 30
0.0
 10
748.0283761019
 20
27.4742942457
 30
0.0
 10
748.1168326095
 20
27.3732758672
 30
0.0
 10
748.1168326095
 20
27.3732758672
 30
0.0
 10
748.1168326095
 20
27.6590584303
 30
0.0
 10
748.1168326095
 20
27.6590584303
 30
0.0
  0
SPLINE
  5
244
100
AcDbEntity
  8
0
100
AcDbSpline
 62
7
  6
CONTINUOUS
 70
2
 71
3
 72
32
 73
28
 74
0
 42
0.0000001
 43
0.0000001
 44
0.0000000001
 40
0.0
 40
0.0
 40
0.0
 40
0.0
 40
1.0
 40
1.0
 40
1.0
 40
2.0
 40
2.0
 40
2.0
 40
3.0
 40
3.0
 40
3.0
 40
4.0
 40
4.0
 40
4.0
 40
5.0
 40
5.0
 40
5.0
 40
6.0
 40
6.0
 40
6.0
 40
7.0
 40
7.0
 40
7.0
 40
8.0
 40
8.0
 40
8.0
 40
9.0
 40
9.0
 40
9.0
 40
9.0
 10
750.6487038618
 20
27.087493304
 30
0.0
 10
750.6487038618
 20
27.087493304
 30
0.0
 10
750.6487038618
 20
27.1215150377
 30
0.0
 10
750.6487038618
 20
27.1215150377
 30
0.0
 10
750.6487038618
 20
27.46382602
 30
0.0
 10
750.475847284
 20
27.7354764784
 30
0.0
 10
750.1091976768
 20
27.7354764784
 30
0.0
 10
749.7375756624
 20
27.7354764784
 30
0.0
 10
749.5478390706
 20
27.4690601328
 30
0.0
 10
749.5478390706
 20
27.1141872797
 30
0.0
 10
749.5478390706
 20
26.7744933538
 30
0.0
 10
749.7619142873
 20
26.5086004196
 30
0.0
 10
750.1140392312
 20
26.5086004196
 30
0.0
 10
750.3380592624
 20
26.5086004196
 30
0.0
 10
750.5402268724
 20
26.6242743142
 30
0.0
 10
750.6487038618
 20
26.8236940149
 30
0.0
 10
750.6487038618
 20
26.8236940149
 30
0.0
 10
750.4610609151
 20
26.9304699176
 30
0.0
 10
750.4610609151
 20
26.9304699176
 30
0.0
 10
750.3775768147
 20
26.7917659263
 30
0.0
 10
750.2863723978
 20
26.7059264751
 30
0.0
 10
750.1167871405
 20
26.7059264751
 30
0.0
 10
749.9048055689
 20
26.7059264751
 30
0.0
 10
749.7718591018
 20
26.8906906597
 30
0.0
 10
749.769503751
 20
27.087493304
 30
0.0
 10
749.769503751
 20
27.087493304
 30
0.0
 10
750.6487038618
 20
27.087493304
 30
0.0
 10
750.6487038618
 20
27.087493304
 30
0.0
  0
SPLINE
  5
245
100
AcDbEntity
  8
0
100
AcDbSpline
 62
7
  6
CONTINUOUS
 70
2
 71
3
 72
14
 73
10
 74
0
 42
0.0000001
 43
0.0000001
 44
0.0000000001
 40
0.0
 40
0.0
 40
0.0
 40
0.0
 40
1.0
 40
1.0
 40
1.0
 40
2.0
 40
2.0
 40
2.0
 40
3.0
 40
3.0
 40
3.0
 40
3.0
 10
749.7815422106
 20
27.2549849161
 30
0.0
 10
749.809152156
 20
27.4198594718
 30
0.0
 10
749.9369953631
 20
27.5428611244
 30
0.0
 10
750.1091976768
 20
27.5428611244
 30
0.0
 10
750.2863723978
 20
27.5428611244
 30
0.0
 10
750.3998217944
 20
27.4271872298
 30
0.0
 10
750.4270391814
 20
27.2549849161
 30
0.0
 10
750.4270391814
 20
27.2549849161
 30
0.0
 10
749.7815422106
 20
27.2549849161
 30
0.0
 10
749.7815422106
 20
27.2549849161
 30
0.0
  0
SPLINE
  5
246
100
AcDbEntity
  8
0
100
AcDbSpline
 62
7
  6
CONTINUOUS
 70
2
 71
3
 72
20
 73
16
 74
0
 42
0.0000001
 43
0.0000001
 44
0.0000000001
 40
0.0
 40
0.0
 40
0.0
 40
0.0
 40
1.0
 40
1.0
 40
1.0
 40
2.0
 40
2.0
 40
2.0
 40
3.0
 40
3.0
 40
3.0
 40
4.0
 40
4.0
 40
4.0
 40
5.0
 40
5.0
 40
5.0
 40
5.0
 10
752.672735312
 20
27.4643494312
 30
0.0
 10
752.672735312
 20
27.4643494312
 30
0.0
 10
753.0838748786
 20
26.9618745949
 30
0.0
 10
753.0838748786
 20
26.9618745949
 30
0.0
 10
752.9678084255
 20
26.8462007003
 30
0.0
 10
752.830020404
 20
26.7158712896
 30
0.0
 10
752.6580797959
 20
26.7158712896
 30
0.0
 10
752.4806433693
 20
26.7158712896
 30
0.0
 10
752.3131517572
 20
26.880222434
 30
0.0
 10
752.3131517572
 20
27.0571354493
 30
0.0
 10
752.3131517572
 20
27.2350952872
 30
0.0
 10
752.5229088308
 20
27.3612374075
 30
0.0
 10
752.6504903322
 20
27.4491705039
 30
0.0
 10
752.6504903322
 20
27.4491705039
 30
0.0
 10
752.672735312
 20
27.4643494312
 30
0.0
 10
752.672735312
 20
27.4643494312
 30
0.0
  0
SPLINE
  5
247
100
AcDbEntity
  8
0
100
AcDbSpline
 62
7
  6
CONTINUOUS
 70
2
 71
3
 72
23
 73
19
 74
0
 42
0.0000001
 43
0.0000001
 44
0.0000000001
 40
0.0
 40
0.0
 40
0.0
 40
0.0
 40
1.0
 40
1.0
 40
1.0
 40
2.0
 40
2.0
 40
2.0
 40
3.0
 40
3.0
 40
3.0
 40
4.0
 40
4.0
 40
4.0
 40
5.0
 40
5.0
 40
5.0
 40
6.0
 40
6.0
 40
6.0
 40
6.0
 10
752.7220668259
 20
27.7553661073
 30
0.0
 10
752.7220668259
 20
27.7553661073
 30
0.0
 10
752.6604351467
 20
27.8338778005
 30
0.0
 10
752.6604351467
 20
27.8338778005
 30
0.0
 10
752.6065237841
 20
27.9024446792
 30
0.0
 10
752.5497336593
 20
27.9715349692
 30
0.0
 10
752.5497336593
 20
28.0652255897
 30
0.0
 10
752.5497336593
 20
28.1840399521
 30
0.0
 10
752.6456487778
 20
28.2615048227
 30
0.0
 10
752.7566119709
 20
28.2615048227
 30
0.0
 10
752.8798753291
 20
28.2615048227
 30
0.0
 10
752.9731733912
 20
28.1903208875
 30
0.0
 10
752.9731733912
 20
28.0599914768
 30
0.0
 10
752.9731733912
 20
27.9249513646
 30
0.0
 10
752.8450684785
 20
27.8485333165
 30
0.0
 10
752.7515087108
 20
27.7747323249
 30
0.0
 10
752.7515087108
 20
27.7747323249
 30
0.0
 10
752.7220668259
 20
27.7553661073
 30
0.0
 10
752.7220668259
 20
27.7553661073
 30
0.0
  0
SPLINE
  5
248
100
AcDbEntity
  8
0
100
AcDbSpline
 62
7
  6
CONTINUOUS
 70
2
 71
3
 72
50
 73
46
 74
0
 42
0.0000001
 43
0.0000001
 44
0.0000000001
 40
0.0
 40
0.0
 40
0.0
 40
0.0
 40
1.0
 40
1.0
 40
1.0
 40
2.0
 40
2.0
 40
2.0
 40
3.0
 40
3.0
 40
3.0
 40
4.0
 40
4.0
 40
4.0
 40
5.0
 40
5.0
 40
5.0
 40
6.0
 40
6.0
 40
6.0
 40
7.0
 40
7.0
 40
7.0
 40
8.0
 40
8.0
 40
8.0
 40
9.0
 40
9.0
 40
9.0
 40
10.0
 40
10.0
 40
10.0
 40
11.0
 40
11.0
 40
11.0
 40
12.0
 40
12.0
 40
12.0
 40
13.0
 40
13.0
 40
13.0
 40
14.0
 40
14.0
 40
14.0
 40
15.0
 40
15.0
 40
15.0
 40
15.0
 10
753.4242230685
 20
26.5483796775
 30
0.0
 10
753.4242230685
 20
26.5483796775
 30
0.0
 10
753.7096130732
 20
26.5483796775
 30
0.0
 10
753.7096130732
 20
26.5483796775
 30
0.0
 10
753.7096130732
 20
26.5483796775
 30
0.0
 10
753.3772469054
 20
26.9592575384
 30
0.0
 10
753.3772469054
 20
26.9592575384
 30
0.0
 10
753.3772469054
 20
26.9592575384
 30
0.0
 10
753.6037531403
 20
27.2251504727
 30
0.0
 10
753.6037531403
 20
27.2251504727
 30
0.0
 10
753.6037531403
 20
27.2251504727
 30
0.0
 10
753.455496893
 20
27.3779865687
 30
0.0
 10
753.455496893
 20
27.3779865687
 30
0.0
 10
753.455496893
 20
27.3779865687
 30
0.0
 10
753.2395897367
 20
27.1267491506
 30
0.0
 10
753.2395897367
 20
27.1267491506
 30
0.0
 10
753.2395897367
 20
27.1267491506
 30
0.0
 10
752.8525270894
 20
27.5946788419
 30
0.0
 10
752.8525270894
 20
27.5946788419
 30
0.0
 10
753.0079802419
 20
27.7087825027
 30
0.0
 10
753.1902582229
 20
27.8485333165
 30
0.0
 10
753.1902582229
 20
28.0578978317
 30
0.0
 10
753.1902582229
 20
28.3018074918
 30
0.0
 10
752.9882214657
 20
28.4452221847
 30
0.0
 10
752.7617152309
 20
28.4452221847
 30
0.0
 10
752.5175438651
 20
28.4452221847
 30
0.0
 10
752.333172239
 20
28.2944797338
 30
0.0
 10
752.333172239
 20
28.0380082027
 30
0.0
 10
752.333172239
 20
27.8804614051
 30
0.0
 10
752.4318352667
 20
27.7428042364
 30
0.0
 10
752.5371717884
 20
27.6318410434
 30
0.0
 10
752.5371717884
 20
27.6318410434
 30
0.0
 10
752.4216287466
 20
27.5480952373
 30
0.0
 10
752.4216287466
 20
27.5480952373
 30
0.0
 10
752.2439306144
 20
27.4198594718
 30
0.0
 10
752.0965903368
 20
27.2921471175
 30
0.0
 10
752.0965903368
 20
27.0550418041
 30
0.0
 10
752.0965903368
 20
26.734714096
 30
0.0
 10
752.3551555131
 20
26.5086004196
 30
0.0
 10
752.6655384068
 20
26.5086004196
 30
0.0
 10
752.8844551779
 20
26.5086004196
 30
0.0
 10
753.0816503806
 20
26.6336957174
 30
0.0
 10
753.2219246058
 20
26.7996170956
 30
0.0
 10
753.2219246058
 20
26.7996170956
 30
0.0
 10
753.4242230685
 20
26.5483796775
 30
0.0
 10
753.4242230685
 20
26.5483796775
 30
0.0
  0
LWPOLYLINE
  5
249
100
AcDbEntity
  8
0
100
AcDbPolyline
 62
7
  6
CONTINUOUS
 90
2
 70
0
 43
0.2
 10
755.3596671583
 20
28.4049195155
 10
755.128319369
 20
28.4049195155
  0
LWPOLYLINE
  5
24A
100
AcDbEntity
  8
0
100
AcDbPolyline
 62
7
  6
CONTINUOUS
 90
2
 70
0
 43
0.2
 10
755.128319369
 20
28.4049195155
 10
755.128319369
 20
26.5478562662
  0
LWPOLYLINE
  5
24B
100
AcDbEntity
  8
0
100
AcDbPolyline
 62
7
  6
CONTINUOUS
 90
2
 70
0
 43
0.2
 10
755.128319369
 20
26.5478562662
 10
755.9236428209
 20
26.5478562662
  0
LWPOLYLINE
  5
24C
100
AcDbEntity
  8
0
100
AcDbPolyline
 62
7
  6
CONTINUOUS
 90
2
 70
0
 43
0.2
 10
755.9236428209
 20
26.5478562662
 10
755.9236428209
 20
26.7598378378
  0
LWPOLYLINE
  5
24D
100
AcDbEntity
  8
0
100
AcDbPolyline
 62
7
  6
CONTINUOUS
 90
2
 70
0
 43
0.2
 10
755.9236428209
 20
26.7598378378
 10
755.3596671583
 20
26.7598378378
  0
LWPOLYLINE
  5
24E
100
AcDbEntity
  8
0
100
AcDbPolyline
 62
7
  6
CONTINUOUS
 90
2
 70
0
 43
0.2
 10
755.3596671583
 20
26.7598378378
 10
755.3596671583
 20
28.4049195155
  0
LWPOLYLINE
  5
24F
100
AcDbEntity
  8
0
100
AcDbPolyline
 62
7
  6
CONTINUOUS
 90
2
 70
0
 43
0.2
 10
757.6027462324
 20
27.7004079221
 10
757.3816049633
 20
27.7004079221
  0
LWPOLYLINE
  5
250
100
AcDbEntity
  8
0
100
AcDbPolyline
 62
7
  6
CONTINUOUS
 90
2
 70
0
 43
0.2
 10
757.3816049633
 20
27.7004079221
 10
757.3816049633
 20
26.5483796775
  0
LWPOLYLINE
  5
251
100
AcDbEntity
  8
0
100
AcDbPolyline
 62
7
  6
CONTINUOUS
 90
2
 70
0
 43
0.2
 10
757.3816049633
 20
26.5483796775
 10
757.6027462324
 20
26.5483796775
  0
LWPOLYLINE
  5
252
100
AcDbEntity
  8
0
100
AcDbPolyline
 62
7
  6
CONTINUOUS
 90
2
 70
0
 43
0.2
 10
757.6027462324
 20
26.5483796775
 10
757.6027462324
 20
27.7004079221
  0
LWPOLYLINE
  5
253
100
AcDbEntity
  8
0
100
AcDbPolyline
 62
7
  6
CONTINUOUS
 90
2
 70
1
 43
0.2
 10
757.3397229552
 20
28.230361851
 42
1.0
 10
757.6448899461
 20
28.230361851
 42
1.0
  0
SPLINE
  5
254
100
AcDbEntity
  8
0
100
AcDbSpline
 62
7
  6
CONTINUOUS
 70
2
 71
3
 72
17
 73
13
 74
0
 42
0.0000001
 43
0.0000001
 44
0.0000000001
 40
0.0
 40
0.0
 40
0.0
 40
0.0
 40
1.0
 40
1.0
 40
1.0
 40
2.0
 40
2.0
 40
2.0
 40
3.0
 40
3.0
 40
3.0
 40
4.0
 40
4.0
 40
4.0
 40
4.0
 10
759.7330301741
 20
26.7059264751
 30
0.0
 10
759.4990653284
 20
26.7059264751
 30
0.0
 10
759.3687359177
 20
26.9079632322
 30
0.0
 10
759.3687359177
 20
27.1241320941
 30
0.0
 10
759.3687359177
 20
27.3387307222
 30
0.0
 10
759.5045611469
 20
27.5376270115
 30
0.0
 10
759.7330301741
 20
27.5376270115
 30
0.0
 10
759.9724908383
 20
27.5376270115
 30
0.0
 10
760.1080543618
 20
27.3486755366
 30
0.0
 10
760.1080543618
 20
27.1241320941
 30
0.0
 10
760.1080543618
 20
26.8980184178
 30
0.0
 10
759.974846189
 20
26.7059264751
 30
0.0
 10
759.7330301741
 20
26.7059264751
 30
0.0
  0
SPLINE
  5
255
100
AcDbEntity
  8
0
100
AcDbSpline
 62
7
  6
CONTINUOUS
 70
2
 71
3
 72
50
 73
46
 74
0
 42
0.0000001
 43
0.0000001
 44
0.0000000001
 40
0.0
 40
0.0
 40
0.0
 40
0.0
 40
1.0
 40
1.0
 40
1.0
 40
2.0
 40
2.0
 40
2.0
 40
3.0
 40
3.0
 40
3.0
 40
4.0
 40
4.0
 40
4.0
 40
5.0
 40
5.0
 40
5.0
 40
6.0
 40
6.0
 40
6.0
 40
7.0
 40
7.0
 40
7.0
 40
8.0
 40
8.0
 40
8.0
 40
9.0
 40
9.0
 40
9.0
 40
10.0
 40
10.0
 40
10.0
 40
11.0
 40
11.0
 40
11.0
 40
12.0
 40
12.0
 40
12.0
 40
13.0
 40
13.0
 40
13.0
 40
14.0
 40
14.0
 40
14.0
 40
15.0
 40
15.0
 40
15.0
 40
15.0
 10
760.3171571713
 20
27.7009313334
 30
0.0
 10
760.3171571713
 20
27.7009313334
 30
0.0
 10
760.0954924909
 20
27.7009313334
 30
0.0
 10
760.0954924909
 20
27.7009313334
 30
0.0
 10
760.0954924909
 20
27.7009313334
 30
0.0
 10
760.0954924909
 20
27.5036052778
 30
0.0
 10
760.0954924909
 20
27.5036052778
 30
0.0
 10
760.0954924909
 20
27.5036052778
 30
0.0
 10
760.0907817893
 20
27.5036052778
 30
0.0
 10
760.0907817893
 20
27.5036052778
 30
0.0
 10
759.9994465196
 20
27.6464965594
 30
0.0
 10
759.8615276452
 20
27.7349530671
 30
0.0
 10
759.6888019202
 20
27.7349530671
 30
0.0
 10
759.3564357524
 20
27.7349530671
 30
0.0
 10
759.1473329429
 20
27.4470768587
 30
0.0
 10
759.1473329429
 20
27.1314598522
 30
0.0
 10
759.1473329429
 20
26.8017107408
 30
0.0
 10
759.3443972928
 20
26.5086004196
 30
0.0
 10
759.699270146
 20
26.5086004196
 30
0.0
 10
759.8615276452
 20
26.5086004196
 30
0.0
 10
760.0015401647
 20
26.5970569272
 30
0.0
 10
760.0907817893
 20
26.7279097492
 30
0.0
 10
760.0907817893
 20
26.7279097492
 30
0.0
 10
760.0954924909
 20
26.7279097492
 30
0.0
 10
760.0954924909
 20
26.7279097492
 30
0.0
 10
760.0954924909
 20
26.7279097492
 30
0.0
 10
760.0954924909
 20
26.5086004196
 30
0.0
 10
760.0954924909
 20
26.5086004196
 30
0.0
 10
760.0954924909
 20
26.2720185175
 30
0.0
 10
760.0389640718
 20
26.0851606877
 30
0.0
 10
759.7657433795
 20
26.0851606877
 30
0.0
 10
759.5634449168
 20
26.0851606877
 30
0.0
 10
759.4208153408
 20
26.2034516388
 30
0.0
 10
759.4208153408
 20
26.4096756862
 30
0.0
 10
759.4208153408
 20
26.4096756862
 30
0.0
 10
759.1991506604
 20
26.4096756862
 30
0.0
 10
759.1991506604
 20
26.4096756862
 30
0.0
 10
759.2041230677
 20
26.0851606877
 30
0.0
 10
759.4352091513
 20
25.8883580435
 30
0.0
 10
759.7555368594
 20
25.8883580435
 30
0.0
 10
760.2035769218
 20
25.8883580435
 30
0.0
 10
760.3171571713
 20
26.1736171954
 30
0.0
 10
760.3171571713
 20
26.5703629516
 30
0.0
 10
760.3171571713
 20
26.5703629516
 30
0.0
 10
760.3171571713
 20
27.7009313334
 30
0.0
 10
760.3171571713
 20
27.7009313334
 30
0.0
  0
SPLINE
  5
256
100
AcDbEntity
  8
0
100
AcDbSpline
 62
7
  6
CONTINUOUS
 70
2
 71
3
 72
44
 73
40
 74
0
 42
0.0000001
 43
0.0000001
 44
0.0000000001
 40
0.0
 40
0.0
 40
0.0
 40
0.0
 40
1.0
 40
1.0
 40
1.0
 40
2.0
 40
2.0
 40
2.0
 40
3.0
 40
3.0
 40
3.0
 40
4.0
 40
4.0
 40
4.0
 40
5.0
 40
5.0
 40
5.0
 40
6.0
 40
6.0
 40
6.0
 40
7.0
 40
7.0
 40
7.0
 40
8.0
 40
8.0
 40
8.0
 40
9.0
 40
9.0
 40
9.0
 40
10.0
 40
10.0
 40
10.0
 40
11.0
 40
11.0
 40
11.0
 40
12.0
 40
12.0
 40
12.0
 40
13.0
 40
13.0
 40
13.0
 40
13.0
 10
761.8860825067
 20
28.6859913771
 30
0.0
 10
761.8860825067
 20
28.6859913771
 30
0.0
 10
761.8860825067
 20
26.5478562662
 30
0.0
 10
761.8860825067
 20
26.5478562662
 30
0.0
 10
761.8860825067
 20
26.5478562662
 30
0.0
 10
762.1074854815
 20
26.5478562662
 30
0.0
 10
762.1074854815
 20
26.5478562662
 30
0.0
 10
762.1074854815
 20
26.5478562662
 30
0.0
 10
762.1074854815
 20
27.0775484895
 30
0.0
 10
762.1074854815
 20
27.0775484895
 30
0.0
 10
762.1074854815
 20
27.2874364159
 30
0.0
 10
762.1074854815
 20
27.5381504228
 30
0.0
 10
762.3927446334
 20
27.5381504228
 30
0.0
 10
762.6196434267
 20
27.5381504228
 30
0.0
 10
762.646599108
 20
27.4052039557
 30
0.0
 10
762.646599108
 20
27.2089247228
 30
0.0
 10
762.646599108
 20
27.2089247228
 30
0.0
 10
762.646599108
 20
26.5478562662
 30
0.0
 10
762.646599108
 20
26.5478562662
 30
0.0
 10
762.646599108
 20
26.5478562662
 30
0.0
 10
762.868525494
 20
26.5478562662
 30
0.0
 10
762.868525494
 20
26.5478562662
 30
0.0
 10
762.868525494
 20
26.5478562662
 30
0.0
 10
762.868525494
 20
27.2350952872
 30
0.0
 10
762.868525494
 20
27.2350952872
 30
0.0
 10
762.868525494
 20
27.5156437375
 30
0.0
 10
762.7845179823
 20
27.7354764784
 30
0.0
 10
762.4594795726
 20
27.7354764784
 30
0.0
 10
762.3197287587
 20
27.7354764784
 30
0.0
 10
762.1815481787
 20
27.6690032448
 30
0.0
 10
762.1121961831
 20
27.5460015922
 30
0.0
 10
762.1121961831
 20
27.5460015922
 30
0.0
 10
762.1074854815
 20
27.5460015922
 30
0.0
 10
762.1074854815
 20
27.5460015922
 30
0.0
 10
762.1074854815
 20
27.5460015922
 30
0.0
 10
762.1074854815
 20
28.6859913771
 30
0.0
 10
762.1074854815
 20
28.6859913771
 30
0.0
 10
762.1074854815
 20
28.6859913771
 30
0.0
 10
761.8860825067
 20
28.6859913771
 30
0.0
 10
761.8860825067
 20
28.6859913771
 30
0.0
  0
LWPOLYLINE
  5
257
100
AcDbEntity
  8
0
100
AcDbPolyline
 62
7
  6
CONTINUOUS
 90
2
 70
0
 43
0.2
 10
764.7083161709
 20
27.4936604634
 10
764.9247467384
 20
27.4936604634
  0
LWPOLYLINE
  5
258
100
AcDbEntity
  8
0
100
AcDbPolyline
 62
7
  6
CONTINUOUS
 90
2
 70
0
 43
0.2
 10
764.9247467384
 20
27.4936604634
 10
764.9247467384
 20
27.7004079221
  0
LWPOLYLINE
  5
259
100
AcDbEntity
  8
0
100
AcDbPolyline
 62
7
  6
CONTINUOUS
 90
2
 70
0
 43
0.2
 10
764.9247467384
 20
27.7004079221
 10
764.7083161709
 20
27.7004079221
  0
LWPOLYLINE
  5
25A
100
AcDbEntity
  8
0
100
AcDbPolyline
 62
7
  6
CONTINUOUS
 90
2
 70
0
 43
0.2
 10
764.7083161709
 20
27.7004079221
 10
764.7083161709
 20
28.1411202265
  0
LWPOLYLINE
  5
25B
100
AcDbEntity
  8
0
100
AcDbPolyline
 62
7
  6
CONTINUOUS
 90
2
 70
0
 43
0.2
 10
764.7083161709
 20
28.1411202265
 10
764.4866514905
 20
28.1411202265
  0
LWPOLYLINE
  5
25C
100
AcDbEntity
  8
0
100
AcDbPolyline
 62
7
  6
CONTINUOUS
 90
2
 70
0
 43
0.2
 10
764.4866514905
 20
28.1411202265
 10
764.4866514905
 20
27.7004079221
  0
LWPOLYLINE
  5
25D
100
AcDbEntity
  8
0
100
AcDbPolyline
 62
7
  6
CONTINUOUS
 90
2
 70
0
 43
0.2
 10
764.4866514905
 20
27.7004079221
 10
764.3660051886
 20
27.7004079221
  0
LWPOLYLINE
  5
25E
100
AcDbEntity
  8
0
100
AcDbPolyline
 62
7
  6
CONTINUOUS
 90
2
 70
0
 43
0.2
 10
764.3660051886
 20
27.7004079221
 10
764.3660051886
 20
27.4936604634
  0
LWPOLYLINE
  5
25F
100
AcDbEntity
  8
0
100
AcDbPolyline
 62
7
  6
CONTINUOUS
 90
2
 70
0
 43
0.2
 10
764.3660051886
 20
27.4936604634
 10
764.4866514905
 20
27.4936604634
  0
LWPOLYLINE
  5
260
100
AcDbEntity
  8
0
100
AcDbPolyline
 62
7
  6
CONTINUOUS
 90
2
 70
0
 43
0.2
 10
764.4866514905
 20
27.4936604634
 10
764.4866514905
 20
26.5478562662
  0
LWPOLYLINE
  5
261
100
AcDbEntity
  8
0
100
AcDbPolyline
 62
7
  6
CONTINUOUS
 90
2
 70
0
 43
0.2
 10
764.4866514905
 20
26.5478562662
 10
764.7083161709
 20
26.5478562662
  0
LWPOLYLINE
  5
262
100
AcDbEntity
  8
0
100
AcDbPolyline
 62
7
  6
CONTINUOUS
 90
2
 70
0
 43
0.2
 10
764.7083161709
 20
26.5478562662
 10
764.7083161709
 20
27.4936604634
  0
SPLINE
  5
263
100
AcDbEntity
  8
0
100
AcDbSpline
 62
7
  6
CONTINUOUS
 70
2
 71
3
 72
20
 73
16
 74
0
 42
0.0000001
 43
0.0000001
 44
0.0000000001
 40
0.0
 40
0.0
 40
0.0
 40
0.0
 40
1.0
 40
1.0
 40
1.0
 40
2.0
 40
2.0
 40
2.0
 40
3.0
 40
3.0
 40
3.0
 40
4.0
 40
4.0
 40
4.0
 40
5.0
 40
5.0
 40
5.0
 40
5.0
 10
752.4903264781
 20
36.9087827096
 30
0.0
 10
752.4903264781
 20
36.9087827096
 30
0.0
 10
754.8066831326
 20
34.0792212873
 30
0.0
 10
754.8066831326
 20
34.0792212873
 30
0.0
 10
754.1550360792
 20
33.4270508227
 30
0.0
 10
753.3781628752
 20
32.6911345519
 30
0.0
 10
752.4069732306
 20
32.6911345519
 30
0.0
 10
751.4084353461
 20
32.6911345519
 30
0.0
 10
750.4651173526
 20
33.6207129992
 30
0.0
 10
750.4651173526
 20
34.6199051477
 30
0.0
 10
750.4651173526
 20
35.6190972963
 30
0.0
 10
751.6439704257
 20
36.3257025349
 30
0.0
 10
752.365492886
 20
36.8255603148
 30
0.0
 10
752.365492886
 20
36.8255603148
 30
0.0
 10
752.4903264781
 20
36.9087827096
 30
0.0
 10
752.4903264781
 20
36.9087827096
 30
0.0
  0
SPLINE
  5
264
100
AcDbEntity
  8
0
100
AcDbSpline
 62
7
  6
CONTINUOUS
 70
2
 71
3
 72
23
 73
19
 74
0
 42
0.0000001
 43
0.0000001
 44
0.0000000001
 40
0.0
 40
0.0
 40
0.0
 40
0.0
 40
1.0
 40
1.0
 40
1.0
 40
2.0
 40
2.0
 40
2.0
 40
3.0
 40
3.0
 40
3.0
 40
4.0
 40
4.0
 40
4.0
 40
5.0
 40
5.0
 40
5.0
 40
6.0
 40
6.0
 40
6.0
 40
6.0
 10
752.7677344607
 20
38.5465366293
 30
0.0
 10
752.7677344607
 20
38.5465366293
 30
0.0
 10
752.4212361882
 20
38.9898659901
 30
0.0
 10
752.4212361882
 20
38.9898659901
 30
0.0
 10
752.1154331432
 20
39.3779754601
 30
0.0
 10
751.7965448161
 20
39.7664774885
 30
0.0
 10
751.7965448161
 20
40.2934218026
 30
0.0
 10
751.7965448161
 20
40.9595935192
 30
0.0
 10
752.3378829406
 20
41.4033154385
 30
0.0
 10
752.9617891957
 20
41.4033154385
 30
0.0
 10
753.6555708578
 20
41.4033154385
 30
0.0
 10
754.1827768775
 20
41.0010738638
 30
0.0
 10
754.1827768775
 20
40.2660735628
 30
0.0
 10
754.1827768775
 20
39.5028090523
 30
0.0
 10
753.4615161228
 20
39.0726958264
 30
0.0
 10
752.9344409559
 20
38.6569764111
 30
0.0
 10
752.9344409559
 20
38.6569764111
 30
0.0
 10
752.7677344607
 20
38.5465366293
 30
0.0
 10
752.7677344607
 20
38.5465366293
 30
0.0
  0
SPLINE
  5
265
100
AcDbEntity
  8
0
100
AcDbSpline
 62
7
  6
CONTINUOUS
 70
2
 71
3
 72
50
 73
46
 74
0
 42
0.0000001
 43
0.0000001
 44
0.0000000001
 40
0.0
 40
0.0
 40
0.0
 40
0.0
 40
1.0
 40
1.0
 40
1.0
 40
2.0
 40
2.0
 40
2.0
 40
3.0
 40
3.0
 40
3.0
 40
4.0
 40
4.0
 40
4.0
 40
5.0
 40
5.0
 40
5.0
 40
6.0
 40
6.0
 40
6.0
 40
7.0
 40
7.0
 40
7.0
 40
8.0
 40
8.0
 40
8.0
 40
9.0
 40
9.0
 40
9.0
 40
10.0
 40
10.0
 40
10.0
 40
11.0
 40
11.0
 40
11.0
 40
12.0
 40
12.0
 40
12.0
 40
13.0
 40
13.0
 40
13.0
 40
14.0
 40
14.0
 40
14.0
 40
15.0
 40
15.0
 40
15.0
 40
15.0
 10
756.7213216236
 20
31.7479474112
 30
0.0
 10
756.7213216236
 20
31.7479474112
 30
0.0
 10
758.3305496282
 20
31.7479474112
 30
0.0
 10
758.3305496282
 20
31.7479474112
 30
0.0
 10
758.3305496282
 20
31.7479474112
 30
0.0
 10
756.4575223346
 20
34.0650891826
 30
0.0
 10
756.4575223346
 20
34.0650891826
 30
0.0
 10
756.4575223346
 20
34.0650891826
 30
0.0
 10
757.73386076
 20
35.5625688772
 30
0.0
 10
757.73386076
 20
35.5625688772
 30
0.0
 10
757.73386076
 20
35.5625688772
 30
0.0
 10
756.9016368123
 20
36.4235804457
 30
0.0
 10
756.9016368123
 20
36.4235804457
 30
0.0
 10
756.9016368123
 20
36.4235804457
 30
0.0
 10
755.681041689
 20
35.0082763233
 30
0.0
 10
755.681041689
 20
35.0082763233
 30
0.0
 10
755.681041689
 20
35.0082763233
 30
0.0
 10
753.5031273202
 20
37.6436521577
 30
0.0
 10
753.5031273202
 20
37.6436521577
 30
0.0
 10
754.3767007596
 20
38.2816905177
 30
0.0
 10
755.4033720008
 20
39.0726958264
 30
0.0
 10
755.4033720008
 20
40.2515488996
 30
0.0
 10
755.4033720008
 20
41.6252418246
 30
0.0
 10
754.265475861
 20
42.429724974
 30
0.0
 10
752.9901842581
 20
42.429724974
 30
0.0
 10
751.6167530387
 20
42.429724974
 30
0.0
 10
750.5758188399
 20
41.5834997744
 30
0.0
 10
750.5758188399
 20
40.1408474122
 30
0.0
 10
750.5758188399
 20
39.2532727208
 30
0.0
 10
751.1311582164
 20
38.4763995167
 30
0.0
 10
751.7273236733
 20
37.8519698503
 30
0.0
 10
751.7273236733
 20
37.8519698503
 30
0.0
 10
751.0754149142
 20
37.3803762799
 30
0.0
 10
751.0754149142
 20
37.3803762799
 30
0.0
 10
750.0768770298
 20
36.6591155253
 30
0.0
 10
749.243998818
 20
35.9378547706
 30
0.0
 10
749.243998818
 20
34.6062964542
 30
0.0
 10
749.243998818
 20
32.8026211562
 30
0.0
 10
750.7010449906
 20
31.5260210251
 30
0.0
 10
752.4485844279
 20
31.5260210251
 30
0.0
 10
753.6834425088
 20
31.5260210251
 30
0.0
 10
754.7928127335
 20
32.2341964976
 30
0.0
 10
755.5836871895
 20
33.1627281223
 30
0.0
 10
755.5836871895
 20
33.1627281223
 30
0.0
 10
756.7213216236
 20
31.7479474112
 30
0.0
 10
756.7213216236
 20
31.7479474112
 30
0.0
  0
LINE
  5
266
100
AcDbEntity
  8
0
100
AcDbLine
 62
7
  6
CONTINUOUS
 10
742.5241829986
 20
29.7218223158
 11
764.9380937263
 21
29.7218223158
  0
LINE
  5
267
100
AcDbEntity
  8
0
100
AcDbLine
 62
7
  6
CONTINUOUS
 10
764.9380937263
 20
29.7218223158
 11
764.9380937263
 21
52.1357330435
  0
LINE
  5
268
100
AcDbEntity
  8
0
100
AcDbLine
 62
7
  6
CONTINUOUS
 10
764.9380937263
 20
52.1357330435
 11
742.5241829986
 21
52.1357330435
  0
LINE
  5
269
100
AcDbEntity
  8
0
100
AcDbLine
 62
7
  6
CONTINUOUS
 10
742.5241829986
 20
52.1357330435
 11
742.5241829986
 21
29.7218223158
  0
ENDBLK
  5
26A
100
AcDbEntity
  8
0
  6
BYBLOCK
 62
0
100
AcDbBlockEnd
  0
BLOCK
  5
26B
100
AcDbEntity
  8
0
100
AcDbBlockBegin
  2
_CLOSED
 70
64
 10
0.0
 20
0.0
  3
_CLOSED
  1

  0
LINE
  5
26C
100
AcDbEntity
  8
0
  6
BYBLOCK
 62
0
100
AcDbLine
 10
0.0
 20
0.0
 11
-1.0
 21
0.2
  0
LINE
  5
26D
100
AcDbEntity
  8
0
  6
BYBLOCK
 62
0
100
AcDbLine
 10
-1.0
 20
0.2
 11
-1.0
 21
-0.2
  0
LINE
  5
26E
100
AcDbEntity
  8
0
  6
BYBLOCK
 62
0
100
AcDbLine
 10
-1.0
 20
-0.2
 11
0.0
 21
0.0
  0
LINE
  5
26F
100
AcDbEntity
  8
0
  6
BYBLOCK
 62
0
100
AcDbLine
 10
-1.0
 20
0.0
 11
0.0
 21
0.0
  0
ENDBLK
  5
270
100
AcDbEntity
  8
0
  6
BYBLOCK
 62
0
100
AcDbBlockEnd
  0
BLOCK
  5
271
100
AcDbEntity
  8
0
100
AcDbBlockBegin
 62
2
  6
CONTINUOUS
  2
*D0
 70
65
 10
0.0
 20
0.0
  3
*D0
  1

  0
MTEXT
  5
272
100
AcDbEntity
  8
0
100
AcDbMText
 62
2
  6
CONTINUOUS
  7
STANDARD
 71
2
 72
1
 10
464.7956381573
 20
821.6411290323
 30
0.0
 11
0.0
 21
1.0
 31
0.0
  1
500
 40
3.0
 41
6.9925650558
  0
LINE
  5
273
100
AcDbEntity
  8
0
100
AcDbLine
 62
2
  6
CONTINUOUS
 10
458.0822096774
 20
1071.6411290323
 11
469.2956381573
 21
1071.6411290323
  0
LINE
  5
274
100
AcDbEntity
  8
0
100
AcDbLine
 62
2
  6
CONTINUOUS
 10
456.6912915074
 20
571.6411290323
 11
469.2956381573
 21
571.6411290323
  0
LINE
  5
275
100
AcDbEntity
  8
0
100
AcDbLine
 62
2
  6
CONTINUOUS
 10
468.5456381573
 20
1071.6411290323
 11
468.5456381573
 21
821.6411290323
  0
LINE
  5
276
100
AcDbEntity
  8
0
100
AcDbLine
 62
2
  6
CONTINUOUS
 10
468.5456381573
 20
571.6411290323
 11
468.5456381573
 21
821.6411290323
  0
INSERT
  5
277
100
AcDbEntity
  8
0
100
AcDbBlockReference
 62
2
  6
CONTINUOUS
  2
_CLOSED
 10
468.5456381573
 20
1071.6411290323
 41
2.5
 42
2.5
 43
2.5
 50
90.0
  0
INSERT
  5
278
100
AcDbEntity
  8
0
100
AcDbBlockReference
 62
2
  6
CONTINUOUS
  2
_CLOSED
 10
468.5456381573
 20
571.6411290323
 41
2.5
 42
2.5
 43
2.5
 50
270.0
  0
ENDBLK
  5
279
100
AcDbEntity
  8
0
  6
BYBLOCK
 62
0
100
AcDbBlockEnd
  0
BLOCK
  5
27A
100
AcDbEntity
  8
0
100
AcDbBlockBegin
 62
2
  6
CONTINUOUS
  2
*D1
 70
65
 10
0.0
 20
0.0
  3
*D1
  1

  0
MTEXT
  5
27B
100
AcDbEntity
  8
0
100
AcDbMText
 62
2
  6
CONTINUOUS
  7
STANDARD
 71
1
 72
1
 10
456.5753587795
 20
576.7280746506
 30
0.0
 11
0.0
 21
1.0
 31
0.0
  1
2
 40
3.0
 41
2.3308550186
  0
LINE
  5
27C
100
AcDbEntity
  8
0
100
AcDbLine
 62
2
  6
CONTINUOUS
 10
456.6331237956
 20
571.6411290323
 11
461.0753587795
 21
571.6411290323
  0
LINE
  5
27D
100
AcDbEntity
  8
0
100
AcDbLine
 62
2
  6
CONTINUOUS
 10
456.6912915074
 20
569.6411290323
 11
461.0753587795
 21
569.6411290323
  0
LINE
  5
27E
100
AcDbEntity
  8
0
100
AcDbLine
 62
2
  6
CONTINUOUS
 10
460.3253587795
 20
571.6411290323
 11
460.3253587795
 21
579.0589296692
  0
LINE
  5
27F
100
AcDbEntity
  8
0
100
AcDbLine
 62
2
  6
CONTINUOUS
 10
460.3253587795
 20
579.0589296692
 11
460.3253587795
 21
570.6411290323
  0
LINE
  5
280
100
AcDbEntity
  8
0
100
AcDbLine
 62
2
  6
CONTINUOUS
 10
460.3253587795
 20
569.6411290323
 11
460.3253587795
 21
568.6411290323
  0
LINE
  5
281
100
AcDbEntity
  8
0
100
AcDbLine
 62
2
  6
CONTINUOUS
 10
460.3253587795
 20
568.6411290323
 11
460.3253587795
 21
570.6411290323
  0
INSERT
  5
282
100
AcDbEntity
  8
0
100
AcDbBlockReference
 62
2
  6
CONTINUOUS
  2
_CLOSED
 10
460.3253587795
 20
571.6411290323
 41
2.5
 42
2.5
 43
2.5
 50
270.0
  0
INSERT
  5
283
100
AcDbEntity
  8
0
100
AcDbBlockReference
 62
2
  6
CONTINUOUS
  2
_CLOSED
 10
460.3253587795
 20
569.6411290323
 41
2.5
 42
2.5
 43
2.5
 50
90.0
  0
ENDBLK
  5
284
100
AcDbEntity
  8
0
  6
BYBLOCK
 62
0
100
AcDbBlockEnd
  0
BLOCK
  5
285
100
AcDbEntity
  8
0
100
AcDbBlockBegin
 62
2
  6
CONTINUOUS
  2
*D2
 70
65
 10
0.0
 20
0.0
  3
*D2
  1

  0
MTEXT
  5
286
100
AcDbEntity
  8
0
100
AcDbMText
 62
2
  6
CONTINUOUS
  7
STANDARD
 71
2
 72
1
 10
464.7956381573
 20
469.641129031
 30
0.0
 11
0.0
 21
1.0
 31
0.0
  1
200
 40
3.0
 41
6.9925650558
  0
LINE
  5
287
100
AcDbEntity
  8
0
100
AcDbLine
 62
2
  6
CONTINUOUS
 10
456.7494592193
 20
569.6411290323
 11
469.2956381573
 21
569.6411290323
  0
LINE
  5
288
100
AcDbEntity
  8
0
100
AcDbLine
 62
2
  6
CONTINUOUS
 10
455.3807965616
 20
369.6411290298
 11
469.2956381573
 21
369.6411290298
  0
LINE
  5
289
100
AcDbEntity
  8
0
100
AcDbLine
 62
2
  6
CONTINUOUS
 10
468.5456381573
 20
569.6411290323
 11
468.5456381573
 21
469.641129031
  0
LINE
  5
28A
100
AcDbEntity
  8
0
100
AcDbLine
 62
2
  6
CONTINUOUS
 10
468.5456381573
 20
369.6411290298
 11
468.5456381573
 21
469.641129031
  0
INSERT
  5
28B
100
AcDbEntity
  8
0
100
AcDbBlockReference
 62
2
  6
CONTINUOUS
  2
_CLOSED
 10
468.5456381573
 20
569.6411290323
 41
2.5
 42
2.5
 43
2.5
 50
90.0
  0
INSERT
  5
28C
100
AcDbEntity
  8
0
100
AcDbBlockReference
 62
2
  6
CONTINUOUS
  2
_CLOSED
 10
468.5456381573
 20
369.6411290298
 41
2.5
 42
2.5
 43
2.5
 50
270.0
  0
ENDBLK
  5
28D
100
AcDbEntity
  8
0
  6
BYBLOCK
 62
0
100
AcDbBlockEnd
  0
BLOCK
  5
28E
100
AcDbEntity
  8
0
100
AcDbBlockBegin
 62
2
  6
CONTINUOUS
  2
*D3
 70
65
 10
0.0
 20
0.0
  3
*D3
  1

  0
MTEXT
  5
28F
100
AcDbEntity
  8
0
100
AcDbMText
 62
2
  6
CONTINUOUS
  7
STANDARD
 71
2
 72
1
 10
473.0798007497
 20
720.641129031
 30
0.0
 11
0.0
 21
1.0
 31
0.0
  1
702
 40
3.0
 41
6.9925650558
  0
LINE
  5
290
100
AcDbEntity
  8
0
100
AcDbLine
 62
2
  6
CONTINUOUS
 10
457.9251082581
 20
1071.6411290323
 11
477.5798007497
 21
1071.6411290323
  0
LINE
  5
291
100
AcDbEntity
  8
0
100
AcDbLine
 62
2
  6
CONTINUOUS
 10
455.2710264845
 20
369.6411290298
 11
477.5798007497
 21
369.6411290298
  0
LINE
  5
292
100
AcDbEntity
  8
0
100
AcDbLine
 62
2
  6
CONTINUOUS
 10
476.8298007497
 20
1071.6411290323
 11
476.8298007497
 21
720.641129031
  0
LINE
  5
293
100
AcDbEntity
  8
0
100
AcDbLine
 62
2
  6
CONTINUOUS
 10
476.8298007497
 20
369.6411290298
 11
476.8298007497
 21
720.641129031
  0
INSERT
  5
294
100
AcDbEntity
  8
0
100
AcDbBlockReference
 62
2
  6
CONTINUOUS
  2
_CLOSED
 10
476.8298007497
 20
1071.6411290323
 41
2.5
 42
2.5
 43
2.5
 50
90.0
  0
INSERT
  5
295
100
AcDbEntity
  8
0
100
AcDbBlockReference
 62
2
  6
CONTINUOUS
  2
_CLOSED
 10
476.8298007497
 20
369.6411290298
 41
2.5
 42
2.5
 43
2.5
 50
270.0
  0
ENDBLK
  5
296
100
AcDbEntity
  8
0
  6
BYBLOCK
 62
0
100
AcDbBlockEnd
  0
BLOCK
  5
297
100
AcDbEntity
  8
0
100
AcDbBlockBegin
 62
2
  6
CONTINUOUS
  2
*D4
 70
65
 10
0.0
 20
0.0
  3
*D4
  1

  0
MTEXT
  5
298
100
AcDbEntity
  8
0
100
AcDbMText
 62
2
  6
CONTINUOUS
  7
TEXTSTYLE_2
 71
1
 72
1
 10
447.4549819115
 20
227.0963777435
 30
0.0
 11
0.751295065
 21
0.6599664578
 31
0.0
  1
{\Fgdt;n}\Farial.ttf;80
 40
3.0
 41
8.6617100372
  0
LINE
  5
299
100
AcDbEntity
  8
0
100
AcDbLine
 62
2
  6
CONTINUOUS
 10
442.0376896955
 20
217.3462389552
 11
456.4373561331
 21
229.9954593411
  0
INSERT
  5
29A
100
AcDbEntity
  8
0
100
AcDbBlockReference
 62
2
  6
CONTINUOUS
  2
_CLOSED
 10
442.0376896955
 20
217.3462389552
 41
2.5
 42
2.5
 43
2.5
 50
221.2973147195
  0
ENDBLK
  5
29B
100
AcDbEntity
  8
0
  6
BYBLOCK
 62
0
100
AcDbBlockEnd
  0
BLOCK
  5
29C
100
AcDbEntity
  8
0
100
AcDbBlockBegin
 62
2
  6
CONTINUOUS
  2
*D5
 70
65
 10
0.0
 20
0.0
  3
*D5
  1

  0
MTEXT
  5
29D
100
AcDbEntity
  8
0
100
AcDbMText
 62
2
  6
CONTINUOUS
  7
STANDARD
 71
2
 72
1
 10
465.2085001002
 20
190.9475806452
 30
0.0
 11
0.0
 21
1.0
 31
0.0
  1
25
 40
3.0
 41
4.6617100372
  0
LINE
  5
29E
100
AcDbEntity
  8
0
100
AcDbLine
 62
2
  6
CONTINUOUS
 10
462.6646740012
 20
178.4475806452
 11
469.7085001002
 21
178.4475806452
  0
LINE
  5
29F
100
AcDbEntity
  8
0
100
AcDbLine
 62
2
  6
CONTINUOUS
 10
462.8066850166
 20
203.4475806452
 11
469.7085001002
 21
203.4475806452
  0
LINE
  5
2A0
100
AcDbEntity
  8
0
100
AcDbLine
 62
2
  6
CONTINUOUS
 10
468.9585001002
 20
178.4475806452
 11
468.9585001002
 21
190.9475806452
  0
LINE
  5
2A1
100
AcDbEntity
  8
0
100
AcDbLine
 62
2
  6
CONTINUOUS
 10
468.9585001002
 20
203.4475806452
 11
468.9585001002
 21
190.9475806452
  0
INSERT
  5
2A2
100
AcDbEntity
  8
0
100
AcDbBlockReference
 62
2
  6
CONTINUOUS
  2
_CLOSED
 10
468.9585001002
 20
178.4475806452
 41
2.5
 42
2.5
 43
2.5
 50
270.0
  0
INSERT
  5
2A3
100
AcDbEntity
  8
0
100
AcDbBlockReference
 62
2
  6
CONTINUOUS
  2
_CLOSED
 10
468.9585001002
 20
203.4475806452
 41
2.5
 42
2.5
 43
2.5
 50
90.0
  0
ENDBLK
  5
2A4
100
AcDbEntity
  8
0
  6
BYBLOCK
 62
0
100
AcDbBlockEnd
  0
BLOCK
  5
2A5
100
AcDbEntity
  8
0
100
AcDbBlockBegin
 62
2
  6
CONTINUOUS
  2
*D6
 70
65
 10
0.0
 20
0.0
  3
*D6
  1

  0
MTEXT
  5
2A6
100
AcDbEntity
  8
0
100
AcDbMText
 62
2
  6
CONTINUOUS
  7
STANDARD
 71
2
 72
1
 10
411.9858870968
 20
243.7887324222
 30
0.0
 11
1.0
 21
0.0
 31
0.0
  1
46
 40
3.0
 41
4.6617100372
  0
LINE
  5
2A7
100
AcDbEntity
  8
0
100
AcDbLine
 62
2
  6
CONTINUOUS
 10
434.9858870968
 20
234.6766429353
 11
434.9858870968
 21
240.7887324222
  0
LINE
  5
2A8
100
AcDbEntity
  8
0
100
AcDbLine
 62
2
  6
CONTINUOUS
 10
388.9858870968
 20
234.3926209044
 11
388.9858870968
 21
240.7887324222
  0
LINE
  5
2A9
100
AcDbEntity
  8
0
100
AcDbLine
 62
2
  6
CONTINUOUS
 10
434.9858870968
 20
240.0387324222
 11
411.9858870968
 21
240.0387324222
  0
LINE
  5
2AA
100
AcDbEntity
  8
0
100
AcDbLine
 62
2
  6
CONTINUOUS
 10
388.9858870968
 20
240.0387324222
 11
411.9858870968
 21
240.0387324222
  0
INSERT
  5
2AB
100
AcDbEntity
  8
0
100
AcDbBlockReference
 62
2
  6
CONTINUOUS
  2
_CLOSED
 10
434.9858870968
 20
240.0387324222
 41
2.5
 42
2.5
 43
2.5
  0
INSERT
  5
2AC
100
AcDbEntity
  8
0
100
AcDbBlockReference
 62
2
  6
CONTINUOUS
  2
_CLOSED
 10
388.9858870968
 20
240.0387324222
 41
2.5
 42
2.5
 43
2.5
 50
180.0
  0
ENDBLK
  5
2AD
100
AcDbEntity
  8
0
  6
BYBLOCK
 62
0
100
AcDbBlockEnd
  0
ENDSEC
  0
SECTION
  2
ENTITIES
  0
DIMENSION
  5
2AE
100
AcDbEntity
  8
0
100
AcDbDimension
 62
2
  6
CONTINUOUS
  2
*D0
 10
468.5456381573
 20
571.6411290323
 11
468.5456381573
 21
821.6306208181
 70
160
  3
DIMSTYLE_1
100
AcDbAlignedDimension
 13
457.3322096774
 23
1071.6411290323
 14
455.9412915074
 24
571.6411290323
 50
270.0
100
AcDbRotatedDimension
  0
DIMENSION
  5
2AF
100
AcDbEntity
  8
0
100
AcDbDimension
 62
2
  6
CONTINUOUS
  2
*D1
 10
460.3253587795
 20
569.6411290323
 11
460.3253587795
 21
577.8433069447
 70
160
  3
DIMSTYLE_2
100
AcDbAlignedDimension
 13
455.8831237956
 23
571.6411290323
 14
455.9412915074
 24
569.6411290323
 50
270.0
100
AcDbRotatedDimension
  0
DIMENSION
  5
2B0
100
AcDbEntity
  8
0
100
AcDbDimension
 62
2
  6
CONTINUOUS
  2
*D2
 10
468.5456381573
 20
369.6411290298
 11
468.5456381573
 21
469.6027536294
 70
160
  3
DIMSTYLE_3
100
AcDbAlignedDimension
 13
455.9994592193
 23
569.6411290323
 14
454.6307965616
 24
369.6411290298
 50
270.0
100
AcDbRotatedDimension
  0
DIMENSION
  5
2B1
100
AcDbEntity
  8
0
100
AcDbDimension
 62
2
  6
CONTINUOUS
  2
*D3
 10
476.8298007497
 20
369.6411290298
 11
476.8298007497
 21
720.6250341433
 70
160
  3
DIMSTYLE_1
100
AcDbAlignedDimension
 13
457.1751082581
 23
1071.6411290323
 14
454.5210264845
 24
369.6411290298
 50
270.0
100
AcDbRotatedDimension
  0
DIMENSION
  5
2B2
100
AcDbEntity
  8
0
100
AcDbDimension
 62
2
  6
CONTINUOUS
  2
*D4
 10
442.0376896955
 20
217.3462389552
 11
451.6986816007
 21
228.8276541917
 70
163
  1
%%c<>
  3
DIMSTYLE_4
100
AcDbDiametricDimension
 15
381.9340844981
 25
164.5489223351
  0
DIMENSION
  5
2B3
100
AcDbEntity
  8
0
100
AcDbDimension
 62
2
  6
CONTINUOUS
  2
*D5
 10
468.9585001002
 20
203.4475806452
 11
468.9585001002
 21
190.9228172871
 70
160
  3
DIMSTYLE_5
100
AcDbAlignedDimension
 13
461.9146740012
 23
178.4475806452
 14
462.0566850166
 24
203.4475806452
 50
90.0
100
AcDbRotatedDimension
  0
DIMENSION
  5
2B4
100
AcDbEntity
  8
0
100
AcDbDimension
 62
2
  6
CONTINUOUS
  2
*D6
 10
388.9858870968
 20
240.0387324222
 11
411.9109285663
 21
240.0387324222
 70
160
  3
DIMSTYLE_6
100
AcDbAlignedDimension
 13
434.9858870968
 23
233.9266429353
 14
388.9858870968
 24
233.6426209044
 50
180.0
100
AcDbRotatedDimension
  0
LINE
  5
2B5
100
AcDbEntity
  8
0
100
AcDbLine
 62
2
  6
CONTINUOUS
 10
739.9050258913
 20
52.5120455435
 11
829.9050258913
 21
52.5120455435
  0
LINE
  5
2B6
100
AcDbEntity
  8
0
100
AcDbLine
 62
2
  6
CONTINUOUS
 10
739.9050258913
 20
52.5120455435
 11
739.9050258913
 21
12.5120455435
  0
LINE
  5
2B7
100
AcDbEntity
  8
0
100
AcDbLine
 62
2
  6
CONTINUOUS
 10
769.9050258913
 20
46.5120455435
 11
829.9050258913
 21
46.5120455435
  0
LINE
  5
2B8
100
AcDbEntity
  8
0
100
AcDbLine
 62
2
  6
CONTINUOUS
 10
769.9050258913
 20
40.5120455435
 11
829.9050258913
 21
40.5120455435
  0
LINE
  5
2B9
100
AcDbEntity
  8
0
100
AcDbLine
 62
2
  6
CONTINUOUS
 10
769.9050258913
 20
30.5120455435
 11
829.9050258913
 21
30.5120455435
  0
LINE
  5
2BA
100
AcDbEntity
  8
0
100
AcDbLine
 62
2
  6
CONTINUOUS
 10
739.9050258913
 20
25.5120455435
 11
829.9050258913
 21
25.5120455435
  0
LINE
  5
2BB
100
AcDbEntity
  8
0
100
AcDbLine
 62
2
  6
CONTINUOUS
 10
739.9050258913
 20
12.5120455435
 11
829.9050258913
 21
12.5120455435
  0
LINE
  5
2BC
100
AcDbEntity
  8
0
100
AcDbLine
 62
2
  6
CONTINUOUS
 10
769.9050258913
 20
52.5120455435
 11
769.9050258913
 21
25.5120455435
  0
LINE
  5
2BD
100
AcDbEntity
  8
0
100
AcDbLine
 62
2
  6
CONTINUOUS
 10
809.9050258913
 20
52.5120455435
 11
809.9050258913
 21
40.5120455435
  0
LINE
  5
2BE
100
AcDbEntity
  8
0
100
AcDbLine
 62
2
  6
CONTINUOUS
 10
829.9050258913
 20
52.5120455435
 11
829.9050258913
 21
12.5120455435
  0
INSERT
  5
2BF
100
AcDbEntity
  8
0
100
AcDbBlockReference
 62
2
  6
CONTINUOUS
  2
LOGO2_BL0
 10
753.731072936
 20
39.0120455435
  0
MTEXT
  5
2C0
100
AcDbEntity
  8
9_SOLID
100
AcDbMText
 62
2
  6
CONTINUOUS
  7
TEXTSTYLE_3
 71
1
 72
1
 10
771.3925258913
 20
51.0120455435
 30
0.0
 11
1.0
 21
0.0
 31
0.0
  1
452_C_135
 40
3.0
 41
30.9642857143
  0
MTEXT
  5
2C1
100
AcDbEntity
  8
0
100
AcDbMText
 62
2
  6
CONTINUOUS
  7
TEXTSTYLE_3
 71
1
 72
1
 10
811.3925258913
 20
50.7620455435
 30
0.0
 11
1.0
 21
0.0
 31
0.0
  1
Rev:00
 40
3.5
 41
22.75
  0
MTEXT
  5
2C2
100
AcDbEntity
  8
9_SOLID
100
AcDbMText
 62
2
  6
CONTINUOUS
  7
TEXTSTYLE_3
 71
1
 72
1
 10
771.3925258913
 20
44.7620455435
 30
0.0
 11
1.0
 21
0.0
 31
0.0
  1
Scale:1:1
 40
3.5
 41
28.375
  0
MTEXT
  5
2C3
100
AcDbEntity
  8
9_SOLID
100
AcDbMText
 62
2
  6
CONTINUOUS
  7
TEXTSTYLE_3
 71
1
 72
1
 10
811.3925258913
 20
45.2620455435
 30
0.0
 11
1.0
 21
0.0
 31
0.0
  1
A0
 40
3.5
 41
9.625
  0
MTEXT
  5
2C4
100
AcDbEntity
  8
0
100
AcDbMText
 62
2
  6
CONTINUOUS
  7
TEXTSTYLE_3
 71
1
 72
1
 10
771.3925258913
 20
36.6370455435
 30
0.0
 11
1.0
 21
0.0
 31
0.0
  1
PICCHETTO PER FISSAGGIO H 800 mm
 40
2.25
 41
85.3392857143
  0
MTEXT
  5
2C5
100
AcDbEntity
  8
0
100
AcDbMText
 62
2
  6
CONTINUOUS
  7
TEXTSTYLE_3
 71
1
 72
1
 10
771.3925258913
 20
29.2620455435
 30
0.0
 11
1.0
 21
0.0
 31
0.0
  1
DATE:03/07/2018
 40
2.5
 41
42.7678571429
  0
MTEXT
  5
2C6
100
AcDbEntity
  8
9_SOLID
100
AcDbMText
 62
2
  6
CONTINUOUS
  7
TEXTSTYLE_3
 71
1
 72
1
 10
741.3925258913
 20
25.1995455435
 30
0.0
 11
1.0
 21
0.0
 31
0.0
  1
Any integral or partial reproductions are prohibited \Pwithout prior authorisation of L {\Ftxt.shx;\W0.190476;\H2.250000; }& L Luce & Light s.r.l., \Pin accordance with the law in force. \PAll rights reserved.
 40
2.25
 41
134.5982142857
  0
LINE
  5
2C7
100
AcDbEntity
  8
0
100
AcDbLine
 62
7
  6
CONTINUOUS
 10
0.0
 20
0.0
 11
841.0
 21
0.0
  0
LINE
  5
2C8
100
AcDbEntity
  8
0
100
AcDbLine
 62
7
  6
CONTINUOUS
 10
0.0
 20
0.0
 11
0.0
 21
1189.0
  0
LINE
  5
2C9
100
AcDbEntity
  8
0
100
AcDbLine
 62
7
  6
CONTINUOUS
 10
841.0
 20
0.0
 11
841.0
 21
1189.0
  0
LINE
  5
2CA
100
AcDbEntity
  8
0
100
AcDbLine
 62
7
  6
CONTINUOUS
 10
0.0
 20
1189.0
 11
841.0
 21
1189.0
  0
LINE
  5
2CB
100
AcDbEntity
  8
02___PRT_ALL_AXES
100
AcDbLine
 62
7
  6
CONTINUOUS
 10
451.9858844993
 20
569.6411290323
 11
371.9858896942
 21
569.6411290323
  0
LINE
  5
2CC
100
AcDbEntity
  8
02___PRT_ALL_AXES
100
AcDbLine
 62
7
  6
CONTINUOUS
 10
451.9858844993
 20
571.6411290323
 11
371.9858896942
 21
571.6411290323
  0
LINE
  5
2CD
100
AcDbEntity
  8
02___PRT_ALL_AXES
100
AcDbLine
 62
7
  6
CONTINUOUS
 10
371.9858870968
 20
571.6411290323
 11
371.9858870968
 21
569.6411290323
  0
LINE
  5
2CE
100
AcDbEntity
  8
7_ALL_FEATURES
100
AcDbLine
 62
7
  6
CONTINUOUS
 10
388.9858870968
 20
1069.6411290323
 11
388.9858870968
 21
1071.6411290323
  0
LINE
  5
2CF
100
AcDbEntity
  8
7_ALL_FEATURES
100
AcDbLine
 62
9
  6
CONTINUOUS
 10
397.9858870968
 20
1069.6411290323
 11
397.9858870968
 21
1071.6411290323
  0
LINE
  5
2D0
100
AcDbEntity
  8
02___PRT_ALL_AXES
100
AcDbLine
 62
7
  6
CONTINUOUS
 10
401.9858870968
 20
397.1159032268
 11
401.9858870968
 21
540.6411290323
  0
LINE
  5
2D1
100
AcDbEntity
  8
02___PRT_ALL_AXES
100
AcDbLine
 62
7
  6
CONTINUOUS
 10
401.9858870968
 20
558.6411290323
 11
401.9858870968
 21
569.6411290323
  0
LINE
  5
2D2
100
AcDbEntity
  8
02___PRT_ALL_AXES
100
AcDbLine
 62
7
  6
CONTINUOUS
 10
401.9858870968
 20
571.6411290323
 11
401.9858870968
 21
1069.6411290323
  0
LINE
  5
2D3
100
AcDbEntity
  8
02___PRT_ALL_AXES
100
AcDbLine
 62
7
  6
CONTINUOUS
 10
403.9858870968
 20
546.6411290323
 11
403.9858870968
 21
552.6411290323
  0
LINE
  5
2D4
100
AcDbEntity
  8
02___PRT_ALL_AXES
100
AcDbLine
 62
7
  6
CONTINUOUS
 10
421.9858870968
 20
397.1159032268
 11
421.9858870968
 21
569.6411290323
  0
LINE
  5
2D5
100
AcDbEntity
  8
02___PRT_ALL_AXES
100
AcDbLine
 62
7
  6
CONTINUOUS
 10
421.9858870968
 20
571.6411290323
 11
421.9858870968
 21
1069.6411290323
  0
LINE
  5
2D6
100
AcDbEntity
  8
7_ALL_FEATURES
100
AcDbLine
 62
9
  6
CONTINUOUS
 10
425.9858870968
 20
1069.6411290323
 11
425.9858870968
 21
1071.6411290323
  0
LINE
  5
2D7
100
AcDbEntity
  8
7_ALL_FEATURES
100
AcDbLine
 62
7
  6
CONTINUOUS
 10
434.9858870968
 20
1069.6411290323
 11
434.9858870968
 21
1071.6411290323
  0
LINE
  5
2D8
100
AcDbEntity
  8
02___PRT_ALL_AXES
100
AcDbLine
 62
7
  6
CONTINUOUS
 10
451.9858870968
 20
571.6411290323
 11
451.9858870968
 21
569.6411290323
  0
LINE
  5
2D9
100
AcDbEntity
  8
7_ALL_FEATURES
100
AcDbLine
 62
7
  6
CONTINUOUS
 10
388.9858870968
 20
1069.6411290323
 11
434.9858870968
 21
1069.6411290323
  0
LINE
  5
2DA
100
AcDbEntity
  8
7_ALL_FEATURES
100
AcDbLine
 62
3
  6
CONTINUOUS
 10
388.9858870968
 20
1071.6411290323
 11
434.9858870968
 21
1071.6411290323
  0
LINE
  5
2DB
100
AcDbEntity
  8
7_ALL_FEATURES
100
AcDbLine
 62
3
  6
CONTINUOUS
 10
388.9858870968
 20
194.4475806452
 11
388.9858870968
 21
194.0975806452
  0
LINE
  5
2DC
100
AcDbEntity
  8
7_ALL_FEATURES
100
AcDbLine
 62
3
  6
CONTINUOUS
 10
388.9858870968
 20
187.7975806452
 11
388.9858870968
 21
187.4475806452
  0
LINE
  5
2DD
100
AcDbEntity
  8
7_ALL_FEATURES
100
AcDbLine
 62
3
  6
CONTINUOUS
 10
397.9858870968
 20
178.4475806452
 11
425.9858870968
 21
178.4475806452
  0
LINE
  5
2DE
100
AcDbEntity
  8
7_ALL_FEATURES
100
AcDbLine
 62
3
  6
CONTINUOUS
 10
434.4858870968
 20
188.2975806452
 11
426.7858870968
 21
188.2975806452
  0
LINE
  5
2DF
100
AcDbEntity
  8
7_ALL_FEATURES
100
AcDbLine
 62
3
  6
CONTINUOUS
 10
389.4858870968
 20
188.2975806452
 11
397.1858870968
 21
188.2975806452
  0
LINE
  5
2E0
100
AcDbEntity
  8
7_ALL_FEATURES
100
AcDbLine
 62
3
  6
CONTINUOUS
 10
434.4858870968
 20
193.5975806452
 11
426.7858870968
 21
193.5975806452
  0
LINE
  5
2E1
100
AcDbEntity
  8
7_ALL_FEATURES
100
AcDbLine
 62
3
  6
CONTINUOUS
 10
389.4858870968
 20
193.5975806452
 11
397.1858870968
 21
193.5975806452
  0
LINE
  5
2E2
100
AcDbEntity
  8
7_ALL_FEATURES
100
AcDbLine
 62
3
  6
CONTINUOUS
 10
425.9858870968
 20
203.4475806452
 11
397.9858870968
 21
203.4475806452
  0
LINE
  5
2E3
100
AcDbEntity
  8
7_ALL_FEATURES
100
AcDbLine
 62
3
  6
CONTINUOUS
 10
434.9858870968
 20
187.4475806452
 11
434.9858870968
 21
187.7975806452
  0
LINE
  5
2E4
100
AcDbEntity
  8
7_ALL_FEATURES
100
AcDbLine
 62
3
  6
CONTINUOUS
 10
434.9858870968
 20
194.0975806452
 11
434.9858870968
 21
194.4475806452
  0
CIRCLE
  5
2E5
100
AcDbEntity
  8
02___PRT_ALL_AXES
100
AcDbCircle
 62
7
  6
CONTINUOUS
 10
411.9858870968
 20
190.9475806452
 40
40.0
  0
CIRCLE
  5
2E6
100
AcDbEntity
  8
7_ALL_FEATURES
100
AcDbCircle
 62
3
  6
CONTINUOUS
 10
411.9858870968
 20
190.9475806452
 40
9.5
  0
ARC
  5
2E7
100
AcDbEntity
  8
7_ALL_FEATURES
100
AcDbCircle
 62
3
  6
CONTINUOUS
 10
397.9858870968
 20
187.4475806452
 40
9.0
100
AcDbArc
 50
180.0
 51
270.0
  0
ARC
  5
2E8
100
AcDbEntity
  8
7_ALL_FEATURES
100
AcDbCircle
 62
3
  6
CONTINUOUS
 10
397.9858870968
 20
194.4475806452
 40
9.0
100
AcDbArc
 50
90.0
 51
180.0
  0
ARC
  5
2E9
100
AcDbEntity
  8
7_ALL_FEATURES
100
AcDbCircle
 62
3
  6
CONTINUOUS
 10
425.9858870968
 20
194.4475806452
 40
9.0
100
AcDbArc
 50
0.0
 51
90.0
  0
ARC
  5
2EA
100
AcDbEntity
  8
7_ALL_FEATURES
100
AcDbCircle
 62
3
  6
CONTINUOUS
 10
425.9858870968
 20
187.4475806452
 40
9.0
100
AcDbArc
 50
270.0
 51
360.0
  0
CIRCLE
  5
2EB
100
AcDbEntity
  8
7_ALL_FEATURES
100
AcDbCircle
 62
7
  6
CONTINUOUS
 10
411.9858870968
 20
190.9475806452
 40
8.5
  0
ARC
  5
2EC
100
AcDbEntity
  8
7_ALL_FEATURES
100
AcDbCircle
 62
3
  6
CONTINUOUS
 10
397.1858870968
 20
190.9475806452
 40
2.65
100
AcDbArc
 50
270.0
 51
90.0
  0
ARC
  5
2ED
100
AcDbEntity
  8
7_ALL_FEATURES
100
AcDbCircle
 62
3
  6
CONTINUOUS
 10
426.7858870968
 20
190.9475806452
 40
2.65
100
AcDbArc
 50
90.0
 51
270.0
  0
ARC
  5
2EE
100
AcDbEntity
  8
7_ALL_FEATURES
100
AcDbCircle
 62
3
  6
CONTINUOUS
 10
389.4858870968
 20
187.7975806452
 40
0.5
100
AcDbArc
 50
90.0
 51
180.0
  0
ARC
  5
2EF
100
AcDbEntity
  8
7_ALL_FEATURES
100
AcDbCircle
 62
3
  6
CONTINUOUS
 10
389.4858870968
 20
194.0975806452
 40
0.5
100
AcDbArc
 50
180.0
 51
270.0
  0
ARC
  5
2F0
100
AcDbEntity
  8
7_ALL_FEATURES
100
AcDbCircle
 62
3
  6
CONTINUOUS
 10
434.4858870968
 20
194.0975806452
 40
0.5
100
AcDbArc
 50
270.0
 51
360.0
  0
ARC
  5
2F1
100
AcDbEntity
  8
7_ALL_FEATURES
100
AcDbCircle
 62
3
  6
CONTINUOUS
 10
434.4858870968
 20
187.7975806452
 40
0.5
100
AcDbArc
 50
0.0
 51
90.0
  0
SPLINE
  5
2F2
100
AcDbEntity
  8
02___PRT_ALL_AXES
100
AcDbSpline
 62
7
  6
CONTINUOUS
 70
0
 71
3
 72
22
 73
18
 74
0
 42
0.0000001
 43
0.0000001
 44
0.0000000001
 40
0.0
 40
0.0
 40
0.0
 40
0.0
 40
0.1876224868
 40
0.3682164304
 40
0.5361936318
 40
0.6868258808
 40
0.7540724082
 40
0.8149623595
 40
0.8686740197
 40
0.914330864
 40
0.9510447408
 40
0.965783589
 40
0.9779831802
 40
0.9875624927
 40
0.9944552055
 40
0.9986107576
 40
1.0
 40
1.0
 40
1.0
 40
1.0
 10
403.9858870968
 20
546.6411290323
 30
0.0
 10
403.9858870968
 20
546.2407682866
 30
0.0
 10
403.9259830706
 20
545.4538655166
 30
0.0
 10
403.681014386
 20
544.3333155662
 30
0.0
 10
403.3396664377
 20
543.3225396912
 30
0.0
 10
403.0136497085
 20
542.565757444
 30
0.0
 10
402.7541567342
 20
542.0304359256
 30
0.0
 10
402.5766158089
 20
541.6853571748
 30
0.0
 10
402.4142872626
 20
541.3843508784
 30
0.0
 10
402.2724677496
 20
541.1309501018
 30
0.0
 10
402.169143629
 20
540.9513164635
 30
0.0
 10
402.100492855
 20
540.8341294945
 30
0.0
 10
402.0610281034
 20
540.7669120565
 30
0.0
 10
402.0294462219
 20
540.7145768986
 30
0.0
 10
402.0076667231
 20
540.6761666927
 30
0.0
 10
401.9926575487
 20
540.6544800637
 30
0.0
 10
401.9880009372
 20
540.643207412
 30
0.0
 10
401.9858870968
 20
540.6411290323
 30
0.0
  0
SPLINE
  5
2F3
100
AcDbEntity
  8
02___PRT_ALL_AXES
100
AcDbSpline
 62
7
  6
CONTINUOUS
 70
0
 71
3
 72
23
 73
19
 74
0
 42
0.0000001
 43
0.0000001
 44
0.0000000001
 40
0.0
 40
0.0
 40
0.0
 40
0.0
 40
0.0013892086
 40
0.0055446647
 40
0.0124372167
 40
0.0220163074
 40
0.0342156173
 40
0.0489541312
 40
0.0856671779
 40
0.131322994
 40
0.1850334519
 40
0.245922038
 40
0.3131670589
 40
0.3860221914
 40
0.463818374
 40
0.6317918362
 40
0.8123817612
 40
1.0
 40
1.0
 40
1.0
 40
1.0
 10
401.9858870968
 20
558.6411290322
 30
0.0
 10
401.9837628353
 20
558.6431967515
 30
0.0
 10
401.9987216867
 20
558.6218455057
 30
0.0
 10
402.0038110622
 20
558.6098633485
 30
0.0
 10
402.0312118603
 20
558.5659538812
 30
0.0
 10
402.0603329824
 20
558.5160260859
 30
0.0
 10
402.1007385929
 20
558.447888223
 30
0.0
 10
402.168950939
 20
558.3311301923
 30
0.0
 10
402.2725545831
 20
558.1512231038
 30
0.0
 10
402.4142567811
 20
557.8979371271
 30
0.0
 10
402.576626
 20
557.5968909928
 30
0.0
 10
402.7541516756
 20
557.2518274357
 30
0.0
 10
402.9412607249
 20
556.8658441715
 30
0.0
 10
403.1320121307
 20
556.4417077297
 30
0.0
 10
403.3894542357
 20
555.8123065571
 30
0.0
 10
403.6810201657
 20
554.9489192407
 30
0.0
 10
403.9259813191
 20
553.828399511
 30
0.0
 10
403.9858870968
 20
553.0414896818
 30
0.0
 10
403.9858870968
 20
552.6411290323
 30
0.0
  0
ELLIPSE
  5
2F4
100
AcDbEntity
  8
7_ALL_FEATURES
100
AcDbEllipse
 62
7
  6
CONTINUOUS
 10
411.9858870968
 20
397.1159032268
 30
0.0
 11
0.0
 21
27.4747741945
 31
0.0
 40
0.3639702343
 41
0.0
 42
6.2831853072
  0
ELLIPSE
  5
2F5
100
AcDbEntity
  8
7_ALL_FEATURES
100
AcDbEllipse
 62
7
  6
CONTINUOUS
 10
411.9858870968
 20
397.1159032268
 30
0.0
 11
-0.0
 21
23.3535580654
 31
0.0
 40
0.3639702343
 41
0.0
 42
6.2831853072
  0
ENDSEC
  0
SECTION
  2
OBJECTS
  0
DICTIONARY
  5
2F6
100
AcDbDictionary
  3
ACAD_GROUP
350
2F7
  3
ACAD_MLINESTYLE
350
2F8
  0
DICTIONARY
  5
2F7
102
{ACAD_REACTORS
330
2F6
102
}
100
AcDbDictionary
  0
DICTIONARY
  5
2F8
102
{ACAD_REACTORS
330
2F6
102
}
100
AcDbDictionary
  3
STANDARD
350
2F9
  0
MLINESTYLE
  5
2F9
102
{ACAD_REACTORS
330
2F8
102
}
100
AcDbMlineStyle
  2
STANDARD
 70
0
  3

 62
256
 51
90.0
 52
90.0
 71
2
 49
0.5
 62
256
  6
BYLAYER
 49
-0.5
 62
256
  6
BYLAYER
  0
ENDSEC
  0
EOF
