  0
SECTION
  2
HEADER
  9
$ACADVER
  1
AC1027
  9
$ACADMAINTVER
 70
   105
  9
$DWGCODEPAGE
  3
ANSI_1252
  9
$REQUIREDVERSIONS
160
                 0
  9
$LASTSAVEDBY
  1
andrea.zolin
  9
$INSBASE
 10
0.0
 20
0.0
 30
0.0
  9
$EXTMIN
 10
0.0
 20
0.0
 30
0.0
  9
$EXTMAX
 10
1189.0
 20
841.0
 30
0.0
  9
$LIMMIN
 10
0.0
 20
0.0
  9
$LIMMAX
 10
1189.0
 20
841.0
  9
$ORTHOMODE
 70
     0
  9
$REGENMODE
 70
     1
  9
$FILLMODE
 70
     1
  9
$QTEXTMODE
 70
     0
  9
$MIRRTEXT
 70
     1
  9
$LTSCALE
 40
65.395
  9
$ATTMODE
 70
     1
  9
$TEXTSIZE
 40
0.2
  9
$TRACEWID
 40
0.05
  9
$TEXTSTYLE
  7
STANDARD
  9
$CLAYER
  8
0
  9
$CELTYPE
  6
BYLAYER
  9
$CECOLOR
 62
   256
  9
$CELTSCALE
 40
1.0
  9
$DISPSILH
 70
     0
  9
$DIMSCALE
 40
1.0
  9
$DIMASZ
 40
2.5
  9
$DIMEXO
 40
0.75
  9
$DIMDLI
 40
45.182
  9
$DIMRND
 40
0.0
  9
$DIMDLE
 40
0.0
  9
$DIMEXE
 40
0.75
  9
$DIMTP
 40
0.01
  9
$DIMTM
 40
0.01
  9
$DIMTXT
 40
3.0
  9
$DIMCEN
 40
10.701
  9
$DIMTSZ
 40
0.0
  9
$DIMTOL
 70
     1
  9
$DIMLIM
 70
     0
  9
$DIMTIH
 70
     1
  9
$DIMTOH
 70
     1
  9
$DIMSE1
 70
     0
  9
$DIMSE2
 70
     0
  9
$DIMTAD
 70
     0
  9
$DIMZIN
 70
     0
  9
$DIMBLK
  1
CLOSED
  9
$DIMASO
 70
     1
  9
$DIMSHO
 70
     1
  9
$DIMPOST
  1

  9
$DIMAPOST
  1

  9
$DIMALT
 70
     0
  9
$DIMALTD
 70
     2
  9
$DIMALTF
 40
25.4
  9
$DIMLFAC
 40
1.0
  9
$DIMTOFL
 70
     0
  9
$DIMTVP
 40
0.0
  9
$DIMTIX
 70
     0
  9
$DIMSOXD
 70
     0
  9
$DIMSAH
 70
     0
  9
$DIMBLK1
  1

  9
$DIMBLK2
  1

  9
$DIMSTYLE
  2
STANDARD
  9
$DIMCLRD
 70
     0
  9
$DIMCLRE
 70
     0
  9
$DIMCLRT
 70
     0
  9
$DIMTFAC
 40
1.0
  9
$DIMGAP
 40
0.625
  9
$DIMJUST
 70
     0
  9
$DIMSD1
 70
     0
  9
$DIMSD2
 70
     0
  9
$DIMTOLJ
 70
     1
  9
$DIMTZIN
 70
     0
  9
$DIMALTZ
 70
     0
  9
$DIMALTTZ
 70
     0
  9
$DIMUPT
 70
     0
  9
$DIMDEC
 70
     4
  9
$DIMTDEC
 70
     4
  9
$DIMALTU
 70
     2
  9
$DIMALTTD
 70
     2
  9
$DIMTXSTY
  7
STANDARD
  9
$DIMAUNIT
 70
     0
  9
$DIMADEC
 70
     0
  9
$DIMALTRND
 40
0.0
  9
$DIMAZIN
 70
     0
  9
$DIMDSEP
 70
    46
  9
$DIMATFIT
 70
     3
  9
$DIMFRAC
 70
     0
  9
$DIMLDRBLK
  1

  9
$DIMLUNIT
 70
     2
  9
$DIMLWD
 70
    -2
  9
$DIMLWE
 70
    -2
  9
$DIMTMOVE
 70
     2
  9
$DIMFXL
 40
1.0
  9
$DIMFXLON
 70
     0
  9
$DIMJOGANG
 40
0.7853981633974483
  9
$DIMTFILL
 70
     0
  9
$DIMTFILLCLR
 70
     0
  9
$DIMARCSYM
 70
     0
  9
$DIMLTYPE
  6

  9
$DIMLTEX1
  6

  9
$DIMLTEX2
  6

  9
$DIMTXTDIRECTION
 70
     0
  9
$LUNITS
 70
     2
  9
$LUPREC
 70
     4
  9
$SKETCHINC
 40
0.1
  9
$FILLETRAD
 40
0.5
  9
$AUNITS
 70
     0
  9
$AUPREC
 70
     0
  9
$MENU
  1
.
  9
$ELEVATION
 40
0.0
  9
$PELEVATION
 40
0.0
  9
$THICKNESS
 40
0.0
  9
$LIMCHECK
 70
     0
  9
$CHAMFERA
 40
0.0
  9
$CHAMFERB
 40
0.0
  9
$CHAMFERC
 40
0.0
  9
$CHAMFERD
 40
0.0
  9
$SKPOLY
 70
     0
  9
$TDCREATE
 40
2447893.041666667
  9
$TDUCREATE
 40
0.0
  9
$TDUPDATE
 40
2458473.56742618
  9
$TDUUPDATE
 40
2458473.525759514
  9
$TDINDWG
 40
0.0001689005
  9
$TDUSRTIMER
 40
0.0001689005
  9
$USRTIMER
 70
     1
  9
$ANGBASE
 50
0.0
  9
$ANGDIR
 70
     0
  9
$PDMODE
 70
     3
  9
$PDSIZE
 40
0.3125
  9
$PLINEWID
 40
0.0
  9
$SPLFRAME
 70
     0
  9
$SPLINETYPE
 70
     6
  9
$SPLINESEGS
 70
     8
  9
$HANDSEED
  5
43A
  9
$SURFTAB1
 70
     6
  9
$SURFTAB2
 70
     6
  9
$SURFTYPE
 70
     6
  9
$SURFU
 70
     6
  9
$SURFV
 70
     6
  9
$UCSBASE
  2

  9
$UCSNAME
  2

  9
$UCSORG
 10
0.0
 20
0.0
 30
0.0
  9
$UCSXDIR
 10
1.0
 20
0.0
 30
0.0
  9
$UCSYDIR
 10
0.0
 20
1.0
 30
0.0
  9
$UCSORTHOREF
  2

  9
$UCSORTHOVIEW
 70
     0
  9
$UCSORGTOP
 10
0.0
 20
0.0
 30
0.0
  9
$UCSORGBOTTOM
 10
0.0
 20
0.0
 30
0.0
  9
$UCSORGLEFT
 10
0.0
 20
0.0
 30
0.0
  9
$UCSORGRIGHT
 10
0.0
 20
0.0
 30
0.0
  9
$UCSORGFRONT
 10
0.0
 20
0.0
 30
0.0
  9
$UCSORGBACK
 10
0.0
 20
0.0
 30
0.0
  9
$PUCSBASE
  2

  9
$PUCSNAME
  2

  9
$PUCSORG
 10
0.0
 20
0.0
 30
0.0
  9
$PUCSXDIR
 10
1.0
 20
0.0
 30
0.0
  9
$PUCSYDIR
 10
0.0
 20
1.0
 30
0.0
  9
$PUCSORTHOREF
  2

  9
$PUCSORTHOVIEW
 70
     0
  9
$PUCSORGTOP
 10
0.0
 20
0.0
 30
0.0
  9
$PUCSORGBOTTOM
 10
0.0
 20
0.0
 30
0.0
  9
$PUCSORGLEFT
 10
0.0
 20
0.0
 30
0.0
  9
$PUCSORGRIGHT
 10
0.0
 20
0.0
 30
0.0
  9
$PUCSORGFRONT
 10
0.0
 20
0.0
 30
0.0
  9
$PUCSORGBACK
 10
0.0
 20
0.0
 30
0.0
  9
$USERI1
 70
     0
  9
$USERI2
 70
     0
  9
$USERI3
 70
     0
  9
$USERI4
 70
     0
  9
$USERI5
 70
     0
  9
$USERR1
 40
0.0
  9
$USERR2
 40
0.0
  9
$USERR3
 40
0.0
  9
$USERR4
 40
0.0
  9
$USERR5
 40
0.0
  9
$WORLDVIEW
 70
     1
  9
$SHADEDGE
 70
     3
  9
$SHADEDIF
 70
    70
  9
$TILEMODE
 70
     0
  9
$MAXACTVP
 70
    64
  9
$PINSBASE
 10
0.0
 20
0.0
 30
0.0
  9
$PLIMCHECK
 70
     0
  9
$PEXTMIN
 10
-3.0
 20
0.0
 30
0.0
  9
$PEXTMAX
 10
1189.0
 20
841.0
 30
0.0
  9
$PLIMMIN
 10
-27.54280155642023
 20
-65.44747081712062
  9
$PLIMMAX
 10
1346.854085603113
 20
906.4474708171206
  9
$UNITMODE
 70
     0
  9
$VISRETAIN
 70
     1
  9
$PLINEGEN
 70
     0
  9
$PSLTSCALE
 70
     1
  9
$TREEDEPTH
 70
  3020
  9
$CMLSTYLE
  2
STANDARD
  9
$CMLJUST
 70
     0
  9
$CMLSCALE
 40
1.0
  9
$PROXYGRAPHICS
 70
     1
  9
$MEASUREMENT
 70
     1
  9
$CELWEIGHT
370
    -1
  9
$ENDCAPS
280
     0
  9
$JOINSTYLE
280
     0
  9
$LWDISPLAY
290
     0
  9
$INSUNITS
 70
     0
  9
$HYPERLINKBASE
  1

  9
$STYLESHEET
  1

  9
$XEDIT
290
     1
  9
$CEPSNTYPE
380
     0
  9
$PSTYLEMODE
290
     1
  9
$FINGERPRINTGUID
  2
{AD26F107-7A84-437D-899B-3F0BBA033994}
  9
$VERSIONGUID
  2
{FAEB1C32-E019-11D5-929B-00C0DF256EC4}
  9
$EXTNAMES
290
     1
  9
$PSVPSCALE
 40
0.0
  9
$OLESTARTUP
290
     0
  9
$SORTENTS
280
   127
  9
$INDEXCTL
280
     0
  9
$HIDETEXT
280
     1
  9
$XCLIPFRAME
280
     2
  9
$HALOGAP
280
     0
  9
$OBSCOLOR
 70
   257
  9
$OBSLTYPE
280
     0
  9
$INTERSECTIONDISPLAY
280
     0
  9
$INTERSECTIONCOLOR
 70
   257
  9
$DIMASSOC
280
     2
  9
$PROJECTNAME
  1

  9
$CAMERADISPLAY
290
     0
  9
$LENSLENGTH
 40
50.0
  9
$CAMERAHEIGHT
 40
0.0
  9
$STEPSPERSEC
 40
2.0
  9
$STEPSIZE
 40
6.0
  9
$3DDWFPREC
 40
2.0
  9
$PSOLWIDTH
 40
0.25
  9
$PSOLHEIGHT
 40
4.0
  9
$LOFTANG1
 40
1.570796326794897
  9
$LOFTANG2
 40
1.570796326794897
  9
$LOFTMAG1
 40
0.0
  9
$LOFTMAG2
 40
0.0
  9
$LOFTPARAM
 70
     7
  9
$LOFTNORMALS
280
     1
  9
$LATITUDE
 40
37.795
  9
$LONGITUDE
 40
-122.394
  9
$NORTHDIRECTION
 40
0.0
  9
$TIMEZONE
 70
 -8000
  9
$LIGHTGLYPHDISPLAY
280
     1
  9
$TILEMODELIGHTSYNCH
280
     1
  9
$SOLIDHIST
280
     0
  9
$SHOWHIST
280
     1
  9
$DWFFRAME
280
     2
  9
$DGNFRAME
280
     2
  9
$REALWORLDSCALE
290
     1
  9
$INTERFERECOLOR
 62
   256
  9
$CSHADOW
280
     0
  9
$SHADOWPLANELOCATION
 40
0.0
  0
ENDSEC
  0
SECTION
  2
CLASSES
  0
CLASS
  1
ACDBDICTIONARYWDFLT
  2
AcDbDictionaryWithDefault
  3
ObjectDBX Classes
 90
        0
 91
        4
280
     0
281
     0
  0
CLASS
  1
SCALE
  2
AcDbScale
  3
ObjectDBX Classes
 90
     1153
 91
        4
280
     0
281
     0
  0
CLASS
  1
VISUALSTYLE
  2
AcDbVisualStyle
  3
ObjectDBX Classes
 90
     4095
 91
        4
280
     0
281
     0
  0
CLASS
  1
MATERIAL
  2
AcDbMaterial
  3
ObjectDBX Classes
 90
     1153
 91
        4
280
     0
281
     0
  0
CLASS
  1
TABLESTYLE
  2
AcDbTableStyle
  3
ObjectDBX Classes
 90
     4095
 91
        4
280
     0
281
     0
  0
CLASS
  1
MLEADERSTYLE
  2
AcDbMLeaderStyle
  3
ACDB_MLEADERSTYLE_CLASS
 90
     4095
 91
        4
280
     0
281
     0
  0
CLASS
  1
DICTIONARYVAR
  2
AcDbDictionaryVar
  3
ObjectDBX Classes
 90
        0
 91
        4
280
     0
281
     0
  0
CLASS
  1
CELLSTYLEMAP
  2
AcDbCellStyleMap
  3
ObjectDBX Classes
 90
     1152
 91
        4
280
     0
281
     0
  0
ENDSEC
  0
SECTION
  2
TABLES
  0
TABLE
  2
VPORT
  5
8
330
0
100
AcDbSymbolTable
 70
     1
  0
VPORT
  5
1F4
330
8
100
AcDbSymbolTableRecord
100
AcDbViewportTableRecord
  2
*ACTIVE
 70
     0
 10
0.0
 20
0.0
 11
1.0
 21
1.0
 12
594.5
 22
420.5
 13
0.0
 23
0.0
 14
1.0
 24
1.0
 15
0.0
 25
0.0
 16
0.0
 26
0.0
 36
1.0
 17
0.0
 27
0.0
 37
0.0
 40
841.0
 41
1.4137931034
 42
50.0
 43
0.0
 44
0.0
 50
0.0
 51
0.0
 71
     0
 72
   100
 73
     1
 74
     1
 75
     0
 76
     0
 77
     0
 78
     0
281
     0
 65
     1
110
0.0
120
0.0
130
0.0
111
1.0
121
0.0
131
0.0
112
0.0
122
1.0
132
0.0
 79
     0
146
0.0
348
413
 60
     3
 61
     5
292
     1
282
     1
141
0.0
142
0.0
 63
   256
  0
ENDTAB
  0
TABLE
  2
LTYPE
  5
5
330
0
100
AcDbSymbolTable
 70
     6
  0
LTYPE
  5
14
330
5
100
AcDbSymbolTableRecord
100
AcDbLinetypeTableRecord
  2
BYBLOCK
 70
     0
  3

 72
    65
 73
     0
 40
0.0
  0
LTYPE
  5
15
330
5
100
AcDbSymbolTableRecord
100
AcDbLinetypeTableRecord
  2
BYLAYER
 70
     0
  3

 72
    65
 73
     0
 40
0.0
  0
LTYPE
  5
16
330
5
100
AcDbSymbolTableRecord
100
AcDbLinetypeTableRecord
  2
CONTINUOUS
 70
     0
  3
Solid line
 72
    65
 73
     0
 40
0.0
  0
LTYPE
  5
1F5
330
5
100
AcDbSymbolTableRecord
100
AcDbLinetypeTableRecord
  2
CENTER
 70
     0
  3
____ _ ____ _ ____ _ ____ _ ____ _ ____ _ ____
 72
    65
 73
     4
 40
0.6
 49
0.375
 74
     0
 49
-0.075
 74
     0
 49
0.075
 74
     0
 49
-0.075
 74
     0
  0
LTYPE
  5
1F6
330
5
100
AcDbSymbolTableRecord
100
AcDbLinetypeTableRecord
  2
HIDDEN
 70
     0
  3
- - - - - - - - - - - - - - - - - - - -
 72
    65
 73
     2
 40
0.2
 49
0.1
 74
     0
 49
-0.1
 74
     0
  0
LTYPE
  5
1F7
330
5
100
AcDbSymbolTableRecord
100
AcDbLinetypeTableRecord
  2
PHANTOM
 70
     0
  3
_____ _ _ _____ _ _ _____ _ _ _____
 72
    65
 73
     6
 40
0.8
 49
0.45
 74
     0
 49
-0.05
 74
     0
 49
0.1
 74
     0
 49
-0.05
 74
     0
 49
0.1
 74
     0
 49
-0.05
 74
     0
  0
LTYPE
  5
1F8
330
5
100
AcDbSymbolTableRecord
100
AcDbLinetypeTableRecord
  2
DOT
 70
     0
  3
. . . . . . . . . . . . . . . . . . . .
 72
    65
 73
     2
 40
0.2
 49
0.1
 74
     0
 49
-0.1
 74
     0
  0
LTYPE
  5
1F9
330
5
100
AcDbSymbolTableRecord
100
AcDbLinetypeTableRecord
  2
DASHED
 70
     0
  3
- - - - - - - - - - - - - - - - - - - -
 72
    65
 73
     2
 40
0.2
 49
0.1
 74
     0
 49
-0.1
 74
     0
  0
ENDTAB
  0
TABLE
  2
LAYER
  5
2
330
0
100
AcDbSymbolTable
 70
    31
  0
LAYER
  5
10
330
2
100
AcDbSymbolTableRecord
100
AcDbLayerTableRecord
  2
0
 70
     0
 62
     7
  6
CONTINUOUS
370
    -3
390
3E8
347
42A
348
0
  0
LAYER
  5
1FA
330
2
100
AcDbSymbolTableRecord
100
AcDbLayerTableRecord
  2
DEFAULT_1
 70
     0
 62
     7
  6
CENTER
370
    -3
390
3E8
347
42A
348
0
  0
LAYER
  5
1FB
330
2
100
AcDbSymbolTableRecord
100
AcDbLayerTableRecord
  2
DEFAULT_2
 70
     0
 62
     8
  6
HIDDEN
370
    -3
390
3E8
347
42A
348
0
  0
LAYER
  5
1FC
330
2
100
AcDbSymbolTableRecord
100
AcDbLayerTableRecord
  2
DEFAULT_3
 70
     0
 62
     7
  6
PHANTOM
370
    -3
390
3E8
347
42A
348
0
  0
LAYER
  5
1FD
330
2
100
AcDbSymbolTableRecord
100
AcDbLayerTableRecord
  2
01_ALL_DTM_PLN
 70
     0
 62
     7
  6
CONTINUOUS
370
    -3
390
3E8
347
42A
348
0
  0
LAYER
  5
1FE
330
2
100
AcDbSymbolTableRecord
100
AcDbLayerTableRecord
  2
01__ASM_ALL_DTM_PLN
 70
     0
 62
     7
  6
CONTINUOUS
370
    -3
390
3E8
347
42A
348
0
  0
LAYER
  5
1FF
330
2
100
AcDbSymbolTableRecord
100
AcDbLayerTableRecord
  2
01__ASM_DEF_DTM_PLN
 70
     0
 62
     7
  6
CONTINUOUS
370
    -3
390
3E8
347
42A
348
0
  0
LAYER
  5
200
330
2
100
AcDbSymbolTableRecord
100
AcDbLayerTableRecord
  2
01___PRT_ALL_DTM_PLN
 70
     0
 62
     7
  6
CONTINUOUS
370
    -3
390
3E8
347
42A
348
0
  0
LAYER
  5
201
330
2
100
AcDbSymbolTableRecord
100
AcDbLayerTableRecord
  2
01___PRT_DEF_DTM_PLN
 70
     0
 62
     7
  6
CONTINUOUS
370
    -3
390
3E8
347
42A
348
0
  0
LAYER
  5
202
330
2
100
AcDbSymbolTableRecord
100
AcDbLayerTableRecord
  2
02_ALL_AXES
 70
     0
 62
     7
  6
CONTINUOUS
370
    -3
390
3E8
347
42A
348
0
  0
LAYER
  5
203
330
2
100
AcDbSymbolTableRecord
100
AcDbLayerTableRecord
  2
02__ASM_ALL_AXES
 70
     0
 62
     7
  6
CONTINUOUS
370
    -3
390
3E8
347
42A
348
0
  0
LAYER
  5
204
330
2
100
AcDbSymbolTableRecord
100
AcDbLayerTableRecord
  2
02___PRT_ALL_AXES
 70
     0
 62
     7
  6
CONTINUOUS
370
    -3
390
3E8
347
42A
348
0
  0
LAYER
  5
205
330
2
100
AcDbSymbolTableRecord
100
AcDbLayerTableRecord
  2
03_ALL_CURVES
 70
     0
 62
     7
  6
CONTINUOUS
370
    -3
390
3E8
347
42A
348
0
  0
LAYER
  5
206
330
2
100
AcDbSymbolTableRecord
100
AcDbLayerTableRecord
  2
03__ASM_ALL_CURVES
 70
     0
 62
     7
  6
CONTINUOUS
370
    -3
390
3E8
347
42A
348
0
  0
LAYER
  5
207
330
2
100
AcDbSymbolTableRecord
100
AcDbLayerTableRecord
  2
03___PRT_ALL_CURVES
 70
     0
 62
     7
  6
CONTINUOUS
370
    -3
390
3E8
347
42A
348
0
  0
LAYER
  5
208
330
2
100
AcDbSymbolTableRecord
100
AcDbLayerTableRecord
  2
04_ALL_DTM_PNT
 70
     0
 62
     7
  6
CONTINUOUS
370
    -3
390
3E8
347
42A
348
0
  0
LAYER
  5
209
330
2
100
AcDbSymbolTableRecord
100
AcDbLayerTableRecord
  2
04__ASM_ALL_DTM_PNT
 70
     0
 62
     7
  6
CONTINUOUS
370
    -3
390
3E8
347
42A
348
0
  0
LAYER
  5
20A
330
2
100
AcDbSymbolTableRecord
100
AcDbLayerTableRecord
  2
04___PRT_ALL_DTM_PNT
 70
     0
 62
     7
  6
CONTINUOUS
370
    -3
390
3E8
347
42A
348
0
  0
LAYER
  5
20B
330
2
100
AcDbSymbolTableRecord
100
AcDbLayerTableRecord
  2
05_ALL_DTM_CSYS
 70
     0
 62
     7
  6
CONTINUOUS
370
    -3
390
3E8
347
42A
348
0
  0
LAYER
  5
20C
330
2
100
AcDbSymbolTableRecord
100
AcDbLayerTableRecord
  2
05__ASM_ALL_DTM_CSYS
 70
     0
 62
     7
  6
CONTINUOUS
370
    -3
390
3E8
347
42A
348
0
  0
LAYER
  5
20D
330
2
100
AcDbSymbolTableRecord
100
AcDbLayerTableRecord
  2
05__ASM_DEF_DTM_CSYS
 70
     0
 62
     7
  6
CONTINUOUS
370
    -3
390
3E8
347
42A
348
0
  0
LAYER
  5
20E
330
2
100
AcDbSymbolTableRecord
100
AcDbLayerTableRecord
  2
05___PRT_ALL_DTM_CSYS
 70
     0
 62
     7
  6
CONTINUOUS
370
    -3
390
3E8
347
42A
348
0
  0
LAYER
  5
20F
330
2
100
AcDbSymbolTableRecord
100
AcDbLayerTableRecord
  2
05___PRT_DEF_DTM_CSYS
 70
     0
 62
     7
  6
CONTINUOUS
370
    -3
390
3E8
347
42A
348
0
  0
LAYER
  5
210
330
2
100
AcDbSymbolTableRecord
100
AcDbLayerTableRecord
  2
06_ALL_SURFS
 70
     0
 62
     7
  6
CONTINUOUS
370
    -3
390
3E8
347
42A
348
0
  0
LAYER
  5
211
330
2
100
AcDbSymbolTableRecord
100
AcDbLayerTableRecord
  2
06__ASM_ALL_SURFS
 70
     0
 62
     7
  6
CONTINUOUS
370
    -3
390
3E8
347
42A
348
0
  0
LAYER
  5
212
330
2
100
AcDbSymbolTableRecord
100
AcDbLayerTableRecord
  2
06___PRT_ALL_SURFS
 70
     0
 62
     7
  6
CONTINUOUS
370
    -3
390
3E8
347
42A
348
0
  0
LAYER
  5
213
330
2
100
AcDbSymbolTableRecord
100
AcDbLayerTableRecord
  2
07__ASM_ALL_SKELETONS
 70
     0
 62
     7
  6
CONTINUOUS
370
    -3
390
3E8
347
42A
348
0
  0
LAYER
  5
214
330
2
100
AcDbSymbolTableRecord
100
AcDbLayerTableRecord
  2
1_ALL_PLANES
 70
     0
 62
     7
  6
CONTINUOUS
370
    -3
390
3E8
347
42A
348
0
  0
LAYER
  5
215
330
2
100
AcDbSymbolTableRecord
100
AcDbLayerTableRecord
  2
3_ALL_AXES
 70
     0
 62
     7
  6
CONTINUOUS
370
    -3
390
3E8
347
42A
348
0
  0
LAYER
  5
216
330
2
100
AcDbSymbolTableRecord
100
AcDbLayerTableRecord
  2
7_ALL_FEATURES
 70
     0
 62
     7
  6
CONTINUOUS
370
    -3
390
3E8
347
42A
348
0
  0
LAYER
  5
217
330
2
100
AcDbSymbolTableRecord
100
AcDbLayerTableRecord
  2
9_SOLID
 70
     0
 62
     7
  6
CONTINUOUS
370
    -3
390
3E8
347
42A
348
0
  0
ENDTAB
  0
TABLE
  2
STYLE
  5
3
330
0
100
AcDbSymbolTable
 70
     6
  0
STYLE
  5
11
330
3
100
AcDbSymbolTableRecord
100
AcDbTextStyleTableRecord
  2
STANDARD
 70
     0
 40
0.0
 41
1.0
 50
0.0
 71
     0
 42
0.2
  3
arial.ttf
  4

  0
STYLE
  5
218
330
3
100
AcDbSymbolTableRecord
100
AcDbTextStyleTableRecord
  2
TEXTSTYLE_1
 70
     0
 40
0.0
 41
0.8
 50
0.0
 71
     0
 42
0.2
  3
gdt
  4

  0
STYLE
  5
219
330
3
100
AcDbSymbolTableRecord
100
AcDbTextStyleTableRecord
  2
TEXTSTYLE_2
 70
     0
 40
0.0
 41
0.9
 50
0.0
 71
     0
 42
0.2
  3
txt
  4

  0
STYLE
  5
21A
330
3
100
AcDbSymbolTableRecord
100
AcDbTextStyleTableRecord
  2
TEXTSTYLE_3
 70
     0
 40
0.0
 41
0.85
 50
0.0
 71
     0
 42
0.2
  3
gdt
  4

  0
STYLE
  5
21B
330
3
100
AcDbSymbolTableRecord
100
AcDbTextStyleTableRecord
  2
TEXTSTYLE_4
 70
     0
 40
0.0
 41
2.0
 50
0.0
 71
     0
 42
0.2
  3
txt
  4

  0
STYLE
  5
21C
330
3
100
AcDbSymbolTableRecord
100
AcDbTextStyleTableRecord
  2
TEXTSTYLE_5
 70
     0
 40
0.0
 41
0.85
 50
0.0
 71
     0
 42
0.2
  3
txt
  4

  0
ENDTAB
  0
TABLE
  2
VIEW
  5
6
330
0
100
AcDbSymbolTable
 70
     0
  0
ENDTAB
  0
TABLE
  2
UCS
  5
7
330
0
100
AcDbSymbolTable
 70
     0
  0
ENDTAB
  0
TABLE
  2
APPID
  5
9
330
0
100
AcDbSymbolTable
 70
     1
  0
APPID
  5
21D
330
9
100
AcDbSymbolTableRecord
100
AcDbRegAppTableRecord
  2
ACAD
 70
     0
  0
ENDTAB
  0
TABLE
  2
DIMSTYLE
  5
A
330
0
100
AcDbSymbolTable
 70
     6
100
AcDbDimStyleTable
  0
DIMSTYLE
105
228
330
A
100
AcDbSymbolTableRecord
100
AcDbDimStyleTableRecord
  2
STANDARD
 70
     0
 41
2.5
 42
0.75
 44
0.75
 47
0.01
 48
0.01
 71
     1
 73
     0
 74
     0
 77
     1
 78
     8
 79
     2
140
3.0
147
0.625
171
     1
178
     0
179
     2
271
     2
272
     2
284
     8
340
11
341
21E
342
21E
343
21E
344
21E
  0
DIMSTYLE
105
229
330
A
100
AcDbSymbolTableRecord
100
AcDbDimStyleTableRecord
  2
DIMSTYLE_1
 70
     0
  3
<>
 41
2.5
 42
0.75
 44
0.75
 47
0.3
 48
0.3
 73
     0
 74
     0
 77
     1
 78
     8
 79
     2
140
3.0
147
0.625
171
     1
172
     1
178
     0
179
     2
271
     2
272
     2
284
     8
288
     1
340
11
341
21E
342
21E
343
21E
344
21E
  0
DIMSTYLE
105
22A
330
A
100
AcDbSymbolTableRecord
100
AcDbDimStyleTableRecord
  2
DIMSTYLE_2
 70
     0
 41
2.5
 42
0.75
 44
0.75
 47
0.8
 48
0.8
 73
     0
 74
     0
 77
     1
 78
     8
 79
     2
140
3.0
147
0.75
171
     1
178
     0
179
     2
271
     2
272
     2
284
     8
340
11
341
21E
342
21E
343
21E
344
21E
  0
DIMSTYLE
105
22B
330
A
100
AcDbSymbolTableRecord
100
AcDbDimStyleTableRecord
  2
DIMSTYLE_3
 70
     0
 41
2.5
 42
0.75
 44
0.75
 47
0.1
 48
0.1
 73
     0
 74
     0
 77
     1
 78
     8
 79
     2
140
3.0
147
0.75
171
     1
178
     0
179
     2
271
     2
272
     2
284
     8
340
11
341
21E
342
21E
343
21E
344
21E
  0
DIMSTYLE
105
22C
330
A
100
AcDbSymbolTableRecord
100
AcDbDimStyleTableRecord
  2
DIMSTYLE_4
 70
     0
 41
2.5
 42
0.75
 44
0.75
 47
0.5
 48
0.5
 73
     0
 74
     0
 77
     1
 78
     8
 79
     2
140
3.0
147
0.75
171
     1
178
     0
179
     2
271
     2
272
     2
284
     8
340
11
341
21E
342
21E
343
21E
344
21E
  0
DIMSTYLE
105
22D
330
A
100
AcDbSymbolTableRecord
100
AcDbDimStyleTableRecord
  2
DIMSTYLE_5
 70
     0
 41
2.5
 42
0.75
 44
0.75
 47
0.2
 48
0.2
 73
     0
 74
     0
 77
     1
 78
     8
 79
     2
140
3.0
147
0.75
171
     1
178
     0
179
     2
271
     2
272
     2
284
     8
340
11
341
21E
342
21E
343
21E
344
21E
  0
ENDTAB
  0
TABLE
  2
BLOCK_RECORD
  5
1
330
0
100
AcDbSymbolTable
 70
    10
  0
BLOCK_RECORD
  5
1F
330
1
100
AcDbSymbolTableRecord
100
AcDbBlockTableRecord
  2
*MODEL_SPACE
340
40C
 70
     0
280
     1
281
     0
  0
BLOCK_RECORD
  5
1B
330
1
100
AcDbSymbolTableRecord
100
AcDbBlockTableRecord
  2
*PAPER_SPACE
340
40D
 70
     0
280
     1
281
     0
  0
BLOCK_RECORD
  5
21E
330
1
100
AcDbSymbolTableRecord
100
AcDbBlockTableRecord
  2
_CLOSED
340
0
102
{BLKREFS
331
27D
331
285
331
286
331
290
331
291
331
299
331
29A
331
2A2
331
2A3
331
2AB
331
2AC
331
2B4
331
2B5
102
}
 70
     0
280
     1
281
     0
  0
BLOCK_RECORD
  5
21F
330
1
100
AcDbSymbolTableRecord
100
AcDbBlockTableRecord
  2
*D1
340
0
 70
     0
280
     1
281
     0
  0
BLOCK_RECORD
  5
220
330
1
100
AcDbSymbolTableRecord
100
AcDbBlockTableRecord
  2
*D2
340
0
 70
     0
280
     1
281
     0
  0
BLOCK_RECORD
  5
221
330
1
100
AcDbSymbolTableRecord
100
AcDbBlockTableRecord
  2
*D3
340
0
 70
     0
280
     1
281
     0
  0
BLOCK_RECORD
  5
222
330
1
100
AcDbSymbolTableRecord
100
AcDbBlockTableRecord
  2
*D4
340
0
 70
     0
280
     1
281
     0
  0
BLOCK_RECORD
  5
223
330
1
100
AcDbSymbolTableRecord
100
AcDbBlockTableRecord
  2
*D5
340
0
 70
     0
280
     1
281
     0
  0
BLOCK_RECORD
  5
224
330
1
100
AcDbSymbolTableRecord
100
AcDbBlockTableRecord
  2
*D6
340
0
 70
     0
280
     1
281
     0
  0
BLOCK_RECORD
  5
225
330
1
100
AcDbSymbolTableRecord
100
AcDbBlockTableRecord
  2
*D7
340
0
 70
     0
280
     1
281
     0
  0
BLOCK_RECORD
  5
226
330
1
100
AcDbSymbolTableRecord
100
AcDbBlockTableRecord
  2
LOGO2_BL1
340
0
102
{BLKREFS
331
3D2
102
}
 70
     0
280
     1
281
     0
  0
BLOCK_RECORD
  5
227
330
1
100
AcDbSymbolTableRecord
100
AcDbBlockTableRecord
  2
PROIEZIONE_EU_BL0
340
0
102
{BLKREFS
331
3CF
102
}
 70
     0
280
     1
281
     0
  0
ENDTAB
  0
ENDSEC
  0
SECTION
  2
BLOCKS
  0
BLOCK
  5
20
330
1F
100
AcDbEntity
  8
0
100
AcDbBlockBegin
  2
*MODEL_SPACE
 70
     0
 10
0.0
 20
0.0
 30
0.0
  3
*MODEL_SPACE
  1

  0
ENDBLK
  5
21
330
1F
100
AcDbEntity
  8
0
100
AcDbBlockEnd
  0
BLOCK
  5
1C
330
1B
100
AcDbEntity
 67
     1
  8
0
100
AcDbBlockBegin
  2
*PAPER_SPACE
 70
     0
 10
0.0
 20
0.0
 30
0.0
  3
*PAPER_SPACE
  1

  0
ENDBLK
  5
1D
330
1B
100
AcDbEntity
 67
     1
  8
0
100
AcDbBlockEnd
  0
BLOCK
  5
274
330
21E
100
AcDbEntity
  8
0
100
AcDbBlockBegin
  2
_CLOSED
 70
     0
 10
0.0
 20
0.0
 30
0.0
  3
_CLOSED
  1

  0
LINE
  5
275
330
21E
100
AcDbEntity
  8
0
  6
ByBlock
 62
     0
100
AcDbLine
 10
0.0
 20
0.0
 30
0.0
 11
-1.0
 21
0.2
 31
0.0
  0
LINE
  5
276
330
21E
100
AcDbEntity
  8
0
  6
ByBlock
 62
     0
100
AcDbLine
 10
-1.0
 20
0.2
 30
0.0
 11
-1.0
 21
-0.2
 31
0.0
  0
LINE
  5
277
330
21E
100
AcDbEntity
  8
0
  6
ByBlock
 62
     0
100
AcDbLine
 10
-1.0
 20
-0.2
 30
0.0
 11
0.0
 21
0.0
 31
0.0
  0
LINE
  5
278
330
21E
100
AcDbEntity
  8
0
  6
ByBlock
 62
     0
100
AcDbLine
 10
-1.0
 20
0.0
 30
0.0
 11
0.0
 21
0.0
 31
0.0
  0
ENDBLK
  5
279
330
21E
100
AcDbEntity
  8
0
  6
ByBlock
 62
     0
100
AcDbBlockEnd
  0
BLOCK
  5
27A
330
21F
100
AcDbEntity
  8
0
100
AcDbBlockBegin
  2
*D1
 70
     1
 10
0.0
 20
0.0
 30
0.0
  3
*D1
  1

  0
MTEXT
  5
27B
330
21F
100
AcDbEntity
  8
0
  6
Continuous
 62
     2
100
AcDbMText
 10
1027.7693752902
 20
608.9122894011
 30
0.0
 40
3.0
 41
8.6617100372
 46
0.0
 71
     3
 72
     1
  1
{\Fgdt;n}\Farial.ttf;80
  7
TEXTSTYLE_3
 11
0.704322015
 21
-0.7098806232
 31
0.0
 73
     1
 44
1.0
  0
LINE
  5
27C
330
21F
100
AcDbEntity
  8
0
  6
Continuous
 62
     2
100
AcDbLine
 10
1032.3296085898
 20
598.9917969156
 30
0.0
 11
1019.0066898867
 21
612.4198619645
 31
0.0
  0
INSERT
  5
27D
330
21F
100
AcDbEntity
  8
0
  6
Continuous
 62
     2
100
AcDbBlockReference
  2
_CLOSED
 10
1032.3296085898
 20
598.9917969156
 30
0.0
 41
2.5
 42
2.5
 43
2.5
 50
314.7747966626999
  0
ENDBLK
  5
27E
330
21F
100
AcDbEntity
  8
0
  6
ByBlock
 62
     0
100
AcDbBlockEnd
  0
BLOCK
  5
27F
330
220
100
AcDbEntity
  8
0
100
AcDbBlockBegin
  2
*D2
 70
     1
 10
0.0
 20
0.0
 30
0.0
  3
*D2
  1

  0
MTEXT
  5
280
330
220
100
AcDbEntity
  8
0
  6
Continuous
 62
     2
100
AcDbMText
 10
382.1666343257
 20
642.3921710177
 30
0.0
 40
3.0
 41
12.8141263941
 46
0.0
 71
     2
 72
     1
  1
592,59
 73
     1
 44
1.0
  0
LINE
  5
281
330
220
100
AcDbEntity
  8
0
  6
Continuous
 62
     2
100
AcDbLine
 10
678.4604867414
 20
611.3465719863
 30
0.0
 11
678.4604867414
 21
639.3921710177
 31
0.0
  0
LINE
  5
282
330
220
100
AcDbEntity
  8
0
  6
Continuous
 62
     2
100
AcDbLine
 10
85.87278191
 20
602.2286229486
 30
0.0
 11
85.87278191
 21
639.3921710177
 31
0.0
  0
LINE
  5
283
330
220
100
AcDbEntity
  8
0
  6
Continuous
 62
     2
100
AcDbLine
 10
678.4604867414
 20
638.6421710177
 30
0.0
 11
382.1666343257
 21
638.6421710177
 31
0.0
  0
LINE
  5
284
330
220
100
AcDbEntity
  8
0
  6
Continuous
 62
     2
100
AcDbLine
 10
85.87278191
 20
638.6421710177
 30
0.0
 11
382.1666343257
 21
638.6421710177
 31
0.0
  0
INSERT
  5
285
330
220
100
AcDbEntity
  8
0
  6
Continuous
 62
     2
100
AcDbBlockReference
  2
_CLOSED
 10
678.4604867414
 20
638.6421710177
 30
0.0
 41
2.5
 42
2.5
 43
2.5
  0
INSERT
  5
286
330
220
100
AcDbEntity
  8
0
  6
Continuous
 62
     2
100
AcDbBlockReference
  2
_CLOSED
 10
85.87278191
 20
638.6421710177
 30
0.0
 41
2.5
 42
2.5
 43
2.5
 50
180.0
  0
ENDBLK
  5
287
330
220
100
AcDbEntity
  8
0
  6
ByBlock
 62
     0
100
AcDbBlockEnd
  0
BLOCK
  5
288
330
221
100
AcDbEntity
  8
0
100
AcDbBlockBegin
  2
*D3
 70
     1
 10
0.0
 20
0.0
 30
0.0
  3
*D3
  1

  0
MTEXT
  5
289
330
221
100
AcDbEntity
  8
0
  6
Continuous
 62
     2
100
AcDbMText
 10
700.5994630027
 20
518.711314679
 30
0.0
 40
3.0
 41
2.3308550186
 46
0.0
 71
     1
 72
     1
  1
2
 73
     1
 44
1.0
  0
LINE
  5
28A
330
221
100
AcDbEntity
  8
0
  6
Continuous
 62
     2
100
AcDbLine
 10
678.4604867414
 20
528.8866588852
 30
0.0
 11
678.4604867414
 21
514.211314679
 31
0.0
  0
LINE
  5
28B
330
221
100
AcDbEntity
  8
0
  6
Continuous
 62
     2
100
AcDbLine
 10
680.4604867414
 20
528.8866588852
 30
0.0
 11
680.4604867414
 21
514.211314679
 31
0.0
  0
LINE
  5
28C
330
221
100
AcDbEntity
  8
0
  6
Continuous
 62
     2
100
AcDbLine
 10
678.4604867414
 20
514.961314679
 30
0.0
 11
677.4604867414
 21
514.961314679
 31
0.0
  0
LINE
  5
28D
330
221
100
AcDbEntity
  8
0
  6
Continuous
 62
     2
100
AcDbLine
 10
677.4604867414
 20
514.961314679
 30
0.0
 11
679.4604867414
 21
514.961314679
 31
0.0
  0
LINE
  5
28E
330
221
100
AcDbEntity
  8
0
  6
Continuous
 62
     2
100
AcDbLine
 10
680.4604867414
 20
514.961314679
 30
0.0
 11
702.9303180213
 21
514.961314679
 31
0.0
  0
LINE
  5
28F
330
221
100
AcDbEntity
  8
0
  6
Continuous
 62
     2
100
AcDbLine
 10
702.9303180213
 20
514.961314679
 30
0.0
 11
679.4604867414
 21
514.961314679
 31
0.0
  0
INSERT
  5
290
330
221
100
AcDbEntity
  8
0
  6
Continuous
 62
     2
100
AcDbBlockReference
  2
_CLOSED
 10
678.4604867414
 20
514.961314679
 30
0.0
 41
2.5
 42
2.5
 43
2.5
  0
INSERT
  5
291
330
221
100
AcDbEntity
  8
0
  6
Continuous
 62
     2
100
AcDbBlockReference
  2
_CLOSED
 10
680.4604867414
 20
514.961314679
 30
0.0
 41
2.5
 42
2.5
 43
2.5
 50
180.0
  0
ENDBLK
  5
292
330
221
100
AcDbEntity
  8
0
  6
ByBlock
 62
     0
100
AcDbBlockEnd
  0
BLOCK
  5
293
330
222
100
AcDbEntity
  8
0
100
AcDbBlockBegin
  2
*D4
 70
     1
 10
0.0
 20
0.0
 30
0.0
  3
*D4
  1

  0
MTEXT
  5
294
330
222
100
AcDbEntity
  8
0
  6
Continuous
 62
     2
100
AcDbMText
 10
780.4604867432
 20
642.3921710177
 30
0.0
 40
3.0
 41
6.9925650558
 46
0.0
 71
     2
 72
     1
  1
200
 73
     1
 44
1.0
  0
LINE
  5
295
330
222
100
AcDbEntity
  8
0
  6
Continuous
 62
     2
100
AcDbLine
 10
680.4604867414
 20
611.3465719863
 30
0.0
 11
680.4604867414
 21
639.3921710177
 31
0.0
  0
LINE
  5
296
330
222
100
AcDbEntity
  8
0
  6
Continuous
 62
     2
100
AcDbLine
 10
880.4604867449
 20
571.3465720471
 30
0.0
 11
880.4604867449
 21
639.3921710177
 31
0.0
  0
LINE
  5
297
330
222
100
AcDbEntity
  8
0
  6
Continuous
 62
     2
100
AcDbLine
 10
680.4604867414
 20
638.6421710177
 30
0.0
 11
780.4604867432
 21
638.6421710177
 31
0.0
  0
LINE
  5
298
330
222
100
AcDbEntity
  8
0
  6
Continuous
 62
     2
100
AcDbLine
 10
880.4604867449
 20
638.6421710177
 30
0.0
 11
780.4604867432
 21
638.6421710177
 31
0.0
  0
INSERT
  5
299
330
222
100
AcDbEntity
  8
0
  6
Continuous
 62
     2
100
AcDbBlockReference
  2
_CLOSED
 10
680.4604867414
 20
638.6421710177
 30
0.0
 41
2.5
 42
2.5
 43
2.5
 50
180.0
  0
INSERT
  5
29A
330
222
100
AcDbEntity
  8
0
  6
Continuous
 62
     2
100
AcDbBlockReference
  2
_CLOSED
 10
880.4604867449
 20
638.6421710177
 30
0.0
 41
2.5
 42
2.5
 43
2.5
  0
ENDBLK
  5
29B
330
222
100
AcDbEntity
  8
0
  6
ByBlock
 62
     0
100
AcDbBlockEnd
  0
BLOCK
  5
29C
330
223
100
AcDbEntity
  8
0
100
AcDbBlockBegin
  2
*D5
 70
     1
 10
0.0
 20
0.0
 30
0.0
  3
*D5
  1

  0
MTEXT
  5
29D
330
223
100
AcDbEntity
  8
0
  6
Continuous
 62
     2
100
AcDbMText
 10
483.1666343274
 20
665.3818088738
 30
0.0
 40
3.0
 41
12.8141263941
 46
0.0
 71
     2
 72
     1
  1
794,59
 73
     1
 44
1.0
  0
LINE
  5
29E
330
223
100
AcDbEntity
  8
0
  6
Continuous
 62
     2
100
AcDbLine
 10
85.87278191
 20
602.2286229486
 30
0.0
 11
85.87278191
 21
662.3818088738
 31
0.0
  0
LINE
  5
29F
330
223
100
AcDbEntity
  8
0
  6
Continuous
 62
     2
100
AcDbLine
 10
880.4604867449
 20
571.3465720471
 30
0.0
 11
880.4604867449
 21
662.3818088738
 31
0.0
  0
LINE
  5
2A0
330
223
100
AcDbEntity
  8
0
  6
Continuous
 62
     2
100
AcDbLine
 10
85.87278191
 20
661.6318088738
 30
0.0
 11
483.1666343274
 21
661.6318088738
 31
0.0
  0
LINE
  5
2A1
330
223
100
AcDbEntity
  8
0
  6
Continuous
 62
     2
100
AcDbLine
 10
880.4604867449
 20
661.6318088738
 30
0.0
 11
483.1666343274
 21
661.6318088738
 31
0.0
  0
INSERT
  5
2A2
330
223
100
AcDbEntity
  8
0
  6
Continuous
 62
     2
100
AcDbBlockReference
  2
_CLOSED
 10
85.87278191
 20
661.6318088738
 30
0.0
 41
2.5
 42
2.5
 43
2.5
 50
180.0
  0
INSERT
  5
2A3
330
223
100
AcDbEntity
  8
0
  6
Continuous
 62
     2
100
AcDbBlockReference
  2
_CLOSED
 10
880.4604867449
 20
661.6318088738
 30
0.0
 41
2.5
 42
2.5
 43
2.5
  0
ENDBLK
  5
2A4
330
223
100
AcDbEntity
  8
0
  6
ByBlock
 62
     0
100
AcDbBlockEnd
  0
BLOCK
  5
2A5
330
224
100
AcDbEntity
  8
0
100
AcDbBlockBegin
  2
*D6
 70
     1
 10
0.0
 20
0.0
 30
0.0
  3
*D6
  1

  0
MTEXT
  5
2A6
330
224
100
AcDbEntity
  8
0
  6
Continuous
 62
     2
100
AcDbMText
 10
63.2302695639
 20
343.7541000683
 30
0.0
 40
3.0
 41
4.6617100372
 46
0.0
 71
     2
 72
     1
  1
30
 11
0.0
 21
1.0
 31
0.0
 73
     1
 44
1.0
  0
LINE
  5
2A7
330
224
100
AcDbEntity
  8
0
  6
Continuous
 62
     2
100
AcDbLine
 10
82.3848082947
 20
358.7541000683
 30
0.0
 11
66.2302695639
 21
358.7541000683
 31
0.0
  0
LINE
  5
2A8
330
224
100
AcDbEntity
  8
0
  6
Continuous
 62
     2
100
AcDbLine
 10
81.6672623717
 20
328.7541000683
 30
0.0
 11
66.2302695639
 21
328.7541000683
 31
0.0
  0
LINE
  5
2A9
330
224
100
AcDbEntity
  8
0
  6
Continuous
 62
     2
100
AcDbLine
 10
66.9802695639
 20
358.7541000683
 30
0.0
 11
66.9802695639
 21
343.7541000683
 31
0.0
  0
LINE
  5
2AA
330
224
100
AcDbEntity
  8
0
  6
Continuous
 62
     2
100
AcDbLine
 10
66.9802695639
 20
328.7541000683
 30
0.0
 11
66.9802695639
 21
343.7541000683
 31
0.0
  0
INSERT
  5
2AB
330
224
100
AcDbEntity
  8
0
  6
Continuous
 62
     2
100
AcDbBlockReference
  2
_CLOSED
 10
66.9802695639
 20
358.7541000683
 30
0.0
 41
2.5
 42
2.5
 43
2.5
 50
90.0
  0
INSERT
  5
2AC
330
224
100
AcDbEntity
  8
0
  6
Continuous
 62
     2
100
AcDbBlockReference
  2
_CLOSED
 10
66.9802695639
 20
328.7541000683
 30
0.0
 41
2.5
 42
2.5
 43
2.5
 50
270.0
  0
ENDBLK
  5
2AD
330
224
100
AcDbEntity
  8
0
  6
ByBlock
 62
     0
100
AcDbBlockEnd
  0
BLOCK
  5
2AE
330
225
100
AcDbEntity
  8
0
100
AcDbBlockBegin
  2
*D7
 70
     1
 10
0.0
 20
0.0
 30
0.0
  3
*D7
  1

  0
MTEXT
  5
2AF
330
225
100
AcDbEntity
  8
0
  6
Continuous
 62
     2
100
AcDbMText
 10
901.8046011938
 20
343.7541000683
 30
0.0
 40
3.0
 41
12.1524163569
 46
0.0
 71
     2
 72
     1
  1
{\Fgdt;n}\Farial.ttf;17,2
  7
TEXTSTYLE_3
 11
0.0
 21
1.0
 31
0.0
 73
     1
 44
1.0
  0
LINE
  5
2B0
330
225
100
AcDbEntity
  8
0
  6
Continuous
 62
     2
100
AcDbLine
 10
884.2720160195
 20
352.3541000683
 30
0.0
 11
906.3046011938
 21
352.3541000683
 31
0.0
  0
LINE
  5
2B1
330
225
100
AcDbEntity
  8
0
  6
Continuous
 62
     2
100
AcDbLine
 10
883.9180328329
 20
335.1541000683
 30
0.0
 11
906.3046011938
 21
335.1541000683
 31
0.0
  0
LINE
  5
2B2
330
225
100
AcDbEntity
  8
0
  6
Continuous
 62
     2
100
AcDbLine
 10
905.5546011938
 20
352.3541000683
 30
0.0
 11
905.5546011938
 21
343.7541000683
 31
0.0
  0
LINE
  5
2B3
330
225
100
AcDbEntity
  8
0
  6
Continuous
 62
     2
100
AcDbLine
 10
905.5546011938
 20
335.1541000683
 30
0.0
 11
905.5546011938
 21
343.7541000683
 31
0.0
  0
INSERT
  5
2B4
330
225
100
AcDbEntity
  8
0
  6
Continuous
 62
     2
100
AcDbBlockReference
  2
_CLOSED
 10
905.5546011938
 20
352.3541000683
 30
0.0
 41
2.5
 42
2.5
 43
2.5
 50
90.0
  0
INSERT
  5
2B5
330
225
100
AcDbEntity
  8
0
  6
Continuous
 62
     2
100
AcDbBlockReference
  2
_CLOSED
 10
905.5546011938
 20
335.1541000683
 30
0.0
 41
2.5
 42
2.5
 43
2.5
 50
270.0
  0
ENDBLK
  5
2B6
330
225
100
AcDbEntity
  8
0
  6
ByBlock
 62
     0
100
AcDbBlockEnd
  0
BLOCK
  5
22E
330
226
100
AcDbEntity
  8
0
100
AcDbBlockBegin
  2
LOGO2_BL1
 70
     0
 10
1062.8311111097
 20
39.0054331513
 30
0.0
  3
LOGO2_BL1
  1

  0
LINE
  5
22F
330
226
100
AcDbEntity
  8
0
  6
Continuous
 62
     7
100
AcDbLine
 10
1054.5740363379
 20
42.2009244902
 30
0.0
 11
1053.2696954085
 21
42.2009244902
 31
0.0
  0
LINE
  5
230
330
226
100
AcDbEntity
  8
0
  6
Continuous
 62
     7
100
AcDbLine
 10
1053.2696954085
 20
42.2009244902
 30
0.0
 11
1053.2696954085
 21
31.7418584303
 31
0.0
  0
LINE
  5
231
330
226
100
AcDbEntity
  8
0
  6
Continuous
 62
     7
100
AcDbLine
 10
1053.2696954085
 20
31.7418584303
 30
0.0
 11
1057.7507502968
 21
31.7418584303
 31
0.0
  0
LINE
  5
232
330
226
100
AcDbEntity
  8
0
  6
Continuous
 62
     7
100
AcDbLine
 10
1057.7507502968
 20
31.7418584303
 30
0.0
 11
1057.7507502968
 21
32.9347127554
 31
0.0
  0
LINE
  5
233
330
226
100
AcDbEntity
  8
0
  6
Continuous
 62
     7
100
AcDbLine
 10
1057.7507502968
 20
32.9347127554
 30
0.0
 11
1054.5740363379
 21
32.9347127554
 31
0.0
  0
LINE
  5
234
330
226
100
AcDbEntity
  8
0
  6
Continuous
 62
     7
100
AcDbLine
 10
1054.5740363379
 20
32.9347127554
 30
0.0
 11
1054.5740363379
 21
42.2009244902
 31
0.0
  0
LINE
  5
235
330
226
100
AcDbEntity
  8
0
  6
Continuous
 62
     7
100
AcDbLine
 10
1069.5103625542
 20
42.2009244902
 30
0.0
 11
1068.2065450361
 21
42.2009244902
 31
0.0
  0
LINE
  5
236
330
226
100
AcDbEntity
  8
0
  6
Continuous
 62
     7
100
AcDbLine
 10
1068.2065450361
 20
42.2009244902
 30
0.0
 11
1068.2065450361
 21
31.7418584303
 31
0.0
  0
LINE
  5
237
330
226
100
AcDbEntity
  8
0
  6
Continuous
 62
     7
100
AcDbLine
 10
1068.2065450361
 20
31.7418584303
 30
0.0
 11
1072.6877307772
 21
31.7418584303
 31
0.0
  0
LINE
  5
238
330
226
100
AcDbEntity
  8
0
  6
Continuous
 62
     7
100
AcDbLine
 10
1072.6877307772
 20
31.7418584303
 30
0.0
 11
1072.6877307772
 21
32.9347127554
 31
0.0
  0
LINE
  5
239
330
226
100
AcDbEntity
  8
0
  6
Continuous
 62
     7
100
AcDbLine
 10
1072.6877307772
 20
32.9347127554
 30
0.0
 11
1069.5103625542
 21
32.9347127554
 31
0.0
  0
LINE
  5
23A
330
226
100
AcDbEntity
  8
0
  6
Continuous
 62
     7
100
AcDbLine
 10
1069.5103625542
 20
32.9347127554
 30
0.0
 11
1069.5103625542
 21
42.2009244902
 31
0.0
  0
LWPOLYLINE
  5
23B
330
226
100
AcDbEntity
  8
0
  6
Continuous
 62
     7
100
AcDbPolyline
 90
        2
 70
     0
 43
0.2
 10
1051.6240903195
 20
28.3983071234
 10
1051.6240903195
 20
26.541243874
  0
LWPOLYLINE
  5
23C
330
226
100
AcDbEntity
  8
0
  6
Continuous
 62
     7
100
AcDbPolyline
 90
        2
 70
     0
 43
0.2
 10
1051.6240903195
 20
26.541243874
 10
1052.4198063299
 20
26.541243874
  0
LWPOLYLINE
  5
23D
330
226
100
AcDbEntity
  8
0
  6
Continuous
 62
     7
100
AcDbPolyline
 90
        2
 70
     0
 43
0.2
 10
1052.4198063299
 20
26.541243874
 10
1052.4198063299
 20
26.7532254456
  0
LWPOLYLINE
  5
23E
330
226
100
AcDbEntity
  8
0
  6
Continuous
 62
     7
100
AcDbPolyline
 90
        2
 70
     0
 43
0.2
 10
1052.4198063299
 20
26.7532254456
 10
1051.8556998144
 20
26.7532254456
  0
LWPOLYLINE
  5
23F
330
226
100
AcDbEntity
  8
0
  6
Continuous
 62
     7
100
AcDbPolyline
 90
        2
 70
     0
 43
0.2
 10
1051.8556998144
 20
26.7532254456
 10
1051.8556998144
 20
28.3983071234
  0
LWPOLYLINE
  5
240
330
226
100
AcDbEntity
  8
0
  6
Continuous
 62
     7
100
AcDbPolyline
 90
        2
 70
     0
 43
0.2
 10
1051.8556998144
 20
28.3983071234
 10
1051.6240903195
 20
28.3983071234
  0
SPLINE
  5
241
330
226
100
AcDbEntity
  8
0
  6
Continuous
 62
     7
100
AcDbSpline
 70
     3
 71
     3
 72
    35
 73
    31
 74
     0
 42
0.000000001
 43
0.0000001
 40
0.0
 40
0.0
 40
0.0
 40
0.0
 40
1.0
 40
1.0
 40
1.0
 40
2.0
 40
2.0
 40
2.0
 40
3.0
 40
3.0
 40
3.0
 40
4.0
 40
4.0
 40
4.0
 40
5.0
 40
5.0
 40
5.0
 40
6.0
 40
6.0
 40
6.0
 40
7.0
 40
7.0
 40
7.0
 40
8.0
 40
8.0
 40
8.0
 40
9.0
 40
9.0
 40
9.0
 40
10.0
 40
10.0
 40
10.0
 40
10.0
 10
1053.8180995854
 20
27.6937955299
 30
0.0
 10
1053.8180995854
 20
27.6937955299
 30
0.0
 10
1053.8180995854
 20
27.0316802508
 30
0.0
 10
1053.8180995854
 20
27.0316802508
 30
0.0
 10
1053.8180995854
 20
26.7165866555
 30
0.0
 10
1053.9659632742
 20
26.5019880274
 30
0.0
 10
1054.3060497585
 20
26.5019880274
 30
0.0
 10
1054.6456128315
 20
26.5019880274
 30
0.0
 10
1054.793738226
 20
26.7165866555
 30
0.0
 10
1054.793738226
 20
27.0316802508
 30
0.0
 10
1054.793738226
 20
27.0316802508
 30
0.0
 10
1054.793738226
 20
27.6937955299
 30
0.0
 10
1054.793738226
 20
27.6937955299
 30
0.0
 10
1054.793738226
 20
27.6937955299
 30
0.0
 10
1054.5716809871
 20
27.6937955299
 30
0.0
 10
1054.5716809871
 20
27.6937955299
 30
0.0
 10
1054.5716809871
 20
27.6937955299
 30
0.0
 10
1054.5716809871
 20
27.0568039926
 30
0.0
 10
1054.5716809871
 20
27.0568039926
 30
0.0
 10
1054.5716809871
 20
26.8709929854
 30
0.0
 10
1054.5249665297
 20
26.7082120749
 30
0.0
 10
1054.3060497585
 20
26.7082120749
 30
0.0
 10
1054.0866095761
 20
26.7082120749
 30
0.0
 10
1054.0398951186
 20
26.8709929854
 30
0.0
 10
1054.0398951186
 20
27.0568039926
 30
0.0
 10
1054.0398951186
 20
27.0568039926
 30
0.0
 10
1054.0398951186
 20
27.6937955299
 30
0.0
 10
1054.0398951186
 20
27.6937955299
 30
0.0
 10
1054.0398951186
 20
27.6937955299
 30
0.0
 10
1053.8180995854
 20
27.6937955299
 30
0.0
 10
1053.8180995854
 20
27.6937955299
 30
0.0
  0
SPLINE
  5
242
330
226
100
AcDbEntity
  8
0
  6
Continuous
 62
     7
100
AcDbSpline
 70
     3
 71
     3
 72
    35
 73
    31
 74
     0
 42
0.000000001
 43
0.0000001
 40
0.0
 40
0.0
 40
0.0
 40
0.0
 40
1.0
 40
1.0
 40
1.0
 40
2.0
 40
2.0
 40
2.0
 40
3.0
 40
3.0
 40
3.0
 40
4.0
 40
4.0
 40
4.0
 40
5.0
 40
5.0
 40
5.0
 40
6.0
 40
6.0
 40
6.0
 40
7.0
 40
7.0
 40
7.0
 40
8.0
 40
8.0
 40
8.0
 40
9.0
 40
9.0
 40
9.0
 40
10.0
 40
10.0
 40
10.0
 40
10.0
 10
1057.2168707832
 20
27.6524460382
 30
0.0
 10
1057.1284142755
 20
27.7037403444
 30
0.0
 10
1057.0149648789
 20
27.7288640862
 30
0.0
 10
1056.9113294439
 20
27.7288640862
 30
0.0
 10
1056.5564565907
 20
27.7288640862
 30
0.0
 10
1056.2810114005
 20
27.4650647971
 30
0.0
 10
1056.2810114005
 20
27.1075748875
 30
0.0
 10
1056.2810114005
 20
26.7626468488
 30
0.0
 10
1056.5594662056
 20
26.5025114387
 30
0.0
 10
1056.8990292786
 20
26.5025114387
 30
0.0
 10
1057.0149648789
 20
26.5025114387
 30
0.0
 10
1057.1157215518
 20
26.5244947128
 30
0.0
 10
1057.2168707832
 20
26.5784060755
 30
0.0
 10
1057.2168707832
 20
26.5784060755
 30
0.0
 10
1057.2168707832
 20
26.8610481709
 30
0.0
 10
1057.2168707832
 20
26.8610481709
 30
0.0
 10
1057.1329941243
 20
26.7678809617
 30
0.0
 10
1057.0294895421
 20
26.7087354861
 30
0.0
 10
1056.9013846294
 20
26.7087354861
 30
0.0
 10
1056.6676814894
 20
26.7087354861
 30
0.0
 10
1056.5024143753
 20
26.8809377999
 30
0.0
 10
1056.5024143753
 20
27.117519702
 30
0.0
 10
1056.5024143753
 20
27.3295012736
 30
0.0
 10
1056.670167693
 20
27.5215932162
 30
0.0
 10
1056.886990819
 20
27.5215932162
 30
0.0
 10
1057.0198064333
 20
27.5215932162
 30
0.0
 10
1057.1284142755
 20
27.4676818536
 30
0.0
 10
1057.2168707832
 20
27.366663475
 30
0.0
 10
1057.2168707832
 20
27.366663475
 30
0.0
 10
1057.2168707832
 20
27.6524460382
 30
0.0
 10
1057.2168707832
 20
27.6524460382
 30
0.0
  0
SPLINE
  5
243
330
226
100
AcDbEntity
  8
0
  6
Continuous
 62
     7
100
AcDbSpline
 70
     3
 71
     3
 72
    32
 73
    28
 74
     0
 42
0.000000001
 43
0.0000001
 40
0.0
 40
0.0
 40
0.0
 40
0.0
 40
1.0
 40
1.0
 40
1.0
 40
2.0
 40
2.0
 40
2.0
 40
3.0
 40
3.0
 40
3.0
 40
4.0
 40
4.0
 40
4.0
 40
5.0
 40
5.0
 40
5.0
 40
6.0
 40
6.0
 40
6.0
 40
7.0
 40
7.0
 40
7.0
 40
8.0
 40
8.0
 40
8.0
 40
9.0
 40
9.0
 40
9.0
 40
9.0
 10
1059.7487420354
 20
27.0808809118
 30
0.0
 10
1059.7487420354
 20
27.0808809118
 30
0.0
 10
1059.7487420354
 20
27.1149026455
 30
0.0
 10
1059.7487420354
 20
27.1149026455
 30
0.0
 10
1059.7487420354
 20
27.4572136278
 30
0.0
 10
1059.5758854576
 20
27.7288640862
 30
0.0
 10
1059.2092358505
 20
27.7288640862
 30
0.0
 10
1058.8376138361
 20
27.7288640862
 30
0.0
 10
1058.6478772442
 20
27.4624477407
 30
0.0
 10
1058.6478772442
 20
27.1075748875
 30
0.0
 10
1058.6478772442
 20
26.7678809617
 30
0.0
 10
1058.861952461
 20
26.5019880274
 30
0.0
 10
1059.2140774049
 20
26.5019880274
 30
0.0
 10
1059.4380974361
 20
26.5019880274
 30
0.0
 10
1059.640265046
 20
26.6176619221
 30
0.0
 10
1059.7487420354
 20
26.8170816227
 30
0.0
 10
1059.7487420354
 20
26.8170816227
 30
0.0
 10
1059.5610990887
 20
26.9238575255
 30
0.0
 10
1059.5610990887
 20
26.9238575255
 30
0.0
 10
1059.4776149883
 20
26.7851535342
 30
0.0
 10
1059.3864105714
 20
26.699314083
 30
0.0
 10
1059.2168253141
 20
26.699314083
 30
0.0
 10
1059.0048437426
 20
26.699314083
 30
0.0
 10
1058.8718972754
 20
26.8840782676
 30
0.0
 10
1058.8695419246
 20
27.0808809118
 30
0.0
 10
1058.8695419246
 20
27.0808809118
 30
0.0
 10
1059.7487420354
 20
27.0808809118
 30
0.0
 10
1059.7487420354
 20
27.0808809118
 30
0.0
  0
SPLINE
  5
244
330
226
100
AcDbEntity
  8
0
  6
Continuous
 62
     7
100
AcDbSpline
 70
     3
 71
     3
 72
    14
 73
    10
 74
     0
 42
0.000000001
 43
0.0000001
 40
0.0
 40
0.0
 40
0.0
 40
0.0
 40
1.0
 40
1.0
 40
1.0
 40
2.0
 40
2.0
 40
2.0
 40
3.0
 40
3.0
 40
3.0
 40
3.0
 10
1058.8815803843
 20
27.2483725239
 30
0.0
 10
1058.9091903297
 20
27.4132470796
 30
0.0
 10
1059.0370335368
 20
27.5362487323
 30
0.0
 10
1059.2092358505
 20
27.5362487323
 30
0.0
 10
1059.3864105714
 20
27.5362487323
 30
0.0
 10
1059.4998599681
 20
27.4205748376
 30
0.0
 10
1059.527077355
 20
27.2483725239
 30
0.0
 10
1059.527077355
 20
27.2483725239
 30
0.0
 10
1058.8815803843
 20
27.2483725239
 30
0.0
 10
1058.8815803843
 20
27.2483725239
 30
0.0
  0
SPLINE
  5
245
330
226
100
AcDbEntity
  8
0
  6
Continuous
 62
     7
100
AcDbSpline
 70
     3
 71
     3
 72
    20
 73
    16
 74
     0
 42
0.000000001
 43
0.0000001
 40
0.0
 40
0.0
 40
0.0
 40
0.0
 40
1.0
 40
1.0
 40
1.0
 40
2.0
 40
2.0
 40
2.0
 40
3.0
 40
3.0
 40
3.0
 40
4.0
 40
4.0
 40
4.0
 40
5.0
 40
5.0
 40
5.0
 40
5.0
 10
1061.7727734856
 20
27.4577370391
 30
0.0
 10
1061.7727734856
 20
27.4577370391
 30
0.0
 10
1062.1839130523
 20
26.9552622027
 30
0.0
 10
1062.1839130523
 20
26.9552622027
 30
0.0
 10
1062.0678465992
 20
26.8395883081
 30
0.0
 10
1061.9300585776
 20
26.7092588974
 30
0.0
 10
1061.7581179696
 20
26.7092588974
 30
0.0
 10
1061.580681543
 20
26.7092588974
 30
0.0
 10
1061.4131899309
 20
26.8736100418
 30
0.0
 10
1061.4131899309
 20
27.0505230571
 30
0.0
 10
1061.4131899309
 20
27.228482895
 30
0.0
 10
1061.6229470045
 20
27.3546250154
 30
0.0
 10
1061.7505285059
 20
27.4425581117
 30
0.0
 10
1061.7505285059
 20
27.4425581117
 30
0.0
 10
1061.7727734856
 20
27.4577370391
 30
0.0
 10
1061.7727734856
 20
27.4577370391
 30
0.0
  0
SPLINE
  5
246
330
226
100
AcDbEntity
  8
0
  6
Continuous
 62
     7
100
AcDbSpline
 70
     3
 71
     3
 72
    23
 73
    19
 74
     0
 42
0.000000001
 43
0.0000001
 40
0.0
 40
0.0
 40
0.0
 40
0.0
 40
1.0
 40
1.0
 40
1.0
 40
2.0
 40
2.0
 40
2.0
 40
3.0
 40
3.0
 40
3.0
 40
4.0
 40
4.0
 40
4.0
 40
5.0
 40
5.0
 40
5.0
 40
6.0
 40
6.0
 40
6.0
 40
6.0
 10
1061.8221049995
 20
27.7487537151
 30
0.0
 10
1061.8221049995
 20
27.7487537151
 30
0.0
 10
1061.7604733204
 20
27.8272654083
 30
0.0
 10
1061.7604733204
 20
27.8272654083
 30
0.0
 10
1061.7065619577
 20
27.895832287
 30
0.0
 10
1061.649771833
 20
27.964922577
 30
0.0
 10
1061.649771833
 20
28.0586131976
 30
0.0
 10
1061.649771833
 20
28.1774275599
 30
0.0
 10
1061.7456869515
 20
28.2548924305
 30
0.0
 10
1061.8566501445
 20
28.2548924305
 30
0.0
 10
1061.9799135028
 20
28.2548924305
 30
0.0
 10
1062.0732115649
 20
28.1837084954
 30
0.0
 10
1062.0732115649
 20
28.0533790847
 30
0.0
 10
1062.0732115649
 20
27.9183389724
 30
0.0
 10
1061.9451066522
 20
27.8419209244
 30
0.0
 10
1061.8515468845
 20
27.7681199328
 30
0.0
 10
1061.8515468845
 20
27.7681199328
 30
0.0
 10
1061.8221049995
 20
27.7487537151
 30
0.0
 10
1061.8221049995
 20
27.7487537151
 30
0.0
  0
SPLINE
  5
247
330
226
100
AcDbEntity
  8
0
  6
Continuous
 62
     7
100
AcDbSpline
 70
     3
 71
     3
 72
    50
 73
    46
 74
     0
 42
0.000000001
 43
0.0000001
 40
0.0
 40
0.0
 40
0.0
 40
0.0
 40
1.0
 40
1.0
 40
1.0
 40
2.0
 40
2.0
 40
2.0
 40
3.0
 40
3.0
 40
3.0
 40
4.0
 40
4.0
 40
4.0
 40
5.0
 40
5.0
 40
5.0
 40
6.0
 40
6.0
 40
6.0
 40
7.0
 40
7.0
 40
7.0
 40
8.0
 40
8.0
 40
8.0
 40
9.0
 40
9.0
 40
9.0
 40
10.0
 40
10.0
 40
10.0
 40
11.0
 40
11.0
 40
11.0
 40
12.0
 40
12.0
 40
12.0
 40
13.0
 40
13.0
 40
13.0
 40
14.0
 40
14.0
 40
14.0
 40
15.0
 40
15.0
 40
15.0
 40
15.0
 10
1062.5242612422
 20
26.5417672853
 30
0.0
 10
1062.5242612422
 20
26.5417672853
 30
0.0
 10
1062.8096512469
 20
26.5417672853
 30
0.0
 10
1062.8096512469
 20
26.5417672853
 30
0.0
 10
1062.8096512469
 20
26.5417672853
 30
0.0
 10
1062.4772850791
 20
26.9526451463
 30
0.0
 10
1062.4772850791
 20
26.9526451463
 30
0.0
 10
1062.4772850791
 20
26.9526451463
 30
0.0
 10
1062.7037913139
 20
27.2185380805
 30
0.0
 10
1062.7037913139
 20
27.2185380805
 30
0.0
 10
1062.7037913139
 20
27.2185380805
 30
0.0
 10
1062.5555350667
 20
27.3713741766
 30
0.0
 10
1062.5555350667
 20
27.3713741766
 30
0.0
 10
1062.5555350667
 20
27.3713741766
 30
0.0
 10
1062.3396279104
 20
27.1201367584
 30
0.0
 10
1062.3396279104
 20
27.1201367584
 30
0.0
 10
1062.3396279104
 20
27.1201367584
 30
0.0
 10
1061.952565263
 20
27.5880664498
 30
0.0
 10
1061.952565263
 20
27.5880664498
 30
0.0
 10
1062.1080184155
 20
27.7021701105
 30
0.0
 10
1062.2902963965
 20
27.8419209244
 30
0.0
 10
1062.2902963965
 20
28.0512854395
 30
0.0
 10
1062.2902963965
 20
28.2951950997
 30
0.0
 10
1062.0882596394
 20
28.4386097926
 30
0.0
 10
1061.8617534046
 20
28.4386097926
 30
0.0
 10
1061.6175820388
 20
28.4386097926
 30
0.0
 10
1061.4332104126
 20
28.2878673417
 30
0.0
 10
1061.4332104126
 20
28.0313958106
 30
0.0
 10
1061.4332104126
 20
27.8738490129
 30
0.0
 10
1061.5318734404
 20
27.7361918442
 30
0.0
 10
1061.6372099621
 20
27.6252286512
 30
0.0
 10
1061.6372099621
 20
27.6252286512
 30
0.0
 10
1061.5216669203
 20
27.5414828451
 30
0.0
 10
1061.5216669203
 20
27.5414828451
 30
0.0
 10
1061.3439687881
 20
27.4132470796
 30
0.0
 10
1061.1966285105
 20
27.2855347254
 30
0.0
 10
1061.1966285105
 20
27.048429412
 30
0.0
 10
1061.1966285105
 20
26.7281017038
 30
0.0
 10
1061.4551936867
 20
26.5019880274
 30
0.0
 10
1061.7655765804
 20
26.5019880274
 30
0.0
 10
1061.9844933516
 20
26.5019880274
 30
0.0
 10
1062.1816885543
 20
26.6270833252
 30
0.0
 10
1062.3219627794
 20
26.7930047035
 30
0.0
 10
1062.3219627794
 20
26.7930047035
 30
0.0
 10
1062.5242612422
 20
26.5417672853
 30
0.0
 10
1062.5242612422
 20
26.5417672853
 30
0.0
  0
LWPOLYLINE
  5
248
330
226
100
AcDbEntity
  8
0
  6
Continuous
 62
     7
100
AcDbPolyline
 90
        2
 70
     0
 43
0.2
 10
1064.4597053319
 20
28.3983071234
 10
1064.2283575427
 20
28.3983071234
  0
LWPOLYLINE
  5
249
330
226
100
AcDbEntity
  8
0
  6
Continuous
 62
     7
100
AcDbPolyline
 90
        2
 70
     0
 43
0.2
 10
1064.2283575427
 20
28.3983071234
 10
1064.2283575427
 20
26.541243874
  0
LWPOLYLINE
  5
24A
330
226
100
AcDbEntity
  8
0
  6
Continuous
 62
     7
100
AcDbPolyline
 90
        2
 70
     0
 43
0.2
 10
1064.2283575427
 20
26.541243874
 10
1065.0236809946
 20
26.541243874
  0
LWPOLYLINE
  5
24B
330
226
100
AcDbEntity
  8
0
  6
Continuous
 62
     7
100
AcDbPolyline
 90
        2
 70
     0
 43
0.2
 10
1065.0236809946
 20
26.541243874
 10
1065.0236809946
 20
26.7532254456
  0
LWPOLYLINE
  5
24C
330
226
100
AcDbEntity
  8
0
  6
Continuous
 62
     7
100
AcDbPolyline
 90
        2
 70
     0
 43
0.2
 10
1065.0236809946
 20
26.7532254456
 10
1064.4597053319
 20
26.7532254456
  0
LWPOLYLINE
  5
24D
330
226
100
AcDbEntity
  8
0
  6
Continuous
 62
     7
100
AcDbPolyline
 90
        2
 70
     0
 43
0.2
 10
1064.4597053319
 20
26.7532254456
 10
1064.4597053319
 20
28.3983071234
  0
LWPOLYLINE
  5
24E
330
226
100
AcDbEntity
  8
0
  6
Continuous
 62
     7
100
AcDbPolyline
 90
        2
 70
     0
 43
0.2
 10
1066.7027844061
 20
27.6937955299
 10
1066.481643137
 20
27.6937955299
  0
LWPOLYLINE
  5
24F
330
226
100
AcDbEntity
  8
0
  6
Continuous
 62
     7
100
AcDbPolyline
 90
        2
 70
     0
 43
0.2
 10
1066.481643137
 20
27.6937955299
 10
1066.481643137
 20
26.5417672853
  0
LWPOLYLINE
  5
250
330
226
100
AcDbEntity
  8
0
  6
Continuous
 62
     7
100
AcDbPolyline
 90
        2
 70
     0
 43
0.2
 10
1066.481643137
 20
26.5417672853
 10
1066.7027844061
 20
26.5417672853
  0
LWPOLYLINE
  5
251
330
226
100
AcDbEntity
  8
0
  6
Continuous
 62
     7
100
AcDbPolyline
 90
        2
 70
     0
 43
0.2
 10
1066.7027844061
 20
26.5417672853
 10
1066.7027844061
 20
27.6937955299
  0
LWPOLYLINE
  5
252
330
226
100
AcDbEntity
  8
0
  6
Continuous
 62
     7
100
AcDbPolyline
 90
        2
 70
     1
 43
0.2
 10
1066.4397611289
 20
28.2237494589
 42
1.0
 10
1066.7449281198
 20
28.2237494589
 42
1.0
  0
SPLINE
  5
253
330
226
100
AcDbEntity
  8
0
  6
Continuous
 62
     7
100
AcDbSpline
 70
     3
 71
     3
 72
    17
 73
    13
 74
     0
 42
0.000000001
 43
0.0000001
 40
0.0
 40
0.0
 40
0.0
 40
0.0
 40
1.0
 40
1.0
 40
1.0
 40
2.0
 40
2.0
 40
2.0
 40
3.0
 40
3.0
 40
3.0
 40
4.0
 40
4.0
 40
4.0
 40
4.0
 10
1068.8330683477
 20
26.699314083
 30
0.0
 10
1068.599103502
 20
26.699314083
 30
0.0
 10
1068.4687740914
 20
26.9013508401
 30
0.0
 10
1068.4687740914
 20
27.117519702
 30
0.0
 10
1068.4687740914
 20
27.33211833
 30
0.0
 10
1068.6045993206
 20
27.5310146194
 30
0.0
 10
1068.8330683477
 20
27.5310146194
 30
0.0
 10
1069.0725290119
 20
27.5310146194
 30
0.0
 10
1069.2080925355
 20
27.3420631445
 30
0.0
 10
1069.2080925355
 20
27.117519702
 30
0.0
 10
1069.2080925355
 20
26.8914060256
 30
0.0
 10
1069.0748843627
 20
26.699314083
 30
0.0
 10
1068.8330683477
 20
26.699314083
 30
0.0
  0
SPLINE
  5
254
330
226
100
AcDbEntity
  8
0
  6
Continuous
 62
     7
100
AcDbSpline
 70
     3
 71
     3
 72
    50
 73
    46
 74
     0
 42
0.000000001
 43
0.0000001
 40
0.0
 40
0.0
 40
0.0
 40
0.0
 40
1.0
 40
1.0
 40
1.0
 40
2.0
 40
2.0
 40
2.0
 40
3.0
 40
3.0
 40
3.0
 40
4.0
 40
4.0
 40
4.0
 40
5.0
 40
5.0
 40
5.0
 40
6.0
 40
6.0
 40
6.0
 40
7.0
 40
7.0
 40
7.0
 40
8.0
 40
8.0
 40
8.0
 40
9.0
 40
9.0
 40
9.0
 40
10.0
 40
10.0
 40
10.0
 40
11.0
 40
11.0
 40
11.0
 40
12.0
 40
12.0
 40
12.0
 40
13.0
 40
13.0
 40
13.0
 40
14.0
 40
14.0
 40
14.0
 40
15.0
 40
15.0
 40
15.0
 40
15.0
 10
1069.417195345
 20
27.6943189412
 30
0.0
 10
1069.417195345
 20
27.6943189412
 30
0.0
 10
1069.1955306646
 20
27.6943189412
 30
0.0
 10
1069.1955306646
 20
27.6943189412
 30
0.0
 10
1069.1955306646
 20
27.6943189412
 30
0.0
 10
1069.1955306646
 20
27.4969928857
 30
0.0
 10
1069.1955306646
 20
27.4969928857
 30
0.0
 10
1069.1955306646
 20
27.4969928857
 30
0.0
 10
1069.190819963
 20
27.4969928857
 30
0.0
 10
1069.190819963
 20
27.4969928857
 30
0.0
 10
1069.0994846932
 20
27.6398841673
 30
0.0
 10
1068.9615658189
 20
27.7283406749
 30
0.0
 10
1068.7888400939
 20
27.7283406749
 30
0.0
 10
1068.4564739261
 20
27.7283406749
 30
0.0
 10
1068.2473711166
 20
27.4404644666
 30
0.0
 10
1068.2473711166
 20
27.12484746
 30
0.0
 10
1068.2473711166
 20
26.7950983486
 30
0.0
 10
1068.4444354665
 20
26.5019880274
 30
0.0
 10
1068.7993083197
 20
26.5019880274
 30
0.0
 10
1068.9615658189
 20
26.5019880274
 30
0.0
 10
1069.1015783384
 20
26.5904445351
 30
0.0
 10
1069.190819963
 20
26.7212973571
 30
0.0
 10
1069.190819963
 20
26.7212973571
 30
0.0
 10
1069.1955306646
 20
26.7212973571
 30
0.0
 10
1069.1955306646
 20
26.7212973571
 30
0.0
 10
1069.1955306646
 20
26.7212973571
 30
0.0
 10
1069.1955306646
 20
26.5019880274
 30
0.0
 10
1069.1955306646
 20
26.5019880274
 30
0.0
 10
1069.1955306646
 20
26.2654061253
 30
0.0
 10
1069.1390022455
 20
26.0785482956
 30
0.0
 10
1068.8657815532
 20
26.0785482956
 30
0.0
 10
1068.6634830905
 20
26.0785482956
 30
0.0
 10
1068.5208535145
 20
26.1968392466
 30
0.0
 10
1068.5208535145
 20
26.403063294
 30
0.0
 10
1068.5208535145
 20
26.403063294
 30
0.0
 10
1068.2991888341
 20
26.403063294
 30
0.0
 10
1068.2991888341
 20
26.403063294
 30
0.0
 10
1068.3041612413
 20
26.0785482956
 30
0.0
 10
1068.5352473249
 20
25.8817456513
 30
0.0
 10
1068.8555750331
 20
25.8817456513
 30
0.0
 10
1069.3036150955
 20
25.8817456513
 30
0.0
 10
1069.417195345
 20
26.1670048032
 30
0.0
 10
1069.417195345
 20
26.5637505594
 30
0.0
 10
1069.417195345
 20
26.5637505594
 30
0.0
 10
1069.417195345
 20
27.6943189412
 30
0.0
 10
1069.417195345
 20
27.6943189412
 30
0.0
  0
SPLINE
  5
255
330
226
100
AcDbEntity
  8
0
  6
Continuous
 62
     7
100
AcDbSpline
 70
     3
 71
     3
 72
    44
 73
    40
 74
     0
 42
0.000000001
 43
0.0000001
 40
0.0
 40
0.0
 40
0.0
 40
0.0
 40
1.0
 40
1.0
 40
1.0
 40
2.0
 40
2.0
 40
2.0
 40
3.0
 40
3.0
 40
3.0
 40
4.0
 40
4.0
 40
4.0
 40
5.0
 40
5.0
 40
5.0
 40
6.0
 40
6.0
 40
6.0
 40
7.0
 40
7.0
 40
7.0
 40
8.0
 40
8.0
 40
8.0
 40
9.0
 40
9.0
 40
9.0
 40
10.0
 40
10.0
 40
10.0
 40
11.0
 40
11.0
 40
11.0
 40
12.0
 40
12.0
 40
12.0
 40
13.0
 40
13.0
 40
13.0
 40
13.0
 10
1070.9861206804
 20
28.679378985
 30
0.0
 10
1070.9861206804
 20
28.679378985
 30
0.0
 10
1070.9861206804
 20
26.541243874
 30
0.0
 10
1070.9861206804
 20
26.541243874
 30
0.0
 10
1070.9861206804
 20
26.541243874
 30
0.0
 10
1071.2075236551
 20
26.541243874
 30
0.0
 10
1071.2075236551
 20
26.541243874
 30
0.0
 10
1071.2075236551
 20
26.541243874
 30
0.0
 10
1071.2075236551
 20
27.0709360974
 30
0.0
 10
1071.2075236551
 20
27.0709360974
 30
0.0
 10
1071.2075236551
 20
27.2808240238
 30
0.0
 10
1071.2075236551
 20
27.5315380307
 30
0.0
 10
1071.492782807
 20
27.5315380307
 30
0.0
 10
1071.7196816003
 20
27.5315380307
 30
0.0
 10
1071.7466372817
 20
27.3985915636
 30
0.0
 10
1071.7466372817
 20
27.2023123306
 30
0.0
 10
1071.7466372817
 20
27.2023123306
 30
0.0
 10
1071.7466372817
 20
26.541243874
 30
0.0
 10
1071.7466372817
 20
26.541243874
 30
0.0
 10
1071.7466372817
 20
26.541243874
 30
0.0
 10
1071.9685636677
 20
26.541243874
 30
0.0
 10
1071.9685636677
 20
26.541243874
 30
0.0
 10
1071.9685636677
 20
26.541243874
 30
0.0
 10
1071.9685636677
 20
27.228482895
 30
0.0
 10
1071.9685636677
 20
27.228482895
 30
0.0
 10
1071.9685636677
 20
27.5090313453
 30
0.0
 10
1071.884556156
 20
27.7288640862
 30
0.0
 10
1071.5595177462
 20
27.7288640862
 30
0.0
 10
1071.4197669324
 20
27.7288640862
 30
0.0
 10
1071.2815863524
 20
27.6623908526
 30
0.0
 10
1071.2122343567
 20
27.5393892
 30
0.0
 10
1071.2122343567
 20
27.5393892
 30
0.0
 10
1071.2075236551
 20
27.5393892
 30
0.0
 10
1071.2075236551
 20
27.5393892
 30
0.0
 10
1071.2075236551
 20
27.5393892
 30
0.0
 10
1071.2075236551
 20
28.679378985
 30
0.0
 10
1071.2075236551
 20
28.679378985
 30
0.0
 10
1071.2075236551
 20
28.679378985
 30
0.0
 10
1070.9861206804
 20
28.679378985
 30
0.0
 10
1070.9861206804
 20
28.679378985
 30
0.0
  0
LWPOLYLINE
  5
256
330
226
100
AcDbEntity
  8
0
  6
Continuous
 62
     7
100
AcDbPolyline
 90
        2
 70
     0
 43
0.2
 10
1073.8083543446
 20
27.4870480712
 10
1074.0247849121
 20
27.4870480712
  0
LWPOLYLINE
  5
257
330
226
100
AcDbEntity
  8
0
  6
Continuous
 62
     7
100
AcDbPolyline
 90
        2
 70
     0
 43
0.2
 10
1074.0247849121
 20
27.4870480712
 10
1074.0247849121
 20
27.6937955299
  0
LWPOLYLINE
  5
258
330
226
100
AcDbEntity
  8
0
  6
Continuous
 62
     7
100
AcDbPolyline
 90
        2
 70
     0
 43
0.2
 10
1074.0247849121
 20
27.6937955299
 10
1073.8083543446
 20
27.6937955299
  0
LWPOLYLINE
  5
259
330
226
100
AcDbEntity
  8
0
  6
Continuous
 62
     7
100
AcDbPolyline
 90
        2
 70
     0
 43
0.2
 10
1073.8083543446
 20
27.6937955299
 10
1073.8083543446
 20
28.1345078343
  0
LWPOLYLINE
  5
25A
330
226
100
AcDbEntity
  8
0
  6
Continuous
 62
     7
100
AcDbPolyline
 90
        2
 70
     0
 43
0.2
 10
1073.8083543446
 20
28.1345078343
 10
1073.5866896642
 20
28.1345078343
  0
LWPOLYLINE
  5
25B
330
226
100
AcDbEntity
  8
0
  6
Continuous
 62
     7
100
AcDbPolyline
 90
        2
 70
     0
 43
0.2
 10
1073.5866896642
 20
28.1345078343
 10
1073.5866896642
 20
27.6937955299
  0
LWPOLYLINE
  5
25C
330
226
100
AcDbEntity
  8
0
  6
Continuous
 62
     7
100
AcDbPolyline
 90
        2
 70
     0
 43
0.2
 10
1073.5866896642
 20
27.6937955299
 10
1073.4660433623
 20
27.6937955299
  0
LWPOLYLINE
  5
25D
330
226
100
AcDbEntity
  8
0
  6
Continuous
 62
     7
100
AcDbPolyline
 90
        2
 70
     0
 43
0.2
 10
1073.4660433623
 20
27.6937955299
 10
1073.4660433623
 20
27.4870480712
  0
LWPOLYLINE
  5
25E
330
226
100
AcDbEntity
  8
0
  6
Continuous
 62
     7
100
AcDbPolyline
 90
        2
 70
     0
 43
0.2
 10
1073.4660433623
 20
27.4870480712
 10
1073.5866896642
 20
27.4870480712
  0
LWPOLYLINE
  5
25F
330
226
100
AcDbEntity
  8
0
  6
Continuous
 62
     7
100
AcDbPolyline
 90
        2
 70
     0
 43
0.2
 10
1073.5866896642
 20
27.4870480712
 10
1073.5866896642
 20
26.541243874
  0
LWPOLYLINE
  5
260
330
226
100
AcDbEntity
  8
0
  6
Continuous
 62
     7
100
AcDbPolyline
 90
        2
 70
     0
 43
0.2
 10
1073.5866896642
 20
26.541243874
 10
1073.8083543446
 20
26.541243874
  0
LWPOLYLINE
  5
261
330
226
100
AcDbEntity
  8
0
  6
Continuous
 62
     7
100
AcDbPolyline
 90
        2
 70
     0
 43
0.2
 10
1073.8083543446
 20
26.541243874
 10
1073.8083543446
 20
27.4870480712
  0
SPLINE
  5
262
330
226
100
AcDbEntity
  8
0
  6
Continuous
 62
     7
100
AcDbSpline
 70
     3
 71
     3
 72
    20
 73
    16
 74
     0
 42
0.000000001
 43
0.0000001
 40
0.0
 40
0.0
 40
0.0
 40
0.0
 40
1.0
 40
1.0
 40
1.0
 40
2.0
 40
2.0
 40
2.0
 40
3.0
 40
3.0
 40
3.0
 40
4.0
 40
4.0
 40
4.0
 40
5.0
 40
5.0
 40
5.0
 40
5.0
 10
1061.5903646518
 20
36.9021703174
 30
0.0
 10
1061.5903646518
 20
36.9021703174
 30
0.0
 10
1063.9067213063
 20
34.0726088952
 30
0.0
 10
1063.9067213063
 20
34.0726088952
 30
0.0
 10
1063.2550742529
 20
33.4204384305
 30
0.0
 10
1062.4782010489
 20
32.6845221598
 30
0.0
 10
1061.5070114042
 20
32.6845221598
 30
0.0
 10
1060.5084735198
 20
32.6845221598
 30
0.0
 10
1059.5651555262
 20
33.614100607
 30
0.0
 10
1059.5651555262
 20
34.6132927556
 30
0.0
 10
1059.5651555262
 20
35.6124849041
 30
0.0
 10
1060.7440085993
 20
36.3190901427
 30
0.0
 10
1061.4655310597
 20
36.8189479226
 30
0.0
 10
1061.4655310597
 20
36.8189479226
 30
0.0
 10
1061.5903646518
 20
36.9021703174
 30
0.0
 10
1061.5903646518
 20
36.9021703174
 30
0.0
  0
SPLINE
  5
263
330
226
100
AcDbEntity
  8
0
  6
Continuous
 62
     7
100
AcDbSpline
 70
     3
 71
     3
 72
    23
 73
    19
 74
     0
 42
0.000000001
 43
0.0000001
 40
0.0
 40
0.0
 40
0.0
 40
0.0
 40
1.0
 40
1.0
 40
1.0
 40
2.0
 40
2.0
 40
2.0
 40
3.0
 40
3.0
 40
3.0
 40
4.0
 40
4.0
 40
4.0
 40
5.0
 40
5.0
 40
5.0
 40
6.0
 40
6.0
 40
6.0
 40
6.0
 10
1061.8677726344
 20
38.5399242372
 30
0.0
 10
1061.8677726344
 20
38.5399242372
 30
0.0
 10
1061.5212743618
 20
38.983253598
 30
0.0
 10
1061.5212743618
 20
38.983253598
 30
0.0
 10
1061.2154713169
 20
39.3713630679
 30
0.0
 10
1060.8965829897
 20
39.7598650964
 30
0.0
 10
1060.8965829897
 20
40.2868094104
 30
0.0
 10
1060.8965829897
 20
40.9529811271
 30
0.0
 10
1061.4379211142
 20
41.3967030464
 30
0.0
 10
1062.0618273694
 20
41.3967030464
 30
0.0
 10
1062.7556090314
 20
41.3967030464
 30
0.0
 10
1063.2828150511
 20
40.9944614716
 30
0.0
 10
1063.2828150511
 20
40.2594611706
 30
0.0
 10
1063.2828150511
 20
39.4961966601
 30
0.0
 10
1062.5615542965
 20
39.0660834343
 30
0.0
 10
1062.0344791296
 20
38.6503640189
 30
0.0
 10
1062.0344791296
 20
38.6503640189
 30
0.0
 10
1061.8677726344
 20
38.5399242372
 30
0.0
 10
1061.8677726344
 20
38.5399242372
 30
0.0
  0
SPLINE
  5
264
330
226
100
AcDbEntity
  8
0
  6
Continuous
 62
     7
100
AcDbSpline
 70
     3
 71
     3
 72
    50
 73
    46
 74
     0
 42
0.000000001
 43
0.0000001
 40
0.0
 40
0.0
 40
0.0
 40
0.0
 40
1.0
 40
1.0
 40
1.0
 40
2.0
 40
2.0
 40
2.0
 40
3.0
 40
3.0
 40
3.0
 40
4.0
 40
4.0
 40
4.0
 40
5.0
 40
5.0
 40
5.0
 40
6.0
 40
6.0
 40
6.0
 40
7.0
 40
7.0
 40
7.0
 40
8.0
 40
8.0
 40
8.0
 40
9.0
 40
9.0
 40
9.0
 40
10.0
 40
10.0
 40
10.0
 40
11.0
 40
11.0
 40
11.0
 40
12.0
 40
12.0
 40
12.0
 40
13.0
 40
13.0
 40
13.0
 40
14.0
 40
14.0
 40
14.0
 40
15.0
 40
15.0
 40
15.0
 40
15.0
 10
1065.8213597973
 20
31.741335019
 30
0.0
 10
1065.8213597973
 20
31.741335019
 30
0.0
 10
1067.4305878019
 20
31.741335019
 30
0.0
 10
1067.4305878019
 20
31.741335019
 30
0.0
 10
1067.4305878019
 20
31.741335019
 30
0.0
 10
1065.5575605082
 20
34.0584767904
 30
0.0
 10
1065.5575605082
 20
34.0584767904
 30
0.0
 10
1065.5575605082
 20
34.0584767904
 30
0.0
 10
1066.8338989337
 20
35.555956485
 30
0.0
 10
1066.8338989337
 20
35.555956485
 30
0.0
 10
1066.8338989337
 20
35.555956485
 30
0.0
 10
1066.001674986
 20
36.4169680536
 30
0.0
 10
1066.001674986
 20
36.4169680536
 30
0.0
 10
1066.001674986
 20
36.4169680536
 30
0.0
 10
1064.7810798627
 20
35.0016639312
 30
0.0
 10
1064.7810798627
 20
35.0016639312
 30
0.0
 10
1064.7810798627
 20
35.0016639312
 30
0.0
 10
1062.6031654938
 20
37.6370397656
 30
0.0
 10
1062.6031654938
 20
37.6370397656
 30
0.0
 10
1063.4767389333
 20
38.2750781255
 30
0.0
 10
1064.5034101745
 20
39.0660834343
 30
0.0
 10
1064.5034101745
 20
40.2449365074
 30
0.0
 10
1064.5034101745
 20
41.6186294324
 30
0.0
 10
1063.3655140346
 20
42.4231125819
 30
0.0
 10
1062.0902224317
 20
42.4231125819
 30
0.0
 10
1060.7167912124
 20
42.4231125819
 30
0.0
 10
1059.6758570136
 20
41.5768873822
 30
0.0
 10
1059.6758570136
 20
40.13423502
 30
0.0
 10
1059.6758570136
 20
39.2466603286
 30
0.0
 10
1060.23119639
 20
38.4697871246
 30
0.0
 10
1060.8273618469
 20
37.8453574582
 30
0.0
 10
1060.8273618469
 20
37.8453574582
 30
0.0
 10
1060.1754530879
 20
37.3737638878
 30
0.0
 10
1060.1754530879
 20
37.3737638878
 30
0.0
 10
1059.1769152034
 20
36.6525031331
 30
0.0
 10
1058.3440369916
 20
35.9312423784
 30
0.0
 10
1058.3440369916
 20
34.5996840621
 30
0.0
 10
1058.3440369916
 20
32.7960087641
 30
0.0
 10
1059.8010831642
 20
31.519408633
 30
0.0
 10
1061.5486226016
 20
31.519408633
 30
0.0
 10
1062.7834806825
 20
31.519408633
 30
0.0
 10
1063.8928509072
 20
32.2275841054
 30
0.0
 10
1064.6837253631
 20
33.1561157301
 30
0.0
 10
1064.6837253631
 20
33.1561157301
 30
0.0
 10
1065.8213597973
 20
31.741335019
 30
0.0
 10
1065.8213597973
 20
31.741335019
 30
0.0
  0
LINE
  5
265
330
226
100
AcDbEntity
  8
0
  6
Continuous
 62
     7
100
AcDbLine
 10
1051.6242211723
 20
29.7152099237
 30
0.0
 11
1074.0381318999
 21
29.7152099237
 31
0.0
  0
LINE
  5
266
330
226
100
AcDbEntity
  8
0
  6
Continuous
 62
     7
100
AcDbLine
 10
1074.0381318999
 20
29.7152099237
 30
0.0
 11
1074.0381318999
 21
52.1291206513
 31
0.0
  0
LINE
  5
267
330
226
100
AcDbEntity
  8
0
  6
Continuous
 62
     7
100
AcDbLine
 10
1074.0381318999
 20
52.1291206513
 30
0.0
 11
1051.6242211723
 21
52.1291206513
 31
0.0
  0
LINE
  5
268
330
226
100
AcDbEntity
  8
0
  6
Continuous
 62
     7
100
AcDbLine
 10
1051.6242211723
 20
52.1291206513
 30
0.0
 11
1051.6242211723
 21
29.7152099237
 31
0.0
  0
ENDBLK
  5
269
330
226
100
AcDbEntity
  8
0
  6
ByBlock
 62
     0
100
AcDbBlockEnd
  0
BLOCK
  5
26A
330
227
100
AcDbEntity
  8
0
100
AcDbBlockBegin
  2
PROIEZIONE_EU_BL0
 70
     0
 10
1064.0050640649
 20
61.6304331513
 30
0.0
  3
PROIEZIONE_EU_BL0
  1

  0
LWPOLYLINE
  5
26B
330
227
100
AcDbEntity
  8
DEFAULT_1
  6
CENTER
 62
     7
100
AcDbPolyline
 90
        2
 70
     0
 43
0.25
 10
1070.1316847266
 20
66.6301272832
 10
1070.131725709
 20
56.6307390194
  0
LWPOLYLINE
  5
26C
330
227
100
AcDbEntity
  8
DEFAULT_1
  6
CENTER
 62
     7
100
AcDbPolyline
 90
        2
 70
     0
 43
0.25
 10
1076.1317145517
 20
61.6307042864
 10
1051.8784135782
 20
61.630433626
  0
LWPOLYLINE
  5
26D
330
227
100
AcDbEntity
  8
0
  6
Continuous
 62
     7
100
AcDbPolyline
 90
        2
 70
     1
 43
0.25
 10
1066.5845745508
 20
61.6118853971
 42
1.0
 10
1073.6909036494
 20
61.6118853971
 42
1.0
  0
LWPOLYLINE
  5
26E
330
227
100
AcDbEntity
  8
0
  6
Continuous
 62
     7
100
AcDbPolyline
 90
        2
 70
     1
 43
0.25
 10
1068.1343183792
 20
61.6297834417
 42
1.0
 10
1072.1460701292
 20
61.6297834417
 42
1.0
  0
LWPOLYLINE
  5
26F
330
227
100
AcDbEntity
  8
0
  6
Continuous
 62
     7
100
AcDbPolyline
 90
        2
 70
     0
 43
0.25
 10
1064.1317123457
 20
65.2056366465
 10
1064.1317119911
 20
58.1054337382
  0
LWPOLYLINE
  5
270
330
227
100
AcDbEntity
  8
0
  6
Continuous
 62
     7
100
AcDbPolyline
 90
        2
 70
     0
 43
0.25
 10
1064.1317404275
 20
58.1054053018
 10
1054.1371831563
 20
59.6254987147
  0
LWPOLYLINE
  5
271
330
227
100
AcDbEntity
  8
0
  6
Continuous
 62
     7
100
AcDbPolyline
 90
        2
 70
     0
 43
0.25
 10
1054.1348731707
 20
59.6248211731
 10
1054.1322062666
 20
63.6304597846
  0
LWPOLYLINE
  5
272
330
227
100
AcDbEntity
  8
0
  6
Continuous
 62
     7
100
AcDbPolyline
 90
        2
 70
     0
 43
0.25
 10
1054.1321979905
 20
63.6304515085
 10
1064.1319412278
 20
65.2056087286
  0
ENDBLK
  5
273
330
227
100
AcDbEntity
  8
0
  6
ByBlock
 62
     0
100
AcDbBlockEnd
  0
ENDSEC
  0
SECTION
  2
ENTITIES
  0
LINE
  5
2B7
330
1B
100
AcDbEntity
 67
     1
  8
0
  6
Continuous
 62
     7
100
AcDbLine
 10
1189.0
 20
0.0
 30
0.0
 11
1189.0
 21
841.0
 31
0.0
  0
LINE
  5
2B8
330
1B
100
AcDbEntity
 67
     1
  8
0
  6
Continuous
 62
     7
100
AcDbLine
 10
0.0
 20
841.0
 30
0.0
 11
1189.0
 21
841.0
 31
0.0
  0
LINE
  5
2B9
330
1B
100
AcDbEntity
 67
     1
  8
0
  6
Continuous
 62
     7
100
AcDbLine
 10
0.0
 20
0.0
 30
0.0
 11
0.0
 21
841.0
 31
0.0
  0
LINE
  5
2BA
330
1B
100
AcDbEntity
 67
     1
  8
0
  6
Continuous
 62
     7
100
AcDbLine
 10
7.0
 20
834.0
 30
0.0
 11
1182.0
 21
834.0
 31
0.0
  0
LINE
  5
2BB
330
1B
100
AcDbEntity
 67
     1
  8
0
  6
Continuous
 62
     7
100
AcDbLine
 10
1182.0
 20
7.0
 30
0.0
 11
1182.0
 21
834.0
 31
0.0
  0
LINE
  5
2BC
330
1B
100
AcDbEntity
 67
     1
  8
0
  6
Continuous
 62
     7
100
AcDbLine
 10
7.0
 20
7.0
 30
0.0
 11
7.0
 21
841.0
 31
0.0
  0
LINE
  5
2BD
330
1B
100
AcDbEntity
 67
     1
  8
0
  6
Continuous
 62
     7
100
AcDbLine
 10
7.0
 20
7.0
 30
0.0
 11
1182.0
 21
7.0
 31
0.0
  0
LINE
  5
2BE
330
1B
100
AcDbEntity
 67
     1
  8
0
  6
Continuous
 62
     7
100
AcDbLine
 10
10.0
 20
831.0
 30
0.0
 11
1179.0
 21
831.0
 31
0.0
  0
LINE
  5
2BF
330
1B
100
AcDbEntity
 67
     1
  8
0
  6
Continuous
 62
     7
100
AcDbLine
 10
10.0
 20
10.0
 30
0.0
 11
10.0
 21
831.0
 31
0.0
  0
LINE
  5
2C0
330
1B
100
AcDbEntity
 67
     1
  8
0
  6
Continuous
 62
     7
100
AcDbLine
 10
10.0
 20
10.0
 30
0.0
 11
1179.0
 21
10.0
 31
0.0
  0
LINE
  5
2C1
330
1B
100
AcDbEntity
 67
     1
  8
0
  6
Continuous
 62
     7
100
AcDbLine
 10
1179.0
 20
10.0
 30
0.0
 11
1179.0
 21
831.0
 31
0.0
  0
LINE
  5
2C2
330
1B
100
AcDbEntity
 67
     1
  8
0
  6
Continuous
 62
     7
100
AcDbLine
 10
594.5
 20
841.0
 30
0.0
 11
594.5
 21
830.9963547375
 31
0.0
  0
LINE
  5
2C3
330
1B
100
AcDbEntity
 67
     1
  8
0
  6
Continuous
 62
     7
100
AcDbLine
 10
1189.0
 20
420.5
 30
0.0
 11
1179.0324714513
 21
420.5
 31
0.0
  0
LINE
  5
2C4
330
1B
100
AcDbEntity
 67
     1
  8
0
  6
Continuous
 62
     7
100
AcDbLine
 10
979.0
 20
0.0
 30
0.0
 11
979.0
 21
10.0
 31
0.0
  0
LINE
  5
2C5
330
1B
100
AcDbEntity
 67
     1
  8
0
  6
Continuous
 62
     7
100
AcDbLine
 10
0.0
 20
0.0
 30
0.0
 11
1189.0
 21
0.0
 31
0.0
  0
LINE
  5
2C6
330
1B
100
AcDbEntity
 67
     1
  8
0
  6
Continuous
 62
     7
100
AcDbLine
 10
1182.0
 20
7.0
 30
0.0
 11
1182.0
 21
0.0
 31
0.0
  0
LINE
  5
2C7
330
1B
100
AcDbEntity
 67
     1
  8
0
  6
Continuous
 62
     7
100
AcDbLine
 10
1182.0
 20
7.0
 30
0.0
 11
1189.0
 21
7.0
 31
0.0
  0
LINE
  5
2C8
330
1B
100
AcDbEntity
 67
     1
  8
0
  6
Continuous
 62
     7
100
AcDbLine
 10
1082.0
 20
7.0
 30
0.0
 11
1082.0
 21
0.0
 31
0.0
  0
LINE
  5
2C9
330
1B
100
AcDbEntity
 67
     1
  8
0
  6
Continuous
 62
     7
100
AcDbLine
 10
882.0
 20
7.0
 30
0.0
 11
882.0
 21
0.0
 31
0.0
  0
LINE
  5
2CA
330
1B
100
AcDbEntity
 67
     1
  8
0
  6
Continuous
 62
     7
100
AcDbLine
 10
782.0
 20
7.0
 30
0.0
 11
782.0
 21
0.0
 31
0.0
  0
LINE
  5
2CB
330
1B
100
AcDbEntity
 67
     1
  8
0
  6
Continuous
 62
     7
100
AcDbLine
 10
682.0
 20
7.0
 30
0.0
 11
682.0
 21
0.0
 31
0.0
  0
LINE
  5
2CC
330
1B
100
AcDbEntity
 67
     1
  8
0
  6
Continuous
 62
     7
100
AcDbLine
 10
582.0
 20
7.0
 30
0.0
 11
582.0
 21
0.0
 31
0.0
  0
LINE
  5
2CD
330
1B
100
AcDbEntity
 67
     1
  8
0
  6
Continuous
 62
     7
100
AcDbLine
 10
482.0
 20
7.0
 30
0.0
 11
482.0
 21
0.0
 31
0.0
  0
LINE
  5
2CE
330
1B
100
AcDbEntity
 67
     1
  8
0
  6
Continuous
 62
     7
100
AcDbLine
 10
382.0
 20
7.0
 30
0.0
 11
382.0
 21
0.0
 31
0.0
  0
LINE
  5
2CF
330
1B
100
AcDbEntity
 67
     1
  8
0
  6
Continuous
 62
     7
100
AcDbLine
 10
282.0
 20
7.0
 30
0.0
 11
282.0
 21
0.0
 31
0.0
  0
LINE
  5
2D0
330
1B
100
AcDbEntity
 67
     1
  8
0
  6
Continuous
 62
     7
100
AcDbLine
 10
182.0
 20
7.0
 30
0.0
 11
182.0
 21
0.0
 31
0.0
  0
LINE
  5
2D1
330
1B
100
AcDbEntity
 67
     1
  8
0
  6
Continuous
 62
     7
100
AcDbLine
 10
82.0
 20
7.0
 30
0.0
 11
82.0
 21
0.0
 31
0.0
  0
LINE
  5
2D2
330
1B
100
AcDbEntity
 67
     1
  8
0
  6
Continuous
 62
     7
100
AcDbLine
 10
7.0
 20
7.0
 30
0.0
 11
0.0
 21
7.0
 31
0.0
  0
LINE
  5
2D3
330
1B
100
AcDbEntity
 67
     1
  8
0
  6
Continuous
 62
     7
100
AcDbLine
 10
7.0
 20
7.0
 30
0.0
 11
7.0
 21
0.0
 31
0.0
  0
LINE
  5
2D4
330
1B
100
AcDbEntity
 67
     1
  8
0
  6
Continuous
 62
     7
100
AcDbLine
 10
1182.0
 20
107.0
 30
0.0
 11
1189.0
 21
107.0
 31
0.0
  0
LINE
  5
2D5
330
1B
100
AcDbEntity
 67
     1
  8
0
  6
Continuous
 62
     7
100
AcDbLine
 10
1182.0
 20
207.0
 30
0.0
 11
1189.0
 21
207.0
 31
0.0
  0
LINE
  5
2D6
330
1B
100
AcDbEntity
 67
     1
  8
0
  6
Continuous
 62
     7
100
AcDbLine
 10
1182.0
 20
307.0
 30
0.0
 11
1189.0
 21
307.0
 31
0.0
  0
LINE
  5
2D7
330
1B
100
AcDbEntity
 67
     1
  8
0
  6
Continuous
 62
     7
100
AcDbLine
 10
1179.0
 20
507.0
 30
0.0
 11
1189.0
 21
507.0
 31
0.0
  0
LINE
  5
2D8
330
1B
100
AcDbEntity
 67
     1
  8
0
  6
Continuous
 62
     7
100
AcDbLine
 10
1182.0
 20
607.0
 30
0.0
 11
1189.0
 21
607.0
 31
0.0
  0
LINE
  5
2D9
330
1B
100
AcDbEntity
 67
     1
  8
0
  6
Continuous
 62
     7
100
AcDbLine
 10
1182.0
 20
707.0
 30
0.0
 11
1189.0
 21
707.0
 31
0.0
  0
LINE
  5
2DA
330
1B
100
AcDbEntity
 67
     1
  8
0
  6
Continuous
 62
     7
100
AcDbLine
 10
1182.0
 20
834.0
 30
0.0
 11
1189.0
 21
834.0
 31
0.0
  0
LINE
  5
2DB
330
1B
100
AcDbEntity
 67
     1
  8
0
  6
Continuous
 62
     7
100
AcDbLine
 10
1182.0
 20
834.0
 30
0.0
 11
1182.0
 21
841.0
 31
0.0
  0
LINE
  5
2DC
330
1B
100
AcDbEntity
 67
     1
  8
0
  6
Continuous
 62
     7
100
AcDbLine
 10
0.0
 20
834.0
 30
0.0
 11
1189.0
 21
834.0
 31
0.0
  0
LINE
  5
2DD
330
1B
100
AcDbEntity
 67
     1
  8
0
  6
Continuous
 62
     7
100
AcDbLine
 10
979.0
 20
831.0
 30
0.0
 11
979.0
 21
841.0
 31
0.0
  0
LINE
  5
2DE
330
1B
100
AcDbEntity
 67
     1
  8
0
  6
Continuous
 62
     7
100
AcDbLine
 10
1082.0
 20
841.0
 30
0.0
 11
1082.0
 21
834.0
 31
0.0
  0
LINE
  5
2DF
330
1B
100
AcDbEntity
 67
     1
  8
0
  6
Continuous
 62
     7
100
AcDbLine
 10
882.0
 20
841.0
 30
0.0
 11
882.0
 21
834.0
 31
0.0
  0
LINE
  5
2E0
330
1B
100
AcDbEntity
 67
     1
  8
0
  6
Continuous
 62
     7
100
AcDbLine
 10
782.0
 20
841.0
 30
0.0
 11
782.0
 21
834.0
 31
0.0
  0
LINE
  5
2E1
330
1B
100
AcDbEntity
 67
     1
  8
0
  6
Continuous
 62
     7
100
AcDbLine
 10
682.0
 20
841.0
 30
0.0
 11
682.0
 21
834.0
 31
0.0
  0
LINE
  5
2E2
330
1B
100
AcDbEntity
 67
     1
  8
0
  6
Continuous
 62
     7
100
AcDbLine
 10
582.0
 20
841.0
 30
0.0
 11
582.0
 21
834.0
 31
0.0
  0
LINE
  5
2E3
330
1B
100
AcDbEntity
 67
     1
  8
0
  6
Continuous
 62
     7
100
AcDbLine
 10
482.0
 20
841.0
 30
0.0
 11
482.0
 21
834.0
 31
0.0
  0
LINE
  5
2E4
330
1B
100
AcDbEntity
 67
     1
  8
0
  6
Continuous
 62
     7
100
AcDbLine
 10
382.0
 20
841.0
 30
0.0
 11
382.0
 21
834.0
 31
0.0
  0
LINE
  5
2E5
330
1B
100
AcDbEntity
 67
     1
  8
0
  6
Continuous
 62
     7
100
AcDbLine
 10
282.0
 20
841.0
 30
0.0
 11
282.0
 21
834.0
 31
0.0
  0
LINE
  5
2E6
330
1B
100
AcDbEntity
 67
     1
  8
0
  6
Continuous
 62
     7
100
AcDbLine
 10
182.0
 20
841.0
 30
0.0
 11
182.0
 21
834.0
 31
0.0
  0
LINE
  5
2E7
330
1B
100
AcDbEntity
 67
     1
  8
0
  6
Continuous
 62
     7
100
AcDbLine
 10
82.0
 20
841.0
 30
0.0
 11
82.0
 21
834.0
 31
0.0
  0
LINE
  5
2E8
330
1B
100
AcDbEntity
 67
     1
  8
0
  6
Continuous
 62
     7
100
AcDbLine
 10
7.0
 20
420.5
 30
0.0
 11
-2.9675285487
 21
420.5
 31
0.0
  0
LINE
  5
2E9
330
1B
100
AcDbEntity
 67
     1
  8
0
  6
Continuous
 62
     7
100
AcDbLine
 10
0.0
 20
107.0
 30
0.0
 11
7.0
 21
107.0
 31
0.0
  0
LINE
  5
2EA
330
1B
100
AcDbEntity
 67
     1
  8
0
  6
Continuous
 62
     7
100
AcDbLine
 10
0.0
 20
207.0
 30
0.0
 11
7.0
 21
207.0
 31
0.0
  0
LINE
  5
2EB
330
1B
100
AcDbEntity
 67
     1
  8
0
  6
Continuous
 62
     7
100
AcDbLine
 10
0.0
 20
307.0
 30
0.0
 11
7.0
 21
307.0
 31
0.0
  0
LINE
  5
2EC
330
1B
100
AcDbEntity
 67
     1
  8
0
  6
Continuous
 62
     7
100
AcDbLine
 10
-3.0
 20
507.0
 30
0.0
 11
7.0
 21
507.0
 31
0.0
  0
LINE
  5
2ED
330
1B
100
AcDbEntity
 67
     1
  8
0
  6
Continuous
 62
     7
100
AcDbLine
 10
0.0
 20
607.0
 30
0.0
 11
7.0
 21
607.0
 31
0.0
  0
LINE
  5
2EE
330
1B
100
AcDbEntity
 67
     1
  8
0
  6
Continuous
 62
     7
100
AcDbLine
 10
0.0
 20
707.0
 30
0.0
 11
7.0
 21
707.0
 31
0.0
  0
MTEXT
  5
2EF
330
1B
100
AcDbEntity
 67
     1
  8
0
  6
Continuous
 62
     2
100
AcDbMText
 10
1131.154890719
 20
5.35876025
 30
0.0
 40
4.0
 41
5.1428571429
 46
0.0
 71
     1
 72
     1
  1
A
  7
TEXTSTYLE_2
 73
     1
 44
1.0
  0
MTEXT
  5
2F0
330
1B
100
AcDbEntity
 67
     1
  8
0
  6
Continuous
 62
     2
100
AcDbMText
 10
1031.154890719
 20
5.35876025
 30
0.0
 40
4.0
 41
4.7142857143
 46
0.0
 71
     1
 72
     1
  1
B
  7
TEXTSTYLE_2
 73
     1
 44
1.0
  0
MTEXT
  5
2F1
330
1B
100
AcDbEntity
 67
     1
  8
0
  6
Continuous
 62
     2
100
AcDbMText
 10
931.154890719
 20
5.35876025
 30
0.0
 40
4.0
 41
5.0
 46
0.0
 71
     1
 72
     1
  1
C
  7
TEXTSTYLE_2
 73
     1
 44
1.0
  0
MTEXT
  5
2F2
330
1B
100
AcDbEntity
 67
     1
  8
0
  6
Continuous
 62
     2
100
AcDbMText
 10
831.154890719
 20
5.35876025
 30
0.0
 40
4.0
 41
5.4285714286
 46
0.0
 71
     1
 72
     1
  1
D
  7
TEXTSTYLE_2
 73
     1
 44
1.0
  0
MTEXT
  5
2F3
330
1B
100
AcDbEntity
 67
     1
  8
0
  6
Continuous
 62
     2
100
AcDbMText
 10
731.154890719
 20
5.35876025
 30
0.0
 40
4.0
 41
4.2857142857
 46
0.0
 71
     1
 72
     1
  1
E
  7
TEXTSTYLE_2
 73
     1
 44
1.0
  0
MTEXT
  5
2F4
330
1B
100
AcDbEntity
 67
     1
  8
0
  6
Continuous
 62
     2
100
AcDbMText
 10
631.154890719
 20
5.35876025
 30
0.0
 40
4.0
 41
4.2857142857
 46
0.0
 71
     1
 72
     1
  1
F
  7
TEXTSTYLE_2
 73
     1
 44
1.0
  0
MTEXT
  5
2F5
330
1B
100
AcDbEntity
 67
     1
  8
0
  6
Continuous
 62
     2
100
AcDbMText
 10
531.154890719
 20
5.35876025
 30
0.0
 40
4.0
 41
4.7142857143
 46
0.0
 71
     1
 72
     1
  1
G
  7
TEXTSTYLE_2
 73
     1
 44
1.0
  0
MTEXT
  5
2F6
330
1B
100
AcDbEntity
 67
     1
  8
0
  6
Continuous
 62
     2
100
AcDbMText
 10
431.154890719
 20
5.35876025
 30
0.0
 40
4.0
 41
4.7142857143
 46
0.0
 71
     1
 72
     1
  1
H
  7
TEXTSTYLE_2
 73
     1
 44
1.0
  0
MTEXT
  5
2F7
330
1B
100
AcDbEntity
 67
     1
  8
0
  6
Continuous
 62
     2
100
AcDbMText
 10
331.154890719
 20
5.35876025
 30
0.0
 40
4.0
 41
3.8571428571
 46
0.0
 71
     1
 72
     1
  1
I
  7
TEXTSTYLE_2
 73
     1
 44
1.0
  0
MTEXT
  5
2F8
330
1B
100
AcDbEntity
 67
     1
  8
0
  6
Continuous
 62
     2
100
AcDbMText
 10
231.154890719
 20
5.35876025
 30
0.0
 40
4.0
 41
3.8571428571
 46
0.0
 71
     1
 72
     1
  1
L
  7
TEXTSTYLE_2
 73
     1
 44
1.0
  0
MTEXT
  5
2F9
330
1B
100
AcDbEntity
 67
     1
  8
0
  6
Continuous
 62
     2
100
AcDbMText
 10
131.154890719
 20
5.35876025
 30
0.0
 40
4.0
 41
5.1428571429
 46
0.0
 71
     1
 72
     1
  1
M
  7
TEXTSTYLE_2
 73
     1
 44
1.0
  0
MTEXT
  5
2FA
330
1B
100
AcDbEntity
 67
     1
  8
0
  6
Continuous
 62
     2
100
AcDbMText
 10
31.154890719
 20
5.35876025
 30
0.0
 40
4.0
 41
4.7142857143
 46
0.0
 71
     1
 72
     1
  1
N
  7
TEXTSTYLE_2
 73
     1
 44
1.0
  0
MTEXT
  5
2FB
330
1B
100
AcDbEntity
 67
     1
  8
0
  6
Continuous
 62
     2
100
AcDbMText
 10
1183.6467220993
 20
60.6268709614
 30
0.0
 40
4.0
 41
3.4285714286
 46
0.0
 71
     1
 72
     1
  1
1
  7
TEXTSTYLE_2
 73
     1
 44
1.0
  0
MTEXT
  5
2FC
330
1B
100
AcDbEntity
 67
     1
  8
0
  6
Continuous
 62
     2
100
AcDbMText
 10
1183.6467220993
 20
160.6268709614
 30
0.0
 40
4.0
 41
4.7142857143
 46
0.0
 71
     1
 72
     1
  1
2
  7
TEXTSTYLE_2
 73
     1
 44
1.0
  0
MTEXT
  5
2FD
330
1B
100
AcDbEntity
 67
     1
  8
0
  6
Continuous
 62
     2
100
AcDbMText
 10
1183.6467220993
 20
260.6268709614
 30
0.0
 40
4.0
 41
4.2857142857
 46
0.0
 71
     1
 72
     1
  1
3
  7
TEXTSTYLE_2
 73
     1
 44
1.0
  0
MTEXT
  5
2FE
330
1B
100
AcDbEntity
 67
     1
  8
0
  6
Continuous
 62
     2
100
AcDbMText
 10
1183.6467220993
 20
360.6268709614
 30
0.0
 40
4.0
 41
4.7142857143
 46
0.0
 71
     1
 72
     1
  1
4
  7
TEXTSTYLE_2
 73
     1
 44
1.0
  0
MTEXT
  5
2FF
330
1B
100
AcDbEntity
 67
     1
  8
0
  6
Continuous
 62
     2
100
AcDbMText
 10
1183.6467220993
 20
460.6268709614
 30
0.0
 40
4.0
 41
4.2857142857
 46
0.0
 71
     1
 72
     1
  1
5
  7
TEXTSTYLE_2
 73
     1
 44
1.0
  0
MTEXT
  5
300
330
1B
100
AcDbEntity
 67
     1
  8
0
  6
Continuous
 62
     2
100
AcDbMText
 10
1183.6467220993
 20
560.6268709614
 30
0.0
 40
4.0
 41
4.7142857143
 46
0.0
 71
     1
 72
     1
  1
6
  7
TEXTSTYLE_2
 73
     1
 44
1.0
  0
MTEXT
  5
301
330
1B
100
AcDbEntity
 67
     1
  8
0
  6
Continuous
 62
     2
100
AcDbMText
 10
1183.6467220993
 20
660.6268709614
 30
0.0
 40
4.0
 41
4.7142857143
 46
0.0
 71
     1
 72
     1
  1
7
  7
TEXTSTYLE_2
 73
     1
 44
1.0
  0
MTEXT
  5
302
330
1B
100
AcDbEntity
 67
     1
  8
0
  6
Continuous
 62
     2
100
AcDbMText
 10
1183.8487460335
 20
775.1725942251
 30
0.0
 40
4.0
 41
4.7142857143
 46
0.0
 71
     1
 72
     1
  1
8
  7
TEXTSTYLE_2
 73
     1
 44
1.0
  0
MTEXT
  5
303
330
1B
100
AcDbEntity
 67
     1
  8
0
  6
Continuous
 62
     2
100
AcDbMText
 10
1131.154890719
 20
839.35876025
 30
0.0
 40
4.0
 41
5.1428571429
 46
0.0
 71
     1
 72
     1
  1
A
  7
TEXTSTYLE_2
 73
     1
 44
1.0
  0
MTEXT
  5
304
330
1B
100
AcDbEntity
 67
     1
  8
0
  6
Continuous
 62
     2
100
AcDbMText
 10
1031.154890719
 20
839.35876025
 30
0.0
 40
4.0
 41
4.7142857143
 46
0.0
 71
     1
 72
     1
  1
B
  7
TEXTSTYLE_2
 73
     1
 44
1.0
  0
MTEXT
  5
305
330
1B
100
AcDbEntity
 67
     1
  8
0
  6
Continuous
 62
     2
100
AcDbMText
 10
931.154890719
 20
839.35876025
 30
0.0
 40
4.0
 41
5.0
 46
0.0
 71
     1
 72
     1
  1
C
  7
TEXTSTYLE_2
 73
     1
 44
1.0
  0
MTEXT
  5
306
330
1B
100
AcDbEntity
 67
     1
  8
0
  6
Continuous
 62
     2
100
AcDbMText
 10
831.154890719
 20
839.35876025
 30
0.0
 40
4.0
 41
5.4285714286
 46
0.0
 71
     1
 72
     1
  1
D
  7
TEXTSTYLE_2
 73
     1
 44
1.0
  0
MTEXT
  5
307
330
1B
100
AcDbEntity
 67
     1
  8
0
  6
Continuous
 62
     2
100
AcDbMText
 10
731.154890719
 20
839.35876025
 30
0.0
 40
4.0
 41
4.2857142857
 46
0.0
 71
     1
 72
     1
  1
E
  7
TEXTSTYLE_2
 73
     1
 44
1.0
  0
MTEXT
  5
308
330
1B
100
AcDbEntity
 67
     1
  8
0
  6
Continuous
 62
     2
100
AcDbMText
 10
631.154890719
 20
839.35876025
 30
0.0
 40
4.0
 41
4.2857142857
 46
0.0
 71
     1
 72
     1
  1
F
  7
TEXTSTYLE_2
 73
     1
 44
1.0
  0
MTEXT
  5
309
330
1B
100
AcDbEntity
 67
     1
  8
0
  6
Continuous
 62
     2
100
AcDbMText
 10
531.154890719
 20
839.35876025
 30
0.0
 40
4.0
 41
4.7142857143
 46
0.0
 71
     1
 72
     1
  1
G
  7
TEXTSTYLE_2
 73
     1
 44
1.0
  0
MTEXT
  5
30A
330
1B
100
AcDbEntity
 67
     1
  8
0
  6
Continuous
 62
     2
100
AcDbMText
 10
431.154890719
 20
839.35876025
 30
0.0
 40
4.0
 41
4.7142857143
 46
0.0
 71
     1
 72
     1
  1
H
  7
TEXTSTYLE_2
 73
     1
 44
1.0
  0
MTEXT
  5
30B
330
1B
100
AcDbEntity
 67
     1
  8
0
  6
Continuous
 62
     2
100
AcDbMText
 10
331.154890719
 20
839.35876025
 30
0.0
 40
4.0
 41
3.8571428571
 46
0.0
 71
     1
 72
     1
  1
I
  7
TEXTSTYLE_2
 73
     1
 44
1.0
  0
MTEXT
  5
30C
330
1B
100
AcDbEntity
 67
     1
  8
0
  6
Continuous
 62
     2
100
AcDbMText
 10
231.154890719
 20
839.35876025
 30
0.0
 40
4.0
 41
3.8571428571
 46
0.0
 71
     1
 72
     1
  1
L
  7
TEXTSTYLE_2
 73
     1
 44
1.0
  0
MTEXT
  5
30D
330
1B
100
AcDbEntity
 67
     1
  8
0
  6
Continuous
 62
     2
100
AcDbMText
 10
131.154890719
 20
839.35876025
 30
0.0
 40
4.0
 41
5.1428571429
 46
0.0
 71
     1
 72
     1
  1
M
  7
TEXTSTYLE_2
 73
     1
 44
1.0
  0
MTEXT
  5
30E
330
1B
100
AcDbEntity
 67
     1
  8
0
  6
Continuous
 62
     2
100
AcDbMText
 10
31.154890719
 20
839.35876025
 30
0.0
 40
4.0
 41
4.7142857143
 46
0.0
 71
     1
 72
     1
  1
N
  7
TEXTSTYLE_2
 73
     1
 44
1.0
  0
MTEXT
  5
30F
330
1B
100
AcDbEntity
 67
     1
  8
0
  6
Continuous
 62
     2
100
AcDbMText
 10
1.6467220993
 20
60.6268709614
 30
0.0
 40
4.0
 41
3.4285714286
 46
0.0
 71
     1
 72
     1
  1
1
  7
TEXTSTYLE_2
 73
     1
 44
1.0
  0
MTEXT
  5
310
330
1B
100
AcDbEntity
 67
     1
  8
0
  6
Continuous
 62
     2
100
AcDbMText
 10
1.6467220993
 20
160.6268709614
 30
0.0
 40
4.0
 41
4.7142857143
 46
0.0
 71
     1
 72
     1
  1
2
  7
TEXTSTYLE_2
 73
     1
 44
1.0
  0
MTEXT
  5
311
330
1B
100
AcDbEntity
 67
     1
  8
0
  6
Continuous
 62
     2
100
AcDbMText
 10
1.6467220993
 20
260.6268709614
 30
0.0
 40
4.0
 41
4.2857142857
 46
0.0
 71
     1
 72
     1
  1
3
  7
TEXTSTYLE_2
 73
     1
 44
1.0
  0
MTEXT
  5
312
330
1B
100
AcDbEntity
 67
     1
  8
0
  6
Continuous
 62
     2
100
AcDbMText
 10
1.6467220993
 20
360.6268709614
 30
0.0
 40
4.0
 41
4.7142857143
 46
0.0
 71
     1
 72
     1
  1
4
  7
TEXTSTYLE_2
 73
     1
 44
1.0
  0
MTEXT
  5
313
330
1B
100
AcDbEntity
 67
     1
  8
0
  6
Continuous
 62
     2
100
AcDbMText
 10
1.6467220993
 20
460.6268709614
 30
0.0
 40
4.0
 41
4.2857142857
 46
0.0
 71
     1
 72
     1
  1
5
  7
TEXTSTYLE_2
 73
     1
 44
1.0
  0
MTEXT
  5
314
330
1B
100
AcDbEntity
 67
     1
  8
0
  6
Continuous
 62
     2
100
AcDbMText
 10
1.6467220993
 20
560.6268709614
 30
0.0
 40
4.0
 41
4.7142857143
 46
0.0
 71
     1
 72
     1
  1
6
  7
TEXTSTYLE_2
 73
     1
 44
1.0
  0
MTEXT
  5
315
330
1B
100
AcDbEntity
 67
     1
  8
0
  6
Continuous
 62
     2
100
AcDbMText
 10
1.6467220993
 20
660.6268709614
 30
0.0
 40
4.0
 41
4.7142857143
 46
0.0
 71
     1
 72
     1
  1
7
  7
TEXTSTYLE_2
 73
     1
 44
1.0
  0
MTEXT
  5
316
330
1B
100
AcDbEntity
 67
     1
  8
0
  6
Continuous
 62
     2
100
AcDbMText
 10
1.8487460335
 20
775.1725942251
 30
0.0
 40
4.0
 41
4.7142857143
 46
0.0
 71
     1
 72
     1
  1
8
  7
TEXTSTYLE_2
 73
     1
 44
1.0
  0
VIEWPORT
  5
317
330
1B
100
AcDbEntity
 67
     1
  8
0
100
AcDbViewport
 10
0.0
 20
0.0
 30
0.0
 40
1401.884824902724
 41
991.332840466926
 68
     1
 69
     1
 12
659.6556420233462
 22
420.4999999999999
 13
0.0
 23
0.0
 14
1.0
 24
1.0
 15
0.0
 25
0.0
 16
0.0
 26
0.0
 36
1.0
 17
0.0
 27
0.0
 37
0.0
 42
50.0
 43
0.0
 44
0.0
 45
991.332840466926
 50
0.0
 51
0.0
 72
   100
 90
   557216
  1

281
     0
 71
     1
 74
     0
110
0.0
120
0.0
130
0.0
111
1.0
121
0.0
131
0.0
112
0.0
122
1.0
132
0.0
 79
     0
146
0.0
170
     0
 61
     5
348
413
292
     1
282
     1
141
0.0
142
0.0
 63
   256
  0
LINE
  5
318
330
1B
100
AcDbEntity
 67
     1
  8
7_ALL_FEATURES
  6
Continuous
 62
     7
100
AcDbLine
 10
85.87278191
 20
541.714521024
 30
0.0
 11
85.87278191
 21
539.714521024
 31
0.0
  0
LINE
  5
319
330
1B
100
AcDbEntity
 67
     1
  8
7_ALL_FEATURES
  6
Continuous
 62
     7
100
AcDbLine
 10
85.872783339
 20
601.4786229486
 30
0.0
 11
89.1227842927
 21
601.4786229486
 31
0.0
  0
LINE
  5
31A
330
1B
100
AcDbEntity
 67
     1
  8
7_ALL_FEATURES
  6
Continuous
 62
     7
100
AcDbLine
 10
89.1227842927
 20
601.4786229486
 30
0.0
 11
94.8264699143
 21
601.4786229486
 31
0.0
  0
LINE
  5
31B
330
1B
100
AcDbEntity
 67
     1
  8
7_ALL_FEATURES
  6
Continuous
 62
     7
100
AcDbLine
 10
85.87278191
 20
599.4786229486
 30
0.0
 11
85.87278191
 21
601.4786229486
 31
0.0
  0
LINE
  5
31C
330
1B
100
AcDbEntity
 67
     1
  8
7_ALL_FEATURES
  6
Continuous
 62
     7
100
AcDbLine
 10
180.4604867414
 20
557.5965719863
 30
0.0
 11
180.4604867414
 21
583.5965719863
 31
0.0
  0
LINE
  5
31D
330
1B
100
AcDbEntity
 67
     1
  8
7_ALL_FEATURES
  6
Continuous
 62
     7
100
AcDbLine
 10
94.8264699143
 20
539.714521024
 30
0.0
 11
89.1227842927
 21
539.714521024
 31
0.0
  0
LINE
  5
31E
330
1B
100
AcDbEntity
 67
     1
  8
7_ALL_FEATURES
  6
Continuous
 62
     7
100
AcDbLine
 10
89.1227842927
 20
539.714521024
 30
0.0
 11
85.8727844694
 21
539.714521024
 31
0.0
  0
LINE
  5
31F
330
1B
100
AcDbEntity
 67
     1
  8
7_ALL_FEATURES
  6
Continuous
 62
     7
100
AcDbLine
 10
146.5180314876
 20
600.1518606059
 30
0.0
 11
176.5126076014
 21
589.234727711
 31
0.0
  0
LINE
  5
320
330
1B
100
AcDbEntity
 67
     1
  8
7_ALL_FEATURES
  6
Continuous
 62
     7
100
AcDbLine
 10
138.9935883344
 20
539.714521024
 30
0.0
 11
94.8264699143
 21
539.714521024
 31
0.0
  0
LINE
  5
321
330
1B
100
AcDbEntity
 67
     1
  8
7_ALL_FEATURES
  6
Continuous
 62
     7
100
AcDbLine
 10
94.8264699143
 20
601.4786229486
 30
0.0
 11
138.9935883344
 21
601.4786229486
 31
0.0
  0
ARC
  5
322
330
1B
100
AcDbEntity
 67
     1
  8
7_ALL_FEATURES
  6
Continuous
 62
     7
100
AcDbCircle
 10
174.4604867414
 20
583.5965719863
 30
0.0
 40
6.0
100
AcDbArc
 50
0.0
 51
70.0
  0
ARC
  5
323
330
1B
100
AcDbEntity
 67
     1
  8
7_ALL_FEATURES
  6
Continuous
 62
     7
100
AcDbCircle
 10
138.9935883344
 20
579.4786229486
 30
0.0
 40
22.0
100
AcDbArc
 50
70.0
 51
90.0
  0
ARC
  5
324
330
1B
100
AcDbEntity
 67
     1
  8
7_ALL_FEATURES
  6
Continuous
 62
     7
100
AcDbCircle
 10
138.9935883344
 20
561.714521024
 30
0.0
 40
22.0
100
AcDbArc
 50
270.0
 51
289.9999999999999
  0
ARC
  5
325
330
1B
100
AcDbEntity
 67
     1
  8
7_ALL_FEATURES
  6
Continuous
 62
     7
100
AcDbCircle
 10
174.4604867414
 20
557.5965719863
 30
0.0
 40
6.0
100
AcDbArc
 50
289.9999999999999
 51
360.0
  0
LINE
  5
326
330
1B
100
AcDbEntity
 67
     1
  8
7_ALL_FEATURES
  6
Continuous
 62
     7
100
AcDbLine
 10
176.5126076014
 20
551.9584162616
 30
0.0
 11
146.5180314876
 21
541.0412833667
 31
0.0
  0
LINE
  5
327
330
1B
100
AcDbEntity
 67
     1
  8
7_ALL_FEATURES
  6
Continuous
 62
     7
100
AcDbLine
 10
146.5180314876
 20
600.1518606059
 30
0.0
 11
145.8339912009
 21
598.2724753643
 31
0.0
  0
LINE
  5
328
330
1B
100
AcDbEntity
 67
     1
  8
7_ALL_FEATURES
  6
Continuous
 62
     7
100
AcDbLine
 10
146.5180314876
 20
541.0412833667
 30
0.0
 11
145.8339912009
 21
542.9206686083
 31
0.0
  0
LINE
  5
329
330
1B
100
AcDbEntity
 67
     1
  8
7_ALL_FEATURES
  6
Continuous
 62
     9
100
AcDbLine
 10
180.4604867414
 20
583.5965719863
 30
0.0
 11
178.4604867414
 21
583.5965719863
 31
0.0
  0
LINE
  5
32A
330
1B
100
AcDbEntity
 67
     1
  8
7_ALL_FEATURES
  6
Continuous
 62
     9
100
AcDbLine
 10
176.5126076014
 20
589.234727711
 30
0.0
 11
175.8285673147
 21
587.3553424695
 31
0.0
  0
LINE
  5
32B
330
1B
100
AcDbEntity
 67
     1
  8
7_ALL_FEATURES
  6
Continuous
 62
     7
100
AcDbLine
 10
138.9935883344
 20
601.4786229486
 30
0.0
 11
138.9935883344
 21
599.4786229486
 31
0.0
  0
LINE
  5
32C
330
1B
100
AcDbEntity
 67
     1
  8
7_ALL_FEATURES
  6
Continuous
 62
     9
100
AcDbLine
 10
180.4604867414
 20
557.5965719863
 30
0.0
 11
178.4604867414
 21
557.5965719863
 31
0.0
  0
LINE
  5
32D
330
1B
100
AcDbEntity
 67
     1
  8
7_ALL_FEATURES
  6
Continuous
 62
     9
100
AcDbLine
 10
176.5126076014
 20
551.9584162616
 30
0.0
 11
175.8285673147
 21
553.8378015032
 31
0.0
  0
LINE
  5
32E
330
1B
100
AcDbEntity
 67
     1
  8
7_ALL_FEATURES
  6
Continuous
 62
     9
100
AcDbLine
 10
94.8264699143
 20
601.4786229486
 30
0.0
 11
94.8264699143
 21
599.4786229486
 31
0.0
  0
LINE
  5
32F
330
1B
100
AcDbEntity
 67
     1
  8
7_ALL_FEATURES
  6
Continuous
 62
     7
100
AcDbLine
 10
138.9935883344
 20
539.714521024
 30
0.0
 11
138.9935883344
 21
541.714521024
 31
0.0
  0
LINE
  5
330
330
1B
100
AcDbEntity
 67
     1
  8
7_ALL_FEATURES
  6
Continuous
 62
     9
100
AcDbLine
 10
94.8264699143
 20
539.714521024
 30
0.0
 11
94.8264699143
 21
541.714521024
 31
0.0
  0
LINE
  5
331
330
1B
100
AcDbEntity
 67
     1
  8
7_ALL_FEATURES
  6
Continuous
 62
     7
100
AcDbLine
 10
680.4604867414
 20
530.5965719863
 30
0.0
 11
680.4604867414
 21
561.9965719863
 31
0.0
  0
LINE
  5
332
330
1B
100
AcDbEntity
 67
     1
  8
7_ALL_FEATURES
  6
Continuous
 62
     7
100
AcDbLine
 10
680.4604867414
 20
561.9965719863
 30
0.0
 11
680.4604867414
 21
570.5965719863
 31
0.0
  0
LINE
  5
333
330
1B
100
AcDbEntity
 67
     1
  8
7_ALL_FEATURES
  6
Continuous
 62
     7
100
AcDbLine
 10
678.4604867414
 20
530.5965719863
 30
0.0
 11
678.4604867414
 21
561.9965719863
 31
0.0
  0
LINE
  5
334
330
1B
100
AcDbEntity
 67
     1
  8
7_ALL_FEATURES
  6
Continuous
 62
     7
100
AcDbLine
 10
678.4604867414
 20
561.9965719863
 30
0.0
 11
678.4604867414
 21
570.5965719863
 31
0.0
  0
LINE
  5
335
330
1B
100
AcDbEntity
 67
     1
  8
7_ALL_FEATURES
  6
Continuous
 62
     7
100
AcDbLine
 10
678.4604867414
 20
530.5965719863
 30
0.0
 11
680.4604867414
 21
530.5965719863
 31
0.0
  0
ELLIPSE
  5
336
330
1B
100
AcDbEntity
 67
     1
  8
7_ALL_FEATURES
  6
Continuous
 62
     7
100
AcDbEllipse
 10
856.8321809341
 20
570.5965719863
 30
0.0
 11
23.6283058073
 21
0.0
 31
0.0
210
0.0
220
0.0
230
1.0
 40
0.3639702343
 41
-1.5707963268
 42
0.0000000070999999
  0
LINE
  5
337
330
1B
100
AcDbEntity
 67
     1
  8
7_ALL_FEATURES
  6
Continuous
 62
     7
100
AcDbLine
 10
680.4604867414
 20
610.5965719863
 30
0.0
 11
680.4604867414
 21
579.1965719863
 31
0.0
  0
LINE
  5
338
330
1B
100
AcDbEntity
 67
     1
  8
7_ALL_FEATURES
  6
Continuous
 62
     7
100
AcDbLine
 10
680.4604867414
 20
579.1965719863
 30
0.0
 11
680.4604867414
 21
570.5965719863
 31
0.0
  0
SPLINE
  5
339
330
1B
100
AcDbEntity
 67
     1
  8
02___PRT_ALL_AXES
  6
Continuous
 62
     7
100
AcDbSpline
 70
     0
 71
     3
 72
    23
 73
    19
 74
     0
 42
0.000000001
 43
0.0000001
 40
0.0
 40
0.0
 40
0.0
 40
0.0
 40
0.184843134
 40
0.3629589922
 40
0.5294283664
 40
0.6070057382
 40
0.6800268771
 40
0.7478058101
 40
0.8095472643
 40
0.8643476953
 40
0.9112155829
 40
0.9491188393
 40
0.9643940961
 40
0.9770658447
 40
0.9870337066
 40
0.9942159613
 40
0.9985511623
 40
1.0
 40
1.0
 40
1.0
 40
1.0
 10
703.4604867414
 20
564.435403266
 30
0.0
 10
703.8655930258
 20
564.435403266
 30
0.0
 10
704.6629361622
 20
564.3548473616
 30
0.0
 10
705.7831529085
 20
564.037274214
 30
0.0
 10
706.6363625914
 20
563.675004387
 30
0.0
 10
707.2572228604
 20
563.3626993098
 30
0.0
 10
707.6772268655
 20
563.1330493539
 30
0.0
 10
708.0606885949
 20
562.9093487022
 30
0.0
 10
708.4049885622
 20
562.698043573
 30
0.0
 10
708.7068802791
 20
562.5052428469
 30
0.0
 10
708.9622195183
 20
562.337104891
 30
0.0
 10
709.1443443158
 20
562.2142726643
 30
0.0
 10
709.2630099827
 20
562.1332717886
 30
0.0
 10
709.3325263123
 20
562.0852630586
 30
0.0
 10
709.3834936076
 20
562.0504529188
 30
0.0
 10
709.4285346096
 20
562.0181548257
 30
0.0
 10
709.4406009071
 20
562.0115152588
 30
0.0
 10
709.462687549
 20
561.9942878711
 30
0.0
 10
709.4604843773
 20
561.9965744829
 30
0.0
  0
LINE
  5
33A
330
1B
100
AcDbEntity
 67
     1
  8
02___PRT_ALL_AXES
  6
Continuous
 62
     7
100
AcDbLine
 10
703.4604867414
 20
564.435403266
 30
0.0
 11
697.4604867414
 21
564.435403266
 31
0.0
  0
LINE
  5
33B
330
1B
100
AcDbEntity
 67
     1
  8
7_ALL_FEATURES
  6
Continuous
 62
     7
100
AcDbLine
 10
678.4604867414
 20
610.5965719863
 30
0.0
 11
678.4604867414
 21
579.1965719863
 31
0.0
  0
LINE
  5
33C
330
1B
100
AcDbEntity
 67
     1
  8
7_ALL_FEATURES
  6
Continuous
 62
     7
100
AcDbLine
 10
678.4604867414
 20
579.1965719863
 30
0.0
 11
678.4604867414
 21
570.5965719863
 31
0.0
  0
LINE
  5
33D
330
1B
100
AcDbEntity
 67
     1
  8
7_ALL_FEATURES
  6
Continuous
 62
     7
100
AcDbLine
 10
678.4604867414
 20
610.5965719863
 30
0.0
 11
680.4604867414
 21
610.5965719863
 31
0.0
  0
ELLIPSE
  5
33E
330
1B
100
AcDbEntity
 67
     1
  8
7_ALL_FEATURES
  6
Continuous
 62
     7
100
AcDbEllipse
 10
856.8321809341
 20
570.5965719863
 30
0.0
 11
19.5070896781
 21
0.0
 31
0.0
210
0.0
220
0.0
230
1.0
 40
0.3639702343
 41
1.5707963319
 42
3.1415926536
  0
ELLIPSE
  5
33F
330
1B
100
AcDbEntity
 67
     1
  8
7_ALL_FEATURES
  6
Continuous
 62
     7
100
AcDbEllipse
 10
856.8321809341
 20
570.5965719863
 30
0.0
 11
19.5070896781
 21
0.0
 31
0.0
210
0.0
220
0.0
230
1.0
 40
0.3639702343
 41
3.1415926536
 42
4.7123889855
  0
LINE
  5
340
330
1B
100
AcDbEntity
 67
     1
  8
02___PRT_ALL_AXES
  6
Continuous
 62
     7
100
AcDbLine
 10
678.4604867414
 20
579.1965719863
 30
0.0
 11
180.4604867414
 21
579.1965719863
 31
0.0
  0
ELLIPSE
  5
341
330
1B
100
AcDbEntity
 67
     1
  8
7_ALL_FEATURES
  6
Continuous
 62
     7
100
AcDbEllipse
 10
856.8321809341
 20
570.5965719863
 30
0.0
 11
23.6283058073
 21
0.0
 31
0.0
210
0.0
220
0.0
230
1.0
 40
0.3639702343
 41
0.0000000071
 42
1.5707963268
  0
LINE
  5
342
330
1B
100
AcDbEntity
 67
     1
  8
02___PRT_ALL_AXES
  6
Continuous
 62
     7
100
AcDbLine
 10
856.8321809341
 20
579.1965719863
 30
0.0
 11
680.4604867414
 21
579.1965719863
 31
0.0
  0
LINE
  5
343
330
1B
100
AcDbEntity
 67
     1
  8
02___PRT_ALL_AXES
  6
Continuous
 62
     7
100
AcDbLine
 10
856.8321809341
 20
561.9965719863
 30
0.0
 11
709.4604867414
 21
561.9965719863
 31
0.0
  0
LINE
  5
344
330
1B
100
AcDbEntity
 67
     1
  8
02___PRT_ALL_AXES
  6
Continuous
 62
     7
100
AcDbLine
 10
709.4604843773
 20
561.9965744829
 30
0.0
 11
709.4551530652
 21
562.0002923065
 31
0.0
  0
LINE
  5
345
330
1B
100
AcDbEntity
 67
     1
  8
02___PRT_ALL_AXES
  6
Continuous
 62
     7
100
AcDbLine
 10
709.4605284485
 20
561.9965719863
 30
0.0
 11
709.4551530652
 21
562.0002923065
 31
0.0
  0
LINE
  5
346
330
1B
100
AcDbEntity
 67
     1
  8
02___PRT_ALL_AXES
  6
Continuous
 62
     7
100
AcDbLine
 10
691.4604867414
 20
561.9965719863
 30
0.0
 11
680.4604867414
 21
561.9965719863
 31
0.0
  0
SPLINE
  5
347
330
1B
100
AcDbEntity
 67
     1
  8
02___PRT_ALL_AXES
  6
Continuous
 62
     7
100
AcDbSpline
 70
     0
 71
     3
 72
    22
 73
    18
 74
     0
 42
0.000000001
 43
0.0000001
 40
0.0
 40
0.0
 40
0.0
 40
0.0
 40
0.0014488689
 40
0.0057841621
 40
0.0129665718
 40
0.0229346469
 40
0.0356066755
 40
0.0508822743
 40
0.0887863985
 40
0.1356553604
 40
0.1904570388
 40
0.2521998691
 40
0.3199803176
 40
0.4705598054
 40
0.6370329169
 40
0.8151528081
 40
1.0
 40
1.0
 40
1.0
 40
1.0
 10
691.4604891054
 20
561.9965744827
 30
0.0
 10
691.4626890682
 20
561.9988641782
 30
0.0
 10
691.4740700578
 20
562.0049648695
 30
0.0
 10
691.4964413592
 20
562.022314735
 30
0.0
 10
691.5356501748
 20
562.0485512851
 30
0.0
 10
691.5891655925
 20
562.0860097679
 30
0.0
 10
691.6577100062
 20
562.1330083758
 30
0.0
 10
691.7768265868
 20
562.2144778891
 30
0.0
 10
691.9586653573
 20
562.3370127958
 30
0.0
 10
692.2141239177
 20
562.505274815
 30
0.0
 10
692.5159748499
 20
562.6980326745
 30
0.0
 10
692.8602894998
 20
562.9093549945
 30
0.0
 10
693.3905668124
 20
563.2186851711
 30
0.0
 10
694.1371612689
 20
563.6123745034
 30
0.0
 10
695.1377955452
 20
564.0372706151
 30
0.0
 10
696.2580453446
 20
564.3548485347
 30
0.0
 10
697.0553806387
 20
564.435403266
 30
0.0
 10
697.4604867414
 20
564.435403266
 30
0.0
  0
LINE
  5
348
330
1B
100
AcDbEntity
 67
     1
  8
02___PRT_ALL_AXES
  6
Continuous
 62
     7
100
AcDbLine
 10
678.4604867414
 20
561.9965719863
 30
0.0
 11
180.4604867414
 21
561.9965719863
 31
0.0
  0
ELLIPSE
  5
349
330
1B
100
AcDbEntity
 67
     1
  8
7_ALL_FEATURES
  6
Continuous
 62
     7
100
AcDbEllipse
 10
856.8321809341
 20
570.5965719863
 30
0.0
 11
23.6283058073
 21
0.0
 31
0.0
210
0.0
220
0.0
230
1.0
 40
0.3639702343
 41
1.5707963268
 42
3.1415926536
  0
ELLIPSE
  5
34A
330
1B
100
AcDbEntity
 67
     1
  8
7_ALL_FEATURES
  6
Continuous
 62
     7
100
AcDbEllipse
 10
856.8321809341
 20
570.5965719863
 30
0.0
 11
19.5070896781
 21
0.0
 31
0.0
210
0.0
220
0.0
230
1.0
 40
0.3639702343
 41
0.0
 42
1.5707963319
  0
ELLIPSE
  5
34B
330
1B
100
AcDbEntity
 67
     1
  8
7_ALL_FEATURES
  6
Continuous
 62
     7
100
AcDbEllipse
 10
856.8321809341
 20
570.5965719863
 30
0.0
 11
19.5070896781
 21
0.0
 31
0.0
210
0.0
220
0.0
230
1.0
 40
0.3639702343
 41
-1.5707963217
 42
0.0
  0
ELLIPSE
  5
34C
330
1B
100
AcDbEntity
 67
     1
  8
7_ALL_FEATURES
  6
Continuous
 62
     7
100
AcDbEllipse
 10
856.8321809341
 20
570.5965719863
 30
0.0
 11
23.6283058073
 21
0.0
 31
0.0
210
0.0
220
0.0
230
1.0
 40
0.3639702343
 41
-3.1415926536
 42
-1.5707963268
  0
LINE
  5
34D
330
1B
100
AcDbEntity
 67
     1
  8
7_ALL_FEATURES
  6
Continuous
 62
     3
100
AcDbLine
 10
178.4604867414
 20
557.5965719863
 30
0.0
 11
178.4604867414
 21
583.5965719863
 31
0.0
  0
LINE
  5
34E
330
1B
100
AcDbEntity
 67
     1
  8
7_ALL_FEATURES
  6
Continuous
 62
     3
100
AcDbLine
 10
85.872783339
 20
599.4786229486
 30
0.0
 11
89.1227842927
 21
599.4786229486
 31
0.0
  0
LINE
  5
34F
330
1B
100
AcDbEntity
 67
     1
  8
7_ALL_FEATURES
  6
Continuous
 62
     3
100
AcDbLine
 10
89.1227842927
 20
599.4786229486
 30
0.0
 11
94.8264699143
 21
599.4786229486
 31
0.0
  0
LINE
  5
350
330
1B
100
AcDbEntity
 67
     1
  8
7_ALL_FEATURES
  6
Continuous
 62
     3
100
AcDbLine
 10
145.8339912009
 20
598.2724753643
 30
0.0
 11
175.8285673147
 21
587.3553424695
 31
0.0
  0
ARC
  5
351
330
1B
100
AcDbEntity
 67
     1
  8
7_ALL_FEATURES
  6
Continuous
 62
     3
100
AcDbCircle
 10
174.4604867414
 20
583.5965719863
 30
0.0
 40
4.0
100
AcDbArc
 50
0.0
 51
70.0
  0
ARC
  5
352
330
1B
100
AcDbEntity
 67
     1
  8
7_ALL_FEATURES
  6
Continuous
 62
     3
100
AcDbCircle
 10
138.9935883344
 20
561.714521024
 30
0.0
 40
20.0
100
AcDbArc
 50
270.0
 51
289.9999999999999
  0
LINE
  5
353
330
1B
100
AcDbEntity
 67
     1
  8
7_ALL_FEATURES
  6
Continuous
 62
     3
100
AcDbLine
 10
94.8264699143
 20
541.714521024
 30
0.0
 11
89.1227842927
 21
541.714521024
 31
0.0
  0
LINE
  5
354
330
1B
100
AcDbEntity
 67
     1
  8
7_ALL_FEATURES
  6
Continuous
 62
     3
100
AcDbLine
 10
89.1227842927
 20
541.714521024
 30
0.0
 11
85.8727844694
 21
541.714521024
 31
0.0
  0
LINE
  5
355
330
1B
100
AcDbEntity
 67
     1
  8
7_ALL_FEATURES
  6
Continuous
 62
     3
100
AcDbLine
 10
138.9935883344
 20
541.714521024
 30
0.0
 11
94.8264699143
 21
541.714521024
 31
0.0
  0
ARC
  5
356
330
1B
100
AcDbEntity
 67
     1
  8
7_ALL_FEATURES
  6
Continuous
 62
     3
100
AcDbCircle
 10
174.4604867414
 20
557.5965719863
 30
0.0
 40
4.0
100
AcDbArc
 50
289.9999999999999
 51
360.0
  0
LINE
  5
357
330
1B
100
AcDbEntity
 67
     1
  8
7_ALL_FEATURES
  6
Continuous
 62
     3
100
AcDbLine
 10
94.8264699143
 20
599.4786229486
 30
0.0
 11
138.9935883344
 21
599.4786229486
 31
0.0
  0
LINE
  5
358
330
1B
100
AcDbEntity
 67
     1
  8
7_ALL_FEATURES
  6
Continuous
 62
     3
100
AcDbLine
 10
175.8285673147
 20
553.8378015032
 30
0.0
 11
145.8339912009
 21
542.9206686083
 31
0.0
  0
ARC
  5
359
330
1B
100
AcDbEntity
 67
     1
  8
7_ALL_FEATURES
  6
Continuous
 62
     3
100
AcDbCircle
 10
138.9935883344
 20
579.4786229486
 30
0.0
 40
20.0
100
AcDbArc
 50
70.0
 51
90.0
  0
LINE
  5
35A
330
1B
100
AcDbEntity
 67
     1
  8
02___PRT_ALL_AXES
  6
Continuous
 62
     7
100
AcDbLine
 10
101.37278191
 20
347.6672190289
 30
0.0
 11
101.37278191
 21
339.8409811077
 31
0.0
  0
ARC
  5
35B
330
1B
100
AcDbEntity
 67
     1
  8
02___PRT_ALL_AXES
  6
Continuous
 62
     7
100
AcDbCircle
 10
95.87278191
 20
343.7541000683
 30
0.0
 40
6.75
100
AcDbArc
 50
35.4309446873
 51
217.4808661922
  0
LINE
  5
35C
330
1B
100
AcDbEntity
 67
     1
  8
7_ALL_FEATURES
  6
Continuous
 62
     7
100
AcDbLine
 10
176.5126076014
 20
358.7541000683
 30
0.0
 11
146.5180314876
 21
358.7541000683
 31
0.0
  0
LINE
  5
35D
330
1B
100
AcDbEntity
 67
     1
  8
7_ALL_FEATURES
  6
Continuous
 62
     7
100
AcDbLine
 10
146.5180314876
 20
328.7541000683
 30
0.0
 11
176.5126076014
 21
328.7541000683
 31
0.0
  0
LINE
  5
35E
330
1B
100
AcDbEntity
 67
     1
  8
7_ALL_FEATURES
  6
Continuous
 62
     7
100
AcDbLine
 10
176.5126076014
 20
358.7541000683
 30
0.0
 11
178.4604867414
 21
358.7541000683
 31
0.0
  0
LINE
  5
35F
330
1B
100
AcDbEntity
 67
     1
  8
7_ALL_FEATURES
  6
Continuous
 62
     7
100
AcDbLine
 10
178.4604867414
 20
358.7541000683
 30
0.0
 11
180.4604867414
 21
358.7541000683
 31
0.0
  0
LINE
  5
360
330
1B
100
AcDbEntity
 67
     1
  8
7_ALL_FEATURES
  6
Continuous
 62
     7
100
AcDbLine
 10
180.4604867414
 20
328.7541000683
 30
0.0
 11
180.4604867414
 21
358.7541000683
 31
0.0
  0
LINE
  5
361
330
1B
100
AcDbEntity
 67
     1
  8
7_ALL_FEATURES
  6
Continuous
 62
     7
100
AcDbLine
 10
176.5126076014
 20
328.7541000683
 30
0.0
 11
178.4604867414
 21
328.7541000683
 31
0.0
  0
LINE
  5
362
330
1B
100
AcDbEntity
 67
     1
  8
7_ALL_FEATURES
  6
Continuous
 62
     7
100
AcDbLine
 10
178.4604867414
 20
328.7541000683
 30
0.0
 11
180.4604867414
 21
328.7541000683
 31
0.0
  0
ARC
  5
363
330
1B
100
AcDbEntity
 67
     1
  8
7_ALL_FEATURES
  6
Continuous
 62
     7
100
AcDbCircle
 10
95.87278191
 20
343.7541000683
 30
0.0
 40
10.0
100
AcDbArc
 50
96.0059188123
 51
263.9940811877
  0
LINE
  5
364
330
1B
100
AcDbEntity
 67
     1
  8
7_ALL_FEATURES
  6
Continuous
 62
     7
100
AcDbLine
 10
94.8264699143
 20
333.8089891485
 30
0.0
 11
138.9935883344
 21
329.1622249052
 31
0.0
  0
LINE
  5
365
330
1B
100
AcDbEntity
 67
     1
  8
7_ALL_FEATURES
  6
Continuous
 62
     7
100
AcDbLine
 10
138.9935883344
 20
358.3459752314
 30
0.0
 11
94.8264699143
 21
353.6992109881
 31
0.0
  0
LINE
  5
366
330
1B
100
AcDbEntity
 67
     1
  8
7_ALL_FEATURES
  6
Continuous
 62
     7
100
AcDbLine
 10
146.5180314876
 20
358.7541000683
 30
0.0
 11
145.8339912009
 21
358.7541000683
 31
0.0
  0
LINE
  5
367
330
1B
100
AcDbEntity
 67
     1
  8
7_ALL_FEATURES
  6
Continuous
 62
     7
100
AcDbLine
 10
146.5180314876
 20
328.7541000683
 30
0.0
 11
145.8339912009
 21
328.7541000683
 31
0.0
  0
ARC
  5
368
330
1B
100
AcDbEntity
 67
     1
  8
02___PRT_ALL_AXES
  6
Continuous
 62
     7
100
AcDbCircle
 10
95.87278191
 20
343.7541000683
 30
0.0
 40
6.75
100
AcDbArc
 50
217.4808661922
 51
324.5690553127
  0
LINE
  5
369
330
1B
100
AcDbEntity
 67
     1
  8
7_ALL_FEATURES
  6
Continuous
 62
     9
100
AcDbLine
 10
138.9935883344
 20
329.1622249052
 30
0.0
 11
138.9935883344
 21
358.3459752314
 31
0.0
  0
ARC
  5
36A
330
1B
100
AcDbEntity
 67
     1
  8
7_ALL_FEATURES
  6
Continuous
 62
     7
100
AcDbCircle
 10
-5.6967741628
 20
3095.5141449809
 30
0.0
 40
2740.9897647546
100
AcDbArc
 50
273.0259150106
 51
273.1834320796
  0
LINE
  5
36B
330
1B
100
AcDbEntity
 67
     1
  8
7_ALL_FEATURES
  6
Continuous
 62
     9
100
AcDbLine
 10
146.5180314876
 20
328.7541000683
 30
0.0
 11
146.5180314876
 21
358.7541000683
 31
0.0
  0
ARC
  5
36C
330
1B
100
AcDbEntity
 67
     1
  8
7_ALL_FEATURES
  6
Continuous
 62
     7
100
AcDbCircle
 10
-5.6967741679
 20
-2408.0059449376
 30
0.0
 40
2740.989764848
100
AcDbArc
 50
86.81656792040002
 51
86.97408498939998
  0
LINE
  5
36D
330
1B
100
AcDbEntity
 67
     1
  8
7_ALL_FEATURES
  6
Continuous
 62
     9
100
AcDbLine
 10
176.5126076014
 20
328.7541000683
 30
0.0
 11
176.5126076014
 21
358.7541000683
 31
0.0
  0
LINE
  5
36E
330
1B
100
AcDbEntity
 67
     1
  8
7_ALL_FEATURES
  6
Continuous
 62
     7
100
AcDbLine
 10
678.4604867414
 20
303.7541000683
 30
0.0
 11
680.4604867414
 21
303.7541000683
 31
0.0
  0
LINE
  5
36F
330
1B
100
AcDbEntity
 67
     1
  8
7_ALL_FEATURES
  6
Continuous
 62
     7
100
AcDbLine
 10
678.4604867414
 20
383.7541000683
 30
0.0
 11
680.4604867414
 21
383.7541000683
 31
0.0
  0
LINE
  5
370
330
1B
100
AcDbEntity
 67
     1
  8
7_ALL_FEATURES
  6
Continuous
 62
     7
100
AcDbLine
 10
680.4604867414
 20
383.7541000683
 30
0.0
 11
680.4604867414
 21
352.3541000683
 31
0.0
  0
LINE
  5
371
330
1B
100
AcDbEntity
 67
     1
  8
7_ALL_FEATURES
  6
Continuous
 62
     7
100
AcDbLine
 10
680.4604867414
 20
352.3541000683
 30
0.0
 11
680.4604867414
 21
335.1541000683
 31
0.0
  0
LINE
  5
372
330
1B
100
AcDbEntity
 67
     1
  8
7_ALL_FEATURES
  6
Continuous
 62
     7
100
AcDbLine
 10
680.4604867414
 20
335.1541000683
 30
0.0
 11
680.4604867414
 21
303.7541000683
 31
0.0
  0
LINE
  5
373
330
1B
100
AcDbEntity
 67
     1
  8
7_ALL_FEATURES
  6
Continuous
 62
     7
100
AcDbLine
 10
678.4604867414
 20
352.3541000683
 30
0.0
 11
180.4604867414
 21
352.3541000683
 31
0.0
  0
LINE
  5
374
330
1B
100
AcDbEntity
 67
     1
  8
7_ALL_FEATURES
  6
Continuous
 62
     7
100
AcDbLine
 10
678.4604867414
 20
383.7541000683
 30
0.0
 11
678.4604867414
 21
352.3541000683
 31
0.0
  0
LINE
  5
375
330
1B
100
AcDbEntity
 67
     1
  8
7_ALL_FEATURES
  6
Continuous
 62
     7
100
AcDbLine
 10
678.4604867414
 20
352.3541000683
 30
0.0
 11
678.4604867414
 21
335.1541000683
 31
0.0
  0
LINE
  5
376
330
1B
100
AcDbEntity
 67
     1
  8
7_ALL_FEATURES
  6
Continuous
 62
     7
100
AcDbLine
 10
678.4604867414
 20
335.1541000683
 30
0.0
 11
678.4604867414
 21
303.7541000683
 31
0.0
  0
LINE
  5
377
330
1B
100
AcDbEntity
 67
     1
  8
7_ALL_FEATURES
  6
Continuous
 62
     7
100
AcDbLine
 10
880.4604867414
 20
352.3541000683
 30
0.0
 11
680.4604867414
 21
352.3541000683
 31
0.0
  0
LINE
  5
378
330
1B
100
AcDbEntity
 67
     1
  8
7_ALL_FEATURES
  6
Continuous
 62
     7
100
AcDbLine
 10
833.2038751268
 20
335.1541000683
 30
0.0
 11
680.4604867414
 21
335.1541000683
 31
0.0
  0
LINE
  5
379
330
1B
100
AcDbEntity
 67
     1
  8
7_ALL_FEATURES
  6
Continuous
 62
     7
100
AcDbLine
 10
678.4604867414
 20
335.1541000683
 30
0.0
 11
180.4604867414
 21
335.1541000683
 31
0.0
  0
LINE
  5
37A
330
1B
100
AcDbEntity
 67
     1
  8
7_ALL_FEATURES
  6
Continuous
 62
     7
100
AcDbLine
 10
833.2038751268
 20
335.1541000683
 30
0.0
 11
837.325091256
 21
336.6541000683
 31
0.0
  0
LINE
  5
37B
330
1B
100
AcDbEntity
 67
     1
  8
7_ALL_FEATURES
  6
Continuous
 62
     7
100
AcDbLine
 10
837.325091256
 20
336.6541000683
 30
0.0
 11
876.3392706123
 21
350.8541000683
 31
0.0
  0
LINE
  5
37C
330
1B
100
AcDbEntity
 67
     1
  8
7_ALL_FEATURES
  6
Continuous
 62
     7
100
AcDbLine
 10
876.3392706123
 20
350.8541000683
 30
0.0
 11
880.4604867449
 21
352.3541000695
 31
0.0
  0
ARC
  5
37D
330
1B
100
AcDbEntity
 67
     1
  8
7_ALL_FEATURES
  6
Continuous
 62
     3
100
AcDbCircle
 10
7.3748049385
 20
-1934.3715236383
 30
0.0
 40
2267.3571696885
100
AcDbArc
 50
86.4989786467
 51
86.6721420698
  0
ARC
  5
37E
330
1B
100
AcDbEntity
 67
     1
  8
7_ALL_FEATURES
  6
Continuous
 62
     3
100
AcDbCircle
 10
7.3748049383
 20
2621.8797237771
 30
0.0
 40
2267.3571696907
100
AcDbArc
 50
273.3278579302
 51
273.5010213533
  0
LINE
  5
37F
330
1B
100
AcDbEntity
 67
     1
  8
7_ALL_FEATURES
  6
Continuous
 62
     7
100
AcDbLine
 10
1070.4476001081
 20
539.714521024
 30
0.0
 11
1050.5573782685
 21
539.714521024
 31
0.0
  0
LINE
  5
380
330
1B
100
AcDbEntity
 67
     1
  8
7_ALL_FEATURES
  6
Continuous
 62
     7
100
AcDbLine
 10
1050.5573782685
 20
539.714521024
 30
0.0
 11
1045.9106140252
 21
539.714521024
 31
0.0
  0
LINE
  5
381
330
1B
100
AcDbEntity
 67
     1
  8
7_ALL_FEATURES
  6
Continuous
 62
     7
100
AcDbLine
 10
1045.5024891883
 20
600.1518606059
 30
0.0
 11
1045.5024891883
 21
598.2724753643
 31
0.0
  0
SPLINE
  5
382
330
1B
100
AcDbEntity
 67
     1
  8
7_ALL_FEATURES
  6
Continuous
 62
     7
100
AcDbSpline
 70
     0
 71
     3
 72
    18
 73
    14
 74
     0
 42
0.000000001
 43
0.0000001
 40
0.0
 40
0.0
 40
0.0
 40
0.0
 40
0.0183095255
 40
0.0393715718
 40
0.0650650237
 40
0.096440904
 40
0.1340690599
 40
0.1782689662
 40
0.2870253358
 40
0.4234935235
 40
0.5878729431
 40
0.7801101072
 40
1.0
 40
1.0
 40
1.0
 40
1.0
 10
1045.9106140252
 20
601.4786229486
 30
0.0
 10
1045.9019341714
 20
601.4786229486
 30
0.0
 10
1045.8831499915
 20
601.474438206
 30
0.0
 10
1045.8570209473
 20
601.4572574079
 30
0.0
 10
1045.8315538262
 20
601.4300667995
 30
0.0
 10
1045.8062913116
 20
601.392811588
 30
0.0
 10
1045.7810398974
 20
601.3453788101
 30
0.0
 10
1045.7447974797
 20
601.2625489143
 30
0.0
 10
1045.7009390773
 20
601.132320535
 30
0.0
 10
1045.6508699973
 20
600.9446515382
 30
0.0
 10
1045.6005865459
 20
600.7163070761
 30
0.0
 10
1045.5501122468
 20
600.4476812326
 30
0.0
 10
1045.5184947608
 20
600.2548659876
 30
0.0
 10
1045.5024891883
 20
600.1518606059
 30
0.0
  0
LINE
  5
383
330
1B
100
AcDbEntity
 67
     1
  8
7_ALL_FEATURES
  6
Continuous
 62
     7
100
AcDbLine
 10
1075.0943643515
 20
539.714521024
 30
0.0
 11
1070.4476001081
 21
539.714521024
 31
0.0
  0
SPLINE
  5
384
330
1B
100
AcDbEntity
 67
     1
  8
7_ALL_FEATURES
  6
Continuous
 62
     7
100
AcDbSpline
 70
     0
 71
     3
 72
    18
 73
    14
 74
     0
 42
0.000000001
 43
0.0000001
 40
0.0
 40
0.0
 40
0.0
 40
0.0
 40
0.0183095255
 40
0.0393715718
 40
0.0650650237
 40
0.096440904
 40
0.1340690599
 40
0.1782689662
 40
0.2870253358
 40
0.4234935235
 40
0.5878729431
 40
0.7801101072
 40
1.0
 40
1.0
 40
1.0
 40
1.0
 10
1075.0943643515
 20
601.4786229486
 30
0.0
 10
1075.1030442052
 20
601.4786229486
 30
0.0
 10
1075.1218283851
 20
601.474438206
 30
0.0
 10
1075.1479574293
 20
601.4572574079
 30
0.0
 10
1075.1734245504
 20
601.4300667995
 30
0.0
 10
1075.198687065
 20
601.392811588
 30
0.0
 10
1075.2239384792
 20
601.3453788101
 30
0.0
 10
1075.2601808969
 20
601.2625489143
 30
0.0
 10
1075.3040392993
 20
601.132320535
 30
0.0
 10
1075.3541083794
 20
600.9446515382
 30
0.0
 10
1075.4043918307
 20
600.7163070761
 30
0.0
 10
1075.4548661298
 20
600.4476812326
 30
0.0
 10
1075.4864836158
 20
600.2548659876
 30
0.0
 10
1075.5024891883
 20
600.1518606059
 30
0.0
  0
LINE
  5
385
330
1B
100
AcDbEntity
 67
     1
  8
7_ALL_FEATURES
  6
Continuous
 62
     7
100
AcDbLine
 10
1075.5024891883
 20
600.1518606059
 30
0.0
 11
1075.5024891883
 21
598.2724753643
 31
0.0
  0
LINE
  5
386
330
1B
100
AcDbEntity
 67
     1
  8
7_ALL_FEATURES
  6
Continuous
 62
     7
100
AcDbLine
 10
1050.5573782685
 20
601.4786229486
 30
0.0
 11
1070.4476001081
 21
601.4786229486
 31
0.0
  0
LINE
  5
387
330
1B
100
AcDbEntity
 67
     1
  8
7_ALL_FEATURES
  6
Continuous
 62
     7
100
AcDbLine
 10
1070.4476001081
 20
601.4786229486
 30
0.0
 11
1075.0943643515
 21
601.4786229486
 31
0.0
  0
LINE
  5
388
330
1B
100
AcDbEntity
 67
     1
  8
7_ALL_FEATURES
  6
Continuous
 62
     7
100
AcDbLine
 10
1045.9106140252
 20
601.4786229486
 30
0.0
 11
1050.5573782685
 21
601.4786229486
 31
0.0
  0
LINE
  5
389
330
1B
100
AcDbEntity
 67
     1
  8
7_ALL_FEATURES
  6
Continuous
 62
     7
100
AcDbLine
 10
1075.5024891883
 20
541.0412833667
 30
0.0
 11
1075.5024891883
 21
542.9206686083
 31
0.0
  0
SPLINE
  5
38A
330
1B
100
AcDbEntity
 67
     1
  8
7_ALL_FEATURES
  6
Continuous
 62
     7
100
AcDbSpline
 70
     0
 71
     3
 72
    18
 73
    14
 74
     0
 42
0.000000001
 43
0.0000001
 40
0.0
 40
0.0
 40
0.0
 40
0.0
 40
0.0183095374
 40
0.0393715447
 40
0.0650650658
 40
0.0964408405
 40
0.1340691399
 40
0.1782688727
 40
0.2870252344
 40
0.4234934357
 40
0.5878728863
 40
0.7801100864
 40
1.0
 40
1.0
 40
1.0
 40
1.0
 10
1075.0943643515
 20
539.714521024
 30
0.0
 10
1075.1030442107
 20
539.714521024
 30
0.0
 10
1075.1218283326
 20
539.7187059125
 30
0.0
 10
1075.1479575204
 20
539.7358864977
 30
0.0
 10
1075.1734244251
 20
539.7630772913
 30
0.0
 10
1075.198687215
 20
539.8003323495
 30
0.0
 10
1075.2239383248
 20
539.8477652365
 30
0.0
 10
1075.2601810703
 20
539.9305949448
 30
0.0
 10
1075.3040392375
 20
540.0608233524
 30
0.0
 10
1075.3541084051
 20
540.2484923188
 30
0.0
 10
1075.4043918224
 20
540.476836832
 30
0.0
 10
1075.4548661303
 20
540.7454627074
 30
0.0
 10
1075.4864836146
 20
540.9382779771
 30
0.0
 10
1075.5024891883
 20
541.0412833667
 30
0.0
  0
SPLINE
  5
38B
330
1B
100
AcDbEntity
 67
     1
  8
7_ALL_FEATURES
  6
Continuous
 62
     7
100
AcDbSpline
 70
     0
 71
     3
 72
    18
 73
    14
 74
     0
 42
0.000000001
 43
0.0000001
 40
0.0
 40
0.0
 40
0.0
 40
0.0
 40
0.0183095374
 40
0.0393715447
 40
0.0650650658
 40
0.0964408405
 40
0.1340691399
 40
0.1782688727
 40
0.2870252344
 40
0.4234934357
 40
0.5878728863
 40
0.7801100864
 40
1.0
 40
1.0
 40
1.0
 40
1.0
 10
1045.9106140252
 20
539.714521024
 30
0.0
 10
1045.9019341659
 20
539.714521024
 30
0.0
 10
1045.883150044
 20
539.7187059125
 30
0.0
 10
1045.8570208562
 20
539.7358864977
 30
0.0
 10
1045.8315539515
 20
539.7630772913
 30
0.0
 10
1045.8062911617
 20
539.8003323495
 30
0.0
 10
1045.7810400518
 20
539.8477652365
 30
0.0
 10
1045.7447973063
 20
539.9305949448
 30
0.0
 10
1045.7009391391
 20
540.0608233524
 30
0.0
 10
1045.6508699716
 20
540.2484923188
 30
0.0
 10
1045.6005865542
 20
540.476836832
 30
0.0
 10
1045.5501122463
 20
540.7454627074
 30
0.0
 10
1045.518494762
 20
540.9382779771
 30
0.0
 10
1045.5024891883
 20
541.0412833667
 30
0.0
  0
LINE
  5
38C
330
1B
100
AcDbEntity
 67
     1
  8
7_ALL_FEATURES
  6
Continuous
 62
     7
100
AcDbLine
 10
1045.5024891883
 20
541.0412833667
 30
0.0
 11
1045.5024891883
 21
542.9206686083
 31
0.0
  0
ARC
  5
38D
330
1B
100
AcDbEntity
 67
     1
  8
7_ALL_FEATURES
  6
Continuous
 62
     7
100
AcDbCircle
 10
1060.5024891883
 20
570.5965719863
 30
0.0
 40
5.0
100
AcDbArc
 50
270.0
 51
90.0
  0
ARC
  5
38E
330
1B
100
AcDbEntity
 67
     1
  8
7_ALL_FEATURES
  6
Continuous
 62
     7
100
AcDbCircle
 10
1060.5024891883
 20
570.5965719863
 30
0.0
 40
5.0
100
AcDbArc
 50
90.0
 51
270.0
  0
LINE
  5
38F
330
1B
100
AcDbEntity
 67
     1
  8
7_ALL_FEATURES
  6
Continuous
 62
     9
100
AcDbLine
 10
1070.4476001081
 20
539.714521024
 30
0.0
 11
1070.4476001081
 21
541.714521024
 31
0.0
  0
LINE
  5
390
330
1B
100
AcDbEntity
 67
     1
  8
7_ALL_FEATURES
  6
Continuous
 62
     7
100
AcDbLine
 10
1075.0943643515
 20
601.4786229486
 30
0.0
 11
1075.0943643515
 21
599.4786229486
 31
0.0
  0
LINE
  5
391
330
1B
100
AcDbEntity
 67
     1
  8
7_ALL_FEATURES
  6
Continuous
 62
     7
100
AcDbLine
 10
1075.0943643515
 20
539.714521024
 30
0.0
 11
1075.0943643515
 21
541.714521024
 31
0.0
  0
LINE
  5
392
330
1B
100
AcDbEntity
 67
     1
  8
7_ALL_FEATURES
  6
Continuous
 62
     7
100
AcDbLine
 10
1045.9106140252
 20
601.4786229486
 30
0.0
 11
1045.9106140252
 21
599.4786229486
 31
0.0
  0
LINE
  5
393
330
1B
100
AcDbEntity
 67
     1
  8
7_ALL_FEATURES
  6
Continuous
 62
     7
100
AcDbLine
 10
1045.9106140252
 20
539.714521024
 30
0.0
 11
1045.9106140252
 21
541.714521024
 31
0.0
  0
LINE
  5
394
330
1B
100
AcDbEntity
 67
     1
  8
7_ALL_FEATURES
  6
Continuous
 62
     9
100
AcDbLine
 10
1050.5573782685
 20
539.714521024
 30
0.0
 11
1050.5573782685
 21
541.714521024
 31
0.0
  0
LINE
  5
395
330
1B
100
AcDbEntity
 67
     1
  8
7_ALL_FEATURES
  6
Continuous
 62
     9
100
AcDbLine
 10
1070.4476001081
 20
601.4786229486
 30
0.0
 11
1070.4476001081
 21
599.4786229486
 31
0.0
  0
LINE
  5
396
330
1B
100
AcDbEntity
 67
     1
  8
7_ALL_FEATURES
  6
Continuous
 62
     9
100
AcDbLine
 10
1050.5573782685
 20
601.4786229486
 30
0.0
 11
1050.5573782685
 21
599.4786229486
 31
0.0
  0
ARC
  5
397
330
1B
100
AcDbEntity
 67
     1
  8
7_ALL_FEATURES
  6
Continuous
 62
     7
100
AcDbCircle
 10
1060.5024891883
 20
570.5965719863
 30
0.0
 40
40.0
100
AcDbArc
 50
180.0
 51
360.0
  0
ARC
  5
398
330
1B
100
AcDbEntity
 67
     1
  8
7_ALL_FEATURES
  6
Continuous
 62
     7
100
AcDbCircle
 10
1060.5024891883
 20
570.5965719863
 30
0.0
 40
40.0
100
AcDbArc
 50
0.0
 51
180.0
  0
LINE
  5
399
330
1B
100
AcDbEntity
 67
     1
  8
7_ALL_FEATURES
  6
Continuous
 62
     3
100
AcDbLine
 10
1075.5024891883
 20
557.5965719863
 30
0.0
 11
1075.5024891883
 21
583.5965719863
 31
0.0
  0
LINE
  5
39A
330
1B
100
AcDbEntity
 67
     1
  8
7_ALL_FEATURES
  6
Continuous
 62
     3
100
AcDbLine
 10
1045.5024891883
 20
583.5965719863
 30
0.0
 11
1045.5024891883
 21
557.5965719863
 31
0.0
  0
LINE
  5
39B
330
1B
100
AcDbEntity
 67
     1
  8
7_ALL_FEATURES
  6
Continuous
 62
     3
100
AcDbLine
 10
1045.5024891883
 20
587.3553424695
 30
0.0
 11
1045.5024891883
 21
598.2724753643
 31
0.0
  0
LINE
  5
39C
330
1B
100
AcDbEntity
 67
     1
  8
7_ALL_FEATURES
  6
Continuous
 62
     3
100
AcDbLine
 10
1075.5024891883
 20
598.2724753643
 30
0.0
 11
1075.5024891883
 21
587.3553424695
 31
0.0
  0
LINE
  5
39D
330
1B
100
AcDbEntity
 67
     1
  8
7_ALL_FEATURES
  6
Continuous
 62
     3
100
AcDbLine
 10
1075.5024891883
 20
587.3553424695
 30
0.0
 11
1075.5024891883
 21
583.5965719863
 31
0.0
  0
LINE
  5
39E
330
1B
100
AcDbEntity
 67
     1
  8
7_ALL_FEATURES
  6
Continuous
 62
     3
100
AcDbLine
 10
1045.5024891883
 20
587.3553424695
 30
0.0
 11
1045.5024891883
 21
583.5965719863
 31
0.0
  0
LINE
  5
39F
330
1B
100
AcDbEntity
 67
     1
  8
7_ALL_FEATURES
  6
Continuous
 62
     3
100
AcDbLine
 10
1045.9106140252
 20
599.4786229486
 30
0.0
 11
1050.5573782685
 21
599.4786229486
 31
0.0
  0
LINE
  5
3A0
330
1B
100
AcDbEntity
 67
     1
  8
7_ALL_FEATURES
  6
Continuous
 62
     3
100
AcDbLine
 10
1050.5573782685
 20
599.4786229486
 30
0.0
 11
1070.4476001081
 21
599.4786229486
 31
0.0
  0
LINE
  5
3A1
330
1B
100
AcDbEntity
 67
     1
  8
7_ALL_FEATURES
  6
Continuous
 62
     3
100
AcDbLine
 10
1070.4476001081
 20
599.4786229486
 30
0.0
 11
1075.0943643515
 21
599.4786229486
 31
0.0
  0
LINE
  5
3A2
330
1B
100
AcDbEntity
 67
     1
  8
7_ALL_FEATURES
  6
Continuous
 62
     3
100
AcDbLine
 10
1075.5024891883
 20
553.8378015032
 30
0.0
 11
1075.5024891883
 21
542.9206686083
 31
0.0
  0
LINE
  5
3A3
330
1B
100
AcDbEntity
 67
     1
  8
7_ALL_FEATURES
  6
Continuous
 62
     3
100
AcDbLine
 10
1045.5024891883
 20
542.9206686083
 30
0.0
 11
1045.5024891883
 21
553.8378015032
 31
0.0
  0
LINE
  5
3A4
330
1B
100
AcDbEntity
 67
     1
  8
7_ALL_FEATURES
  6
Continuous
 62
     3
100
AcDbLine
 10
1045.5024891883
 20
553.8378015032
 30
0.0
 11
1045.5024891883
 21
557.5965719863
 31
0.0
  0
LINE
  5
3A5
330
1B
100
AcDbEntity
 67
     1
  8
7_ALL_FEATURES
  6
Continuous
 62
     3
100
AcDbLine
 10
1075.5024891883
 20
553.8378015032
 30
0.0
 11
1075.5024891883
 21
557.5965719863
 31
0.0
  0
LINE
  5
3A6
330
1B
100
AcDbEntity
 67
     1
  8
7_ALL_FEATURES
  6
Continuous
 62
     3
100
AcDbLine
 10
1075.0943643515
 20
541.714521024
 30
0.0
 11
1070.4476001081
 21
541.714521024
 31
0.0
  0
LINE
  5
3A7
330
1B
100
AcDbEntity
 67
     1
  8
7_ALL_FEATURES
  6
Continuous
 62
     3
100
AcDbLine
 10
1070.4476001081
 20
541.714521024
 30
0.0
 11
1050.5573782685
 21
541.714521024
 31
0.0
  0
LINE
  5
3A8
330
1B
100
AcDbEntity
 67
     1
  8
7_ALL_FEATURES
  6
Continuous
 62
     3
100
AcDbLine
 10
1050.5573782685
 20
541.714521024
 30
0.0
 11
1045.9106140252
 21
541.714521024
 31
0.0
  0
LINE
  5
3A9
330
1B
100
AcDbEntity
 67
     1
  8
7_ALL_FEATURES
  6
Continuous
 62
     9
100
AcDbLine
 10
1045.5024891883
 20
553.8378015032
 30
0.0
 11
1075.5024891883
 21
553.8378015032
 31
0.0
  0
ARC
  5
3AA
330
1B
100
AcDbEntity
 67
     1
  8
7_ALL_FEATURES
  6
Continuous
 62
     3
100
AcDbCircle
 10
1060.5024891883
 20
570.5965719863
 30
0.0
 40
6.0
100
AcDbArc
 50
270.0
 51
90.0
  0
LINE
  5
3AB
330
1B
100
AcDbEntity
 67
     1
  8
7_ALL_FEATURES
  6
Continuous
 62
     9
100
AcDbLine
 10
1045.5024891883
 20
557.5965719863
 30
0.0
 11
1075.5024891883
 21
557.5965719863
 31
0.0
  0
ARC
  5
3AC
330
1B
100
AcDbEntity
 67
     1
  8
7_ALL_FEATURES
  6
Continuous
 62
     3
100
AcDbCircle
 10
1060.5024891883
 20
570.5965719863
 30
0.0
 40
6.0
100
AcDbArc
 50
90.0
 51
270.0
  0
SPLINE
  5
3AD
330
1B
100
AcDbEntity
 67
     1
  8
7_ALL_FEATURES
  6
Continuous
 62
     3
100
AcDbSpline
 70
     0
 71
     3
 72
    16
 73
    12
 74
     0
 42
0.000000001
 43
0.0000001
 40
0.0
 40
0.0
 40
0.0
 40
0.0
 40
0.0976669295
 40
0.1358749187
 40
0.1804737467
 40
0.2316778863
 40
0.2896184875
 40
0.4259762225
 40
0.5898571949
 40
0.7812562005
 40
1.0
 40
1.0
 40
1.0
 40
1.0
 10
1075.0943643515
 20
599.4786229486
 30
0.0
 10
1075.1367940407
 20
599.4786229486
 30
0.0
 10
1075.1853374873
 20
599.4238000974
 30
0.0
 10
1075.2236326874
 20
599.3579421548
 30
0.0
 10
1075.2492316845
 20
599.3050514538
 30
0.0
 10
1075.2744623709
 20
599.2433484665
 30
0.0
 10
1075.310276297
 20
599.1427864181
 30
0.0
 10
1075.3540275726
 20
598.9933846909
 30
0.0
 10
1075.4043695128
 20
598.7857589653
 30
0.0
 10
1075.4548417996
 20
598.5415117446
 30
0.0
 10
1075.4864785382
 20
598.3661463273
 30
0.0
 10
1075.5024891883
 20
598.2724753643
 30
0.0
  0
LINE
  5
3AE
330
1B
100
AcDbEntity
 67
     1
  8
7_ALL_FEATURES
  6
Continuous
 62
     9
100
AcDbLine
 10
1075.5024891883
 20
598.2724753643
 30
0.0
 11
1045.5024891883
 21
598.2724753643
 31
0.0
  0
SPLINE
  5
3AF
330
1B
100
AcDbEntity
 67
     1
  8
7_ALL_FEATURES
  6
Continuous
 62
     3
100
AcDbSpline
 70
     0
 71
     3
 72
    16
 73
    12
 74
     0
 42
0.000000001
 43
0.0000001
 40
0.0
 40
0.0
 40
0.0
 40
0.0
 40
0.0976669295
 40
0.1358749187
 40
0.1804737467
 40
0.2316778863
 40
0.2896184875
 40
0.4259762225
 40
0.5898571949
 40
0.7812562005
 40
1.0
 40
1.0
 40
1.0
 40
1.0
 10
1045.9106140252
 20
599.4786229486
 30
0.0
 10
1045.868184336
 20
599.4786229486
 30
0.0
 10
1045.8196408893
 20
599.4238000974
 30
0.0
 10
1045.7813456893
 20
599.3579421548
 30
0.0
 10
1045.7557466921
 20
599.3050514538
 30
0.0
 10
1045.7305160057
 20
599.2433484665
 30
0.0
 10
1045.6947020796
 20
599.1427864181
 30
0.0
 10
1045.6509508041
 20
598.9933846909
 30
0.0
 10
1045.6006088639
 20
598.7857589653
 30
0.0
 10
1045.550136577
 20
598.5415117446
 30
0.0
 10
1045.5184998384
 20
598.3661463273
 30
0.0
 10
1045.5024891883
 20
598.2724753643
 30
0.0
  0
LINE
  5
3B0
330
1B
100
AcDbEntity
 67
     1
  8
7_ALL_FEATURES
  6
Continuous
 62
     9
100
AcDbLine
 10
1075.5024891883
 20
587.3553424695
 30
0.0
 11
1045.5024891883
 21
587.3553424695
 31
0.0
  0
SPLINE
  5
3B1
330
1B
100
AcDbEntity
 67
     1
  8
7_ALL_FEATURES
  6
Continuous
 62
     3
100
AcDbSpline
 70
     0
 71
     3
 72
    16
 73
    12
 74
     0
 42
0.000000001
 43
0.0000001
 40
0.0
 40
0.0
 40
0.0
 40
0.0
 40
0.0976668981
 40
0.1358750253
 40
0.1804736827
 40
0.2316780222
 40
0.2896184088
 40
0.425976153
 40
0.5898571512
 40
0.7812561864
 40
1.0
 40
1.0
 40
1.0
 40
1.0
 10
1045.9106140252
 20
541.714521024
 30
0.0
 10
1045.8681843491
 20
541.714521024
 30
0.0
 10
1045.8196407169
 20
541.7693438002
 30
0.0
 10
1045.7813458256
 20
541.8352018845
 30
0.0
 10
1045.7557465349
 20
541.8880925204
 30
0.0
 10
1045.7305161564
 20
541.9497955543
 30
0.0
 10
1045.6947019182
 20
542.0503574805
 30
0.0
 10
1045.6509508592
 20
542.1997592095
 30
0.0
 10
1045.6006088445
 20
542.4073849374
 30
0.0
 10
1045.5501365863
 20
542.6516322024
 30
0.0
 10
1045.5184998396
 20
542.8269976383
 30
0.0
 10
1045.5024891883
 20
542.9206686083
 30
0.0
  0
LINE
  5
3B2
330
1B
100
AcDbEntity
 67
     1
  8
7_ALL_FEATURES
  6
Continuous
 62
     9
100
AcDbLine
 10
1045.5024891883
 20
542.9206686083
 30
0.0
 11
1075.5024891883
 21
542.9206686083
 31
0.0
  0
SPLINE
  5
3B3
330
1B
100
AcDbEntity
 67
     1
  8
7_ALL_FEATURES
  6
Continuous
 62
     3
100
AcDbSpline
 70
     0
 71
     3
 72
    16
 73
    12
 74
     0
 42
0.000000001
 43
0.0000001
 40
0.0
 40
0.0
 40
0.0
 40
0.0
 40
0.0976668981
 40
0.1358750253
 40
0.1804736827
 40
0.2316780222
 40
0.2896184088
 40
0.425976153
 40
0.5898571512
 40
0.7812561864
 40
1.0
 40
1.0
 40
1.0
 40
1.0
 10
1075.0943643515
 20
541.714521024
 30
0.0
 10
1075.1367940275
 20
541.714521024
 30
0.0
 10
1075.1853376598
 20
541.7693438002
 30
0.0
 10
1075.223632551
 20
541.8352018845
 30
0.0
 10
1075.2492318417
 20
541.8880925204
 30
0.0
 10
1075.2744622203
 20
541.9497955543
 30
0.0
 10
1075.3102764584
 20
542.0503574805
 30
0.0
 10
1075.3540275175
 20
542.1997592095
 30
0.0
 10
1075.4043695322
 20
542.4073849374
 30
0.0
 10
1075.4548417903
 20
542.6516322024
 30
0.0
 10
1075.486478537
 20
542.8269976383
 30
0.0
 10
1075.5024891883
 20
542.9206686083
 30
0.0
  0
LINE
  5
3B4
330
1B
100
AcDbEntity
 67
     1
  8
7_ALL_FEATURES
  6
Continuous
 62
     9
100
AcDbLine
 10
1075.5024891883
 20
583.5965719863
 30
0.0
 11
1045.5024891883
 21
583.5965719863
 31
0.0
  0
DIMENSION
  5
3B5
330
1B
100
AcDbEntity
 67
     1
  8
0
  6
Continuous
 62
     2
100
AcDbDimension
280
     0
  2
*D1
 10
1032.3296085898
 20
598.9917969156
 30
0.0
 11
1023.6542378221
 21
610.9301964384
 31
0.0
 70
   163
  1
%%c<>
 71
     5
 42
-1.0
 73
     0
 74
     0
 75
     0
  3
DIMSTYLE_1
100
AcDbDiametricDimension
 15
1088.6753697868
 25
542.201347057
 35
0.0
 40
0.0
  0
DIMENSION
  5
3B6
330
1B
100
AcDbEntity
 67
     1
  8
0
  6
Continuous
 62
     2
100
AcDbDimension
280
     0
  2
*D2
 10
85.87278191
 20
638.6421710177
 30
0.0
 11
382.1522308197
 21
638.6421710177
 31
0.0
 70
   160
 71
     5
 42
-1.0
 73
     0
 74
     0
 75
     0
  3
DIMSTYLE_2
100
AcDbAlignedDimension
 13
678.4604867414
 23
610.5965719863
 33
0.0
 14
85.87278191
 24
601.4786229486
 34
0.0
 50
180.0
100
AcDbRotatedDimension
  0
DIMENSION
  5
3B7
330
1B
100
AcDbEntity
 67
     1
  8
0
  6
Continuous
 62
     2
100
AcDbDimension
280
     0
  2
*D3
 10
680.4604867414
 20
514.961314679
 30
0.0
 11
701.714722229
 21
514.961314679
 31
0.0
 70
   160
 71
     5
 42
-1.0
 73
     0
 74
     0
 75
     0
  3
DIMSTYLE_3
100
AcDbAlignedDimension
 13
678.4604867414
 23
529.6366588852
 33
0.0
 14
680.4604867414
 24
529.6366588852
 34
0.0
100
AcDbRotatedDimension
  0
DIMENSION
  5
3B8
330
1B
100
AcDbEntity
 67
     1
  8
0
  6
Continuous
 62
     2
100
AcDbDimension
280
     0
  2
*D4
 10
880.4604867449
 20
638.6421710177
 30
0.0
 11
780.4221099243
 21
638.6421710177
 31
0.0
 70
   160
 71
     5
 42
-1.0
 73
     0
 74
     0
 75
     0
  3
DIMSTYLE_4
100
AcDbAlignedDimension
 13
680.4604867414
 23
610.5965719863
 33
0.0
 14
880.4604867449
 24
570.5965720471
 34
0.0
100
AcDbRotatedDimension
  0
DIMENSION
  5
3B9
330
1B
100
AcDbEntity
 67
     1
  8
0
  6
Continuous
 62
     2
100
AcDbDimension
280
     0
  2
*D5
 10
880.4604867449
 20
661.6318088738
 30
0.0
 11
483.1633651428
 21
661.6318088738
 31
0.0
 70
   160
 71
     5
 42
-1.0
 73
     0
 74
     0
 75
     0
  3
DIMSTYLE_2
100
AcDbAlignedDimension
 13
85.87278191
 23
601.4786229486
 33
0.0
 14
880.4604867449
 24
570.5965720471
 34
0.0
100
AcDbRotatedDimension
  0
DIMENSION
  5
3BA
330
1B
100
AcDbEntity
 67
     1
  8
0
  6
Continuous
 62
     2
100
AcDbDimension
280
     0
  2
*D6
 10
66.9802695639
 20
328.7541000683
 30
0.0
 11
66.9802695639
 21
343.7516292429
 31
0.0
 70
   160
 71
     5
 42
-1.0
 73
     0
 74
     0
 75
     0
  3
DIMSTYLE_5
100
AcDbAlignedDimension
 13
83.1348082947
 23
358.7541000683
 33
0.0
 14
82.4172623717
 24
328.7541000683
 34
0.0
 50
270.0
100
AcDbRotatedDimension
  0
DIMENSION
  5
3BB
330
1B
100
AcDbEntity
 67
     1
  8
0
  6
Continuous
 62
     2
100
AcDbDimension
280
     0
  2
*D7
 10
905.5546011938
 20
335.1541000683
 30
0.0
 11
905.5546011938
 21
343.7541000683
 31
0.0
 70
   160
  1
%%c<>
 71
     5
 42
-1.0
 73
     0
 74
     0
 75
     0
  3
DIMSTYLE_5
100
AcDbAlignedDimension
 13
883.5220160195
 23
352.3541000683
 33
0.0
 14
883.1680328329
 24
335.1541000683
 34
0.0
 50
270.0
100
AcDbRotatedDimension
  0
LINE
  5
3BC
330
1B
100
AcDbEntity
 67
     1
  8
0
  6
Continuous
 62
     2
100
AcDbLine
 10
1049.0050640649
 20
70.0054331513
 30
0.0
 11
1179.0050640649
 21
70.0054331513
 31
0.0
  0
LINE
  5
3BD
330
1B
100
AcDbEntity
 67
     1
  8
0
  6
Continuous
 62
     2
100
AcDbLine
 10
1049.0050640649
 20
70.0054331513
 30
0.0
 11
1049.0050640649
 21
10.0054331513
 31
0.0
  0
LINE
  5
3BE
330
1B
100
AcDbEntity
 67
     1
  8
0
  6
Continuous
 62
     2
100
AcDbLine
 10
1079.0050640649
 20
62.0054331513
 30
0.0
 11
1179.0050640649
 21
62.0054331513
 31
0.0
  0
LINE
  5
3BF
330
1B
100
AcDbEntity
 67
     1
  8
0
  6
Continuous
 62
     2
100
AcDbLine
 10
1049.0050640649
 20
54.0054331513
 30
0.0
 11
1179.0050640649
 21
54.0054331513
 31
0.0
  0
LINE
  5
3C0
330
1B
100
AcDbEntity
 67
     1
  8
0
  6
Continuous
 62
     2
100
AcDbLine
 10
1079.0050640649
 20
48.0054331513
 30
0.0
 11
1179.0050640649
 21
48.0054331513
 31
0.0
  0
LINE
  5
3C1
330
1B
100
AcDbEntity
 67
     1
  8
0
  6
Continuous
 62
     2
100
AcDbLine
 10
1079.0050640649
 20
42.0054331513
 30
0.0
 11
1179.0050640649
 21
42.0054331513
 31
0.0
  0
LINE
  5
3C2
330
1B
100
AcDbEntity
 67
     1
  8
0
  6
Continuous
 62
     2
100
AcDbLine
 10
1079.0050640649
 20
36.0054331513
 30
0.0
 11
1179.0050640649
 21
36.0054331513
 31
0.0
  0
LINE
  5
3C3
330
1B
100
AcDbEntity
 67
     1
  8
0
  6
Continuous
 62
     2
100
AcDbLine
 10
1079.0050640649
 20
30.0054331513
 30
0.0
 11
1179.0050640649
 21
30.0054331513
 31
0.0
  0
LINE
  5
3C4
330
1B
100
AcDbEntity
 67
     1
  8
0
  6
Continuous
 62
     2
100
AcDbLine
 10
1049.0050640649
 20
24.0054331513
 30
0.0
 11
1179.0050640649
 21
24.0054331513
 31
0.0
  0
LINE
  5
3C5
330
1B
100
AcDbEntity
 67
     1
  8
0
  6
Continuous
 62
     2
100
AcDbLine
 10
1049.0050640649
 20
18.0054331513
 30
0.0
 11
1179.0050640649
 21
18.0054331513
 31
0.0
  0
LINE
  5
3C6
330
1B
100
AcDbEntity
 67
     1
  8
0
  6
Continuous
 62
     2
100
AcDbLine
 10
1049.0050640649
 20
14.0054331513
 30
0.0
 11
1179.0050640649
 21
14.0054331513
 31
0.0
  0
LINE
  5
3C7
330
1B
100
AcDbEntity
 67
     1
  8
0
  6
Continuous
 62
     2
100
AcDbLine
 10
1049.0050640649
 20
10.0054331513
 30
0.0
 11
1179.0050640649
 21
10.0054331513
 31
0.0
  0
LINE
  5
3C8
330
1B
100
AcDbEntity
 67
     1
  8
0
  6
Continuous
 62
     2
100
AcDbLine
 10
1079.0050640649
 20
70.0054331513
 30
0.0
 11
1079.0050640649
 21
18.0054331513
 31
0.0
  0
LINE
  5
3C9
330
1B
100
AcDbEntity
 67
     1
  8
0
  6
Continuous
 62
     2
100
AcDbLine
 10
1109.0050640649
 20
54.0054331513
 30
0.0
 11
1109.0050640649
 21
48.0054331513
 31
0.0
  0
LINE
  5
3CA
330
1B
100
AcDbEntity
 67
     1
  8
0
  6
Continuous
 62
     2
100
AcDbLine
 10
1129.0050640649
 20
30.0054331513
 30
0.0
 11
1129.0050640649
 21
18.0054331513
 31
0.0
  0
LINE
  5
3CB
330
1B
100
AcDbEntity
 67
     1
  8
0
  6
Continuous
 62
     2
100
AcDbLine
 10
1139.0050640649
 20
48.0054331513
 30
0.0
 11
1139.0050640649
 21
42.0054331513
 31
0.0
  0
LINE
  5
3CC
330
1B
100
AcDbEntity
 67
     1
  8
0
  6
Continuous
 62
     2
100
AcDbLine
 10
1159.0050640649
 20
54.0054331513
 30
0.0
 11
1159.0050640649
 21
48.0054331513
 31
0.0
  0
LINE
  5
3CD
330
1B
100
AcDbEntity
 67
     1
  8
0
  6
Continuous
 62
     2
100
AcDbLine
 10
1169.0050640649
 20
48.0054331513
 30
0.0
 11
1169.0050640649
 21
42.0054331513
 31
0.0
  0
LINE
  5
3CE
330
1B
100
AcDbEntity
 67
     1
  8
0
  6
Continuous
 62
     2
100
AcDbLine
 10
1179.0050640649
 20
70.0054331513
 30
0.0
 11
1179.0050640649
 21
10.0054331513
 31
0.0
  0
INSERT
  5
3CF
330
1B
100
AcDbEntity
 67
     1
  8
0
  6
Continuous
 62
     2
100
AcDbBlockReference
  2
PROIEZIONE_EU_BL0
 10
1064.0050640649
 20
61.6304331513
 30
0.0
  0
MTEXT
  5
3D0
330
1B
100
AcDbEntity
 67
     1
  8
9_SOLID
  6
Continuous
 62
     2
100
AcDbMText
 10
1080.4925640649
 20
68.3804331513
 30
0.0
 40
1.9
 41
142.3642857143
 46
0.0
 71
     1
 72
     1
  1
EN: Chamfer/radii unlisted 0.3x45°. Remove sharp edges.\PGen. tol.: hole H11, shaft h11, lenght Js12. UNI EN 22768 Medium Grande.
  7
TEXTSTYLE_5
 73
     1
 44
1.0
  0
MTEXT
  5
3D1
330
1B
100
AcDbEntity
 67
     1
  8
9_SOLID
  6
Continuous
 62
     2
100
AcDbMText
 10
1080.4925640649
 20
60.3804331513
 30
0.0
 40
1.9
 41
148.2678571429
 46
0.0
 71
     1
 72
     1
  1
IT: Sm./rac. non quotati 0.3x45°. Eliminare spigoli taglienti.\PToll. gen.: foro H11, albero h11, lunghezza Js12. UNI EN 22768 Grado Medio.
  7
TEXTSTYLE_5
 73
     1
 44
1.0
  0
INSERT
  5
3D2
330
1B
100
AcDbEntity
 67
     1
  8
0
  6
Continuous
 62
     2
100
AcDbBlockReference
  2
LOGO2_BL1
 10
1062.8311111097
 20
39.0054331513
 30
0.0
  0
MTEXT
  5
3D3
330
1B
100
AcDbEntity
 67
     1
  8
9_SOLID
  6
Continuous
 62
     2
100
AcDbMText
 10
1080.4925640649
 20
52.2554331513
 30
0.0
 40
3.0
 41
21.4285714286
 46
0.0
 71
     1
 72
     1
  1
Pj: 416
  7
TEXTSTYLE_5
 73
     1
 44
1.0
  0
MTEXT
  5
3D4
330
1B
100
AcDbEntity
 67
     1
  8
9_SOLID
  6
Continuous
 62
     2
100
AcDbMText
 10
1110.4925640649
 20
52.2554331513
 30
0.0
 40
3.0
 41
38.0357142857
 46
0.0
 71
     1
 72
     1
  1
% Check: %
  7
TEXTSTYLE_5
 73
     1
 44
1.0
  0
MTEXT
  5
3D5
330
1B
100
AcDbEntity
 67
     1
  8
9_SOLID
  6
Continuous
 62
     2
100
AcDbMText
 10
1160.4925640649
 20
52.5054331513
 30
0.0
 40
3.0
 41
19.1785714286
 46
0.0
 71
     1
 72
     1
  1
Rev:03
  7
TEXTSTYLE_5
 73
     1
 44
1.0
  0
MTEXT
  5
3D6
330
1B
100
AcDbEntity
 67
     1
  8
9_SOLID
  6
Continuous
 62
     2
100
AcDbMText
 10
1080.4925640649
 20
46.2554331513
 30
0.0
 40
3.0
 41
19.3928571429
 46
0.0
 71
     1
 72
     1
  1
Code: 
  7
TEXTSTYLE_5
 73
     1
 44
1.0
  0
MTEXT
  5
3D7
330
1B
100
AcDbEntity
 67
     1
  8
9_SOLID
  6
Continuous
 62
     2
100
AcDbMText
 10
1140.4925640649
 20
46.5054331513
 30
0.0
 40
3.0
 41
27.8571428571
 46
0.0
 71
     1
 72
     1
  1
Scale: 1:1
  7
TEXTSTYLE_5
 73
     1
 44
1.0
  0
MTEXT
  5
3D8
330
1B
100
AcDbEntity
 67
     1
  8
9_SOLID
  6
Continuous
 62
     2
100
AcDbMText
 10
1174.0050640649
 20
46.5054331513
 30
0.0
 40
3.0
 41
8.25
 46
0.0
 71
     2
 72
     1
  1
A0
  7
TEXTSTYLE_5
 73
     1
 44
1.0
  0
MTEXT
  5
3D9
330
1B
100
AcDbEntity
 67
     1
  8
9_SOLID
  6
Continuous
 62
     2
100
AcDbMText
 10
1080.4925640649
 20
40.5054331513
 30
0.0
 40
3.0
 41
144.3214285714
 46
0.0
 71
     1
 72
     1
  1
It descr.: PICCHETTO A TERRA FLORI1.0 500mm
  7
TEXTSTYLE_5
 73
     1
 44
1.0
  0
MTEXT
  5
3DA
330
1B
100
AcDbEntity
 67
     1
  8
9_SOLID
  6
Continuous
 62
     2
100
AcDbMText
 10
1080.4925640649
 20
34.5054331513
 30
0.0
 40
3.0
 41
33.9642857143
 46
0.0
 71
     1
 72
     1
  1
En descr.: 
  7
TEXTSTYLE_5
 73
     1
 44
1.0
  0
MTEXT
  5
3DB
330
1B
100
AcDbEntity
 67
     1
  8
9_SOLID
  6
Continuous
 62
     2
100
AcDbMText
 10
1080.4925640649
 20
28.5054331513
 30
0.0
 40
3.0
 41
31.6071428571
 46
0.0
 71
     1
 72
     1
  1
Des.: A.G.
  7
TEXTSTYLE_5
 73
     1
 44
1.0
  0
MTEXT
  5
3DC
330
1B
100
AcDbEntity
 67
     1
  8
9_SOLID
  6
Continuous
 62
     2
100
AcDbMText
 10
1130.4925640649
 20
28.5054331513
 30
0.0
 40
3.0
 41
34.8214285714
 46
0.0
 71
     1
 72
     1
  1
Check: A.P.
  7
TEXTSTYLE_5
 73
     1
 44
1.0
  0
MTEXT
  5
3DD
330
1B
100
AcDbEntity
 67
     1
  8
9_SOLID
  6
Continuous
 62
     2
100
AcDbMText
 10
1050.4925640649
 20
22.5054331513
 30
0.0
 40
3.0
 41
42.5357142857
 46
0.0
 71
     1
 72
     1
  1
Date: 17.12.18
  7
TEXTSTYLE_5
 73
     1
 44
1.0
  0
MTEXT
  5
3DE
330
1B
100
AcDbEntity
 67
     1
  8
9_SOLID
  6
Continuous
 62
     2
100
AcDbMText
 10
1080.4925640649
 20
22.5054331513
 30
0.0
 40
3.0
 41
18.2142857143
 46
0.0
 71
     1
 72
     1
  1
Mat.: 
  7
TEXTSTYLE_5
 73
     1
 44
1.0
  0
MTEXT
  5
3DF
330
1B
100
AcDbEntity
 67
     1
  8
9_SOLID
  6
Continuous
 62
     2
100
AcDbMText
 10
1130.4925640649
 20
22.0054331513
 30
0.0
 40
2.0
 41
42.3571428571
 46
0.0
 71
     1
 72
     1
  1
Disegno per catalogo
  7
TEXTSTYLE_5
 73
     1
 44
1.0
  0
MTEXT
  5
3E0
330
1B
100
AcDbEntity
 67
     1
  8
9_SOLID
  6
Continuous
 62
     2
100
AcDbMText
 10
1050.4925640649
 20
16.9054331513
 30
0.0
 40
1.8
 41
176.2071428571
 46
0.0
 71
     1
 72
     1
  1
It: A norma di legge si diffida da qualsiasi riproduzione senza nostra autorizzazione esplicita.
  7
TEXTSTYLE_5
 73
     1
 44
1.0
  0
MTEXT
  5
3E1
330
1B
100
AcDbEntity
 67
     1
  8
9_SOLID
  6
Continuous
 62
     2
100
AcDbMText
 10
1050.4925640649
 20
12.9054331513
 30
0.0
 40
1.8
 41
158.1428571429
 46
0.0
 71
     1
 72
     1
  1
En: According to the law, beware of any reproduction made without our authorization.
  7
TEXTSTYLE_5
 73
     1
 44
1.0
  0
ENDSEC
  0
SECTION
  2
OBJECTS
  0
DICTIONARY
  5
3E2
330
0
100
AcDbDictionary
281
     1
  3
ACAD_DETAILVIEWSTYLE
350
438
  3
ACAD_GROUP
350
3E3
  3
ACAD_LAYOUT
350
40B
  3
ACAD_MATERIAL
350
427
  3
ACAD_MLEADERSTYLE
350
42D
  3
ACAD_MLINESTYLE
350
3E4
  3
ACAD_PLOTSETTINGS
350
3E6
  3
ACAD_PLOTSTYLENAME
350
3E7
  3
ACAD_SCALELIST
350
3E9
  3
ACAD_SECTIONVIEWSTYLE
350
439
  3
ACAD_TABLESTYLE
350
42B
  3
ACAD_VISUALSTYLE
350
40E
  3
ACDB_RECOMPOSE_DATA
350
434
  3
AcDbVariableDictionary
350
430
  3
APPDATA
350
42F
  0
DICTIONARY
  5
438
102
{ACAD_REACTORS
330
3E2
102
}
330
3E2
100
AcDbDictionary
281
     1
  0
DICTIONARY
  5
3E3
102
{ACAD_REACTORS
330
3E2
102
}
330
3E2
100
AcDbDictionary
281
     1
  0
DICTIONARY
  5
40B
102
{ACAD_REACTORS
330
3E2
102
}
330
3E2
100
AcDbDictionary
281
     1
  3
Foglio 1
350
40D
  3
Model
350
40C
  0
DICTIONARY
  5
427
102
{ACAD_REACTORS
330
3E2
102
}
330
3E2
100
AcDbDictionary
281
     1
  3
ByBlock
350
429
  3
ByLayer
350
428
  3
Global
350
42A
  0
DICTIONARY
  5
42D
102
{ACAD_REACTORS
330
3E2
102
}
330
3E2
100
AcDbDictionary
281
     1
  3
Standard
350
42E
  0
DICTIONARY
  5
3E4
102
{ACAD_REACTORS
330
3E2
102
}
330
3E2
100
AcDbDictionary
281
     1
  3
STANDARD
350
3E5
  0
DICTIONARY
  5
3E6
102
{ACAD_REACTORS
330
3E2
102
}
330
3E2
100
AcDbDictionary
281
     1
  0
ACDBDICTIONARYWDFLT
  5
3E7
102
{ACAD_REACTORS
330
3E2
102
}
330
3E2
100
AcDbDictionary
281
     1
  3
Normal
350
3E8
100
AcDbDictionaryWithDefault
340
3E8
  0
DICTIONARY
  5
3E9
102
{ACAD_REACTORS
330
3E2
102
}
330
3E2
100
AcDbDictionary
281
     1
  3
A0
350
3EA
  3
A1
350
3EB
  3
A2
350
3EC
  3
A3
350
3ED
  3
A4
350
3EE
  3
A5
350
3EF
  3
A6
350
3F0
  3
A7
350
3F1
  3
A8
350
3F2
  3
A9
350
3F3
  3
B0
350
3F4
  3
B1
350
3F5
  3
B2
350
3F6
  3
B3
350
3F7
  3
B4
350
3F8
  3
B5
350
3F9
  3
B6
350
3FA
  3
B7
350
3FB
  3
B8
350
3FC
  3
B9
350
3FD
  3
C0
350
3FE
  3
C1
350
3FF
  3
C2
350
400
  3
C3
350
401
  3
C4
350
402
  3
C5
350
403
  3
C6
350
404
  3
C7
350
405
  3
C8
350
406
  3
C9
350
407
  3
D0
350
408
  3
D1
350
409
  3
D2
350
40A
  0
DICTIONARY
  5
439
102
{ACAD_REACTORS
330
3E2
102
}
330
3E2
100
AcDbDictionary
281
     1
  0
DICTIONARY
  5
42B
102
{ACAD_REACTORS
330
3E2
102
}
330
3E2
100
AcDbDictionary
281
     1
  3
Standard
350
42C
  0
DICTIONARY
  5
40E
102
{ACAD_REACTORS
330
3E2
102
}
330
3E2
100
AcDbDictionary
281
     1
  3
2dWireframe
350
413
  3
Basic
350
416
  3
Brighten
350
41A
  3
ColorChange
350
41E
  3
Conceptual
350
418
  3
Dim
350
419
  3
EdgeColorOff
350
421
  3
Facepattern
350
41D
  3
Flat
350
40F
  3
FlatWithEdges
350
410
  3
Gouraud
350
411
  3
GouraudWithEdges
350
412
  3
Hidden
350
415
  3
JitterOff
350
41F
  3
Linepattern
350
41C
  3
OverhangOff
350
420
  3
Realistic
350
417
  3
Shaded
350
426
  3
Shaded with edges
350
425
  3
Shades of Gray
350
422
  3
Sketchy
350
423
  3
Thicken
350
41B
  3
Wireframe
350
414
  3
X-Ray
350
424
  0
XRECORD
  5
434
102
{ACAD_REACTORS
330
3E2
102
}
330
3E2
100
AcDbXrecord
280
     1
 90
        1
330
42C
  0
DICTIONARY
  5
430
102
{ACAD_REACTORS
330
3E2
102
}
330
3E2
100
AcDbDictionary
281
     1
  3
CANNOSCALE
350
431
  3
CMLEADERSTYLE
350
436
  3
CTABLESTYLE
350
435
  3
MSLTSCALE
350
437
  0
DICTIONARY
  5
42F
102
{ACAD_REACTORS
330
3E2
102
}
330
3E2
100
AcDbDictionary
281
     1
  0
LAYOUT
  5
40D
102
{ACAD_REACTORS
330
40B
102
}
330
40B
100
AcDbPlotSettings
  1

  2
none_device
  4
ISO_A3_(420.00_x_297.00_MM)
  6

 40
7.5
 41
20.0
 42
7.5
 43
20.0
 44
420.0
 45
297.0
 46
0.0
 47
0.0
 48
0.0
 49
0.0
140
0.0
141
0.0
142
1.0
143
3.272373540856031
 70
   688
 72
     1
 73
     0
 74
     1
  7

 75
     0
 76
     0
 77
     2
 78
   300
147
0.3055885850178359
148
3.0
149
0.0
100
AcDbLayout
  1
Foglio 1
 70
     1
 71
     1
 10
0.0
 20
0.0
 11
412.5
 21
277.0
 12
0.0
 22
0.0
 32
0.0
 14
-3.0
 24
0.0
 34
0.0
 15
1189.0
 25
841.0
 35
0.0
146
0.0
 13
0.0
 23
0.0
 33
0.0
 16
1.0
 26
0.0
 36
0.0
 17
0.0
 27
1.0
 37
0.0
 76
     0
330
1B
331
317
  0
LAYOUT
  5
40C
102
{ACAD_REACTORS
330
40B
102
}
330
40B
100
AcDbPlotSettings
  1

  2
none_device
  4
Letter_(8.50_x_11.00_Inches)
  6

 40
6.35
 41
6.35
 42
6.35
 43
6.35
 44
215.9
 45
279.4
 46
0.0
 47
0.0
 48
0.0
 49
0.0
140
0.0
141
0.0
142
1.0
143
148.624999994925
 70
  1712
 72
     0
 73
     0
 74
     0
  7

 75
     0
 76
     0
 77
     2
 78
   300
147
0.0067283431457302
148
-0.0000005156208999
149
0.0
100
AcDbLayout
  1
Model
 70
     1
 71
     0
 10
0.0
 20
0.0
 11
1189.0
 21
841.0
 12
0.0
 22
0.0
 32
0.0
 14
0.0
 24
0.0
 34
0.0
 15
1189.0
 25
841.0
 35
0.0
146
0.0
 13
0.0
 23
0.0
 33
0.0
 16
1.0
 26
0.0
 36
0.0
 17
0.0
 27
1.0
 37
0.0
 76
     0
330
1F
331
1F4
  0
MATERIAL
  5
429
102
{ACAD_REACTORS
330
427
102
}
330
427
100
AcDbMaterial
  1
ByBlock
 72
     1
 94
      127
  0
MATERIAL
  5
428
102
{ACAD_REACTORS
330
427
102
}
330
427
100
AcDbMaterial
  1
ByLayer
 72
     1
 94
      127
  0
MATERIAL
  5
42A
102
{ACAD_REACTORS
330
427
102
}
330
427
100
AcDbMaterial
  1
Global
 72
     1
 94
      127
  0
MLEADERSTYLE
  5
42E
102
{ACAD_REACTORS
330
42D
102
}
330
42D
100
AcDbMLeaderStyle
179
     2
170
     2
171
     1
172
     0
 90
        2
 40
0.0
 41
0.0
173
     1
 91
-1056964608
340
14
 92
       -2
290
     1
 42
2.0
291
     1
 43
8.0
  3
Standard
341
0
 44
4.0
300

342
11
174
     1
178
     1
175
     1
176
     0
 93
-1056964608
 45
4.0
292
     0
297
     0
 46
4.0
343
0
 94
-1056964608
 47
1.0
 49
1.0
140
1.0
293
     1
141
0.0
294
     1
177
     0
142
1.0
295
     0
296
     0
143
3.75
271
     0
272
     9
273
     9
298
     0
  0
MLINESTYLE
  5
3E5
102
{ACAD_REACTORS
330
3E4
102
}
330
3E4
100
AcDbMlineStyle
  2
STANDARD
 70
     0
  3

 62
   256
 51
90.0
 52
90.0
 71
     2
 49
0.5
 62
   256
  6
BYLAYER
 49
-0.5
 62
   256
  6
BYLAYER
  0
ACDBPLACEHOLDER
  5
3E8
102
{ACAD_REACTORS
330
3E7
102
}
330
3E7
  0
SCALE
  5
3EA
102
{ACAD_REACTORS
330
3E9
102
}
330
3E9
100
AcDbScale
 70
     0
300
1:1
140
1.0
141
1.0
290
     1
  0
SCALE
  5
3EB
102
{ACAD_REACTORS
330
3E9
102
}
330
3E9
100
AcDbScale
 70
     0
300
1:2
140
1.0
141
2.0
290
     0
  0
SCALE
  5
3EC
102
{ACAD_REACTORS
330
3E9
102
}
330
3E9
100
AcDbScale
 70
     0
300
1:4
140
1.0
141
4.0
290
     0
  0
SCALE
  5
3ED
102
{ACAD_REACTORS
330
3E9
102
}
330
3E9
100
AcDbScale
 70
     0
300
1:5
140
1.0
141
5.0
290
     0
  0
SCALE
  5
3EE
102
{ACAD_REACTORS
330
3E9
102
}
330
3E9
100
AcDbScale
 70
     0
300
1:8
140
1.0
141
8.0
290
     0
  0
SCALE
  5
3EF
102
{ACAD_REACTORS
330
3E9
102
}
330
3E9
100
AcDbScale
 70
     0
300
1:10
140
1.0
141
10.0
290
     0
  0
SCALE
  5
3F0
102
{ACAD_REACTORS
330
3E9
102
}
330
3E9
100
AcDbScale
 70
     0
300
1:16
140
1.0
141
16.0
290
     0
  0
SCALE
  5
3F1
102
{ACAD_REACTORS
330
3E9
102
}
330
3E9
100
AcDbScale
 70
     0
300
1:20
140
1.0
141
20.0
290
     0
  0
SCALE
  5
3F2
102
{ACAD_REACTORS
330
3E9
102
}
330
3E9
100
AcDbScale
 70
     0
300
1:30
140
1.0
141
30.0
290
     0
  0
SCALE
  5
3F3
102
{ACAD_REACTORS
330
3E9
102
}
330
3E9
100
AcDbScale
 70
     0
300
1:40
140
1.0
141
40.0
290
     0
  0
SCALE
  5
3F4
102
{ACAD_REACTORS
330
3E9
102
}
330
3E9
100
AcDbScale
 70
     0
300
1:50
140
1.0
141
50.0
290
     0
  0
SCALE
  5
3F5
102
{ACAD_REACTORS
330
3E9
102
}
330
3E9
100
AcDbScale
 70
     0
300
1:100
140
1.0
141
100.0
290
     0
  0
SCALE
  5
3F6
102
{ACAD_REACTORS
330
3E9
102
}
330
3E9
100
AcDbScale
 70
     0
300
2:1
140
2.0
141
1.0
290
     0
  0
SCALE
  5
3F7
102
{ACAD_REACTORS
330
3E9
102
}
330
3E9
100
AcDbScale
 70
     0
300
4:1
140
4.0
141
1.0
290
     0
  0
SCALE
  5
3F8
102
{ACAD_REACTORS
330
3E9
102
}
330
3E9
100
AcDbScale
 70
     0
300
8:1
140
8.0
141
1.0
290
     0
  0
SCALE
  5
3F9
102
{ACAD_REACTORS
330
3E9
102
}
330
3E9
100
AcDbScale
 70
     0
300
10:1
140
10.0
141
1.0
290
     0
  0
SCALE
  5
3FA
102
{ACAD_REACTORS
330
3E9
102
}
330
3E9
100
AcDbScale
 70
     0
300
100:1
140
100.0
141
1.0
290
     0
  0
SCALE
  5
3FB
102
{ACAD_REACTORS
330
3E9
102
}
330
3E9
100
AcDbScale
 70
     0
300
1/128" = 1'-0"
140
0.0078125
141
12.0
290
     0
  0
SCALE
  5
3FC
102
{ACAD_REACTORS
330
3E9
102
}
330
3E9
100
AcDbScale
 70
     0
300
1/64" = 1'-0"
140
0.015625
141
12.0
290
     0
  0
SCALE
  5
3FD
102
{ACAD_REACTORS
330
3E9
102
}
330
3E9
100
AcDbScale
 70
     0
300
1/32" = 1'-0"
140
0.03125
141
12.0
290
     0
  0
SCALE
  5
3FE
102
{ACAD_REACTORS
330
3E9
102
}
330
3E9
100
AcDbScale
 70
     0
300
1/16" = 1'-0"
140
0.0625
141
12.0
290
     0
  0
SCALE
  5
3FF
102
{ACAD_REACTORS
330
3E9
102
}
330
3E9
100
AcDbScale
 70
     0
300
3/32" = 1'-0"
140
0.09375
141
12.0
290
     0
  0
SCALE
  5
400
102
{ACAD_REACTORS
330
3E9
102
}
330
3E9
100
AcDbScale
 70
     0
300
1/8" = 1'-0"
140
0.125
141
12.0
290
     0
  0
SCALE
  5
401
102
{ACAD_REACTORS
330
3E9
102
}
330
3E9
100
AcDbScale
 70
     0
300
3/16" = 1'-0"
140
0.1875
141
12.0
290
     0
  0
SCALE
  5
402
102
{ACAD_REACTORS
330
3E9
102
}
330
3E9
100
AcDbScale
 70
     0
300
1/4" = 1'-0"
140
0.25
141
12.0
290
     0
  0
SCALE
  5
403
102
{ACAD_REACTORS
330
3E9
102
}
330
3E9
100
AcDbScale
 70
     0
300
3/8" = 1'-0"
140
0.375
141
12.0
290
     0
  0
SCALE
  5
404
102
{ACAD_REACTORS
330
3E9
102
}
330
3E9
100
AcDbScale
 70
     0
300
1/2" = 1'-0"
140
0.5
141
12.0
290
     0
  0
SCALE
  5
405
102
{ACAD_REACTORS
330
3E9
102
}
330
3E9
100
AcDbScale
 70
     0
300
3/4" = 1'-0"
140
0.75
141
12.0
290
     0
  0
SCALE
  5
406
102
{ACAD_REACTORS
330
3E9
102
}
330
3E9
100
AcDbScale
 70
     0
300
1" = 1'-0"
140
1.0
141
12.0
290
     0
  0
SCALE
  5
407
102
{ACAD_REACTORS
330
3E9
102
}
330
3E9
100
AcDbScale
 70
     0
300
1-1/2" = 1'-0"
140
1.5
141
12.0
290
     0
  0
SCALE
  5
408
102
{ACAD_REACTORS
330
3E9
102
}
330
3E9
100
AcDbScale
 70
     0
300
3" = 1'-0"
140
3.0
141
12.0
290
     0
  0
SCALE
  5
409
102
{ACAD_REACTORS
330
3E9
102
}
330
3E9
100
AcDbScale
 70
     0
300
6" = 1'-0"
140
6.0
141
12.0
290
     0
  0
SCALE
  5
40A
102
{ACAD_REACTORS
330
3E9
102
}
330
3E9
100
AcDbScale
 70
     0
300
1'-0" = 1'-0"
140
12.0
141
12.0
290
     0
  0
TABLESTYLE
  5
42C
102
{ACAD_REACTORS
330
42B
102
}
102
{ACAD_XDICTIONARY
360
432
102
}
330
42B
100
AcDbTableStyle
  3
Standard
 70
     0
 71
     0
 40
0.06
 41
0.06
280
     0
281
     0
  7
STANDARD
140
4.5
170
     2
 62
     0
 63
   257
283
     0
 90
        4
 91
        0
  1

274
    -2
284
     1
 64
     0
275
    -2
285
     1
 65
     0
276
    -2
286
     1
 66
     0
277
    -2
287
     1
 67
     0
278
    -2
288
     1
 68
     0
279
    -2
289
     1
 69
     0
  7
STANDARD
140
6.0
170
     5
 62
     0
 63
   257
283
     0
 90
        4
 91
        0
  1

274
    -2
284
     1
 64
     0
275
    -2
285
     1
 65
     0
276
    -2
286
     1
 66
     0
277
    -2
287
     1
 67
     0
278
    -2
288
     1
 68
     0
279
    -2
289
     1
 69
     0
  7
STANDARD
140
4.5
170
     5
 62
     0
 63
   257
283
     0
 90
        4
 91
        0
  1

274
    -2
284
     1
 64
     0
275
    -2
285
     1
 65
     0
276
    -2
286
     1
 66
     0
277
    -2
287
     1
 67
     0
278
    -2
288
     1
 68
     0
279
    -2
289
     1
 69
     0
  0
VISUALSTYLE
  5
413
102
{ACAD_REACTORS
330
40E
102
}
330
40E
100
AcDbVisualStyle
  2
2dWireframe
 70
     4
177
     3
291
     0
 70
    58
 90
        0
176
     1
 90
        2
176
     1
 90
        0
176
     1
 90
        0
176
     1
 40
0.6
176
     1
 40
30.0
176
     1
 62
     7
420
 16777215
176
     1
 90
        1
176
     1
 90
        4
176
     1
 62
     7
176
     1
 62
   257
176
     1
 90
        1
176
     1
 90
        1
176
     1
 40
1.0
176
     1
 90
        0
176
     1
 62
   257
176
     1
 40
1.0
176
     1
 90
        1
176
     1
 90
        6
176
     1
 90
        2
176
     1
 62
     7
176
     1
 90
        5
176
     1
 90
        0
176
     1
 90
        0
176
     1
290
     0
176
     1
 90
        1
176
     1
 40
0.0
176
     1
 90
        0
176
     1
290
     1
176
     1
290
     1
176
     1
290
     0
176
     1
290
     0
176
     1
290
     0
176
     1
290
     0
176
     1
290
     0
176
     1
290
     0
176
     1
290
     0
176
     1
 90
       50
176
     1
 40
0.0
176
     1
 40
1.0
176
     1
 90
        0
176
     1
 62
    18
420
        0
176
     1
 90
       50
176
     1
 90
        3
176
     1
 62
     5
420
      255
176
     1
290
     0
176
     1
 90
       50
176
     1
 90
       50
176
     1
 90
       50
176
     1
290
     0
176
     1
 90
       50
176
     1
 62
   256
176
     0
 40
1.0
176
     0
 90
        2
176
     1
  1
strokes_ogs.tif
176
     1
290
     0
176
     1
 40
1.0
176
     1
 40
1.0
176
     1
  0
VISUALSTYLE
  5
416
102
{ACAD_REACTORS
330
40E
102
}
330
40E
100
AcDbVisualStyle
  2
Basic
 70
     7
177
     3
291
     1
 70
    58
 90
        1
176
     1
 90
        0
176
     1
 90
        1
176
     1
 90
        0
176
     1
 40
0.6
176
     1
 40
30.0
176
     1
 62
     7
420
 16777215
176
     1
 90
        0
176
     1
 90
        4
176
     1
 62
     7
176
     1
 62
   257
176
     1
 90
        1
176
     1
 90
        1
176
     1
 40
1.0
176
     1
 90
        8
176
     1
 62
     7
176
     1
 40
1.0
176
     1
 90
        1
176
     1
 90
        6
176
     1
 90
        2
176
     1
 62
     7
176
     1
 90
        5
176
     1
 90
        0
176
     1
 90
        0
176
     1
290
     0
176
     1
 90
        1
176
     1
 40
0.0
176
     1
 90
        0
176
     1
290
     0
176
     1
290
     1
176
     1
290
     1
176
     1
290
     0
176
     1
290
     0
176
     1
290
     0
176
     1
290
     0
176
     1
290
     0
176
     1
290
     0
176
     1
 90
       50
176
     1
 40
0.0
176
     1
 40
1.0
176
     1
 90
        0
176
     1
 62
    18
420
        0
176
     1
 90
       50
176
     1
 90
        3
176
     1
 62
     5
420
      255
176
     1
290
     0
176
     1
 90
       50
176
     1
 90
       50
176
     1
 90
       50
176
     1
290
     0
176
     1
 90
       50
176
     1
 62
   256
176
     0
 40
1.0
176
     0
 90
        2
176
     1
  1
strokes_ogs.tif
176
     1
290
     0
176
     1
 40
1.0
176
     1
 40
1.0
176
     1
  0
VISUALSTYLE
  5
41A
102
{ACAD_REACTORS
330
40E
102
}
330
40E
100
AcDbVisualStyle
  2
Brighten
 70
    12
177
     3
291
     1
 70
    58
 90
        2
176
     1
 90
        2
176
     1
 90
        0
176
     1
 90
        0
176
     1
 40
0.6
176
     1
 40
30.0
176
     1
 62
     7
420
 16777215
176
     1
 90
        1
176
     1
 90
        4
176
     1
 62
     7
176
     1
 62
   257
176
     1
 90
        1
176
     1
 90
        1
176
     1
 40
1.0
176
     1
 90
        8
176
     1
 62
     7
176
     1
 40
1.0
176
     1
 90
        1
176
     1
 90
        6
176
     1
 90
        2
176
     1
 62
     7
176
     1
 90
        5
176
     1
 90
        0
176
     1
 90
        0
176
     1
290
     0
176
     1
 90
        1
176
     1
 40
50.0
176
     1
 90
        0
176
     1
290
     0
176
     1
290
     1
176
     1
290
     1
176
     1
290
     0
176
     1
290
     0
176
     1
290
     0
176
     1
290
     0
176
     1
290
     0
176
     1
290
     0
176
     1
 90
       50
176
     1
 40
0.0
176
     1
 40
1.0
176
     1
 90
        0
176
     1
 62
    18
420
        0
176
     1
 90
       50
176
     1
 90
        3
176
     1
 62
     5
420
      255
176
     1
290
     0
176
     1
 90
       50
176
     1
 90
       50
176
     1
 90
       50
176
     1
290
     0
176
     1
 90
       50
176
     1
 62
   256
176
     0
 40
1.0
176
     0
 90
        2
176
     1
  1
strokes_ogs.tif
176
     1
290
     0
176
     1
 40
1.0
176
     1
 40
1.0
176
     1
  0
VISUALSTYLE
  5
41E
102
{ACAD_REACTORS
330
40E
102
}
330
40E
100
AcDbVisualStyle
  2
ColorChange
 70
    16
177
     3
291
     1
 70
    58
 90
        2
176
     1
 90
        2
176
     1
 90
        3
176
     1
 90
        0
176
     1
 40
0.6
176
     1
 40
30.0
176
     1
 62
     8
420
  8421504
176
     1
 90
        1
176
     1
 90
        4
176
     1
 62
     7
176
     1
 62
   257
176
     1
 90
        1
176
     1
 90
        1
176
     1
 40
1.0
176
     1
 90
        8
176
     1
 62
     8
420
  8421504
176
     1
 40
1.0
176
     1
 90
        1
176
     1
 90
        6
176
     1
 90
        2
176
     1
 62
     7
176
     1
 90
        5
176
     1
 90
        0
176
     1
 90
        0
176
     1
290
     0
176
     1
 90
        1
176
     1
 40
0.0
176
     1
 90
        0
176
     1
290
     0
176
     1
290
     1
176
     1
290
     1
176
     1
290
     0
176
     1
290
     0
176
     1
290
     0
176
     1
290
     0
176
     1
290
     0
176
     1
290
     0
176
     1
 90
       50
176
     1
 40
0.0
176
     1
 40
1.0
176
     1
 90
        0
176
     1
 62
    18
420
        0
176
     1
 90
       50
176
     1
 90
        3
176
     1
 62
     5
420
      255
176
     1
290
     0
176
     1
 90
       50
176
     1
 90
       50
176
     1
 90
       50
176
     1
290
     0
176
     1
 90
       50
176
     1
 62
   256
176
     0
 40
1.0
176
     0
 90
        2
176
     1
  1
strokes_ogs.tif
176
     1
290
     0
176
     1
 40
1.0
176
     1
 40
1.0
176
     1
  0
VISUALSTYLE
  5
418
102
{ACAD_REACTORS
330
40E
102
}
330
40E
100
AcDbVisualStyle
  2
Conceptual
 70
     9
177
     3
291
     0
 70
    58
 90
        3
176
     1
 90
        2
176
     1
 90
        0
176
     1
 90
        0
176
     1
 40
0.6
176
     1
 40
30.0
176
     1
 62
     7
420
 16777215
176
     1
 90
        2
176
     1
 90
        2
176
     1
 62
     7
176
     1
 62
   257
176
     1
 90
        1
176
     1
 90
        1
176
     1
 40
179.0
176
     1
 90
        8
176
     1
 62
     7
176
     1
 40
1.0
176
     1
 90
        1
176
     1
 90
        6
176
     1
 90
        2
176
     1
 62
     7
176
     1
 90
        3
176
     1
 90
        0
176
     1
 90
        0
176
     1
290
     0
176
     1
 90
        1
176
     1
 40
0.0
176
     1
 90
        0
176
     1
290
     0
176
     1
290
     1
176
     1
290
     1
176
     1
290
     0
176
     1
290
     0
176
     1
290
     0
176
     1
290
     0
176
     1
290
     0
176
     1
290
     0
176
     1
 90
       50
176
     1
 40
0.0
176
     1
 40
1.0
176
     1
 90
        0
176
     1
 62
    18
420
        0
176
     1
 90
       50
176
     1
 90
        3
176
     1
 62
     5
420
      255
176
     1
290
     0
176
     1
 90
       50
176
     1
 90
       50
176
     1
 90
       50
176
     1
290
     0
176
     1
 90
       50
176
     1
 62
   256
176
     0
 40
1.0
176
     0
 90
        2
176
     1
  1
strokes_ogs.tif
176
     1
290
     0
176
     1
 40
1.0
176
     1
 40
1.0
176
     1
  0
VISUALSTYLE
  5
419
102
{ACAD_REACTORS
330
40E
102
}
330
40E
100
AcDbVisualStyle
  2
Dim
 70
    11
177
     3
291
     1
 70
    58
 90
        2
176
     1
 90
        2
176
     1
 90
        0
176
     1
 90
        0
176
     1
 40
0.6
176
     1
 40
30.0
176
     1
 62
     7
420
 16777215
176
     1
 90
        1
176
     1
 90
        4
176
     1
 62
     7
176
     1
 62
   257
176
     1
 90
        1
176
     1
 90
        1
176
     1
 40
1.0
176
     1
 90
        8
176
     1
 62
     7
176
     1
 40
1.0
176
     1
 90
        1
176
     1
 90
        6
176
     1
 90
        2
176
     1
 62
     7
176
     1
 90
        5
176
     1
 90
        0
176
     1
 90
        0
176
     1
290
     0
176
     1
 90
        1
176
     1
 40
-50.0
176
     1
 90
        0
176
     1
290
     0
176
     1
290
     1
176
     1
290
     1
176
     1
290
     0
176
     1
290
     0
176
     1
290
     0
176
     1
290
     0
176
     1
290
     0
176
     1
290
     0
176
     1
 90
       50
176
     1
 40
0.0
176
     1
 40
1.0
176
     1
 90
        0
176
     1
 62
    18
420
        0
176
     1
 90
       50
176
     1
 90
        3
176
     1
 62
     5
420
      255
176
     1
290
     0
176
     1
 90
       50
176
     1
 90
       50
176
     1
 90
       50
176
     1
290
     0
176
     1
 90
       50
176
     1
 62
   256
176
     0
 40
1.0
176
     0
 90
        2
176
     1
  1
strokes_ogs.tif
176
     1
290
     0
176
     1
 40
1.0
176
     1
 40
1.0
176
     1
  0
VISUALSTYLE
  5
421
102
{ACAD_REACTORS
330
40E
102
}
330
40E
100
AcDbVisualStyle
  2
EdgeColorOff
 70
    22
177
     3
291
     1
 70
    58
 90
        2
176
     0
 90
        2
176
     0
 90
        0
176
     0
 90
        0
176
     0
 40
0.6
176
     0
 40
30.0
176
     0
 62
     7
420
 16777215
176
     0
 90
        1
176
     0
 90
        4
176
     0
 62
     7
176
     0
 62
   257
176
     0
 90
        1
176
     0
 90
        1
176
     0
 40
1.0
176
     0
 90
        8
176
     2
 62
     7
176
     0
 40
1.0
176
     0
 90
        1
176
     0
 90
        6
176
     0
 90
        2
176
     0
 62
     7
176
     0
 90
        5
176
     0
 90
        0
176
     0
 90
        0
176
     0
290
     0
176
     0
 90
        1
176
     0
 40
0.0
176
     0
 90
        0
176
     0
290
     0
176
     0
290
     1
176
     0
290
     1
176
     0
290
     0
176
     0
290
     0
176
     0
290
     0
176
     0
290
     0
176
     0
290
     0
176
     0
290
     0
176
     0
 90
       50
176
     0
 40
0.0
176
     0
 40
1.0
176
     0
 90
        0
176
     0
 62
    18
420
        0
176
     0
 90
       50
176
     0
 90
        3
176
     0
 62
     5
420
      255
176
     0
290
     0
176
     0
 90
       50
176
     0
 90
       50
176
     0
 90
       50
176
     0
290
     0
176
     0
 90
       50
176
     0
 62
   256
176
     0
 40
1.0
176
     0
 90
        2
176
     0
  1
strokes_ogs.tif
176
     0
290
     0
176
     0
 40
1.0
176
     0
 40
1.0
176
     0
  0
VISUALSTYLE
  5
41D
102
{ACAD_REACTORS
330
40E
102
}
330
40E
100
AcDbVisualStyle
  2
Facepattern
 70
    15
177
     3
291
     1
 70
    58
 90
        2
176
     1
 90
        2
176
     1
 90
        0
176
     1
 90
        0
176
     1
 40
0.6
176
     1
 40
30.0
176
     1
 62
     7
420
 16777215
176
     1
 90
        1
176
     1
 90
        4
176
     1
 62
     7
176
     1
 62
   257
176
     1
 90
        1
176
     1
 90
        1
176
     1
 40
1.0
176
     1
 90
        8
176
     1
 62
     7
176
     1
 40
1.0
176
     1
 90
        1
176
     1
 90
        6
176
     1
 90
        2
176
     1
 62
     7
176
     1
 90
        5
176
     1
 90
        0
176
     1
 90
        0
176
     1
290
     0
176
     1
 90
        1
176
     1
 40
0.0
176
     1
 90
        0
176
     1
290
     0
176
     1
290
     1
176
     1
290
     1
176
     1
290
     0
176
     1
290
     0
176
     1
290
     0
176
     1
290
     0
176
     1
290
     0
176
     1
290
     0
176
     1
 90
       50
176
     1
 40
0.0
176
     1
 40
1.0
176
     1
 90
        0
176
     1
 62
    18
420
        0
176
     1
 90
       50
176
     1
 90
        3
176
     1
 62
     5
420
      255
176
     1
290
     0
176
     1
 90
       50
176
     1
 90
       50
176
     1
 90
       50
176
     1
290
     0
176
     1
 90
       50
176
     1
 62
   256
176
     0
 40
1.0
176
     0
 90
        2
176
     1
  1
strokes_ogs.tif
176
     1
290
     0
176
     1
 40
1.0
176
     1
 40
1.0
176
     1
  0
VISUALSTYLE
  5
40F
102
{ACAD_REACTORS
330
40E
102
}
330
40E
100
AcDbVisualStyle
  2
Flat
 70
     0
177
     3
291
     1
 70
    58
 90
        2
176
     1
 90
        1
176
     1
 90
        1
176
     1
 90
        2
176
     1
 40
0.6
176
     1
 40
30.0
176
     1
 62
     7
420
 16777215
176
     1
 90
        0
176
     1
 90
        0
176
     1
 62
     7
176
     1
 62
   257
176
     1
 90
        1
176
     1
 90
        1
176
     1
 40
1.0
176
     1
 90
        8
176
     1
 62
     7
176
     1
 40
1.0
176
     1
 90
        1
176
     1
 90
        6
176
     1
 90
        2
176
     1
 62
     7
176
     1
 90
        5
176
     1
 90
        0
176
     1
 90
        0
176
     1
290
     0
176
     1
 90
       13
176
     1
 40
0.0
176
     1
 90
        0
176
     1
290
     0
176
     1
290
     1
176
     1
290
     1
176
     1
290
     0
176
     1
290
     0
176
     1
290
     0
176
     1
290
     0
176
     1
290
     0
176
     1
290
     0
176
     1
 90
       50
176
     1
 40
0.0
176
     1
 40
1.0
176
     1
 90
        0
176
     1
 62
    18
420
        0
176
     1
 90
       50
176
     1
 90
        3
176
     1
 62
     5
420
      255
176
     1
290
     0
176
     1
 90
       50
176
     1
 90
       50
176
     1
 90
       50
176
     1
290
     0
176
     1
 90
       50
176
     1
 62
   256
176
     0
 40
1.0
176
     0
 90
        2
176
     1
  1
strokes_ogs.tif
176
     1
290
     0
176
     1
 40
1.0
176
     1
 40
1.0
176
     1
  0
VISUALSTYLE
  5
410
102
{ACAD_REACTORS
330
40E
102
}
330
40E
100
AcDbVisualStyle
  2
FlatWithEdges
 70
     1
177
     3
291
     1
 70
    58
 90
        2
176
     1
 90
        1
176
     1
 90
        1
176
     1
 90
        2
176
     1
 40
0.6
176
     1
 40
30.0
176
     1
 62
     7
420
 16777215
176
     1
 90
        1
176
     1
 90
        0
176
     1
 62
     7
176
     1
 62
   257
176
     1
 90
        1
176
     1
 90
        1
176
     1
 40
1.0
176
     1
 90
        0
176
     1
 62
   257
176
     1
 40
1.0
176
     1
 90
        1
176
     1
 90
        6
176
     1
 90
        2
176
     1
 62
     7
176
     1
 90
        5
176
     1
 90
        0
176
     1
 90
        0
176
     1
290
     0
176
     1
 90
       13
176
     1
 40
0.0
176
     1
 90
        0
176
     1
290
     0
176
     1
290
     1
176
     1
290
     1
176
     1
290
     0
176
     1
290
     0
176
     1
290
     0
176
     1
290
     0
176
     1
290
     0
176
     1
290
     0
176
     1
 90
       50
176
     1
 40
0.0
176
     1
 40
1.0
176
     1
 90
        0
176
     1
 62
    18
420
        0
176
     1
 90
       50
176
     1
 90
        3
176
     1
 62
     5
420
      255
176
     1
290
     0
176
     1
 90
       50
176
     1
 90
       50
176
     1
 90
       50
176
     1
290
     0
176
     1
 90
       50
176
     1
 62
   256
176
     0
 40
1.0
176
     0
 90
        2
176
     1
  1
strokes_ogs.tif
176
     1
290
     0
176
     1
 40
1.0
176
     1
 40
1.0
176
     1
  0
VISUALSTYLE
  5
411
102
{ACAD_REACTORS
330
40E
102
}
330
40E
100
AcDbVisualStyle
  2
Gouraud
 70
     2
177
     3
291
     1
 70
    58
 90
        2
176
     1
 90
        2
176
     1
 90
        1
176
     1
 90
        2
176
     1
 40
0.6
176
     1
 40
30.0
176
     1
 62
     7
420
 16777215
176
     1
 90
        0
176
     1
 90
        0
176
     1
 62
     7
176
     1
 62
   257
176
     1
 90
        1
176
     1
 90
        1
176
     1
 40
1.0
176
     1
 90
        0
176
     1
 62
     7
176
     1
 40
1.0
176
     1
 90
        1
176
     1
 90
        6
176
     1
 90
        2
176
     1
 62
     7
176
     1
 90
        5
176
     1
 90
        0
176
     1
 90
        0
176
     1
290
     0
176
     1
 90
       13
176
     1
 40
0.0
176
     1
 90
        0
176
     1
290
     0
176
     1
290
     1
176
     1
290
     1
176
     1
290
     0
176
     1
290
     0
176
     1
290
     0
176
     1
290
     0
176
     1
290
     0
176
     1
290
     0
176
     1
 90
       50
176
     1
 40
0.0
176
     1
 40
1.0
176
     1
 90
        0
176
     1
 62
    18
420
        0
176
     1
 90
       50
176
     1
 90
        3
176
     1
 62
     5
420
      255
176
     1
290
     0
176
     1
 90
       50
176
     1
 90
       50
176
     1
 90
       50
176
     1
290
     0
176
     1
 90
       50
176
     1
 62
   256
176
     0
 40
1.0
176
     0
 90
        2
176
     1
  1
strokes_ogs.tif
176
     1
290
     0
176
     1
 40
1.0
176
     1
 40
1.0
176
     1
  0
VISUALSTYLE
  5
412
102
{ACAD_REACTORS
330
40E
102
}
330
40E
100
AcDbVisualStyle
  2
GouraudWithEdges
 70
     3
177
     3
291
     1
 70
    58
 90
        2
176
     1
 90
        2
176
     1
 90
        1
176
     1
 90
        2
176
     1
 40
0.6
176
     1
 40
30.0
176
     1
 62
     7
420
 16777215
176
     1
 90
        1
176
     1
 90
        0
176
     1
 62
     7
176
     1
 62
   257
176
     1
 90
        1
176
     1
 90
        1
176
     1
 40
1.0
176
     1
 90
        0
176
     1
 62
   257
176
     1
 40
1.0
176
     1
 90
        1
176
     1
 90
        6
176
     1
 90
        2
176
     1
 62
     7
176
     1
 90
        5
176
     1
 90
        0
176
     1
 90
        0
176
     1
290
     0
176
     1
 90
       13
176
     1
 40
0.0
176
     1
 90
        0
176
     1
290
     0
176
     1
290
     1
176
     1
290
     1
176
     1
290
     0
176
     1
290
     0
176
     1
290
     0
176
     1
290
     0
176
     1
290
     0
176
     1
290
     0
176
     1
 90
       50
176
     1
 40
0.0
176
     1
 40
1.0
176
     1
 90
        0
176
     1
 62
    18
420
        0
176
     1
 90
       50
176
     1
 90
        3
176
     1
 62
     5
420
      255
176
     1
290
     0
176
     1
 90
       50
176
     1
 90
       50
176
     1
 90
       50
176
     1
290
     0
176
     1
 90
       50
176
     1
 62
   256
176
     0
 40
1.0
176
     0
 90
        2
176
     1
  1
strokes_ogs.tif
176
     1
290
     0
176
     1
 40
1.0
176
     1
 40
1.0
176
     1
  0
VISUALSTYLE
  5
415
102
{ACAD_REACTORS
330
40E
102
}
330
40E
100
AcDbVisualStyle
  2
Hidden
 70
     6
177
     3
291
     0
 70
    58
 90
        1
176
     1
 90
        2
176
     1
 90
        2
176
     1
 90
        0
176
     1
 40
0.6
176
     1
 40
30.0
176
     1
 62
     7
420
 16777215
176
     1
 90
        2
176
     1
 90
        2
176
     1
 62
     7
176
     1
 62
   257
176
     1
 90
        2
176
     1
 90
        1
176
     1
 40
40.0
176
     1
 90
        0
176
     1
 62
   257
176
     1
 40
1.0
176
     1
 90
        1
176
     1
 90
        6
176
     1
 90
        2
176
     1
 62
     7
176
     1
 90
        3
176
     1
 90
        0
176
     1
 90
        0
176
     1
290
     0
176
     1
 90
        1
176
     1
 40
0.0
176
     1
 90
        0
176
     1
290
     0
176
     1
290
     1
176
     1
290
     1
176
     1
290
     0
176
     1
290
     0
176
     1
290
     0
176
     1
290
     0
176
     1
290
     0
176
     1
290
     0
176
     1
 90
       50
176
     1
 40
0.0
176
     1
 40
1.0
176
     1
 90
        0
176
     1
 62
    18
420
        0
176
     1
 90
       50
176
     1
 90
        3
176
     1
 62
     5
420
      255
176
     1
290
     0
176
     1
 90
       50
176
     1
 90
       50
176
     1
 90
       50
176
     1
290
     0
176
     1
 90
       50
176
     1
 62
   256
176
     0
 40
1.0
176
     0
 90
        2
176
     1
  1
strokes_ogs.tif
176
     1
290
     0
176
     1
 40
1.0
176
     1
 40
1.0
176
     1
  0
VISUALSTYLE
  5
41F
102
{ACAD_REACTORS
330
40E
102
}
330
40E
100
AcDbVisualStyle
  2
JitterOff
 70
    20
177
     3
291
     1
 70
    58
 90
        2
176
     0
 90
        2
176
     0
 90
        0
176
     0
 90
        0
176
     0
 40
0.6
176
     0
 40
30.0
176
     0
 62
     7
420
 16777215
176
     0
 90
        1
176
     0
 90
        4
176
     0
 62
     7
176
     0
 62
   257
176
     0
 90
        1
176
     0
 90
        1
176
     0
 40
1.0
176
     0
 90
       10
176
     2
 62
     7
176
     0
 40
1.0
176
     0
 90
        1
176
     0
 90
        6
176
     0
 90
        2
176
     0
 62
     7
176
     0
 90
        5
176
     0
 90
        0
176
     0
 90
        0
176
     0
290
     0
176
     0
 90
        1
176
     0
 40
0.0
176
     0
 90
        0
176
     0
290
     0
176
     0
290
     1
176
     0
290
     1
176
     0
290
     0
176
     0
290
     0
176
     0
290
     0
176
     0
290
     0
176
     0
290
     0
176
     0
290
     0
176
     0
 90
       50
176
     0
 40
0.0
176
     0
 40
1.0
176
     0
 90
        0
176
     0
 62
    18
420
        0
176
     0
 90
       50
176
     0
 90
        3
176
     0
 62
     5
420
      255
176
     0
290
     0
176
     0
 90
       50
176
     0
 90
       50
176
     0
 90
       50
176
     0
290
     0
176
     0
 90
       50
176
     0
 62
   256
176
     0
 40
1.0
176
     0
 90
        2
176
     0
  1
strokes_ogs.tif
176
     0
290
     0
176
     0
 40
1.0
176
     0
 40
1.0
176
     0
  0
VISUALSTYLE
  5
41C
102
{ACAD_REACTORS
330
40E
102
}
330
40E
100
AcDbVisualStyle
  2
Linepattern
 70
    14
177
     3
291
     1
 70
    58
 90
        2
176
     1
 90
        2
176
     1
 90
        0
176
     1
 90
        0
176
     1
 40
0.6
176
     1
 40
30.0
176
     1
 62
     7
420
 16777215
176
     1
 90
        1
176
     1
 90
        4
176
     1
 62
     7
176
     1
 62
   257
176
     1
 90
        7
176
     1
 90
        7
176
     1
 40
1.0
176
     1
 90
        8
176
     1
 62
     7
176
     1
 40
1.0
176
     1
 90
        1
176
     1
 90
        6
176
     1
 90
        2
176
     1
 62
     7
176
     1
 90
        5
176
     1
 90
        0
176
     1
 90
        0
176
     1
290
     0
176
     1
 90
        1
176
     1
 40
0.0
176
     1
 90
        0
176
     1
290
     0
176
     1
290
     1
176
     1
290
     1
176
     1
290
     0
176
     1
290
     0
176
     1
290
     0
176
     1
290
     0
176
     1
290
     0
176
     1
290
     0
176
     1
 90
       50
176
     1
 40
0.0
176
     1
 40
1.0
176
     1
 90
        0
176
     1
 62
    18
420
        0
176
     1
 90
       50
176
     1
 90
        3
176
     1
 62
     5
420
      255
176
     1
290
     0
176
     1
 90
       50
176
     1
 90
       50
176
     1
 90
       50
176
     1
290
     0
176
     1
 90
       50
176
     1
 62
   256
176
     0
 40
1.0
176
     0
 90
        2
176
     1
  1
strokes_ogs.tif
176
     1
290
     0
176
     1
 40
1.0
176
     1
 40
1.0
176
     1
  0
VISUALSTYLE
  5
420
102
{ACAD_REACTORS
330
40E
102
}
330
40E
100
AcDbVisualStyle
  2
OverhangOff
 70
    21
177
     3
291
     1
 70
    58
 90
        2
176
     0
 90
        2
176
     0
 90
        0
176
     0
 90
        0
176
     0
 40
0.6
176
     0
 40
30.0
176
     0
 62
     7
420
 16777215
176
     0
 90
        1
176
     0
 90
        4
176
     0
 62
     7
176
     0
 62
   257
176
     0
 90
        1
176
     0
 90
        1
176
     0
 40
1.0
176
     0
 90
        9
176
     2
 62
     7
176
     0
 40
1.0
176
     0
 90
        1
176
     0
 90
        6
176
     0
 90
        2
176
     0
 62
     7
176
     0
 90
        5
176
     0
 90
        0
176
     0
 90
        0
176
     0
290
     0
176
     0
 90
        1
176
     0
 40
0.0
176
     0
 90
        0
176
     0
290
     0
176
     0
290
     1
176
     0
290
     1
176
     0
290
     0
176
     0
290
     0
176
     0
290
     0
176
     0
290
     0
176
     0
290
     0
176
     0
290
     0
176
     0
 90
       50
176
     0
 40
0.0
176
     0
 40
1.0
176
     0
 90
        0
176
     0
 62
    18
420
        0
176
     0
 90
       50
176
     0
 90
        3
176
     0
 62
     5
420
      255
176
     0
290
     0
176
     0
 90
       50
176
     0
 90
       50
176
     0
 90
       50
176
     0
290
     0
176
     0
 90
       50
176
     0
 62
   256
176
     0
 40
1.0
176
     0
 90
        2
176
     0
  1
strokes_ogs.tif
176
     0
290
     0
176
     0
 40
1.0
176
     0
 40
1.0
176
     0
  0
VISUALSTYLE
  5
417
102
{ACAD_REACTORS
330
40E
102
}
330
40E
100
AcDbVisualStyle
  2
Realistic
 70
     8
177
     3
291
     0
 70
    58
 90
        2
176
     1
 90
        3
176
     1
 90
        0
176
     1
 90
        2
176
     1
 40
0.6
176
     1
 40
30.0
176
     1
 62
     7
420
 16777215
176
     1
 90
        0
176
     1
 90
        0
176
     1
 62
     7
176
     1
 62
   257
176
     1
 90
        1
176
     1
 90
        1
176
     1
 40
1.0
176
     1
 90
        8
176
     1
 62
   257
176
     1
 40
1.0
176
     1
 90
        1
176
     1
 90
        6
176
     1
 90
        2
176
     1
 62
     7
176
     1
 90
        3
176
     1
 90
        0
176
     1
 90
        0
176
     1
290
     0
176
     1
 90
       13
176
     1
 40
0.0
176
     1
 90
        0
176
     1
290
     0
176
     1
290
     1
176
     1
290
     1
176
     1
290
     0
176
     1
290
     0
176
     1
290
     0
176
     1
290
     0
176
     1
290
     0
176
     1
290
     0
176
     1
 90
       50
176
     1
 40
0.0
176
     1
 40
1.0
176
     1
 90
        0
176
     1
 62
    18
420
        0
176
     1
 90
       50
176
     1
 90
        3
176
     1
 62
     5
420
      255
176
     1
290
     0
176
     1
 90
       50
176
     1
 90
       50
176
     1
 90
       50
176
     1
290
     0
176
     1
 90
       50
176
     1
 62
   256
176
     0
 40
1.0
176
     0
 90
        2
176
     1
  1
strokes_ogs.tif
176
     1
290
     0
176
     1
 40
1.0
176
     1
 40
1.0
176
     1
  0
VISUALSTYLE
  5
426
102
{ACAD_REACTORS
330
40E
102
}
330
40E
100
AcDbVisualStyle
  2
Shaded
 70
    27
177
     3
291
     0
 70
    58
 90
        2
176
     1
 90
        2
176
     1
 90
        1
176
     1
 90
        2
176
     1
 40
0.6
176
     1
 40
30.0
176
     1
 62
     7
420
 16777215
176
     1
 90
        0
176
     1
 90
        4
176
     1
 62
     7
176
     1
 62
   257
176
     1
 90
        1
176
     1
 90
        1
176
     1
 40
1.0
176
     1
 90
        8
176
     1
 62
   257
176
     1
 40
1.0
176
     1
 90
        1
176
     1
 90
        6
176
     1
 90
        2
176
     1
 62
     8
420
  7895160
176
     1
 90
        3
176
     1
 90
        0
176
     1
 90
        0
176
     1
290
     0
176
     1
 90
        5
176
     1
 40
0.0
176
     1
 90
        0
176
     1
290
     0
176
     1
290
     1
176
     1
290
     1
176
     1
290
     0
176
     1
290
     0
176
     1
290
     0
176
     1
290
     0
176
     1
290
     0
176
     1
290
     0
176
     1
 90
       50
176
     1
 40
0.0
176
     1
 40
1.0
176
     1
 90
        0
176
     1
 62
    18
420
        0
176
     1
 90
       50
176
     1
 90
        3
176
     1
 62
     5
420
      255
176
     1
290
     0
176
     1
 90
       50
176
     1
 90
       50
176
     1
 90
       50
176
     1
290
     0
176
     1
 90
       50
176
     1
 62
   256
176
     0
 40
1.0
176
     0
 90
        2
176
     1
  1
strokes_ogs.tif
176
     1
290
     0
176
     1
 40
1.0
176
     1
 40
1.0
176
     1
  0
VISUALSTYLE
  5
425
102
{ACAD_REACTORS
330
40E
102
}
330
40E
100
AcDbVisualStyle
  2
Shaded with edges
 70
    26
177
     3
291
     0
 70
    58
 90
        2
176
     1
 90
        2
176
     1
 90
        1
176
     1
 90
        2
176
     1
 40
0.6
176
     1
 40
30.0
176
     1
 62
     7
420
 16777215
176
     1
 90
        1
176
     1
 90
       10
176
     1
 62
     7
176
     1
 62
   257
176
     1
 90
        2
176
     1
 90
        1
176
     1
 40
1.0
176
     1
 90
        8
176
     1
 62
   257
176
     1
 40
1.0
176
     1
 90
        1
176
     1
 90
        6
176
     1
 90
        2
176
     1
 62
     7
176
     1
 90
        3
176
     1
 90
        0
176
     1
 90
        0
176
     1
290
     0
176
     1
 90
        5
176
     1
 40
0.0
176
     1
 90
        0
176
     1
290
     0
176
     1
290
     1
176
     1
290
     1
176
     1
290
     0
176
     1
290
     0
176
     1
290
     0
176
     1
290
     0
176
     1
290
     0
176
     1
290
     0
176
     1
 90
       50
176
     1
 40
0.0
176
     1
 40
1.0
176
     1
 90
        0
176
     1
 62
    18
420
        0
176
     1
 90
       50
176
     1
 90
        3
176
     1
 62
     5
420
      255
176
     1
290
     0
176
     1
 90
       50
176
     1
 90
       50
176
     1
 90
       50
176
     1
290
     0
176
     1
 90
       50
176
     1
 62
   256
176
     0
 40
1.0
176
     0
 90
        2
176
     1
  1
strokes_ogs.tif
176
     1
290
     0
176
     1
 40
1.0
176
     1
 40
1.0
176
     1
  0
VISUALSTYLE
  5
422
102
{ACAD_REACTORS
330
40E
102
}
330
40E
100
AcDbVisualStyle
  2
Shades of Gray
 70
    23
177
     3
291
     0
 70
    58
 90
        2
176
     1
 90
        2
176
     1
 90
        3
176
     1
 90
        0
176
     1
 40
0.6
176
     1
 40
30.0
176
     1
 62
     7
420
 16777215
176
     1
 90
        2
176
     1
 90
        2
176
     1
 62
     7
176
     1
 62
     7
176
     1
 90
        1
176
     1
 90
        1
176
     1
 40
40.0
176
     1
 90
        8
176
     1
 62
     7
176
     1
 40
1.0
176
     1
 90
        1
176
     1
 90
        6
176
     1
 90
        2
176
     1
 62
     7
176
     1
 90
        3
176
     1
 90
        0
176
     1
 90
        0
176
     1
290
     0
176
     1
 90
        1
176
     1
 40
0.0
176
     1
 90
        0
176
     1
290
     0
176
     1
290
     1
176
     1
290
     1
176
     1
290
     0
176
     1
290
     0
176
     1
290
     0
176
     1
290
     0
176
     1
290
     0
176
     1
290
     0
176
     1
 90
       50
176
     1
 40
0.0
176
     1
 40
1.0
176
     1
 90
        0
176
     1
 62
    18
420
        0
176
     1
 90
       50
176
     1
 90
        3
176
     1
 62
     5
420
      255
176
     1
290
     0
176
     1
 90
       50
176
     1
 90
       50
176
     1
 90
       50
176
     1
290
     0
176
     1
 90
       50
176
     1
 62
   256
176
     0
 40
1.0
176
     0
 90
        2
176
     1
  1
strokes_ogs.tif
176
     1
290
     0
176
     1
 40
1.0
176
     1
 40
1.0
176
     1
  0
VISUALSTYLE
  5
423
102
{ACAD_REACTORS
330
40E
102
}
330
40E
100
AcDbVisualStyle
  2
Sketchy
 70
    24
177
     3
291
     0
 70
    58
 90
        1
176
     1
 90
        2
176
     1
 90
        2
176
     1
 90
        0
176
     1
 40
0.6
176
     1
 40
30.0
176
     1
 62
     7
420
 16777215
176
     1
 90
        2
176
     1
 90
        2
176
     1
 62
     7
176
     1
 62
     7
176
     1
 90
        1
176
     1
 90
        1
176
     1
 40
40.0
176
     1
 90
       11
176
     1
 62
     7
176
     1
 40
1.0
176
     1
 90
        1
176
     1
 90
        6
176
     1
 90
        2
176
     1
 62
     7
176
     1
 90
        6
176
     1
 90
        0
176
     1
 90
        0
176
     1
290
     0
176
     1
 90
        1
176
     1
 40
0.0
176
     1
 90
        0
176
     1
290
     0
176
     1
290
     1
176
     1
290
     1
176
     1
290
     0
176
     1
290
     0
176
     1
290
     0
176
     1
290
     0
176
     1
290
     0
176
     1
290
     0
176
     1
 90
       50
176
     1
 40
0.0
176
     1
 40
1.0
176
     1
 90
        0
176
     1
 62
    18
420
        0
176
     1
 90
       50
176
     1
 90
        3
176
     1
 62
     5
420
      255
176
     1
290
     0
176
     1
 90
       50
176
     1
 90
       50
176
     1
 90
       50
176
     1
290
     0
176
     1
 90
       50
176
     1
 62
   256
176
     0
 40
1.0
176
     0
 90
        2
176
     1
  1
strokes_ogs.tif
176
     1
290
     0
176
     1
 40
1.0
176
     1
 40
1.0
176
     1
  0
VISUALSTYLE
  5
41B
102
{ACAD_REACTORS
330
40E
102
}
330
40E
100
AcDbVisualStyle
  2
Thicken
 70
    13
177
     3
291
     1
 70
    58
 90
        2
176
     1
 90
        2
176
     1
 90
        0
176
     1
 90
        0
176
     1
 40
0.6
176
     1
 40
30.0
176
     1
 62
     7
420
 16777215
176
     1
 90
        1
176
     1
 90
        4
176
     1
 62
     7
176
     1
 62
   257
176
     1
 90
        1
176
     1
 90
        1
176
     1
 40
1.0
176
     1
 90
       12
176
     1
 62
     7
176
     1
 40
1.0
176
     1
 90
        1
176
     1
 90
        6
176
     1
 90
        2
176
     1
 62
     7
176
     1
 90
        5
176
     1
 90
        0
176
     1
 90
        0
176
     1
290
     0
176
     1
 90
        1
176
     1
 40
0.0
176
     1
 90
        0
176
     1
290
     0
176
     1
290
     1
176
     1
290
     1
176
     1
290
     0
176
     1
290
     0
176
     1
290
     0
176
     1
290
     0
176
     1
290
     0
176
     1
290
     0
176
     1
 90
       50
176
     1
 40
0.0
176
     1
 40
1.0
176
     1
 90
        0
176
     1
 62
    18
420
        0
176
     1
 90
       50
176
     1
 90
        3
176
     1
 62
     5
420
      255
176
     1
290
     0
176
     1
 90
       50
176
     1
 90
       50
176
     1
 90
       50
176
     1
290
     0
176
     1
 90
       50
176
     1
 62
   256
176
     0
 40
1.0
176
     0
 90
        2
176
     1
  1
strokes_ogs.tif
176
     1
290
     0
176
     1
 40
1.0
176
     1
 40
1.0
176
     1
  0
VISUALSTYLE
  5
414
102
{ACAD_REACTORS
330
40E
102
}
330
40E
100
AcDbVisualStyle
  2
Wireframe
 70
     5
177
     3
291
     0
 70
    58
 90
        0
176
     1
 90
        2
176
     1
 90
        0
176
     1
 90
        0
176
     1
 40
0.6
176
     1
 40
30.0
176
     1
 62
     7
420
 16777215
176
     1
 90
        1
176
     1
 90
        4
176
     1
 62
     7
176
     1
 62
   257
176
     1
 90
        1
176
     1
 90
        1
176
     1
 40
1.0
176
     1
 90
        0
176
     1
 62
   257
176
     1
 40
1.0
176
     1
 90
        1
176
     1
 90
        6
176
     1
 90
        2
176
     1
 62
     7
176
     1
 90
        3
176
     1
 90
        0
176
     1
 90
        0
176
     1
290
     0
176
     1
 90
        1
176
     1
 40
0.0
176
     1
 90
        0
176
     1
290
     0
176
     1
290
     1
176
     1
290
     1
176
     1
290
     0
176
     1
290
     0
176
     1
290
     0
176
     1
290
     0
176
     1
290
     0
176
     1
290
     0
176
     1
 90
       50
176
     1
 40
0.0
176
     1
 40
1.0
176
     1
 90
        0
176
     1
 62
    18
420
        0
176
     1
 90
       50
176
     1
 90
        3
176
     1
 62
     5
420
      255
176
     1
290
     0
176
     1
 90
       50
176
     1
 90
       50
176
     1
 90
       50
176
     1
290
     0
176
     1
 90
       50
176
     1
 62
   256
176
     0
 40
1.0
176
     0
 90
        2
176
     1
  1
strokes_ogs.tif
176
     1
290
     0
176
     1
 40
1.0
176
     1
 40
1.0
176
     1
  0
VISUALSTYLE
  5
424
102
{ACAD_REACTORS
330
40E
102
}
330
40E
100
AcDbVisualStyle
  2
X-Ray
 70
    25
177
     3
291
     0
 70
    58
 90
        2
176
     1
 90
        2
176
     1
 90
        1
176
     1
 90
        1
176
     1
 40
0.5
176
     1
 40
30.0
176
     1
 62
     7
420
 16777215
176
     1
 90
        1
176
     1
 90
        0
176
     1
 62
     7
176
     1
 62
   257
176
     1
 90
        1
176
     1
 90
        1
176
     1
 40
1.0
176
     1
 90
        8
176
     1
 62
     7
176
     1
 40
1.0
176
     1
 90
        1
176
     1
 90
        6
176
     1
 90
        2
176
     1
 62
     7
176
     1
 90
        3
176
     1
 90
        0
176
     1
 90
        0
176
     1
290
     0
176
     1
 90
       13
176
     1
 40
0.0
176
     1
 90
        0
176
     1
290
     0
176
     1
290
     1
176
     1
290
     1
176
     1
290
     0
176
     1
290
     0
176
     1
290
     0
176
     1
290
     0
176
     1
290
     0
176
     1
290
     0
176
     1
 90
       50
176
     1
 40
0.0
176
     1
 40
1.0
176
     1
 90
        0
176
     1
 62
    18
420
        0
176
     1
 90
       50
176
     1
 90
        3
176
     1
 62
     5
420
      255
176
     1
290
     0
176
     1
 90
       50
176
     1
 90
       50
176
     1
 90
       50
176
     1
290
     0
176
     1
 90
       50
176
     1
 62
   256
176
     0
 40
1.0
176
     0
 90
        2
176
     1
  1
strokes_ogs.tif
176
     1
290
     0
176
     1
 40
1.0
176
     1
 40
1.0
176
     1
  0
DICTIONARYVAR
  5
431
102
{ACAD_REACTORS
330
430
102
}
330
430
100
DictionaryVariables
280
     0
  1
1:1
  0
DICTIONARYVAR
  5
436
102
{ACAD_REACTORS
330
430
102
}
330
430
100
DictionaryVariables
280
     0
  1
Standard
  0
DICTIONARYVAR
  5
435
102
{ACAD_REACTORS
330
430
102
}
330
430
100
DictionaryVariables
280
     0
  1
Standard
  0
DICTIONARYVAR
  5
437
102
{ACAD_REACTORS
330
430
102
}
330
430
100
DictionaryVariables
280
     0
  1
0
  0
DICTIONARY
  5
432
330
42C
100
AcDbDictionary
280
     1
281
     1
  3
ACAD_ROUNDTRIP_2008_TABLESTYLE_CELLSTYLEMAP
360
433
  0
CELLSTYLEMAP
  5
433
102
{ACAD_REACTORS
330
432
102
}
330
432
100
AcDbCellStyleMap
 90
        3
300
CELLSTYLE
  1
TABLEFORMAT_BEGIN
 90
        5
170
     1
 91
        0
 92
    32768
 62
   257
 93
        1
300
CONTENTFORMAT
  1
CONTENTFORMAT_BEGIN
 90
        0
 91
        0
 92
        4
 93
        0
300

 40
0.0
140
1.0
 94
        5
 62
     0
340
11
144
6.0
309
CONTENTFORMAT_END
171
     1
301
MARGIN
  1
CELLMARGIN_BEGIN
 40
1.5
 40
1.5
 40
1.5
 40
1.5
 40
1.5
 40
1.5
309
CELLMARGIN_END
 94
        6
 95
        1
302
GRIDFORMAT
  1
GRIDFORMAT_BEGIN
 90
        0
 91
        1
 62
     0
 92
       -2
340
14
 93
        0
 40
0.045
309
GRIDFORMAT_END
 95
        2
302
GRIDFORMAT
  1
GRIDFORMAT_BEGIN
 90
        0
 91
        1
 62
     0
 92
       -2
340
14
 93
        0
 40
0.045
309
GRIDFORMAT_END
 95
        4
302
GRIDFORMAT
  1
GRIDFORMAT_BEGIN
 90
        0
 91
        1
 62
     0
 92
       -2
340
14
 93
        0
 40
0.045
309
GRIDFORMAT_END
 95
        8
302
GRIDFORMAT
  1
GRIDFORMAT_BEGIN
 90
        0
 91
        1
 62
     0
 92
       -2
340
14
 93
        0
 40
0.045
309
GRIDFORMAT_END
 95
       16
302
GRIDFORMAT
  1
GRIDFORMAT_BEGIN
 90
        0
 91
        1
 62
     0
 92
       -2
340
14
 93
        0
 40
0.045
309
GRIDFORMAT_END
 95
       32
302
GRIDFORMAT
  1
GRIDFORMAT_BEGIN
 90
        0
 91
        1
 62
     0
 92
       -2
340
14
 93
        0
 40
0.045
309
GRIDFORMAT_END
309
TABLEFORMAT_END
  1
CELLSTYLE_BEGIN
 90
        1
 91
        1
300
_TITLE
309
CELLSTYLE_END
300
CELLSTYLE
  1
TABLEFORMAT_BEGIN
 90
        5
170
     1
 91
        0
 92
        0
 62
   257
 93
        1
300
CONTENTFORMAT
  1
CONTENTFORMAT_BEGIN
 90
        0
 91
        0
 92
        4
 93
        0
300

 40
0.0
140
1.0
 94
        5
 62
     0
340
11
144
4.5
309
CONTENTFORMAT_END
171
     1
301
MARGIN
  1
CELLMARGIN_BEGIN
 40
1.5
 40
1.5
 40
1.5
 40
1.5
 40
1.5
 40
1.5
309
CELLMARGIN_END
 94
        6
 95
        1
302
GRIDFORMAT
  1
GRIDFORMAT_BEGIN
 90
        0
 91
        1
 62
     0
 92
       -2
340
14
 93
        0
 40
0.045
309
GRIDFORMAT_END
 95
        2
302
GRIDFORMAT
  1
GRIDFORMAT_BEGIN
 90
        0
 91
        1
 62
     0
 92
       -2
340
14
 93
        0
 40
0.045
309
GRIDFORMAT_END
 95
        4
302
GRIDFORMAT
  1
GRIDFORMAT_BEGIN
 90
        0
 91
        1
 62
     0
 92
       -2
340
14
 93
        0
 40
0.045
309
GRIDFORMAT_END
 95
        8
302
GRIDFORMAT
  1
GRIDFORMAT_BEGIN
 90
        0
 91
        1
 62
     0
 92
       -2
340
14
 93
        0
 40
0.045
309
GRIDFORMAT_END
 95
       16
302
GRIDFORMAT
  1
GRIDFORMAT_BEGIN
 90
        0
 91
        1
 62
     0
 92
       -2
340
14
 93
        0
 40
0.045
309
GRIDFORMAT_END
 95
       32
302
GRIDFORMAT
  1
GRIDFORMAT_BEGIN
 90
        0
 91
        1
 62
     0
 92
       -2
340
14
 93
        0
 40
0.045
309
GRIDFORMAT_END
309
TABLEFORMAT_END
  1
CELLSTYLE_BEGIN
 90
        2
 91
        1
300
_HEADER
309
CELLSTYLE_END
300
CELLSTYLE
  1
TABLEFORMAT_BEGIN
 90
        5
170
     1
 91
        0
 92
        0
 62
   257
 93
        1
300
CONTENTFORMAT
  1
CONTENTFORMAT_BEGIN
 90
        0
 91
        0
 92
        4
 93
        0
300

 40
0.0
140
1.0
 94
        2
 62
     0
340
11
144
4.5
309
CONTENTFORMAT_END
171
     1
301
MARGIN
  1
CELLMARGIN_BEGIN
 40
1.5
 40
1.5
 40
1.5
 40
1.5
 40
1.5
 40
1.5
309
CELLMARGIN_END
 94
        6
 95
        1
302
GRIDFORMAT
  1
GRIDFORMAT_BEGIN
 90
        0
 91
        1
 62
     0
 92
       -2
340
14
 93
        0
 40
0.045
309
GRIDFORMAT_END
 95
        2
302
GRIDFORMAT
  1
GRIDFORMAT_BEGIN
 90
        0
 91
        1
 62
     0
 92
       -2
340
14
 93
        0
 40
0.045
309
GRIDFORMAT_END
 95
        4
302
GRIDFORMAT
  1
GRIDFORMAT_BEGIN
 90
        0
 91
        1
 62
     0
 92
       -2
340
14
 93
        0
 40
0.045
309
GRIDFORMAT_END
 95
        8
302
GRIDFORMAT
  1
GRIDFORMAT_BEGIN
 90
        0
 91
        1
 62
     0
 92
       -2
340
14
 93
        0
 40
0.045
309
GRIDFORMAT_END
 95
       16
302
GRIDFORMAT
  1
GRIDFORMAT_BEGIN
 90
        0
 91
        1
 62
     0
 92
       -2
340
14
 93
        0
 40
0.045
309
GRIDFORMAT_END
 95
       32
302
GRIDFORMAT
  1
GRIDFORMAT_BEGIN
 90
        0
 91
        1
 62
     0
 92
       -2
340
14
 93
        0
 40
0.045
309
GRIDFORMAT_END
309
TABLEFORMAT_END
  1
CELLSTYLE_BEGIN
 90
        3
 91
        2
300
_DATA
309
CELLSTYLE_END
  0
ENDSEC
  0
EOF
