  0
SECTION
  2
HEADER
  9
$ACADVER
  1
AC1027
  9
$ACADMAINTVER
 70
   105
  9
$DWGCODEPAGE
  3
ANSI_1252
  9
$REQUIREDVERSIONS
160
                 0
  9
$LASTSAVEDBY
  1
andrea.zolin
  9
$INSBASE
 10
0.0
 20
0.0
 30
0.0
  9
$EXTMIN
 10
0.0
 20
0.0
 30
0.0
  9
$EXTMAX
 10
594.0
 20
420.0
 30
0.0
  9
$LIMMIN
 10
0.0
 20
0.0
  9
$LIMMAX
 10
594.0
 20
420.0
  9
$ORTHOMODE
 70
     0
  9
$REGENMODE
 70
     1
  9
$FILLMODE
 70
     1
  9
$QTEXTMODE
 70
     0
  9
$MIRRTEXT
 70
     1
  9
$LTSCALE
 40
32.67
  9
$ATTMODE
 70
     1
  9
$TEXTSIZE
 40
0.2
  9
$TRACEWID
 40
0.05
  9
$TEXTSTYLE
  7
STANDARD
  9
$CLAYER
  8
0
  9
$CELTYPE
  6
BYLAYER
  9
$CECOLOR
 62
   256
  9
$CELTSCALE
 40
1.0
  9
$DISPSILH
 70
     0
  9
$DIMSCALE
 40
1.0
  9
$DIMASZ
 40
2.5
  9
$DIMEXO
 40
0.75
  9
$DIMDLI
 40
22.572
  9
$DIMRND
 40
0.0
  9
$DIMDLE
 40
0.0
  9
$DIMEXE
 40
0.75
  9
$DIMTP
 40
0.01
  9
$DIMTM
 40
0.01
  9
$DIMTXT
 40
3.0
  9
$DIMCEN
 40
5.346
  9
$DIMTSZ
 40
0.0
  9
$DIMTOL
 70
     1
  9
$DIMLIM
 70
     0
  9
$DIMTIH
 70
     1
  9
$DIMTOH
 70
     1
  9
$DIMSE1
 70
     0
  9
$DIMSE2
 70
     0
  9
$DIMTAD
 70
     0
  9
$DIMZIN
 70
     0
  9
$DIMBLK
  1
CLOSED
  9
$DIMASO
 70
     1
  9
$DIMSHO
 70
     1
  9
$DIMPOST
  1

  9
$DIMAPOST
  1

  9
$DIMALT
 70
     0
  9
$DIMALTD
 70
     2
  9
$DIMALTF
 40
25.4
  9
$DIMLFAC
 40
1.0
  9
$DIMTOFL
 70
     0
  9
$DIMTVP
 40
0.0
  9
$DIMTIX
 70
     0
  9
$DIMSOXD
 70
     0
  9
$DIMSAH
 70
     0
  9
$DIMBLK1
  1

  9
$DIMBLK2
  1

  9
$DIMSTYLE
  2
STANDARD
  9
$DIMCLRD
 70
     0
  9
$DIMCLRE
 70
     0
  9
$DIMCLRT
 70
     0
  9
$DIMTFAC
 40
1.0
  9
$DIMGAP
 40
0.625
  9
$DIMJUST
 70
     0
  9
$DIMSD1
 70
     0
  9
$DIMSD2
 70
     0
  9
$DIMTOLJ
 70
     1
  9
$DIMTZIN
 70
     0
  9
$DIMALTZ
 70
     0
  9
$DIMALTTZ
 70
     0
  9
$DIMUPT
 70
     0
  9
$DIMDEC
 70
     4
  9
$DIMTDEC
 70
     4
  9
$DIMALTU
 70
     2
  9
$DIMALTTD
 70
     2
  9
$DIMTXSTY
  7
STANDARD
  9
$DIMAUNIT
 70
     0
  9
$DIMADEC
 70
     0
  9
$DIMALTRND
 40
0.0
  9
$DIMAZIN
 70
     0
  9
$DIMDSEP
 70
    44
  9
$DIMATFIT
 70
     3
  9
$DIMFRAC
 70
     0
  9
$DIMLDRBLK
  1

  9
$DIMLUNIT
 70
     2
  9
$DIMLWD
 70
    -2
  9
$DIMLWE
 70
    -2
  9
$DIMTMOVE
 70
     0
  9
$DIMFXL
 40
1.0
  9
$DIMFXLON
 70
     0
  9
$DIMJOGANG
 40
0.7853981633974483
  9
$DIMTFILL
 70
     0
  9
$DIMTFILLCLR
 70
     0
  9
$DIMARCSYM
 70
     0
  9
$DIMLTYPE
  6

  9
$DIMLTEX1
  6

  9
$DIMLTEX2
  6

  9
$DIMTXTDIRECTION
 70
     0
  9
$LUNITS
 70
     2
  9
$LUPREC
 70
     4
  9
$SKETCHINC
 40
0.1
  9
$FILLETRAD
 40
0.5
  9
$AUNITS
 70
     0
  9
$AUPREC
 70
     0
  9
$MENU
  1
.
  9
$ELEVATION
 40
0.0
  9
$PELEVATION
 40
0.0
  9
$THICKNESS
 40
0.0
  9
$LIMCHECK
 70
     0
  9
$CHAMFERA
 40
0.0
  9
$CHAMFERB
 40
0.0
  9
$CHAMFERC
 40
0.0
  9
$CHAMFERD
 40
0.0
  9
$SKPOLY
 70
     0
  9
$TDCREATE
 40
2447893.041666667
  9
$TDUCREATE
 40
0.0
  9
$TDUPDATE
 40
2458466.674124282
  9
$TDUUPDATE
 40
2458466.632457616
  9
$TDINDWG
 40
0.0002286921
  9
$TDUSRTIMER
 40
0.0002286921
  9
$USRTIMER
 70
     1
  9
$ANGBASE
 50
0.0
  9
$ANGDIR
 70
     0
  9
$PDMODE
 70
     3
  9
$PDSIZE
 40
0.3125
  9
$PLINEWID
 40
0.0
  9
$SPLFRAME
 70
     0
  9
$SPLINETYPE
 70
     6
  9
$SPLINESEGS
 70
     8
  9
$HANDSEED
  5
352
  9
$SURFTAB1
 70
     6
  9
$SURFTAB2
 70
     6
  9
$SURFTYPE
 70
     6
  9
$SURFU
 70
     6
  9
$SURFV
 70
     6
  9
$UCSBASE
  2

  9
$UCSNAME
  2

  9
$UCSORG
 10
0.0
 20
0.0
 30
0.0
  9
$UCSXDIR
 10
1.0
 20
0.0
 30
0.0
  9
$UCSYDIR
 10
0.0
 20
1.0
 30
0.0
  9
$UCSORTHOREF
  2

  9
$UCSORTHOVIEW
 70
     0
  9
$UCSORGTOP
 10
0.0
 20
0.0
 30
0.0
  9
$UCSORGBOTTOM
 10
0.0
 20
0.0
 30
0.0
  9
$UCSORGLEFT
 10
0.0
 20
0.0
 30
0.0
  9
$UCSORGRIGHT
 10
0.0
 20
0.0
 30
0.0
  9
$UCSORGFRONT
 10
0.0
 20
0.0
 30
0.0
  9
$UCSORGBACK
 10
0.0
 20
0.0
 30
0.0
  9
$PUCSBASE
  2

  9
$PUCSNAME
  2

  9
$PUCSORG
 10
0.0
 20
0.0
 30
0.0
  9
$PUCSXDIR
 10
1.0
 20
0.0
 30
0.0
  9
$PUCSYDIR
 10
0.0
 20
1.0
 30
0.0
  9
$PUCSORTHOREF
  2

  9
$PUCSORTHOVIEW
 70
     0
  9
$PUCSORGTOP
 10
0.0
 20
0.0
 30
0.0
  9
$PUCSORGBOTTOM
 10
0.0
 20
0.0
 30
0.0
  9
$PUCSORGLEFT
 10
0.0
 20
0.0
 30
0.0
  9
$PUCSORGRIGHT
 10
0.0
 20
0.0
 30
0.0
  9
$PUCSORGFRONT
 10
0.0
 20
0.0
 30
0.0
  9
$PUCSORGBACK
 10
0.0
 20
0.0
 30
0.0
  9
$USERI1
 70
     0
  9
$USERI2
 70
     0
  9
$USERI3
 70
     0
  9
$USERI4
 70
     0
  9
$USERI5
 70
     0
  9
$USERR1
 40
0.0
  9
$USERR2
 40
0.0
  9
$USERR3
 40
0.0
  9
$USERR4
 40
0.0
  9
$USERR5
 40
0.0
  9
$WORLDVIEW
 70
     1
  9
$SHADEDGE
 70
     3
  9
$SHADEDIF
 70
    70
  9
$TILEMODE
 70
     0
  9
$MAXACTVP
 70
    64
  9
$PINSBASE
 10
0.0
 20
0.0
 30
0.0
  9
$PLIMCHECK
 70
     0
  9
$PEXTMIN
 10
0.0
 20
0.0
 30
0.0
  9
$PEXTMAX
 10
594.0
 20
420.0
 30
0.0
  9
$PLIMMIN
 10
0.0
 20
0.0
  9
$PLIMMAX
 10
594.0
 20
420.0
  9
$UNITMODE
 70
     0
  9
$VISRETAIN
 70
     1
  9
$PLINEGEN
 70
     0
  9
$PSLTSCALE
 70
     1
  9
$TREEDEPTH
 70
  3020
  9
$CMLSTYLE
  2
Standard
  9
$CMLJUST
 70
     0
  9
$CMLSCALE
 40
1.0
  9
$PROXYGRAPHICS
 70
     1
  9
$MEASUREMENT
 70
     1
  9
$CELWEIGHT
370
    -1
  9
$ENDCAPS
280
     0
  9
$JOINSTYLE
280
     0
  9
$LWDISPLAY
290
     0
  9
$INSUNITS
 70
     4
  9
$HYPERLINKBASE
  1

  9
$STYLESHEET
  1

  9
$XEDIT
290
     1
  9
$CEPSNTYPE
380
     0
  9
$PSTYLEMODE
290
     1
  9
$FINGERPRINTGUID
  2
{E6A35A16-D3A6-4AD9-BDF6-D6A0A73D4F18}
  9
$VERSIONGUID
  2
{FAEB1C32-E019-11D5-929B-00C0DF256EC4}
  9
$EXTNAMES
290
     1
  9
$PSVPSCALE
 40
0.0
  9
$OLESTARTUP
290
     0
  9
$SORTENTS
280
   127
  9
$INDEXCTL
280
     0
  9
$HIDETEXT
280
     1
  9
$XCLIPFRAME
280
     2
  9
$HALOGAP
280
     0
  9
$OBSCOLOR
 70
   257
  9
$OBSLTYPE
280
     0
  9
$INTERSECTIONDISPLAY
280
     0
  9
$INTERSECTIONCOLOR
 70
   257
  9
$DIMASSOC
280
     2
  9
$PROJECTNAME
  1

  9
$CAMERADISPLAY
290
     0
  9
$LENSLENGTH
 40
50.0
  9
$CAMERAHEIGHT
 40
0.0
  9
$STEPSPERSEC
 40
2.0
  9
$STEPSIZE
 40
6.0
  9
$3DDWFPREC
 40
2.0
  9
$PSOLWIDTH
 40
0.25
  9
$PSOLHEIGHT
 40
4.0
  9
$LOFTANG1
 40
1.570796326794897
  9
$LOFTANG2
 40
1.570796326794897
  9
$LOFTMAG1
 40
0.0
  9
$LOFTMAG2
 40
0.0
  9
$LOFTPARAM
 70
     7
  9
$LOFTNORMALS
280
     1
  9
$LATITUDE
 40
37.795
  9
$LONGITUDE
 40
-122.394
  9
$NORTHDIRECTION
 40
0.0
  9
$TIMEZONE
 70
 -8000
  9
$LIGHTGLYPHDISPLAY
280
     1
  9
$TILEMODELIGHTSYNCH
280
     1
  9
$SOLIDHIST
280
     0
  9
$SHOWHIST
280
     1
  9
$DWFFRAME
280
     2
  9
$DGNFRAME
280
     2
  9
$REALWORLDSCALE
290
     1
  9
$INTERFERECOLOR
 62
   256
  9
$CSHADOW
280
     0
  9
$SHADOWPLANELOCATION
 40
0.0
  0
ENDSEC
  0
SECTION
  2
CLASSES
  0
CLASS
  1
ACDBDICTIONARYWDFLT
  2
AcDbDictionaryWithDefault
  3
ObjectDBX Classes
 90
        0
 91
        4
280
     0
281
     0
  0
CLASS
  1
ACDBPLACEHOLDER
  2
AcDbPlaceHolder
  3
ObjectDBX Classes
 90
        0
 91
        1
280
     0
281
     0
  0
CLASS
  1
LAYOUT
  2
AcDbLayout
  3
ObjectDBX Classes
 90
        0
 91
        1
280
     0
281
     0
  0
CLASS
  1
SCALE
  2
AcDbScale
  3
ObjectDBX Classes
 90
     1153
 91
        4
280
     0
281
     0
  0
CLASS
  1
VISUALSTYLE
  2
AcDbVisualStyle
  3
ObjectDBX Classes
 90
     4095
 91
        4
280
     0
281
     0
  0
CLASS
  1
MATERIAL
  2
AcDbMaterial
  3
ObjectDBX Classes
 90
     1153
 91
        4
280
     0
281
     0
  0
CLASS
  1
TABLESTYLE
  2
AcDbTableStyle
  3
ObjectDBX Classes
 90
     4095
 91
        4
280
     0
281
     0
  0
CLASS
  1
MLEADERSTYLE
  2
AcDbMLeaderStyle
  3
ACDB_MLEADERSTYLE_CLASS
 90
     4095
 91
        4
280
     0
281
     0
  0
CLASS
  1
DICTIONARYVAR
  2
AcDbDictionaryVar
  3
ObjectDBX Classes
 90
        0
 91
        4
280
     0
281
     0
  0
CLASS
  1
CELLSTYLEMAP
  2
AcDbCellStyleMap
  3
ObjectDBX Classes
 90
     1152
 91
        4
280
     0
281
     0
  0
ENDSEC
  0
SECTION
  2
TABLES
  0
TABLE
  2
VPORT
  5
8
330
0
100
AcDbSymbolTable
 70
     1
  0
VPORT
  5
1F4
330
8
100
AcDbSymbolTableRecord
100
AcDbViewportTableRecord
  2
*ACTIVE
 70
     0
 10
0.0
 20
0.0
 11
1.0
 21
1.0
 12
297.0
 22
210.0
 13
0.0
 23
0.0
 14
1.0
 24
1.0
 15
0.0
 25
0.0
 16
0.0
 26
0.0
 36
1.0
 17
0.0
 27
0.0
 37
0.0
 40
420.0
 41
1.4142857143
 42
50.0
 43
0.0
 44
0.0
 50
0.0
 51
0.0
 71
     0
 72
   100
 73
     1
 74
     1
 75
     0
 76
     0
 77
     0
 78
     0
281
     0
 65
     1
110
0.0
120
0.0
130
0.0
111
1.0
121
0.0
131
0.0
112
0.0
122
1.0
132
0.0
 79
     0
146
0.0
348
32B
 60
     3
 61
     5
292
     1
282
     1
141
0.0
142
0.0
 63
   256
  0
ENDTAB
  0
TABLE
  2
LTYPE
  5
5
330
0
100
AcDbSymbolTable
 70
     6
  0
LTYPE
  5
14
330
5
100
AcDbSymbolTableRecord
100
AcDbLinetypeTableRecord
  2
BYBLOCK
 70
     0
  3

 72
    65
 73
     0
 40
0.0
  0
LTYPE
  5
15
330
5
100
AcDbSymbolTableRecord
100
AcDbLinetypeTableRecord
  2
BYLAYER
 70
     0
  3

 72
    65
 73
     0
 40
0.0
  0
LTYPE
  5
16
330
5
100
AcDbSymbolTableRecord
100
AcDbLinetypeTableRecord
  2
CONTINUOUS
 70
     0
  3
Solid line
 72
    65
 73
     0
 40
0.0
  0
LTYPE
  5
1F5
330
5
100
AcDbSymbolTableRecord
100
AcDbLinetypeTableRecord
  2
CENTER
 70
     0
  3
____ _ ____ _ ____ _ ____ _ ____ _ ____ _ ____
 72
    65
 73
     4
 40
0.6
 49
0.375
 74
     0
 49
-0.075
 74
     0
 49
0.075
 74
     0
 49
-0.075
 74
     0
  0
LTYPE
  5
1F6
330
5
100
AcDbSymbolTableRecord
100
AcDbLinetypeTableRecord
  2
HIDDEN
 70
     0
  3
- - - - - - - - - - - - - - - - - - - -
 72
    65
 73
     2
 40
0.2
 49
0.1
 74
     0
 49
-0.1
 74
     0
  0
LTYPE
  5
1F7
330
5
100
AcDbSymbolTableRecord
100
AcDbLinetypeTableRecord
  2
PHANTOM
 70
     0
  3
_____ _ _ _____ _ _ _____ _ _ _____
 72
    65
 73
     6
 40
0.8
 49
0.45
 74
     0
 49
-0.05
 74
     0
 49
0.1
 74
     0
 49
-0.05
 74
     0
 49
0.1
 74
     0
 49
-0.05
 74
     0
  0
LTYPE
  5
1F8
330
5
100
AcDbSymbolTableRecord
100
AcDbLinetypeTableRecord
  2
DOT
 70
     0
  3
. . . . . . . . . . . . . . . . . . . .
 72
    65
 73
     2
 40
0.2
 49
0.1
 74
     0
 49
-0.1
 74
     0
  0
LTYPE
  5
1F9
330
5
100
AcDbSymbolTableRecord
100
AcDbLinetypeTableRecord
  2
DASHED
 70
     0
  3
- - - - - - - - - - - - - - - - - - - -
 72
    65
 73
     2
 40
0.2
 49
0.1
 74
     0
 49
-0.1
 74
     0
  0
ENDTAB
  0
TABLE
  2
LAYER
  5
2
330
0
100
AcDbSymbolTable
 70
     9
  0
LAYER
  5
10
330
2
100
AcDbSymbolTableRecord
100
AcDbLayerTableRecord
  2
0
 70
     0
 62
     7
  6
CONTINUOUS
370
    -3
390
F
347
342
348
0
  0
LAYER
  5
1FA
330
2
100
AcDbSymbolTableRecord
100
AcDbLayerTableRecord
  2
DEFAULT_1
 70
     0
 62
     7
  6
CENTER
370
    -3
390
F
347
342
348
0
  0
LAYER
  5
1FB
330
2
100
AcDbSymbolTableRecord
100
AcDbLayerTableRecord
  2
DEFAULT_2
 70
     0
 62
     8
  6
HIDDEN
370
    -3
390
F
347
342
348
0
  0
LAYER
  5
1FC
330
2
100
AcDbSymbolTableRecord
100
AcDbLayerTableRecord
  2
DEFAULT_3
 70
     0
 62
     7
  6
PHANTOM
370
    -3
390
F
347
342
348
0
  0
LAYER
  5
1FD
330
2
100
AcDbSymbolTableRecord
100
AcDbLayerTableRecord
  2
1_ALL_PLANES
 70
     0
 62
     7
  6
CONTINUOUS
370
    -3
390
F
347
342
348
0
  0
LAYER
  5
1FE
330
2
100
AcDbSymbolTableRecord
100
AcDbLayerTableRecord
  2
3_ALL_AXES
 70
     0
 62
     7
  6
CONTINUOUS
370
    -3
390
F
347
342
348
0
  0
LAYER
  5
1FF
330
2
100
AcDbSymbolTableRecord
100
AcDbLayerTableRecord
  2
7_ALL_FEATURES
 70
     0
 62
     7
  6
CONTINUOUS
370
    -3
390
F
347
342
348
0
  0
LAYER
  5
200
330
2
100
AcDbSymbolTableRecord
100
AcDbLayerTableRecord
  2
8_ALL_NOTES_BALLOONS_SYMBOLS_GT
 70
     0
 62
     7
  6
CONTINUOUS
370
    -3
390
F
347
342
348
0
  0
LAYER
  5
201
330
2
100
AcDbSymbolTableRecord
100
AcDbLayerTableRecord
  2
9_SOLID
 70
     0
 62
     7
  6
CONTINUOUS
370
    -3
390
F
347
342
348
0
  0
ENDTAB
  0
TABLE
  2
STYLE
  5
3
330
0
100
AcDbSymbolTable
 70
     3
  0
STYLE
  5
11
330
3
100
AcDbSymbolTableRecord
100
AcDbTextStyleTableRecord
  2
STANDARD
 70
     0
 40
0.0
 41
0.85
 50
0.0
 71
     0
 42
0.2
  3
txt
  4

  0
STYLE
  5
202
330
3
100
AcDbSymbolTableRecord
100
AcDbTextStyleTableRecord
  2
TEXTSTYLE_1
 70
     0
 40
0.0
 41
0.8
 50
0.0
 71
     0
 42
0.2
  3
gdt
  4

  0
STYLE
  5
203
330
3
100
AcDbSymbolTableRecord
100
AcDbTextStyleTableRecord
  2
TEXTSTYLE_2
 70
     0
 40
0.0
 41
2.0
 50
0.0
 71
     0
 42
0.2
  3
txt
  4

  0
ENDTAB
  0
TABLE
  2
VIEW
  5
6
330
0
100
AcDbSymbolTable
 70
     0
  0
ENDTAB
  0
TABLE
  2
UCS
  5
7
330
0
100
AcDbSymbolTable
 70
     0
  0
ENDTAB
  0
TABLE
  2
APPID
  5
9
330
0
100
AcDbSymbolTable
 70
     1
  0
APPID
  5
204
330
9
100
AcDbSymbolTableRecord
100
AcDbRegAppTableRecord
  2
ACAD
 70
     0
  0
ENDTAB
  0
TABLE
  2
DIMSTYLE
  5
A
330
0
100
AcDbSymbolTable
 70
     3
100
AcDbDimStyleTable
  0
DIMSTYLE
105
20D
330
A
100
AcDbSymbolTableRecord
100
AcDbDimStyleTableRecord
  2
STANDARD
 70
     0
 41
2.5
 42
0.75
 44
0.75
 47
0.01
 48
0.01
 71
     1
 73
     0
 74
     0
 77
     1
 78
     8
 79
     2
140
3.0
147
0.625
171
     1
178
     0
179
     2
271
     2
272
     2
278
    44
284
     8
340
11
341
207
342
207
343
207
344
207
  0
DIMSTYLE
105
20E
330
A
100
AcDbSymbolTableRecord
100
AcDbDimStyleTableRecord
  2
DIMSTYLE_1
 70
     0
 41
2.5
 42
0.75
 44
0.75
 47
0.5
 48
0.5
 73
     0
 74
     0
 77
     1
 78
     8
 79
     2
140
3.0
147
0.75
171
     1
178
     0
179
     2
271
     2
272
     2
278
    44
284
     8
340
11
341
207
342
207
343
207
344
207
  0
DIMSTYLE
105
20F
330
A
100
AcDbSymbolTableRecord
100
AcDbDimStyleTableRecord
  2
DIMSTYLE_2
 70
     0
 41
2.5
 42
0.75
 44
0.75
 47
0.3
 48
0.3
 73
     0
 74
     0
 77
     1
 78
     8
 79
     2
140
3.0
147
0.75
171
     1
178
     0
179
     2
271
     2
272
     2
278
    44
284
     8
340
11
341
207
342
207
343
207
344
207
  0
ENDTAB
  0
TABLE
  2
BLOCK_RECORD
  5
1
330
0
100
AcDbSymbolTable
 70
     6
  0
BLOCK_RECORD
  5
205
330
1
100
AcDbSymbolTableRecord
100
AcDbBlockTableRecord
  2
*Model_Space
340
302
 70
     0
280
     1
281
     0
  0
BLOCK_RECORD
  5
206
330
1
100
AcDbSymbolTableRecord
100
AcDbBlockTableRecord
  2
*Paper_Space
340
303
 70
     0
280
     1
281
     0
  0
BLOCK_RECORD
  5
207
330
1
100
AcDbSymbolTableRecord
100
AcDbBlockTableRecord
  2
_CLOSED
340
0
102
{BLKREFS
331
262
331
263
331
26B
331
26C
331
274
331
275
102
}
 70
     0
280
     1
281
     0
  0
BLOCK_RECORD
  5
208
330
1
100
AcDbSymbolTableRecord
100
AcDbBlockTableRecord
  2
*D1
340
0
 70
     0
280
     1
281
     0
  0
BLOCK_RECORD
  5
209
330
1
100
AcDbSymbolTableRecord
100
AcDbBlockTableRecord
  2
*D2
340
0
 70
     0
280
     1
281
     0
  0
BLOCK_RECORD
  5
20A
330
1
100
AcDbSymbolTableRecord
100
AcDbBlockTableRecord
  2
*D3
340
0
 70
     0
280
     1
281
     0
  0
BLOCK_RECORD
  5
20B
330
1
100
AcDbSymbolTableRecord
100
AcDbBlockTableRecord
  2
LOGO2_BL1
340
0
102
{BLKREFS
331
2F0
102
}
 70
     0
280
     1
281
     0
  0
BLOCK_RECORD
  5
20C
330
1
100
AcDbSymbolTableRecord
100
AcDbBlockTableRecord
  2
PROIEZIONE_EU_BL0
340
0
102
{BLKREFS
331
2ED
102
}
 70
     0
280
     1
281
     0
  0
ENDTAB
  0
ENDSEC
  0
SECTION
  2
BLOCKS
  0
BLOCK
  5
20
330
205
100
AcDbEntity
  8
0
100
AcDbBlockBegin
  2
*Model_Space
 70
     0
 10
0.0
 20
0.0
 30
0.0
  3
*Model_Space
  1

  0
ENDBLK
  5
21
330
205
100
AcDbEntity
  8
0
100
AcDbBlockEnd
  0
BLOCK
  5
1C
330
206
100
AcDbEntity
 67
     1
  8
0
100
AcDbBlockBegin
  2
*Paper_Space
 70
     0
 10
0.0
 20
0.0
 30
0.0
  3
*Paper_Space
  1

  0
ENDBLK
  5
1D
330
206
100
AcDbEntity
 67
     1
  8
0
100
AcDbBlockEnd
  0
BLOCK
  5
256
330
207
100
AcDbEntity
  8
0
100
AcDbBlockBegin
  2
_CLOSED
 70
     0
 10
0.0
 20
0.0
 30
0.0
  3
_CLOSED
  1

  0
LINE
  5
257
330
207
100
AcDbEntity
  8
0
  6
ByBlock
 62
     0
100
AcDbLine
 10
0.0
 20
0.0
 30
0.0
 11
-1.0
 21
0.2
 31
0.0
  0
LINE
  5
258
330
207
100
AcDbEntity
  8
0
  6
ByBlock
 62
     0
100
AcDbLine
 10
-1.0
 20
0.2
 30
0.0
 11
-1.0
 21
-0.2
 31
0.0
  0
LINE
  5
259
330
207
100
AcDbEntity
  8
0
  6
ByBlock
 62
     0
100
AcDbLine
 10
-1.0
 20
-0.2
 30
0.0
 11
0.0
 21
0.0
 31
0.0
  0
LINE
  5
25A
330
207
100
AcDbEntity
  8
0
  6
ByBlock
 62
     0
100
AcDbLine
 10
-1.0
 20
0.0
 30
0.0
 11
0.0
 21
0.0
 31
0.0
  0
ENDBLK
  5
25B
330
207
100
AcDbEntity
  8
0
  6
ByBlock
 62
     0
100
AcDbBlockEnd
  0
BLOCK
  5
25C
330
208
100
AcDbEntity
  8
0
100
AcDbBlockBegin
  2
*D1
 70
     1
 10
0.0
 20
0.0
 30
0.0
  3
*D1
  1

  0
MTEXT
  5
25D
330
208
100
AcDbEntity
  8
0
  6
Continuous
 62
     2
100
AcDbMText
 10
232.6961104013
 20
161.4926097973
 30
0.0
 40
3.0
 41
19.9285714286
 46
0.0
 71
     2
 72
     1
  1
256,62
 11
0.0
 21
1.0
 31
0.0
 73
     1
 44
0.9
  0
LINE
  5
25E
330
208
100
AcDbEntity
  8
0
  6
Continuous
 62
     2
100
AcDbLine
 10
221.9591131757
 20
289.8034989298
 30
0.0
 11
237.1961104013
 21
289.8034989298
 31
0.0
  0
LINE
  5
25F
330
208
100
AcDbEntity
  8
0
  6
Continuous
 62
     2
100
AcDbLine
 10
221.8818496622
 20
33.1817206648
 30
0.0
 11
237.1961104013
 21
33.1817206648
 31
0.0
  0
LINE
  5
260
330
208
100
AcDbEntity
  8
0
  6
Continuous
 62
     2
100
AcDbLine
 10
236.4461104013
 20
289.8034989298
 30
0.0
 11
236.4461104013
 21
161.4926097973
 31
0.0
  0
LINE
  5
261
330
208
100
AcDbEntity
  8
0
  6
Continuous
 62
     2
100
AcDbLine
 10
236.4461104013
 20
33.1817206648
 30
0.0
 11
236.4461104013
 21
161.4926097973
 31
0.0
  0
INSERT
  5
262
330
208
100
AcDbEntity
  8
0
  6
Continuous
 62
     2
100
AcDbBlockReference
  2
_CLOSED
 10
236.4461104013
 20
289.8034989298
 30
0.0
 41
2.5
 42
2.5
 43
2.5
 50
90.0
  0
INSERT
  5
263
330
208
100
AcDbEntity
  8
0
  6
Continuous
 62
     2
100
AcDbBlockReference
  2
_CLOSED
 10
236.4461104013
 20
33.1817206648
 30
0.0
 41
2.5
 42
2.5
 43
2.5
 50
270.0
  0
ENDBLK
  5
264
330
208
100
AcDbEntity
  8
0
  6
ByBlock
 62
     0
100
AcDbBlockEnd
  0
BLOCK
  5
265
330
209
100
AcDbEntity
  8
0
100
AcDbBlockBegin
  2
*D2
 70
     1
 10
0.0
 20
0.0
 30
0.0
  3
*D2
  1

  0
MTEXT
  5
266
330
209
100
AcDbEntity
  8
0
  6
Continuous
 62
     2
100
AcDbMText
 10
187.7261402027
 20
379.3448927729
 30
0.0
 40
3.0
 41
16.0714285714
 46
0.0
 71
     2
 72
     1
  1
35,62
 73
     1
 44
0.9
  0
LINE
  5
267
330
209
100
AcDbEntity
  8
0
  6
Continuous
 62
     2
100
AcDbLine
 10
205.5361402027
 20
365.1394954054
 30
0.0
 11
205.5361402027
 21
376.3448927729
 31
0.0
  0
LINE
  5
268
330
209
100
AcDbEntity
  8
0
  6
Continuous
 62
     2
100
AcDbLine
 10
169.9161402027
 20
363.0020164865
 30
0.0
 11
169.9161402027
 21
376.3448927729
 31
0.0
  0
LINE
  5
269
330
209
100
AcDbEntity
  8
0
  6
Continuous
 62
     2
100
AcDbLine
 10
205.5361402027
 20
375.5948927729
 30
0.0
 11
187.7261402027
 21
375.5948927729
 31
0.0
  0
LINE
  5
26A
330
209
100
AcDbEntity
  8
0
  6
Continuous
 62
     2
100
AcDbLine
 10
169.9161402027
 20
375.5948927729
 30
0.0
 11
187.7261402027
 21
375.5948927729
 31
0.0
  0
INSERT
  5
26B
330
209
100
AcDbEntity
  8
0
  6
Continuous
 62
     2
100
AcDbBlockReference
  2
_CLOSED
 10
205.5361402027
 20
375.5948927729
 30
0.0
 41
2.5
 42
2.5
 43
2.5
  0
INSERT
  5
26C
330
209
100
AcDbEntity
  8
0
  6
Continuous
 62
     2
100
AcDbBlockReference
  2
_CLOSED
 10
169.9161402027
 20
375.5948927729
 30
0.0
 41
2.5
 42
2.5
 43
2.5
 50
180.0
  0
ENDBLK
  5
26D
330
209
100
AcDbEntity
  8
0
  6
ByBlock
 62
     0
100
AcDbBlockEnd
  0
BLOCK
  5
26E
330
20A
100
AcDbEntity
  8
0
100
AcDbBlockBegin
  2
*D3
 70
     1
 10
0.0
 20
0.0
 30
0.0
  3
*D3
  1

  0
MTEXT
  5
26F
330
20A
100
AcDbEntity
  8
0
  6
Continuous
 62
     2
100
AcDbMText
 10
151.0667337075
 20
338.683277027
 30
0.0
 40
3.0
 41
6.75
 46
0.0
 71
     2
 72
     1
  1
39
 11
0.0
 21
1.0
 31
0.0
 73
     1
 44
0.9
  0
LINE
  5
270
330
20A
100
AcDbEntity
  8
0
  6
Continuous
 62
     2
100
AcDbLine
 10
162.5591951069
 20
319.183277027
 30
0.0
 11
154.0667337075
 21
319.183277027
 31
0.0
  0
LINE
  5
271
330
20A
100
AcDbEntity
  8
0
  6
Continuous
 62
     2
100
AcDbLine
 10
160.8093488513
 20
358.183277027
 30
0.0
 11
154.0667337075
 21
358.183277027
 31
0.0
  0
LINE
  5
272
330
20A
100
AcDbEntity
  8
0
  6
Continuous
 62
     2
100
AcDbLine
 10
154.8167337075
 20
319.183277027
 30
0.0
 11
154.8167337075
 21
338.683277027
 31
0.0
  0
LINE
  5
273
330
20A
100
AcDbEntity
  8
0
  6
Continuous
 62
     2
100
AcDbLine
 10
154.8167337075
 20
358.183277027
 30
0.0
 11
154.8167337075
 21
338.683277027
 31
0.0
  0
INSERT
  5
274
330
20A
100
AcDbEntity
  8
0
  6
Continuous
 62
     2
100
AcDbBlockReference
  2
_CLOSED
 10
154.8167337075
 20
319.183277027
 30
0.0
 41
2.5
 42
2.5
 43
2.5
 50
270.0
  0
INSERT
  5
275
330
20A
100
AcDbEntity
  8
0
  6
Continuous
 62
     2
100
AcDbBlockReference
  2
_CLOSED
 10
154.8167337075
 20
358.183277027
 30
0.0
 41
2.5
 42
2.5
 43
2.5
 50
90.0
  0
ENDBLK
  5
276
330
20A
100
AcDbEntity
  8
0
  6
ByBlock
 62
     0
100
AcDbBlockEnd
  0
BLOCK
  5
210
330
20B
100
AcDbEntity
  8
0
100
AcDbBlockBegin
  2
LOGO2_BL1
 70
     0
 10
468.8581416394
 20
37.1575168919
 30
0.0
  3
LOGO2_BL1
  1

  0
LINE
  5
211
330
20B
100
AcDbEntity
  8
0
  6
Continuous
 62
     7
100
AcDbLine
 10
460.6010668676
 20
40.3530082307
 30
0.0
 11
459.2967259382
 21
40.3530082307
 31
0.0
  0
LINE
  5
212
330
20B
100
AcDbEntity
  8
0
  6
Continuous
 62
     7
100
AcDbLine
 10
459.2967259382
 20
40.3530082307
 30
0.0
 11
459.2967259382
 21
29.8939421709
 31
0.0
  0
LINE
  5
213
330
20B
100
AcDbEntity
  8
0
  6
Continuous
 62
     7
100
AcDbLine
 10
459.2967259382
 20
29.8939421709
 30
0.0
 11
463.7777808265
 21
29.8939421709
 31
0.0
  0
LINE
  5
214
330
20B
100
AcDbEntity
  8
0
  6
Continuous
 62
     7
100
AcDbLine
 10
463.7777808265
 20
29.8939421709
 30
0.0
 11
463.7777808265
 21
31.0867964959
 31
0.0
  0
LINE
  5
215
330
20B
100
AcDbEntity
  8
0
  6
Continuous
 62
     7
100
AcDbLine
 10
463.7777808265
 20
31.0867964959
 30
0.0
 11
460.6010668676
 21
31.0867964959
 31
0.0
  0
LINE
  5
216
330
20B
100
AcDbEntity
  8
0
  6
Continuous
 62
     7
100
AcDbLine
 10
460.6010668676
 20
31.0867964959
 30
0.0
 11
460.6010668676
 21
40.3530082307
 31
0.0
  0
LINE
  5
217
330
20B
100
AcDbEntity
  8
0
  6
Continuous
 62
     7
100
AcDbLine
 10
475.5373930839
 20
40.3530082307
 30
0.0
 11
474.2335755658
 21
40.3530082307
 31
0.0
  0
LINE
  5
218
330
20B
100
AcDbEntity
  8
0
  6
Continuous
 62
     7
100
AcDbLine
 10
474.2335755658
 20
40.3530082307
 30
0.0
 11
474.2335755658
 21
29.8939421709
 31
0.0
  0
LINE
  5
219
330
20B
100
AcDbEntity
  8
0
  6
Continuous
 62
     7
100
AcDbLine
 10
474.2335755658
 20
29.8939421709
 30
0.0
 11
478.7147613069
 21
29.8939421709
 31
0.0
  0
LINE
  5
21A
330
20B
100
AcDbEntity
  8
0
  6
Continuous
 62
     7
100
AcDbLine
 10
478.7147613069
 20
29.8939421709
 30
0.0
 11
478.7147613069
 21
31.0867964959
 31
0.0
  0
LINE
  5
21B
330
20B
100
AcDbEntity
  8
0
  6
Continuous
 62
     7
100
AcDbLine
 10
478.7147613069
 20
31.0867964959
 30
0.0
 11
475.5373930839
 21
31.0867964959
 31
0.0
  0
LINE
  5
21C
330
20B
100
AcDbEntity
  8
0
  6
Continuous
 62
     7
100
AcDbLine
 10
475.5373930839
 20
31.0867964959
 30
0.0
 11
475.5373930839
 21
40.3530082307
 31
0.0
  0
LWPOLYLINE
  5
21D
330
20B
100
AcDbEntity
  8
0
  6
Continuous
 62
     7
100
AcDbPolyline
 90
        2
 70
     0
 43
0.2
 10
457.6511208491
 20
26.550390864
 10
457.6511208491
 20
24.6933276146
  0
LWPOLYLINE
  5
21E
330
20B
100
AcDbEntity
  8
0
  6
Continuous
 62
     7
100
AcDbPolyline
 90
        2
 70
     0
 43
0.2
 10
457.6511208491
 20
24.6933276146
 10
458.4468368595
 20
24.6933276146
  0
LWPOLYLINE
  5
21F
330
20B
100
AcDbEntity
  8
0
  6
Continuous
 62
     7
100
AcDbPolyline
 90
        2
 70
     0
 43
0.2
 10
458.4468368595
 20
24.6933276146
 10
458.4468368595
 20
24.9053091862
  0
LWPOLYLINE
  5
220
330
20B
100
AcDbEntity
  8
0
  6
Continuous
 62
     7
100
AcDbPolyline
 90
        2
 70
     0
 43
0.2
 10
458.4468368595
 20
24.9053091862
 10
457.882730344
 20
24.9053091862
  0
LWPOLYLINE
  5
221
330
20B
100
AcDbEntity
  8
0
  6
Continuous
 62
     7
100
AcDbPolyline
 90
        2
 70
     0
 43
0.2
 10
457.882730344
 20
24.9053091862
 10
457.882730344
 20
26.550390864
  0
LWPOLYLINE
  5
222
330
20B
100
AcDbEntity
  8
0
  6
Continuous
 62
     7
100
AcDbPolyline
 90
        2
 70
     0
 43
0.2
 10
457.882730344
 20
26.550390864
 10
457.6511208491
 20
26.550390864
  0
SPLINE
  5
223
330
20B
100
AcDbEntity
  8
0
  6
Continuous
 62
     7
100
AcDbSpline
 70
     3
 71
     3
 72
    35
 73
    31
 74
     0
 42
0.000000001
 43
0.0000001
 40
0.0
 40
0.0
 40
0.0
 40
0.0
 40
1.0
 40
1.0
 40
1.0
 40
2.0
 40
2.0
 40
2.0
 40
3.0
 40
3.0
 40
3.0
 40
4.0
 40
4.0
 40
4.0
 40
5.0
 40
5.0
 40
5.0
 40
6.0
 40
6.0
 40
6.0
 40
7.0
 40
7.0
 40
7.0
 40
8.0
 40
8.0
 40
8.0
 40
9.0
 40
9.0
 40
9.0
 40
10.0
 40
10.0
 40
10.0
 40
10.0
 10
459.8451301151
 20
25.8458792705
 30
0.0
 10
459.8451301151
 20
25.8458792705
 30
0.0
 10
459.8451301151
 20
25.1837639913
 30
0.0
 10
459.8451301151
 20
25.1837639913
 30
0.0
 10
459.8451301151
 20
24.868670396
 30
0.0
 10
459.9929938039
 20
24.654071768
 30
0.0
 10
460.3330802882
 20
24.654071768
 30
0.0
 10
460.6726433612
 20
24.654071768
 30
0.0
 10
460.8207687556
 20
24.868670396
 30
0.0
 10
460.8207687556
 20
25.1837639913
 30
0.0
 10
460.8207687556
 20
25.1837639913
 30
0.0
 10
460.8207687556
 20
25.8458792705
 30
0.0
 10
460.8207687556
 20
25.8458792705
 30
0.0
 10
460.8207687556
 20
25.8458792705
 30
0.0
 10
460.5987115168
 20
25.8458792705
 30
0.0
 10
460.5987115168
 20
25.8458792705
 30
0.0
 10
460.5987115168
 20
25.8458792705
 30
0.0
 10
460.5987115168
 20
25.2088877331
 30
0.0
 10
460.5987115168
 20
25.2088877331
 30
0.0
 10
460.5987115168
 20
25.0230767259
 30
0.0
 10
460.5519970593
 20
24.8602958154
 30
0.0
 10
460.3330802882
 20
24.8602958154
 30
0.0
 10
460.1136401057
 20
24.8602958154
 30
0.0
 10
460.0669256483
 20
25.0230767259
 30
0.0
 10
460.0669256483
 20
25.2088877331
 30
0.0
 10
460.0669256483
 20
25.2088877331
 30
0.0
 10
460.0669256483
 20
25.8458792705
 30
0.0
 10
460.0669256483
 20
25.8458792705
 30
0.0
 10
460.0669256483
 20
25.8458792705
 30
0.0
 10
459.8451301151
 20
25.8458792705
 30
0.0
 10
459.8451301151
 20
25.8458792705
 30
0.0
  0
SPLINE
  5
224
330
20B
100
AcDbEntity
  8
0
  6
Continuous
 62
     7
100
AcDbSpline
 70
     3
 71
     3
 72
    35
 73
    31
 74
     0
 42
0.000000001
 43
0.0000001
 40
0.0
 40
0.0
 40
0.0
 40
0.0
 40
1.0
 40
1.0
 40
1.0
 40
2.0
 40
2.0
 40
2.0
 40
3.0
 40
3.0
 40
3.0
 40
4.0
 40
4.0
 40
4.0
 40
5.0
 40
5.0
 40
5.0
 40
6.0
 40
6.0
 40
6.0
 40
7.0
 40
7.0
 40
7.0
 40
8.0
 40
8.0
 40
8.0
 40
9.0
 40
9.0
 40
9.0
 40
10.0
 40
10.0
 40
10.0
 40
10.0
 10
463.2439013128
 20
25.8045297787
 30
0.0
 10
463.1554448052
 20
25.855824085
 30
0.0
 10
463.0419954085
 20
25.8809478268
 30
0.0
 10
462.9383599735
 20
25.8809478268
 30
0.0
 10
462.5834871204
 20
25.8809478268
 30
0.0
 10
462.3080419301
 20
25.6171485377
 30
0.0
 10
462.3080419301
 20
25.2596586281
 30
0.0
 10
462.3080419301
 20
24.9147305894
 30
0.0
 10
462.5864967353
 20
24.6545951793
 30
0.0
 10
462.9260598083
 20
24.6545951793
 30
0.0
 10
463.0419954085
 20
24.6545951793
 30
0.0
 10
463.1427520815
 20
24.6765784534
 30
0.0
 10
463.2439013128
 20
24.730489816
 30
0.0
 10
463.2439013128
 20
24.730489816
 30
0.0
 10
463.2439013128
 20
25.0131319115
 30
0.0
 10
463.2439013128
 20
25.0131319115
 30
0.0
 10
463.160024654
 20
24.9199647022
 30
0.0
 10
463.0565200718
 20
24.8608192267
 30
0.0
 10
462.9284151591
 20
24.8608192267
 30
0.0
 10
462.694712019
 20
24.8608192267
 30
0.0
 10
462.5294449049
 20
25.0330215404
 30
0.0
 10
462.5294449049
 20
25.2696034425
 30
0.0
 10
462.5294449049
 20
25.4815850141
 30
0.0
 10
462.6971982227
 20
25.6736769568
 30
0.0
 10
462.9140213487
 20
25.6736769568
 30
0.0
 10
463.046836963
 20
25.6736769568
 30
0.0
 10
463.1554448052
 20
25.6197655941
 30
0.0
 10
463.2439013128
 20
25.5187472156
 30
0.0
 10
463.2439013128
 20
25.5187472156
 30
0.0
 10
463.2439013128
 20
25.8045297787
 30
0.0
 10
463.2439013128
 20
25.8045297787
 30
0.0
  0
SPLINE
  5
225
330
20B
100
AcDbEntity
  8
0
  6
Continuous
 62
     7
100
AcDbSpline
 70
     3
 71
     3
 72
    32
 73
    28
 74
     0
 42
0.000000001
 43
0.0000001
 40
0.0
 40
0.0
 40
0.0
 40
0.0
 40
1.0
 40
1.0
 40
1.0
 40
2.0
 40
2.0
 40
2.0
 40
3.0
 40
3.0
 40
3.0
 40
4.0
 40
4.0
 40
4.0
 40
5.0
 40
5.0
 40
5.0
 40
6.0
 40
6.0
 40
6.0
 40
7.0
 40
7.0
 40
7.0
 40
8.0
 40
8.0
 40
8.0
 40
9.0
 40
9.0
 40
9.0
 40
9.0
 10
465.7757725651
 20
25.2329646524
 30
0.0
 10
465.7757725651
 20
25.2329646524
 30
0.0
 10
465.7757725651
 20
25.2669863861
 30
0.0
 10
465.7757725651
 20
25.2669863861
 30
0.0
 10
465.7757725651
 20
25.6092973684
 30
0.0
 10
465.6029159873
 20
25.8809478268
 30
0.0
 10
465.2362663801
 20
25.8809478268
 30
0.0
 10
464.8646443657
 20
25.8809478268
 30
0.0
 10
464.6749077739
 20
25.6145314812
 30
0.0
 10
464.6749077739
 20
25.2596586281
 30
0.0
 10
464.6749077739
 20
24.9199647022
 30
0.0
 10
464.8889829906
 20
24.654071768
 30
0.0
 10
465.2411079345
 20
24.654071768
 30
0.0
 10
465.4651279657
 20
24.654071768
 30
0.0
 10
465.6672955757
 20
24.7697456626
 30
0.0
 10
465.7757725651
 20
24.9691653633
 30
0.0
 10
465.7757725651
 20
24.9691653633
 30
0.0
 10
465.5881296184
 20
25.075941266
 30
0.0
 10
465.5881296184
 20
25.075941266
 30
0.0
 10
465.504645518
 20
24.9372372747
 30
0.0
 10
465.4134411011
 20
24.8513978235
 30
0.0
 10
465.2438558438
 20
24.8513978235
 30
0.0
 10
465.0318742722
 20
24.8513978235
 30
0.0
 10
464.8989278051
 20
25.0361620081
 30
0.0
 10
464.8965724543
 20
25.2329646524
 30
0.0
 10
464.8965724543
 20
25.2329646524
 30
0.0
 10
465.7757725651
 20
25.2329646524
 30
0.0
 10
465.7757725651
 20
25.2329646524
 30
0.0
  0
SPLINE
  5
226
330
20B
100
AcDbEntity
  8
0
  6
Continuous
 62
     7
100
AcDbSpline
 70
     3
 71
     3
 72
    14
 73
    10
 74
     0
 42
0.000000001
 43
0.0000001
 40
0.0
 40
0.0
 40
0.0
 40
0.0
 40
1.0
 40
1.0
 40
1.0
 40
2.0
 40
2.0
 40
2.0
 40
3.0
 40
3.0
 40
3.0
 40
3.0
 10
464.9086109139
 20
25.4004562645
 30
0.0
 10
464.9362208594
 20
25.5653308202
 30
0.0
 10
465.0640640664
 20
25.6883324728
 30
0.0
 10
465.2362663801
 20
25.6883324728
 30
0.0
 10
465.4134411011
 20
25.6883324728
 30
0.0
 10
465.5268904977
 20
25.5726585782
 30
0.0
 10
465.5541078847
 20
25.4004562645
 30
0.0
 10
465.5541078847
 20
25.4004562645
 30
0.0
 10
464.9086109139
 20
25.4004562645
 30
0.0
 10
464.9086109139
 20
25.4004562645
 30
0.0
  0
SPLINE
  5
227
330
20B
100
AcDbEntity
  8
0
  6
Continuous
 62
     7
100
AcDbSpline
 70
     3
 71
     3
 72
    20
 73
    16
 74
     0
 42
0.000000001
 43
0.0000001
 40
0.0
 40
0.0
 40
0.0
 40
0.0
 40
1.0
 40
1.0
 40
1.0
 40
2.0
 40
2.0
 40
2.0
 40
3.0
 40
3.0
 40
3.0
 40
4.0
 40
4.0
 40
4.0
 40
5.0
 40
5.0
 40
5.0
 40
5.0
 10
467.7998040153
 20
25.6098207797
 30
0.0
 10
467.7998040153
 20
25.6098207797
 30
0.0
 10
468.2109435819
 20
25.1073459433
 30
0.0
 10
468.2109435819
 20
25.1073459433
 30
0.0
 10
468.0948771288
 20
24.9916720487
 30
0.0
 10
467.9570891073
 20
24.861342638
 30
0.0
 10
467.7851484992
 20
24.861342638
 30
0.0
 10
467.6077120726
 20
24.861342638
 30
0.0
 10
467.4402204605
 20
25.0256937824
 30
0.0
 10
467.4402204605
 20
25.2026067977
 30
0.0
 10
467.4402204605
 20
25.3805666356
 30
0.0
 10
467.6499775341
 20
25.5067087559
 30
0.0
 10
467.7775590356
 20
25.5946418523
 30
0.0
 10
467.7775590356
 20
25.5946418523
 30
0.0
 10
467.7998040153
 20
25.6098207797
 30
0.0
 10
467.7998040153
 20
25.6098207797
 30
0.0
  0
SPLINE
  5
228
330
20B
100
AcDbEntity
  8
0
  6
Continuous
 62
     7
100
AcDbSpline
 70
     3
 71
     3
 72
    23
 73
    19
 74
     0
 42
0.000000001
 43
0.0000001
 40
0.0
 40
0.0
 40
0.0
 40
0.0
 40
1.0
 40
1.0
 40
1.0
 40
2.0
 40
2.0
 40
2.0
 40
3.0
 40
3.0
 40
3.0
 40
4.0
 40
4.0
 40
4.0
 40
5.0
 40
5.0
 40
5.0
 40
6.0
 40
6.0
 40
6.0
 40
6.0
 10
467.8491355292
 20
25.9008374557
 30
0.0
 10
467.8491355292
 20
25.9008374557
 30
0.0
 10
467.78750385
 20
25.9793491489
 30
0.0
 10
467.78750385
 20
25.9793491489
 30
0.0
 10
467.7335924874
 20
26.0479160276
 30
0.0
 10
467.6768023626
 20
26.1170063176
 30
0.0
 10
467.6768023626
 20
26.2106969381
 30
0.0
 10
467.6768023626
 20
26.3295113005
 30
0.0
 10
467.7727174811
 20
26.4069761711
 30
0.0
 10
467.8836806742
 20
26.4069761711
 30
0.0
 10
468.0069440325
 20
26.4069761711
 30
0.0
 10
468.1002420945
 20
26.3357922359
 30
0.0
 10
468.1002420945
 20
26.2054628252
 30
0.0
 10
468.1002420945
 20
26.070422713
 30
0.0
 10
467.9721371818
 20
25.9940046649
 30
0.0
 10
467.8785774141
 20
25.9202036734
 30
0.0
 10
467.8785774141
 20
25.9202036734
 30
0.0
 10
467.8491355292
 20
25.9008374557
 30
0.0
 10
467.8491355292
 20
25.9008374557
 30
0.0
  0
SPLINE
  5
229
330
20B
100
AcDbEntity
  8
0
  6
Continuous
 62
     7
100
AcDbSpline
 70
     3
 71
     3
 72
    50
 73
    46
 74
     0
 42
0.000000001
 43
0.0000001
 40
0.0
 40
0.0
 40
0.0
 40
0.0
 40
1.0
 40
1.0
 40
1.0
 40
2.0
 40
2.0
 40
2.0
 40
3.0
 40
3.0
 40
3.0
 40
4.0
 40
4.0
 40
4.0
 40
5.0
 40
5.0
 40
5.0
 40
6.0
 40
6.0
 40
6.0
 40
7.0
 40
7.0
 40
7.0
 40
8.0
 40
8.0
 40
8.0
 40
9.0
 40
9.0
 40
9.0
 40
10.0
 40
10.0
 40
10.0
 40
11.0
 40
11.0
 40
11.0
 40
12.0
 40
12.0
 40
12.0
 40
13.0
 40
13.0
 40
13.0
 40
14.0
 40
14.0
 40
14.0
 40
15.0
 40
15.0
 40
15.0
 40
15.0
 10
468.5512917718
 20
24.6938510259
 30
0.0
 10
468.5512917718
 20
24.6938510259
 30
0.0
 10
468.8366817766
 20
24.6938510259
 30
0.0
 10
468.8366817766
 20
24.6938510259
 30
0.0
 10
468.8366817766
 20
24.6938510259
 30
0.0
 10
468.5043156088
 20
25.1047288869
 30
0.0
 10
468.5043156088
 20
25.1047288869
 30
0.0
 10
468.5043156088
 20
25.1047288869
 30
0.0
 10
468.7308218436
 20
25.3706218211
 30
0.0
 10
468.7308218436
 20
25.3706218211
 30
0.0
 10
468.7308218436
 20
25.3706218211
 30
0.0
 10
468.5825655963
 20
25.5234579172
 30
0.0
 10
468.5825655963
 20
25.5234579172
 30
0.0
 10
468.5825655963
 20
25.5234579172
 30
0.0
 10
468.3666584401
 20
25.272220499
 30
0.0
 10
468.3666584401
 20
25.272220499
 30
0.0
 10
468.3666584401
 20
25.272220499
 30
0.0
 10
467.9795957927
 20
25.7401501903
 30
0.0
 10
467.9795957927
 20
25.7401501903
 30
0.0
 10
468.1350489452
 20
25.8542538511
 30
0.0
 10
468.3173269262
 20
25.9940046649
 30
0.0
 10
468.3173269262
 20
26.2033691801
 30
0.0
 10
468.3173269262
 20
26.4472788402
 30
0.0
 10
468.1152901691
 20
26.5906935331
 30
0.0
 10
467.8887839342
 20
26.5906935331
 30
0.0
 10
467.6446125684
 20
26.5906935331
 30
0.0
 10
467.4602409423
 20
26.4399510822
 30
0.0
 10
467.4602409423
 20
26.1834795512
 30
0.0
 10
467.4602409423
 20
26.0259327535
 30
0.0
 10
467.55890397
 20
25.8882755848
 30
0.0
 10
467.6642404917
 20
25.7773123918
 30
0.0
 10
467.6642404917
 20
25.7773123918
 30
0.0
 10
467.5486974499
 20
25.6935665857
 30
0.0
 10
467.5486974499
 20
25.6935665857
 30
0.0
 10
467.3709993177
 20
25.5653308202
 30
0.0
 10
467.2236590402
 20
25.4376184659
 30
0.0
 10
467.2236590402
 20
25.2005131525
 30
0.0
 10
467.2236590402
 20
24.8801854444
 30
0.0
 10
467.4822242164
 20
24.654071768
 30
0.0
 10
467.7926071101
 20
24.654071768
 30
0.0
 10
468.0115238812
 20
24.654071768
 30
0.0
 10
468.2087190839
 20
24.7791670658
 30
0.0
 10
468.3489933091
 20
24.9450884441
 30
0.0
 10
468.3489933091
 20
24.9450884441
 30
0.0
 10
468.5512917718
 20
24.6938510259
 30
0.0
 10
468.5512917718
 20
24.6938510259
 30
0.0
  0
LWPOLYLINE
  5
22A
330
20B
100
AcDbEntity
  8
0
  6
Continuous
 62
     7
100
AcDbPolyline
 90
        2
 70
     0
 43
0.2
 10
470.4867358616
 20
26.550390864
 10
470.2553880723
 20
26.550390864
  0
LWPOLYLINE
  5
22B
330
20B
100
AcDbEntity
  8
0
  6
Continuous
 62
     7
100
AcDbPolyline
 90
        2
 70
     0
 43
0.2
 10
470.2553880723
 20
26.550390864
 10
470.2553880723
 20
24.6933276146
  0
LWPOLYLINE
  5
22C
330
20B
100
AcDbEntity
  8
0
  6
Continuous
 62
     7
100
AcDbPolyline
 90
        2
 70
     0
 43
0.2
 10
470.2553880723
 20
24.6933276146
 10
471.0507115242
 20
24.6933276146
  0
LWPOLYLINE
  5
22D
330
20B
100
AcDbEntity
  8
0
  6
Continuous
 62
     7
100
AcDbPolyline
 90
        2
 70
     0
 43
0.2
 10
471.0507115242
 20
24.6933276146
 10
471.0507115242
 20
24.9053091862
  0
LWPOLYLINE
  5
22E
330
20B
100
AcDbEntity
  8
0
  6
Continuous
 62
     7
100
AcDbPolyline
 90
        2
 70
     0
 43
0.2
 10
471.0507115242
 20
24.9053091862
 10
470.4867358616
 20
24.9053091862
  0
LWPOLYLINE
  5
22F
330
20B
100
AcDbEntity
  8
0
  6
Continuous
 62
     7
100
AcDbPolyline
 90
        2
 70
     0
 43
0.2
 10
470.4867358616
 20
24.9053091862
 10
470.4867358616
 20
26.550390864
  0
LWPOLYLINE
  5
230
330
20B
100
AcDbEntity
  8
0
  6
Continuous
 62
     7
100
AcDbPolyline
 90
        2
 70
     0
 43
0.2
 10
472.7298149357
 20
25.8458792705
 10
472.5086736666
 20
25.8458792705
  0
LWPOLYLINE
  5
231
330
20B
100
AcDbEntity
  8
0
  6
Continuous
 62
     7
100
AcDbPolyline
 90
        2
 70
     0
 43
0.2
 10
472.5086736666
 20
25.8458792705
 10
472.5086736666
 20
24.6938510259
  0
LWPOLYLINE
  5
232
330
20B
100
AcDbEntity
  8
0
  6
Continuous
 62
     7
100
AcDbPolyline
 90
        2
 70
     0
 43
0.2
 10
472.5086736666
 20
24.6938510259
 10
472.7298149357
 20
24.6938510259
  0
LWPOLYLINE
  5
233
330
20B
100
AcDbEntity
  8
0
  6
Continuous
 62
     7
100
AcDbPolyline
 90
        2
 70
     0
 43
0.2
 10
472.7298149357
 20
24.6938510259
 10
472.7298149357
 20
25.8458792705
  0
LWPOLYLINE
  5
234
330
20B
100
AcDbEntity
  8
0
  6
Continuous
 62
     7
100
AcDbPolyline
 90
        2
 70
     1
 43
0.2
 10
472.4667916585
 20
26.3758331994
 42
1.0
 10
472.7719586495
 20
26.3758331994
 42
1.0
  0
SPLINE
  5
235
330
20B
100
AcDbEntity
  8
0
  6
Continuous
 62
     7
100
AcDbSpline
 70
     3
 71
     3
 72
    17
 73
    13
 74
     0
 42
0.000000001
 43
0.0000001
 40
0.0
 40
0.0
 40
0.0
 40
0.0
 40
1.0
 40
1.0
 40
1.0
 40
2.0
 40
2.0
 40
2.0
 40
3.0
 40
3.0
 40
3.0
 40
4.0
 40
4.0
 40
4.0
 40
4.0
 10
474.8600988774
 20
24.8513978235
 30
0.0
 10
474.6261340317
 20
24.8513978235
 30
0.0
 10
474.495804621
 20
25.0534345806
 30
0.0
 10
474.495804621
 20
25.2696034425
 30
0.0
 10
474.495804621
 20
25.4842020706
 30
0.0
 10
474.6316298502
 20
25.68309836
 30
0.0
 10
474.8600988774
 20
25.68309836
 30
0.0
 10
475.0995595416
 20
25.68309836
 30
0.0
 10
475.2351230651
 20
25.494146885
 30
0.0
 10
475.2351230651
 20
25.2696034425
 30
0.0
 10
475.2351230651
 20
25.0434897662
 30
0.0
 10
475.1019148924
 20
24.8513978235
 30
0.0
 10
474.8600988774
 20
24.8513978235
 30
0.0
  0
SPLINE
  5
236
330
20B
100
AcDbEntity
  8
0
  6
Continuous
 62
     7
100
AcDbSpline
 70
     3
 71
     3
 72
    50
 73
    46
 74
     0
 42
0.000000001
 43
0.0000001
 40
0.0
 40
0.0
 40
0.0
 40
0.0
 40
1.0
 40
1.0
 40
1.0
 40
2.0
 40
2.0
 40
2.0
 40
3.0
 40
3.0
 40
3.0
 40
4.0
 40
4.0
 40
4.0
 40
5.0
 40
5.0
 40
5.0
 40
6.0
 40
6.0
 40
6.0
 40
7.0
 40
7.0
 40
7.0
 40
8.0
 40
8.0
 40
8.0
 40
9.0
 40
9.0
 40
9.0
 40
10.0
 40
10.0
 40
10.0
 40
11.0
 40
11.0
 40
11.0
 40
12.0
 40
12.0
 40
12.0
 40
13.0
 40
13.0
 40
13.0
 40
14.0
 40
14.0
 40
14.0
 40
15.0
 40
15.0
 40
15.0
 40
15.0
 10
475.4442258746
 20
25.8464026818
 30
0.0
 10
475.4442258746
 20
25.8464026818
 30
0.0
 10
475.2225611942
 20
25.8464026818
 30
0.0
 10
475.2225611942
 20
25.8464026818
 30
0.0
 10
475.2225611942
 20
25.8464026818
 30
0.0
 10
475.2225611942
 20
25.6490766262
 30
0.0
 10
475.2225611942
 20
25.6490766262
 30
0.0
 10
475.2225611942
 20
25.6490766262
 30
0.0
 10
475.2178504926
 20
25.6490766262
 30
0.0
 10
475.2178504926
 20
25.6490766262
 30
0.0
 10
475.1265152229
 20
25.7919679078
 30
0.0
 10
474.9885963485
 20
25.8804244155
 30
0.0
 10
474.8158706235
 20
25.8804244155
 30
0.0
 10
474.4835044557
 20
25.8804244155
 30
0.0
 10
474.2744016462
 20
25.5925482072
 30
0.0
 10
474.2744016462
 20
25.2769312006
 30
0.0
 10
474.2744016462
 20
24.9471820892
 30
0.0
 10
474.4714659961
 20
24.654071768
 30
0.0
 10
474.8263388493
 20
24.654071768
 30
0.0
 10
474.9885963485
 20
24.654071768
 30
0.0
 10
475.128608868
 20
24.7425282757
 30
0.0
 10
475.2178504926
 20
24.8733810976
 30
0.0
 10
475.2178504926
 20
24.8733810976
 30
0.0
 10
475.2225611942
 20
24.8733810976
 30
0.0
 10
475.2225611942
 20
24.8733810976
 30
0.0
 10
475.2225611942
 20
24.8733810976
 30
0.0
 10
475.2225611942
 20
24.654071768
 30
0.0
 10
475.2225611942
 20
24.654071768
 30
0.0
 10
475.2225611942
 20
24.4174898659
 30
0.0
 10
475.1660327751
 20
24.2306320361
 30
0.0
 10
474.8928120829
 20
24.2306320361
 30
0.0
 10
474.6905136201
 20
24.2306320361
 30
0.0
 10
474.5478840442
 20
24.3489229872
 30
0.0
 10
474.5478840442
 20
24.5551470346
 30
0.0
 10
474.5478840442
 20
24.5551470346
 30
0.0
 10
474.3262193637
 20
24.5551470346
 30
0.0
 10
474.3262193637
 20
24.5551470346
 30
0.0
 10
474.331191771
 20
24.2306320361
 30
0.0
 10
474.5622778546
 20
24.0338293919
 30
0.0
 10
474.8826055627
 20
24.0338293919
 30
0.0
 10
475.3306456252
 20
24.0338293919
 30
0.0
 10
475.4442258746
 20
24.3190885438
 30
0.0
 10
475.4442258746
 20
24.7158343
 30
0.0
 10
475.4442258746
 20
24.7158343
 30
0.0
 10
475.4442258746
 20
25.8464026818
 30
0.0
 10
475.4442258746
 20
25.8464026818
 30
0.0
  0
SPLINE
  5
237
330
20B
100
AcDbEntity
  8
0
  6
Continuous
 62
     7
100
AcDbSpline
 70
     3
 71
     3
 72
    44
 73
    40
 74
     0
 42
0.000000001
 43
0.0000001
 40
0.0
 40
0.0
 40
0.0
 40
0.0
 40
1.0
 40
1.0
 40
1.0
 40
2.0
 40
2.0
 40
2.0
 40
3.0
 40
3.0
 40
3.0
 40
4.0
 40
4.0
 40
4.0
 40
5.0
 40
5.0
 40
5.0
 40
6.0
 40
6.0
 40
6.0
 40
7.0
 40
7.0
 40
7.0
 40
8.0
 40
8.0
 40
8.0
 40
9.0
 40
9.0
 40
9.0
 40
10.0
 40
10.0
 40
10.0
 40
11.0
 40
11.0
 40
11.0
 40
12.0
 40
12.0
 40
12.0
 40
13.0
 40
13.0
 40
13.0
 40
13.0
 10
477.01315121
 20
26.8314627255
 30
0.0
 10
477.01315121
 20
26.8314627255
 30
0.0
 10
477.01315121
 20
24.6933276146
 30
0.0
 10
477.01315121
 20
24.6933276146
 30
0.0
 10
477.01315121
 20
24.6933276146
 30
0.0
 10
477.2345541848
 20
24.6933276146
 30
0.0
 10
477.2345541848
 20
24.6933276146
 30
0.0
 10
477.2345541848
 20
24.6933276146
 30
0.0
 10
477.2345541848
 20
25.2230198379
 30
0.0
 10
477.2345541848
 20
25.2230198379
 30
0.0
 10
477.2345541848
 20
25.4329077644
 30
0.0
 10
477.2345541848
 20
25.6836217712
 30
0.0
 10
477.5198133367
 20
25.6836217712
 30
0.0
 10
477.74671213
 20
25.6836217712
 30
0.0
 10
477.7736678113
 20
25.5506753041
 30
0.0
 10
477.7736678113
 20
25.3543960712
 30
0.0
 10
477.7736678113
 20
25.3543960712
 30
0.0
 10
477.7736678113
 20
24.6933276146
 30
0.0
 10
477.7736678113
 20
24.6933276146
 30
0.0
 10
477.7736678113
 20
24.6933276146
 30
0.0
 10
477.9955941974
 20
24.6933276146
 30
0.0
 10
477.9955941974
 20
24.6933276146
 30
0.0
 10
477.9955941974
 20
24.6933276146
 30
0.0
 10
477.9955941974
 20
25.3805666356
 30
0.0
 10
477.9955941974
 20
25.3805666356
 30
0.0
 10
477.9955941974
 20
25.6611150859
 30
0.0
 10
477.9115866856
 20
25.8809478268
 30
0.0
 10
477.5865482759
 20
25.8809478268
 30
0.0
 10
477.446797462
 20
25.8809478268
 30
0.0
 10
477.308616882
 20
25.8144745932
 30
0.0
 10
477.2392648864
 20
25.6914729406
 30
0.0
 10
477.2392648864
 20
25.6914729406
 30
0.0
 10
477.2345541848
 20
25.6914729406
 30
0.0
 10
477.2345541848
 20
25.6914729406
 30
0.0
 10
477.2345541848
 20
25.6914729406
 30
0.0
 10
477.2345541848
 20
26.8314627255
 30
0.0
 10
477.2345541848
 20
26.8314627255
 30
0.0
 10
477.2345541848
 20
26.8314627255
 30
0.0
 10
477.01315121
 20
26.8314627255
 30
0.0
 10
477.01315121
 20
26.8314627255
 30
0.0
  0
LWPOLYLINE
  5
238
330
20B
100
AcDbEntity
  8
0
  6
Continuous
 62
     7
100
AcDbPolyline
 90
        2
 70
     0
 43
0.2
 10
479.8353848742
 20
25.6391318118
 10
480.0518154418
 20
25.6391318118
  0
LWPOLYLINE
  5
239
330
20B
100
AcDbEntity
  8
0
  6
Continuous
 62
     7
100
AcDbPolyline
 90
        2
 70
     0
 43
0.2
 10
480.0518154418
 20
25.6391318118
 10
480.0518154418
 20
25.8458792705
  0
LWPOLYLINE
  5
23A
330
20B
100
AcDbEntity
  8
0
  6
Continuous
 62
     7
100
AcDbPolyline
 90
        2
 70
     0
 43
0.2
 10
480.0518154418
 20
25.8458792705
 10
479.8353848742
 20
25.8458792705
  0
LWPOLYLINE
  5
23B
330
20B
100
AcDbEntity
  8
0
  6
Continuous
 62
     7
100
AcDbPolyline
 90
        2
 70
     0
 43
0.2
 10
479.8353848742
 20
25.8458792705
 10
479.8353848742
 20
26.2865915749
  0
LWPOLYLINE
  5
23C
330
20B
100
AcDbEntity
  8
0
  6
Continuous
 62
     7
100
AcDbPolyline
 90
        2
 70
     0
 43
0.2
 10
479.8353848742
 20
26.2865915749
 10
479.6137201938
 20
26.2865915749
  0
LWPOLYLINE
  5
23D
330
20B
100
AcDbEntity
  8
0
  6
Continuous
 62
     7
100
AcDbPolyline
 90
        2
 70
     0
 43
0.2
 10
479.6137201938
 20
26.2865915749
 10
479.6137201938
 20
25.8458792705
  0
LWPOLYLINE
  5
23E
330
20B
100
AcDbEntity
  8
0
  6
Continuous
 62
     7
100
AcDbPolyline
 90
        2
 70
     0
 43
0.2
 10
479.6137201938
 20
25.8458792705
 10
479.4930738919
 20
25.8458792705
  0
LWPOLYLINE
  5
23F
330
20B
100
AcDbEntity
  8
0
  6
Continuous
 62
     7
100
AcDbPolyline
 90
        2
 70
     0
 43
0.2
 10
479.4930738919
 20
25.8458792705
 10
479.4930738919
 20
25.6391318118
  0
LWPOLYLINE
  5
240
330
20B
100
AcDbEntity
  8
0
  6
Continuous
 62
     7
100
AcDbPolyline
 90
        2
 70
     0
 43
0.2
 10
479.4930738919
 20
25.6391318118
 10
479.6137201938
 20
25.6391318118
  0
LWPOLYLINE
  5
241
330
20B
100
AcDbEntity
  8
0
  6
Continuous
 62
     7
100
AcDbPolyline
 90
        2
 70
     0
 43
0.2
 10
479.6137201938
 20
25.6391318118
 10
479.6137201938
 20
24.6933276146
  0
LWPOLYLINE
  5
242
330
20B
100
AcDbEntity
  8
0
  6
Continuous
 62
     7
100
AcDbPolyline
 90
        2
 70
     0
 43
0.2
 10
479.6137201938
 20
24.6933276146
 10
479.8353848742
 20
24.6933276146
  0
LWPOLYLINE
  5
243
330
20B
100
AcDbEntity
  8
0
  6
Continuous
 62
     7
100
AcDbPolyline
 90
        2
 70
     0
 43
0.2
 10
479.8353848742
 20
24.6933276146
 10
479.8353848742
 20
25.6391318118
  0
SPLINE
  5
244
330
20B
100
AcDbEntity
  8
0
  6
Continuous
 62
     7
100
AcDbSpline
 70
     3
 71
     3
 72
    20
 73
    16
 74
     0
 42
0.000000001
 43
0.0000001
 40
0.0
 40
0.0
 40
0.0
 40
0.0
 40
1.0
 40
1.0
 40
1.0
 40
2.0
 40
2.0
 40
2.0
 40
3.0
 40
3.0
 40
3.0
 40
4.0
 40
4.0
 40
4.0
 40
5.0
 40
5.0
 40
5.0
 40
5.0
 10
467.6173951815
 20
35.054254058
 30
0.0
 10
467.6173951815
 20
35.054254058
 30
0.0
 10
469.9337518359
 20
32.2246926358
 30
0.0
 10
469.9337518359
 20
32.2246926358
 30
0.0
 10
469.2821047825
 20
31.5725221711
 30
0.0
 10
468.5052315785
 20
30.8366059003
 30
0.0
 10
467.5340419339
 20
30.8366059003
 30
0.0
 10
466.5355040494
 20
30.8366059003
 30
0.0
 10
465.5921860559
 20
31.7661843476
 30
0.0
 10
465.5921860559
 20
32.7653764961
 30
0.0
 10
465.5921860559
 20
33.7645686447
 30
0.0
 10
466.771039129
 20
34.4711738833
 30
0.0
 10
467.4925615893
 20
34.9710316632
 30
0.0
 10
467.4925615893
 20
34.9710316632
 30
0.0
 10
467.6173951815
 20
35.054254058
 30
0.0
 10
467.6173951815
 20
35.054254058
 30
0.0
  0
SPLINE
  5
245
330
20B
100
AcDbEntity
  8
0
  6
Continuous
 62
     7
100
AcDbSpline
 70
     3
 71
     3
 72
    23
 73
    19
 74
     0
 42
0.000000001
 43
0.0000001
 40
0.0
 40
0.0
 40
0.0
 40
0.0
 40
1.0
 40
1.0
 40
1.0
 40
2.0
 40
2.0
 40
2.0
 40
3.0
 40
3.0
 40
3.0
 40
4.0
 40
4.0
 40
4.0
 40
5.0
 40
5.0
 40
5.0
 40
6.0
 40
6.0
 40
6.0
 40
6.0
 10
467.894803164
 20
36.6920079777
 30
0.0
 10
467.894803164
 20
36.6920079777
 30
0.0
 10
467.5483048915
 20
37.1353373386
 30
0.0
 10
467.5483048915
 20
37.1353373386
 30
0.0
 10
467.2425018465
 20
37.5234468085
 30
0.0
 10
466.9236135194
 20
37.9119488369
 30
0.0
 10
466.9236135194
 20
38.438893151
 30
0.0
 10
466.9236135194
 20
39.1050648676
 30
0.0
 10
467.4649516439
 20
39.5487867869
 30
0.0
 10
468.088857899
 20
39.5487867869
 30
0.0
 10
468.7826395611
 20
39.5487867869
 30
0.0
 10
469.3098455808
 20
39.1465452122
 30
0.0
 10
469.3098455808
 20
38.4115449112
 30
0.0
 10
469.3098455808
 20
37.6482804007
 30
0.0
 10
468.5885848261
 20
37.2181671749
 30
0.0
 10
468.0615096592
 20
36.8024477595
 30
0.0
 10
468.0615096592
 20
36.8024477595
 30
0.0
 10
467.894803164
 20
36.6920079777
 30
0.0
 10
467.894803164
 20
36.6920079777
 30
0.0
  0
SPLINE
  5
246
330
20B
100
AcDbEntity
  8
0
  6
Continuous
 62
     7
100
AcDbSpline
 70
     3
 71
     3
 72
    50
 73
    46
 74
     0
 42
0.000000001
 43
0.0000001
 40
0.0
 40
0.0
 40
0.0
 40
0.0
 40
1.0
 40
1.0
 40
1.0
 40
2.0
 40
2.0
 40
2.0
 40
3.0
 40
3.0
 40
3.0
 40
4.0
 40
4.0
 40
4.0
 40
5.0
 40
5.0
 40
5.0
 40
6.0
 40
6.0
 40
6.0
 40
7.0
 40
7.0
 40
7.0
 40
8.0
 40
8.0
 40
8.0
 40
9.0
 40
9.0
 40
9.0
 40
10.0
 40
10.0
 40
10.0
 40
11.0
 40
11.0
 40
11.0
 40
12.0
 40
12.0
 40
12.0
 40
13.0
 40
13.0
 40
13.0
 40
14.0
 40
14.0
 40
14.0
 40
15.0
 40
15.0
 40
15.0
 40
15.0
 10
471.848390327
 20
29.8934187596
 30
0.0
 10
471.848390327
 20
29.8934187596
 30
0.0
 10
473.4576183315
 20
29.8934187596
 30
0.0
 10
473.4576183315
 20
29.8934187596
 30
0.0
 10
473.4576183315
 20
29.8934187596
 30
0.0
 10
471.5845910379
 20
32.210560531
 30
0.0
 10
471.5845910379
 20
32.210560531
 30
0.0
 10
471.5845910379
 20
32.210560531
 30
0.0
 10
472.8609294633
 20
33.7080402256
 30
0.0
 10
472.8609294633
 20
33.7080402256
 30
0.0
 10
472.8609294633
 20
33.7080402256
 30
0.0
 10
472.0287055156
 20
34.5690517941
 30
0.0
 10
472.0287055156
 20
34.5690517941
 30
0.0
 10
472.0287055156
 20
34.5690517941
 30
0.0
 10
470.8081103923
 20
33.1537476717
 30
0.0
 10
470.8081103923
 20
33.1537476717
 30
0.0
 10
470.8081103923
 20
33.1537476717
 30
0.0
 10
468.6301960235
 20
35.7891235061
 30
0.0
 10
468.6301960235
 20
35.7891235061
 30
0.0
 10
469.5037694629
 20
36.4271618661
 30
0.0
 10
470.5304407041
 20
37.2181671749
 30
0.0
 10
470.5304407041
 20
38.397020248
 30
0.0
 10
470.5304407041
 20
39.770713173
 30
0.0
 10
469.3925445643
 20
40.5751963224
 30
0.0
 10
468.1172529614
 20
40.5751963224
 30
0.0
 10
466.743821742
 20
40.5751963224
 30
0.0
 10
465.7028875433
 20
39.7289711228
 30
0.0
 10
465.7028875433
 20
38.2863187606
 30
0.0
 10
465.7028875433
 20
37.3987440692
 30
0.0
 10
466.2582269197
 20
36.6218708652
 30
0.0
 10
466.8543923766
 20
35.9974411987
 30
0.0
 10
466.8543923766
 20
35.9974411987
 30
0.0
 10
466.2024836175
 20
35.5258476284
 30
0.0
 10
466.2024836175
 20
35.5258476284
 30
0.0
 10
465.2039457331
 20
34.8045868737
 30
0.0
 10
464.3710675213
 20
34.083326119
 30
0.0
 10
464.3710675213
 20
32.7517678026
 30
0.0
 10
464.3710675213
 20
30.9480925046
 30
0.0
 10
465.8281136939
 20
29.6714923735
 30
0.0
 10
467.5756531313
 20
29.6714923735
 30
0.0
 10
468.8105112122
 20
29.6714923735
 30
0.0
 10
469.9198814368
 20
30.379667846
 30
0.0
 10
470.7107558928
 20
31.3081994707
 30
0.0
 10
470.7107558928
 20
31.3081994707
 30
0.0
 10
471.848390327
 20
29.8934187596
 30
0.0
 10
471.848390327
 20
29.8934187596
 30
0.0
  0
LINE
  5
247
330
20B
100
AcDbEntity
  8
0
  6
Continuous
 62
     7
100
AcDbLine
 10
457.651251702
 20
27.8672936642
 30
0.0
 11
480.0651624296
 21
27.8672936642
 31
0.0
  0
LINE
  5
248
330
20B
100
AcDbEntity
  8
0
  6
Continuous
 62
     7
100
AcDbLine
 10
480.0651624296
 20
27.8672936642
 30
0.0
 11
480.0651624296
 21
50.2812043919
 31
0.0
  0
LINE
  5
249
330
20B
100
AcDbEntity
  8
0
  6
Continuous
 62
     7
100
AcDbLine
 10
480.0651624296
 20
50.2812043919
 30
0.0
 11
457.651251702
 21
50.2812043919
 31
0.0
  0
LINE
  5
24A
330
20B
100
AcDbEntity
  8
0
  6
Continuous
 62
     7
100
AcDbLine
 10
457.651251702
 20
50.2812043919
 30
0.0
 11
457.651251702
 21
27.8672936642
 31
0.0
  0
ENDBLK
  5
24B
330
20B
100
AcDbEntity
  8
0
  6
ByBlock
 62
     0
100
AcDbBlockEnd
  0
BLOCK
  5
24C
330
20C
100
AcDbEntity
  8
0
100
AcDbBlockBegin
  2
PROIEZIONE_EU_BL0
 70
     0
 10
470.0320945946
 20
62.7825168919
 30
0.0
  3
PROIEZIONE_EU_BL0
  1

  0
LWPOLYLINE
  5
24D
330
20C
100
AcDbEntity
  8
DEFAULT_1
  6
CENTER
 62
     7
100
AcDbPolyline
 90
        2
 70
     0
 43
0.25
 10
476.1587152563
 20
67.7822110238
 10
476.1587562386
 20
57.78282276
  0
LWPOLYLINE
  5
24E
330
20C
100
AcDbEntity
  8
DEFAULT_1
  6
CENTER
 62
     7
100
AcDbPolyline
 90
        2
 70
     0
 43
0.25
 10
482.1587450813
 20
62.782788027
 10
457.9054441079
 20
62.7825173666
  0
LWPOLYLINE
  5
24F
330
20C
100
AcDbEntity
  8
0
  6
Continuous
 62
     7
100
AcDbPolyline
 90
        2
 70
     1
 43
0.25
 10
472.6116050804
 20
62.7639691377
 42
1.0
 10
479.7179341791
 20
62.7639691377
 42
1.0
  0
LWPOLYLINE
  5
250
330
20C
100
AcDbEntity
  8
0
  6
Continuous
 62
     7
100
AcDbPolyline
 90
        2
 70
     1
 43
0.25
 10
474.1613489088
 20
62.7818671823
 42
1.0
 10
478.1731006589
 20
62.7818671823
 42
1.0
  0
LWPOLYLINE
  5
251
330
20C
100
AcDbEntity
  8
0
  6
Continuous
 62
     7
100
AcDbPolyline
 90
        2
 70
     0
 43
0.25
 10
470.1587428753
 20
66.3577203871
 10
470.1587425207
 20
59.2575174788
  0
LWPOLYLINE
  5
252
330
20C
100
AcDbEntity
  8
0
  6
Continuous
 62
     7
100
AcDbPolyline
 90
        2
 70
     0
 43
0.25
 10
470.1587709571
 20
59.2574890424
 10
460.1642136859
 20
60.7775824553
  0
LWPOLYLINE
  5
253
330
20C
100
AcDbEntity
  8
0
  6
Continuous
 62
     7
100
AcDbPolyline
 90
        2
 70
     0
 43
0.25
 10
460.1619037003
 20
60.7769049137
 10
460.1592367962
 20
64.7825435252
  0
LWPOLYLINE
  5
254
330
20C
100
AcDbEntity
  8
0
  6
Continuous
 62
     7
100
AcDbPolyline
 90
        2
 70
     0
 43
0.25
 10
460.1592285202
 20
64.7825352491
 10
470.1589717575
 20
66.3576924692
  0
ENDBLK
  5
255
330
20C
100
AcDbEntity
  8
0
  6
ByBlock
 62
     0
100
AcDbBlockEnd
  0
ENDSEC
  0
SECTION
  2
ENTITIES
  0
LINE
  5
277
330
206
100
AcDbEntity
 67
     1
  8
0
  6
Continuous
 62
     7
100
AcDbLine
 10
0.0
 20
0.0
 30
0.0
 11
594.0
 21
0.0
 31
0.0
  0
LINE
  5
278
330
206
100
AcDbEntity
 67
     1
  8
0
  6
Continuous
 62
     7
100
AcDbLine
 10
594.0
 20
0.0
 30
0.0
 11
594.0
 21
420.0
 31
0.0
  0
LINE
  5
279
330
206
100
AcDbEntity
 67
     1
  8
0
  6
Continuous
 62
     7
100
AcDbLine
 10
0.0
 20
420.0
 30
0.0
 11
594.0
 21
420.0
 31
0.0
  0
LINE
  5
27A
330
206
100
AcDbEntity
 67
     1
  8
0
  6
Continuous
 62
     7
100
AcDbLine
 10
0.0
 20
0.0
 30
0.0
 11
0.0
 21
420.0
 31
0.0
  0
VIEWPORT
  5
27B
330
206
100
AcDbEntity
 67
     1
  8
0
100
AcDbViewport
 10
297.0
 20
210.0
 30
0.0
 40
594.0
 41
420.0
 68
     1
 69
     1
 12
297.0
 22
210.0
 13
0.0
 23
0.0
 14
10.0
 24
10.0
 15
10.0
 25
10.0
 16
0.0
 26
0.0
 36
1.0
 17
0.0
 27
0.0
 37
0.0
 42
50.0
 43
0.0
 44
0.0
 45
420.0
 50
0.0
 51
0.0
 72
   100
 90
    32864
  1

281
     0
 71
     1
 74
     0
110
0.0
120
0.0
130
0.0
111
1.0
121
0.0
131
0.0
112
0.0
122
1.0
132
0.0
 79
     0
146
0.0
170
     0
 61
     5
348
32B
292
     1
282
     1
141
0.0
142
0.0
 63
   256
  0
LINE
  5
27C
330
206
100
AcDbEntity
 67
     1
  8
7_ALL_FEATURES
  6
Continuous
 62
     7
100
AcDbLine
 10
171.9161402027
 20
33.1817206648
 30
0.0
 11
171.9161402027
 21
36.1817206648
 31
0.0
  0
LINE
  5
27D
330
206
100
AcDbEntity
 67
     1
  8
7_ALL_FEATURES
  6
Continuous
 62
     7
100
AcDbLine
 10
171.9161402027
 20
33.1817206648
 30
0.0
 11
169.9161402027
 21
33.1817206648
 31
0.0
  0
LINE
  5
27E
330
206
100
AcDbEntity
 67
     1
  8
7_ALL_FEATURES
  6
Continuous
 62
     7
100
AcDbLine
 10
171.9161402027
 20
287.8034989298
 30
0.0
 11
199.5361402027
 21
287.8034989298
 31
0.0
  0
LINE
  5
27F
330
206
100
AcDbEntity
 67
     1
  8
7_ALL_FEATURES
  6
Continuous
 62
     7
100
AcDbLine
 10
199.5361402027
 20
287.8034989298
 30
0.0
 11
203.0628517165
 21
287.8034989298
 31
0.0
  0
LINE
  5
280
330
206
100
AcDbEntity
 67
     1
  8
7_ALL_FEATURES
  6
Continuous
 62
     7
100
AcDbLine
 10
203.0628517165
 20
287.8034989298
 30
0.0
 11
203.5361402027
 21
287.8034989298
 31
0.0
  0
LINE
  5
281
330
206
100
AcDbEntity
 67
     1
  8
7_ALL_FEATURES
  6
Continuous
 62
     7
100
AcDbLine
 10
203.5361402027
 20
287.8034989298
 30
0.0
 11
205.5361402027
 21
287.8034989298
 31
0.0
  0
LINE
  5
282
330
206
100
AcDbEntity
 67
     1
  8
7_ALL_FEATURES
  6
Continuous
 62
     7
100
AcDbLine
 10
171.9161402027
 20
87.8034989298
 30
0.0
 11
171.9161402027
 21
287.8034989298
 31
0.0
  0
LINE
  5
283
330
206
100
AcDbEntity
 67
     1
  8
7_ALL_FEATURES
  6
Continuous
 62
     7
100
AcDbLine
 10
171.9161402027
 20
36.1817206648
 30
0.0
 11
171.9161402027
 21
87.8034989298
 31
0.0
  0
LINE
  5
284
330
206
100
AcDbEntity
 67
     1
  8
7_ALL_FEATURES
  6
Continuous
 62
     7
100
AcDbLine
 10
205.5361402027
 20
289.8034989298
 30
0.0
 11
205.5361402027
 21
287.8034989298
 31
0.0
  0
SPLINE
  5
285
330
206
100
AcDbEntity
 67
     1
  8
7_ALL_FEATURES
  6
Continuous
 62
     7
100
AcDbSpline
 70
     0
 71
     3
 72
     9
 73
     5
 74
     0
 42
0.000000001
 43
0.0000001
 40
0.0
 40
0.0
 40
0.0
 40
0.0
 40
0.6547660496
 40
1.0
 40
1.0
 40
1.0
 40
1.0
 10
173.9161402027
 20
35.2377125671
 30
0.0
 10
173.5900914976
 20
34.6997182623
 30
0.0
 10
172.9511762068
 20
33.9602431171
 30
0.0
 10
172.1884618401
 20
33.3675222452
 30
0.0
 10
171.9161402027
 20
33.1817206648
 30
0.0
  0
LINE
  5
286
330
206
100
AcDbEntity
 67
     1
  8
7_ALL_FEATURES
  6
Continuous
 62
     7
100
AcDbLine
 10
171.9161402027
 20
33.1817206648
 30
0.0
 11
169.9161402027
 21
33.1817206648
 31
0.0
  0
ARC
  5
287
330
206
100
AcDbEntity
 67
     1
  8
7_ALL_FEATURES
  6
Continuous
 62
     7
100
AcDbCircle
 10
169.3945475491
 20
39.1817206648
 30
0.0
 40
6.0
100
AcDbArc
 50
318.9030840469
 51
330.0
  0
LINE
  5
288
330
206
100
AcDbEntity
 67
     1
  8
7_ALL_FEATURES
  6
Continuous
 62
     7
100
AcDbLine
 10
204.3945475491
 20
87.8034989298
 30
0.0
 11
174.5906999718
 21
36.1817206648
 31
0.0
  0
LINE
  5
289
330
206
100
AcDbEntity
 67
     1
  8
7_ALL_FEATURES
  6
Continuous
 62
     7
100
AcDbLine
 10
204.3945475491
 20
287.8034989298
 30
0.0
 11
204.3945475491
 21
87.8034989298
 31
0.0
  0
LINE
  5
28A
330
206
100
AcDbEntity
 67
     1
  8
7_ALL_FEATURES
  6
Continuous
 62
     9
100
AcDbLine
 10
169.9161402027
 20
36.1817206648
 30
0.0
 11
171.9161402027
 21
36.1817206648
 31
0.0
  0
LINE
  5
28B
330
206
100
AcDbEntity
 67
     1
  8
7_ALL_FEATURES
  6
Continuous
 62
     7
100
AcDbLine
 10
169.9161402027
 20
87.8034989298
 30
0.0
 11
171.9161402027
 21
87.8034989298
 31
0.0
  0
LINE
  5
28C
330
206
100
AcDbEntity
 67
     1
  8
7_ALL_FEATURES
  6
Continuous
 62
     9
100
AcDbLine
 10
171.9161402027
 20
287.8034989298
 30
0.0
 11
169.9161402027
 21
287.8034989298
 31
0.0
  0
LINE
  5
28D
330
206
100
AcDbEntity
 67
     1
  8
7_ALL_FEATURES
  6
Continuous
 62
     9
100
AcDbLine
 10
199.5361402027
 20
289.8034989298
 30
0.0
 11
199.5361402027
 21
287.8034989298
 31
0.0
  0
LINE
  5
28E
330
206
100
AcDbEntity
 67
     1
  8
7_ALL_FEATURES
  6
Continuous
 62
     9
100
AcDbLine
 10
173.9161402027
 20
35.2377125671
 30
0.0
 11
173.9161402027
 21
287.8034989298
 31
0.0
  0
LINE
  5
28F
330
206
100
AcDbEntity
 67
     1
  8
7_ALL_FEATURES
  6
Continuous
 62
     9
100
AcDbLine
 10
171.9161402027
 20
287.8034989298
 30
0.0
 11
171.9161402027
 21
289.8034989298
 31
0.0
  0
LINE
  5
290
330
206
100
AcDbEntity
 67
     1
  8
7_ALL_FEATURES
  6
Continuous
 62
     3
100
AcDbLine
 10
169.9161402027
 20
33.1817206648
 30
0.0
 11
169.9161402027
 21
36.1817206648
 31
0.0
  0
LINE
  5
291
330
206
100
AcDbEntity
 67
     1
  8
7_ALL_FEATURES
  6
Continuous
 62
     3
100
AcDbLine
 10
169.9161402027
 20
87.8034989298
 30
0.0
 11
169.9161402027
 21
287.8034989298
 31
0.0
  0
LINE
  5
292
330
206
100
AcDbEntity
 67
     1
  8
7_ALL_FEATURES
  6
Continuous
 62
     3
100
AcDbLine
 10
169.9161402027
 20
36.1817206648
 30
0.0
 11
169.9161402027
 21
87.8034989298
 31
0.0
  0
LINE
  5
293
330
206
100
AcDbEntity
 67
     1
  8
7_ALL_FEATURES
  6
Continuous
 62
     3
100
AcDbLine
 10
199.5361402027
 20
289.8034989298
 30
0.0
 11
203.0628517165
 21
289.8034989298
 31
0.0
  0
LINE
  5
294
330
206
100
AcDbEntity
 67
     1
  8
7_ALL_FEATURES
  6
Continuous
 62
     3
100
AcDbLine
 10
203.0628517165
 20
289.8034989298
 30
0.0
 11
203.5361402027
 21
289.8034989298
 31
0.0
  0
LINE
  5
295
330
206
100
AcDbEntity
 67
     1
  8
7_ALL_FEATURES
  6
Continuous
 62
     3
100
AcDbLine
 10
203.5361402027
 20
289.8034989298
 30
0.0
 11
205.5361402027
 21
289.8034989298
 31
0.0
  0
LINE
  5
296
330
206
100
AcDbEntity
 67
     1
  8
7_ALL_FEATURES
  6
Continuous
 62
     3
100
AcDbLine
 10
171.9161402027
 20
289.8034989298
 30
0.0
 11
199.5361402027
 21
289.8034989298
 31
0.0
  0
ARC
  5
297
330
206
100
AcDbEntity
 67
     1
  8
7_ALL_FEATURES
  6
Continuous
 62
     3
100
AcDbCircle
 10
171.9161402027
 20
287.8034989298
 30
0.0
 40
2.0
100
AcDbArc
 50
90.0
 51
180.0
  0
LINE
  5
298
330
206
100
AcDbEntity
 67
     1
  8
7_ALL_FEATURES
  6
Continuous
 62
     7
100
AcDbLine
 10
171.9161402027
 20
328.3794294497
 30
0.0
 11
171.9161402027
 21
358.183277027
 31
0.0
  0
LINE
  5
299
330
206
100
AcDbEntity
 67
     1
  8
7_ALL_FEATURES
  6
Continuous
 62
     7
100
AcDbLine
 10
171.9161402027
 20
358.183277027
 30
0.0
 11
199.5361402027
 21
358.183277027
 31
0.0
  0
ARC
  5
29A
330
206
100
AcDbEntity
 67
     1
  8
7_ALL_FEATURES
  6
Continuous
 62
     7
100
AcDbCircle
 10
199.5361402027
 20
352.183277027
 30
0.0
 40
6.0
100
AcDbArc
 50
0.0
 51
90.0
  0
LINE
  5
29B
330
206
100
AcDbEntity
 67
     1
  8
7_ALL_FEATURES
  6
Continuous
 62
     7
100
AcDbLine
 10
205.5361402027
 20
352.183277027
 30
0.0
 11
205.5361402027
 21
323.183277027
 31
0.0
  0
LINE
  5
29C
330
206
100
AcDbEntity
 67
     1
  8
7_ALL_FEATURES
  6
Continuous
 62
     7
100
AcDbLine
 10
205.5361402027
 20
323.183277027
 30
0.0
 11
205.5361402027
 21
319.183277027
 31
0.0
  0
LINE
  5
29D
330
206
100
AcDbEntity
 67
     1
  8
7_ALL_FEATURES
  6
Continuous
 62
     7
100
AcDbLine
 10
205.5361402027
 20
319.183277027
 30
0.0
 11
204.3945475491
 21
319.183277027
 31
0.0
  0
LINE
  5
29E
330
206
100
AcDbEntity
 67
     1
  8
7_ALL_FEATURES
  6
Continuous
 62
     7
100
AcDbLine
 10
173.9161402027
 20
319.183277027
 30
0.0
 11
172.5361402027
 21
319.183277027
 31
0.0
  0
LINE
  5
29F
330
206
100
AcDbEntity
 67
     1
  8
7_ALL_FEATURES
  6
Continuous
 62
     7
100
AcDbLine
 10
172.5361402027
 20
319.183277027
 30
0.0
 11
172.5361402027
 21
319.4635168214
 31
0.0
  0
LINE
  5
2A0
330
206
100
AcDbEntity
 67
     1
  8
7_ALL_FEATURES
  6
Continuous
 62
     7
100
AcDbLine
 10
172.5361402027
 20
321.7723810159
 30
0.0
 11
172.5361402027
 21
323.183277027
 31
0.0
  0
LINE
  5
2A1
330
206
100
AcDbEntity
 67
     1
  8
7_ALL_FEATURES
  6
Continuous
 62
     7
100
AcDbLine
 10
172.5361402027
 20
323.183277027
 30
0.0
 11
171.9161402027
 21
323.183277027
 31
0.0
  0
ARC
  5
2A2
330
206
100
AcDbEntity
 67
     1
  8
7_ALL_FEATURES
  6
Continuous
 62
     7
100
AcDbCircle
 10
199.5361402027
 20
352.183277027
 30
0.0
 40
4.0
100
AcDbArc
 50
90.0
 51
270.0
  0
ARC
  5
2A3
330
206
100
AcDbEntity
 67
     1
  8
7_ALL_FEATURES
  6
Continuous
 62
     7
100
AcDbCircle
 10
199.5361402027
 20
352.183277027
 30
0.0
 40
4.0
100
AcDbArc
 50
270.0
 51
90.0
  0
LINE
  5
2A4
330
206
100
AcDbEntity
 67
     1
  8
7_ALL_FEATURES
  6
Continuous
 62
     7
100
AcDbLine
 10
179.5361402027
 20
329.183277027
 30
0.0
 11
189.0361402027
 21
329.183277027
 31
0.0
  0
LINE
  5
2A5
330
206
100
AcDbEntity
 67
     1
  8
7_ALL_FEATURES
  6
Continuous
 62
     7
100
AcDbLine
 10
189.0361402027
 20
329.183277027
 30
0.0
 11
189.0361402027
 21
338.683277027
 31
0.0
  0
LINE
  5
2A6
330
206
100
AcDbEntity
 67
     1
  8
7_ALL_FEATURES
  6
Continuous
 62
     7
100
AcDbLine
 10
189.0361402027
 20
338.683277027
 30
0.0
 11
179.5361402027
 21
338.683277027
 31
0.0
  0
LINE
  5
2A7
330
206
100
AcDbEntity
 67
     1
  8
7_ALL_FEATURES
  6
Continuous
 62
     7
100
AcDbLine
 10
179.5361402027
 20
338.683277027
 30
0.0
 11
179.5361402027
 21
329.183277027
 31
0.0
  0
LINE
  5
2A8
330
206
100
AcDbEntity
 67
     1
  8
7_ALL_FEATURES
  6
Continuous
 62
     7
100
AcDbLine
 10
171.9161402027
 20
323.183277027
 30
0.0
 11
171.9161402027
 21
328.3794294497
 31
0.0
  0
LINE
  5
2A9
330
206
100
AcDbEntity
 67
     1
  8
7_ALL_FEATURES
  6
Continuous
 62
     7
100
AcDbLine
 10
169.9161402027
 20
358.183277027
 30
0.0
 11
171.9161402027
 21
358.183277027
 31
0.0
  0
LINE
  5
2AA
330
206
100
AcDbEntity
 67
     1
  8
7_ALL_FEATURES
  6
Continuous
 62
     7
100
AcDbLine
 10
204.3945475491
 20
319.183277027
 30
0.0
 11
204.3945475491
 21
321.183277027
 31
0.0
  0
ARC
  5
2AB
330
206
100
AcDbEntity
 67
     1
  8
7_ALL_FEATURES
  6
Continuous
 62
     7
100
AcDbCircle
 10
173.9161402027
 20
323.183277027
 30
0.0
 40
2.0
100
AcDbArc
 50
180.0
 51
270.0
  0
LINE
  5
2AC
330
206
100
AcDbEntity
 67
     1
  8
7_ALL_FEATURES
  6
Continuous
 62
     7
100
AcDbLine
 10
174.5906999718
 20
321.183277027
 30
0.0
 11
173.9161402027
 21
321.183277027
 31
0.0
  0
LINE
  5
2AD
330
206
100
AcDbEntity
 67
     1
  8
7_ALL_FEATURES
  6
Continuous
 62
     7
100
AcDbLine
 10
204.3945475491
 20
321.183277027
 30
0.0
 11
174.5906999718
 21
321.183277027
 31
0.0
  0
LINE
  5
2AE
330
206
100
AcDbEntity
 67
     1
  8
7_ALL_FEATURES
  6
Continuous
 62
     9
100
AcDbLine
 10
174.5906999718
 20
319.183277027
 30
0.0
 11
174.5906999718
 21
321.183277027
 31
0.0
  0
LINE
  5
2AF
330
206
100
AcDbEntity
 67
     1
  8
7_ALL_FEATURES
  6
Continuous
 62
     9
100
AcDbLine
 10
171.9161402027
 20
323.183277027
 30
0.0
 11
169.9161402027
 21
323.183277027
 31
0.0
  0
LINE
  5
2B0
330
206
100
AcDbEntity
 67
     1
  8
7_ALL_FEATURES
  6
Continuous
 62
     9
100
AcDbLine
 10
169.9161402027
 20
328.3794294497
 30
0.0
 11
171.9161402027
 21
328.3794294497
 31
0.0
  0
LINE
  5
2B1
330
206
100
AcDbEntity
 67
     1
  8
7_ALL_FEATURES
  6
Continuous
 62
     7
100
AcDbLine
 10
173.9161402027
 20
321.183277027
 30
0.0
 11
173.9161402027
 21
319.183277027
 31
0.0
  0
LINE
  5
2B2
330
206
100
AcDbEntity
 67
     1
  8
7_ALL_FEATURES
  6
Continuous
 62
     3
100
AcDbLine
 10
169.9161402027
 20
328.3794294497
 30
0.0
 11
169.9161402027
 21
358.183277027
 31
0.0
  0
LINE
  5
2B3
330
206
100
AcDbEntity
 67
     1
  8
7_ALL_FEATURES
  6
Continuous
 62
     3
100
AcDbLine
 10
169.9161402027
 20
323.183277027
 30
0.0
 11
169.9161402027
 21
328.3794294497
 31
0.0
  0
ARC
  5
2B4
330
206
100
AcDbEntity
 67
     1
  8
7_ALL_FEATURES
  6
Continuous
 62
     3
100
AcDbCircle
 10
173.9161402027
 20
323.183277027
 30
0.0
 40
4.0
100
AcDbArc
 50
180.0
 51
270.0
  0
LINE
  5
2B5
330
206
100
AcDbEntity
 67
     1
  8
7_ALL_FEATURES
  6
Continuous
 62
     3
100
AcDbLine
 10
204.3945475491
 20
319.183277027
 30
0.0
 11
174.5906999718
 21
319.183277027
 31
0.0
  0
LINE
  5
2B6
330
206
100
AcDbEntity
 67
     1
  8
7_ALL_FEATURES
  6
Continuous
 62
     3
100
AcDbLine
 10
174.5906999718
 20
319.183277027
 30
0.0
 11
173.9161402027
 21
319.183277027
 31
0.0
  0
LINE
  5
2B7
330
206
100
AcDbEntity
 67
     1
  8
7_ALL_FEATURES
  6
Continuous
 62
     7
100
AcDbLine
 10
81.6530827703
 20
287.8034989298
 30
0.0
 11
83.6530827703
 21
287.8034989298
 31
0.0
  0
LINE
  5
2B8
330
206
100
AcDbEntity
 67
     1
  8
7_ALL_FEATURES
  6
Continuous
 62
     7
100
AcDbLine
 10
83.6530827703
 20
287.8034989298
 30
0.0
 11
84.1263712565
 21
287.8034989298
 31
0.0
  0
LINE
  5
2B9
330
206
100
AcDbEntity
 67
     1
  8
7_ALL_FEATURES
  6
Continuous
 62
     7
100
AcDbLine
 10
84.1263712565
 20
287.8034989298
 30
0.0
 11
87.6530827703
 21
287.8034989298
 31
0.0
  0
LINE
  5
2BA
330
206
100
AcDbEntity
 67
     1
  8
7_ALL_FEATURES
  6
Continuous
 62
     7
100
AcDbLine
 10
81.6530827703
 20
287.8034989298
 30
0.0
 11
81.6530827703
 21
289.8034989298
 31
0.0
  0
LINE
  5
2BB
330
206
100
AcDbEntity
 67
     1
  8
7_ALL_FEATURES
  6
Continuous
 62
     7
100
AcDbLine
 10
87.6530827703
 20
287.8034989298
 30
0.0
 11
116.6530827703
 21
287.8034989298
 31
0.0
  0
LINE
  5
2BC
330
206
100
AcDbEntity
 67
     1
  8
7_ALL_FEATURES
  6
Continuous
 62
     7
100
AcDbLine
 10
116.6530827703
 20
287.8034989298
 30
0.0
 11
120.6530827703
 21
287.8034989298
 31
0.0
  0
LINE
  5
2BD
330
206
100
AcDbEntity
 67
     1
  8
7_ALL_FEATURES
  6
Continuous
 62
     7
100
AcDbLine
 10
81.6530827703
 20
87.8034989298
 30
0.0
 11
81.6530827703
 21
287.8034989298
 31
0.0
  0
LINE
  5
2BE
330
206
100
AcDbEntity
 67
     1
  8
7_ALL_FEATURES
  6
Continuous
 62
     7
100
AcDbLine
 10
111.4569303476
 20
36.1817206648
 30
0.0
 11
81.6530827703
 21
87.8034989298
 31
0.0
  0
ARC
  5
2BF
330
206
100
AcDbEntity
 67
     1
  8
7_ALL_FEATURES
  6
Continuous
 62
     7
100
AcDbCircle
 10
116.6530827703
 20
39.1817206648
 30
0.0
 40
6.0
100
AcDbArc
 50
210.0
 51
270.0
  0
LINE
  5
2C0
330
206
100
AcDbEntity
 67
     1
  8
7_ALL_FEATURES
  6
Continuous
 62
     7
100
AcDbLine
 10
120.6530827703
 20
289.8034989298
 30
0.0
 11
120.6530827703
 21
287.8034989298
 31
0.0
  0
LINE
  5
2C1
330
206
100
AcDbEntity
 67
     1
  8
7_ALL_FEATURES
  6
Continuous
 62
     7
100
AcDbLine
 10
81.6530827703
 20
289.8034989298
 30
0.0
 11
81.6530827703
 21
287.8034989298
 31
0.0
  0
LINE
  5
2C2
330
206
100
AcDbEntity
 67
     1
  8
7_ALL_FEATURES
  6
Continuous
 62
     7
100
AcDbLine
 10
118.6530827703
 20
287.8034989298
 30
0.0
 11
118.6530827703
 21
87.8034989298
 31
0.0
  0
LINE
  5
2C3
330
206
100
AcDbEntity
 67
     1
  8
7_ALL_FEATURES
  6
Continuous
 62
     7
100
AcDbLine
 10
118.6530827703
 20
87.8034989298
 30
0.0
 11
118.6530827703
 21
36.1817206648
 31
0.0
  0
LINE
  5
2C4
330
206
100
AcDbEntity
 67
     1
  8
7_ALL_FEATURES
  6
Continuous
 62
     7
100
AcDbLine
 10
118.6530827703
 20
36.1817206648
 30
0.0
 11
118.6530827703
 21
35.2377125671
 31
0.0
  0
SPLINE
  5
2C5
330
206
100
AcDbEntity
 67
     1
  8
7_ALL_FEATURES
  6
Continuous
 62
     7
100
AcDbSpline
 70
     0
 71
     3
 72
    12
 73
     8
 74
     0
 42
0.000000001
 43
0.0000001
 40
0.0
 40
0.0
 40
0.0
 40
0.0
 40
0.2423904664
 40
0.3556386705
 40
0.4679234532
 40
0.7120139491
 40
1.0
 40
1.0
 40
1.0
 40
1.0
 10
118.6530827703
 20
35.2377125671
 30
0.0
 10
118.6530827703
 20
34.9733873427
 30
0.0
 10
118.6272510225
 20
34.5804701931
 30
0.0
 10
118.4571799776
 20
34.0955856534
 30
0.0
 10
118.1743343224
 20
33.6612652454
 30
0.0
 10
117.5548345078
 20
33.2676116046
 30
0.0
 10
116.9671296825
 20
33.1817206648
 30
0.0
 10
116.6530827703
 20
33.1817206648
 30
0.0
  0
LINE
  5
2C6
330
206
100
AcDbEntity
 67
     1
  8
7_ALL_FEATURES
  6
Continuous
 62
     9
100
AcDbLine
 10
116.6530827703
 20
33.1817206648
 30
0.0
 11
116.6530827703
 21
287.8034989298
 31
0.0
  0
LINE
  5
2C7
330
206
100
AcDbEntity
 67
     1
  8
7_ALL_FEATURES
  6
Continuous
 62
     7
100
AcDbLine
 10
118.6530827703
 20
35.2377125671
 30
0.0
 11
120.6530827703
 21
35.2377125671
 31
0.0
  0
LINE
  5
2C8
330
206
100
AcDbEntity
 67
     1
  8
7_ALL_FEATURES
  6
Continuous
 62
     9
100
AcDbLine
 10
120.6530827703
 20
36.1817206648
 30
0.0
 11
118.6530827703
 21
36.1817206648
 31
0.0
  0
LINE
  5
2C9
330
206
100
AcDbEntity
 67
     1
  8
7_ALL_FEATURES
  6
Continuous
 62
     9
100
AcDbLine
 10
87.6530827703
 20
289.8034989298
 30
0.0
 11
87.6530827703
 21
287.8034989298
 31
0.0
  0
LINE
  5
2CA
330
206
100
AcDbEntity
 67
     1
  8
7_ALL_FEATURES
  6
Continuous
 62
     7
100
AcDbLine
 10
120.6530827703
 20
87.8034989298
 30
0.0
 11
118.6530827703
 21
87.8034989298
 31
0.0
  0
LINE
  5
2CB
330
206
100
AcDbEntity
 67
     1
  8
7_ALL_FEATURES
  6
Continuous
 62
     9
100
AcDbLine
 10
116.6530827703
 20
289.8034989298
 30
0.0
 11
116.6530827703
 21
287.8034989298
 31
0.0
  0
LINE
  5
2CC
330
206
100
AcDbEntity
 67
     1
  8
7_ALL_FEATURES
  6
Continuous
 62
     3
100
AcDbLine
 10
81.6530827703
 20
289.8034989298
 30
0.0
 11
83.6530827703
 21
289.8034989298
 31
0.0
  0
LINE
  5
2CD
330
206
100
AcDbEntity
 67
     1
  8
7_ALL_FEATURES
  6
Continuous
 62
     3
100
AcDbLine
 10
83.6530827703
 20
289.8034989298
 30
0.0
 11
84.1263712565
 21
289.8034989298
 31
0.0
  0
LINE
  5
2CE
330
206
100
AcDbEntity
 67
     1
  8
7_ALL_FEATURES
  6
Continuous
 62
     3
100
AcDbLine
 10
84.1263712565
 20
289.8034989298
 30
0.0
 11
87.6530827703
 21
289.8034989298
 31
0.0
  0
LINE
  5
2CF
330
206
100
AcDbEntity
 67
     1
  8
7_ALL_FEATURES
  6
Continuous
 62
     3
100
AcDbLine
 10
116.6530827703
 20
289.8034989298
 30
0.0
 11
120.6530827703
 21
289.8034989298
 31
0.0
  0
LINE
  5
2D0
330
206
100
AcDbEntity
 67
     1
  8
7_ALL_FEATURES
  6
Continuous
 62
     3
100
AcDbLine
 10
87.6530827703
 20
289.8034989298
 30
0.0
 11
116.6530827703
 21
289.8034989298
 31
0.0
  0
SPLINE
  5
2D1
330
206
100
AcDbEntity
 67
     1
  8
7_ALL_FEATURES
  6
Continuous
 62
     3
100
AcDbSpline
 70
     0
 71
     3
 72
    13
 73
     9
 74
     0
 42
0.000000001
 43
0.0000001
 40
0.0
 40
0.0
 40
0.0
 40
0.0
 40
0.1001868181
 40
0.1929015998
 40
0.3979559215
 40
0.5267570514
 40
0.6731470315
 40
1.0
 40
1.0
 40
1.0
 40
1.0
 10
120.6530827703
 20
35.2377125671
 30
0.0
 10
120.6530827703
 20
35.0706733091
 30
0.0
 10
120.6239171861
 20
34.7464724927
 30
0.0
 10
120.3555547024
 20
34.1234733472
 30
0.0
 10
119.7300556934
 20
33.6957738055
 30
0.0
 10
118.9753677131
 20
33.4382873137
 30
0.0
 10
117.9892731723
 20
33.2323163251
 30
0.0
 10
117.1980374695
 20
33.1817206648
 30
0.0
 10
116.6530827703
 20
33.1817206648
 30
0.0
  0
LINE
  5
2D2
330
206
100
AcDbEntity
 67
     1
  8
7_ALL_FEATURES
  6
Continuous
 62
     3
100
AcDbLine
 10
120.6530827703
 20
287.8034989298
 30
0.0
 11
120.6530827703
 21
87.8034989298
 31
0.0
  0
LINE
  5
2D3
330
206
100
AcDbEntity
 67
     1
  8
7_ALL_FEATURES
  6
Continuous
 62
     3
100
AcDbLine
 10
120.6530827703
 20
87.8034989298
 30
0.0
 11
120.6530827703
 21
36.1817206648
 31
0.0
  0
LINE
  5
2D4
330
206
100
AcDbEntity
 67
     1
  8
7_ALL_FEATURES
  6
Continuous
 62
     3
100
AcDbLine
 10
120.6530827703
 20
36.1817206648
 30
0.0
 11
120.6530827703
 21
35.2377125671
 31
0.0
  0
DIMENSION
  5
2D5
330
206
100
AcDbEntity
 67
     1
  8
0
  6
Continuous
 62
     2
100
AcDbDimension
280
     0
  2
*D1
 10
236.4461104013
 20
33.1817206648
 30
0.0
 11
236.4461104013
 21
161.0640396531
 31
0.0
 70
   160
 71
     2
 42
256.6217782649
 73
     0
 74
     0
 75
     0
  3
DIMSTYLE_1
100
AcDbAlignedDimension
 13
221.2091131757
 23
289.8034989298
 33
0.0
 14
221.1318496622
 24
33.1817206648
 34
0.0
 50
270.0
100
AcDbRotatedDimension
  0
DIMENSION
  5
2D6
330
206
100
AcDbEntity
 67
     1
  8
0
  6
Continuous
 62
     2
100
AcDbDimension
280
     0
  2
*D2
 10
169.9161402027
 20
375.5948927729
 30
0.0
 11
187.2975737
 21
375.5948927729
 31
0.0
 70
   160
 71
     2
 42
35.62
 73
     0
 74
     0
 75
     0
  3
DIMSTYLE_2
100
AcDbAlignedDimension
 13
205.5361402027
 23
364.3894954054
 33
0.0
 14
169.9161402027
 24
362.2520164865
 34
0.0
 50
180.0
100
AcDbRotatedDimension
  0
DIMENSION
  5
2D7
330
206
100
AcDbEntity
 67
     1
  8
0
  6
Continuous
 62
     2
100
AcDbDimension
280
     0
  2
*D3
 10
154.8167337075
 20
358.183277027
 30
0.0
 11
154.8167337075
 21
338.2547083586
 31
0.0
 70
   160
 71
     2
 42
39.0
 73
     0
 74
     0
 75
     0
  3
DIMSTYLE_2
100
AcDbAlignedDimension
 13
163.3091951069
 23
319.183277027
 33
0.0
 14
161.5593488513
 24
358.183277027
 34
0.0
 50
90.0
100
AcDbRotatedDimension
  0
LINE
  5
2D8
330
206
100
AcDbEntity
 67
     1
  8
0
  6
Continuous
 62
     2
100
AcDbLine
 10
455.0320945946
 20
71.1575168919
 30
0.0
 11
585.0320945946
 21
71.1575168919
 31
0.0
  0
LINE
  5
2D9
330
206
100
AcDbEntity
 67
     1
  8
0
  6
Continuous
 62
     2
100
AcDbLine
 10
455.0320945946
 20
71.1575168919
 30
0.0
 11
455.0320945946
 21
5.1575168919
 31
0.0
  0
LINE
  5
2DA
330
206
100
AcDbEntity
 67
     1
  8
0
  6
Continuous
 62
     2
100
AcDbLine
 10
485.0320945946
 20
63.1575168919
 30
0.0
 11
585.0320945946
 21
63.1575168919
 31
0.0
  0
LINE
  5
2DB
330
206
100
AcDbEntity
 67
     1
  8
0
  6
Continuous
 62
     2
100
AcDbLine
 10
455.0320945946
 20
55.1575168919
 30
0.0
 11
585.0320945946
 21
55.1575168919
 31
0.0
  0
LINE
  5
2DC
330
206
100
AcDbEntity
 67
     1
  8
0
  6
Continuous
 62
     2
100
AcDbLine
 10
485.0320945946
 20
49.1575168919
 30
0.0
 11
585.0320945946
 21
49.1575168919
 31
0.0
  0
LINE
  5
2DD
330
206
100
AcDbEntity
 67
     1
  8
0
  6
Continuous
 62
     2
100
AcDbLine
 10
485.0320945946
 20
43.1575168919
 30
0.0
 11
585.0320945946
 21
43.1575168919
 31
0.0
  0
LINE
  5
2DE
330
206
100
AcDbEntity
 67
     1
  8
0
  6
Continuous
 62
     2
100
AcDbLine
 10
485.0320945946
 20
37.1575168919
 30
0.0
 11
585.0320945946
 21
37.1575168919
 31
0.0
  0
LINE
  5
2DF
330
206
100
AcDbEntity
 67
     1
  8
0
  6
Continuous
 62
     2
100
AcDbLine
 10
485.0320945946
 20
31.1575168919
 30
0.0
 11
585.0320945946
 21
31.1575168919
 31
0.0
  0
LINE
  5
2E0
330
206
100
AcDbEntity
 67
     1
  8
0
  6
Continuous
 62
     2
100
AcDbLine
 10
485.0320945946
 20
25.1575168919
 30
0.0
 11
585.0320945946
 21
25.1575168919
 31
0.0
  0
LINE
  5
2E1
330
206
100
AcDbEntity
 67
     1
  8
0
  6
Continuous
 62
     2
100
AcDbLine
 10
455.0320945946
 20
19.1575168919
 30
0.0
 11
585.0320945946
 21
19.1575168919
 31
0.0
  0
LINE
  5
2E2
330
206
100
AcDbEntity
 67
     1
  8
0
  6
Continuous
 62
     2
100
AcDbLine
 10
455.0320945946
 20
13.1575168919
 30
0.0
 11
585.0320945946
 21
13.1575168919
 31
0.0
  0
LINE
  5
2E3
330
206
100
AcDbEntity
 67
     1
  8
0
  6
Continuous
 62
     2
100
AcDbLine
 10
455.0320945946
 20
9.1575168919
 30
0.0
 11
585.0320945946
 21
9.1575168919
 31
0.0
  0
LINE
  5
2E4
330
206
100
AcDbEntity
 67
     1
  8
0
  6
Continuous
 62
     2
100
AcDbLine
 10
455.0320945946
 20
5.1575168919
 30
0.0
 11
585.0320945946
 21
5.1575168919
 31
0.0
  0
LINE
  5
2E5
330
206
100
AcDbEntity
 67
     1
  8
0
  6
Continuous
 62
     2
100
AcDbLine
 10
485.0320945946
 20
71.1575168919
 30
0.0
 11
485.0320945946
 21
13.1575168919
 31
0.0
  0
LINE
  5
2E6
330
206
100
AcDbEntity
 67
     1
  8
0
  6
Continuous
 62
     2
100
AcDbLine
 10
505.0320945946
 20
55.1575168919
 30
0.0
 11
505.0320945946
 21
49.1575168919
 31
0.0
  0
LINE
  5
2E7
330
206
100
AcDbEntity
 67
     1
  8
0
  6
Continuous
 62
     2
100
AcDbLine
 10
535.0320945946
 20
25.1575168919
 30
0.0
 11
535.0320945946
 21
13.1575168919
 31
0.0
  0
LINE
  5
2E8
330
206
100
AcDbEntity
 67
     1
  8
0
  6
Continuous
 62
     2
100
AcDbLine
 10
545.0320945946
 20
55.1575168919
 30
0.0
 11
545.0320945946
 21
49.1575168919
 31
0.0
  0
LINE
  5
2E9
330
206
100
AcDbEntity
 67
     1
  8
0
  6
Continuous
 62
     2
100
AcDbLine
 10
545.0320945946
 20
43.1575168919
 30
0.0
 11
545.0320945946
 21
37.1575168919
 31
0.0
  0
LINE
  5
2EA
330
206
100
AcDbEntity
 67
     1
  8
0
  6
Continuous
 62
     2
100
AcDbLine
 10
565.0320945946
 20
55.1575168919
 30
0.0
 11
565.0320945946
 21
49.1575168919
 31
0.0
  0
LINE
  5
2EB
330
206
100
AcDbEntity
 67
     1
  8
0
  6
Continuous
 62
     2
100
AcDbLine
 10
575.0320945946
 20
43.1575168919
 30
0.0
 11
575.0320945946
 21
37.1575168919
 31
0.0
  0
LINE
  5
2EC
330
206
100
AcDbEntity
 67
     1
  8
0
  6
Continuous
 62
     2
100
AcDbLine
 10
585.0320945946
 20
71.1575168919
 30
0.0
 11
585.0320945946
 21
5.1575168919
 31
0.0
  0
INSERT
  5
2ED
330
206
100
AcDbEntity
 67
     1
  8
0
  6
Continuous
 62
     2
100
AcDbBlockReference
  2
PROIEZIONE_EU_BL0
 10
470.0320945946
 20
62.7825168919
 30
0.0
  0
MTEXT
  5
2EE
330
206
100
AcDbEntity
 67
     1
  8
9_SOLID
  6
Continuous
 62
     2
100
AcDbMText
 10
486.5195945946
 20
69.5325168919
 30
0.0
 40
1.9
 41
142.3642857143
 46
0.0
 71
     1
 72
     1
  1
EN: Chamfer/radii unlisted 0.3x45°. Remove sharp edges.\PGen. tol.: hole H11, shaft h11, lenght Js12. UNI EN 22768 Medium Grande.
 73
     1
 44
0.9
  0
MTEXT
  5
2EF
330
206
100
AcDbEntity
 67
     1
  8
9_SOLID
  6
Continuous
 62
     2
100
AcDbMText
 10
486.5195945946
 20
61.5325168919
 30
0.0
 40
1.9
 41
148.2678571429
 46
0.0
 71
     1
 72
     1
  1
IT: Sm./rac. non quotati 0.3x45°. Eliminare spigoli taglienti.\PToll. gen.: foro H11, albero h11, lunghezza Js12. UNI EN 22768 Grado Medio.
 73
     1
 44
0.9
  0
INSERT
  5
2F0
330
206
100
AcDbEntity
 67
     1
  8
0
  6
Continuous
 62
     2
100
AcDbBlockReference
  2
LOGO2_BL1
 10
468.8581416394
 20
37.1575168919
 30
0.0
  0
MTEXT
  5
2F1
330
206
100
AcDbEntity
 67
     1
  8
9_SOLID
  6
Continuous
 62
     2
100
AcDbMText
 10
486.5195945946
 20
53.4075168919
 30
0.0
 40
3.0
 41
22.6071428571
 46
0.0
 71
     1
 72
     1
  1
Pj: C90
 73
     1
 44
0.9
  0
MTEXT
  5
2F2
330
206
100
AcDbEntity
 67
     1
  8
0
  6
Continuous
 62
     2
100
AcDbMText
 10
506.5195945946
 20
53.4075168919
 30
0.0
 40
3.0
 41
41.5714285714
 46
0.0
 71
     1
 72
     1
  1
% Check:  %
 73
     1
 44
0.9
  0
MTEXT
  5
2F3
330
206
100
AcDbEntity
 67
     1
  8
9_SOLID
  6
Continuous
 62
     2
100
AcDbMText
 10
546.5195945946
 20
53.4075168919
 30
0.0
 40
3.0
 41
19.5
 46
0.0
 71
     1
 72
     1
  1
Rev:00
 73
     1
 44
0.9
  0
MTEXT
  5
2F4
330
206
100
AcDbEntity
 67
     1
  8
9_SOLID
  6
Continuous
 62
     2
100
AcDbMText
 10
566.5195945946
 20
53.6575168919
 30
0.0
 40
3.0
 41
19.7142857143
 46
0.0
 71
     1
 72
     1
  1
Ver: A
 73
     1
 44
0.9
  0
MTEXT
  5
2F5
330
206
100
AcDbEntity
 67
     1
  8
9_SOLID
  6
Continuous
 62
     2
100
AcDbMText
 10
486.5195945946
 20
47.4075168919
 30
0.0
 40
3.0
 41
73.0714285714
 46
0.0
 71
     1
 72
     1
  1
Neutral code: WP0100_C
 73
     1
 44
0.9
  0
MTEXT
  5
2F6
330
206
100
AcDbEntity
 67
     1
  8
0
  6
Continuous
 62
     2
100
AcDbMText
 10
486.5195945946
 20
41.4075168919
 30
0.0
 40
3.0
 41
22.9285714286
 46
0.0
 71
     1
 72
     1
  1
Code:  
 73
     1
 44
0.9
  0
MTEXT
  5
2F7
330
206
100
AcDbEntity
 67
     1
  8
9_SOLID
  6
Continuous
 62
     2
100
AcDbMText
 10
546.5195945946
 20
41.6575168919
 30
0.0
 40
3.0
 41
27.8571428571
 46
0.0
 71
     1
 72
     1
  1
Scale: 1:1
 73
     1
 44
0.9
  0
MTEXT
  5
2F8
330
206
100
AcDbEntity
 67
     1
  8
9_SOLID
  6
Continuous
 62
     2
100
AcDbMText
 10
580.0320945946
 20
41.6575168919
 30
0.0
 40
3.0
 41
8.25
 46
0.0
 71
     2
 72
     1
  1
A2
 73
     1
 44
0.9
  0
MTEXT
  5
2F9
330
206
100
AcDbEntity
 67
     1
  8
9_SOLID
  6
Continuous
 62
     2
100
AcDbMText
 10
486.5195945946
 20
35.4075168919
 30
0.0
 40
2.5
 41
138.4821428571
 46
0.0
 71
     1
 72
     1
  1
It descr.: PICCHETTO PER FISSAGGIO WP0100 AISI304
 73
     1
 44
0.9
  0
MTEXT
  5
2FA
330
206
100
AcDbEntity
 67
     1
  8
0
  6
Continuous
 62
     2
100
AcDbMText
 10
486.5195945946
 20
29.6575168919
 30
0.0
 40
3.0
 41
37.5
 46
0.0
 71
     1
 72
     1
  1
En descr.:  
 73
     1
 44
0.9
  0
MTEXT
  5
2FB
330
206
100
AcDbEntity
 67
     1
  8
9_SOLID
  6
Continuous
 62
     2
100
AcDbMText
 10
486.5195945946
 20
23.6575168919
 30
0.0
 40
3.0
 41
26.1428571429
 46
0.0
 71
     1
 72
     1
  1
Des.: UN
 73
     1
 44
0.9
  0
MTEXT
  5
2FC
330
206
100
AcDbEntity
 67
     1
  8
9_SOLID
  6
Continuous
 62
     2
100
AcDbMText
 10
536.5195945946
 20
23.6575168919
 30
0.0
 40
3.0
 41
22.2857142857
 46
0.0
 71
     1
 72
     1
  1
Check: 
 73
     1
 44
0.9
  0
MTEXT
  5
2FD
330
206
100
AcDbEntity
 67
     1
  8
9_SOLID
  6
Continuous
 62
     2
100
AcDbMText
 10
456.5195945946
 20
17.6575168919
 30
0.0
 40
3.0
 41
42.5357142857
 46
0.0
 71
     1
 72
     1
  1
Date: 12.12.18
 73
     1
 44
0.9
  0
MTEXT
  5
2FE
330
206
100
AcDbEntity
 67
     1
  8
0
  6
Continuous
 62
     2
100
AcDbMText
 10
486.5195945946
 20
17.6575168919
 30
0.0
 40
3.0
 41
21.75
 46
0.0
 71
     1
 72
     1
  1
Mat.:  
 73
     1
 44
0.9
  0
MTEXT
  5
2FF
330
206
100
AcDbEntity
 67
     1
  8
9_SOLID
  6
Continuous
 62
     2
100
AcDbMText
 10
536.5195945946
 20
17.1575168919
 30
0.0
 40
2.0
 41
42.3571428571
 46
0.0
 71
     1
 72
     1
  1
Disegno per catalogo
 73
     1
 44
0.9
  0
MTEXT
  5
300
330
206
100
AcDbEntity
 67
     1
  8
9_SOLID
  6
Continuous
 62
     2
100
AcDbMText
 10
456.5195945946
 20
12.0575168919
 30
0.0
 40
1.8
 41
176.2071428571
 46
0.0
 71
     1
 72
     1
  1
It: A norma di legge si diffida da qualsiasi riproduzione senza nostra autorizzazione esplicita.
 73
     1
 44
0.9
  0
MTEXT
  5
301
330
206
100
AcDbEntity
 67
     1
  8
9_SOLID
  6
Continuous
 62
     2
100
AcDbMText
 10
456.5195945946
 20
8.0575168919
 30
0.0
 40
1.8
 41
158.1428571429
 46
0.0
 71
     1
 72
     1
  1
En: According to the law, beware of any reproduction made without our authorization.
 73
     1
 44
0.9
  0
ENDSEC
  0
SECTION
  2
OBJECTS
  0
DICTIONARY
  5
C
330
0
100
AcDbDictionary
281
     1
  3
ACAD_DETAILVIEWSTYLE
350
350
  3
ACAD_GROUP
350
D
  3
ACAD_LAYOUT
350
1A
  3
ACAD_MATERIAL
350
33F
  3
ACAD_MLEADERSTYLE
350
345
  3
ACAD_MLINESTYLE
350
17
  3
ACAD_PLOTSETTINGS
350
19
  3
ACAD_PLOTSTYLENAME
350
E
  3
ACAD_SCALELIST
350
304
  3
ACAD_SECTIONVIEWSTYLE
350
351
  3
ACAD_TABLESTYLE
350
343
  3
ACAD_VISUALSTYLE
350
326
  3
ACDB_RECOMPOSE_DATA
350
34C
  3
AcDbVariableDictionary
350
348
  3
APPDATA
350
347
  0
DICTIONARY
  5
350
102
{ACAD_REACTORS
330
C
102
}
330
C
100
AcDbDictionary
281
     1
  0
DICTIONARY
  5
D
102
{ACAD_REACTORS
330
C
102
}
330
C
100
AcDbDictionary
281
     1
  0
DICTIONARY
  5
1A
102
{ACAD_REACTORS
330
C
102
}
330
C
100
AcDbDictionary
281
     1
  3
Model
350
302
  3
WP0100_C_1
350
303
  0
DICTIONARY
  5
33F
102
{ACAD_REACTORS
330
C
102
}
330
C
100
AcDbDictionary
281
     1
  3
ByBlock
350
341
  3
ByLayer
350
340
  3
Global
350
342
  0
DICTIONARY
  5
345
102
{ACAD_REACTORS
330
C
102
}
330
C
100
AcDbDictionary
281
     1
  3
Standard
350
346
  0
DICTIONARY
  5
17
102
{ACAD_REACTORS
330
C
102
}
330
C
100
AcDbDictionary
281
     1
  3
Standard
350
18
  0
DICTIONARY
  5
19
102
{ACAD_REACTORS
330
C
102
}
330
C
100
AcDbDictionary
281
     1
  0
ACDBDICTIONARYWDFLT
  5
E
102
{ACAD_REACTORS
330
C
102
}
330
C
100
AcDbDictionary
281
     1
  3
Normal
350
F
100
AcDbDictionaryWithDefault
340
F
  0
DICTIONARY
  5
304
102
{ACAD_REACTORS
330
C
102
}
330
C
100
AcDbDictionary
281
     1
  3
A0
350
305
  3
A1
350
306
  3
A2
350
307
  3
A3
350
308
  3
A4
350
309
  3
A5
350
30A
  3
A6
350
30B
  3
A7
350
30C
  3
A8
350
30D
  3
A9
350
30E
  3
B0
350
30F
  3
B1
350
310
  3
B2
350
311
  3
B3
350
312
  3
B4
350
313
  3
B5
350
314
  3
B6
350
315
  3
B7
350
316
  3
B8
350
317
  3
B9
350
318
  3
C0
350
319
  3
C1
350
31A
  3
C2
350
31B
  3
C3
350
31C
  3
C4
350
31D
  3
C5
350
31E
  3
C6
350
31F
  3
C7
350
320
  3
C8
350
321
  3
C9
350
322
  3
D0
350
323
  3
D1
350
324
  3
D2
350
325
  0
DICTIONARY
  5
351
102
{ACAD_REACTORS
330
C
102
}
330
C
100
AcDbDictionary
281
     1
  0
DICTIONARY
  5
343
102
{ACAD_REACTORS
330
C
102
}
330
C
100
AcDbDictionary
281
     1
  3
Standard
350
344
  0
DICTIONARY
  5
326
102
{ACAD_REACTORS
330
C
102
}
330
C
100
AcDbDictionary
281
     1
  3
2dWireframe
350
32B
  3
Basic
350
32E
  3
Brighten
350
332
  3
ColorChange
350
336
  3
Conceptual
350
330
  3
Dim
350
331
  3
EdgeColorOff
350
339
  3
Facepattern
350
335
  3
Flat
350
327
  3
FlatWithEdges
350
328
  3
Gouraud
350
329
  3
GouraudWithEdges
350
32A
  3
Hidden
350
32D
  3
JitterOff
350
337
  3
Linepattern
350
334
  3
OverhangOff
350
338
  3
Realistic
350
32F
  3
Shaded
350
33E
  3
Shaded with edges
350
33D
  3
Shades of Gray
350
33A
  3
Sketchy
350
33B
  3
Thicken
350
333
  3
Wireframe
350
32C
  3
X-Ray
350
33C
  0
XRECORD
  5
34C
102
{ACAD_REACTORS
330
C
102
}
330
C
100
AcDbXrecord
280
     1
 90
        1
330
344
  0
DICTIONARY
  5
348
102
{ACAD_REACTORS
330
C
102
}
330
C
100
AcDbDictionary
281
     1
  3
CANNOSCALE
350
349
  3
CMLEADERSTYLE
350
34E
  3
CTABLESTYLE
350
34D
  3
MSLTSCALE
350
34F
  0
DICTIONARY
  5
347
102
{ACAD_REACTORS
330
C
102
}
330
C
100
AcDbDictionary
281
     1
  0
LAYOUT
  5
302
102
{ACAD_REACTORS
330
1A
102
}
330
1A
100
AcDbPlotSettings
  1

  2
none_device
  4

  6

 40
0.0
 41
0.0
 42
0.0
 43
0.0
 44
594.0
 45
420.0
 46
0.0
 47
0.0
 48
0.0
 49
0.0
140
0.0
141
0.0
142
1.0
143
1.0
 70
  1024
 72
     1
 73
     0
 74
     0
  7

 75
     0
 76
     0
 77
     2
 78
   300
147
1.0
148
0.0
149
0.0
100
AcDbLayout
  1
Model
 70
     0
 71
     0
 10
0.0
 20
0.0
 11
594.0
 21
420.0
 12
0.0
 22
0.0
 32
0.0
 14
0.0
 24
0.0
 34
0.0
 15
0.0
 25
0.0
 35
0.0
146
0.0
 13
0.0
 23
0.0
 33
0.0
 16
1.0
 26
0.0
 36
0.0
 17
0.0
 27
1.0
 37
0.0
 76
     0
330
205
331
1F4
  0
LAYOUT
  5
303
102
{ACAD_REACTORS
330
1A
102
}
330
1A
100
AcDbPlotSettings
  1

  2
none_device
  4
ISO_A2_(594.00_x_420.00_MM)
  6

 40
0.0
 41
0.0
 42
0.0
 43
0.0
 44
594.0
 45
420.0
 46
0.0
 47
0.0
 48
0.0
 49
0.0
140
0.0
141
0.0
142
1.0
143
1.0
 70
     0
 72
     1
 73
     0
 74
     0
  7

 75
     0
 76
     0
 77
     2
 78
   300
147
1.0
148
0.0
149
0.0
100
AcDbLayout
  1
WP0100_C_1
 70
     0
 71
     1
 10
0.0
 20
0.0
 11
594.0
 21
420.0
 12
0.0
 22
0.0
 32
0.0
 14
0.0
 24
0.0
 34
0.0
 15
594.0
 25
420.0
 35
0.0
146
0.0
 13
0.0
 23
0.0
 33
0.0
 16
1.0
 26
0.0
 36
0.0
 17
0.0
 27
1.0
 37
0.0
 76
     0
330
206
331
27B
  0
MATERIAL
  5
341
102
{ACAD_REACTORS
330
33F
102
}
330
33F
100
AcDbMaterial
  1
ByBlock
 72
     1
 94
      127
  0
MATERIAL
  5
340
102
{ACAD_REACTORS
330
33F
102
}
330
33F
100
AcDbMaterial
  1
ByLayer
 72
     1
 94
      127
  0
MATERIAL
  5
342
102
{ACAD_REACTORS
330
33F
102
}
330
33F
100
AcDbMaterial
  1
Global
 72
     1
 94
      127
  0
MLEADERSTYLE
  5
346
102
{ACAD_REACTORS
330
345
102
}
330
345
100
AcDbMLeaderStyle
179
     2
170
     2
171
     1
172
     0
 90
        2
 40
0.0
 41
0.0
173
     1
 91
-1056964608
340
14
 92
       -2
290
     1
 42
2.0
291
     1
 43
8.0
  3
Standard
341
0
 44
4.0
300

342
11
174
     1
178
     1
175
     1
176
     0
 93
-1056964608
 45
4.0
292
     0
297
     0
 46
4.0
343
0
 94
-1056964608
 47
1.0
 49
1.0
140
1.0
293
     1
141
0.0
294
     1
177
     0
142
1.0
295
     0
296
     0
143
3.75
271
     0
272
     9
273
     9
298
     0
  0
MLINESTYLE
  5
18
102
{ACAD_REACTORS
330
17
102
}
330
17
100
AcDbMlineStyle
  2
STANDARD
 70
     0
  3

 62
   256
 51
90.0
 52
90.0
 71
     2
 49
0.5
 62
   256
  6
BYLAYER
 49
-0.5
 62
   256
  6
BYLAYER
  0
ACDBPLACEHOLDER
  5
F
102
{ACAD_REACTORS
330
E
102
}
330
E
  0
SCALE
  5
305
102
{ACAD_REACTORS
330
304
102
}
330
304
100
AcDbScale
 70
     0
300
1:1
140
1.0
141
1.0
290
     1
  0
SCALE
  5
306
102
{ACAD_REACTORS
330
304
102
}
330
304
100
AcDbScale
 70
     0
300
1:2
140
1.0
141
2.0
290
     0
  0
SCALE
  5
307
102
{ACAD_REACTORS
330
304
102
}
330
304
100
AcDbScale
 70
     0
300
1:4
140
1.0
141
4.0
290
     0
  0
SCALE
  5
308
102
{ACAD_REACTORS
330
304
102
}
330
304
100
AcDbScale
 70
     0
300
1:5
140
1.0
141
5.0
290
     0
  0
SCALE
  5
309
102
{ACAD_REACTORS
330
304
102
}
330
304
100
AcDbScale
 70
     0
300
1:8
140
1.0
141
8.0
290
     0
  0
SCALE
  5
30A
102
{ACAD_REACTORS
330
304
102
}
330
304
100
AcDbScale
 70
     0
300
1:10
140
1.0
141
10.0
290
     0
  0
SCALE
  5
30B
102
{ACAD_REACTORS
330
304
102
}
330
304
100
AcDbScale
 70
     0
300
1:16
140
1.0
141
16.0
290
     0
  0
SCALE
  5
30C
102
{ACAD_REACTORS
330
304
102
}
330
304
100
AcDbScale
 70
     0
300
1:20
140
1.0
141
20.0
290
     0
  0
SCALE
  5
30D
102
{ACAD_REACTORS
330
304
102
}
330
304
100
AcDbScale
 70
     0
300
1:30
140
1.0
141
30.0
290
     0
  0
SCALE
  5
30E
102
{ACAD_REACTORS
330
304
102
}
330
304
100
AcDbScale
 70
     0
300
1:40
140
1.0
141
40.0
290
     0
  0
SCALE
  5
30F
102
{ACAD_REACTORS
330
304
102
}
330
304
100
AcDbScale
 70
     0
300
1:50
140
1.0
141
50.0
290
     0
  0
SCALE
  5
310
102
{ACAD_REACTORS
330
304
102
}
330
304
100
AcDbScale
 70
     0
300
1:100
140
1.0
141
100.0
290
     0
  0
SCALE
  5
311
102
{ACAD_REACTORS
330
304
102
}
330
304
100
AcDbScale
 70
     0
300
2:1
140
2.0
141
1.0
290
     0
  0
SCALE
  5
312
102
{ACAD_REACTORS
330
304
102
}
330
304
100
AcDbScale
 70
     0
300
4:1
140
4.0
141
1.0
290
     0
  0
SCALE
  5
313
102
{ACAD_REACTORS
330
304
102
}
330
304
100
AcDbScale
 70
     0
300
8:1
140
8.0
141
1.0
290
     0
  0
SCALE
  5
314
102
{ACAD_REACTORS
330
304
102
}
330
304
100
AcDbScale
 70
     0
300
10:1
140
10.0
141
1.0
290
     0
  0
SCALE
  5
315
102
{ACAD_REACTORS
330
304
102
}
330
304
100
AcDbScale
 70
     0
300
100:1
140
100.0
141
1.0
290
     0
  0
SCALE
  5
316
102
{ACAD_REACTORS
330
304
102
}
330
304
100
AcDbScale
 70
     0
300
1/128" = 1'-0"
140
0.0078125
141
12.0
290
     0
  0
SCALE
  5
317
102
{ACAD_REACTORS
330
304
102
}
330
304
100
AcDbScale
 70
     0
300
1/64" = 1'-0"
140
0.015625
141
12.0
290
     0
  0
SCALE
  5
318
102
{ACAD_REACTORS
330
304
102
}
330
304
100
AcDbScale
 70
     0
300
1/32" = 1'-0"
140
0.03125
141
12.0
290
     0
  0
SCALE
  5
319
102
{ACAD_REACTORS
330
304
102
}
330
304
100
AcDbScale
 70
     0
300
1/16" = 1'-0"
140
0.0625
141
12.0
290
     0
  0
SCALE
  5
31A
102
{ACAD_REACTORS
330
304
102
}
330
304
100
AcDbScale
 70
     0
300
3/32" = 1'-0"
140
0.09375
141
12.0
290
     0
  0
SCALE
  5
31B
102
{ACAD_REACTORS
330
304
102
}
330
304
100
AcDbScale
 70
     0
300
1/8" = 1'-0"
140
0.125
141
12.0
290
     0
  0
SCALE
  5
31C
102
{ACAD_REACTORS
330
304
102
}
330
304
100
AcDbScale
 70
     0
300
3/16" = 1'-0"
140
0.1875
141
12.0
290
     0
  0
SCALE
  5
31D
102
{ACAD_REACTORS
330
304
102
}
330
304
100
AcDbScale
 70
     0
300
1/4" = 1'-0"
140
0.25
141
12.0
290
     0
  0
SCALE
  5
31E
102
{ACAD_REACTORS
330
304
102
}
330
304
100
AcDbScale
 70
     0
300
3/8" = 1'-0"
140
0.375
141
12.0
290
     0
  0
SCALE
  5
31F
102
{ACAD_REACTORS
330
304
102
}
330
304
100
AcDbScale
 70
     0
300
1/2" = 1'-0"
140
0.5
141
12.0
290
     0
  0
SCALE
  5
320
102
{ACAD_REACTORS
330
304
102
}
330
304
100
AcDbScale
 70
     0
300
3/4" = 1'-0"
140
0.75
141
12.0
290
     0
  0
SCALE
  5
321
102
{ACAD_REACTORS
330
304
102
}
330
304
100
AcDbScale
 70
     0
300
1" = 1'-0"
140
1.0
141
12.0
290
     0
  0
SCALE
  5
322
102
{ACAD_REACTORS
330
304
102
}
330
304
100
AcDbScale
 70
     0
300
1-1/2" = 1'-0"
140
1.5
141
12.0
290
     0
  0
SCALE
  5
323
102
{ACAD_REACTORS
330
304
102
}
330
304
100
AcDbScale
 70
     0
300
3" = 1'-0"
140
3.0
141
12.0
290
     0
  0
SCALE
  5
324
102
{ACAD_REACTORS
330
304
102
}
330
304
100
AcDbScale
 70
     0
300
6" = 1'-0"
140
6.0
141
12.0
290
     0
  0
SCALE
  5
325
102
{ACAD_REACTORS
330
304
102
}
330
304
100
AcDbScale
 70
     0
300
1'-0" = 1'-0"
140
12.0
141
12.0
290
     0
  0
TABLESTYLE
  5
344
102
{ACAD_REACTORS
330
343
102
}
102
{ACAD_XDICTIONARY
360
34A
102
}
330
343
100
AcDbTableStyle
  3
Standard
 70
     0
 71
     0
 40
0.06
 41
0.06
280
     0
281
     0
  7
STANDARD
140
4.5
170
     2
 62
     0
 63
   257
283
     0
 90
        4
 91
        0
  1

274
    -2
284
     1
 64
     0
275
    -2
285
     1
 65
     0
276
    -2
286
     1
 66
     0
277
    -2
287
     1
 67
     0
278
    -2
288
     1
 68
     0
279
    -2
289
     1
 69
     0
  7
STANDARD
140
6.0
170
     5
 62
     0
 63
   257
283
     0
 90
        4
 91
        0
  1

274
    -2
284
     1
 64
     0
275
    -2
285
     1
 65
     0
276
    -2
286
     1
 66
     0
277
    -2
287
     1
 67
     0
278
    -2
288
     1
 68
     0
279
    -2
289
     1
 69
     0
  7
STANDARD
140
4.5
170
     5
 62
     0
 63
   257
283
     0
 90
        4
 91
        0
  1

274
    -2
284
     1
 64
     0
275
    -2
285
     1
 65
     0
276
    -2
286
     1
 66
     0
277
    -2
287
     1
 67
     0
278
    -2
288
     1
 68
     0
279
    -2
289
     1
 69
     0
  0
VISUALSTYLE
  5
32B
102
{ACAD_REACTORS
330
326
102
}
330
326
100
AcDbVisualStyle
  2
2dWireframe
 70
     4
177
     3
291
     0
 70
    58
 90
        0
176
     1
 90
        2
176
     1
 90
        0
176
     1
 90
        0
176
     1
 40
0.6
176
     1
 40
30.0
176
     1
 62
     7
420
 16777215
176
     1
 90
        1
176
     1
 90
        4
176
     1
 62
     7
176
     1
 62
   257
176
     1
 90
        1
176
     1
 90
        1
176
     1
 40
1.0
176
     1
 90
        0
176
     1
 62
   257
176
     1
 40
1.0
176
     1
 90
        1
176
     1
 90
        6
176
     1
 90
        2
176
     1
 62
     7
176
     1
 90
        5
176
     1
 90
        0
176
     1
 90
        0
176
     1
290
     0
176
     1
 90
        1
176
     1
 40
0.0
176
     1
 90
        0
176
     1
290
     1
176
     1
290
     1
176
     1
290
     0
176
     1
290
     0
176
     1
290
     0
176
     1
290
     0
176
     1
290
     0
176
     1
290
     0
176
     1
290
     0
176
     1
 90
       50
176
     1
 40
0.0
176
     1
 40
1.0
176
     1
 90
        0
176
     1
 62
    18
420
        0
176
     1
 90
       50
176
     1
 90
        3
176
     1
 62
     5
420
      255
176
     1
290
     0
176
     1
 90
       50
176
     1
 90
       50
176
     1
 90
       50
176
     1
290
     0
176
     1
 90
       50
176
     1
 62
   256
176
     0
 40
1.0
176
     0
 90
        2
176
     1
  1
strokes_ogs.tif
176
     1
290
     0
176
     1
 40
1.0
176
     1
 40
1.0
176
     1
  0
VISUALSTYLE
  5
32E
102
{ACAD_REACTORS
330
326
102
}
330
326
100
AcDbVisualStyle
  2
Basic
 70
     7
177
     3
291
     1
 70
    58
 90
        1
176
     1
 90
        0
176
     1
 90
        1
176
     1
 90
        0
176
     1
 40
0.6
176
     1
 40
30.0
176
     1
 62
     7
420
 16777215
176
     1
 90
        0
176
     1
 90
        4
176
     1
 62
     7
176
     1
 62
   257
176
     1
 90
        1
176
     1
 90
        1
176
     1
 40
1.0
176
     1
 90
        8
176
     1
 62
     7
176
     1
 40
1.0
176
     1
 90
        1
176
     1
 90
        6
176
     1
 90
        2
176
     1
 62
     7
176
     1
 90
        5
176
     1
 90
        0
176
     1
 90
        0
176
     1
290
     0
176
     1
 90
        1
176
     1
 40
0.0
176
     1
 90
        0
176
     1
290
     0
176
     1
290
     1
176
     1
290
     1
176
     1
290
     0
176
     1
290
     0
176
     1
290
     0
176
     1
290
     0
176
     1
290
     0
176
     1
290
     0
176
     1
 90
       50
176
     1
 40
0.0
176
     1
 40
1.0
176
     1
 90
        0
176
     1
 62
    18
420
        0
176
     1
 90
       50
176
     1
 90
        3
176
     1
 62
     5
420
      255
176
     1
290
     0
176
     1
 90
       50
176
     1
 90
       50
176
     1
 90
       50
176
     1
290
     0
176
     1
 90
       50
176
     1
 62
   256
176
     0
 40
1.0
176
     0
 90
        2
176
     1
  1
strokes_ogs.tif
176
     1
290
     0
176
     1
 40
1.0
176
     1
 40
1.0
176
     1
  0
VISUALSTYLE
  5
332
102
{ACAD_REACTORS
330
326
102
}
330
326
100
AcDbVisualStyle
  2
Brighten
 70
    12
177
     3
291
     1
 70
    58
 90
        2
176
     1
 90
        2
176
     1
 90
        0
176
     1
 90
        0
176
     1
 40
0.6
176
     1
 40
30.0
176
     1
 62
     7
420
 16777215
176
     1
 90
        1
176
     1
 90
        4
176
     1
 62
     7
176
     1
 62
   257
176
     1
 90
        1
176
     1
 90
        1
176
     1
 40
1.0
176
     1
 90
        8
176
     1
 62
     7
176
     1
 40
1.0
176
     1
 90
        1
176
     1
 90
        6
176
     1
 90
        2
176
     1
 62
     7
176
     1
 90
        5
176
     1
 90
        0
176
     1
 90
        0
176
     1
290
     0
176
     1
 90
        1
176
     1
 40
50.0
176
     1
 90
        0
176
     1
290
     0
176
     1
290
     1
176
     1
290
     1
176
     1
290
     0
176
     1
290
     0
176
     1
290
     0
176
     1
290
     0
176
     1
290
     0
176
     1
290
     0
176
     1
 90
       50
176
     1
 40
0.0
176
     1
 40
1.0
176
     1
 90
        0
176
     1
 62
    18
420
        0
176
     1
 90
       50
176
     1
 90
        3
176
     1
 62
     5
420
      255
176
     1
290
     0
176
     1
 90
       50
176
     1
 90
       50
176
     1
 90
       50
176
     1
290
     0
176
     1
 90
       50
176
     1
 62
   256
176
     0
 40
1.0
176
     0
 90
        2
176
     1
  1
strokes_ogs.tif
176
     1
290
     0
176
     1
 40
1.0
176
     1
 40
1.0
176
     1
  0
VISUALSTYLE
  5
336
102
{ACAD_REACTORS
330
326
102
}
330
326
100
AcDbVisualStyle
  2
ColorChange
 70
    16
177
     3
291
     1
 70
    58
 90
        2
176
     1
 90
        2
176
     1
 90
        3
176
     1
 90
        0
176
     1
 40
0.6
176
     1
 40
30.0
176
     1
 62
     8
420
  8421504
176
     1
 90
        1
176
     1
 90
        4
176
     1
 62
     7
176
     1
 62
   257
176
     1
 90
        1
176
     1
 90
        1
176
     1
 40
1.0
176
     1
 90
        8
176
     1
 62
     8
420
  8421504
176
     1
 40
1.0
176
     1
 90
        1
176
     1
 90
        6
176
     1
 90
        2
176
     1
 62
     7
176
     1
 90
        5
176
     1
 90
        0
176
     1
 90
        0
176
     1
290
     0
176
     1
 90
        1
176
     1
 40
0.0
176
     1
 90
        0
176
     1
290
     0
176
     1
290
     1
176
     1
290
     1
176
     1
290
     0
176
     1
290
     0
176
     1
290
     0
176
     1
290
     0
176
     1
290
     0
176
     1
290
     0
176
     1
 90
       50
176
     1
 40
0.0
176
     1
 40
1.0
176
     1
 90
        0
176
     1
 62
    18
420
        0
176
     1
 90
       50
176
     1
 90
        3
176
     1
 62
     5
420
      255
176
     1
290
     0
176
     1
 90
       50
176
     1
 90
       50
176
     1
 90
       50
176
     1
290
     0
176
     1
 90
       50
176
     1
 62
   256
176
     0
 40
1.0
176
     0
 90
        2
176
     1
  1
strokes_ogs.tif
176
     1
290
     0
176
     1
 40
1.0
176
     1
 40
1.0
176
     1
  0
VISUALSTYLE
  5
330
102
{ACAD_REACTORS
330
326
102
}
330
326
100
AcDbVisualStyle
  2
Conceptual
 70
     9
177
     3
291
     0
 70
    58
 90
        3
176
     1
 90
        2
176
     1
 90
        0
176
     1
 90
        0
176
     1
 40
0.6
176
     1
 40
30.0
176
     1
 62
     7
420
 16777215
176
     1
 90
        2
176
     1
 90
        2
176
     1
 62
     7
176
     1
 62
   257
176
     1
 90
        1
176
     1
 90
        1
176
     1
 40
179.0
176
     1
 90
        8
176
     1
 62
     7
176
     1
 40
1.0
176
     1
 90
        1
176
     1
 90
        6
176
     1
 90
        2
176
     1
 62
     7
176
     1
 90
        3
176
     1
 90
        0
176
     1
 90
        0
176
     1
290
     0
176
     1
 90
        1
176
     1
 40
0.0
176
     1
 90
        0
176
     1
290
     0
176
     1
290
     1
176
     1
290
     1
176
     1
290
     0
176
     1
290
     0
176
     1
290
     0
176
     1
290
     0
176
     1
290
     0
176
     1
290
     0
176
     1
 90
       50
176
     1
 40
0.0
176
     1
 40
1.0
176
     1
 90
        0
176
     1
 62
    18
420
        0
176
     1
 90
       50
176
     1
 90
        3
176
     1
 62
     5
420
      255
176
     1
290
     0
176
     1
 90
       50
176
     1
 90
       50
176
     1
 90
       50
176
     1
290
     0
176
     1
 90
       50
176
     1
 62
   256
176
     0
 40
1.0
176
     0
 90
        2
176
     1
  1
strokes_ogs.tif
176
     1
290
     0
176
     1
 40
1.0
176
     1
 40
1.0
176
     1
  0
VISUALSTYLE
  5
331
102
{ACAD_REACTORS
330
326
102
}
330
326
100
AcDbVisualStyle
  2
Dim
 70
    11
177
     3
291
     1
 70
    58
 90
        2
176
     1
 90
        2
176
     1
 90
        0
176
     1
 90
        0
176
     1
 40
0.6
176
     1
 40
30.0
176
     1
 62
     7
420
 16777215
176
     1
 90
        1
176
     1
 90
        4
176
     1
 62
     7
176
     1
 62
   257
176
     1
 90
        1
176
     1
 90
        1
176
     1
 40
1.0
176
     1
 90
        8
176
     1
 62
     7
176
     1
 40
1.0
176
     1
 90
        1
176
     1
 90
        6
176
     1
 90
        2
176
     1
 62
     7
176
     1
 90
        5
176
     1
 90
        0
176
     1
 90
        0
176
     1
290
     0
176
     1
 90
        1
176
     1
 40
-50.0
176
     1
 90
        0
176
     1
290
     0
176
     1
290
     1
176
     1
290
     1
176
     1
290
     0
176
     1
290
     0
176
     1
290
     0
176
     1
290
     0
176
     1
290
     0
176
     1
290
     0
176
     1
 90
       50
176
     1
 40
0.0
176
     1
 40
1.0
176
     1
 90
        0
176
     1
 62
    18
420
        0
176
     1
 90
       50
176
     1
 90
        3
176
     1
 62
     5
420
      255
176
     1
290
     0
176
     1
 90
       50
176
     1
 90
       50
176
     1
 90
       50
176
     1
290
     0
176
     1
 90
       50
176
     1
 62
   256
176
     0
 40
1.0
176
     0
 90
        2
176
     1
  1
strokes_ogs.tif
176
     1
290
     0
176
     1
 40
1.0
176
     1
 40
1.0
176
     1
  0
VISUALSTYLE
  5
339
102
{ACAD_REACTORS
330
326
102
}
330
326
100
AcDbVisualStyle
  2
EdgeColorOff
 70
    22
177
     3
291
     1
 70
    58
 90
        2
176
     0
 90
        2
176
     0
 90
        0
176
     0
 90
        0
176
     0
 40
0.6
176
     0
 40
30.0
176
     0
 62
     7
420
 16777215
176
     0
 90
        1
176
     0
 90
        4
176
     0
 62
     7
176
     0
 62
   257
176
     0
 90
        1
176
     0
 90
        1
176
     0
 40
1.0
176
     0
 90
        8
176
     2
 62
     7
176
     0
 40
1.0
176
     0
 90
        1
176
     0
 90
        6
176
     0
 90
        2
176
     0
 62
     7
176
     0
 90
        5
176
     0
 90
        0
176
     0
 90
        0
176
     0
290
     0
176
     0
 90
        1
176
     0
 40
0.0
176
     0
 90
        0
176
     0
290
     0
176
     0
290
     1
176
     0
290
     1
176
     0
290
     0
176
     0
290
     0
176
     0
290
     0
176
     0
290
     0
176
     0
290
     0
176
     0
290
     0
176
     0
 90
       50
176
     0
 40
0.0
176
     0
 40
1.0
176
     0
 90
        0
176
     0
 62
    18
420
        0
176
     0
 90
       50
176
     0
 90
        3
176
     0
 62
     5
420
      255
176
     0
290
     0
176
     0
 90
       50
176
     0
 90
       50
176
     0
 90
       50
176
     0
290
     0
176
     0
 90
       50
176
     0
 62
   256
176
     0
 40
1.0
176
     0
 90
        2
176
     0
  1
strokes_ogs.tif
176
     0
290
     0
176
     0
 40
1.0
176
     0
 40
1.0
176
     0
  0
VISUALSTYLE
  5
335
102
{ACAD_REACTORS
330
326
102
}
330
326
100
AcDbVisualStyle
  2
Facepattern
 70
    15
177
     3
291
     1
 70
    58
 90
        2
176
     1
 90
        2
176
     1
 90
        0
176
     1
 90
        0
176
     1
 40
0.6
176
     1
 40
30.0
176
     1
 62
     7
420
 16777215
176
     1
 90
        1
176
     1
 90
        4
176
     1
 62
     7
176
     1
 62
   257
176
     1
 90
        1
176
     1
 90
        1
176
     1
 40
1.0
176
     1
 90
        8
176
     1
 62
     7
176
     1
 40
1.0
176
     1
 90
        1
176
     1
 90
        6
176
     1
 90
        2
176
     1
 62
     7
176
     1
 90
        5
176
     1
 90
        0
176
     1
 90
        0
176
     1
290
     0
176
     1
 90
        1
176
     1
 40
0.0
176
     1
 90
        0
176
     1
290
     0
176
     1
290
     1
176
     1
290
     1
176
     1
290
     0
176
     1
290
     0
176
     1
290
     0
176
     1
290
     0
176
     1
290
     0
176
     1
290
     0
176
     1
 90
       50
176
     1
 40
0.0
176
     1
 40
1.0
176
     1
 90
        0
176
     1
 62
    18
420
        0
176
     1
 90
       50
176
     1
 90
        3
176
     1
 62
     5
420
      255
176
     1
290
     0
176
     1
 90
       50
176
     1
 90
       50
176
     1
 90
       50
176
     1
290
     0
176
     1
 90
       50
176
     1
 62
   256
176
     0
 40
1.0
176
     0
 90
        2
176
     1
  1
strokes_ogs.tif
176
     1
290
     0
176
     1
 40
1.0
176
     1
 40
1.0
176
     1
  0
VISUALSTYLE
  5
327
102
{ACAD_REACTORS
330
326
102
}
330
326
100
AcDbVisualStyle
  2
Flat
 70
     0
177
     3
291
     1
 70
    58
 90
        2
176
     1
 90
        1
176
     1
 90
        1
176
     1
 90
        2
176
     1
 40
0.6
176
     1
 40
30.0
176
     1
 62
     7
420
 16777215
176
     1
 90
        0
176
     1
 90
        0
176
     1
 62
     7
176
     1
 62
   257
176
     1
 90
        1
176
     1
 90
        1
176
     1
 40
1.0
176
     1
 90
        8
176
     1
 62
     7
176
     1
 40
1.0
176
     1
 90
        1
176
     1
 90
        6
176
     1
 90
        2
176
     1
 62
     7
176
     1
 90
        5
176
     1
 90
        0
176
     1
 90
        0
176
     1
290
     0
176
     1
 90
       13
176
     1
 40
0.0
176
     1
 90
        0
176
     1
290
     0
176
     1
290
     1
176
     1
290
     1
176
     1
290
     0
176
     1
290
     0
176
     1
290
     0
176
     1
290
     0
176
     1
290
     0
176
     1
290
     0
176
     1
 90
       50
176
     1
 40
0.0
176
     1
 40
1.0
176
     1
 90
        0
176
     1
 62
    18
420
        0
176
     1
 90
       50
176
     1
 90
        3
176
     1
 62
     5
420
      255
176
     1
290
     0
176
     1
 90
       50
176
     1
 90
       50
176
     1
 90
       50
176
     1
290
     0
176
     1
 90
       50
176
     1
 62
   256
176
     0
 40
1.0
176
     0
 90
        2
176
     1
  1
strokes_ogs.tif
176
     1
290
     0
176
     1
 40
1.0
176
     1
 40
1.0
176
     1
  0
VISUALSTYLE
  5
328
102
{ACAD_REACTORS
330
326
102
}
330
326
100
AcDbVisualStyle
  2
FlatWithEdges
 70
     1
177
     3
291
     1
 70
    58
 90
        2
176
     1
 90
        1
176
     1
 90
        1
176
     1
 90
        2
176
     1
 40
0.6
176
     1
 40
30.0
176
     1
 62
     7
420
 16777215
176
     1
 90
        1
176
     1
 90
        0
176
     1
 62
     7
176
     1
 62
   257
176
     1
 90
        1
176
     1
 90
        1
176
     1
 40
1.0
176
     1
 90
        0
176
     1
 62
   257
176
     1
 40
1.0
176
     1
 90
        1
176
     1
 90
        6
176
     1
 90
        2
176
     1
 62
     7
176
     1
 90
        5
176
     1
 90
        0
176
     1
 90
        0
176
     1
290
     0
176
     1
 90
       13
176
     1
 40
0.0
176
     1
 90
        0
176
     1
290
     0
176
     1
290
     1
176
     1
290
     1
176
     1
290
     0
176
     1
290
     0
176
     1
290
     0
176
     1
290
     0
176
     1
290
     0
176
     1
290
     0
176
     1
 90
       50
176
     1
 40
0.0
176
     1
 40
1.0
176
     1
 90
        0
176
     1
 62
    18
420
        0
176
     1
 90
       50
176
     1
 90
        3
176
     1
 62
     5
420
      255
176
     1
290
     0
176
     1
 90
       50
176
     1
 90
       50
176
     1
 90
       50
176
     1
290
     0
176
     1
 90
       50
176
     1
 62
   256
176
     0
 40
1.0
176
     0
 90
        2
176
     1
  1
strokes_ogs.tif
176
     1
290
     0
176
     1
 40
1.0
176
     1
 40
1.0
176
     1
  0
VISUALSTYLE
  5
329
102
{ACAD_REACTORS
330
326
102
}
330
326
100
AcDbVisualStyle
  2
Gouraud
 70
     2
177
     3
291
     1
 70
    58
 90
        2
176
     1
 90
        2
176
     1
 90
        1
176
     1
 90
        2
176
     1
 40
0.6
176
     1
 40
30.0
176
     1
 62
     7
420
 16777215
176
     1
 90
        0
176
     1
 90
        0
176
     1
 62
     7
176
     1
 62
   257
176
     1
 90
        1
176
     1
 90
        1
176
     1
 40
1.0
176
     1
 90
        0
176
     1
 62
     7
176
     1
 40
1.0
176
     1
 90
        1
176
     1
 90
        6
176
     1
 90
        2
176
     1
 62
     7
176
     1
 90
        5
176
     1
 90
        0
176
     1
 90
        0
176
     1
290
     0
176
     1
 90
       13
176
     1
 40
0.0
176
     1
 90
        0
176
     1
290
     0
176
     1
290
     1
176
     1
290
     1
176
     1
290
     0
176
     1
290
     0
176
     1
290
     0
176
     1
290
     0
176
     1
290
     0
176
     1
290
     0
176
     1
 90
       50
176
     1
 40
0.0
176
     1
 40
1.0
176
     1
 90
        0
176
     1
 62
    18
420
        0
176
     1
 90
       50
176
     1
 90
        3
176
     1
 62
     5
420
      255
176
     1
290
     0
176
     1
 90
       50
176
     1
 90
       50
176
     1
 90
       50
176
     1
290
     0
176
     1
 90
       50
176
     1
 62
   256
176
     0
 40
1.0
176
     0
 90
        2
176
     1
  1
strokes_ogs.tif
176
     1
290
     0
176
     1
 40
1.0
176
     1
 40
1.0
176
     1
  0
VISUALSTYLE
  5
32A
102
{ACAD_REACTORS
330
326
102
}
330
326
100
AcDbVisualStyle
  2
GouraudWithEdges
 70
     3
177
     3
291
     1
 70
    58
 90
        2
176
     1
 90
        2
176
     1
 90
        1
176
     1
 90
        2
176
     1
 40
0.6
176
     1
 40
30.0
176
     1
 62
     7
420
 16777215
176
     1
 90
        1
176
     1
 90
        0
176
     1
 62
     7
176
     1
 62
   257
176
     1
 90
        1
176
     1
 90
        1
176
     1
 40
1.0
176
     1
 90
        0
176
     1
 62
   257
176
     1
 40
1.0
176
     1
 90
        1
176
     1
 90
        6
176
     1
 90
        2
176
     1
 62
     7
176
     1
 90
        5
176
     1
 90
        0
176
     1
 90
        0
176
     1
290
     0
176
     1
 90
       13
176
     1
 40
0.0
176
     1
 90
        0
176
     1
290
     0
176
     1
290
     1
176
     1
290
     1
176
     1
290
     0
176
     1
290
     0
176
     1
290
     0
176
     1
290
     0
176
     1
290
     0
176
     1
290
     0
176
     1
 90
       50
176
     1
 40
0.0
176
     1
 40
1.0
176
     1
 90
        0
176
     1
 62
    18
420
        0
176
     1
 90
       50
176
     1
 90
        3
176
     1
 62
     5
420
      255
176
     1
290
     0
176
     1
 90
       50
176
     1
 90
       50
176
     1
 90
       50
176
     1
290
     0
176
     1
 90
       50
176
     1
 62
   256
176
     0
 40
1.0
176
     0
 90
        2
176
     1
  1
strokes_ogs.tif
176
     1
290
     0
176
     1
 40
1.0
176
     1
 40
1.0
176
     1
  0
VISUALSTYLE
  5
32D
102
{ACAD_REACTORS
330
326
102
}
330
326
100
AcDbVisualStyle
  2
Hidden
 70
     6
177
     3
291
     0
 70
    58
 90
        1
176
     1
 90
        2
176
     1
 90
        2
176
     1
 90
        0
176
     1
 40
0.6
176
     1
 40
30.0
176
     1
 62
     7
420
 16777215
176
     1
 90
        2
176
     1
 90
        2
176
     1
 62
     7
176
     1
 62
   257
176
     1
 90
        2
176
     1
 90
        1
176
     1
 40
40.0
176
     1
 90
        0
176
     1
 62
   257
176
     1
 40
1.0
176
     1
 90
        1
176
     1
 90
        6
176
     1
 90
        2
176
     1
 62
     7
176
     1
 90
        3
176
     1
 90
        0
176
     1
 90
        0
176
     1
290
     0
176
     1
 90
        1
176
     1
 40
0.0
176
     1
 90
        0
176
     1
290
     0
176
     1
290
     1
176
     1
290
     1
176
     1
290
     0
176
     1
290
     0
176
     1
290
     0
176
     1
290
     0
176
     1
290
     0
176
     1
290
     0
176
     1
 90
       50
176
     1
 40
0.0
176
     1
 40
1.0
176
     1
 90
        0
176
     1
 62
    18
420
        0
176
     1
 90
       50
176
     1
 90
        3
176
     1
 62
     5
420
      255
176
     1
290
     0
176
     1
 90
       50
176
     1
 90
       50
176
     1
 90
       50
176
     1
290
     0
176
     1
 90
       50
176
     1
 62
   256
176
     0
 40
1.0
176
     0
 90
        2
176
     1
  1
strokes_ogs.tif
176
     1
290
     0
176
     1
 40
1.0
176
     1
 40
1.0
176
     1
  0
VISUALSTYLE
  5
337
102
{ACAD_REACTORS
330
326
102
}
330
326
100
AcDbVisualStyle
  2
JitterOff
 70
    20
177
     3
291
     1
 70
    58
 90
        2
176
     0
 90
        2
176
     0
 90
        0
176
     0
 90
        0
176
     0
 40
0.6
176
     0
 40
30.0
176
     0
 62
     7
420
 16777215
176
     0
 90
        1
176
     0
 90
        4
176
     0
 62
     7
176
     0
 62
   257
176
     0
 90
        1
176
     0
 90
        1
176
     0
 40
1.0
176
     0
 90
       10
176
     2
 62
     7
176
     0
 40
1.0
176
     0
 90
        1
176
     0
 90
        6
176
     0
 90
        2
176
     0
 62
     7
176
     0
 90
        5
176
     0
 90
        0
176
     0
 90
        0
176
     0
290
     0
176
     0
 90
        1
176
     0
 40
0.0
176
     0
 90
        0
176
     0
290
     0
176
     0
290
     1
176
     0
290
     1
176
     0
290
     0
176
     0
290
     0
176
     0
290
     0
176
     0
290
     0
176
     0
290
     0
176
     0
290
     0
176
     0
 90
       50
176
     0
 40
0.0
176
     0
 40
1.0
176
     0
 90
        0
176
     0
 62
    18
420
        0
176
     0
 90
       50
176
     0
 90
        3
176
     0
 62
     5
420
      255
176
     0
290
     0
176
     0
 90
       50
176
     0
 90
       50
176
     0
 90
       50
176
     0
290
     0
176
     0
 90
       50
176
     0
 62
   256
176
     0
 40
1.0
176
     0
 90
        2
176
     0
  1
strokes_ogs.tif
176
     0
290
     0
176
     0
 40
1.0
176
     0
 40
1.0
176
     0
  0
VISUALSTYLE
  5
334
102
{ACAD_REACTORS
330
326
102
}
330
326
100
AcDbVisualStyle
  2
Linepattern
 70
    14
177
     3
291
     1
 70
    58
 90
        2
176
     1
 90
        2
176
     1
 90
        0
176
     1
 90
        0
176
     1
 40
0.6
176
     1
 40
30.0
176
     1
 62
     7
420
 16777215
176
     1
 90
        1
176
     1
 90
        4
176
     1
 62
     7
176
     1
 62
   257
176
     1
 90
        7
176
     1
 90
        7
176
     1
 40
1.0
176
     1
 90
        8
176
     1
 62
     7
176
     1
 40
1.0
176
     1
 90
        1
176
     1
 90
        6
176
     1
 90
        2
176
     1
 62
     7
176
     1
 90
        5
176
     1
 90
        0
176
     1
 90
        0
176
     1
290
     0
176
     1
 90
        1
176
     1
 40
0.0
176
     1
 90
        0
176
     1
290
     0
176
     1
290
     1
176
     1
290
     1
176
     1
290
     0
176
     1
290
     0
176
     1
290
     0
176
     1
290
     0
176
     1
290
     0
176
     1
290
     0
176
     1
 90
       50
176
     1
 40
0.0
176
     1
 40
1.0
176
     1
 90
        0
176
     1
 62
    18
420
        0
176
     1
 90
       50
176
     1
 90
        3
176
     1
 62
     5
420
      255
176
     1
290
     0
176
     1
 90
       50
176
     1
 90
       50
176
     1
 90
       50
176
     1
290
     0
176
     1
 90
       50
176
     1
 62
   256
176
     0
 40
1.0
176
     0
 90
        2
176
     1
  1
strokes_ogs.tif
176
     1
290
     0
176
     1
 40
1.0
176
     1
 40
1.0
176
     1
  0
VISUALSTYLE
  5
338
102
{ACAD_REACTORS
330
326
102
}
330
326
100
AcDbVisualStyle
  2
OverhangOff
 70
    21
177
     3
291
     1
 70
    58
 90
        2
176
     0
 90
        2
176
     0
 90
        0
176
     0
 90
        0
176
     0
 40
0.6
176
     0
 40
30.0
176
     0
 62
     7
420
 16777215
176
     0
 90
        1
176
     0
 90
        4
176
     0
 62
     7
176
     0
 62
   257
176
     0
 90
        1
176
     0
 90
        1
176
     0
 40
1.0
176
     0
 90
        9
176
     2
 62
     7
176
     0
 40
1.0
176
     0
 90
        1
176
     0
 90
        6
176
     0
 90
        2
176
     0
 62
     7
176
     0
 90
        5
176
     0
 90
        0
176
     0
 90
        0
176
     0
290
     0
176
     0
 90
        1
176
     0
 40
0.0
176
     0
 90
        0
176
     0
290
     0
176
     0
290
     1
176
     0
290
     1
176
     0
290
     0
176
     0
290
     0
176
     0
290
     0
176
     0
290
     0
176
     0
290
     0
176
     0
290
     0
176
     0
 90
       50
176
     0
 40
0.0
176
     0
 40
1.0
176
     0
 90
        0
176
     0
 62
    18
420
        0
176
     0
 90
       50
176
     0
 90
        3
176
     0
 62
     5
420
      255
176
     0
290
     0
176
     0
 90
       50
176
     0
 90
       50
176
     0
 90
       50
176
     0
290
     0
176
     0
 90
       50
176
     0
 62
   256
176
     0
 40
1.0
176
     0
 90
        2
176
     0
  1
strokes_ogs.tif
176
     0
290
     0
176
     0
 40
1.0
176
     0
 40
1.0
176
     0
  0
VISUALSTYLE
  5
32F
102
{ACAD_REACTORS
330
326
102
}
330
326
100
AcDbVisualStyle
  2
Realistic
 70
     8
177
     3
291
     0
 70
    58
 90
        2
176
     1
 90
        3
176
     1
 90
        0
176
     1
 90
        2
176
     1
 40
0.6
176
     1
 40
30.0
176
     1
 62
     7
420
 16777215
176
     1
 90
        0
176
     1
 90
        0
176
     1
 62
     7
176
     1
 62
   257
176
     1
 90
        1
176
     1
 90
        1
176
     1
 40
1.0
176
     1
 90
        8
176
     1
 62
   257
176
     1
 40
1.0
176
     1
 90
        1
176
     1
 90
        6
176
     1
 90
        2
176
     1
 62
     7
176
     1
 90
        3
176
     1
 90
        0
176
     1
 90
        0
176
     1
290
     0
176
     1
 90
       13
176
     1
 40
0.0
176
     1
 90
        0
176
     1
290
     0
176
     1
290
     1
176
     1
290
     1
176
     1
290
     0
176
     1
290
     0
176
     1
290
     0
176
     1
290
     0
176
     1
290
     0
176
     1
290
     0
176
     1
 90
       50
176
     1
 40
0.0
176
     1
 40
1.0
176
     1
 90
        0
176
     1
 62
    18
420
        0
176
     1
 90
       50
176
     1
 90
        3
176
     1
 62
     5
420
      255
176
     1
290
     0
176
     1
 90
       50
176
     1
 90
       50
176
     1
 90
       50
176
     1
290
     0
176
     1
 90
       50
176
     1
 62
   256
176
     0
 40
1.0
176
     0
 90
        2
176
     1
  1
strokes_ogs.tif
176
     1
290
     0
176
     1
 40
1.0
176
     1
 40
1.0
176
     1
  0
VISUALSTYLE
  5
33E
102
{ACAD_REACTORS
330
326
102
}
330
326
100
AcDbVisualStyle
  2
Shaded
 70
    27
177
     3
291
     0
 70
    58
 90
        2
176
     1
 90
        2
176
     1
 90
        1
176
     1
 90
        2
176
     1
 40
0.6
176
     1
 40
30.0
176
     1
 62
     7
420
 16777215
176
     1
 90
        0
176
     1
 90
        4
176
     1
 62
     7
176
     1
 62
   257
176
     1
 90
        1
176
     1
 90
        1
176
     1
 40
1.0
176
     1
 90
        8
176
     1
 62
   257
176
     1
 40
1.0
176
     1
 90
        1
176
     1
 90
        6
176
     1
 90
        2
176
     1
 62
     8
420
  7895160
176
     1
 90
        3
176
     1
 90
        0
176
     1
 90
        0
176
     1
290
     0
176
     1
 90
        5
176
     1
 40
0.0
176
     1
 90
        0
176
     1
290
     0
176
     1
290
     1
176
     1
290
     1
176
     1
290
     0
176
     1
290
     0
176
     1
290
     0
176
     1
290
     0
176
     1
290
     0
176
     1
290
     0
176
     1
 90
       50
176
     1
 40
0.0
176
     1
 40
1.0
176
     1
 90
        0
176
     1
 62
    18
420
        0
176
     1
 90
       50
176
     1
 90
        3
176
     1
 62
     5
420
      255
176
     1
290
     0
176
     1
 90
       50
176
     1
 90
       50
176
     1
 90
       50
176
     1
290
     0
176
     1
 90
       50
176
     1
 62
   256
176
     0
 40
1.0
176
     0
 90
        2
176
     1
  1
strokes_ogs.tif
176
     1
290
     0
176
     1
 40
1.0
176
     1
 40
1.0
176
     1
  0
VISUALSTYLE
  5
33D
102
{ACAD_REACTORS
330
326
102
}
330
326
100
AcDbVisualStyle
  2
Shaded with edges
 70
    26
177
     3
291
     0
 70
    58
 90
        2
176
     1
 90
        2
176
     1
 90
        1
176
     1
 90
        2
176
     1
 40
0.6
176
     1
 40
30.0
176
     1
 62
     7
420
 16777215
176
     1
 90
        1
176
     1
 90
       10
176
     1
 62
     7
176
     1
 62
   257
176
     1
 90
        2
176
     1
 90
        1
176
     1
 40
1.0
176
     1
 90
        8
176
     1
 62
   257
176
     1
 40
1.0
176
     1
 90
        1
176
     1
 90
        6
176
     1
 90
        2
176
     1
 62
     7
176
     1
 90
        3
176
     1
 90
        0
176
     1
 90
        0
176
     1
290
     0
176
     1
 90
        5
176
     1
 40
0.0
176
     1
 90
        0
176
     1
290
     0
176
     1
290
     1
176
     1
290
     1
176
     1
290
     0
176
     1
290
     0
176
     1
290
     0
176
     1
290
     0
176
     1
290
     0
176
     1
290
     0
176
     1
 90
       50
176
     1
 40
0.0
176
     1
 40
1.0
176
     1
 90
        0
176
     1
 62
    18
420
        0
176
     1
 90
       50
176
     1
 90
        3
176
     1
 62
     5
420
      255
176
     1
290
     0
176
     1
 90
       50
176
     1
 90
       50
176
     1
 90
       50
176
     1
290
     0
176
     1
 90
       50
176
     1
 62
   256
176
     0
 40
1.0
176
     0
 90
        2
176
     1
  1
strokes_ogs.tif
176
     1
290
     0
176
     1
 40
1.0
176
     1
 40
1.0
176
     1
  0
VISUALSTYLE
  5
33A
102
{ACAD_REACTORS
330
326
102
}
330
326
100
AcDbVisualStyle
  2
Shades of Gray
 70
    23
177
     3
291
     0
 70
    58
 90
        2
176
     1
 90
        2
176
     1
 90
        3
176
     1
 90
        0
176
     1
 40
0.6
176
     1
 40
30.0
176
     1
 62
     7
420
 16777215
176
     1
 90
        2
176
     1
 90
        2
176
     1
 62
     7
176
     1
 62
     7
176
     1
 90
        1
176
     1
 90
        1
176
     1
 40
40.0
176
     1
 90
        8
176
     1
 62
     7
176
     1
 40
1.0
176
     1
 90
        1
176
     1
 90
        6
176
     1
 90
        2
176
     1
 62
     7
176
     1
 90
        3
176
     1
 90
        0
176
     1
 90
        0
176
     1
290
     0
176
     1
 90
        1
176
     1
 40
0.0
176
     1
 90
        0
176
     1
290
     0
176
     1
290
     1
176
     1
290
     1
176
     1
290
     0
176
     1
290
     0
176
     1
290
     0
176
     1
290
     0
176
     1
290
     0
176
     1
290
     0
176
     1
 90
       50
176
     1
 40
0.0
176
     1
 40
1.0
176
     1
 90
        0
176
     1
 62
    18
420
        0
176
     1
 90
       50
176
     1
 90
        3
176
     1
 62
     5
420
      255
176
     1
290
     0
176
     1
 90
       50
176
     1
 90
       50
176
     1
 90
       50
176
     1
290
     0
176
     1
 90
       50
176
     1
 62
   256
176
     0
 40
1.0
176
     0
 90
        2
176
     1
  1
strokes_ogs.tif
176
     1
290
     0
176
     1
 40
1.0
176
     1
 40
1.0
176
     1
  0
VISUALSTYLE
  5
33B
102
{ACAD_REACTORS
330
326
102
}
330
326
100
AcDbVisualStyle
  2
Sketchy
 70
    24
177
     3
291
     0
 70
    58
 90
        1
176
     1
 90
        2
176
     1
 90
        2
176
     1
 90
        0
176
     1
 40
0.6
176
     1
 40
30.0
176
     1
 62
     7
420
 16777215
176
     1
 90
        2
176
     1
 90
        2
176
     1
 62
     7
176
     1
 62
     7
176
     1
 90
        1
176
     1
 90
        1
176
     1
 40
40.0
176
     1
 90
       11
176
     1
 62
     7
176
     1
 40
1.0
176
     1
 90
        1
176
     1
 90
        6
176
     1
 90
        2
176
     1
 62
     7
176
     1
 90
        6
176
     1
 90
        0
176
     1
 90
        0
176
     1
290
     0
176
     1
 90
        1
176
     1
 40
0.0
176
     1
 90
        0
176
     1
290
     0
176
     1
290
     1
176
     1
290
     1
176
     1
290
     0
176
     1
290
     0
176
     1
290
     0
176
     1
290
     0
176
     1
290
     0
176
     1
290
     0
176
     1
 90
       50
176
     1
 40
0.0
176
     1
 40
1.0
176
     1
 90
        0
176
     1
 62
    18
420
        0
176
     1
 90
       50
176
     1
 90
        3
176
     1
 62
     5
420
      255
176
     1
290
     0
176
     1
 90
       50
176
     1
 90
       50
176
     1
 90
       50
176
     1
290
     0
176
     1
 90
       50
176
     1
 62
   256
176
     0
 40
1.0
176
     0
 90
        2
176
     1
  1
strokes_ogs.tif
176
     1
290
     0
176
     1
 40
1.0
176
     1
 40
1.0
176
     1
  0
VISUALSTYLE
  5
333
102
{ACAD_REACTORS
330
326
102
}
330
326
100
AcDbVisualStyle
  2
Thicken
 70
    13
177
     3
291
     1
 70
    58
 90
        2
176
     1
 90
        2
176
     1
 90
        0
176
     1
 90
        0
176
     1
 40
0.6
176
     1
 40
30.0
176
     1
 62
     7
420
 16777215
176
     1
 90
        1
176
     1
 90
        4
176
     1
 62
     7
176
     1
 62
   257
176
     1
 90
        1
176
     1
 90
        1
176
     1
 40
1.0
176
     1
 90
       12
176
     1
 62
     7
176
     1
 40
1.0
176
     1
 90
        1
176
     1
 90
        6
176
     1
 90
        2
176
     1
 62
     7
176
     1
 90
        5
176
     1
 90
        0
176
     1
 90
        0
176
     1
290
     0
176
     1
 90
        1
176
     1
 40
0.0
176
     1
 90
        0
176
     1
290
     0
176
     1
290
     1
176
     1
290
     1
176
     1
290
     0
176
     1
290
     0
176
     1
290
     0
176
     1
290
     0
176
     1
290
     0
176
     1
290
     0
176
     1
 90
       50
176
     1
 40
0.0
176
     1
 40
1.0
176
     1
 90
        0
176
     1
 62
    18
420
        0
176
     1
 90
       50
176
     1
 90
        3
176
     1
 62
     5
420
      255
176
     1
290
     0
176
     1
 90
       50
176
     1
 90
       50
176
     1
 90
       50
176
     1
290
     0
176
     1
 90
       50
176
     1
 62
   256
176
     0
 40
1.0
176
     0
 90
        2
176
     1
  1
strokes_ogs.tif
176
     1
290
     0
176
     1
 40
1.0
176
     1
 40
1.0
176
     1
  0
VISUALSTYLE
  5
32C
102
{ACAD_REACTORS
330
326
102
}
330
326
100
AcDbVisualStyle
  2
Wireframe
 70
     5
177
     3
291
     0
 70
    58
 90
        0
176
     1
 90
        2
176
     1
 90
        0
176
     1
 90
        0
176
     1
 40
0.6
176
     1
 40
30.0
176
     1
 62
     7
420
 16777215
176
     1
 90
        1
176
     1
 90
        4
176
     1
 62
     7
176
     1
 62
   257
176
     1
 90
        1
176
     1
 90
        1
176
     1
 40
1.0
176
     1
 90
        0
176
     1
 62
   257
176
     1
 40
1.0
176
     1
 90
        1
176
     1
 90
        6
176
     1
 90
        2
176
     1
 62
     7
176
     1
 90
        3
176
     1
 90
        0
176
     1
 90
        0
176
     1
290
     0
176
     1
 90
        1
176
     1
 40
0.0
176
     1
 90
        0
176
     1
290
     0
176
     1
290
     1
176
     1
290
     1
176
     1
290
     0
176
     1
290
     0
176
     1
290
     0
176
     1
290
     0
176
     1
290
     0
176
     1
290
     0
176
     1
 90
       50
176
     1
 40
0.0
176
     1
 40
1.0
176
     1
 90
        0
176
     1
 62
    18
420
        0
176
     1
 90
       50
176
     1
 90
        3
176
     1
 62
     5
420
      255
176
     1
290
     0
176
     1
 90
       50
176
     1
 90
       50
176
     1
 90
       50
176
     1
290
     0
176
     1
 90
       50
176
     1
 62
   256
176
     0
 40
1.0
176
     0
 90
        2
176
     1
  1
strokes_ogs.tif
176
     1
290
     0
176
     1
 40
1.0
176
     1
 40
1.0
176
     1
  0
VISUALSTYLE
  5
33C
102
{ACAD_REACTORS
330
326
102
}
330
326
100
AcDbVisualStyle
  2
X-Ray
 70
    25
177
     3
291
     0
 70
    58
 90
        2
176
     1
 90
        2
176
     1
 90
        1
176
     1
 90
        1
176
     1
 40
0.5
176
     1
 40
30.0
176
     1
 62
     7
420
 16777215
176
     1
 90
        1
176
     1
 90
        0
176
     1
 62
     7
176
     1
 62
   257
176
     1
 90
        1
176
     1
 90
        1
176
     1
 40
1.0
176
     1
 90
        8
176
     1
 62
     7
176
     1
 40
1.0
176
     1
 90
        1
176
     1
 90
        6
176
     1
 90
        2
176
     1
 62
     7
176
     1
 90
        3
176
     1
 90
        0
176
     1
 90
        0
176
     1
290
     0
176
     1
 90
       13
176
     1
 40
0.0
176
     1
 90
        0
176
     1
290
     0
176
     1
290
     1
176
     1
290
     1
176
     1
290
     0
176
     1
290
     0
176
     1
290
     0
176
     1
290
     0
176
     1
290
     0
176
     1
290
     0
176
     1
 90
       50
176
     1
 40
0.0
176
     1
 40
1.0
176
     1
 90
        0
176
     1
 62
    18
420
        0
176
     1
 90
       50
176
     1
 90
        3
176
     1
 62
     5
420
      255
176
     1
290
     0
176
     1
 90
       50
176
     1
 90
       50
176
     1
 90
       50
176
     1
290
     0
176
     1
 90
       50
176
     1
 62
   256
176
     0
 40
1.0
176
     0
 90
        2
176
     1
  1
strokes_ogs.tif
176
     1
290
     0
176
     1
 40
1.0
176
     1
 40
1.0
176
     1
  0
DICTIONARYVAR
  5
349
102
{ACAD_REACTORS
330
348
102
}
330
348
100
DictionaryVariables
280
     0
  1
1:1
  0
DICTIONARYVAR
  5
34E
102
{ACAD_REACTORS
330
348
102
}
330
348
100
DictionaryVariables
280
     0
  1
Standard
  0
DICTIONARYVAR
  5
34D
102
{ACAD_REACTORS
330
348
102
}
330
348
100
DictionaryVariables
280
     0
  1
Standard
  0
DICTIONARYVAR
  5
34F
102
{ACAD_REACTORS
330
348
102
}
330
348
100
DictionaryVariables
280
     0
  1
0
  0
DICTIONARY
  5
34A
330
344
100
AcDbDictionary
280
     1
281
     1
  3
ACAD_ROUNDTRIP_2008_TABLESTYLE_CELLSTYLEMAP
360
34B
  0
CELLSTYLEMAP
  5
34B
102
{ACAD_REACTORS
330
34A
102
}
330
34A
100
AcDbCellStyleMap
 90
        3
300
CELLSTYLE
  1
TABLEFORMAT_BEGIN
 90
        5
170
     1
 91
        0
 92
    32768
 62
   257
 93
        1
300
CONTENTFORMAT
  1
CONTENTFORMAT_BEGIN
 90
        0
 91
        0
 92
        4
 93
        0
300

 40
0.0
140
1.0
 94
        5
 62
     0
340
11
144
6.0
309
CONTENTFORMAT_END
171
     1
301
MARGIN
  1
CELLMARGIN_BEGIN
 40
1.5
 40
1.5
 40
1.5
 40
1.5
 40
1.5
 40
1.5
309
CELLMARGIN_END
 94
        6
 95
        1
302
GRIDFORMAT
  1
GRIDFORMAT_BEGIN
 90
        0
 91
        1
 62
     0
 92
       -2
340
14
 93
        0
 40
0.045
309
GRIDFORMAT_END
 95
        2
302
GRIDFORMAT
  1
GRIDFORMAT_BEGIN
 90
        0
 91
        1
 62
     0
 92
       -2
340
14
 93
        0
 40
0.045
309
GRIDFORMAT_END
 95
        4
302
GRIDFORMAT
  1
GRIDFORMAT_BEGIN
 90
        0
 91
        1
 62
     0
 92
       -2
340
14
 93
        0
 40
0.045
309
GRIDFORMAT_END
 95
        8
302
GRIDFORMAT
  1
GRIDFORMAT_BEGIN
 90
        0
 91
        1
 62
     0
 92
       -2
340
14
 93
        0
 40
0.045
309
GRIDFORMAT_END
 95
       16
302
GRIDFORMAT
  1
GRIDFORMAT_BEGIN
 90
        0
 91
        1
 62
     0
 92
       -2
340
14
 93
        0
 40
0.045
309
GRIDFORMAT_END
 95
       32
302
GRIDFORMAT
  1
GRIDFORMAT_BEGIN
 90
        0
 91
        1
 62
     0
 92
       -2
340
14
 93
        0
 40
0.045
309
GRIDFORMAT_END
309
TABLEFORMAT_END
  1
CELLSTYLE_BEGIN
 90
        1
 91
        1
300
_TITLE
309
CELLSTYLE_END
300
CELLSTYLE
  1
TABLEFORMAT_BEGIN
 90
        5
170
     1
 91
        0
 92
        0
 62
   257
 93
        1
300
CONTENTFORMAT
  1
CONTENTFORMAT_BEGIN
 90
        0
 91
        0
 92
        4
 93
        0
300

 40
0.0
140
1.0
 94
        5
 62
     0
340
11
144
4.5
309
CONTENTFORMAT_END
171
     1
301
MARGIN
  1
CELLMARGIN_BEGIN
 40
1.5
 40
1.5
 40
1.5
 40
1.5
 40
1.5
 40
1.5
309
CELLMARGIN_END
 94
        6
 95
        1
302
GRIDFORMAT
  1
GRIDFORMAT_BEGIN
 90
        0
 91
        1
 62
     0
 92
       -2
340
14
 93
        0
 40
0.045
309
GRIDFORMAT_END
 95
        2
302
GRIDFORMAT
  1
GRIDFORMAT_BEGIN
 90
        0
 91
        1
 62
     0
 92
       -2
340
14
 93
        0
 40
0.045
309
GRIDFORMAT_END
 95
        4
302
GRIDFORMAT
  1
GRIDFORMAT_BEGIN
 90
        0
 91
        1
 62
     0
 92
       -2
340
14
 93
        0
 40
0.045
309
GRIDFORMAT_END
 95
        8
302
GRIDFORMAT
  1
GRIDFORMAT_BEGIN
 90
        0
 91
        1
 62
     0
 92
       -2
340
14
 93
        0
 40
0.045
309
GRIDFORMAT_END
 95
       16
302
GRIDFORMAT
  1
GRIDFORMAT_BEGIN
 90
        0
 91
        1
 62
     0
 92
       -2
340
14
 93
        0
 40
0.045
309
GRIDFORMAT_END
 95
       32
302
GRIDFORMAT
  1
GRIDFORMAT_BEGIN
 90
        0
 91
        1
 62
     0
 92
       -2
340
14
 93
        0
 40
0.045
309
GRIDFORMAT_END
309
TABLEFORMAT_END
  1
CELLSTYLE_BEGIN
 90
        2
 91
        1
300
_HEADER
309
CELLSTYLE_END
300
CELLSTYLE
  1
TABLEFORMAT_BEGIN
 90
        5
170
     1
 91
        0
 92
        0
 62
   257
 93
        1
300
CONTENTFORMAT
  1
CONTENTFORMAT_BEGIN
 90
        0
 91
        0
 92
        4
 93
        0
300

 40
0.0
140
1.0
 94
        2
 62
     0
340
11
144
4.5
309
CONTENTFORMAT_END
171
     1
301
MARGIN
  1
CELLMARGIN_BEGIN
 40
1.5
 40
1.5
 40
1.5
 40
1.5
 40
1.5
 40
1.5
309
CELLMARGIN_END
 94
        6
 95
        1
302
GRIDFORMAT
  1
GRIDFORMAT_BEGIN
 90
        0
 91
        1
 62
     0
 92
       -2
340
14
 93
        0
 40
0.045
309
GRIDFORMAT_END
 95
        2
302
GRIDFORMAT
  1
GRIDFORMAT_BEGIN
 90
        0
 91
        1
 62
     0
 92
       -2
340
14
 93
        0
 40
0.045
309
GRIDFORMAT_END
 95
        4
302
GRIDFORMAT
  1
GRIDFORMAT_BEGIN
 90
        0
 91
        1
 62
     0
 92
       -2
340
14
 93
        0
 40
0.045
309
GRIDFORMAT_END
 95
        8
302
GRIDFORMAT
  1
GRIDFORMAT_BEGIN
 90
        0
 91
        1
 62
     0
 92
       -2
340
14
 93
        0
 40
0.045
309
GRIDFORMAT_END
 95
       16
302
GRIDFORMAT
  1
GRIDFORMAT_BEGIN
 90
        0
 91
        1
 62
     0
 92
       -2
340
14
 93
        0
 40
0.045
309
GRIDFORMAT_END
 95
       32
302
GRIDFORMAT
  1
GRIDFORMAT_BEGIN
 90
        0
 91
        1
 62
     0
 92
       -2
340
14
 93
        0
 40
0.045
309
GRIDFORMAT_END
309
TABLEFORMAT_END
  1
CELLSTYLE_BEGIN
 90
        3
 91
        2
300
_DATA
309
CELLSTYLE_END
  0
ENDSEC
  0
EOF
