  0
SECTION
  2
HEADER
  9
$ACADVER
  1
AC1027
  9
$ACADMAINTVER
 70
     8
  9
$DWGCODEPAGE
  3
ANSI_1252
  9
$REQUIREDVERSIONS
160
                 0
  9
$INSBASE
 10
0.0
 20
0.0
 30
0.0
  9
$EXTMIN
 10
0.0
 20
0.0
 30
0.0
  9
$EXTMAX
 10
1189.0
 20
841.0
 30
0.0
  9
$LIMMIN
 10
0.0
 20
0.0
  9
$LIMMAX
 10
1189.0
 20
841.0
  9
$ORTHOMODE
 70
     0
  9
$REGENMODE
 70
     1
  9
$FILLMODE
 70
     1
  9
$QTEXTMODE
 70
     0
  9
$MIRRTEXT
 70
     1
  9
$LTSCALE
 40
65.395
  9
$ATTMODE
 70
     1
  9
$TEXTSIZE
 40
0.2
  9
$TRACEWID
 40
0.05
  9
$TEXTSTYLE
  7
STANDARD
  9
$CLAYER
  8
0
  9
$CELTYPE
  6
BYLAYER
  9
$CECOLOR
 62
   256
  9
$CELTSCALE
 40
1.0
  9
$DISPSILH
 70
     0
  9
$DIMSCALE
 40
1.0
  9
$DIMASZ
 40
2.5
  9
$DIMEXO
 40
0.75
  9
$DIMDLI
 40
45.182
  9
$DIMRND
 40
0.0
  9
$DIMDLE
 40
0.0
  9
$DIMEXE
 40
0.75
  9
$DIMTP
 40
0.01
  9
$DIMTM
 40
0.01
  9
$DIMTXT
 40
3.0
  9
$DIMCEN
 40
10.701
  9
$DIMTSZ
 40
0.0
  9
$DIMTOL
 70
     1
  9
$DIMLIM
 70
     0
  9
$DIMTIH
 70
     1
  9
$DIMTOH
 70
     1
  9
$DIMSE1
 70
     0
  9
$DIMSE2
 70
     0
  9
$DIMTAD
 70
     0
  9
$DIMZIN
 70
     0
  9
$DIMBLK
  1
CLOSED
  9
$DIMASO
 70
     1
  9
$DIMSHO
 70
     1
  9
$DIMPOST
  1

  9
$DIMAPOST
  1

  9
$DIMALT
 70
     0
  9
$DIMALTD
 70
     2
  9
$DIMALTF
 40
25.4
  9
$DIMLFAC
 40
1.0
  9
$DIMTOFL
 70
     0
  9
$DIMTVP
 40
0.0
  9
$DIMTIX
 70
     0
  9
$DIMSOXD
 70
     0
  9
$DIMSAH
 70
     0
  9
$DIMBLK1
  1

  9
$DIMBLK2
  1

  9
$DIMSTYLE
  2
STANDARD
  9
$DIMCLRD
 70
     0
  9
$DIMCLRE
 70
     0
  9
$DIMCLRT
 70
     0
  9
$DIMTFAC
 40
1.0
  9
$DIMGAP
 40
0.625
  9
$DIMJUST
 70
     0
  9
$DIMSD1
 70
     0
  9
$DIMSD2
 70
     0
  9
$DIMTOLJ
 70
     1
  9
$DIMTZIN
 70
     0
  9
$DIMALTZ
 70
     0
  9
$DIMALTTZ
 70
     0
  9
$DIMUPT
 70
     0
  9
$DIMDEC
 70
     4
  9
$DIMTDEC
 70
     4
  9
$DIMALTU
 70
     2
  9
$DIMALTTD
 70
     2
  9
$DIMTXSTY
  7
STANDARD
  9
$DIMAUNIT
 70
     0
  9
$DIMADEC
 70
     0
  9
$DIMALTRND
 40
0.0
  9
$DIMAZIN
 70
     0
  9
$DIMDSEP
 70
    44
  9
$DIMATFIT
 70
     3
  9
$DIMFRAC
 70
     0
  9
$DIMLDRBLK
  1

  9
$DIMLUNIT
 70
     2
  9
$DIMLWD
 70
    -2
  9
$DIMLWE
 70
    -2
  9
$DIMTMOVE
 70
     0
  9
$DIMFXL
 40
1.0
  9
$DIMFXLON
 70
     0
  9
$DIMJOGANG
 40
0.785398
  9
$DIMTFILL
 70
     0
  9
$DIMTFILLCLR
 70
     0
  9
$DIMARCSYM
 70
     0
  9
$DIMLTYPE
  6

  9
$DIMLTEX1
  6

  9
$DIMLTEX2
  6

  9
$DIMTXTDIRECTION
 70
     0
  9
$LUNITS
 70
     2
  9
$LUPREC
 70
     4
  9
$SKETCHINC
 40
0.1
  9
$FILLETRAD
 40
0.5
  9
$AUNITS
 70
     0
  9
$AUPREC
 70
     0
  9
$MENU
  1
.
  9
$ELEVATION
 40
0.0
  9
$PELEVATION
 40
0.0
  9
$THICKNESS
 40
0.0
  9
$LIMCHECK
 70
     0
  9
$CHAMFERA
 40
0.0
  9
$CHAMFERB
 40
0.0
  9
$CHAMFERC
 40
0.0
  9
$CHAMFERD
 40
0.0
  9
$SKPOLY
 70
     0
  9
$TDCREATE
 40
2447893.083333333
  9
$TDUCREATE
 40
0.0
  9
$TDUPDATE
 40
2458983.35262684
  9
$TDUUPDATE
 40
2458983.269293507
  9
$TDINDWG
 40
0.0
  9
$TDUSRTIMER
 40
0.0
  9
$USRTIMER
 70
     1
  9
$ANGBASE
 50
0.0
  9
$ANGDIR
 70
     0
  9
$PDMODE
 70
     3
  9
$PDSIZE
 40
0.3125
  9
$PLINEWID
 40
0.0
  9
$SPLFRAME
 70
     0
  9
$SPLINETYPE
 70
     6
  9
$SPLINESEGS
 70
     8
  9
$HANDSEED
  5
4C4
  9
$SURFTAB1
 70
     6
  9
$SURFTAB2
 70
     6
  9
$SURFTYPE
 70
     6
  9
$SURFU
 70
     6
  9
$SURFV
 70
     6
  9
$UCSBASE
  2

  9
$UCSNAME
  2

  9
$UCSORG
 10
0.0
 20
0.0
 30
0.0
  9
$UCSXDIR
 10
1.0
 20
0.0
 30
0.0
  9
$UCSYDIR
 10
0.0
 20
1.0
 30
0.0
  9
$UCSORTHOREF
  2

  9
$UCSORTHOVIEW
 70
     0
  9
$UCSORGTOP
 10
0.0
 20
0.0
 30
0.0
  9
$UCSORGBOTTOM
 10
0.0
 20
0.0
 30
0.0
  9
$UCSORGLEFT
 10
0.0
 20
0.0
 30
0.0
  9
$UCSORGRIGHT
 10
0.0
 20
0.0
 30
0.0
  9
$UCSORGFRONT
 10
0.0
 20
0.0
 30
0.0
  9
$UCSORGBACK
 10
0.0
 20
0.0
 30
0.0
  9
$PUCSBASE
  2

  9
$PUCSNAME
  2

  9
$PUCSORG
 10
0.0
 20
0.0
 30
0.0
  9
$PUCSXDIR
 10
1.0
 20
0.0
 30
0.0
  9
$PUCSYDIR
 10
0.0
 20
1.0
 30
0.0
  9
$PUCSORTHOREF
  2

  9
$PUCSORTHOVIEW
 70
     0
  9
$PUCSORGTOP
 10
0.0
 20
0.0
 30
0.0
  9
$PUCSORGBOTTOM
 10
0.0
 20
0.0
 30
0.0
  9
$PUCSORGLEFT
 10
0.0
 20
0.0
 30
0.0
  9
$PUCSORGRIGHT
 10
0.0
 20
0.0
 30
0.0
  9
$PUCSORGFRONT
 10
0.0
 20
0.0
 30
0.0
  9
$PUCSORGBACK
 10
0.0
 20
0.0
 30
0.0
  9
$USERI1
 70
     0
  9
$USERI2
 70
     0
  9
$USERI3
 70
     0
  9
$USERI4
 70
     0
  9
$USERI5
 70
     0
  9
$USERR1
 40
0.0
  9
$USERR2
 40
0.0
  9
$USERR3
 40
0.0
  9
$USERR4
 40
0.0
  9
$USERR5
 40
0.0
  9
$WORLDVIEW
 70
     1
  9
$SHADEDGE
 70
     3
  9
$SHADEDIF
 70
    70
  9
$TILEMODE
 70
     1
  9
$MAXACTVP
 70
    64
  9
$PINSBASE
 10
0.0
 20
0.0
 30
0.0
  9
$PLIMCHECK
 70
     0
  9
$PEXTMIN
 10
1.000000E+20
 20
1.000000E+20
 30
1.000000E+20
  9
$PEXTMAX
 10
-1.000000E+20
 20
-1.000000E+20
 30
-1.000000E+20
  9
$PLIMMIN
 10
0.0
 20
0.0
  9
$PLIMMAX
 10
12.0
 20
9.0
  9
$UNITMODE
 70
     0
  9
$VISRETAIN
 70
     1
  9
$PLINEGEN
 70
     0
  9
$PSLTSCALE
 70
     0
  9
$TREEDEPTH
 70
  3020
  9
$CMLSTYLE
  2

  9
$CMLJUST
 70
     0
  9
$CMLSCALE
 40
1.0
  9
$PROXYGRAPHICS
 70
     1
  9
$MEASUREMENT
 70
     1
  9
$CELWEIGHT
370
    -1
  9
$ENDCAPS
280
     0
  9
$JOINSTYLE
280
     0
  9
$LWDISPLAY
290
     0
  9
$INSUNITS
 70
     4
  9
$HYPERLINKBASE
  1

  9
$STYLESHEET
  1

  9
$XEDIT
290
     1
  9
$CEPSNTYPE
380
     0
  9
$PSTYLEMODE
290
     1
  9
$FINGERPRINTGUID
  2
{CD0EC8CF-D8D4-429D-91DD-774C64BCA715}
  9
$VERSIONGUID
  2
{FAEB1C32-E019-11D5-929B-00C0DF256EC4}
  9
$EXTNAMES
290
     1
  9
$PSVPSCALE
 40
0.0
  9
$OLESTARTUP
290
     0
  9
$SORTENTS
280
   127
  9
$INDEXCTL
280
     0
  9
$HIDETEXT
280
     1
  9
$XCLIPFRAME
280
     2
  9
$HALOGAP
280
     0
  9
$OBSCOLOR
 70
   257
  9
$OBSLTYPE
280
     0
  9
$INTERSECTIONDISPLAY
280
     0
  9
$INTERSECTIONCOLOR
 70
   257
  9
$DIMASSOC
280
     2
  9
$PROJECTNAME
  1

  9
$CAMERADISPLAY
290
     0
  9
$LENSLENGTH
 40
50.0
  9
$CAMERAHEIGHT
 40
0.0
  9
$STEPSPERSEC
 40
2.0
  9
$STEPSIZE
 40
6.0
  9
$3DDWFPREC
 40
2.0
  9
$PSOLWIDTH
 40
0.25
  9
$PSOLHEIGHT
 40
4.0
  9
$LOFTANG1
 40
1.570796
  9
$LOFTANG2
 40
1.570796
  9
$LOFTMAG1
 40
0.0
  9
$LOFTMAG2
 40
0.0
  9
$LOFTPARAM
 70
     7
  9
$LOFTNORMALS
280
     1
  9
$LATITUDE
 40
37.795
  9
$LONGITUDE
 40
-122.394
  9
$NORTHDIRECTION
 40
0.0
  9
$TIMEZONE
 70
 -8000
  9
$LIGHTGLYPHDISPLAY
280
     1
  9
$TILEMODELIGHTSYNCH
280
     1
  9
$SOLIDHIST
280
     1
  9
$SHOWHIST
280
     1
  9
$DWFFRAME
280
     2
  9
$DGNFRAME
280
     2
  9
$REALWORLDSCALE
290
     1
  9
$INTERFERECOLOR
 62
   256
  9
$CSHADOW
280
     0
  9
$SHADOWPLANELOCATION
 40
0.0
  0
ENDSEC
  0
SECTION
  2
CLASSES
  0
CLASS
  1
ACDBDICTIONARYWDFLT
  2
AcDbDictionaryWithDefault
  3
ObjectDBX Classes
 90
        0
 91
        6
280
     0
281
     0
  0
CLASS
  1
ACDBPLACEHOLDER
  2
AcDbPlaceHolder
  3
ObjectDBX Classes
 90
        0
 91
        1
280
     0
281
     0
  0
CLASS
  1
LAYOUT
  2
AcDbLayout
  3
ObjectDBX Classes
 90
        0
 91
        1
280
     0
281
     0
  0
CLASS
  1
TABLESTYLE
  2
AcDbTableStyle
  3
ObjectDBX Classes
 90
     4095
 91
        5
280
     0
281
     0
  0
CLASS
  1
ACAD_TABLE
  2
AcDbTable
  3
ObjectDBX Classes
 90
     1025
 91
        5
280
     0
281
     1
  0
CLASS
  1
SCALE
  2
AcDbScale
  3
ObjectDBX Classes
 90
     1153
 91
        5
280
     0
281
     0
  0
CLASS
  1
TABLEGEOMETRY
  2
AcDbTableGeometry
  3
ObjectDBX Classes
 90
     1152
 91
        4
280
     0
281
     0
  0
CLASS
  1
VISUALSTYLE
  2
AcDbVisualStyle
  3
ObjectDBX Classes
 90
     4095
 91
        5
280
     0
281
     0
  0
CLASS
  1
MATERIAL
  2
AcDbMaterial
  3
ObjectDBX Classes
 90
     1153
 91
        5
280
     0
281
     0
  0
CLASS
  1
SUN
  2
AcDbSun
  3
SCENEOE
 90
     1153
 91
        5
280
     0
281
     0
  0
CLASS
  1
CSACDOCUMENTOPTIONS
  2
CDocDataContainer
  3
"DERU003_CSAPP"
 90
     4095
 91
        4
280
     0
281
     0
  0
CLASS
  1
TABLECONTENT
  2
AcDbTableContent
  3
ObjectDBX Classes
 90
     1152
 91
        4
280
     0
281
     0
  0
CLASS
  1
DICTIONARYVAR
  2
AcDbDictionaryVar
  3
ObjectDBX Classes
 90
        0
 91
        4
280
     0
281
     0
  0
CLASS
  1
CELLSTYLEMAP
  2
AcDbCellStyleMap
  3
ObjectDBX Classes
 90
     1152
 91
        4
280
     0
281
     0
  0
ENDSEC
  0
SECTION
  2
TABLES
  0
TABLE
  2
VPORT
  5
8
330
0
100
AcDbSymbolTable
 70
     1
  0
VPORT
  5
1F4
330
8
100
AcDbSymbolTableRecord
100
AcDbViewportTableRecord
  2
*ACTIVE
 70
     0
 10
0.0
 20
0.0
 11
1.0
 21
1.0
 12
594.5
 22
420.5
 13
0.0
 23
0.0
 14
1.0
 24
1.0
 15
0.0
 25
0.0
 16
0.0
 26
0.0
 36
1.0
 17
0.0
 27
0.0
 37
0.0
 40
841.0
 41
2.107285
 42
50.0
 43
0.0
 44
0.0
 50
0.0
 51
0.0
 71
    16
 72
   100
 73
     1
 74
     1
 75
     0
 76
     0
 77
     0
 78
     0
281
     0
 65
     1
110
0.0
120
0.0
130
0.0
111
1.0
121
0.0
131
0.0
112
0.0
122
1.0
132
0.0
 79
     0
146
0.0
 60
     3
 61
     5
292
     1
282
     1
141
0.0
142
0.0
 63
   256
361
4AF
  0
ENDTAB
  0
TABLE
  2
LTYPE
  5
5
330
0
100
AcDbSymbolTable
 70
     6
  0
LTYPE
  5
14
330
5
100
AcDbSymbolTableRecord
100
AcDbLinetypeTableRecord
  2
BYBLOCK
 70
     0
  3

 72
    65
 73
     0
 40
0.0
  0
LTYPE
  5
15
330
5
100
AcDbSymbolTableRecord
100
AcDbLinetypeTableRecord
  2
BYLAYER
 70
     0
  3

 72
    65
 73
     0
 40
0.0
  0
LTYPE
  5
16
330
5
100
AcDbSymbolTableRecord
100
AcDbLinetypeTableRecord
  2
CONTINUOUS
 70
     0
  3
Solid line
 72
    65
 73
     0
 40
0.0
  0
LTYPE
  5
1F5
330
5
100
AcDbSymbolTableRecord
100
AcDbLinetypeTableRecord
  2
CENTER
 70
     0
  3
____ _ ____ _ ____ _ ____ _ ____ _ ____ _ ____
 72
    65
 73
     4
 40
0.6
 49
0.375
 74
     0
 49
-0.075
 74
     0
 49
0.075
 74
     0
 49
-0.075
 74
     0
  0
LTYPE
  5
1F6
330
5
100
AcDbSymbolTableRecord
100
AcDbLinetypeTableRecord
  2
HIDDEN
 70
     0
  3
- - - - - - - - - - - - - - - - - - - -
 72
    65
 73
     2
 40
0.2
 49
0.1
 74
     0
 49
-0.1
 74
     0
  0
LTYPE
  5
1F7
330
5
100
AcDbSymbolTableRecord
100
AcDbLinetypeTableRecord
  2
PHANTOM
 70
     0
  3
_____ _ _ _____ _ _ _____ _ _ _____
 72
    65
 73
     6
 40
0.8
 49
0.45
 74
     0
 49
-0.05
 74
     0
 49
0.1
 74
     0
 49
-0.05
 74
     0
 49
0.1
 74
     0
 49
-0.05
 74
     0
  0
LTYPE
  5
1F8
330
5
100
AcDbSymbolTableRecord
100
AcDbLinetypeTableRecord
  2
DOT
 70
     0
  3
. . . . . . . . . . . . . . . . . . . .
 72
    65
 73
     2
 40
0.2
 49
0.1
 74
     0
 49
-0.1
 74
     0
  0
LTYPE
  5
1F9
330
5
100
AcDbSymbolTableRecord
100
AcDbLinetypeTableRecord
  2
DASHED
 70
     0
  3
- - - - - - - - - - - - - - - - - - - -
 72
    65
 73
     2
 40
0.2
 49
0.1
 74
     0
 49
-0.1
 74
     0
  0
ENDTAB
  0
TABLE
  2
LAYER
  5
2
330
0
100
AcDbSymbolTable
 70
    21
  0
LAYER
  5
10
330
2
100
AcDbSymbolTableRecord
100
AcDbLayerTableRecord
  2
0
 70
     0
 62
     7
  6
CONTINUOUS
370
    -3
390
F
347
4A9
348
0
  0
LAYER
  5
1FA
330
2
100
AcDbSymbolTableRecord
100
AcDbLayerTableRecord
  2
DEFAULT_1
 70
     0
 62
     7
  6
CENTER
370
    -3
390
F
347
4A9
348
0
  0
LAYER
  5
1FB
330
2
100
AcDbSymbolTableRecord
100
AcDbLayerTableRecord
  2
DEFAULT_2
 70
     0
 62
     8
  6
HIDDEN
370
    -3
390
F
347
4A9
348
0
  0
LAYER
  5
1FC
330
2
100
AcDbSymbolTableRecord
100
AcDbLayerTableRecord
  2
DEFAULT_3
 70
     0
 62
     7
  6
PHANTOM
370
    -3
390
F
347
4A9
348
0
  0
LAYER
  5
1FD
330
2
100
AcDbSymbolTableRecord
100
AcDbLayerTableRecord
  2
01___PRT_ALL_DTM_PLN
 70
     0
 62
     7
  6
CONTINUOUS
370
    -3
390
F
347
4A9
348
0
  0
LAYER
  5
1FE
330
2
100
AcDbSymbolTableRecord
100
AcDbLayerTableRecord
  2
01___PRT_DEF_DTM_PLN
 70
     0
 62
     7
  6
CONTINUOUS
370
    -3
390
F
347
4A9
348
0
  0
LAYER
  5
1FF
330
2
100
AcDbSymbolTableRecord
100
AcDbLayerTableRecord
  2
02___PRT_ALL_AXES
 70
     0
 62
     7
  6
CONTINUOUS
370
    -3
390
F
347
4A9
348
0
  0
LAYER
  5
200
330
2
100
AcDbSymbolTableRecord
100
AcDbLayerTableRecord
  2
03___PRT_ALL_CURVES
 70
     0
 62
     7
  6
CONTINUOUS
370
    -3
390
F
347
4A9
348
0
  0
LAYER
  5
201
330
2
100
AcDbSymbolTableRecord
100
AcDbLayerTableRecord
  2
04___PRT_ALL_DTM_PNT
 70
     0
 62
     7
  6
CONTINUOUS
370
    -3
390
F
347
4A9
348
0
  0
LAYER
  5
202
330
2
100
AcDbSymbolTableRecord
100
AcDbLayerTableRecord
  2
05___PRT_ALL_DTM_CSYS
 70
     0
 62
     7
  6
CONTINUOUS
370
    -3
390
F
347
4A9
348
0
  0
LAYER
  5
203
330
2
100
AcDbSymbolTableRecord
100
AcDbLayerTableRecord
  2
05___PRT_DEF_DTM_CSYS
 70
     0
 62
     7
  6
CONTINUOUS
370
    -3
390
F
347
4A9
348
0
  0
LAYER
  5
204
330
2
100
AcDbSymbolTableRecord
100
AcDbLayerTableRecord
  2
06___PRT_ALL_SURFS
 70
     0
 62
     7
  6
CONTINUOUS
370
    -3
390
F
347
4A9
348
0
  0
LAYER
  5
205
330
2
100
AcDbSymbolTableRecord
100
AcDbLayerTableRecord
  2
1_ALL_PLANES
 70
     0
 62
     7
  6
CONTINUOUS
370
    -3
390
F
347
4A9
348
0
  0
LAYER
  5
206
330
2
100
AcDbSymbolTableRecord
100
AcDbLayerTableRecord
  2
2_ALL_CSYS
 70
     0
 62
     7
  6
CONTINUOUS
370
    -3
390
F
347
4A9
348
0
  0
LAYER
  5
207
330
2
100
AcDbSymbolTableRecord
100
AcDbLayerTableRecord
  2
3_ALL_AXES
 70
     0
 62
     7
  6
CONTINUOUS
370
    -3
390
F
347
4A9
348
0
  0
LAYER
  5
208
330
2
100
AcDbSymbolTableRecord
100
AcDbLayerTableRecord
  2
4_ALL_POINTS
 70
     0
 62
     7
  6
CONTINUOUS
370
    -3
390
F
347
4A9
348
0
  0
LAYER
  5
209
330
2
100
AcDbSymbolTableRecord
100
AcDbLayerTableRecord
  2
5_ALL_CURVES
 70
     0
 62
     7
  6
CONTINUOUS
370
    -3
390
F
347
4A9
348
0
  0
LAYER
  5
20A
330
2
100
AcDbSymbolTableRecord
100
AcDbLayerTableRecord
  2
5__APPOGGIO
 70
     0
 62
     7
  6
CONTINUOUS
370
    -3
390
F
347
4A9
348
0
  0
LAYER
  5
20B
330
2
100
AcDbSymbolTableRecord
100
AcDbLayerTableRecord
  2
6_ALL_SURFS
 70
     0
 62
     7
  6
CONTINUOUS
370
    -3
390
F
347
4A9
348
0
  0
LAYER
  5
20C
330
2
100
AcDbSymbolTableRecord
100
AcDbLayerTableRecord
  2
7_ALL_FEATURES
 70
     0
 62
     7
  6
CONTINUOUS
370
    -3
390
F
347
4A9
348
0
  0
LAYER
  5
20D
330
2
100
AcDbSymbolTableRecord
100
AcDbLayerTableRecord
  2
9_SOLID
 70
     0
 62
     7
  6
CONTINUOUS
370
    -3
390
F
347
4A9
348
0
  0
ENDTAB
  0
TABLE
  2
STYLE
  5
3
330
0
100
AcDbSymbolTable
 70
     3
  0
STYLE
  5
11
330
3
100
AcDbSymbolTableRecord
100
AcDbTextStyleTableRecord
  2
STANDARD
 70
     0
 40
0.0
 41
1.0
 50
0.0
 71
     0
 42
0.2
  3
arial.ttf
  4

  0
STYLE
  5
20E
330
3
100
AcDbSymbolTableRecord
100
AcDbTextStyleTableRecord
  2
TEXTSTYLE_1
 70
     0
 40
0.0
 41
0.8
 50
0.0
 71
     0
 42
0.2
  3
gdt
  4

  0
STYLE
  5
20F
330
3
100
AcDbSymbolTableRecord
100
AcDbTextStyleTableRecord
  2
TEXTSTYLE_2
 70
     0
 40
0.0
 41
0.9
 50
0.0
 71
     0
 42
0.2
  3
txt
  4

  0
ENDTAB
  0
TABLE
  2
VIEW
  5
6
330
0
100
AcDbSymbolTable
 70
     0
  0
ENDTAB
  0
TABLE
  2
UCS
  5
7
330
0
100
AcDbSymbolTable
 70
     0
  0
ENDTAB
  0
TABLE
  2
APPID
  5
9
330
0
100
AcDbSymbolTable
 70
     6
  0
APPID
  5
210
330
9
100
AcDbSymbolTableRecord
100
AcDbRegAppTableRecord
  2
ACAD
 70
     0
  0
APPID
  5
4AA
330
9
100
AcDbSymbolTableRecord
100
AcDbRegAppTableRecord
  2
MCS_DIM1
 70
     0
  0
APPID
  5
4AB
330
9
100
AcDbSymbolTableRecord
100
AcDbRegAppTableRecord
  2
McsXdata5
 70
     0
  0
APPID
  5
4AE
330
9
100
AcDbSymbolTableRecord
100
AcDbRegAppTableRecord
  2
MCS_DOCUMENT_ID
 70
     0
  0
APPID
  5
4B4
330
9
100
AcDbSymbolTableRecord
100
AcDbRegAppTableRecord
  2
MCS_PARAMS_DATA
 70
     0
  0
APPID
  5
4B6
330
9
100
AcDbSymbolTableRecord
100
AcDbRegAppTableRecord
  2
MC_VERSION_DATA
 70
     0
  0
ENDTAB
  0
TABLE
  2
DIMSTYLE
  5
A
330
0
100
AcDbSymbolTable
 70
     3
100
AcDbDimStyleTable
  0
DIMSTYLE
105
219
330
A
100
AcDbSymbolTableRecord
100
AcDbDimStyleTableRecord
  2
STANDARD
 70
     0
 41
2.5
 42
0.75
 44
0.75
 47
0.01
 48
0.01
 71
     1
 73
     0
 74
     0
 77
     1
 78
     8
 79
     2
140
3.0
147
0.625
171
     1
178
     0
179
     2
271
     2
272
     2
278
    44
284
     8
340
11
341
213
342
213
343
213
344
213
  0
DIMSTYLE
105
21A
330
A
100
AcDbSymbolTableRecord
100
AcDbDimStyleTableRecord
  2
DIMSTYLE_1
 70
     0
 41
2.5
 42
0.75
 44
0.75
 47
0.3
 48
0.3
 73
     0
 74
     0
 77
     1
 78
     8
 79
     2
140
3.0
147
0.75
171
     1
178
     0
179
     2
271
     2
272
     2
278
    44
284
     8
340
11
341
213
342
213
343
213
344
213
  0
DIMSTYLE
105
21B
330
A
100
AcDbSymbolTableRecord
100
AcDbDimStyleTableRecord
  2
DIMSTYLE_2
 70
     0
 41
2.5
 42
0.75
 44
0.75
 47
0.5
 48
0.5
 73
     0
 74
     0
 77
     1
 78
     8
 79
     2
140
3.0
147
0.75
171
     1
178
     0
179
     2
271
     2
272
     2
278
    44
284
     8
340
11
341
213
342
213
343
213
344
213
  0
ENDTAB
  0
TABLE
  2
BLOCK_RECORD
  5
1
330
0
100
AcDbSymbolTable
 70
     6
  0
BLOCK_RECORD
  5
211
330
1
100
AcDbSymbolTableRecord
100
AcDbBlockTableRecord
  2
*Model_Space
340
464
 70
     0
280
     1
281
     0
  0
BLOCK_RECORD
  5
212
330
1
100
AcDbSymbolTableRecord
100
AcDbBlockTableRecord
  2
*Paper_Space
340
465
 70
     0
280
     1
281
     0
  0
BLOCK_RECORD
  5
213
330
1
100
AcDbSymbolTableRecord
100
AcDbBlockTableRecord
  2
_CLOSED
340
0
102
{BLKREFS
331
264
331
265
331
26D
331
26E
331
276
331
277
102
}
 70
     0
280
     1
281
     0
  0
BLOCK_RECORD
  5
214
330
1
100
AcDbSymbolTableRecord
100
AcDbBlockTableRecord
  2
*D1
340
0
 70
     0
280
     1
281
     0
  0
BLOCK_RECORD
  5
215
330
1
100
AcDbSymbolTableRecord
100
AcDbBlockTableRecord
  2
*D2
340
0
 70
     0
280
     1
281
     0
  0
BLOCK_RECORD
  5
216
330
1
100
AcDbSymbolTableRecord
100
AcDbBlockTableRecord
  2
*D3
340
0
 70
     0
280
     1
281
     0
  0
BLOCK_RECORD
  5
217
330
1
100
AcDbSymbolTableRecord
100
AcDbBlockTableRecord
  2
LOGO2_BL0
340
0
102
{BLKREFS
331
461
102
}
 70
     0
280
     1
281
     0
  0
BLOCK_RECORD
  5
218
330
1
100
AcDbSymbolTableRecord
100
AcDbBlockTableRecord
  2
*T5
340
0
102
{BLKREFS
331
462
102
}
 70
     0
280
     1
281
     0
  0
ENDTAB
  0
ENDSEC
  0
SECTION
  2
BLOCKS
  0
BLOCK
  5
20
330
211
100
AcDbEntity
  8
0
100
AcDbBlockBegin
  2
*Model_Space
 70
     0
 10
0.0
 20
0.0
 30
0.0
  3
*Model_Space
  1
*Model_Space
  0
ENDBLK
  5
21
330
211
100
AcDbEntity
  8
0
100
AcDbBlockEnd
  0
BLOCK
  5
1C
330
212
100
AcDbEntity
 67
     1
  8
0
100
AcDbBlockBegin
  2
*Paper_Space
 70
     0
 10
0.0
 20
0.0
 30
0.0
  3
*Paper_Space
  1
*Paper_Space
  0
ENDBLK
  5
1D
330
212
100
AcDbEntity
 67
     1
  8
0
100
AcDbBlockEnd
  0
BLOCK
  5
258
330
213
100
AcDbEntity
  8
0
100
AcDbBlockBegin
  2
_CLOSED
 70
     0
 10
0.0
 20
0.0
 30
0.0
  3
_CLOSED
  1
_CLOSED
  0
LINE
  5
259
330
213
100
AcDbEntity
  8
0
  6
ByBlock
 62
     0
100
AcDbLine
 10
0.0
 20
0.0
 30
0.0
 11
-1.0
 21
0.2
 31
0.0
  0
LINE
  5
25A
330
213
100
AcDbEntity
  8
0
  6
ByBlock
 62
     0
100
AcDbLine
 10
-1.0
 20
0.2
 30
0.0
 11
-1.0
 21
-0.2
 31
0.0
  0
LINE
  5
25B
330
213
100
AcDbEntity
  8
0
  6
ByBlock
 62
     0
100
AcDbLine
 10
-1.0
 20
-0.2
 30
0.0
 11
0.0
 21
0.0
 31
0.0
  0
LINE
  5
25C
330
213
100
AcDbEntity
  8
0
  6
ByBlock
 62
     0
100
AcDbLine
 10
-1.0
 20
0.0
 30
0.0
 11
0.0
 21
0.0
 31
0.0
  0
ENDBLK
  5
25D
330
213
100
AcDbEntity
  8
0
  6
ByBlock
 62
     0
100
AcDbBlockEnd
  0
BLOCK
  5
25E
330
214
100
AcDbEntity
  8
0
100
AcDbBlockBegin
  2
*D1
 70
     1
 10
0.0
 20
0.0
 30
0.0
  3
*D1
  1
*D1
  0
MTEXT
  5
25F
330
214
100
AcDbEntity
  8
0
  6
Continuous
 62
     2
100
AcDbMText
 10
260.45143
 20
670.852826
 30
0.0
 40
3.0
 41
10.483271
 46
0.0
 71
     2
 72
     1
  1
65,44
 11
0.0
 21
1.0
 31
0.0
 73
     1
 44
0.9
  0
LINE
  5
260
330
214
100
AcDbEntity
  8
0
  6
Continuous
 62
     2
100
AcDbLine
 10
281.988571
 20
638.13121
 30
0.0
 11
263.45143
 21
638.13121
 31
0.0
  0
LINE
  5
261
330
214
100
AcDbEntity
  8
0
  6
Continuous
 62
     2
100
AcDbLine
 10
279.430218
 20
703.574442
 30
0.0
 11
263.45143
 21
703.574442
 31
0.0
  0
LINE
  5
262
330
214
100
AcDbEntity
  8
0
  6
Continuous
 62
     2
100
AcDbLine
 10
264.20143
 20
638.13121
 30
0.0
 11
264.20143
 21
670.852826
 31
0.0
  0
LINE
  5
263
330
214
100
AcDbEntity
  8
0
  6
Continuous
 62
     2
100
AcDbLine
 10
264.20143
 20
703.574442
 30
0.0
 11
264.20143
 21
670.852826
 31
0.0
  0
INSERT
  5
264
330
214
100
AcDbEntity
  8
0
  6
Continuous
 62
     2
100
AcDbBlockReference
  2
_CLOSED
 10
264.20143
 20
638.13121
 30
0.0
 41
2.5
 42
2.5
 43
2.5
 50
270.0
  0
INSERT
  5
265
330
214
100
AcDbEntity
  8
0
  6
Continuous
 62
     2
100
AcDbBlockReference
  2
_CLOSED
 10
264.20143
 20
703.574442
 30
0.0
 41
2.5
 42
2.5
 43
2.5
 50
90.0
  0
ENDBLK
  5
266
330
214
100
AcDbEntity
  8
0
  6
ByBlock
 62
     0
100
AcDbBlockEnd
  0
BLOCK
  5
267
330
215
100
AcDbEntity
  8
0
100
AcDbBlockBegin
  2
*D2
 70
     1
 10
0.0
 20
0.0
 30
0.0
  3
*D2
  1
*D2
  0
MTEXT
  5
268
330
215
100
AcDbEntity
  8
0
  6
Continuous
 62
     2
100
AcDbMText
 10
312.483411
 20
621.962163
 30
0.0
 40
3.0
 41
4.66171
 46
0.0
 71
     2
 72
     1
  1
45
 73
     1
 44
0.9
  0
LINE
  5
269
330
215
100
AcDbEntity
  8
0
  6
Continuous
 62
     2
100
AcDbLine
 10
289.983411
 20
635.385559
 30
0.0
 11
289.983411
 21
617.462163
 31
0.0
  0
LINE
  5
26A
330
215
100
AcDbEntity
  8
0
  6
Continuous
 62
     2
100
AcDbLine
 10
334.983411
 20
633.128647
 30
0.0
 11
334.983411
 21
617.462163
 31
0.0
  0
LINE
  5
26B
330
215
100
AcDbEntity
  8
0
  6
Continuous
 62
     2
100
AcDbLine
 10
289.983411
 20
618.212163
 30
0.0
 11
312.483411
 21
618.212163
 31
0.0
  0
LINE
  5
26C
330
215
100
AcDbEntity
  8
0
  6
Continuous
 62
     2
100
AcDbLine
 10
334.983411
 20
618.212163
 30
0.0
 11
312.483411
 21
618.212163
 31
0.0
  0
INSERT
  5
26D
330
215
100
AcDbEntity
  8
0
  6
Continuous
 62
     2
100
AcDbBlockReference
  2
_CLOSED
 10
289.983411
 20
618.212163
 30
0.0
 41
2.5
 42
2.5
 43
2.5
 50
180.0
  0
INSERT
  5
26E
330
215
100
AcDbEntity
  8
0
  6
Continuous
 62
     2
100
AcDbBlockReference
  2
_CLOSED
 10
334.983411
 20
618.212163
 30
0.0
 41
2.5
 42
2.5
 43
2.5
  0
ENDBLK
  5
26F
330
215
100
AcDbEntity
  8
0
  6
ByBlock
 62
     0
100
AcDbBlockEnd
  0
BLOCK
  5
270
330
216
100
AcDbEntity
  8
0
100
AcDbBlockBegin
  2
*D3
 70
     1
 10
0.0
 20
0.0
 30
0.0
  3
*D3
  1
*D3
  0
MTEXT
  5
271
330
216
100
AcDbEntity
  8
0
  6
Continuous
 62
     2
100
AcDbMText
 10
806.810182
 20
482.153915
 30
0.0
 40
3.0
 41
12.814126
 46
0.0
 71
     2
 72
     1
  1
139,25
 11
0.0
 21
1.0
 31
0.0
 73
     1
 44
0.9
  0
LINE
  5
272
330
216
100
AcDbEntity
  8
0
  6
Continuous
 62
     2
100
AcDbLine
 10
776.740062
 20
551.778915
 30
0.0
 11
811.310182
 21
551.778915
 31
0.0
  0
LINE
  5
273
330
216
100
AcDbEntity
  8
0
  6
Continuous
 62
     2
100
AcDbLine
 10
775.852866
 20
412.528915
 30
0.0
 11
811.310182
 21
412.528915
 31
0.0
  0
LINE
  5
274
330
216
100
AcDbEntity
  8
0
  6
Continuous
 62
     2
100
AcDbLine
 10
810.560182
 20
551.778915
 30
0.0
 11
810.560182
 21
482.153915
 31
0.0
  0
LINE
  5
275
330
216
100
AcDbEntity
  8
0
  6
Continuous
 62
     2
100
AcDbLine
 10
810.560182
 20
412.528915
 30
0.0
 11
810.560182
 21
482.153915
 31
0.0
  0
INSERT
  5
276
330
216
100
AcDbEntity
  8
0
  6
Continuous
 62
     2
100
AcDbBlockReference
  2
_CLOSED
 10
810.560182
 20
551.778915
 30
0.0
 41
2.5
 42
2.5
 43
2.5
 50
90.0
  0
INSERT
  5
277
330
216
100
AcDbEntity
  8
0
  6
Continuous
 62
     2
100
AcDbBlockReference
  2
_CLOSED
 10
810.560182
 20
412.528915
 30
0.0
 41
2.5
 42
2.5
 43
2.5
 50
270.0
  0
ENDBLK
  5
278
330
216
100
AcDbEntity
  8
0
  6
ByBlock
 62
     0
100
AcDbBlockEnd
  0
BLOCK
  5
21C
330
217
100
AcDbEntity
  8
0
100
AcDbBlockBegin
  2
LOGO2_BL0
 70
     0
 10
1102.860957
 20
36.533893
 30
0.0
  3
LOGO2_BL0
  1
LOGO2_BL0
  0
LINE
  5
21D
330
217
100
AcDbEntity
  8
0
  6
Continuous
 62
     7
100
AcDbLine
 10
1094.603883
 20
39.729385
 30
0.0
 11
1093.299542
 21
39.729385
 31
0.0
  0
LINE
  5
21E
330
217
100
AcDbEntity
  8
0
  6
Continuous
 62
     7
100
AcDbLine
 10
1093.299542
 20
39.729385
 30
0.0
 11
1093.299542
 21
29.270319
 31
0.0
  0
LINE
  5
21F
330
217
100
AcDbEntity
  8
0
  6
Continuous
 62
     7
100
AcDbLine
 10
1093.299542
 20
29.270319
 30
0.0
 11
1097.780597
 21
29.270319
 31
0.0
  0
LINE
  5
220
330
217
100
AcDbEntity
  8
0
  6
Continuous
 62
     7
100
AcDbLine
 10
1097.780597
 20
29.270319
 30
0.0
 11
1097.780597
 21
30.463173
 31
0.0
  0
LINE
  5
221
330
217
100
AcDbEntity
  8
0
  6
Continuous
 62
     7
100
AcDbLine
 10
1097.780597
 20
30.463173
 30
0.0
 11
1094.603883
 21
30.463173
 31
0.0
  0
LINE
  5
222
330
217
100
AcDbEntity
  8
0
  6
Continuous
 62
     7
100
AcDbLine
 10
1094.603883
 20
30.463173
 30
0.0
 11
1094.603883
 21
39.729385
 31
0.0
  0
LINE
  5
223
330
217
100
AcDbEntity
  8
0
  6
Continuous
 62
     7
100
AcDbLine
 10
1109.540209
 20
39.729385
 30
0.0
 11
1108.236391
 21
39.729385
 31
0.0
  0
LINE
  5
224
330
217
100
AcDbEntity
  8
0
  6
Continuous
 62
     7
100
AcDbLine
 10
1108.236391
 20
39.729385
 30
0.0
 11
1108.236391
 21
29.270319
 31
0.0
  0
LINE
  5
225
330
217
100
AcDbEntity
  8
0
  6
Continuous
 62
     7
100
AcDbLine
 10
1108.236391
 20
29.270319
 30
0.0
 11
1112.717577
 21
29.270319
 31
0.0
  0
LINE
  5
226
330
217
100
AcDbEntity
  8
0
  6
Continuous
 62
     7
100
AcDbLine
 10
1112.717577
 20
29.270319
 30
0.0
 11
1112.717577
 21
30.463173
 31
0.0
  0
LINE
  5
227
330
217
100
AcDbEntity
  8
0
  6
Continuous
 62
     7
100
AcDbLine
 10
1112.717577
 20
30.463173
 30
0.0
 11
1109.540209
 21
30.463173
 31
0.0
  0
LINE
  5
228
330
217
100
AcDbEntity
  8
0
  6
Continuous
 62
     7
100
AcDbLine
 10
1109.540209
 20
30.463173
 30
0.0
 11
1109.540209
 21
39.729385
 31
0.0
  0
LWPOLYLINE
  5
229
330
217
100
AcDbEntity
  8
0
  6
Continuous
 62
     7
100
AcDbPolyline
 90
        2
 70
     0
 43
0.2
 10
1091.653937
 20
25.926767
 10
1091.653937
 20
24.069704
  0
LWPOLYLINE
  5
22A
330
217
100
AcDbEntity
  8
0
  6
Continuous
 62
     7
100
AcDbPolyline
 90
        2
 70
     0
 43
0.2
 10
1091.653937
 20
24.069704
 10
1092.449653
 20
24.069704
  0
LWPOLYLINE
  5
22B
330
217
100
AcDbEntity
  8
0
  6
Continuous
 62
     7
100
AcDbPolyline
 90
        2
 70
     0
 43
0.2
 10
1092.449653
 20
24.069704
 10
1092.449653
 20
24.281686
  0
LWPOLYLINE
  5
22C
330
217
100
AcDbEntity
  8
0
  6
Continuous
 62
     7
100
AcDbPolyline
 90
        2
 70
     0
 43
0.2
 10
1092.449653
 20
24.281686
 10
1091.885546
 20
24.281686
  0
LWPOLYLINE
  5
22D
330
217
100
AcDbEntity
  8
0
  6
Continuous
 62
     7
100
AcDbPolyline
 90
        2
 70
     0
 43
0.2
 10
1091.885546
 20
24.281686
 10
1091.885546
 20
25.926767
  0
LWPOLYLINE
  5
22E
330
217
100
AcDbEntity
  8
0
  6
Continuous
 62
     7
100
AcDbPolyline
 90
        2
 70
     0
 43
0.2
 10
1091.885546
 20
25.926767
 10
1091.653937
 20
25.926767
  0
SPLINE
  5
22F
330
217
100
AcDbEntity
  8
0
  6
Continuous
 62
     7
100
AcDbSpline
 70
     3
 71
     3
 72
    35
 73
    31
 74
     0
 42
0.000000001
 43
0.0000001
 40
0.0
 40
0.0
 40
0.0
 40
0.0
 40
1.0
 40
1.0
 40
1.0
 40
2.0
 40
2.0
 40
2.0
 40
3.0
 40
3.0
 40
3.0
 40
4.0
 40
4.0
 40
4.0
 40
5.0
 40
5.0
 40
5.0
 40
6.0
 40
6.0
 40
6.0
 40
7.0
 40
7.0
 40
7.0
 40
8.0
 40
8.0
 40
8.0
 40
9.0
 40
9.0
 40
9.0
 40
10.0
 40
10.0
 40
10.0
 40
10.0
 10
1093.8479459295
 20
25.2222558308
 30
0.0
 10
1093.8479459295
 20
25.2222558308
 30
0.0
 10
1093.8479459295
 20
24.5601405517
 30
0.0
 10
1093.8479459295
 20
24.5601405517
 30
0.0
 10
1093.8479459295
 20
24.2450469564
 30
0.0
 10
1093.9958096184
 20
24.0304483284
 30
0.0
 10
1094.3358961027
 20
24.0304483284
 30
0.0
 10
1094.6754591757
 20
24.0304483284
 30
0.0
 10
1094.8235845701
 20
24.2450469564
 30
0.0
 10
1094.8235845701
 20
24.5601405517
 30
0.0
 10
1094.8235845701
 20
24.5601405517
 30
0.0
 10
1094.8235845701
 20
25.2222558308
 30
0.0
 10
1094.8235845701
 20
25.2222558308
 30
0.0
 10
1094.8235845701
 20
25.2222558308
 30
0.0
 10
1094.6015273313
 20
25.2222558308
 30
0.0
 10
1094.6015273313
 20
25.2222558308
 30
0.0
 10
1094.6015273313
 20
25.2222558308
 30
0.0
 10
1094.6015273313
 20
24.5852642935
 30
0.0
 10
1094.6015273313
 20
24.5852642935
 30
0.0
 10
1094.6015273313
 20
24.3994532863
 30
0.0
 10
1094.5548128738
 20
24.2366723758
 30
0.0
 10
1094.3358961027
 20
24.2366723758
 30
0.0
 10
1094.1164559202
 20
24.2366723758
 30
0.0
 10
1094.0697414628
 20
24.3994532863
 30
0.0
 10
1094.0697414628
 20
24.5852642935
 30
0.0
 10
1094.0697414628
 20
24.5852642935
 30
0.0
 10
1094.0697414628
 20
25.2222558308
 30
0.0
 10
1094.0697414628
 20
25.2222558308
 30
0.0
 10
1094.0697414628
 20
25.2222558308
 30
0.0
 10
1093.8479459295
 20
25.2222558308
 30
0.0
 10
1093.8479459295
 20
25.2222558308
 30
0.0
  0
SPLINE
  5
230
330
217
100
AcDbEntity
  8
0
  6
Continuous
 62
     7
100
AcDbSpline
 70
     3
 71
     3
 72
    35
 73
    31
 74
     0
 42
0.000000001
 43
0.0000001
 40
0.0
 40
0.0
 40
0.0
 40
0.0
 40
1.0
 40
1.0
 40
1.0
 40
2.0
 40
2.0
 40
2.0
 40
3.0
 40
3.0
 40
3.0
 40
4.0
 40
4.0
 40
4.0
 40
5.0
 40
5.0
 40
5.0
 40
6.0
 40
6.0
 40
6.0
 40
7.0
 40
7.0
 40
7.0
 40
8.0
 40
8.0
 40
8.0
 40
9.0
 40
9.0
 40
9.0
 40
10.0
 40
10.0
 40
10.0
 40
10.0
 10
1097.2467171273
 20
25.1809063391
 30
0.0
 10
1097.1582606197
 20
25.2322006453
 30
0.0
 10
1097.044811223
 20
25.2573243871
 30
0.0
 10
1096.941175788
 20
25.2573243871
 30
0.0
 10
1096.5863029349
 20
25.2573243871
 30
0.0
 10
1096.3108577446
 20
24.993525098
 30
0.0
 10
1096.3108577446
 20
24.6360351884
 30
0.0
 10
1096.3108577446
 20
24.2911071497
 30
0.0
 10
1096.5893125498
 20
24.0309717397
 30
0.0
 10
1096.9288756228
 20
24.0309717397
 30
0.0
 10
1097.044811223
 20
24.0309717397
 30
0.0
 10
1097.1455678959
 20
24.0529550137
 30
0.0
 10
1097.2467171273
 20
24.1068663764
 30
0.0
 10
1097.2467171273
 20
24.1068663764
 30
0.0
 10
1097.2467171273
 20
24.3895084718
 30
0.0
 10
1097.2467171273
 20
24.3895084718
 30
0.0
 10
1097.1628404684
 20
24.2963412626
 30
0.0
 10
1097.0593358863
 20
24.2371957871
 30
0.0
 10
1096.9312309736
 20
24.2371957871
 30
0.0
 10
1096.6975278335
 20
24.2371957871
 30
0.0
 10
1096.5322607194
 20
24.4093981008
 30
0.0
 10
1096.5322607194
 20
24.6459800029
 30
0.0
 10
1096.5322607194
 20
24.8579615745
 30
0.0
 10
1096.7000140371
 20
25.0500535171
 30
0.0
 10
1096.9168371631
 20
25.0500535171
 30
0.0
 10
1097.0496527774
 20
25.0500535171
 30
0.0
 10
1097.1582606197
 20
24.9961421545
 30
0.0
 10
1097.2467171273
 20
24.8951237759
 30
0.0
 10
1097.2467171273
 20
24.8951237759
 30
0.0
 10
1097.2467171273
 20
25.1809063391
 30
0.0
 10
1097.2467171273
 20
25.1809063391
 30
0.0
  0
SPLINE
  5
231
330
217
100
AcDbEntity
  8
0
  6
Continuous
 62
     7
100
AcDbSpline
 70
     3
 71
     3
 72
    32
 73
    28
 74
     0
 42
0.000000001
 43
0.0000001
 40
0.0
 40
0.0
 40
0.0
 40
0.0
 40
1.0
 40
1.0
 40
1.0
 40
2.0
 40
2.0
 40
2.0
 40
3.0
 40
3.0
 40
3.0
 40
4.0
 40
4.0
 40
4.0
 40
5.0
 40
5.0
 40
5.0
 40
6.0
 40
6.0
 40
6.0
 40
7.0
 40
7.0
 40
7.0
 40
8.0
 40
8.0
 40
8.0
 40
9.0
 40
9.0
 40
9.0
 40
9.0
 10
1099.7785883796
 20
24.6093412127
 30
0.0
 10
1099.7785883796
 20
24.6093412127
 30
0.0
 10
1099.7785883796
 20
24.6433629465
 30
0.0
 10
1099.7785883796
 20
24.6433629465
 30
0.0
 10
1099.7785883796
 20
24.9856739287
 30
0.0
 10
1099.6057318018
 20
25.2573243871
 30
0.0
 10
1099.2390821946
 20
25.2573243871
 30
0.0
 10
1098.8674601802
 20
25.2573243871
 30
0.0
 10
1098.6777235884
 20
24.9909080416
 30
0.0
 10
1098.6777235884
 20
24.6360351884
 30
0.0
 10
1098.6777235884
 20
24.2963412626
 30
0.0
 10
1098.8917988051
 20
24.0304483284
 30
0.0
 10
1099.243923749
 20
24.0304483284
 30
0.0
 10
1099.4679437802
 20
24.0304483284
 30
0.0
 10
1099.6701113902
 20
24.146122223
 30
0.0
 10
1099.7785883796
 20
24.3455419237
 30
0.0
 10
1099.7785883796
 20
24.3455419237
 30
0.0
 10
1099.5909454329
 20
24.4523178264
 30
0.0
 10
1099.5909454329
 20
24.4523178264
 30
0.0
 10
1099.5074613325
 20
24.3136138351
 30
0.0
 10
1099.4162569155
 20
24.2277743839
 30
0.0
 10
1099.2466716583
 20
24.2277743839
 30
0.0
 10
1099.0346900867
 20
24.2277743839
 30
0.0
 10
1098.9017436196
 20
24.4125385685
 30
0.0
 10
1098.8993882688
 20
24.6093412127
 30
0.0
 10
1098.8993882688
 20
24.6093412127
 30
0.0
 10
1099.7785883796
 20
24.6093412127
 30
0.0
 10
1099.7785883796
 20
24.6093412127
 30
0.0
  0
SPLINE
  5
232
330
217
100
AcDbEntity
  8
0
  6
Continuous
 62
     7
100
AcDbSpline
 70
     3
 71
     3
 72
    14
 73
    10
 74
     0
 42
0.000000001
 43
0.0000001
 40
0.0
 40
0.0
 40
0.0
 40
0.0
 40
1.0
 40
1.0
 40
1.0
 40
2.0
 40
2.0
 40
2.0
 40
3.0
 40
3.0
 40
3.0
 40
3.0
 10
1098.9114267284
 20
24.7768328249
 30
0.0
 10
1098.9390366738
 20
24.9417073805
 30
0.0
 10
1099.0668798809
 20
25.0647090332
 30
0.0
 10
1099.2390821946
 20
25.0647090332
 30
0.0
 10
1099.4162569155
 20
25.0647090332
 30
0.0
 10
1099.5297063122
 20
24.9490351386
 30
0.0
 10
1099.5569236992
 20
24.7768328249
 30
0.0
 10
1099.5569236992
 20
24.7768328249
 30
0.0
 10
1098.9114267284
 20
24.7768328249
 30
0.0
 10
1098.9114267284
 20
24.7768328249
 30
0.0
  0
SPLINE
  5
233
330
217
100
AcDbEntity
  8
0
  6
Continuous
 62
     7
100
AcDbSpline
 70
     3
 71
     3
 72
    20
 73
    16
 74
     0
 42
0.000000001
 43
0.0000001
 40
0.0
 40
0.0
 40
0.0
 40
0.0
 40
1.0
 40
1.0
 40
1.0
 40
2.0
 40
2.0
 40
2.0
 40
3.0
 40
3.0
 40
3.0
 40
4.0
 40
4.0
 40
4.0
 40
5.0
 40
5.0
 40
5.0
 40
5.0
 10
1101.8026198298
 20
24.98619734
 30
0.0
 10
1101.8026198298
 20
24.98619734
 30
0.0
 10
1102.2137593964
 20
24.4837225037
 30
0.0
 10
1102.2137593964
 20
24.4837225037
 30
0.0
 10
1102.0976929433
 20
24.368048609
 30
0.0
 10
1101.9599049218
 20
24.2377191984
 30
0.0
 10
1101.7879643137
 20
24.2377191984
 30
0.0
 10
1101.6105278871
 20
24.2377191984
 30
0.0
 10
1101.443036275
 20
24.4020703428
 30
0.0
 10
1101.443036275
 20
24.5789833581
 30
0.0
 10
1101.443036275
 20
24.7569431959
 30
0.0
 10
1101.6527933486
 20
24.8830853163
 30
0.0
 10
1101.78037485
 20
24.9710184127
 30
0.0
 10
1101.78037485
 20
24.9710184127
 30
0.0
 10
1101.8026198298
 20
24.98619734
 30
0.0
 10
1101.8026198298
 20
24.98619734
 30
0.0
  0
SPLINE
  5
234
330
217
100
AcDbEntity
  8
0
  6
Continuous
 62
     7
100
AcDbSpline
 70
     3
 71
     3
 72
    23
 73
    19
 74
     0
 42
0.000000001
 43
0.0000001
 40
0.0
 40
0.0
 40
0.0
 40
0.0
 40
1.0
 40
1.0
 40
1.0
 40
2.0
 40
2.0
 40
2.0
 40
3.0
 40
3.0
 40
3.0
 40
4.0
 40
4.0
 40
4.0
 40
5.0
 40
5.0
 40
5.0
 40
6.0
 40
6.0
 40
6.0
 40
6.0
 10
1101.8519513436
 20
25.2772140161
 30
0.0
 10
1101.8519513436
 20
25.2772140161
 30
0.0
 10
1101.7903196645
 20
25.3557257093
 30
0.0
 10
1101.7903196645
 20
25.3557257093
 30
0.0
 10
1101.7364083019
 20
25.424292588
 30
0.0
 10
1101.6796181771
 20
25.493382878
 30
0.0
 10
1101.6796181771
 20
25.5870734985
 30
0.0
 10
1101.6796181771
 20
25.7058878608
 30
0.0
 10
1101.7755332956
 20
25.7833527314
 30
0.0
 10
1101.8864964886
 20
25.7833527314
 30
0.0
 10
1102.0097598469
 20
25.7833527314
 30
0.0
 10
1102.103057909
 20
25.7121687963
 30
0.0
 10
1102.103057909
 20
25.5818393856
 30
0.0
 10
1102.103057909
 20
25.4467992733
 30
0.0
 10
1101.9749529963
 20
25.3703812253
 30
0.0
 10
1101.8813932286
 20
25.2965802337
 30
0.0
 10
1101.8813932286
 20
25.2965802337
 30
0.0
 10
1101.8519513436
 20
25.2772140161
 30
0.0
 10
1101.8519513436
 20
25.2772140161
 30
0.0
  0
SPLINE
  5
235
330
217
100
AcDbEntity
  8
0
  6
Continuous
 62
     7
100
AcDbSpline
 70
     3
 71
     3
 72
    50
 73
    46
 74
     0
 42
0.000000001
 43
0.0000001
 40
0.0
 40
0.0
 40
0.0
 40
0.0
 40
1.0
 40
1.0
 40
1.0
 40
2.0
 40
2.0
 40
2.0
 40
3.0
 40
3.0
 40
3.0
 40
4.0
 40
4.0
 40
4.0
 40
5.0
 40
5.0
 40
5.0
 40
6.0
 40
6.0
 40
6.0
 40
7.0
 40
7.0
 40
7.0
 40
8.0
 40
8.0
 40
8.0
 40
9.0
 40
9.0
 40
9.0
 40
10.0
 40
10.0
 40
10.0
 40
11.0
 40
11.0
 40
11.0
 40
12.0
 40
12.0
 40
12.0
 40
13.0
 40
13.0
 40
13.0
 40
14.0
 40
14.0
 40
14.0
 40
15.0
 40
15.0
 40
15.0
 40
15.0
 10
1102.5541075863
 20
24.0702275862
 30
0.0
 10
1102.5541075863
 20
24.0702275862
 30
0.0
 10
1102.839497591
 20
24.0702275862
 30
0.0
 10
1102.839497591
 20
24.0702275862
 30
0.0
 10
1102.839497591
 20
24.0702275862
 30
0.0
 10
1102.5071314232
 20
24.4811054472
 30
0.0
 10
1102.5071314232
 20
24.4811054472
 30
0.0
 10
1102.5071314232
 20
24.4811054472
 30
0.0
 10
1102.7336376581
 20
24.7469983815
 30
0.0
 10
1102.7336376581
 20
24.7469983815
 30
0.0
 10
1102.7336376581
 20
24.7469983815
 30
0.0
 10
1102.5853814108
 20
24.8998344775
 30
0.0
 10
1102.5853814108
 20
24.8998344775
 30
0.0
 10
1102.5853814108
 20
24.8998344775
 30
0.0
 10
1102.3694742545
 20
24.6485970593
 30
0.0
 10
1102.3694742545
 20
24.6485970593
 30
0.0
 10
1102.3694742545
 20
24.6485970593
 30
0.0
 10
1101.9824116072
 20
25.1165267507
 30
0.0
 10
1101.9824116072
 20
25.1165267507
 30
0.0
 10
1102.1378647596
 20
25.2306304115
 30
0.0
 10
1102.3201427406
 20
25.3703812253
 30
0.0
 10
1102.3201427406
 20
25.5797457405
 30
0.0
 10
1102.3201427406
 20
25.8236554006
 30
0.0
 10
1102.1181059835
 20
25.9670700935
 30
0.0
 10
1101.8915997487
 20
25.9670700935
 30
0.0
 10
1101.6474283829
 20
25.9670700935
 30
0.0
 10
1101.4630567568
 20
25.8163276426
 30
0.0
 10
1101.4630567568
 20
25.5598561115
 30
0.0
 10
1101.4630567568
 20
25.4023093139
 30
0.0
 10
1101.5617197845
 20
25.2646521452
 30
0.0
 10
1101.6670563062
 20
25.1536889521
 30
0.0
 10
1101.6670563062
 20
25.1536889521
 30
0.0
 10
1101.5515132644
 20
25.0699431461
 30
0.0
 10
1101.5515132644
 20
25.0699431461
 30
0.0
 10
1101.3738151322
 20
24.9417073805
 30
0.0
 10
1101.2264748546
 20
24.8139950263
 30
0.0
 10
1101.2264748546
 20
24.5768897129
 30
0.0
 10
1101.2264748546
 20
24.2565620047
 30
0.0
 10
1101.4850400309
 20
24.0304483284
 30
0.0
 10
1101.7954229246
 20
24.0304483284
 30
0.0
 10
1102.0143396957
 20
24.0304483284
 30
0.0
 10
1102.2115348984
 20
24.1555436262
 30
0.0
 10
1102.3518091236
 20
24.3214650044
 30
0.0
 10
1102.3518091236
 20
24.3214650044
 30
0.0
 10
1102.5541075863
 20
24.0702275862
 30
0.0
 10
1102.5541075863
 20
24.0702275862
 30
0.0
  0
LWPOLYLINE
  5
236
330
217
100
AcDbEntity
  8
0
  6
Continuous
 62
     7
100
AcDbPolyline
 90
        2
 70
     0
 43
0.2
 10
1104.489552
 20
25.926767
 10
1104.258204
 20
25.926767
  0
LWPOLYLINE
  5
237
330
217
100
AcDbEntity
  8
0
  6
Continuous
 62
     7
100
AcDbPolyline
 90
        2
 70
     0
 43
0.2
 10
1104.258204
 20
25.926767
 10
1104.258204
 20
24.069704
  0
LWPOLYLINE
  5
238
330
217
100
AcDbEntity
  8
0
  6
Continuous
 62
     7
100
AcDbPolyline
 90
        2
 70
     0
 43
0.2
 10
1104.258204
 20
24.069704
 10
1105.053527
 20
24.069704
  0
LWPOLYLINE
  5
239
330
217
100
AcDbEntity
  8
0
  6
Continuous
 62
     7
100
AcDbPolyline
 90
        2
 70
     0
 43
0.2
 10
1105.053527
 20
24.069704
 10
1105.053527
 20
24.281686
  0
LWPOLYLINE
  5
23A
330
217
100
AcDbEntity
  8
0
  6
Continuous
 62
     7
100
AcDbPolyline
 90
        2
 70
     0
 43
0.2
 10
1105.053527
 20
24.281686
 10
1104.489552
 20
24.281686
  0
LWPOLYLINE
  5
23B
330
217
100
AcDbEntity
  8
0
  6
Continuous
 62
     7
100
AcDbPolyline
 90
        2
 70
     0
 43
0.2
 10
1104.489552
 20
24.281686
 10
1104.489552
 20
25.926767
  0
LWPOLYLINE
  5
23C
330
217
100
AcDbEntity
  8
0
  6
Continuous
 62
     7
100
AcDbPolyline
 90
        2
 70
     0
 43
0.2
 10
1106.732631
 20
25.222256
 10
1106.511489
 20
25.222256
  0
LWPOLYLINE
  5
23D
330
217
100
AcDbEntity
  8
0
  6
Continuous
 62
     7
100
AcDbPolyline
 90
        2
 70
     0
 43
0.2
 10
1106.511489
 20
25.222256
 10
1106.511489
 20
24.070228
  0
LWPOLYLINE
  5
23E
330
217
100
AcDbEntity
  8
0
  6
Continuous
 62
     7
100
AcDbPolyline
 90
        2
 70
     0
 43
0.2
 10
1106.511489
 20
24.070228
 10
1106.732631
 20
24.070228
  0
LWPOLYLINE
  5
23F
330
217
100
AcDbEntity
  8
0
  6
Continuous
 62
     7
100
AcDbPolyline
 90
        2
 70
     0
 43
0.2
 10
1106.732631
 20
24.070228
 10
1106.732631
 20
25.222256
  0
LWPOLYLINE
  5
240
330
217
100
AcDbEntity
  8
0
  6
Continuous
 62
     7
100
AcDbPolyline
 90
        2
 70
     1
 43
0.2
 10
1106.469607
 20
25.75221
 42
1.0
 10
1106.774774
 20
25.75221
 42
1.0
  0
SPLINE
  5
241
330
217
100
AcDbEntity
  8
0
  6
Continuous
 62
     7
100
AcDbSpline
 70
     3
 71
     3
 72
    17
 73
    13
 74
     0
 42
0.000000001
 43
0.0000001
 40
0.0
 40
0.0
 40
0.0
 40
0.0
 40
1.0
 40
1.0
 40
1.0
 40
2.0
 40
2.0
 40
2.0
 40
3.0
 40
3.0
 40
3.0
 40
4.0
 40
4.0
 40
4.0
 40
4.0
 10
1108.8629146918
 20
24.2277743839
 30
0.0
 10
1108.6289498462
 20
24.2277743839
 30
0.0
 10
1108.4986204355
 20
24.429811141
 30
0.0
 10
1108.4986204355
 20
24.6459800029
 30
0.0
 10
1108.4986204355
 20
24.8605786309
 30
0.0
 10
1108.6344456647
 20
25.0594749203
 30
0.0
 10
1108.8629146918
 20
25.0594749203
 30
0.0
 10
1109.102375356
 20
25.0594749203
 30
0.0
 10
1109.2379388796
 20
24.8705234454
 30
0.0
 10
1109.2379388796
 20
24.6459800029
 30
0.0
 10
1109.2379388796
 20
24.4198663265
 30
0.0
 10
1109.1047307068
 20
24.2277743839
 30
0.0
 10
1108.8629146918
 20
24.2277743839
 30
0.0
  0
SPLINE
  5
242
330
217
100
AcDbEntity
  8
0
  6
Continuous
 62
     7
100
AcDbSpline
 70
     3
 71
     3
 72
    50
 73
    46
 74
     0
 42
0.000000001
 43
0.0000001
 40
0.0
 40
0.0
 40
0.0
 40
0.0
 40
1.0
 40
1.0
 40
1.0
 40
2.0
 40
2.0
 40
2.0
 40
3.0
 40
3.0
 40
3.0
 40
4.0
 40
4.0
 40
4.0
 40
5.0
 40
5.0
 40
5.0
 40
6.0
 40
6.0
 40
6.0
 40
7.0
 40
7.0
 40
7.0
 40
8.0
 40
8.0
 40
8.0
 40
9.0
 40
9.0
 40
9.0
 40
10.0
 40
10.0
 40
10.0
 40
11.0
 40
11.0
 40
11.0
 40
12.0
 40
12.0
 40
12.0
 40
13.0
 40
13.0
 40
13.0
 40
14.0
 40
14.0
 40
14.0
 40
15.0
 40
15.0
 40
15.0
 40
15.0
 10
1109.4470416891
 20
25.2227792421
 30
0.0
 10
1109.4470416891
 20
25.2227792421
 30
0.0
 10
1109.2253770087
 20
25.2227792421
 30
0.0
 10
1109.2253770087
 20
25.2227792421
 30
0.0
 10
1109.2253770087
 20
25.2227792421
 30
0.0
 10
1109.2253770087
 20
25.0254531866
 30
0.0
 10
1109.2253770087
 20
25.0254531866
 30
0.0
 10
1109.2253770087
 20
25.0254531866
 30
0.0
 10
1109.2206663071
 20
25.0254531866
 30
0.0
 10
1109.2206663071
 20
25.0254531866
 30
0.0
 10
1109.1293310374
 20
25.1683444682
 30
0.0
 10
1108.991412163
 20
25.2568009758
 30
0.0
 10
1108.818686438
 20
25.2568009758
 30
0.0
 10
1108.4863202702
 20
25.2568009758
 30
0.0
 10
1108.2772174607
 20
24.9689247675
 30
0.0
 10
1108.2772174607
 20
24.6533077609
 30
0.0
 10
1108.2772174607
 20
24.3235586496
 30
0.0
 10
1108.4742818106
 20
24.0304483284
 30
0.0
 10
1108.8291546638
 20
24.0304483284
 30
0.0
 10
1108.991412163
 20
24.0304483284
 30
0.0
 10
1109.1314246825
 20
24.118904836
 30
0.0
 10
1109.2206663071
 20
24.249757658
 30
0.0
 10
1109.2206663071
 20
24.249757658
 30
0.0
 10
1109.2253770087
 20
24.249757658
 30
0.0
 10
1109.2253770087
 20
24.249757658
 30
0.0
 10
1109.2253770087
 20
24.249757658
 30
0.0
 10
1109.2253770087
 20
24.0304483284
 30
0.0
 10
1109.2253770087
 20
24.0304483284
 30
0.0
 10
1109.2253770087
 20
23.7938664262
 30
0.0
 10
1109.1688485896
 20
23.6070085965
 30
0.0
 10
1108.8956278973
 20
23.6070085965
 30
0.0
 10
1108.6933294346
 20
23.6070085965
 30
0.0
 10
1108.5506998586
 20
23.7252995475
 30
0.0
 10
1108.5506998586
 20
23.931523595
 30
0.0
 10
1108.5506998586
 20
23.931523595
 30
0.0
 10
1108.3290351782
 20
23.931523595
 30
0.0
 10
1108.3290351782
 20
23.931523595
 30
0.0
 10
1108.3340075855
 20
23.6070085965
 30
0.0
 10
1108.565093669
 20
23.4102059522
 30
0.0
 10
1108.8854213772
 20
23.4102059522
 30
0.0
 10
1109.3334614396
 20
23.4102059522
 30
0.0
 10
1109.4470416891
 20
23.6954651041
 30
0.0
 10
1109.4470416891
 20
24.0922108603
 30
0.0
 10
1109.4470416891
 20
24.0922108603
 30
0.0
 10
1109.4470416891
 20
25.2227792421
 30
0.0
 10
1109.4470416891
 20
25.2227792421
 30
0.0
  0
SPLINE
  5
243
330
217
100
AcDbEntity
  8
0
  6
Continuous
 62
     7
100
AcDbSpline
 70
     3
 71
     3
 72
    44
 73
    40
 74
     0
 42
0.000000001
 43
0.0000001
 40
0.0
 40
0.0
 40
0.0
 40
0.0
 40
1.0
 40
1.0
 40
1.0
 40
2.0
 40
2.0
 40
2.0
 40
3.0
 40
3.0
 40
3.0
 40
4.0
 40
4.0
 40
4.0
 40
5.0
 40
5.0
 40
5.0
 40
6.0
 40
6.0
 40
6.0
 40
7.0
 40
7.0
 40
7.0
 40
8.0
 40
8.0
 40
8.0
 40
9.0
 40
9.0
 40
9.0
 40
10.0
 40
10.0
 40
10.0
 40
11.0
 40
11.0
 40
11.0
 40
12.0
 40
12.0
 40
12.0
 40
13.0
 40
13.0
 40
13.0
 40
13.0
 10
1111.0159670245
 20
26.2078392859
 30
0.0
 10
1111.0159670245
 20
26.2078392859
 30
0.0
 10
1111.0159670245
 20
24.069704175
 30
0.0
 10
1111.0159670245
 20
24.069704175
 30
0.0
 10
1111.0159670245
 20
24.069704175
 30
0.0
 10
1111.2373699993
 20
24.069704175
 30
0.0
 10
1111.2373699993
 20
24.069704175
 30
0.0
 10
1111.2373699993
 20
24.069704175
 30
0.0
 10
1111.2373699993
 20
24.5993963983
 30
0.0
 10
1111.2373699993
 20
24.5993963983
 30
0.0
 10
1111.2373699993
 20
24.8092843247
 30
0.0
 10
1111.2373699993
 20
25.0599983316
 30
0.0
 10
1111.5226291512
 20
25.0599983316
 30
0.0
 10
1111.7495279445
 20
25.0599983316
 30
0.0
 10
1111.7764836258
 20
24.9270518645
 30
0.0
 10
1111.7764836258
 20
24.7307726315
 30
0.0
 10
1111.7764836258
 20
24.7307726315
 30
0.0
 10
1111.7764836258
 20
24.069704175
 30
0.0
 10
1111.7764836258
 20
24.069704175
 30
0.0
 10
1111.7764836258
 20
24.069704175
 30
0.0
 10
1111.9984100118
 20
24.069704175
 30
0.0
 10
1111.9984100118
 20
24.069704175
 30
0.0
 10
1111.9984100118
 20
24.069704175
 30
0.0
 10
1111.9984100118
 20
24.7569431959
 30
0.0
 10
1111.9984100118
 20
24.7569431959
 30
0.0
 10
1111.9984100118
 20
25.0374916462
 30
0.0
 10
1111.9144025001
 20
25.2573243871
 30
0.0
 10
1111.5893640904
 20
25.2573243871
 30
0.0
 10
1111.4496132765
 20
25.2573243871
 30
0.0
 10
1111.3114326965
 20
25.1908511536
 30
0.0
 10
1111.2420807009
 20
25.0678495009
 30
0.0
 10
1111.2420807009
 20
25.0678495009
 30
0.0
 10
1111.2373699993
 20
25.0678495009
 30
0.0
 10
1111.2373699993
 20
25.0678495009
 30
0.0
 10
1111.2373699993
 20
25.0678495009
 30
0.0
 10
1111.2373699993
 20
26.2078392859
 30
0.0
 10
1111.2373699993
 20
26.2078392859
 30
0.0
 10
1111.2373699993
 20
26.2078392859
 30
0.0
 10
1111.0159670245
 20
26.2078392859
 30
0.0
 10
1111.0159670245
 20
26.2078392859
 30
0.0
  0
LWPOLYLINE
  5
244
330
217
100
AcDbEntity
  8
0
  6
Continuous
 62
     7
100
AcDbPolyline
 90
        2
 70
     0
 43
0.2
 10
1113.838201
 20
25.015508
 10
1114.054631
 20
25.015508
  0
LWPOLYLINE
  5
245
330
217
100
AcDbEntity
  8
0
  6
Continuous
 62
     7
100
AcDbPolyline
 90
        2
 70
     0
 43
0.2
 10
1114.054631
 20
25.015508
 10
1114.054631
 20
25.222256
  0
LWPOLYLINE
  5
246
330
217
100
AcDbEntity
  8
0
  6
Continuous
 62
     7
100
AcDbPolyline
 90
        2
 70
     0
 43
0.2
 10
1114.054631
 20
25.222256
 10
1113.838201
 20
25.222256
  0
LWPOLYLINE
  5
247
330
217
100
AcDbEntity
  8
0
  6
Continuous
 62
     7
100
AcDbPolyline
 90
        2
 70
     0
 43
0.2
 10
1113.838201
 20
25.222256
 10
1113.838201
 20
25.662968
  0
LWPOLYLINE
  5
248
330
217
100
AcDbEntity
  8
0
  6
Continuous
 62
     7
100
AcDbPolyline
 90
        2
 70
     0
 43
0.2
 10
1113.838201
 20
25.662968
 10
1113.616536
 20
25.662968
  0
LWPOLYLINE
  5
249
330
217
100
AcDbEntity
  8
0
  6
Continuous
 62
     7
100
AcDbPolyline
 90
        2
 70
     0
 43
0.2
 10
1113.616536
 20
25.662968
 10
1113.616536
 20
25.222256
  0
LWPOLYLINE
  5
24A
330
217
100
AcDbEntity
  8
0
  6
Continuous
 62
     7
100
AcDbPolyline
 90
        2
 70
     0
 43
0.2
 10
1113.616536
 20
25.222256
 10
1113.49589
 20
25.222256
  0
LWPOLYLINE
  5
24B
330
217
100
AcDbEntity
  8
0
  6
Continuous
 62
     7
100
AcDbPolyline
 90
        2
 70
     0
 43
0.2
 10
1113.49589
 20
25.222256
 10
1113.49589
 20
25.015508
  0
LWPOLYLINE
  5
24C
330
217
100
AcDbEntity
  8
0
  6
Continuous
 62
     7
100
AcDbPolyline
 90
        2
 70
     0
 43
0.2
 10
1113.49589
 20
25.015508
 10
1113.616536
 20
25.015508
  0
LWPOLYLINE
  5
24D
330
217
100
AcDbEntity
  8
0
  6
Continuous
 62
     7
100
AcDbPolyline
 90
        2
 70
     0
 43
0.2
 10
1113.616536
 20
25.015508
 10
1113.616536
 20
24.069704
  0
LWPOLYLINE
  5
24E
330
217
100
AcDbEntity
  8
0
  6
Continuous
 62
     7
100
AcDbPolyline
 90
        2
 70
     0
 43
0.2
 10
1113.616536
 20
24.069704
 10
1113.838201
 20
24.069704
  0
LWPOLYLINE
  5
24F
330
217
100
AcDbEntity
  8
0
  6
Continuous
 62
     7
100
AcDbPolyline
 90
        2
 70
     0
 43
0.2
 10
1113.838201
 20
24.069704
 10
1113.838201
 20
25.015508
  0
SPLINE
  5
250
330
217
100
AcDbEntity
  8
0
  6
Continuous
 62
     7
100
AcDbSpline
 70
     3
 71
     3
 72
    20
 73
    16
 74
     0
 42
0.000000001
 43
0.0000001
 40
0.0
 40
0.0
 40
0.0
 40
0.0
 40
1.0
 40
1.0
 40
1.0
 40
2.0
 40
2.0
 40
2.0
 40
3.0
 40
3.0
 40
3.0
 40
4.0
 40
4.0
 40
4.0
 40
5.0
 40
5.0
 40
5.0
 40
5.0
 10
1101.6202109959
 20
34.4306306183
 30
0.0
 10
1101.6202109959
 20
34.4306306183
 30
0.0
 10
1103.9365676504
 20
31.6010691961
 30
0.0
 10
1103.9365676504
 20
31.6010691961
 30
0.0
 10
1103.284920597
 20
30.9488987314
 30
0.0
 10
1102.508047393
 20
30.2129824607
 30
0.0
 10
1101.5368577484
 20
30.2129824607
 30
0.0
 10
1100.5383198639
 20
30.2129824607
 30
0.0
 10
1099.5950018704
 20
31.1425609079
 30
0.0
 10
1099.5950018704
 20
32.1417530565
 30
0.0
 10
1099.5950018704
 20
33.140945205
 30
0.0
 10
1100.7738549435
 20
33.8475504437
 30
0.0
 10
1101.4953774038
 20
34.3474082236
 30
0.0
 10
1101.4953774038
 20
34.3474082236
 30
0.0
 10
1101.6202109959
 20
34.4306306183
 30
0.0
 10
1101.6202109959
 20
34.4306306183
 30
0.0
  0
SPLINE
  5
251
330
217
100
AcDbEntity
  8
0
  6
Continuous
 62
     7
100
AcDbSpline
 70
     3
 71
     3
 72
    23
 73
    19
 74
     0
 42
0.000000001
 43
0.0000001
 40
0.0
 40
0.0
 40
0.0
 40
0.0
 40
1.0
 40
1.0
 40
1.0
 40
2.0
 40
2.0
 40
2.0
 40
3.0
 40
3.0
 40
3.0
 40
4.0
 40
4.0
 40
4.0
 40
5.0
 40
5.0
 40
5.0
 40
6.0
 40
6.0
 40
6.0
 40
6.0
 10
1101.8976189785
 20
36.0683845381
 30
0.0
 10
1101.8976189785
 20
36.0683845381
 30
0.0
 10
1101.5511207059
 20
36.5117138989
 30
0.0
 10
1101.5511207059
 20
36.5117138989
 30
0.0
 10
1101.245317661
 20
36.8998233689
 30
0.0
 10
1100.9264293339
 20
37.2883253973
 30
0.0
 10
1100.9264293339
 20
37.8152697114
 30
0.0
 10
1100.9264293339
 20
38.481441428
 30
0.0
 10
1101.4677674584
 20
38.9251633473
 30
0.0
 10
1102.0916737135
 20
38.9251633473
 30
0.0
 10
1102.7854553756
 20
38.9251633473
 30
0.0
 10
1103.3126613953
 20
38.5229217726
 30
0.0
 10
1103.3126613953
 20
37.7879214716
 30
0.0
 10
1103.3126613953
 20
37.024656961
 30
0.0
 10
1102.5914006406
 20
36.5945437352
 30
0.0
 10
1102.0643254737
 20
36.1788243198
 30
0.0
 10
1102.0643254737
 20
36.1788243198
 30
0.0
 10
1101.8976189785
 20
36.0683845381
 30
0.0
 10
1101.8976189785
 20
36.0683845381
 30
0.0
  0
SPLINE
  5
252
330
217
100
AcDbEntity
  8
0
  6
Continuous
 62
     7
100
AcDbSpline
 70
     3
 71
     3
 72
    50
 73
    46
 74
     0
 42
0.000000001
 43
0.0000001
 40
0.0
 40
0.0
 40
0.0
 40
0.0
 40
1.0
 40
1.0
 40
1.0
 40
2.0
 40
2.0
 40
2.0
 40
3.0
 40
3.0
 40
3.0
 40
4.0
 40
4.0
 40
4.0
 40
5.0
 40
5.0
 40
5.0
 40
6.0
 40
6.0
 40
6.0
 40
7.0
 40
7.0
 40
7.0
 40
8.0
 40
8.0
 40
8.0
 40
9.0
 40
9.0
 40
9.0
 40
10.0
 40
10.0
 40
10.0
 40
11.0
 40
11.0
 40
11.0
 40
12.0
 40
12.0
 40
12.0
 40
13.0
 40
13.0
 40
13.0
 40
14.0
 40
14.0
 40
14.0
 40
15.0
 40
15.0
 40
15.0
 40
15.0
 10
1105.8512061414
 20
29.2697953199
 30
0.0
 10
1105.8512061414
 20
29.2697953199
 30
0.0
 10
1107.460434146
 20
29.2697953199
 30
0.0
 10
1107.460434146
 20
29.2697953199
 30
0.0
 10
1107.460434146
 20
29.2697953199
 30
0.0
 10
1105.5874068524
 20
31.5869370913
 30
0.0
 10
1105.5874068524
 20
31.5869370913
 30
0.0
 10
1105.5874068524
 20
31.5869370913
 30
0.0
 10
1106.8637452778
 20
33.0844167859
 30
0.0
 10
1106.8637452778
 20
33.0844167859
 30
0.0
 10
1106.8637452778
 20
33.0844167859
 30
0.0
 10
1106.0315213301
 20
33.9454283545
 30
0.0
 10
1106.0315213301
 20
33.9454283545
 30
0.0
 10
1106.0315213301
 20
33.9454283545
 30
0.0
 10
1104.8109262068
 20
32.5301242321
 30
0.0
 10
1104.8109262068
 20
32.5301242321
 30
0.0
 10
1104.8109262068
 20
32.5301242321
 30
0.0
 10
1102.633011838
 20
35.1655000665
 30
0.0
 10
1102.633011838
 20
35.1655000665
 30
0.0
 10
1103.5065852774
 20
35.8035384264
 30
0.0
 10
1104.5332565186
 20
36.5945437352
 30
0.0
 10
1104.5332565186
 20
37.7733968083
 30
0.0
 10
1104.5332565186
 20
39.1470897333
 30
0.0
 10
1103.3953603788
 20
39.9515728828
 30
0.0
 10
1102.1200687759
 20
39.9515728828
 30
0.0
 10
1100.7466375565
 20
39.9515728828
 30
0.0
 10
1099.7057033577
 20
39.1053476831
 30
0.0
 10
1099.7057033577
 20
37.6626953209
 30
0.0
 10
1099.7057033577
 20
36.7751206295
 30
0.0
 10
1100.2610427342
 20
35.9982474255
 30
0.0
 10
1100.8572081911
 20
35.3738177591
 30
0.0
 10
1100.8572081911
 20
35.3738177591
 30
0.0
 10
1100.205299432
 20
34.9022241887
 30
0.0
 10
1100.205299432
 20
34.9022241887
 30
0.0
 10
1099.2067615476
 20
34.180963434
 30
0.0
 10
1098.3738833358
 20
33.4597026793
 30
0.0
 10
1098.3738833358
 20
32.128144363
 30
0.0
 10
1098.3738833358
 20
30.324469065
 30
0.0
 10
1099.8309295084
 20
29.0478689339
 30
0.0
 10
1101.5784689457
 20
29.0478689339
 30
0.0
 10
1102.8133270266
 20
29.0478689339
 30
0.0
 10
1103.9226972513
 20
29.7560444064
 30
0.0
 10
1104.7135717073
 20
30.6845760311
 30
0.0
 10
1104.7135717073
 20
30.6845760311
 30
0.0
 10
1105.8512061414
 20
29.2697953199
 30
0.0
 10
1105.8512061414
 20
29.2697953199
 30
0.0
  0
LINE
  5
253
330
217
100
AcDbEntity
  8
0
  6
Continuous
 62
     7
100
AcDbLine
 10
1091.654068
 20
27.24367
 30
0.0
 11
1114.067978
 21
27.24367
 31
0.0
  0
LINE
  5
254
330
217
100
AcDbEntity
  8
0
  6
Continuous
 62
     7
100
AcDbLine
 10
1114.067978
 20
27.24367
 30
0.0
 11
1114.067978
 21
49.657581
 31
0.0
  0
LINE
  5
255
330
217
100
AcDbEntity
  8
0
  6
Continuous
 62
     7
100
AcDbLine
 10
1114.067978
 20
49.657581
 30
0.0
 11
1091.654068
 21
49.657581
 31
0.0
  0
LINE
  5
256
330
217
100
AcDbEntity
  8
0
  6
Continuous
 62
     7
100
AcDbLine
 10
1091.654068
 20
49.657581
 30
0.0
 11
1091.654068
 21
27.24367
 31
0.0
  0
ENDBLK
  5
257
330
217
100
AcDbEntity
  8
0
  6
ByBlock
 62
     0
100
AcDbBlockEnd
  0
BLOCK
  5
279
330
218
100
AcDbEntity
  8
0
100
AcDbBlockBegin
  2
*T5
 70
     1
 10
0.0
 20
0.0
 30
0.0
  3
*T5
  1
*T5
  0
LINE
  5
27A
330
218
100
AcDbEntity
  8
0
  6
Continuous
 62
     2
100
AcDbLine
 10
0.0
 20
0.0
 30
0.0
 11
90.0
 21
0.0
 31
0.0
  0
LINE
  5
27B
330
218
100
AcDbEntity
  8
0
  6
Continuous
 62
     2
100
AcDbLine
 10
0.0
 20
0.0
 30
0.0
 11
0.0
 21
-40.0
 31
0.0
  0
LINE
  5
27C
330
218
100
AcDbEntity
  8
0
  6
Continuous
 62
     2
100
AcDbLine
 10
30.0
 20
-6.0
 30
0.0
 11
90.0
 21
-6.0
 31
0.0
  0
LINE
  5
27D
330
218
100
AcDbEntity
  8
0
  6
Continuous
 62
     2
100
AcDbLine
 10
30.0
 20
-12.0
 30
0.0
 11
90.0
 21
-12.0
 31
0.0
  0
LINE
  5
27E
330
218
100
AcDbEntity
  8
0
  6
Continuous
 62
     2
100
AcDbLine
 10
30.0
 20
-22.0
 30
0.0
 11
90.0
 21
-22.0
 31
0.0
  0
LINE
  5
27F
330
218
100
AcDbEntity
  8
0
  6
Continuous
 62
     2
100
AcDbLine
 10
0.0
 20
-27.0
 30
0.0
 11
90.0
 21
-27.0
 31
0.0
  0
LINE
  5
280
330
218
100
AcDbEntity
  8
0
  6
Continuous
 62
     2
100
AcDbLine
 10
0.0
 20
-40.0
 30
0.0
 11
90.0
 21
-40.0
 31
0.0
  0
LINE
  5
281
330
218
100
AcDbEntity
  8
0
  6
Continuous
 62
     2
100
AcDbLine
 10
30.0
 20
0.0
 30
0.0
 11
30.0
 21
-27.0
 31
0.0
  0
LINE
  5
282
330
218
100
AcDbEntity
  8
0
  6
Continuous
 62
     2
100
AcDbLine
 10
70.0
 20
0.0
 30
0.0
 11
70.0
 21
-12.0
 31
0.0
  0
LINE
  5
283
330
218
100
AcDbEntity
  8
0
  6
Continuous
 62
     2
100
AcDbLine
 10
90.0
 20
0.0
 30
0.0
 11
90.0
 21
-40.0
 31
0.0
  0
MTEXT
  5
284
330
218
100
AcDbEntity
  8
9_SOLID
  6
Continuous
 62
     2
100
AcDbMText
 10
31.4875
 20
-1.5
 30
0.0
 40
3.0
 41
48.914498
 46
0.0
 71
     1
 72
     1
  1
A080_C_403
 73
     1
 44
0.9
  0
MTEXT
  5
285
330
218
100
AcDbEntity
  8
9_SOLID
  6
Continuous
 62
     2
100
AcDbMText
 10
71.4875
 20
-1.25
 30
0.0
 40
3.5
 41
30.966543
 46
0.0
 71
     1
 72
     1
  1
Rev:00
 73
     1
 44
0.9
  0
MTEXT
  5
286
330
218
100
AcDbEntity
  8
9_SOLID
  6
Continuous
 62
     2
100
AcDbMText
 10
31.4875
 20
-7.75
 30
0.0
 40
3.5
 41
40.724907
 46
0.0
 71
     1
 72
     1
  1
Scale:1:1
 73
     1
 44
0.9
  0
MTEXT
  5
287
330
218
100
AcDbEntity
  8
9_SOLID
  6
Continuous
 62
     2
100
AcDbMText
 10
71.4875
 20
-7.25
 30
0.0
 40
3.5
 41
11.944238
 46
0.0
 71
     1
 72
     1
  1
A0
 73
     1
 44
0.9
  0
MTEXT
  5
288
330
218
100
AcDbEntity
  8
9_SOLID
  6
Continuous
 62
     2
100
AcDbMText
 10
31.4875
 20
-16.05
 30
0.0
 40
1.9
 41
113.336059
 46
0.0
 71
     1
 72
     1
  1
WMA02N - COPPIA STAFFE 140mm NEVA 3-4
 73
     1
 44
0.9
  0
MTEXT
  5
289
330
218
100
AcDbEntity
  8
9_SOLID
  6
Continuous
 62
     2
100
AcDbMText
 10
31.4875
 20
-23.25
 30
0.0
 40
2.5
 41
47.695167
 46
0.0
 71
     1
 72
     1
  1
DATE:12.05.20
 73
     1
 44
0.9
  0
MTEXT
  5
28A
330
218
100
AcDbEntity
  8
9_SOLID
  6
Continuous
 62
     2
100
AcDbMText
 10
1.4875
 20
-27.3125
 30
0.0
 40
2.25
 41
148.98513
 46
0.0
 71
     1
 72
     1
  1
Any integral or partial reproductions are prohibited \Pwithout prior authorisation of L & L Luce & Light s.r.l., \Pin accordance with the law in force. \PAll rights reserved.
 73
     1
 44
0.9
  0
ENDBLK
  5
28B
330
218
100
AcDbEntity
  8
0
  6
ByBlock
 62
     0
100
AcDbBlockEnd
  0
ENDSEC
  0
SECTION
  2
ENTITIES
  0
LINE
  5
28C
330
211
100
AcDbEntity
  8
0
  6
Continuous
 62
     7
100
AcDbLine
 10
1189.0
 20
0.0
 30
0.0
 11
1189.0
 21
841.0
 31
0.0
  0
LINE
  5
28D
330
211
100
AcDbEntity
  8
0
  6
Continuous
 62
     7
100
AcDbLine
 10
0.0
 20
841.0
 30
0.0
 11
1189.0
 21
841.0
 31
0.0
  0
LINE
  5
28E
330
211
100
AcDbEntity
  8
0
  6
Continuous
 62
     7
100
AcDbLine
 10
0.0
 20
0.0
 30
0.0
 11
0.0
 21
841.0
 31
0.0
  0
LINE
  5
28F
330
211
100
AcDbEntity
  8
0
  6
Continuous
 62
     7
100
AcDbLine
 10
7.0
 20
834.0
 30
0.0
 11
1182.0
 21
834.0
 31
0.0
  0
LINE
  5
290
330
211
100
AcDbEntity
  8
0
  6
Continuous
 62
     7
100
AcDbLine
 10
1182.0
 20
7.0
 30
0.0
 11
1182.0
 21
834.0
 31
0.0
  0
LINE
  5
291
330
211
100
AcDbEntity
  8
0
  6
Continuous
 62
     7
100
AcDbLine
 10
7.0
 20
7.0
 30
0.0
 11
7.0
 21
841.0
 31
0.0
  0
LINE
  5
292
330
211
100
AcDbEntity
  8
0
  6
Continuous
 62
     7
100
AcDbLine
 10
7.0
 20
7.0
 30
0.0
 11
1182.0
 21
7.0
 31
0.0
  0
LINE
  5
293
330
211
100
AcDbEntity
  8
0
  6
Continuous
 62
     7
100
AcDbLine
 10
10.0
 20
831.0
 30
0.0
 11
1179.0
 21
831.0
 31
0.0
  0
LINE
  5
294
330
211
100
AcDbEntity
  8
0
  6
Continuous
 62
     7
100
AcDbLine
 10
10.0
 20
10.0
 30
0.0
 11
10.0
 21
831.0
 31
0.0
  0
LINE
  5
295
330
211
100
AcDbEntity
  8
0
  6
Continuous
 62
     7
100
AcDbLine
 10
10.0
 20
10.0
 30
0.0
 11
1179.0
 21
10.0
 31
0.0
  0
LINE
  5
296
330
211
100
AcDbEntity
  8
0
  6
Continuous
 62
     7
100
AcDbLine
 10
1179.0
 20
10.0
 30
0.0
 11
1179.0
 21
831.0
 31
0.0
  0
LINE
  5
297
330
211
100
AcDbEntity
  8
0
  6
Continuous
 62
     7
100
AcDbLine
 10
594.5
 20
841.0
 30
0.0
 11
594.5
 21
830.996355
 31
0.0
  0
LINE
  5
298
330
211
100
AcDbEntity
  8
0
  6
Continuous
 62
     7
100
AcDbLine
 10
1189.0
 20
420.5
 30
0.0
 11
1179.032471
 21
420.5
 31
0.0
  0
LINE
  5
299
330
211
100
AcDbEntity
  8
0
  6
Continuous
 62
     7
100
AcDbLine
 10
979.0
 20
0.0
 30
0.0
 11
979.0
 21
10.0
 31
0.0
  0
LINE
  5
29A
330
211
100
AcDbEntity
  8
0
  6
Continuous
 62
     7
100
AcDbLine
 10
0.0
 20
0.0
 30
0.0
 11
1189.0
 21
0.0
 31
0.0
  0
LINE
  5
29B
330
211
100
AcDbEntity
  8
0
  6
Continuous
 62
     7
100
AcDbLine
 10
1182.0
 20
7.0
 30
0.0
 11
1182.0
 21
0.0
 31
0.0
  0
LINE
  5
29C
330
211
100
AcDbEntity
  8
0
  6
Continuous
 62
     7
100
AcDbLine
 10
1182.0
 20
7.0
 30
0.0
 11
1189.0
 21
7.0
 31
0.0
  0
LINE
  5
29D
330
211
100
AcDbEntity
  8
0
  6
Continuous
 62
     7
100
AcDbLine
 10
1082.0
 20
7.0
 30
0.0
 11
1082.0
 21
0.0
 31
0.0
  0
LINE
  5
29E
330
211
100
AcDbEntity
  8
0
  6
Continuous
 62
     7
100
AcDbLine
 10
882.0
 20
7.0
 30
0.0
 11
882.0
 21
0.0
 31
0.0
  0
LINE
  5
29F
330
211
100
AcDbEntity
  8
0
  6
Continuous
 62
     7
100
AcDbLine
 10
782.0
 20
7.0
 30
0.0
 11
782.0
 21
0.0
 31
0.0
  0
LINE
  5
2A0
330
211
100
AcDbEntity
  8
0
  6
Continuous
 62
     7
100
AcDbLine
 10
682.0
 20
7.0
 30
0.0
 11
682.0
 21
0.0
 31
0.0
  0
LINE
  5
2A1
330
211
100
AcDbEntity
  8
0
  6
Continuous
 62
     7
100
AcDbLine
 10
582.0
 20
7.0
 30
0.0
 11
582.0
 21
0.0
 31
0.0
  0
LINE
  5
2A2
330
211
100
AcDbEntity
  8
0
  6
Continuous
 62
     7
100
AcDbLine
 10
482.0
 20
7.0
 30
0.0
 11
482.0
 21
0.0
 31
0.0
  0
LINE
  5
2A3
330
211
100
AcDbEntity
  8
0
  6
Continuous
 62
     7
100
AcDbLine
 10
382.0
 20
7.0
 30
0.0
 11
382.0
 21
0.0
 31
0.0
  0
LINE
  5
2A4
330
211
100
AcDbEntity
  8
0
  6
Continuous
 62
     7
100
AcDbLine
 10
282.0
 20
7.0
 30
0.0
 11
282.0
 21
0.0
 31
0.0
  0
LINE
  5
2A5
330
211
100
AcDbEntity
  8
0
  6
Continuous
 62
     7
100
AcDbLine
 10
182.0
 20
7.0
 30
0.0
 11
182.0
 21
0.0
 31
0.0
  0
LINE
  5
2A6
330
211
100
AcDbEntity
  8
0
  6
Continuous
 62
     7
100
AcDbLine
 10
82.0
 20
7.0
 30
0.0
 11
82.0
 21
0.0
 31
0.0
  0
LINE
  5
2A7
330
211
100
AcDbEntity
  8
0
  6
Continuous
 62
     7
100
AcDbLine
 10
7.0
 20
7.0
 30
0.0
 11
0.0
 21
7.0
 31
0.0
  0
LINE
  5
2A8
330
211
100
AcDbEntity
  8
0
  6
Continuous
 62
     7
100
AcDbLine
 10
7.0
 20
7.0
 30
0.0
 11
7.0
 21
0.0
 31
0.0
  0
LINE
  5
2A9
330
211
100
AcDbEntity
  8
0
  6
Continuous
 62
     7
100
AcDbLine
 10
1182.0
 20
107.0
 30
0.0
 11
1189.0
 21
107.0
 31
0.0
  0
LINE
  5
2AA
330
211
100
AcDbEntity
  8
0
  6
Continuous
 62
     7
100
AcDbLine
 10
1182.0
 20
207.0
 30
0.0
 11
1189.0
 21
207.0
 31
0.0
  0
LINE
  5
2AB
330
211
100
AcDbEntity
  8
0
  6
Continuous
 62
     7
100
AcDbLine
 10
1182.0
 20
307.0
 30
0.0
 11
1189.0
 21
307.0
 31
0.0
  0
LINE
  5
2AC
330
211
100
AcDbEntity
  8
0
  6
Continuous
 62
     7
100
AcDbLine
 10
1179.0
 20
507.0
 30
0.0
 11
1189.0
 21
507.0
 31
0.0
  0
LINE
  5
2AD
330
211
100
AcDbEntity
  8
0
  6
Continuous
 62
     7
100
AcDbLine
 10
1182.0
 20
607.0
 30
0.0
 11
1189.0
 21
607.0
 31
0.0
  0
LINE
  5
2AE
330
211
100
AcDbEntity
  8
0
  6
Continuous
 62
     7
100
AcDbLine
 10
1182.0
 20
707.0
 30
0.0
 11
1189.0
 21
707.0
 31
0.0
  0
LINE
  5
2AF
330
211
100
AcDbEntity
  8
0
  6
Continuous
 62
     7
100
AcDbLine
 10
1182.0
 20
834.0
 30
0.0
 11
1189.0
 21
834.0
 31
0.0
  0
LINE
  5
2B0
330
211
100
AcDbEntity
  8
0
  6
Continuous
 62
     7
100
AcDbLine
 10
1182.0
 20
834.0
 30
0.0
 11
1182.0
 21
841.0
 31
0.0
  0
LINE
  5
2B1
330
211
100
AcDbEntity
  8
0
  6
Continuous
 62
     7
100
AcDbLine
 10
0.0
 20
834.0
 30
0.0
 11
1189.0
 21
834.0
 31
0.0
  0
LINE
  5
2B2
330
211
100
AcDbEntity
  8
0
  6
Continuous
 62
     7
100
AcDbLine
 10
979.0
 20
831.0
 30
0.0
 11
979.0
 21
841.0
 31
0.0
  0
LINE
  5
2B3
330
211
100
AcDbEntity
  8
0
  6
Continuous
 62
     7
100
AcDbLine
 10
1082.0
 20
841.0
 30
0.0
 11
1082.0
 21
834.0
 31
0.0
  0
LINE
  5
2B4
330
211
100
AcDbEntity
  8
0
  6
Continuous
 62
     7
100
AcDbLine
 10
882.0
 20
841.0
 30
0.0
 11
882.0
 21
834.0
 31
0.0
  0
LINE
  5
2B5
330
211
100
AcDbEntity
  8
0
  6
Continuous
 62
     7
100
AcDbLine
 10
782.0
 20
841.0
 30
0.0
 11
782.0
 21
834.0
 31
0.0
  0
LINE
  5
2B6
330
211
100
AcDbEntity
  8
0
  6
Continuous
 62
     7
100
AcDbLine
 10
682.0
 20
841.0
 30
0.0
 11
682.0
 21
834.0
 31
0.0
  0
LINE
  5
2B7
330
211
100
AcDbEntity
  8
0
  6
Continuous
 62
     7
100
AcDbLine
 10
582.0
 20
841.0
 30
0.0
 11
582.0
 21
834.0
 31
0.0
  0
LINE
  5
2B8
330
211
100
AcDbEntity
  8
0
  6
Continuous
 62
     7
100
AcDbLine
 10
482.0
 20
841.0
 30
0.0
 11
482.0
 21
834.0
 31
0.0
  0
LINE
  5
2B9
330
211
100
AcDbEntity
  8
0
  6
Continuous
 62
     7
100
AcDbLine
 10
382.0
 20
841.0
 30
0.0
 11
382.0
 21
834.0
 31
0.0
  0
LINE
  5
2BA
330
211
100
AcDbEntity
  8
0
  6
Continuous
 62
     7
100
AcDbLine
 10
282.0
 20
841.0
 30
0.0
 11
282.0
 21
834.0
 31
0.0
  0
LINE
  5
2BB
330
211
100
AcDbEntity
  8
0
  6
Continuous
 62
     7
100
AcDbLine
 10
182.0
 20
841.0
 30
0.0
 11
182.0
 21
834.0
 31
0.0
  0
LINE
  5
2BC
330
211
100
AcDbEntity
  8
0
  6
Continuous
 62
     7
100
AcDbLine
 10
82.0
 20
841.0
 30
0.0
 11
82.0
 21
834.0
 31
0.0
  0
LINE
  5
2BD
330
211
100
AcDbEntity
  8
0
  6
Continuous
 62
     7
100
AcDbLine
 10
7.0
 20
420.5
 30
0.0
 11
-2.967529
 21
420.5
 31
0.0
  0
LINE
  5
2BE
330
211
100
AcDbEntity
  8
0
  6
Continuous
 62
     7
100
AcDbLine
 10
0.0
 20
107.0
 30
0.0
 11
7.0
 21
107.0
 31
0.0
  0
LINE
  5
2BF
330
211
100
AcDbEntity
  8
0
  6
Continuous
 62
     7
100
AcDbLine
 10
0.0
 20
207.0
 30
0.0
 11
7.0
 21
207.0
 31
0.0
  0
LINE
  5
2C0
330
211
100
AcDbEntity
  8
0
  6
Continuous
 62
     7
100
AcDbLine
 10
0.0
 20
307.0
 30
0.0
 11
7.0
 21
307.0
 31
0.0
  0
LINE
  5
2C1
330
211
100
AcDbEntity
  8
0
  6
Continuous
 62
     7
100
AcDbLine
 10
-3.0
 20
507.0
 30
0.0
 11
7.0
 21
507.0
 31
0.0
  0
LINE
  5
2C2
330
211
100
AcDbEntity
  8
0
  6
Continuous
 62
     7
100
AcDbLine
 10
0.0
 20
607.0
 30
0.0
 11
7.0
 21
607.0
 31
0.0
  0
LINE
  5
2C3
330
211
100
AcDbEntity
  8
0
  6
Continuous
 62
     7
100
AcDbLine
 10
0.0
 20
707.0
 30
0.0
 11
7.0
 21
707.0
 31
0.0
  0
MTEXT
  5
2C4
330
211
100
AcDbEntity
  8
0
  6
Continuous
 62
     2
100
AcDbMText
 10
1131.154891
 20
5.35876
 30
0.0
 40
4.0
 41
5.142857
 46
0.0
 71
     1
 72
     1
  1
A
  7
TEXTSTYLE_2
 73
     1
 44
0.9
  0
MTEXT
  5
2C5
330
211
100
AcDbEntity
  8
0
  6
Continuous
 62
     2
100
AcDbMText
 10
1031.154891
 20
5.35876
 30
0.0
 40
4.0
 41
4.714286
 46
0.0
 71
     1
 72
     1
  1
B
  7
TEXTSTYLE_2
 73
     1
 44
0.9
  0
MTEXT
  5
2C6
330
211
100
AcDbEntity
  8
0
  6
Continuous
 62
     2
100
AcDbMText
 10
931.154891
 20
5.35876
 30
0.0
 40
4.0
 41
5.0
 46
0.0
 71
     1
 72
     1
  1
C
  7
TEXTSTYLE_2
 73
     1
 44
0.9
  0
MTEXT
  5
2C7
330
211
100
AcDbEntity
  8
0
  6
Continuous
 62
     2
100
AcDbMText
 10
831.154891
 20
5.35876
 30
0.0
 40
4.0
 41
5.428571
 46
0.0
 71
     1
 72
     1
  1
D
  7
TEXTSTYLE_2
 73
     1
 44
0.9
  0
MTEXT
  5
2C8
330
211
100
AcDbEntity
  8
0
  6
Continuous
 62
     2
100
AcDbMText
 10
731.154891
 20
5.35876
 30
0.0
 40
4.0
 41
4.285714
 46
0.0
 71
     1
 72
     1
  1
E
  7
TEXTSTYLE_2
 73
     1
 44
0.9
  0
MTEXT
  5
2C9
330
211
100
AcDbEntity
  8
0
  6
Continuous
 62
     2
100
AcDbMText
 10
631.154891
 20
5.35876
 30
0.0
 40
4.0
 41
4.285714
 46
0.0
 71
     1
 72
     1
  1
F
  7
TEXTSTYLE_2
 73
     1
 44
0.9
  0
MTEXT
  5
2CA
330
211
100
AcDbEntity
  8
0
  6
Continuous
 62
     2
100
AcDbMText
 10
531.154891
 20
5.35876
 30
0.0
 40
4.0
 41
4.714286
 46
0.0
 71
     1
 72
     1
  1
G
  7
TEXTSTYLE_2
 73
     1
 44
0.9
  0
MTEXT
  5
2CB
330
211
100
AcDbEntity
  8
0
  6
Continuous
 62
     2
100
AcDbMText
 10
431.154891
 20
5.35876
 30
0.0
 40
4.0
 41
4.714286
 46
0.0
 71
     1
 72
     1
  1
H
  7
TEXTSTYLE_2
 73
     1
 44
0.9
  0
MTEXT
  5
2CC
330
211
100
AcDbEntity
  8
0
  6
Continuous
 62
     2
100
AcDbMText
 10
331.154891
 20
5.35876
 30
0.0
 40
4.0
 41
3.857143
 46
0.0
 71
     1
 72
     1
  1
I
  7
TEXTSTYLE_2
 73
     1
 44
0.9
  0
MTEXT
  5
2CD
330
211
100
AcDbEntity
  8
0
  6
Continuous
 62
     2
100
AcDbMText
 10
231.154891
 20
5.35876
 30
0.0
 40
4.0
 41
3.857143
 46
0.0
 71
     1
 72
     1
  1
L
  7
TEXTSTYLE_2
 73
     1
 44
0.9
  0
MTEXT
  5
2CE
330
211
100
AcDbEntity
  8
0
  6
Continuous
 62
     2
100
AcDbMText
 10
131.154891
 20
5.35876
 30
0.0
 40
4.0
 41
5.142857
 46
0.0
 71
     1
 72
     1
  1
M
  7
TEXTSTYLE_2
 73
     1
 44
0.9
  0
MTEXT
  5
2CF
330
211
100
AcDbEntity
  8
0
  6
Continuous
 62
     2
100
AcDbMText
 10
31.154891
 20
5.35876
 30
0.0
 40
4.0
 41
4.714286
 46
0.0
 71
     1
 72
     1
  1
N
  7
TEXTSTYLE_2
 73
     1
 44
0.9
  0
MTEXT
  5
2D0
330
211
100
AcDbEntity
  8
0
  6
Continuous
 62
     2
100
AcDbMText
 10
1183.646722
 20
60.626871
 30
0.0
 40
4.0
 41
3.428571
 46
0.0
 71
     1
 72
     1
  1
1
  7
TEXTSTYLE_2
 73
     1
 44
0.9
  0
MTEXT
  5
2D1
330
211
100
AcDbEntity
  8
0
  6
Continuous
 62
     2
100
AcDbMText
 10
1183.646722
 20
160.626871
 30
0.0
 40
4.0
 41
4.714286
 46
0.0
 71
     1
 72
     1
  1
2
  7
TEXTSTYLE_2
 73
     1
 44
0.9
  0
MTEXT
  5
2D2
330
211
100
AcDbEntity
  8
0
  6
Continuous
 62
     2
100
AcDbMText
 10
1183.646722
 20
260.626871
 30
0.0
 40
4.0
 41
4.285714
 46
0.0
 71
     1
 72
     1
  1
3
  7
TEXTSTYLE_2
 73
     1
 44
0.9
  0
MTEXT
  5
2D3
330
211
100
AcDbEntity
  8
0
  6
Continuous
 62
     2
100
AcDbMText
 10
1183.646722
 20
360.626871
 30
0.0
 40
4.0
 41
4.714286
 46
0.0
 71
     1
 72
     1
  1
4
  7
TEXTSTYLE_2
 73
     1
 44
0.9
  0
MTEXT
  5
2D4
330
211
100
AcDbEntity
  8
0
  6
Continuous
 62
     2
100
AcDbMText
 10
1183.646722
 20
460.626871
 30
0.0
 40
4.0
 41
4.285714
 46
0.0
 71
     1
 72
     1
  1
5
  7
TEXTSTYLE_2
 73
     1
 44
0.9
  0
MTEXT
  5
2D5
330
211
100
AcDbEntity
  8
0
  6
Continuous
 62
     2
100
AcDbMText
 10
1183.646722
 20
560.626871
 30
0.0
 40
4.0
 41
4.714286
 46
0.0
 71
     1
 72
     1
  1
6
  7
TEXTSTYLE_2
 73
     1
 44
0.9
  0
MTEXT
  5
2D6
330
211
100
AcDbEntity
  8
0
  6
Continuous
 62
     2
100
AcDbMText
 10
1183.646722
 20
660.626871
 30
0.0
 40
4.0
 41
4.714286
 46
0.0
 71
     1
 72
     1
  1
7
  7
TEXTSTYLE_2
 73
     1
 44
0.9
  0
MTEXT
  5
2D7
330
211
100
AcDbEntity
  8
0
  6
Continuous
 62
     2
100
AcDbMText
 10
1183.848746
 20
775.172594
 30
0.0
 40
4.0
 41
4.714286
 46
0.0
 71
     1
 72
     1
  1
8
  7
TEXTSTYLE_2
 73
     1
 44
0.9
  0
MTEXT
  5
2D8
330
211
100
AcDbEntity
  8
0
  6
Continuous
 62
     2
100
AcDbMText
 10
1131.154891
 20
839.35876
 30
0.0
 40
4.0
 41
5.142857
 46
0.0
 71
     1
 72
     1
  1
A
  7
TEXTSTYLE_2
 73
     1
 44
0.9
  0
MTEXT
  5
2D9
330
211
100
AcDbEntity
  8
0
  6
Continuous
 62
     2
100
AcDbMText
 10
1031.154891
 20
839.35876
 30
0.0
 40
4.0
 41
4.714286
 46
0.0
 71
     1
 72
     1
  1
B
  7
TEXTSTYLE_2
 73
     1
 44
0.9
  0
MTEXT
  5
2DA
330
211
100
AcDbEntity
  8
0
  6
Continuous
 62
     2
100
AcDbMText
 10
931.154891
 20
839.35876
 30
0.0
 40
4.0
 41
5.0
 46
0.0
 71
     1
 72
     1
  1
C
  7
TEXTSTYLE_2
 73
     1
 44
0.9
  0
MTEXT
  5
2DB
330
211
100
AcDbEntity
  8
0
  6
Continuous
 62
     2
100
AcDbMText
 10
831.154891
 20
839.35876
 30
0.0
 40
4.0
 41
5.428571
 46
0.0
 71
     1
 72
     1
  1
D
  7
TEXTSTYLE_2
 73
     1
 44
0.9
  0
MTEXT
  5
2DC
330
211
100
AcDbEntity
  8
0
  6
Continuous
 62
     2
100
AcDbMText
 10
731.154891
 20
839.35876
 30
0.0
 40
4.0
 41
4.285714
 46
0.0
 71
     1
 72
     1
  1
E
  7
TEXTSTYLE_2
 73
     1
 44
0.9
  0
MTEXT
  5
2DD
330
211
100
AcDbEntity
  8
0
  6
Continuous
 62
     2
100
AcDbMText
 10
631.154891
 20
839.35876
 30
0.0
 40
4.0
 41
4.285714
 46
0.0
 71
     1
 72
     1
  1
F
  7
TEXTSTYLE_2
 73
     1
 44
0.9
  0
MTEXT
  5
2DE
330
211
100
AcDbEntity
  8
0
  6
Continuous
 62
     2
100
AcDbMText
 10
531.154891
 20
839.35876
 30
0.0
 40
4.0
 41
4.714286
 46
0.0
 71
     1
 72
     1
  1
G
  7
TEXTSTYLE_2
 73
     1
 44
0.9
  0
MTEXT
  5
2DF
330
211
100
AcDbEntity
  8
0
  6
Continuous
 62
     2
100
AcDbMText
 10
431.154891
 20
839.35876
 30
0.0
 40
4.0
 41
4.714286
 46
0.0
 71
     1
 72
     1
  1
H
  7
TEXTSTYLE_2
 73
     1
 44
0.9
  0
MTEXT
  5
2E0
330
211
100
AcDbEntity
  8
0
  6
Continuous
 62
     2
100
AcDbMText
 10
331.154891
 20
839.35876
 30
0.0
 40
4.0
 41
3.857143
 46
0.0
 71
     1
 72
     1
  1
I
  7
TEXTSTYLE_2
 73
     1
 44
0.9
  0
MTEXT
  5
2E1
330
211
100
AcDbEntity
  8
0
  6
Continuous
 62
     2
100
AcDbMText
 10
231.154891
 20
839.35876
 30
0.0
 40
4.0
 41
3.857143
 46
0.0
 71
     1
 72
     1
  1
L
  7
TEXTSTYLE_2
 73
     1
 44
0.9
  0
MTEXT
  5
2E2
330
211
100
AcDbEntity
  8
0
  6
Continuous
 62
     2
100
AcDbMText
 10
131.154891
 20
839.35876
 30
0.0
 40
4.0
 41
5.142857
 46
0.0
 71
     1
 72
     1
  1
M
  7
TEXTSTYLE_2
 73
     1
 44
0.9
  0
MTEXT
  5
2E3
330
211
100
AcDbEntity
  8
0
  6
Continuous
 62
     2
100
AcDbMText
 10
31.154891
 20
839.35876
 30
0.0
 40
4.0
 41
4.714286
 46
0.0
 71
     1
 72
     1
  1
N
  7
TEXTSTYLE_2
 73
     1
 44
0.9
  0
MTEXT
  5
2E4
330
211
100
AcDbEntity
  8
0
  6
Continuous
 62
     2
100
AcDbMText
 10
1.646722
 20
60.626871
 30
0.0
 40
4.0
 41
3.428571
 46
0.0
 71
     1
 72
     1
  1
1
  7
TEXTSTYLE_2
 73
     1
 44
0.9
  0
MTEXT
  5
2E5
330
211
100
AcDbEntity
  8
0
  6
Continuous
 62
     2
100
AcDbMText
 10
1.646722
 20
160.626871
 30
0.0
 40
4.0
 41
4.714286
 46
0.0
 71
     1
 72
     1
  1
2
  7
TEXTSTYLE_2
 73
     1
 44
0.9
  0
MTEXT
  5
2E6
330
211
100
AcDbEntity
  8
0
  6
Continuous
 62
     2
100
AcDbMText
 10
1.646722
 20
260.626871
 30
0.0
 40
4.0
 41
4.285714
 46
0.0
 71
     1
 72
     1
  1
3
  7
TEXTSTYLE_2
 73
     1
 44
0.9
  0
MTEXT
  5
2E7
330
211
100
AcDbEntity
  8
0
  6
Continuous
 62
     2
100
AcDbMText
 10
1.646722
 20
360.626871
 30
0.0
 40
4.0
 41
4.714286
 46
0.0
 71
     1
 72
     1
  1
4
  7
TEXTSTYLE_2
 73
     1
 44
0.9
  0
MTEXT
  5
2E8
330
211
100
AcDbEntity
  8
0
  6
Continuous
 62
     2
100
AcDbMText
 10
1.646722
 20
460.626871
 30
0.0
 40
4.0
 41
4.285714
 46
0.0
 71
     1
 72
     1
  1
5
  7
TEXTSTYLE_2
 73
     1
 44
0.9
  0
MTEXT
  5
2E9
330
211
100
AcDbEntity
  8
0
  6
Continuous
 62
     2
100
AcDbMText
 10
1.646722
 20
560.626871
 30
0.0
 40
4.0
 41
4.714286
 46
0.0
 71
     1
 72
     1
  1
6
  7
TEXTSTYLE_2
 73
     1
 44
0.9
  0
MTEXT
  5
2EA
330
211
100
AcDbEntity
  8
0
  6
Continuous
 62
     2
100
AcDbMText
 10
1.646722
 20
660.626871
 30
0.0
 40
4.0
 41
4.714286
 46
0.0
 71
     1
 72
     1
  1
7
  7
TEXTSTYLE_2
 73
     1
 44
0.9
  0
MTEXT
  5
2EB
330
211
100
AcDbEntity
  8
0
  6
Continuous
 62
     2
100
AcDbMText
 10
1.848746
 20
775.172594
 30
0.0
 40
4.0
 41
4.714286
 46
0.0
 71
     1
 72
     1
  1
8
  7
TEXTSTYLE_2
 73
     1
 44
0.9
  0
LINE
  5
2EC
330
211
100
AcDbEntity
  8
7_ALL_FEATURES
  6
Continuous
 62
     7
100
AcDbLine
 10
754.017675
 20
541.028915
 30
0.0
 11
754.883701
 21
542.528915
 31
0.0
  0
LINE
  5
2ED
330
211
100
AcDbEntity
  8
7_ALL_FEATURES
  6
Continuous
 62
     7
100
AcDbLine
 10
754.883701
 20
542.528915
 30
0.0
 11
754.017675
 21
544.028915
 31
0.0
  0
LINE
  5
2EE
330
211
100
AcDbEntity
  8
7_ALL_FEATURES
  6
Continuous
 62
     7
100
AcDbLine
 10
754.017675
 20
544.028915
 30
0.0
 11
752.285625
 21
544.028915
 31
0.0
  0
LINE
  5
2EF
330
211
100
AcDbEntity
  8
7_ALL_FEATURES
  6
Continuous
 62
     7
100
AcDbLine
 10
752.285625
 20
544.028915
 30
0.0
 11
751.419599
 21
542.528915
 31
0.0
  0
LINE
  5
2F0
330
211
100
AcDbEntity
  8
7_ALL_FEATURES
  6
Continuous
 62
     7
100
AcDbLine
 10
751.419599
 20
542.528915
 30
0.0
 11
752.285625
 21
541.028915
 31
0.0
  0
LINE
  5
2F1
330
211
100
AcDbEntity
  8
7_ALL_FEATURES
  6
Continuous
 62
     7
100
AcDbLine
 10
752.285625
 20
541.028915
 30
0.0
 11
754.017675
 21
541.028915
 31
0.0
  0
ARC
  5
2F2
330
211
100
AcDbEntity
  8
7_ALL_FEATURES
  6
Continuous
 62
     7
100
AcDbCircle
 10
753.15165
 20
542.528915
 30
0.0
 40
3.5
100
AcDbArc
 50
180.0
 51
360.0
  0
ARC
  5
2F3
330
211
100
AcDbEntity
  8
7_ALL_FEATURES
  6
Continuous
 62
     7
100
AcDbCircle
 10
753.15165
 20
542.528915
 30
0.0
 40
3.5
100
AcDbArc
 50
180.0
 51
360.0
  0
ARC
  5
2F4
330
211
100
AcDbEntity
  8
7_ALL_FEATURES
  6
Continuous
 62
     7
100
AcDbCircle
 10
753.15165
 20
542.528915
 30
0.0
 40
3.5
100
AcDbArc
 50
0.0
 51
180.0
  0
ARC
  5
2F5
330
211
100
AcDbEntity
  8
7_ALL_FEATURES
  6
Continuous
 62
     9
100
AcDbCircle
 10
753.15165
 20
542.528915
 30
0.0
 40
3.4000000051
100
AcDbArc
 50
0.0
 51
180.0
  0
ARC
  5
2F6
330
211
100
AcDbEntity
  8
7_ALL_FEATURES
  6
Continuous
 62
     9
100
AcDbCircle
 10
753.15165
 20
542.528915
 30
0.0
 40
3.4000000051
100
AcDbArc
 50
180.0
 51
360.0
  0
ARC
  5
2F7
330
211
100
AcDbEntity
  8
7_ALL_FEATURES
  6
Continuous
 62
     7
100
AcDbCircle
 10
753.15165
 20
542.528915
 30
0.0
 40
9.25
100
AcDbArc
 50
0.0
 51
180.0
  0
ARC
  5
2F8
330
211
100
AcDbEntity
  8
7_ALL_FEATURES
  6
Continuous
 62
     7
100
AcDbCircle
 10
753.15165
 20
542.528915
 30
0.0
 40
3.7
100
AcDbArc
 50
180.0
 51
360.0
  0
ARC
  5
2F9
330
211
100
AcDbEntity
  8
7_ALL_FEATURES
  6
Continuous
 62
     7
100
AcDbCircle
 10
753.15165
 20
542.528915
 30
0.0
 40
9.25
100
AcDbArc
 50
180.0
 51
360.0
  0
ARC
  5
2FA
330
211
100
AcDbEntity
  8
7_ALL_FEATURES
  6
Continuous
 62
     7
100
AcDbCircle
 10
753.15165
 20
542.528915
 30
0.0
 40
3.7
100
AcDbArc
 50
0.0
 51
180.0
  0
ARC
  5
2FB
330
211
100
AcDbEntity
  8
7_ALL_FEATURES
  6
Continuous
 62
     9
100
AcDbCircle
 10
753.15165
 20
542.528915
 30
0.0
 40
9.0553370325
100
AcDbArc
 50
0.0
 51
180.0
  0
ARC
  5
2FC
330
211
100
AcDbEntity
  8
7_ALL_FEATURES
  6
Continuous
 62
     9
100
AcDbCircle
 10
753.15165
 20
542.528915
 30
0.0
 40
9.0553370325
100
AcDbArc
 50
180.0
 51
360.0
  0
ARC
  5
2FD
330
211
100
AcDbEntity
  8
7_ALL_FEATURES
  6
Continuous
 62
     9
100
AcDbCircle
 10
753.15165
 20
542.528915
 30
0.0
 40
4.0
100
AcDbArc
 50
0.0
 51
180.0
  0
ARC
  5
2FE
330
211
100
AcDbEntity
  8
7_ALL_FEATURES
  6
Continuous
 62
     9
100
AcDbCircle
 10
753.15165
 20
542.528915
 30
0.0
 40
4.0
100
AcDbArc
 50
180.0
 51
360.0
  0
ARC
  5
2FF
330
211
100
AcDbEntity
  8
02___PRT_ALL_AXES
  6
Continuous
 62
     7
100
AcDbCircle
 10
753.15165
 20
542.528915
 30
0.0
 40
5.25
100
AcDbArc
 50
180.0
 51
360.0
  0
ARC
  5
300
330
211
100
AcDbEntity
  8
02___PRT_ALL_AXES
  6
Continuous
 62
     7
100
AcDbCircle
 10
753.15165
 20
542.528915
 30
0.0
 40
5.25
100
AcDbArc
 50
0.0
 51
180.0
  0
ARC
  5
301
330
211
100
AcDbEntity
  8
7_ALL_FEATURES
  6
Continuous
 62
     7
100
AcDbCircle
 10
749.912395
 20
528.102645
 30
0.0
 40
0.3
100
AcDbArc
 50
251.181276
 51
359.132096
  0
ARC
  5
302
330
211
100
AcDbEntity
  8
7_ALL_FEATURES
  6
Continuous
 62
     7
100
AcDbCircle
 10
746.907198
 20
529.126794
 30
0.0
 40
0.3
100
AcDbArc
 50
143.230456
 51
251.181276
  0
LINE
  5
303
330
211
100
AcDbEntity
  8
7_ALL_FEATURES
  6
Continuous
 62
     7
100
AcDbLine
 10
746.666883
 20
529.306373
 30
0.0
 11
749.7501
 21
533.432364
 31
0.0
  0
ARC
  5
304
330
211
100
AcDbEntity
  8
02___PRT_ALL_AXES
  6
Continuous
 62
     7
100
AcDbCircle
 10
749.990415
 20
533.252784
 30
0.0
 40
0.3
100
AcDbArc
 50
359.132096
 51
143.230456
  0
LINE
  5
305
330
211
100
AcDbEntity
  8
7_ALL_FEATURES
  6
Continuous
 62
     7
100
AcDbLine
 10
750.29038
 20
533.24824
 30
0.0
 11
750.212361
 21
528.098101
 31
0.0
  0
LINE
  5
306
330
211
100
AcDbEntity
  8
7_ALL_FEATURES
  6
Continuous
 62
     7
100
AcDbLine
 10
749.815623
 20
527.818682
 30
0.0
 11
746.810426
 21
528.84283
 31
0.0
  0
ARC
  5
307
330
211
100
AcDbEntity
  8
7_ALL_FEATURES
  6
Continuous
 62
     7
100
AcDbCircle
 10
760.503881
 20
528.588524
 30
0.0
 40
25.0
100
AcDbArc
 50
119.887642
 51
161.181276
  0
LINE
  5
308
330
211
100
AcDbEntity
  8
7_ALL_FEATURES
  6
Continuous
 62
     7
100
AcDbLine
 10
701.789894
 20
433.803244
 30
0.0
 11
736.840284
 21
536.6529
 31
0.0
  0
ARC
  5
309
330
211
100
AcDbEntity
  8
7_ALL_FEATURES
  6
Continuous
 62
     7
100
AcDbCircle
 10
739.65165
 20
420.900242
 30
0.0
 40
40.0
100
AcDbArc
 50
161.181276
 51
180.0
  0
LINE
  5
30A
330
211
100
AcDbEntity
  8
7_ALL_FEATURES
  6
Continuous
 62
     7
100
AcDbLine
 10
699.65165
 20
416.528915
 30
0.0
 11
699.65165
 21
420.900242
 31
0.0
  0
LINE
  5
30B
330
211
100
AcDbEntity
  8
7_ALL_FEATURES
  6
Continuous
 62
     7
100
AcDbLine
 10
744.65165
 20
419.247595
 30
0.0
 11
744.65165
 21
416.528915
 31
0.0
  0
LINE
  5
30C
330
211
100
AcDbEntity
  8
7_ALL_FEATURES
  6
Continuous
 62
     7
100
AcDbLine
 10
764.683422
 20
529.201491
 30
0.0
 11
744.816234
 21
421.054413
 31
0.0
  0
LINE
  5
30D
330
211
100
AcDbEntity
  8
7_ALL_FEATURES
  6
Continuous
 62
     7
100
AcDbLine
 10
744.65165
 20
412.528915
 30
0.0
 11
699.65165
 21
412.528915
 31
0.0
  0
LINE
  5
30E
330
211
100
AcDbEntity
  8
7_ALL_FEATURES
  6
Continuous
 62
     7
100
AcDbLine
 10
699.65165
 20
412.528915
 30
0.0
 11
699.65165
 21
414.528915
 31
0.0
  0
LINE
  5
30F
330
211
100
AcDbEntity
  8
7_ALL_FEATURES
  6
Continuous
 62
     7
100
AcDbLine
 10
699.65165
 20
414.528915
 30
0.0
 11
699.65165
 21
416.528915
 31
0.0
  0
LINE
  5
310
330
211
100
AcDbEntity
  8
7_ALL_FEATURES
  6
Continuous
 62
     7
100
AcDbLine
 10
744.65165
 20
412.528915
 30
0.0
 11
744.65165
 21
414.528915
 31
0.0
  0
LINE
  5
311
330
211
100
AcDbEntity
  8
7_ALL_FEATURES
  6
Continuous
 62
     7
100
AcDbLine
 10
744.65165
 20
414.528915
 30
0.0
 11
744.65165
 21
416.528915
 31
0.0
  0
ARC
  5
312
330
211
100
AcDbEntity
  8
7_ALL_FEATURES
  6
Continuous
 62
     7
100
AcDbCircle
 10
740.094882
 20
533.718535
 30
0.0
 40
25.0
100
AcDbArc
 50
349.590526
 51
32.684133
  0
ARC
  5
313
330
211
100
AcDbEntity
  8
7_ALL_FEATURES
  6
Continuous
 62
     7
100
AcDbCircle
 10
740.094882
 20
533.718535
 30
0.0
 40
25.0
100
AcDbArc
 50
32.684133
 51
33.084889
  0
ARC
  5
314
330
211
100
AcDbEntity
  8
7_ALL_FEATURES
  6
Continuous
 62
     7
100
AcDbCircle
 10
740.094882
 20
533.718535
 30
0.0
 40
25.0
100
AcDbArc
 50
33.084889
 51
33.287642
  0
LINE
  5
315
330
211
100
AcDbEntity
  8
7_ALL_FEATURES
  6
Continuous
 62
     7
100
AcDbLine
 10
760.883963
 20
547.605708
 30
0.0
 11
760.993025
 21
547.439599
 31
0.0
  0
ARC
  5
316
330
211
100
AcDbEntity
  8
7_ALL_FEATURES
  6
Continuous
 62
     7
100
AcDbCircle
 10
753.15165
 20
542.528915
 30
0.0
 40
9.25
100
AcDbArc
 50
104.427871
 51
106.536033
  0
ARC
  5
317
330
211
100
AcDbEntity
  8
7_ALL_FEATURES
  6
Continuous
 62
     7
100
AcDbCircle
 10
753.15165
 20
542.528915
 30
0.0
 40
9.25
100
AcDbArc
 50
89.874024
 51
91.884424
  0
ARC
  5
318
330
211
100
AcDbEntity
  8
7_ALL_FEATURES
  6
Continuous
 62
     7
100
AcDbCircle
 10
753.15165
 20
542.528915
 30
0.0
 40
9.25
100
AcDbArc
 50
75.558541
 51
77.130491
  0
ARC
  5
319
330
211
100
AcDbEntity
  8
7_ALL_FEATURES
  6
Continuous
 62
     7
100
AcDbCircle
 10
753.15165
 20
542.528915
 30
0.0
 40
9.25
100
AcDbArc
 50
61.71173
 51
62.310806
  0
ARC
  5
31A
330
211
100
AcDbEntity
  8
7_ALL_FEATURES
  6
Continuous
 62
     7
100
AcDbCircle
 10
753.15165
 20
542.528915
 30
0.0
 40
9.25
100
AcDbArc
 50
47.461392
 51
48.380262
  0
LINE
  5
31B
330
211
100
AcDbEntity
  8
7_ALL_FEATURES
  6
Continuous
 62
     7
100
AcDbLine
 10
748.046362
 20
550.26363
 30
0.0
 11
748.542368
 21
550.548704
 31
0.0
  0
ARC
  5
31C
330
211
100
AcDbEntity
  8
7_ALL_FEATURES
  6
Continuous
 62
     7
100
AcDbCircle
 10
754.65165
 20
419.247595
 30
0.0
 40
10.0
100
AcDbArc
 50
169.590526
 51
180.0
  0
LINE
  5
31D
330
211
100
AcDbEntity
  8
7_ALL_FEATURES
  6
Continuous
 62
     9
100
AcDbLine
 10
744.65165
 20
416.528915
 30
0.0
 11
699.65165
 21
416.528915
 31
0.0
  0
LINE
  5
31E
330
211
100
AcDbEntity
  8
02___PRT_ALL_AXES
  6
Continuous
 62
     7
100
AcDbLine
 10
540.983411
 20
533.528915
 30
0.0
 11
541.983411
 21
533.528915
 31
0.0
  0
LINE
  5
31F
330
211
100
AcDbEntity
  8
02___PRT_ALL_AXES
  6
Continuous
 62
     7
100
AcDbLine
 10
540.983411
 20
542.528915
 30
0.0
 11
540.983411
 21
537.278915
 31
0.0
  0
LINE
  5
320
330
211
100
AcDbEntity
  8
02___PRT_ALL_AXES
  6
Continuous
 62
     7
100
AcDbLine
 10
540.983411
 20
537.278915
 30
0.0
 11
540.983411
 21
533.528915
 31
0.0
  0
LINE
  5
321
330
211
100
AcDbEntity
  8
02___PRT_ALL_AXES
  6
Continuous
 62
     7
100
AcDbLine
 10
540.983411
 20
551.528915
 30
0.0
 11
540.983411
 21
547.778915
 31
0.0
  0
LINE
  5
322
330
211
100
AcDbEntity
  8
02___PRT_ALL_AXES
  6
Continuous
 62
     7
100
AcDbLine
 10
540.983411
 20
547.778915
 30
0.0
 11
540.983411
 21
542.528915
 31
0.0
  0
LINE
  5
323
330
211
100
AcDbEntity
  8
02___PRT_ALL_AXES
  6
Continuous
 62
     7
100
AcDbLine
 10
540.983411
 20
551.528915
 30
0.0
 11
541.983411
 21
551.528915
 31
0.0
  0
LINE
  5
324
330
211
100
AcDbEntity
  8
02___PRT_ALL_AXES
  6
Continuous
 62
     7
100
AcDbLine
 10
292.983411
 20
542.528915
 30
0.0
 11
292.983411
 21
547.778915
 31
0.0
  0
LINE
  5
325
330
211
100
AcDbEntity
  8
02___PRT_ALL_AXES
  6
Continuous
 62
     7
100
AcDbLine
 10
292.983411
 20
547.778915
 30
0.0
 11
292.983411
 21
551.528915
 31
0.0
  0
LINE
  5
326
330
211
100
AcDbEntity
  8
02___PRT_ALL_AXES
  6
Continuous
 62
     7
100
AcDbLine
 10
292.983411
 20
533.528915
 30
0.0
 11
292.983411
 21
537.278915
 31
0.0
  0
LINE
  5
327
330
211
100
AcDbEntity
  8
02___PRT_ALL_AXES
  6
Continuous
 62
     7
100
AcDbLine
 10
292.983411
 20
537.278915
 30
0.0
 11
292.983411
 21
542.528915
 31
0.0
  0
LINE
  5
328
330
211
100
AcDbEntity
  8
02___PRT_ALL_AXES
  6
Continuous
 62
     7
100
AcDbLine
 10
292.983411
 20
533.528915
 30
0.0
 11
291.983411
 21
533.528915
 31
0.0
  0
LINE
  5
329
330
211
100
AcDbEntity
  8
02___PRT_ALL_AXES
  6
Continuous
 62
     7
100
AcDbLine
 10
292.983411
 20
551.528915
 30
0.0
 11
291.983411
 21
551.528915
 31
0.0
  0
LINE
  5
32A
330
211
100
AcDbEntity
  8
02___PRT_ALL_AXES
  6
Continuous
 62
     7
100
AcDbLine
 10
288.983411
 20
533.528915
 30
0.0
 11
289.983411
 21
533.528915
 31
0.0
  0
LINE
  5
32B
330
211
100
AcDbEntity
  8
02___PRT_ALL_AXES
  6
Continuous
 62
     7
100
AcDbLine
 10
288.983411
 20
551.528915
 30
0.0
 11
289.983411
 21
551.528915
 31
0.0
  0
LINE
  5
32C
330
211
100
AcDbEntity
  8
02___PRT_ALL_AXES
  6
Continuous
 62
     7
100
AcDbLine
 10
544.983411
 20
533.528915
 30
0.0
 11
543.983411
 21
533.528915
 31
0.0
  0
LINE
  5
32D
330
211
100
AcDbEntity
  8
02___PRT_ALL_AXES
  6
Continuous
 62
     7
100
AcDbLine
 10
544.983411
 20
551.528915
 30
0.0
 11
543.983411
 21
551.528915
 31
0.0
  0
LINE
  5
32E
330
211
100
AcDbEntity
  8
7_ALL_FEATURES
  6
Continuous
 62
     7
100
AcDbLine
 10
532.983411
 20
542.528915
 30
0.0
 11
532.983411
 21
541.028982
 31
0.0
  0
LINE
  5
32F
330
211
100
AcDbEntity
  8
7_ALL_FEATURES
  6
Continuous
 62
     7
100
AcDbLine
 10
532.983411
 20
542.528915
 30
0.0
 11
532.983411
 21
544.028847
 31
0.0
  0
LINE
  5
330
330
211
100
AcDbEntity
  8
7_ALL_FEATURES
  6
Continuous
 62
     7
100
AcDbLine
 10
532.983411
 20
544.028915
 30
0.0
 11
533.483411
 21
544.528915
 31
0.0
  0
LINE
  5
331
330
211
100
AcDbEntity
  8
7_ALL_FEATURES
  6
Continuous
 62
     7
100
AcDbLine
 10
532.983411
 20
541.028915
 30
0.0
 11
533.483411
 21
540.528915
 31
0.0
  0
LINE
  5
332
330
211
100
AcDbEntity
  8
3_ALL_AXES
  6
Continuous
 62
     7
100
AcDbLine
 10
533.483411
 20
544.528915
 30
0.0
 11
538.983411
 21
544.528915
 31
0.0
  0
LINE
  5
333
330
211
100
AcDbEntity
  8
3_ALL_AXES
  6
Continuous
 62
     7
100
AcDbLine
 10
533.483411
 20
540.528915
 30
0.0
 11
538.983411
 21
540.528915
 31
0.0
  0
LINE
  5
334
330
211
100
AcDbEntity
  8
7_ALL_FEATURES
  6
Continuous
 62
     7
100
AcDbLine
 10
533.483411
 20
542.528915
 30
0.0
 11
533.483411
 21
540.528915
 31
0.0
  0
LINE
  5
335
330
211
100
AcDbEntity
  8
7_ALL_FEATURES
  6
Continuous
 62
     7
100
AcDbLine
 10
533.483411
 20
542.528915
 30
0.0
 11
533.483411
 21
544.528915
 31
0.0
  0
LINE
  5
336
330
211
100
AcDbEntity
  8
7_ALL_FEATURES
  6
Continuous
 62
     7
100
AcDbLine
 10
300.983411
 20
544.028847
 30
0.0
 11
300.983411
 21
542.528915
 31
0.0
  0
LINE
  5
337
330
211
100
AcDbEntity
  8
7_ALL_FEATURES
  6
Continuous
 62
     7
100
AcDbLine
 10
300.983411
 20
544.028915
 30
0.0
 11
300.483411
 21
544.528915
 31
0.0
  0
LINE
  5
338
330
211
100
AcDbEntity
  8
7_ALL_FEATURES
  6
Continuous
 62
     7
100
AcDbLine
 10
300.983411
 20
541.028982
 30
0.0
 11
300.983411
 21
542.528915
 31
0.0
  0
LINE
  5
339
330
211
100
AcDbEntity
  8
7_ALL_FEATURES
  6
Continuous
 62
     7
100
AcDbLine
 10
300.983411
 20
541.028915
 30
0.0
 11
300.483411
 21
540.528915
 31
0.0
  0
LINE
  5
33A
330
211
100
AcDbEntity
  8
3_ALL_AXES
  6
Continuous
 62
     7
100
AcDbLine
 10
300.483411
 20
544.528915
 30
0.0
 11
294.983411
 21
544.528915
 31
0.0
  0
LINE
  5
33B
330
211
100
AcDbEntity
  8
3_ALL_AXES
  6
Continuous
 62
     7
100
AcDbLine
 10
300.483411
 20
540.528915
 30
0.0
 11
294.983411
 21
540.528915
 31
0.0
  0
LINE
  5
33C
330
211
100
AcDbEntity
  8
7_ALL_FEATURES
  6
Continuous
 62
     7
100
AcDbLine
 10
300.483411
 20
544.528915
 30
0.0
 11
300.483411
 21
542.528915
 31
0.0
  0
LINE
  5
33D
330
211
100
AcDbEntity
  8
7_ALL_FEATURES
  6
Continuous
 62
     7
100
AcDbLine
 10
300.483411
 20
540.528915
 30
0.0
 11
300.483411
 21
542.528915
 31
0.0
  0
LINE
  5
33E
330
211
100
AcDbEntity
  8
02___PRT_ALL_AXES
  6
Continuous
 62
     7
100
AcDbLine
 10
288.983411
 20
542.528915
 30
0.0
 11
288.983411
 21
547.778915
 31
0.0
  0
LINE
  5
33F
330
211
100
AcDbEntity
  8
02___PRT_ALL_AXES
  6
Continuous
 62
     7
100
AcDbLine
 10
288.983411
 20
547.778915
 30
0.0
 11
288.983411
 21
547.878915
 31
0.0
  0
LINE
  5
340
330
211
100
AcDbEntity
  8
02___PRT_ALL_AXES
  6
Continuous
 62
     7
100
AcDbLine
 10
288.983411
 20
547.878915
 30
0.0
 11
288.983411
 21
551.528915
 31
0.0
  0
LINE
  5
341
330
211
100
AcDbEntity
  8
02___PRT_ALL_AXES
  6
Continuous
 62
     7
100
AcDbLine
 10
288.983411
 20
551.528915
 30
0.0
 11
288.983411
 21
551.778915
 31
0.0
  0
ARC
  5
342
330
211
100
AcDbEntity
  8
7_ALL_FEATURES
  6
Continuous
 62
     7
100
AcDbCircle
 10
288.191311
 20
551.478915
 30
0.0
 40
0.3
100
AcDbArc
 50
90.0
 51
159.443955
  0
ARC
  5
343
330
211
100
AcDbEntity
  8
7_ALL_FEATURES
  6
Continuous
 62
     7
100
AcDbCircle
 10
288.191311
 20
533.578915
 30
0.0
 40
0.3
100
AcDbArc
 50
200.556045
 51
270.0
  0
LINE
  5
344
330
211
100
AcDbEntity
  8
7_ALL_FEATURES
  6
Continuous
 62
     7
100
AcDbLine
 10
292.983411
 20
546.778915
 30
0.0
 11
294.783411
 21
546.778915
 31
0.0
  0
LINE
  5
345
330
211
100
AcDbEntity
  8
02___PRT_ALL_AXES
  6
Continuous
 62
     7
100
AcDbLine
 10
286.483411
 20
542.528915
 30
0.0
 11
286.483411
 21
546.528845
 31
0.0
  0
LINE
  5
346
330
211
100
AcDbEntity
  8
02___PRT_ALL_AXES
  6
Continuous
 62
     7
100
AcDbLine
 10
286.483411
 20
546.528845
 30
0.0
 11
286.483411
 21
547.778872
 31
0.0
  0
LINE
  5
347
330
211
100
AcDbEntity
  8
02___PRT_ALL_AXES
  6
Continuous
 62
     7
100
AcDbLine
 10
286.483411
 20
542.528915
 30
0.0
 11
286.483411
 21
538.528985
 31
0.0
  0
LINE
  5
348
330
211
100
AcDbEntity
  8
02___PRT_ALL_AXES
  6
Continuous
 62
     7
100
AcDbLine
 10
286.483411
 20
538.528985
 30
0.0
 11
286.483411
 21
537.278957
 31
0.0
  0
LINE
  5
349
330
211
100
AcDbEntity
  8
7_ALL_FEATURES
  6
Continuous
 62
     7
100
AcDbLine
 10
294.983411
 20
537.578915
 30
0.0
 11
294.783411
 21
537.378915
 31
0.0
  0
LINE
  5
34A
330
211
100
AcDbEntity
  8
02___PRT_ALL_AXES
  6
Continuous
 62
     7
100
AcDbLine
 10
288.983411
 20
542.528915
 30
0.0
 11
288.983411
 21
537.178915
 31
0.0
  0
LINE
  5
34B
330
211
100
AcDbEntity
  8
02___PRT_ALL_AXES
  6
Continuous
 62
     7
100
AcDbLine
 10
288.983411
 20
537.178915
 30
0.0
 11
288.983411
 21
533.528915
 31
0.0
  0
LINE
  5
34C
330
211
100
AcDbEntity
  8
02___PRT_ALL_AXES
  6
Continuous
 62
     7
100
AcDbLine
 10
288.983411
 20
533.528915
 30
0.0
 11
288.983411
 21
533.278915
 31
0.0
  0
LINE
  5
34D
330
211
100
AcDbEntity
  8
02___PRT_ALL_AXES
  6
Continuous
 62
     7
100
AcDbLine
 10
292.983411
 20
537.378915
 30
0.0
 11
294.783411
 21
537.378915
 31
0.0
  0
LINE
  5
34E
330
211
100
AcDbEntity
  8
02___PRT_ALL_AXES
  6
Continuous
 62
     7
100
AcDbLine
 10
288.191311
 20
533.278915
 30
0.0
 11
288.983411
 21
533.278915
 31
0.0
  0
LINE
  5
34F
330
211
100
AcDbEntity
  8
02___PRT_ALL_AXES
  6
Continuous
 62
     7
100
AcDbLine
 10
286.483411
 20
537.278915
 30
0.0
 11
287.910412
 21
533.473578
 31
0.0
  0
LINE
  5
350
330
211
100
AcDbEntity
  8
7_ALL_FEATURES
  6
Continuous
 62
     7
100
AcDbLine
 10
294.983411
 20
546.578915
 30
0.0
 11
294.983411
 21
544.778915
 31
0.0
  0
LINE
  5
351
330
211
100
AcDbEntity
  8
7_ALL_FEATURES
  6
Continuous
 62
     7
100
AcDbLine
 10
294.983411
 20
544.778915
 30
0.0
 11
294.983411
 21
544.765615
 31
0.0
  0
LINE
  5
352
330
211
100
AcDbEntity
  8
7_ALL_FEATURES
  6
Continuous
 62
     7
100
AcDbLine
 10
294.983411
 20
544.765615
 30
0.0
 11
294.983411
 21
542.528915
 31
0.0
  0
LINE
  5
353
330
211
100
AcDbEntity
  8
7_ALL_FEATURES
  6
Continuous
 62
     7
100
AcDbLine
 10
294.983411
 20
542.528915
 30
0.0
 11
294.983411
 21
540.278915
 31
0.0
  0
LINE
  5
354
330
211
100
AcDbEntity
  8
7_ALL_FEATURES
  6
Continuous
 62
     7
100
AcDbLine
 10
294.983411
 20
540.278915
 30
0.0
 11
294.983411
 21
537.578997
 31
0.0
  0
LINE
  5
355
330
211
100
AcDbEntity
  8
7_ALL_FEATURES
  6
Continuous
 62
     7
100
AcDbLine
 10
294.783411
 20
546.778915
 30
0.0
 11
294.983411
 21
546.578915
 31
0.0
  0
LINE
  5
356
330
211
100
AcDbEntity
  8
02___PRT_ALL_AXES
  6
Continuous
 62
     7
100
AcDbLine
 10
286.483411
 20
547.778915
 30
0.0
 11
287.910412
 21
551.584252
 31
0.0
  0
LINE
  5
357
330
211
100
AcDbEntity
  8
02___PRT_ALL_AXES
  6
Continuous
 62
     7
100
AcDbLine
 10
288.191311
 20
551.778915
 30
0.0
 11
288.983411
 21
551.778915
 31
0.0
  0
LINE
  5
358
330
211
100
AcDbEntity
  8
7_ALL_FEATURES
  6
Continuous
 62
     7
100
AcDbLine
 10
294.783411
 20
537.378915
 30
0.0
 11
294.783411
 21
542.528915
 31
0.0
  0
LINE
  5
359
330
211
100
AcDbEntity
  8
7_ALL_FEATURES
  6
Continuous
 62
     9
100
AcDbLine
 10
288.191311
 20
533.278915
 30
0.0
 11
288.191311
 21
542.528915
 31
0.0
  0
LINE
  5
35A
330
211
100
AcDbEntity
  8
7_ALL_FEATURES
  6
Continuous
 62
     9
100
AcDbLine
 10
287.910412
 20
533.473578
 30
0.0
 11
287.910412
 21
542.528915
 31
0.0
  0
LINE
  5
35B
330
211
100
AcDbEntity
  8
7_ALL_FEATURES
  6
Continuous
 62
     9
100
AcDbLine
 10
288.191311
 20
542.528915
 30
0.0
 11
288.191311
 21
551.778915
 31
0.0
  0
LINE
  5
35C
330
211
100
AcDbEntity
  8
7_ALL_FEATURES
  6
Continuous
 62
     7
100
AcDbLine
 10
294.783411
 20
542.528915
 30
0.0
 11
294.783411
 21
546.778915
 31
0.0
  0
LINE
  5
35D
330
211
100
AcDbEntity
  8
7_ALL_FEATURES
  6
Continuous
 62
     9
100
AcDbLine
 10
287.910412
 20
542.528915
 30
0.0
 11
287.910412
 21
551.584252
 31
0.0
  0
ARC
  5
35E
330
211
100
AcDbEntity
  8
7_ALL_FEATURES
  6
Continuous
 62
     7
100
AcDbCircle
 10
545.775511
 20
551.478915
 30
0.0
 40
0.3
100
AcDbArc
 50
20.556045
 51
90.0
  0
ARC
  5
35F
330
211
100
AcDbEntity
  8
7_ALL_FEATURES
  6
Continuous
 62
     7
100
AcDbCircle
 10
545.775511
 20
533.578915
 30
0.0
 40
0.3
100
AcDbArc
 50
270.0
 51
339.443955
  0
LINE
  5
360
330
211
100
AcDbEntity
  8
7_ALL_FEATURES
  6
Continuous
 62
     7
100
AcDbLine
 10
540.983411
 20
546.778915
 30
0.0
 11
539.183411
 21
546.778915
 31
0.0
  0
LINE
  5
361
330
211
100
AcDbEntity
  8
7_ALL_FEATURES
  6
Continuous
 62
     7
100
AcDbLine
 10
538.983411
 20
537.578997
 30
0.0
 11
538.983411
 21
540.278915
 31
0.0
  0
LINE
  5
362
330
211
100
AcDbEntity
  8
7_ALL_FEATURES
  6
Continuous
 62
     7
100
AcDbLine
 10
538.983411
 20
540.278915
 30
0.0
 11
538.983411
 21
542.528915
 31
0.0
  0
LINE
  5
363
330
211
100
AcDbEntity
  8
7_ALL_FEATURES
  6
Continuous
 62
     7
100
AcDbLine
 10
538.983411
 20
542.528915
 30
0.0
 11
538.983411
 21
544.765135
 31
0.0
  0
LINE
  5
364
330
211
100
AcDbEntity
  8
7_ALL_FEATURES
  6
Continuous
 62
     7
100
AcDbLine
 10
538.983411
 20
544.765135
 30
0.0
 11
538.983411
 21
544.778915
 31
0.0
  0
LINE
  5
365
330
211
100
AcDbEntity
  8
7_ALL_FEATURES
  6
Continuous
 62
     7
100
AcDbLine
 10
538.983411
 20
544.778915
 30
0.0
 11
538.983411
 21
546.578915
 31
0.0
  0
LINE
  5
366
330
211
100
AcDbEntity
  8
7_ALL_FEATURES
  6
Continuous
 62
     7
100
AcDbLine
 10
538.983411
 20
537.578915
 30
0.0
 11
539.183411
 21
537.378915
 31
0.0
  0
LINE
  5
367
330
211
100
AcDbEntity
  8
02___PRT_ALL_AXES
  6
Continuous
 62
     7
100
AcDbLine
 10
540.983411
 20
537.378915
 30
0.0
 11
539.183411
 21
537.378915
 31
0.0
  0
LINE
  5
368
330
211
100
AcDbEntity
  8
02___PRT_ALL_AXES
  6
Continuous
 62
     7
100
AcDbLine
 10
544.983411
 20
533.278915
 30
0.0
 11
544.983411
 21
533.528915
 31
0.0
  0
LINE
  5
369
330
211
100
AcDbEntity
  8
02___PRT_ALL_AXES
  6
Continuous
 62
     7
100
AcDbLine
 10
544.983411
 20
533.528915
 30
0.0
 11
544.983411
 21
537.178915
 31
0.0
  0
LINE
  5
36A
330
211
100
AcDbEntity
  8
02___PRT_ALL_AXES
  6
Continuous
 62
     7
100
AcDbLine
 10
544.983411
 20
537.178915
 30
0.0
 11
544.983411
 21
537.278915
 31
0.0
  0
LINE
  5
36B
330
211
100
AcDbEntity
  8
02___PRT_ALL_AXES
  6
Continuous
 62
     7
100
AcDbLine
 10
544.983411
 20
537.278915
 30
0.0
 11
544.983411
 21
542.528915
 31
0.0
  0
LINE
  5
36C
330
211
100
AcDbEntity
  8
02___PRT_ALL_AXES
  6
Continuous
 62
     7
100
AcDbLine
 10
545.775511
 20
533.278915
 30
0.0
 11
544.983411
 21
533.278915
 31
0.0
  0
LINE
  5
36D
330
211
100
AcDbEntity
  8
02___PRT_ALL_AXES
  6
Continuous
 62
     7
100
AcDbLine
 10
547.483411
 20
537.278957
 30
0.0
 11
547.483411
 21
538.528985
 31
0.0
  0
LINE
  5
36E
330
211
100
AcDbEntity
  8
02___PRT_ALL_AXES
  6
Continuous
 62
     7
100
AcDbLine
 10
547.483411
 20
538.528985
 30
0.0
 11
547.483411
 21
542.528915
 31
0.0
  0
LINE
  5
36F
330
211
100
AcDbEntity
  8
02___PRT_ALL_AXES
  6
Continuous
 62
     7
100
AcDbLine
 10
547.483411
 20
537.278915
 30
0.0
 11
546.056409
 21
533.473578
 31
0.0
  0
LINE
  5
370
330
211
100
AcDbEntity
  8
7_ALL_FEATURES
  6
Continuous
 62
     7
100
AcDbLine
 10
539.183411
 20
546.778915
 30
0.0
 11
538.983411
 21
546.578915
 31
0.0
  0
LINE
  5
371
330
211
100
AcDbEntity
  8
02___PRT_ALL_AXES
  6
Continuous
 62
     7
100
AcDbLine
 10
544.983411
 20
551.778915
 30
0.0
 11
544.983411
 21
551.528915
 31
0.0
  0
LINE
  5
372
330
211
100
AcDbEntity
  8
02___PRT_ALL_AXES
  6
Continuous
 62
     7
100
AcDbLine
 10
544.983411
 20
551.528915
 30
0.0
 11
544.983411
 21
547.878915
 31
0.0
  0
LINE
  5
373
330
211
100
AcDbEntity
  8
02___PRT_ALL_AXES
  6
Continuous
 62
     7
100
AcDbLine
 10
544.983411
 20
547.878915
 30
0.0
 11
544.983411
 21
542.528915
 31
0.0
  0
LINE
  5
374
330
211
100
AcDbEntity
  8
02___PRT_ALL_AXES
  6
Continuous
 62
     7
100
AcDbLine
 10
547.483411
 20
547.778915
 30
0.0
 11
546.056409
 21
551.584252
 31
0.0
  0
LINE
  5
375
330
211
100
AcDbEntity
  8
02___PRT_ALL_AXES
  6
Continuous
 62
     7
100
AcDbLine
 10
547.483411
 20
547.778872
 30
0.0
 11
547.483411
 21
546.528845
 31
0.0
  0
LINE
  5
376
330
211
100
AcDbEntity
  8
02___PRT_ALL_AXES
  6
Continuous
 62
     7
100
AcDbLine
 10
547.483411
 20
546.528845
 30
0.0
 11
547.483411
 21
542.528915
 31
0.0
  0
LINE
  5
377
330
211
100
AcDbEntity
  8
02___PRT_ALL_AXES
  6
Continuous
 62
     7
100
AcDbLine
 10
545.775511
 20
551.778915
 30
0.0
 11
544.983411
 21
551.778915
 31
0.0
  0
LINE
  5
378
330
211
100
AcDbEntity
  8
7_ALL_FEATURES
  6
Continuous
 62
     7
100
AcDbLine
 10
539.183411
 20
546.778915
 30
0.0
 11
539.183411
 21
542.528915
 31
0.0
  0
LINE
  5
379
330
211
100
AcDbEntity
  8
7_ALL_FEATURES
  6
Continuous
 62
     7
100
AcDbLine
 10
539.183411
 20
542.528915
 30
0.0
 11
539.183411
 21
537.378915
 31
0.0
  0
LINE
  5
37A
330
211
100
AcDbEntity
  8
7_ALL_FEATURES
  6
Continuous
 62
     9
100
AcDbLine
 10
546.056409
 20
542.528915
 30
0.0
 11
546.056409
 21
533.473578
 31
0.0
  0
LINE
  5
37B
330
211
100
AcDbEntity
  8
7_ALL_FEATURES
  6
Continuous
 62
     9
100
AcDbLine
 10
545.775511
 20
542.528915
 30
0.0
 11
545.775511
 21
533.278915
 31
0.0
  0
LINE
  5
37C
330
211
100
AcDbEntity
  8
7_ALL_FEATURES
  6
Continuous
 62
     9
100
AcDbLine
 10
546.056409
 20
551.584252
 30
0.0
 11
546.056409
 21
542.528915
 31
0.0
  0
LINE
  5
37D
330
211
100
AcDbEntity
  8
7_ALL_FEATURES
  6
Continuous
 62
     9
100
AcDbLine
 10
545.775511
 20
551.778915
 30
0.0
 11
545.775511
 21
542.528915
 31
0.0
  0
LINE
  5
37E
330
211
100
AcDbEntity
  8
0
  6
Continuous
 62
     7
100
AcDbLine
 10
543.983411
 20
551.778854
 30
0.0
 11
543.983411
 21
551.528915
 31
0.0
  0
LINE
  5
37F
330
211
100
AcDbEntity
  8
0
  6
Continuous
 62
     7
100
AcDbLine
 10
543.983411
 20
551.528915
 30
0.0
 11
543.983411
 21
551.526629
 31
0.0
  0
LINE
  5
380
330
211
100
AcDbEntity
  8
0
  6
Continuous
 62
     7
100
AcDbLine
 10
543.983411
 20
551.526629
 30
0.0
 11
543.983411
 21
547.778915
 31
0.0
  0
LINE
  5
381
330
211
100
AcDbEntity
  8
0
  6
Continuous
 62
     7
100
AcDbLine
 10
543.983411
 20
547.778915
 30
0.0
 11
543.983411
 21
547.605708
 31
0.0
  0
LINE
  5
382
330
211
100
AcDbEntity
  8
0
  6
Continuous
 62
     7
100
AcDbLine
 10
541.983411
 20
551.778915
 30
0.0
 11
543.983411
 21
551.778915
 31
0.0
  0
ARC
  5
383
330
211
100
AcDbEntity
  8
0
  6
Continuous
 62
     7
100
AcDbCircle
 10
539.983411
 20
416.528915
 30
0.0
 40
4.0
100
AcDbArc
 50
270.0
 51
360.0
  0
LINE
  5
384
330
211
100
AcDbEntity
  8
0
  6
Continuous
 62
     7
100
AcDbLine
 10
543.983411
 20
547.605708
 30
0.0
 11
543.983411
 21
547.439599
 31
0.0
  0
LINE
  5
385
330
211
100
AcDbEntity
  8
0
  6
Continuous
 62
     7
100
AcDbLine
 10
543.983411
 20
529.201491
 30
0.0
 11
543.983411
 21
533.528915
 31
0.0
  0
LINE
  5
386
330
211
100
AcDbEntity
  8
0
  6
Continuous
 62
     7
100
AcDbLine
 10
543.983411
 20
533.528915
 30
0.0
 11
543.983411
 21
542.528915
 31
0.0
  0
LINE
  5
387
330
211
100
AcDbEntity
  8
0
  6
Continuous
 62
     7
100
AcDbLine
 10
543.983411
 20
542.528915
 30
0.0
 11
543.983411
 21
547.439599
 31
0.0
  0
LINE
  5
388
330
211
100
AcDbEntity
  8
0
  6
Continuous
 62
     7
100
AcDbLine
 10
543.983411
 20
529.201491
 30
0.0
 11
543.983411
 21
528.84283
 31
0.0
  0
LINE
  5
389
330
211
100
AcDbEntity
  8
0
  6
Continuous
 62
     7
100
AcDbLine
 10
543.983411
 20
528.84283
 30
0.0
 11
543.983411
 21
527.802802
 31
0.0
  0
LINE
  5
38A
330
211
100
AcDbEntity
  8
0
  6
Continuous
 62
     7
100
AcDbLine
 10
543.983411
 20
527.802802
 30
0.0
 11
543.983411
 21
421.054413
 31
0.0
  0
LINE
  5
38B
330
211
100
AcDbEntity
  8
0
  6
Continuous
 62
     7
100
AcDbLine
 10
543.983411
 20
419.247595
 30
0.0
 11
543.983411
 21
416.528915
 31
0.0
  0
LINE
  5
38C
330
211
100
AcDbEntity
  8
0
  6
Continuous
 62
     7
100
AcDbLine
 10
498.983411
 20
414.528915
 30
0.0
 11
498.983411
 21
412.528915
 31
0.0
  0
LINE
  5
38D
330
211
100
AcDbEntity
  8
0
  6
Continuous
 62
     7
100
AcDbLine
 10
543.983411
 20
419.247595
 30
0.0
 11
543.983411
 21
421.054413
 31
0.0
  0
LINE
  5
38E
330
211
100
AcDbEntity
  8
0
  6
Continuous
 62
     7
100
AcDbLine
 10
498.983411
 20
412.528915
 30
0.0
 11
503.983411
 21
412.528915
 31
0.0
  0
LINE
  5
38F
330
211
100
AcDbEntity
  8
0
  6
Continuous
 62
     7
100
AcDbLine
 10
503.983411
 20
412.528915
 30
0.0
 11
539.983411
 21
412.528915
 31
0.0
  0
LINE
  5
390
330
211
100
AcDbEntity
  8
0
  6
Continuous
 62
     9
100
AcDbLine
 10
541.983411
 20
547.605708
 30
0.0
 11
543.983411
 21
547.605708
 31
0.0
  0
LINE
  5
391
330
211
100
AcDbEntity
  8
0
  6
Continuous
 62
     9
100
AcDbLine
 10
543.983411
 20
416.528915
 30
0.0
 11
541.983411
 21
416.528915
 31
0.0
  0
LINE
  5
392
330
211
100
AcDbEntity
  8
0
  6
Continuous
 62
     9
100
AcDbLine
 10
503.983411
 20
414.528915
 30
0.0
 11
503.983411
 21
412.528915
 31
0.0
  0
LINE
  5
393
330
211
100
AcDbEntity
  8
0
  6
Continuous
 62
     9
100
AcDbLine
 10
541.983411
 20
419.247595
 30
0.0
 11
543.983411
 21
419.247595
 31
0.0
  0
LINE
  5
394
330
211
100
AcDbEntity
  8
0
  6
Continuous
 62
     9
100
AcDbLine
 10
539.983411
 20
412.528915
 30
0.0
 11
539.983411
 21
414.528915
 31
0.0
  0
LINE
  5
395
330
211
100
AcDbEntity
  8
0
  6
Continuous
 62
     9
100
AcDbLine
 10
543.983411
 20
547.439599
 30
0.0
 11
541.983411
 21
547.439599
 31
0.0
  0
LINE
  5
396
330
211
100
AcDbEntity
  8
0
  6
Continuous
 62
     9
100
AcDbLine
 10
541.983411
 20
421.054413
 30
0.0
 11
543.983411
 21
421.054413
 31
0.0
  0
LINE
  5
397
330
211
100
AcDbEntity
  8
0
  6
Continuous
 62
     9
100
AcDbLine
 10
543.983411
 20
529.201491
 30
0.0
 11
541.983411
 21
529.201491
 31
0.0
  0
LINE
  5
398
330
211
100
AcDbEntity
  8
7_ALL_FEATURES
  6
Continuous
 62
     7
100
AcDbLine
 10
289.983411
 20
551.778854
 30
0.0
 11
289.983411
 21
551.528915
 31
0.0
  0
LINE
  5
399
330
211
100
AcDbEntity
  8
7_ALL_FEATURES
  6
Continuous
 62
     7
100
AcDbLine
 10
289.983411
 20
551.528915
 30
0.0
 11
289.983411
 21
551.526629
 31
0.0
  0
LINE
  5
39A
330
211
100
AcDbEntity
  8
7_ALL_FEATURES
  6
Continuous
 62
     7
100
AcDbLine
 10
289.983411
 20
551.526629
 30
0.0
 11
289.983411
 21
547.778915
 31
0.0
  0
LINE
  5
39B
330
211
100
AcDbEntity
  8
7_ALL_FEATURES
  6
Continuous
 62
     7
100
AcDbLine
 10
289.983411
 20
547.778915
 30
0.0
 11
289.983411
 21
547.605708
 31
0.0
  0
LINE
  5
39C
330
211
100
AcDbEntity
  8
7_ALL_FEATURES
  6
Continuous
 62
     7
100
AcDbLine
 10
289.983411
 20
551.778915
 30
0.0
 11
291.983411
 21
551.778915
 31
0.0
  0
ARC
  5
39D
330
211
100
AcDbEntity
  8
7_ALL_FEATURES
  6
Continuous
 62
     7
100
AcDbCircle
 10
293.983411
 20
416.528915
 30
0.0
 40
4.0
100
AcDbArc
 50
180.0
 51
270.0
  0
LINE
  5
39E
330
211
100
AcDbEntity
  8
7_ALL_FEATURES
  6
Continuous
 62
     7
100
AcDbLine
 10
289.983411
 20
419.247595
 30
0.0
 11
289.983411
 21
416.528915
 31
0.0
  0
LINE
  5
39F
330
211
100
AcDbEntity
  8
7_ALL_FEATURES
  6
Continuous
 62
     7
100
AcDbLine
 10
289.983411
 20
529.201491
 30
0.0
 11
289.983411
 21
528.84283
 31
0.0
  0
LINE
  5
3A0
330
211
100
AcDbEntity
  8
7_ALL_FEATURES
  6
Continuous
 62
     7
100
AcDbLine
 10
289.983411
 20
528.84283
 30
0.0
 11
289.983411
 21
527.802802
 31
0.0
  0
LINE
  5
3A1
330
211
100
AcDbEntity
  8
7_ALL_FEATURES
  6
Continuous
 62
     7
100
AcDbLine
 10
289.983411
 20
527.802802
 30
0.0
 11
289.983411
 21
421.054413
 31
0.0
  0
LINE
  5
3A2
330
211
100
AcDbEntity
  8
7_ALL_FEATURES
  6
Continuous
 62
     7
100
AcDbLine
 10
289.983411
 20
529.201491
 30
0.0
 11
289.983411
 21
533.528915
 31
0.0
  0
LINE
  5
3A3
330
211
100
AcDbEntity
  8
7_ALL_FEATURES
  6
Continuous
 62
     7
100
AcDbLine
 10
289.983411
 20
533.528915
 30
0.0
 11
289.983411
 21
542.528915
 31
0.0
  0
LINE
  5
3A4
330
211
100
AcDbEntity
  8
7_ALL_FEATURES
  6
Continuous
 62
     7
100
AcDbLine
 10
289.983411
 20
542.528915
 30
0.0
 11
289.983411
 21
547.439599
 31
0.0
  0
LINE
  5
3A5
330
211
100
AcDbEntity
  8
7_ALL_FEATURES
  6
Continuous
 62
     7
100
AcDbLine
 10
289.983411
 20
547.605708
 30
0.0
 11
289.983411
 21
547.439599
 31
0.0
  0
LINE
  5
3A6
330
211
100
AcDbEntity
  8
7_ALL_FEATURES
  6
Continuous
 62
     7
100
AcDbLine
 10
334.983411
 20
414.528915
 30
0.0
 11
334.983411
 21
412.528915
 31
0.0
  0
LINE
  5
3A7
330
211
100
AcDbEntity
  8
7_ALL_FEATURES
  6
Continuous
 62
     7
100
AcDbLine
 10
289.983411
 20
419.247595
 30
0.0
 11
289.983411
 21
421.054413
 31
0.0
  0
LINE
  5
3A8
330
211
100
AcDbEntity
  8
7_ALL_FEATURES
  6
Continuous
 62
     7
100
AcDbLine
 10
334.983411
 20
412.528915
 30
0.0
 11
329.983411
 21
412.528915
 31
0.0
  0
LINE
  5
3A9
330
211
100
AcDbEntity
  8
7_ALL_FEATURES
  6
Continuous
 62
     7
100
AcDbLine
 10
329.983411
 20
412.528915
 30
0.0
 11
293.983411
 21
412.528915
 31
0.0
  0
LINE
  5
3AA
330
211
100
AcDbEntity
  8
7_ALL_FEATURES
  6
Continuous
 62
     9
100
AcDbLine
 10
289.983411
 20
416.528915
 30
0.0
 11
291.983411
 21
416.528915
 31
0.0
  0
LINE
  5
3AB
330
211
100
AcDbEntity
  8
7_ALL_FEATURES
  6
Continuous
 62
     9
100
AcDbLine
 10
291.983411
 20
547.605708
 30
0.0
 11
289.983411
 21
547.605708
 31
0.0
  0
LINE
  5
3AC
330
211
100
AcDbEntity
  8
7_ALL_FEATURES
  6
Continuous
 62
     9
100
AcDbLine
 10
291.983411
 20
419.247595
 30
0.0
 11
289.983411
 21
419.247595
 31
0.0
  0
LINE
  5
3AD
330
211
100
AcDbEntity
  8
7_ALL_FEATURES
  6
Continuous
 62
     9
100
AcDbLine
 10
329.983411
 20
414.528915
 30
0.0
 11
329.983411
 21
412.528915
 31
0.0
  0
LINE
  5
3AE
330
211
100
AcDbEntity
  8
7_ALL_FEATURES
  6
Continuous
 62
     9
100
AcDbLine
 10
293.983411
 20
412.528915
 30
0.0
 11
293.983411
 21
414.528915
 31
0.0
  0
LINE
  5
3AF
330
211
100
AcDbEntity
  8
7_ALL_FEATURES
  6
Continuous
 62
     9
100
AcDbLine
 10
289.983411
 20
547.439599
 30
0.0
 11
291.983411
 21
547.439599
 31
0.0
  0
LINE
  5
3B0
330
211
100
AcDbEntity
  8
7_ALL_FEATURES
  6
Continuous
 62
     9
100
AcDbLine
 10
291.983411
 20
421.054413
 30
0.0
 11
289.983411
 21
421.054413
 31
0.0
  0
LINE
  5
3B1
330
211
100
AcDbEntity
  8
7_ALL_FEATURES
  6
Continuous
 62
     9
100
AcDbLine
 10
289.983411
 20
529.201491
 30
0.0
 11
291.983411
 21
529.201491
 31
0.0
  0
LINE
  5
3B2
330
211
100
AcDbEntity
  8
0
  6
Continuous
 62
     3
100
AcDbLine
 10
541.983411
 20
547.605708
 30
0.0
 11
541.983411
 21
547.439599
 31
0.0
  0
LINE
  5
3B3
330
211
100
AcDbEntity
  8
0
  6
Continuous
 62
     3
100
AcDbLine
 10
541.983411
 20
547.439599
 30
0.0
 11
541.983411
 21
542.528915
 31
0.0
  0
LINE
  5
3B4
330
211
100
AcDbEntity
  8
0
  6
Continuous
 62
     3
100
AcDbLine
 10
541.983411
 20
542.528915
 30
0.0
 11
541.983411
 21
533.528915
 31
0.0
  0
LINE
  5
3B5
330
211
100
AcDbEntity
  8
0
  6
Continuous
 62
     3
100
AcDbLine
 10
541.983411
 20
533.528915
 30
0.0
 11
541.983411
 21
529.201491
 31
0.0
  0
LINE
  5
3B6
330
211
100
AcDbEntity
  8
0
  6
Continuous
 62
     3
100
AcDbLine
 10
541.983411
 20
529.201491
 30
0.0
 11
541.983411
 21
528.84283
 31
0.0
  0
LINE
  5
3B7
330
211
100
AcDbEntity
  8
0
  6
Continuous
 62
     3
100
AcDbLine
 10
541.983411
 20
528.84283
 30
0.0
 11
541.983411
 21
527.818682
 31
0.0
  0
LINE
  5
3B8
330
211
100
AcDbEntity
  8
0
  6
Continuous
 62
     3
100
AcDbLine
 10
541.983411
 20
527.818682
 30
0.0
 11
541.983411
 21
421.054413
 31
0.0
  0
LINE
  5
3B9
330
211
100
AcDbEntity
  8
0
  6
Continuous
 62
     3
100
AcDbLine
 10
541.983411
 20
419.247595
 30
0.0
 11
541.983411
 21
416.528915
 31
0.0
  0
LINE
  5
3BA
330
211
100
AcDbEntity
  8
0
  6
Continuous
 62
     3
100
AcDbLine
 10
541.983411
 20
551.778854
 30
0.0
 11
541.983411
 21
551.528915
 31
0.0
  0
LINE
  5
3BB
330
211
100
AcDbEntity
  8
0
  6
Continuous
 62
     3
100
AcDbLine
 10
541.983411
 20
551.528915
 30
0.0
 11
541.983411
 21
551.526629
 31
0.0
  0
LINE
  5
3BC
330
211
100
AcDbEntity
  8
0
  6
Continuous
 62
     3
100
AcDbLine
 10
541.983411
 20
551.526629
 30
0.0
 11
541.983411
 21
547.778915
 31
0.0
  0
LINE
  5
3BD
330
211
100
AcDbEntity
  8
0
  6
Continuous
 62
     3
100
AcDbLine
 10
541.983411
 20
547.778915
 30
0.0
 11
541.983411
 21
547.605708
 31
0.0
  0
LINE
  5
3BE
330
211
100
AcDbEntity
  8
0
  6
Continuous
 62
     3
100
AcDbLine
 10
503.983411
 20
414.528915
 30
0.0
 11
498.983411
 21
414.528915
 31
0.0
  0
LINE
  5
3BF
330
211
100
AcDbEntity
  8
0
  6
Continuous
 62
     3
100
AcDbLine
 10
503.983411
 20
414.528915
 30
0.0
 11
539.983411
 21
414.528915
 31
0.0
  0
ARC
  5
3C0
330
211
100
AcDbEntity
  8
0
  6
Continuous
 62
     3
100
AcDbCircle
 10
539.983411
 20
416.528915
 30
0.0
 40
2.0
100
AcDbArc
 50
270.0
 51
360.0
  0
LINE
  5
3C1
330
211
100
AcDbEntity
  8
0
  6
Continuous
 62
     3
100
AcDbLine
 10
541.983411
 20
421.054413
 30
0.0
 11
541.983411
 21
419.247595
 31
0.0
  0
LINE
  5
3C2
330
211
100
AcDbEntity
  8
7_ALL_FEATURES
  6
Continuous
 62
     3
100
AcDbLine
 10
291.983411
 20
551.778854
 30
0.0
 11
291.983411
 21
551.528915
 31
0.0
  0
LINE
  5
3C3
330
211
100
AcDbEntity
  8
7_ALL_FEATURES
  6
Continuous
 62
     3
100
AcDbLine
 10
291.983411
 20
551.528915
 30
0.0
 11
291.983411
 21
551.526629
 31
0.0
  0
LINE
  5
3C4
330
211
100
AcDbEntity
  8
7_ALL_FEATURES
  6
Continuous
 62
     3
100
AcDbLine
 10
291.983411
 20
551.526629
 30
0.0
 11
291.983411
 21
547.778915
 31
0.0
  0
LINE
  5
3C5
330
211
100
AcDbEntity
  8
7_ALL_FEATURES
  6
Continuous
 62
     3
100
AcDbLine
 10
291.983411
 20
547.778915
 30
0.0
 11
291.983411
 21
547.605708
 31
0.0
  0
LINE
  5
3C6
330
211
100
AcDbEntity
  8
7_ALL_FEATURES
  6
Continuous
 62
     3
100
AcDbLine
 10
291.983411
 20
419.247595
 30
0.0
 11
291.983411
 21
416.528915
 31
0.0
  0
LINE
  5
3C7
330
211
100
AcDbEntity
  8
7_ALL_FEATURES
  6
Continuous
 62
     3
100
AcDbLine
 10
291.983411
 20
529.201491
 30
0.0
 11
291.983411
 21
528.84283
 31
0.0
  0
LINE
  5
3C8
330
211
100
AcDbEntity
  8
7_ALL_FEATURES
  6
Continuous
 62
     3
100
AcDbLine
 10
291.983411
 20
528.84283
 30
0.0
 11
291.983411
 21
527.818682
 31
0.0
  0
LINE
  5
3C9
330
211
100
AcDbEntity
  8
7_ALL_FEATURES
  6
Continuous
 62
     3
100
AcDbLine
 10
291.983411
 20
527.818682
 30
0.0
 11
291.983411
 21
421.054413
 31
0.0
  0
LINE
  5
3CA
330
211
100
AcDbEntity
  8
7_ALL_FEATURES
  6
Continuous
 62
     3
100
AcDbLine
 10
291.983411
 20
547.439599
 30
0.0
 11
291.983411
 21
542.528915
 31
0.0
  0
LINE
  5
3CB
330
211
100
AcDbEntity
  8
7_ALL_FEATURES
  6
Continuous
 62
     3
100
AcDbLine
 10
291.983411
 20
542.528915
 30
0.0
 11
291.983411
 21
533.528915
 31
0.0
  0
LINE
  5
3CC
330
211
100
AcDbEntity
  8
7_ALL_FEATURES
  6
Continuous
 62
     3
100
AcDbLine
 10
291.983411
 20
533.528915
 30
0.0
 11
291.983411
 21
529.201491
 31
0.0
  0
LINE
  5
3CD
330
211
100
AcDbEntity
  8
7_ALL_FEATURES
  6
Continuous
 62
     3
100
AcDbLine
 10
291.983411
 20
547.605708
 30
0.0
 11
291.983411
 21
547.439599
 31
0.0
  0
LINE
  5
3CE
330
211
100
AcDbEntity
  8
7_ALL_FEATURES
  6
Continuous
 62
     3
100
AcDbLine
 10
329.983411
 20
414.528915
 30
0.0
 11
334.983411
 21
414.528915
 31
0.0
  0
LINE
  5
3CF
330
211
100
AcDbEntity
  8
7_ALL_FEATURES
  6
Continuous
 62
     3
100
AcDbLine
 10
329.983411
 20
414.528915
 30
0.0
 11
293.983411
 21
414.528915
 31
0.0
  0
ARC
  5
3D0
330
211
100
AcDbEntity
  8
7_ALL_FEATURES
  6
Continuous
 62
     3
100
AcDbCircle
 10
293.983411
 20
416.528915
 30
0.0
 40
2.0
100
AcDbArc
 50
180.0
 51
270.0
  0
LINE
  5
3D1
330
211
100
AcDbEntity
  8
7_ALL_FEATURES
  6
Continuous
 62
     3
100
AcDbLine
 10
291.983411
 20
421.054413
 30
0.0
 11
291.983411
 21
419.247595
 31
0.0
  0
LINE
  5
3D2
330
211
100
AcDbEntity
  8
02___PRT_ALL_AXES
  6
Continuous
 62
     7
100
AcDbLine
 10
544.983411
 20
682.63121
 30
0.0
 11
543.983411
 21
682.63121
 31
0.0
  0
LINE
  5
3D3
330
211
100
AcDbEntity
  8
02___PRT_ALL_AXES
  6
Continuous
 62
     7
100
AcDbLine
 10
544.983411
 20
700.63121
 30
0.0
 11
543.983411
 21
700.63121
 31
0.0
  0
LINE
  5
3D4
330
211
100
AcDbEntity
  8
02___PRT_ALL_AXES
  6
Continuous
 62
     7
100
AcDbLine
 10
540.983411
 20
700.63121
 30
0.0
 11
541.983411
 21
700.63121
 31
0.0
  0
LINE
  5
3D5
330
211
100
AcDbEntity
  8
02___PRT_ALL_AXES
  6
Continuous
 62
     7
100
AcDbLine
 10
540.983411
 20
700.63121
 30
0.0
 11
540.983411
 21
696.88121
 31
0.0
  0
LINE
  5
3D6
330
211
100
AcDbEntity
  8
02___PRT_ALL_AXES
  6
Continuous
 62
     7
100
AcDbLine
 10
540.983411
 20
696.88121
 30
0.0
 11
540.983411
 21
686.38121
 31
0.0
  0
LINE
  5
3D7
330
211
100
AcDbEntity
  8
02___PRT_ALL_AXES
  6
Continuous
 62
     7
100
AcDbLine
 10
540.983411
 20
686.38121
 30
0.0
 11
540.983411
 21
683.13121
 31
0.0
  0
LINE
  5
3D8
330
211
100
AcDbEntity
  8
02___PRT_ALL_AXES
  6
Continuous
 62
     7
100
AcDbLine
 10
288.983411
 20
700.63121
 30
0.0
 11
289.983411
 21
700.63121
 31
0.0
  0
LINE
  5
3D9
330
211
100
AcDbEntity
  8
02___PRT_ALL_AXES
  6
Continuous
 62
     7
100
AcDbLine
 10
288.983411
 20
682.63121
 30
0.0
 11
289.983411
 21
682.63121
 31
0.0
  0
LINE
  5
3DA
330
211
100
AcDbEntity
  8
02___PRT_ALL_AXES
  6
Continuous
 62
     7
100
AcDbLine
 10
292.983411
 20
700.63121
 30
0.0
 11
291.983411
 21
700.63121
 31
0.0
  0
LINE
  5
3DB
330
211
100
AcDbEntity
  8
02___PRT_ALL_AXES
  6
Continuous
 62
     7
100
AcDbLine
 10
292.983411
 20
683.13121
 30
0.0
 11
292.983411
 21
686.38121
 31
0.0
  0
LINE
  5
3DC
330
211
100
AcDbEntity
  8
02___PRT_ALL_AXES
  6
Continuous
 62
     7
100
AcDbLine
 10
292.983411
 20
686.38121
 30
0.0
 11
292.983411
 21
696.88121
 31
0.0
  0
LINE
  5
3DD
330
211
100
AcDbEntity
  8
02___PRT_ALL_AXES
  6
Continuous
 62
     7
100
AcDbLine
 10
292.983411
 20
696.88121
 30
0.0
 11
292.983411
 21
700.63121
 31
0.0
  0
LINE
  5
3DE
330
211
100
AcDbEntity
  8
7_ALL_FEATURES
  6
Continuous
 62
     7
100
AcDbLine
 10
538.983411
 20
693.63121
 30
0.0
 11
533.483411
 21
693.63121
 31
0.0
  0
LINE
  5
3DF
330
211
100
AcDbEntity
  8
7_ALL_FEATURES
  6
Continuous
 62
     7
100
AcDbLine
 10
538.983411
 20
689.63121
 30
0.0
 11
533.483411
 21
689.63121
 31
0.0
  0
LINE
  5
3E0
330
211
100
AcDbEntity
  8
7_ALL_FEATURES
  6
Continuous
 62
     7
100
AcDbLine
 10
532.983411
 20
693.13121
 30
0.0
 11
532.983411
 21
690.13121
 31
0.0
  0
LINE
  5
3E1
330
211
100
AcDbEntity
  8
7_ALL_FEATURES
  6
Continuous
 62
     7
100
AcDbLine
 10
532.983411
 20
690.13121
 30
0.0
 11
533.483411
 21
689.63121
 31
0.0
  0
LINE
  5
3E2
330
211
100
AcDbEntity
  8
7_ALL_FEATURES
  6
Continuous
 62
     7
100
AcDbLine
 10
532.983411
 20
693.13121
 30
0.0
 11
533.483411
 21
693.63121
 31
0.0
  0
LINE
  5
3E3
330
211
100
AcDbEntity
  8
7_ALL_FEATURES
  6
Continuous
 62
     7
100
AcDbLine
 10
533.483411
 20
693.63121
 30
0.0
 11
533.483411
 21
689.63121
 31
0.0
  0
LINE
  5
3E4
330
211
100
AcDbEntity
  8
7_ALL_FEATURES
  6
Continuous
 62
     7
100
AcDbLine
 10
294.983411
 20
689.63121
 30
0.0
 11
300.483411
 21
689.63121
 31
0.0
  0
LINE
  5
3E5
330
211
100
AcDbEntity
  8
7_ALL_FEATURES
  6
Continuous
 62
     7
100
AcDbLine
 10
294.983411
 20
693.63121
 30
0.0
 11
300.483411
 21
693.63121
 31
0.0
  0
LINE
  5
3E6
330
211
100
AcDbEntity
  8
7_ALL_FEATURES
  6
Continuous
 62
     7
100
AcDbLine
 10
300.983411
 20
690.13121
 30
0.0
 11
300.983411
 21
693.13121
 31
0.0
  0
LINE
  5
3E7
330
211
100
AcDbEntity
  8
7_ALL_FEATURES
  6
Continuous
 62
     7
100
AcDbLine
 10
300.983411
 20
693.13121
 30
0.0
 11
300.483411
 21
693.63121
 31
0.0
  0
LINE
  5
3E8
330
211
100
AcDbEntity
  8
7_ALL_FEATURES
  6
Continuous
 62
     7
100
AcDbLine
 10
300.983411
 20
690.13121
 30
0.0
 11
300.483411
 21
689.63121
 31
0.0
  0
LINE
  5
3E9
330
211
100
AcDbEntity
  8
7_ALL_FEATURES
  6
Continuous
 62
     7
100
AcDbLine
 10
300.483411
 20
689.63121
 30
0.0
 11
300.483411
 21
693.63121
 31
0.0
  0
LINE
  5
3EA
330
211
100
AcDbEntity
  8
7_ALL_FEATURES
  6
Continuous
 62
     7
100
AcDbLine
 10
538.983411
 20
686.681224
 30
0.0
 11
538.983411
 21
689.38121
 31
0.0
  0
LINE
  5
3EB
330
211
100
AcDbEntity
  8
7_ALL_FEATURES
  6
Continuous
 62
     7
100
AcDbLine
 10
538.983411
 20
689.38121
 30
0.0
 11
538.983411
 21
693.88121
 31
0.0
  0
LINE
  5
3EC
330
211
100
AcDbEntity
  8
7_ALL_FEATURES
  6
Continuous
 62
     7
100
AcDbLine
 10
538.983411
 20
693.88121
 30
0.0
 11
538.983411
 21
696.581194
 31
0.0
  0
LINE
  5
3ED
330
211
100
AcDbEntity
  8
7_ALL_FEATURES
  6
Continuous
 62
     7
100
AcDbLine
 10
546.056409
 20
682.575873
 30
0.0
 11
547.483411
 21
686.38121
 31
0.0
  0
LINE
  5
3EE
330
211
100
AcDbEntity
  8
7_ALL_FEATURES
  6
Continuous
 62
     7
100
AcDbLine
 10
546.056409
 20
700.686547
 30
0.0
 11
547.483411
 21
696.88121
 31
0.0
  0
LINE
  5
3EF
330
211
100
AcDbEntity
  8
7_ALL_FEATURES
  6
Continuous
 62
     7
100
AcDbLine
 10
538.983411
 20
686.68121
 30
0.0
 11
539.183411
 21
686.48121
 31
0.0
  0
LINE
  5
3F0
330
211
100
AcDbEntity
  8
7_ALL_FEATURES
  6
Continuous
 62
     7
100
AcDbLine
 10
544.983411
 20
700.88121
 30
0.0
 11
545.775511
 21
700.88121
 31
0.0
  0
LINE
  5
3F1
330
211
100
AcDbEntity
  8
7_ALL_FEATURES
  6
Continuous
 62
     7
100
AcDbLine
 10
544.983411
 20
682.38121
 30
0.0
 11
545.775511
 21
682.38121
 31
0.0
  0
LINE
  5
3F2
330
211
100
AcDbEntity
  8
7_ALL_FEATURES
  6
Continuous
 62
     7
100
AcDbLine
 10
538.983411
 20
696.58121
 30
0.0
 11
539.183411
 21
696.78121
 31
0.0
  0
ARC
  5
3F3
330
211
100
AcDbEntity
  8
7_ALL_FEATURES
  6
Continuous
 62
     7
100
AcDbCircle
 10
545.775511
 20
682.68121
 30
0.0
 40
0.3
100
AcDbArc
 50
270.0
 51
339.443955
  0
ARC
  5
3F4
330
211
100
AcDbEntity
  8
7_ALL_FEATURES
  6
Continuous
 62
     7
100
AcDbCircle
 10
545.775511
 20
700.58121
 30
0.0
 40
0.3
100
AcDbArc
 50
20.556045
 51
90.0
  0
LINE
  5
3F5
330
211
100
AcDbEntity
  8
7_ALL_FEATURES
  6
Continuous
 62
     7
100
AcDbLine
 10
539.183411
 20
686.48121
 30
0.0
 11
540.983411
 21
686.48121
 31
0.0
  0
LINE
  5
3F6
330
211
100
AcDbEntity
  8
7_ALL_FEATURES
  6
Continuous
 62
     7
100
AcDbLine
 10
539.183411
 20
696.78121
 30
0.0
 11
540.983411
 21
696.78121
 31
0.0
  0
LINE
  5
3F7
330
211
100
AcDbEntity
  8
02___PRT_ALL_AXES
  6
Continuous
 62
     7
100
AcDbLine
 10
544.983411
 20
682.38121
 30
0.0
 11
544.983411
 21
682.63121
 31
0.0
  0
LINE
  5
3F8
330
211
100
AcDbEntity
  8
02___PRT_ALL_AXES
  6
Continuous
 62
     7
100
AcDbLine
 10
544.983411
 20
682.63121
 30
0.0
 11
544.983411
 21
686.28121
 31
0.0
  0
LINE
  5
3F9
330
211
100
AcDbEntity
  8
02___PRT_ALL_AXES
  6
Continuous
 62
     7
100
AcDbLine
 10
544.983411
 20
686.28121
 30
0.0
 11
544.983411
 21
696.98121
 31
0.0
  0
LINE
  5
3FA
330
211
100
AcDbEntity
  8
02___PRT_ALL_AXES
  6
Continuous
 62
     7
100
AcDbLine
 10
544.983411
 20
696.98121
 30
0.0
 11
544.983411
 21
700.63121
 31
0.0
  0
LINE
  5
3FB
330
211
100
AcDbEntity
  8
02___PRT_ALL_AXES
  6
Continuous
 62
     7
100
AcDbLine
 10
544.983411
 20
700.63121
 30
0.0
 11
544.983411
 21
700.88121
 31
0.0
  0
LINE
  5
3FC
330
211
100
AcDbEntity
  8
02___PRT_ALL_AXES
  6
Continuous
 62
     7
100
AcDbLine
 10
547.483411
 20
686.38121
 30
0.0
 11
547.483411
 21
687.63121
 31
0.0
  0
LINE
  5
3FD
330
211
100
AcDbEntity
  8
02___PRT_ALL_AXES
  6
Continuous
 62
     7
100
AcDbLine
 10
547.483411
 20
687.63121
 30
0.0
 11
547.483411
 21
695.63121
 31
0.0
  0
LINE
  5
3FE
330
211
100
AcDbEntity
  8
02___PRT_ALL_AXES
  6
Continuous
 62
     7
100
AcDbLine
 10
547.483411
 20
695.63121
 30
0.0
 11
547.483411
 21
696.88121
 31
0.0
  0
LINE
  5
3FF
330
211
100
AcDbEntity
  8
7_ALL_FEATURES
  6
Continuous
 62
     9
100
AcDbLine
 10
545.775511
 20
700.88121
 30
0.0
 11
545.775511
 21
682.38121
 31
0.0
  0
LINE
  5
400
330
211
100
AcDbEntity
  8
7_ALL_FEATURES
  6
Continuous
 62
     7
100
AcDbLine
 10
539.183411
 20
696.78121
 30
0.0
 11
539.183411
 21
686.48121
 31
0.0
  0
LINE
  5
401
330
211
100
AcDbEntity
  8
7_ALL_FEATURES
  6
Continuous
 62
     9
100
AcDbLine
 10
546.056409
 20
700.686547
 30
0.0
 11
546.056409
 21
682.575873
 31
0.0
  0
LINE
  5
402
330
211
100
AcDbEntity
  8
7_ALL_FEATURES
  6
Continuous
 62
     7
100
AcDbLine
 10
294.983411
 20
696.581197
 30
0.0
 11
294.983411
 21
693.88121
 31
0.0
  0
LINE
  5
403
330
211
100
AcDbEntity
  8
7_ALL_FEATURES
  6
Continuous
 62
     7
100
AcDbLine
 10
294.983411
 20
693.88121
 30
0.0
 11
294.983411
 21
689.38121
 31
0.0
  0
LINE
  5
404
330
211
100
AcDbEntity
  8
7_ALL_FEATURES
  6
Continuous
 62
     7
100
AcDbLine
 10
294.983411
 20
689.38121
 30
0.0
 11
294.983411
 21
686.681226
 31
0.0
  0
LINE
  5
405
330
211
100
AcDbEntity
  8
7_ALL_FEATURES
  6
Continuous
 62
     7
100
AcDbLine
 10
287.910412
 20
700.686547
 30
0.0
 11
286.483411
 21
696.88121
 31
0.0
  0
LINE
  5
406
330
211
100
AcDbEntity
  8
7_ALL_FEATURES
  6
Continuous
 62
     7
100
AcDbLine
 10
287.910412
 20
682.575873
 30
0.0
 11
286.483411
 21
686.38121
 31
0.0
  0
LINE
  5
407
330
211
100
AcDbEntity
  8
7_ALL_FEATURES
  6
Continuous
 62
     7
100
AcDbLine
 10
294.983411
 20
696.58121
 30
0.0
 11
294.783411
 21
696.78121
 31
0.0
  0
LINE
  5
408
330
211
100
AcDbEntity
  8
7_ALL_FEATURES
  6
Continuous
 62
     7
100
AcDbLine
 10
288.983411
 20
682.38121
 30
0.0
 11
288.191311
 21
682.38121
 31
0.0
  0
LINE
  5
409
330
211
100
AcDbEntity
  8
7_ALL_FEATURES
  6
Continuous
 62
     7
100
AcDbLine
 10
288.983411
 20
700.88121
 30
0.0
 11
288.191311
 21
700.88121
 31
0.0
  0
LINE
  5
40A
330
211
100
AcDbEntity
  8
7_ALL_FEATURES
  6
Continuous
 62
     7
100
AcDbLine
 10
294.983411
 20
686.68121
 30
0.0
 11
294.783411
 21
686.48121
 31
0.0
  0
ARC
  5
40B
330
211
100
AcDbEntity
  8
7_ALL_FEATURES
  6
Continuous
 62
     7
100
AcDbCircle
 10
288.191311
 20
700.58121
 30
0.0
 40
0.3
100
AcDbArc
 50
90.0
 51
159.443955
  0
ARC
  5
40C
330
211
100
AcDbEntity
  8
7_ALL_FEATURES
  6
Continuous
 62
     7
100
AcDbCircle
 10
288.191311
 20
682.68121
 30
0.0
 40
0.3
100
AcDbArc
 50
200.556045
 51
270.0
  0
LINE
  5
40D
330
211
100
AcDbEntity
  8
7_ALL_FEATURES
  6
Continuous
 62
     7
100
AcDbLine
 10
294.783411
 20
696.78121
 30
0.0
 11
292.983411
 21
696.78121
 31
0.0
  0
LINE
  5
40E
330
211
100
AcDbEntity
  8
7_ALL_FEATURES
  6
Continuous
 62
     7
100
AcDbLine
 10
294.783411
 20
686.48121
 30
0.0
 11
292.983411
 21
686.48121
 31
0.0
  0
LINE
  5
40F
330
211
100
AcDbEntity
  8
02___PRT_ALL_AXES
  6
Continuous
 62
     7
100
AcDbLine
 10
288.983411
 20
700.88121
 30
0.0
 11
288.983411
 21
700.63121
 31
0.0
  0
LINE
  5
410
330
211
100
AcDbEntity
  8
02___PRT_ALL_AXES
  6
Continuous
 62
     7
100
AcDbLine
 10
288.983411
 20
700.63121
 30
0.0
 11
288.983411
 21
696.98121
 31
0.0
  0
LINE
  5
411
330
211
100
AcDbEntity
  8
02___PRT_ALL_AXES
  6
Continuous
 62
     7
100
AcDbLine
 10
288.983411
 20
696.98121
 30
0.0
 11
288.983411
 21
686.28121
 31
0.0
  0
LINE
  5
412
330
211
100
AcDbEntity
  8
02___PRT_ALL_AXES
  6
Continuous
 62
     7
100
AcDbLine
 10
288.983411
 20
686.28121
 30
0.0
 11
288.983411
 21
682.63121
 31
0.0
  0
LINE
  5
413
330
211
100
AcDbEntity
  8
02___PRT_ALL_AXES
  6
Continuous
 62
     7
100
AcDbLine
 10
288.983411
 20
682.63121
 30
0.0
 11
288.983411
 21
682.38121
 31
0.0
  0
LINE
  5
414
330
211
100
AcDbEntity
  8
02___PRT_ALL_AXES
  6
Continuous
 62
     7
100
AcDbLine
 10
286.483411
 20
696.88121
 30
0.0
 11
286.483411
 21
695.63121
 31
0.0
  0
LINE
  5
415
330
211
100
AcDbEntity
  8
02___PRT_ALL_AXES
  6
Continuous
 62
     7
100
AcDbLine
 10
286.483411
 20
695.63121
 30
0.0
 11
286.483411
 21
687.63121
 31
0.0
  0
LINE
  5
416
330
211
100
AcDbEntity
  8
02___PRT_ALL_AXES
  6
Continuous
 62
     7
100
AcDbLine
 10
286.483411
 20
687.63121
 30
0.0
 11
286.483411
 21
686.38121
 31
0.0
  0
LINE
  5
417
330
211
100
AcDbEntity
  8
7_ALL_FEATURES
  6
Continuous
 62
     9
100
AcDbLine
 10
288.191311
 20
682.38121
 30
0.0
 11
288.191311
 21
700.88121
 31
0.0
  0
LINE
  5
418
330
211
100
AcDbEntity
  8
7_ALL_FEATURES
  6
Continuous
 62
     7
100
AcDbLine
 10
294.783411
 20
686.48121
 30
0.0
 11
294.783411
 21
696.78121
 31
0.0
  0
LINE
  5
419
330
211
100
AcDbEntity
  8
7_ALL_FEATURES
  6
Continuous
 62
     9
100
AcDbLine
 10
287.910412
 20
682.575873
 30
0.0
 11
287.910412
 21
700.686547
 31
0.0
  0
LINE
  5
41A
330
211
100
AcDbEntity
  8
0
  6
Continuous
 62
     7
100
AcDbLine
 10
541.983411
 20
703.574442
 30
0.0
 11
543.983411
 21
703.574442
 31
0.0
  0
LINE
  5
41B
330
211
100
AcDbEntity
  8
0
  6
Continuous
 62
     7
100
AcDbLine
 10
543.983411
 20
703.162982
 30
0.0
 11
543.983411
 21
703.57432
 31
0.0
  0
LINE
  5
41C
330
211
100
AcDbEntity
  8
0
  6
Continuous
 62
     7
100
AcDbLine
 10
543.983411
 20
703.162982
 30
0.0
 11
543.983411
 21
688.22966
 31
0.0
  0
LINE
  5
41D
330
211
100
AcDbEntity
  8
0
  6
Continuous
 62
     7
100
AcDbLine
 10
543.983411
 20
688.22966
 30
0.0
 11
543.983411
 21
685.146444
 31
0.0
  0
LINE
  5
41E
330
211
100
AcDbEntity
  8
0
  6
Continuous
 62
     7
100
AcDbLine
 10
543.983411
 20
685.146444
 30
0.0
 11
543.983411
 21
685.08705
 31
0.0
  0
LINE
  5
41F
330
211
100
AcDbEntity
  8
0
  6
Continuous
 62
     7
100
AcDbLine
 10
543.983411
 20
685.08705
 30
0.0
 11
543.983411
 21
683.295794
 31
0.0
  0
LINE
  5
420
330
211
100
AcDbEntity
  8
0
  6
Continuous
 62
     7
100
AcDbLine
 10
539.983411
 20
683.13121
 30
0.0
 11
541.983411
 21
683.13121
 31
0.0
  0
LINE
  5
421
330
211
100
AcDbEntity
  8
0
  6
Continuous
 62
     7
100
AcDbLine
 10
541.983411
 20
683.13121
 30
0.0
 11
543.983411
 21
683.13121
 31
0.0
  0
LINE
  5
422
330
211
100
AcDbEntity
  8
0
  6
Continuous
 62
     7
100
AcDbLine
 10
543.983411
 20
683.13121
 30
0.0
 11
543.983411
 21
638.13121
 31
0.0
  0
LINE
  5
423
330
211
100
AcDbEntity
  8
0
  6
Continuous
 62
     7
100
AcDbLine
 10
539.983411
 20
638.13121
 30
0.0
 11
541.983411
 21
638.13121
 31
0.0
  0
LINE
  5
424
330
211
100
AcDbEntity
  8
0
  6
Continuous
 62
     7
100
AcDbLine
 10
541.983411
 20
638.13121
 30
0.0
 11
543.983411
 21
638.13121
 31
0.0
  0
LINE
  5
425
330
211
100
AcDbEntity
  8
0
  6
Continuous
 62
     7
100
AcDbLine
 10
543.983411
 20
683.13121
 30
0.0
 11
543.983411
 21
683.295794
 31
0.0
  0
LINE
  5
426
330
211
100
AcDbEntity
  8
0
  6
Continuous
 62
     7
100
AcDbLine
 10
498.983411
 20
643.13121
 30
0.0
 11
498.983411
 21
678.13121
 31
0.0
  0
ARC
  5
427
330
211
100
AcDbEntity
  8
0
  6
Continuous
 62
     7
100
AcDbCircle
 10
503.983411
 20
643.13121
 30
0.0
 40
5.0
100
AcDbArc
 50
180.0
 51
270.0
  0
LINE
  5
428
330
211
100
AcDbEntity
  8
0
  6
Continuous
 62
     7
100
AcDbLine
 10
539.983411
 20
638.13121
 30
0.0
 11
503.983411
 21
638.13121
 31
0.0
  0
LINE
  5
429
330
211
100
AcDbEntity
  8
0
  6
Continuous
 62
     7
100
AcDbLine
 10
503.983411
 20
683.13121
 30
0.0
 11
539.983411
 21
683.13121
 31
0.0
  0
ARC
  5
42A
330
211
100
AcDbEntity
  8
0
  6
Continuous
 62
     7
100
AcDbCircle
 10
503.983411
 20
678.13121
 30
0.0
 40
5.0
100
AcDbArc
 50
90.0
 51
180.0
  0
ARC
  5
42B
330
211
100
AcDbEntity
  8
0
  6
Continuous
 62
     7
100
AcDbCircle
 10
522.333411
 20
660.63121
 30
0.0
 40
2.6
100
AcDbArc
 50
90.0
 51
270.0
  0
LINE
  5
42C
330
211
100
AcDbEntity
  8
0
  6
Continuous
 62
     7
100
AcDbLine
 10
522.333411
 20
663.23121
 30
0.0
 11
529.633411
 21
663.23121
 31
0.0
  0
ARC
  5
42D
330
211
100
AcDbEntity
  8
0
  6
Continuous
 62
     7
100
AcDbCircle
 10
529.633411
 20
660.63121
 30
0.0
 40
2.6
100
AcDbArc
 50
270.0
 51
90.0
  0
LINE
  5
42E
330
211
100
AcDbEntity
  8
0
  6
Continuous
 62
     7
100
AcDbLine
 10
529.633411
 20
658.03121
 30
0.0
 11
522.333411
 21
658.03121
 31
0.0
  0
LINE
  5
42F
330
211
100
AcDbEntity
  8
0
  6
Continuous
 62
     7
100
AcDbLine
 10
506.383411
 20
656.98121
 30
0.0
 11
506.383411
 21
664.28121
 31
0.0
  0
ARC
  5
430
330
211
100
AcDbEntity
  8
0
  6
Continuous
 62
     7
100
AcDbCircle
 10
508.983411
 20
664.28121
 30
0.0
 40
2.6
100
AcDbArc
 50
0.0
 51
180.0
  0
LINE
  5
431
330
211
100
AcDbEntity
  8
0
  6
Continuous
 62
     7
100
AcDbLine
 10
511.583411
 20
664.28121
 30
0.0
 11
511.583411
 21
656.98121
 31
0.0
  0
ARC
  5
432
330
211
100
AcDbEntity
  8
0
  6
Continuous
 62
     7
100
AcDbCircle
 10
508.983411
 20
656.98121
 30
0.0
 40
2.6
100
AcDbArc
 50
180.0
 51
360.0
  0
LINE
  5
433
330
211
100
AcDbEntity
  8
0
  6
Continuous
 62
     9
100
AcDbLine
 10
543.983411
 20
703.162982
 30
0.0
 11
541.983411
 21
703.162982
 31
0.0
  0
LINE
  5
434
330
211
100
AcDbEntity
  8
0
  6
Continuous
 62
     9
100
AcDbLine
 10
539.983411
 20
683.13121
 30
0.0
 11
539.983411
 21
638.13121
 31
0.0
  0
LINE
  5
435
330
211
100
AcDbEntity
  8
0
  6
Continuous
 62
     9
100
AcDbLine
 10
541.983411
 20
683.295794
 30
0.0
 11
543.983411
 21
683.295794
 31
0.0
  0
LINE
  5
436
330
211
100
AcDbEntity
  8
7_ALL_FEATURES
  6
Continuous
 62
     7
100
AcDbLine
 10
289.983411
 20
703.574442
 30
0.0
 11
291.983411
 21
703.574442
 31
0.0
  0
LINE
  5
437
330
211
100
AcDbEntity
  8
7_ALL_FEATURES
  6
Continuous
 62
     7
100
AcDbLine
 10
289.983411
 20
703.162982
 30
0.0
 11
289.983411
 21
688.22966
 31
0.0
  0
LINE
  5
438
330
211
100
AcDbEntity
  8
7_ALL_FEATURES
  6
Continuous
 62
     7
100
AcDbLine
 10
289.983411
 20
688.22966
 30
0.0
 11
289.983411
 21
685.146444
 31
0.0
  0
LINE
  5
439
330
211
100
AcDbEntity
  8
7_ALL_FEATURES
  6
Continuous
 62
     7
100
AcDbLine
 10
289.983411
 20
685.146444
 30
0.0
 11
289.983411
 21
685.08705
 31
0.0
  0
LINE
  5
43A
330
211
100
AcDbEntity
  8
7_ALL_FEATURES
  6
Continuous
 62
     7
100
AcDbLine
 10
289.983411
 20
685.08705
 30
0.0
 11
289.983411
 21
683.295794
 31
0.0
  0
LINE
  5
43B
330
211
100
AcDbEntity
  8
7_ALL_FEATURES
  6
Continuous
 62
     7
100
AcDbLine
 10
289.983411
 20
703.162982
 30
0.0
 11
289.983411
 21
703.57432
 31
0.0
  0
LINE
  5
43C
330
211
100
AcDbEntity
  8
7_ALL_FEATURES
  6
Continuous
 62
     7
100
AcDbLine
 10
293.983411
 20
638.13121
 30
0.0
 11
291.983411
 21
638.13121
 31
0.0
  0
LINE
  5
43D
330
211
100
AcDbEntity
  8
7_ALL_FEATURES
  6
Continuous
 62
     7
100
AcDbLine
 10
291.983411
 20
638.13121
 30
0.0
 11
289.983411
 21
638.13121
 31
0.0
  0
LINE
  5
43E
330
211
100
AcDbEntity
  8
7_ALL_FEATURES
  6
Continuous
 62
     7
100
AcDbLine
 10
289.983411
 20
683.13121
 30
0.0
 11
289.983411
 21
638.13121
 31
0.0
  0
LINE
  5
43F
330
211
100
AcDbEntity
  8
7_ALL_FEATURES
  6
Continuous
 62
     7
100
AcDbLine
 10
293.983411
 20
683.13121
 30
0.0
 11
291.983411
 21
683.13121
 31
0.0
  0
LINE
  5
440
330
211
100
AcDbEntity
  8
7_ALL_FEATURES
  6
Continuous
 62
     7
100
AcDbLine
 10
291.983411
 20
683.13121
 30
0.0
 11
289.983411
 21
683.13121
 31
0.0
  0
LINE
  5
441
330
211
100
AcDbEntity
  8
7_ALL_FEATURES
  6
Continuous
 62
     7
100
AcDbLine
 10
289.983411
 20
683.13121
 30
0.0
 11
289.983411
 21
683.295794
 31
0.0
  0
LINE
  5
442
330
211
100
AcDbEntity
  8
7_ALL_FEATURES
  6
Continuous
 62
     7
100
AcDbLine
 10
329.983411
 20
683.13121
 30
0.0
 11
293.983411
 21
683.13121
 31
0.0
  0
LINE
  5
443
330
211
100
AcDbEntity
  8
7_ALL_FEATURES
  6
Continuous
 62
     7
100
AcDbLine
 10
293.983411
 20
638.13121
 30
0.0
 11
329.983411
 21
638.13121
 31
0.0
  0
ARC
  5
444
330
211
100
AcDbEntity
  8
7_ALL_FEATURES
  6
Continuous
 62
     7
100
AcDbCircle
 10
329.983411
 20
643.13121
 30
0.0
 40
5.0
100
AcDbArc
 50
270.0
 51
360.0
  0
LINE
  5
445
330
211
100
AcDbEntity
  8
7_ALL_FEATURES
  6
Continuous
 62
     7
100
AcDbLine
 10
334.983411
 20
643.13121
 30
0.0
 11
334.983411
 21
678.13121
 31
0.0
  0
ARC
  5
446
330
211
100
AcDbEntity
  8
7_ALL_FEATURES
  6
Continuous
 62
     7
100
AcDbCircle
 10
329.983411
 20
678.13121
 30
0.0
 40
5.0
100
AcDbArc
 50
0.0
 51
90.0
  0
ARC
  5
447
330
211
100
AcDbEntity
  8
02___PRT_ALL_AXES
  6
Continuous
 62
     7
100
AcDbCircle
 10
304.333411
 20
660.63121
 30
0.0
 40
2.6
100
AcDbArc
 50
90.0
 51
270.0
  0
LINE
  5
448
330
211
100
AcDbEntity
  8
02___PRT_ALL_AXES
  6
Continuous
 62
     7
100
AcDbLine
 10
311.633411
 20
663.23121
 30
0.0
 11
304.333411
 21
663.23121
 31
0.0
  0
ARC
  5
449
330
211
100
AcDbEntity
  8
02___PRT_ALL_AXES
  6
Continuous
 62
     7
100
AcDbCircle
 10
311.633411
 20
660.63121
 30
0.0
 40
2.6
100
AcDbArc
 50
270.0
 51
90.0
  0
LINE
  5
44A
330
211
100
AcDbEntity
  8
02___PRT_ALL_AXES
  6
Continuous
 62
     7
100
AcDbLine
 10
304.333411
 20
658.03121
 30
0.0
 11
311.633411
 21
658.03121
 31
0.0
  0
LINE
  5
44B
330
211
100
AcDbEntity
  8
02___PRT_ALL_AXES
  6
Continuous
 62
     7
100
AcDbLine
 10
322.383411
 20
664.28121
 30
0.0
 11
322.383411
 21
656.98121
 31
0.0
  0
ARC
  5
44C
330
211
100
AcDbEntity
  8
02___PRT_ALL_AXES
  6
Continuous
 62
     7
100
AcDbCircle
 10
324.983411
 20
664.28121
 30
0.0
 40
2.6
100
AcDbArc
 50
0.0
 51
180.0
  0
LINE
  5
44D
330
211
100
AcDbEntity
  8
02___PRT_ALL_AXES
  6
Continuous
 62
     7
100
AcDbLine
 10
327.583411
 20
656.98121
 30
0.0
 11
327.583411
 21
664.28121
 31
0.0
  0
ARC
  5
44E
330
211
100
AcDbEntity
  8
02___PRT_ALL_AXES
  6
Continuous
 62
     7
100
AcDbCircle
 10
324.983411
 20
656.98121
 30
0.0
 40
2.6
100
AcDbArc
 50
180.0
 51
360.0
  0
LINE
  5
44F
330
211
100
AcDbEntity
  8
7_ALL_FEATURES
  6
Continuous
 62
     9
100
AcDbLine
 10
289.983411
 20
703.162982
 30
0.0
 11
291.983411
 21
703.162982
 31
0.0
  0
LINE
  5
450
330
211
100
AcDbEntity
  8
7_ALL_FEATURES
  6
Continuous
 62
     9
100
AcDbLine
 10
293.983411
 20
683.13121
 30
0.0
 11
293.983411
 21
638.13121
 31
0.0
  0
LINE
  5
451
330
211
100
AcDbEntity
  8
7_ALL_FEATURES
  6
Continuous
 62
     9
100
AcDbLine
 10
291.983411
 20
683.295794
 30
0.0
 11
289.983411
 21
683.295794
 31
0.0
  0
LINE
  5
452
330
211
100
AcDbEntity
  8
0
  6
Continuous
 62
     3
100
AcDbLine
 10
541.983411
 20
703.57432
 30
0.0
 11
541.983411
 21
703.162982
 31
0.0
  0
LINE
  5
453
330
211
100
AcDbEntity
  8
0
  6
Continuous
 62
     3
100
AcDbLine
 10
541.983411
 20
703.162982
 30
0.0
 11
541.983411
 21
688.22966
 31
0.0
  0
LINE
  5
454
330
211
100
AcDbEntity
  8
0
  6
Continuous
 62
     3
100
AcDbLine
 10
541.983411
 20
688.22966
 30
0.0
 11
541.983411
 21
685.146444
 31
0.0
  0
LINE
  5
455
330
211
100
AcDbEntity
  8
0
  6
Continuous
 62
     3
100
AcDbLine
 10
541.983411
 20
685.146444
 30
0.0
 11
541.983411
 21
685.08705
 31
0.0
  0
LINE
  5
456
330
211
100
AcDbEntity
  8
0
  6
Continuous
 62
     3
100
AcDbLine
 10
541.983411
 20
685.08705
 30
0.0
 11
541.983411
 21
683.295794
 31
0.0
  0
LINE
  5
457
330
211
100
AcDbEntity
  8
0
  6
Continuous
 62
     3
100
AcDbLine
 10
541.983411
 20
683.295794
 30
0.0
 11
541.983411
 21
683.13121
 31
0.0
  0
LINE
  5
458
330
211
100
AcDbEntity
  8
7_ALL_FEATURES
  6
Continuous
 62
     3
100
AcDbLine
 10
291.983411
 20
703.57432
 30
0.0
 11
291.983411
 21
703.162982
 31
0.0
  0
LINE
  5
459
330
211
100
AcDbEntity
  8
7_ALL_FEATURES
  6
Continuous
 62
     3
100
AcDbLine
 10
291.983411
 20
703.162982
 30
0.0
 11
291.983411
 21
688.22966
 31
0.0
  0
LINE
  5
45A
330
211
100
AcDbEntity
  8
7_ALL_FEATURES
  6
Continuous
 62
     3
100
AcDbLine
 10
291.983411
 20
688.22966
 30
0.0
 11
291.983411
 21
685.146444
 31
0.0
  0
LINE
  5
45B
330
211
100
AcDbEntity
  8
7_ALL_FEATURES
  6
Continuous
 62
     3
100
AcDbLine
 10
291.983411
 20
685.146444
 30
0.0
 11
291.983411
 21
685.08705
 31
0.0
  0
LINE
  5
45C
330
211
100
AcDbEntity
  8
7_ALL_FEATURES
  6
Continuous
 62
     3
100
AcDbLine
 10
291.983411
 20
685.08705
 30
0.0
 11
291.983411
 21
683.295794
 31
0.0
  0
LINE
  5
45D
330
211
100
AcDbEntity
  8
7_ALL_FEATURES
  6
Continuous
 62
     3
100
AcDbLine
 10
291.983411
 20
683.295794
 30
0.0
 11
291.983411
 21
683.13121
 31
0.0
  0
DIMENSION
  5
45E
330
211
100
AcDbEntity
  8
0
  6
Continuous
 62
     2
100
AcDbDimension
280
     0
  2
*D1
 10
264.20143
 20
703.574442
 30
0.0
 11
264.20143
 21
670.829728
 31
0.0
 70
   160
 71
     2
 42
65.443232
 73
     0
 74
     0
 75
     0
  3
DIMSTYLE_1
100
AcDbAlignedDimension
 13
282.738571
 23
638.13121
 33
0.0
 14
280.180218
 24
703.574442
 34
0.0
 50
90.0
100
AcDbRotatedDimension
  0
DIMENSION
  5
45F
330
211
100
AcDbEntity
  8
0
  6
Continuous
 62
     2
100
AcDbDimension
280
     0
  2
*D2
 10
334.983411
 20
618.212163
 30
0.0
 11
312.419601
 21
618.212163
 31
0.0
 70
   160
 71
     2
 42
45.0
 73
     0
 74
     0
 75
     0
  3
DIMSTYLE_1
100
AcDbAlignedDimension
 13
289.983411
 23
636.135559
 33
0.0
 14
334.983411
 24
633.878647
 34
0.0
100
AcDbRotatedDimension
  0
DIMENSION
  5
460
330
211
100
AcDbEntity
  8
0
  6
Continuous
 62
     2
100
AcDbDimension
280
     0
  2
*D3
 10
810.560182
 20
412.528915
 30
0.0
 11
810.560182
 21
482.29007
 31
0.0
 70
   160
 71
     2
 42
139.25
 73
     0
 74
     0
 75
     0
  3
DIMSTYLE_2
100
AcDbAlignedDimension
 13
775.990062
 23
551.778915
 33
0.0
 14
775.102866
 24
412.528915
 34
0.0
 50
270.0
100
AcDbRotatedDimension
  0
INSERT
  5
461
330
211
100
AcDbEntity
  8
0
  6
Continuous
 62
     2
100
AcDbBlockReference
  2
LOGO2_BL0
 10
1102.860957
 20
36.533893
 30
0.0
  0
ACAD_TABLE
  5
462
102
{ACAD_XDICTIONARY
360
4B9
102
}
330
211
100
AcDbEntity
  8
0
  6
Continuous
 62
     2
160
              3360
310
200D000017000000880000001D000000000000000000F03F000000000000000000000000000000007FE58DBF230491400000000000000000000000000000F03F0000000000000000AF5FE29E5604494000000000000000000000000000000000000000000000F03F0000000000000000000000000000000000000000000000
310
000000000000000000000000000000F03F54000000200000000200000000000000000000000000000000000000000000000000000000000000008056400000000000000000000000000000000000000000000000000000000000000000000000000000F03F5400000020000000020000000000000000000000000000000000
310
00000000000000000000000000000000000000000000000044C0000000000000000000000000000000000000000000000000000000000000F03F5400000020000000020000000000000000003E4000000000000018C00000000000000000000000000080564000000000000018C00000000000000000000000000000000000
310
00000000000000000000000000F03F5400000020000000020000000000000000003E4000000000000028C00000000000000000000000000080564000000000000028C0000000000000000000000000000000000000000000000000000000000000F03F5400000020000000020000000000000000003E4000000000000036C0
310
0000000000000000000000000080564000000000000036C0000000000000000000000000000000000000000000000000000000000000F03F54000000200000000200000000000000000000000000000000003BC0000000000000000000000000008056400000000000003BC000000000000000000000000000000000000000
310
0000000000000000000000F03F540000002000000002000000000000000000000000000000000044C00000000000000000000000000080564000000000000044C0000000000000000000000000000000000000000000000000000000000000F03F5400000020000000020000000000000000003E4000000000000000000000
310
0000000000000000000000003E400000000000003BC0000000000000000000000000000000000000000000000000000000000000F03F540000002000000002000000000000000080514000000000000000000000000000000000000000000080514000000000000028C0000000000000000000000000000000000000000000
310
000000000000000000F03F540000002000000002000000000000000080564000000000000000000000000000000000000000000080564000000000000044C0000000000000000000000000000000000000000000000000000000000000F03F0C0000001000000014000000D000000026000000CDCCCCCCCC7C3F404E621058
310
393412C0000000000000000000000000000000000000000000000000000000000000F03F000000000000F03F0000000000000000000000000000000041003000380030005F0043005F003400300033000000000014000000010000000000000000000840000000000000F03F0000000000000000000000000000F03F000000
310
0000000000000000000000000000000000000000000000000000000000000000000000000061007200690061006C002E00740074006600000000000000C800000026000000C2F5285C8FC6514075931804560E13C0000000000000000000000000000000000000000000000000000000000000F03F000000000000F03F0000
310
00000000000000000000000000005200650076003A0030003000000000000C000000010000000000000000000C40000000000000F03F0000000000000000000000000000F03F0000000000000000000000000000000000000000000000000000000000000000000000000000000061007200690061006C002E007400740066
310
00000000000000CC00000026000000FA7E6ABC74433F405839B4C8769E26C0000000000000000000000000000000000000000000000000000000000000F03F000000000000F03F000000000000000000000000000000005300630061006C0065003A0031003A003100000012000000010000000000000000000C4000000000
310
0000F03F0000000000000000000000000000F03F0000000000000000000000000000000000000000000000000000000000000000000000000000000061007200690061006C002E00740074006600000000000000C0000000260000003333333333DF5140BA490C022B8725C000000000000000000000000000000000000000
310
0000000000000000000000F03F000000000000F03F00000000000000000000000000000000410030000000000004000000010000000000000000000C40000000000000F03F0000000000000000000000000000F03F000000000000000000000000000000000000000000000000000000000000000000000000000000006100
310
7200690061006C002E007400740066000000000000000401000026000000A323B9FC87743F405EDC460378FB31C0000000000000000000000000000000000000000000000000000000000000F03F000000000000F03F0000000000000000000000000000000057004D004100300032004E0020002D00200043004F00500050
310
0049004100200053005400410046004600450020003100340030006D006D0020004E00450056004100200033002D00340000004A00000001000000666666666666FE3F000000000000F03F0000000000000000000000000000F03F000000000000000000000000000000000000000000000000000000000000000000000000
310
0000000061007200690061006C002E00740074006600000000000000D40000002600000048E17A14AE373F40C3F5285C8FC239C0000000000000000000000000000000000000000000000000000000000000F03F000000000000F03F0000000000000000000000000000000044004100540045003A00310032002E00300035
310
002E003200300000001A000000010000000000000000000440000000000000F03F0000000000000000000000000000F03F0000000000000000000000000000000000000000000000000000000000000000000000000000000061007200690061006C002E007400740066000000000000002401000026000000CDCCCCCCCCCC
310
F73F0000000000903DC0000000000000000000000000000000000000000000000000000000000000F03F000000000000F03F0000000000000000000000000000000041006E007900200069006E00740065006700720061006C0020006F00720020007000610072007400690061006C00200072006500700072006F00640075
310
006300740069006F006E00730020006100720065002000700072006F0068006900620069007400650064000000000068000000010000000000000000000240000000000000F03F0000000000000000000000000000F03F00000000000000000000000000000000000000000000000000000000000000000000000000000000
310
61007200690061006C002E007400740066000000000000002C01000026000000FED478E926B1F73F37894160E57C40C0000000000000000000000000000000000000000000000000000000000000F03F000000000000F03F0000000000000000000000000000000077006900740068006F007500740020007000720069006F
310
007200200061007500740068006F007200690073006100740069006F006E0020006F00660020004C002000260020004C0020004C007500630065002000260020004C006900670068007400200073002E0072002E006C002E002C00000072000000010000000000000000000240000000000000F03F00000000000000000000
310
00000000F03F0000000000000000000000000000000000000000000000000000000000000000000000000000000061007200690061006C002E007400740066000000000000000401000026000000C1CAA145B673F43F4F1E166A4D3142C0000000000000000000000000000000000000000000000000000000000000F03F00
310
0000000000F03F0000000000000000000000000000000069006E0020006100630063006F007200640061006E006300650020007700690074006800200074006800650020006C0061007700200069006E00200066006F007200630065002E000000000048000000010000000000000000000240000000000000F03F00000000
310
00000000000000000000F03F0000000000000000000000000000000000000000000000000000000000000000000000000000000061007200690061006C002E00740074006600000000000000E400000026000000CDCCCCCCCCCCF73F302AA913D0E043C0000000000000000000000000000000000000000000000000000000
310
000000F03F000000000000F03F0000000000000000000000000000000041006C006C0020007200690067006800740073002000720065007300650072007600650064002E000000000028000000010000000000000000000240000000000000F03F0000000000000000000000000000F03F0000000000000000000000000000
310
000000000000000000000000000000000000000000000000000061007200690061006C002E00740074006600000000000000080000001F000000
100
AcDbBlockReference
  2
*T5
 10
1089.03491
 20
50.033893
 30
0.0
100
AcDbTable
342
48B
343
218
 11
1.0
 21
0.0
 31
0.0
 90
       22
 91
        5
 92
        5
 93
        0
 94
        0
 95
        0
 96
        0
141
6.0
141
6.0
141
10.0
141
5.0
141
13.0
142
10.0
142
10.0
142
10.0
142
40.0
142
20.0
171
     1
172
     0
173
     0
174
     0
175
     3
176
     4
 91
       32
178
     0
145
0.0
140
3.5
 92
        0
301
CELL_VALUE
 93
        2
 90
        4
  1
 
 94
        0
300

302
 
304
ACVALUE_END
171
     1
172
     0
173
     1
174
     0
175
     1
176
     1
 91
        0
178
     0
145
0.0
 92
        0
301
CELL_VALUE
 93
        3
 90
        0
 91
        0
 94
        0
300

302

304
ACVALUE_END
171
     1
172
     0
173
     1
174
     0
175
     1
176
     1
 91
        0
178
     0
145
0.0
 92
        0
301
CELL_VALUE
 93
        3
 90
        0
 91
        0
 94
        0
300

302

304
ACVALUE_END
171
     1
172
     0
173
     0
174
     0
175
     1
176
     1
 91
       33
178
     0
145
0.0
170
     4
140
3.0
 92
        0
301
CELL_VALUE
 93
        2
 90
        4
  1
A080_C_403
 94
        0
300

302
A080_C_403
304
ACVALUE_END
171
     1
172
     0
173
     0
174
     0
175
     1
176
     1
 91
       33
178
     0
145
0.0
170
     4
140
3.5
 92
        0
301
CELL_VALUE
 93
        2
 90
        4
  1
Rev:00
 94
        0
300

302
Rev:00
304
ACVALUE_END
171
     1
172
     0
173
     1
174
     0
175
     1
176
     1
 91
        0
178
     0
145
0.0
 92
        0
301
CELL_VALUE
 93
        3
 90
        0
 91
        0
 94
        0
300

302

304
ACVALUE_END
171
     1
172
     0
173
     1
174
     0
175
     1
176
     1
 91
        0
178
     0
145
0.0
 92
        0
301
CELL_VALUE
 93
        3
 90
        0
 91
        0
 94
        0
300

302

304
ACVALUE_END
171
     1
172
     0
173
     1
174
     0
175
     1
176
     1
 91
        0
178
     0
145
0.0
 92
        0
301
CELL_VALUE
 93
        3
 90
        0
 91
        0
 94
        0
300

302

304
ACVALUE_END
171
     1
172
     0
173
     0
174
     0
175
     1
176
     1
 91
       33
178
     0
145
0.0
170
     1
140
3.5
 92
        0
301
CELL_VALUE
 93
        2
 90
        4
  1
Scale:1:1
 94
        0
300

302
Scale:1:1
304
ACVALUE_END
171
     1
172
     0
173
     0
174
     0
175
     1
176
     1
 91
       33
178
     0
145
0.0
170
     4
140
3.5
 92
        0
301
CELL_VALUE
 93
        2
 90
        4
  1
A0
 94
        0
300

302
A0
304
ACVALUE_END
171
     1
172
     0
173
     1
174
     0
175
     1
176
     1
 91
        0
178
     0
145
0.0
 92
        0
301
CELL_VALUE
 93
        3
 90
        0
 91
        0
 94
        0
300

302

304
ACVALUE_END
171
     1
172
     0
173
     1
174
     0
175
     1
176
     1
 91
        0
178
     0
145
0.0
 92
        0
301
CELL_VALUE
 93
        3
 90
        0
 91
        0
 94
        0
300

302

304
ACVALUE_END
171
     1
172
     0
173
     1
174
     0
175
     1
176
     1
 91
        0
178
     0
145
0.0
 92
        0
301
CELL_VALUE
 93
        3
 90
        0
 91
        0
 94
        0
300

302

304
ACVALUE_END
171
     1
172
     0
173
     0
174
     0
175
     2
176
     1
 91
       33
178
     0
145
0.0
170
     4
140
1.9
 92
        0
301
CELL_VALUE
 93
        2
 90
        4
  1
WMA02N - COPPIA STAFFE 140mm NEVA 3-4
 94
        0
300

302
WMA02N - COPPIA STAFFE 140mm NEVA 3-4
304
ACVALUE_END
171
     1
172
     0
173
     1
174
     0
175
     1
176
     1
 91
        0
178
     0
145
0.0
 92
        0
301
CELL_VALUE
 93
        3
 90
        0
 91
        0
 94
        0
300

302

304
ACVALUE_END
171
     1
172
     0
173
     1
174
     0
175
     1
176
     1
 91
        0
178
     0
145
0.0
 92
        0
301
CELL_VALUE
 93
        3
 90
        0
 91
        0
 94
        0
300

302

304
ACVALUE_END
171
     1
172
     0
173
     1
174
     0
175
     1
176
     1
 91
        0
178
     0
145
0.0
 92
        0
301
CELL_VALUE
 93
        3
 90
        0
 91
        0
 94
        0
300

302

304
ACVALUE_END
171
     1
172
     0
173
     1
174
     0
175
     1
176
     1
 91
        0
178
     0
145
0.0
 92
        0
301
CELL_VALUE
 93
        3
 90
        0
 91
        0
 94
        0
300

302

304
ACVALUE_END
171
     1
172
     0
173
     0
174
     0
175
     2
176
     1
 91
       33
178
     0
145
0.0
170
     4
140
2.5
 92
        0
301
CELL_VALUE
 93
        2
 90
        4
  1
DATE:12.05.20
 94
        0
300

302
DATE:12.05.20
304
ACVALUE_END
171
     1
172
     0
173
     1
174
     0
175
     1
176
     1
 91
        0
178
     0
145
0.0
 92
        0
301
CELL_VALUE
 93
        3
 90
        0
 91
        0
 94
        0
300

302

304
ACVALUE_END
171
     1
172
     0
173
     0
174
     0
175
     5
176
     1
 91
       33
178
     0
145
0.0
170
     4
140
2.25
 92
        0
301
CELL_VALUE
 93
        2
 90
        4
  1
Any integral or partial reproductions are prohibited \Pwithout prior authorisation of L & L Luce & Light s.r.l., \Pin accordance with the law in force. \PAll rights reserved.
 94
        0
300

302
Any integral or partial reproductions are prohibited \Pwithout prior authorisation of L & L Luce & Light s.r.l., \Pin accordance with the law in force. \PAll rights reserved.
304
ACVALUE_END
171
     1
172
     0
173
     1
174
     0
175
     1
176
     1
 91
        0
178
     0
145
0.0
 92
        0
301
CELL_VALUE
 93
        3
 90
        0
 91
        0
 94
        0
300

302

304
ACVALUE_END
171
     1
172
     0
173
     1
174
     0
175
     1
176
     1
 91
        0
178
     0
145
0.0
 92
        0
301
CELL_VALUE
 93
        3
 90
        0
 91
        0
 94
        0
300

302

304
ACVALUE_END
171
     1
172
     0
173
     1
174
     0
175
     1
176
     1
 91
        0
178
     0
145
0.0
 92
        0
301
CELL_VALUE
 93
        3
 90
        0
 91
        0
 94
        0
300

302

304
ACVALUE_END
171
     1
172
     0
173
     1
174
     0
175
     1
176
     1
 91
        0
178
     0
145
0.0
 92
        0
301
CELL_VALUE
 93
        3
 90
        0
 91
        0
 94
        0
300

302

304
ACVALUE_END
  0
ENDSEC
  0
SECTION
  2
OBJECTS
  0
DICTIONARY
  5
C
330
0
100
AcDbDictionary
281
     1
  3
ACAD_DETAILVIEWSTYLE
350
4C2
  3
ACAD_GROUP
350
D
  3
ACAD_IMAGE_DICT
350
4B2
  3
ACAD_LAYOUT
350
1A
  3
ACAD_MATERIAL
350
4A6
  3
ACAD_MLEADERSTYLE
350
4C1
  3
ACAD_MLINESTYLE
350
17
  3
ACAD_PLOTSETTINGS
350
19
  3
ACAD_PLOTSTYLENAME
350
E
  3
ACAD_SCALELIST
350
468
  3
ACAD_SECTIONVIEWSTYLE
350
4C3
  3
ACAD_TABLESTYLE
350
48A
  3
ACAD_VISUALSTYLE
350
48D
  3
ACDB_RECOMPOSE_DATA
350
4BF
  3
AcDbVariableDictionary
350
4BB
  3
HOST_DOC_SETTINGS
350
4B0
  3
MCS_STREAM_DICT
350
4AC
  0
SUN
  5
4AF
330
1F4
100
AcDbSun
 90
        1
290
     0
 63
     7
421
 16777215
 40
1.0
291
     1
 91
  2455826
 92
 54000000
292
     0
 70
     2
 71
   256
280
     1
  0
DICTIONARY
  5
4B9
330
462
100
AcDbDictionary
280
     1
281
     1
  3
ACAD_XREC_ROUNDTRIP
360
4BA
  0
DICTIONARY
  5
4C2
102
{ACAD_REACTORS
330
C
102
}
330
C
100
AcDbDictionary
281
     1
  0
DICTIONARY
  5
D
102
{ACAD_REACTORS
330
C
102
}
330
C
100
AcDbDictionary
281
     1
  0
DICTIONARY
  5
4B2
102
{ACAD_REACTORS
330
C
102
}
330
C
100
AcDbDictionary
281
     1
  0
DICTIONARY
  5
1A
102
{ACAD_REACTORS
330
C
102
}
330
C
100
AcDbDictionary
281
     1
  3
Layout1
350
465
  3
Model
350
464
  0
DICTIONARY
  5
4A6
102
{ACAD_REACTORS
330
C
102
}
330
C
100
AcDbDictionary
281
     1
  3
ByBlock
350
4A8
  3
ByLayer
350
4A7
  3
Global
350
4A9
  0
DICTIONARY
  5
4C1
102
{ACAD_REACTORS
330
C
102
}
330
C
100
AcDbDictionary
281
     1
  0
DICTIONARY
  5
17
102
{ACAD_REACTORS
330
C
102
}
330
C
100
AcDbDictionary
281
     1
  3
Standard
350
18
  0
DICTIONARY
  5
19
102
{ACAD_REACTORS
330
C
102
}
330
C
100
AcDbDictionary
281
     1
  0
ACDBDICTIONARYWDFLT
  5
E
102
{ACAD_REACTORS
330
C
102
}
330
C
100
AcDbDictionary
281
     1
  3
Normal
350
F
100
AcDbDictionaryWithDefault
340
F
  0
DICTIONARY
  5
468
102
{ACAD_REACTORS
330
C
102
}
330
C
100
AcDbDictionary
281
     1
  3
A0
350
469
  3
A1
350
46A
  3
A2
350
46B
  3
A3
350
46C
  3
A4
350
46D
  3
A5
350
46E
  3
A6
350
46F
  3
A7
350
470
  3
A8
350
471
  3
A9
350
472
  3
B0
350
473
  3
B1
350
474
  3
B2
350
475
  3
B3
350
476
  3
B4
350
477
  3
B5
350
478
  3
B6
350
479
  3
B7
350
47A
  3
B8
350
47B
  3
B9
350
47C
  3
C0
350
47D
  3
C1
350
47E
  3
C2
350
47F
  3
C3
350
480
  3
C4
350
481
  3
C5
350
482
  3
C6
350
483
  3
C7
350
484
  3
C8
350
485
  3
C9
350
486
  3
D0
350
487
  3
D1
350
488
  3
D2
350
489
  0
DICTIONARY
  5
4C3
102
{ACAD_REACTORS
330
C
102
}
330
C
100
AcDbDictionary
281
     1
  0
DICTIONARY
  5
48A
102
{ACAD_REACTORS
330
C
102
}
330
C
100
AcDbDictionary
281
     1
  3
Standard
350
48B
  0
DICTIONARY
  5
48D
102
{ACAD_REACTORS
330
C
102
}
330
C
100
AcDbDictionary
281
     1
  3
2dWireframe
350
492
  3
Basic
350
495
  3
Brighten
350
499
  3
ColorChange
350
49D
  3
Conceptual
350
497
  3
Dim
350
498
  3
EdgeColorOff
350
4A0
  3
Facepattern
350
49C
  3
Flat
350
48E
  3
FlatWithEdges
350
48F
  3
Gouraud
350
490
  3
GouraudWithEdges
350
491
  3
Hidden
350
494
  3
JitterOff
350
49E
  3
Linepattern
350
49B
  3
OverhangOff
350
49F
  3
Realistic
350
496
  3
Shaded
350
4A5
  3
Shaded with edges
350
4A4
  3
Shades of Gray
350
4A1
  3
Sketchy
350
4A2
  3
Thicken
350
49A
  3
Wireframe
350
493
  3
X-Ray
350
4A3
  0
XRECORD
  5
4BF
102
{ACAD_REACTORS
330
C
102
}
330
C
100
AcDbXrecord
280
     1
 90
        1
330
462
330
48B
  0
DICTIONARY
  5
4BB
102
{ACAD_REACTORS
330
C
102
}
330
C
100
AcDbDictionary
281
     1
  3
CANNOSCALE
350
4BC
  3
CTABLESTYLE
350
4C0
  0
DICTIONARY
  5
4B0
102
{ACAD_REACTORS
330
C
102
}
330
C
100
AcDbDictionary
281
     1
  3
NCDocParameters
350
4B1
  0
DICTIONARY
  5
4AC
102
{ACAD_REACTORS
330
C
102
}
330
C
100
AcDbDictionary
281
     1
  3
MC_VERSION_DATA
350
4B5
  3
MCS_DOCUMENT_ID
350
4AD
  3
MCS_PARAMS_DATA
350
4B3
  0
XRECORD
  5
4BA
102
{ACAD_REACTORS
330
4B9
102
}
330
4B9
100
AcDbXrecord
280
     1
102
ACAD_ROUNDTRIP_2008_TABLE_ENTITY
360
4B7
 70
     2
 90
        1
 10
0.0
 20
0.0
 30
0.0
 90
        0
 90
        4
361
4B8
  0
LAYOUT
  5
465
102
{ACAD_REACTORS
330
1A
102
}
330
1A
100
AcDbPlotSettings
  1

  2
none_device
  4
ISO_A0_(1189.00_x_841.00_MM)
  6

 40
0.0
 41
0.0
 42
0.0
 43
0.0
 44
1189.0
 45
841.0
 46
0.0
 47
0.0
 48
0.0
 49
0.0
140
0.0
141
0.0
142
1.0
143
1.0
 70
     0
 72
     1
 73
     0
 74
     0
  7

 75
     0
 76
     0
 77
     2
 78
   300
147
1.0
148
0.0
149
0.0
100
AcDbLayout
  1
Layout1
 70
     0
 71
     1
 10
0.0
 20
0.0
 11
1189.0
 21
841.0
 12
0.0
 22
0.0
 32
0.0
 14
0.0
 24
0.0
 34
0.0
 15
0.0
 25
0.0
 35
0.0
146
0.0
 13
0.0
 23
0.0
 33
0.0
 16
1.0
 26
0.0
 36
0.0
 17
0.0
 27
1.0
 37
0.0
 76
     0
330
212
  0
LAYOUT
  5
464
102
{ACAD_REACTORS
330
1A
102
}
330
1A
100
AcDbPlotSettings
  1

  2
none_device
  4
ISO_A0_(1189.00_x_841.00_MM)
  6

 40
0.0
 41
0.0
 42
0.0
 43
0.0
 44
1189.0
 45
841.0
 46
0.0
 47
0.0
 48
0.0
 49
0.0
140
0.0
141
0.0
142
1.0
143
1.0
 70
  1024
 72
     1
 73
     0
 74
     0
  7

 75
     0
 76
     0
 77
     2
 78
   300
147
1.0
148
0.0
149
0.0
100
AcDbLayout
  1
Model
 70
     0
 71
     0
 10
0.0
 20
0.0
 11
1189.0
 21
841.0
 12
0.0
 22
0.0
 32
0.0
 14
0.0
 24
0.0
 34
0.0
 15
0.0
 25
0.0
 35
0.0
146
0.0
 13
0.0
 23
0.0
 33
0.0
 16
1.0
 26
0.0
 36
0.0
 17
0.0
 27
1.0
 37
0.0
 76
     0
330
211
331
1F4
  0
MATERIAL
  5
4A8
102
{ACAD_REACTORS
330
4A6
102
}
330
4A6
100
AcDbMaterial
  1
ByBlock
 72
     1
 94
      127
  0
MATERIAL
  5
4A7
102
{ACAD_REACTORS
330
4A6
102
}
330
4A6
100
AcDbMaterial
  1
ByLayer
 72
     1
 94
      127
  0
MATERIAL
  5
4A9
102
{ACAD_REACTORS
330
4A6
102
}
330
4A6
100
AcDbMaterial
  1
Global
 72
     1
 94
      127
  0
MLINESTYLE
  5
18
102
{ACAD_REACTORS
330
17
102
}
330
17
100
AcDbMlineStyle
  2
STANDARD
 70
     0
  3

 62
   256
 51
90.0
 52
90.0
 71
     2
 49
0.5
 62
   256
  6
BYLAYER
 49
-0.5
 62
   256
  6
BYLAYER
  0
ACDBPLACEHOLDER
  5
F
102
{ACAD_REACTORS
330
E
102
}
330
E
  0
SCALE
  5
469
102
{ACAD_REACTORS
330
468
102
}
330
468
100
AcDbScale
 70
     0
300
1:1
140
1.0
141
1.0
290
     1
  0
SCALE
  5
46A
102
{ACAD_REACTORS
330
468
102
}
330
468
100
AcDbScale
 70
     0
300
1:2
140
1.0
141
2.0
290
     0
  0
SCALE
  5
46B
102
{ACAD_REACTORS
330
468
102
}
330
468
100
AcDbScale
 70
     0
300
1:4
140
1.0
141
4.0
290
     0
  0
SCALE
  5
46C
102
{ACAD_REACTORS
330
468
102
}
330
468
100
AcDbScale
 70
     0
300
1:5
140
1.0
141
5.0
290
     0
  0
SCALE
  5
46D
102
{ACAD_REACTORS
330
468
102
}
330
468
100
AcDbScale
 70
     0
300
1:8
140
1.0
141
8.0
290
     0
  0
SCALE
  5
46E
102
{ACAD_REACTORS
330
468
102
}
330
468
100
AcDbScale
 70
     0
300
1:10
140
1.0
141
10.0
290
     0
  0
SCALE
  5
46F
102
{ACAD_REACTORS
330
468
102
}
330
468
100
AcDbScale
 70
     0
300
1:16
140
1.0
141
16.0
290
     0
  0
SCALE
  5
470
102
{ACAD_REACTORS
330
468
102
}
330
468
100
AcDbScale
 70
     0
300
1:20
140
1.0
141
20.0
290
     0
  0
SCALE
  5
471
102
{ACAD_REACTORS
330
468
102
}
330
468
100
AcDbScale
 70
     0
300
1:30
140
1.0
141
30.0
290
     0
  0
SCALE
  5
472
102
{ACAD_REACTORS
330
468
102
}
330
468
100
AcDbScale
 70
     0
300
1:40
140
1.0
141
40.0
290
     0
  0
SCALE
  5
473
102
{ACAD_REACTORS
330
468
102
}
330
468
100
AcDbScale
 70
     0
300
1:50
140
1.0
141
50.0
290
     0
  0
SCALE
  5
474
102
{ACAD_REACTORS
330
468
102
}
330
468
100
AcDbScale
 70
     0
300
1:100
140
1.0
141
100.0
290
     0
  0
SCALE
  5
475
102
{ACAD_REACTORS
330
468
102
}
330
468
100
AcDbScale
 70
     0
300
2:1
140
2.0
141
1.0
290
     0
  0
SCALE
  5
476
102
{ACAD_REACTORS
330
468
102
}
330
468
100
AcDbScale
 70
     0
300
4:1
140
4.0
141
1.0
290
     0
  0
SCALE
  5
477
102
{ACAD_REACTORS
330
468
102
}
330
468
100
AcDbScale
 70
     0
300
8:1
140
8.0
141
1.0
290
     0
  0
SCALE
  5
478
102
{ACAD_REACTORS
330
468
102
}
330
468
100
AcDbScale
 70
     0
300
10:1
140
10.0
141
1.0
290
     0
  0
SCALE
  5
479
102
{ACAD_REACTORS
330
468
102
}
330
468
100
AcDbScale
 70
     0
300
100:1
140
100.0
141
1.0
290
     0
  0
SCALE
  5
47A
102
{ACAD_REACTORS
330
468
102
}
330
468
100
AcDbScale
 70
     0
300
1/128" = 1'-0"
140
0.007812
141
12.0
290
     0
  0
SCALE
  5
47B
102
{ACAD_REACTORS
330
468
102
}
330
468
100
AcDbScale
 70
     0
300
1/64" = 1'-0"
140
0.015625
141
12.0
290
     0
  0
SCALE
  5
47C
102
{ACAD_REACTORS
330
468
102
}
330
468
100
AcDbScale
 70
     0
300
1/32" = 1'-0"
140
0.03125
141
12.0
290
     0
  0
SCALE
  5
47D
102
{ACAD_REACTORS
330
468
102
}
330
468
100
AcDbScale
 70
     0
300
1/16" = 1'-0"
140
0.0625
141
12.0
290
     0
  0
SCALE
  5
47E
102
{ACAD_REACTORS
330
468
102
}
330
468
100
AcDbScale
 70
     0
300
3/32" = 1'-0"
140
0.09375
141
12.0
290
     0
  0
SCALE
  5
47F
102
{ACAD_REACTORS
330
468
102
}
330
468
100
AcDbScale
 70
     0
300
1/8" = 1'-0"
140
0.125
141
12.0
290
     0
  0
SCALE
  5
480
102
{ACAD_REACTORS
330
468
102
}
330
468
100
AcDbScale
 70
     0
300
3/16" = 1'-0"
140
0.1875
141
12.0
290
     0
  0
SCALE
  5
481
102
{ACAD_REACTORS
330
468
102
}
330
468
100
AcDbScale
 70
     0
300
1/4" = 1'-0"
140
0.25
141
12.0
290
     0
  0
SCALE
  5
482
102
{ACAD_REACTORS
330
468
102
}
330
468
100
AcDbScale
 70
     0
300
3/8" = 1'-0"
140
0.375
141
12.0
290
     0
  0
SCALE
  5
483
102
{ACAD_REACTORS
330
468
102
}
330
468
100
AcDbScale
 70
     0
300
1/2" = 1'-0"
140
0.5
141
12.0
290
     0
  0
SCALE
  5
484
102
{ACAD_REACTORS
330
468
102
}
330
468
100
AcDbScale
 70
     0
300
3/4" = 1'-0"
140
0.75
141
12.0
290
     0
  0
SCALE
  5
485
102
{ACAD_REACTORS
330
468
102
}
330
468
100
AcDbScale
 70
     0
300
1" = 1'-0"
140
1.0
141
12.0
290
     0
  0
SCALE
  5
486
102
{ACAD_REACTORS
330
468
102
}
330
468
100
AcDbScale
 70
     0
300
1-1/2" = 1'-0"
140
1.5
141
12.0
290
     0
  0
SCALE
  5
487
102
{ACAD_REACTORS
330
468
102
}
330
468
100
AcDbScale
 70
     0
300
3" = 1'-0"
140
3.0
141
12.0
290
     0
  0
SCALE
  5
488
102
{ACAD_REACTORS
330
468
102
}
330
468
100
AcDbScale
 70
     0
300
6" = 1'-0"
140
6.0
141
12.0
290
     0
  0
SCALE
  5
489
102
{ACAD_REACTORS
330
468
102
}
330
468
100
AcDbScale
 70
     0
300
1'-0" = 1'-0"
140
12.0
141
12.0
290
     0
  0
TABLESTYLE
  5
48B
102
{ACAD_REACTORS
330
48A
102
}
102
{ACAD_XDICTIONARY
360
4BD
102
}
330
48A
100
AcDbTableStyle
  3
Standard
 70
     0
 71
     0
 40
0.06
 41
0.06
280
     0
281
     0
  7
STANDARD
140
4.5
170
     2
 62
     0
 63
   257
283
     0
 90
        4
 91
        0
  1

274
    -2
284
     1
 64
     0
275
    -2
285
     1
 65
     0
276
    -2
286
     1
 66
     0
277
    -2
287
     1
 67
     0
278
    -2
288
     1
 68
     0
279
    -2
289
     1
 69
     0
  7
STANDARD
140
6.0
170
     5
 62
     0
 63
   257
283
     0
 90
        4
 91
        0
  1

274
    -2
284
     1
 64
     0
275
    -2
285
     1
 65
     0
276
    -2
286
     1
 66
     0
277
    -2
287
     1
 67
     0
278
    -2
288
     1
 68
     0
279
    -2
289
     1
 69
     0
  7
STANDARD
140
4.5
170
     5
 62
     0
 63
   257
283
     0
 90
        4
 91
        0
  1

274
    -2
284
     1
 64
     0
275
    -2
285
     1
 65
     0
276
    -2
286
     1
 66
     0
277
    -2
287
     1
 67
     0
278
    -2
288
     1
 68
     0
279
    -2
289
     1
 69
     0
  0
VISUALSTYLE
  5
492
102
{ACAD_REACTORS
330
48D
102
}
330
48D
100
AcDbVisualStyle
  2
2dWireframe
 70
     4
177
     3
291
     0
 70
    58
 90
        0
176
     1
 90
        2
176
     1
 90
        0
176
     1
 90
        0
176
     1
 40
0.6
176
     1
 40
30.0
176
     1
 62
     7
420
 16777215
176
     1
 90
        1
176
     1
 90
        4
176
     1
 62
     7
176
     1
 62
   257
176
     1
 90
        1
176
     1
 90
        1
176
     1
 40
1.0
176
     1
 90
        0
176
     1
 62
   257
176
     1
 40
1.0
176
     1
 90
        1
176
     1
 90
        6
176
     1
 90
        2
176
     1
 62
     7
176
     1
 90
        5
176
     1
 90
        0
176
     1
 90
        0
176
     1
290
     0
176
     1
 90
        1
176
     1
 40
0.0
176
     1
 90
        0
176
     1
290
     1
176
     1
290
     1
176
     1
290
     0
176
     1
290
     0
176
     1
290
     0
176
     1
290
     0
176
     1
290
     0
176
     1
290
     0
176
     1
290
     0
176
     1
 90
       50
176
     1
 40
0.0
176
     1
 40
1.0
176
     1
 90
        0
176
     1
 62
    18
420
        0
176
     1
 90
       50
176
     1
 90
        3
176
     1
 62
     5
420
      255
176
     1
290
     0
176
     1
 90
       50
176
     1
 90
       50
176
     1
 90
       50
176
     1
290
     0
176
     1
 90
       50
176
     1
 62
   256
176
     0
 40
1.0
176
     0
 90
        2
176
     1
  1
strokes_ogs.tif
176
     1
290
     0
176
     1
 40
1.0
176
     1
 40
1.0
176
     1
  0
VISUALSTYLE
  5
495
102
{ACAD_REACTORS
330
48D
102
}
330
48D
100
AcDbVisualStyle
  2
Basic
 70
     7
177
     3
291
     1
 70
    58
 90
        1
176
     1
 90
        0
176
     1
 90
        1
176
     1
 90
        0
176
     1
 40
0.6
176
     1
 40
30.0
176
     1
 62
     7
420
 16777215
176
     1
 90
        0
176
     1
 90
        4
176
     1
 62
     7
176
     1
 62
   257
176
     1
 90
        1
176
     1
 90
        1
176
     1
 40
1.0
176
     1
 90
        8
176
     1
 62
     7
176
     1
 40
1.0
176
     1
 90
        1
176
     1
 90
        6
176
     1
 90
        2
176
     1
 62
     7
176
     1
 90
        5
176
     1
 90
        0
176
     1
 90
        0
176
     1
290
     0
176
     1
 90
        1
176
     1
 40
0.0
176
     1
 90
        0
176
     1
290
     0
176
     1
290
     1
176
     1
290
     1
176
     1
290
     0
176
     1
290
     0
176
     1
290
     0
176
     1
290
     0
176
     1
290
     0
176
     1
290
     0
176
     1
 90
       50
176
     1
 40
0.0
176
     1
 40
1.0
176
     1
 90
        0
176
     1
 62
    18
420
        0
176
     1
 90
       50
176
     1
 90
        3
176
     1
 62
     5
420
      255
176
     1
290
     0
176
     1
 90
       50
176
     1
 90
       50
176
     1
 90
       50
176
     1
290
     0
176
     1
 90
       50
176
     1
 62
   256
176
     0
 40
1.0
176
     0
 90
        2
176
     1
  1
strokes_ogs.tif
176
     1
290
     0
176
     1
 40
1.0
176
     1
 40
1.0
176
     1
  0
VISUALSTYLE
  5
499
102
{ACAD_REACTORS
330
48D
102
}
330
48D
100
AcDbVisualStyle
  2
Brighten
 70
    12
177
     3
291
     1
 70
    58
 90
        2
176
     1
 90
        2
176
     1
 90
        0
176
     1
 90
        0
176
     1
 40
0.6
176
     1
 40
30.0
176
     1
 62
     7
420
 16777215
176
     1
 90
        1
176
     1
 90
        4
176
     1
 62
     7
176
     1
 62
   257
176
     1
 90
        1
176
     1
 90
        1
176
     1
 40
1.0
176
     1
 90
        8
176
     1
 62
     7
176
     1
 40
1.0
176
     1
 90
        1
176
     1
 90
        6
176
     1
 90
        2
176
     1
 62
     7
176
     1
 90
        5
176
     1
 90
        0
176
     1
 90
        0
176
     1
290
     0
176
     1
 90
        1
176
     1
 40
50.0
176
     1
 90
        0
176
     1
290
     0
176
     1
290
     1
176
     1
290
     1
176
     1
290
     0
176
     1
290
     0
176
     1
290
     0
176
     1
290
     0
176
     1
290
     0
176
     1
290
     0
176
     1
 90
       50
176
     1
 40
0.0
176
     1
 40
1.0
176
     1
 90
        0
176
     1
 62
    18
420
        0
176
     1
 90
       50
176
     1
 90
        3
176
     1
 62
     5
420
      255
176
     1
290
     0
176
     1
 90
       50
176
     1
 90
       50
176
     1
 90
       50
176
     1
290
     0
176
     1
 90
       50
176
     1
 62
   256
176
     0
 40
1.0
176
     0
 90
        2
176
     1
  1
strokes_ogs.tif
176
     1
290
     0
176
     1
 40
1.0
176
     1
 40
1.0
176
     1
  0
VISUALSTYLE
  5
49D
102
{ACAD_REACTORS
330
48D
102
}
330
48D
100
AcDbVisualStyle
  2
ColorChange
 70
    16
177
     3
291
     1
 70
    58
 90
        2
176
     1
 90
        2
176
     1
 90
        3
176
     1
 90
        0
176
     1
 40
0.6
176
     1
 40
30.0
176
     1
 62
     8
420
  8421504
176
     1
 90
        1
176
     1
 90
        4
176
     1
 62
     7
176
     1
 62
   257
176
     1
 90
        1
176
     1
 90
        1
176
     1
 40
1.0
176
     1
 90
        8
176
     1
 62
     8
420
  8421504
176
     1
 40
1.0
176
     1
 90
        1
176
     1
 90
        6
176
     1
 90
        2
176
     1
 62
     7
176
     1
 90
        5
176
     1
 90
        0
176
     1
 90
        0
176
     1
290
     0
176
     1
 90
        1
176
     1
 40
0.0
176
     1
 90
        0
176
     1
290
     0
176
     1
290
     1
176
     1
290
     1
176
     1
290
     0
176
     1
290
     0
176
     1
290
     0
176
     1
290
     0
176
     1
290
     0
176
     1
290
     0
176
     1
 90
       50
176
     1
 40
0.0
176
     1
 40
1.0
176
     1
 90
        0
176
     1
 62
    18
420
        0
176
     1
 90
       50
176
     1
 90
        3
176
     1
 62
     5
420
      255
176
     1
290
     0
176
     1
 90
       50
176
     1
 90
       50
176
     1
 90
       50
176
     1
290
     0
176
     1
 90
       50
176
     1
 62
   256
176
     0
 40
1.0
176
     0
 90
        2
176
     1
  1
strokes_ogs.tif
176
     1
290
     0
176
     1
 40
1.0
176
     1
 40
1.0
176
     1
  0
VISUALSTYLE
  5
497
102
{ACAD_REACTORS
330
48D
102
}
330
48D
100
AcDbVisualStyle
  2
Conceptual
 70
     9
177
     3
291
     0
 70
    58
 90
        3
176
     1
 90
        2
176
     1
 90
        0
176
     1
 90
        0
176
     1
 40
0.6
176
     1
 40
30.0
176
     1
 62
     7
420
 16777215
176
     1
 90
        2
176
     1
 90
        2
176
     1
 62
     7
176
     1
 62
   257
176
     1
 90
        1
176
     1
 90
        1
176
     1
 40
179.0
176
     1
 90
        8
176
     1
 62
     7
176
     1
 40
1.0
176
     1
 90
        1
176
     1
 90
        6
176
     1
 90
        2
176
     1
 62
     7
176
     1
 90
        3
176
     1
 90
        0
176
     1
 90
        0
176
     1
290
     0
176
     1
 90
        1
176
     1
 40
0.0
176
     1
 90
        0
176
     1
290
     0
176
     1
290
     1
176
     1
290
     1
176
     1
290
     0
176
     1
290
     0
176
     1
290
     0
176
     1
290
     0
176
     1
290
     0
176
     1
290
     0
176
     1
 90
       50
176
     1
 40
0.0
176
     1
 40
1.0
176
     1
 90
        0
176
     1
 62
    18
420
        0
176
     1
 90
       50
176
     1
 90
        3
176
     1
 62
     5
420
      255
176
     1
290
     0
176
     1
 90
       50
176
     1
 90
       50
176
     1
 90
       50
176
     1
290
     0
176
     1
 90
       50
176
     1
 62
   256
176
     0
 40
1.0
176
     0
 90
        2
176
     1
  1
strokes_ogs.tif
176
     1
290
     0
176
     1
 40
1.0
176
     1
 40
1.0
176
     1
  0
VISUALSTYLE
  5
498
102
{ACAD_REACTORS
330
48D
102
}
330
48D
100
AcDbVisualStyle
  2
Dim
 70
    11
177
     3
291
     1
 70
    58
 90
        2
176
     1
 90
        2
176
     1
 90
        0
176
     1
 90
        0
176
     1
 40
0.6
176
     1
 40
30.0
176
     1
 62
     7
420
 16777215
176
     1
 90
        1
176
     1
 90
        4
176
     1
 62
     7
176
     1
 62
   257
176
     1
 90
        1
176
     1
 90
        1
176
     1
 40
1.0
176
     1
 90
        8
176
     1
 62
     7
176
     1
 40
1.0
176
     1
 90
        1
176
     1
 90
        6
176
     1
 90
        2
176
     1
 62
     7
176
     1
 90
        5
176
     1
 90
        0
176
     1
 90
        0
176
     1
290
     0
176
     1
 90
        1
176
     1
 40
-50.0
176
     1
 90
        0
176
     1
290
     0
176
     1
290
     1
176
     1
290
     1
176
     1
290
     0
176
     1
290
     0
176
     1
290
     0
176
     1
290
     0
176
     1
290
     0
176
     1
290
     0
176
     1
 90
       50
176
     1
 40
0.0
176
     1
 40
1.0
176
     1
 90
        0
176
     1
 62
    18
420
        0
176
     1
 90
       50
176
     1
 90
        3
176
     1
 62
     5
420
      255
176
     1
290
     0
176
     1
 90
       50
176
     1
 90
       50
176
     1
 90
       50
176
     1
290
     0
176
     1
 90
       50
176
     1
 62
   256
176
     0
 40
1.0
176
     0
 90
        2
176
     1
  1
strokes_ogs.tif
176
     1
290
     0
176
     1
 40
1.0
176
     1
 40
1.0
176
     1
  0
VISUALSTYLE
  5
4A0
102
{ACAD_REACTORS
330
48D
102
}
330
48D
100
AcDbVisualStyle
  2
EdgeColorOff
 70
    22
177
     3
291
     1
 70
    58
 90
        2
176
     0
 90
        2
176
     0
 90
        0
176
     0
 90
        0
176
     0
 40
0.6
176
     0
 40
30.0
176
     0
 62
     7
420
 16777215
176
     0
 90
        1
176
     0
 90
        4
176
     0
 62
     7
176
     0
 62
   257
176
     0
 90
        1
176
     0
 90
        1
176
     0
 40
1.0
176
     0
 90
        8
176
     2
 62
     7
176
     0
 40
1.0
176
     0
 90
        1
176
     0
 90
        6
176
     0
 90
        2
176
     0
 62
     7
176
     0
 90
        5
176
     0
 90
        0
176
     0
 90
        0
176
     0
290
     0
176
     0
 90
        1
176
     0
 40
0.0
176
     0
 90
        0
176
     0
290
     0
176
     0
290
     1
176
     0
290
     1
176
     0
290
     0
176
     0
290
     0
176
     0
290
     0
176
     0
290
     0
176
     0
290
     0
176
     0
290
     0
176
     0
 90
       50
176
     0
 40
0.0
176
     0
 40
1.0
176
     0
 90
        0
176
     0
 62
    18
420
        0
176
     0
 90
       50
176
     0
 90
        3
176
     0
 62
     5
420
      255
176
     0
290
     0
176
     0
 90
       50
176
     0
 90
       50
176
     0
 90
       50
176
     0
290
     0
176
     0
 90
       50
176
     0
 62
   256
176
     0
 40
1.0
176
     0
 90
        2
176
     0
  1
strokes_ogs.tif
176
     0
290
     0
176
     0
 40
1.0
176
     0
 40
1.0
176
     0
  0
VISUALSTYLE
  5
49C
102
{ACAD_REACTORS
330
48D
102
}
330
48D
100
AcDbVisualStyle
  2
Facepattern
 70
    15
177
     3
291
     1
 70
    58
 90
        2
176
     1
 90
        2
176
     1
 90
        0
176
     1
 90
        0
176
     1
 40
0.6
176
     1
 40
30.0
176
     1
 62
     7
420
 16777215
176
     1
 90
        1
176
     1
 90
        4
176
     1
 62
     7
176
     1
 62
   257
176
     1
 90
        1
176
     1
 90
        1
176
     1
 40
1.0
176
     1
 90
        8
176
     1
 62
     7
176
     1
 40
1.0
176
     1
 90
        1
176
     1
 90
        6
176
     1
 90
        2
176
     1
 62
     7
176
     1
 90
        5
176
     1
 90
        0
176
     1
 90
        0
176
     1
290
     0
176
     1
 90
        1
176
     1
 40
0.0
176
     1
 90
        0
176
     1
290
     0
176
     1
290
     1
176
     1
290
     1
176
     1
290
     0
176
     1
290
     0
176
     1
290
     0
176
     1
290
     0
176
     1
290
     0
176
     1
290
     0
176
     1
 90
       50
176
     1
 40
0.0
176
     1
 40
1.0
176
     1
 90
        0
176
     1
 62
    18
420
        0
176
     1
 90
       50
176
     1
 90
        3
176
     1
 62
     5
420
      255
176
     1
290
     0
176
     1
 90
       50
176
     1
 90
       50
176
     1
 90
       50
176
     1
290
     0
176
     1
 90
       50
176
     1
 62
   256
176
     0
 40
1.0
176
     0
 90
        2
176
     1
  1
strokes_ogs.tif
176
     1
290
     0
176
     1
 40
1.0
176
     1
 40
1.0
176
     1
  0
VISUALSTYLE
  5
48E
102
{ACAD_REACTORS
330
48D
102
}
330
48D
100
AcDbVisualStyle
  2
Flat
 70
     0
177
     3
291
     1
 70
    58
 90
        2
176
     1
 90
        1
176
     1
 90
        1
176
     1
 90
        2
176
     1
 40
0.6
176
     1
 40
30.0
176
     1
 62
     7
420
 16777215
176
     1
 90
        0
176
     1
 90
        0
176
     1
 62
     7
176
     1
 62
   257
176
     1
 90
        1
176
     1
 90
        1
176
     1
 40
1.0
176
     1
 90
        8
176
     1
 62
     7
176
     1
 40
1.0
176
     1
 90
        1
176
     1
 90
        6
176
     1
 90
        2
176
     1
 62
     7
176
     1
 90
        5
176
     1
 90
        0
176
     1
 90
        0
176
     1
290
     0
176
     1
 90
       13
176
     1
 40
0.0
176
     1
 90
        0
176
     1
290
     0
176
     1
290
     1
176
     1
290
     1
176
     1
290
     0
176
     1
290
     0
176
     1
290
     0
176
     1
290
     0
176
     1
290
     0
176
     1
290
     0
176
     1
 90
       50
176
     1
 40
0.0
176
     1
 40
1.0
176
     1
 90
        0
176
     1
 62
    18
420
        0
176
     1
 90
       50
176
     1
 90
        3
176
     1
 62
     5
420
      255
176
     1
290
     0
176
     1
 90
       50
176
     1
 90
       50
176
     1
 90
       50
176
     1
290
     0
176
     1
 90
       50
176
     1
 62
   256
176
     0
 40
1.0
176
     0
 90
        2
176
     1
  1
strokes_ogs.tif
176
     1
290
     0
176
     1
 40
1.0
176
     1
 40
1.0
176
     1
  0
VISUALSTYLE
  5
48F
102
{ACAD_REACTORS
330
48D
102
}
330
48D
100
AcDbVisualStyle
  2
FlatWithEdges
 70
     1
177
     3
291
     1
 70
    58
 90
        2
176
     1
 90
        1
176
     1
 90
        1
176
     1
 90
        2
176
     1
 40
0.6
176
     1
 40
30.0
176
     1
 62
     7
420
 16777215
176
     1
 90
        1
176
     1
 90
        0
176
     1
 62
     7
176
     1
 62
   257
176
     1
 90
        1
176
     1
 90
        1
176
     1
 40
1.0
176
     1
 90
        0
176
     1
 62
   257
176
     1
 40
1.0
176
     1
 90
        1
176
     1
 90
        6
176
     1
 90
        2
176
     1
 62
     7
176
     1
 90
        5
176
     1
 90
        0
176
     1
 90
        0
176
     1
290
     0
176
     1
 90
       13
176
     1
 40
0.0
176
     1
 90
        0
176
     1
290
     0
176
     1
290
     1
176
     1
290
     1
176
     1
290
     0
176
     1
290
     0
176
     1
290
     0
176
     1
290
     0
176
     1
290
     0
176
     1
290
     0
176
     1
 90
       50
176
     1
 40
0.0
176
     1
 40
1.0
176
     1
 90
        0
176
     1
 62
    18
420
        0
176
     1
 90
       50
176
     1
 90
        3
176
     1
 62
     5
420
      255
176
     1
290
     0
176
     1
 90
       50
176
     1
 90
       50
176
     1
 90
       50
176
     1
290
     0
176
     1
 90
       50
176
     1
 62
   256
176
     0
 40
1.0
176
     0
 90
        2
176
     1
  1
strokes_ogs.tif
176
     1
290
     0
176
     1
 40
1.0
176
     1
 40
1.0
176
     1
  0
VISUALSTYLE
  5
490
102
{ACAD_REACTORS
330
48D
102
}
330
48D
100
AcDbVisualStyle
  2
Gouraud
 70
     2
177
     3
291
     1
 70
    58
 90
        2
176
     1
 90
        2
176
     1
 90
        1
176
     1
 90
        2
176
     1
 40
0.6
176
     1
 40
30.0
176
     1
 62
     7
420
 16777215
176
     1
 90
        0
176
     1
 90
        0
176
     1
 62
     7
176
     1
 62
   257
176
     1
 90
        1
176
     1
 90
        1
176
     1
 40
1.0
176
     1
 90
        0
176
     1
 62
     7
176
     1
 40
1.0
176
     1
 90
        1
176
     1
 90
        6
176
     1
 90
        2
176
     1
 62
     7
176
     1
 90
        5
176
     1
 90
        0
176
     1
 90
        0
176
     1
290
     0
176
     1
 90
       13
176
     1
 40
0.0
176
     1
 90
        0
176
     1
290
     0
176
     1
290
     1
176
     1
290
     1
176
     1
290
     0
176
     1
290
     0
176
     1
290
     0
176
     1
290
     0
176
     1
290
     0
176
     1
290
     0
176
     1
 90
       50
176
     1
 40
0.0
176
     1
 40
1.0
176
     1
 90
        0
176
     1
 62
    18
420
        0
176
     1
 90
       50
176
     1
 90
        3
176
     1
 62
     5
420
      255
176
     1
290
     0
176
     1
 90
       50
176
     1
 90
       50
176
     1
 90
       50
176
     1
290
     0
176
     1
 90
       50
176
     1
 62
   256
176
     0
 40
1.0
176
     0
 90
        2
176
     1
  1
strokes_ogs.tif
176
     1
290
     0
176
     1
 40
1.0
176
     1
 40
1.0
176
     1
  0
VISUALSTYLE
  5
491
102
{ACAD_REACTORS
330
48D
102
}
330
48D
100
AcDbVisualStyle
  2
GouraudWithEdges
 70
     3
177
     3
291
     1
 70
    58
 90
        2
176
     1
 90
        2
176
     1
 90
        1
176
     1
 90
        2
176
     1
 40
0.6
176
     1
 40
30.0
176
     1
 62
     7
420
 16777215
176
     1
 90
        1
176
     1
 90
        0
176
     1
 62
     7
176
     1
 62
   257
176
     1
 90
        1
176
     1
 90
        1
176
     1
 40
1.0
176
     1
 90
        0
176
     1
 62
   257
176
     1
 40
1.0
176
     1
 90
        1
176
     1
 90
        6
176
     1
 90
        2
176
     1
 62
     7
176
     1
 90
        5
176
     1
 90
        0
176
     1
 90
        0
176
     1
290
     0
176
     1
 90
       13
176
     1
 40
0.0
176
     1
 90
        0
176
     1
290
     0
176
     1
290
     1
176
     1
290
     1
176
     1
290
     0
176
     1
290
     0
176
     1
290
     0
176
     1
290
     0
176
     1
290
     0
176
     1
290
     0
176
     1
 90
       50
176
     1
 40
0.0
176
     1
 40
1.0
176
     1
 90
        0
176
     1
 62
    18
420
        0
176
     1
 90
       50
176
     1
 90
        3
176
     1
 62
     5
420
      255
176
     1
290
     0
176
     1
 90
       50
176
     1
 90
       50
176
     1
 90
       50
176
     1
290
     0
176
     1
 90
       50
176
     1
 62
   256
176
     0
 40
1.0
176
     0
 90
        2
176
     1
  1
strokes_ogs.tif
176
     1
290
     0
176
     1
 40
1.0
176
     1
 40
1.0
176
     1
  0
VISUALSTYLE
  5
494
102
{ACAD_REACTORS
330
48D
102
}
330
48D
100
AcDbVisualStyle
  2
Hidden
 70
     6
177
     3
291
     0
 70
    58
 90
        1
176
     1
 90
        2
176
     1
 90
        2
176
     1
 90
        0
176
     1
 40
0.6
176
     1
 40
30.0
176
     1
 62
     7
420
 16777215
176
     1
 90
        2
176
     1
 90
        2
176
     1
 62
     7
176
     1
 62
   257
176
     1
 90
        2
176
     1
 90
        1
176
     1
 40
40.0
176
     1
 90
        0
176
     1
 62
   257
176
     1
 40
1.0
176
     1
 90
        1
176
     1
 90
        6
176
     1
 90
        2
176
     1
 62
     7
176
     1
 90
        3
176
     1
 90
        0
176
     1
 90
        0
176
     1
290
     0
176
     1
 90
        1
176
     1
 40
0.0
176
     1
 90
        0
176
     1
290
     0
176
     1
290
     1
176
     1
290
     1
176
     1
290
     0
176
     1
290
     0
176
     1
290
     0
176
     1
290
     0
176
     1
290
     0
176
     1
290
     0
176
     1
 90
       50
176
     1
 40
0.0
176
     1
 40
1.0
176
     1
 90
        0
176
     1
 62
    18
420
        0
176
     1
 90
       50
176
     1
 90
        3
176
     1
 62
     5
420
      255
176
     1
290
     0
176
     1
 90
       50
176
     1
 90
       50
176
     1
 90
       50
176
     1
290
     0
176
     1
 90
       50
176
     1
 62
   256
176
     0
 40
1.0
176
     0
 90
        2
176
     1
  1
strokes_ogs.tif
176
     1
290
     0
176
     1
 40
1.0
176
     1
 40
1.0
176
     1
  0
VISUALSTYLE
  5
49E
102
{ACAD_REACTORS
330
48D
102
}
330
48D
100
AcDbVisualStyle
  2
JitterOff
 70
    20
177
     3
291
     1
 70
    58
 90
        2
176
     0
 90
        2
176
     0
 90
        0
176
     0
 90
        0
176
     0
 40
0.6
176
     0
 40
30.0
176
     0
 62
     7
420
 16777215
176
     0
 90
        1
176
     0
 90
        4
176
     0
 62
     7
176
     0
 62
   257
176
     0
 90
        1
176
     0
 90
        1
176
     0
 40
1.0
176
     0
 90
       10
176
     2
 62
     7
176
     0
 40
1.0
176
     0
 90
        1
176
     0
 90
        6
176
     0
 90
        2
176
     0
 62
     7
176
     0
 90
        5
176
     0
 90
        0
176
     0
 90
        0
176
     0
290
     0
176
     0
 90
        1
176
     0
 40
0.0
176
     0
 90
        0
176
     0
290
     0
176
     0
290
     1
176
     0
290
     1
176
     0
290
     0
176
     0
290
     0
176
     0
290
     0
176
     0
290
     0
176
     0
290
     0
176
     0
290
     0
176
     0
 90
       50
176
     0
 40
0.0
176
     0
 40
1.0
176
     0
 90
        0
176
     0
 62
    18
420
        0
176
     0
 90
       50
176
     0
 90
        3
176
     0
 62
     5
420
      255
176
     0
290
     0
176
     0
 90
       50
176
     0
 90
       50
176
     0
 90
       50
176
     0
290
     0
176
     0
 90
       50
176
     0
 62
   256
176
     0
 40
1.0
176
     0
 90
        2
176
     0
  1
strokes_ogs.tif
176
     0
290
     0
176
     0
 40
1.0
176
     0
 40
1.0
176
     0
  0
VISUALSTYLE
  5
49B
102
{ACAD_REACTORS
330
48D
102
}
330
48D
100
AcDbVisualStyle
  2
Linepattern
 70
    14
177
     3
291
     1
 70
    58
 90
        2
176
     1
 90
        2
176
     1
 90
        0
176
     1
 90
        0
176
     1
 40
0.6
176
     1
 40
30.0
176
     1
 62
     7
420
 16777215
176
     1
 90
        1
176
     1
 90
        4
176
     1
 62
     7
176
     1
 62
   257
176
     1
 90
        7
176
     1
 90
        7
176
     1
 40
1.0
176
     1
 90
        8
176
     1
 62
     7
176
     1
 40
1.0
176
     1
 90
        1
176
     1
 90
        6
176
     1
 90
        2
176
     1
 62
     7
176
     1
 90
        5
176
     1
 90
        0
176
     1
 90
        0
176
     1
290
     0
176
     1
 90
        1
176
     1
 40
0.0
176
     1
 90
        0
176
     1
290
     0
176
     1
290
     1
176
     1
290
     1
176
     1
290
     0
176
     1
290
     0
176
     1
290
     0
176
     1
290
     0
176
     1
290
     0
176
     1
290
     0
176
     1
 90
       50
176
     1
 40
0.0
176
     1
 40
1.0
176
     1
 90
        0
176
     1
 62
    18
420
        0
176
     1
 90
       50
176
     1
 90
        3
176
     1
 62
     5
420
      255
176
     1
290
     0
176
     1
 90
       50
176
     1
 90
       50
176
     1
 90
       50
176
     1
290
     0
176
     1
 90
       50
176
     1
 62
   256
176
     0
 40
1.0
176
     0
 90
        2
176
     1
  1
strokes_ogs.tif
176
     1
290
     0
176
     1
 40
1.0
176
     1
 40
1.0
176
     1
  0
VISUALSTYLE
  5
49F
102
{ACAD_REACTORS
330
48D
102
}
330
48D
100
AcDbVisualStyle
  2
OverhangOff
 70
    21
177
     3
291
     1
 70
    58
 90
        2
176
     0
 90
        2
176
     0
 90
        0
176
     0
 90
        0
176
     0
 40
0.6
176
     0
 40
30.0
176
     0
 62
     7
420
 16777215
176
     0
 90
        1
176
     0
 90
        4
176
     0
 62
     7
176
     0
 62
   257
176
     0
 90
        1
176
     0
 90
        1
176
     0
 40
1.0
176
     0
 90
        9
176
     2
 62
     7
176
     0
 40
1.0
176
     0
 90
        1
176
     0
 90
        6
176
     0
 90
        2
176
     0
 62
     7
176
     0
 90
        5
176
     0
 90
        0
176
     0
 90
        0
176
     0
290
     0
176
     0
 90
        1
176
     0
 40
0.0
176
     0
 90
        0
176
     0
290
     0
176
     0
290
     1
176
     0
290
     1
176
     0
290
     0
176
     0
290
     0
176
     0
290
     0
176
     0
290
     0
176
     0
290
     0
176
     0
290
     0
176
     0
 90
       50
176
     0
 40
0.0
176
     0
 40
1.0
176
     0
 90
        0
176
     0
 62
    18
420
        0
176
     0
 90
       50
176
     0
 90
        3
176
     0
 62
     5
420
      255
176
     0
290
     0
176
     0
 90
       50
176
     0
 90
       50
176
     0
 90
       50
176
     0
290
     0
176
     0
 90
       50
176
     0
 62
   256
176
     0
 40
1.0
176
     0
 90
        2
176
     0
  1
strokes_ogs.tif
176
     0
290
     0
176
     0
 40
1.0
176
     0
 40
1.0
176
     0
  0
VISUALSTYLE
  5
496
102
{ACAD_REACTORS
330
48D
102
}
330
48D
100
AcDbVisualStyle
  2
Realistic
 70
     8
177
     3
291
     0
 70
    58
 90
        2
176
     1
 90
        3
176
     1
 90
        0
176
     1
 90
        2
176
     1
 40
0.6
176
     1
 40
30.0
176
     1
 62
     7
420
 16777215
176
     1
 90
        0
176
     1
 90
        0
176
     1
 62
     7
176
     1
 62
   257
176
     1
 90
        1
176
     1
 90
        1
176
     1
 40
1.0
176
     1
 90
        8
176
     1
 62
   257
176
     1
 40
1.0
176
     1
 90
        1
176
     1
 90
        6
176
     1
 90
        2
176
     1
 62
     7
176
     1
 90
        3
176
     1
 90
        0
176
     1
 90
        0
176
     1
290
     0
176
     1
 90
       13
176
     1
 40
0.0
176
     1
 90
        0
176
     1
290
     0
176
     1
290
     1
176
     1
290
     1
176
     1
290
     0
176
     1
290
     0
176
     1
290
     0
176
     1
290
     0
176
     1
290
     0
176
     1
290
     0
176
     1
 90
       50
176
     1
 40
0.0
176
     1
 40
1.0
176
     1
 90
        0
176
     1
 62
    18
420
        0
176
     1
 90
       50
176
     1
 90
        3
176
     1
 62
     5
420
      255
176
     1
290
     0
176
     1
 90
       50
176
     1
 90
       50
176
     1
 90
       50
176
     1
290
     0
176
     1
 90
       50
176
     1
 62
   256
176
     0
 40
1.0
176
     0
 90
        2
176
     1
  1
strokes_ogs.tif
176
     1
290
     0
176
     1
 40
1.0
176
     1
 40
1.0
176
     1
  0
VISUALSTYLE
  5
4A5
102
{ACAD_REACTORS
330
48D
102
}
330
48D
100
AcDbVisualStyle
  2
Shaded
 70
    27
177
     3
291
     0
 70
    58
 90
        2
176
     1
 90
        2
176
     1
 90
        1
176
     1
 90
        2
176
     1
 40
0.6
176
     1
 40
30.0
176
     1
 62
     7
420
 16777215
176
     1
 90
        0
176
     1
 90
        4
176
     1
 62
     7
176
     1
 62
   257
176
     1
 90
        1
176
     1
 90
        1
176
     1
 40
1.0
176
     1
 90
        8
176
     1
 62
   257
176
     1
 40
1.0
176
     1
 90
        1
176
     1
 90
        6
176
     1
 90
        2
176
     1
 62
     8
420
  7895160
176
     1
 90
        3
176
     1
 90
        0
176
     1
 90
        0
176
     1
290
     0
176
     1
 90
        5
176
     1
 40
0.0
176
     1
 90
        0
176
     1
290
     0
176
     1
290
     1
176
     1
290
     1
176
     1
290
     0
176
     1
290
     0
176
     1
290
     0
176
     1
290
     0
176
     1
290
     0
176
     1
290
     0
176
     1
 90
       50
176
     1
 40
0.0
176
     1
 40
1.0
176
     1
 90
        0
176
     1
 62
    18
420
        0
176
     1
 90
       50
176
     1
 90
        3
176
     1
 62
     5
420
      255
176
     1
290
     0
176
     1
 90
       50
176
     1
 90
       50
176
     1
 90
       50
176
     1
290
     0
176
     1
 90
       50
176
     1
 62
   256
176
     0
 40
1.0
176
     0
 90
        2
176
     1
  1
strokes_ogs.tif
176
     1
290
     0
176
     1
 40
1.0
176
     1
 40
1.0
176
     1
  0
VISUALSTYLE
  5
4A4
102
{ACAD_REACTORS
330
48D
102
}
330
48D
100
AcDbVisualStyle
  2
Shaded with edges
 70
    26
177
     3
291
     0
 70
    58
 90
        2
176
     1
 90
        2
176
     1
 90
        1
176
     1
 90
        2
176
     1
 40
0.6
176
     1
 40
30.0
176
     1
 62
     7
420
 16777215
176
     1
 90
        1
176
     1
 90
       10
176
     1
 62
     7
176
     1
 62
   257
176
     1
 90
        2
176
     1
 90
        1
176
     1
 40
1.0
176
     1
 90
        8
176
     1
 62
   257
176
     1
 40
1.0
176
     1
 90
        1
176
     1
 90
        6
176
     1
 90
        2
176
     1
 62
     7
176
     1
 90
        3
176
     1
 90
        0
176
     1
 90
        0
176
     1
290
     0
176
     1
 90
        5
176
     1
 40
0.0
176
     1
 90
        0
176
     1
290
     0
176
     1
290
     1
176
     1
290
     1
176
     1
290
     0
176
     1
290
     0
176
     1
290
     0
176
     1
290
     0
176
     1
290
     0
176
     1
290
     0
176
     1
 90
       50
176
     1
 40
0.0
176
     1
 40
1.0
176
     1
 90
        0
176
     1
 62
    18
420
        0
176
     1
 90
       50
176
     1
 90
        3
176
     1
 62
     5
420
      255
176
     1
290
     0
176
     1
 90
       50
176
     1
 90
       50
176
     1
 90
       50
176
     1
290
     0
176
     1
 90
       50
176
     1
 62
   256
176
     0
 40
1.0
176
     0
 90
        2
176
     1
  1
strokes_ogs.tif
176
     1
290
     0
176
     1
 40
1.0
176
     1
 40
1.0
176
     1
  0
VISUALSTYLE
  5
4A1
102
{ACAD_REACTORS
330
48D
102
}
330
48D
100
AcDbVisualStyle
  2
Shades of Gray
 70
    23
177
     3
291
     0
 70
    58
 90
        2
176
     1
 90
        2
176
     1
 90
        3
176
     1
 90
        0
176
     1
 40
0.6
176
     1
 40
30.0
176
     1
 62
     7
420
 16777215
176
     1
 90
        2
176
     1
 90
        2
176
     1
 62
     7
176
     1
 62
     7
176
     1
 90
        1
176
     1
 90
        1
176
     1
 40
40.0
176
     1
 90
        8
176
     1
 62
     7
176
     1
 40
1.0
176
     1
 90
        1
176
     1
 90
        6
176
     1
 90
        2
176
     1
 62
     7
176
     1
 90
        3
176
     1
 90
        0
176
     1
 90
        0
176
     1
290
     0
176
     1
 90
        1
176
     1
 40
0.0
176
     1
 90
        0
176
     1
290
     0
176
     1
290
     1
176
     1
290
     1
176
     1
290
     0
176
     1
290
     0
176
     1
290
     0
176
     1
290
     0
176
     1
290
     0
176
     1
290
     0
176
     1
 90
       50
176
     1
 40
0.0
176
     1
 40
1.0
176
     1
 90
        0
176
     1
 62
    18
420
        0
176
     1
 90
       50
176
     1
 90
        3
176
     1
 62
     5
420
      255
176
     1
290
     0
176
     1
 90
       50
176
     1
 90
       50
176
     1
 90
       50
176
     1
290
     0
176
     1
 90
       50
176
     1
 62
   256
176
     0
 40
1.0
176
     0
 90
        2
176
     1
  1
strokes_ogs.tif
176
     1
290
     0
176
     1
 40
1.0
176
     1
 40
1.0
176
     1
  0
VISUALSTYLE
  5
4A2
102
{ACAD_REACTORS
330
48D
102
}
330
48D
100
AcDbVisualStyle
  2
Sketchy
 70
    24
177
     3
291
     0
 70
    58
 90
        1
176
     1
 90
        2
176
     1
 90
        2
176
     1
 90
        0
176
     1
 40
0.6
176
     1
 40
30.0
176
     1
 62
     7
420
 16777215
176
     1
 90
        2
176
     1
 90
        2
176
     1
 62
     7
176
     1
 62
     7
176
     1
 90
        1
176
     1
 90
        1
176
     1
 40
40.0
176
     1
 90
       11
176
     1
 62
     7
176
     1
 40
1.0
176
     1
 90
        1
176
     1
 90
        6
176
     1
 90
        2
176
     1
 62
     7
176
     1
 90
        6
176
     1
 90
        0
176
     1
 90
        0
176
     1
290
     0
176
     1
 90
        1
176
     1
 40
0.0
176
     1
 90
        0
176
     1
290
     0
176
     1
290
     1
176
     1
290
     1
176
     1
290
     0
176
     1
290
     0
176
     1
290
     0
176
     1
290
     0
176
     1
290
     0
176
     1
290
     0
176
     1
 90
       50
176
     1
 40
0.0
176
     1
 40
1.0
176
     1
 90
        0
176
     1
 62
    18
420
        0
176
     1
 90
       50
176
     1
 90
        3
176
     1
 62
     5
420
      255
176
     1
290
     0
176
     1
 90
       50
176
     1
 90
       50
176
     1
 90
       50
176
     1
290
     0
176
     1
 90
       50
176
     1
 62
   256
176
     0
 40
1.0
176
     0
 90
        2
176
     1
  1
strokes_ogs.tif
176
     1
290
     0
176
     1
 40
1.0
176
     1
 40
1.0
176
     1
  0
VISUALSTYLE
  5
49A
102
{ACAD_REACTORS
330
48D
102
}
330
48D
100
AcDbVisualStyle
  2
Thicken
 70
    13
177
     3
291
     1
 70
    58
 90
        2
176
     1
 90
        2
176
     1
 90
        0
176
     1
 90
        0
176
     1
 40
0.6
176
     1
 40
30.0
176
     1
 62
     7
420
 16777215
176
     1
 90
        1
176
     1
 90
        4
176
     1
 62
     7
176
     1
 62
   257
176
     1
 90
        1
176
     1
 90
        1
176
     1
 40
1.0
176
     1
 90
       12
176
     1
 62
     7
176
     1
 40
1.0
176
     1
 90
        1
176
     1
 90
        6
176
     1
 90
        2
176
     1
 62
     7
176
     1
 90
        5
176
     1
 90
        0
176
     1
 90
        0
176
     1
290
     0
176
     1
 90
        1
176
     1
 40
0.0
176
     1
 90
        0
176
     1
290
     0
176
     1
290
     1
176
     1
290
     1
176
     1
290
     0
176
     1
290
     0
176
     1
290
     0
176
     1
290
     0
176
     1
290
     0
176
     1
290
     0
176
     1
 90
       50
176
     1
 40
0.0
176
     1
 40
1.0
176
     1
 90
        0
176
     1
 62
    18
420
        0
176
     1
 90
       50
176
     1
 90
        3
176
     1
 62
     5
420
      255
176
     1
290
     0
176
     1
 90
       50
176
     1
 90
       50
176
     1
 90
       50
176
     1
290
     0
176
     1
 90
       50
176
     1
 62
   256
176
     0
 40
1.0
176
     0
 90
        2
176
     1
  1
strokes_ogs.tif
176
     1
290
     0
176
     1
 40
1.0
176
     1
 40
1.0
176
     1
  0
VISUALSTYLE
  5
493
102
{ACAD_REACTORS
330
48D
102
}
330
48D
100
AcDbVisualStyle
  2
Wireframe
 70
     5
177
     3
291
     0
 70
    58
 90
        0
176
     1
 90
        2
176
     1
 90
        0
176
     1
 90
        0
176
     1
 40
0.6
176
     1
 40
30.0
176
     1
 62
     7
420
 16777215
176
     1
 90
        1
176
     1
 90
        4
176
     1
 62
     7
176
     1
 62
   257
176
     1
 90
        1
176
     1
 90
        1
176
     1
 40
1.0
176
     1
 90
        0
176
     1
 62
   257
176
     1
 40
1.0
176
     1
 90
        1
176
     1
 90
        6
176
     1
 90
        2
176
     1
 62
     7
176
     1
 90
        3
176
     1
 90
        0
176
     1
 90
        0
176
     1
290
     0
176
     1
 90
        1
176
     1
 40
0.0
176
     1
 90
        0
176
     1
290
     0
176
     1
290
     1
176
     1
290
     1
176
     1
290
     0
176
     1
290
     0
176
     1
290
     0
176
     1
290
     0
176
     1
290
     0
176
     1
290
     0
176
     1
 90
       50
176
     1
 40
0.0
176
     1
 40
1.0
176
     1
 90
        0
176
     1
 62
    18
420
        0
176
     1
 90
       50
176
     1
 90
        3
176
     1
 62
     5
420
      255
176
     1
290
     0
176
     1
 90
       50
176
     1
 90
       50
176
     1
 90
       50
176
     1
290
     0
176
     1
 90
       50
176
     1
 62
   256
176
     0
 40
1.0
176
     0
 90
        2
176
     1
  1
strokes_ogs.tif
176
     1
290
     0
176
     1
 40
1.0
176
     1
 40
1.0
176
     1
  0
VISUALSTYLE
  5
4A3
102
{ACAD_REACTORS
330
48D
102
}
330
48D
100
AcDbVisualStyle
  2
X-Ray
 70
    25
177
     3
291
     0
 70
    58
 90
        2
176
     1
 90
        2
176
     1
 90
        1
176
     1
 90
        1
176
     1
 40
0.5
176
     1
 40
30.0
176
     1
 62
     7
420
 16777215
176
     1
 90
        1
176
     1
 90
        0
176
     1
 62
     7
176
     1
 62
   257
176
     1
 90
        1
176
     1
 90
        1
176
     1
 40
1.0
176
     1
 90
        8
176
     1
 62
     7
176
     1
 40
1.0
176
     1
 90
        1
176
     1
 90
        6
176
     1
 90
        2
176
     1
 62
     7
176
     1
 90
        3
176
     1
 90
        0
176
     1
 90
        0
176
     1
290
     0
176
     1
 90
       13
176
     1
 40
0.0
176
     1
 90
        0
176
     1
290
     0
176
     1
290
     1
176
     1
290
     1
176
     1
290
     0
176
     1
290
     0
176
     1
290
     0
176
     1
290
     0
176
     1
290
     0
176
     1
290
     0
176
     1
 90
       50
176
     1
 40
0.0
176
     1
 40
1.0
176
     1
 90
        0
176
     1
 62
    18
420
        0
176
     1
 90
       50
176
     1
 90
        3
176
     1
 62
     5
420
      255
176
     1
290
     0
176
     1
 90
       50
176
     1
 90
       50
176
     1
 90
       50
176
     1
290
     0
176
     1
 90
       50
176
     1
 62
   256
176
     0
 40
1.0
176
     0
 90
        2
176
     1
  1
strokes_ogs.tif
176
     1
290
     0
176
     1
 40
1.0
176
     1
 40
1.0
176
     1
  0
DICTIONARYVAR
  5
4BC
102
{ACAD_REACTORS
330
4BB
102
}
330
4BB
100
DictionaryVariables
280
     0
  1
1:1
  0
DICTIONARYVAR
  5
4C0
102
{ACAD_REACTORS
330
4BB
102
}
330
4BB
100
DictionaryVariables
280
     0
  1
Standard
  0
CSACDOCUMENTOPTIONS
  5
4B1
102
{ACAD_REACTORS
330
4B0
102
}
330
4B0
  0
XRECORD
  5
4B5
102
{ACAD_REACTORS
330
4AC
102
}
330
4AC
100
AcDbXrecord
280
     1
300
MC_VERSION_DATA
 90
       95
310
0600000002000000570000001C000000E404000000000000000000007801936764E5D8CF7A8393818115C460606066E0646662626666706006F214793899F8DE3171E725E6E53B3BBA2878E6951050AF75FEFFFFFF520032DE0F3057000000
  0
XRECORD
  5
4AD
102
{ACAD_REACTORS
330
4AC
102
}
330
4AC
100
AcDbXrecord
280
     1
300
MCS_DOCUMENT_ID
 90
       60
310
0600000002000000150000001C000000E404000000000000000000007801E34D487E769167268FC3B25E47DD0395E78FFC07020069940BE215000000
  0
XRECORD
  5
4B3
102
{ACAD_REACTORS
330
4AC
102
}
330
4AC
100
AcDbXrecord
280
     1
300
MCS_PARAMS_DATA
 90
     3313
310
0600000002000000F64B00001C000000E404000000000000000000007801C55C5B905C45199EE99EBDCCE67E5DA218172C303B91307B4B8C459531245054850D55591F78B236BB49B9BAC9E6B22A082A9655BE5865596569A965F9209288CF16503EC8834088C10B092404211702988430422E9084CDAEFFD7A7FBF4DFA7CF
310
D9D99D9D39930798FF3F7DCEF7DFFAFBBBFBCC6CDBFC46297252EECB48F9CDF5ED5234493921A5206D76815820B252E4F3225F128D7D5F59BF69E3162948D9A2D485B3131313747328BF06593E960915079422437734AA3BDAA5CCD053F5ED4FD2557D257BAB94DF007A03479F859BB2B22193C9108EC1CDCADC0464C27506
310
28605703E48886E0B986E10F03BF91E33707F8E3140E7A9091C8268236920C1C662240B94888A1C8E07600AE99C32D5131CA8B3925D172EFE62D7D6D9DABBA8ADDD6F17CE16D13F0457AE8AC9268DE32DABF73B07FCFA013F9BF8491D7C17E2550D8E8FFCA8DFE4E98B3929B331718B291824FFF72EB941D9E8E2211D5A93C
310
784A44C557923911258BD0C8640531AEEC61A924855B11378280384364A422680C0A928DB9C10CD89D581114199665B722B26E4590C82B0222AB08FAA8A60626C028E0044F81BA246F5360E167F2D27C56A10E05C058C13C59DEC6207679103AFC5DEADF992F2B284F67B31C8EE359B64A9665A62453228F64269D98455E3B
310
A4B35817F7EC92C86FB8EFFE8DBD5BEEDBDCAB0CD3B5FC8E99065A7E55D536E39DE7826237F1C8BBBCB3CFADFC93302087C80397EE69C2FF69CA32234F0763E41851010DA578E8294D435524988818E84710A7B2643B4F7C034F6CE5C9368F203BE8094C6268541D70D35EE4B585DAE170F4942EB8D2D422560A9917F34B62
310
CE86919D9F1F6DDBB36DD770FFC0B6BC682E898607BEB5737424F8D83B323AF07529CFC0B69BB96D9FD3CFF9B410ED79B1A42416161FEA29AEEDEEEC5ADF532C76DEF3C5AEEEB5CAECF97A60330D2C1C3579EAD0DA7621F20269BD6768746FDBF0D0DE51F3B0EE356B3ABBD6F474F7740D76770EACED08FCFC92BEAF13F701
310
B5AF7FEBF0B6B691ED6D7D23C3DBF6F4EF840FDA9AD583C58E81E240FFEAADDD5BD70EAC0E669D2A25F27FB610851F9335859F059541B9E5971EC7A5A7E83F2CE53DB9A4040555A2661A4DDBF2C560B2E54E7D5483931EF871F7C88E5DFDA3435B878687461F6EDB313248FE3596847C70DBDEBC682809D13B22E56A5856E4
310
E9998738519B6E2A89DCE6EDDBDB542AF4E4380F8F61A4965F57116093E5A052A06AF588670205D9A715FB49B140D81A90855F902680EBB8B3A3187EEA96F2B224E392BAF898328CB1AD47DA34C1601A1B421AD816D190715CC3F276A5DE067C546F03AED6DB808FEB6DC0B57A1BB00853B49EB3E0937A47E07ABD0D188301
310
71CB797197D3603B1D06BFCB6DB024827C0C834324E60945463B3712E196397079076E990B47228783C8E09631B8F129C211385B3E540C97413DC70673C524DEAD70BD23917B079179B782793791AE77D944EFDCDC5529988B13E1069D6092C472A7F777A6F648E4C184C88239C8822913E16AE29D48176E29E0727C316496
310
EF2A967C95165E504B0C2B218EEE82DD5C63513CD614C5091F6D6FA7551865CC5C5030A1E0A3E84BEC86CFD04EC5DD01AA74CBDB05AB8C403295A124BB2908C4B032B4682A032283FB103E391B4E03172C7199C4E0F88E871E8855ADA1482D3238FA1846E0B807A77785BFF935FE1D74369F5647D0D171CA5F4F09337C2559
310
105132935A503D6DBC7A94B54D2B6DF1E0339960F436A97441791E5EC104D40283580888C4FDED577B1FD8B4B9AF6FE30605D8AAD7F1F34A62F6DD5BBEC62E92057A31FEA25A9DB3F5FBD3C1729D9CD723B0BF0DE8402BB05A67160DDE4416E59079C0D9EAA575B7321F67115FC018C76AB5B3A33D06B68CBD9BFBDC93C073
310
800CC384FD360C544F539B6F02B1820953BE9D01DE01C0D85A6C50369A5AC4065C7760793B965800321749E4B50891C0C2AB0CAE9808178444974C70F875952A9381563C01BE9D08EAFA481283ABD8C7EF7870DAABE068E68833DFAC8EA0A3E3F87C0B07AA507B2311F0889285BDC333294C4E2DB27C67BA70ABD2857B688A
310
70552AA7873DB8489E55063D5D2DCBE9BB9E49F1E554A5083C922EDCA3E9C27D2F5DB8EF7B705EE9D87E1E920E88313AAE6AECF4FBD668D3D30DB4E51ADA9BEDB0D7AFCEB4DDED85F7C4ECF6551B3BCE2AFF6E835E49458EC94883D6E73C45753FAE614C3C0A0362777435D915EC025C33F7578776011DE6F3D066954C59D6
310
D76F86AC9CD58A53F4122CF0552BAE070AEA3B5AF15752304F1F47569D50AB71F41A31FA5A51C904CD43C6B0F51D2ACEFC112ACC4CC1B0FF086CE7AD5A4D096A005126387AAD451EE384D9C035A925859E39C1AA865EE9A9B8DA21CEE289167F7CF1D4C4BC7A125EC5AED5D8BB0B5A9D9144D134CFA71BF85A8D44BE568348
310
F6AA55A2F3CAEA4F6982FD21118CC249D3CBF852A586F244BA70FBD285DB9F085793EDE56E143F0AD06C6B4CB2242BDD3DD1419166C2865E81F9CE1648F3CBD84597B22E28992A3DDCE24C77F3F311A01C8A722828EC3CF15F7D987933F818F8E59BC138E5CD4CE8AC24C94E68BA32F5C3CBAB808B6B06B9936E642F9F804C
310
903AF2F3709D37832318A078E4B37AEBDCFAA66859945B9EBB25776BAE2DD3995995E9CA1433DDFA4DAC7ECE6FE93696E96BB06712968ED2661884A9EE40230F60D0D73DE8C858453B9E8E4212D5A9B0784A762662599FEDD18C9299F4094C728A91F536658E91CDA6DFC8E89F363B15B4CB31404FD2581CF722BBF229B517
310
430944E56AB2E2A8E3461950730F2B7ECA7BC570E389706E8BA9D241C744225C40C29385944F707279EA277D998065D9EAD604B1263E66D38513E9C2490F4EE7CC6E8AA89C3D9DA588701CA708AB6414C194931EE3FC0D4515D71A4FBFE712F8CB4A26532A6E8DCF01CA61A3745BE3F3C09F6E6B442F0CD7BAD36A8D2F002E
310
AE359E3BE646F6B8926D6BBC0CD9926FBEF08C5220B9BAE91D0E14769FF44B52301E3C00E8FA74C117BD24F396E22C7F1005F2DA2902EB76053DE720B0D3EE397F2F036AE8B24A3DE750225C4DF8F8A544B81AF69C7F2482D6C4C77F067093EF36FE359541FF8E0E8A50399BA22F63681CEF0EBDEBB2C3834A9E09EF1E0654
310
1D79F708F0A7CBBB956F495E015C1CEFEE3EEC46B65FC996771F856C09285F58A7148C77872F6104D6DC9A8897D30896D457015D1FDE3DEA25B91CEFF2EBD6EB0A68F718A0D3A6DDD7CA805699768F27C2D584925E4F84AB9476A39B03E744D09CD6610FF59F44E89A78FA46BA70DDDE0ADC144A4DBCEBF1E0221D416DC23D
310
1D715254A766A8A7AC60C1FF26021ED7783E889CD89C52F24C1ACF0940D5B1F19C047E7A8DE714E0E21ACFD5436EE339AB64DB78E44B91C6730003ECCB897CE1D28548E3798246B0C6731AD0536D3CB3E90740046E0B5FD5161351555C247A084506FA9607AAEBD39C44F1E2B63A5BDCA18E17B755B2E2664A322602C34C3A
310
0393625B51C09BC60D77315EF1E1C8DB80730A9C37D5B8CD0EBF3EA3A6FB4EA2A7C18B1B2746D53A5F7BB70C687C78291FE10E3A386EE3054657F9CB297E9CF703B0E71DFC4DA3397B4068C3CF33A1A81F02C2C920DB8E7ABF712005813923946BAE06DE453454B45CC32AF6311810C751E3F85A979E7874424F9299B34AB2
310
210DC430A45A3473162283FB2F3218C7FE178FBB1CF59692CDAD957C0DECAC3739580882F7E26636C4FC0874E66F42CE013F2EB274A4C323CBB88082C5B980AE4CFD4DC879C0C5B1FFF5E7DDC89E57324556799F2F34BC006EC70CD18A8318C0D9FF0AB6807CDBB19F46B0A4BE07E8B4D9FF8207EA504E3D7E65FA3E4C7226
310
B329B0E8D703AAFEBAA304E869379E693123CD68457958A4FF2F11AE86ECFF4119D078F6E7138AD87FF2370F86D6E1E38789702D76FED2134932CCA824CB8C811832A3160D33426421BD980847AF6F0C11D33DEECB1CFE9B7175D1F926045DE5BD8DBFBDBE94081764D0049324E6DDB40A8607F372225C4D16463974B5B836
310
F393232E193EA2E499B49986C93A780A6DA631A981D7A6CD34012EAECDFCFC5937B23F52B26D33BF83CCDBCC56A5C0ECD07DE7A7A7226D661D8D6033A419D0536D33E07F56B8C4CA7C0D48229F9610695A461A0883CE7B494E8DD95B004DF38E8247AB09FE45AC1A52EDAC32A0861DD8DA85D8A76276989D08579353913989
310
700119397510D9BB4CAB9DF096393711B4263ECE4B176E7EBA700B3C389DB3F0B5335AA6A7234288EA142D784A9083AFB414616018456CF24C3293C4CD2F49D3E5A5F0410CEE7E0F2E6A6FEA11580893E29AEE529C2FC11C4DF48D4AA628982DB44A422820F8563073C8F989CF2240392BED74F7768B819FDEDE6E09E0E29A
310
EE72FA030B3CB273954C91D5916E87CC9BEEFB4FAB1E6B73B10CFB6CBEB73B4423589D2D05F4CC9AAE2E4C768646F0614DBB4BD40606DDEA2539B5A67B13A0D36EBACBCA809A9055A7E9E24B8E0D79912B896C91FE0C1655C17843E129FA335B3277F4E8510807513CB9CC44868E210AF7FE19028691B0917E39482B125CF8
310
D4FF01F0B312DAF64B0000
  0
TABLECONTENT
  5
4B7
330
4BA
100
AcDbLinkedData
  1

300

100
AcDbLinkedTableData
 90
        5
300
COLUMN
  1
LINKEDTABLEDATACOLUMN_BEGIN
300

 91
        0
301
CUSTOMDATA
  1
DATAMAP_BEGIN
 90
        0
309
DATAMAP_END
309
LINKEDTABLEDATACOLUMN_END
  1
FORMATTEDTABLEDATACOLUMN_BEGIN
300
COLUMNTABLEFORMAT
  1
TABLEFORMAT_BEGIN
 90
        3
170
     0
309
TABLEFORMAT_END
309
FORMATTEDTABLEDATACOLUMN_END
  1
TABLECOLUMN_BEGIN
 90
        0
 40
10.0
309
TABLECOLUMN_END
300
COLUMN
  1
LINKEDTABLEDATACOLUMN_BEGIN
300

 91
        0
301
CUSTOMDATA
  1
DATAMAP_BEGIN
 90
        0
309
DATAMAP_END
309
LINKEDTABLEDATACOLUMN_END
  1
FORMATTEDTABLEDATACOLUMN_BEGIN
300
COLUMNTABLEFORMAT
  1
TABLEFORMAT_BEGIN
 90
        3
170
     0
309
TABLEFORMAT_END
309
FORMATTEDTABLEDATACOLUMN_END
  1
TABLECOLUMN_BEGIN
 90
        0
 40
10.0
309
TABLECOLUMN_END
300
COLUMN
  1
LINKEDTABLEDATACOLUMN_BEGIN
300

 91
        0
301
CUSTOMDATA
  1
DATAMAP_BEGIN
 90
        0
309
DATAMAP_END
309
LINKEDTABLEDATACOLUMN_END
  1
FORMATTEDTABLEDATACOLUMN_BEGIN
300
COLUMNTABLEFORMAT
  1
TABLEFORMAT_BEGIN
 90
        3
170
     0
309
TABLEFORMAT_END
309
FORMATTEDTABLEDATACOLUMN_END
  1
TABLECOLUMN_BEGIN
 90
        0
 40
10.0
309
TABLECOLUMN_END
300
COLUMN
  1
LINKEDTABLEDATACOLUMN_BEGIN
300

 91
        0
301
CUSTOMDATA
  1
DATAMAP_BEGIN
 90
        0
309
DATAMAP_END
309
LINKEDTABLEDATACOLUMN_END
  1
FORMATTEDTABLEDATACOLUMN_BEGIN
300
COLUMNTABLEFORMAT
  1
TABLEFORMAT_BEGIN
 90
        3
170
     0
309
TABLEFORMAT_END
309
FORMATTEDTABLEDATACOLUMN_END
  1
TABLECOLUMN_BEGIN
 90
        0
 40
40.0
309
TABLECOLUMN_END
300
COLUMN
  1
LINKEDTABLEDATACOLUMN_BEGIN
300

 91
        0
301
CUSTOMDATA
  1
DATAMAP_BEGIN
 90
        0
309
DATAMAP_END
309
LINKEDTABLEDATACOLUMN_END
  1
FORMATTEDTABLEDATACOLUMN_BEGIN
300
COLUMNTABLEFORMAT
  1
TABLEFORMAT_BEGIN
 90
        3
170
     0
309
TABLEFORMAT_END
309
FORMATTEDTABLEDATACOLUMN_END
  1
TABLECOLUMN_BEGIN
 90
        0
 40
20.0
309
TABLECOLUMN_END
 91
        5
301
ROW
  1
LINKEDTABLEDATAROW_BEGIN
 90
        5
300
CELL
  1
LINKEDTABLEDATACELL_BEGIN
 90
        0
300

 91
        0
301
CUSTOMDATA
  1
DATAMAP_BEGIN
 90
        1
300
ACAD_ROUNDTRIP_2008_CELL_CHECKSUM
301
DATAMAP_VALUE
 93
        2
 90
        2
140
32.0
 94
        0
300

302

304
ACVALUE_END
309
DATAMAP_END
 92
        0
 95
        1
302
CONTENT
  1
CELLCONTENT_BEGIN
 90
        1
300
VALUE
 93
        2
 90
        4
  1
 
 94
        0
300

302
 
304
ACVALUE_END
 91
        0
309
CELLCONTENT_END
  1
FORMATTEDCELLCONTENT_BEGIN
170
     1
300
CONTENTFORMAT
  1
CONTENTFORMAT_BEGIN
 90
      132
 91
        0
 92
      512
 93
        0
300

 40
0.0
140
1.0
 94
        1
 62
     0
340
0
144
3.5
309
CONTENTFORMAT_END
309
FORMATTEDCELLCONTENT_END
309
LINKEDTABLEDATACELL_END
  1
FORMATTEDTABLEDATACELL_BEGIN
300
CELLTABLEFORMAT
  1
TABLEFORMAT_BEGIN
 90
        1
170
     1
 91
        0
 92
        0
 62
   257
 93
        1
300
CONTENTFORMAT
  1
CONTENTFORMAT_BEGIN
 90
        0
 91
        0
 92
      512
 93
        0
300

 40
0.0
140
1.0
 94
        1
 62
     0
340
0
144
0.18
309
CONTENTFORMAT_END
171
     0
 94
        0
309
TABLEFORMAT_END
309
FORMATTEDTABLEDATACELL_END
  1
TABLECELL_BEGIN
 90
        0
 91
        0
309
TABLECELL_END
300
CELL
  1
LINKEDTABLEDATACELL_BEGIN
 90
        0
300

 91
        0
301
CUSTOMDATA
  1
DATAMAP_BEGIN
 90
        0
309
DATAMAP_END
 92
        0
 95
        0
309
LINKEDTABLEDATACELL_END
  1
FORMATTEDTABLEDATACELL_BEGIN
300
CELLTABLEFORMAT
  1
TABLEFORMAT_BEGIN
 90
        1
170
     1
 91
        0
 92
        0
 62
   257
 93
        1
300
CONTENTFORMAT
  1
CONTENTFORMAT_BEGIN
 90
        0
 91
        0
 92
      512
 93
        0
300

 40
0.0
140
1.0
 94
        1
 62
     0
340
0
144
0.18
309
CONTENTFORMAT_END
171
     0
 94
        0
309
TABLEFORMAT_END
309
FORMATTEDTABLEDATACELL_END
  1
TABLECELL_BEGIN
 90
        0
 91
        0
309
TABLECELL_END
300
CELL
  1
LINKEDTABLEDATACELL_BEGIN
 90
        0
300

 91
        0
301
CUSTOMDATA
  1
DATAMAP_BEGIN
 90
        0
309
DATAMAP_END
 92
        0
 95
        0
309
LINKEDTABLEDATACELL_END
  1
FORMATTEDTABLEDATACELL_BEGIN
300
CELLTABLEFORMAT
  1
TABLEFORMAT_BEGIN
 90
        1
170
     1
 91
        0
 92
        0
 62
   257
 93
        1
300
CONTENTFORMAT
  1
CONTENTFORMAT_BEGIN
 90
        0
 91
        0
 92
      512
 93
        0
300

 40
0.0
140
1.0
 94
        1
 62
     0
340
0
144
0.18
309
CONTENTFORMAT_END
171
     0
 94
        0
309
TABLEFORMAT_END
309
FORMATTEDTABLEDATACELL_END
  1
TABLECELL_BEGIN
 90
        0
 91
        0
309
TABLECELL_END
300
CELL
  1
LINKEDTABLEDATACELL_BEGIN
 90
        0
300

 91
        0
301
CUSTOMDATA
  1
DATAMAP_BEGIN
 90
        1
300
ACAD_ROUNDTRIP_2008_CELL_CHECKSUM
301
DATAMAP_VALUE
 93
        2
 90
        2
140
3421.0
 94
        0
300

302

304
ACVALUE_END
309
DATAMAP_END
 92
        0
 95
        1
302
CONTENT
  1
CELLCONTENT_BEGIN
 90
        1
300
VALUE
 93
        2
 90
        4
  1
A080_C_403
 94
        0
300

302
A080_C_403
304
ACVALUE_END
 91
        0
309
CELLCONTENT_END
  1
FORMATTEDCELLCONTENT_BEGIN
170
     1
300
CONTENTFORMAT
  1
CONTENTFORMAT_BEGIN
 90
      132
 91
        0
 92
      512
 93
        0
300

 40
0.0
140
1.0
 94
        1
 62
     0
340
0
144
3.0
309
CONTENTFORMAT_END
309
FORMATTEDCELLCONTENT_END
309
LINKEDTABLEDATACELL_END
  1
FORMATTEDTABLEDATACELL_BEGIN
300
CELLTABLEFORMAT
  1
TABLEFORMAT_BEGIN
 90
        1
170
     1
 91
       16
 92
        0
 62
   257
 93
        1
300
CONTENTFORMAT
  1
CONTENTFORMAT_BEGIN
 90
       16
 91
        0
 92
      512
 93
        0
300

 40
0.0
140
1.0
 94
        4
 62
     0
340
0
144
0.18
309
CONTENTFORMAT_END
171
     0
 94
        4
 95
        1
302
GRIDFORMAT
  1
GRIDFORMAT_BEGIN
 90
       26
 91
        1
 62
     0
 92
       -2
340
0
 93
        0
 40
0.045
309
GRIDFORMAT_END
 95
        4
302
GRIDFORMAT
  1
GRIDFORMAT_BEGIN
 90
       26
 91
        1
 62
     0
 92
       -2
340
0
 93
        0
 40
0.045
309
GRIDFORMAT_END
 95
        8
302
GRIDFORMAT
  1
GRIDFORMAT_BEGIN
 90
       26
 91
        1
 62
     0
 92
       -2
340
0
 93
        0
 40
0.045
309
GRIDFORMAT_END
 95
       32
302
GRIDFORMAT
  1
GRIDFORMAT_BEGIN
 90
       26
 91
        1
 62
     0
 92
       -2
340
0
 93
        0
 40
0.045
309
GRIDFORMAT_END
309
TABLEFORMAT_END
309
FORMATTEDTABLEDATACELL_END
  1
TABLECELL_BEGIN
 90
        0
 91
        0
309
TABLECELL_END
300
CELL
  1
LINKEDTABLEDATACELL_BEGIN
 90
        0
300

 91
        0
301
CUSTOMDATA
  1
DATAMAP_BEGIN
 90
        1
300
ACAD_ROUNDTRIP_2008_CELL_CHECKSUM
301
DATAMAP_VALUE
 93
        2
 90
        2
140
1398.0
 94
        0
300

302

304
ACVALUE_END
309
DATAMAP_END
 92
        0
 95
        1
302
CONTENT
  1
CELLCONTENT_BEGIN
 90
        1
300
VALUE
 93
        2
 90
        4
  1
Rev:00
 94
        0
300

302
Rev:00
304
ACVALUE_END
 91
        0
309
CELLCONTENT_END
  1
FORMATTEDCELLCONTENT_BEGIN
170
     1
300
CONTENTFORMAT
  1
CONTENTFORMAT_BEGIN
 90
      132
 91
        0
 92
      512
 93
        0
300

 40
0.0
140
1.0
 94
        1
 62
     0
340
0
144
3.5
309
CONTENTFORMAT_END
309
FORMATTEDCELLCONTENT_END
309
LINKEDTABLEDATACELL_END
  1
FORMATTEDTABLEDATACELL_BEGIN
300
CELLTABLEFORMAT
  1
TABLEFORMAT_BEGIN
 90
        1
170
     1
 91
       16
 92
        0
 62
   257
 93
        1
300
CONTENTFORMAT
  1
CONTENTFORMAT_BEGIN
 90
       16
 91
        0
 92
      512
 93
        0
300

 40
0.0
140
1.0
 94
        4
 62
     0
340
0
144
0.18
309
CONTENTFORMAT_END
171
     0
 94
        4
 95
        1
302
GRIDFORMAT
  1
GRIDFORMAT_BEGIN
 90
       26
 91
        1
 62
     0
 92
       -2
340
0
 93
        0
 40
0.045
309
GRIDFORMAT_END
 95
        4
302
GRIDFORMAT
  1
GRIDFORMAT_BEGIN
 90
       26
 91
        1
 62
     0
 92
       -2
340
0
 93
        0
 40
0.045
309
GRIDFORMAT_END
 95
        8
302
GRIDFORMAT
  1
GRIDFORMAT_BEGIN
 90
       26
 91
        1
 62
     0
 92
       -2
340
0
 93
        0
 40
0.045
309
GRIDFORMAT_END
 95
       32
302
GRIDFORMAT
  1
GRIDFORMAT_BEGIN
 90
       26
 91
        1
 62
     0
 92
       -2
340
0
 93
        0
 40
0.045
309
GRIDFORMAT_END
309
TABLEFORMAT_END
309
FORMATTEDTABLEDATACELL_END
  1
TABLECELL_BEGIN
 90
        0
 91
        0
309
TABLECELL_END
 91
        0
301
CUSTOMDATA
  1
DATAMAP_BEGIN
 90
        0
309
DATAMAP_END
309
LINKEDTABLEDATAROW_END
  1
FORMATTEDTABLEDATAROW_BEGIN
300
ROWTABLEFORMAT
  1
TABLEFORMAT_BEGIN
 90
        2
170
     0
309
TABLEFORMAT_END
309
FORMATTEDTABLEDATAROW_END
  1
TABLEROW_BEGIN
 90
        1
 40
6.0
309
TABLEROW_END
301
ROW
  1
LINKEDTABLEDATAROW_BEGIN
 90
        5
300
CELL
  1
LINKEDTABLEDATACELL_BEGIN
 90
        0
300

 91
        0
301
CUSTOMDATA
  1
DATAMAP_BEGIN
 90
        0
309
DATAMAP_END
 92
        0
 95
        0
309
LINKEDTABLEDATACELL_END
  1
FORMATTEDTABLEDATACELL_BEGIN
300
CELLTABLEFORMAT
  1
TABLEFORMAT_BEGIN
 90
        1
170
     1
 91
        0
 92
        0
 62
   257
 93
        1
300
CONTENTFORMAT
  1
CONTENTFORMAT_BEGIN
 90
        0
 91
        0
 92
      512
 93
        0
300

 40
0.0
140
1.0
 94
        1
 62
     0
340
0
144
0.18
309
CONTENTFORMAT_END
171
     0
 94
        0
309
TABLEFORMAT_END
309
FORMATTEDTABLEDATACELL_END
  1
TABLECELL_BEGIN
 90
        0
 91
        0
309
TABLECELL_END
300
CELL
  1
LINKEDTABLEDATACELL_BEGIN
 90
        0
300

 91
        0
301
CUSTOMDATA
  1
DATAMAP_BEGIN
 90
        0
309
DATAMAP_END
 92
        0
 95
        0
309
LINKEDTABLEDATACELL_END
  1
FORMATTEDTABLEDATACELL_BEGIN
300
CELLTABLEFORMAT
  1
TABLEFORMAT_BEGIN
 90
        1
170
     1
 91
        0
 92
        0
 62
   257
 93
        1
300
CONTENTFORMAT
  1
CONTENTFORMAT_BEGIN
 90
        0
 91
        0
 92
      512
 93
        0
300

 40
0.0
140
1.0
 94
        1
 62
     0
340
0
144
0.18
309
CONTENTFORMAT_END
171
     0
 94
        0
309
TABLEFORMAT_END
309
FORMATTEDTABLEDATACELL_END
  1
TABLECELL_BEGIN
 90
        0
 91
        0
309
TABLECELL_END
300
CELL
  1
LINKEDTABLEDATACELL_BEGIN
 90
        0
300

 91
        0
301
CUSTOMDATA
  1
DATAMAP_BEGIN
 90
        0
309
DATAMAP_END
 92
        0
 95
        0
309
LINKEDTABLEDATACELL_END
  1
FORMATTEDTABLEDATACELL_BEGIN
300
CELLTABLEFORMAT
  1
TABLEFORMAT_BEGIN
 90
        1
170
     1
 91
        0
 92
        0
 62
   257
 93
        1
300
CONTENTFORMAT
  1
CONTENTFORMAT_BEGIN
 90
        0
 91
        0
 92
      512
 93
        0
300

 40
0.0
140
1.0
 94
        1
 62
     0
340
0
144
0.18
309
CONTENTFORMAT_END
171
     0
 94
        0
309
TABLEFORMAT_END
309
FORMATTEDTABLEDATACELL_END
  1
TABLECELL_BEGIN
 90
        0
 91
        0
309
TABLECELL_END
300
CELL
  1
LINKEDTABLEDATACELL_BEGIN
 90
        0
300

 91
        0
301
CUSTOMDATA
  1
DATAMAP_BEGIN
 90
        1
300
ACAD_ROUNDTRIP_2008_CELL_CHECKSUM
301
DATAMAP_VALUE
 93
        2
 90
        2
140
3105.0
 94
        0
300

302

304
ACVALUE_END
309
DATAMAP_END
 92
        0
 95
        1
302
CONTENT
  1
CELLCONTENT_BEGIN
 90
        1
300
VALUE
 93
        2
 90
        4
  1
Scale:1:1
 94
        0
300

302
Scale:1:1
304
ACVALUE_END
 91
        0
309
CELLCONTENT_END
  1
FORMATTEDCELLCONTENT_BEGIN
170
     1
300
CONTENTFORMAT
  1
CONTENTFORMAT_BEGIN
 90
      132
 91
        0
 92
      512
 93
        0
300

 40
0.0
140
1.0
 94
        1
 62
     0
340
0
144
3.5
309
CONTENTFORMAT_END
309
FORMATTEDCELLCONTENT_END
309
LINKEDTABLEDATACELL_END
  1
FORMATTEDTABLEDATACELL_BEGIN
300
CELLTABLEFORMAT
  1
TABLEFORMAT_BEGIN
 90
        1
170
     1
 91
       16
 92
        0
 62
   257
 93
        1
300
CONTENTFORMAT
  1
CONTENTFORMAT_BEGIN
 90
       16
 91
        0
 92
      512
 93
        0
300

 40
0.0
140
1.0
 94
        1
 62
     0
340
0
144
0.18
309
CONTENTFORMAT_END
171
     0
 94
        4
 95
        1
302
GRIDFORMAT
  1
GRIDFORMAT_BEGIN
 90
       26
 91
        1
 62
     0
 92
       -2
340
0
 93
        0
 40
0.045
309
GRIDFORMAT_END
 95
        4
302
GRIDFORMAT
  1
GRIDFORMAT_BEGIN
 90
       26
 91
        1
 62
     0
 92
       -2
340
0
 93
        0
 40
0.045
309
GRIDFORMAT_END
 95
        8
302
GRIDFORMAT
  1
GRIDFORMAT_BEGIN
 90
       26
 91
        1
 62
     0
 92
       -2
340
0
 93
        0
 40
0.045
309
GRIDFORMAT_END
 95
       32
302
GRIDFORMAT
  1
GRIDFORMAT_BEGIN
 90
       26
 91
        1
 62
     0
 92
       -2
340
0
 93
        0
 40
0.045
309
GRIDFORMAT_END
309
TABLEFORMAT_END
309
FORMATTEDTABLEDATACELL_END
  1
TABLECELL_BEGIN
 90
        0
 91
        0
309
TABLECELL_END
300
CELL
  1
LINKEDTABLEDATACELL_BEGIN
 90
        0
300

 91
        0
301
CUSTOMDATA
  1
DATAMAP_BEGIN
 90
        1
300
ACAD_ROUNDTRIP_2008_CELL_CHECKSUM
301
DATAMAP_VALUE
 93
        2
 90
        2
140
161.0
 94
        0
300

302

304
ACVALUE_END
309
DATAMAP_END
 92
        0
 95
        1
302
CONTENT
  1
CELLCONTENT_BEGIN
 90
        1
300
VALUE
 93
        2
 90
        4
  1
A0
 94
        0
300

302
A0
304
ACVALUE_END
 91
        0
309
CELLCONTENT_END
  1
FORMATTEDCELLCONTENT_BEGIN
170
     1
300
CONTENTFORMAT
  1
CONTENTFORMAT_BEGIN
 90
      132
 91
        0
 92
      512
 93
        0
300

 40
0.0
140
1.0
 94
        1
 62
     0
340
0
144
3.5
309
CONTENTFORMAT_END
309
FORMATTEDCELLCONTENT_END
309
LINKEDTABLEDATACELL_END
  1
FORMATTEDTABLEDATACELL_BEGIN
300
CELLTABLEFORMAT
  1
TABLEFORMAT_BEGIN
 90
        1
170
     1
 91
       16
 92
        0
 62
   257
 93
        1
300
CONTENTFORMAT
  1
CONTENTFORMAT_BEGIN
 90
       16
 91
        0
 92
      512
 93
        0
300

 40
0.0
140
1.0
 94
        4
 62
     0
340
0
144
0.18
309
CONTENTFORMAT_END
171
     0
 94
        4
 95
        1
302
GRIDFORMAT
  1
GRIDFORMAT_BEGIN
 90
       26
 91
        1
 62
     0
 92
       -2
340
0
 93
        0
 40
0.045
309
GRIDFORMAT_END
 95
        4
302
GRIDFORMAT
  1
GRIDFORMAT_BEGIN
 90
       26
 91
        1
 62
     0
 92
       -2
340
0
 93
        0
 40
0.045
309
GRIDFORMAT_END
 95
        8
302
GRIDFORMAT
  1
GRIDFORMAT_BEGIN
 90
       26
 91
        1
 62
     0
 92
       -2
340
0
 93
        0
 40
0.045
309
GRIDFORMAT_END
 95
       32
302
GRIDFORMAT
  1
GRIDFORMAT_BEGIN
 90
       26
 91
        1
 62
     0
 92
       -2
340
0
 93
        0
 40
0.045
309
GRIDFORMAT_END
309
TABLEFORMAT_END
309
FORMATTEDTABLEDATACELL_END
  1
TABLECELL_BEGIN
 90
        0
 91
        0
309
TABLECELL_END
 91
        0
301
CUSTOMDATA
  1
DATAMAP_BEGIN
 90
        0
309
DATAMAP_END
309
LINKEDTABLEDATAROW_END
  1
FORMATTEDTABLEDATAROW_BEGIN
300
ROWTABLEFORMAT
  1
TABLEFORMAT_BEGIN
 90
        2
170
     0
309
TABLEFORMAT_END
309
FORMATTEDTABLEDATAROW_END
  1
TABLEROW_BEGIN
 90
        2
 40
6.0
309
TABLEROW_END
301
ROW
  1
LINKEDTABLEDATAROW_BEGIN
 90
        5
300
CELL
  1
LINKEDTABLEDATACELL_BEGIN
 90
        0
300

 91
        0
301
CUSTOMDATA
  1
DATAMAP_BEGIN
 90
        0
309
DATAMAP_END
 92
        0
 95
        0
309
LINKEDTABLEDATACELL_END
  1
FORMATTEDTABLEDATACELL_BEGIN
300
CELLTABLEFORMAT
  1
TABLEFORMAT_BEGIN
 90
        1
170
     1
 91
        0
 92
        0
 62
   257
 93
        1
300
CONTENTFORMAT
  1
CONTENTFORMAT_BEGIN
 90
        0
 91
        0
 92
      512
 93
        0
300

 40
0.0
140
1.0
 94
        1
 62
     0
340
0
144
0.18
309
CONTENTFORMAT_END
171
     0
 94
        0
309
TABLEFORMAT_END
309
FORMATTEDTABLEDATACELL_END
  1
TABLECELL_BEGIN
 90
        0
 91
        0
309
TABLECELL_END
300
CELL
  1
LINKEDTABLEDATACELL_BEGIN
 90
        0
300

 91
        0
301
CUSTOMDATA
  1
DATAMAP_BEGIN
 90
        0
309
DATAMAP_END
 92
        0
 95
        0
309
LINKEDTABLEDATACELL_END
  1
FORMATTEDTABLEDATACELL_BEGIN
300
CELLTABLEFORMAT
  1
TABLEFORMAT_BEGIN
 90
        1
170
     1
 91
        0
 92
        0
 62
   257
 93
        1
300
CONTENTFORMAT
  1
CONTENTFORMAT_BEGIN
 90
        0
 91
        0
 92
      512
 93
        0
300

 40
0.0
140
1.0
 94
        1
 62
     0
340
0
144
0.18
309
CONTENTFORMAT_END
171
     0
 94
        0
309
TABLEFORMAT_END
309
FORMATTEDTABLEDATACELL_END
  1
TABLECELL_BEGIN
 90
        0
 91
        0
309
TABLECELL_END
300
CELL
  1
LINKEDTABLEDATACELL_BEGIN
 90
        0
300

 91
        0
301
CUSTOMDATA
  1
DATAMAP_BEGIN
 90
        0
309
DATAMAP_END
 92
        0
 95
        0
309
LINKEDTABLEDATACELL_END
  1
FORMATTEDTABLEDATACELL_BEGIN
300
CELLTABLEFORMAT
  1
TABLEFORMAT_BEGIN
 90
        1
170
     1
 91
        0
 92
        0
 62
   257
 93
        1
300
CONTENTFORMAT
  1
CONTENTFORMAT_BEGIN
 90
        0
 91
        0
 92
      512
 93
        0
300

 40
0.0
140
1.0
 94
        1
 62
     0
340
0
144
0.18
309
CONTENTFORMAT_END
171
     0
 94
        0
309
TABLEFORMAT_END
309
FORMATTEDTABLEDATACELL_END
  1
TABLECELL_BEGIN
 90
        0
 91
        0
309
TABLECELL_END
300
CELL
  1
LINKEDTABLEDATACELL_BEGIN
 90
        0
300

 91
        0
301
CUSTOMDATA
  1
DATAMAP_BEGIN
 90
        1
300
ACAD_ROUNDTRIP_2008_CELL_CHECKSUM
301
DATAMAP_VALUE
 93
        2
 90
        2
140
43988.0
 94
        0
300

302

304
ACVALUE_END
309
DATAMAP_END
 92
        0
 95
        1
302
CONTENT
  1
CELLCONTENT_BEGIN
 90
        1
300
VALUE
 93
        2
 90
        4
  1
WMA02N - COPPIA STAFFE 140mm NEVA 3-4
 94
        0
300

302
WMA02N - COPPIA STAFFE 140mm NEVA 3-4
304
ACVALUE_END
 91
        0
309
CELLCONTENT_END
  1
FORMATTEDCELLCONTENT_BEGIN
170
     1
300
CONTENTFORMAT
  1
CONTENTFORMAT_BEGIN
 90
      132
 91
        0
 92
      512
 93
        0
300

 40
0.0
140
1.0
 94
        1
 62
     0
340
0
144
1.9
309
CONTENTFORMAT_END
309
FORMATTEDCELLCONTENT_END
309
LINKEDTABLEDATACELL_END
  1
FORMATTEDTABLEDATACELL_BEGIN
300
CELLTABLEFORMAT
  1
TABLEFORMAT_BEGIN
 90
        1
170
     1
 91
       16
 92
        0
 62
   257
 93
        1
300
CONTENTFORMAT
  1
CONTENTFORMAT_BEGIN
 90
       16
 91
        0
 92
      512
 93
        0
300

 40
0.0
140
1.0
 94
        4
 62
     0
340
0
144
0.18
309
CONTENTFORMAT_END
171
     0
 94
        4
 95
        1
302
GRIDFORMAT
  1
GRIDFORMAT_BEGIN
 90
       26
 91
        1
 62
     0
 92
       -2
340
0
 93
        0
 40
0.045
309
GRIDFORMAT_END
 95
        4
302
GRIDFORMAT
  1
GRIDFORMAT_BEGIN
 90
       26
 91
        1
 62
     0
 92
       -2
340
0
 93
        0
 40
0.045
309
GRIDFORMAT_END
 95
        8
302
GRIDFORMAT
  1
GRIDFORMAT_BEGIN
 90
       26
 91
        1
 62
     0
 92
       -2
340
0
 93
        0
 40
0.045
309
GRIDFORMAT_END
 95
       32
302
GRIDFORMAT
  1
GRIDFORMAT_BEGIN
 90
       26
 91
        1
 62
     0
 92
       -2
340
0
 93
        0
 40
0.045
309
GRIDFORMAT_END
309
TABLEFORMAT_END
309
FORMATTEDTABLEDATACELL_END
  1
TABLECELL_BEGIN
 90
        0
 91
        0
309
TABLECELL_END
300
CELL
  1
LINKEDTABLEDATACELL_BEGIN
 90
        0
300

 91
        0
301
CUSTOMDATA
  1
DATAMAP_BEGIN
 90
        0
309
DATAMAP_END
 92
        0
 95
        0
309
LINKEDTABLEDATACELL_END
  1
FORMATTEDTABLEDATACELL_BEGIN
300
CELLTABLEFORMAT
  1
TABLEFORMAT_BEGIN
 90
        1
170
     1
 91
        0
 92
        0
 62
   257
 93
        1
300
CONTENTFORMAT
  1
CONTENTFORMAT_BEGIN
 90
        0
 91
        0
 92
      512
 93
        0
300

 40
0.0
140
1.0
 94
        1
 62
     0
340
0
144
0.18
309
CONTENTFORMAT_END
171
     0
 94
        0
309
TABLEFORMAT_END
309
FORMATTEDTABLEDATACELL_END
  1
TABLECELL_BEGIN
 90
        0
 91
        0
309
TABLECELL_END
 91
        0
301
CUSTOMDATA
  1
DATAMAP_BEGIN
 90
        0
309
DATAMAP_END
309
LINKEDTABLEDATAROW_END
  1
FORMATTEDTABLEDATAROW_BEGIN
300
ROWTABLEFORMAT
  1
TABLEFORMAT_BEGIN
 90
        2
170
     0
309
TABLEFORMAT_END
309
FORMATTEDTABLEDATAROW_END
  1
TABLEROW_BEGIN
 90
        3
 40
10.0
309
TABLEROW_END
301
ROW
  1
LINKEDTABLEDATAROW_BEGIN
 90
        5
300
CELL
  1
LINKEDTABLEDATACELL_BEGIN
 90
        0
300

 91
        0
301
CUSTOMDATA
  1
DATAMAP_BEGIN
 90
        0
309
DATAMAP_END
 92
        0
 95
        0
309
LINKEDTABLEDATACELL_END
  1
FORMATTEDTABLEDATACELL_BEGIN
300
CELLTABLEFORMAT
  1
TABLEFORMAT_BEGIN
 90
        1
170
     1
 91
        0
 92
        0
 62
   257
 93
        1
300
CONTENTFORMAT
  1
CONTENTFORMAT_BEGIN
 90
        0
 91
        0
 92
      512
 93
        0
300

 40
0.0
140
1.0
 94
        1
 62
     0
340
0
144
0.18
309
CONTENTFORMAT_END
171
     0
 94
        0
309
TABLEFORMAT_END
309
FORMATTEDTABLEDATACELL_END
  1
TABLECELL_BEGIN
 90
        0
 91
        0
309
TABLECELL_END
300
CELL
  1
LINKEDTABLEDATACELL_BEGIN
 90
        0
300

 91
        0
301
CUSTOMDATA
  1
DATAMAP_BEGIN
 90
        0
309
DATAMAP_END
 92
        0
 95
        0
309
LINKEDTABLEDATACELL_END
  1
FORMATTEDTABLEDATACELL_BEGIN
300
CELLTABLEFORMAT
  1
TABLEFORMAT_BEGIN
 90
        1
170
     1
 91
        0
 92
        0
 62
   257
 93
        1
300
CONTENTFORMAT
  1
CONTENTFORMAT_BEGIN
 90
        0
 91
        0
 92
      512
 93
        0
300

 40
0.0
140
1.0
 94
        1
 62
     0
340
0
144
0.18
309
CONTENTFORMAT_END
171
     0
 94
        0
309
TABLEFORMAT_END
309
FORMATTEDTABLEDATACELL_END
  1
TABLECELL_BEGIN
 90
        0
 91
        0
309
TABLECELL_END
300
CELL
  1
LINKEDTABLEDATACELL_BEGIN
 90
        0
300

 91
        0
301
CUSTOMDATA
  1
DATAMAP_BEGIN
 90
        0
309
DATAMAP_END
 92
        0
 95
        0
309
LINKEDTABLEDATACELL_END
  1
FORMATTEDTABLEDATACELL_BEGIN
300
CELLTABLEFORMAT
  1
TABLEFORMAT_BEGIN
 90
        1
170
     1
 91
        0
 92
        0
 62
   257
 93
        1
300
CONTENTFORMAT
  1
CONTENTFORMAT_BEGIN
 90
        0
 91
        0
 92
      512
 93
        0
300

 40
0.0
140
1.0
 94
        1
 62
     0
340
0
144
0.18
309
CONTENTFORMAT_END
171
     0
 94
        0
309
TABLEFORMAT_END
309
FORMATTEDTABLEDATACELL_END
  1
TABLECELL_BEGIN
 90
        0
 91
        0
309
TABLECELL_END
300
CELL
  1
LINKEDTABLEDATACELL_BEGIN
 90
        0
300

 91
        0
301
CUSTOMDATA
  1
DATAMAP_BEGIN
 90
        1
300
ACAD_ROUNDTRIP_2008_CELL_CHECKSUM
301
DATAMAP_VALUE
 93
        2
 90
        2
140
4720.0
 94
        0
300

302

304
ACVALUE_END
309
DATAMAP_END
 92
        0
 95
        1
302
CONTENT
  1
CELLCONTENT_BEGIN
 90
        1
300
VALUE
 93
        2
 90
        4
  1
DATE:12.05.20
 94
        0
300

302
DATE:12.05.20
304
ACVALUE_END
 91
        0
309
CELLCONTENT_END
  1
FORMATTEDCELLCONTENT_BEGIN
170
     1
300
CONTENTFORMAT
  1
CONTENTFORMAT_BEGIN
 90
      132
 91
        0
 92
      512
 93
        0
300

 40
0.0
140
1.0
 94
        1
 62
     0
340
0
144
2.5
309
CONTENTFORMAT_END
309
FORMATTEDCELLCONTENT_END
309
LINKEDTABLEDATACELL_END
  1
FORMATTEDTABLEDATACELL_BEGIN
300
CELLTABLEFORMAT
  1
TABLEFORMAT_BEGIN
 90
        1
170
     1
 91
       16
 92
        0
 62
   257
 93
        1
300
CONTENTFORMAT
  1
CONTENTFORMAT_BEGIN
 90
       16
 91
        0
 92
      512
 93
        0
300

 40
0.0
140
1.0
 94
        4
 62
     0
340
0
144
0.18
309
CONTENTFORMAT_END
171
     0
 94
        4
 95
        1
302
GRIDFORMAT
  1
GRIDFORMAT_BEGIN
 90
       26
 91
        1
 62
     0
 92
       -2
340
0
 93
        0
 40
0.045
309
GRIDFORMAT_END
 95
        4
302
GRIDFORMAT
  1
GRIDFORMAT_BEGIN
 90
       26
 91
        1
 62
     0
 92
       -2
340
0
 93
        0
 40
0.045
309
GRIDFORMAT_END
 95
        8
302
GRIDFORMAT
  1
GRIDFORMAT_BEGIN
 90
       26
 91
        1
 62
     0
 92
       -2
340
0
 93
        0
 40
0.045
309
GRIDFORMAT_END
 95
       32
302
GRIDFORMAT
  1
GRIDFORMAT_BEGIN
 90
       26
 91
        1
 62
     0
 92
       -2
340
0
 93
        0
 40
0.045
309
GRIDFORMAT_END
309
TABLEFORMAT_END
309
FORMATTEDTABLEDATACELL_END
  1
TABLECELL_BEGIN
 90
        0
 91
        0
309
TABLECELL_END
300
CELL
  1
LINKEDTABLEDATACELL_BEGIN
 90
        0
300

 91
        0
301
CUSTOMDATA
  1
DATAMAP_BEGIN
 90
        0
309
DATAMAP_END
 92
        0
 95
        0
309
LINKEDTABLEDATACELL_END
  1
FORMATTEDTABLEDATACELL_BEGIN
300
CELLTABLEFORMAT
  1
TABLEFORMAT_BEGIN
 90
        1
170
     1
 91
        0
 92
        0
 62
   257
 93
        1
300
CONTENTFORMAT
  1
CONTENTFORMAT_BEGIN
 90
        0
 91
        0
 92
      512
 93
        0
300

 40
0.0
140
1.0
 94
        1
 62
     0
340
0
144
0.18
309
CONTENTFORMAT_END
171
     0
 94
        0
309
TABLEFORMAT_END
309
FORMATTEDTABLEDATACELL_END
  1
TABLECELL_BEGIN
 90
        0
 91
        0
309
TABLECELL_END
 91
        0
301
CUSTOMDATA
  1
DATAMAP_BEGIN
 90
        0
309
DATAMAP_END
309
LINKEDTABLEDATAROW_END
  1
FORMATTEDTABLEDATAROW_BEGIN
300
ROWTABLEFORMAT
  1
TABLEFORMAT_BEGIN
 90
        2
170
     0
309
TABLEFORMAT_END
309
FORMATTEDTABLEDATAROW_END
  1
TABLEROW_BEGIN
 90
        3
 40
5.0
309
TABLEROW_END
301
ROW
  1
LINKEDTABLEDATAROW_BEGIN
 90
        5
300
CELL
  1
LINKEDTABLEDATACELL_BEGIN
 90
        0
300

 91
        0
301
CUSTOMDATA
  1
DATAMAP_BEGIN
 90
        1
300
ACAD_ROUNDTRIP_2008_CELL_CHECKSUM
301
DATAMAP_VALUE
 93
        2
 90
        2
140
1361482.0
 94
        0
300

302

304
ACVALUE_END
309
DATAMAP_END
 92
        0
 95
        1
302
CONTENT
  1
CELLCONTENT_BEGIN
 90
        1
300
VALUE
 93
        2
 90
        4
  1
Any integral or partial reproductions are prohibited \Pwithout prior authorisation of L & L Luce & Light s.r.l., \Pin accordance with the law in force. \PAll rights reserved.
 94
        0
300

302
Any integral or partial reproductions are prohibited \Pwithout prior authorisation of L & L Luce & Light s.r.l., \Pin accordance with the law in force. \PAll rights reserved.
304
ACVALUE_END
 91
        0
309
CELLCONTENT_END
  1
FORMATTEDCELLCONTENT_BEGIN
170
     1
300
CONTENTFORMAT
  1
CONTENTFORMAT_BEGIN
 90
      132
 91
        0
 92
      512
 93
        0
300

 40
0.0
140
1.0
 94
        1
 62
     0
340
0
144
2.25
309
CONTENTFORMAT_END
309
FORMATTEDCELLCONTENT_END
309
LINKEDTABLEDATACELL_END
  1
FORMATTEDTABLEDATACELL_BEGIN
300
CELLTABLEFORMAT
  1
TABLEFORMAT_BEGIN
 90
        1
170
     1
 91
       16
 92
        0
 62
   257
 93
        1
300
CONTENTFORMAT
  1
CONTENTFORMAT_BEGIN
 90
       16
 91
        0
 92
      512
 93
        0
300

 40
0.0
140
1.0
 94
        4
 62
     0
340
0
144
0.18
309
CONTENTFORMAT_END
171
     0
 94
        4
 95
        1
302
GRIDFORMAT
  1
GRIDFORMAT_BEGIN
 90
       26
 91
        1
 62
     0
 92
       -2
340
0
 93
        0
 40
0.045
309
GRIDFORMAT_END
 95
        4
302
GRIDFORMAT
  1
GRIDFORMAT_BEGIN
 90
       26
 91
        1
 62
     0
 92
       -2
340
0
 93
        0
 40
0.045
309
GRIDFORMAT_END
 95
        8
302
GRIDFORMAT
  1
GRIDFORMAT_BEGIN
 90
       26
 91
        1
 62
     0
 92
       -2
340
0
 93
        0
 40
0.045
309
GRIDFORMAT_END
 95
       32
302
GRIDFORMAT
  1
GRIDFORMAT_BEGIN
 90
       26
 91
        1
 62
     0
 92
       -2
340
0
 93
        0
 40
0.045
309
GRIDFORMAT_END
309
TABLEFORMAT_END
309
FORMATTEDTABLEDATACELL_END
  1
TABLECELL_BEGIN
 90
        0
 91
        0
309
TABLECELL_END
300
CELL
  1
LINKEDTABLEDATACELL_BEGIN
 90
        0
300

 91
        0
301
CUSTOMDATA
  1
DATAMAP_BEGIN
 90
        0
309
DATAMAP_END
 92
        0
 95
        0
309
LINKEDTABLEDATACELL_END
  1
FORMATTEDTABLEDATACELL_BEGIN
300
CELLTABLEFORMAT
  1
TABLEFORMAT_BEGIN
 90
        1
170
     1
 91
        0
 92
        0
 62
   257
 93
        1
300
CONTENTFORMAT
  1
CONTENTFORMAT_BEGIN
 90
        0
 91
        0
 92
      512
 93
        0
300

 40
0.0
140
1.0
 94
        1
 62
     0
340
0
144
0.18
309
CONTENTFORMAT_END
171
     0
 94
        0
309
TABLEFORMAT_END
309
FORMATTEDTABLEDATACELL_END
  1
TABLECELL_BEGIN
 90
        0
 91
        0
309
TABLECELL_END
300
CELL
  1
LINKEDTABLEDATACELL_BEGIN
 90
        0
300

 91
        0
301
CUSTOMDATA
  1
DATAMAP_BEGIN
 90
        0
309
DATAMAP_END
 92
        0
 95
        0
309
LINKEDTABLEDATACELL_END
  1
FORMATTEDTABLEDATACELL_BEGIN
300
CELLTABLEFORMAT
  1
TABLEFORMAT_BEGIN
 90
        1
170
     1
 91
        0
 92
        0
 62
   257
 93
        1
300
CONTENTFORMAT
  1
CONTENTFORMAT_BEGIN
 90
        0
 91
        0
 92
      512
 93
        0
300

 40
0.0
140
1.0
 94
        1
 62
     0
340
0
144
0.18
309
CONTENTFORMAT_END
171
     0
 94
        0
309
TABLEFORMAT_END
309
FORMATTEDTABLEDATACELL_END
  1
TABLECELL_BEGIN
 90
        0
 91
        0
309
TABLECELL_END
300
CELL
  1
LINKEDTABLEDATACELL_BEGIN
 90
        0
300

 91
        0
301
CUSTOMDATA
  1
DATAMAP_BEGIN
 90
        0
309
DATAMAP_END
 92
        0
 95
        0
309
LINKEDTABLEDATACELL_END
  1
FORMATTEDTABLEDATACELL_BEGIN
300
CELLTABLEFORMAT
  1
TABLEFORMAT_BEGIN
 90
        1
170
     1
 91
        0
 92
        0
 62
   257
 93
        1
300
CONTENTFORMAT
  1
CONTENTFORMAT_BEGIN
 90
        0
 91
        0
 92
      512
 93
        0
300

 40
0.0
140
1.0
 94
        1
 62
     0
340
0
144
0.18
309
CONTENTFORMAT_END
171
     0
 94
        0
309
TABLEFORMAT_END
309
FORMATTEDTABLEDATACELL_END
  1
TABLECELL_BEGIN
 90
        0
 91
        0
309
TABLECELL_END
300
CELL
  1
LINKEDTABLEDATACELL_BEGIN
 90
        0
300

 91
        0
301
CUSTOMDATA
  1
DATAMAP_BEGIN
 90
        0
309
DATAMAP_END
 92
        0
 95
        0
309
LINKEDTABLEDATACELL_END
  1
FORMATTEDTABLEDATACELL_BEGIN
300
CELLTABLEFORMAT
  1
TABLEFORMAT_BEGIN
 90
        1
170
     1
 91
        0
 92
        0
 62
   257
 93
        1
300
CONTENTFORMAT
  1
CONTENTFORMAT_BEGIN
 90
        0
 91
        0
 92
      512
 93
        0
300

 40
0.0
140
1.0
 94
        1
 62
     0
340
0
144
0.18
309
CONTENTFORMAT_END
171
     0
 94
        0
309
TABLEFORMAT_END
309
FORMATTEDTABLEDATACELL_END
  1
TABLECELL_BEGIN
 90
        0
 91
        0
309
TABLECELL_END
 91
        0
301
CUSTOMDATA
  1
DATAMAP_BEGIN
 90
        0
309
DATAMAP_END
309
LINKEDTABLEDATAROW_END
  1
FORMATTEDTABLEDATAROW_BEGIN
300
ROWTABLEFORMAT
  1
TABLEFORMAT_BEGIN
 90
        2
170
     0
309
TABLEFORMAT_END
309
FORMATTEDTABLEDATAROW_END
  1
TABLEROW_BEGIN
 90
        3
 40
13.0
309
TABLEROW_END
100
AcDbFormattedTableData
300
TABLEFORMAT
  1
TABLEFORMAT_BEGIN
 90
        4
170
     1
 91
    15360
 92
        0
 62
   257
 93
        1
300
CONTENTFORMAT
  1
CONTENTFORMAT_BEGIN
 90
        0
 91
        0
 92
      512
 93
        0
300

 40
0.0
140
1.0
 94
        1
 62
     0
340
0
144
0.18
309
CONTENTFORMAT_END
171
     1
301
MARGIN
  1
CELLMARGIN_BEGIN
 40
0.06
 40
0.06
 40
0.06
 40
0.06
 40
0.06
 40
0.06
309
CELLMARGIN_END
 94
        0
309
TABLEFORMAT_END
 90
        4
 91
        0
 92
        0
 93
        3
 94
        2
 91
        2
 92
        3
 93
        2
 94
        4
 91
        3
 92
        3
 93
        3
 94
        4
 91
        4
 92
        0
 93
        4
 94
        4
100
AcDbTableContent
340
48B
  0
TABLEGEOMETRY
  5
4B8
330
4BA
100
AcDbTableGeometry
 90
        5
 91
        5
 92
       25
 93
        0
 40
0.0
 41
0.0
330
0
 94
        0
 93
        0
 40
0.0
 41
0.0
330
0
 94
        0
 93
        0
 40
0.0
 41
0.0
330
0
 94
        0
 93
        0
 40
0.0
 41
0.0
330
0
 94
        0
 93
        0
 40
0.0
 41
0.0
330
0
 94
        0
 93
        0
 40
0.0
 41
0.0
330
0
 94
        0
 93
        0
 40
0.0
 41
0.0
330
0
 94
        0
 93
        0
 40
0.0
 41
0.0
330
0
 94
        0
 93
        0
 40
0.0
 41
0.0
330
0
 94
        0
 93
        0
 40
0.0
 41
0.0
330
0
 94
        0
 93
        0
 40
0.0
 41
0.0
330
0
 94
        0
 93
        0
 40
0.0
 41
0.0
330
0
 94
        0
 93
        0
 40
0.0
 41
0.0
330
0
 94
        0
 93
        0
 40
0.0
 41
0.0
330
0
 94
        0
 93
        0
 40
0.0
 41
0.0
330
0
 94
        0
 93
        0
 40
0.0
 41
0.0
330
0
 94
        0
 93
        0
 40
0.0
 41
0.0
330
0
 94
        0
 93
        0
 40
0.0
 41
0.0
330
0
 94
        0
 93
        0
 40
0.0
 41
0.0
330
0
 94
        0
 93
        0
 40
0.0
 41
0.0
330
0
 94
        0
 93
        0
 40
0.0
 41
0.0
330
0
 94
        0
 93
        0
 40
0.0
 41
0.0
330
0
 94
        0
 93
        0
 40
0.0
 41
0.0
330
0
 94
        0
 93
        0
 40
0.0
 41
0.0
330
0
 94
        0
 93
        0
 40
0.0
 41
0.0
330
0
 94
        0
  0
DICTIONARY
  5
4BD
330
48B
100
AcDbDictionary
280
     1
281
     1
  3
ACAD_ROUNDTRIP_2008_TABLESTYLE_CELLSTYLEMAP
360
4BE
  0
CELLSTYLEMAP
  5
4BE
102
{ACAD_REACTORS
330
4BD
102
}
330
4BD
100
AcDbCellStyleMap
 90
        3
300
CELLSTYLE
  1
TABLEFORMAT_BEGIN
 90
        5
170
     1
 91
        0
 92
        0
 62
   257
 93
        1
300
CONTENTFORMAT
  1
CONTENTFORMAT_BEGIN
 90
        0
 91
        0
 92
        4
 93
        0
300

 40
0.0
140
1.0
 94
        5
 62
     0
340
11
144
6.0
309
CONTENTFORMAT_END
171
     1
301
MARGIN
  1
CELLMARGIN_BEGIN
 40
1.5
 40
1.5
 40
1.5
 40
1.5
 40
1.5
 40
1.5
309
CELLMARGIN_END
 94
        6
 95
        1
302
GRIDFORMAT
  1
GRIDFORMAT_BEGIN
 90
        0
 91
        1
 62
     0
 92
       -2
340
14
 93
        0
 40
0.045
309
GRIDFORMAT_END
 95
        2
302
GRIDFORMAT
  1
GRIDFORMAT_BEGIN
 90
        0
 91
        1
 62
     0
 92
       -2
340
14
 93
        0
 40
0.045
309
GRIDFORMAT_END
 95
        4
302
GRIDFORMAT
  1
GRIDFORMAT_BEGIN
 90
        0
 91
        1
 62
     0
 92
       -2
340
14
 93
        0
 40
0.045
309
GRIDFORMAT_END
 95
        8
302
GRIDFORMAT
  1
GRIDFORMAT_BEGIN
 90
        0
 91
        1
 62
     0
 92
       -2
340
14
 93
        0
 40
0.045
309
GRIDFORMAT_END
 95
       16
302
GRIDFORMAT
  1
GRIDFORMAT_BEGIN
 90
        0
 91
        1
 62
     0
 92
       -2
340
14
 93
        0
 40
0.045
309
GRIDFORMAT_END
 95
       32
302
GRIDFORMAT
  1
GRIDFORMAT_BEGIN
 90
        0
 91
        1
 62
     0
 92
       -2
340
14
 93
        0
 40
0.045
309
GRIDFORMAT_END
309
TABLEFORMAT_END
  1
CELLSTYLE_BEGIN
 90
        1
 91
        1
300
_TITLE
309
CELLSTYLE_END
300
CELLSTYLE
  1
TABLEFORMAT_BEGIN
 90
        5
170
     1
 91
        0
 92
        0
 62
   257
 93
        1
300
CONTENTFORMAT
  1
CONTENTFORMAT_BEGIN
 90
        0
 91
        0
 92
        4
 93
        0
300

 40
0.0
140
1.0
 94
        5
 62
     0
340
11
144
4.5
309
CONTENTFORMAT_END
171
     1
301
MARGIN
  1
CELLMARGIN_BEGIN
 40
1.5
 40
1.5
 40
1.5
 40
1.5
 40
1.5
 40
1.5
309
CELLMARGIN_END
 94
        6
 95
        1
302
GRIDFORMAT
  1
GRIDFORMAT_BEGIN
 90
        0
 91
        1
 62
     0
 92
       -2
340
14
 93
        0
 40
0.045
309
GRIDFORMAT_END
 95
        2
302
GRIDFORMAT
  1
GRIDFORMAT_BEGIN
 90
        0
 91
        1
 62
     0
 92
       -2
340
14
 93
        0
 40
0.045
309
GRIDFORMAT_END
 95
        4
302
GRIDFORMAT
  1
GRIDFORMAT_BEGIN
 90
        0
 91
        1
 62
     0
 92
       -2
340
14
 93
        0
 40
0.045
309
GRIDFORMAT_END
 95
        8
302
GRIDFORMAT
  1
GRIDFORMAT_BEGIN
 90
        0
 91
        1
 62
     0
 92
       -2
340
14
 93
        0
 40
0.045
309
GRIDFORMAT_END
 95
       16
302
GRIDFORMAT
  1
GRIDFORMAT_BEGIN
 90
        0
 91
        1
 62
     0
 92
       -2
340
14
 93
        0
 40
0.045
309
GRIDFORMAT_END
 95
       32
302
GRIDFORMAT
  1
GRIDFORMAT_BEGIN
 90
        0
 91
        1
 62
     0
 92
       -2
340
14
 93
        0
 40
0.045
309
GRIDFORMAT_END
309
TABLEFORMAT_END
  1
CELLSTYLE_BEGIN
 90
        2
 91
        1
300
_HEADER
309
CELLSTYLE_END
300
CELLSTYLE
  1
TABLEFORMAT_BEGIN
 90
        5
170
     1
 91
        0
 92
        0
 62
   257
 93
        1
300
CONTENTFORMAT
  1
CONTENTFORMAT_BEGIN
 90
        0
 91
        0
 92
        4
 93
        0
300

 40
0.0
140
1.0
 94
        2
 62
     0
340
11
144
4.5
309
CONTENTFORMAT_END
171
     1
301
MARGIN
  1
CELLMARGIN_BEGIN
 40
1.5
 40
1.5
 40
1.5
 40
1.5
 40
1.5
 40
1.5
309
CELLMARGIN_END
 94
        6
 95
        1
302
GRIDFORMAT
  1
GRIDFORMAT_BEGIN
 90
        0
 91
        1
 62
     0
 92
       -2
340
14
 93
        0
 40
0.045
309
GRIDFORMAT_END
 95
        2
302
GRIDFORMAT
  1
GRIDFORMAT_BEGIN
 90
        0
 91
        1
 62
     0
 92
       -2
340
14
 93
        0
 40
0.045
309
GRIDFORMAT_END
 95
        4
302
GRIDFORMAT
  1
GRIDFORMAT_BEGIN
 90
        0
 91
        1
 62
     0
 92
       -2
340
14
 93
        0
 40
0.045
309
GRIDFORMAT_END
 95
        8
302
GRIDFORMAT
  1
GRIDFORMAT_BEGIN
 90
        0
 91
        1
 62
     0
 92
       -2
340
14
 93
        0
 40
0.045
309
GRIDFORMAT_END
 95
       16
302
GRIDFORMAT
  1
GRIDFORMAT_BEGIN
 90
        0
 91
        1
 62
     0
 92
       -2
340
14
 93
        0
 40
0.045
309
GRIDFORMAT_END
 95
       32
302
GRIDFORMAT
  1
GRIDFORMAT_BEGIN
 90
        0
 91
        1
 62
     0
 92
       -2
340
14
 93
        0
 40
0.045
309
GRIDFORMAT_END
309
TABLEFORMAT_END
  1
CELLSTYLE_BEGIN
 90
        3
 91
        2
300
_DATA
309
CELLSTYLE_END
  0
ENDSEC
  0
EOF
